  0
SECTION
  2
HEADER
  9
$ACADVER
  1
AC1015
  9
$ACADMAINTVER
 70
    20
  9
$DWGCODEPAGE
  3
ANSI_1252
  9
$INSBASE
 10
0.0
 20
0.0
 30
0.0
  9
$EXTMIN
 10
-50.16934029731124
 20
-45.31600837516123
 30
-0.0015258207003583
  9
$EXTMAX
 10
87.23956408984895
 20
64.12612992353524
 30
0.0000000349246037
  9
$LIMMIN
 10
-170.0
 20
-170.0
  9
$LIMMAX
 10
519.0
 20
260.0
  9
$ORTHOMODE
 70
     0
  9
$REGENMODE
 70
     1
  9
$FILLMODE
 70
     1
  9
$QTEXTMODE
 70
     0
  9
$MIRRTEXT
 70
     0
  9
$LTSCALE
 40
1.0
  9
$ATTMODE
 70
     1
  9
$TEXTSIZE
 40
3.5
  9
$TRACEWID
 40
1.0
  9
$TEXTSTYLE
  7
SIMPLEX
  9
$CLAYER
  8
1
  9
$CELTYPE
  6
BYLAYER
  9
$CECOLOR
 62
   256
  9
$CELTSCALE
 40
1.0
  9
$DISPSILH
 70
     0
  9
$DIMSCALE
 40
1.0
  9
$DIMASZ
 40
2.5
  9
$DIMEXO
 40
0.0
  9
$DIMDLI
 40
3.75
  9
$DIMRND
 40
0.0
  9
$DIMDLE
 40
0.0
  9
$DIMEXE
 40
1.25
  9
$DIMTP
 40
0.0
  9
$DIMTM
 40
0.0
  9
$DIMTXT
 40
3.5
  9
$DIMCEN
 40
0.0
  9
$DIMTSZ
 40
0.0
  9
$DIMTOL
 70
     0
  9
$DIMLIM
 70
     0
  9
$DIMTIH
 70
     0
  9
$DIMTOH
 70
     0
  9
$DIMSE1
 70
     0
  9
$DIMSE2
 70
     0
  9
$DIMTAD
 70
     1
  9
$DIMZIN
 70
     8
  9
$DIMBLK
  1

  9
$DIMASO
 70
     1
  9
$DIMSHO
 70
     1
  9
$DIMPOST
  1

  9
$DIMAPOST
  1

  9
$DIMALT
 70
     0
  9
$DIMALTD
 70
     3
  9
$DIMALTF
 40
0.039370078
  9
$DIMLFAC
 40
1.0
  9
$DIMTOFL
 70
     0
  9
$DIMTVP
 40
0.0
  9
$DIMTIX
 70
     0
  9
$DIMSOXD
 70
     0
  9
$DIMSAH
 70
     0
  9
$DIMBLK1
  1

  9
$DIMBLK2
  1

  9
$DIMSTYLE
  2
STANDARD
  9
$DIMCLRD
 70
     0
  9
$DIMCLRE
 70
     0
  9
$DIMCLRT
 70
     0
  9
$DIMTFAC
 40
1.0
  9
$DIMGAP
 40
0.625
  9
$DIMJUST
 70
     0
  9
$DIMSD1
 70
     0
  9
$DIMSD2
 70
     0
  9
$DIMTOLJ
 70
     0
  9
$DIMTZIN
 70
     8
  9
$DIMALTZ
 70
     0
  9
$DIMALTTZ
 70
     0
  9
$DIMUPT
 70
     0
  9
$DIMDEC
 70
     2
  9
$DIMTDEC
 70
     2
  9
$DIMALTU
 70
     2
  9
$DIMALTTD
 70
     3
  9
$DIMTXSTY
  7
SIMPLEX
  9
$DIMAUNIT
 70
     0
  9
$DIMADEC
 70
     2
  9
$DIMALTRND
 40
0.0
  9
$DIMAZIN
 70
     2
  9
$DIMDSEP
 70
    46
  9
$DIMATFIT
 70
     3
  9
$DIMFRAC
 70
     0
  9
$DIMLDRBLK
  1

  9
$DIMLUNIT
 70
     2
  9
$DIMLWD
 70
    -2
  9
$DIMLWE
 70
    -2
  9
$DIMTMOVE
 70
     0
  9
$LUNITS
 70
     2
  9
$LUPREC
 70
     4
  9
$SKETCHINC
 40
1.0
  9
$FILLETRAD
 40
0.0
  9
$AUNITS
 70
     0
  9
$AUPREC
 70
     0
  9
$MENU
  1
c:\tdm21\cad\caduti13\tdm13
  9
$ELEVATION
 40
0.0
  9
$PELEVATION
 40
0.0
  9
$THICKNESS
 40
0.0
  9
$LIMCHECK
 70
     0
  9
$CHAMFERA
 40
0.0
  9
$CHAMFERB
 40
0.0
  9
$CHAMFERC
 40
0.0
  9
$CHAMFERD
 40
0.0
  9
$SKPOLY
 70
     0
  9
$TDCREATE
 40
2454673.366802488
  9
$TDUCREATE
 40
2454673.283469155
  9
$TDUPDATE
 40
2454673.368587778
  9
$TDUUPDATE
 40
2454673.285254445
  9
$TDINDWG
 40
0.0017861921
  9
$TDUSRTIMER
 40
0.0017861921
  9
$USRTIMER
 70
     1
  9
$ANGBASE
 50
0.0
  9
$ANGDIR
 70
     0
  9
$PDMODE
 70
     1
  9
$PDSIZE
 40
0.0
  9
$PLINEWID
 40
0.0
  9
$SPLFRAME
 70
     0
  9
$SPLINETYPE
 70
     6
  9
$SPLINESEGS
 70
     8
  9
$HANDSEED
  5
750
  9
$SURFTAB1
 70
     6
  9
$SURFTAB2
 70
     6
  9
$SURFTYPE
 70
     6
  9
$SURFU
 70
     6
  9
$SURFV
 70
     6
  9
$UCSBASE
  2

  9
$UCSNAME
  2

  9
$UCSORG
 10
0.0
 20
0.0
 30
0.0
  9
$UCSXDIR
 10
1.0
 20
0.0
 30
0.0
  9
$UCSYDIR
 10
0.0
 20
1.0
 30
0.0
  9
$UCSORTHOREF
  2

  9
$UCSORTHOVIEW
 70
     0
  9
$UCSORGTOP
 10
0.0
 20
0.0
 30
0.0
  9
$UCSORGBOTTOM
 10
0.0
 20
0.0
 30
0.0
  9
$UCSORGLEFT
 10
0.0
 20
0.0
 30
0.0
  9
$UCSORGRIGHT
 10
0.0
 20
0.0
 30
0.0
  9
$UCSORGFRONT
 10
0.0
 20
0.0
 30
0.0
  9
$UCSORGBACK
 10
0.0
 20
0.0
 30
0.0
  9
$PUCSBASE
  2

  9
$PUCSNAME
  2

  9
$PUCSORG
 10
0.0
 20
0.0
 30
0.0
  9
$PUCSXDIR
 10
1.0
 20
0.0
 30
0.0
  9
$PUCSYDIR
 10
0.0
 20
1.0
 30
0.0
  9
$PUCSORTHOREF
  2

  9
$PUCSORTHOVIEW
 70
     0
  9
$PUCSORGTOP
 10
0.0
 20
0.0
 30
0.0
  9
$PUCSORGBOTTOM
 10
0.0
 20
0.0
 30
0.0
  9
$PUCSORGLEFT
 10
0.0
 20
0.0
 30
0.0
  9
$PUCSORGRIGHT
 10
0.0
 20
0.0
 30
0.0
  9
$PUCSORGFRONT
 10
0.0
 20
0.0
 30
0.0
  9
$PUCSORGBACK
 10
0.0
 20
0.0
 30
0.0
  9
$USERI1
 70
     0
  9
$USERI2
 70
     0
  9
$USERI3
 70
     0
  9
$USERI4
 70
     0
  9
$USERI5
 70
     0
  9
$USERR1
 40
0.0
  9
$USERR2
 40
0.0
  9
$USERR3
 40
0.0
  9
$USERR4
 40
0.0
  9
$USERR5
 40
0.0
  9
$WORLDVIEW
 70
     1
  9
$SHADEDGE
 70
     3
  9
$SHADEDIF
 70
    70
  9
$TILEMODE
 70
     1
  9
$MAXACTVP
 70
    64
  9
$PINSBASE
 10
0.0
 20
0.0
 30
0.0
  9
$PLIMCHECK
 70
     0
  9
$PEXTMIN
 10
0.0
 20
0.0
 30
0.0
  9
$PEXTMAX
 10
0.0
 20
0.0
 30
0.0
  9
$PLIMMIN
 10
0.0
 20
0.0
  9
$PLIMMAX
 10
12.0
 20
9.0
  9
$UNITMODE
 70
     0
  9
$VISRETAIN
 70
     0
  9
$PLINEGEN
 70
     0
  9
$PSLTSCALE
 70
     1
  9
$TREEDEPTH
 70
  3020
  9
$CMLSTYLE
  2
STANDARD
  9
$CMLJUST
 70
     0
  9
$CMLSCALE
 40
20.0
  9
$PROXYGRAPHICS
 70
     1
  9
$MEASUREMENT
 70
     1
  9
$CELWEIGHT
370
    -1
  9
$ENDCAPS
280
     0
  9
$JOINSTYLE
280
     0
  9
$LWDISPLAY
290
     0
  9
$INSUNITS
 70
     4
  9
$HYPERLINKBASE
  1

  9
$STYLESHEET
  1
monochrome.ctb
  9
$XEDIT
290
     1
  9
$CEPSNTYPE
380
     0
  9
$PSTYLEMODE
290
     1
  9
$FINGERPRINTGUID
  2
{6571574C-B1BC-4D02-A2A2-C889DAB12F6B}
  9
$VERSIONGUID
  2
{00CA9901-7DB4-46AB-99E4-E7D8A5B0B946}
  9
$EXTNAMES
290
     1
  9
$PSVPSCALE
 40
0.0
  9
$OLESTARTUP
290
     0
  0
ENDSEC
  0
SECTION
  2
CLASSES
  0
CLASS
  1
ACDBDICTIONARYWDFLT
  2
AcDbDictionaryWithDefault
  3
ObjectDBX Classes
 90
        0
280
     0
281
     0
  0
CLASS
  1
ACDBPLACEHOLDER
  2
AcDbPlaceHolder
  3
ObjectDBX Classes
 90
        0
280
     0
281
     0
  0
CLASS
  1
LAYOUT
  2
AcDbLayout
  3
ObjectDBX Classes
 90
        0
280
     0
281
     0
  0
CLASS
  1
DICTIONARYVAR
  2
AcDbDictionaryVar
  3
ObjectDBX Classes
 90
        0
280
     0
281
     0
  0
CLASS
  1
TABLESTYLE
  2
AcDbTableStyle
  3
ObjectDBX Classes
 90
     4095
280
     0
281
     0
  0
CLASS
  1
MATERIAL
  2
AcDbMaterial
  3
ObjectDBX Classes
 90
     1024
280
     0
281
     0
  0
CLASS
  1
VISUALSTYLE
  2
AcDbVisualStyle
  3
ObjectDBX Classes
 90
     4095
280
     0
281
     0
  0
ENDSEC
  0
SECTION
  2
TABLES
  0
TABLE
  2
VPORT
  5
8
330
0
100
AcDbSymbolTable
 70
     1
  0
VPORT
  5
3ED
330
8
100
AcDbSymbolTableRecord
100
AcDbViewportTableRecord
  2
*Active
 70
     0
 10
0.0
 20
0.0
 11
1.0
 21
1.0
 12
18.53511189626886
 22
9.405060774187013
 13
0.0
 23
0.0
 14
5.0
 24
5.0
 15
5.0
 25
5.0
 16
0.0
 26
0.0
 36
1.0
 17
0.0
 27
0.0
 37
0.0
 40
118.3756774427035
 41
1.192207792207792
 42
50.0
 43
0.0
 44
0.0
 50
0.0
 51
0.0
 71
     0
 72
  2000
 73
     1
 74
     1
 75
     0
 76
     0
 77
     0
 78
     0
281
     0
 65
     1
110
0.0
120
0.0
130
0.0
111
1.0
121
0.0
131
0.0
112
0.0
122
1.0
132
0.0
 79
     0
146
0.0
  0
ENDTAB
  0
TABLE
  2
LTYPE
  5
5
330
0
100
AcDbSymbolTable
 70
    56
  0
LTYPE
  5
12
330
5
100
AcDbSymbolTableRecord
100
AcDbLinetypeTableRecord
  2
BYBLOCK
 70
     0
  3

 72
    65
 73
     0
 40
0.0
  0
LTYPE
  5
13
330
5
100
AcDbSymbolTableRecord
100
AcDbLinetypeTableRecord
  2
BYLAYER
 70
     0
  3

 72
    65
 73
     0
 40
0.0
  0
LTYPE
  5
14
330
5
100
AcDbSymbolTableRecord
100
AcDbLinetypeTableRecord
  2
CONTINUOUS
 70
     0
  3
Solid line
 72
    65
 73
     0
 40
0.0
  0
LTYPE
  5
20
330
5
100
AcDbSymbolTableRecord
100
AcDbLinetypeTableRecord
  2
HIDDEN
 70
     0
  3
Hidden __ __ __ __ __ __ __ __ __ __ __ __ __ _
 72
    65
 73
     2
 40
9.524999999999998
 49
6.349999999999999
 74
     0
 49
-3.174999999999999
 74
     0
  0
LTYPE
  5
351
330
5
100
AcDbSymbolTableRecord
100
AcDbLinetypeTableRecord
  2
CENTER
 70
     0
  3
Dash dot __ . __ . __ . __ . __ . __ . __ . __
 72
    65
 73
     4
 40
25.4
 49
12.7
 74
     0
 49
-6.349999999999999
 74
     0
 49
0.0
 74
     0
 49
-6.349999999999999
 74
     0
  0
ENDTAB
  0
TABLE
  2
LAYER
  5
2
102
{ACAD_XDICTIONARY
360
43C
102
}
330
0
100
AcDbSymbolTable
 70
    27
  0
LAYER
  5
F
330
2
100
AcDbSymbolTableRecord
100
AcDbLayerTableRecord
  2
0
 70
     0
 62
     7
  6
CONTINUOUS
370
    -3
390
300
  0
LAYER
  5
23
330
2
100
AcDbSymbolTableRecord
100
AcDbLayerTableRecord
  2
1
 70
     0
 62
     4
  6
CONTINUOUS
370
    -3
390
300
  0
LAYER
  5
24
330
2
100
AcDbSymbolTableRecord
100
AcDbLayerTableRecord
  2
SK1
 70
     0
 62
     4
  6
CONTINUOUS
370
    -3
390
300
  0
LAYER
  5
25
330
2
100
AcDbSymbolTableRecord
100
AcDbLayerTableRecord
  2
2
 70
     0
 62
     7
  6
CONTINUOUS
370
    -3
390
300
  0
LAYER
  5
27
330
2
100
AcDbSymbolTableRecord
100
AcDbLayerTableRecord
  2
SK2
 70
     0
 62
     7
  6
CONTINUOUS
370
    -3
390
300
  0
LAYER
  5
28
330
2
100
AcDbSymbolTableRecord
100
AcDbLayerTableRecord
  2
3
 70
     0
 62
     1
  6
HIDDEN
370
    -3
390
300
  0
LAYER
  5
29
330
2
100
AcDbSymbolTableRecord
100
AcDbLayerTableRecord
  2
SK3
 70
     0
 62
     1
  6
HIDDEN
370
    -3
390
300
  0
LAYER
  5
2A
330
2
100
AcDbSymbolTableRecord
100
AcDbLayerTableRecord
  2
4
 70
     0
 62
     2
  6
CENTER
370
    -3
390
300
  0
LAYER
  5
2B
330
2
100
AcDbSymbolTableRecord
100
AcDbLayerTableRecord
  2
SK4
 70
     0
 62
     2
  6
CENTER
370
    -3
390
300
  0
LAYER
  5
2E
330
2
100
AcDbSymbolTableRecord
100
AcDbLayerTableRecord
  2
SK6
 70
     0
 62
     5
  6
CONTINUOUS
370
    -3
390
300
  0
LAYER
  5
2F
330
2
100
AcDbSymbolTableRecord
100
AcDbLayerTableRecord
  2
DEFPOINTS
 70
     0
 62
     7
  6
CONTINUOUS
290
     0
370
    -3
390
300
  0
ENDTAB
  0
TABLE
  2
STYLE
  5
3
330
0
100
AcDbSymbolTable
 70
    11
  0
STYLE
  5
10
330
3
100
AcDbSymbolTableRecord
100
AcDbTextStyleTableRecord
  2
STANDARD
 70
     0
 40
0.0
 41
1.0
 50
0.0
 71
     0
 42
5.0
  3
txt
  4

  0
STYLE
  5
1E
330
3
100
AcDbSymbolTableRecord
100
AcDbTextStyleTableRecord
  2
SIMPLEX
 70
     0
 40
3.5
 41
1.0
 50
0.0
 71
     0
 42
3.5
  3
simplex.shx
  4

  0
ENDTAB
  0
TABLE
  2
VIEW
  5
6
330
0
100
AcDbSymbolTable
 70
     0
  0
ENDTAB
  0
TABLE
  2
UCS
  5
7
330
0
100
AcDbSymbolTable
 70
     0
  0
ENDTAB
  0
TABLE
  2
APPID
  5
9
330
0
100
AcDbSymbolTable
 70
     5
  0
APPID
  5
11
330
9
100
AcDbSymbolTableRecord
100
AcDbRegAppTableRecord
  2
ACAD
 70
     0
  0
APPID
  5
3A6
330
9
100
AcDbSymbolTableRecord
100
AcDbRegAppTableRecord
  2
ACAD_PSEXT
 70
     0
  0
APPID
  5
3A8
330
9
100
AcDbSymbolTableRecord
100
AcDbRegAppTableRecord
  2
ACAD_EXEMPT_FROM_CAD_STANDARDS
 70
     0
  0
APPID
  5
433
330
9
100
AcDbSymbolTableRecord
100
AcDbRegAppTableRecord
  2
AcAecLayerStandard
 70
     0
  0
APPID
  5
485
330
9
100
AcDbSymbolTableRecord
100
AcDbRegAppTableRecord
  2
DCO15
 70
     0
  0
ENDTAB
  0
TABLE
  2
DIMSTYLE
  5
A
330
0
100
AcDbSymbolTable
 70
     2
100
AcDbDimStyleTable
 71
     1
340
3F
  0
DIMSTYLE
105
3F
102
{ACAD_REACTORS
330
5BE
330
5BD
330
5BC
330
5BB
102
}
330
A
100
AcDbSymbolTableRecord
100
AcDbDimStyleTableRecord
  2
STANDARD
 70
     0
 41
2.5
 42
0.0
 43
3.75
 44
1.25
 73
     0
 74
     0
 77
     1
 78
     8
 79
     2
140
3.5
141
0.0
143
0.039370078
147
0.625
171
     3
179
     2
271
     2
272
     2
274
     3
283
     0
284
     8
340
1E
  0
ENDTAB
  0
TABLE
  2
BLOCK_RECORD
  5
1
330
0
100
AcDbSymbolTable
 70
    11
  0
BLOCK_RECORD
  5
18
330
1
100
AcDbSymbolTableRecord
100
AcDbBlockTableRecord
  2
*MODEL_SPACE
340
303
  0
BLOCK_RECORD
  5
338
330
1
100
AcDbSymbolTableRecord
100
AcDbBlockTableRecord
  2
*Paper_Space
340
33B
  0
BLOCK_RECORD
  5
5C1
330
1
100
AcDbSymbolTableRecord
100
AcDbBlockTableRecord
  2
*D5
340
0
  0
BLOCK_RECORD
  5
5CD
330
1
100
AcDbSymbolTableRecord
100
AcDbBlockTableRecord
  2
*D6
340
0
  0
BLOCK_RECORD
  5
5D9
330
1
100
AcDbSymbolTableRecord
100
AcDbBlockTableRecord
  2
*D7
340
0
  0
BLOCK_RECORD
  5
5E5
330
1
100
AcDbSymbolTableRecord
100
AcDbBlockTableRecord
  2
*D8
340
0
  0
ENDTAB
  0
ENDSEC
  0
SECTION
  2
BLOCKS
  0
BLOCK
  5
32
330
18
100
AcDbEntity
  8
0
100
AcDbBlockBegin
  2
*MODEL_SPACE
 70
     0
 10
0.0
 20
0.0
 30
0.0
  3
*MODEL_SPACE
  1

  0
ENDBLK
  5
33
330
18
100
AcDbEntity
  8
0
100
AcDbBlockEnd
  0
BLOCK
  5
339
330
338
100
AcDbEntity
 67
     1
  8
0
100
AcDbBlockBegin
  2
*Paper_Space
 70
     0
 10
0.0
 20
0.0
 30
0.0
  3
*Paper_Space
  1

  0
ENDBLK
  5
33A
330
338
100
AcDbEntity
 67
     1
  8
0
100
AcDbBlockEnd
  0
BLOCK
  5
5CB
330
5C1
100
AcDbEntity
  8
0
100
AcDbBlockBegin
  2
*D5
 70
     1
 10
0.0
 20
0.0
 30
0.0
  3
*D5
  1

  0
LINE
  5
6FF
330
5C1
100
AcDbEntity
  8
2
 62
     0
370
    -2
100
AcDbLine
 10
71.99999999999999
 20
-32.5
 30
0.0
 11
87.20958446634229
 21
-32.50000000000001
 31
0.0
  0
LINE
  5
700
330
5C1
100
AcDbEntity
  8
2
 62
     0
370
    -2
100
AcDbLine
 10
71.99999999999999
 20
32.5
 30
0.0
 11
87.20958446634233
 21
32.5
 31
0.0
  0
LINE
  5
701
330
5C1
100
AcDbEntity
  8
2
 62
     0
370
    -2
100
AcDbLine
 10
85.95958446634231
 20
-30.0
 30
0.0
 11
85.95958446634231
 21
30.0
 31
0.0
  0
SOLID
  5
702
330
5C1
100
AcDbEntity
  8
2
 62
     0
100
AcDbTrace
 10
85.54291779967563
 20
-30.0
 30
0.0
 11
86.37625113300897
 21
-30.0
 31
0.0
 12
85.95958446634229
 22
-32.50000000000001
 32
0.0
 13
85.95958446634229
 23
-32.50000000000001
 33
0.0
  0
SOLID
  5
703
330
5C1
100
AcDbEntity
  8
2
 62
     0
100
AcDbTrace
 10
85.54291779967563
 20
30.0
 30
0.0
 11
86.37625113300897
 21
30.0
 31
0.0
 12
85.95958446634233
 22
32.5
 32
0.0
 13
85.95958446634233
 23
32.5
 33
0.0
  0
MTEXT
  5
704
330
5C1
100
AcDbEntity
  8
2
 62
     0
100
AcDbMText
 10
83.5845844663423
 20
0.0000000000000092
 30
0.0
 40
3.5
 41
0.0
 71
     5
 72
     1
  1
%%c65
  7
SIMPLEX
 11
0.0000000000000001
 21
1.0
 31
0.0
 73
     1
 44
1.0
1001
ACAD
1000
MTEXTBEGIN
1070
    73
1070
     1
1070
    44
1040
1.0
1070
    74
1070
     0
1000
MTEXTEND
  0
POINT
  5
705
330
5C1
100
AcDbEntity
  8
DEFPOINTS
 62
     0
100
AcDbPoint
 10
71.99999999999999
 20
-32.5
 30
0.0
  0
POINT
  5
706
330
5C1
100
AcDbEntity
  8
DEFPOINTS
 62
     0
100
AcDbPoint
 10
71.99999999999999
 20
32.5
 30
0.0
  0
POINT
  5
707
330
5C1
100
AcDbEntity
  8
DEFPOINTS
 62
     0
100
AcDbPoint
 10
85.95958446634233
 20
32.5
 30
0.0
  0
ENDBLK
  5
5CC
330
5C1
100
AcDbEntity
  8
0
100
AcDbBlockEnd
  0
BLOCK
  5
5D7
330
5CD
100
AcDbEntity
  8
0
100
AcDbBlockBegin
  2
*D6
 70
     1
 10
0.0
 20
0.0
 30
0.0
  3
*D6
  1

  0
LINE
  5
723
330
5CD
100
AcDbEntity
  8
SK2
 62
     0
370
    -2
100
AcDbLine
 10
-23.00000000000002
 20
11.0
 30
0.0
 11
-36.36329966577995
 21
11.0
 31
0.0
  0
LINE
  5
724
330
5CD
100
AcDbEntity
  8
SK2
 62
     0
370
    -2
100
AcDbLine
 10
-23.00000000000002
 20
-11.0
 30
0.0
 11
-36.36329966577995
 21
-10.99999999999999
 31
0.0
  0
LINE
  5
725
330
5CD
100
AcDbEntity
  8
SK2
 62
     0
370
    -2
100
AcDbLine
 10
-35.11329966577995
 20
8.500000000000001
 30
0.0
 11
-35.11329966577995
 21
-8.499999999999998
 31
0.0
  0
SOLID
  5
726
330
5CD
100
AcDbEntity
  8
SK2
 62
     0
100
AcDbTrace
 10
-35.52996633244661
 20
8.500000000000001
 30
0.0
 11
-34.69663299911328
 21
8.500000000000001
 31
0.0
 12
-35.11329966577995
 22
11.0
 32
0.0
 13
-35.11329966577995
 23
11.0
 33
0.0
  0
SOLID
  5
727
330
5CD
100
AcDbEntity
  8
SK2
 62
     0
100
AcDbTrace
 10
-35.52996633244661
 20
-8.499999999999998
 30
0.0
 11
-34.69663299911328
 21
-8.499999999999998
 31
0.0
 12
-35.11329966577995
 22
-11.0
 32
0.0
 13
-35.11329966577995
 23
-11.0
 33
0.0
  0
MTEXT
  5
728
330
5CD
100
AcDbEntity
  8
SK2
 62
     0
100
AcDbMText
 10
-37.48829966577995
 20
-0.0000000000000024
 30
0.0
 40
3.5
 41
0.0
 71
     5
 72
     1
  1
%%c22
  7
SIMPLEX
 11
0.0000000000000001
 21
1.0
 31
0.0
 73
     1
 44
1.0
1001
ACAD
1000
MTEXTBEGIN
1070
    73
1070
     1
1070
    44
1040
1.0
1070
    74
1070
     0
1000
MTEXTEND
  0
POINT
  5
729
330
5CD
100
AcDbEntity
  8
DEFPOINTS
 62
     0
100
AcDbPoint
 10
-23.00000000000002
 20
11.0
 30
0.0
  0
POINT
  5
72A
330
5CD
100
AcDbEntity
  8
DEFPOINTS
 62
     0
100
AcDbPoint
 10
-23.00000000000002
 20
-11.0
 30
0.0
  0
POINT
  5
72B
330
5CD
100
AcDbEntity
  8
DEFPOINTS
 62
     0
100
AcDbPoint
 10
-35.11329966577995
 20
-11.0
 30
0.0
  0
ENDBLK
  5
5D8
330
5CD
100
AcDbEntity
  8
0
100
AcDbBlockEnd
  0
BLOCK
  5
5E3
330
5D9
100
AcDbEntity
  8
0
100
AcDbBlockBegin
  2
*D7
 70
     1
 10
0.0
 20
0.0
 30
0.0
  3
*D7
  1

  0
LINE
  5
71A
330
5D9
100
AcDbEntity
  8
SK2
 62
     0
370
    -2
100
AcDbLine
 10
1.0
 20
21.5
 30
0.0
 11
-47.25582213246047
 21
21.50000000000002
 31
0.0
  0
LINE
  5
71B
330
5D9
100
AcDbEntity
  8
SK2
 62
     0
370
    -2
100
AcDbLine
 10
1.0
 20
-21.5
 30
0.0
 11
-47.25582213246048
 21
-21.49999999999999
 31
0.0
  0
LINE
  5
71C
330
5D9
100
AcDbEntity
  8
SK2
 62
     0
370
    -2
100
AcDbLine
 10
-46.00582213246047
 20
19.00000000000001
 30
0.0
 11
-46.00582213246048
 21
-18.99999999999998
 31
0.0
  0
SOLID
  5
71D
330
5D9
100
AcDbEntity
  8
SK2
 62
     0
100
AcDbTrace
 10
-46.42248879912713
 20
19.00000000000001
 30
0.0
 11
-45.5891554657938
 21
19.00000000000001
 31
0.0
 12
-46.00582213246047
 22
21.50000000000002
 32
0.0
 13
-46.00582213246047
 23
21.50000000000002
 33
0.0
  0
SOLID
  5
71E
330
5D9
100
AcDbEntity
  8
SK2
 62
     0
100
AcDbTrace
 10
-46.42248879912715
 20
-18.99999999999998
 30
0.0
 11
-45.58915546579382
 21
-18.99999999999998
 31
0.0
 12
-46.00582213246048
 22
-21.49999999999999
 32
0.0
 13
-46.00582213246048
 23
-21.49999999999999
 33
0.0
  0
MTEXT
  5
71F
330
5D9
100
AcDbEntity
  8
SK2
 62
     0
100
AcDbMText
 10
-48.38082213246048
 20
0.0000000000000071
 30
0.0
 40
3.5
 41
0.0
 71
     5
 72
     1
  1
%%c43
  7
SIMPLEX
 11
0.0000000000000001
 21
1.0
 31
0.0
 73
     1
 44
1.0
1001
ACAD
1000
MTEXTBEGIN
1070
    73
1070
     1
1070
    44
1040
1.0
1070
    74
1070
     0
1000
MTEXTEND
  0
POINT
  5
720
330
5D9
100
AcDbEntity
  8
DEFPOINTS
 62
     0
100
AcDbPoint
 10
1.0
 20
21.5
 30
0.0
  0
POINT
  5
721
330
5D9
100
AcDbEntity
  8
DEFPOINTS
 62
     0
100
AcDbPoint
 10
1.0
 20
-21.5
 30
0.0
  0
POINT
  5
722
330
5D9
100
AcDbEntity
  8
DEFPOINTS
 62
     0
100
AcDbPoint
 10
-46.00582213246048
 20
-21.49999999999999
 30
0.0
  0
ENDBLK
  5
5E4
330
5D9
100
AcDbEntity
  8
0
100
AcDbBlockEnd
  0
BLOCK
  5
5EF
330
5E5
100
AcDbEntity
  8
0
100
AcDbBlockBegin
  2
*D8
 70
     1
 10
0.0
 20
0.0
 30
0.0
  3
*D8
  1

  0
LINE
  5
732
330
5E5
100
AcDbEntity
  8
2
 62
     0
370
    -2
100
AcDbLine
 10
71.99999999999999
 20
32.3
 30
0.0
 11
71.99999999999999
 21
61.25
 31
0.0
  0
LINE
  5
733
330
5E5
100
AcDbEntity
  8
2
 62
     0
370
    -2
100
AcDbLine
 10
0.0
 20
20.5
 30
0.0
 11
0.0000000000000025
 21
61.25
 31
0.0
  0
LINE
  5
734
330
5E5
100
AcDbEntity
  8
2
 62
     0
370
    -2
100
AcDbLine
 10
69.49999999999999
 20
60.0
 30
0.0
 11
2.500000000000002
 21
60.0
 31
0.0
  0
SOLID
  5
735
330
5E5
100
AcDbEntity
  8
2
 62
     0
100
AcDbTrace
 10
69.49999999999999
 20
60.41666666666666
 30
0.0
 11
69.49999999999999
 21
59.58333333333333
 31
0.0
 12
71.99999999999999
 22
60.0
 32
0.0
 13
71.99999999999999
 23
60.0
 33
0.0
  0
SOLID
  5
736
330
5E5
100
AcDbEntity
  8
2
 62
     0
100
AcDbTrace
 10
2.500000000000002
 20
60.41666666666666
 30
0.0
 11
2.500000000000002
 21
59.58333333333333
 31
0.0
 12
0.0000000000000024
 22
60.0
 32
0.0
 13
0.0000000000000024
 23
60.0
 33
0.0
  0
MTEXT
  5
737
330
5E5
100
AcDbEntity
  8
2
 62
     0
100
AcDbMText
 10
36.0
 20
62.375
 30
0.0
 40
3.5
 41
0.0
 71
     5
 72
     1
  1
72
  7
SIMPLEX
 73
     1
 44
1.0
1001
ACAD
1000
MTEXTBEGIN
1070
    73
1070
     1
1070
    44
1040
1.0
1070
    74
1070
     0
1000
MTEXTEND
  0
POINT
  5
738
330
5E5
100
AcDbEntity
  8
DEFPOINTS
 62
     0
100
AcDbPoint
 10
71.99999999999999
 20
32.3
 30
0.0
  0
POINT
  5
739
330
5E5
100
AcDbEntity
  8
DEFPOINTS
 62
     0
100
AcDbPoint
 10
0.0
 20
20.5
 30
0.0
  0
POINT
  5
73A
330
5E5
100
AcDbEntity
  8
DEFPOINTS
 62
     0
100
AcDbPoint
 10
0.0000000000000024
 20
60.0
 30
0.0
  0
ENDBLK
  5
5F0
330
5E5
100
AcDbEntity
  8
0
100
AcDbBlockEnd
  0
ENDSEC
  0
SECTION
  2
ENTITIES
  0
LINE
  5
425
330
18
100
AcDbEntity
  8
DEFPOINTS
100
AcDbLine
 10
0.0
 20
0.0
 30
0.0
 11
0.0
 21
0.0
 31
0.0
  0
LINE
  5
542
330
18
100
AcDbEntity
  8
SK4
100
AcDbLine
 10
-26.35507254764951
 20
0.0
 30
0.0
 11
72.70337308686361
 21
0.0
 31
0.0
  0
LINE
  5
543
330
18
100
AcDbEntity
  8
1
100
AcDbLine
 10
65.69999999999997
 20
21.5
 30
0.0
 11
68.19999999999997
 21
21.5
 31
0.0
  0
LINE
  5
544
330
18
100
AcDbEntity
  8
1
100
AcDbLine
 10
0.0
 20
20.5
 30
0.0
 11
0.0
 21
-20.5
 31
0.0
  0
LINE
  5
545
330
18
100
AcDbEntity
  8
1
100
AcDbLine
 10
69.19999999999998
 20
20.5
 30
0.0
 11
69.20000000000008
 21
-17.388888888889
 31
0.0
  0
LINE
  5
546
330
18
100
AcDbEntity
  8
1
100
AcDbLine
 10
69.19999999999998
 20
20.5
 30
0.0
 11
68.19999999999997
 21
21.5
 31
0.0
  0
LINE
  5
547
330
18
100
AcDbEntity
  8
1
100
AcDbLine
 10
68.19999999999997
 20
-18.3888888888889
 30
0.0
 11
68.19999999999997
 21
21.5
 31
0.0
  0
LINE
  5
548
330
18
100
AcDbEntity
  8
1
100
AcDbLine
 10
42.65944627970547
 20
-18.3888888888889
 30
0.0
 11
68.2000000000002
 21
-18.3888888888889
 31
0.0
  0
LINE
  5
549
330
18
100
AcDbEntity
  8
1
100
AcDbLine
 10
39.65944627970548
 20
-21.3888888888889
 30
0.0
 11
42.65944627970547
 21
-18.3888888888889
 31
0.0
  0
LINE
  5
54A
330
18
100
AcDbEntity
  8
1
100
AcDbLine
 10
69.2000000000002
 20
-17.3888888888889
 30
0.0
 11
68.2000000000002
 21
-18.3888888888889
 31
0.0
  0
LINE
  5
54B
330
18
100
AcDbEntity
  8
3
100
AcDbLine
 10
71.76527036446656
 20
32.49696155060241
 30
0.0
 11
65.81527036446657
 21
31.44781601538701
 31
0.0
  0
LINE
  5
54C
330
18
100
AcDbEntity
  8
3
100
AcDbLine
 10
71.99999999999999
 20
32.3
 30
0.0
 11
71.99999999999999
 21
26.25821165927979
 31
0.0
  0
LINE
  5
54D
330
18
100
AcDbEntity
  8
SK3
100
AcDbLine
 10
51.69999999999999
 20
26.1845227215962
 30
0.0
 11
51.69999999999999
 21
23.0
 31
0.0
  0
LINE
  5
54E
330
18
100
AcDbEntity
  8
SK3
100
AcDbLine
 10
53.44999999999998
 20
23.0
 30
0.0
 11
53.44999999999998
 21
11.132731820275
 31
0.0
  0
LINE
  5
54F
330
18
100
AcDbEntity
  8
SK3
100
AcDbLine
 10
57.94999999999999
 20
23.0
 30
0.0
 11
57.94999999999999
 21
11.132731820275
 31
0.0
  0
LINE
  5
550
330
18
100
AcDbEntity
  8
SK3
100
AcDbLine
 10
59.69999999999998
 20
23.0
 30
0.0
 11
51.69999999999999
 21
23.0
 31
0.0
  0
LINE
  5
551
330
18
100
AcDbEntity
  8
SK3
100
AcDbLine
 10
59.69999999999998
 20
28.3281162610452
 30
0.0
 11
59.69999999999998
 21
23.0
 31
0.0
  0
LINE
  5
552
330
18
100
AcDbEntity
  8
3
100
AcDbLine
 10
61.81567520653079
 20
28.89500972408161
 30
0.0
 11
61.81567520653079
 21
21.3247458135438
 31
0.0
  0
ARC
  5
553
330
18
100
AcDbEntity
  8
3
100
AcDbCircle
 10
63.31567520653078
 20
21.3247458135438
 30
0.0
 40
1.5
100
AcDbArc
 50
179.9999999999996
 51
285.0000000000004
  0
LINE
  5
554
330
18
100
AcDbEntity
  8
3
100
AcDbLine
 10
71.69999999999998
 20
22.018404600419
 30
0.0
 11
63.70390377418458
 21
19.8758570741102
 31
0.0
  0
LINE
  5
555
330
18
100
AcDbEntity
  8
3
100
AcDbLine
 10
71.69999999999998
 20
26.03749363883191
 30
0.0
 11
71.69999999999998
 21
14.5
 31
0.0
  0
ARC
  5
556
330
18
100
AcDbEntity
  8
3
100
AcDbCircle
 10
71.79999999999999
 20
32.3
 30
0.0
 40
0.2
100
AcDbArc
 50
0.0
 51
99.99999999999856
  0
ARC
  5
557
330
18
100
AcDbEntity
  8
3
100
AcDbCircle
 10
71.79999999999999
 20
26.25821165927979
 30
0.0
 40
0.2
100
AcDbArc
 50
279.9999999999986
 51
0.0
  0
LINE
  5
558
330
18
100
AcDbEntity
  8
3
100
AcDbLine
 10
71.83472963553338
 20
26.0612501086774
 30
0.0
 11
65.88472963553339
 21
25.012104573462
 31
0.0
  0
ARC
  5
559
330
18
100
AcDbEntity
  8
3
100
AcDbCircle
 10
65.84999999999998
 20
25.20906612406439
 30
0.0
 40
0.2
100
AcDbArc
 50
179.9999999999996
 51
279.9999999999986
  0
LINE
  5
55A
330
18
100
AcDbEntity
  8
3
100
AcDbLine
 10
65.64999999999999
 20
31.2508544647846
 30
0.0
 11
65.64999999999999
 21
25.20906612406439
 31
0.0
  0
ARC
  5
55B
330
18
100
AcDbEntity
  8
3
100
AcDbCircle
 10
65.84999999999998
 20
31.2508544647846
 30
0.0
 40
0.2
100
AcDbArc
 50
99.99999999999856
 51
180.0000000000004
  0
LINE
  5
55C
330
18
100
AcDbEntity
  8
3
100
AcDbLine
 10
64.69999999999997
 20
30.18435565298221
 30
0.0
 11
64.69999999999997
 21
25.07919371224401
 31
0.0
  0
ARC
  5
55D
330
18
100
AcDbEntity
  8
3
100
AcDbCircle
 10
66.19999999999997
 20
25.07919371224401
 30
0.0
 40
1.5
100
AcDbArc
 50
179.9999999999996
 51
285.0000000000004
  0
LINE
  5
55E
330
18
100
AcDbEntity
  8
3
100
AcDbLine
 10
71.69999999999998
 20
25.0
 30
0.0
 11
66.58822856765379
 21
23.63030497281039
 31
0.0
  0
LINE
  5
55F
330
18
100
AcDbEntity
  8
3
100
AcDbLine
 10
47.19999999999998
 20
24.9787513556561
 30
0.0
 11
61.81140327567239
 21
28.893865063658
 31
0.0
  0
LINE
  5
560
330
18
100
AcDbEntity
  8
3
100
AcDbLine
 10
61.81140327567239
 20
28.893865063658
 30
0.0
 11
65.64999999999999
 21
30.6113113651881
 31
0.0
  0
CIRCLE
  5
561
330
18
100
AcDbEntity
  8
3
100
AcDbCircle
 10
68.82499999999997
 20
28.75453306203219
 30
0.0
 40
2.5
  0
LINE
  5
562
330
18
100
AcDbEntity
  8
3
100
AcDbLine
 10
71.69999999999998
 20
14.5
 30
0.0
 11
65.70000000000009
 21
14.5
 31
0.0
  0
LINE
  5
563
330
18
100
AcDbEntity
  8
SK3
100
AcDbLine
 10
53.94999999999999
 20
23.0
 30
0.0
 11
53.94999999999999
 21
10.632731820275
 31
0.0
  0
LINE
  5
564
330
18
100
AcDbEntity
  8
SK3
100
AcDbLine
 10
57.44999999999999
 20
23.0
 30
0.0
 11
57.44999999999999
 21
10.632731820275
 31
0.0
  0
LINE
  5
565
330
18
100
AcDbEntity
  8
SK3
100
AcDbLine
 10
53.45000000000009
 20
11.132731820275
 30
0.0
 11
57.95000000000008
 21
11.132731820275
 31
0.0
  0
LINE
  5
566
330
18
100
AcDbEntity
  8
SK3
100
AcDbLine
 10
53.95000000000009
 20
10.632731820275
 30
0.0
 11
57.45000000000008
 21
10.632731820275
 31
0.0
  0
LINE
  5
567
330
18
100
AcDbEntity
  8
SK3
100
AcDbLine
 10
45.69999999999999
 20
21.5
 30
0.0
 11
45.69999999999999
 21
-18.3888888888889
 31
0.0
  0
LINE
  5
568
330
18
100
AcDbEntity
  8
SK3
100
AcDbLine
 10
53.45000000000009
 20
11.132731820275
 30
0.0
 11
53.95000000000009
 21
10.632731820275
 31
0.0
  0
LINE
  5
569
330
18
100
AcDbEntity
  8
SK3
100
AcDbLine
 10
57.95000000000008
 20
11.132731820275
 30
0.0
 11
57.45000000000008
 21
10.632731820275
 31
0.0
  0
LINE
  5
56A
330
18
100
AcDbEntity
  8
3
100
AcDbLine
 10
45.69999999999999
 20
24.9787513556561
 30
0.0
 11
61.70427193085828
 21
24.9787513556561
 31
0.0
  0
LINE
  5
56B
330
18
100
AcDbEntity
  8
3
100
AcDbLine
 10
45.69999999999999
 20
24.9787513556561
 30
0.0
 11
45.69999999999999
 21
21.5
 31
0.0
  0
LINE
  5
56C
330
18
100
AcDbEntity
  8
SK3
100
AcDbLine
 10
65.70000000000009
 20
6.539099631177279
 30
0.0
 11
65.70000000000009
 21
-18.3888888888889
 31
0.0
  0
LINE
  5
56D
330
18
100
AcDbEntity
  8
1
100
AcDbLine
 10
61.69999999999999
 20
20.2549792457925
 30
0.0
 11
61.69999999999999
 21
11.7607287885064
 31
0.0
  0
LINE
  5
56E
330
18
100
AcDbEntity
  8
1
100
AcDbLine
 10
63.12884956125389
 20
8.696551016030554
 30
0.0
 11
69.19999999999998
 21
3.602250922056839
 31
0.0
  0
ARC
  5
56F
330
18
100
AcDbEntity
  8
1
100
AcDbCircle
 10
65.69999999999997
 20
11.7607287885064
 30
0.0
 40
4.0
100
AcDbArc
 50
179.9999999999996
 51
230.0000000000005
  0
LINE
  5
570
330
18
100
AcDbEntity
  8
3
100
AcDbLine
 10
61.70427193085828
 20
17.37875135565611
 30
0.0
 11
61.70427193085828
 21
24.9787513556561
 31
0.0
  0
LINE
  5
571
330
18
100
AcDbEntity
  8
SK4
100
AcDbLine
 10
63.52611434724768
 20
0.0
 30
0.0
 11
64.81070978053098
 21
7.285302726343374
 31
0.0
  0
LINE
  5
572
330
18
100
AcDbEntity
  8
4
100
AcDbLine
 10
72.43725692914541
 20
0.0
 30
0.0
 11
-8.64631180851393
 21
0.0
 31
0.0
  0
POINT
  5
573
330
18
100
AcDbEntity
  8
0
100
AcDbPoint
 10
64.52813037805026
 20
63.90868004401887
 30
0.0
  0
LINE
  5
575
330
18
100
AcDbEntity
  8
1
100
AcDbLine
 10
51.48291041936319
 20
-21.5
 30
0.0
 11
59.9170895806371
 21
-21.5
 31
0.0
  0
LINE
  5
576
330
18
100
AcDbEntity
  8
1
100
AcDbLine
 10
44.81111111111128
 20
-18.3888888888889
 30
0.0
 11
51.48291041936319
 21
-21.5
 31
0.0
  0
LINE
  5
577
330
18
100
AcDbEntity
  8
1
100
AcDbLine
 10
66.588888888889
 20
-18.3888888888889
 30
0.0
 11
59.9170895806371
 21
-21.5
 31
0.0
  0
LINE
  5
579
330
18
100
AcDbEntity
  8
1
100
AcDbLine
 10
49.29967169725988
 20
-18.3888888888889
 30
0.0
 11
50.63145757540478
 21
-19.4454345432406
 31
0.0
  0
LINE
  5
57A
330
18
100
AcDbEntity
  8
1
100
AcDbLine
 10
52.33514828347288
 20
-18.3888888888889
 30
0.0
 11
53.03530955429458
 21
-19.4454345432406
 31
0.0
  0
LINE
  5
57B
330
18
100
AcDbEntity
  8
1
100
AcDbLine
 10
59.06485171652737
 20
-18.3888888888889
 30
0.0
 11
58.36469044570567
 21
-19.4454345432406
 31
0.0
  0
LINE
  5
57C
330
18
100
AcDbEntity
  8
1
100
AcDbLine
 10
62.10032830274037
 20
-18.3888888888889
 30
0.0
 11
60.76854242459548
 21
-19.4454345432406
 31
0.0
  0
LINE
  5
57D
330
18
100
AcDbEntity
  8
1
100
AcDbLine
 10
46.89070383902849
 20
-18.3888888888889
 30
0.0
 11
48.72374984364599
 21
-19.4454345432406
 31
0.0
  0
LINE
  5
57E
330
18
100
AcDbEntity
  8
1
100
AcDbLine
 10
64.5092961609718
 20
-18.3888888888889
 30
0.0
 11
62.67625015635427
 21
-19.4454345432406
 31
0.0
  0
TEXT
  5
58B
330
18
100
AcDbEntity
  8
SK6
100
AcDbText
 10
-23.17111589132469
 20
-39.91322022065538
 30
0.0
 40
3.5
  1
A79040
  7
SIMPLEX
100
AcDbText
  0
ARC
  5
58C
330
18
100
AcDbEntity
  8
1
100
AcDbCircle
 10
55.69999999999999
 20
46.57987240796891
 30
0.0
 40
27.0
100
AcDbArc
 50
248.2615392084796
 51
291.7384607915204
  0
LINE
  5
58D
330
18
100
AcDbEntity
  8
3
100
AcDbLine
 10
65.70000000000009
 20
17.37875135565611
 30
0.0
 11
65.70000000000009
 21
6.539099631177279
 31
0.0
  0
LINE
  5
58E
330
18
100
AcDbEntity
  8
SK3
100
AcDbLine
 10
62.69764853416169
 20
2.5
 30
0.0
 11
-24.00000000000002
 21
2.5
 31
0.0
  0
LINE
  5
58F
330
18
100
AcDbEntity
  8
SK3
100
AcDbLine
 10
64.35458016033367
 20
-2.5
 30
0.0
 11
-24.00000000000002
 21
-2.5
 31
0.0
  0
LINE
  5
590
330
18
100
AcDbEntity
  8
SK3
100
AcDbLine
 10
62.69764853416169
 20
2.5
 30
0.0
 11
63.70501986691609
 21
8.213086725054068
 31
0.0
  0
LINE
  5
591
330
18
100
AcDbEntity
  8
SK3
100
AcDbLine
 10
64.35458016033367
 20
-2.5
 30
0.0
 11
65.91639969414588
 21
6.357518727632665
 31
0.0
  0
LINE
  5
592
330
18
100
AcDbEntity
  8
1
100
AcDbLine
 10
-5.600000000000008
 20
-5.000000000000007
 30
0.0
 11
-5.600000000000008
 21
4.999999999999985
 31
0.0
  0
LINE
  5
593
330
18
100
AcDbEntity
  8
1
100
AcDbLine
 10
0.0
 20
4.999999999999985
 30
0.0
 11
-5.600000000000022
 21
4.999999999999985
 31
0.0
  0
LINE
  5
594
330
18
100
AcDbEntity
  8
1
100
AcDbLine
 10
0.0
 20
-5.000000000000007
 30
0.0
 11
-5.600000000000008
 21
-5.000000000000007
 31
0.0
  0
ARC
  5
595
330
18
100
AcDbEntity
  8
SK1
100
AcDbCircle
 10
-9.299999999999997
 20
-11.4
 30
0.0
 40
5.0
100
AcDbArc
 50
4.588565735785726
 51
175.4114342642138
  0
LINE
  5
596
330
18
100
AcDbEntity
  8
SK1
100
AcDbLine
 10
0.0
 20
-11.0
 30
0.0
 11
-23.00000000000002
 21
-11.0
 31
0.0
  0
LINE
  5
597
330
18
100
AcDbEntity
  8
SK1
100
AcDbLine
 10
-24.00000000000002
 20
-10.0
 30
0.0
 11
-24.00000000000002
 21
9.999999999999985
 31
0.0
  0
LINE
  5
598
330
18
100
AcDbEntity
  8
SK1
100
AcDbLine
 10
-24.00000000000002
 20
-10.0
 30
0.0
 11
-23.00000000000002
 21
-11.0
 31
0.0
  0
LINE
  5
599
330
18
100
AcDbEntity
  8
SK1
100
AcDbLine
 10
0.0
 20
11.0
 30
0.0
 11
-23.00000000000002
 21
11.0
 31
0.0
  0
LINE
  5
59A
330
18
100
AcDbEntity
  8
SK1
100
AcDbLine
 10
-24.00000000000002
 20
9.999999999999985
 30
0.0
 11
-23.00000000000002
 21
11.0
 31
0.0
  0
LINE
  5
59B
330
18
100
AcDbEntity
  8
SK1
100
AcDbLine
 10
-23.00000000000002
 20
-11.0
 30
0.0
 11
-23.00000000000002
 21
11.0
 31
0.0
  0
ARC
  5
59C
330
18
100
AcDbEntity
  8
SK1
100
AcDbCircle
 10
9.299999999999997
 20
11.4
 30
0.0
 40
5.0
210
0.0
220
0.0
230
-1.0
100
AcDbArc
 50
184.5885657357857
 51
355.4114342642142
  0
LINE
  5
59D
330
18
100
AcDbEntity
  8
1
100
AcDbLine
 10
45.69999999999999
 20
21.5
 30
0.0
 11
1.0
 21
21.5
 31
0.0
  0
LINE
  5
59E
330
18
100
AcDbEntity
  8
1
100
AcDbLine
 10
1.0
 20
-21.5
 30
0.0
 11
39.54833516859439
 21
-21.5
 31
0.0
  0
LINE
  5
59F
330
18
100
AcDbEntity
  8
1
100
AcDbLine
 10
0.0
 20
20.5
 30
0.0
 11
1.0
 21
21.5
 31
0.0
  0
LINE
  5
5A0
330
18
100
AcDbEntity
  8
1
100
AcDbLine
 10
0.0
 20
-20.5
 30
0.0
 11
1.0
 21
-21.5
 31
0.0
  0
LINE
  5
5A1
330
18
100
AcDbEntity
  8
1
100
AcDbLine
 10
1.0
 20
21.5
 30
0.0
 11
1.0
 21
-21.5
 31
0.0
  0
LINE
  5
5A2
330
18
100
AcDbEntity
  8
1
100
AcDbLine
 10
13.99999999999998
 20
21.5
 30
0.0
 11
13.99999999999998
 21
-21.5
 31
0.0
  0
LINE
  5
5A3
330
18
100
AcDbEntity
  8
1
100
AcDbLine
 10
27.99999999999999
 20
21.5
 30
0.0
 11
27.99999999999999
 21
-21.5
 31
0.0
  0
TEXT
  5
5A4
330
18
100
AcDbEntity
  8
1
100
AcDbText
 10
19.33349097881908
 20
10.2594232398032
 30
0.0
 40
3.5
  1
0
 50
89.99999999999962
  7
SIMPLEX
100
AcDbText
  0
LINE
  5
5A5
330
18
100
AcDbEntity
  8
1
100
AcDbLine
 10
13.99999999999998
 20
10.75
 30
0.0
 11
17.18518518518517
 21
10.75
 31
0.0
  0
TEXT
  5
5A6
330
18
100
AcDbEntity
  8
1
100
AcDbText
 10
19.33349097881908
 20
5.079562078569566
 30
0.0
 40
3.5
  1
5
 50
89.99999999999962
  7
SIMPLEX
100
AcDbText
  0
LINE
  5
5A7
330
18
100
AcDbEntity
  8
1
100
AcDbLine
 10
13.99999999999998
 20
5.574074074074061
 30
0.0
 11
17.18518518518517
 21
5.574074074074061
 31
0.0
  0
TEXT
  5
5A8
330
18
100
AcDbEntity
  8
1
100
AcDbText
 10
19.40134942197939
 20
-1.13733005161989
 30
0.0
 40
3.5
  1
10
 50
89.99999999999962
  7
SIMPLEX
100
AcDbText
  0
TEXT
  5
5A9
330
18
100
AcDbEntity
  8
1
100
AcDbText
 10
19.26563253565888
 20
-6.611244466548022
 30
0.0
 40
3.5
  1
15
 50
89.99999999999962
  7
SIMPLEX
100
AcDbText
  0
LINE
  5
5AA
330
18
100
AcDbEntity
  8
1
100
AcDbLine
 10
13.99999999999998
 20
-5.57407407407409
 30
0.0
 11
17.18518518518517
 21
-5.57407407407409
 31
0.0
  0
TEXT
  5
5AB
330
18
100
AcDbEntity
  8
1
100
AcDbText
 10
19.26563253565888
 20
-11.8815835519954
 30
0.0
 40
3.5
  1
20
 50
89.99999999999962
  7
SIMPLEX
100
AcDbText
  0
LINE
  5
5AC
330
18
100
AcDbEntity
  8
1
100
AcDbLine
 10
13.99999999999998
 20
-10.75
 30
0.0
 11
17.18518518518517
 21
-10.75
 31
0.0
  0
TEXT
  5
5AD
330
18
100
AcDbEntity
  8
1
100
AcDbText
 10
19.33349097881908
 20
-16.2923823574127
 30
0.0
 40
3.5
  1
25
 50
89.99999999999962
  7
SIMPLEX
100
AcDbText
  0
LINE
  5
5AE
330
18
100
AcDbEntity
  8
1
100
AcDbLine
 10
13.99999999999998
 20
-15.1296296296296
 30
0.0
 11
17.18518518518517
 21
-15.1296296296296
 31
0.0
  0
LINE
  5
5AF
330
18
100
AcDbEntity
  8
1
100
AcDbLine
 10
13.99999999999998
 20
-10.75
 30
0.0
 11
10.81481481481478
 21
-10.75
 31
0.0
  0
TEXT
  5
5B0
330
18
100
AcDbEntity
  8
1
100
AcDbText
 10
10.25910161377348
 20
-11.2149787953588
 30
0.0
 40
3.5
  1
0
 50
89.99999999999962
  7
SIMPLEX
100
AcDbText
  0
LINE
  5
5B1
330
18
100
AcDbEntity
  8
1
100
AcDbLine
 10
13.99999999999998
 20
-5.574074074074069
 30
0.0
 11
10.81481481481478
 21
-5.574074074074069
 31
0.0
  0
TEXT
  5
5B2
330
18
100
AcDbEntity
  8
1
100
AcDbText
 10
10.25910161377348
 20
-6.035117634125128
 30
0.0
 40
3.5
  1
5
 50
89.99999999999962
  7
SIMPLEX
100
AcDbText
  0
TEXT
  5
5B3
330
18
100
AcDbEntity
  8
1
100
AcDbText
 10
10.19124317061319
 20
-1.171929207639379
 30
0.0
 40
3.5
  1
10
 50
89.99999999999962
  7
SIMPLEX
100
AcDbText
  0
LINE
  5
5B4
330
18
100
AcDbEntity
  8
1
100
AcDbLine
 10
13.99999999999998
 20
5.574074074074076
 30
0.0
 11
10.81481481481478
 21
5.574074074074076
 31
0.0
  0
TEXT
  5
5B5
330
18
100
AcDbEntity
  8
1
100
AcDbText
 10
10.32696005693368
 20
4.301985207288765
 30
0.0
 40
3.5
  1
15
 50
89.99999999999962
  7
SIMPLEX
100
AcDbText
  0
LINE
  5
5B6
330
18
100
AcDbEntity
  8
1
100
AcDbLine
 10
13.99999999999998
 20
10.75
 30
0.0
 11
10.81481481481478
 21
10.75
 31
0.0
  0
TEXT
  5
5B7
330
18
100
AcDbEntity
  8
1
100
AcDbText
 10
10.32696005693368
 20
9.572324292736084
 30
0.0
 40
3.5
  1
20
 50
89.99999999999962
  7
SIMPLEX
100
AcDbText
  0
LINE
  5
5B8
330
18
100
AcDbEntity
  8
1
100
AcDbLine
 10
13.99999999999998
 20
15.1296296296296
 30
0.0
 11
10.81481481481478
 21
15.1296296296296
 31
0.0
  0
TEXT
  5
5B9
330
18
100
AcDbEntity
  8
1
100
AcDbText
 10
10.25910161377348
 20
13.9831230981534
 30
0.0
 40
3.5
  1
25
 50
89.99999999999962
  7
SIMPLEX
100
AcDbText
  0
LINE
  5
5BA
330
18
100
AcDbEntity
  8
3
100
AcDbLine
 10
61.69999999999999
 20
17.37875135565611
 30
0.0
 11
65.70000000000009
 21
17.37875135565611
 31
0.0
  0
DIMENSION
  5
5BB
330
18
100
AcDbEntity
  8
2
100
AcDbDimension
  2
*D5
 10
85.95958446634233
 20
32.5
 30
0.0
 11
83.5845844663423
 21
0.0000000000000092
 31
0.0
 70
    32
  1
%%c<>
 71
     5
 42
65.0
  3
STANDARD
100
AcDbAlignedDimension
 13
71.99999999999999
 23
-32.5
 33
0.0
 14
71.99999999999999
 24
32.5
 34
0.0
 50
90.0
100
AcDbRotatedDimension
  0
DIMENSION
  5
5BC
330
18
100
AcDbEntity
  8
SK2
100
AcDbDimension
  2
*D6
 10
-35.11329966577995
 20
-11.0
 30
0.0
 11
-35.11329966577995
 21
-0.0000000000000027
 31
0.0
 70
   160
  1
%%c<>
 71
     5
 42
22.0
  3
STANDARD
100
AcDbAlignedDimension
 13
-23.00000000000002
 23
11.0
 33
0.0
 14
-23.00000000000002
 24
-11.0
 34
0.0
 50
270.0
100
AcDbRotatedDimension
  0
DIMENSION
  5
5BD
330
18
100
AcDbEntity
  8
SK2
100
AcDbDimension
  2
*D7
 10
-46.00582213246048
 20
-21.49999999999999
 30
0.0
 11
-46.00582213246048
 21
0.0000000000000068
 31
0.0
 70
   160
  1
%%c<>
 71
     5
 42
43.0
  3
STANDARD
100
AcDbAlignedDimension
 13
1.0
 23
21.5
 33
0.0
 14
1.0
 24
-21.5
 34
0.0
 50
270.0
100
AcDbRotatedDimension
  0
DIMENSION
  5
5BE
330
18
100
AcDbEntity
  8
2
100
AcDbDimension
  2
*D8
 10
0.0000000000000024
 20
60.0
 30
0.0
 11
36.0
 21
60.0
 31
0.0
 70
   160
 71
     5
 42
71.99999999999999
  3
STANDARD
100
AcDbAlignedDimension
 13
71.99999999999999
 23
32.3
 33
0.0
 14
0.0
 24
20.5
 34
0.0
 50
180.0
100
AcDbRotatedDimension
  0
POINT
  5
5BF
330
18
100
AcDbEntity
  8
0
100
AcDbPoint
 10
152.3471514057139
 20
114.1136800440188
 30
0.0
  0
POINT
  5
5C0
330
18
100
AcDbEntity
  8
0
100
AcDbPoint
 10
18.47176388508826
 20
13.70368004401887
 30
0.0
  0
TEXT
  5
740
330
18
100
AcDbEntity
  8
SK6
100
AcDbText
 10
-23.17111589132469
 20
-45.30253995152816
 30
0.0
 40
3.5
  1
00056006
  7
SIMPLEX
100
AcDbText
  0
ENDSEC
  0
SECTION
  2
OBJECTS
  0
DICTIONARY
  5
C
330
0
100
AcDbDictionary
281
     1
  3
ACAD_COLOR
350
387
  3
ACAD_GROUP
350
D
  3
ACAD_LAYOUT
350
301
  3
ACAD_MATERIAL
350
386
  3
ACAD_MLINESTYLE
350
E
  3
ACAD_PLOTSETTINGS
350
302
  3
ACAD_PLOTSTYLENAME
350
2FF
  3
ACAD_TABLESTYLE
350
388
  3
ACAD_VISUALSTYLE
350
3F2
  3
AcDbVariableDictionary
350
357
  3
DWGPROPS
350
743
  0
DICTIONARY
  5
43C
330
2
100
AcDbDictionary
280
     1
281
     1
  3
ACAD_LAYERFILTERS
360
445
  3
ACLYDICTIONARY
360
444
  0
DICTIONARY
  5
387
102
{ACAD_REACTORS
330
C
102
}
330
C
100
AcDbDictionary
281
     1
  0
DICTIONARY
  5
D
102
{ACAD_REACTORS
330
C
102
}
330
C
100
AcDbDictionary
281
     1
  0
DICTIONARY
  5
301
102
{ACAD_REACTORS
330
C
102
}
330
C
100
AcDbDictionary
281
     1
  3
Layout1
350
33B
  3
Model
350
303
  0
DICTIONARY
  5
386
102
{ACAD_REACTORS
330
C
102
}
330
C
100
AcDbDictionary
281
     1
  3
ByBlock
350
3F0
  3
ByLayer
350
3EF
  3
Global
350
3F1
  0
DICTIONARY
  5
E
102
{ACAD_REACTORS
330
C
102
}
330
C
100
AcDbDictionary
281
     1
  3
STANDARD
350
1B
  0
DICTIONARY
  5
302
102
{ACAD_REACTORS
330
C
102
}
330
C
100
AcDbDictionary
281
     1
  0
ACDBDICTIONARYWDFLT
  5
2FF
102
{ACAD_REACTORS
330
C
102
}
330
C
100
AcDbDictionary
281
     1
  3
Normal
350
300
100
AcDbDictionaryWithDefault
340
300
  0
DICTIONARY
  5
388
102
{ACAD_REACTORS
330
C
102
}
330
C
100
AcDbDictionary
281
     1
  3
Standard
350
389
  0
DICTIONARY
  5
3F2
102
{ACAD_REACTORS
330
C
102
}
330
C
100
AcDbDictionary
281
     1
  3
2dWireframe
350
3F8
  3
3D Hidden
350
3FA
  3
3dWireframe
350
3F9
  3
Basic
350
3F7
  3
Brighten
350
3FE
  3
ColorChange
350
402
  3
Conceptual
350
3FB
  3
Dim
350
3FD
  3
Facepattern
350
401
  3
Flat
350
3F3
  3
FlatWithEdges
350
3F4
  3
Gouraud
350
3F5
  3
GouraudWithEdges
350
3F6
  3
Linepattern
350
400
  3
Realistic
350
3FC
  3
Thicken
350
3FF
  0
DICTIONARY
  5
357
102
{ACAD_REACTORS
330
C
102
}
330
C
100
AcDbDictionary
281
     1
  3
CTABLESTYLE
350
38E
  3
DIMASSOC
350
359
  3
HIDETEXT
350
358
  3
INDEXCTL
350
742
  3
SORTENTS
350
741
  0
XRECORD
  5
743
102
{ACAD_REACTORS
330
C
102
}
330
C
100
AcDbXrecord
280
     1
  1
DWGPROPS COOKIE
  2

  3

  4

  6

  7

  8
deerkdanf
  9

300
=
301
=
302
=
303
=
304
=
305
=
306
=
307
=
308
=
309
=
 40
0.0017861921296296
 41
2454673.366802488
 42
2454673.368587778
  1

 90
        0
  0
DICTIONARY
  5
445
102
{ACAD_REACTORS
330
43C
102
}
330
43C
100
AcDbDictionary
281
     1
  0
DICTIONARY
  5
444
102
{ACAD_REACTORS
330
43C
102
}
330
43C
100
AcDbDictionary
281
     1
1001
ACAD
1000
<All
  0
LAYOUT
  5
33B
102
{ACAD_XDICTIONARY
360
746
102
}
102
{ACAD_REACTORS
330
301
102
}
330
301
100
AcDbPlotSettings
  1

  2
Lexmark Optra PS2
  4

  6

 40
0.0
 41
0.0
 42
0.0
 43
0.0
 44
0.0
 45
0.0
 46
0.0
 47
0.0
 48
0.0
 49
0.0
140
0.0
141
0.0
142
1.0
143
1.0
 70
   688
 72
     0
 73
     0
 74
     5
  7
monochrome.ctb
 75
    16
147
1.0
148
0.0
149
0.0
100
AcDbLayout
  1
Layout1
 70
     1
 71
     1
 10
0.0
 20
0.0
 11
12.0
 21
9.0
 12
0.0
 22
0.0
 32
0.0
 14
0.0
 24
0.0
 34
0.0
 15
0.0
 25
0.0
 35
0.0
146
0.0
 13
0.0
 23
0.0
 33
0.0
 16
1.0
 26
0.0
 36
0.0
 17
0.0
 27
1.0
 37
0.0
 76
     0
330
338
  0
LAYOUT
  5
303
102
{ACAD_XDICTIONARY
360
744
102
}
102
{ACAD_REACTORS
330
301
102
}
330
301
100
AcDbPlotSettings
  1

  2
Default Windows System Printer.pc3
  4
A4
  6

 40
6.805083274841308
 41
5.535083293914794
 42
6.974411010742187
 43
7.14373779296875
 44
209.9733276367187
 45
296.9259948730469
 46
67.83299579489725
 47
0.0
 48
0.0
 49
0.0
140
0.0
141
0.0
142
1.0
143
0.3604333568168785
 70
  3764
 72
     1
 73
     1
 74
     1
  7
monochrome.ctb
 75
     0
147
2.774437995504559
148
-82.35087775247029
149
-53.69369632994494
100
AcDbLayout
  1
Model
 70
     1
 71
     0
 10
0.0
 20
0.0
 11
12.0
 21
9.0
 12
0.0
 22
0.0
 32
0.0
 14
0.0
 24
0.0
 34
0.0
 15
0.0
 25
0.0
 35
0.0
146
0.0
 13
0.0
 23
0.0
 33
0.0
 16
1.0
 26
0.0
 36
0.0
 17
0.0
 27
1.0
 37
0.0
 76
     0
330
18
331
3ED
1001
ACAD_PSEXT
1000
Default Windows System Printer.pc3
1000
Lexmark Optra Rx
1000
Lexmark Rx
1000
Erstellt von Lexmark Benutzerdefinierte Installation,Nov 13,2005,10:03
1070
     0
  0
MATERIAL
  5
3F0
102
{ACAD_XDICTIONARY
360
74C
102
}
102
{ACAD_REACTORS
330
386
102
}
330
386
100
AcDbMaterial
  1
ByBlock
  0
MATERIAL
  5
3EF
102
{ACAD_XDICTIONARY
360
74A
102
}
102
{ACAD_REACTORS
330
386
102
}
330
386
100
AcDbMaterial
  1
ByLayer
  0
MATERIAL
  5
3F1
102
{ACAD_XDICTIONARY
360
74E
102
}
102
{ACAD_REACTORS
330
386
102
}
330
386
100
AcDbMaterial
  1
Global
  0
MLINESTYLE
  5
1B
102
{ACAD_REACTORS
330
E
102
}
330
E
100
AcDbMlineStyle
  2
STANDARD
 70
     0
  3

 62
     0
 51
90.0
 52
90.0
 71
     2
 49
0.5
 62
   256
  6
BYLAYER
 49
-0.5
 62
   256
  6
BYLAYER
  0
ACDBPLACEHOLDER
  5
300
102
{ACAD_REACTORS
330
2FF
102
}
330
2FF
  0
TABLESTYLE
  5
389
102
{ACAD_XDICTIONARY
360
748
102
}
102
{ACAD_REACTORS
330
388
102
}
330
388
100
AcDbTableStyle
  3
Standard
 70
     0
 71
     0
 40
1.5
 41
1.5
280
     0
281
     0
  7
STANDARD
140
4.5
170
     2
 62
     0
 63
     7
283
     0
274
    -2
284
     1
 64
     0
275
    -2
285
     1
 65
     0
276
    -2
286
     1
 66
     0
277
    -2
287
     1
 67
     0
278
    -2
288
     1
 68
     0
279
    -2
289
     1
 69
     0
  7
STANDARD
140
6.0
170
     5
 62
     0
 63
     7
283
     0
274
    -2
284
     1
 64
     0
275
    -2
285
     1
 65
     0
276
    -2
286
     1
 66
     0
277
    -2
287
     1
 67
     0
278
    -2
288
     1
 68
     0
279
    -2
289
     1
 69
     0
  7
STANDARD
140
4.5
170
     5
 62
     0
 63
     7
283
     0
274
    -2
284
     1
 64
     0
275
    -2
285
     1
 65
     0
276
    -2
286
     1
 66
     0
277
    -2
287
     1
 67
     0
278
    -2
288
     1
 68
     0
279
    -2
289
     1
 69
     0
  0
VISUALSTYLE
  5
3F8
102
{ACAD_REACTORS
330
3F2
102
}
330
3F2
100
AcDbVisualStyle
  2
2dWireframe
 70
     4
 71
     0
 72
     2
 73
     0
 90
        0
 40
-0.6
 41
-30.0
 62
     5
 63
     7
 74
     1
 91
        4
 64
     7
 65
   257
 75
     1
175
     1
 42
1.0
 92
        0
 66
   257
 43
1.0
 76
     1
 77
     6
 78
     2
 67
     7
 79
     5
170
     0
171
     0
290
     0
174
     0
 93
        1
 44
0.0
173
     0
291
     0
 45
0.0
1001
ACAD
1000
AcDbSavedByObjectVersion
1070
     0
  0
VISUALSTYLE
  5
3FA
102
{ACAD_REACTORS
330
3F2
102
}
330
3F2
100
AcDbVisualStyle
  2
3D Hidden
 70
     6
 71
     1
 72
     2
 73
     2
 90
        0
 40
-0.6
 41
-30.0
 62
     5
 63
     7
 74
     2
 91
        2
 64
     7
 65
   257
 75
     2
175
     1
 42
40.0
 92
        0
 66
   257
 43
1.0
 76
     1
 77
     6
 78
     2
 67
     7
 79
     3
170
     0
171
     0
290
     0
174
     0
 93
        1
 44
0.0
173
     0
291
     0
 45
0.0
1001
ACAD
1000
AcDbSavedByObjectVersion
1070
     0
  0
VISUALSTYLE
  5
3F9
102
{ACAD_REACTORS
330
3F2
102
}
330
3F2
100
AcDbVisualStyle
  2
3dWireframe
 70
     5
 71
     0
 72
     2
 73
     0
 90
        0
 40
-0.6
 41
-30.0
 62
     5
 63
     7
 74
     1
 91
        4
 64
     7
 65
   257
 75
     1
175
     1
 42
1.0
 92
        0
 66
   257
 43
1.0
 76
     1
 77
     6
 78
     2
 67
     7
 79
     5
170
     0
171
     0
290
     0
174
     0
 93
        1
 44
0.0
173
     0
291
     0
 45
0.0
1001
ACAD
1000
AcDbSavedByObjectVersion
1070
     0
  0
VISUALSTYLE
  5
3F7
102
{ACAD_REACTORS
330
3F2
102
}
330
3F2
100
AcDbVisualStyle
  2
Basic
 70
     7
 71
     1
 72
     0
 73
     1
 90
        0
 40
-0.6
 41
-30.0
 62
     5
 63
     7
 74
     0
 91
        4
 64
     7
 65
   257
 75
     1
175
     1
 42
1.0
 92
        8
 66
     7
 43
1.0
 76
     1
 77
     6
 78
     2
 67
     7
 79
     5
170
     0
171
     0
290
     0
174
     0
 93
        1
 44
0.0
173
     0
291
     1
 45
0.0
1001
ACAD
1000
AcDbSavedByObjectVersion
1070
     0
  0
VISUALSTYLE
  5
3FE
102
{ACAD_REACTORS
330
3F2
102
}
330
3F2
100
AcDbVisualStyle
  2
Brighten
 70
    12
 71
     2
 72
     2
 73
     0
 90
        0
 40
-0.6
 41
-30.0
 62
     5
 63
     7
 74
     1
 91
        4
 64
     7
 65
   257
 75
     1
175
     1
 42
1.0
 92
        8
 66
     7
 43
1.0
 76
     1
 77
     6
 78
     2
 67
     7
 79
     5
170
     0
171
     0
290
     0
174
     0
 93
        1
 44
50.0
173
     0
291
     1
 45
0.0
1001
ACAD
1000
AcDbSavedByObjectVersion
1070
     0
  0
VISUALSTYLE
  5
402
102
{ACAD_REACTORS
330
3F2
102
}
330
3F2
100
AcDbVisualStyle
  2
ColorChange
 70
    16
 71
     2
 72
     2
 73
     3
 90
        0
 40
-0.6
 41
-30.0
 62
     5
 63
     8
 74
     1
 91
        4
 64
     7
 65
   257
 75
     1
175
     1
 42
1.0
 92
        8
 66
     8
 43
1.0
 76
     1
 77
     6
 78
     2
 67
     7
 79
     5
170
     0
171
     0
290
     0
174
     0
 93
        1
 44
0.0
173
     0
291
     1
 45
0.0
1001
ACAD
1000
AcDbSavedByObjectVersion
1070
     0
  0
VISUALSTYLE
  5
3FB
102
{ACAD_REACTORS
330
3F2
102
}
330
3F2
100
AcDbVisualStyle
  2
Conceptual
 70
     9
 71
     3
 72
     2
 73
     0
 90
        0
 40
-0.6
 41
-30.0
 62
     5
 63
     7
 74
     2
 91
        2
 64
     7
 65
   257
 75
     1
175
     1
 42
40.0
 92
        8
 66
     7
 43
1.0
 76
     1
 77
     6
 78
     2
 67
     7
 79
     3
170
     0
171
     0
290
     0
174
     0
 93
        1
 44
0.0
173
     0
291
     0
 45
0.0
1001
ACAD
1000
AcDbSavedByObjectVersion
1070
     0
  0
VISUALSTYLE
  5
3FD
102
{ACAD_REACTORS
330
3F2
102
}
330
3F2
100
AcDbVisualStyle
  2
Dim
 70
    11
 71
     2
 72
     2
 73
     0
 90
        0
 40
-0.6
 41
-30.0
 62
     5
 63
     7
 74
     1
 91
        4
 64
     7
 65
   257
 75
     1
175
     1
 42
1.0
 92
        8
 66
     7
 43
1.0
 76
     1
 77
     6
 78
     2
 67
     7
 79
     5
170
     0
171
     0
290
     0
174
     0
 93
        1
 44
-50.0
173
     0
291
     1
 45
0.0
1001
ACAD
1000
AcDbSavedByObjectVersion
1070
     0
  0
VISUALSTYLE
  5
401
102
{ACAD_REACTORS
330
3F2
102
}
330
3F2
100
AcDbVisualStyle
  2
Facepattern
 70
    15
 71
     2
 72
     2
 73
     0
 90
        0
 40
-0.6
 41
-30.0
 62
     5
 63
     7
 74
     1
 91
        4
 64
     7
 65
   257
 75
     1
175
     1
 42
1.0
 92
        8
 66
     7
 43
1.0
 76
     1
 77
     6
 78
     2
 67
     7
 79
     5
170
     0
171
     0
290
     0
174
     0
 93
        1
 44
0.0
173
     0
291
     1
 45
0.0
1001
ACAD
1000
AcDbSavedByObjectVersion
1070
     0
  0
VISUALSTYLE
  5
3F3
102
{ACAD_REACTORS
330
3F2
102
}
330
3F2
100
AcDbVisualStyle
  2
Flat
 70
     0
 71
     2
 72
     1
 73
     1
 90
        2
 40
-0.6
 41
30.0
 62
     5
 63
     7
 74
     0
 91
        4
 64
     7
 65
   257
 75
     1
175
     1
 42
1.0
 92
        8
 66
     7
 43
1.0
 76
     1
 77
     6
 78
     2
 67
     7
 79
     5
170
     0
171
     0
290
     0
174
     0
 93
       13
 44
0.0
173
     0
291
     1
 45
0.0
1001
ACAD
1000
AcDbSavedByObjectVersion
1070
     0
  0
VISUALSTYLE
  5
3F4
102
{ACAD_REACTORS
330
3F2
102
}
330
3F2
100
AcDbVisualStyle
  2
FlatWithEdges
 70
     1
 71
     2
 72
     1
 73
     1
 90
        2
 40
-0.6
 41
30.0
 62
     5
 63
     7
 74
     1
 91
        4
 64
     7
 65
   257
 75
     1
175
     1
 42
1.0
 92
        0
 66
   257
 43
1.0
 76
     1
 77
     6
 78
     2
 67
     7
 79
     5
170
     0
171
     0
290
     0
174
     0
 93
       13
 44
0.0
173
     0
291
     1
 45
0.0
1001
ACAD
1000
AcDbSavedByObjectVersion
1070
     0
  0
VISUALSTYLE
  5
3F5
102
{ACAD_REACTORS
330
3F2
102
}
330
3F2
100
AcDbVisualStyle
  2
Gouraud
 70
     2
 71
     2
 72
     2
 73
     1
 90
        2
 40
-0.6
 41
30.0
 62
     5
 63
     7
 74
     0
 91
        4
 64
     7
 65
   257
 75
     1
175
     1
 42
1.0
 92
        0
 66
     7
 43
1.0
 76
     1
 77
     6
 78
     2
 67
     7
 79
     5
170
     0
171
     0
290
     0
174
     0
 93
       13
 44
0.0
173
     0
291
     1
 45
0.0
1001
ACAD
1000
AcDbSavedByObjectVersion
1070
     0
  0
VISUALSTYLE
  5
3F6
102
{ACAD_REACTORS
330
3F2
102
}
330
3F2
100
AcDbVisualStyle
  2
GouraudWithEdges
 70
     3
 71
     2
 72
     2
 73
     1
 90
        2
 40
-0.6
 41
30.0
 62
     5
 63
     7
 74
     1
 91
        4
 64
     7
 65
   257
 75
     1
175
     1
 42
1.0
 92
        0
 66
   257
 43
1.0
 76
     1
 77
     6
 78
     2
 67
     7
 79
     5
170
     0
171
     0
290
     0
174
     0
 93
       13
 44
0.0
173
     0
291
     1
 45
0.0
1001
ACAD
1000
AcDbSavedByObjectVersion
1070
     0
  0
VISUALSTYLE
  5
400
102
{ACAD_REACTORS
330
3F2
102
}
330
3F2
100
AcDbVisualStyle
  2
Linepattern
 70
    14
 71
     2
 72
     2
 73
     0
 90
        0
 40
-0.6
 41
-30.0
 62
     5
 63
     7
 74
     1
 91
        4
 64
     7
 65
   257
 75
     7
175
     7
 42
1.0
 92
        8
 66
     7
 43
1.0
 76
     1
 77
     6
 78
     2
 67
     7
 79
     5
170
     0
171
     0
290
     0
174
     0
 93
        1
 44
0.0
173
     0
291
     1
 45
0.0
1001
ACAD
1000
AcDbSavedByObjectVersion
1070
     0
  0
VISUALSTYLE
  5
3FC
102
{ACAD_REACTORS
330
3F2
102
}
330
3F2
100
AcDbVisualStyle
  2
Realistic
 70
     8
 71
     2
 72
     2
 73
     0
 90
        0
 40
-0.6
 41
-30.0
 62
     5
 63
     7
 74
     1
 91
        0
 64
     7
 65
   257
 75
     1
175
     1
 42
1.0
 92
        8
 66
     8
 43
1.0
 76
     1
 77
     6
 78
     2
 67
     7
 79
     5
170
     0
171
     0
290
     0
174
     0
 93
       13
 44
0.0
173
     0
291
     0
 45
0.0
1001
ACAD
1000
AcDbSavedByObjectVersion
1070
     0
  0
VISUALSTYLE
  5
3FF
102
{ACAD_REACTORS
330
3F2
102
}
330
3F2
100
AcDbVisualStyle
  2
Thicken
 70
    13
 71
     2
 72
     2
 73
     0
 90
        0
 40
-0.6
 41
-30.0
 62
     5
 63
     7
 74
     1
 91
        4
 64
     7
 65
   257
 75
     1
175
     1
 42
1.0
 92
       12
 66
     7
 43
1.0
 76
     1
 77
     6
 78
     2
 67
     7
 79
     5
170
     0
171
     0
290
     0
174
     0
 93
        1
 44
0.0
173
     0
291
     1
 45
0.0
1001
ACAD
1000
AcDbSavedByObjectVersion
1070
     0
  0
DICTIONARYVAR
  5
38E
102
{ACAD_REACTORS
330
357
102
}
330
357
100
DictionaryVariables
280
     0
  1
STANDARD
  0
DICTIONARYVAR
  5
359
102
{ACAD_REACTORS
330
357
102
}
330
357
100
DictionaryVariables
280
     0
  1
2
  0
DICTIONARYVAR
  5
358
102
{ACAD_REACTORS
330
357
102
}
330
357
100
DictionaryVariables
280
     0
  1
1
  0
DICTIONARYVAR
  5
742
102
{ACAD_REACTORS
330
357
102
}
330
357
100
DictionaryVariables
280
     0
  1
0
  0
DICTIONARYVAR
  5
741
102
{ACAD_REACTORS
330
357
102
}
330
357
100
DictionaryVariables
280
     0
  1
127
  0
DICTIONARY
  5
746
330
33B
100
AcDbDictionary
280
     1
281
     1
  3
ACAD_XREC_ROUNDTRIP
360
747
  0
DICTIONARY
  5
744
330
303
100
AcDbDictionary
280
     1
281
     1
  3
ACAD_XREC_ROUNDTRIP
360
745
  0
DICTIONARY
  5
74C
330
3F0
100
AcDbDictionary
280
     1
281
     1
  3
ACAD_XREC_ROUNDTRIP
360
74D
  0
DICTIONARY
  5
74A
330
3EF
100
AcDbDictionary
280
     1
281
     1
  3
ACAD_XREC_ROUNDTRIP
360
74B
  0
DICTIONARY
  5
74E
330
3F1
100
AcDbDictionary
280
     1
281
     1
  3
ACAD_XREC_ROUNDTRIP
360
74F
  0
DICTIONARY
  5
748
330
389
100
AcDbDictionary
280
     1
281
     1
  3
ACAD_XREC_ROUNDTRIP
360
749
  0
XRECORD
  5
747
102
{ACAD_REACTORS
330
746
102
}
330
746
100
AcDbXrecord
280
     1
102
SHADEPLOT
 70
     0
102
SHADEPLOTRESLEVEL
 70
     2
102
SHADEPLOTCUSTOMDPI
 70
   300
  0
XRECORD
  5
745
102
{ACAD_REACTORS
330
744
102
}
330
744
100
AcDbXrecord
280
     1
102
SHADEPLOT
 70
     1
102
SHADEPLOTRESLEVEL
 70
     2
102
SHADEPLOTCUSTOMDPI
 70
   300
  0
XRECORD
  5
74D
102
{ACAD_REACTORS
330
74C
102
}
330
74C
100
AcDbXrecord
280
     1
102
MATERIAL
148
0.0
149
0.0
149
0.0
 93
        0
 94
       63
282
     0
 72
     1
 77
     1
171
     1
175
     1
179
     1
273
     0
  0
XRECORD
  5
74B
102
{ACAD_REACTORS
330
74A
102
}
330
74A
100
AcDbXrecord
280
     1
102
MATERIAL
148
0.0
149
0.0
149
0.0
 93
        0
 94
       63
282
     0
 72
     1
 77
     1
171
     1
175
     1
179
     1
273
     0
  0
XRECORD
  5
74F
102
{ACAD_REACTORS
330
74E
102
}
330
74E
100
AcDbXrecord
280
     1
102
MATERIAL
148
0.0
149
0.0
149
0.0
 93
        0
 94
       63
282
     0
 72
     1
 77
     1
171
     1
175
     1
179
     1
273
     0
  0
XRECORD
  5
749
102
{ACAD_REACTORS
330
748
102
}
330
748
100
AcDbXrecord
280
     1
102
ACAD_ROUNDTRIP_PRE2007_TABLESTYLE
 90
        4
 91
        0
  1

 92
        4
 93
        0
  2

 94
        4
 95
        0
  3

  0
ENDSEC
  0
EOF
