  0
SECTION
  2
HEADER
  9
$ACADVER
  1
AC1015
  9
$ACADMAINTVER
 70
    20
  9
$DWGCODEPAGE
  3
ANSI_1252
  9
$INSBASE
 10
0.0
 20
0.0
 30
0.0
  9
$EXTMIN
 10
-39.0252362804315
 20
-28.94561651040056
 30
-0.0015258207003583
  9
$EXTMAX
 10
55.85734664608867
 20
64.12612992353524
 30
0.0000000349246037
  9
$LIMMIN
 10
-170.0
 20
-170.0
  9
$LIMMAX
 10
519.0
 20
260.0
  9
$ORTHOMODE
 70
     0
  9
$REGENMODE
 70
     1
  9
$FILLMODE
 70
     1
  9
$QTEXTMODE
 70
     0
  9
$MIRRTEXT
 70
     0
  9
$LTSCALE
 40
1.0
  9
$ATTMODE
 70
     1
  9
$TEXTSIZE
 40
3.5
  9
$TRACEWID
 40
1.0
  9
$TEXTSTYLE
  7
SIMPLEX
  9
$CLAYER
  8
1
  9
$CELTYPE
  6
BYLAYER
  9
$CECOLOR
 62
   256
  9
$CELTSCALE
 40
1.0
  9
$DISPSILH
 70
     0
  9
$DIMSCALE
 40
1.0
  9
$DIMASZ
 40
2.5
  9
$DIMEXO
 40
0.0
  9
$DIMDLI
 40
3.75
  9
$DIMRND
 40
0.0
  9
$DIMDLE
 40
0.0
  9
$DIMEXE
 40
1.25
  9
$DIMTP
 40
0.0
  9
$DIMTM
 40
0.0
  9
$DIMTXT
 40
3.5
  9
$DIMCEN
 40
0.0
  9
$DIMTSZ
 40
0.0
  9
$DIMTOL
 70
     0
  9
$DIMLIM
 70
     0
  9
$DIMTIH
 70
     0
  9
$DIMTOH
 70
     0
  9
$DIMSE1
 70
     0
  9
$DIMSE2
 70
     0
  9
$DIMTAD
 70
     1
  9
$DIMZIN
 70
     8
  9
$DIMBLK
  1

  9
$DIMASO
 70
     1
  9
$DIMSHO
 70
     1
  9
$DIMPOST
  1

  9
$DIMAPOST
  1

  9
$DIMALT
 70
     0
  9
$DIMALTD
 70
     3
  9
$DIMALTF
 40
0.039370078
  9
$DIMLFAC
 40
1.0
  9
$DIMTOFL
 70
     0
  9
$DIMTVP
 40
0.0
  9
$DIMTIX
 70
     0
  9
$DIMSOXD
 70
     0
  9
$DIMSAH
 70
     0
  9
$DIMBLK1
  1

  9
$DIMBLK2
  1

  9
$DIMSTYLE
  2
STANDARD
  9
$DIMCLRD
 70
     0
  9
$DIMCLRE
 70
     0
  9
$DIMCLRT
 70
     0
  9
$DIMTFAC
 40
1.0
  9
$DIMGAP
 40
0.625
  9
$DIMJUST
 70
     0
  9
$DIMSD1
 70
     0
  9
$DIMSD2
 70
     0
  9
$DIMTOLJ
 70
     0
  9
$DIMTZIN
 70
     8
  9
$DIMALTZ
 70
     0
  9
$DIMALTTZ
 70
     0
  9
$DIMUPT
 70
     0
  9
$DIMDEC
 70
     2
  9
$DIMTDEC
 70
     2
  9
$DIMALTU
 70
     2
  9
$DIMALTTD
 70
     3
  9
$DIMTXSTY
  7
SIMPLEX
  9
$DIMAUNIT
 70
     0
  9
$DIMADEC
 70
     2
  9
$DIMALTRND
 40
0.0
  9
$DIMAZIN
 70
     2
  9
$DIMDSEP
 70
    46
  9
$DIMATFIT
 70
     3
  9
$DIMFRAC
 70
     0
  9
$DIMLDRBLK
  1

  9
$DIMLUNIT
 70
     2
  9
$DIMLWD
 70
    -2
  9
$DIMLWE
 70
    -2
  9
$DIMTMOVE
 70
     0
  9
$LUNITS
 70
     2
  9
$LUPREC
 70
     4
  9
$SKETCHINC
 40
1.0
  9
$FILLETRAD
 40
0.0
  9
$AUNITS
 70
     0
  9
$AUPREC
 70
     0
  9
$MENU
  1
c:\tdm21\cad\caduti13\tdm13
  9
$ELEVATION
 40
0.0
  9
$PELEVATION
 40
0.0
  9
$THICKNESS
 40
0.0
  9
$LIMCHECK
 70
     0
  9
$CHAMFERA
 40
0.0
  9
$CHAMFERB
 40
0.0
  9
$CHAMFERC
 40
0.0
  9
$CHAMFERD
 40
0.0
  9
$SKPOLY
 70
     0
  9
$TDCREATE
 40
2454673.368857315
  9
$TDUCREATE
 40
2454673.285523981
  9
$TDUPDATE
 40
2454673.371181389
  9
$TDUUPDATE
 40
2454673.287848056
  9
$TDINDWG
 40
0.0023246181
  9
$TDUSRTIMER
 40
0.0023246181
  9
$USRTIMER
 70
     1
  9
$ANGBASE
 50
0.0
  9
$ANGDIR
 70
     0
  9
$PDMODE
 70
     1
  9
$PDSIZE
 40
0.0
  9
$PLINEWID
 40
0.0
  9
$SPLFRAME
 70
     0
  9
$SPLINETYPE
 70
     6
  9
$SPLINESEGS
 70
     8
  9
$HANDSEED
  5
757
  9
$SURFTAB1
 70
     6
  9
$SURFTAB2
 70
     6
  9
$SURFTYPE
 70
     6
  9
$SURFU
 70
     6
  9
$SURFV
 70
     6
  9
$UCSBASE
  2

  9
$UCSNAME
  2

  9
$UCSORG
 10
0.0
 20
0.0
 30
0.0
  9
$UCSXDIR
 10
1.0
 20
0.0
 30
0.0
  9
$UCSYDIR
 10
0.0
 20
1.0
 30
0.0
  9
$UCSORTHOREF
  2

  9
$UCSORTHOVIEW
 70
     0
  9
$UCSORGTOP
 10
0.0
 20
0.0
 30
0.0
  9
$UCSORGBOTTOM
 10
0.0
 20
0.0
 30
0.0
  9
$UCSORGLEFT
 10
0.0
 20
0.0
 30
0.0
  9
$UCSORGRIGHT
 10
0.0
 20
0.0
 30
0.0
  9
$UCSORGFRONT
 10
0.0
 20
0.0
 30
0.0
  9
$UCSORGBACK
 10
0.0
 20
0.0
 30
0.0
  9
$PUCSBASE
  2

  9
$PUCSNAME
  2

  9
$PUCSORG
 10
0.0
 20
0.0
 30
0.0
  9
$PUCSXDIR
 10
1.0
 20
0.0
 30
0.0
  9
$PUCSYDIR
 10
0.0
 20
1.0
 30
0.0
  9
$PUCSORTHOREF
  2

  9
$PUCSORTHOVIEW
 70
     0
  9
$PUCSORGTOP
 10
0.0
 20
0.0
 30
0.0
  9
$PUCSORGBOTTOM
 10
0.0
 20
0.0
 30
0.0
  9
$PUCSORGLEFT
 10
0.0
 20
0.0
 30
0.0
  9
$PUCSORGRIGHT
 10
0.0
 20
0.0
 30
0.0
  9
$PUCSORGFRONT
 10
0.0
 20
0.0
 30
0.0
  9
$PUCSORGBACK
 10
0.0
 20
0.0
 30
0.0
  9
$USERI1
 70
     0
  9
$USERI2
 70
     0
  9
$USERI3
 70
     0
  9
$USERI4
 70
     0
  9
$USERI5
 70
     0
  9
$USERR1
 40
0.0
  9
$USERR2
 40
0.0
  9
$USERR3
 40
0.0
  9
$USERR4
 40
0.0
  9
$USERR5
 40
0.0
  9
$WORLDVIEW
 70
     1
  9
$SHADEDGE
 70
     3
  9
$SHADEDIF
 70
    70
  9
$TILEMODE
 70
     1
  9
$MAXACTVP
 70
    64
  9
$PINSBASE
 10
0.0
 20
0.0
 30
0.0
  9
$PLIMCHECK
 70
     0
  9
$PEXTMIN
 10
0.0
 20
0.0
 30
0.0
  9
$PEXTMAX
 10
0.0
 20
0.0
 30
0.0
  9
$PLIMMIN
 10
0.0
 20
0.0
  9
$PLIMMAX
 10
12.0
 20
9.0
  9
$UNITMODE
 70
     0
  9
$VISRETAIN
 70
     0
  9
$PLINEGEN
 70
     0
  9
$PSLTSCALE
 70
     1
  9
$TREEDEPTH
 70
  3020
  9
$CMLSTYLE
  2
STANDARD
  9
$CMLJUST
 70
     0
  9
$CMLSCALE
 40
20.0
  9
$PROXYGRAPHICS
 70
     1
  9
$MEASUREMENT
 70
     1
  9
$CELWEIGHT
370
    -1
  9
$ENDCAPS
280
     0
  9
$JOINSTYLE
280
     0
  9
$LWDISPLAY
290
     0
  9
$INSUNITS
 70
     4
  9
$HYPERLINKBASE
  1

  9
$STYLESHEET
  1
monochrome.ctb
  9
$XEDIT
290
     1
  9
$CEPSNTYPE
380
     0
  9
$PSTYLEMODE
290
     1
  9
$FINGERPRINTGUID
  2
{46555206-9970-4614-8B7F-3801F891FD5B}
  9
$VERSIONGUID
  2
{606254B8-5AB3-4C90-A1C8-86AA5DFDCDED}
  9
$EXTNAMES
290
     1
  9
$PSVPSCALE
 40
0.0
  9
$OLESTARTUP
290
     0
  0
ENDSEC
  0
SECTION
  2
CLASSES
  0
CLASS
  1
ACDBDICTIONARYWDFLT
  2
AcDbDictionaryWithDefault
  3
ObjectDBX Classes
 90
        0
280
     0
281
     0
  0
CLASS
  1
ACDBPLACEHOLDER
  2
AcDbPlaceHolder
  3
ObjectDBX Classes
 90
        0
280
     0
281
     0
  0
CLASS
  1
LAYOUT
  2
AcDbLayout
  3
ObjectDBX Classes
 90
        0
280
     0
281
     0
  0
CLASS
  1
DICTIONARYVAR
  2
AcDbDictionaryVar
  3
ObjectDBX Classes
 90
        0
280
     0
281
     0
  0
CLASS
  1
TABLESTYLE
  2
AcDbTableStyle
  3
ObjectDBX Classes
 90
     4095
280
     0
281
     0
  0
CLASS
  1
MATERIAL
  2
AcDbMaterial
  3
ObjectDBX Classes
 90
     1024
280
     0
281
     0
  0
CLASS
  1
VISUALSTYLE
  2
AcDbVisualStyle
  3
ObjectDBX Classes
 90
     4095
280
     0
281
     0
  0
ENDSEC
  0
SECTION
  2
TABLES
  0
TABLE
  2
VPORT
  5
8
330
0
100
AcDbSymbolTable
 70
     1
  0
VPORT
  5
3ED
330
8
100
AcDbSymbolTableRecord
100
AcDbViewportTableRecord
  2
*Active
 70
     0
 10
0.0
 20
0.0
 11
1.0
 21
1.0
 12
8.416055182828587
 22
17.59025670656734
 13
0.0
 23
0.0
 14
5.0
 24
5.0
 15
5.0
 25
5.0
 16
0.0
 26
0.0
 36
1.0
 17
0.0
 27
0.0
 37
0.0
 40
95.71024508214632
 41
1.192207792207792
 42
50.0
 43
0.0
 44
0.0
 50
0.0
 51
0.0
 71
     0
 72
  2000
 73
     1
 74
     1
 75
     0
 76
     0
 77
     0
 78
     0
281
     0
 65
     1
110
0.0
120
0.0
130
0.0
111
1.0
121
0.0
131
0.0
112
0.0
122
1.0
132
0.0
 79
     0
146
0.0
  0
ENDTAB
  0
TABLE
  2
LTYPE
  5
5
330
0
100
AcDbSymbolTable
 70
    56
  0
LTYPE
  5
12
330
5
100
AcDbSymbolTableRecord
100
AcDbLinetypeTableRecord
  2
BYBLOCK
 70
     0
  3

 72
    65
 73
     0
 40
0.0
  0
LTYPE
  5
13
330
5
100
AcDbSymbolTableRecord
100
AcDbLinetypeTableRecord
  2
BYLAYER
 70
     0
  3

 72
    65
 73
     0
 40
0.0
  0
LTYPE
  5
14
330
5
100
AcDbSymbolTableRecord
100
AcDbLinetypeTableRecord
  2
CONTINUOUS
 70
     0
  3
Solid line
 72
    65
 73
     0
 40
0.0
  0
LTYPE
  5
20
330
5
100
AcDbSymbolTableRecord
100
AcDbLinetypeTableRecord
  2
HIDDEN
 70
     0
  3
Hidden __ __ __ __ __ __ __ __ __ __ __ __ __ _
 72
    65
 73
     2
 40
9.524999999999998
 49
6.349999999999999
 74
     0
 49
-3.174999999999999
 74
     0
  0
LTYPE
  5
351
330
5
100
AcDbSymbolTableRecord
100
AcDbLinetypeTableRecord
  2
CENTER
 70
     0
  3
Dash dot __ . __ . __ . __ . __ . __ . __ . __
 72
    65
 73
     4
 40
25.4
 49
12.7
 74
     0
 49
-6.349999999999999
 74
     0
 49
0.0
 74
     0
 49
-6.349999999999999
 74
     0
  0
ENDTAB
  0
TABLE
  2
LAYER
  5
2
102
{ACAD_XDICTIONARY
360
43C
102
}
330
0
100
AcDbSymbolTable
 70
    27
  0
LAYER
  5
F
330
2
100
AcDbSymbolTableRecord
100
AcDbLayerTableRecord
  2
0
 70
     0
 62
     7
  6
CONTINUOUS
370
    -3
390
300
  0
LAYER
  5
23
330
2
100
AcDbSymbolTableRecord
100
AcDbLayerTableRecord
  2
1
 70
     0
 62
     4
  6
CONTINUOUS
370
    -3
390
300
  0
LAYER
  5
24
330
2
100
AcDbSymbolTableRecord
100
AcDbLayerTableRecord
  2
SK1
 70
     0
 62
     4
  6
CONTINUOUS
370
    -3
390
300
  0
LAYER
  5
25
330
2
100
AcDbSymbolTableRecord
100
AcDbLayerTableRecord
  2
2
 70
     0
 62
     7
  6
CONTINUOUS
370
    -3
390
300
  0
LAYER
  5
27
330
2
100
AcDbSymbolTableRecord
100
AcDbLayerTableRecord
  2
SK2
 70
     0
 62
     7
  6
CONTINUOUS
370
    -3
390
300
  0
LAYER
  5
28
330
2
100
AcDbSymbolTableRecord
100
AcDbLayerTableRecord
  2
3
 70
     0
 62
     1
  6
HIDDEN
370
    -3
390
300
  0
LAYER
  5
29
330
2
100
AcDbSymbolTableRecord
100
AcDbLayerTableRecord
  2
SK3
 70
     0
 62
     1
  6
HIDDEN
370
    -3
390
300
  0
LAYER
  5
2A
330
2
100
AcDbSymbolTableRecord
100
AcDbLayerTableRecord
  2
4
 70
     0
 62
     2
  6
CENTER
370
    -3
390
300
  0
LAYER
  5
2B
330
2
100
AcDbSymbolTableRecord
100
AcDbLayerTableRecord
  2
SK4
 70
     0
 62
     2
  6
CENTER
370
    -3
390
300
  0
LAYER
  5
2E
330
2
100
AcDbSymbolTableRecord
100
AcDbLayerTableRecord
  2
SK6
 70
     0
 62
     5
  6
CONTINUOUS
370
    -3
390
300
  0
LAYER
  5
2F
330
2
100
AcDbSymbolTableRecord
100
AcDbLayerTableRecord
  2
DEFPOINTS
 70
     0
 62
     7
  6
CONTINUOUS
290
     0
370
    -3
390
300
  0
ENDTAB
  0
TABLE
  2
STYLE
  5
3
330
0
100
AcDbSymbolTable
 70
    11
  0
STYLE
  5
10
330
3
100
AcDbSymbolTableRecord
100
AcDbTextStyleTableRecord
  2
STANDARD
 70
     0
 40
0.0
 41
1.0
 50
0.0
 71
     0
 42
5.0
  3
txt
  4

  0
STYLE
  5
1E
330
3
100
AcDbSymbolTableRecord
100
AcDbTextStyleTableRecord
  2
SIMPLEX
 70
     0
 40
3.5
 41
1.0
 50
0.0
 71
     0
 42
3.5
  3
simplex.shx
  4

  0
ENDTAB
  0
TABLE
  2
VIEW
  5
6
330
0
100
AcDbSymbolTable
 70
     0
  0
ENDTAB
  0
TABLE
  2
UCS
  5
7
330
0
100
AcDbSymbolTable
 70
     0
  0
ENDTAB
  0
TABLE
  2
APPID
  5
9
330
0
100
AcDbSymbolTable
 70
     5
  0
APPID
  5
11
330
9
100
AcDbSymbolTableRecord
100
AcDbRegAppTableRecord
  2
ACAD
 70
     0
  0
APPID
  5
3A6
330
9
100
AcDbSymbolTableRecord
100
AcDbRegAppTableRecord
  2
ACAD_PSEXT
 70
     0
  0
APPID
  5
3A8
330
9
100
AcDbSymbolTableRecord
100
AcDbRegAppTableRecord
  2
ACAD_EXEMPT_FROM_CAD_STANDARDS
 70
     0
  0
APPID
  5
433
330
9
100
AcDbSymbolTableRecord
100
AcDbRegAppTableRecord
  2
AcAecLayerStandard
 70
     0
  0
APPID
  5
485
330
9
100
AcDbSymbolTableRecord
100
AcDbRegAppTableRecord
  2
DCO15
 70
     0
  0
ENDTAB
  0
TABLE
  2
DIMSTYLE
  5
A
330
0
100
AcDbSymbolTable
 70
     2
100
AcDbDimStyleTable
 71
     1
340
3F
  0
DIMSTYLE
105
3F
102
{ACAD_REACTORS
330
56F
330
56E
330
56D
330
56C
102
}
330
A
100
AcDbSymbolTableRecord
100
AcDbDimStyleTableRecord
  2
STANDARD
 70
     0
 41
2.5
 42
0.0
 43
3.75
 44
1.25
 73
     0
 74
     0
 77
     1
 78
     8
 79
     2
140
3.5
141
0.0
143
0.039370078
147
0.625
171
     3
179
     2
271
     2
272
     2
274
     3
283
     0
284
     8
340
1E
  0
ENDTAB
  0
TABLE
  2
BLOCK_RECORD
  5
1
330
0
100
AcDbSymbolTable
 70
    11
  0
BLOCK_RECORD
  5
18
330
1
100
AcDbSymbolTableRecord
100
AcDbBlockTableRecord
  2
*MODEL_SPACE
340
303
  0
BLOCK_RECORD
  5
338
330
1
100
AcDbSymbolTableRecord
100
AcDbBlockTableRecord
  2
*Paper_Space
340
33B
  0
BLOCK_RECORD
  5
5BF
330
1
100
AcDbSymbolTableRecord
100
AcDbBlockTableRecord
  2
*D5
340
0
  0
BLOCK_RECORD
  5
5CB
330
1
100
AcDbSymbolTableRecord
100
AcDbBlockTableRecord
  2
*D6
340
0
  0
BLOCK_RECORD
  5
5D7
330
1
100
AcDbSymbolTableRecord
100
AcDbBlockTableRecord
  2
*D7
340
0
  0
BLOCK_RECORD
  5
5E3
330
1
100
AcDbSymbolTableRecord
100
AcDbBlockTableRecord
  2
*D8
340
0
  0
ENDTAB
  0
ENDSEC
  0
SECTION
  2
BLOCKS
  0
BLOCK
  5
32
330
18
100
AcDbEntity
  8
0
100
AcDbBlockBegin
  2
*MODEL_SPACE
 70
     0
 10
0.0
 20
0.0
 30
0.0
  3
*MODEL_SPACE
  1

  0
ENDBLK
  5
33
330
18
100
AcDbEntity
  8
0
100
AcDbBlockEnd
  0
BLOCK
  5
339
330
338
100
AcDbEntity
 67
     1
  8
0
100
AcDbBlockBegin
  2
*Paper_Space
 70
     0
 10
0.0
 20
0.0
 30
0.0
  3
*Paper_Space
  1

  0
ENDBLK
  5
33A
330
338
100
AcDbEntity
 67
     1
  8
0
100
AcDbBlockEnd
  0
BLOCK
  5
5C9
330
5BF
100
AcDbEntity
  8
0
100
AcDbBlockBegin
  2
*D5
 70
     1
 10
0.0
 20
0.0
 30
0.0
  3
*D5
  1

  0
LINE
  5
72A
330
5BF
100
AcDbEntity
  8
SK2
 62
     0
370
    -2
100
AcDbLine
 10
-15.25000000000002
 20
7.0
 30
0.0
 11
-27.66083422004689
 21
7.000000000000003
 31
0.0
  0
LINE
  5
72B
330
5BF
100
AcDbEntity
  8
SK2
 62
     0
370
    -2
100
AcDbLine
 10
-15.25000000000002
 20
-7.0
 30
0.0
 11
-27.66083422004689
 21
-6.999999999999996
 31
0.0
  0
LINE
  5
72C
330
5BF
100
AcDbEntity
  8
SK2
 62
     0
370
    -2
100
AcDbLine
 10
-26.41083422004689
 20
4.500000000000003
 30
0.0
 11
-26.41083422004689
 21
-4.499999999999996
 31
0.0
  0
SOLID
  5
72D
330
5BF
100
AcDbEntity
  8
SK2
 62
     0
100
AcDbTrace
 10
-26.82750088671356
 20
4.500000000000003
 30
0.0
 11
-25.99416755338022
 21
4.500000000000002
 31
0.0
 12
-26.41083422004689
 22
7.000000000000003
 32
0.0
 13
-26.41083422004689
 23
7.000000000000003
 33
0.0
  0
SOLID
  5
72E
330
5BF
100
AcDbEntity
  8
SK2
 62
     0
100
AcDbTrace
 10
-26.82750088671356
 20
-4.499999999999996
 30
0.0
 11
-25.99416755338022
 21
-4.499999999999997
 31
0.0
 12
-26.41083422004689
 22
-6.999999999999996
 32
0.0
 13
-26.41083422004689
 23
-6.999999999999996
 33
0.0
  0
MTEXT
  5
72F
330
5BF
100
AcDbEntity
  8
SK2
 62
     0
100
AcDbMText
 10
-28.78583422004689
 20
-0.0000000000000015
 30
0.0
 40
3.5
 41
0.0
 71
     5
 72
     1
  1
%%c14
  7
SIMPLEX
 11
0.0000000000000001
 21
1.0
 31
0.0
 73
     1
 44
1.0
1001
ACAD
1000
MTEXTBEGIN
1070
    73
1070
     1
1070
    44
1040
1.0
1070
    74
1070
     0
1000
MTEXTEND
  0
POINT
  5
730
330
5BF
100
AcDbEntity
  8
DEFPOINTS
 62
     0
100
AcDbPoint
 10
-15.25000000000002
 20
7.0
 30
0.0
  0
POINT
  5
731
330
5BF
100
AcDbEntity
  8
DEFPOINTS
 62
     0
100
AcDbPoint
 10
-15.25000000000002
 20
-7.0
 30
0.0
  0
POINT
  5
732
330
5BF
100
AcDbEntity
  8
DEFPOINTS
 62
     0
100
AcDbPoint
 10
-26.41083422004689
 20
-6.999999999999996
 30
0.0
  0
ENDBLK
  5
5CA
330
5BF
100
AcDbEntity
  8
0
100
AcDbBlockEnd
  0
BLOCK
  5
5D5
330
5CB
100
AcDbEntity
  8
0
100
AcDbBlockBegin
  2
*D6
 70
     1
 10
0.0
 20
0.0
 30
0.0
  3
*D6
  1

  0
LINE
  5
718
330
5CB
100
AcDbEntity
  8
SK2
 62
     0
370
    -2
100
AcDbLine
 10
1.0
 20
13.5
 30
0.0
 11
-36.14669319845712
 21
13.50000000000001
 31
0.0
  0
LINE
  5
719
330
5CB
100
AcDbEntity
  8
SK2
 62
     0
370
    -2
100
AcDbLine
 10
0.9999999999999893
 20
-13.5
 30
0.0
 11
-36.14669319845712
 21
-13.49999999999999
 31
0.0
  0
LINE
  5
71A
330
5CB
100
AcDbEntity
  8
SK2
 62
     0
370
    -2
100
AcDbLine
 10
-34.89669319845712
 20
11.00000000000001
 30
0.0
 11
-34.89669319845712
 21
-10.99999999999999
 31
0.0
  0
SOLID
  5
71B
330
5CB
100
AcDbEntity
  8
SK2
 62
     0
100
AcDbTrace
 10
-35.31335986512378
 20
11.00000000000001
 30
0.0
 11
-34.48002653179045
 21
11.00000000000001
 31
0.0
 12
-34.89669319845712
 22
13.50000000000001
 32
0.0
 13
-34.89669319845712
 23
13.50000000000001
 33
0.0
  0
SOLID
  5
71C
330
5CB
100
AcDbEntity
  8
SK2
 62
     0
100
AcDbTrace
 10
-35.31335986512378
 20
-10.99999999999999
 30
0.0
 11
-34.48002653179045
 21
-10.99999999999999
 31
0.0
 12
-34.89669319845712
 22
-13.49999999999999
 32
0.0
 13
-34.89669319845712
 23
-13.49999999999999
 33
0.0
  0
MTEXT
  5
71D
330
5CB
100
AcDbEntity
  8
SK2
 62
     0
100
AcDbMText
 10
-37.27169319845712
 20
0.0000000000000046
 30
0.0
 40
3.5
 41
0.0
 71
     5
 72
     1
  1
%%c27
  7
SIMPLEX
 11
0.0000000000000001
 21
1.0
 31
0.0
 73
     1
 44
1.0
1001
ACAD
1000
MTEXTBEGIN
1070
    73
1070
     1
1070
    44
1040
1.0
1070
    74
1070
     0
1000
MTEXTEND
  0
POINT
  5
71E
330
5CB
100
AcDbEntity
  8
DEFPOINTS
 62
     0
100
AcDbPoint
 10
1.0
 20
13.5
 30
0.0
  0
POINT
  5
71F
330
5CB
100
AcDbEntity
  8
DEFPOINTS
 62
     0
100
AcDbPoint
 10
0.9999999999999893
 20
-13.5
 30
0.0
  0
POINT
  5
720
330
5CB
100
AcDbEntity
  8
DEFPOINTS
 62
     0
100
AcDbPoint
 10
-34.89669319845712
 20
-13.49999999999999
 30
0.0
  0
ENDBLK
  5
5D6
330
5CB
100
AcDbEntity
  8
0
100
AcDbBlockEnd
  0
BLOCK
  5
5E1
330
5D7
100
AcDbEntity
  8
0
100
AcDbBlockBegin
  2
*D7
 70
     1
 10
0.0
 20
0.0
 30
0.0
  3
*D7
  1

  0
LINE
  5
6FD
330
5D7
100
AcDbEntity
  8
2
 62
     0
370
    -2
100
AcDbLine
 10
44.85862647374157
 20
-20.0
 30
0.0
 11
55.84776013128469
 21
-20.0
 31
0.0
  0
LINE
  5
6FE
330
5D7
100
AcDbEntity
  8
2
 62
     0
370
    -2
100
AcDbLine
 10
44.85862647374157
 20
20.0
 30
0.0
 11
55.84776013128471
 21
20.0
 31
0.0
  0
LINE
  5
6FF
330
5D7
100
AcDbEntity
  8
2
 62
     0
370
    -2
100
AcDbLine
 10
54.59776013128469
 20
-17.5
 30
0.0
 11
54.59776013128471
 21
17.5
 31
0.0
  0
SOLID
  5
700
330
5D7
100
AcDbEntity
  8
2
 62
     0
100
AcDbTrace
 10
54.18109346461803
 20
-17.5
 30
0.0
 11
55.01442679795136
 21
-17.5
 31
0.0
 12
54.59776013128469
 22
-20.0
 32
0.0
 13
54.59776013128469
 23
-20.0
 33
0.0
  0
SOLID
  5
701
330
5D7
100
AcDbEntity
  8
2
 62
     0
100
AcDbTrace
 10
54.18109346461804
 20
17.5
 30
0.0
 11
55.01442679795137
 21
17.5
 31
0.0
 12
54.59776013128471
 22
20.0
 32
0.0
 13
54.59776013128471
 23
20.0
 33
0.0
  0
MTEXT
  5
702
330
5D7
100
AcDbEntity
  8
2
 62
     0
100
AcDbMText
 10
52.2227601312847
 20
0.0000000000000076
 30
0.0
 40
3.5
 41
0.0
 71
     5
 72
     1
  1
%%c40
  7
SIMPLEX
 11
0.0000000000000001
 21
1.0
 31
0.0
 73
     1
 44
1.0
1001
ACAD
1000
MTEXTBEGIN
1070
    73
1070
     1
1070
    44
1040
1.0
1070
    74
1070
     0
1000
MTEXTEND
  0
POINT
  5
703
330
5D7
100
AcDbEntity
  8
DEFPOINTS
 62
     0
100
AcDbPoint
 10
44.85862647374157
 20
-20.0
 30
0.0
  0
POINT
  5
704
330
5D7
100
AcDbEntity
  8
DEFPOINTS
 62
     0
100
AcDbPoint
 10
44.85862647374157
 20
20.0
 30
0.0
  0
POINT
  5
705
330
5D7
100
AcDbEntity
  8
DEFPOINTS
 62
     0
100
AcDbPoint
 10
54.59776013128471
 20
20.0
 30
0.0
  0
ENDBLK
  5
5E2
330
5D7
100
AcDbEntity
  8
0
100
AcDbBlockEnd
  0
BLOCK
  5
5ED
330
5E3
100
AcDbEntity
  8
0
100
AcDbBlockBegin
  2
*D8
 70
     1
 10
0.0
 20
0.0
 30
0.0
  3
*D8
  1

  0
LINE
  5
733
330
5E3
100
AcDbEntity
  8
2
 62
     0
370
    -2
100
AcDbLine
 10
44.99999999999998
 20
19.87
 30
0.0
 11
44.99999999999998
 21
61.25
 31
0.0
  0
LINE
  5
734
330
5E3
100
AcDbEntity
  8
2
 62
     0
370
    -2
100
AcDbLine
 10
-0.0000000000000036
 20
12.5
 30
0.0
 11
-0.0000000000000006
 21
61.25
 31
0.0
  0
LINE
  5
735
330
5E3
100
AcDbEntity
  8
2
 62
     0
370
    -2
100
AcDbLine
 10
42.49999999999998
 20
60.0
 30
0.0
 11
2.499999999999999
 21
60.0
 31
0.0
  0
SOLID
  5
736
330
5E3
100
AcDbEntity
  8
2
 62
     0
100
AcDbTrace
 10
42.49999999999998
 20
60.41666666666666
 30
0.0
 11
42.49999999999998
 21
59.58333333333333
 31
0.0
 12
44.99999999999998
 22
60.0
 32
0.0
 13
44.99999999999998
 23
60.0
 33
0.0
  0
SOLID
  5
737
330
5E3
100
AcDbEntity
  8
2
 62
     0
100
AcDbTrace
 10
2.499999999999999
 20
60.41666666666666
 30
0.0
 11
2.499999999999999
 21
59.58333333333333
 31
0.0
 12
-0.0000000000000006
 22
60.0
 32
0.0
 13
-0.0000000000000006
 23
60.0
 33
0.0
  0
MTEXT
  5
738
330
5E3
100
AcDbEntity
  8
2
 62
     0
100
AcDbMText
 10
22.49999999999999
 20
62.375
 30
0.0
 40
3.5
 41
0.0
 71
     5
 72
     1
  1
45
  7
SIMPLEX
 73
     1
 44
1.0
1001
ACAD
1000
MTEXTBEGIN
1070
    73
1070
     1
1070
    44
1040
1.0
1070
    74
1070
     0
1000
MTEXTEND
  0
POINT
  5
739
330
5E3
100
AcDbEntity
  8
DEFPOINTS
 62
     0
100
AcDbPoint
 10
44.99999999999998
 20
19.87
 30
0.0
  0
POINT
  5
73A
330
5E3
100
AcDbEntity
  8
DEFPOINTS
 62
     0
100
AcDbPoint
 10
-0.0000000000000036
 20
12.5
 30
0.0
  0
POINT
  5
73B
330
5E3
100
AcDbEntity
  8
DEFPOINTS
 62
     0
100
AcDbPoint
 10
-0.0000000000000006
 20
60.0
 30
0.0
  0
ENDBLK
  5
5EE
330
5E3
100
AcDbEntity
  8
0
100
AcDbBlockEnd
  0
ENDSEC
  0
SECTION
  2
ENTITIES
  0
LINE
  5
425
330
18
100
AcDbEntity
  8
DEFPOINTS
100
AcDbLine
 10
0.0
 20
0.0
 30
0.0
 11
0.0
 21
0.0
 31
0.0
  0
LINE
  5
541
330
18
100
AcDbEntity
  8
1
100
AcDbLine
 10
-0.0000000000000036
 20
12.5
 30
0.0
 11
0.0000000000000071
 21
-12.5
 31
0.0
  0
LINE
  5
542
330
18
100
AcDbEntity
  8
1
100
AcDbLine
 10
23.29784629753538
 20
-13.5
 30
0.0
 11
25.29764223672528
 21
-11.5002040608101
 31
0.0
  0
POINT
  5
543
330
18
100
AcDbEntity
  8
0
100
AcDbPoint
 10
26.52045102985176
 20
31.51642451907969
 30
0.0
  0
TEXT
  5
544
330
18
100
AcDbEntity
  8
SK6
100
AcDbText
 10
-16.00000000000002
 20
-23.7776204488971
 30
0.0
 40
3.5
  1
A79020
  7
SIMPLEX
100
AcDbText
  0
LINE
  5
545
330
18
100
AcDbEntity
  8
SK1
100
AcDbLine
 10
0.0000000000000355
 20
7.0
 30
0.0
 11
-15.25000000000002
 21
7.0
 31
0.0
  0
LINE
  5
546
330
18
100
AcDbEntity
  8
SK1
100
AcDbLine
 10
0.0000000000000071
 20
-7.0
 30
0.0
 11
-15.25000000000002
 21
-7.0
 31
0.0
  0
LINE
  5
547
330
18
100
AcDbEntity
  8
1
100
AcDbLine
 10
0.0
 20
-3.0
 30
0.0
 11
-2.999999999999971
 21
-3.0
 31
0.0
  0
LINE
  5
548
330
18
100
AcDbEntity
  8
1
100
AcDbLine
 10
-2.999999999999971
 20
-3.0
 30
0.0
 11
-2.999999999999971
 21
3.0
 31
0.0
  0
LINE
  5
549
330
18
100
AcDbEntity
  8
1
100
AcDbLine
 10
0.0
 20
3.0
 30
0.0
 11
-2.999999999999971
 21
3.0
 31
0.0
  0
LINE
  5
54A
330
18
100
AcDbEntity
  8
SK1
100
AcDbLine
 10
-15.25000000000002
 20
-7.0
 30
0.0
 11
-16.00000000000002
 21
-6.25
 31
0.0
  0
ARC
  5
54B
330
18
100
AcDbEntity
  8
SK1
100
AcDbCircle
 10
-6.19999999999997
 20
-7.199999999999999
 30
0.0
 40
3.0
100
AcDbArc
 50
3.822553729274327
 51
176.1774462707259
  0
ARC
  5
54C
330
18
100
AcDbEntity
  8
SK1
100
AcDbCircle
 10
6.19999999999997
 20
7.199999999999967
 30
0.0
 40
3.0
210
0.0
220
0.0
230
-1.0
100
AcDbArc
 50
183.8225537292743
 51
356.1774462707257
  0
LINE
  5
54D
330
18
100
AcDbEntity
  8
SK1
100
AcDbLine
 10
-16.00000000000002
 20
6.25
 30
0.0
 11
-15.25000000000002
 21
7.0
 31
0.0
  0
LINE
  5
54E
330
18
100
AcDbEntity
  8
SK1
100
AcDbLine
 10
-15.25000000000002
 20
7.0
 30
0.0
 11
-15.25000000000002
 21
-7.0
 31
0.0
  0
LINE
  5
54F
330
18
100
AcDbEntity
  8
SK1
100
AcDbLine
 10
-16.00000000000002
 20
-6.25
 30
0.0
 11
-16.00000000000002
 21
6.25
 31
0.0
  0
LINE
  5
550
330
18
100
AcDbEntity
  8
1
100
AcDbLine
 10
0.0000000000000071
 20
-12.5
 30
0.0
 11
1.000000000000007
 21
-13.5
 31
0.0
  0
LINE
  5
551
330
18
100
AcDbEntity
  8
1
100
AcDbLine
 10
-0.0000000000000036
 20
12.5
 30
0.0
 11
1.0
 21
13.5
 31
0.0
  0
LINE
  5
552
330
18
100
AcDbEntity
  8
1
100
AcDbLine
 10
1.0
 20
13.5
 30
0.0
 11
1.000000000000007
 21
-13.5
 31
0.0
  0
LINE
  5
553
330
18
100
AcDbEntity
  8
1
100
AcDbLine
 10
9.0
 20
13.5
 30
0.0
 11
9.000000000000007
 21
-13.5
 31
0.0
  0
LINE
  5
554
330
18
100
AcDbEntity
  8
1
100
AcDbLine
 10
17.99999999999998
 20
13.5
 30
0.0
 11
17.99999999999998
 21
-13.5
 31
0.0
  0
TEXT
  5
555
330
18
100
AcDbEntity
  8
1
100
AcDbText
 10
12.34893619600267
 20
6.441963429643898
 30
0.0
 40
1.5
  1
0
 50
89.99999999999962
100
AcDbText
  0
LINE
  5
556
330
18
100
AcDbEntity
  8
1
100
AcDbLine
 10
9.0
 20
6.75
 30
0.0
 11
10.99999999999998
 21
6.75
 31
0.0
  0
TEXT
  5
557
330
18
100
AcDbEntity
  8
1
100
AcDbText
 10
12.34893619600267
 20
3.189492467939032
 30
0.0
 40
1.5
  1
5
 50
89.99999999999962
100
AcDbText
  0
LINE
  5
558
330
18
100
AcDbEntity
  8
1
100
AcDbLine
 10
9.0
 20
3.499999999999992
 30
0.0
 11
10.99999999999998
 21
3.499999999999992
 31
0.0
  0
TEXT
  5
559
330
18
100
AcDbEntity
  8
1
100
AcDbText
 10
12.39154498589408
 20
-0.7141374742729525
 30
0.0
 40
1.5
  1
10
 50
89.99999999999962
100
AcDbText
  0
TEXT
  5
55A
330
18
100
AcDbEntity
  8
1
100
AcDbText
 10
12.30632740611138
 20
-4.151246525506898
 30
0.0
 40
1.5
  1
15
 50
89.99999999999962
100
AcDbText
  0
LINE
  5
55B
330
18
100
AcDbEntity
  8
1
100
AcDbLine
 10
9.0
 20
-3.50000000000001
 30
0.0
 11
10.99999999999998
 21
-3.50000000000001
 31
0.0
  0
TEXT
  5
55C
330
18
100
AcDbEntity
  8
1
100
AcDbText
 10
12.30632740611138
 20
-7.460529207066848
 30
0.0
 40
1.5
  1
20
 50
89.99999999999962
100
AcDbText
  0
LINE
  5
55D
330
18
100
AcDbEntity
  8
1
100
AcDbLine
 10
9.0
 20
-6.75
 30
0.0
 11
10.99999999999998
 21
-6.75
 31
0.0
  0
TEXT
  5
55E
330
18
100
AcDbEntity
  8
1
100
AcDbText
 10
12.34893619600267
 20
-10.2301005500033
 30
0.0
 40
1.5
  1
25
 50
89.99999999999962
100
AcDbText
  0
LINE
  5
55F
330
18
100
AcDbEntity
  8
1
100
AcDbLine
 10
9.0
 20
-9.5
 30
0.0
 11
10.99999999999998
 21
-9.5
 31
0.0
  0
LINE
  5
560
330
18
100
AcDbEntity
  8
1
100
AcDbLine
 10
9.0
 20
-6.75
 30
0.0
 11
7.0
 21
-6.75
 31
0.0
  0
TEXT
  5
561
330
18
100
AcDbEntity
  8
1
100
AcDbText
 10
6.651063803997296
 20
-7.041963429643899
 30
0.0
 40
1.5
  1
0
 50
89.99999999999962
100
AcDbText
  0
LINE
  5
562
330
18
100
AcDbEntity
  8
1
100
AcDbLine
 10
9.0
 20
-3.5
 30
0.0
 11
7.0
 21
-3.5
 31
0.0
  0
TEXT
  5
563
330
18
100
AcDbEntity
  8
1
100
AcDbText
 10
6.651063803997296
 20
-3.789492467939041
 30
0.0
 40
1.5
  1
5
 50
89.99999999999962
100
AcDbText
  0
TEXT
  5
564
330
18
100
AcDbEntity
  8
1
100
AcDbText
 10
6.608455014105956
 20
-0.7358625257270539
 30
0.0
 40
1.5
  1
10
 50
89.99999999999962
100
AcDbText
  0
LINE
  5
565
330
18
100
AcDbEntity
  8
1
100
AcDbLine
 10
9.0
 20
3.5
 30
0.0
 11
7.0
 21
3.5
 31
0.0
  0
TEXT
  5
566
330
18
100
AcDbEntity
  8
1
100
AcDbText
 10
6.693672593888599
 20
2.701246525506888
 30
0.0
 40
1.5
  1
15
 50
89.99999999999962
100
AcDbText
  0
LINE
  5
567
330
18
100
AcDbEntity
  8
1
100
AcDbLine
 10
9.0
 20
6.75
 30
0.0
 11
7.0
 21
6.75
 31
0.0
  0
TEXT
  5
568
330
18
100
AcDbEntity
  8
1
100
AcDbText
 10
6.693672593888599
 20
6.010529207066852
 30
0.0
 40
1.5
  1
20
 50
89.99999999999962
100
AcDbText
  0
LINE
  5
569
330
18
100
AcDbEntity
  8
1
100
AcDbLine
 10
9.0
 20
9.5
 30
0.0
 11
7.0
 21
9.5
 31
0.0
  0
TEXT
  5
56A
330
18
100
AcDbEntity
  8
1
100
AcDbText
 10
6.651063803997296
 20
8.780100550003297
 30
0.0
 40
1.5
  1
25
 50
89.99999999999962
100
AcDbText
  0
LINE
  5
56B
330
18
100
AcDbEntity
  8
1
100
AcDbLine
 10
23.29784629753538
 20
-13.5
 30
0.0
 11
0.9999999999999893
 21
-13.5
 31
0.0
  0
DIMENSION
  5
56C
330
18
100
AcDbEntity
  8
SK2
100
AcDbDimension
  2
*D5
 10
-26.41083422004689
 20
-6.999999999999996
 30
0.0
 11
-26.41083422004689
 21
-0.0000000000000018
 31
0.0
 70
   160
  1
%%c<>
 71
     5
 42
14.0
  3
STANDARD
100
AcDbAlignedDimension
 13
-15.25000000000002
 23
7.0
 33
0.0
 14
-15.25000000000002
 24
-7.0
 34
0.0
 50
270.0
100
AcDbRotatedDimension
  0
DIMENSION
  5
56D
330
18
100
AcDbEntity
  8
SK2
100
AcDbDimension
  2
*D6
 10
-34.89669319845712
 20
-13.49999999999999
 30
0.0
 11
-34.89669319845712
 21
0.0000000000000043
 31
0.0
 70
   160
  1
%%c<>
 71
     5
 42
27.0
  3
STANDARD
100
AcDbAlignedDimension
 13
1.0
 23
13.5
 33
0.0
 14
0.9999999999999893
 24
-13.5
 34
0.0
 50
270.0
100
AcDbRotatedDimension
  0
DIMENSION
  5
56E
330
18
100
AcDbEntity
  8
2
100
AcDbDimension
  2
*D7
 10
54.59776013128471
 20
20.0
 30
0.0
 11
52.2227601312847
 21
0.0000000000000076
 31
0.0
 70
    32
  1
%%c<>
 71
     5
 42
40.0
  3
STANDARD
100
AcDbAlignedDimension
 13
44.85862647374157
 23
-20.0
 33
0.0
 14
44.85862647374157
 24
20.0
 34
0.0
 50
90.0
100
AcDbRotatedDimension
  0
DIMENSION
  5
56F
330
18
100
AcDbEntity
  8
2
100
AcDbDimension
  2
*D8
 10
-0.0000000000000006
 20
60.0
 30
0.0
 11
22.49999999999999
 21
60.0
 31
0.0
 70
   160
 71
     5
 42
44.99999999999999
  3
STANDARD
100
AcDbAlignedDimension
 13
44.99999999999998
 23
19.87
 33
0.0
 14
-0.0000000000000036
 24
12.5
 34
0.0
 50
180.0
100
AcDbRotatedDimension
  0
POINT
  5
570
330
18
100
AcDbEntity
  8
0
100
AcDbPoint
 10
82.73144280629145
 20
65.4764245190797
 30
0.0
  0
POINT
  5
571
330
18
100
AcDbEntity
  8
0
100
AcDbPoint
 10
-7.832875580343845
 20
-2.443575480920308
 30
0.0
  0
LINE
  5
57F
330
18
100
AcDbEntity
  8
1
100
AcDbLine
 10
1.0
 20
13.5
 30
0.0
 11
27.49999999999998
 21
13.5
 31
0.0
  0
LINE
  5
580
330
18
100
AcDbEntity
  8
SK3
100
AcDbLine
 10
27.50000000000008
 20
13.5
 30
0.0
 11
27.50000000000008
 21
-11.5002040608101
 31
0.0
  0
LINE
  5
581
330
18
100
AcDbEntity
  8
3
100
AcDbLine
 10
27.49999999999998
 20
15.1111883811765
 30
0.0
 11
27.49999999999998
 21
13.5
 31
0.0
  0
LINE
  5
582
330
18
100
AcDbEntity
  8
SK3
100
AcDbLine
 10
39.72412051134988
 20
2.0
 30
0.0
 11
-16.00000000000002
 21
2.0
 31
0.0
  0
LINE
  5
583
330
18
100
AcDbEntity
  8
SK3
100
AcDbLine
 10
40.72287610244559
 20
-2.0
 30
0.0
 11
-16.00000000000002
 21
-2.0
 31
0.0
  0
ARC
  5
584
330
18
100
AcDbEntity
  8
1
100
AcDbCircle
 10
34.00000000000008
 20
25.3321595661993
 30
0.0
 40
13.5000000000001
100
AcDbArc
 50
241.2177953194192
 51
298.7822046805808
  0
LINE
  5
585
330
18
100
AcDbEntity
  8
1
100
AcDbLine
 10
27.00071421283548
 20
-11.5002040608101
 30
0.0
 11
31.28929044403508
 21
-13.5
 31
0.0
  0
LINE
  5
586
330
18
100
AcDbEntity
  8
3
100
AcDbLine
 10
27.49999999999998
 20
15.1111883811765
 30
0.0
 11
37.90277675505788
 21
15.1111883811765
 31
0.0
  0
LINE
  5
587
330
18
100
AcDbEntity
  8
1
100
AcDbLine
 10
25.29764223672528
 20
-11.5002040608101
 30
0.0
 11
42.80000000000007
 21
-11.5002040608101
 31
0.0
  0
LINE
  5
588
330
18
100
AcDbEntity
  8
SK4
100
AcDbLine
 10
-17.64527838570732
 20
0.0
 30
0.0
 11
45.45719250646139
 21
0.0
 31
0.0
  0
ARC
  5
589
330
18
100
AcDbEntity
  8
1
100
AcDbCircle
 10
39.99999999999998
 20
10.2003669324512
 30
0.0
 40
2.5
100
AcDbArc
 50
180.0000000000004
 51
229.9999999999994
  0
LINE
  5
58A
330
18
100
AcDbEntity
  8
1
100
AcDbLine
 10
37.49999999999998
 20
12.2937547557939
 30
0.0
 11
37.49999999999998
 21
10.2003669324512
 31
0.0
  0
LINE
  5
58B
330
18
100
AcDbEntity
  8
SK3
100
AcDbLine
 10
37.90277675505788
 20
7.311188381176499
 30
0.0
 11
39.55387935097677
 21
7.311188381176499
 31
0.0
  0
LINE
  5
58C
330
18
100
AcDbEntity
  8
SK3
100
AcDbLine
 10
37.90277675505788
 20
7.311188381176499
 30
0.0
 11
37.90277675505788
 21
8.83961175209194
 31
0.0
  0
LINE
  5
58D
330
18
100
AcDbEntity
  8
3
100
AcDbLine
 10
39.55387935097677
 20
7.311188381176499
 30
0.0
 11
40.50000000000007
 21
7.311188381176499
 31
0.0
  0
LINE
  5
58E
330
18
100
AcDbEntity
  8
3
100
AcDbLine
 10
40.50000000000007
 20
6.51729889353183
 30
0.0
 11
40.50000000000007
 21
7.311188381176499
 31
0.0
  0
LINE
  5
58F
330
18
100
AcDbEntity
  8
SK4
100
AcDbLine
 10
41.69999999999998
 20
5.510379336119122
 30
0.0
 11
40.22349830689777
 21
0.0
 31
0.0
  0
LINE
  5
590
330
18
100
AcDbEntity
  8
SK3
100
AcDbLine
 10
40.85476347651858
 20
6.219616991229948
 30
0.0
 11
39.72412051134988
 21
2.0
 31
0.0
  0
LINE
  5
591
330
18
100
AcDbEntity
  8
SK3
100
AcDbLine
 10
42.54523652348138
 20
4.801141681008303
 30
0.0
 11
40.72287610244559
 21
-2.0
 31
0.0
  0
ARC
  5
592
330
18
100
AcDbEntity
  8
3
100
AcDbCircle
 10
44.79999999999997
 20
19.7865772485184
 30
0.0
 40
0.2
100
AcDbArc
 50
0.0
 51
100.0000000000006
  0
LINE
  5
593
330
18
100
AcDbEntity
  8
1
100
AcDbLine
 10
42.79999999999997
 20
13.5
 30
0.0
 11
42.80000000000007
 21
-11.5002040608101
 31
0.0
  0
LINE
  5
594
330
18
100
AcDbEntity
  8
1
100
AcDbLine
 10
43.49999999999997
 20
12.8
 30
0.0
 11
43.50000000000009
 21
-10.8002040608101
 31
0.0
  0
LINE
  5
595
330
18
100
AcDbEntity
  8
1
100
AcDbLine
 10
39.66254115030318
 20
-11.5002040608101
 30
0.0
 11
38.48427466432319
 21
-12.1793426816055
 31
0.0
  0
LINE
  5
596
330
18
100
AcDbEntity
  8
1
100
AcDbLine
 10
28.33745884969688
 20
-11.5002040608101
 30
0.0
 11
29.51572533567688
 21
-12.1793426816055
 31
0.0
  0
LINE
  5
597
330
18
100
AcDbEntity
  8
1
100
AcDbLine
 10
38.11407696227568
 20
-11.5002040608101
 30
0.0
 11
37.25801625088777
 21
-12.1793426816055
 31
0.0
  0
LINE
  5
598
330
18
100
AcDbEntity
  8
1
100
AcDbLine
 10
36.16289825672098
 20
-11.5002040608101
 30
0.0
 11
35.71284050688148
 21
-12.1793426816055
 31
0.0
  0
LINE
  5
599
330
18
100
AcDbEntity
  8
1
100
AcDbLine
 10
31.83710174327918
 20
-11.5002040608101
 30
0.0
 11
32.28715949311858
 21
-12.1793426816055
 31
0.0
  0
LINE
  5
59A
330
18
100
AcDbEntity
  8
1
100
AcDbLine
 10
29.88592303772438
 20
-11.5002040608101
 30
0.0
 11
30.74198374911228
 21
-12.1793426816055
 31
0.0
  0
LINE
  5
59C
330
18
100
AcDbEntity
  8
1
100
AcDbLine
 10
40.99928578716458
 20
-11.5002040608101
 30
0.0
 11
36.71070955596498
 21
-13.5
 31
0.0
  0
LINE
  5
59D
330
18
100
AcDbEntity
  8
1
100
AcDbLine
 10
31.28929044403508
 20
-13.5
 30
0.0
 11
36.71070955596498
 21
-13.5
 31
0.0
  0
LINE
  5
59E
330
18
100
AcDbEntity
  8
3
100
AcDbLine
 10
37.90277675505788
 20
8.839611752091961
 30
0.0
 11
37.90277675505788
 21
15.1111883811765
 31
0.0
  0
LINE
  5
59F
330
18
100
AcDbEntity
  8
1
100
AcDbLine
 10
38.39303097578368
 20
8.285255824653809
 30
0.0
 11
43.49999999999997
 21
4.0
 31
0.0
  0
LINE
  5
5A0
330
18
100
AcDbEntity
  8
SK3
100
AcDbLine
 10
35.46250000000008
 20
8.949999999999981
 30
0.0
 11
35.13750000000008
 21
8.624999999999978
 31
0.0
  0
LINE
  5
5A1
330
18
100
AcDbEntity
  8
SK3
100
AcDbLine
 10
32.53750000000008
 20
8.949999999999981
 30
0.0
 11
32.86250000000008
 21
8.624999999999978
 31
0.0
  0
LINE
  5
5A2
330
18
100
AcDbEntity
  8
1
100
AcDbLine
 10
42.79999999999997
 20
13.5
 30
0.0
 11
43.49999999999997
 21
12.8
 31
0.0
  0
LINE
  5
5A3
330
18
100
AcDbEntity
  8
SK3
100
AcDbLine
 10
32.86250000000008
 20
8.624999999999978
 30
0.0
 11
35.13750000000008
 21
8.624999999999978
 31
0.0
  0
LINE
  5
5A4
330
18
100
AcDbEntity
  8
SK3
100
AcDbLine
 10
32.53750000000008
 20
8.949999999999981
 30
0.0
 11
35.46250000000008
 21
8.949999999999981
 31
0.0
  0
LINE
  5
5A5
330
18
100
AcDbEntity
  8
1
100
AcDbLine
 10
40.50000000000007
 20
13.5
 30
0.0
 11
42.79999999999997
 21
13.5
 31
0.0
  0
LINE
  5
5A6
330
18
100
AcDbEntity
  8
1
100
AcDbLine
 10
43.50000000000009
 20
-10.8002040608101
 30
0.0
 11
42.80000000000007
 21
-11.5002040608101
 31
0.0
  0
LINE
  5
5A7
330
18
100
AcDbEntity
  8
SK3
100
AcDbLine
 10
35.13750000000008
 20
13.825
 30
0.0
 11
35.13750000000008
 21
8.624999999999978
 31
0.0
  0
LINE
  5
5A8
330
18
100
AcDbEntity
  8
SK3
100
AcDbLine
 10
32.86249999999998
 20
13.825
 30
0.0
 11
32.86249999999998
 21
8.624999999999978
 31
0.0
  0
LINE
  5
5A9
330
18
100
AcDbEntity
  8
3
100
AcDbLine
 10
44.80500000000009
 20
8.299999999999997
 30
0.0
 11
38.37545955184499
 21
8.299999999999997
 31
0.0
  0
LINE
  5
5AA
330
18
100
AcDbEntity
  8
SK3
100
AcDbLine
 10
40.50000000000007
 20
6.517298893531858
 30
0.0
 11
40.50000000000007
 21
-11.5002040608101
 31
0.0
  0
CIRCLE
  5
5AB
330
18
100
AcDbEntity
  8
3
100
AcDbCircle
 10
42.93624999999997
 20
17.56544649032089
 30
0.0
 40
1.625
  0
LINE
  5
5AC
330
18
100
AcDbEntity
  8
3
100
AcDbLine
 10
38.37741212918707
 20
17.6560122913777
 30
0.0
 11
40.87250000000008
 21
18.77235238737219
 31
0.0
  0
LINE
  5
5AD
330
18
100
AcDbEntity
  8
3
100
AcDbLine
 10
28.88000000000007
 20
15.1111883811765
 30
0.0
 11
38.37741212918707
 21
17.6560122913777
 31
0.0
  0
LINE
  5
5AE
330
18
100
AcDbEntity
  8
3
100
AcDbLine
 10
44.80500000000009
 20
15.125
 30
0.0
 11
41.48234856897498
 21
14.2346982323268
 31
0.0
  0
ARC
  5
5AF
330
18
100
AcDbEntity
  8
3
100
AcDbCircle
 10
41.23000000000008
 20
15.1764759129586
 30
0.0
 40
0.975
100
AcDbArc
 50
179.9999999999998
 51
285.0000000000002
  0
LINE
  5
5B0
330
18
100
AcDbEntity
  8
3
100
AcDbLine
 10
40.25500000000008
 20
18.4948311744384
 30
0.0
 11
40.25500000000008
 21
15.1764759129586
 31
0.0
  0
LINE
  5
5B1
330
18
100
AcDbEntity
  8
3
100
AcDbLine
 10
40.87250000000008
 20
19.29713835416309
 30
0.0
 11
40.87250000000008
 21
15.1059650136046
 31
0.0
  0
LINE
  5
5B2
330
18
100
AcDbEntity
  8
3
100
AcDbLine
 10
44.99999999999998
 20
15.8337546264788
 30
0.0
 11
40.87250000000008
 21
15.1059650136046
 31
0.0
  0
LINE
  5
5B3
330
18
100
AcDbEntity
  8
3
100
AcDbLine
 10
44.80500000000009
 20
15.7993708652407
 30
0.0
 11
44.80500000000009
 21
8.299999999999997
 31
0.0
  0
LINE
  5
5B4
330
18
100
AcDbEntity
  8
3
100
AcDbLine
 10
44.80500000000009
 20
13.1869629902724
 30
0.0
 11
39.60753745321998
 21
11.7943070981716
 31
0.0
  0
ARC
  5
5B5
330
18
100
AcDbEntity
  8
3
100
AcDbCircle
 10
39.35518888424509
 20
12.7360847788035
 30
0.0
 40
0.975
100
AcDbArc
 50
179.9999999999998
 51
285.0000000000002
  0
LINE
  5
5B6
330
18
100
AcDbEntity
  8
3
100
AcDbLine
 10
38.38018888424508
 20
17.656756320653
 30
0.0
 11
38.38018888424508
 21
12.7360847788035
 31
0.0
  0
LINE
  5
5B7
330
18
100
AcDbEntity
  8
SK3
100
AcDbLine
 10
36.60000000000008
 20
17.1797561467448
 30
0.0
 11
36.60000000000008
 21
13.825
 31
0.0
  0
LINE
  5
5B8
330
18
100
AcDbEntity
  8
SK3
100
AcDbLine
 10
36.60000000000008
 20
13.825
 30
0.0
 11
31.40000000000009
 21
13.825
 31
0.0
  0
LINE
  5
5B9
330
18
100
AcDbEntity
  8
SK3
100
AcDbLine
 10
35.46250000000008
 20
13.825
 30
0.0
 11
35.46250000000008
 21
8.949999999999981
 31
0.0
  0
LINE
  5
5BA
330
18
100
AcDbEntity
  8
SK3
100
AcDbLine
 10
32.53750000000008
 20
13.825
 30
0.0
 11
32.53750000000008
 21
8.949999999999981
 31
0.0
  0
LINE
  5
5BB
330
18
100
AcDbEntity
  8
SK3
100
AcDbLine
 10
31.40000000000009
 20
15.7864203461029
 30
0.0
 11
31.40000000000009
 21
13.825
 31
0.0
  0
LINE
  5
5BC
330
18
100
AcDbEntity
  8
3
100
AcDbLine
 10
44.99999999999998
 20
19.7865772485184
 30
0.0
 11
44.99999999999998
 21
15.8337546264788
 31
0.0
  0
LINE
  5
5BD
330
18
100
AcDbEntity
  8
3
100
AcDbLine
 10
44.76527036446658
 20
19.98353879912089
 30
0.0
 11
40.87250000000008
 21
19.29713835416309
 31
0.0
  0
LINE
  5
5BE
330
18
100
AcDbEntity
  8
4
100
AcDbLine
 10
47.23988222598881
 20
0.0
 30
0.0
 11
-5.776341134647282
 21
0.0
 31
0.0
  0
TEXT
  5
747
330
18
100
AcDbEntity
  8
SK6
100
AcDbText
 10
-16.00000040937134
 20
-28.93187122283962
 30
0.0
 40
3.5
  1
00055932
  7
SIMPLEX
100
AcDbText
  0
ENDSEC
  0
SECTION
  2
OBJECTS
  0
DICTIONARY
  5
C
330
0
100
AcDbDictionary
281
     1
  3
ACAD_COLOR
350
387
  3
ACAD_GROUP
350
D
  3
ACAD_LAYOUT
350
301
  3
ACAD_MATERIAL
350
386
  3
ACAD_MLINESTYLE
350
E
  3
ACAD_PLOTSETTINGS
350
302
  3
ACAD_PLOTSTYLENAME
350
2FF
  3
ACAD_TABLESTYLE
350
388
  3
ACAD_VISUALSTYLE
350
3F2
  3
AcDbVariableDictionary
350
357
  3
DWGPROPS
350
74A
  0
DICTIONARY
  5
43C
330
2
100
AcDbDictionary
280
     1
281
     1
  3
ACAD_LAYERFILTERS
360
445
  3
ACLYDICTIONARY
360
444
  0
DICTIONARY
  5
387
102
{ACAD_REACTORS
330
C
102
}
330
C
100
AcDbDictionary
281
     1
  0
DICTIONARY
  5
D
102
{ACAD_REACTORS
330
C
102
}
330
C
100
AcDbDictionary
281
     1
  0
DICTIONARY
  5
301
102
{ACAD_REACTORS
330
C
102
}
330
C
100
AcDbDictionary
281
     1
  3
Layout1
350
33B
  3
Model
350
303
  0
DICTIONARY
  5
386
102
{ACAD_REACTORS
330
C
102
}
330
C
100
AcDbDictionary
281
     1
  3
ByBlock
350
3F0
  3
ByLayer
350
3EF
  3
Global
350
3F1
  0
DICTIONARY
  5
E
102
{ACAD_REACTORS
330
C
102
}
330
C
100
AcDbDictionary
281
     1
  3
STANDARD
350
1B
  0
DICTIONARY
  5
302
102
{ACAD_REACTORS
330
C
102
}
330
C
100
AcDbDictionary
281
     1
  0
ACDBDICTIONARYWDFLT
  5
2FF
102
{ACAD_REACTORS
330
C
102
}
330
C
100
AcDbDictionary
281
     1
  3
Normal
350
300
100
AcDbDictionaryWithDefault
340
300
  0
DICTIONARY
  5
388
102
{ACAD_REACTORS
330
C
102
}
330
C
100
AcDbDictionary
281
     1
  3
Standard
350
389
  0
DICTIONARY
  5
3F2
102
{ACAD_REACTORS
330
C
102
}
330
C
100
AcDbDictionary
281
     1
  3
2dWireframe
350
3F8
  3
3D Hidden
350
3FA
  3
3dWireframe
350
3F9
  3
Basic
350
3F7
  3
Brighten
350
3FE
  3
ColorChange
350
402
  3
Conceptual
350
3FB
  3
Dim
350
3FD
  3
Facepattern
350
401
  3
Flat
350
3F3
  3
FlatWithEdges
350
3F4
  3
Gouraud
350
3F5
  3
GouraudWithEdges
350
3F6
  3
Linepattern
350
400
  3
Realistic
350
3FC
  3
Thicken
350
3FF
  0
DICTIONARY
  5
357
102
{ACAD_REACTORS
330
C
102
}
330
C
100
AcDbDictionary
281
     1
  3
CTABLESTYLE
350
38E
  3
DIMASSOC
350
359
  3
HIDETEXT
350
358
  3
INDEXCTL
350
749
  3
SORTENTS
350
748
  0
XRECORD
  5
74A
102
{ACAD_REACTORS
330
C
102
}
330
C
100
AcDbXrecord
280
     1
  1
DWGPROPS COOKIE
  2

  3

  4

  6

  7

  8
deerkdanf
  9

300
=
301
=
302
=
303
=
304
=
305
=
306
=
307
=
308
=
309
=
 40
0.0023244328703704
 41
2454673.368857315
 42
2454673.371181389
  1

 90
        0
  0
DICTIONARY
  5
445
102
{ACAD_REACTORS
330
43C
102
}
330
43C
100
AcDbDictionary
281
     1
  0
DICTIONARY
  5
444
102
{ACAD_REACTORS
330
43C
102
}
330
43C
100
AcDbDictionary
281
     1
1001
ACAD
1000
<All
  0
LAYOUT
  5
33B
102
{ACAD_XDICTIONARY
360
74D
102
}
102
{ACAD_REACTORS
330
301
102
}
330
301
100
AcDbPlotSettings
  1

  2
Lexmark Optra PS2
  4

  6

 40
0.0
 41
0.0
 42
0.0
 43
0.0
 44
0.0
 45
0.0
 46
0.0
 47
0.0
 48
0.0
 49
0.0
140
0.0
141
0.0
142
1.0
143
1.0
 70
   688
 72
     0
 73
     0
 74
     5
  7
monochrome.ctb
 75
    16
147
1.0
148
0.0
149
0.0
100
AcDbLayout
  1
Layout1
 70
     1
 71
     1
 10
0.0
 20
0.0
 11
12.0
 21
9.0
 12
0.0
 22
0.0
 32
0.0
 14
0.0
 24
0.0
 34
0.0
 15
0.0
 25
0.0
 35
0.0
146
0.0
 13
0.0
 23
0.0
 33
0.0
 16
1.0
 26
0.0
 36
0.0
 17
0.0
 27
1.0
 37
0.0
 76
     0
330
338
  0
LAYOUT
  5
303
102
{ACAD_XDICTIONARY
360
74B
102
}
102
{ACAD_REACTORS
330
301
102
}
330
301
100
AcDbPlotSettings
  1

  2
Default Windows System Printer.pc3
  4
A4
  6

 40
6.805083274841308
 41
5.535083293914794
 42
6.974411010742187
 43
7.14373779296875
 44
209.9733276367187
 45
296.9259948730469
 46
67.83299579489725
 47
0.0
 48
0.0
 49
0.0
140
0.0
141
0.0
142
1.0
143
0.3604333568168785
 70
  3764
 72
     1
 73
     1
 74
     1
  7
monochrome.ctb
 75
     0
147
2.774437995504559
148
-82.35087775247029
149
-53.69369632994494
100
AcDbLayout
  1
Model
 70
     1
 71
     0
 10
0.0
 20
0.0
 11
12.0
 21
9.0
 12
0.0
 22
0.0
 32
0.0
 14
0.0
 24
0.0
 34
0.0
 15
0.0
 25
0.0
 35
0.0
146
0.0
 13
0.0
 23
0.0
 33
0.0
 16
1.0
 26
0.0
 36
0.0
 17
0.0
 27
1.0
 37
0.0
 76
     0
330
18
331
3ED
1001
ACAD_PSEXT
1000
Default Windows System Printer.pc3
1000
Lexmark Optra Rx
1000
Lexmark Rx
1000
Erstellt von Lexmark Benutzerdefinierte Installation,Nov 13,2005,10:03
1070
     0
  0
MATERIAL
  5
3F0
102
{ACAD_XDICTIONARY
360
753
102
}
102
{ACAD_REACTORS
330
386
102
}
330
386
100
AcDbMaterial
  1
ByBlock
  0
MATERIAL
  5
3EF
102
{ACAD_XDICTIONARY
360
751
102
}
102
{ACAD_REACTORS
330
386
102
}
330
386
100
AcDbMaterial
  1
ByLayer
  0
MATERIAL
  5
3F1
102
{ACAD_XDICTIONARY
360
755
102
}
102
{ACAD_REACTORS
330
386
102
}
330
386
100
AcDbMaterial
  1
Global
  0
MLINESTYLE
  5
1B
102
{ACAD_REACTORS
330
E
102
}
330
E
100
AcDbMlineStyle
  2
STANDARD
 70
     0
  3

 62
     0
 51
90.0
 52
90.0
 71
     2
 49
0.5
 62
   256
  6
BYLAYER
 49
-0.5
 62
   256
  6
BYLAYER
  0
ACDBPLACEHOLDER
  5
300
102
{ACAD_REACTORS
330
2FF
102
}
330
2FF
  0
TABLESTYLE
  5
389
102
{ACAD_XDICTIONARY
360
74F
102
}
102
{ACAD_REACTORS
330
388
102
}
330
388
100
AcDbTableStyle
  3
Standard
 70
     0
 71
     0
 40
1.5
 41
1.5
280
     0
281
     0
  7
STANDARD
140
4.5
170
     2
 62
     0
 63
     7
283
     0
274
    -2
284
     1
 64
     0
275
    -2
285
     1
 65
     0
276
    -2
286
     1
 66
     0
277
    -2
287
     1
 67
     0
278
    -2
288
     1
 68
     0
279
    -2
289
     1
 69
     0
  7
STANDARD
140
6.0
170
     5
 62
     0
 63
     7
283
     0
274
    -2
284
     1
 64
     0
275
    -2
285
     1
 65
     0
276
    -2
286
     1
 66
     0
277
    -2
287
     1
 67
     0
278
    -2
288
     1
 68
     0
279
    -2
289
     1
 69
     0
  7
STANDARD
140
4.5
170
     5
 62
     0
 63
     7
283
     0
274
    -2
284
     1
 64
     0
275
    -2
285
     1
 65
     0
276
    -2
286
     1
 66
     0
277
    -2
287
     1
 67
     0
278
    -2
288
     1
 68
     0
279
    -2
289
     1
 69
     0
  0
VISUALSTYLE
  5
3F8
102
{ACAD_REACTORS
330
3F2
102
}
330
3F2
100
AcDbVisualStyle
  2
2dWireframe
 70
     4
 71
     0
 72
     2
 73
     0
 90
        0
 40
-0.6
 41
-30.0
 62
     5
 63
     7
 74
     1
 91
        4
 64
     7
 65
   257
 75
     1
175
     1
 42
1.0
 92
        0
 66
   257
 43
1.0
 76
     1
 77
     6
 78
     2
 67
     7
 79
     5
170
     0
171
     0
290
     0
174
     0
 93
        1
 44
0.0
173
     0
291
     0
 45
0.0
1001
ACAD
1000
AcDbSavedByObjectVersion
1070
     0
  0
VISUALSTYLE
  5
3FA
102
{ACAD_REACTORS
330
3F2
102
}
330
3F2
100
AcDbVisualStyle
  2
3D Hidden
 70
     6
 71
     1
 72
     2
 73
     2
 90
        0
 40
-0.6
 41
-30.0
 62
     5
 63
     7
 74
     2
 91
        2
 64
     7
 65
   257
 75
     2
175
     1
 42
40.0
 92
        0
 66
   257
 43
1.0
 76
     1
 77
     6
 78
     2
 67
     7
 79
     3
170
     0
171
     0
290
     0
174
     0
 93
        1
 44
0.0
173
     0
291
     0
 45
0.0
1001
ACAD
1000
AcDbSavedByObjectVersion
1070
     0
  0
VISUALSTYLE
  5
3F9
102
{ACAD_REACTORS
330
3F2
102
}
330
3F2
100
AcDbVisualStyle
  2
3dWireframe
 70
     5
 71
     0
 72
     2
 73
     0
 90
        0
 40
-0.6
 41
-30.0
 62
     5
 63
     7
 74
     1
 91
        4
 64
     7
 65
   257
 75
     1
175
     1
 42
1.0
 92
        0
 66
   257
 43
1.0
 76
     1
 77
     6
 78
     2
 67
     7
 79
     5
170
     0
171
     0
290
     0
174
     0
 93
        1
 44
0.0
173
     0
291
     0
 45
0.0
1001
ACAD
1000
AcDbSavedByObjectVersion
1070
     0
  0
VISUALSTYLE
  5
3F7
102
{ACAD_REACTORS
330
3F2
102
}
330
3F2
100
AcDbVisualStyle
  2
Basic
 70
     7
 71
     1
 72
     0
 73
     1
 90
        0
 40
-0.6
 41
-30.0
 62
     5
 63
     7
 74
     0
 91
        4
 64
     7
 65
   257
 75
     1
175
     1
 42
1.0
 92
        8
 66
     7
 43
1.0
 76
     1
 77
     6
 78
     2
 67
     7
 79
     5
170
     0
171
     0
290
     0
174
     0
 93
        1
 44
0.0
173
     0
291
     1
 45
0.0
1001
ACAD
1000
AcDbSavedByObjectVersion
1070
     0
  0
VISUALSTYLE
  5
3FE
102
{ACAD_REACTORS
330
3F2
102
}
330
3F2
100
AcDbVisualStyle
  2
Brighten
 70
    12
 71
     2
 72
     2
 73
     0
 90
        0
 40
-0.6
 41
-30.0
 62
     5
 63
     7
 74
     1
 91
        4
 64
     7
 65
   257
 75
     1
175
     1
 42
1.0
 92
        8
 66
     7
 43
1.0
 76
     1
 77
     6
 78
     2
 67
     7
 79
     5
170
     0
171
     0
290
     0
174
     0
 93
        1
 44
50.0
173
     0
291
     1
 45
0.0
1001
ACAD
1000
AcDbSavedByObjectVersion
1070
     0
  0
VISUALSTYLE
  5
402
102
{ACAD_REACTORS
330
3F2
102
}
330
3F2
100
AcDbVisualStyle
  2
ColorChange
 70
    16
 71
     2
 72
     2
 73
     3
 90
        0
 40
-0.6
 41
-30.0
 62
     5
 63
     8
 74
     1
 91
        4
 64
     7
 65
   257
 75
     1
175
     1
 42
1.0
 92
        8
 66
     8
 43
1.0
 76
     1
 77
     6
 78
     2
 67
     7
 79
     5
170
     0
171
     0
290
     0
174
     0
 93
        1
 44
0.0
173
     0
291
     1
 45
0.0
1001
ACAD
1000
AcDbSavedByObjectVersion
1070
     0
  0
VISUALSTYLE
  5
3FB
102
{ACAD_REACTORS
330
3F2
102
}
330
3F2
100
AcDbVisualStyle
  2
Conceptual
 70
     9
 71
     3
 72
     2
 73
     0
 90
        0
 40
-0.6
 41
-30.0
 62
     5
 63
     7
 74
     2
 91
        2
 64
     7
 65
   257
 75
     1
175
     1
 42
40.0
 92
        8
 66
     7
 43
1.0
 76
     1
 77
     6
 78
     2
 67
     7
 79
     3
170
     0
171
     0
290
     0
174
     0
 93
        1
 44
0.0
173
     0
291
     0
 45
0.0
1001
ACAD
1000
AcDbSavedByObjectVersion
1070
     0
  0
VISUALSTYLE
  5
3FD
102
{ACAD_REACTORS
330
3F2
102
}
330
3F2
100
AcDbVisualStyle
  2
Dim
 70
    11
 71
     2
 72
     2
 73
     0
 90
        0
 40
-0.6
 41
-30.0
 62
     5
 63
     7
 74
     1
 91
        4
 64
     7
 65
   257
 75
     1
175
     1
 42
1.0
 92
        8
 66
     7
 43
1.0
 76
     1
 77
     6
 78
     2
 67
     7
 79
     5
170
     0
171
     0
290
     0
174
     0
 93
        1
 44
-50.0
173
     0
291
     1
 45
0.0
1001
ACAD
1000
AcDbSavedByObjectVersion
1070
     0
  0
VISUALSTYLE
  5
401
102
{ACAD_REACTORS
330
3F2
102
}
330
3F2
100
AcDbVisualStyle
  2
Facepattern
 70
    15
 71
     2
 72
     2
 73
     0
 90
        0
 40
-0.6
 41
-30.0
 62
     5
 63
     7
 74
     1
 91
        4
 64
     7
 65
   257
 75
     1
175
     1
 42
1.0
 92
        8
 66
     7
 43
1.0
 76
     1
 77
     6
 78
     2
 67
     7
 79
     5
170
     0
171
     0
290
     0
174
     0
 93
        1
 44
0.0
173
     0
291
     1
 45
0.0
1001
ACAD
1000
AcDbSavedByObjectVersion
1070
     0
  0
VISUALSTYLE
  5
3F3
102
{ACAD_REACTORS
330
3F2
102
}
330
3F2
100
AcDbVisualStyle
  2
Flat
 70
     0
 71
     2
 72
     1
 73
     1
 90
        2
 40
-0.6
 41
30.0
 62
     5
 63
     7
 74
     0
 91
        4
 64
     7
 65
   257
 75
     1
175
     1
 42
1.0
 92
        8
 66
     7
 43
1.0
 76
     1
 77
     6
 78
     2
 67
     7
 79
     5
170
     0
171
     0
290
     0
174
     0
 93
       13
 44
0.0
173
     0
291
     1
 45
0.0
1001
ACAD
1000
AcDbSavedByObjectVersion
1070
     0
  0
VISUALSTYLE
  5
3F4
102
{ACAD_REACTORS
330
3F2
102
}
330
3F2
100
AcDbVisualStyle
  2
FlatWithEdges
 70
     1
 71
     2
 72
     1
 73
     1
 90
        2
 40
-0.6
 41
30.0
 62
     5
 63
     7
 74
     1
 91
        4
 64
     7
 65
   257
 75
     1
175
     1
 42
1.0
 92
        0
 66
   257
 43
1.0
 76
     1
 77
     6
 78
     2
 67
     7
 79
     5
170
     0
171
     0
290
     0
174
     0
 93
       13
 44
0.0
173
     0
291
     1
 45
0.0
1001
ACAD
1000
AcDbSavedByObjectVersion
1070
     0
  0
VISUALSTYLE
  5
3F5
102
{ACAD_REACTORS
330
3F2
102
}
330
3F2
100
AcDbVisualStyle
  2
Gouraud
 70
     2
 71
     2
 72
     2
 73
     1
 90
        2
 40
-0.6
 41
30.0
 62
     5
 63
     7
 74
     0
 91
        4
 64
     7
 65
   257
 75
     1
175
     1
 42
1.0
 92
        0
 66
     7
 43
1.0
 76
     1
 77
     6
 78
     2
 67
     7
 79
     5
170
     0
171
     0
290
     0
174
     0
 93
       13
 44
0.0
173
     0
291
     1
 45
0.0
1001
ACAD
1000
AcDbSavedByObjectVersion
1070
     0
  0
VISUALSTYLE
  5
3F6
102
{ACAD_REACTORS
330
3F2
102
}
330
3F2
100
AcDbVisualStyle
  2
GouraudWithEdges
 70
     3
 71
     2
 72
     2
 73
     1
 90
        2
 40
-0.6
 41
30.0
 62
     5
 63
     7
 74
     1
 91
        4
 64
     7
 65
   257
 75
     1
175
     1
 42
1.0
 92
        0
 66
   257
 43
1.0
 76
     1
 77
     6
 78
     2
 67
     7
 79
     5
170
     0
171
     0
290
     0
174
     0
 93
       13
 44
0.0
173
     0
291
     1
 45
0.0
1001
ACAD
1000
AcDbSavedByObjectVersion
1070
     0
  0
VISUALSTYLE
  5
400
102
{ACAD_REACTORS
330
3F2
102
}
330
3F2
100
AcDbVisualStyle
  2
Linepattern
 70
    14
 71
     2
 72
     2
 73
     0
 90
        0
 40
-0.6
 41
-30.0
 62
     5
 63
     7
 74
     1
 91
        4
 64
     7
 65
   257
 75
     7
175
     7
 42
1.0
 92
        8
 66
     7
 43
1.0
 76
     1
 77
     6
 78
     2
 67
     7
 79
     5
170
     0
171
     0
290
     0
174
     0
 93
        1
 44
0.0
173
     0
291
     1
 45
0.0
1001
ACAD
1000
AcDbSavedByObjectVersion
1070
     0
  0
VISUALSTYLE
  5
3FC
102
{ACAD_REACTORS
330
3F2
102
}
330
3F2
100
AcDbVisualStyle
  2
Realistic
 70
     8
 71
     2
 72
     2
 73
     0
 90
        0
 40
-0.6
 41
-30.0
 62
     5
 63
     7
 74
     1
 91
        0
 64
     7
 65
   257
 75
     1
175
     1
 42
1.0
 92
        8
 66
     8
 43
1.0
 76
     1
 77
     6
 78
     2
 67
     7
 79
     5
170
     0
171
     0
290
     0
174
     0
 93
       13
 44
0.0
173
     0
291
     0
 45
0.0
1001
ACAD
1000
AcDbSavedByObjectVersion
1070
     0
  0
VISUALSTYLE
  5
3FF
102
{ACAD_REACTORS
330
3F2
102
}
330
3F2
100
AcDbVisualStyle
  2
Thicken
 70
    13
 71
     2
 72
     2
 73
     0
 90
        0
 40
-0.6
 41
-30.0
 62
     5
 63
     7
 74
     1
 91
        4
 64
     7
 65
   257
 75
     1
175
     1
 42
1.0
 92
       12
 66
     7
 43
1.0
 76
     1
 77
     6
 78
     2
 67
     7
 79
     5
170
     0
171
     0
290
     0
174
     0
 93
        1
 44
0.0
173
     0
291
     1
 45
0.0
1001
ACAD
1000
AcDbSavedByObjectVersion
1070
     0
  0
DICTIONARYVAR
  5
38E
102
{ACAD_REACTORS
330
357
102
}
330
357
100
DictionaryVariables
280
     0
  1
STANDARD
  0
DICTIONARYVAR
  5
359
102
{ACAD_REACTORS
330
357
102
}
330
357
100
DictionaryVariables
280
     0
  1
2
  0
DICTIONARYVAR
  5
358
102
{ACAD_REACTORS
330
357
102
}
330
357
100
DictionaryVariables
280
     0
  1
1
  0
DICTIONARYVAR
  5
749
102
{ACAD_REACTORS
330
357
102
}
330
357
100
DictionaryVariables
280
     0
  1
0
  0
DICTIONARYVAR
  5
748
102
{ACAD_REACTORS
330
357
102
}
330
357
100
DictionaryVariables
280
     0
  1
127
  0
DICTIONARY
  5
74D
330
33B
100
AcDbDictionary
280
     1
281
     1
  3
ACAD_XREC_ROUNDTRIP
360
74E
  0
DICTIONARY
  5
74B
330
303
100
AcDbDictionary
280
     1
281
     1
  3
ACAD_XREC_ROUNDTRIP
360
74C
  0
DICTIONARY
  5
753
330
3F0
100
AcDbDictionary
280
     1
281
     1
  3
ACAD_XREC_ROUNDTRIP
360
754
  0
DICTIONARY
  5
751
330
3EF
100
AcDbDictionary
280
     1
281
     1
  3
ACAD_XREC_ROUNDTRIP
360
752
  0
DICTIONARY
  5
755
330
3F1
100
AcDbDictionary
280
     1
281
     1
  3
ACAD_XREC_ROUNDTRIP
360
756
  0
DICTIONARY
  5
74F
330
389
100
AcDbDictionary
280
     1
281
     1
  3
ACAD_XREC_ROUNDTRIP
360
750
  0
XRECORD
  5
74E
102
{ACAD_REACTORS
330
74D
102
}
330
74D
100
AcDbXrecord
280
     1
102
SHADEPLOT
 70
     0
102
SHADEPLOTRESLEVEL
 70
     2
102
SHADEPLOTCUSTOMDPI
 70
   300
  0
XRECORD
  5
74C
102
{ACAD_REACTORS
330
74B
102
}
330
74B
100
AcDbXrecord
280
     1
102
SHADEPLOT
 70
     1
102
SHADEPLOTRESLEVEL
 70
     2
102
SHADEPLOTCUSTOMDPI
 70
   300
  0
XRECORD
  5
754
102
{ACAD_REACTORS
330
753
102
}
330
753
100
AcDbXrecord
280
     1
102
MATERIAL
148
0.0
149
0.0
149
0.0
 93
        0
 94
       63
282
     0
 72
     1
 77
     1
171
     1
175
     1
179
     1
273
     0
  0
XRECORD
  5
752
102
{ACAD_REACTORS
330
751
102
}
330
751
100
AcDbXrecord
280
     1
102
MATERIAL
148
0.0
149
0.0
149
0.0
 93
        0
 94
       63
282
     0
 72
     1
 77
     1
171
     1
175
     1
179
     1
273
     0
  0
XRECORD
  5
756
102
{ACAD_REACTORS
330
755
102
}
330
755
100
AcDbXrecord
280
     1
102
MATERIAL
148
0.0
149
0.0
149
0.0
 93
        0
 94
       63
282
     0
 72
     1
 77
     1
171
     1
175
     1
179
     1
273
     0
  0
XRECORD
  5
750
102
{ACAD_REACTORS
330
74F
102
}
330
74F
100
AcDbXrecord
280
     1
102
ACAD_ROUNDTRIP_PRE2007_TABLESTYLE
 90
        4
 91
        0
  1

 92
        4
 93
        0
  2

 94
        4
 95
        0
  3

  0
ENDSEC
  0
EOF
