  0
SECTION
  2
HEADER
  9
$ACADVER
  1
AC1015
  9
$ACADMAINTVER
 70
    20
  9
$DWGCODEPAGE
  3
ANSI_1252
  9
$INSBASE
 10
0.0
 20
0.0
 30
0.0
  9
$EXTMIN
 10
-54.58492868135795
 20
-49.64645271614006
 30
-0.0015258207003583
  9
$EXTMAX
 10
98.38366810672869
 20
64.12612992353524
 30
0.0000000349246037
  9
$LIMMIN
 10
-170.0
 20
-170.0
  9
$LIMMAX
 10
519.0
 20
260.0
  9
$ORTHOMODE
 70
     0
  9
$REGENMODE
 70
     1
  9
$FILLMODE
 70
     1
  9
$QTEXTMODE
 70
     0
  9
$MIRRTEXT
 70
     0
  9
$LTSCALE
 40
1.0
  9
$ATTMODE
 70
     1
  9
$TEXTSIZE
 40
3.5
  9
$TRACEWID
 40
1.0
  9
$TEXTSTYLE
  7
SIMPLEX
  9
$CLAYER
  8
1
  9
$CELTYPE
  6
BYLAYER
  9
$CECOLOR
 62
   256
  9
$CELTSCALE
 40
1.0
  9
$DISPSILH
 70
     0
  9
$DIMSCALE
 40
1.0
  9
$DIMASZ
 40
2.5
  9
$DIMEXO
 40
0.0
  9
$DIMDLI
 40
3.75
  9
$DIMRND
 40
0.0
  9
$DIMDLE
 40
0.0
  9
$DIMEXE
 40
1.25
  9
$DIMTP
 40
0.0
  9
$DIMTM
 40
0.0
  9
$DIMTXT
 40
3.5
  9
$DIMCEN
 40
0.0
  9
$DIMTSZ
 40
0.0
  9
$DIMTOL
 70
     0
  9
$DIMLIM
 70
     0
  9
$DIMTIH
 70
     0
  9
$DIMTOH
 70
     0
  9
$DIMSE1
 70
     0
  9
$DIMSE2
 70
     0
  9
$DIMTAD
 70
     1
  9
$DIMZIN
 70
     8
  9
$DIMBLK
  1

  9
$DIMASO
 70
     1
  9
$DIMSHO
 70
     1
  9
$DIMPOST
  1

  9
$DIMAPOST
  1

  9
$DIMALT
 70
     0
  9
$DIMALTD
 70
     3
  9
$DIMALTF
 40
0.039370078
  9
$DIMLFAC
 40
1.0
  9
$DIMTOFL
 70
     0
  9
$DIMTVP
 40
0.0
  9
$DIMTIX
 70
     0
  9
$DIMSOXD
 70
     0
  9
$DIMSAH
 70
     0
  9
$DIMBLK1
  1

  9
$DIMBLK2
  1

  9
$DIMSTYLE
  2
STANDARD
  9
$DIMCLRD
 70
     0
  9
$DIMCLRE
 70
     0
  9
$DIMCLRT
 70
     0
  9
$DIMTFAC
 40
1.0
  9
$DIMGAP
 40
0.625
  9
$DIMJUST
 70
     0
  9
$DIMSD1
 70
     0
  9
$DIMSD2
 70
     0
  9
$DIMTOLJ
 70
     0
  9
$DIMTZIN
 70
     8
  9
$DIMALTZ
 70
     0
  9
$DIMALTTZ
 70
     0
  9
$DIMUPT
 70
     0
  9
$DIMDEC
 70
     2
  9
$DIMTDEC
 70
     2
  9
$DIMALTU
 70
     2
  9
$DIMALTTD
 70
     3
  9
$DIMTXSTY
  7
SIMPLEX
  9
$DIMAUNIT
 70
     0
  9
$DIMADEC
 70
     2
  9
$DIMALTRND
 40
0.0
  9
$DIMAZIN
 70
     2
  9
$DIMDSEP
 70
    46
  9
$DIMATFIT
 70
     3
  9
$DIMFRAC
 70
     0
  9
$DIMLDRBLK
  1

  9
$DIMLUNIT
 70
     2
  9
$DIMLWD
 70
    -2
  9
$DIMLWE
 70
    -2
  9
$DIMTMOVE
 70
     0
  9
$LUNITS
 70
     2
  9
$LUPREC
 70
     4
  9
$SKETCHINC
 40
1.0
  9
$FILLETRAD
 40
0.0
  9
$AUNITS
 70
     0
  9
$AUPREC
 70
     0
  9
$MENU
  1
c:\tdm21\cad\caduti13\tdm13
  9
$ELEVATION
 40
0.0
  9
$PELEVATION
 40
0.0
  9
$THICKNESS
 40
0.0
  9
$LIMCHECK
 70
     0
  9
$CHAMFERA
 40
0.0
  9
$CHAMFERB
 40
0.0
  9
$CHAMFERC
 40
0.0
  9
$CHAMFERD
 40
0.0
  9
$SKPOLY
 70
     0
  9
$TDCREATE
 40
2454673.440129676
  9
$TDUCREATE
 40
2454673.356796343
  9
$TDUPDATE
 40
2454673.441980764
  9
$TDUUPDATE
 40
2454673.358647431
  9
$TDINDWG
 40
0.0018514583
  9
$TDUSRTIMER
 40
0.0018514583
  9
$USRTIMER
 70
     1
  9
$ANGBASE
 50
0.0
  9
$ANGDIR
 70
     0
  9
$PDMODE
 70
     1
  9
$PDSIZE
 40
0.0
  9
$PLINEWID
 40
0.0
  9
$SPLFRAME
 70
     0
  9
$SPLINETYPE
 70
     6
  9
$SPLINESEGS
 70
     8
  9
$HANDSEED
  5
729
  9
$SURFTAB1
 70
     6
  9
$SURFTAB2
 70
     6
  9
$SURFTYPE
 70
     6
  9
$SURFU
 70
     6
  9
$SURFV
 70
     6
  9
$UCSBASE
  2

  9
$UCSNAME
  2

  9
$UCSORG
 10
0.0
 20
0.0
 30
0.0
  9
$UCSXDIR
 10
1.0
 20
0.0
 30
0.0
  9
$UCSYDIR
 10
0.0
 20
1.0
 30
0.0
  9
$UCSORTHOREF
  2

  9
$UCSORTHOVIEW
 70
     0
  9
$UCSORGTOP
 10
0.0
 20
0.0
 30
0.0
  9
$UCSORGBOTTOM
 10
0.0
 20
0.0
 30
0.0
  9
$UCSORGLEFT
 10
0.0
 20
0.0
 30
0.0
  9
$UCSORGRIGHT
 10
0.0
 20
0.0
 30
0.0
  9
$UCSORGFRONT
 10
0.0
 20
0.0
 30
0.0
  9
$UCSORGBACK
 10
0.0
 20
0.0
 30
0.0
  9
$PUCSBASE
  2

  9
$PUCSNAME
  2

  9
$PUCSORG
 10
0.0
 20
0.0
 30
0.0
  9
$PUCSXDIR
 10
1.0
 20
0.0
 30
0.0
  9
$PUCSYDIR
 10
0.0
 20
1.0
 30
0.0
  9
$PUCSORTHOREF
  2

  9
$PUCSORTHOVIEW
 70
     0
  9
$PUCSORGTOP
 10
0.0
 20
0.0
 30
0.0
  9
$PUCSORGBOTTOM
 10
0.0
 20
0.0
 30
0.0
  9
$PUCSORGLEFT
 10
0.0
 20
0.0
 30
0.0
  9
$PUCSORGRIGHT
 10
0.0
 20
0.0
 30
0.0
  9
$PUCSORGFRONT
 10
0.0
 20
0.0
 30
0.0
  9
$PUCSORGBACK
 10
0.0
 20
0.0
 30
0.0
  9
$USERI1
 70
     0
  9
$USERI2
 70
     0
  9
$USERI3
 70
     0
  9
$USERI4
 70
     0
  9
$USERI5
 70
     0
  9
$USERR1
 40
0.0
  9
$USERR2
 40
0.0
  9
$USERR3
 40
0.0
  9
$USERR4
 40
0.0
  9
$USERR5
 40
0.0
  9
$WORLDVIEW
 70
     1
  9
$SHADEDGE
 70
     3
  9
$SHADEDIF
 70
    70
  9
$TILEMODE
 70
     1
  9
$MAXACTVP
 70
    64
  9
$PINSBASE
 10
0.0
 20
0.0
 30
0.0
  9
$PLIMCHECK
 70
     0
  9
$PEXTMIN
 10
0.0
 20
0.0
 30
0.0
  9
$PEXTMAX
 10
0.0
 20
0.0
 30
0.0
  9
$PLIMMIN
 10
0.0
 20
0.0
  9
$PLIMMAX
 10
12.0
 20
9.0
  9
$UNITMODE
 70
     0
  9
$VISRETAIN
 70
     0
  9
$PLINEGEN
 70
     0
  9
$PSLTSCALE
 70
     1
  9
$TREEDEPTH
 70
  3020
  9
$CMLSTYLE
  2
STANDARD
  9
$CMLJUST
 70
     0
  9
$CMLSCALE
 40
20.0
  9
$PROXYGRAPHICS
 70
     1
  9
$MEASUREMENT
 70
     1
  9
$CELWEIGHT
370
    -1
  9
$ENDCAPS
280
     0
  9
$JOINSTYLE
280
     0
  9
$LWDISPLAY
290
     0
  9
$INSUNITS
 70
     4
  9
$HYPERLINKBASE
  1

  9
$STYLESHEET
  1
monochrome.ctb
  9
$XEDIT
290
     1
  9
$CEPSNTYPE
380
     0
  9
$PSTYLEMODE
290
     1
  9
$FINGERPRINTGUID
  2
{675E71DE-22B5-4C5E-8A7A-7D5E31C8BE76}
  9
$VERSIONGUID
  2
{F9819423-3F97-4CD9-B016-84C52D62B06C}
  9
$EXTNAMES
290
     1
  9
$PSVPSCALE
 40
0.0
  9
$OLESTARTUP
290
     0
  0
ENDSEC
  0
SECTION
  2
CLASSES
  0
CLASS
  1
ACDBDICTIONARYWDFLT
  2
AcDbDictionaryWithDefault
  3
ObjectDBX Classes
 90
        0
280
     0
281
     0
  0
CLASS
  1
ACDBPLACEHOLDER
  2
AcDbPlaceHolder
  3
ObjectDBX Classes
 90
        0
280
     0
281
     0
  0
CLASS
  1
LAYOUT
  2
AcDbLayout
  3
ObjectDBX Classes
 90
        0
280
     0
281
     0
  0
CLASS
  1
DICTIONARYVAR
  2
AcDbDictionaryVar
  3
ObjectDBX Classes
 90
        0
280
     0
281
     0
  0
CLASS
  1
TABLESTYLE
  2
AcDbTableStyle
  3
ObjectDBX Classes
 90
     4095
280
     0
281
     0
  0
CLASS
  1
MATERIAL
  2
AcDbMaterial
  3
ObjectDBX Classes
 90
     1024
280
     0
281
     0
  0
CLASS
  1
VISUALSTYLE
  2
AcDbVisualStyle
  3
ObjectDBX Classes
 90
     4095
280
     0
281
     0
  0
ENDSEC
  0
SECTION
  2
TABLES
  0
TABLE
  2
VPORT
  5
8
330
0
100
AcDbSymbolTable
 70
     1
  0
VPORT
  5
3ED
330
8
100
AcDbSymbolTableRecord
100
AcDbViewportTableRecord
  2
*Active
 70
     0
 10
0.0
 20
0.0
 11
1.0
 21
1.0
 12
21.89936971268537
 22
7.239838603697585
 13
0.0
 23
0.0
 14
5.0
 24
5.0
 15
5.0
 25
5.0
 16
0.0
 26
0.0
 36
1.0
 17
0.0
 27
0.0
 37
0.0
 40
131.7801153645
 41
1.192207792207792
 42
50.0
 43
0.0
 44
0.0
 50
0.0
 51
0.0
 71
     0
 72
  2000
 73
     1
 74
     1
 75
     0
 76
     0
 77
     0
 78
     0
281
     0
 65
     1
110
0.0
120
0.0
130
0.0
111
1.0
121
0.0
131
0.0
112
0.0
122
1.0
132
0.0
 79
     0
146
0.0
  0
ENDTAB
  0
TABLE
  2
LTYPE
  5
5
330
0
100
AcDbSymbolTable
 70
    56
  0
LTYPE
  5
12
330
5
100
AcDbSymbolTableRecord
100
AcDbLinetypeTableRecord
  2
BYBLOCK
 70
     0
  3

 72
    65
 73
     0
 40
0.0
  0
LTYPE
  5
13
330
5
100
AcDbSymbolTableRecord
100
AcDbLinetypeTableRecord
  2
BYLAYER
 70
     0
  3

 72
    65
 73
     0
 40
0.0
  0
LTYPE
  5
14
330
5
100
AcDbSymbolTableRecord
100
AcDbLinetypeTableRecord
  2
CONTINUOUS
 70
     0
  3
Solid line
 72
    65
 73
     0
 40
0.0
  0
LTYPE
  5
20
330
5
100
AcDbSymbolTableRecord
100
AcDbLinetypeTableRecord
  2
HIDDEN
 70
     0
  3
Hidden __ __ __ __ __ __ __ __ __ __ __ __ __ _
 72
    65
 73
     2
 40
9.524999999999998
 49
6.349999999999999
 74
     0
 49
-3.174999999999999
 74
     0
  0
LTYPE
  5
351
330
5
100
AcDbSymbolTableRecord
100
AcDbLinetypeTableRecord
  2
CENTER
 70
     0
  3
Dash dot __ . __ . __ . __ . __ . __ . __ . __
 72
    65
 73
     4
 40
25.4
 49
12.7
 74
     0
 49
-6.349999999999999
 74
     0
 49
0.0
 74
     0
 49
-6.349999999999999
 74
     0
  0
ENDTAB
  0
TABLE
  2
LAYER
  5
2
102
{ACAD_XDICTIONARY
360
43C
102
}
330
0
100
AcDbSymbolTable
 70
    28
  0
LAYER
  5
F
330
2
100
AcDbSymbolTableRecord
100
AcDbLayerTableRecord
  2
0
 70
     0
 62
     7
  6
CONTINUOUS
370
    -3
390
300
  0
LAYER
  5
23
330
2
100
AcDbSymbolTableRecord
100
AcDbLayerTableRecord
  2
1
 70
     0
 62
     4
  6
CONTINUOUS
370
    -3
390
300
  0
LAYER
  5
24
330
2
100
AcDbSymbolTableRecord
100
AcDbLayerTableRecord
  2
SK1
 70
     0
 62
     4
  6
CONTINUOUS
370
    -3
390
300
  0
LAYER
  5
25
330
2
100
AcDbSymbolTableRecord
100
AcDbLayerTableRecord
  2
2
 70
     0
 62
     7
  6
CONTINUOUS
370
    -3
390
300
  0
LAYER
  5
27
330
2
100
AcDbSymbolTableRecord
100
AcDbLayerTableRecord
  2
SK2
 70
     0
 62
     7
  6
CONTINUOUS
370
    -3
390
300
  0
LAYER
  5
29
330
2
100
AcDbSymbolTableRecord
100
AcDbLayerTableRecord
  2
SK3
 70
     0
 62
     1
  6
HIDDEN
370
    -3
390
300
  0
LAYER
  5
2A
330
2
100
AcDbSymbolTableRecord
100
AcDbLayerTableRecord
  2
4
 70
     0
 62
     2
  6
CENTER
370
    -3
390
300
  0
LAYER
  5
2B
330
2
100
AcDbSymbolTableRecord
100
AcDbLayerTableRecord
  2
SK4
 70
     0
 62
     2
  6
CENTER
370
    -3
390
300
  0
LAYER
  5
2E
330
2
100
AcDbSymbolTableRecord
100
AcDbLayerTableRecord
  2
SK6
 70
     0
 62
     5
  6
CONTINUOUS
370
    -3
390
300
  0
LAYER
  5
2F
330
2
100
AcDbSymbolTableRecord
100
AcDbLayerTableRecord
  2
DEFPOINTS
 70
     0
 62
     7
  6
CONTINUOUS
290
     0
370
    -3
390
300
  0
LAYER
  5
704
330
2
100
AcDbSymbolTableRecord
100
AcDbLayerTableRecord
  2
3
 70
     0
 62
     1
  6
HIDDEN
370
    -3
390
300
  0
ENDTAB
  0
TABLE
  2
STYLE
  5
3
330
0
100
AcDbSymbolTable
 70
    11
  0
STYLE
  5
10
330
3
100
AcDbSymbolTableRecord
100
AcDbTextStyleTableRecord
  2
STANDARD
 70
     0
 40
0.0
 41
1.0
 50
0.0
 71
     0
 42
5.0
  3
txt
  4

  0
STYLE
  5
1E
330
3
100
AcDbSymbolTableRecord
100
AcDbTextStyleTableRecord
  2
SIMPLEX
 70
     0
 40
3.5
 41
1.0
 50
0.0
 71
     0
 42
3.5
  3
simplex.shx
  4

  0
ENDTAB
  0
TABLE
  2
VIEW
  5
6
330
0
100
AcDbSymbolTable
 70
     0
  0
ENDTAB
  0
TABLE
  2
UCS
  5
7
330
0
100
AcDbSymbolTable
 70
     0
  0
ENDTAB
  0
TABLE
  2
APPID
  5
9
330
0
100
AcDbSymbolTable
 70
     5
  0
APPID
  5
11
330
9
100
AcDbSymbolTableRecord
100
AcDbRegAppTableRecord
  2
ACAD
 70
     0
  0
APPID
  5
3A6
330
9
100
AcDbSymbolTableRecord
100
AcDbRegAppTableRecord
  2
ACAD_PSEXT
 70
     0
  0
APPID
  5
3A8
330
9
100
AcDbSymbolTableRecord
100
AcDbRegAppTableRecord
  2
ACAD_EXEMPT_FROM_CAD_STANDARDS
 70
     0
  0
APPID
  5
433
330
9
100
AcDbSymbolTableRecord
100
AcDbRegAppTableRecord
  2
AcAecLayerStandard
 70
     0
  0
APPID
  5
485
330
9
100
AcDbSymbolTableRecord
100
AcDbRegAppTableRecord
  2
DCO15
 70
     0
  0
ENDTAB
  0
TABLE
  2
DIMSTYLE
  5
A
330
0
100
AcDbSymbolTable
 70
     2
100
AcDbDimStyleTable
 71
     1
340
3F
  0
DIMSTYLE
105
3F
102
{ACAD_REACTORS
330
572
330
571
330
570
330
56F
102
}
330
A
100
AcDbSymbolTableRecord
100
AcDbDimStyleTableRecord
  2
STANDARD
 70
     0
 41
2.5
 42
0.0
 43
3.75
 44
1.25
 73
     0
 74
     0
 77
     1
 78
     8
 79
     2
140
3.5
141
0.0
143
0.039370078
147
0.625
171
     3
179
     2
271
     2
272
     2
274
     3
283
     0
284
     8
340
1E
  0
ENDTAB
  0
TABLE
  2
BLOCK_RECORD
  5
1
330
0
100
AcDbSymbolTable
 70
    11
  0
BLOCK_RECORD
  5
18
330
1
100
AcDbSymbolTableRecord
100
AcDbBlockTableRecord
  2
*MODEL_SPACE
340
303
  0
BLOCK_RECORD
  5
338
330
1
100
AcDbSymbolTableRecord
100
AcDbBlockTableRecord
  2
*Paper_Space
340
33B
  0
BLOCK_RECORD
  5
599
330
1
100
AcDbSymbolTableRecord
100
AcDbBlockTableRecord
  2
*D5
340
0
  0
BLOCK_RECORD
  5
5A5
330
1
100
AcDbSymbolTableRecord
100
AcDbBlockTableRecord
  2
*D6
340
0
  0
BLOCK_RECORD
  5
5B1
330
1
100
AcDbSymbolTableRecord
100
AcDbBlockTableRecord
  2
*D7
340
0
  0
BLOCK_RECORD
  5
5BD
330
1
100
AcDbSymbolTableRecord
100
AcDbBlockTableRecord
  2
*D8
340
0
  0
ENDTAB
  0
ENDSEC
  0
SECTION
  2
BLOCKS
  0
BLOCK
  5
32
330
18
100
AcDbEntity
  8
0
100
AcDbBlockBegin
  2
*MODEL_SPACE
 70
     0
 10
0.0
 20
0.0
 30
0.0
  3
*MODEL_SPACE
  1

  0
ENDBLK
  5
33
330
18
100
AcDbEntity
  8
0
100
AcDbBlockEnd
  0
BLOCK
  5
339
330
338
100
AcDbEntity
 67
     1
  8
0
100
AcDbBlockBegin
  2
*Paper_Space
 70
     0
 10
0.0
 20
0.0
 30
0.0
  3
*Paper_Space
  1

  0
ENDBLK
  5
33A
330
338
100
AcDbEntity
 67
     1
  8
0
100
AcDbBlockEnd
  0
BLOCK
  5
5A3
330
599
100
AcDbEntity
  8
0
100
AcDbBlockBegin
  2
*D5
 70
     1
 10
0.0
 20
0.0
 30
0.0
  3
*D5
  1

  0
LINE
  5
6D7
330
599
100
AcDbEntity
  8
2
 62
     0
370
    -2
100
AcDbLine
 10
81.58250226729499
 20
-41.5
 30
0.0
 11
98.33773763407608
 21
-41.5
 31
0.0
  0
LINE
  5
6D8
330
599
100
AcDbEntity
  8
2
 62
     0
370
    -2
100
AcDbLine
 10
81.58250226729499
 20
41.5
 30
0.0
 11
98.33773763407611
 21
41.5
 31
0.0
  0
LINE
  5
6D9
330
599
100
AcDbEntity
  8
2
 62
     0
370
    -2
100
AcDbLine
 10
97.08773763407608
 20
-39.0
 30
0.0
 11
97.08773763407611
 21
39.0
 31
0.0
  0
SOLID
  5
6DA
330
599
100
AcDbEntity
  8
2
 62
     0
100
AcDbTrace
 10
96.67107096740942
 20
-39.0
 30
0.0
 11
97.50440430074275
 21
-39.0
 31
0.0
 12
97.08773763407608
 22
-41.5
 32
0.0
 13
97.08773763407608
 23
-41.5
 33
0.0
  0
SOLID
  5
6DB
330
599
100
AcDbEntity
  8
2
 62
     0
100
AcDbTrace
 10
96.67107096740943
 20
39.0
 30
0.0
 11
97.50440430074277
 21
39.0
 31
0.0
 12
97.08773763407611
 22
41.5
 32
0.0
 13
97.08773763407611
 23
41.5
 33
0.0
  0
MTEXT
  5
6DC
330
599
100
AcDbEntity
  8
2
 62
     0
100
AcDbMText
 10
94.71273763407609
 20
0.0000000000000157
 30
0.0
 40
3.5
 41
0.0
 71
     5
 72
     1
  1
%%c83
  7
SIMPLEX
 11
0.0000000000000001
 21
1.0
 31
0.0
 73
     1
 44
1.0
1001
ACAD
1000
MTEXTBEGIN
1070
    73
1070
     1
1070
    44
1040
1.0
1070
    74
1070
     0
1000
MTEXTEND
  0
POINT
  5
6DD
330
599
100
AcDbEntity
  8
DEFPOINTS
 62
     0
100
AcDbPoint
 10
81.58250226729499
 20
-41.5
 30
0.0
  0
POINT
  5
6DE
330
599
100
AcDbEntity
  8
DEFPOINTS
 62
     0
100
AcDbPoint
 10
81.58250226729499
 20
41.5
 30
0.0
  0
POINT
  5
6DF
330
599
100
AcDbEntity
  8
DEFPOINTS
 62
     0
100
AcDbPoint
 10
97.08773763407611
 20
41.5
 30
0.0
  0
ENDBLK
  5
5A4
330
599
100
AcDbEntity
  8
0
100
AcDbBlockEnd
  0
BLOCK
  5
5AF
330
5A5
100
AcDbEntity
  8
0
100
AcDbBlockBegin
  2
*D6
 70
     1
 10
0.0
 20
0.0
 30
0.0
  3
*D6
  1

  0
LINE
  5
70B
330
5A5
100
AcDbEntity
  8
2
 62
     0
370
    -2
100
AcDbLine
 10
81.79999999999999
 20
41.29999999999999
 30
0.0
 11
81.79999999999999
 21
61.25
 31
0.0
  0
LINE
  5
70C
330
5A5
100
AcDbEntity
  8
2
 62
     0
370
    -2
100
AcDbLine
 10
0.0
 20
25.0
 30
0.0
 11
0.0000000000000022
 21
61.25
 31
0.0
  0
LINE
  5
70D
330
5A5
100
AcDbEntity
  8
2
 62
     0
370
    -2
100
AcDbLine
 10
79.29999999999999
 20
60.0
 30
0.0
 11
2.500000000000002
 21
60.0
 31
0.0
  0
SOLID
  5
70E
330
5A5
100
AcDbEntity
  8
2
 62
     0
100
AcDbTrace
 10
79.29999999999999
 20
60.41666666666666
 30
0.0
 11
79.29999999999999
 21
59.58333333333333
 31
0.0
 12
81.79999999999999
 22
60.0
 32
0.0
 13
81.79999999999999
 23
60.0
 33
0.0
  0
SOLID
  5
70F
330
5A5
100
AcDbEntity
  8
2
 62
     0
100
AcDbTrace
 10
2.500000000000002
 20
60.41666666666666
 30
0.0
 11
2.500000000000002
 21
59.58333333333333
 31
0.0
 12
0.0000000000000021
 22
60.0
 32
0.0
 13
0.0000000000000021
 23
60.0
 33
0.0
  0
MTEXT
  5
710
330
5A5
100
AcDbEntity
  8
2
 62
     0
100
AcDbMText
 10
40.89999999999999
 20
62.375
 30
0.0
 40
3.5
 41
0.0
 71
     5
 72
     1
  1
81.8
  7
SIMPLEX
 73
     1
 44
1.0
1001
ACAD
1000
MTEXTBEGIN
1070
    73
1070
     1
1070
    44
1040
1.0
1070
    74
1070
     0
1000
MTEXTEND
  0
POINT
  5
711
330
5A5
100
AcDbEntity
  8
DEFPOINTS
 62
     0
100
AcDbPoint
 10
81.79999999999999
 20
41.29999999999999
 30
0.0
  0
POINT
  5
712
330
5A5
100
AcDbEntity
  8
DEFPOINTS
 62
     0
100
AcDbPoint
 10
0.0
 20
25.0
 30
0.0
  0
POINT
  5
713
330
5A5
100
AcDbEntity
  8
DEFPOINTS
 62
     0
100
AcDbPoint
 10
0.0000000000000021
 20
60.0
 30
0.0
  0
ENDBLK
  5
5B0
330
5A5
100
AcDbEntity
  8
0
100
AcDbBlockEnd
  0
BLOCK
  5
5BB
330
5B1
100
AcDbEntity
  8
0
100
AcDbBlockBegin
  2
*D7
 70
     1
 10
0.0
 20
0.0
 30
0.0
  3
*D7
  1

  0
LINE
  5
6FB
330
5B1
100
AcDbEntity
  8
SK2
 62
     0
370
    -2
100
AcDbLine
 10
-25.00000000000002
 20
14.0
 30
0.0
 11
-40.33220195523017
 21
14.0
 31
0.0
  0
LINE
  5
6FC
330
5B1
100
AcDbEntity
  8
SK2
 62
     0
370
    -2
100
AcDbLine
 10
-25.00000000000002
 20
-14.0000000000001
 30
0.0
 11
-40.33220195523017
 21
-14.00000000000009
 31
0.0
  0
LINE
  5
6FD
330
5B1
100
AcDbEntity
  8
SK2
 62
     0
370
    -2
100
AcDbLine
 10
-39.08220195523018
 20
11.5
 30
0.0
 11
-39.08220195523018
 21
-11.50000000000009
 31
0.0
  0
SOLID
  5
6FE
330
5B1
100
AcDbEntity
  8
SK2
 62
     0
100
AcDbTrace
 10
-39.49886862189684
 20
11.5
 30
0.0
 11
-38.66553528856351
 21
11.5
 31
0.0
 12
-39.08220195523018
 22
14.0
 32
0.0
 13
-39.08220195523018
 23
14.0
 33
0.0
  0
SOLID
  5
6FF
330
5B1
100
AcDbEntity
  8
SK2
 62
     0
100
AcDbTrace
 10
-39.49886862189684
 20
-11.50000000000009
 30
0.0
 11
-38.66553528856351
 21
-11.50000000000009
 31
0.0
 12
-39.08220195523018
 22
-14.00000000000009
 32
0.0
 13
-39.08220195523018
 23
-14.00000000000009
 33
0.0
  0
MTEXT
  5
700
330
5B1
100
AcDbEntity
  8
SK2
 62
     0
100
AcDbMText
 10
-41.45720195523018
 20
-0.0000000000000519
 30
0.0
 40
3.5
 41
0.0
 71
     5
 72
     1
  1
%%c28
  7
SIMPLEX
 11
0.0000000000000001
 21
1.0
 31
0.0
 73
     1
 44
1.0
1001
ACAD
1000
MTEXTBEGIN
1070
    73
1070
     1
1070
    44
1040
1.0
1070
    74
1070
     0
1000
MTEXTEND
  0
POINT
  5
701
330
5B1
100
AcDbEntity
  8
DEFPOINTS
 62
     0
100
AcDbPoint
 10
-25.00000000000002
 20
14.0
 30
0.0
  0
POINT
  5
702
330
5B1
100
AcDbEntity
  8
DEFPOINTS
 62
     0
100
AcDbPoint
 10
-25.00000000000002
 20
-14.0000000000001
 30
0.0
  0
POINT
  5
703
330
5B1
100
AcDbEntity
  8
DEFPOINTS
 62
     0
100
AcDbPoint
 10
-39.08220195523018
 20
-14.00000000000009
 30
0.0
  0
ENDBLK
  5
5BC
330
5B1
100
AcDbEntity
  8
0
100
AcDbBlockEnd
  0
BLOCK
  5
5C7
330
5BD
100
AcDbEntity
  8
0
100
AcDbBlockBegin
  2
*D8
 70
     1
 10
0.0
 20
0.0
 30
0.0
  3
*D8
  1

  0
LINE
  5
6F2
330
5BD
100
AcDbEntity
  8
SK2
 62
     0
370
    -2
100
AcDbLine
 10
1.999999999999992
 20
27.0
 30
0.0
 11
-51.70633963836439
 21
27.00000000000001
 31
0.0
  0
LINE
  5
6F3
330
5BD
100
AcDbEntity
  8
SK2
 62
     0
370
    -2
100
AcDbLine
 10
1.999999999999992
 20
-27.0
 30
0.0
 11
-51.7063396383644
 21
-26.99999999999999
 31
0.0
  0
LINE
  5
6F4
330
5BD
100
AcDbEntity
  8
SK2
 62
     0
370
    -2
100
AcDbLine
 10
-50.45633963836439
 20
24.50000000000001
 30
0.0
 11
-50.4563396383644
 21
-24.49999999999999
 31
0.0
  0
SOLID
  5
6F5
330
5BD
100
AcDbEntity
  8
SK2
 62
     0
100
AcDbTrace
 10
-50.87300630503105
 20
24.50000000000001
 30
0.0
 11
-50.03967297169772
 21
24.50000000000001
 31
0.0
 12
-50.45633963836439
 22
27.00000000000001
 32
0.0
 13
-50.45633963836439
 23
27.00000000000001
 33
0.0
  0
SOLID
  5
6F6
330
5BD
100
AcDbEntity
  8
SK2
 62
     0
100
AcDbTrace
 10
-50.87300630503107
 20
-24.49999999999999
 30
0.0
 11
-50.03967297169774
 21
-24.49999999999999
 31
0.0
 12
-50.4563396383644
 22
-26.99999999999999
 32
0.0
 13
-50.4563396383644
 23
-26.99999999999999
 33
0.0
  0
MTEXT
  5
6F7
330
5BD
100
AcDbEntity
  8
SK2
 62
     0
100
AcDbMText
 10
-52.8313396383644
 20
0.0000000000000076
 30
0.0
 40
3.5
 41
0.0
 71
     5
 72
     1
  1
%%c54
  7
SIMPLEX
 11
0.0000000000000001
 21
1.0
 31
0.0
 73
     1
 44
1.0
1001
ACAD
1000
MTEXTBEGIN
1070
    73
1070
     1
1070
    44
1040
1.0
1070
    74
1070
     0
1000
MTEXTEND
  0
POINT
  5
6F8
330
5BD
100
AcDbEntity
  8
DEFPOINTS
 62
     0
100
AcDbPoint
 10
1.999999999999992
 20
27.0
 30
0.0
  0
POINT
  5
6F9
330
5BD
100
AcDbEntity
  8
DEFPOINTS
 62
     0
100
AcDbPoint
 10
1.999999999999992
 20
-27.0
 30
0.0
  0
POINT
  5
6FA
330
5BD
100
AcDbEntity
  8
DEFPOINTS
 62
     0
100
AcDbPoint
 10
-50.4563396383644
 20
-26.99999999999999
 30
0.0
  0
ENDBLK
  5
5C8
330
5BD
100
AcDbEntity
  8
0
100
AcDbBlockEnd
  0
ENDSEC
  0
SECTION
  2
ENTITIES
  0
LINE
  5
425
330
18
100
AcDbEntity
  8
DEFPOINTS
100
AcDbLine
 10
0.0
 20
0.0
 30
0.0
 11
0.0
 21
0.0
 31
0.0
  0
LINE
  5
52E
330
18
100
AcDbEntity
  8
SK4
100
AcDbLine
 10
-28.07181175652741
 20
0.0
 30
0.0
 11
87.8614829385892
 21
0.0
 31
0.0
  0
LINE
  5
52F
330
18
100
AcDbEntity
  8
1
100
AcDbLine
 10
1.999999999999992
 20
-27.0
 30
0.0
 11
49.45944627970539
 21
-27.0
 31
0.0
  0
LINE
  5
530
330
18
100
AcDbEntity
  8
1
100
AcDbLine
 10
75.24999999999979
 20
27.0
 30
0.0
 11
77.99999999999998
 21
27.0
 31
0.0
  0
LINE
  5
531
330
18
100
AcDbEntity
  8
1
100
AcDbLine
 10
0.0
 20
-6.0
 30
0.0
 11
0.0
 21
-25.0
 31
0.0
  0
LINE
  5
532
330
18
100
AcDbEntity
  8
1
100
AcDbLine
 10
0.0
 20
25.0
 30
0.0
 11
1.999999999999992
 21
27.0
 31
0.0
  0
ARC
  5
533
330
18
100
AcDbEntity
  8
1
100
AcDbCircle
 10
11.99999999999998
 20
0.0
 30
0.0
 40
6.0
100
AcDbArc
 50
270.0
 51
90.0
  0
LINE
  5
534
330
18
100
AcDbEntity
  8
1
100
AcDbLine
 10
0.0
 20
25.0
 30
0.0
 11
0.0
 21
6.0
 31
0.0
  0
LINE
  5
535
330
18
100
AcDbEntity
  8
1
100
AcDbLine
 10
-5.600000000000008
 20
6.0
 30
0.0
 11
11.99999999999998
 21
6.0
 31
0.0
  0
LINE
  5
536
330
18
100
AcDbEntity
  8
1
100
AcDbLine
 10
-5.599999999999994
 20
6.0
 30
0.0
 11
-5.599999999999994
 21
-6.0
 31
0.0
  0
LINE
  5
537
330
18
100
AcDbEntity
  8
1
100
AcDbLine
 10
-5.600000000000008
 20
-6.0
 30
0.0
 11
11.99999999999998
 21
-6.0
 31
0.0
  0
LINE
  5
538
330
18
100
AcDbEntity
  8
1
100
AcDbLine
 10
0.0
 20
-25.0
 30
0.0
 11
1.999999999999992
 21
-27.0
 31
0.0
  0
LINE
  5
539
330
18
100
AcDbEntity
  8
1
100
AcDbLine
 10
1.999999999999992
 20
-27.0
 30
0.0
 11
1.999999999999992
 21
-5.999999999999985
 31
0.0
  0
ARC
  5
53A
330
18
100
AcDbEntity
  8
SK3
100
AcDbCircle
 10
-12.30000000000001
 20
-14.4000000000001
 30
0.0
 40
6.0
100
AcDbArc
 50
3.822553729274123
 51
176.1774462707259
  0
LINE
  5
53B
330
18
100
AcDbEntity
  8
SK1
100
AcDbLine
 10
0.0
 20
-14.0000000000001
 30
0.0
 11
-25.00000000000002
 21
-14.0000000000001
 31
0.0
  0
LINE
  5
53C
330
18
100
AcDbEntity
  8
SK1
100
AcDbLine
 10
-26.00000000000001
 20
-13.0000000000001
 30
0.0
 11
-25.00000000000002
 21
-14.0000000000001
 31
0.0
  0
LINE
  5
53D
330
18
100
AcDbEntity
  8
SK1
100
AcDbLine
 10
-26.00000000000001
 20
13.0
 30
0.0
 11
-25.00000000000002
 21
14.0
 31
0.0
  0
LINE
  5
53E
330
18
100
AcDbEntity
  8
SK1
100
AcDbLine
 10
-25.00000000000002
 20
14.0
 30
0.0
 11
-25.00000000000002
 21
-14.0000000000001
 31
0.0
  0
LINE
  5
53F
330
18
100
AcDbEntity
  8
SK1
100
AcDbLine
 10
-26.00000000000001
 20
13.0
 30
0.0
 11
-26.00000000000001
 21
-13.0000000000001
 31
0.0
  0
ARC
  5
540
330
18
100
AcDbEntity
  8
SK3
100
AcDbCircle
 10
12.30000000000001
 20
14.4
 30
0.0
 40
6.0
210
0.0
220
0.0
230
-1.0
100
AcDbArc
 50
183.8225537292741
 51
356.1774462707258
  0
LINE
  5
541
330
18
100
AcDbEntity
  8
SK1
100
AcDbLine
 10
0.0
 20
14.0
 30
0.0
 11
-25.00000000000002
 21
14.0
 31
0.0
  0
LINE
  5
542
330
18
100
AcDbEntity
  8
1
100
AcDbLine
 10
1.999999999999992
 20
27.0
 30
0.0
 11
1.999999999999992
 21
5.999999999999985
 31
0.0
  0
LINE
  5
543
330
18
100
AcDbEntity
  8
1
100
AcDbLine
 10
78.99999999999998
 20
26.0
 30
0.0
 11
79.0000000000001
 21
-23.0
 31
0.0
  0
LINE
  5
544
330
18
100
AcDbEntity
  8
1
100
AcDbLine
 10
78.99999999999998
 20
26.0
 30
0.0
 11
77.99999999999998
 21
27.0
 31
0.0
  0
LINE
  5
545
330
18
100
AcDbEntity
  8
1
100
AcDbLine
 10
77.99999999999998
 20
-24.0
 30
0.0
 11
77.99999999999998
 21
27.0
 31
0.0
  0
LINE
  5
546
330
18
100
AcDbEntity
  8
1
100
AcDbLine
 10
52.45944627970539
 20
-24.0
 30
0.0
 11
78.0000000000001
 21
-24.0
 31
0.0
  0
LINE
  5
547
330
18
100
AcDbEntity
  8
1
100
AcDbLine
 10
49.45944627970539
 20
-27.0
 30
0.0
 11
52.45944627970539
 21
-24.0
 31
0.0
  0
LINE
  5
548
330
18
100
AcDbEntity
  8
1
100
AcDbLine
 10
79.0000000000001
 20
-23.0
 30
0.0
 11
78.0000000000001
 21
-24.0
 31
0.0
  0
LINE
  5
549
330
18
100
AcDbEntity
  8
3
100
AcDbLine
 10
81.56527036446657
 20
41.4969615506024
 30
0.0
 11
75.61527036446658
 21
40.44781601538699
 31
0.0
  0
LINE
  5
54A
330
18
100
AcDbEntity
  8
3
100
AcDbLine
 10
81.79999999999999
 20
41.29999999999999
 30
0.0
 11
81.79999999999999
 21
35.25821165927979
 31
0.0
  0
LINE
  5
54B
330
18
100
AcDbEntity
  8
SK3
100
AcDbLine
 10
61.49999999999998
 20
35.18452272159621
 30
0.0
 11
61.49999999999998
 21
32.0
 31
0.0
  0
LINE
  5
54C
330
18
100
AcDbEntity
  8
SK3
100
AcDbLine
 10
63.24999999999999
 20
32.0
 30
0.0
 11
63.24999999999999
 21
20.132731820275
 31
0.0
  0
LINE
  5
54D
330
18
100
AcDbEntity
  8
SK3
100
AcDbLine
 10
67.74999999999998
 20
32.0
 30
0.0
 11
67.74999999999998
 21
20.132731820275
 31
0.0
  0
LINE
  5
54E
330
18
100
AcDbEntity
  8
SK3
100
AcDbLine
 10
69.49999999999999
 20
32.0
 30
0.0
 11
61.49999999999998
 21
32.0
 31
0.0
  0
LINE
  5
54F
330
18
100
AcDbEntity
  8
SK3
100
AcDbLine
 10
69.49999999999999
 20
37.32811626104521
 30
0.0
 11
69.49999999999999
 21
32.0
 31
0.0
  0
LINE
  5
550
330
18
100
AcDbEntity
  8
3
100
AcDbLine
 10
74.49999999999999
 20
39.18435565298219
 30
0.0
 11
75.44999999999998
 21
39.43890738579171
 31
0.0
  0
LINE
  5
551
330
18
100
AcDbEntity
  8
3
100
AcDbLine
 10
71.61567520653078
 20
37.8950097240816
 30
0.0
 11
71.61567520653078
 21
30.3247458135438
 31
0.0
  0
ARC
  5
552
330
18
100
AcDbEntity
  8
3
100
AcDbCircle
 10
73.11567520653078
 20
30.3247458135438
 30
0.0
 40
1.5
100
AcDbArc
 50
180.0
 51
285.0
  0
LINE
  5
553
330
18
100
AcDbEntity
  8
3
100
AcDbLine
 10
81.49999999999998
 20
31.01840460041901
 30
0.0
 11
73.5039037741846
 21
28.8758570741102
 31
0.0
  0
LINE
  5
554
330
18
100
AcDbEntity
  8
3
100
AcDbLine
 10
81.49999999999998
 20
35.0374936388318
 30
0.0
 11
81.49999999999998
 21
23.5
 31
0.0
  0
ARC
  5
555
330
18
100
AcDbEntity
  8
3
100
AcDbCircle
 10
81.59999999999994
 20
41.29999999999999
 30
0.0
 40
0.2
100
AcDbArc
 50
0.0
 51
99.999999999999
  0
ARC
  5
556
330
18
100
AcDbEntity
  8
3
100
AcDbCircle
 10
81.59999999999994
 20
35.25821165927979
 30
0.0
 40
0.2
100
AcDbArc
 50
279.9999999999986
 51
0.0
  0
LINE
  5
557
330
18
100
AcDbEntity
  8
3
100
AcDbLine
 10
81.63472963553338
 20
35.0612501086774
 30
0.0
 11
75.6847296355334
 21
34.012104573462
 31
0.0
  0
ARC
  5
558
330
18
100
AcDbEntity
  8
3
100
AcDbCircle
 10
75.65000000000002
 20
34.20906612406441
 30
0.0
 40
0.2
100
AcDbArc
 50
180.0
 51
279.9999999999986
  0
LINE
  5
559
330
18
100
AcDbEntity
  8
3
100
AcDbLine
 10
75.44999999999998
 20
40.25085446478459
 30
0.0
 11
75.44999999999998
 21
34.20906612406441
 31
0.0
  0
ARC
  5
55A
330
18
100
AcDbEntity
  8
3
100
AcDbCircle
 10
75.65000000000002
 20
40.25085446478459
 30
0.0
 40
0.2
100
AcDbArc
 50
99.999999999999
 51
180.0000000000008
  0
LINE
  5
55B
330
18
100
AcDbEntity
  8
3
100
AcDbLine
 10
74.49999999999999
 20
39.18435565298219
 30
0.0
 11
74.49999999999999
 21
34.07919371224401
 31
0.0
  0
ARC
  5
55C
330
18
100
AcDbEntity
  8
3
100
AcDbCircle
 10
75.99999999999998
 20
34.07919371224401
 30
0.0
 40
1.5
100
AcDbArc
 50
180.0
 51
285.0
  0
LINE
  5
55D
330
18
100
AcDbEntity
  8
3
100
AcDbLine
 10
81.49999999999998
 20
34.0
 30
0.0
 11
76.38822856765379
 21
32.63030497281039
 31
0.0
  0
LINE
  5
55E
330
18
100
AcDbEntity
  8
3
100
AcDbLine
 10
56.99999999999999
 20
33.9787513556561
 30
0.0
 11
71.61140327567237
 21
37.893865063658
 31
0.0
  0
LINE
  5
55F
330
18
100
AcDbEntity
  8
3
100
AcDbLine
 10
71.61140327567237
 20
37.893865063658
 30
0.0
 11
74.49572806914169
 21
39.18435565298219
 31
0.0
  0
CIRCLE
  5
560
330
18
100
AcDbEntity
  8
3
100
AcDbCircle
 10
78.62499999999998
 20
37.75453306203221
 30
0.0
 40
2.5
  0
LINE
  5
561
330
18
100
AcDbEntity
  8
3
100
AcDbLine
 10
81.49999999999998
 20
23.5
 30
0.0
 11
71.49878980726548
 21
23.5
 31
0.0
  0
LINE
  5
562
330
18
100
AcDbEntity
  8
SK3
100
AcDbLine
 10
63.74999999999999
 20
32.0
 30
0.0
 11
63.74999999999999
 21
19.63273182027499
 31
0.0
  0
LINE
  5
563
330
18
100
AcDbEntity
  8
SK3
100
AcDbLine
 10
67.24999999999998
 20
32.0
 30
0.0
 11
67.24999999999998
 21
19.63273182027499
 31
0.0
  0
LINE
  5
564
330
18
100
AcDbEntity
  8
SK3
100
AcDbLine
 10
63.24999999999999
 20
20.132731820275
 30
0.0
 11
67.74999999999998
 21
20.132731820275
 31
0.0
  0
LINE
  5
565
330
18
100
AcDbEntity
  8
SK3
100
AcDbLine
 10
63.74999999999999
 20
19.63273182027499
 30
0.0
 11
67.24999999999998
 21
19.63273182027499
 31
0.0
  0
LINE
  5
566
330
18
100
AcDbEntity
  8
SK3
100
AcDbLine
 10
55.49999999999998
 20
27.0
 30
0.0
 11
55.49999999999998
 21
-24.0
 31
0.0
  0
LINE
  5
567
330
18
100
AcDbEntity
  8
SK3
100
AcDbLine
 10
63.24999999999999
 20
20.132731820275
 30
0.0
 11
63.74999999999999
 21
19.63273182027499
 31
0.0
  0
LINE
  5
568
330
18
100
AcDbEntity
  8
SK3
100
AcDbLine
 10
67.74999999999998
 20
20.132731820275
 30
0.0
 11
67.24999999999998
 21
19.63273182027499
 31
0.0
  0
LINE
  5
569
330
18
100
AcDbEntity
  8
3
100
AcDbLine
 10
55.49999999999998
 20
33.9787513556561
 30
0.0
 11
71.50427193085828
 21
33.9787513556561
 31
0.0
  0
LINE
  5
56A
330
18
100
AcDbEntity
  8
3
100
AcDbLine
 10
55.49999999999998
 20
33.9787513556561
 30
0.0
 11
55.49999999999998
 21
27.0
 31
0.0
  0
LINE
  5
56B
330
18
100
AcDbEntity
  8
SK3
100
AcDbLine
 10
75.49999999999998
 20
12.03909963117729
 30
0.0
 11
75.49999999999998
 21
-24.0
 31
0.0
  0
LINE
  5
56C
330
18
100
AcDbEntity
  8
1
100
AcDbLine
 10
71.49999999999998
 20
25.81321102895089
 30
0.0
 11
71.49999999999998
 21
17.2607287885064
 31
0.0
  0
LINE
  5
56D
330
18
100
AcDbEntity
  8
1
100
AcDbLine
 10
72.9288495612539
 20
14.1965510160305
 30
0.0
 11
78.99999999999998
 21
9.102250922056796
 31
0.0
  0
ARC
  5
56E
330
18
100
AcDbEntity
  8
1
100
AcDbCircle
 10
75.49999999999998
 20
17.2607287885064
 30
0.0
 40
4.0
100
AcDbArc
 50
180.0
 51
230.0000000000005
  0
DIMENSION
  5
56F
330
18
100
AcDbEntity
  8
2
100
AcDbDimension
  2
*D5
 10
97.08773763407611
 20
41.5
 30
0.0
 11
94.71273763407609
 21
0.0000000000000157
 31
0.0
 70
    32
  1
%%c<>
 71
     5
 42
83.0
  3
STANDARD
100
AcDbAlignedDimension
 13
81.58250226729499
 23
-41.5
 33
0.0
 14
81.58250226729499
 24
41.5
 34
0.0
 50
90.0
100
AcDbRotatedDimension
  0
DIMENSION
  5
570
330
18
100
AcDbEntity
  8
2
100
AcDbDimension
  2
*D6
 10
0.0000000000000021
 20
60.0
 30
0.0
 11
40.89999999999999
 21
60.0
 31
0.0
 70
   160
 71
     5
 42
81.79999999999999
  3
STANDARD
100
AcDbAlignedDimension
 13
81.79999999999999
 23
41.29999999999999
 33
0.0
 14
0.0
 24
25.0
 34
0.0
 50
180.0
100
AcDbRotatedDimension
  0
DIMENSION
  5
571
330
18
100
AcDbEntity
  8
SK2
100
AcDbDimension
  2
*D7
 10
-39.08220195523018
 20
-14.00000000000009
 30
0.0
 11
-39.08220195523018
 21
-0.0000000000000522
 31
0.0
 70
   160
  1
%%c<>
 71
     5
 42
28.0000000000001
  3
STANDARD
100
AcDbAlignedDimension
 13
-25.00000000000002
 23
14.0
 33
0.0
 14
-25.00000000000002
 24
-14.0000000000001
 34
0.0
 50
270.0
100
AcDbRotatedDimension
  0
DIMENSION
  5
572
330
18
100
AcDbEntity
  8
SK2
100
AcDbDimension
  2
*D8
 10
-50.4563396383644
 20
-26.99999999999999
 30
0.0
 11
-50.4563396383644
 21
0.0000000000000073
 31
0.0
 70
   160
  1
%%c<>
 71
     5
 42
54.0
  3
STANDARD
100
AcDbAlignedDimension
 13
1.999999999999992
 23
27.0
 33
0.0
 14
1.999999999999992
 24
-27.0
 34
0.0
 50
270.0
100
AcDbRotatedDimension
  0
POINT
  5
573
330
18
100
AcDbEntity
  8
0
100
AcDbPoint
 10
161.9293208724999
 20
138.244624893326
 30
0.0
  0
POINT
  5
574
330
18
100
AcDbEntity
  8
0
100
AcDbPoint
 10
16.27526554738796
 20
29.007124893326
 30
0.0
  0
LINE
  5
575
330
18
100
AcDbEntity
  8
SK4
100
AcDbLine
 10
73.32611434724758
 20
0.0
 30
0.0
 11
75.45551435021216
 21
12.07642752350691
 31
0.0
  0
LINE
  5
576
330
18
100
AcDbEntity
  8
4
100
AcDbLine
 10
83.44381159935529
 20
0.0
 30
0.0
 11
-8.018066934247826
 21
0.0
 31
0.0
  0
POINT
  5
577
330
18
100
AcDbEntity
  8
0
100
AcDbPoint
 10
61.65807851546697
 20
83.625874893326
 30
0.0
  0
LINE
  5
579
330
18
100
AcDbEntity
  8
1
100
AcDbLine
 10
61.28291041936309
 20
-27.1111111111111
 30
0.0
 11
69.71708958063697
 21
-27.1111111111111
 31
0.0
  0
LINE
  5
57A
330
18
100
AcDbEntity
  8
1
100
AcDbLine
 10
54.61111111111119
 20
-24.0
 30
0.0
 11
61.28291041936309
 21
-27.1111111111111
 31
0.0
  0
LINE
  5
57B
330
18
100
AcDbEntity
  8
1
100
AcDbLine
 10
76.3888888888889
 20
-24.0
 30
0.0
 11
69.71708958063697
 21
-27.1111111111111
 31
0.0
  0
LINE
  5
57D
330
18
100
AcDbEntity
  8
1
100
AcDbLine
 10
59.09967169725978
 20
-24.0
 30
0.0
 11
60.43145757540468
 21
-25.0565456543517
 31
0.0
  0
LINE
  5
57E
330
18
100
AcDbEntity
  8
1
100
AcDbLine
 10
62.13514828347278
 20
-24.0
 30
0.0
 11
62.83530955429448
 21
-25.0565456543517
 31
0.0
  0
LINE
  5
57F
330
18
100
AcDbEntity
  8
1
100
AcDbLine
 10
68.86485171652729
 20
-24.0
 30
0.0
 11
68.1646904457056
 21
-25.0565456543517
 31
0.0
  0
LINE
  5
580
330
18
100
AcDbEntity
  8
1
100
AcDbLine
 10
71.90032830274031
 20
-24.0
 30
0.0
 11
70.5685424245954
 21
-25.0565456543517
 31
0.0
  0
LINE
  5
581
330
18
100
AcDbEntity
  8
1
100
AcDbLine
 10
56.69070383902838
 20
-24.0
 30
0.0
 11
58.52374984364589
 21
-25.0565456543517
 31
0.0
  0
LINE
  5
582
330
18
100
AcDbEntity
  8
1
100
AcDbLine
 10
74.3092961609717
 20
-24.0
 30
0.0
 11
72.47625015635417
 21
-25.0565456543517
 31
0.0
  0
TEXT
  5
58F
330
18
100
AcDbEntity
  8
SK6
100
AcDbText
 10
-26.00000000000001
 20
-49.63979098715618
 30
0.0
 40
3.5
  1
00072996
  7
SIMPLEX
100
AcDbText
  0
LINE
  5
590
330
18
100
AcDbEntity
  8
SK3
100
AcDbLine
 10
-26.00000000000001
 20
3.25
 30
0.0
 11
72.3760371167214
 21
3.25
 31
0.0
  0
LINE
  5
591
330
18
100
AcDbEntity
  8
SK3
100
AcDbLine
 10
-26.00000000000001
 20
-3.25
 30
0.0
 11
74.2761915777737
 21
-3.25
 31
0.0
  0
LINE
  5
592
330
18
100
AcDbEntity
  8
SK3
100
AcDbLine
 10
72.3760371167214
 20
3.25
 30
0.0
 11
74.12868645387438
 21
13.1897683219598
 31
0.0
  0
LINE
  5
593
330
18
100
AcDbEntity
  8
SK3
100
AcDbLine
 10
74.2761915777737
 20
-3.25
 30
0.0
 11
76.78234224655007
 21
10.9630867250541
 31
0.0
  0
ARC
  5
594
330
18
100
AcDbEntity
  8
1
100
AcDbCircle
 10
65.24999999999988
 20
52.07987240796891
 30
0.0
 40
27.0
100
AcDbArc
 50
248.2615392084796
 51
291.7384607915204
  0
LINE
  5
595
330
18
100
AcDbEntity
  8
3
100
AcDbLine
 10
71.50427193085828
 20
19.87875135565619
 30
0.0
 11
75.49999999999987
 21
19.87875135565619
 31
0.0
  0
LINE
  5
596
330
18
100
AcDbEntity
  8
3
100
AcDbLine
 10
75.49999999999987
 20
19.87875135565619
 30
0.0
 11
75.49999999999987
 21
12.03909963117741
 31
0.0
  0
LINE
  5
597
330
18
100
AcDbEntity
  8
1
100
AcDbLine
 10
1.999999999999992
 20
27.0
 30
0.0
 11
55.24999999999998
 21
27.0
 31
0.0
  0
LINE
  5
598
330
18
100
AcDbEntity
  8
3
100
AcDbLine
 10
71.50427193085828
 20
33.9787513556561
 30
0.0
 11
71.49689529407838
 21
19.87875135565619
 31
0.0
  0
TEXT
  5
719
330
18
100
AcDbEntity
  8
SK6
100
AcDbText
 10
-25.99999931414121
 20
-43.72104250584972
 30
0.0
 40
3.5
  1
A78050
  7
SIMPLEX
100
AcDbText
  0
ENDSEC
  0
SECTION
  2
OBJECTS
  0
DICTIONARY
  5
C
330
0
100
AcDbDictionary
281
     1
  3
ACAD_COLOR
350
387
  3
ACAD_GROUP
350
D
  3
ACAD_LAYOUT
350
301
  3
ACAD_MATERIAL
350
386
  3
ACAD_MLINESTYLE
350
E
  3
ACAD_PLOTSETTINGS
350
302
  3
ACAD_PLOTSTYLENAME
350
2FF
  3
ACAD_TABLESTYLE
350
388
  3
ACAD_VISUALSTYLE
350
3F2
  3
AcDbVariableDictionary
350
357
  3
DWGPROPS
350
71C
  0
DICTIONARY
  5
43C
330
2
100
AcDbDictionary
280
     1
281
     1
  3
ACAD_LAYERFILTERS
360
445
  3
ACLYDICTIONARY
360
444
  0
DICTIONARY
  5
387
102
{ACAD_REACTORS
330
C
102
}
330
C
100
AcDbDictionary
281
     1
  0
DICTIONARY
  5
D
102
{ACAD_REACTORS
330
C
102
}
330
C
100
AcDbDictionary
281
     1
  0
DICTIONARY
  5
301
102
{ACAD_REACTORS
330
C
102
}
330
C
100
AcDbDictionary
281
     1
  3
Layout1
350
33B
  3
Model
350
303
  0
DICTIONARY
  5
386
102
{ACAD_REACTORS
330
C
102
}
330
C
100
AcDbDictionary
281
     1
  3
ByBlock
350
3F0
  3
ByLayer
350
3EF
  3
Global
350
3F1
  0
DICTIONARY
  5
E
102
{ACAD_REACTORS
330
C
102
}
330
C
100
AcDbDictionary
281
     1
  3
STANDARD
350
1B
  0
DICTIONARY
  5
302
102
{ACAD_REACTORS
330
C
102
}
330
C
100
AcDbDictionary
281
     1
  0
ACDBDICTIONARYWDFLT
  5
2FF
102
{ACAD_REACTORS
330
C
102
}
330
C
100
AcDbDictionary
281
     1
  3
Normal
350
300
100
AcDbDictionaryWithDefault
340
300
  0
DICTIONARY
  5
388
102
{ACAD_REACTORS
330
C
102
}
330
C
100
AcDbDictionary
281
     1
  3
Standard
350
389
  0
DICTIONARY
  5
3F2
102
{ACAD_REACTORS
330
C
102
}
330
C
100
AcDbDictionary
281
     1
  3
2dWireframe
350
3F8
  3
3D Hidden
350
3FA
  3
3dWireframe
350
3F9
  3
Basic
350
3F7
  3
Brighten
350
3FE
  3
ColorChange
350
402
  3
Conceptual
350
3FB
  3
Dim
350
3FD
  3
Facepattern
350
401
  3
Flat
350
3F3
  3
FlatWithEdges
350
3F4
  3
Gouraud
350
3F5
  3
GouraudWithEdges
350
3F6
  3
Linepattern
350
400
  3
Realistic
350
3FC
  3
Thicken
350
3FF
  0
DICTIONARY
  5
357
102
{ACAD_REACTORS
330
C
102
}
330
C
100
AcDbDictionary
281
     1
  3
CTABLESTYLE
350
38E
  3
DIMASSOC
350
359
  3
HIDETEXT
350
358
  3
INDEXCTL
350
71B
  3
SORTENTS
350
71A
  0
XRECORD
  5
71C
102
{ACAD_REACTORS
330
C
102
}
330
C
100
AcDbXrecord
280
     1
  1
DWGPROPS COOKIE
  2

  3

  4

  6

  7

  8
deerkdanf
  9

300
=
301
=
302
=
303
=
304
=
305
=
306
=
307
=
308
=
309
=
 40
0.0018514583333333
 41
2454673.440129676
 42
2454673.441980764
  1

 90
        0
  0
DICTIONARY
  5
445
102
{ACAD_REACTORS
330
43C
102
}
330
43C
100
AcDbDictionary
281
     1
  0
DICTIONARY
  5
444
102
{ACAD_REACTORS
330
43C
102
}
330
43C
100
AcDbDictionary
281
     1
1001
ACAD
1000
<All
  0
LAYOUT
  5
33B
102
{ACAD_XDICTIONARY
360
71F
102
}
102
{ACAD_REACTORS
330
301
102
}
330
301
100
AcDbPlotSettings
  1

  2
Lexmark Optra PS2
  4

  6

 40
0.0
 41
0.0
 42
0.0
 43
0.0
 44
0.0
 45
0.0
 46
0.0
 47
0.0
 48
0.0
 49
0.0
140
0.0
141
0.0
142
1.0
143
1.0
 70
   688
 72
     0
 73
     0
 74
     5
  7
monochrome.ctb
 75
    16
147
1.0
148
0.0
149
0.0
100
AcDbLayout
  1
Layout1
 70
     1
 71
     1
 10
0.0
 20
0.0
 11
12.0
 21
9.0
 12
0.0
 22
0.0
 32
0.0
 14
0.0
 24
0.0
 34
0.0
 15
0.0
 25
0.0
 35
0.0
146
0.0
 13
0.0
 23
0.0
 33
0.0
 16
1.0
 26
0.0
 36
0.0
 17
0.0
 27
1.0
 37
0.0
 76
     0
330
338
  0
LAYOUT
  5
303
102
{ACAD_XDICTIONARY
360
71D
102
}
102
{ACAD_REACTORS
330
301
102
}
330
301
100
AcDbPlotSettings
  1

  2
Default Windows System Printer.pc3
  4
A4
  6

 40
6.805083274841308
 41
5.535083293914794
 42
6.974411010742187
 43
7.14373779296875
 44
209.9733276367187
 45
296.9259948730469
 46
67.83299579489725
 47
0.0
 48
0.0
 49
0.0
140
0.0
141
0.0
142
1.0
143
0.3604333568168785
 70
  3764
 72
     1
 73
     1
 74
     1
  7
monochrome.ctb
 75
     0
147
2.774437995504559
148
-82.35087775247029
149
-53.69369632994494
100
AcDbLayout
  1
Model
 70
     1
 71
     0
 10
0.0
 20
0.0
 11
12.0
 21
9.0
 12
0.0
 22
0.0
 32
0.0
 14
0.0
 24
0.0
 34
0.0
 15
0.0
 25
0.0
 35
0.0
146
0.0
 13
0.0
 23
0.0
 33
0.0
 16
1.0
 26
0.0
 36
0.0
 17
0.0
 27
1.0
 37
0.0
 76
     0
330
18
331
3ED
1001
ACAD_PSEXT
1000
Default Windows System Printer.pc3
1000
Lexmark Optra Rx
1000
Lexmark Rx
1000
Erstellt von Lexmark Benutzerdefinierte Installation,Nov 13,2005,10:03
1070
     0
  0
MATERIAL
  5
3F0
102
{ACAD_XDICTIONARY
360
725
102
}
102
{ACAD_REACTORS
330
386
102
}
330
386
100
AcDbMaterial
  1
ByBlock
  0
MATERIAL
  5
3EF
102
{ACAD_XDICTIONARY
360
723
102
}
102
{ACAD_REACTORS
330
386
102
}
330
386
100
AcDbMaterial
  1
ByLayer
  0
MATERIAL
  5
3F1
102
{ACAD_XDICTIONARY
360
727
102
}
102
{ACAD_REACTORS
330
386
102
}
330
386
100
AcDbMaterial
  1
Global
  0
MLINESTYLE
  5
1B
102
{ACAD_REACTORS
330
E
102
}
330
E
100
AcDbMlineStyle
  2
STANDARD
 70
     0
  3

 62
     0
 51
90.0
 52
90.0
 71
     2
 49
0.5
 62
   256
  6
BYLAYER
 49
-0.5
 62
   256
  6
BYLAYER
  0
ACDBPLACEHOLDER
  5
300
102
{ACAD_REACTORS
330
2FF
102
}
330
2FF
  0
TABLESTYLE
  5
389
102
{ACAD_XDICTIONARY
360
721
102
}
102
{ACAD_REACTORS
330
388
102
}
330
388
100
AcDbTableStyle
  3
Standard
 70
     0
 71
     0
 40
1.5
 41
1.5
280
     0
281
     0
  7
STANDARD
140
4.5
170
     2
 62
     0
 63
     7
283
     0
274
    -2
284
     1
 64
     0
275
    -2
285
     1
 65
     0
276
    -2
286
     1
 66
     0
277
    -2
287
     1
 67
     0
278
    -2
288
     1
 68
     0
279
    -2
289
     1
 69
     0
  7
STANDARD
140
6.0
170
     5
 62
     0
 63
     7
283
     0
274
    -2
284
     1
 64
     0
275
    -2
285
     1
 65
     0
276
    -2
286
     1
 66
     0
277
    -2
287
     1
 67
     0
278
    -2
288
     1
 68
     0
279
    -2
289
     1
 69
     0
  7
STANDARD
140
4.5
170
     5
 62
     0
 63
     7
283
     0
274
    -2
284
     1
 64
     0
275
    -2
285
     1
 65
     0
276
    -2
286
     1
 66
     0
277
    -2
287
     1
 67
     0
278
    -2
288
     1
 68
     0
279
    -2
289
     1
 69
     0
  0
VISUALSTYLE
  5
3F8
102
{ACAD_REACTORS
330
3F2
102
}
330
3F2
100
AcDbVisualStyle
  2
2dWireframe
 70
     4
 71
     0
 72
     2
 73
     0
 90
        0
 40
-0.6
 41
-30.0
 62
     5
 63
     7
 74
     1
 91
        4
 64
     7
 65
   257
 75
     1
175
     1
 42
1.0
 92
        0
 66
   257
 43
1.0
 76
     1
 77
     6
 78
     2
 67
     7
 79
     5
170
     0
171
     0
290
     0
174
     0
 93
        1
 44
0.0
173
     0
291
     0
 45
0.0
1001
ACAD
1000
AcDbSavedByObjectVersion
1070
     0
  0
VISUALSTYLE
  5
3FA
102
{ACAD_REACTORS
330
3F2
102
}
330
3F2
100
AcDbVisualStyle
  2
3D Hidden
 70
     6
 71
     1
 72
     2
 73
     2
 90
        0
 40
-0.6
 41
-30.0
 62
     5
 63
     7
 74
     2
 91
        2
 64
     7
 65
   257
 75
     2
175
     1
 42
40.0
 92
        0
 66
   257
 43
1.0
 76
     1
 77
     6
 78
     2
 67
     7
 79
     3
170
     0
171
     0
290
     0
174
     0
 93
        1
 44
0.0
173
     0
291
     0
 45
0.0
1001
ACAD
1000
AcDbSavedByObjectVersion
1070
     0
  0
VISUALSTYLE
  5
3F9
102
{ACAD_REACTORS
330
3F2
102
}
330
3F2
100
AcDbVisualStyle
  2
3dWireframe
 70
     5
 71
     0
 72
     2
 73
     0
 90
        0
 40
-0.6
 41
-30.0
 62
     5
 63
     7
 74
     1
 91
        4
 64
     7
 65
   257
 75
     1
175
     1
 42
1.0
 92
        0
 66
   257
 43
1.0
 76
     1
 77
     6
 78
     2
 67
     7
 79
     5
170
     0
171
     0
290
     0
174
     0
 93
        1
 44
0.0
173
     0
291
     0
 45
0.0
1001
ACAD
1000
AcDbSavedByObjectVersion
1070
     0
  0
VISUALSTYLE
  5
3F7
102
{ACAD_REACTORS
330
3F2
102
}
330
3F2
100
AcDbVisualStyle
  2
Basic
 70
     7
 71
     1
 72
     0
 73
     1
 90
        0
 40
-0.6
 41
-30.0
 62
     5
 63
     7
 74
     0
 91
        4
 64
     7
 65
   257
 75
     1
175
     1
 42
1.0
 92
        8
 66
     7
 43
1.0
 76
     1
 77
     6
 78
     2
 67
     7
 79
     5
170
     0
171
     0
290
     0
174
     0
 93
        1
 44
0.0
173
     0
291
     1
 45
0.0
1001
ACAD
1000
AcDbSavedByObjectVersion
1070
     0
  0
VISUALSTYLE
  5
3FE
102
{ACAD_REACTORS
330
3F2
102
}
330
3F2
100
AcDbVisualStyle
  2
Brighten
 70
    12
 71
     2
 72
     2
 73
     0
 90
        0
 40
-0.6
 41
-30.0
 62
     5
 63
     7
 74
     1
 91
        4
 64
     7
 65
   257
 75
     1
175
     1
 42
1.0
 92
        8
 66
     7
 43
1.0
 76
     1
 77
     6
 78
     2
 67
     7
 79
     5
170
     0
171
     0
290
     0
174
     0
 93
        1
 44
50.0
173
     0
291
     1
 45
0.0
1001
ACAD
1000
AcDbSavedByObjectVersion
1070
     0
  0
VISUALSTYLE
  5
402
102
{ACAD_REACTORS
330
3F2
102
}
330
3F2
100
AcDbVisualStyle
  2
ColorChange
 70
    16
 71
     2
 72
     2
 73
     3
 90
        0
 40
-0.6
 41
-30.0
 62
     5
 63
     8
 74
     1
 91
        4
 64
     7
 65
   257
 75
     1
175
     1
 42
1.0
 92
        8
 66
     8
 43
1.0
 76
     1
 77
     6
 78
     2
 67
     7
 79
     5
170
     0
171
     0
290
     0
174
     0
 93
        1
 44
0.0
173
     0
291
     1
 45
0.0
1001
ACAD
1000
AcDbSavedByObjectVersion
1070
     0
  0
VISUALSTYLE
  5
3FB
102
{ACAD_REACTORS
330
3F2
102
}
330
3F2
100
AcDbVisualStyle
  2
Conceptual
 70
     9
 71
     3
 72
     2
 73
     0
 90
        0
 40
-0.6
 41
-30.0
 62
     5
 63
     7
 74
     2
 91
        2
 64
     7
 65
   257
 75
     1
175
     1
 42
40.0
 92
        8
 66
     7
 43
1.0
 76
     1
 77
     6
 78
     2
 67
     7
 79
     3
170
     0
171
     0
290
     0
174
     0
 93
        1
 44
0.0
173
     0
291
     0
 45
0.0
1001
ACAD
1000
AcDbSavedByObjectVersion
1070
     0
  0
VISUALSTYLE
  5
3FD
102
{ACAD_REACTORS
330
3F2
102
}
330
3F2
100
AcDbVisualStyle
  2
Dim
 70
    11
 71
     2
 72
     2
 73
     0
 90
        0
 40
-0.6
 41
-30.0
 62
     5
 63
     7
 74
     1
 91
        4
 64
     7
 65
   257
 75
     1
175
     1
 42
1.0
 92
        8
 66
     7
 43
1.0
 76
     1
 77
     6
 78
     2
 67
     7
 79
     5
170
     0
171
     0
290
     0
174
     0
 93
        1
 44
-50.0
173
     0
291
     1
 45
0.0
1001
ACAD
1000
AcDbSavedByObjectVersion
1070
     0
  0
VISUALSTYLE
  5
401
102
{ACAD_REACTORS
330
3F2
102
}
330
3F2
100
AcDbVisualStyle
  2
Facepattern
 70
    15
 71
     2
 72
     2
 73
     0
 90
        0
 40
-0.6
 41
-30.0
 62
     5
 63
     7
 74
     1
 91
        4
 64
     7
 65
   257
 75
     1
175
     1
 42
1.0
 92
        8
 66
     7
 43
1.0
 76
     1
 77
     6
 78
     2
 67
     7
 79
     5
170
     0
171
     0
290
     0
174
     0
 93
        1
 44
0.0
173
     0
291
     1
 45
0.0
1001
ACAD
1000
AcDbSavedByObjectVersion
1070
     0
  0
VISUALSTYLE
  5
3F3
102
{ACAD_REACTORS
330
3F2
102
}
330
3F2
100
AcDbVisualStyle
  2
Flat
 70
     0
 71
     2
 72
     1
 73
     1
 90
        2
 40
-0.6
 41
30.0
 62
     5
 63
     7
 74
     0
 91
        4
 64
     7
 65
   257
 75
     1
175
     1
 42
1.0
 92
        8
 66
     7
 43
1.0
 76
     1
 77
     6
 78
     2
 67
     7
 79
     5
170
     0
171
     0
290
     0
174
     0
 93
       13
 44
0.0
173
     0
291
     1
 45
0.0
1001
ACAD
1000
AcDbSavedByObjectVersion
1070
     0
  0
VISUALSTYLE
  5
3F4
102
{ACAD_REACTORS
330
3F2
102
}
330
3F2
100
AcDbVisualStyle
  2
FlatWithEdges
 70
     1
 71
     2
 72
     1
 73
     1
 90
        2
 40
-0.6
 41
30.0
 62
     5
 63
     7
 74
     1
 91
        4
 64
     7
 65
   257
 75
     1
175
     1
 42
1.0
 92
        0
 66
   257
 43
1.0
 76
     1
 77
     6
 78
     2
 67
     7
 79
     5
170
     0
171
     0
290
     0
174
     0
 93
       13
 44
0.0
173
     0
291
     1
 45
0.0
1001
ACAD
1000
AcDbSavedByObjectVersion
1070
     0
  0
VISUALSTYLE
  5
3F5
102
{ACAD_REACTORS
330
3F2
102
}
330
3F2
100
AcDbVisualStyle
  2
Gouraud
 70
     2
 71
     2
 72
     2
 73
     1
 90
        2
 40
-0.6
 41
30.0
 62
     5
 63
     7
 74
     0
 91
        4
 64
     7
 65
   257
 75
     1
175
     1
 42
1.0
 92
        0
 66
     7
 43
1.0
 76
     1
 77
     6
 78
     2
 67
     7
 79
     5
170
     0
171
     0
290
     0
174
     0
 93
       13
 44
0.0
173
     0
291
     1
 45
0.0
1001
ACAD
1000
AcDbSavedByObjectVersion
1070
     0
  0
VISUALSTYLE
  5
3F6
102
{ACAD_REACTORS
330
3F2
102
}
330
3F2
100
AcDbVisualStyle
  2
GouraudWithEdges
 70
     3
 71
     2
 72
     2
 73
     1
 90
        2
 40
-0.6
 41
30.0
 62
     5
 63
     7
 74
     1
 91
        4
 64
     7
 65
   257
 75
     1
175
     1
 42
1.0
 92
        0
 66
   257
 43
1.0
 76
     1
 77
     6
 78
     2
 67
     7
 79
     5
170
     0
171
     0
290
     0
174
     0
 93
       13
 44
0.0
173
     0
291
     1
 45
0.0
1001
ACAD
1000
AcDbSavedByObjectVersion
1070
     0
  0
VISUALSTYLE
  5
400
102
{ACAD_REACTORS
330
3F2
102
}
330
3F2
100
AcDbVisualStyle
  2
Linepattern
 70
    14
 71
     2
 72
     2
 73
     0
 90
        0
 40
-0.6
 41
-30.0
 62
     5
 63
     7
 74
     1
 91
        4
 64
     7
 65
   257
 75
     7
175
     7
 42
1.0
 92
        8
 66
     7
 43
1.0
 76
     1
 77
     6
 78
     2
 67
     7
 79
     5
170
     0
171
     0
290
     0
174
     0
 93
        1
 44
0.0
173
     0
291
     1
 45
0.0
1001
ACAD
1000
AcDbSavedByObjectVersion
1070
     0
  0
VISUALSTYLE
  5
3FC
102
{ACAD_REACTORS
330
3F2
102
}
330
3F2
100
AcDbVisualStyle
  2
Realistic
 70
     8
 71
     2
 72
     2
 73
     0
 90
        0
 40
-0.6
 41
-30.0
 62
     5
 63
     7
 74
     1
 91
        0
 64
     7
 65
   257
 75
     1
175
     1
 42
1.0
 92
        8
 66
     8
 43
1.0
 76
     1
 77
     6
 78
     2
 67
     7
 79
     5
170
     0
171
     0
290
     0
174
     0
 93
       13
 44
0.0
173
     0
291
     0
 45
0.0
1001
ACAD
1000
AcDbSavedByObjectVersion
1070
     0
  0
VISUALSTYLE
  5
3FF
102
{ACAD_REACTORS
330
3F2
102
}
330
3F2
100
AcDbVisualStyle
  2
Thicken
 70
    13
 71
     2
 72
     2
 73
     0
 90
        0
 40
-0.6
 41
-30.0
 62
     5
 63
     7
 74
     1
 91
        4
 64
     7
 65
   257
 75
     1
175
     1
 42
1.0
 92
       12
 66
     7
 43
1.0
 76
     1
 77
     6
 78
     2
 67
     7
 79
     5
170
     0
171
     0
290
     0
174
     0
 93
        1
 44
0.0
173
     0
291
     1
 45
0.0
1001
ACAD
1000
AcDbSavedByObjectVersion
1070
     0
  0
DICTIONARYVAR
  5
38E
102
{ACAD_REACTORS
330
357
102
}
330
357
100
DictionaryVariables
280
     0
  1
STANDARD
  0
DICTIONARYVAR
  5
359
102
{ACAD_REACTORS
330
357
102
}
330
357
100
DictionaryVariables
280
     0
  1
2
  0
DICTIONARYVAR
  5
358
102
{ACAD_REACTORS
330
357
102
}
330
357
100
DictionaryVariables
280
     0
  1
1
  0
DICTIONARYVAR
  5
71B
102
{ACAD_REACTORS
330
357
102
}
330
357
100
DictionaryVariables
280
     0
  1
0
  0
DICTIONARYVAR
  5
71A
102
{ACAD_REACTORS
330
357
102
}
330
357
100
DictionaryVariables
280
     0
  1
127
  0
DICTIONARY
  5
71F
330
33B
100
AcDbDictionary
280
     1
281
     1
  3
ACAD_XREC_ROUNDTRIP
360
720
  0
DICTIONARY
  5
71D
330
303
100
AcDbDictionary
280
     1
281
     1
  3
ACAD_XREC_ROUNDTRIP
360
71E
  0
DICTIONARY
  5
725
330
3F0
100
AcDbDictionary
280
     1
281
     1
  3
ACAD_XREC_ROUNDTRIP
360
726
  0
DICTIONARY
  5
723
330
3EF
100
AcDbDictionary
280
     1
281
     1
  3
ACAD_XREC_ROUNDTRIP
360
724
  0
DICTIONARY
  5
727
330
3F1
100
AcDbDictionary
280
     1
281
     1
  3
ACAD_XREC_ROUNDTRIP
360
728
  0
DICTIONARY
  5
721
330
389
100
AcDbDictionary
280
     1
281
     1
  3
ACAD_XREC_ROUNDTRIP
360
722
  0
XRECORD
  5
720
102
{ACAD_REACTORS
330
71F
102
}
330
71F
100
AcDbXrecord
280
     1
102
SHADEPLOT
 70
     0
102
SHADEPLOTRESLEVEL
 70
     2
102
SHADEPLOTCUSTOMDPI
 70
   300
  0
XRECORD
  5
71E
102
{ACAD_REACTORS
330
71D
102
}
330
71D
100
AcDbXrecord
280
     1
102
SHADEPLOT
 70
     1
102
SHADEPLOTRESLEVEL
 70
     2
102
SHADEPLOTCUSTOMDPI
 70
   300
  0
XRECORD
  5
726
102
{ACAD_REACTORS
330
725
102
}
330
725
100
AcDbXrecord
280
     1
102
MATERIAL
148
0.0
149
0.0
149
0.0
 93
        0
 94
       63
282
     0
 72
     1
 77
     1
171
     1
175
     1
179
     1
273
     0
  0
XRECORD
  5
724
102
{ACAD_REACTORS
330
723
102
}
330
723
100
AcDbXrecord
280
     1
102
MATERIAL
148
0.0
149
0.0
149
0.0
 93
        0
 94
       63
282
     0
 72
     1
 77
     1
171
     1
175
     1
179
     1
273
     0
  0
XRECORD
  5
728
102
{ACAD_REACTORS
330
727
102
}
330
727
100
AcDbXrecord
280
     1
102
MATERIAL
148
0.0
149
0.0
149
0.0
 93
        0
 94
       63
282
     0
 72
     1
 77
     1
171
     1
175
     1
179
     1
273
     0
  0
XRECORD
  5
722
102
{ACAD_REACTORS
330
721
102
}
330
721
100
AcDbXrecord
280
     1
102
ACAD_ROUNDTRIP_PRE2007_TABLESTYLE
 90
        4
 91
        0
  1

 92
        4
 93
        0
  2

 94
        4
 95
        0
  3

  0
ENDSEC
  0
EOF
