  0
SECTION
  2
HEADER
  9
$ACADVER
  1
AC1015
  9
$ACADMAINTVER
 70
    20
  9
$DWGCODEPAGE
  3
ANSI_1252
  9
$INSBASE
 10
0.0
 20
0.0
 30
0.0
  9
$EXTMIN
 10
-29.03759588794514
 20
-25.46813847900842
 30
-0.0015258207003583
  9
$EXTMAX
 10
45.08120832787972
 20
34.14108350190941
 30
0.0000000349246037
  9
$LIMMIN
 10
-170.0
 20
-170.0
  9
$LIMMAX
 10
519.0
 20
260.0
  9
$ORTHOMODE
 70
     0
  9
$REGENMODE
 70
     1
  9
$FILLMODE
 70
     1
  9
$QTEXTMODE
 70
     0
  9
$MIRRTEXT
 70
     0
  9
$LTSCALE
 40
1.0
  9
$ATTMODE
 70
     1
  9
$TEXTSIZE
 40
3.5
  9
$TRACEWID
 40
1.0
  9
$TEXTSTYLE
  7
SIMPLEX
  9
$CLAYER
  8
1
  9
$CELTYPE
  6
BYLAYER
  9
$CECOLOR
 62
   256
  9
$CELTSCALE
 40
1.0
  9
$DISPSILH
 70
     0
  9
$DIMSCALE
 40
1.0
  9
$DIMASZ
 40
2.5
  9
$DIMEXO
 40
0.0
  9
$DIMDLI
 40
3.75
  9
$DIMRND
 40
0.0
  9
$DIMDLE
 40
0.0
  9
$DIMEXE
 40
1.25
  9
$DIMTP
 40
0.0
  9
$DIMTM
 40
0.0
  9
$DIMTXT
 40
3.5
  9
$DIMCEN
 40
0.0
  9
$DIMTSZ
 40
0.0
  9
$DIMTOL
 70
     0
  9
$DIMLIM
 70
     0
  9
$DIMTIH
 70
     0
  9
$DIMTOH
 70
     0
  9
$DIMSE1
 70
     0
  9
$DIMSE2
 70
     0
  9
$DIMTAD
 70
     1
  9
$DIMZIN
 70
     8
  9
$DIMBLK
  1

  9
$DIMASO
 70
     1
  9
$DIMSHO
 70
     1
  9
$DIMPOST
  1

  9
$DIMAPOST
  1

  9
$DIMALT
 70
     0
  9
$DIMALTD
 70
     3
  9
$DIMALTF
 40
0.039370078
  9
$DIMLFAC
 40
1.0
  9
$DIMTOFL
 70
     0
  9
$DIMTVP
 40
0.0
  9
$DIMTIX
 70
     0
  9
$DIMSOXD
 70
     0
  9
$DIMSAH
 70
     0
  9
$DIMBLK1
  1

  9
$DIMBLK2
  1

  9
$DIMSTYLE
  2
STANDARD
  9
$DIMCLRD
 70
     0
  9
$DIMCLRE
 70
     0
  9
$DIMCLRT
 70
     0
  9
$DIMTFAC
 40
1.0
  9
$DIMGAP
 40
0.625
  9
$DIMJUST
 70
     0
  9
$DIMSD1
 70
     0
  9
$DIMSD2
 70
     0
  9
$DIMTOLJ
 70
     0
  9
$DIMTZIN
 70
     8
  9
$DIMALTZ
 70
     0
  9
$DIMALTTZ
 70
     0
  9
$DIMUPT
 70
     0
  9
$DIMDEC
 70
     2
  9
$DIMTDEC
 70
     2
  9
$DIMALTU
 70
     2
  9
$DIMALTTD
 70
     3
  9
$DIMTXSTY
  7
SIMPLEX
  9
$DIMAUNIT
 70
     0
  9
$DIMADEC
 70
     2
  9
$DIMALTRND
 40
0.0
  9
$DIMAZIN
 70
     2
  9
$DIMDSEP
 70
    46
  9
$DIMATFIT
 70
     3
  9
$DIMFRAC
 70
     0
  9
$DIMLDRBLK
  1

  9
$DIMLUNIT
 70
     2
  9
$DIMLWD
 70
    -2
  9
$DIMLWE
 70
    -2
  9
$DIMTMOVE
 70
     0
  9
$LUNITS
 70
     2
  9
$LUPREC
 70
     4
  9
$SKETCHINC
 40
1.0
  9
$FILLETRAD
 40
0.0
  9
$AUNITS
 70
     0
  9
$AUPREC
 70
     0
  9
$MENU
  1
c:\tdm21\cad\caduti13\tdm13
  9
$ELEVATION
 40
0.0
  9
$PELEVATION
 40
0.0
  9
$THICKNESS
 40
0.0
  9
$LIMCHECK
 70
     0
  9
$CHAMFERA
 40
0.0
  9
$CHAMFERB
 40
0.0
  9
$CHAMFERC
 40
0.0
  9
$CHAMFERD
 40
0.0
  9
$SKPOLY
 70
     0
  9
$TDCREATE
 40
2454673.465421470
  9
$TDUCREATE
 40
2454673.382088137
  9
$TDUPDATE
 40
2454673.467062060
  9
$TDUUPDATE
 40
2454673.383728727
  9
$TDINDWG
 40
0.0016411343
  9
$TDUSRTIMER
 40
0.0016411343
  9
$USRTIMER
 70
     1
  9
$ANGBASE
 50
0.0
  9
$ANGDIR
 70
     0
  9
$PDMODE
 70
     1
  9
$PDSIZE
 40
0.0
  9
$PLINEWID
 40
0.0
  9
$SPLFRAME
 70
     0
  9
$SPLINETYPE
 70
     6
  9
$SPLINESEGS
 70
     8
  9
$HANDSEED
  5
72B
  9
$SURFTAB1
 70
     6
  9
$SURFTAB2
 70
     6
  9
$SURFTYPE
 70
     6
  9
$SURFU
 70
     6
  9
$SURFV
 70
     6
  9
$UCSBASE
  2

  9
$UCSNAME
  2

  9
$UCSORG
 10
0.0
 20
0.0
 30
0.0
  9
$UCSXDIR
 10
1.0
 20
0.0
 30
0.0
  9
$UCSYDIR
 10
0.0
 20
1.0
 30
0.0
  9
$UCSORTHOREF
  2

  9
$UCSORTHOVIEW
 70
     0
  9
$UCSORGTOP
 10
0.0
 20
0.0
 30
0.0
  9
$UCSORGBOTTOM
 10
0.0
 20
0.0
 30
0.0
  9
$UCSORGLEFT
 10
0.0
 20
0.0
 30
0.0
  9
$UCSORGRIGHT
 10
0.0
 20
0.0
 30
0.0
  9
$UCSORGFRONT
 10
0.0
 20
0.0
 30
0.0
  9
$UCSORGBACK
 10
0.0
 20
0.0
 30
0.0
  9
$PUCSBASE
  2

  9
$PUCSNAME
  2

  9
$PUCSORG
 10
0.0
 20
0.0
 30
0.0
  9
$PUCSXDIR
 10
1.0
 20
0.0
 30
0.0
  9
$PUCSYDIR
 10
0.0
 20
1.0
 30
0.0
  9
$PUCSORTHOREF
  2

  9
$PUCSORTHOVIEW
 70
     0
  9
$PUCSORGTOP
 10
0.0
 20
0.0
 30
0.0
  9
$PUCSORGBOTTOM
 10
0.0
 20
0.0
 30
0.0
  9
$PUCSORGLEFT
 10
0.0
 20
0.0
 30
0.0
  9
$PUCSORGRIGHT
 10
0.0
 20
0.0
 30
0.0
  9
$PUCSORGFRONT
 10
0.0
 20
0.0
 30
0.0
  9
$PUCSORGBACK
 10
0.0
 20
0.0
 30
0.0
  9
$USERI1
 70
     0
  9
$USERI2
 70
     0
  9
$USERI3
 70
     0
  9
$USERI4
 70
     0
  9
$USERI5
 70
     0
  9
$USERR1
 40
0.0
  9
$USERR2
 40
0.0
  9
$USERR3
 40
0.0
  9
$USERR4
 40
0.0
  9
$USERR5
 40
0.0
  9
$WORLDVIEW
 70
     1
  9
$SHADEDGE
 70
     3
  9
$SHADEDIF
 70
    70
  9
$TILEMODE
 70
     1
  9
$MAXACTVP
 70
    64
  9
$PINSBASE
 10
0.0
 20
0.0
 30
0.0
  9
$PLIMCHECK
 70
     0
  9
$PEXTMIN
 10
0.0
 20
0.0
 30
0.0
  9
$PEXTMAX
 10
0.0
 20
0.0
 30
0.0
  9
$PLIMMIN
 10
0.0
 20
0.0
  9
$PLIMMAX
 10
12.0
 20
9.0
  9
$UNITMODE
 70
     0
  9
$VISRETAIN
 70
     0
  9
$PLINEGEN
 70
     0
  9
$PSLTSCALE
 70
     1
  9
$TREEDEPTH
 70
  3020
  9
$CMLSTYLE
  2
STANDARD
  9
$CMLJUST
 70
     0
  9
$CMLSCALE
 40
20.0
  9
$PROXYGRAPHICS
 70
     1
  9
$MEASUREMENT
 70
     1
  9
$CELWEIGHT
370
    -1
  9
$ENDCAPS
280
     0
  9
$JOINSTYLE
280
     0
  9
$LWDISPLAY
290
     0
  9
$INSUNITS
 70
     4
  9
$HYPERLINKBASE
  1

  9
$STYLESHEET
  1
monochrome.ctb
  9
$XEDIT
290
     1
  9
$CEPSNTYPE
380
     0
  9
$PSTYLEMODE
290
     1
  9
$FINGERPRINTGUID
  2
{EE67F294-6055-49EC-BA69-B7C485ABB64F}
  9
$VERSIONGUID
  2
{91C77FBA-928A-4EA2-8C9B-95F1802ABA51}
  9
$EXTNAMES
290
     1
  9
$PSVPSCALE
 40
0.0
  9
$OLESTARTUP
290
     0
  0
ENDSEC
  0
SECTION
  2
CLASSES
  0
CLASS
  1
ACDBDICTIONARYWDFLT
  2
AcDbDictionaryWithDefault
  3
ObjectDBX Classes
 90
        0
280
     0
281
     0
  0
CLASS
  1
ACDBPLACEHOLDER
  2
AcDbPlaceHolder
  3
ObjectDBX Classes
 90
        0
280
     0
281
     0
  0
CLASS
  1
LAYOUT
  2
AcDbLayout
  3
ObjectDBX Classes
 90
        0
280
     0
281
     0
  0
CLASS
  1
DICTIONARYVAR
  2
AcDbDictionaryVar
  3
ObjectDBX Classes
 90
        0
280
     0
281
     0
  0
CLASS
  1
TABLESTYLE
  2
AcDbTableStyle
  3
ObjectDBX Classes
 90
     4095
280
     0
281
     0
  0
CLASS
  1
MATERIAL
  2
AcDbMaterial
  3
ObjectDBX Classes
 90
     1024
280
     0
281
     0
  0
CLASS
  1
VISUALSTYLE
  2
AcDbVisualStyle
  3
ObjectDBX Classes
 90
     4095
280
     0
281
     0
  0
ENDSEC
  0
SECTION
  2
TABLES
  0
TABLE
  2
VPORT
  5
8
330
0
100
AcDbSymbolTable
 70
     1
  0
VPORT
  5
3ED
330
8
100
AcDbSymbolTableRecord
100
AcDbViewportTableRecord
  2
*Active
 70
     0
 10
0.0
 20
0.0
 11
1.0
 21
1.0
 12
8.021806219967285
 22
4.336472511450491
 13
0.0
 23
0.0
 14
5.0
 24
5.0
 15
5.0
 25
5.0
 16
0.0
 26
0.0
 36
1.0
 17
0.0
 27
0.0
 37
0.0
 40
63.85222049053197
 41
1.192207792207792
 42
50.0
 43
0.0
 44
0.0
 50
0.0
 51
0.0
 71
     0
 72
  2000
 73
     1
 74
     1
 75
     0
 76
     0
 77
     0
 78
     0
281
     0
 65
     1
110
0.0
120
0.0
130
0.0
111
1.0
121
0.0
131
0.0
112
0.0
122
1.0
132
0.0
 79
     0
146
0.0
  0
ENDTAB
  0
TABLE
  2
LTYPE
  5
5
330
0
100
AcDbSymbolTable
 70
    56
  0
LTYPE
  5
12
330
5
100
AcDbSymbolTableRecord
100
AcDbLinetypeTableRecord
  2
BYBLOCK
 70
     0
  3

 72
    65
 73
     0
 40
0.0
  0
LTYPE
  5
13
330
5
100
AcDbSymbolTableRecord
100
AcDbLinetypeTableRecord
  2
BYLAYER
 70
     0
  3

 72
    65
 73
     0
 40
0.0
  0
LTYPE
  5
14
330
5
100
AcDbSymbolTableRecord
100
AcDbLinetypeTableRecord
  2
CONTINUOUS
 70
     0
  3
Solid line
 72
    65
 73
     0
 40
0.0
  0
LTYPE
  5
20
330
5
100
AcDbSymbolTableRecord
100
AcDbLinetypeTableRecord
  2
HIDDEN
 70
     0
  3
Hidden __ __ __ __ __ __ __ __ __ __ __ __ __ _
 72
    65
 73
     2
 40
9.524999999999998
 49
6.349999999999999
 74
     0
 49
-3.174999999999999
 74
     0
  0
LTYPE
  5
351
330
5
100
AcDbSymbolTableRecord
100
AcDbLinetypeTableRecord
  2
CENTER
 70
     0
  3
Dash dot __ . __ . __ . __ . __ . __ . __ . __
 72
    65
 73
     4
 40
25.4
 49
12.7
 74
     0
 49
-6.349999999999999
 74
     0
 49
0.0
 74
     0
 49
-6.349999999999999
 74
     0
  0
ENDTAB
  0
TABLE
  2
LAYER
  5
2
102
{ACAD_XDICTIONARY
360
43C
102
}
330
0
100
AcDbSymbolTable
 70
    27
  0
LAYER
  5
F
330
2
100
AcDbSymbolTableRecord
100
AcDbLayerTableRecord
  2
0
 70
     0
 62
     7
  6
CONTINUOUS
370
    -3
390
300
  0
LAYER
  5
23
330
2
100
AcDbSymbolTableRecord
100
AcDbLayerTableRecord
  2
1
 70
     0
 62
     4
  6
CONTINUOUS
370
    -3
390
300
  0
LAYER
  5
24
330
2
100
AcDbSymbolTableRecord
100
AcDbLayerTableRecord
  2
SK1
 70
     0
 62
     4
  6
CONTINUOUS
370
    -3
390
300
  0
LAYER
  5
25
330
2
100
AcDbSymbolTableRecord
100
AcDbLayerTableRecord
  2
2
 70
     0
 62
     7
  6
CONTINUOUS
370
    -3
390
300
  0
LAYER
  5
27
330
2
100
AcDbSymbolTableRecord
100
AcDbLayerTableRecord
  2
SK2
 70
     0
 62
     7
  6
CONTINUOUS
370
    -3
390
300
  0
LAYER
  5
28
330
2
100
AcDbSymbolTableRecord
100
AcDbLayerTableRecord
  2
3
 70
     0
 62
     1
  6
HIDDEN
370
    -3
390
300
  0
LAYER
  5
29
330
2
100
AcDbSymbolTableRecord
100
AcDbLayerTableRecord
  2
SK3
 70
     0
 62
     1
  6
HIDDEN
370
    -3
390
300
  0
LAYER
  5
2A
330
2
100
AcDbSymbolTableRecord
100
AcDbLayerTableRecord
  2
4
 70
     0
 62
     2
  6
CENTER
370
    -3
390
300
  0
LAYER
  5
2B
330
2
100
AcDbSymbolTableRecord
100
AcDbLayerTableRecord
  2
SK4
 70
     0
 62
     2
  6
CENTER
370
    -3
390
300
  0
LAYER
  5
2E
330
2
100
AcDbSymbolTableRecord
100
AcDbLayerTableRecord
  2
SK6
 70
     0
 62
     5
  6
CONTINUOUS
370
    -3
390
300
  0
LAYER
  5
2F
330
2
100
AcDbSymbolTableRecord
100
AcDbLayerTableRecord
  2
DEFPOINTS
 70
     0
 62
     7
  6
CONTINUOUS
290
     0
370
    -3
390
300
  0
ENDTAB
  0
TABLE
  2
STYLE
  5
3
330
0
100
AcDbSymbolTable
 70
    11
  0
STYLE
  5
10
330
3
100
AcDbSymbolTableRecord
100
AcDbTextStyleTableRecord
  2
STANDARD
 70
     0
 40
0.0
 41
1.0
 50
0.0
 71
     0
 42
5.0
  3
txt
  4

  0
STYLE
  5
1E
330
3
100
AcDbSymbolTableRecord
100
AcDbTextStyleTableRecord
  2
SIMPLEX
 70
     0
 40
3.5
 41
1.0
 50
0.0
 71
     0
 42
3.5
  3
simplex.shx
  4

  0
ENDTAB
  0
TABLE
  2
VIEW
  5
6
330
0
100
AcDbSymbolTable
 70
     0
  0
ENDTAB
  0
TABLE
  2
UCS
  5
7
330
0
100
AcDbSymbolTable
 70
     0
  0
ENDTAB
  0
TABLE
  2
APPID
  5
9
330
0
100
AcDbSymbolTable
 70
     5
  0
APPID
  5
11
330
9
100
AcDbSymbolTableRecord
100
AcDbRegAppTableRecord
  2
ACAD
 70
     0
  0
APPID
  5
3A6
330
9
100
AcDbSymbolTableRecord
100
AcDbRegAppTableRecord
  2
ACAD_PSEXT
 70
     0
  0
APPID
  5
3A8
330
9
100
AcDbSymbolTableRecord
100
AcDbRegAppTableRecord
  2
ACAD_EXEMPT_FROM_CAD_STANDARDS
 70
     0
  0
APPID
  5
433
330
9
100
AcDbSymbolTableRecord
100
AcDbRegAppTableRecord
  2
AcAecLayerStandard
 70
     0
  0
APPID
  5
485
330
9
100
AcDbSymbolTableRecord
100
AcDbRegAppTableRecord
  2
DCO15
 70
     0
  0
ENDTAB
  0
TABLE
  2
DIMSTYLE
  5
A
330
0
100
AcDbSymbolTable
 70
     2
100
AcDbDimStyleTable
 71
     1
340
3F
  0
DIMSTYLE
105
3F
102
{ACAD_REACTORS
330
59F
330
59E
330
59C
330
59B
102
}
330
A
100
AcDbSymbolTableRecord
100
AcDbDimStyleTableRecord
  2
STANDARD
 70
     0
 41
2.5
 42
0.0
 43
3.75
 44
1.25
 73
     0
 74
     0
 77
     1
 78
     8
 79
     2
140
3.5
141
0.0
143
0.039370078
147
0.625
171
     3
179
     2
271
     2
272
     2
274
     3
283
     0
284
     8
340
1E
  0
ENDTAB
  0
TABLE
  2
BLOCK_RECORD
  5
1
330
0
100
AcDbSymbolTable
 70
    11
  0
BLOCK_RECORD
  5
18
330
1
100
AcDbSymbolTableRecord
100
AcDbBlockTableRecord
  2
*MODEL_SPACE
340
303
  0
BLOCK_RECORD
  5
338
330
1
100
AcDbSymbolTableRecord
100
AcDbBlockTableRecord
  2
*Paper_Space
340
33B
  0
BLOCK_RECORD
  5
5A5
330
1
100
AcDbSymbolTableRecord
100
AcDbBlockTableRecord
  2
*D5
340
0
  0
BLOCK_RECORD
  5
5B1
330
1
100
AcDbSymbolTableRecord
100
AcDbBlockTableRecord
  2
*D6
340
0
  0
BLOCK_RECORD
  5
5BD
330
1
100
AcDbSymbolTableRecord
100
AcDbBlockTableRecord
  2
*D7
340
0
  0
BLOCK_RECORD
  5
5C9
330
1
100
AcDbSymbolTableRecord
100
AcDbBlockTableRecord
  2
*D8
340
0
  0
ENDTAB
  0
ENDSEC
  0
SECTION
  2
BLOCKS
  0
BLOCK
  5
32
330
18
100
AcDbEntity
  8
0
100
AcDbBlockBegin
  2
*MODEL_SPACE
 70
     0
 10
0.0
 20
0.0
 30
0.0
  3
*MODEL_SPACE
  1

  0
ENDBLK
  5
33
330
18
100
AcDbEntity
  8
0
100
AcDbBlockEnd
  0
BLOCK
  5
339
330
338
100
AcDbEntity
 67
     1
  8
0
100
AcDbBlockBegin
  2
*Paper_Space
 70
     0
 10
0.0
 20
0.0
 30
0.0
  3
*Paper_Space
  1

  0
ENDBLK
  5
33A
330
338
100
AcDbEntity
 67
     1
  8
0
100
AcDbBlockEnd
  0
BLOCK
  5
5AF
330
5A5
100
AcDbEntity
  8
0
100
AcDbBlockBegin
  2
*D5
 70
     1
 10
0.0
 20
0.0
 30
0.0
  3
*D5
  1

  0
LINE
  5
6F5
330
5A5
100
AcDbEntity
  8
SK2
 62
     0
370
    -2
100
AcDbLine
 10
-11.50000000000002
 20
4.0
 30
0.0
 11
-18.71610484047543
 21
4.000000000000001
 31
0.0
  0
LINE
  5
6F6
330
5A5
100
AcDbEntity
  8
SK2
 62
     0
370
    -2
100
AcDbLine
 10
-11.50000000000002
 20
-4.0
 30
0.0
 11
-18.71610484047543
 21
-3.999999999999998
 31
0.0
  0
LINE
  5
6F7
330
5A5
100
AcDbEntity
  8
SK2
 62
     0
370
    -2
100
AcDbLine
 10
-17.46610484047543
 20
1.500000000000001
 30
0.0
 11
-17.46610484047543
 21
-1.499999999999998
 31
0.0
  0
SOLID
  5
6F8
330
5A5
100
AcDbEntity
  8
SK2
 62
     0
100
AcDbTrace
 10
-17.8827715071421
 20
1.500000000000001
 30
0.0
 11
-17.04943817380876
 21
1.500000000000001
 31
0.0
 12
-17.46610484047543
 22
4.000000000000001
 32
0.0
 13
-17.46610484047543
 23
4.000000000000001
 33
0.0
  0
SOLID
  5
6F9
330
5A5
100
AcDbEntity
  8
SK2
 62
     0
100
AcDbTrace
 10
-17.8827715071421
 20
-1.499999999999998
 30
0.0
 11
-17.04943817380876
 21
-1.499999999999998
 31
0.0
 12
-17.46610484047543
 22
-3.999999999999998
 32
0.0
 13
-17.46610484047543
 23
-3.999999999999998
 33
0.0
  0
MTEXT
  5
6FA
330
5A5
100
AcDbEntity
  8
SK2
 62
     0
100
AcDbMText
 10
-19.84110484047543
 20
-0.0000000000000011
 30
0.0
 40
3.5
 41
0.0
 71
     5
 72
     1
  1
%%c8
  7
SIMPLEX
 11
0.0000000000000001
 21
1.0
 31
0.0
 73
     1
 44
1.0
1001
ACAD
1000
MTEXTBEGIN
1070
    73
1070
     1
1070
    44
1040
1.0
1070
    74
1070
     0
1000
MTEXTEND
  0
POINT
  5
6FB
330
5A5
100
AcDbEntity
  8
DEFPOINTS
 62
     0
100
AcDbPoint
 10
-11.50000000000002
 20
4.0
 30
0.0
  0
POINT
  5
6FC
330
5A5
100
AcDbEntity
  8
DEFPOINTS
 62
     0
100
AcDbPoint
 10
-11.50000000000002
 20
-4.0
 30
0.0
  0
POINT
  5
6FD
330
5A5
100
AcDbEntity
  8
DEFPOINTS
 62
     0
100
AcDbPoint
 10
-17.46610484047543
 20
-3.999999999999998
 30
0.0
  0
ENDBLK
  5
5B0
330
5A5
100
AcDbEntity
  8
0
100
AcDbBlockEnd
  0
BLOCK
  5
5BB
330
5B1
100
AcDbEntity
  8
0
100
AcDbBlockBegin
  2
*D6
 70
     1
 10
0.0
 20
0.0
 30
0.0
  3
*D6
  1

  0
LINE
  5
6EC
330
5B1
100
AcDbEntity
  8
SK2
 62
     0
370
    -2
100
AcDbLine
 10
1.000000000000007
 20
8.5
 30
0.0
 11
-26.12977171440109
 21
8.500000000000007
 31
0.0
  0
LINE
  5
6ED
330
5B1
100
AcDbEntity
  8
SK2
 62
     0
370
    -2
100
AcDbLine
 10
0.9999999999999998
 20
-8.5
 30
0.0
 11
-26.1297717144011
 21
-8.499999999999992
 31
0.0
  0
LINE
  5
6EE
330
5B1
100
AcDbEntity
  8
SK2
 62
     0
370
    -2
100
AcDbLine
 10
-24.87977171440109
 20
6.000000000000007
 30
0.0
 11
-24.87977171440109
 21
-5.999999999999992
 31
0.0
  0
SOLID
  5
6EF
330
5B1
100
AcDbEntity
  8
SK2
 62
     0
100
AcDbTrace
 10
-25.29643838106776
 20
6.000000000000007
 30
0.0
 11
-24.46310504773443
 21
6.000000000000007
 31
0.0
 12
-24.87977171440109
 22
8.500000000000007
 32
0.0
 13
-24.87977171440109
 23
8.500000000000007
 33
0.0
  0
SOLID
  5
6F0
330
5B1
100
AcDbEntity
  8
SK2
 62
     0
100
AcDbTrace
 10
-25.29643838106776
 20
-5.999999999999992
 30
0.0
 11
-24.46310504773443
 21
-5.999999999999992
 31
0.0
 12
-24.8797717144011
 22
-8.499999999999992
 32
0.0
 13
-24.8797717144011
 23
-8.499999999999992
 33
0.0
  0
MTEXT
  5
6F1
330
5B1
100
AcDbEntity
  8
SK2
 62
     0
100
AcDbMText
 10
-27.2547717144011
 20
0.0000000000000036
 30
0.0
 40
3.5
 41
0.0
 71
     5
 72
     1
  1
%%c17
  7
SIMPLEX
 11
0.0000000000000001
 21
1.0
 31
0.0
 73
     1
 44
1.0
1001
ACAD
1000
MTEXTBEGIN
1070
    73
1070
     1
1070
    44
1040
1.0
1070
    74
1070
     0
1000
MTEXTEND
  0
POINT
  5
6F2
330
5B1
100
AcDbEntity
  8
DEFPOINTS
 62
     0
100
AcDbPoint
 10
1.000000000000007
 20
8.5
 30
0.0
  0
POINT
  5
6F3
330
5B1
100
AcDbEntity
  8
DEFPOINTS
 62
     0
100
AcDbPoint
 10
0.9999999999999998
 20
-8.5
 30
0.0
  0
POINT
  5
6F4
330
5B1
100
AcDbEntity
  8
DEFPOINTS
 62
     0
100
AcDbPoint
 10
-24.8797717144011
 20
-8.499999999999992
 30
0.0
  0
ENDBLK
  5
5BC
330
5B1
100
AcDbEntity
  8
0
100
AcDbBlockEnd
  0
BLOCK
  5
5C7
330
5BD
100
AcDbEntity
  8
0
100
AcDbBlockBegin
  2
*D7
 70
     1
 10
0.0
 20
0.0
 30
0.0
  3
*D7
  1

  0
LINE
  5
707
330
5BD
100
AcDbEntity
  8
2
 62
     0
370
    -2
100
AcDbLine
 10
34.99999999999968
 20
11.59
 30
0.0
 11
34.99999999999968
 21
31.25
 31
0.0
  0
LINE
  5
708
330
5BD
100
AcDbEntity
  8
2
 62
     0
370
    -2
100
AcDbLine
 10
-0.0000000000000036
 20
7.5
 30
0.0
 11
-0.0000000000000021
 21
31.25
 31
0.0
  0
LINE
  5
709
330
5BD
100
AcDbEntity
  8
2
 62
     0
370
    -2
100
AcDbLine
 10
32.49999999999968
 20
30.0
 30
0.0
 11
2.499999999999997
 21
30.0
 31
0.0
  0
SOLID
  5
70A
330
5BD
100
AcDbEntity
  8
2
 62
     0
100
AcDbTrace
 10
32.49999999999968
 20
30.41666666666667
 30
0.0
 11
32.49999999999968
 21
29.58333333333333
 31
0.0
 12
34.99999999999968
 22
30.0
 32
0.0
 13
34.99999999999968
 23
30.0
 33
0.0
  0
SOLID
  5
70B
330
5BD
100
AcDbEntity
  8
2
 62
     0
100
AcDbTrace
 10
2.499999999999997
 20
30.41666666666667
 30
0.0
 11
2.499999999999997
 21
29.58333333333333
 31
0.0
 12
-0.0000000000000022
 22
30.0
 32
0.0
 13
-0.0000000000000022
 23
30.0
 33
0.0
  0
MTEXT
  5
70C
330
5BD
100
AcDbEntity
  8
2
 62
     0
100
AcDbMText
 10
17.49999999999984
 20
32.375
 30
0.0
 40
3.5
 41
0.0
 71
     5
 72
     1
  1
35
  7
SIMPLEX
 73
     1
 44
1.0
1001
ACAD
1000
MTEXTBEGIN
1070
    73
1070
     1
1070
    44
1040
1.0
1070
    74
1070
     0
1000
MTEXTEND
  0
POINT
  5
70D
330
5BD
100
AcDbEntity
  8
DEFPOINTS
 62
     0
100
AcDbPoint
 10
34.99999999999968
 20
11.59
 30
0.0
  0
POINT
  5
70E
330
5BD
100
AcDbEntity
  8
DEFPOINTS
 62
     0
100
AcDbPoint
 10
-0.0000000000000036
 20
7.5
 30
0.0
  0
POINT
  5
70F
330
5BD
100
AcDbEntity
  8
DEFPOINTS
 62
     0
100
AcDbPoint
 10
-0.0000000000000022
 20
30.0
 30
0.0
  0
ENDBLK
  5
5C8
330
5BD
100
AcDbEntity
  8
0
100
AcDbBlockEnd
  0
BLOCK
  5
5D3
330
5C9
100
AcDbEntity
  8
0
100
AcDbBlockBegin
  2
*D8
 70
     1
 10
0.0
 20
0.0
 30
0.0
  3
*D8
  1

  0
LINE
  5
6E3
330
5C9
100
AcDbEntity
  8
2
 62
     0
370
    -2
100
AcDbLine
 10
34.83999999999968
 20
-11.75
 30
0.0
 11
45.05487583163822
 21
-11.75
 31
0.0
  0
LINE
  5
6E4
330
5C9
100
AcDbEntity
  8
2
 62
     0
370
    -2
100
AcDbLine
 10
34.83999999999968
 20
11.75
 30
0.0
 11
45.05487583163822
 21
11.74999999999999
 31
0.0
  0
LINE
  5
6E5
330
5C9
100
AcDbEntity
  8
2
 62
     0
370
    -2
100
AcDbLine
 10
43.80487583163822
 20
-9.250000000000001
 30
0.0
 11
43.80487583163822
 21
9.249999999999998
 31
0.0
  0
SOLID
  5
6E6
330
5C9
100
AcDbEntity
  8
2
 62
     0
100
AcDbTrace
 10
43.38820916497155
 20
-9.250000000000001
 30
0.0
 11
44.22154249830488
 21
-9.250000000000003
 31
0.0
 12
43.80487583163822
 22
-11.75
 32
0.0
 13
43.80487583163822
 23
-11.75
 33
0.0
  0
SOLID
  5
6E7
330
5C9
100
AcDbEntity
  8
2
 62
     0
100
AcDbTrace
 10
43.38820916497155
 20
9.249999999999998
 30
0.0
 11
44.22154249830488
 21
9.249999999999996
 31
0.0
 12
43.80487583163822
 22
11.75
 32
0.0
 13
43.80487583163822
 23
11.75
 33
0.0
  0
MTEXT
  5
6E8
330
5C9
100
AcDbEntity
  8
2
 62
     0
100
AcDbMText
 10
41.42987583163821
 20
0.0000000000000047
 30
0.0
 40
3.5
 41
0.0
 71
     5
 72
     1
  1
%%c23.5
  7
SIMPLEX
 11
0.0000000000000001
 21
1.0
 31
0.0
 73
     1
 44
1.0
1001
ACAD
1000
MTEXTBEGIN
1070
    73
1070
     1
1070
    44
1040
1.0
1070
    74
1070
     0
1000
MTEXTEND
  0
POINT
  5
6E9
330
5C9
100
AcDbEntity
  8
DEFPOINTS
 62
     0
100
AcDbPoint
 10
34.83999999999968
 20
-11.75
 30
0.0
  0
POINT
  5
6EA
330
5C9
100
AcDbEntity
  8
DEFPOINTS
 62
     0
100
AcDbPoint
 10
34.83999999999968
 20
11.75
 30
0.0
  0
POINT
  5
6EB
330
5C9
100
AcDbEntity
  8
DEFPOINTS
 62
     0
100
AcDbPoint
 10
43.80487583163822
 20
11.75
 30
0.0
  0
ENDBLK
  5
5D4
330
5C9
100
AcDbEntity
  8
0
100
AcDbBlockEnd
  0
ENDSEC
  0
SECTION
  2
ENTITIES
  0
LINE
  5
425
330
18
100
AcDbEntity
  8
DEFPOINTS
100
AcDbLine
 10
0.0
 20
0.0
 30
0.0
 11
0.0
 21
0.0
 31
0.0
  0
LINE
  5
534
330
18
100
AcDbEntity
  8
SK4
100
AcDbLine
 10
-13.88862617849722
 20
0.0
 30
0.0
 11
32.75446349180028
 21
0.0
 31
0.0
  0
LINE
  5
535
330
18
100
AcDbEntity
  8
1
100
AcDbLine
 10
0.0000000000000036
 20
-2.0
 30
0.0
 11
0.0000000000000071
 21
-7.5
 31
0.0
  0
LINE
  5
536
330
18
100
AcDbEntity
  8
1
100
AcDbLine
 10
16.87499590121648
 20
-6.800173451688589
 30
0.0
 11
31.47999999999998
 21
-6.800173451688589
 31
0.0
  0
LINE
  5
537
330
18
100
AcDbEntity
  8
1
100
AcDbLine
 10
15.17516935290498
 20
-8.5
 30
0.0
 11
16.87499590121648
 21
-6.800173451688589
 31
0.0
  0
LINE
  5
538
330
18
100
AcDbEntity
  8
4
100
AcDbLine
 10
36.01994385915032
 20
0.0
 30
0.0
 11
-3.575056093223338
 21
0.0
 31
0.0
  0
POINT
  5
539
330
18
100
AcDbEntity
  8
0
100
AcDbPoint
 10
22.89395730901197
 20
33.84246909377452
 30
0.0
  0
LINE
  5
53A
330
18
100
AcDbEntity
  8
1
100
AcDbLine
 10
21.69589687742978
 20
-8.5
 30
0.0
 11
26.30410312257018
 21
-8.5
 31
0.0
  0
LINE
  5
53B
330
18
100
AcDbEntity
  8
1
100
AcDbLine
 10
18.05060708091007
 20
-6.800173451688589
 30
0.0
 11
21.69589687742978
 21
-8.5
 31
0.0
  0
LINE
  5
53C
330
18
100
AcDbEntity
  8
1
100
AcDbLine
 10
29.94939291908988
 20
-6.800173451688589
 30
0.0
 11
26.30410312257018
 21
-8.5
 31
0.0
  0
LINE
  5
53D
330
18
100
AcDbEntity
  8
1
100
AcDbLine
 10
20.50303458206567
 20
-6.800173451688589
 30
0.0
 11
21.23068618674538
 21
-7.377441279364681
 31
0.0
  0
LINE
  5
53E
330
18
100
AcDbEntity
  8
1
100
AcDbLine
 10
22.16153648178728
 20
-6.800173451688589
 30
0.0
 11
22.54408556915078
 21
-7.377441279364681
 31
0.0
  0
LINE
  5
53F
330
18
100
AcDbEntity
  8
1
100
AcDbLine
 10
25.83846351821279
 20
-6.800173451688589
 30
0.0
 11
25.45591443084918
 21
-7.377441279364681
 31
0.0
  0
LINE
  5
540
330
18
100
AcDbEntity
  8
1
100
AcDbLine
 10
27.49696541793428
 20
-6.800173451688589
 30
0.0
 11
26.76931381325458
 21
-7.377441279364681
 31
0.0
  0
LINE
  5
541
330
18
100
AcDbEntity
  8
1
100
AcDbLine
 10
19.18684002224228
 20
-6.800173451688589
 30
0.0
 11
20.18836653532528
 21
-7.377441279364681
 31
0.0
  0
LINE
  5
542
330
18
100
AcDbEntity
  8
1
100
AcDbLine
 10
28.81315997775767
 20
-6.800173451688589
 30
0.0
 11
27.81163346467468
 21
-7.377441279364681
 31
0.0
  0
TEXT
  5
543
330
18
100
AcDbEntity
  8
SK6
100
AcDbText
 10
-12.00000000000002
 20
-19.74929184414964
 30
0.0
 40
3.5
  1
A78009
  7
SIMPLEX
100
AcDbText
  0
LINE
  5
551
330
18
100
AcDbEntity
  8
1
100
AcDbLine
 10
-0.0000000000000036
 20
7.5
 30
0.0
 11
0.0
 21
2.0
 31
0.0
  0
LINE
  5
552
330
18
100
AcDbEntity
  8
1
100
AcDbLine
 10
1.0
 20
-2.0
 30
0.0
 11
1.000000000000007
 21
-8.5
 31
0.0
  0
LINE
  5
553
330
18
100
AcDbEntity
  8
1
100
AcDbLine
 10
1.0
 20
8.5
 30
0.0
 11
1.0
 21
2.0
 31
0.0
  0
LINE
  5
554
330
18
100
AcDbEntity
  8
SK1
100
AcDbLine
 10
-12.00000000000002
 20
-3.5
 30
0.0
 11
-12.00000000000002
 21
3.5
 31
0.0
  0
LINE
  5
555
330
18
100
AcDbEntity
  8
1
100
AcDbLine
 10
28.99999999999998
 20
8.5
 30
0.0
 11
31.49999999999998
 21
8.5
 31
0.0
  0
ARC
  5
556
330
18
100
AcDbEntity
  8
1
100
AcDbCircle
 10
3.999999999999968
 20
-0.0000000000000071
 30
0.0
 40
2.0
100
AcDbArc
 50
270.0
 51
89.9999999999998
  0
LINE
  5
557
330
18
100
AcDbEntity
  8
1
100
AcDbLine
 10
3.999999999999968
 20
-2.0
 30
0.0
 11
-2.000000000000031
 21
-2.0
 31
0.0
  0
LINE
  5
558
330
18
100
AcDbEntity
  8
1
100
AcDbLine
 10
-2.000000000000031
 20
-2.0
 30
0.0
 11
-2.000000000000031
 21
1.999999999999992
 31
0.0
  0
LINE
  5
559
330
18
100
AcDbEntity
  8
1
100
AcDbLine
 10
3.999999999999968
 20
2.0
 30
0.0
 11
-2.000000000000031
 21
2.0
 31
0.0
  0
ARC
  5
55A
330
18
100
AcDbEntity
  8
SK3
100
AcDbCircle
 10
4.700000000000031
 20
4.200000000000002
 30
0.0
 40
2.5
210
0.0
220
0.0
230
-1.0
100
AcDbArc
 50
184.5885657357857
 51
355.4114342642143
  0
ARC
  5
55B
330
18
100
AcDbEntity
  8
SK3
100
AcDbCircle
 10
-4.700000000000031
 20
-4.199999999999999
 30
0.0
 40
2.5
100
AcDbArc
 50
4.588565735785743
 51
175.4114342642138
  0
LINE
  5
55C
330
18
100
AcDbEntity
  8
SK1
100
AcDbLine
 10
-0.0000000000000249
 20
-4.0
 30
0.0
 11
-11.50000000000002
 21
-4.0
 31
0.0
  0
LINE
  5
55D
330
18
100
AcDbEntity
  8
SK1
100
AcDbLine
 10
-11.50000000000002
 20
-4.0
 30
0.0
 11
-12.00000000000002
 21
-3.5
 31
0.0
  0
LINE
  5
55E
330
18
100
AcDbEntity
  8
SK1
100
AcDbLine
 10
-0.0000000000000249
 20
4.0
 30
0.0
 11
-11.50000000000002
 21
4.0
 31
0.0
  0
LINE
  5
55F
330
18
100
AcDbEntity
  8
SK1
100
AcDbLine
 10
-11.50000000000002
 20
4.0
 30
0.0
 11
-12.00000000000002
 21
3.5
 31
0.0
  0
LINE
  5
560
330
18
100
AcDbEntity
  8
SK1
100
AcDbLine
 10
-11.50000000000002
 20
4.0
 30
0.0
 11
-11.50000000000002
 21
-4.0
 31
0.0
  0
LINE
  5
561
330
18
100
AcDbEntity
  8
1
100
AcDbLine
 10
1.0
 20
-8.5
 30
0.0
 11
15.17516935290498
 21
-8.5
 31
0.0
  0
LINE
  5
562
330
18
100
AcDbEntity
  8
1
100
AcDbLine
 10
-0.0000000000000036
 20
7.5
 30
0.0
 11
0.9999999999999893
 21
8.5
 31
0.0
  0
LINE
  5
563
330
18
100
AcDbEntity
  8
1
100
AcDbLine
 10
0.0000000000000071
 20
-7.5
 30
0.0
 11
1.000000000000007
 21
-8.5
 31
0.0
  0
LINE
  5
564
330
18
100
AcDbEntity
  8
1
100
AcDbLine
 10
31.99999999999998
 20
8.0
 30
0.0
 11
31.99999999999998
 21
-6.280173451688611
 31
0.0
  0
LINE
  5
565
330
18
100
AcDbEntity
  8
1
100
AcDbLine
 10
31.49999999999998
 20
8.5
 30
0.0
 11
31.99999999999998
 21
8.0
 31
0.0
  0
LINE
  5
566
330
18
100
AcDbEntity
  8
1
100
AcDbLine
 10
31.98000000000008
 20
-6.300173451688589
 30
0.0
 11
31.47999999999998
 21
-6.800173451688589
 31
0.0
  0
LINE
  5
568
330
18
100
AcDbEntity
  8
1
100
AcDbLine
 10
31.49999999999998
 20
8.5
 30
0.0
 11
31.49999999999998
 21
-6.800173451688589
 31
0.0
  0
LINE
  5
569
330
18
100
AcDbEntity
  8
SK3
100
AcDbLine
 10
18.99999999999998
 20
8.5
 30
0.0
 11
18.99999999999998
 21
-6.800173451688589
 31
0.0
  0
LINE
  5
56A
330
18
100
AcDbEntity
  8
SK3
100
AcDbLine
 10
4.999999999999978
 20
1.600000000000001
 30
0.0
 11
-12.00000000000002
 21
1.600000000000001
 31
0.0
  0
LINE
  5
56B
330
18
100
AcDbEntity
  8
SK3
100
AcDbLine
 10
4.999999999999978
 20
-1.600000000000001
 30
0.0
 11
-12.00000000000002
 21
-1.600000000000001
 31
0.0
  0
LINE
  5
56C
330
18
100
AcDbEntity
  8
SK4
100
AcDbLine
 10
24.97020366351908
 20
0.0
 30
0.0
 11
30.09474411167418
 21
4.299999999999997
 31
0.0
  0
LINE
  5
56D
330
18
100
AcDbEntity
  8
1
100
AcDbLine
 10
29.74999999999998
 20
4.499038105676646
 30
0.0
 11
31.99999999999998
 21
3.199999999999988
 31
0.0
  0
LINE
  5
56E
330
18
100
AcDbEntity
  8
1
100
AcDbLine
 10
28.99999999999998
 20
8.5
 30
0.0
 11
28.99999999999998
 21
5.798076211353311
 31
0.0
  0
ARC
  5
56F
330
18
100
AcDbEntity
  8
1
100
AcDbCircle
 10
30.49999999999998
 20
5.798076211353311
 30
0.0
 40
1.5
100
AcDbArc
 50
179.9999999999996
 51
240.0000000000001
  0
LINE
  5
570
330
18
100
AcDbEntity
  8
SK3
100
AcDbLine
 10
28.99999999999998
 20
6.149999999999998
 30
0.0
 11
28.99999999999998
 21
-6.800173451688579
 31
0.0
  0
LINE
  5
571
330
18
100
AcDbEntity
  8
SK3
100
AcDbLine
 10
24.61751070310678
 20
-1.274999999999998
 30
0.0
 11
30.78594785050438
 21
3.900933335321525
 31
0.0
  0
LINE
  5
572
330
18
100
AcDbEntity
  8
1
100
AcDbLine
 10
1.000000000000007
 20
8.5
 30
0.0
 11
18.99999999999998
 21
8.5
 31
0.0
  0
ARC
  5
573
330
18
100
AcDbEntity
  8
1
100
AcDbCircle
 10
23.99999999999998
 20
15.37386354243369
 30
0.0
 40
8.499999999999987
100
AcDbArc
 50
233.9681209275297
 51
306.0318790724704
  0
LINE
  5
574
330
18
100
AcDbEntity
  8
SK3
100
AcDbLine
 10
25.32289662393138
 20
1.274999999999998
 30
0.0
 11
29.44386884983108
 21
4.732906274844197
 31
0.0
  0
LINE
  5
575
330
18
100
AcDbEntity
  8
SK3
100
AcDbLine
 10
12.99999999999998
 20
1.5
 30
0.0
 11
4.999999999999978
 21
1.5
 31
0.0
  0
LINE
  5
576
330
18
100
AcDbEntity
  8
SK3
100
AcDbLine
 10
12.99999999999998
 20
-1.5
 30
0.0
 11
4.999999999999978
 21
-1.5
 31
0.0
  0
LINE
  5
577
330
18
100
AcDbEntity
  8
SK3
100
AcDbLine
 10
25.32289662393138
 20
1.274999999999998
 30
0.0
 11
4.999999999999978
 21
1.274999999999998
 31
0.0
  0
LINE
  5
578
330
18
100
AcDbEntity
  8
SK3
100
AcDbLine
 10
24.61751070310678
 20
-1.274999999999998
 30
0.0
 11
4.999999999999978
 21
-1.274999999999998
 31
0.0
  0
LINE
  5
579
330
18
100
AcDbEntity
  8
SK3
100
AcDbLine
 10
4.999999999999978
 20
-1.600000000000001
 30
0.0
 11
4.999999999999978
 21
1.600000000000001
 31
0.0
  0
LINE
  5
57A
330
18
100
AcDbEntity
  8
SK3
100
AcDbLine
 10
12.99999999999998
 20
-1.5
 30
0.0
 11
12.99999999999998
 21
1.5
 31
0.0
  0
CIRCLE
  5
57B
330
18
100
AcDbEntity
  8
3
100
AcDbCircle
 10
-33.29353420648008
 20
9.867287154086959
 30
0.0
 40
1.199999999999999
210
0.0
220
0.0
230
-1.0
  0
ARC
  5
57C
330
18
100
AcDbEntity
  8
3
100
AcDbCircle
 10
-34.01221439770678
 20
7.666652067858805
 30
0.0
 40
0.16
210
0.0
220
0.0
230
-1.0
100
AcDbArc
 50
200.0000000000005
 51
299.9999999999967
  0
LINE
  5
57D
330
18
100
AcDbEntity
  8
3
100
AcDbLine
 10
32.47968368272218
 20
8.366707002555813
 30
0.0
 11
33.93221439770678
 21
7.528088003253287
 31
0.0
  0
LINE
  5
57E
330
18
100
AcDbEntity
  8
3
100
AcDbLine
 10
32.47968368272218
 20
8.366707002555813
 30
0.0
 11
30.90582111083478
 21
10.24236337685219
 31
0.0
  0
ARC
  5
57F
330
18
100
AcDbEntity
  8
3
100
AcDbCircle
 10
-31.02838822173378
 20
10.34520939440209
 30
0.0
 40
0.16
210
0.0
220
0.0
230
-1.0
100
AcDbArc
 50
319.9999999999992
 51
59.99999999999786
  0
LINE
  5
580
330
18
100
AcDbEntity
  8
3
100
AcDbLine
 10
32.40091893671849
 20
11.32239245831019
 30
0.0
 11
30.94838822173378
 21
10.4837734590076
 31
0.0
  0
LINE
  5
581
330
18
100
AcDbEntity
  8
3
100
AcDbLine
 10
34.81221629157298
 20
11.747569240482
 30
0.0
 11
32.40091893671838
 21
11.32239245831019
 31
0.0
  0
ARC
  5
582
330
18
100
AcDbEntity
  8
3
100
AcDbCircle
 10
-34.83999999999968
 20
11.59
 30
0.0
 40
0.16
210
0.0
220
0.0
230
-1.0
100
AcDbArc
 50
79.99999999999939
 51
179.9999999999975
  0
LINE
  5
583
330
18
100
AcDbEntity
  8
3
100
AcDbLine
 10
34.99999999999968
 20
9.912762001394874
 30
0.0
 11
34.99999999999968
 21
11.59
 31
0.0
  0
LINE
  5
584
330
18
100
AcDbEntity
  8
3
100
AcDbLine
 10
34.99999999999968
 20
9.912762001394874
 30
0.0
 11
34.16256521703258
 21
7.611928844926701
 31
0.0
  0
LINE
  5
585
330
18
100
AcDbEntity
  8
3
100
AcDbLine
 10
20.29999999999978
 20
7.75
 30
0.0
 11
27.49999999999998
 21
7.75
 31
0.0
  0
LINE
  5
586
330
18
100
AcDbEntity
  8
3
100
AcDbLine
 10
27.49999999999998
 20
6.25
 30
0.0
 11
33.13477477005278
 21
6.25
 31
0.0
  0
LINE
  5
587
330
18
100
AcDbEntity
  8
3
100
AcDbLine
 10
18.99999999999998
 20
11.25
 30
0.0
 11
32.27553152084038
 21
11.25
 31
0.0
  0
LINE
  5
588
330
18
100
AcDbEntity
  8
3
100
AcDbLine
 10
33.65765599871898
 20
7.686604368817178
 30
0.0
 11
33.13477477005278
 21
6.25
 31
0.0
  0
LINE
  5
589
330
18
100
AcDbEntity
  8
SK3
100
AcDbLine
 10
25.39999999999998
 20
11.25
 30
0.0
 11
25.39999999999998
 21
10.25
 31
0.0
  0
LINE
  5
58A
330
18
100
AcDbEntity
  8
SK3
100
AcDbLine
 10
22.59999999999998
 20
11.25
 30
0.0
 11
22.59999999999998
 21
10.25
 31
0.0
  0
LINE
  5
58B
330
18
100
AcDbEntity
  8
SK3
100
AcDbLine
 10
24.99999999999998
 20
8.780000000000001
 30
0.0
 11
24.99999999999998
 21
6.75
 31
0.0
  0
LINE
  5
58C
330
18
100
AcDbEntity
  8
SK3
100
AcDbLine
 10
22.99999999999998
 20
8.780000000000001
 30
0.0
 11
22.99999999999998
 21
6.75
 31
0.0
  0
LINE
  5
58D
330
18
100
AcDbEntity
  8
SK3
100
AcDbLine
 10
22.99999999999998
 20
6.75
 30
0.0
 11
24.99999999999998
 21
6.75
 31
0.0
  0
LINE
  5
58E
330
18
100
AcDbEntity
  8
SK3
100
AcDbLine
 10
22.59999999999998
 20
10.25
 30
0.0
 11
25.39999999999998
 21
10.25
 31
0.0
  0
LINE
  5
58F
330
18
100
AcDbEntity
  8
SK3
100
AcDbLine
 10
22.99999999999998
 20
8.780000000000001
 30
0.0
 11
24.99999999999998
 21
8.780000000000001
 31
0.0
  0
LINE
  5
590
330
18
100
AcDbEntity
  8
SK3
100
AcDbLine
 10
23.19999999999998
 20
8.780000000000001
 30
0.0
 11
23.19999999999998
 21
6.75
 31
0.0
  0
LINE
  5
591
330
18
100
AcDbEntity
  8
SK3
100
AcDbLine
 10
24.79999999999998
 20
8.780000000000001
 30
0.0
 11
24.79999999999998
 21
6.75
 31
0.0
  0
LINE
  5
592
330
18
100
AcDbEntity
  8
SK3
100
AcDbLine
 10
22.59999999999998
 20
10.25
 30
0.0
 11
22.99999999999998
 21
8.780000000000001
 31
0.0
  0
LINE
  5
593
330
18
100
AcDbEntity
  8
SK3
100
AcDbLine
 10
24.99999999999998
 20
8.780000000000001
 30
0.0
 11
25.39999999999998
 21
10.25
 31
0.0
  0
LINE
  5
594
330
18
100
AcDbEntity
  8
SK3
100
AcDbLine
 10
23.27831216351297
 20
9.375
 30
0.0
 11
23.27831216351297
 21
10.25
 31
0.0
  0
LINE
  5
595
330
18
100
AcDbEntity
  8
SK3
100
AcDbLine
 10
23.99999999999998
 20
8.958333333333328
 30
0.0
 11
24.72168783648699
 21
9.375
 31
0.0
  0
LINE
  5
596
330
18
100
AcDbEntity
  8
SK3
100
AcDbLine
 10
23.99999999999998
 20
8.958333333333328
 30
0.0
 11
23.27831216351297
 21
9.375
 31
0.0
  0
LINE
  5
597
330
18
100
AcDbEntity
  8
SK3
100
AcDbLine
 10
23.63915608175648
 20
9.375
 30
0.0
 11
23.63915608175648
 21
10.25
 31
0.0
  0
LINE
  5
598
330
18
100
AcDbEntity
  8
SK3
100
AcDbLine
 10
24.36084391824348
 20
9.375
 30
0.0
 11
24.36084391824348
 21
10.25
 31
0.0
  0
LINE
  5
599
330
18
100
AcDbEntity
  8
SK3
100
AcDbLine
 10
24.72168783648699
 20
9.375
 30
0.0
 11
24.72168783648699
 21
10.25
 31
0.0
  0
LINE
  5
59A
330
18
100
AcDbEntity
  8
SK3
100
AcDbLine
 10
23.27831216351297
 20
9.375
 30
0.0
 11
24.72168783648699
 21
9.375
 31
0.0
  0
DIMENSION
  5
59B
330
18
100
AcDbEntity
  8
SK2
100
AcDbDimension
  2
*D5
 10
-17.46610484047543
 20
-3.999999999999998
 30
0.0
 11
-19.84110484047543
 21
-0.0000000000000011
 31
0.0
 70
    32
  1
%%c<>
 71
     5
 42
8.0
  3
STANDARD
100
AcDbAlignedDimension
 13
-11.50000000000002
 23
4.0
 33
0.0
 14
-11.50000000000002
 24
-4.0
 34
0.0
 50
270.0
100
AcDbRotatedDimension
  0
DIMENSION
  5
59C
330
18
100
AcDbEntity
  8
SK2
100
AcDbDimension
  2
*D6
 10
-24.8797717144011
 20
-8.499999999999992
 30
0.0
 11
-27.2547717144011
 21
0.0000000000000036
 31
0.0
 70
    32
  1
%%c<>
 71
     5
 42
17.0
  3
STANDARD
100
AcDbAlignedDimension
 13
1.000000000000007
 23
8.5
 33
0.0
 14
1.0
 24
-8.5
 34
0.0
 50
270.0
100
AcDbRotatedDimension
  0
LINE
  5
59D
330
18
100
AcDbEntity
  8
SK3
100
AcDbLine
 10
27.49999999999998
 20
7.627896850018871
 30
0.0
 11
27.49999999999998
 21
6.149999999999998
 31
0.0
  0
DIMENSION
  5
59E
330
18
100
AcDbEntity
  8
2
100
AcDbDimension
  2
*D7
 10
-0.0000000000000022
 20
30.0
 30
0.0
 11
17.49999999999984
 21
30.0
 31
0.0
 70
   160
 71
     5
 42
34.99999999999969
  3
STANDARD
100
AcDbAlignedDimension
 13
34.99999999999968
 23
11.59
 33
0.0
 14
-0.0000000000000036
 24
7.5
 34
0.0
 50
180.0
100
AcDbRotatedDimension
  0
DIMENSION
  5
59F
330
18
100
AcDbEntity
  8
2
100
AcDbDimension
  2
*D8
 10
43.80487583163822
 20
11.75
 30
0.0
 11
41.42987583163821
 21
0.0000000000000047
 31
0.0
 70
    32
  1
%%c<>
 71
     5
 42
23.5
  3
STANDARD
100
AcDbAlignedDimension
 13
34.83999999999968
 23
-11.75
 33
0.0
 14
34.83999999999968
 24
11.75
 34
0.0
 50
90.0
100
AcDbRotatedDimension
  0
POINT
  5
5A0
330
18
100
AcDbEntity
  8
0
100
AcDbPoint
 10
69.06923896031337
 20
63.03246909377453
 30
0.0
  0
POINT
  5
5A1
330
18
100
AcDbEntity
  8
0
100
AcDbPoint
 10
-8.773129078748929
 20
4.652469093774524
 30
0.0
  0
LINE
  5
5A2
330
18
100
AcDbEntity
  8
SK3
100
AcDbLine
 10
27.49999999999998
 20
6.149999999999998
 30
0.0
 11
28.99999999999998
 21
6.149999999999998
 31
0.0
  0
LINE
  5
5A3
330
18
100
AcDbEntity
  8
3
100
AcDbLine
 10
27.49999999999998
 20
6.25
 30
0.0
 11
27.49999999999998
 21
11.25
 31
0.0
  0
LINE
  5
5A4
330
18
100
AcDbEntity
  8
3
100
AcDbLine
 10
18.99999999999998
 20
8.5
 30
0.0
 11
18.99999999999998
 21
11.25
 31
0.0
  0
TEXT
  5
71B
330
18
100
AcDbEntity
  8
SK6
100
AcDbText
 10
-11.99999953088972
 20
-25.45404788838414
 30
0.0
 40
3.5
  1
00056633
  7
SIMPLEX
100
AcDbText
  0
ENDSEC
  0
SECTION
  2
OBJECTS
  0
DICTIONARY
  5
C
330
0
100
AcDbDictionary
281
     1
  3
ACAD_COLOR
350
387
  3
ACAD_GROUP
350
D
  3
ACAD_LAYOUT
350
301
  3
ACAD_MATERIAL
350
386
  3
ACAD_MLINESTYLE
350
E
  3
ACAD_PLOTSETTINGS
350
302
  3
ACAD_PLOTSTYLENAME
350
2FF
  3
ACAD_TABLESTYLE
350
388
  3
ACAD_VISUALSTYLE
350
3F2
  3
AcDbVariableDictionary
350
357
  3
DWGPROPS
350
71E
  0
DICTIONARY
  5
43C
330
2
100
AcDbDictionary
280
     1
281
     1
  3
ACAD_LAYERFILTERS
360
445
  3
ACLYDICTIONARY
360
444
  0
DICTIONARY
  5
387
102
{ACAD_REACTORS
330
C
102
}
330
C
100
AcDbDictionary
281
     1
  0
DICTIONARY
  5
D
102
{ACAD_REACTORS
330
C
102
}
330
C
100
AcDbDictionary
281
     1
  0
DICTIONARY
  5
301
102
{ACAD_REACTORS
330
C
102
}
330
C
100
AcDbDictionary
281
     1
  3
Layout1
350
33B
  3
Model
350
303
  0
DICTIONARY
  5
386
102
{ACAD_REACTORS
330
C
102
}
330
C
100
AcDbDictionary
281
     1
  3
ByBlock
350
3F0
  3
ByLayer
350
3EF
  3
Global
350
3F1
  0
DICTIONARY
  5
E
102
{ACAD_REACTORS
330
C
102
}
330
C
100
AcDbDictionary
281
     1
  3
STANDARD
350
1B
  0
DICTIONARY
  5
302
102
{ACAD_REACTORS
330
C
102
}
330
C
100
AcDbDictionary
281
     1
  0
ACDBDICTIONARYWDFLT
  5
2FF
102
{ACAD_REACTORS
330
C
102
}
330
C
100
AcDbDictionary
281
     1
  3
Normal
350
300
100
AcDbDictionaryWithDefault
340
300
  0
DICTIONARY
  5
388
102
{ACAD_REACTORS
330
C
102
}
330
C
100
AcDbDictionary
281
     1
  3
Standard
350
389
  0
DICTIONARY
  5
3F2
102
{ACAD_REACTORS
330
C
102
}
330
C
100
AcDbDictionary
281
     1
  3
2dWireframe
350
3F8
  3
3D Hidden
350
3FA
  3
3dWireframe
350
3F9
  3
Basic
350
3F7
  3
Brighten
350
3FE
  3
ColorChange
350
402
  3
Conceptual
350
3FB
  3
Dim
350
3FD
  3
Facepattern
350
401
  3
Flat
350
3F3
  3
FlatWithEdges
350
3F4
  3
Gouraud
350
3F5
  3
GouraudWithEdges
350
3F6
  3
Linepattern
350
400
  3
Realistic
350
3FC
  3
Thicken
350
3FF
  0
DICTIONARY
  5
357
102
{ACAD_REACTORS
330
C
102
}
330
C
100
AcDbDictionary
281
     1
  3
CTABLESTYLE
350
38E
  3
DIMASSOC
350
359
  3
HIDETEXT
350
358
  3
INDEXCTL
350
71D
  3
SORTENTS
350
71C
  0
XRECORD
  5
71E
102
{ACAD_REACTORS
330
C
102
}
330
C
100
AcDbXrecord
280
     1
  1
DWGPROPS COOKIE
  2

  3

  4

  6

  7

  8
deerkdanf
  9

300
=
301
=
302
=
303
=
304
=
305
=
306
=
307
=
308
=
309
=
 40
0.0016409606481481
 41
2454673.46542147
 42
2454673.46706206
  1

 90
        0
  0
DICTIONARY
  5
445
102
{ACAD_REACTORS
330
43C
102
}
330
43C
100
AcDbDictionary
281
     1
  0
DICTIONARY
  5
444
102
{ACAD_REACTORS
330
43C
102
}
330
43C
100
AcDbDictionary
281
     1
1001
ACAD
1000
<All
  0
LAYOUT
  5
33B
102
{ACAD_XDICTIONARY
360
721
102
}
102
{ACAD_REACTORS
330
301
102
}
330
301
100
AcDbPlotSettings
  1

  2
Lexmark Optra PS2
  4

  6

 40
0.0
 41
0.0
 42
0.0
 43
0.0
 44
0.0
 45
0.0
 46
0.0
 47
0.0
 48
0.0
 49
0.0
140
0.0
141
0.0
142
1.0
143
1.0
 70
   688
 72
     0
 73
     0
 74
     5
  7
monochrome.ctb
 75
    16
147
1.0
148
0.0
149
0.0
100
AcDbLayout
  1
Layout1
 70
     1
 71
     1
 10
0.0
 20
0.0
 11
12.0
 21
9.0
 12
0.0
 22
0.0
 32
0.0
 14
0.0
 24
0.0
 34
0.0
 15
0.0
 25
0.0
 35
0.0
146
0.0
 13
0.0
 23
0.0
 33
0.0
 16
1.0
 26
0.0
 36
0.0
 17
0.0
 27
1.0
 37
0.0
 76
     0
330
338
  0
LAYOUT
  5
303
102
{ACAD_XDICTIONARY
360
71F
102
}
102
{ACAD_REACTORS
330
301
102
}
330
301
100
AcDbPlotSettings
  1

  2
Default Windows System Printer.pc3
  4
A4
  6

 40
6.805083274841308
 41
5.535083293914794
 42
6.974411010742187
 43
7.14373779296875
 44
209.9733276367187
 45
296.9259948730469
 46
67.83299579489725
 47
0.0
 48
0.0
 49
0.0
140
0.0
141
0.0
142
1.0
143
0.3604333568168785
 70
  3764
 72
     1
 73
     1
 74
     1
  7
monochrome.ctb
 75
     0
147
2.774437995504559
148
-82.35087775247029
149
-53.69369632994494
100
AcDbLayout
  1
Model
 70
     1
 71
     0
 10
0.0
 20
0.0
 11
12.0
 21
9.0
 12
0.0
 22
0.0
 32
0.0
 14
0.0
 24
0.0
 34
0.0
 15
0.0
 25
0.0
 35
0.0
146
0.0
 13
0.0
 23
0.0
 33
0.0
 16
1.0
 26
0.0
 36
0.0
 17
0.0
 27
1.0
 37
0.0
 76
     0
330
18
331
3ED
1001
ACAD_PSEXT
1000
Default Windows System Printer.pc3
1000
Lexmark Optra Rx
1000
Lexmark Rx
1000
Erstellt von Lexmark Benutzerdefinierte Installation,Nov 13,2005,10:03
1070
     0
  0
MATERIAL
  5
3F0
102
{ACAD_XDICTIONARY
360
727
102
}
102
{ACAD_REACTORS
330
386
102
}
330
386
100
AcDbMaterial
  1
ByBlock
  0
MATERIAL
  5
3EF
102
{ACAD_XDICTIONARY
360
725
102
}
102
{ACAD_REACTORS
330
386
102
}
330
386
100
AcDbMaterial
  1
ByLayer
  0
MATERIAL
  5
3F1
102
{ACAD_XDICTIONARY
360
729
102
}
102
{ACAD_REACTORS
330
386
102
}
330
386
100
AcDbMaterial
  1
Global
  0
MLINESTYLE
  5
1B
102
{ACAD_REACTORS
330
E
102
}
330
E
100
AcDbMlineStyle
  2
STANDARD
 70
     0
  3

 62
     0
 51
90.0
 52
90.0
 71
     2
 49
0.5
 62
   256
  6
BYLAYER
 49
-0.5
 62
   256
  6
BYLAYER
  0
ACDBPLACEHOLDER
  5
300
102
{ACAD_REACTORS
330
2FF
102
}
330
2FF
  0
TABLESTYLE
  5
389
102
{ACAD_XDICTIONARY
360
723
102
}
102
{ACAD_REACTORS
330
388
102
}
330
388
100
AcDbTableStyle
  3
Standard
 70
     0
 71
     0
 40
1.5
 41
1.5
280
     0
281
     0
  7
STANDARD
140
4.5
170
     2
 62
     0
 63
     7
283
     0
274
    -2
284
     1
 64
     0
275
    -2
285
     1
 65
     0
276
    -2
286
     1
 66
     0
277
    -2
287
     1
 67
     0
278
    -2
288
     1
 68
     0
279
    -2
289
     1
 69
     0
  7
STANDARD
140
6.0
170
     5
 62
     0
 63
     7
283
     0
274
    -2
284
     1
 64
     0
275
    -2
285
     1
 65
     0
276
    -2
286
     1
 66
     0
277
    -2
287
     1
 67
     0
278
    -2
288
     1
 68
     0
279
    -2
289
     1
 69
     0
  7
STANDARD
140
4.5
170
     5
 62
     0
 63
     7
283
     0
274
    -2
284
     1
 64
     0
275
    -2
285
     1
 65
     0
276
    -2
286
     1
 66
     0
277
    -2
287
     1
 67
     0
278
    -2
288
     1
 68
     0
279
    -2
289
     1
 69
     0
  0
VISUALSTYLE
  5
3F8
102
{ACAD_REACTORS
330
3F2
102
}
330
3F2
100
AcDbVisualStyle
  2
2dWireframe
 70
     4
 71
     0
 72
     2
 73
     0
 90
        0
 40
-0.6
 41
-30.0
 62
     5
 63
     7
 74
     1
 91
        4
 64
     7
 65
   257
 75
     1
175
     1
 42
1.0
 92
        0
 66
   257
 43
1.0
 76
     1
 77
     6
 78
     2
 67
     7
 79
     5
170
     0
171
     0
290
     0
174
     0
 93
        1
 44
0.0
173
     0
291
     0
 45
0.0
1001
ACAD
1000
AcDbSavedByObjectVersion
1070
     0
  0
VISUALSTYLE
  5
3FA
102
{ACAD_REACTORS
330
3F2
102
}
330
3F2
100
AcDbVisualStyle
  2
3D Hidden
 70
     6
 71
     1
 72
     2
 73
     2
 90
        0
 40
-0.6
 41
-30.0
 62
     5
 63
     7
 74
     2
 91
        2
 64
     7
 65
   257
 75
     2
175
     1
 42
40.0
 92
        0
 66
   257
 43
1.0
 76
     1
 77
     6
 78
     2
 67
     7
 79
     3
170
     0
171
     0
290
     0
174
     0
 93
        1
 44
0.0
173
     0
291
     0
 45
0.0
1001
ACAD
1000
AcDbSavedByObjectVersion
1070
     0
  0
VISUALSTYLE
  5
3F9
102
{ACAD_REACTORS
330
3F2
102
}
330
3F2
100
AcDbVisualStyle
  2
3dWireframe
 70
     5
 71
     0
 72
     2
 73
     0
 90
        0
 40
-0.6
 41
-30.0
 62
     5
 63
     7
 74
     1
 91
        4
 64
     7
 65
   257
 75
     1
175
     1
 42
1.0
 92
        0
 66
   257
 43
1.0
 76
     1
 77
     6
 78
     2
 67
     7
 79
     5
170
     0
171
     0
290
     0
174
     0
 93
        1
 44
0.0
173
     0
291
     0
 45
0.0
1001
ACAD
1000
AcDbSavedByObjectVersion
1070
     0
  0
VISUALSTYLE
  5
3F7
102
{ACAD_REACTORS
330
3F2
102
}
330
3F2
100
AcDbVisualStyle
  2
Basic
 70
     7
 71
     1
 72
     0
 73
     1
 90
        0
 40
-0.6
 41
-30.0
 62
     5
 63
     7
 74
     0
 91
        4
 64
     7
 65
   257
 75
     1
175
     1
 42
1.0
 92
        8
 66
     7
 43
1.0
 76
     1
 77
     6
 78
     2
 67
     7
 79
     5
170
     0
171
     0
290
     0
174
     0
 93
        1
 44
0.0
173
     0
291
     1
 45
0.0
1001
ACAD
1000
AcDbSavedByObjectVersion
1070
     0
  0
VISUALSTYLE
  5
3FE
102
{ACAD_REACTORS
330
3F2
102
}
330
3F2
100
AcDbVisualStyle
  2
Brighten
 70
    12
 71
     2
 72
     2
 73
     0
 90
        0
 40
-0.6
 41
-30.0
 62
     5
 63
     7
 74
     1
 91
        4
 64
     7
 65
   257
 75
     1
175
     1
 42
1.0
 92
        8
 66
     7
 43
1.0
 76
     1
 77
     6
 78
     2
 67
     7
 79
     5
170
     0
171
     0
290
     0
174
     0
 93
        1
 44
50.0
173
     0
291
     1
 45
0.0
1001
ACAD
1000
AcDbSavedByObjectVersion
1070
     0
  0
VISUALSTYLE
  5
402
102
{ACAD_REACTORS
330
3F2
102
}
330
3F2
100
AcDbVisualStyle
  2
ColorChange
 70
    16
 71
     2
 72
     2
 73
     3
 90
        0
 40
-0.6
 41
-30.0
 62
     5
 63
     8
 74
     1
 91
        4
 64
     7
 65
   257
 75
     1
175
     1
 42
1.0
 92
        8
 66
     8
 43
1.0
 76
     1
 77
     6
 78
     2
 67
     7
 79
     5
170
     0
171
     0
290
     0
174
     0
 93
        1
 44
0.0
173
     0
291
     1
 45
0.0
1001
ACAD
1000
AcDbSavedByObjectVersion
1070
     0
  0
VISUALSTYLE
  5
3FB
102
{ACAD_REACTORS
330
3F2
102
}
330
3F2
100
AcDbVisualStyle
  2
Conceptual
 70
     9
 71
     3
 72
     2
 73
     0
 90
        0
 40
-0.6
 41
-30.0
 62
     5
 63
     7
 74
     2
 91
        2
 64
     7
 65
   257
 75
     1
175
     1
 42
40.0
 92
        8
 66
     7
 43
1.0
 76
     1
 77
     6
 78
     2
 67
     7
 79
     3
170
     0
171
     0
290
     0
174
     0
 93
        1
 44
0.0
173
     0
291
     0
 45
0.0
1001
ACAD
1000
AcDbSavedByObjectVersion
1070
     0
  0
VISUALSTYLE
  5
3FD
102
{ACAD_REACTORS
330
3F2
102
}
330
3F2
100
AcDbVisualStyle
  2
Dim
 70
    11
 71
     2
 72
     2
 73
     0
 90
        0
 40
-0.6
 41
-30.0
 62
     5
 63
     7
 74
     1
 91
        4
 64
     7
 65
   257
 75
     1
175
     1
 42
1.0
 92
        8
 66
     7
 43
1.0
 76
     1
 77
     6
 78
     2
 67
     7
 79
     5
170
     0
171
     0
290
     0
174
     0
 93
        1
 44
-50.0
173
     0
291
     1
 45
0.0
1001
ACAD
1000
AcDbSavedByObjectVersion
1070
     0
  0
VISUALSTYLE
  5
401
102
{ACAD_REACTORS
330
3F2
102
}
330
3F2
100
AcDbVisualStyle
  2
Facepattern
 70
    15
 71
     2
 72
     2
 73
     0
 90
        0
 40
-0.6
 41
-30.0
 62
     5
 63
     7
 74
     1
 91
        4
 64
     7
 65
   257
 75
     1
175
     1
 42
1.0
 92
        8
 66
     7
 43
1.0
 76
     1
 77
     6
 78
     2
 67
     7
 79
     5
170
     0
171
     0
290
     0
174
     0
 93
        1
 44
0.0
173
     0
291
     1
 45
0.0
1001
ACAD
1000
AcDbSavedByObjectVersion
1070
     0
  0
VISUALSTYLE
  5
3F3
102
{ACAD_REACTORS
330
3F2
102
}
330
3F2
100
AcDbVisualStyle
  2
Flat
 70
     0
 71
     2
 72
     1
 73
     1
 90
        2
 40
-0.6
 41
30.0
 62
     5
 63
     7
 74
     0
 91
        4
 64
     7
 65
   257
 75
     1
175
     1
 42
1.0
 92
        8
 66
     7
 43
1.0
 76
     1
 77
     6
 78
     2
 67
     7
 79
     5
170
     0
171
     0
290
     0
174
     0
 93
       13
 44
0.0
173
     0
291
     1
 45
0.0
1001
ACAD
1000
AcDbSavedByObjectVersion
1070
     0
  0
VISUALSTYLE
  5
3F4
102
{ACAD_REACTORS
330
3F2
102
}
330
3F2
100
AcDbVisualStyle
  2
FlatWithEdges
 70
     1
 71
     2
 72
     1
 73
     1
 90
        2
 40
-0.6
 41
30.0
 62
     5
 63
     7
 74
     1
 91
        4
 64
     7
 65
   257
 75
     1
175
     1
 42
1.0
 92
        0
 66
   257
 43
1.0
 76
     1
 77
     6
 78
     2
 67
     7
 79
     5
170
     0
171
     0
290
     0
174
     0
 93
       13
 44
0.0
173
     0
291
     1
 45
0.0
1001
ACAD
1000
AcDbSavedByObjectVersion
1070
     0
  0
VISUALSTYLE
  5
3F5
102
{ACAD_REACTORS
330
3F2
102
}
330
3F2
100
AcDbVisualStyle
  2
Gouraud
 70
     2
 71
     2
 72
     2
 73
     1
 90
        2
 40
-0.6
 41
30.0
 62
     5
 63
     7
 74
     0
 91
        4
 64
     7
 65
   257
 75
     1
175
     1
 42
1.0
 92
        0
 66
     7
 43
1.0
 76
     1
 77
     6
 78
     2
 67
     7
 79
     5
170
     0
171
     0
290
     0
174
     0
 93
       13
 44
0.0
173
     0
291
     1
 45
0.0
1001
ACAD
1000
AcDbSavedByObjectVersion
1070
     0
  0
VISUALSTYLE
  5
3F6
102
{ACAD_REACTORS
330
3F2
102
}
330
3F2
100
AcDbVisualStyle
  2
GouraudWithEdges
 70
     3
 71
     2
 72
     2
 73
     1
 90
        2
 40
-0.6
 41
30.0
 62
     5
 63
     7
 74
     1
 91
        4
 64
     7
 65
   257
 75
     1
175
     1
 42
1.0
 92
        0
 66
   257
 43
1.0
 76
     1
 77
     6
 78
     2
 67
     7
 79
     5
170
     0
171
     0
290
     0
174
     0
 93
       13
 44
0.0
173
     0
291
     1
 45
0.0
1001
ACAD
1000
AcDbSavedByObjectVersion
1070
     0
  0
VISUALSTYLE
  5
400
102
{ACAD_REACTORS
330
3F2
102
}
330
3F2
100
AcDbVisualStyle
  2
Linepattern
 70
    14
 71
     2
 72
     2
 73
     0
 90
        0
 40
-0.6
 41
-30.0
 62
     5
 63
     7
 74
     1
 91
        4
 64
     7
 65
   257
 75
     7
175
     7
 42
1.0
 92
        8
 66
     7
 43
1.0
 76
     1
 77
     6
 78
     2
 67
     7
 79
     5
170
     0
171
     0
290
     0
174
     0
 93
        1
 44
0.0
173
     0
291
     1
 45
0.0
1001
ACAD
1000
AcDbSavedByObjectVersion
1070
     0
  0
VISUALSTYLE
  5
3FC
102
{ACAD_REACTORS
330
3F2
102
}
330
3F2
100
AcDbVisualStyle
  2
Realistic
 70
     8
 71
     2
 72
     2
 73
     0
 90
        0
 40
-0.6
 41
-30.0
 62
     5
 63
     7
 74
     1
 91
        0
 64
     7
 65
   257
 75
     1
175
     1
 42
1.0
 92
        8
 66
     8
 43
1.0
 76
     1
 77
     6
 78
     2
 67
     7
 79
     5
170
     0
171
     0
290
     0
174
     0
 93
       13
 44
0.0
173
     0
291
     0
 45
0.0
1001
ACAD
1000
AcDbSavedByObjectVersion
1070
     0
  0
VISUALSTYLE
  5
3FF
102
{ACAD_REACTORS
330
3F2
102
}
330
3F2
100
AcDbVisualStyle
  2
Thicken
 70
    13
 71
     2
 72
     2
 73
     0
 90
        0
 40
-0.6
 41
-30.0
 62
     5
 63
     7
 74
     1
 91
        4
 64
     7
 65
   257
 75
     1
175
     1
 42
1.0
 92
       12
 66
     7
 43
1.0
 76
     1
 77
     6
 78
     2
 67
     7
 79
     5
170
     0
171
     0
290
     0
174
     0
 93
        1
 44
0.0
173
     0
291
     1
 45
0.0
1001
ACAD
1000
AcDbSavedByObjectVersion
1070
     0
  0
DICTIONARYVAR
  5
38E
102
{ACAD_REACTORS
330
357
102
}
330
357
100
DictionaryVariables
280
     0
  1
STANDARD
  0
DICTIONARYVAR
  5
359
102
{ACAD_REACTORS
330
357
102
}
330
357
100
DictionaryVariables
280
     0
  1
2
  0
DICTIONARYVAR
  5
358
102
{ACAD_REACTORS
330
357
102
}
330
357
100
DictionaryVariables
280
     0
  1
1
  0
DICTIONARYVAR
  5
71D
102
{ACAD_REACTORS
330
357
102
}
330
357
100
DictionaryVariables
280
     0
  1
0
  0
DICTIONARYVAR
  5
71C
102
{ACAD_REACTORS
330
357
102
}
330
357
100
DictionaryVariables
280
     0
  1
127
  0
DICTIONARY
  5
721
330
33B
100
AcDbDictionary
280
     1
281
     1
  3
ACAD_XREC_ROUNDTRIP
360
722
  0
DICTIONARY
  5
71F
330
303
100
AcDbDictionary
280
     1
281
     1
  3
ACAD_XREC_ROUNDTRIP
360
720
  0
DICTIONARY
  5
727
330
3F0
100
AcDbDictionary
280
     1
281
     1
  3
ACAD_XREC_ROUNDTRIP
360
728
  0
DICTIONARY
  5
725
330
3EF
100
AcDbDictionary
280
     1
281
     1
  3
ACAD_XREC_ROUNDTRIP
360
726
  0
DICTIONARY
  5
729
330
3F1
100
AcDbDictionary
280
     1
281
     1
  3
ACAD_XREC_ROUNDTRIP
360
72A
  0
DICTIONARY
  5
723
330
389
100
AcDbDictionary
280
     1
281
     1
  3
ACAD_XREC_ROUNDTRIP
360
724
  0
XRECORD
  5
722
102
{ACAD_REACTORS
330
721
102
}
330
721
100
AcDbXrecord
280
     1
102
SHADEPLOT
 70
     0
102
SHADEPLOTRESLEVEL
 70
     2
102
SHADEPLOTCUSTOMDPI
 70
   300
  0
XRECORD
  5
720
102
{ACAD_REACTORS
330
71F
102
}
330
71F
100
AcDbXrecord
280
     1
102
SHADEPLOT
 70
     1
102
SHADEPLOTRESLEVEL
 70
     2
102
SHADEPLOTCUSTOMDPI
 70
   300
  0
XRECORD
  5
728
102
{ACAD_REACTORS
330
727
102
}
330
727
100
AcDbXrecord
280
     1
102
MATERIAL
148
0.0
149
0.0
149
0.0
 93
        0
 94
       63
282
     0
 72
     1
 77
     1
171
     1
175
     1
179
     1
273
     0
  0
XRECORD
  5
726
102
{ACAD_REACTORS
330
725
102
}
330
725
100
AcDbXrecord
280
     1
102
MATERIAL
148
0.0
149
0.0
149
0.0
 93
        0
 94
       63
282
     0
 72
     1
 77
     1
171
     1
175
     1
179
     1
273
     0
  0
XRECORD
  5
72A
102
{ACAD_REACTORS
330
729
102
}
330
729
100
AcDbXrecord
280
     1
102
MATERIAL
148
0.0
149
0.0
149
0.0
 93
        0
 94
       63
282
     0
 72
     1
 77
     1
171
     1
175
     1
179
     1
273
     0
  0
XRECORD
  5
724
102
{ACAD_REACTORS
330
723
102
}
330
723
100
AcDbXrecord
280
     1
102
ACAD_ROUNDTRIP_PRE2007_TABLESTYLE
 90
        4
 91
        0
  1

 92
        4
 93
        0
  2

 94
        4
 95
        0
  3

  0
ENDSEC
  0
EOF
