  0
SECTION
  2
HEADER
  9
$ACADVER
  1
AC1015
  9
$ACADMAINTVER
 70
    20
  9
$DWGCODEPAGE
  3
ANSI_1252
  9
$INSBASE
 10
0.0
 20
0.0
 30
0.0
  9
$EXTMIN
 10
-306.5888657423073
 20
-103.0552662548785
 30
-0.0015258207003583
  9
$EXTMAX
 10
-193.4656974674035
 20
-38.78753596775641
 30
0.0000000349246037
  9
$LIMMIN
 10
-170.0
 20
-170.0
  9
$LIMMAX
 10
519.0
 20
260.0
  9
$ORTHOMODE
 70
     1
  9
$REGENMODE
 70
     1
  9
$FILLMODE
 70
     1
  9
$QTEXTMODE
 70
     0
  9
$MIRRTEXT
 70
     1
  9
$LTSCALE
 40
10.0
  9
$ATTMODE
 70
     1
  9
$TEXTSIZE
 40
3.5
  9
$TRACEWID
 40
0.05
  9
$TEXTSTYLE
  7
SIMPLEX
  9
$CLAYER
  8
SK3
  9
$CELTYPE
  6
BYLAYER
  9
$CECOLOR
 62
   256
  9
$CELTSCALE
 40
1.0
  9
$DISPSILH
 70
     0
  9
$DIMSCALE
 40
1.0
  9
$DIMASZ
 40
3.5
  9
$DIMEXO
 40
1.0
  9
$DIMDLI
 40
0.5
  9
$DIMRND
 40
0.0
  9
$DIMDLE
 40
0.0
  9
$DIMEXE
 40
1.0
  9
$DIMTP
 40
0.0
  9
$DIMTM
 40
0.0
  9
$DIMTXT
 40
3.5
  9
$DIMCEN
 40
0.0
  9
$DIMTSZ
 40
0.0
  9
$DIMTOL
 70
     0
  9
$DIMLIM
 70
     0
  9
$DIMTIH
 70
     0
  9
$DIMTOH
 70
     0
  9
$DIMSE1
 70
     0
  9
$DIMSE2
 70
     0
  9
$DIMTAD
 70
     1
  9
$DIMZIN
 70
     0
  9
$DIMBLK
  1

  9
$DIMASO
 70
     1
  9
$DIMSHO
 70
     1
  9
$DIMPOST
  1

  9
$DIMAPOST
  1

  9
$DIMALT
 70
     0
  9
$DIMALTD
 70
     2
  9
$DIMALTF
 40
25.4
  9
$DIMLFAC
 40
1.0
  9
$DIMTOFL
 70
     0
  9
$DIMTVP
 40
0.0
  9
$DIMTIX
 70
     0
  9
$DIMSOXD
 70
     0
  9
$DIMSAH
 70
     0
  9
$DIMBLK1
  1

  9
$DIMBLK2
  1

  9
$DIMSTYLE
  2
V-TYGEN_-160
  9
$DIMCLRD
 70
     0
  9
$DIMCLRE
 70
     0
  9
$DIMCLRT
 70
     0
  9
$DIMTFAC
 40
1.0
  9
$DIMGAP
 40
1.0
  9
$DIMJUST
 70
     0
  9
$DIMSD1
 70
     0
  9
$DIMSD2
 70
     0
  9
$DIMTOLJ
 70
     1
  9
$DIMTZIN
 70
     0
  9
$DIMALTZ
 70
     0
  9
$DIMALTTZ
 70
     0
  9
$DIMUPT
 70
     0
  9
$DIMDEC
 70
     0
  9
$DIMTDEC
 70
     0
  9
$DIMALTU
 70
     2
  9
$DIMALTTD
 70
     2
  9
$DIMTXSTY
  7
STANDARD
  9
$DIMAUNIT
 70
     0
  9
$DIMADEC
 70
     0
  9
$DIMALTRND
 40
0.0
  9
$DIMAZIN
 70
     0
  9
$DIMDSEP
 70
    46
  9
$DIMATFIT
 70
     3
  9
$DIMFRAC
 70
     0
  9
$DIMLDRBLK
  1

  9
$DIMLUNIT
 70
     2
  9
$DIMLWD
 70
    -1
  9
$DIMLWE
 70
    -2
  9
$DIMTMOVE
 70
     0
  9
$LUNITS
 70
     2
  9
$LUPREC
 70
     2
  9
$SKETCHINC
 40
0.1
  9
$FILLETRAD
 40
0.0
  9
$AUNITS
 70
     0
  9
$AUPREC
 70
     0
  9
$MENU
  1
TDMWIN
  9
$ELEVATION
 40
0.0
  9
$PELEVATION
 40
0.0
  9
$THICKNESS
 40
0.0
  9
$LIMCHECK
 70
     0
  9
$CHAMFERA
 40
0.0
  9
$CHAMFERB
 40
0.0
  9
$CHAMFERC
 40
0.0
  9
$CHAMFERD
 40
0.0
  9
$SKPOLY
 70
     0
  9
$TDCREATE
 40
2455621.661629815
  9
$TDUCREATE
 40
2455621.432463148
  9
$TDUPDATE
 40
2455621.665655451
  9
$TDUUPDATE
 40
2455621.436488785
  9
$TDINDWG
 40
0.0040259954
  9
$TDUSRTIMER
 40
0.0040259954
  9
$USRTIMER
 70
     1
  9
$ANGBASE
 50
0.0
  9
$ANGDIR
 70
     0
  9
$PDMODE
 70
     2
  9
$PDSIZE
 40
0.0
  9
$PLINEWID
 40
0.0
  9
$SPLFRAME
 70
     0
  9
$SPLINETYPE
 70
     6
  9
$SPLINESEGS
 70
     8
  9
$HANDSEED
  5
15BC
  9
$SURFTAB1
 70
     6
  9
$SURFTAB2
 70
     6
  9
$SURFTYPE
 70
     6
  9
$SURFU
 70
     6
  9
$SURFV
 70
     6
  9
$UCSBASE
  2

  9
$UCSNAME
  2

  9
$UCSORG
 10
-260.9072884947958
 20
-70.24613108236102
 30
0.0
  9
$UCSXDIR
 10
1.0
 20
0.0
 30
0.0
  9
$UCSYDIR
 10
0.0
 20
1.0
 30
0.0
  9
$UCSORTHOREF
  2

  9
$UCSORTHOVIEW
 70
     0
  9
$UCSORGTOP
 10
0.0
 20
0.0
 30
0.0
  9
$UCSORGBOTTOM
 10
0.0
 20
0.0
 30
0.0
  9
$UCSORGLEFT
 10
0.0
 20
0.0
 30
0.0
  9
$UCSORGRIGHT
 10
0.0
 20
0.0
 30
0.0
  9
$UCSORGFRONT
 10
0.0
 20
0.0
 30
0.0
  9
$UCSORGBACK
 10
0.0
 20
0.0
 30
0.0
  9
$PUCSBASE
  2

  9
$PUCSNAME
  2

  9
$PUCSORG
 10
0.0
 20
0.0
 30
0.0
  9
$PUCSXDIR
 10
1.0
 20
0.0
 30
0.0
  9
$PUCSYDIR
 10
0.0
 20
1.0
 30
0.0
  9
$PUCSORTHOREF
  2

  9
$PUCSORTHOVIEW
 70
     0
  9
$PUCSORGTOP
 10
0.0
 20
0.0
 30
0.0
  9
$PUCSORGBOTTOM
 10
0.0
 20
0.0
 30
0.0
  9
$PUCSORGLEFT
 10
0.0
 20
0.0
 30
0.0
  9
$PUCSORGRIGHT
 10
0.0
 20
0.0
 30
0.0
  9
$PUCSORGFRONT
 10
0.0
 20
0.0
 30
0.0
  9
$PUCSORGBACK
 10
0.0
 20
0.0
 30
0.0
  9
$USERI1
 70
     0
  9
$USERI2
 70
     0
  9
$USERI3
 70
     0
  9
$USERI4
 70
     0
  9
$USERI5
 70
     0
  9
$USERR1
 40
0.0
  9
$USERR2
 40
0.0
  9
$USERR3
 40
0.0
  9
$USERR4
 40
0.0
  9
$USERR5
 40
0.0
  9
$WORLDVIEW
 70
     1
  9
$SHADEDGE
 70
     3
  9
$SHADEDIF
 70
    70
  9
$TILEMODE
 70
     1
  9
$MAXACTVP
 70
    16
  9
$PINSBASE
 10
0.0
 20
0.0
 30
0.0
  9
$PLIMCHECK
 70
     0
  9
$PEXTMIN
 10
1.000000000000000E+20
 20
1.000000000000000E+20
 30
1.000000000000000E+20
  9
$PEXTMAX
 10
-1.000000000000000E+20
 20
-1.000000000000000E+20
 30
-1.000000000000000E+20
  9
$PLIMMIN
 10
0.0
 20
0.0
  9
$PLIMMAX
 10
12.0
 20
9.0
  9
$UNITMODE
 70
     0
  9
$VISRETAIN
 70
     0
  9
$PLINEGEN
 70
     0
  9
$PSLTSCALE
 70
     0
  9
$TREEDEPTH
 70
  3020
  9
$CMLSTYLE
  2
STANDARD
  9
$CMLJUST
 70
     0
  9
$CMLSCALE
 40
1.0
  9
$PROXYGRAPHICS
 70
     1
  9
$MEASUREMENT
 70
     1
  9
$CELWEIGHT
370
    -1
  9
$ENDCAPS
280
     0
  9
$JOINSTYLE
280
     0
  9
$LWDISPLAY
290
     0
  9
$INSUNITS
 70
     0
  9
$HYPERLINKBASE
  1

  9
$STYLESHEET
  1

  9
$XEDIT
290
     1
  9
$CEPSNTYPE
380
     0
  9
$PSTYLEMODE
290
     1
  9
$FINGERPRINTGUID
  2
{FE26945E-5FC0-4243-9CD9-418B0EFC207B}
  9
$VERSIONGUID
  2
{86D2938F-8B80-4870-AF3F-FFE1E77C1BA1}
  9
$EXTNAMES
290
     1
  9
$PSVPSCALE
 40
0.0
  9
$OLESTARTUP
290
     0
  0
ENDSEC
  0
SECTION
  2
CLASSES
  0
CLASS
  1
ACDBDICTIONARYWDFLT
  2
AcDbDictionaryWithDefault
  3
ObjectDBX Classes
 90
        0
280
     0
281
     0
  0
CLASS
  1
ACDBPLACEHOLDER
  2
AcDbPlaceHolder
  3
ObjectDBX Classes
 90
        0
280
     0
281
     0
  0
CLASS
  1
LAYOUT
  2
AcDbLayout
  3
ObjectDBX Classes
 90
        0
280
     0
281
     0
  0
CLASS
  1
MATERIAL
  2
AcDbMaterial
  3
ObjectDBX Classes
 90
     1153
280
     0
281
     0
  0
CLASS
  1
VISUALSTYLE
  2
AcDbVisualStyle
  3
ObjectDBX Classes
 90
     4095
280
     0
281
     0
  0
CLASS
  1
TABLESTYLE
  2
AcDbTableStyle
  3
ObjectDBX Classes
 90
     4095
280
     0
281
     0
  0
CLASS
  1
SCALE
  2
AcDbScale
  3
ObjectDBX Classes
 90
     1153
280
     0
281
     0
  0
CLASS
  1
MLEADERSTYLE
  2
AcDbMLeaderStyle
  3
ACDB_MLEADERSTYLE_CLASS
 90
     4095
280
     0
281
     0
  0
CLASS
  1
DIMASSOC
  2
AcDbDimAssoc
  3
"AcDbDimAssoc|Product Desc:     AcDim ARX App For Dimension|Company:          Autodesk, Inc.|WEB Address:      www.autodesk.com"
 90
        0
280
     0
281
     0
  0
CLASS
  1
SORTENTSTABLE
  2
AcDbSortentsTable
  3
ObjectDBX Classes
 90
        0
280
     0
281
     0
  0
CLASS
  1
DICTIONARYVAR
  2
AcDbDictionaryVar
  3
ObjectDBX Classes
 90
        0
280
     0
281
     0
  0
CLASS
  1
CELLSTYLEMAP
  2
AcDbCellStyleMap
  3
ObjectDBX Classes
 90
     1152
280
     0
281
     0
  0
ENDSEC
  0
SECTION
  2
TABLES
  0
TABLE
  2
VPORT
  5
8
330
0
100
AcDbSymbolTable
 70
     1
  0
VPORT
  5
1288
330
8
100
AcDbSymbolTableRecord
100
AcDbViewportTableRecord
  2
*Active
 70
     0
 10
0.0
 20
0.0
 11
1.0
 21
1.0
 12
-250.0272816048554
 22
-70.92140111131749
 13
0.0
 23
0.0
 14
5.0
 24
5.0
 15
5.0
 25
5.0
 16
0.0
 26
0.0
 36
1.0
 17
0.0
 27
0.0
 37
0.0
 40
64.87690308605223
 41
2.031645569620253
 42
50.0
 43
0.0
 44
0.0
 50
0.0
 51
0.0
 71
     0
 72
   100
 73
     1
 74
     3
 75
     0
 76
     0
 77
     0
 78
     0
281
     0
 65
     1
110
0.0
120
0.0
130
0.0
111
1.0
121
0.0
131
0.0
112
0.0
122
1.0
132
0.0
 79
     0
146
0.0
  0
ENDTAB
  0
TABLE
  2
LTYPE
  5
5
330
0
100
AcDbSymbolTable
 70
     6
  0
LTYPE
  5
13
330
5
100
AcDbSymbolTableRecord
100
AcDbLinetypeTableRecord
  2
BYBLOCK
 70
     0
  3

 72
    65
 73
     0
 40
0.0
  0
LTYPE
  5
14
330
5
100
AcDbSymbolTableRecord
100
AcDbLinetypeTableRecord
  2
BYLAYER
 70
     0
  3

 72
    65
 73
     0
 40
0.0
  0
LTYPE
  5
15
330
5
100
AcDbSymbolTableRecord
100
AcDbLinetypeTableRecord
  2
CONTINUOUS
 70
     0
  3
Solid line
 72
    65
 73
     0
 40
0.0
  0
LTYPE
  5
20
330
5
100
AcDbSymbolTableRecord
100
AcDbLinetypeTableRecord
  2
CENTER
 70
     0
  3
____ . ____ . ____
 72
    65
 73
     4
 40
1.5
 49
1.0
 74
     0
 49
-0.25
 74
     0
 49
0.0
 74
     0
 49
-0.25
 74
     0
  0
LTYPE
  5
21
330
5
100
AcDbSymbolTableRecord
100
AcDbLinetypeTableRecord
  2
HIDDEN
 70
     0
  3
_ _ _ _ _ _ _ _ _ _ _ _ _ _ _ _ _ _ _ _ _ _ _
 72
    65
 73
     2
 40
0.375
 49
0.25
 74
     0
 49
-0.125
 74
     0
  0
LTYPE
  5
1343
330
5
100
AcDbSymbolTableRecord
100
AcDbLinetypeTableRecord
  2
CACHE2
 70
     0
  3
Caché (x.5) _ _ _ _ _ _ _ _ _ _ _ _ _ _ _ _ _
 72
    65
 73
     2
 40
4.762499999999998
 49
3.174999999999998
 74
     0
 49
-1.587499999999999
 74
     0
  0
LTYPE
  5
1344
330
5
100
AcDbSymbolTableRecord
100
AcDbLinetypeTableRecord
  2
AXES2
 70
     0
  3
Centre (x.5) ___ _ ___ _ ___ _ ___ _ ___ _ ___
 72
    65
 73
     4
 40
28.575
 49
19.05
 74
     0
 49
-3.174999999999998
 74
     0
 49
3.174999999999998
 74
     0
 49
-3.174999999999998
 74
     0
  0
ENDTAB
  0
TABLE
  2
LAYER
  5
2
102
{ACAD_XDICTIONARY
360
134A
102
}
330
0
100
AcDbSymbolTable
 70
    16
  0
LAYER
  5
F
102
{ACAD_XDICTIONARY
360
158A
102
}
330
2
100
AcDbSymbolTableRecord
100
AcDbLayerTableRecord
  2
0
 70
     0
 62
     7
  6
CONTINUOUS
370
    -3
390
E94
  0
LAYER
  5
1E
102
{ACAD_XDICTIONARY
360
158C
102
}
330
2
100
AcDbSymbolTableRecord
100
AcDbLayerTableRecord
  2
1
 70
     0
 62
     4
  6
CONTINUOUS
370
    -3
390
E94
  0
LAYER
  5
22
102
{ACAD_XDICTIONARY
360
158E
102
}
330
2
100
AcDbSymbolTableRecord
100
AcDbLayerTableRecord
  2
SK1
 70
     0
 62
     4
  6
CONTINUOUS
370
    -3
390
E94
  0
LAYER
  5
23
102
{ACAD_XDICTIONARY
360
1590
102
}
330
2
100
AcDbSymbolTableRecord
100
AcDbLayerTableRecord
  2
2
 70
     0
 62
     7
  6
CONTINUOUS
370
    -3
390
E94
  0
LAYER
  5
24
102
{ACAD_XDICTIONARY
360
1592
102
}
330
2
100
AcDbSymbolTableRecord
100
AcDbLayerTableRecord
  2
2L
 70
     0
 62
     7
  6
CONTINUOUS
370
    -3
390
E94
  0
LAYER
  5
25
102
{ACAD_XDICTIONARY
360
1594
102
}
330
2
100
AcDbSymbolTableRecord
100
AcDbLayerTableRecord
  2
SK2
 70
     0
 62
     7
  6
CONTINUOUS
370
    -3
390
E94
  0
LAYER
  5
26
102
{ACAD_XDICTIONARY
360
1596
102
}
330
2
100
AcDbSymbolTableRecord
100
AcDbLayerTableRecord
  2
3
 70
     0
 62
     1
  6
HIDDEN
370
    -3
390
E94
  0
LAYER
  5
27
102
{ACAD_XDICTIONARY
360
1598
102
}
330
2
100
AcDbSymbolTableRecord
100
AcDbLayerTableRecord
  2
SK3
 70
     0
 62
     1
  6
HIDDEN
370
    -3
390
E94
  0
LAYER
  5
28
102
{ACAD_XDICTIONARY
360
159A
102
}
330
2
100
AcDbSymbolTableRecord
100
AcDbLayerTableRecord
  2
4
 70
     0
 62
     2
  6
CENTER
370
    -3
390
E94
  0
LAYER
  5
29
102
{ACAD_XDICTIONARY
360
159C
102
}
330
2
100
AcDbSymbolTableRecord
100
AcDbLayerTableRecord
  2
SK4
 70
     0
 62
     2
  6
CENTER
370
    -3
390
E94
  0
LAYER
  5
2A
102
{ACAD_XDICTIONARY
360
159E
102
}
330
2
100
AcDbSymbolTableRecord
100
AcDbLayerTableRecord
  2
5
 70
     0
 62
     7
  6
CONTINUOUS
370
    -3
390
E94
  0
LAYER
  5
2B
102
{ACAD_XDICTIONARY
360
15A0
102
}
330
2
100
AcDbSymbolTableRecord
100
AcDbLayerTableRecord
  2
6
 70
     0
 62
     5
  6
CONTINUOUS
370
    -3
390
E94
  0
LAYER
  5
2C
102
{ACAD_XDICTIONARY
360
15A2
102
}
330
2
100
AcDbSymbolTableRecord
100
AcDbLayerTableRecord
  2
SK6
 70
     0
 62
     5
  6
CONTINUOUS
370
    -3
390
E94
  0
LAYER
  5
2D
102
{ACAD_XDICTIONARY
360
15A4
102
}
330
2
100
AcDbSymbolTableRecord
100
AcDbLayerTableRecord
  2
243
 70
     0
 62
     7
  6
CONTINUOUS
370
    -3
390
E94
  0
LAYER
  5
2E
330
2
100
AcDbSymbolTableRecord
100
AcDbLayerTableRecord
  2
DEFPOINTS
 70
     0
 62
     7
  6
CONTINUOUS
290
     0
370
    -3
390
E94
  0
LAYER
  5
C07
102
{ACAD_XDICTIONARY
360
15A6
102
}
330
2
100
AcDbSymbolTableRecord
100
AcDbLayerTableRecord
  2
FRONT
 70
     0
 62
     7
  6
CONTINUOUS
370
    -3
390
E94
  0
ENDTAB
  0
TABLE
  2
STYLE
  5
3
330
0
100
AcDbSymbolTable
 70
     4
  0
STYLE
  5
10
330
3
100
AcDbSymbolTableRecord
100
AcDbTextStyleTableRecord
  2
STANDARD
 70
     0
 40
0.0
 41
1.0
 50
0.0
 71
     0
 42
5.0
  3
txt
  4

  0
STYLE
  5
1F
330
3
100
AcDbSymbolTableRecord
100
AcDbTextStyleTableRecord
  2
SIMPLEX
 70
     0
 40
0.0
 41
1.0
 50
0.0
 71
     0
 42
3.5
  3
simplex
  4

  0
STYLE
  5
2F
330
3
100
AcDbSymbolTableRecord
100
AcDbTextStyleTableRecord
  2
TXT
 70
     0
 40
8.0
 41
1.0
 50
0.0
 71
     0
 42
8.0
  3
txt
  4

  0
STYLE
  5
C08
330
3
100
AcDbSymbolTableRecord
100
AcDbTextStyleTableRecord
  2
UGMTXT
 70
     0
 40
0.0
 41
1.0
 50
0.0
 71
     0
 42
0.2
  3
ugmtxt
  4
bigfont
  0
ENDTAB
  0
TABLE
  2
VIEW
  5
6
330
0
100
AcDbSymbolTable
 70
     0
  0
ENDTAB
  0
TABLE
  2
UCS
  5
7
330
0
100
AcDbSymbolTable
 70
     0
  0
ENDTAB
  0
TABLE
  2
APPID
  5
9
330
0
100
AcDbSymbolTable
 70
     8
  0
APPID
  5
11
330
9
100
AcDbSymbolTableRecord
100
AcDbRegAppTableRecord
  2
ACAD
 70
     0
  0
APPID
  5
E8F
330
9
100
AcDbSymbolTableRecord
100
AcDbRegAppTableRecord
  2
CONTENTBLOCKICON
 70
     0
  0
APPID
  5
12DB
330
9
100
AcDbSymbolTableRecord
100
AcDbRegAppTableRecord
  2
ACAD_MLEADERVER
 70
     0
  0
APPID
  5
1347
330
9
100
AcDbSymbolTableRecord
100
AcDbRegAppTableRecord
  2
ACAD_PSEXT
 70
     0
  0
APPID
  5
1348
330
9
100
AcDbSymbolTableRecord
100
AcDbRegAppTableRecord
  2
ACAD_DSTYLE_DIMJOGGED_JOGANGLE_SYMBOL
 70
     0
  0
APPID
  5
1349
330
9
100
AcDbSymbolTableRecord
100
AcDbRegAppTableRecord
  2
AcAecLayerStandard
 70
     0
  0
APPID
  5
14DB
330
9
100
AcDbSymbolTableRecord
100
AcDbRegAppTableRecord
  2
ACAD_EXEMPT_FROM_CAD_STANDARDS
 70
     0
  0
APPID
  5
15BB
330
9
100
AcDbSymbolTableRecord
100
AcDbRegAppTableRecord
  2
ACAD_DSTYLE_DIMEXT_LENGTH
 70
     0
  0
ENDTAB
  0
TABLE
  2
DIMSTYLE
  5
A
330
0
100
AcDbSymbolTable
 70
     8
100
AcDbDimStyleTable
 71
     5
340
D91
340
1273
340
D93
340
D92
340
980
  0
DIMSTYLE
105
980
330
A
100
AcDbSymbolTableRecord
100
AcDbDimStyleTableRecord
  2
STANDARD
 70
     0
340
10
  0
DIMSTYLE
105
D91
102
{ACAD_REACTORS
330
14E5
330
14FB
330
1511
330
1530
102
}
330
A
100
AcDbSymbolTableRecord
100
AcDbDimStyleTableRecord
  2
V-TYGEN_-160
 70
     0
 41
3.5
 42
1.0
 43
0.5
 44
1.0
 73
     0
 74
     0
 77
     1
140
3.5
141
0.0
147
1.0
271
     0
272
     0
340
10
371
    -1
  0
DIMSTYLE
105
D92
330
A
100
AcDbSymbolTableRecord
100
AcDbDimStyleTableRecord
  2
V-TYG_160-300
 70
     0
 41
5.0
 42
1.0
 43
0.5
 44
1.0
 73
     0
 74
     0
 77
     1
140
5.0
141
0.0
147
1.0
271
     0
272
     0
340
10
  0
DIMSTYLE
105
D93
330
A
100
AcDbSymbolTableRecord
100
AcDbDimStyleTableRecord
  2
V-TYG_300-
 70
     0
 41
8.0
 42
1.0
 43
0.5
 44
1.0
 73
     0
 74
     0
 77
     1
140
8.0
141
0.0
147
1.0
271
     0
272
     0
340
10
  0
DIMSTYLE
105
1273
330
A
100
AcDbSymbolTableRecord
100
AcDbDimStyleTableRecord
  2
Inserts
 70
     0
 41
0.5
 42
1.0
 43
0.5
 44
1.0
 73
     0
 74
     0
 77
     1
140
0.8
141
0.0
147
1.0
271
     0
272
     0
340
10
371
    -1
  0
DIMSTYLE
105
1345
330
A
100
AcDbSymbolTableRecord
100
AcDbDimStyleTableRecord
  2
ISO-25
 70
     0
 41
2.5
 42
0.625
 43
3.75
 44
1.25
 73
     0
 74
     0
 77
     1
 78
     8
140
2.5
141
2.5
143
0.03937007874016
147
0.625
171
     3
172
     1
271
     2
272
     2
274
     3
278
    44
283
     0
284
     8
340
10
  0
DIMSTYLE
105
1346
102
{ACAD_REACTORS
330
13C2
330
13C5
330
13C8
330
13CB
330
13CF
330
13D4
330
13D7
330
13DA
102
}
330
A
100
AcDbSymbolTableRecord
100
AcDbDimStyleTableRecord
  2
WINTOOL
 70
     0
 41
3.5
 42
1.5
 43
3.75
 44
1.25
 73
     0
 74
     0
 77
     1
 78
     8
140
3.5
141
1.5
143
0.03937007874016
147
1.0
171
     3
172
     1
271
     2
272
     2
274
     3
283
     0
284
     8
340
10
1001
ACAD_DSTYLE_DIMEXT_LENGTH
1070
   378
1040
1.25
1001
ACAD_DSTYLE_DIMJOGGED_JOGANGLE_SYMBOL
1070
   384
1040
1.570796326794896
  0
ENDTAB
  0
TABLE
  2
BLOCK_RECORD
  5
1
330
0
100
AcDbSymbolTable
 70
    24
  0
BLOCK_RECORD
  5
19
102
{ACAD_XDICTIONARY
360
E8D
102
}
330
1
100
AcDbSymbolTableRecord
100
AcDbBlockTableRecord
  2
*MODEL_SPACE
340
E95
  0
BLOCK_RECORD
  5
16
102
{ACAD_XDICTIONARY
360
E8B
102
}
330
1
100
AcDbSymbolTableRecord
100
AcDbBlockTableRecord
  2
*PAPER_SPACE
340
E96
  0
BLOCK_RECORD
  5
A8B
330
1
100
AcDbSymbolTableRecord
100
AcDbBlockTableRecord
  2
2D00035417
340
0
310
2800000020000000200000000100080000000000000400000000000000000000000000000000000000000000000080000080000000808000800000008000800080800000C0C0C000C0DCC000F0CAA6000020400000206000002080000020A0000020C0000020E00000400000004020000040400000406000004080000040A0
310
000040C0000040E00000600000006020000060400000606000006080000060A0000060C0000060E00000800000008020000080400000806000008080000080A0000080C0000080E00000A0000000A0200000A0400000A0600000A0800000A0A00000A0C00000A0E00000C0000000C0200000C0400000C0600000C0800000C0
310
A00000C0C00000C0E00000E0000000E0200000E0400000E0600000E0800000E0A00000E0C00000E0E00040000000400020004000400040006000400080004000A0004000C0004000E00040200000402020004020400040206000402080004020A0004020C0004020E000404000004040200040404000404060004040800040
310
40A0004040C0004040E00040600000406020004060400040606000406080004060A0004060C0004060E00040800000408020004080400040806000408080004080A0004080C0004080E00040A0000040A0200040A0400040A0600040A0800040A0A00040A0C00040A0E00040C0000040C0200040C0400040C0600040C08000
310
40C0A00040C0C00040C0E00040E0000040E0200040E0400040E0600040E0800040E0A00040E0C00040E0E00080000000800020008000400080006000800080008000A0008000C0008000E00080200000802020008020400080206000802080008020A0008020C0008020E00080400000804020008040400080406000804080
310
008040A0008040C0008040E00080600000806020008060400080606000806080008060A0008060C0008060E00080800000808020008080400080806000808080008080A0008080C0008080E00080A0000080A0200080A0400080A0600080A0800080A0A00080A0C00080A0E00080C0000080C0200080C0400080C0600080C0
310
800080C0A00080C0C00080C0E00080E0000080E0200080E0400080E0600080E0800080E0A00080E0C00080E0E000C0000000C0002000C0004000C0006000C0008000C000A000C000C000C000E000C0200000C0202000C0204000C0206000C0208000C020A000C020C000C020E000C0400000C0402000C0404000C0406000C0
310
408000C040A000C040C000C040E000C0600000C0602000C0604000C0606000C0608000C060A000C060C000C060E000C0800000C0802000C0804000C0806000C0808000C080A000C080C000C080E000C0A00000C0A02000C0A04000C0A06000C0A08000C0A0A000C0A0C000C0A0E000C0C00000C0C02000C0C04000C0C06000
310
C0C08000C0C0A000F0FBFF00A4A0A000808080000000FF0000FF000000FFFF00FF000000FF00FF00FFFF0000FFFFFF0000000000000000000000000000000000000000000000000000000000000000000000000000000000000000000000000000000000000000000000000000000000000000000000000000000000000000
310
00000000000000000000000000000000000000000000000000000000000000000000000000000000000000000000000000000000000000000000000000000000000000000000000000000000000000000000000000000000000000000000000000000000000000000000000000000000000000000000000000000000000000
310
00000000000000000000000000000000000000000000000000000000000000000000000000000000000000000000000000000000000000000000000000000000000000000000000000000000000000000000000000000000000000000000000000000000000000000000000000000000000000000000000000000000000000
310
00000000000000000000000000000000000000000000000000000000000000000000000000000000000000000000000000000000000000000000000000000000000000000000000000000000000000000000000000FEFEFEFEFEFEFEFEFEFEFEFEFEFEFEFEFEFEFEFEFEFE000000FEFEFEFE0000FEFE000000000000000000
310
0000000000000000000000FEFEFEFEFEFEFEFE0000FEFE0000000000000000000000000000000000000000FEFE0000FEFEFE000000FEFE0000000000000000000000000000000000000000FEFE0000FEFEFE000000FEFE0000000000000000000000000000000000000000FEFEFEFEFEFEFEFE000000FEFEFEFEFEFEFEFEFE
310
FEFEFEFEFEFEFEFEFEFEFEFEFE000000FEFEFEFE0000000000000000000000000000000000000000000000000000000000000000000000000000000000000000000000000000000000000000000000000000000000000000000000000000000000000000000000000000000000000000000000000000000000000000000000
310
00000000000000000000000000000000000000000000000000000000000000000000000000000000000000000000000000000000000000000000000000000000000000000000000000000000000000000000000000000000000000000000000000000000000000000000000000000000000000000000000000000000000000
310
00000000000000000000000000000000000000000000000000000000000000000000000000000000000000000000000000000000000000000000000000000000000000000000000000000000000000000000000000000000000000000000000000000000000000000000000000000000000000000000000000000000000000
310
0000000000000000000000000000000000000000000000000000000000000000000000000000000000000000000000000000000000000000
102
{BLKREFS
331
C04
102
}
  0
BLOCK_RECORD
  5
C03
330
1
100
AcDbSymbolTableRecord
100
AcDbBlockTableRecord
  2
ROFFE
340
0
310
2800000020000000200000000100080000000000000400000000000000000000000000000000000000000000000080000080000000808000800000008000800080800000C0C0C000C0DCC000F0CAA6000020400000206000002080000020A0000020C0000020E00000400000004020000040400000406000004080000040A0
310
000040C0000040E00000600000006020000060400000606000006080000060A0000060C0000060E00000800000008020000080400000806000008080000080A0000080C0000080E00000A0000000A0200000A0400000A0600000A0800000A0A00000A0C00000A0E00000C0000000C0200000C0400000C0600000C0800000C0
310
A00000C0C00000C0E00000E0000000E0200000E0400000E0600000E0800000E0A00000E0C00000E0E00040000000400020004000400040006000400080004000A0004000C0004000E00040200000402020004020400040206000402080004020A0004020C0004020E000404000004040200040404000404060004040800040
310
40A0004040C0004040E00040600000406020004060400040606000406080004060A0004060C0004060E00040800000408020004080400040806000408080004080A0004080C0004080E00040A0000040A0200040A0400040A0600040A0800040A0A00040A0C00040A0E00040C0000040C0200040C0400040C0600040C08000
310
40C0A00040C0C00040C0E00040E0000040E0200040E0400040E0600040E0800040E0A00040E0C00040E0E00080000000800020008000400080006000800080008000A0008000C0008000E00080200000802020008020400080206000802080008020A0008020C0008020E00080400000804020008040400080406000804080
310
008040A0008040C0008040E00080600000806020008060400080606000806080008060A0008060C0008060E00080800000808020008080400080806000808080008080A0008080C0008080E00080A0000080A0200080A0400080A0600080A0800080A0A00080A0C00080A0E00080C0000080C0200080C0400080C0600080C0
310
800080C0A00080C0C00080C0E00080E0000080E0200080E0400080E0600080E0800080E0A00080E0C00080E0E000C0000000C0002000C0004000C0006000C0008000C000A000C000C000C000E000C0200000C0202000C0204000C0206000C0208000C020A000C020C000C020E000C0400000C0402000C0404000C0406000C0
310
408000C040A000C040C000C040E000C0600000C0602000C0604000C0606000C0608000C060A000C060C000C060E000C0800000C0802000C0804000C0806000C0808000C080A000C080C000C080E000C0A00000C0A02000C0A04000C0A06000C0A08000C0A0A000C0A0C000C0A0E000C0C00000C0C02000C0C04000C0C06000
310
C0C08000C0C0A000F0FBFF00A4A0A000808080000000FF0000FF000000FFFF00FF000000FF00FF00FFFF0000FFFFFF0000000000000000000000000000000000000000000000000000000000000000000000000000000000000000000000000000000000000000000000000000000000000000000000000000000000000000
310
00000000000000000000000000000000000000000000000000000000000000000000000000000000000000000000000000000000000000000000000000000000000000000000000000000000000000000000000000000000000000000000000000000000000000000000000000000000000000000000000000000000000000
310
00000000000000000000000000000000000000000000000000000000000000000000000000000000000000000000000000000000000000000000000000000000000000000000000000000000000000000000000000000000000000000000000000000000000000000000000000000000000000000000000000000000000000
310
00000000000000000000000000000000000000000000000000000000000000000000000000000000000000000000000000000000000000000000000000000000000000000000000000000000000000000000000000FEFEFEFEFEFEFEFEFEFEFEFEFEFEFEFEFEFEFEFEFEFE000000FEFEFEFE0000FEFE000000000000000000
310
0000000000000000000000FEFEFEFEFEFEFEFE0000FEFE0000000000000000000000000000000000000000FEFE0000FEFEFE000000FEFE0000000000000000000000000000000000000000FEFE0000FEFEFE000000FEFE0000000000000000000000000000000000000000FEFEFEFEFEFEFEFE000000FEFEFEFEFEFEFEFEFE
310
FEFEFEFEFEFEFEFEFEFEFEFEFE000000FEFEFEFE0000000000000000000000000000000000000000000000000000000000000000000000000000000000000000000000000000000000000000000000000000000000000000000000000000000000000000000000000000000000000000000000000000000000000000000000
310
00000000000000000000000000000000000000000000000000000000000000000000000000000000000000000000000000000000000000000000000000000000000000000000000000000000000000000000000000000000000000000000000000000000000000000000000000000000000000000000000000000000000000
310
00000000000000000000000000000000000000000000000000000000000000000000000000000000000000000000000000000000000000000000000000000000000000000000000000000000000000000000000000000000000000000000000000000000000000000000000000000000000000000000000000000000000000
310
0000000000000000000000000000000000000000000000000000000000000000000000000000000000000000000000000000000000000000
  0
BLOCK_RECORD
  5
12DF
330
1
100
AcDbSymbolTableRecord
100
AcDbBlockTableRecord
  2
*D2
340
0
  0
BLOCK_RECORD
  5
12EB
330
1
100
AcDbSymbolTableRecord
100
AcDbBlockTableRecord
  2
*D3
340
0
  0
BLOCK_RECORD
  5
12F7
330
1
100
AcDbSymbolTableRecord
100
AcDbBlockTableRecord
  2
*D4
340
0
  0
BLOCK_RECORD
  5
1303
330
1
100
AcDbSymbolTableRecord
100
AcDbBlockTableRecord
  2
*D5
340
0
  0
BLOCK_RECORD
  5
1311
330
1
100
AcDbSymbolTableRecord
100
AcDbBlockTableRecord
  2
*D6
340
0
  0
BLOCK_RECORD
  5
131F
330
1
100
AcDbSymbolTableRecord
100
AcDbBlockTableRecord
  2
*D7
340
0
  0
BLOCK_RECORD
  5
132B
330
1
100
AcDbSymbolTableRecord
100
AcDbBlockTableRecord
  2
*D8
340
0
  0
BLOCK_RECORD
  5
1337
330
1
100
AcDbSymbolTableRecord
100
AcDbBlockTableRecord
  2
*D9
340
0
  0
BLOCK_RECORD
  5
1476
330
1
100
AcDbSymbolTableRecord
100
AcDbBlockTableRecord
  2
*D11
340
0
  0
BLOCK_RECORD
  5
1482
330
1
100
AcDbSymbolTableRecord
100
AcDbBlockTableRecord
  2
*D12
340
0
  0
BLOCK_RECORD
  5
148E
330
1
100
AcDbSymbolTableRecord
100
AcDbBlockTableRecord
  2
*D13
340
0
  0
BLOCK_RECORD
  5
149A
330
1
100
AcDbSymbolTableRecord
100
AcDbBlockTableRecord
  2
*D14
340
0
  0
BLOCK_RECORD
  5
14A8
330
1
100
AcDbSymbolTableRecord
100
AcDbBlockTableRecord
  2
*D15
340
0
  0
BLOCK_RECORD
  5
14B6
330
1
100
AcDbSymbolTableRecord
100
AcDbBlockTableRecord
  2
*D16
340
0
  0
BLOCK_RECORD
  5
14C2
330
1
100
AcDbSymbolTableRecord
100
AcDbBlockTableRecord
  2
*D17
340
0
  0
BLOCK_RECORD
  5
14CE
330
1
100
AcDbSymbolTableRecord
100
AcDbBlockTableRecord
  2
*D18
340
0
  0
BLOCK_RECORD
  5
14E6
330
1
100
AcDbSymbolTableRecord
100
AcDbBlockTableRecord
  2
*D20
340
0
  0
BLOCK_RECORD
  5
14FC
330
1
100
AcDbSymbolTableRecord
100
AcDbBlockTableRecord
  2
*D21
340
0
  0
BLOCK_RECORD
  5
1512
330
1
100
AcDbSymbolTableRecord
100
AcDbBlockTableRecord
  2
*D22
340
0
  0
BLOCK_RECORD
  5
1531
330
1
100
AcDbSymbolTableRecord
100
AcDbBlockTableRecord
  2
*D23
340
0
  0
ENDTAB
  0
ENDSEC
  0
SECTION
  2
BLOCKS
  0
BLOCK
  5
1A
330
19
100
AcDbEntity
  8
0
100
AcDbBlockBegin
  2
*MODEL_SPACE
 70
     0
 10
0.0
 20
0.0
 30
0.0
  3
*MODEL_SPACE
  1

  0
ENDBLK
  5
1B
330
19
100
AcDbEntity
  8
0
100
AcDbBlockEnd
  0
BLOCK
  5
17
330
16
100
AcDbEntity
 67
     1
  8
0
100
AcDbBlockBegin
  2
*PAPER_SPACE
 70
     0
 10
0.0
 20
0.0
 30
0.0
  3
*PAPER_SPACE
  1

  0
ENDBLK
  5
18
330
16
100
AcDbEntity
 67
     1
  8
0
100
AcDbBlockEnd
  0
BLOCK
  5
C01
330
A8B
100
AcDbEntity
  8
0
100
AcDbBlockBegin
  2
2D00035417
 70
     0
 10
0.0
 20
0.0
 30
0.0
  3
2D00035417
  1

  0
LINE
  5
A8C
330
A8B
100
AcDbEntity
  8
FRONT
  6
Continuous
 62
     4
100
AcDbLine
 10
0.8660254037844552
 20
5.5
 30
0.0
 11
0.0
 21
6.000000000000002
 31
0.0
  0
LINE
  5
A8D
330
A8B
100
AcDbEntity
  8
FRONT
  6
Continuous
 62
     4
100
AcDbLine
 10
0.0
 20
-6.000000000000002
 30
0.0
 11
0.8660254037844552
 21
-5.5
 31
0.0
  0
LINE
  5
A8E
330
A8B
100
AcDbEntity
  8
FRONT
  6
Continuous
 62
     4
100
AcDbLine
 10
-62.0
 20
5.5
 30
0.0
 11
-62.0
 21
-5.499999999999992
 31
0.0
  0
LINE
  5
A8F
330
A8B
100
AcDbEntity
  8
FRONT
  6
Continuous
 62
     4
100
AcDbLine
 10
-61.5
 20
6.0
 30
0.0
 11
-61.5
 21
-5.999999999999992
 31
0.0
  0
LINE
  5
A90
330
A8B
100
AcDbEntity
  8
FRONT
  6
Continuous
 62
     4
100
AcDbLine
 10
0.0
 20
6.000000000000007
 30
0.0
 11
0.0
 21
-6.000000000000007
 31
0.0
  0
LINE
  5
A91
330
A8B
100
AcDbEntity
  8
FRONT
  6
Continuous
 62
     4
100
AcDbLine
 10
-61.5
 20
-6.0
 30
0.0
 11
0.0
 21
-6.0
 31
0.0
  0
LINE
  5
A92
330
A8B
100
AcDbEntity
  8
FRONT
  6
Continuous
 62
     4
100
AcDbLine
 10
-62.0
 20
-5.499999999999992
 30
0.0
 11
-61.5
 21
-5.999999999999992
 31
0.0
  0
LINE
  5
A93
330
A8B
100
AcDbEntity
  8
FRONT
  6
Continuous
 62
     4
100
AcDbLine
 10
0.0
 20
6.0
 30
0.0
 11
-61.5
 21
6.000000000000007
 31
0.0
  0
LINE
  5
A94
330
A8B
100
AcDbEntity
  8
FRONT
  6
Continuous
 62
     4
100
AcDbLine
 10
-61.5
 20
6.0
 30
0.0
 11
-62.0
 21
5.5
 31
0.0
  0
LINE
  5
A95
330
A8B
100
AcDbEntity
  8
FRONT
  6
Continuous
 62
     4
100
AcDbLine
 10
17.29745226804206
 20
3.509679345658438
 30
0.0
 11
17.29745226804206
 21
-5.017742724400552
 31
0.0
  0
LINE
  5
A96
330
A8B
100
AcDbEntity
  8
FRONT
  6
Continuous
 62
     4
100
AcDbLine
 10
11.19220462092714
 20
3.417991427849383
 30
0.0
 11
11.19220462092714
 21
-5.268704490765056
 31
0.0
  0
LINE
  5
A97
330
A8B
100
AcDbEntity
  8
FRONT
  6
Continuous
 62
     4
100
AcDbLine
 10
12.3980252578104
 20
3.543839759641738
 30
0.0
 11
12.3980252578104
 21
-4.715335514294036
 31
0.0
  0
LINE
  5
A98
330
A8B
100
AcDbEntity
  8
FRONT
  6
Continuous
 62
     4
100
AcDbLine
 10
0.8660254037844552
 20
5.5
 30
0.0
 11
0.8660254037844552
 21
-5.5
 31
0.0
  0
LINE
  5
A99
330
A8B
100
AcDbEntity
  8
FRONT
  6
Continuous
 62
     4
100
AcDbLine
 10
13.74838568128198
 20
3.593205653172365
 30
0.0
 11
13.74838568128198
 21
-5.032064792663311
 31
0.0
  0
LINE
  5
A9A
330
A8B
100
AcDbEntity
  8
FRONT
  6
Continuous
 62
     4
100
AcDbLine
 10
17.48879939540238
 20
-4.816380228107217
 30
0.0
 11
17.48879939540238
 21
3.479278271624338
 31
0.0
  0
LINE
  5
A9B
330
A8B
100
AcDbEntity
  8
FRONT
  6
Continuous
 62
     4
100
AcDbLine
 10
12.52411245174376
 20
-5.148811565010388
 30
0.0
 11
12.2699596882263
 21
-5.474819161767424
 31
0.0
  0
ELLIPSE
  5
A9C
330
A8B
100
AcDbEntity
  8
FRONT
  6
Continuous
 62
     4
100
AcDbEllipse
 10
12.59483653351634
 20
-4.836421402054659
 30
0.0
 11
-0.1764278460445979
 21
0.0941977448772153
 31
0.0
210
0.0
220
0.0
230
1.0
 40
0.9833059182774052
 41
0.6405173247906966
 42
2.071687311428429
  0
ELLIPSE
  5
A9D
330
A8B
100
AcDbEntity
  8
FRONT
  6
Continuous
 62
     4
100
AcDbEllipse
 10
12.58626641887234
 20
-4.852472814633401
 30
0.0
 11
-0.264641769065345
 21
0.1412966173186371
 31
0.0
210
0.0
220
0.0
230
1.0
 40
0.9833059182774
 41
0.6405173248015057
 42
2.071687311439271
  0
ELLIPSE
  5
A9E
330
A8B
100
AcDbEntity
  8
FRONT
  6
Continuous
 62
     4
100
AcDbEllipse
 10
12.53491299669396
 20
-4.91373583192963
 30
0.0
 11
-0.1776346087653321
 21
-0.1633261946229406
 31
0.0
210
0.0
220
0.0
230
1.0
 40
0.9518042298991375
 41
5.720439864303834
 42
7.08930315248491
  0
SPLINE
  5
A9F
330
A8B
100
AcDbEntity
  8
FRONT
  6
Continuous
 62
     4
100
AcDbSpline
210
0.0
220
0.0
230
1.0
 70
     8
 71
     2
 72
     6
 73
     3
 74
     0
 42
0.0000000001
 43
0.0000000001
 40
0.0
 40
0.0
 40
0.0
 40
1.0
 40
1.0
 40
1.0
 10
14.62245185943817
 20
-5.87714135957826
 30
0.0
 10
13.33868913679801
 20
-5.833317719863607
 30
0.0
 10
12.05492333661389
 20
-5.761440262542944
 30
0.0
  0
SPLINE
  5
AA0
330
A8B
100
AcDbEntity
  8
FRONT
  6
Continuous
 62
     4
100
AcDbSpline
210
0.0
220
0.0
230
1.0
 70
     8
 71
     2
 72
     6
 73
     3
 74
     0
 42
0.0000000001
 43
0.0000000001
 40
0.0
 40
0.0
 40
0.0
 40
1.0
 40
1.0
 40
1.0
 10
12.03715634521592
 20
-5.830492901738484
 30
0.0
 10
12.99283696601092
 20
-5.878254479706018
 30
0.0
 10
13.94849592177253
 20
-5.91037423780608
 30
0.0
  0
SPLINE
  5
AA1
330
A8B
100
AcDbEntity
  8
FRONT
  6
Continuous
 62
     4
100
AcDbSpline
210
0.0
220
0.0
230
1.0
 70
     8
 71
     3
 72
    10
 73
     6
 74
     0
 42
0.0000000001
 43
0.0000000001
 40
0.0
 40
0.0
 40
0.0
 40
0.0
 40
0.413998097170399
 40
0.8317102975705793
 40
1.0
 40
1.0
 40
1.0
 40
1.0
 10
13.65251602410751
 20
-5.651687726725348
 30
0.0
 10
13.45228491644905
 20
-5.637638509379486
 30
0.0
 10
13.05861779128649
 20
-5.600401635138268
 30
0.0
 10
12.59642516693621
 20
-5.539019558091952
 30
0.0
 10
12.34205829435077
 20
-5.489820631199273
 30
0.0
 10
12.2699596882263
 20
-5.474819161767424
 30
0.0
  0
SPLINE
  5
AA2
330
A8B
100
AcDbEntity
  8
FRONT
  6
Continuous
 62
     4
100
AcDbSpline
210
0.0
220
0.0
230
1.0
 70
     8
 71
     2
 72
     6
 73
     3
 74
     0
 42
0.0000000001
 43
0.0000000001
 40
0.0
 40
0.0
 40
0.0
 40
1.0
 40
1.0
 40
1.0
 10
13.61429623476742
 20
-5.667122247227887
 30
0.0
 10
12.88790047388035
 20
-5.627861963387118
 30
0.0
 10
12.16152824195172
 20
-5.579846203347781
 30
0.0
  0
SPLINE
  5
AA3
330
A8B
100
AcDbEntity
  8
FRONT
  6
Continuous
 62
     4
100
AcDbSpline
210
0.0
220
0.0
230
1.0
 70
     8
 71
     2
 72
     6
 73
     3
 74
     0
 42
0.0000000001
 43
0.0000000001
 40
0.0
 40
0.0
 40
0.0
 40
1.0
 40
1.0
 40
1.0
 10
17.4863838813945
 20
-5.914121941707049
 30
0.0
 10
14.77806455657193
 20
-5.88204522422477
 30
0.0
 10
12.06951141172709
 20
-5.72451506620573
 30
0.0
  0
SPLINE
  5
AA4
330
A8B
100
AcDbEntity
  8
FRONT
  6
Continuous
 62
     4
100
AcDbSpline
210
0.0
220
0.0
230
1.0
 70
     8
 71
     3
 72
    13
 73
     9
 74
     0
 42
0.0000000001
 43
0.0000000001
 40
0.0
 40
0.0
 40
0.0
 40
0.0
 40
0.1221948788939986
 40
0.3409322576720923
 40
0.5593089850044601
 40
0.7634079375909129
 40
0.9483404453246466
 40
1.0
 40
1.0
 40
1.0
 40
1.0
 10
13.21765994700341
 20
-5.008998841068255
 30
0.0
 10
13.21008985781698
 20
-4.986912363625971
 30
0.0
 10
13.17823433448347
 20
-4.926841776453724
 30
0.0
 10
13.07361191277297
 20
-4.829791137456387
 30
0.0
 10
12.88884659553877
 20
-4.74181959386623
 30
0.0
 10
12.67056256702776
 20
-4.697037384916851
 30
0.0
 10
12.50187045502288
 20
-4.699685032400541
 30
0.0
 10
12.41657811424804
 20
-4.712092428703162
 30
0.0
 10
12.39802525781035
 20
-4.715335514293908
 30
0.0
  0
ELLIPSE
  5
AA5
330
A8B
100
AcDbEntity
  8
FRONT
  6
Continuous
 62
     4
100
AcDbEllipse
 10
5.66201983816218
 20
-0.0000000000335509
 30
0.0
 11
-30.04133316929991
 21
2.588839177181584
 31
0.0
210
0.0
220
0.0
230
1.0
 40
0.1615314150625295
 41
1.478397138584063
 42
1.76983915316551
  0
SPLINE
  5
AA6
330
A8B
100
AcDbEntity
  8
FRONT
  6
Continuous
 62
     4
100
AcDbSpline
210
0.0
220
0.0
230
1.0
 70
     8
 71
     3
 72
    13
 73
     9
 74
     0
 42
0.0000000001
 43
0.0000000001
 40
0.0
 40
0.0
 40
0.0
 40
0.0
 40
0.111195031304195
 40
0.2657804119641697
 40
0.4822058427557557
 40
0.6989752890855822
 40
0.9172035917595028
 40
1.0
 40
1.0
 40
1.0
 40
1.0
 10
1.345325372781969
 20
-5.499999327115823
 30
0.0
 10
1.398511539679659
 20
-5.499310768582706
 30
0.0
 10
1.538983733379424
 20
-5.487567585039426
 30
0.0
 10
1.854584013762765
 20
-5.418189805484521
 30
0.0
 10
2.329371189940173
 20
-5.271647579637816
 30
0.0
 10
2.940699872587572
 20
-5.059593436719063
 30
0.0
 10
3.480267253473383
 20
-4.873448667483954
 30
0.0
 10
3.808123122364646
 20
-4.762436312820168
 30
0.0
 10
3.899607151901193
 20
-4.731554934786731
 30
0.0
  0
LINE
  5
AA7
330
A8B
100
AcDbEntity
  8
FRONT
  6
Continuous
 62
     4
100
AcDbLine
 10
0.8660254037844552
 20
-5.5
 30
0.0
 11
1.352746725880145
 21
-5.5
 31
0.0
  0
ELLIPSE
  5
AA8
330
A8B
100
AcDbEntity
  8
FRONT
  6
Continuous
 62
     4
100
AcDbEllipse
 10
12.00000899116139
 20
-16.06832890666516
 30
0.0
 11
-14.85880604145566
 21
5.934210405159881
 31
0.0
210
0.0
220
0.0
230
0.9999999999999998
 40
0.8742329960678898
 41
5.792900081455464
 42
5.811533204192437
  0
SPLINE
  5
AA9
330
A8B
100
AcDbEntity
  8
FRONT
  6
Continuous
 62
     4
100
AcDbSpline
210
0.0
220
0.0
230
1.0
 70
     8
 71
     3
 72
    13
 73
     9
 74
     0
 42
0.0000000001
 43
0.0000000001
 40
0.0
 40
0.0
 40
0.0
 40
0.0
 40
0.0708887435082171
 40
0.2571724611284706
 40
0.5329963062952721
 40
0.7291217371113851
 40
0.9254339909461146
 40
1.0
 40
1.0
 40
1.0
 40
1.0
 10
1.195562502632583
 20
-4.790625489461174
 30
0.0
 10
1.213912861725795
 20
-4.776794773960335
 30
0.0
 10
1.285762723978912
 20
-4.729112862436839
 30
0.0
 10
1.488346843837938
 20
-4.648305888484085
 30
0.0
 10
1.783730465684264
 20
-4.592365381939607
 30
0.0
 10
2.095253569585678
 20
-4.572953003185091
 30
0.0
 10
2.314409026134284
 20
-4.578924439658588
 30
0.0
 10
2.439434992623304
 20
-4.589560477122677
 30
0.0
 10
2.473778129000647
 20
-4.593052498405127
 30
0.0
  0
SPLINE
  5
AAA
330
A8B
100
AcDbEntity
  8
FRONT
  6
Continuous
 62
     4
100
AcDbSpline
210
0.0
220
0.0
230
1.0
 70
     8
 71
     2
 72
     6
 73
     3
 74
     0
 42
0.0000000001
 43
0.0000000001
 40
0.0
 40
0.0
 40
0.0
 40
1.0
 40
1.0
 40
1.0
 10
1.120663577351435
 20
-4.879877191273159
 30
0.0
 10
1.140463196528336
 20
-4.832984670632592
 30
0.0
 10
1.195562502632583
 20
-4.790625489461174
 30
0.0
  0
SPLINE
  5
AAB
330
A8B
100
AcDbEntity
  8
FRONT
  6
Continuous
 62
     4
100
AcDbSpline
210
0.0
220
0.0
230
1.0
 70
     8
 71
     3
 72
    12
 73
     8
 74
     0
 42
0.0000000001
 43
0.0000000001
 40
0.0
 40
0.0
 40
0.0
 40
0.0
 40
0.2338452144524324
 40
0.4675970184665896
 40
0.701762765663897
 40
0.9359711320872667
 40
1.0
 40
1.0
 40
1.0
 40
1.0
 10
1.120663577351435
 20
-4.879877191273159
 30
0.0
 10
1.081791927506593
 20
-4.975462956792688
 30
0.0
 10
1.030111601870139
 20
-5.144886500420123
 30
0.0
 10
1.027342870416914
 20
-5.338220270821794
 30
0.0
 10
1.109594465876227
 20
-5.457981564958576
 30
0.0
 10
1.233664404095364
 20
-5.496508749567235
 30
0.0
 10
1.324763405221041
 20
-5.50007654266059
 30
0.0
 10
1.345325372781969
 20
-5.499999327115823
 30
0.0
  0
LINE
  5
AAC
330
A8B
100
AcDbEntity
  8
FRONT
  6
Continuous
 62
     4
100
AcDbLine
 10
12.26430749227676
 20
-4.727059865963761
 30
0.0
 11
12.29104950531358
 21
-4.894695500397101
 31
0.0
  0
LINE
  5
AAD
330
A8B
100
AcDbEntity
  8
FRONT
  6
Continuous
 62
     4
100
AcDbLine
 10
12.05195883253294
 20
-5.282066276975115
 30
0.0
 11
12.07142987167434
 21
-5.257090327121177
 31
0.0
  0
LINE
  5
AAE
330
A8B
100
AcDbEntity
  8
FRONT
  6
Continuous
 62
     4
100
AcDbLine
 10
11.73862963750702
 20
-5.461687541797807
 30
0.0
 11
11.75466693733003
 21
-5.546759538624929
 31
0.0
  0
LINE
  5
AAF
330
A8B
100
AcDbEntity
  8
FRONT
  6
Continuous
 62
     4
100
AcDbLine
 10
12.37475758366253
 20
-4.718713550200847
 30
0.0
 11
12.3980252578104
 21
-4.864569859230441
 31
0.0
  0
LINE
  5
AB0
330
A8B
100
AcDbEntity
  8
FRONT
  6
Continuous
 62
     4
100
AcDbLine
 10
12.29104950531358
 20
-4.894695500397101
 30
0.0
 11
12.30173417735763
 21
-4.961673695881327
 31
0.0
  0
LINE
  5
AB1
330
A8B
100
AcDbEntity
  8
FRONT
  6
Continuous
 62
     4
100
AcDbLine
 10
12.1154520297858
 20
-5.200622092145676
 30
0.0
 11
12.30173417735763
 21
-4.961673695881327
 31
0.0
  0
ELLIPSE
  5
AB2
330
A8B
100
AcDbEntity
  8
FRONT
  6
Continuous
 62
     4
100
AcDbEllipse
 10
12.16010065627367
 20
-5.364110026768818
 30
0.0
 11
-0.1629665045002963
 21
0.162301935942986
 31
0.0
210
0.0
220
0.0
230
1.0
 40
0.885395213116765
 41
0.9406572002840926
 42
2.300026522294225
  0
ELLIPSE
  5
AB3
330
A8B
100
AcDbEntity
  8
FRONT
  6
Continuous
 62
     4
100
AcDbEllipse
 10
10.7327861538169
 20
-6.237521875482824
 30
0.0
 11
-0.1862107868856989
 21
2.621605320212951
 31
0.0
210
0.0
220
0.0
230
0.9999999999999998
 40
0.4178728177031461
 41
4.983018135371414
 42
5.015339106062617
  0
ELLIPSE
  5
AB4
330
A8B
100
AcDbEntity
  8
FRONT
  6
Continuous
 62
     4
100
AcDbEllipse
 10
10.87421353467201
 20
-0.0952172533848828
 30
0.0
 11
-0.6453609818231091
 21
5.423953475707063
 31
0.0
210
0.0
220
0.0
230
1.0
 40
0.4002139493379774
 41
3.301152841311651
 42
3.433631365786768
  0
ELLIPSE
  5
AB5
330
A8B
100
AcDbEntity
  8
FRONT
  6
Continuous
 62
     4
100
AcDbEllipse
 10
12.05114473010541
 20
-5.545182037602573
 30
0.0
 11
-0.2141351294070844
 21
0.0839413268520247
 31
0.0
210
0.0
220
0.0
230
0.9999999999999998
 40
0.7465216560962231
 41
0.5997695972309498
 42
1.937897467873524
  0
ELLIPSE
  5
AB6
330
A8B
100
AcDbEntity
  8
FRONT
  6
Continuous
 62
     4
100
AcDbEllipse
 10
12.05060526702193
 20
-5.546128395411039
 30
0.0
 11
-0.1654325527084979
 21
0.1597875793175752
 31
0.0
210
0.0
220
0.0
230
1.0
 40
0.882922871075139
 41
0.9271183505009291
 42
2.296772776618916
  0
ELLIPSE
  5
AB7
330
A8B
100
AcDbEntity
  8
FRONT
  6
Continuous
 62
     4
100
AcDbEllipse
 10
12.29961961995718
 20
-4.878644087818582
 30
0.0
 11
-0.0987513760092463
 21
-0.0157532770020267
 31
0.0
210
0.0
220
0.0
230
1.0
 40
0.1458931740710974
 41
1.460656485145534
 42
3.031452811938669
  0
ELLIPSE
  5
AB8
330
A8B
100
AcDbEntity
  8
FRONT
  6
Continuous
 62
     4
100
AcDbEllipse
 10
335.219081173506
 20
-27.65352952608379
 30
0.0
 11
-342.1452092599433
 21
28.7644353191734
 31
0.0
210
0.0
220
0.0
230
1.0
 40
0.0434239235819959
 41
0.3305623080092169
 42
0.336553522992711
  0
ELLIPSE
  5
AB9
330
A8B
100
AcDbEntity
  8
FRONT
  6
Continuous
 62
     4
100
AcDbEllipse
 10
12.61274556700008
 20
-7.087755426446605
 30
0.0
 11
-0.6874421685867658
 21
4.776216476972511
 31
0.0
210
0.0
220
0.0
230
1.0
 40
0.0505508379540167
 41
1.059760007862942
 42
1.160653432741368
  0
SPLINE
  5
ABA
330
A8B
100
AcDbEntity
  8
FRONT
  6
Continuous
 62
     4
100
AcDbSpline
210
0.0
220
0.0
230
1.0
 70
    24
 71
     1
 72
     4
 73
     2
 74
     0
 42
0.0000000001
 43
0.0000000001
 40
0.0
 40
0.0
 40
1.0
 40
1.0
 10
11.83847321585812
 20
-5.567069085629718
 30
0.0
 10
11.83901267894247
 20
-5.566122727825887
 30
0.0
  0
SPLINE
  5
ABB
330
A8B
100
AcDbEntity
  8
FRONT
  6
Continuous
 62
     4
100
AcDbSpline
210
0.0
220
0.0
230
1.0
 70
     8
 71
     3
 72
    12
 73
     8
 74
     0
 42
0.0000000001
 43
0.0000000001
 40
0.0
 40
0.0
 40
0.0
 40
0.0
 40
0.0007970805857311
 40
0.2615790368690925
 40
0.5223632910078863
 40
0.9992029194147567
 40
1.0
 40
1.0
 40
1.0
 40
1.0
 10
12.06951141172706
 20
-5.72451506620573
 30
0.0
 10
12.06948314701705
 20
-5.724610988602324
 30
0.0
 10
12.06830139779342
 20
-5.728621512447585
 30
0.0
 10
12.06584538067532
 20
-5.73637821965794
 30
0.0
 10
12.0610158647334
 20
-5.749472267031436
 30
0.0
 10
12.05732682921892
 20
-5.75726605425465
 30
0.0
 10
12.05497323553964
 20
-5.761353601725923
 30
0.0
 10
12.05492333661389
 20
-5.761440262542944
 30
0.0
  0
SPLINE
  5
ABC
330
A8B
100
AcDbEntity
  8
FRONT
  6
Continuous
 62
     4
100
AcDbSpline
210
0.0
220
0.0
230
1.0
 70
    24
 71
     1
 72
     4
 73
     2
 74
     0
 42
0.0000000001
 43
0.0000000001
 40
0.0
 40
0.0
 40
1.0
 40
1.0
 10
11.77084472479986
 20
-5.637701490563106
 30
0.0
 10
11.83847321585812
 20
-5.567069085629722
 30
0.0
  0
SPLINE
  5
ABD
330
A8B
100
AcDbEntity
  8
FRONT
  6
Continuous
 62
     4
100
AcDbSpline
210
0.0
220
0.0
230
1.0
 70
     8
 71
     2
 72
     6
 73
     3
 74
     0
 42
0.0000000001
 43
0.0000000001
 40
0.0
 40
0.0
 40
0.0
 40
1.0
 40
1.0
 40
1.0
 10
12.26612713977722
 20
-5.47418946266737
 30
0.0
 10
12.21369198338541
 20
-5.526401979383564
 30
0.0
 10
12.16152824195172
 20
-5.579846203347781
 30
0.0
  0
SPLINE
  5
ABE
330
A8B
100
AcDbEntity
  8
FRONT
  6
Continuous
 62
     4
100
AcDbSpline
210
0.0
220
0.0
230
1.0
 70
    24
 71
     1
 72
     4
 73
     2
 74
     0
 42
0.0000000001
 43
0.0000000001
 40
0.0
 40
0.0
 40
1.0
 40
1.0
 10
12.2699596882263
 20
-5.474819161767427
 30
0.0
 10
12.26612713977731
 20
-5.474189462667332
 30
0.0
  0
SPLINE
  5
ABF
330
A8B
100
AcDbEntity
  8
FRONT
  6
Continuous
 62
     4
100
AcDbSpline
210
0.0
220
0.0
230
1.0
 70
    24
 71
     1
 72
     4
 73
     2
 74
     0
 42
0.0000000001
 43
0.0000000001
 40
0.0
 40
0.0
 40
1.0
 40
1.0
 10
11.75466693733006
 20
-5.546759538624929
 30
0.0
 10
11.77084472479986
 20
-5.637701490563197
 30
0.0
  0
SPLINE
  5
AC0
330
A8B
100
AcDbEntity
  8
FRONT
  6
Continuous
 62
     4
100
AcDbSpline
210
0.0
220
0.0
230
1.0
 70
     8
 71
     3
 72
    12
 73
     8
 74
     0
 42
0.0000000001
 43
0.0000000001
 40
0.0
 40
0.0
 40
0.0
 40
0.0
 40
0.0001979715625893
 40
0.3804243462904076
 40
0.6884015213626393
 40
0.9998020284374039
 40
1.0
 40
1.0
 40
1.0
 40
1.0
 10
12.16152824195172
 20
-5.579846203347781
 30
0.0
 10
12.16145494845797
 20
-5.579914233221867
 30
0.0
 10
12.14800020764509
 20
-5.592402712335362
 30
0.0
 10
12.12460907423586
 20
-5.619318961954996
 30
0.0
 10
12.09413125687514
 20
-5.668815656959997
 30
0.0
 10
12.07735989436437
 20
-5.705022480727572
 30
0.0
 10
12.06954876176722
 20
-5.72442230320394
 30
0.0
 10
12.06951141172706
 20
-5.72451506620573
 30
0.0
  0
SPLINE
  5
AC1
330
A8B
100
AcDbEntity
  8
FRONT
  6
Continuous
 62
     4
100
AcDbSpline
210
0.0
220
0.0
230
1.0
 70
     8
 71
     3
 72
    11
 73
     7
 74
     0
 42
0.0000000001
 43
0.0000000001
 40
0.0
 40
0.0
 40
0.0
 40
0.0
 40
0.0003046676542752
 40
0.2859486271382446
 40
0.5715925864685599
 40
1.0
 40
1.0
 40
1.0
 40
1.0
 10
12.05492333661392
 20
-5.761440262542944
 30
0.0
 10
12.05485458948857
 20
-5.761512883702093
 30
0.0
 10
12.04890508266609
 20
-5.767797656751879
 30
0.0
 10
12.0368932920704
 20
-5.780516646112557
 30
0.0
 10
12.01590433567814
 20
-5.802847200540763
 30
0.0
 10
12.00092977263713
 20
-5.818873351337892
 30
0.0
 10
11.99195171433706
 20
-5.82851593948345
 30
0.0
  0
SPLINE
  5
AC2
330
A8B
100
AcDbEntity
  8
FRONT
  6
Continuous
 62
     4
100
AcDbSpline
210
0.0
220
0.0
230
1.0
 70
     8
 71
     3
 72
    10
 73
     6
 74
     0
 42
0.0000000001
 43
0.0000000001
 40
0.0
 40
0.0
 40
0.0
 40
0.0
 40
0.3783609825527917
 40
0.8357001481048397
 40
1.0
 40
1.0
 40
1.0
 40
1.0
 10
11.92547454029552
 20
-4.97636464574548
 30
0.0
 10
11.92640289606277
 20
-5.008713239544544
 30
0.0
 10
11.9475704542029
 20
-5.078030220539246
 30
0.0
 10
12.02773237930664
 20
-5.158970478124096
 30
0.0
 10
12.09728872776178
 20
-5.203611051795411
 30
0.0
 10
12.11721712142133
 20
-5.215153759323888
 30
0.0
  0
SPLINE
  5
AC3
330
A8B
100
AcDbEntity
  8
FRONT
  6
Continuous
 62
     4
100
AcDbSpline
210
0.0
220
0.0
230
1.0
 70
    24
 71
     1
 72
     4
 73
     2
 74
     0
 42
0.0000000001
 43
0.0000000001
 40
0.0
 40
0.0
 40
1.0
 40
1.0
 10
11.99195171433702
 20
-5.828515939483446
 30
0.0
 10
12.03715635432748
 20
-5.830493677100303
 30
0.0
  0
SPLINE
  5
AC4
330
A8B
100
AcDbEntity
  8
FRONT
  6
Continuous
 62
     4
100
AcDbSpline
210
0.0
220
0.0
230
1.0
 70
    24
 71
     1
 72
     4
 73
     2
 74
     0
 42
0.0000000001
 43
0.0000000001
 40
0.0
 40
0.0
 40
1.0
 40
1.0
 10
11.83901267894153
 20
-5.566122727821471
 30
0.0
 10
11.9479686051097
 20
-5.385050716987656
 30
0.0
  0
SPLINE
  5
AC5
330
A8B
100
AcDbEntity
  8
FRONT
  6
Continuous
 62
     4
100
AcDbSpline
210
0.0
220
0.0
230
1.0
 70
    24
 71
     1
 72
     4
 73
     2
 74
     0
 42
0.0000000001
 43
0.0000000001
 40
0.0
 40
0.0
 40
1.0
 40
1.0
 10
11.9479686051097
 20
-5.385050716987656
 30
0.0
 10
12.05195883253294
 20
-5.282066276975115
 30
0.0
  0
SPLINE
  5
AC6
330
A8B
100
AcDbEntity
  8
FRONT
  6
Continuous
 62
     4
100
AcDbSpline
210
0.0
220
0.0
230
1.0
 70
     8
 71
     3
 72
    12
 73
     8
 74
     0
 42
0.0000000001
 43
0.0000000001
 40
0.0
 40
0.0
 40
0.0
 40
0.0
 40
0.2440298709825522
 40
0.488120310074948
 40
0.7306421972591243
 40
0.9701993202335991
 40
1.0
 40
1.0
 40
1.0
 40
1.0
 10
11.99195171433709
 20
-5.82851593948345
 30
0.0
 10
11.96562176469131
 20
-5.827267267325022
 30
0.0
 10
11.91614572163951
 20
-5.817153042582487
 30
0.0
 10
11.84798307522928
 20
-5.777355599814407
 30
0.0
 10
11.79694752140735
 20
-5.718879229510209
 30
0.0
 10
11.77656470249855
 20
-5.668220081294727
 30
0.0
 10
11.77135854082036
 20
-5.640760675661914
 30
0.0
 10
11.77084472479986
 20
-5.637701490563109
 30
0.0
  0
SPLINE
  5
AC7
330
A8B
100
AcDbEntity
  8
FRONT
  6
Continuous
 62
     4
100
AcDbSpline
210
0.0
220
0.0
230
1.0
 70
     8
 71
     3
 72
    12
 73
     8
 74
     0
 42
0.0000000001
 43
0.0000000001
 40
0.0
 40
0.0
 40
0.0
 40
0.0
 40
0.2494158432111992
 40
0.4988262431130359
 40
0.7483784991253286
 40
0.9306372409059042
 40
1.0
 40
1.0
 40
1.0
 40
1.0
 10
12.26612713977725
 20
-5.474189462667368
 30
0.0
 10
12.24074389915803
 20
-5.470905762207362
 30
0.0
 10
12.19300726095426
 20
-5.45734271395117
 30
0.0
 10
12.12696856456717
 20
-5.413990106048153
 30
0.0
 10
12.08152368192698
 20
-5.359081947772208
 30
0.0
 10
12.0601917046491
 20
-5.312655749461065
 30
0.0
 10
12.05351014507608
 20
-5.288741533352951
 30
0.0
 10
12.05195883253294
 20
-5.282066276975186
 30
0.0
  0
SPLINE
  5
AC8
330
A8B
100
AcDbEntity
  8
FRONT
  6
Continuous
 62
     4
100
AcDbSpline
210
0.0
220
0.0
230
1.0
 70
     8
 71
     3
 72
    12
 73
     8
 74
     0
 42
0.0000000001
 43
0.0000000001
 40
0.0
 40
0.0
 40
0.0
 40
0.0
 40
0.2310224464948759
 40
0.4620128681126269
 40
0.700559328220569
 40
0.9585437245442095
 40
1.0
 40
1.0
 40
1.0
 40
1.0
 10
12.39802525781044
 20
-4.715335514294038
 30
0.0
 10
12.33170953226865
 20
-4.714864780624963
 30
0.0
 10
12.21155122598614
 20
-4.724956838763256
 30
0.0
 10
12.06026597347468
 20
-4.778355069166565
 30
0.0
 10
11.95757756141464
 20
-4.859331154412664
 30
0.0
 10
11.92685169980244
 20
-4.930597414275522
 30
0.0
 10
11.92538238415322
 20
-4.970764610147099
 30
0.0
 10
11.92547454029552
 20
-4.97636464574548
 30
0.0
  0
LINE
  5
AC9
330
A8B
100
AcDbEntity
  8
FRONT
  6
Continuous
 62
     4
100
AcDbLine
 10
15.84223636732298
 20
-3.792713428712794
 30
0.0
 11
15.84224378306065
 21
-3.174912246999863
 31
0.0
  0
LINE
  5
ACA
330
A8B
100
AcDbEntity
  8
FRONT
  6
Continuous
 62
     4
100
AcDbLine
 10
17.89827503693186
 20
-4.305849194799658
 30
0.0
 11
17.5908596611797
 21
-2.933128552700321
 31
0.0
  0
ELLIPSE
  5
ACB
330
A8B
100
AcDbEntity
  8
FRONT
  6
Continuous
 62
     4
100
AcDbEllipse
 10
15.54074239609756
 20
-0.0033845369197216
 30
0.0
 11
-0.0787240753221909
 21
-5.634958844023342
 31
0.0
210
0.0
220
0.0
230
0.9999999999999998
 40
0.0848761530590921
 41
0.8344445634990043
 42
0.9971121243690364
  0
ELLIPSE
  5
ACC
330
A8B
100
AcDbEntity
  8
FRONT
  6
Continuous
 62
     4
100
AcDbEllipse
 10
14.84592289431094
 20
-3.161093469702696
 30
0.0
 11
-0.7939253072066414
 21
0.4238898519389809
 31
0.0
210
0.0
220
0.0
230
1.0
 40
0.9833059182791441
 41
3.141592653589792
 42
6.283185307179584
  0
ELLIPSE
  5
ACD
330
A8B
100
AcDbEntity
  8
FRONT
  6
Continuous
 62
     4
100
AcDbEllipse
 10
14.82057983206995
 20
-3.208559806495621
 30
0.0
 11
-0.6124566485468032
 21
0.3270007338409036
 31
0.0
210
0.0
220
0.0
230
1.0
 40
0.9833059182791558
 41
0.0
 42
6.283185307179584
  0
ELLIPSE
  5
ACE
330
A8B
100
AcDbEntity
  8
FRONT
  6
Continuous
 62
     4
100
AcDbEllipse
 10
13.53332915049316
 20
-0.0034367749653255
 30
0.0
 11
-0.0799385486845723
 21
-5.721889020223127
 31
0.0
210
0.0
220
0.0
230
0.9999999999999998
 40
0.0848761529690107
 41
0.8609885795557556
 42
1.010813097306145
  0
ELLIPSE
  5
ACF
330
A8B
100
AcDbEntity
  8
FRONT
  6
Continuous
 62
     4
100
AcDbEllipse
 10
14.84592289431431
 20
-3.161093469702228
 30
0.0
 11
-0.793925307234311
 21
0.42388985189299
 31
0.0
210
0.0
220
0.0
230
1.0
 40
0.9833059182785405
 41
0.0
 42
1.217655899238259
  0
ELLIPSE
  5
AD0
330
A8B
100
AcDbEntity
  8
FRONT
  6
Continuous
 62
     4
100
AcDbEllipse
 10
14.80294988243549
 20
-3.241579854311311
 30
0.0
 11
-0.7939252851528728
 21
0.4238898401648104
 31
0.0
210
0.0
220
0.0
230
1.0
 40
0.9833059182791334
 41
3.193165641446312
 42
5.213279965006496
  0
LINE
  5
AD1
330
A8B
100
AcDbEntity
  8
FRONT
  6
Continuous
 62
     4
100
AcDbLine
 10
12.59147932455181
 20
-5.148581112793888
 30
0.0
 11
16.67361660422962
 21
-5.134616718352519
 31
0.0
  0
ELLIPSE
  5
AD2
330
A8B
100
AcDbEntity
  8
FRONT
  6
Continuous
 62
     4
100
AcDbEllipse
 10
14.84592289572717
 20
-3.161093470714305
 30
0.0
 11
-0.7939253088795834
 21
0.4238898451415228
 31
0.0
210
0.0
220
0.0
230
0.9999999999999998
 40
0.9833059192021876
 41
2.862822081785346
 42
3.141592646178711
  0
ELLIPSE
  5
AD3
330
A8B
100
AcDbEntity
  8
FRONT
  6
Continuous
 62
     4
100
AcDbEllipse
 10
26.03145212602744
 20
0.4201256460465415
 30
0.0
 11
-60.22774572573949
 21
0.8391642046853387
 31
0.0
210
0.0
220
0.0
230
1.0
 40
0.0733360947234748
 41
1.395961454238489
 42
1.401822529636017
  0
ELLIPSE
  5
AD4
330
A8B
100
AcDbEntity
  8
FRONT
  6
Continuous
 62
     4
100
AcDbEllipse
 10
-2.102243007827921
 20
0.5190125394426035
 30
0.0
 11
-74.39203540301211
 21
1.036502535843046
 31
0.0
210
0.0
220
0.0
230
1.0
 40
0.0733366707427299
 41
1.786532921110053
 42
1.835644438831914
  0
SPLINE
  5
AD5
330
A8B
100
AcDbEntity
  8
FRONT
  6
Continuous
 62
     4
100
AcDbSpline
210
0.0
220
0.0
230
1.0
 70
    24
 71
     1
 72
     4
 73
     2
 74
     0
 42
0.0000000001
 43
0.0000000001
 40
0.0
 40
0.0
 40
1.0
 40
1.0
 10
17.59489872014192
 20
-5.975264142052814
 30
0.0
 10
14.60613712230076
 20
-5.930601946215396
 30
0.0
  0
SPLINE
  5
AD6
330
A8B
100
AcDbEntity
  8
FRONT
  6
Continuous
 62
     4
100
AcDbSpline
210
0.0
220
0.0
230
1.0
 70
     8
 71
     2
 72
     6
 73
     3
 74
     0
 42
0.0000000001
 43
0.0000000001
 40
0.0
 40
0.0
 40
0.0
 40
1.0
 40
1.0
 40
1.0
 10
17.53382959937809
 20
-5.939844692875301
 30
0.0
 10
16.07823206326433
 20
-5.926820755708295
 30
0.0
 10
14.62245185943817
 20
-5.87714135957826
 30
0.0
  0
SPLINE
  5
AD7
330
A8B
100
AcDbEntity
  8
FRONT
  6
Continuous
 62
     4
100
AcDbSpline
210
0.0
220
0.0
230
1.0
 70
    24
 71
     1
 72
     4
 73
     2
 74
     0
 42
0.0000000001
 43
0.0000000001
 40
0.0
 40
0.0
 40
1.0
 40
1.0
 10
15.13868294684773
 20
-5.711454223476931
 30
0.0
 10
17.25016942408504
 20
-5.752170042241942
 30
0.0
  0
SPLINE
  5
AD8
330
A8B
100
AcDbEntity
  8
FRONT
  6
Continuous
 62
     4
100
AcDbSpline
210
0.0
220
0.0
230
1.0
 70
     8
 71
     2
 72
     6
 73
     3
 74
     0
 42
0.0000000001
 43
0.0000000001
 40
0.0
 40
0.0
 40
0.0
 40
1.0
 40
1.0
 40
1.0
 10
17.29538407867861
 20
-5.788382807545392
 30
0.0
 10
16.20626920503309
 20
-5.775330117086896
 30
0.0
 10
15.12493514742535
 20
-5.739186742282312
 30
0.0
  0
SPLINE
  5
AD9
330
A8B
100
AcDbEntity
  8
FRONT
  6
Continuous
 62
     4
100
AcDbSpline
210
0.0
220
0.0
230
1.0
 70
     8
 71
     2
 72
     6
 73
     3
 74
     0
 42
0.0000000001
 43
0.0000000001
 40
0.0
 40
0.0
 40
0.0
 40
1.0
 40
1.0
 40
1.0
 10
17.31289606147389
 20
-5.809345576655007
 30
0.0
 10
16.21894412271205
 20
-5.784442697072787
 30
0.0
 10
15.12493514742539
 20
-5.739186742282306
 30
0.0
  0
LINE
  5
ADA
330
A8B
100
AcDbEntity
  8
FRONT
  6
Continuous
 62
     4
100
AcDbLine
 10
13.21506101770313
 20
-5.031717125328196
 30
0.0
 11
13.70168904333385
 21
-5.030052442043299
 31
0.0
  0
LINE
  5
ADB
330
A8B
100
AcDbEntity
  8
FRONT
  6
Continuous
 62
     4
100
AcDbLine
 10
12.59831180396925
 20
-5.033826934161636
 30
0.0
 11
13.21506101770313
 21
-5.031717125328196
 31
0.0
  0
LINE
  5
ADC
330
A8B
100
AcDbEntity
  8
FRONT
  6
Continuous
 62
     4
100
AcDbLine
 10
12.52411245174376
 20
-5.148811565010388
 30
0.0
 11
12.59147932455181
 21
-5.148581112793888
 31
0.0
  0
LINE
  5
ADD
330
A8B
100
AcDbEntity
  8
FRONT
  6
Continuous
 62
     4
100
AcDbLine
 10
13.73039490001062
 20
-5.644465229015402
 30
0.0
 11
13.65251602410751
 21
-5.651687726725348
 31
0.0
  0
ELLIPSE
  5
ADE
330
A8B
100
AcDbEntity
  8
FRONT
  6
Continuous
 62
     4
100
AcDbEllipse
 10
14.19019065232725
 20
-5.217546069540356
 30
0.0
 11
-0.0261303380478747
 21
-0.4993167493651739
 31
0.0
210
0.0
220
0.0
230
1.0
 40
0.207227326156888
 41
0.293361878369899
 42
0.4309508045600884
  0
ELLIPSE
  5
ADF
330
A8B
100
AcDbEntity
  8
FRONT
  6
Continuous
 62
     4
100
AcDbEllipse
 10
35.35054063342625
 20
0.000151900276844
 30
0.0
 11
-66.41326335410838
 21
0.9269833922146549
 31
0.0
210
0.0
220
0.0
230
1.0
 40
0.0848785527739216
 41
1.232222219062653
 42
1.240685434065807
  0
ELLIPSE
  5
AE0
330
A8B
100
AcDbEntity
  8
FRONT
  6
Continuous
 62
     4
100
AcDbEllipse
 10
15.11920026906091
 20
-5.25552853925582
 30
0.0
 11
-0.0157629108455211
 21
-0.4997514551771808
 31
0.0
210
0.0
220
0.0
230
0.9999999999999998
 40
0.1634163455934212
 41
0.2596728804504972
 42
0.4271027027017509
  0
ELLIPSE
  5
AE1
330
A8B
100
AcDbEntity
  8
FRONT
  6
Continuous
 62
     4
100
AcDbEllipse
 10
26.03106406187677
 20
0.4200021500912944
 30
0.0
 11
-60.22680518323547
 21
0.8391789498204172
 31
0.0
210
0.0
220
0.0
230
1.0
 40
0.073335099090449
 41
1.368153266464279
 42
1.373756158617132
  0
ELLIPSE
  5
AE2
330
A8B
100
AcDbEntity
  8
FRONT
  6
Continuous
 62
     4
100
AcDbEllipse
 10
12.60004943919611
 20
-5.132529700220393
 30
0.0
 11
-0.000342083369458
 21
0.0999994148984049
 31
0.0
210
0.0
220
0.0
230
0.9999999999999998
 40
0.0873785520673491
 41
0.1609135457003019
 42
1.731709872424159
  0
SPLINE
  5
AE3
330
A8B
100
AcDbEntity
  8
FRONT
  6
Continuous
 62
     4
100
AcDbSpline
210
0.0
220
0.0
230
1.0
 70
     8
 71
     3
 72
    10
 73
     6
 74
     0
 42
0.0000000001
 43
0.0000000001
 40
0.0
 40
0.0
 40
0.0
 40
0.0
 40
0.2568958804124872
 40
0.5137917608271178
 40
1.0
 40
1.0
 40
1.0
 40
1.0
 10
14.6061371218886
 20
-5.930601824966093
 30
0.0
 10
14.60753377257093
 20
-5.926009260558598
 30
0.0
 10
14.61032728581661
 20
-5.916831653154844
 30
0.0
 10
14.61576516470299
 20
-5.898998421367481
 30
0.0
 10
14.61980695983203
 20
-5.885777952760061
 30
0.0
 10
14.62245185943814
 20
-5.87714135957826
 30
0.0
  0
SPLINE
  5
AE4
330
A8B
100
AcDbEntity
  8
FRONT
  6
Continuous
 62
     4
100
AcDbSpline
210
0.0
220
0.0
230
1.0
 70
    24
 71
     1
 72
     4
 73
     2
 74
     0
 42
0.0000000001
 43
0.0000000001
 40
0.0
 40
0.0
 40
1.0
 40
1.0
 10
13.65251602410751
 20
-5.651687726725348
 30
0.0
 10
13.57741475365825
 20
-5.65512213110166
 30
0.0
  0
SPLINE
  5
AE5
330
A8B
100
AcDbEntity
  8
FRONT
  6
Continuous
 62
     4
100
AcDbSpline
210
0.0
220
0.0
230
1.0
 70
     8
 71
     3
 72
    15
 73
    11
 74
     0
 42
0.0000000001
 43
0.0000000001
 40
0.0
 40
0.0
 40
0.0
 40
0.0
 40
0.140976339028535
 40
0.2892431856819297
 40
0.4121436114845082
 40
0.5144916745071848
 40
0.6168092444520747
 40
0.7567233522043856
 40
0.9739203035115163
 40
1.0
 40
1.0
 40
1.0
 40
1.0
 10
15.49450213479355
 20
-3.783439226602423
 30
0.0
 10
15.44981998562096
 20
-3.834784754789421
 30
0.0
 10
15.34586240619185
 20
-3.929717956575207
 30
0.0
 10
15.16411478532275
 20
-4.042164088828029
 30
0.0
 10
14.96509713276188
 20
-4.105578478492558
 30
0.0
 10
14.77588171470955
 20
-4.116965143829848
 30
0.0
 10
14.5865234857672
 20
-4.081240257906233
 30
0.0
 10
14.37534379397539
 20
-3.975845413349876
 30
0.0
 10
14.24980172860958
 20
-3.846984870652867
 30
0.0
 10
14.1867895891514
 20
-3.756804337707721
 30
0.0
 10
14.18025452780808
 20
-3.746989982441069
 30
0.0
  0
SPLINE
  5
AE6
330
A8B
100
AcDbEntity
  8
FRONT
  6
Continuous
 62
     4
100
AcDbSpline
210
0.0
220
0.0
230
1.0
 70
    24
 71
     1
 72
     4
 73
     2
 74
     0
 42
0.0000000001
 43
0.0000000001
 40
0.0
 40
0.0
 40
1.0
 40
1.0
 10
13.69211008638281
 20
-5.664088371972116
 30
0.0
 10
13.57741475365825
 20
-5.65512213110166
 30
0.0
  0
SPLINE
  5
AE7
330
A8B
100
AcDbEntity
  8
FRONT
  6
Continuous
 62
     4
100
AcDbSpline
210
0.0
220
0.0
230
1.0
 70
    24
 71
     1
 72
     4
 73
     2
 74
     0
 42
0.0000000001
 43
0.0000000001
 40
0.0
 40
0.0
 40
1.0
 40
1.0
 10
14.19509791486686
 20
-5.697096415954096
 30
0.0
 10
13.67240432655448
 20
-5.670248142954241
 30
0.0
  0
SPLINE
  5
AE8
330
A8B
100
AcDbEntity
  8
FRONT
  6
Continuous
 62
     4
100
AcDbSpline
210
0.0
220
0.0
230
1.0
 70
    24
 71
     1
 72
     4
 73
     2
 74
     0
 42
0.0000000001
 43
0.0000000001
 40
0.0
 40
0.0
 40
1.0
 40
1.0
 10
14.60613712230153
 20
-5.930601946215417
 30
0.0
 10
13.9484959168259
 20
-5.910374237639902
 30
0.0
  0
SPLINE
  5
AE9
330
A8B
100
AcDbEntity
  8
FRONT
  6
Continuous
 62
     4
100
AcDbSpline
210
0.0
220
0.0
230
1.0
 70
    24
 71
     1
 72
     4
 73
     2
 74
     0
 42
0.0000000001
 43
0.0000000001
 40
0.0
 40
0.0
 40
1.0
 40
1.0
 10
13.73039490001062
 20
-5.644465229015402
 30
0.0
 10
14.20967333082538
 20
-5.673471778213071
 30
0.0
  0
SPLINE
  5
AEA
330
A8B
100
AcDbEntity
  8
FRONT
  6
Continuous
 62
     4
100
AcDbSpline
210
0.0
220
0.0
230
1.0
 70
    24
 71
     1
 72
     4
 73
     2
 74
     0
 42
0.0000000001
 43
0.0000000001
 40
0.0
 40
0.0
 40
1.0
 40
1.0
 10
14.19509791486686
 20
-5.697096415954096
 30
0.0
 10
13.69211008638281
 20
-5.664088371972116
 30
0.0
  0
SPLINE
  5
AEB
330
A8B
100
AcDbEntity
  8
FRONT
  6
Continuous
 62
     4
100
AcDbSpline
210
0.0
220
0.0
230
1.0
 70
     8
 71
     3
 72
    11
 73
     7
 74
     0
 42
0.0000000001
 43
0.0000000001
 40
0.0
 40
0.0
 40
0.0
 40
0.0
 40
0.000063183656549
 40
0.6610072159485929
 40
0.9999368181050073
 40
1.0
 40
1.0
 40
1.0
 40
1.0
 10
15.12493514742537
 20
-5.739186742282305
 30
0.0
 10
15.12483521826678
 20
-5.739182978870811
 30
0.0
 10
14.91946003926739
 20
-5.731448386494392
 30
0.0
 10
14.60906890037243
 20
-5.718477412827605
 30
0.0
 10
14.29980413634301
 20
-5.702773299872545
 30
0.0
 10
14.1951977682056
 20
-5.697101829728066
 30
0.0
 10
14.19509791485794
 20
-5.697096415953659
 30
0.0
  0
SPLINE
  5
AEC
330
A8B
100
AcDbEntity
  8
FRONT
  6
Continuous
 62
     4
100
AcDbSpline
210
0.0
220
0.0
230
1.0
 70
    24
 71
     1
 72
     4
 73
     2
 74
     0
 42
0.0000000001
 43
0.0000000001
 40
0.0
 40
0.0
 40
1.0
 40
1.0
 10
14.20967333286792
 20
-5.673471778307494
 30
0.0
 10
15.13868294684773
 20
-5.711454223476938
 30
0.0
  0
SPLINE
  5
AED
330
A8B
100
AcDbEntity
  8
FRONT
  6
Continuous
 62
     4
100
AcDbSpline
210
0.0
220
0.0
230
1.0
 70
    24
 71
     1
 72
     4
 73
     2
 74
     0
 42
0.0000000001
 43
0.0000000001
 40
0.0
 40
0.0
 40
1.0
 40
1.0
 10
13.67240432655448
 20
-5.670248142954241
 30
0.0
 10
13.61429623476742
 20
-5.667122247227887
 30
0.0
  0
LINE
  5
AEE
330
A8B
100
AcDbEntity
  8
FRONT
  6
Continuous
 62
     4
100
AcDbLine
 10
17.94014373270267
 20
-4.696380917179419
 30
0.0
 11
17.94014637934187
 21
-4.697134583006601
 31
0.0
  0
LINE
  5
AEF
330
A8B
100
AcDbEntity
  8
FRONT
  6
Continuous
 62
     4
100
AcDbLine
 10
17.9296204316509
 20
-4.690827415632082
 30
0.0
 11
17.93253772748869
 21
-5.521566331524031
 31
0.0
  0
LINE
  5
AF0
330
A8B
100
AcDbEntity
  8
FRONT
  6
Continuous
 62
     4
100
AcDbLine
 10
17.9955352574119
 20
-4.703931962073951
 30
0.0
 11
17.99860264302532
 21
-5.577410944240646
 31
0.0
  0
LINE
  5
AF1
330
A8B
100
AcDbEntity
  8
FRONT
  6
Continuous
 62
     4
100
AcDbLine
 10
17.58943827622755
 20
-4.872056962875418
 30
0.0
 11
17.58957197281752
 21
-4.91012885081491
 31
0.0
  0
LINE
  5
AF2
330
A8B
100
AcDbEntity
  8
FRONT
  6
Continuous
 62
     4
100
AcDbLine
 10
17.58943827622755
 20
-4.872056962875418
 30
0.0
 11
17.86767576873332
 21
-4.704849480079047
 31
0.0
  0
LINE
  5
AF3
330
A8B
100
AcDbEntity
  8
FRONT
  6
Continuous
 62
     4
100
AcDbLine
 10
17.87708664776414
 20
-4.686615922447828
 30
0.0
 11
17.87984322178274
 21
-5.471587155772794
 31
0.0
  0
LINE
  5
AF4
330
A8B
100
AcDbEntity
  8
FRONT
  6
Continuous
 62
     4
100
AcDbLine
 10
17.94014637934187
 20
-4.697134583006601
 30
0.0
 11
17.94307446467377
 21
-5.53094595129999
 31
0.0
  0
LINE
  5
AF5
330
A8B
100
AcDbEntity
  8
FRONT
  6
Continuous
 62
     4
100
AcDbLine
 10
17.90527073750188
 20
-4.337218884751768
 30
0.0
 11
17.82020488840544
 21
-4.404730119587552
 31
0.0
  0
LINE
  5
AF6
330
A8B
100
AcDbEntity
  8
FRONT
  6
Continuous
 62
     4
100
AcDbLine
 10
17.82020488840544
 20
-4.404730119587552
 30
0.0
 11
17.86767576873332
 21
-4.704849480079047
 31
0.0
  0
LINE
  5
AF7
330
A8B
100
AcDbEntity
  8
FRONT
  6
Continuous
 62
     4
100
AcDbLine
 10
17.57701616247765
 20
-4.794187397985162
 30
0.0
 11
17.48879939540238
 21
-4.241189622687848
 31
0.0
  0
LINE
  5
AF8
330
A8B
100
AcDbEntity
  8
FRONT
  6
Continuous
 62
     4
100
AcDbLine
 10
17.58943827622755
 20
-4.872056962875418
 30
0.0
 11
17.57701616247765
 21
-4.794187397985162
 31
0.0
  0
ELLIPSE
  5
AF9
330
A8B
100
AcDbEntity
  8
FRONT
  6
Continuous
 62
     4
100
AcDbEllipse
 10
17.28179924891806
 20
-4.836410083749438
 30
0.0
 11
-0.2646417690684293
 21
0.1412966173143831
 31
0.0
210
0.0
220
0.0
230
1.0
 40
0.9833059182785888
 41
2.071687311421135
 42
3.782109978374953
  0
ELLIPSE
  5
AFA
330
A8B
100
AcDbEntity
  8
FRONT
  6
Continuous
 62
     4
100
AcDbEllipse
 10
18.78976301780029
 20
-4.225196264847973
 30
0.0
 11
-0.9665041965168652
 21
0.3765818908141549
 31
0.0
210
0.0
220
0.0
230
0.9999999999999998
 40
0.8498862410049405
 41
0.6298734289431917
 42
0.7760221204517431
  0
ELLIPSE
  5
AFB
330
A8B
100
AcDbEntity
  8
FRONT
  6
Continuous
 62
     4
100
AcDbEllipse
 10
17.29036936377426
 20
-4.820358671225433
 30
0.0
 11
-0.1764278450464169
 21
0.094197746298221
 31
0.0
210
0.0
220
0.0
230
1.0
 40
0.9833059187880415
 41
3.524855636639208
 42
3.716574258287971
  0
ELLIPSE
  5
AFC
330
A8B
100
AcDbEntity
  8
FRONT
  6
Continuous
 62
     4
100
AcDbEllipse
 10
17.43752785348189
 20
-3.994735409268031
 30
0.0
 11
-0.6378505702784448
 21
2.576726862152773
 31
0.0
210
0.0
220
0.0
230
1.0
 40
0.1420514033894129
 41
4.544013824159174
 42
4.556279548729346
  0
ELLIPSE
  5
AFD
330
A8B
100
AcDbEntity
  8
FRONT
  6
Continuous
 62
     4
100
AcDbEllipse
 10
17.29558226924102
 20
-5.116466969333043
 30
0.0
 11
-0.0003420833691217
 21
0.0999994148939525
 31
0.0
210
0.0
220
0.0
230
1.0
 40
0.0873785520668444
 41
0.1609135456945704
 42
1.732484486224235
  0
ELLIPSE
  5
AFE
330
A8B
100
AcDbEntity
  8
FRONT
  6
Continuous
 62
     4
100
AcDbEllipse
 10
17.91251036989776
 20
1.921767689627283
 30
0.0
 11
-0.2231549673139982
 21
7.545048101838847
 31
0.0
210
0.0
220
0.0
230
1.0
 40
0.1565419392169584
 41
2.98028837913766
 42
3.026543021602508
  0
ELLIPSE
  5
AFF
330
A8B
100
AcDbEntity
  8
FRONT
  6
Continuous
 62
     4
100
AcDbEllipse
 10
17.74265415408251
 20
-4.702133472814753
 30
0.0
 11
-0.1999999433238031
 21
-0.0001525554653821
 31
0.0
210
0.0
220
0.0
230
1.0
 40
0.1775485647405439
 41
3.300064853530633
 42
3.503329043719288
  0
ELLIPSE
  5
B00
330
A8B
100
AcDbEntity
  8
FRONT
  6
Continuous
 62
     4
100
AcDbEllipse
 10
17.58558627712221
 20
-4.778135985406353
 30
0.0
 11
-0.0987513760100169
 21
-0.0157532770022912
 31
0.0
210
0.0
220
0.0
230
1.0
 40
0.1458931740712325
 41
0.1778612733484125
 42
1.460656485136271
  0
ELLIPSE
  5
B01
330
A8B
100
AcDbEntity
  8
FRONT
  6
Continuous
 62
     4
100
AcDbEllipse
 10
67.64350291379154
 20
34.55023588267693
 30
0.0
 11
-52.91333538115097
 21
-41.25130454679958
 31
0.0
210
0.0
220
0.0
230
1.0
 40
0.0120306976498371
 41
0.3393916290940456
 42
0.3422858615911428
  0
ELLIPSE
  5
B02
330
A8B
100
AcDbEntity
  8
FRONT
  6
Continuous
 62
     4
100
AcDbEllipse
 10
17.29036936356746
 20
-4.820358671193344
 30
0.0
 11
-0.1764278461941974
 21
0.0941977445624821
 31
0.0
210
0.0
220
0.0
230
0.9999999999999998
 40
0.9833059182720552
 41
2.071687309673813
 42
2.454396003569158
  0
ELLIPSE
  5
B03
330
A8B
100
AcDbEntity
  8
FRONT
  6
Continuous
 62
     4
100
AcDbEllipse
 10
17.29036936356451
 20
-4.820358671172773
 30
0.0
 11
-0.1764278460477521
 21
0.0941977448654515
 31
0.0
210
0.0
220
0.0
230
1.0
 40
0.9833059182873423
 41
2.454396005236844
 42
3.524855627886243
  0
ELLIPSE
  5
B04
330
A8B
100
AcDbEntity
  8
FRONT
  6
Continuous
 62
     4
100
AcDbEllipse
 10
17.80753817497214
 20
1.984604698993624
 30
0.0
 11
-0.0579833643088966
 21
6.690109145654452
 31
0.0
210
0.0
220
0.0
230
1.0
 40
0.0234081852915922
 41
3.155384266539653
 42
3.216552275148325
  0
ELLIPSE
  5
B05
330
A8B
100
AcDbEntity
  8
FRONT
  6
Continuous
 62
     4
100
AcDbEllipse
 10
69.31113081533111
 20
35.56042935518711
 30
0.0
 11
-54.58145203794352
 21
-42.26950703433849
 31
0.0
210
0.0
220
0.0
230
1.0
 40
0.0166389419643796
 41
0.3320360213461808
 42
0.3350067550538322
  0
ELLIPSE
  5
B06
330
A8B
100
AcDbEntity
  8
FRONT
  6
Continuous
 62
     4
100
AcDbEllipse
 10
17.74265577240787
 20
-4.702887859456103
 30
0.0
 11
-0.1999987668190257
 21
-0.0007023332506881
 31
0.0
210
0.0
220
0.0
230
1.0
 40
0.1608116416752289
 41
3.299567109250761
 42
3.504047308224818
  0
SPLINE
  5
B07
330
A8B
100
AcDbEntity
  8
FRONT
  6
Continuous
 62
     4
100
AcDbSpline
210
0.0
220
0.0
230
1.0
 70
     8
 71
     2
 72
     6
 73
     3
 74
     0
 42
0.0000000001
 43
0.0000000001
 40
0.0
 40
0.0
 40
0.0
 40
1.0
 40
1.0
 40
1.0
 10
17.94014476251969
 20
-4.696380196294287
 30
0.0
 10
17.93820990995539
 20
-4.62484467721253
 30
0.0
 10
17.91370298271945
 20
-4.559914968743824
 30
0.0
  0
SPLINE
  5
B08
330
A8B
100
AcDbEntity
  8
FRONT
  6
Continuous
 62
     4
100
AcDbSpline
210
0.0
220
0.0
230
1.0
 70
     8
 71
     3
 72
    11
 73
     7
 74
     0
 42
0.0000000001
 43
0.0000000001
 40
0.0
 40
0.0
 40
0.0
 40
0.0
 40
0.2797385983135209
 40
0.5594467342961888
 40
0.7797158294879042
 40
1.0
 40
1.0
 40
1.0
 40
1.0
 10
17.5948987190443
 20
-5.975264142050702
 30
0.0
 10
17.65745563319629
 20
-5.974483801919768
 30
0.0
 10
17.77036020044778
 20
-5.950887920362924
 30
0.0
 10
17.90567908297141
 20
-5.850401171714425
 30
0.0
 10
17.98283180302257
 20
-5.717078973008215
 30
0.0
 10
17.99830296929953
 20
-5.626215792883595
 30
0.0
 10
17.99860264302532
 20
-5.577410944240646
 30
0.0
  0
SPLINE
  5
B09
330
A8B
100
AcDbEntity
  8
FRONT
  6
Continuous
 62
     4
100
AcDbSpline
210
0.0
220
0.0
230
1.0
 70
    24
 71
     1
 72
     4
 73
     2
 74
     0
 42
0.0000000001
 43
0.0000000001
 40
0.0
 40
0.0
 40
1.0
 40
1.0
 10
17.93253772748869
 20
-5.521566331524028
 30
0.0
 10
17.87984322178274
 20
-5.471587155772789
 30
0.0
  0
SPLINE
  5
B0A
330
A8B
100
AcDbEntity
  8
FRONT
  6
Continuous
 62
     4
100
AcDbSpline
210
0.0
220
0.0
230
1.0
 70
     8
 71
     2
 72
     6
 73
     3
 74
     0
 42
0.0000000001
 43
0.0000000001
 40
0.0
 40
0.0
 40
0.0
 40
1.0
 40
1.0
 40
1.0
 10
17.53382959937809
 20
-5.939844692875301
 30
0.0
 10
17.5478348404841
 20
-5.948879112898527
 30
0.0
 10
17.56310864296497
 20
-5.957732756903237
 30
0.0
  0
SPLINE
  5
B0B
330
A8B
100
AcDbEntity
  8
FRONT
  6
Continuous
 62
     4
100
AcDbSpline
210
0.0
220
0.0
230
1.0
 70
    24
 71
     1
 72
     4
 73
     2
 74
     0
 42
0.0000000001
 43
0.0000000001
 40
0.0
 40
0.0
 40
1.0
 40
1.0
 10
17.9387785253627
 20
-5.526976438079115
 30
0.0
 10
17.93253772748869
 20
-5.521566331524034
 30
0.0
  0
SPLINE
  5
B0C
330
A8B
100
AcDbEntity
  8
FRONT
  6
Continuous
 62
     4
100
AcDbSpline
210
0.0
220
0.0
230
1.0
 70
     8
 71
     2
 72
     6
 73
     3
 74
     0
 42
0.0000000001
 43
0.0000000001
 40
0.0
 40
0.0
 40
0.0
 40
1.0
 40
1.0
 40
1.0
 10
17.56310862460081
 20
-5.957732669274165
 30
0.0
 10
17.57839777531656
 20
-5.966594955161369
 30
0.0
 10
17.59489682987357
 20
-5.975263315085282
 30
0.0
  0
SPLINE
  5
B0D
330
A8B
100
AcDbEntity
  8
FRONT
  6
Continuous
 62
     4
100
AcDbSpline
210
0.0
220
0.0
230
1.0
 70
     8
 71
     2
 72
     6
 73
     3
 74
     0
 42
0.0000000001
 43
0.0000000001
 40
0.0
 40
0.0
 40
0.0
 40
1.0
 40
1.0
 40
1.0
 10
17.92970126088954
 20
-4.689423949520302
 30
0.0
 10
17.93325498333023
 20
-4.621665100236254
 30
0.0
 10
17.91370204730798
 20
-4.559913475421751
 30
0.0
  0
SPLINE
  5
B0E
330
A8B
100
AcDbEntity
  8
FRONT
  6
Continuous
 62
     4
100
AcDbSpline
210
0.0
220
0.0
230
1.0
 70
     8
 71
     2
 72
     6
 73
     3
 74
     0
 42
0.0000000001
 43
0.0000000001
 40
0.0
 40
0.0
 40
0.0
 40
1.0
 40
1.0
 40
1.0
 10
17.48753914728162
 20
-4.842620158601206
 30
0.0
 10
17.49069400018172
 20
-4.813353923430181
 30
0.0
 10
17.48589383548049
 20
-4.784463510063917
 30
0.0
  0
SPLINE
  5
B0F
330
A8B
100
AcDbEntity
  8
FRONT
  6
Continuous
 62
     4
100
AcDbSpline
210
0.0
220
0.0
230
1.0
 70
     8
 71
     2
 72
     6
 73
     3
 74
     0
 42
0.0000000001
 43
0.0000000001
 40
0.0
 40
0.0
 40
0.0
 40
1.0
 40
1.0
 40
1.0
 10
17.9296204316509
 20
-4.690827415632076
 30
0.0
 10
17.90811236517729
 20
-4.654740894371965
 30
0.0
 10
17.89274962395551
 20
-4.643583112873108
 30
0.0
  0
SPLINE
  5
B10
330
A8B
100
AcDbEntity
  8
FRONT
  6
Continuous
 62
     4
100
AcDbSpline
210
0.0
220
0.0
230
1.0
 70
    24
 71
     1
 72
     4
 73
     2
 74
     0
 42
0.0000000001
 43
0.0000000001
 40
0.0
 40
0.0
 40
1.0
 40
1.0
 10
17.28962519580169
 20
-5.781691499550616
 30
0.0
 10
17.29561436988828
 20
-5.788108146748303
 30
0.0
  0
SPLINE
  5
B11
330
A8B
100
AcDbEntity
  8
FRONT
  6
Continuous
 62
     4
100
AcDbSpline
210
0.0
220
0.0
230
1.0
 70
    24
 71
     1
 72
     4
 73
     2
 74
     0
 42
0.0000000001
 43
0.0000000001
 40
0.0
 40
0.0
 40
1.0
 40
1.0
 10
17.9955352574119
 20
-4.703931962073951
 30
0.0
 10
17.99520039268492
 20
-4.657821589441176
 30
0.0
  0
SPLINE
  5
B12
330
A8B
100
AcDbEntity
  8
FRONT
  6
Continuous
 62
     4
100
AcDbSpline
210
0.0
220
0.0
230
1.0
 70
     8
 71
     3
 72
    14
 73
    10
 74
     0
 42
0.0000000001
 43
0.0000000001
 40
0.0
 40
0.0
 40
0.0
 40
0.0
 40
0.1248883957440875
 40
0.2497714879519448
 40
0.3746545211303977
 40
0.4995231745160237
 40
0.6243751603251047
 40
0.7494560896066159
 40
1.0
 40
1.0
 40
1.0
 40
1.0
 10
17.87984322178273
 20
-5.471587155772789
 30
0.0
 10
17.87987268926037
 20
-5.50489258238397
 30
0.0
 10
17.87177012324012
 20
-5.568441189966804
 30
0.0
 10
17.83414334612334
 20
-5.657603560500879
 30
0.0
 10
17.77401488846159
 20
-5.731535238533902
 30
0.0
 10
17.6954628151493
 20
-5.785183731153777
 30
0.0
 10
17.60367529558672
 20
-5.815264208756982
 30
0.0
 10
17.47391022284451
 20
-5.813531480830889
 30
0.0
 10
17.37763835799498
 20
-5.813847709256805
 30
0.0
 10
17.31289606147389
 20
-5.809345576655006
 30
0.0
  0
SPLINE
  5
B13
330
A8B
100
AcDbEntity
  8
FRONT
  6
Continuous
 62
     4
100
AcDbSpline
210
0.0
220
0.0
230
1.0
 70
     8
 71
     2
 72
     6
 73
     3
 74
     0
 42
0.0000000001
 43
0.0000000001
 40
0.0
 40
0.0
 40
0.0
 40
1.0
 40
1.0
 40
1.0
 10
17.96624821359698
 20
-4.521740220909061
 30
0.0
 10
17.9945056831512
 20
-4.587389658473393
 30
0.0
 10
17.99520039268492
 20
-4.657821589442201
 30
0.0
  0
SPLINE
  5
B14
330
A8B
100
AcDbEntity
  8
FRONT
  6
Continuous
 62
     4
100
AcDbSpline
210
0.0
220
0.0
230
1.0
 70
    24
 71
     1
 72
     4
 73
     2
 74
     0
 42
0.0000000001
 43
0.0000000001
 40
0.0
 40
0.0
 40
1.0
 40
1.0
 10
17.89274962395551
 20
-4.643583112873108
 30
0.0
 10
17.87708664776414
 20
-4.686615922447828
 30
0.0
  0
SPLINE
  5
B15
330
A8B
100
AcDbEntity
  8
FRONT
  6
Continuous
 62
     4
100
AcDbSpline
210
0.0
220
0.0
230
1.0
 70
     8
 71
     2
 72
     6
 73
     3
 74
     0
 42
0.0000000001
 43
0.0000000001
 40
0.0
 40
0.0
 40
0.0
 40
1.0
 40
1.0
 40
1.0
 10
17.87578472966787
 20
-4.531787042132242
 30
0.0
 10
17.89175394076562
 20
-4.53831240951705
 30
0.0
 10
17.91370204730901
 20
-4.559913475424244
 30
0.0
  0
SPLINE
  5
B16
330
A8B
100
AcDbEntity
  8
FRONT
  6
Continuous
 62
     4
100
AcDbSpline
210
0.0
220
0.0
230
1.0
 70
    24
 71
     1
 72
     4
 73
     2
 74
     0
 42
0.0000000001
 43
0.0000000001
 40
0.0
 40
0.0
 40
1.0
 40
1.0
 10
17.9296204316509
 20
-4.690827415632076
 30
0.0
 10
17.92970126089028
 20
-4.689423949521914
 30
0.0
  0
SPLINE
  5
B17
330
A8B
100
AcDbEntity
  8
FRONT
  6
Continuous
 62
     4
100
AcDbSpline
210
0.0
220
0.0
230
1.0
 70
     8
 71
     2
 72
     6
 73
     3
 74
     0
 42
0.0000000001
 43
0.0000000001
 40
0.0
 40
0.0
 40
0.0
 40
1.0
 40
1.0
 40
1.0
 10
17.87984322178273
 20
-5.471587155772789
 30
0.0
 10
17.73244831207634
 20
-5.298438713033085
 30
0.0
 10
17.58957197281752
 20
-4.910128850814881
 30
0.0
  0
SPLINE
  5
B18
330
A8B
100
AcDbEntity
  8
FRONT
  6
Continuous
 62
     4
100
AcDbSpline
210
0.0
220
0.0
230
1.0
 70
    24
 71
     1
 72
     4
 73
     2
 74
     0
 42
0.0000000001
 43
0.0000000001
 40
0.0
 40
0.0
 40
1.0
 40
1.0
 10
17.28677117630373
 20
-5.132617233954769
 30
0.0
 10
16.67361660422959
 20
-5.134616718352519
 30
0.0
  0
SPLINE
  5
B19
330
A8B
100
AcDbEntity
  8
FRONT
  6
Continuous
 62
     4
100
AcDbSpline
210
0.0
220
0.0
230
1.0
 70
    24
 71
     1
 72
     4
 73
     2
 74
     0
 42
0.0000000001
 43
0.0000000001
 40
0.0
 40
0.0
 40
1.0
 40
1.0
 10
17.94182141506172
 20
-4.461266655075608
 30
0.0
 10
17.90527073750188
 20
-4.337218884751768
 30
0.0
  0
SPLINE
  5
B1A
330
A8B
100
AcDbEntity
  8
FRONT
  6
Continuous
 62
     4
100
AcDbSpline
210
0.0
220
0.0
230
1.0
 70
     8
 71
     2
 72
     6
 73
     3
 74
     0
 42
0.0000000001
 43
0.0000000001
 40
0.0
 40
0.0
 40
0.0
 40
1.0
 40
1.0
 40
1.0
 10
17.4863838813945
 20
-5.914121941707049
 30
0.0
 10
17.50241434520515
 20
-5.922316462127195
 30
0.0
 10
17.5149609852006
 20
-5.929071224485984
 30
0.0
  0
SPLINE
  5
B1B
330
A8B
100
AcDbEntity
  8
FRONT
  6
Continuous
 62
     4
100
AcDbSpline
210
0.0
220
0.0
230
1.0
 70
     8
 71
     3
 72
    10
 73
     6
 74
     0
 42
0.0000000001
 43
0.0000000001
 40
0.0
 40
0.0
 40
0.0
 40
0.0
 40
0.2802834343870607
 40
0.561500176492782
 40
1.0
 40
1.0
 40
1.0
 40
1.0
 10
17.93253772748871
 20
-5.521566331524031
 30
0.0
 10
17.92998166710049
 20
-5.58748102827846
 30
0.0
 10
17.90119279899605
 20
-5.70400075827699
 30
0.0
 10
17.73853112752677
 20
-5.870209334555772
 30
0.0
 10
17.59319445825168
 20
-5.912750987343615
 30
0.0
 10
17.4863838813945
 20
-5.914121941707049
 30
0.0
  0
SPLINE
  5
B1C
330
A8B
100
AcDbEntity
  8
FRONT
  6
Continuous
 62
     4
100
AcDbSpline
210
0.0
220
0.0
230
1.0
 70
     8
 71
     2
 72
     6
 73
     3
 74
     0
 42
0.0000000001
 43
0.0000000001
 40
0.0
 40
0.0
 40
0.0
 40
1.0
 40
1.0
 40
1.0
 10
17.29745226804206
 20
-5.017742724400553
 30
0.0
 10
17.334810636267
 20
-5.017343599018348
 30
0.0
 10
17.36829733251894
 20
-5.003728771550662
 30
0.0
  0
SPLINE
  5
B1D
330
A8B
100
AcDbEntity
  8
FRONT
  6
Continuous
 62
     4
100
AcDbSpline
210
0.0
220
0.0
230
1.0
 70
    24
 71
     1
 72
     4
 73
     2
 74
     0
 42
0.0000000001
 43
0.0000000001
 40
0.0
 40
0.0
 40
1.0
 40
1.0
 10
17.25039528434257
 20
-5.752276639961346
 30
0.0
 10
17.25582938323384
 20
-5.75599142494071
 30
0.0
  0
SPLINE
  5
B1E
330
A8B
100
AcDbEntity
  8
FRONT
  6
Continuous
 62
     4
100
AcDbSpline
210
0.0
220
0.0
230
1.0
 70
     8
 71
     2
 72
     6
 73
     3
 74
     0
 42
0.0000000001
 43
0.0000000001
 40
0.0
 40
0.0
 40
0.0
 40
1.0
 40
1.0
 40
1.0
 10
17.31289606147389
 20
-5.809345576655006
 30
0.0
 10
17.35705677144961
 20
-5.849142853119974
 30
0.0
 10
17.48638388139446
 20
-5.914121941707049
 30
0.0
  0
SPLINE
  5
B1F
330
A8B
100
AcDbEntity
  8
FRONT
  6
Continuous
 62
     4
100
AcDbSpline
210
0.0
220
0.0
230
1.0
 70
    24
 71
     1
 72
     4
 73
     2
 74
     0
 42
0.0000000001
 43
0.0000000001
 40
0.0
 40
0.0
 40
1.0
 40
1.0
 10
17.29561436988828
 20
-5.788108146748303
 30
0.0
 10
17.31289606147389
 20
-5.809345576655006
 30
0.0
  0
SPLINE
  5
B20
330
A8B
100
AcDbEntity
  8
FRONT
  6
Continuous
 62
     4
100
AcDbSpline
210
0.0
220
0.0
230
1.0
 70
    24
 71
     1
 72
     4
 73
     2
 74
     0
 42
0.0000000001
 43
0.0000000001
 40
0.0
 40
0.0
 40
1.0
 40
1.0
 10
17.96624821359698
 20
-4.521740220909061
 30
0.0
 10
17.94182141506172
 20
-4.461266655075608
 30
0.0
  0
SPLINE
  5
B21
330
A8B
100
AcDbEntity
  8
FRONT
  6
Continuous
 62
     4
100
AcDbSpline
210
0.0
220
0.0
230
1.0
 70
     8
 71
     3
 72
    11
 73
     7
 74
     0
 42
0.0000000001
 43
0.0000000001
 40
0.0
 40
0.0
 40
0.0
 40
0.0
 40
0.2627757061120019
 40
0.5667558013116807
 40
0.8797139751218168
 40
1.0
 40
1.0
 40
1.0
 40
1.0
 10
17.36829733251894
 20
-5.003728771550662
 30
0.0
 10
17.38587714511173
 20
-4.996404794424628
 30
0.0
 10
17.41990969395924
 20
-4.976439430695343
 30
0.0
 10
17.46158084441127
 20
-4.929333558277144
 30
0.0
 10
17.48149927690769
 20
-4.880797777468139
 30
0.0
 10
17.4866141760235
 20
-4.851053802725655
 30
0.0
 10
17.48753914728162
 20
-4.842620158601206
 30
0.0
  0
SPLINE
  5
B22
330
A8B
100
AcDbEntity
  8
FRONT
  6
Continuous
 62
     4
100
AcDbSpline
210
0.0
220
0.0
230
1.0
 70
     8
 71
     3
 72
    11
 73
     7
 74
     0
 42
0.0000000001
 43
0.0000000001
 40
0.0
 40
0.0
 40
0.0
 40
0.0
 40
0.2793522346033047
 40
0.5593335184216813
 40
0.7797559679565327
 40
1.0
 40
1.0
 40
1.0
 40
1.0
 10
17.94307446467377
 20
-5.530945951299988
 30
0.0
 10
17.94180307462405
 20
-5.594501577118919
 30
0.0
 10
17.91667550799417
 20
-5.709260710265843
 30
0.0
 10
17.81058445331001
 20
-5.846075908549162
 30
0.0
 10
17.67367926843748
 20
-5.924340080915007
 30
0.0
 10
17.58243171918843
 20
-5.939723916719522
 30
0.0
 10
17.53382959937809
 20
-5.939844692875301
 30
0.0
  0
SPLINE
  5
B23
330
A8B
100
AcDbEntity
  8
FRONT
  6
Continuous
 62
     4
100
AcDbSpline
210
0.0
220
0.0
230
1.0
 70
     8
 71
     3
 72
    14
 73
    10
 74
     0
 42
0.0000000001
 43
0.0000000001
 40
0.0
 40
0.0
 40
0.0
 40
0.0
 40
0.1951062385720619
 40
0.3339125582488692
 40
0.4501474463006513
 40
0.566328053941413
 40
0.7231136318596933
 40
0.9477057072569012
 40
1.0
 40
1.0
 40
1.0
 40
1.0
 10
17.89274962394844
 20
-4.643583112868443
 30
0.0
 10
17.89474514222996
 20
-4.639748694764659
 30
0.0
 10
17.89724314910162
 20
-4.631244618840346
 30
0.0
 10
17.89924971527219
 20
-4.615701729296858
 30
0.0
 10
17.89842728956798
 20
-4.599454138182963
 30
0.0
 10
17.8951461020218
 20
-4.581218840503261
 30
0.0
 10
17.88844700421837
 20
-4.558968223287878
 30
0.0
 10
17.8812580747526
 20
-4.542461472099691
 30
0.0
 10
17.8766627348089
 20
-4.533439686083934
 30
0.0
 10
17.87578472966787
 20
-4.531787042132242
 30
0.0
  0
SPLINE
  5
B24
330
A8B
100
AcDbEntity
  8
FRONT
  6
Continuous
 62
     4
100
AcDbSpline
210
0.0
220
0.0
230
1.0
 70
     8
 71
     2
 72
     6
 73
     3
 74
     0
 42
0.0000000001
 43
0.0000000001
 40
0.0
 40
0.0
 40
0.0
 40
1.0
 40
1.0
 40
1.0
 10
17.51496097087978
 20
-5.929071210841827
 30
0.0
 10
17.52734365897923
 20
-5.93571427869794
 30
0.0
 10
17.53382959937809
 20
-5.939844692875301
 30
0.0
  0
SPLINE
  5
B25
330
A8B
100
AcDbEntity
  8
FRONT
  6
Continuous
 62
     4
100
AcDbSpline
210
0.0
220
0.0
230
1.0
 70
     8
 71
     2
 72
     6
 73
     3
 74
     0
 42
0.0000000001
 43
0.0000000001
 40
0.0
 40
0.0
 40
0.0
 40
1.0
 40
1.0
 40
1.0
 10
16.67361660422962
 20
-5.134616718352519
 30
0.0
 10
16.8166102911388
 20
-5.470334999613283
 30
0.0
 10
17.25016942408499
 20
-5.752170042241946
 30
0.0
  0
SPLINE
  5
B26
330
A8B
100
AcDbEntity
  8
FRONT
  6
Continuous
 62
     4
100
AcDbSpline
210
0.0
220
0.0
230
1.0
 70
    24
 71
     1
 72
     4
 73
     2
 74
     0
 42
0.0000000001
 43
0.0000000001
 40
0.0
 40
0.0
 40
1.0
 40
1.0
 10
17.25582938323384
 20
-5.75599142494071
 30
0.0
 10
17.28962519580169
 20
-5.781691499550616
 30
0.0
  0
SPLINE
  5
B27
330
A8B
100
AcDbEntity
  8
FRONT
  6
Continuous
 62
     4
100
AcDbSpline
210
0.0
220
0.0
230
1.0
 70
    24
 71
     1
 72
     4
 73
     2
 74
     0
 42
0.0000000001
 43
0.0000000001
 40
0.0
 40
0.0
 40
1.0
 40
1.0
 10
17.94307446467377
 20
-5.530945951299988
 30
0.0
 10
17.9387785253627
 20
-5.526976438079117
 30
0.0
  0
SPLINE
  5
B28
330
A8B
100
AcDbEntity
  8
FRONT
  6
Continuous
 62
     4
100
AcDbSpline
210
0.0
220
0.0
230
1.0
 70
     8
 71
     3
 72
    14
 73
    10
 74
     0
 42
0.0000000001
 43
0.0000000001
 40
0.0
 40
0.0
 40
0.0
 40
0.0
 40
0.142151055421
 40
0.2416441906233231
 40
0.337512840946061
 40
0.5226088307748542
 40
0.7069349958419002
 40
0.7832535482434971
 40
1.0
 40
1.0
 40
1.0
 40
1.0
 10
17.58957197281758
 20
-4.910128850814881
 30
0.0
 10
17.58968669457347
 20
-4.930933722154952
 30
0.0
 10
17.58527280217872
 20
-4.96494050117826
 30
0.0
 10
17.56744498013549
 20
-5.00997609003333
 30
0.0
 10
17.53896901385022
 20
-5.056105771769582
 30
0.0
 10
17.48959095851773
 20
-5.102732691476537
 30
0.0
 10
17.42845235015919
 20
-5.125843715274846
 30
0.0
 10
17.36038010976709
 20
-5.134920028137988
 30
0.0
 10
17.31826363289789
 20
-5.135515785459636
 30
0.0
 10
17.28677048324978
 20
-5.132574095267016
 30
0.0
  0
ELLIPSE
  5
B29
330
A8B
100
AcDbEntity
  8
FRONT
  6
Continuous
 62
     4
100
AcDbEllipse
 10
14.84592289431094
 20
-3.161093469702648
 30
0.0
 11
-0.8821392302302177
 21
0.4709887243754463
 31
0.0
210
0.0
220
0.0
230
1.0
 40
0.9833059182791327
 41
3.625030345689558
 42
6.283185307179584
  0
SPLINE
  5
B2A
330
A8B
100
AcDbEntity
  8
FRONT
  6
Continuous
 62
     4
100
AcDbSpline
210
0.0
220
0.0
230
1.0
 70
     8
 71
     3
 72
    16
 73
    12
 74
     0
 42
0.0000000001
 43
0.0000000001
 40
0.0
 40
0.0
 40
0.0
 40
0.0
 40
0.129148378034396
 40
0.2674644537203973
 40
0.3841582685837871
 40
0.5013560291580168
 40
0.6062428686698798
 40
0.7064204883265523
 40
0.8086161864158006
 40
0.91809676777724
 40
1.0
 40
1.0
 40
1.0
 40
1.0
 10
15.89972191180696
 20
-3.067258476064097
 30
0.0
 10
15.90909121726365
 20
-2.958913954357801
 30
0.0
 10
15.89382133999201
 20
-2.73905812340351
 30
0.0
 10
15.7767083394974
 20
-2.417696763445265
 30
0.0
 10
15.55374765832576
 20
-2.152776320541678
 30
0.0
 10
15.26778494996267
 20
-1.989804342125394
 30
0.0
 10
14.95334031998964
 20
-1.939085852191666
 30
0.0
 10
14.65311205059481
 20
-1.989438808047074
 30
0.0
 10
14.38058061019693
 20
-2.127700253828795
 30
0.0
 10
14.17726057529053
 20
-2.322863280499757
 30
0.0
 10
14.08156978624059
 20
-2.467674156401074
 30
0.0
 10
14.04700334616364
 20
-2.534248306255424
 30
0.0
  0
ELLIPSE
  5
B2B
330
A8B
100
AcDbEntity
  8
FRONT
  6
Continuous
 62
     4
100
AcDbEllipse
 10
14.80294988243358
 20
-3.241579854307761
 30
0.0
 11
-0.7939252851790806
 21
0.4238898401086228
 31
0.0
210
0.0
220
0.0
230
1.0
 40
0.9833059182800139
 41
5.213279964936608
 42
6.231612357172
  0
SPLINE
  5
B2C
330
A8B
100
AcDbEntity
  8
FRONT
  6
Continuous
 62
     4
100
AcDbSpline
210
0.0
220
0.0
230
1.0
 70
     8
 71
     3
 72
    10
 73
     6
 74
     0
 42
0.0000000001
 43
0.0000000001
 40
0.0
 40
0.0
 40
0.0
 40
0.0
 40
0.1975215270407752
 40
0.8880294744614507
 40
1.0
 40
1.0
 40
1.0
 40
1.0
 10
14.04700334616364
 20
-2.534248306255423
 30
0.0
 10
14.02979995309934
 20
-2.56708149719274
 30
0.0
 10
13.95915311772168
 20
-2.715260042725278
 30
0.0
 10
13.91596124117772
 20
-2.891939134658462
 30
0.0
 10
13.90359775925108
 20
-3.029307479047951
 30
0.0
 10
13.90234343681433
 20
-3.048492528079988
 30
0.0
  0
LINE
  5
B2D
330
A8B
100
AcDbEntity
  8
FRONT
  6
Continuous
 62
     4
100
AcDbLine
 10
15.89972191180696
 20
-3.067258476064095
 30
0.0
 11
15.84224378306065
 21
-3.174912246999863
 31
0.0
  0
ELLIPSE
  5
B2E
330
A8B
100
AcDbEntity
  8
FRONT
  6
Continuous
 62
     4
100
AcDbEllipse
 10
17.97951315599034
 20
-2.391212493543383
 30
0.0
 11
-0.4845839650356391
 21
2.565417656625252
 31
0.0
210
0.0
220
0.0
230
0.9999999999999998
 40
0.1877462969956187
 41
1.545777644991644
 42
1.748054161917929
  0
ELLIPSE
  5
B2F
330
A8B
100
AcDbEntity
  8
FRONT
  6
Continuous
 62
     4
100
AcDbEllipse
 10
12.46509142978946
 20
4.4053773937274
 30
0.0
 11
-0.7820027716041942
 21
-0.3331240993350395
 31
0.0
210
0.0
220
0.0
230
1.0
 40
0.3528380920404428
 41
1.238775038219452
 42
1.609788972500551
  0
ELLIPSE
  5
B30
330
A8B
100
AcDbEntity
  8
FRONT
  6
Continuous
 62
     4
100
AcDbEllipse
 10
12.30437911162724
 20
5.324732699532396
 30
0.0
 11
-0.1775236042668109
 21
0.8312552970357225
 31
0.0
210
0.0
220
0.0
230
1.0
 40
0.1700246401022982
 41
4.325383915281284
 42
4.740398743479548
  0
SPLINE
  5
B31
330
A8B
100
AcDbEntity
  8
FRONT
  6
Continuous
 62
     4
100
AcDbSpline
210
0.0
220
0.0
230
1.0
 70
    24
 71
     1
 72
     4
 73
     2
 74
     0
 42
0.0000000001
 43
0.0000000001
 40
0.0
 40
0.0
 40
1.0
 40
1.0
 10
12.44068581249327
 20
5.378184466683816
 30
0.0
 10
12.71058671127498
 20
5.473403005394003
 30
0.0
  0
SPLINE
  5
B32
330
A8B
100
AcDbEntity
  8
FRONT
  6
Continuous
 62
     4
100
AcDbSpline
210
0.0
220
0.0
230
1.0
 70
    24
 71
     1
 72
     4
 73
     2
 74
     0
 42
0.0000000001
 43
0.0000000001
 40
0.0
 40
0.0
 40
1.0
 40
1.0
 10
12.4453969153142
 20
4.793762731808075
 30
0.0
 10
12.55914221892536
 20
4.254904835094778
 30
0.0
  0
SPLINE
  5
B33
330
A8B
100
AcDbEntity
  8
FRONT
  6
Continuous
 62
     4
100
AcDbSpline
210
0.0
220
0.0
230
1.0
 70
    24
 71
     1
 72
     4
 73
     2
 74
     0
 42
0.0000000001
 43
0.0000000001
 40
0.0
 40
0.0
 40
1.0
 40
1.0
 10
12.3980252578104
 20
3.54383975964174
 30
0.0
 10
13.21291955543235
 20
3.601539892142867
 30
0.0
  0
SPLINE
  5
B34
330
A8B
100
AcDbEntity
  8
FRONT
  6
Continuous
 62
     4
100
AcDbSpline
210
0.0
220
0.0
230
1.0
 70
    24
 71
     1
 72
     4
 73
     2
 74
     0
 42
0.0000000001
 43
0.0000000001
 40
0.0
 40
0.0
 40
1.0
 40
1.0
 10
12.73849007715883
 20
3.667718842522095
 30
0.0
 10
12.44268010034102
 20
3.606971866039024
 30
0.0
  0
SPLINE
  5
B35
330
A8B
100
AcDbEntity
  8
FRONT
  6
Continuous
 62
     4
100
AcDbSpline
210
0.0
220
0.0
230
1.0
 70
    24
 71
     1
 72
     4
 73
     2
 74
     0
 42
0.0000000001
 43
0.0000000001
 40
0.0
 40
0.0
 40
1.0
 40
1.0
 10
12.55915629769893
 20
4.254835323750993
 30
0.0
 10
12.26801481276993
 20
4.191302768065273
 30
0.0
  0
SPLINE
  5
B36
330
A8B
100
AcDbEntity
  8
FRONT
  6
Continuous
 62
     4
100
AcDbSpline
210
0.0
220
0.0
230
1.0
 70
     8
 71
     3
 72
    12
 73
     8
 74
     0
 42
0.0000000001
 43
0.0000000001
 40
0.0
 40
0.0
 40
0.0
 40
0.0
 40
0.2744697384182955
 40
0.551325202075647
 40
0.7557784030006751
 40
0.9601016673759271
 40
1.0
 40
1.0
 40
1.0
 40
1.0
 10
12.50226080994402
 20
5.038954222702709
 30
0.0
 10
12.49336678341477
 20
5.036925287209341
 30
0.0
 10
12.47674970363677
 20
5.030709459633406
 30
0.0
 10
12.45543597836243
 20
5.016913564102337
 30
0.0
 10
12.44193220855824
 20
4.998754955080447
 30
0.0
 10
12.43759971455943
 20
4.985018509162411
 30
0.0
 10
12.43655385903655
 20
4.977536033076629
 30
0.0
 10
12.43641987849389
 20
4.976306217531559
 30
0.0
  0
SPLINE
  5
B37
330
A8B
100
AcDbEntity
  8
FRONT
  6
Continuous
 62
     4
100
AcDbSpline
210
0.0
220
0.0
230
1.0
 70
     8
 71
     2
 72
     6
 73
     3
 74
     0
 42
0.0000000001
 43
0.0000000001
 40
0.0
 40
0.0
 40
0.0
 40
1.0
 40
1.0
 40
1.0
 10
12.03715634521592
 20
5.830492901738478
 30
0.0
 10
12.99283696601092
 20
5.878254479706012
 30
0.0
 10
13.94849592177253
 20
5.910374237806076
 30
0.0
  0
ELLIPSE
  5
B38
330
A8B
100
AcDbEntity
  8
FRONT
  6
Continuous
 62
     4
100
AcDbEllipse
 10
5.662019838117116
 20
-0.0000000000333795
 30
0.0
 11
-30.04133316949641
 21
-2.588839177206942
 31
0.0
210
0.0
220
0.0
230
1.0
 40
0.161531415063552
 41
4.513346154013638
 42
4.756988358425918
  0
SPLINE
  5
B39
330
A8B
100
AcDbEntity
  8
FRONT
  6
Continuous
 62
     4
100
AcDbSpline
210
0.0
220
0.0
230
1.0
 70
     8
 71
     3
 72
    19
 73
    15
 74
     0
 42
0.0000000001
 43
0.0000000001
 40
0.0
 40
0.0
 40
0.0
 40
0.0
 40
0.0378701787910131
 40
0.0905179988905895
 40
0.1642269556926017
 40
0.2380530753730911
 40
0.3123760441477659
 40
0.3869895302976412
 40
0.46147450164389
 40
0.5851496942702218
 40
0.7092835185565466
 40
0.833157903598639
 40
0.9165781401482579
 40
1.0
 40
1.0
 40
1.0
 40
1.0
 10
1.345325372781964
 20
5.49999932711582
 30
0.0
 10
1.398511539679653
 20
5.499310768582702
 30
0.0
 10
1.538982385476854
 20
5.487566690474291
 30
0.0
 10
1.854591910925284
 20
5.418195046609993
 30
0.0
 10
2.32932910901607
 20
5.271619651707619
 30
0.0
 10
2.940855747626413
 20
5.059696886614688
 30
0.0
 10
3.6216964289096
 20
4.824065572811823
 30
0.0
 10
4.352948688096573
 20
4.581228769111549
 30
0.0
 10
5.29008644652346
 20
4.292383252863228
 30
0.0
 10
6.451194759052143
 20
3.98739059815945
 30
0.0
 10
7.838486420970312
 20
3.705173860574058
 30
0.0
 10
9.103089126275692
 20
3.529868020428326
 30
0.0
 10
10.22364537502219
 20
3.441763234081208
 30
0.0
 10
10.86882686552338
 20
3.420927197378751
 30
0.0
 10
11.19220462092714
 20
3.417991427849379
 30
0.0
  0
LINE
  5
B3A
330
A8B
100
AcDbEntity
  8
FRONT
  6
Continuous
 62
     4
100
AcDbLine
 10
1.352746725880145
 20
5.5
 30
0.0
 11
0.8660254037844552
 21
5.5
 31
0.0
  0
LINE
  5
B3B
330
A8B
100
AcDbEntity
  8
FRONT
  6
Continuous
 62
     4
100
AcDbLine
 10
11.18782140983618
 20
3.622780017417606
 30
0.0
 11
11.58072561727361
 21
4.835384189051726
 31
0.0
  0
LINE
  5
B3C
330
A8B
100
AcDbEntity
  8
FRONT
  6
Continuous
 62
     4
100
AcDbLine
 10
11.18782140983618
 20
3.622780017417606
 30
0.0
 11
12.32131357354198
 21
4.035942971686977
 31
0.0
  0
LINE
  5
B3D
330
A8B
100
AcDbEntity
  8
FRONT
  6
Continuous
 62
     4
100
AcDbLine
 10
12.1287291577043
 20
4.721327038522023
 30
0.0
 11
11.58072561727361
 21
4.835384189051726
 31
0.0
  0
LINE
  5
B3E
330
A8B
100
AcDbEntity
  8
FRONT
  6
Continuous
 62
     4
100
AcDbLine
 10
11.73862963750702
 20
5.461687541797799
 30
0.0
 11
11.82908573895635
 21
5.442860719673216
 31
0.0
  0
LINE
  5
B3F
330
A8B
100
AcDbEntity
  8
FRONT
  6
Continuous
 62
     4
100
AcDbLine
 10
11.73862963750702
 20
5.461687541797799
 30
0.0
 11
11.75466693733003
 21
5.546759538624923
 31
0.0
  0
ELLIPSE
  5
B40
330
A8B
100
AcDbEntity
  8
FRONT
  6
Continuous
 62
     4
100
AcDbEllipse
 10
11.95540632460577
 20
5.633722551958136
 30
0.0
 11
-0.806489772482009
 21
-0.5912480410211467
 31
0.0
210
0.0
220
0.0
230
1.0
 40
0.0811337619020885
 41
1.354388177432271
 42
1.745711778396149
  0
ELLIPSE
  5
B41
330
A8B
100
AcDbEntity
  8
FRONT
  6
Continuous
 62
     4
100
AcDbEllipse
 10
335.1698859889653
 20
27.65013668158367
 30
0.0
 11
-342.0959389744786
 21
-28.76099667904112
 31
0.0
210
0.0
220
0.0
230
1.0
 40
0.0434265181053538
 41
5.947803486633389
 42
5.952599622232146
  0
ELLIPSE
  5
B42
330
A8B
100
AcDbEntity
  8
FRONT
  6
Continuous
 62
     4
100
AcDbEllipse
 10
5.102677341749099
 20
0.6587726038256668
 30
0.0
 11
-7.307339427366882
 21
-3.063816270399228
 31
0.0
210
0.0
220
0.0
230
1.0
 40
0.2481866287351503
 41
3.052623486450511
 42
3.080913953302548
  0
ELLIPSE
  5
B43
330
A8B
100
AcDbEntity
  8
FRONT
  6
Continuous
 62
     4
100
AcDbEllipse
 10
12.27250701395665
 20
5.090761460477818
 30
0.0
 11
-0.8217836972268276
 21
-0.2171901358713434
 31
0.0
210
0.0
220
0.0
230
0.9999999999999998
 40
0.3920499365775708
 41
1.292632269327997
 42
1.678371035082333
  0
ELLIPSE
  5
B44
330
A8B
100
AcDbEntity
  8
FRONT
  6
Continuous
 62
     4
100
AcDbEllipse
 10
5.40409941978987
 20
0.7686420975624931
 30
0.0
 11
-5.980729945729562
 21
-2.409864499793021
 31
0.0
210
0.0
220
0.0
230
0.9999999999999998
 40
0.3085337035018759
 41
3.290405811667822
 42
3.332639300504348
  0
ELLIPSE
  5
B45
330
A8B
100
AcDbEntity
  8
FRONT
  6
Continuous
 62
     4
100
AcDbEllipse
 10
12.04589348063163
 20
3.189576309002418
 30
0.0
 11
-0.6673421078069362
 21
-2.286566163010705
 31
0.0
210
0.0
220
0.0
230
0.9999999999999998
 40
0.3978450525441507
 41
4.63866320637629
 42
4.650929689634258
  0
ELLIPSE
  5
B46
330
A8B
100
AcDbEntity
  8
FRONT
  6
Continuous
 62
     4
100
AcDbEllipse
 10
10.73278510489058
 20
6.237522743498638
 30
0.0
 11
-0.1862105098576039
 21
-2.621606840087076
 31
0.0
210
0.0
220
0.0
230
0.9999999999999998
 40
0.4178730016605411
 41
1.036429758151679
 42
1.300166956177833
  0
ELLIPSE
  5
B47
330
A8B
100
AcDbEntity
  8
FRONT
  6
Continuous
 62
     4
100
AcDbEllipse
 10
12.25172592005139
 20
5.268705240183141
 30
0.0
 11
-0.8496785632609061
 21
0.0233738973287866
 31
0.0
210
0.0
220
0.0
230
0.9999999999999998
 40
0.3469230430269695
 41
1.426511375320845
 42
1.799447862846502
  0
ELLIPSE
  5
B48
330
A8B
100
AcDbEntity
  8
FRONT
  6
Continuous
 62
     4
100
AcDbEllipse
 10
11.78356539115273
 20
2.802384415741716
 30
0.0
 11
-1.329462075118444
 21
-0.5309569405100488
 31
0.0
210
0.0
220
0.0
230
0.9999999999999998
 40
0.8742324331760295
 41
4.730475183920662
 42
5.327454682651223
  0
SPLINE
  5
B49
330
A8B
100
AcDbEntity
  8
FRONT
  6
Continuous
 62
     4
100
AcDbSpline
210
0.0
220
0.0
230
1.0
 70
    24
 71
     1
 72
     4
 73
     2
 74
     0
 42
0.0000000001
 43
0.0000000001
 40
0.0
 40
0.0
 40
1.0
 40
1.0
 10
12.44268010034102
 20
3.606971866039025
 30
0.0
 10
12.32131357354198
 20
4.03594297168698
 30
0.0
  0
SPLINE
  5
B4A
330
A8B
100
AcDbEntity
  8
FRONT
  6
Continuous
 62
     4
100
AcDbSpline
210
0.0
220
0.0
230
1.0
 70
    24
 71
     1
 72
     4
 73
     2
 74
     0
 42
0.0000000001
 43
0.0000000001
 40
0.0
 40
0.0
 40
1.0
 40
1.0
 10
11.19220462092714
 20
3.417991427849379
 30
0.0
 10
12.3980252578104
 20
3.543839759641738
 30
0.0
  0
SPLINE
  5
B4B
330
A8B
100
AcDbEntity
  8
FRONT
  6
Continuous
 62
     4
100
AcDbSpline
210
0.0
220
0.0
230
1.0
 70
    24
 71
     1
 72
     4
 73
     2
 74
     0
 42
0.0000000001
 43
0.0000000001
 40
0.0
 40
0.0
 40
1.0
 40
1.0
 10
11.13483081029059
 20
3.485051129667143
 30
0.0
 10
11.17890053972468
 20
3.595016077432556
 30
0.0
  0
SPLINE
  5
B4C
330
A8B
100
AcDbEntity
  8
FRONT
  6
Continuous
 62
     4
100
AcDbSpline
210
0.0
220
0.0
230
1.0
 70
    24
 71
     1
 72
     4
 73
     2
 74
     0
 42
0.0000000001
 43
0.0000000001
 40
0.0
 40
0.0
 40
1.0
 40
1.0
 10
11.82908573895635
 20
5.442860719673213
 30
0.0
 10
11.75466693733006
 20
5.546759538624925
 30
0.0
  0
SPLINE
  5
B4D
330
A8B
100
AcDbEntity
  8
FRONT
  6
Continuous
 62
     4
100
AcDbSpline
210
0.0
220
0.0
230
1.0
 70
    24
 71
     1
 72
     4
 73
     2
 74
     0
 42
0.0000000001
 43
0.0000000001
 40
0.0
 40
0.0
 40
1.0
 40
1.0
 10
11.99195171433702
 20
5.828515939483442
 30
0.0
 10
12.03715635432748
 20
5.830493677100296
 30
0.0
  0
SPLINE
  5
B4E
330
A8B
100
AcDbEntity
  8
FRONT
  6
Continuous
 62
     4
100
AcDbSpline
210
0.0
220
0.0
230
1.0
 70
     8
 71
     2
 72
     6
 73
     3
 74
     0
 42
0.0000000001
 43
0.0000000001
 40
0.0
 40
0.0
 40
0.0
 40
1.0
 40
1.0
 40
1.0
 10
12.12153033356313
 20
4.980355974952971
 30
0.0
 10
12.25725557980072
 20
5.188642474664766
 30
0.0
 10
12.44068581249289
 20
5.378184466685091
 30
0.0
  0
SPLINE
  5
B4F
330
A8B
100
AcDbEntity
  8
FRONT
  6
Continuous
 62
     4
100
AcDbSpline
210
0.0
220
0.0
230
1.0
 70
    24
 71
     1
 72
     4
 73
     2
 74
     0
 42
0.0000000001
 43
0.0000000001
 40
0.0
 40
0.0
 40
1.0
 40
1.0
 10
12.14299382353853
 20
5.672179305901577
 30
0.0
 10
12.44068581249117
 20
5.378184466683152
 30
0.0
  0
SPLINE
  5
B50
330
A8B
100
AcDbEntity
  8
FRONT
  6
Continuous
 62
     4
100
AcDbSpline
210
0.0
220
0.0
230
1.0
 70
    24
 71
     1
 72
     4
 73
     2
 74
     0
 42
0.0000000001
 43
0.0000000001
 40
0.0
 40
0.0
 40
1.0
 40
1.0
 10
12.43641987849358
 20
4.976306217531615
 30
0.0
 10
12.44539691531411
 20
4.793762731808084
 30
0.0
  0
SPLINE
  5
B51
330
A8B
100
AcDbEntity
  8
FRONT
  6
Continuous
 62
     4
100
AcDbSpline
210
0.0
220
0.0
230
1.0
 70
    24
 71
     1
 72
     4
 73
     2
 74
     0
 42
0.0000000001
 43
0.0000000001
 40
0.0
 40
0.0
 40
1.0
 40
1.0
 10
12.1287291577043
 20
4.721327038522023
 30
0.0
 10
12.12153033357644
 20
4.980355974944933
 30
0.0
  0
SPLINE
  5
B52
330
A8B
100
AcDbEntity
  8
FRONT
  6
Continuous
 62
     4
100
AcDbSpline
210
0.0
220
0.0
230
1.0
 70
    24
 71
     1
 72
     4
 73
     2
 74
     0
 42
0.0000000001
 43
0.0000000001
 40
0.0
 40
0.0
 40
1.0
 40
1.0
 10
11.75466693733006
 20
5.546759538624923
 30
0.0
 10
11.77084472479986
 20
5.637701490563192
 30
0.0
  0
SPLINE
  5
B53
330
A8B
100
AcDbEntity
  8
FRONT
  6
Continuous
 62
     4
100
AcDbSpline
210
0.0
220
0.0
230
1.0
 70
    24
 71
     1
 72
     4
 73
     2
 74
     0
 42
0.0000000001
 43
0.0000000001
 40
0.0
 40
0.0
 40
1.0
 40
1.0
 10
12.26801481277344
 20
4.191302768055223
 30
0.0
 10
12.12872915770442
 20
4.721327038522042
 30
0.0
  0
SPLINE
  5
B54
330
A8B
100
AcDbEntity
  8
FRONT
  6
Continuous
 62
     4
100
AcDbSpline
210
0.0
220
0.0
230
1.0
 70
    24
 71
     1
 72
     4
 73
     2
 74
     0
 42
0.0000000001
 43
0.0000000001
 40
0.0
 40
0.0
 40
1.0
 40
1.0
 10
12.32131357354198
 20
4.035942971686977
 30
0.0
 10
12.26802043571945
 20
4.191303577397426
 30
0.0
  0
SPLINE
  5
B55
330
A8B
100
AcDbEntity
  8
FRONT
  6
Continuous
 62
     4
100
AcDbSpline
210
0.0
220
0.0
230
1.0
 70
     8
 71
     3
 72
    12
 73
     8
 74
     0
 42
0.0000000001
 43
0.0000000001
 40
0.0
 40
0.0
 40
0.0
 40
0.0
 40
0.2440298709825523
 40
0.488120310074948
 40
0.7306421972591242
 40
0.9701993202335991
 40
1.0
 40
1.0
 40
1.0
 40
1.0
 10
11.99195171433709
 20
5.828515939483442
 30
0.0
 10
11.96562176469131
 20
5.827267267325016
 30
0.0
 10
11.91614572163948
 20
5.81715304258248
 30
0.0
 10
11.84798307522928
 20
5.777355599814397
 30
0.0
 10
11.79694752140736
 20
5.718879229510207
 30
0.0
 10
11.77656470249855
 20
5.668220081294717
 30
0.0
 10
11.77135854082036
 20
5.640760675661909
 30
0.0
 10
11.77084472479986
 20
5.637701490563106
 30
0.0
  0
SPLINE
  5
B56
330
A8B
100
AcDbEntity
  8
FRONT
  6
Continuous
 62
     4
100
AcDbSpline
210
0.0
220
0.0
230
1.0
 70
    24
 71
     1
 72
     4
 73
     2
 74
     0
 42
0.0000000001
 43
0.0000000001
 40
0.0
 40
0.0
 40
1.0
 40
1.0
 10
11.10699408027199
 20
3.430964201513405
 30
0.0
 10
11.13483081029059
 20
3.485051129667143
 30
0.0
  0
SPLINE
  5
B57
330
A8B
100
AcDbEntity
  8
FRONT
  6
Continuous
 62
     4
100
AcDbSpline
210
0.0
220
0.0
230
1.0
 70
     8
 71
     2
 72
     6
 73
     3
 74
     0
 42
0.0000000001
 43
0.0000000001
 40
0.0
 40
0.0
 40
0.0
 40
1.0
 40
1.0
 40
1.0
 10
12.03715634521592
 20
5.830492901738478
 30
0.0
 10
12.08883088585918
 20
5.750552258515644
 30
0.0
 10
12.14299382353853
 20
5.672179305901581
 30
0.0
  0
SPLINE
  5
B58
330
A8B
100
AcDbEntity
  8
FRONT
  6
Continuous
 62
     4
100
AcDbSpline
210
0.0
220
0.0
230
1.0
 70
     8
 71
     2
 72
     6
 73
     3
 74
     0
 42
0.0000000001
 43
0.0000000001
 40
0.0
 40
0.0
 40
0.0
 40
1.0
 40
1.0
 40
1.0
 10
12.12153033357693
 20
4.98035597495837
 30
0.0
 10
11.94052361365615
 20
5.188224351265906
 30
0.0
 10
11.82908573895635
 20
5.442860719673213
 30
0.0
  0
LINE
  5
B59
330
A8B
100
AcDbEntity
  8
FRONT
  6
Continuous
 62
     4
100
AcDbLine
 10
17.89827503693186
 20
4.305849194799654
 30
0.0
 11
17.5908596611797
 21
2.933128552700317
 31
0.0
  0
LINE
  5
B5A
330
A8B
100
AcDbEntity
  8
FRONT
  6
Continuous
 62
     4
100
AcDbLine
 10
17.48879939540238
 20
2.948133384037639
 30
0.0
 11
17.5908596611797
 21
2.933128552700317
 31
0.0
  0
ELLIPSE
  5
B5B
330
A8B
100
AcDbEntity
  8
FRONT
  6
Continuous
 62
     4
100
AcDbEllipse
 10
17.97951315555683
 20
2.391212493729724
 30
0.0
 11
-0.4845839648273406
 21
-2.565417655414864
 31
0.0
210
0.0
220
0.0
230
1.0
 40
0.1877462969075319
 41
4.535131145218768
 42
4.737407662240475
  0
ELLIPSE
  5
B5C
330
A8B
100
AcDbEntity
  8
FRONT
  6
Continuous
 62
     4
100
AcDbEllipse
 10
14.515607907233
 20
3.779757555175363
 30
0.0
 11
-1.088811819638892
 21
-0.5813346379390692
 31
0.0
210
0.0
220
0.0
230
1.0
 40
0.9833059182791359
 41
3.141592653589792
 42
5.933643914404618
  0
ELLIPSE
  5
B5D
330
A8B
100
AcDbEntity
  8
FRONT
  6
Continuous
 62
     4
100
AcDbEllipse
 10
14.59586354321826
 20
3.865394052024021
 30
0.0
 11
-1.19524239155921
 21
-0.6381596805011488
 31
0.0
210
0.0
220
0.0
230
0.9999999999999998
 40
0.9833059182791515
 41
2.398313761510258
 42
5.985009272386527
  0
ELLIPSE
  5
B5E
330
A8B
100
AcDbEntity
  8
FRONT
  6
Continuous
 62
     4
100
AcDbEllipse
 10
14.58257986552084
 20
3.890273741521
 30
0.0
 11
-1.274184406475827
 21
-0.6803081278529028
 31
0.0
210
0.0
220
0.0
230
1.0
 40
0.9833059182793167
 41
2.393939591548555
 42
4.152487722051174
  0
ELLIPSE
  5
B5F
330
A8B
100
AcDbEntity
  8
FRONT
  6
Continuous
 62
     4
100
AcDbEllipse
 10
14.624437821126
 20
3.811875803681258
 30
0.0
 11
-1.09830870118782
 21
-0.5864051800623212
 31
0.0
210
0.0
220
0.0
230
0.9999999999999998
 40
0.9833059182791778
 41
2.421430119237939
 42
4.646060335807838
  0
ELLIPSE
  5
B60
330
A8B
100
AcDbEntity
  8
FRONT
  6
Continuous
 62
     4
100
AcDbEllipse
 10
14.59586354321826
 20
3.865394052023983
 30
0.0
 11
-1.151135430047241
 21
-0.6146102442832692
 31
0.0
210
0.0
220
0.0
230
1.0
 40
0.9833059182791597
 41
2.854453356631227
 42
5.726113818514622
  0
ELLIPSE
  5
B61
330
A8B
100
AcDbEntity
  8
FRONT
  6
Continuous
 62
     4
100
AcDbEllipse
 10
14.61409458346563
 20
3.831248190399238
 30
0.0
 11
-1.141300807152083
 21
-0.6093593764552427
 31
0.0
210
0.0
220
0.0
230
1.0
 40
0.9833059182793387
 41
2.854453356640041
 42
4.211497995772412
  0
ELLIPSE
  5
B62
330
A8B
100
AcDbEntity
  8
FRONT
  6
Continuous
 62
     4
100
AcDbEllipse
 10
14.58172285405612
 20
3.891878882778576
 30
0.0
 11
-1.289463506136375
 21
-0.6884658918589805
 31
0.0
210
0.0
220
0.0
230
0.9999999999999998
 40
0.9833059182791195
 41
2.395557650275635
 42
4.152487722049663
  0
SPLINE
  5
B63
330
A8B
100
AcDbEntity
  8
FRONT
  6
Continuous
 62
     4
100
AcDbSpline
210
0.0
220
0.0
230
1.0
 70
    24
 71
     1
 72
     4
 73
     2
 74
     0
 42
0.0000000001
 43
0.0000000001
 40
0.0
 40
0.0
 40
1.0
 40
1.0
 10
17.29745226804206
 20
3.509679345658438
 30
0.0
 10
13.748385681282
 20
3.593205653172363
 30
0.0
  0
SPLINE
  5
B64
330
A8B
100
AcDbEntity
  8
FRONT
  6
Continuous
 62
     4
100
AcDbSpline
210
0.0
220
0.0
230
1.0
 70
    24
 71
     1
 72
     4
 73
     2
 74
     0
 42
0.0000000001
 43
0.0000000001
 40
0.0
 40
0.0
 40
1.0
 40
1.0
 10
16.11893557758381
 20
4.995450787331964
 30
0.0
 10
15.12498870412169
 20
5.250072189631183
 30
0.0
  0
SPLINE
  5
B65
330
A8B
100
AcDbEntity
  8
FRONT
  6
Continuous
 62
     4
100
AcDbSpline
210
0.0
220
0.0
230
1.0
 70
    24
 71
     1
 72
     4
 73
     2
 74
     0
 42
0.0000000001
 43
0.0000000001
 40
0.0
 40
0.0
 40
1.0
 40
1.0
 10
17.59489872014192
 20
5.975264142052812
 30
0.0
 10
14.60613712230076
 20
5.930601946215392
 30
0.0
  0
SPLINE
  5
B66
330
A8B
100
AcDbEntity
  8
FRONT
  6
Continuous
 62
     4
100
AcDbSpline
210
0.0
220
0.0
230
1.0
 70
    24
 71
     1
 72
     4
 73
     2
 74
     0
 42
0.0000000001
 43
0.0000000001
 40
0.0
 40
0.0
 40
1.0
 40
1.0
 10
14.92350318018168
 20
5.636516777042869
 30
0.0
 10
16.19668973819389
 20
5.335334408581799
 30
0.0
  0
LINE
  5
B67
330
A8B
100
AcDbEntity
  8
FRONT
  6
Continuous
 62
     4
100
AcDbLine
 10
15.10230670790777
 20
4.183313301931558
 30
0.0
 11
15.04448787470278
 21
4.291605195933396
 31
0.0
  0
LINE
  5
B68
330
A8B
100
AcDbEntity
  8
FRONT
  6
Continuous
 62
     4
100
AcDbLine
 10
15.1976496365405
 20
3.611859513448073
 30
0.0
 11
15.22617856444389
 21
3.55842620348231
 31
0.0
  0
LINE
  5
B69
330
A8B
100
AcDbEntity
  8
FRONT
  6
Continuous
 62
     4
100
AcDbLine
 10
13.80446405246526
 20
3.591885864106183
 30
0.0
 11
13.80379348619884
 21
3.593141802474725
 31
0.0
  0
LINE
  5
B6A
330
A8B
100
AcDbEntity
  8
FRONT
  6
Continuous
 62
     4
100
AcDbLine
 10
14.83756674726533
 20
5.331362856545027
 30
0.0
 11
14.69295620412083
 21
5.331857548057461
 31
0.0
  0
LINE
  5
B6B
330
A8B
100
AcDbEntity
  8
FRONT
  6
Continuous
 62
     4
100
AcDbLine
 10
14.05370990737933
 20
4.186900398182689
 30
0.0
 11
13.99589107417434
 21
4.295192292184527
 31
0.0
  0
LINE
  5
B6C
330
A8B
100
AcDbEntity
  8
FRONT
  6
Continuous
 62
     4
100
AcDbLine
 10
14.44227717851973
 20
4.461613941808328
 30
0.0
 11
14.40175106321881
 21
4.382834230900383
 31
0.0
  0
LINE
  5
B6D
330
A8B
100
AcDbEntity
  8
FRONT
  6
Continuous
 62
     4
100
AcDbLine
 10
14.36658232700411
 20
4.549988550519463
 30
0.0
 11
14.38057235479898
 21
4.577184109163312
 31
0.0
  0
LINE
  5
B6E
330
A8B
100
AcDbEntity
  8
FRONT
  6
Continuous
 62
     4
100
AcDbLine
 10
14.40175106321881
 20
4.382834230900383
 30
0.0
 11
14.3439322300138
 21
4.491126124902223
 31
0.0
  0
LINE
  5
B6F
330
A8B
100
AcDbEntity
  8
FRONT
  6
Continuous
 62
     4
100
AcDbLine
 10
13.934096024833
 20
4.306515336617805
 30
0.0
 11
13.903565927193
 21
4.308647770791533
 31
0.0
  0
LINE
  5
B70
330
A8B
100
AcDbEntity
  8
FRONT
  6
Continuous
 62
     4
100
AcDbLine
 10
13.77533931878937
 20
4.042581236833521
 30
0.0
 11
13.75872784864233
 21
4.067853483548937
 31
0.0
  0
LINE
  5
B71
330
A8B
100
AcDbEntity
  8
FRONT
  6
Continuous
 62
     4
100
AcDbLine
 10
13.96527075091378
 20
4.193077603436552
 30
0.0
 11
14.05370990737933
 21
4.186900398182689
 31
0.0
  0
LINE
  5
B72
330
A8B
100
AcDbEntity
  8
FRONT
  6
Continuous
 62
     4
100
AcDbLine
 10
13.96527075091378
 20
4.193077603436552
 30
0.0
 11
13.903565927193
 21
4.308647770791533
 31
0.0
  0
LINE
  5
B73
330
A8B
100
AcDbEntity
  8
FRONT
  6
Continuous
 62
     4
100
AcDbLine
 10
15.248091543825
 20
4.037543166926568
 30
0.0
 11
15.26559078171205
 21
4.062698725899988
 31
0.0
  0
LINE
  5
B74
330
A8B
100
AcDbEntity
  8
FRONT
  6
Continuous
 62
     4
100
AcDbLine
 10
15.19095269576139
 20
4.18888472481321
 30
0.0
 11
15.10230670790777
 21
4.183313301931558
 31
0.0
  0
LINE
  5
B75
330
A8B
100
AcDbEntity
  8
FRONT
  6
Continuous
 62
     4
100
AcDbLine
 10
14.71128105223291
 20
4.474369018649596
 30
0.0
 11
14.76822961098702
 21
4.367707106841534
 31
0.0
  0
LINE
  5
B76
330
A8B
100
AcDbEntity
  8
FRONT
  6
Continuous
 62
     4
100
AcDbLine
 10
15.09864637409872
 20
4.302531580239758
 30
0.0
 11
15.12924787204065
 21
4.304454892168187
 31
0.0
  0
LINE
  5
B77
330
A8B
100
AcDbEntity
  8
FRONT
  6
Continuous
 62
     4
100
AcDbLine
 10
15.19095269576139
 20
4.18888472481321
 30
0.0
 11
15.12924787204065
 21
4.304454892168187
 31
0.0
  0
LINE
  5
B78
330
A8B
100
AcDbEntity
  8
FRONT
  6
Continuous
 62
     4
100
AcDbLine
 10
13.88468018453357
 20
3.851921520671986
 30
0.0
 11
13.82879362639822
 21
3.956594356394368
 31
0.0
  0
LINE
  5
B79
330
A8B
100
AcDbEntity
  8
FRONT
  6
Continuous
 62
     4
100
AcDbLine
 10
14.44227717851973
 20
4.461613941808328
 30
0.0
 11
14.38057235479898
 21
4.577184109163312
 31
0.0
  0
LINE
  5
B7A
330
A8B
100
AcDbEntity
  8
FRONT
  6
Continuous
 62
     4
100
AcDbLine
 10
14.67478420277406
 20
4.548934236990556
 30
0.0
 11
14.66175334302106
 21
4.576222230137708
 31
0.0
  0
LINE
  5
B7B
330
A8B
100
AcDbEntity
  8
FRONT
  6
Continuous
 62
     4
100
AcDbLine
 10
15.22782923901037
 20
3.55838735530968
 30
0.0
 11
15.21184500108873
 21
3.588325064231844
 31
0.0
  0
ELLIPSE
  5
B7C
330
A8B
100
AcDbEntity
  8
FRONT
  6
Continuous
 62
     4
100
AcDbEllipse
 10
14.57425026010683
 20
3.669923248444872
 30
0.0
 11
-0.5697208004759025
 21
-0.3041833576987884
 31
0.0
210
0.0
220
0.0
230
1.0
 40
0.9833059182803454
 41
3.141592653589792
 42
4.211497995854738
  0
ELLIPSE
  5
B7D
330
A8B
100
AcDbEntity
  8
FRONT
  6
Continuous
 62
     4
100
AcDbEllipse
 10
14.69467022705201
 20
5.328647265550291
 30
0.0
 11
-0.0012380506136597
 21
-0.0199616439988246
 31
0.0
210
0.0
220
0.0
230
1.0
 40
0.0966394604989199
 41
4.556861561911704
 42
5.60405911256103
  0
ELLIPSE
  5
B7E
330
A8B
100
AcDbEntity
  8
FRONT
  6
Continuous
 62
     4
100
AcDbEllipse
 10
15.13698707744814
 20
4.149555768557871
 30
0.0
 11
-0.1387163939545198
 21
-0.0740629769062388
 31
0.0
210
0.0
220
0.0
230
1.0
 40
0.983305918279537
 41
3.141592653589792
 42
4.278357181632673
  0
ELLIPSE
  5
B7F
330
A8B
100
AcDbEntity
  8
FRONT
  6
Continuous
 62
     4
100
AcDbEllipse
 10
14.56910786775645
 20
3.679554149551463
 30
0.0
 11
-0.5697232499858903
 21
-0.3041793370702448
 31
0.0
210
0.0
220
0.0
230
1.0
 40
0.9833058533003276
 41
2.4521226627569
 42
2.51349782037308
  0
ELLIPSE
  5
B80
330
A8B
100
AcDbEntity
  8
FRONT
  6
Continuous
 62
     4
100
AcDbEllipse
 10
15.13698707744945
 20
4.149555768557799
 30
0.0
 11
-0.1387163939436924
 21
-0.0740629769240791
 31
0.0
210
0.0
220
0.0
230
1.0
 40
0.9833059182820004
 41
2.05024370739385
 42
3.141592653473066
  0
ELLIPSE
  5
B81
330
A8B
100
AcDbEntity
  8
FRONT
  6
Continuous
 62
     4
100
AcDbEllipse
 10
13.95207889255067
 20
4.038250081933183
 30
0.0
 11
-0.138716393954182
 21
-0.0740629769072034
 31
0.0
210
0.0
220
0.0
230
1.0
 40
0.9833059182793643
 41
4.144638809916375
 42
6.033222504441043
  0
ELLIPSE
  5
B82
330
A8B
100
AcDbEntity
  8
FRONT
  6
Continuous
 62
     4
100
AcDbEllipse
 10
14.50740336589031
 20
3.795124266565245
 30
0.0
 11
-0.6878480648487471
 21
-0.3672534576645039
 31
0.0
210
0.0
220
0.0
230
1.0
 40
0.9833059182825293
 41
3.364014017275521
 42
4.011784423528292
  0
ELLIPSE
  5
B83
330
A8B
100
AcDbEntity
  8
FRONT
  6
Continuous
 62
     4
100
AcDbEllipse
 10
15.19869190116777
 20
4.03398560119947
 30
0.0
 11
-0.1387163939305158
 21
-0.0740629769569428
 31
0.0
210
0.0
220
0.0
230
0.9999999999999998
 40
0.9833059182794855
 41
3.579055150075236
 42
4.278357181272085
  0
ELLIPSE
  5
B84
330
A8B
100
AcDbEntity
  8
FRONT
  6
Continuous
 62
     4
100
AcDbEllipse
 10
14.57425026010534
 20
3.669923248441066
 30
0.0
 11
-0.5697208004536415
 21
-0.3041833577478669
 31
0.0
210
0.0
220
0.0
230
0.9999999999999998
 40
0.9833059182795919
 41
4.211497995770305
 42
5.916687780929657
  0
ELLIPSE
  5
B85
330
A8B
100
AcDbEntity
  8
FRONT
  6
Continuous
 62
     4
100
AcDbEllipse
 10
14.51995578064691
 20
4.508250739867492
 30
0.0
 11
-0.1387190760836097
 21
-0.074062710247625
 31
0.0
210
0.0
220
0.0
230
0.9999999999999998
 40
0.9832989179835243
 41
3.097450943316431
 42
3.141602023580455
  0
ELLIPSE
  5
B86
330
A8B
100
AcDbEntity
  8
FRONT
  6
Continuous
 62
     4
100
AcDbEllipse
 10
14.51995778039392
 20
4.508251751292131
 30
0.0
 11
-0.1387163939537963
 21
-0.0740629769078515
 31
0.0
210
0.0
220
0.0
230
1.0
 40
0.9833059182791126
 41
3.141592653589792
 42
5.325554732817813
  0
ELLIPSE
  5
B87
330
A8B
100
AcDbEntity
  8
FRONT
  6
Continuous
 62
     4
100
AcDbEllipse
 10
14.60429708204515
 20
3.613646995939661
 30
0.0
 11
-0.3532268962687824
 21
-0.1885936818296914
 31
0.0
210
0.0
220
0.0
230
1.0
 40
0.9833059182785307
 41
3.188548543609073
 42
4.2114979956971
  0
ELLIPSE
  5
B88
330
A8B
100
AcDbEntity
  8
FRONT
  6
Continuous
 62
     4
100
AcDbEllipse
 10
14.08380160591652
 20
4.540074528313537
 30
0.0
 11
-0.3164233418824987
 21
-0.1689436554341971
 31
0.0
210
0.0
220
0.0
230
1.0
 40
0.9833059182770933
 41
1.003046156315968
 42
2.183962079224544
  0
ELLIPSE
  5
B89
330
A8B
100
AcDbEntity
  8
FRONT
  6
Continuous
 62
     4
100
AcDbEllipse
 10
14.50740336587441
 20
3.795124266572471
 30
0.0
 11
-0.6878480647677431
 21
-0.3672534578178684
 31
0.0
210
0.0
220
0.0
230
1.0
 40
0.9833059182652659
 41
4.411211568248791
 42
5.058981974505009
  0
ELLIPSE
  5
B8A
330
A8B
100
AcDbEntity
  8
FRONT
  6
Continuous
 62
     4
100
AcDbEllipse
 10
14.58172285396982
 20
3.891878882787051
 30
0.0
 11
-1.289463505490719
 21
-0.6884658929129687
 31
0.0
210
0.0
220
0.0
230
1.0
 40
0.9833059182902299
 41
5.42507150311212
 42
5.993725673721996
  0
ELLIPSE
  5
B8B
330
A8B
100
AcDbEntity
  8
FRONT
  6
Continuous
 62
     4
100
AcDbEllipse
 10
13.97044885753497
 20
5.616005562204333
 30
0.0
 11
-0.0211384512596285
 21
-0.8497371156793303
 31
0.0
210
0.0
220
0.0
230
0.9999999999999998
 40
0.1896634436923256
 41
1.168100390367426
 42
1.749625419812159
  0
ELLIPSE
  5
B8C
330
A8B
100
AcDbEntity
  8
FRONT
  6
Continuous
 62
     4
100
AcDbEllipse
 10
14.58166260411466
 20
4.392681583937155
 30
0.0
 11
-0.138716393954067
 21
-0.0740629769073293
 31
0.0
210
0.0
220
0.0
230
1.0
 40
0.9833059182794162
 41
3.353232323526823
 42
5.325554732821572
  0
ELLIPSE
  5
B8D
330
A8B
100
AcDbEntity
  8
FRONT
  6
Continuous
 62
     4
100
AcDbEllipse
 10
13.89037417432644
 20
4.153820311544767
 30
0.0
 11
-0.1387164275215775
 21
-0.0740631738835355
 31
0.0
210
0.0
220
0.0
230
1.0
 40
0.9833055364643515
 41
6.283184319510271
 42
6.372751261455347
  0
ELLIPSE
  5
B8E
330
A8B
100
AcDbEntity
  8
FRONT
  6
Continuous
 62
     4
100
AcDbEllipse
 10
14.50740336586205
 20
3.795124266556618
 30
0.0
 11
-0.6878480646011706
 21
-0.3672534581129616
 31
0.0
210
0.0
220
0.0
230
1.0
 40
0.9833059182837756
 41
5.458409119012037
 42
6.053253327806824
  0
ELLIPSE
  5
B8F
330
A8B
100
AcDbEntity
  8
FRONT
  6
Continuous
 62
     4
100
AcDbEllipse
 10
14.58207327753735
 20
3.891222556444417
 30
0.0
 11
-1.314616796581824
 21
-0.7018956497286183
 31
0.0
210
0.0
220
0.0
230
0.9999999999999998
 40
0.9833059182747907
 41
4.552187304562112
 42
5.292715336509727
  0
ELLIPSE
  5
B90
330
A8B
100
AcDbEntity
  8
FRONT
  6
Continuous
 62
     4
100
AcDbEllipse
 10
14.58688798533232
 20
3.646253396861238
 30
0.0
 11
-0.3532268962957501
 21
-0.1885936817720534
 31
0.0
210
0.0
220
0.0
230
1.0
 40
0.9833059182800568
 41
3.141592653589792
 42
4.211497995858031
  0
ELLIPSE
  5
B91
330
A8B
100
AcDbEntity
  8
FRONT
  6
Continuous
 62
     4
100
AcDbEllipse
 10
5.175521261857809
 20
0.522334779761014
 30
0.0
 11
-7.504621568768301
 21
-3.321134731786813
 31
0.0
210
0.0
220
0.0
230
1.0
 40
0.3415132900699109
 41
3.041715105904696
 42
3.07577658346799
  0
ELLIPSE
  5
B92
330
A8B
100
AcDbEntity
  8
FRONT
  6
Continuous
 62
     4
100
AcDbEllipse
 10
14.58688798535681
 20
3.646253396862428
 30
0.0
 11
-0.3532268961353468
 21
-0.1885936820254782
 31
0.0
210
0.0
220
0.0
230
1.0
 40
0.9833059183033368
 41
2.433542523355816
 42
3.141592652947553
  0
ELLIPSE
  5
B93
330
A8B
100
AcDbEntity
  8
FRONT
  6
Continuous
 62
     4
100
AcDbEllipse
 10
14.60429708204586
 20
3.613646995941261
 30
0.0
 11
-0.3532268962799985
 21
-0.1885936818057033
 31
0.0
210
0.0
220
0.0
230
0.9999999999999998
 40
0.9833059182790311
 41
4.211497995764053
 42
5.866656694161925
  0
ELLIPSE
  5
B94
330
A8B
100
AcDbEntity
  8
FRONT
  6
Continuous
 62
     4
100
AcDbEllipse
 10
14.61409458346357
 20
3.831248190401323
 30
0.0
 11
-1.141300807144346
 21
-0.6093593764680998
 31
0.0
210
0.0
220
0.0
230
1.0
 40
0.9833059182778084
 41
4.211497995759971
 42
5.305260955205678
  0
ELLIPSE
  5
B95
330
A8B
100
AcDbEntity
  8
FRONT
  6
Continuous
 62
     4
100
AcDbEllipse
 10
14.58172613529574
 20
3.891872737174622
 30
0.0
 11
-1.2898928947353
 21
-0.6886951495342341
 31
0.0
210
0.0
220
0.0
230
1.0
 40
0.9833059182785364
 41
4.211497995763918
 42
5.292715336570157
  0
ELLIPSE
  5
B96
330
A8B
100
AcDbEntity
  8
FRONT
  6
Continuous
 62
     4
100
AcDbEllipse
 10
14.56910818960469
 20
3.679554099198936
 30
0.0
 11
-0.5697208004516448
 21
-0.3041833577510329
 31
0.0
210
0.0
220
0.0
230
1.0
 40
0.9833059182790732
 41
4.211497995764176
 42
5.932188545061793
  0
ELLIPSE
  5
B97
330
A8B
100
AcDbEntity
  8
FRONT
  6
Continuous
 62
     4
100
AcDbEllipse
 10
12.57015373105181
 20
5.400676431794027
 30
0.0
 11
-0.2869743301033756
 21
0.8000910781621206
 31
0.0
210
0.0
220
0.0
230
1.0
 40
0.1844576932552187
 41
4.318012958595913
 42
4.737148911237754
  0
ELLIPSE
  5
B98
330
A8B
100
AcDbEntity
  8
FRONT
  6
Continuous
 62
     4
100
AcDbEllipse
 10
14.50740336588399
 20
3.79512426655381
 30
0.0
 11
-0.8808790105358404
 21
-0.4703158722400647
 31
0.0
210
0.0
220
0.0
230
1.0
 40
0.9833059182791467
 41
2.390668816843747
 42
5.988551940869403
  0
ELLIPSE
  5
B99
330
A8B
100
AcDbEntity
  8
FRONT
  6
Continuous
 62
     4
100
AcDbEllipse
 10
14.76472077294693
 20
5.467799863486599
 30
0.0
 11
-0.2364016993902184
 21
-0.8164644729534451
 31
0.0
210
0.0
220
0.0
230
0.9999999999999998
 40
0.1280545533618557
 41
1.440078277354396
 42
1.815854610802254
  0
ELLIPSE
  5
B9A
330
A8B
100
AcDbEntity
  8
FRONT
  6
Continuous
 62
     4
100
AcDbEllipse
 10
14.58257986552555
 20
3.890273741520238
 30
0.0
 11
-1.274184406513254
 21
-0.6803081277927215
 31
0.0
210
0.0
220
0.0
230
0.9999999999999998
 40
0.9833059182784806
 41
5.425071504014952
 42
5.994214383758207
  0
ELLIPSE
  5
B9B
330
A8B
100
AcDbEntity
  8
FRONT
  6
Continuous
 62
     4
100
AcDbEllipse
 10
13.78292511660905
 20
5.616499995611142
 30
0.0
 11
-0.0163260565688646
 21
0.8498431972198538
 31
0.0
210
0.0
220
0.0
230
1.0
 40
0.1967958030989425
 41
4.311714536223275
 42
4.876679898782334
  0
ELLIPSE
  5
B9C
330
A8B
100
AcDbEntity
  8
FRONT
  6
Continuous
 62
     4
100
AcDbEllipse
 10
14.50740336587235
 20
3.795124266552682
 30
0.0
 11
-0.6878480648432717
 21
-0.3672534577212541
 31
0.0
210
0.0
220
0.0
230
1.0
 40
0.9833059182736951
 41
2.316816466017689
 42
2.964586872260165
  0
ELLIPSE
  5
B9D
330
A8B
100
AcDbEntity
  8
FRONT
  6
Continuous
 62
     4
100
AcDbEllipse
 10
14.56910818960365
 20
3.679554099196997
 30
0.0
 11
-0.5697208004383743
 21
-0.3041833577798674
 31
0.0
210
0.0
220
0.0
230
0.9999999999999998
 40
0.9833059182783683
 41
3.141592653589792
 42
4.211497995714275
  0
ELLIPSE
  5
B9E
330
A8B
100
AcDbEntity
  8
FRONT
  6
Continuous
 62
     4
100
AcDbEllipse
 10
14.61736004955248
 20
5.312895778975766
 30
0.0
 11
-0.0004109759370388
 21
-0.119983668084697
 31
0.0
210
0.0
220
0.0
230
0.9999999999999998
 40
0.0873685432136738
 41
4.487162694202337
 42
4.526241732837313
  0
ELLIPSE
  5
B9F
330
A8B
100
AcDbEntity
  8
FRONT
  6
Continuous
 62
     4
100
AcDbEllipse
 10
14.56910819127553
 20
3.679554099860636
 30
0.0
 11
-0.5697207959968914
 21
-0.3041833623035364
 31
0.0
210
0.0
220
0.0
230
1.0
 40
0.9833059196149559
 41
2.938742608956589
 42
3.141592644282478
  0
ELLIPSE
  5
BA0
330
A8B
100
AcDbEntity
  8
FRONT
  6
Continuous
 62
     4
100
AcDbEllipse
 10
15.08465295287089
 20
4.536650762276023
 30
0.0
 11
-0.3164233418788596
 21
-0.1689436554438716
 31
0.0
210
0.0
220
0.0
230
0.9999999999999998
 40
0.9833059182783118
 41
0.0
 42
1.136764527997376
  0
ELLIPSE
  5
BA1
330
A8B
100
AcDbEntity
  8
FRONT
  6
Continuous
 62
     4
100
AcDbEllipse
 10
14.58258259988541
 20
3.890268620186363
 30
0.0
 11
-1.274168156721289
 21
-0.6802994518514309
 31
0.0
210
0.0
220
0.0
230
1.0
 40
0.9833059182777518
 41
4.211497995758451
 42
5.292715337516466
  0
ELLIPSE
  5
BA2
330
A8B
100
AcDbEntity
  8
FRONT
  6
Continuous
 62
     4
100
AcDbEllipse
 10
13.89037406882998
 20
4.153820249288088
 30
0.0
 11
-0.1387163939551331
 21
-0.0740629769055295
 31
0.0
210
0.0
220
0.0
230
0.9999999999999998
 40
0.9833059182795551
 41
4.144638809929066
 42
6.283185307179584
  0
ELLIPSE
  5
BA3
330
A8B
100
AcDbEntity
  8
FRONT
  6
Continuous
 62
     4
100
AcDbEllipse
 10
13.56825684262709
 20
3.682977865236207
 30
0.0
 11
-0.3164233420262994
 21
-0.1689436552114316
 31
0.0
210
0.0
220
0.0
230
0.9999999999999998
 40
0.983305918256555
 41
2.372365793430126
 42
3.141592654310951
  0
ELLIPSE
  5
BA4
330
A8B
100
AcDbEntity
  8
FRONT
  6
Continuous
 62
     4
100
AcDbEllipse
 10
14.5868879853312
 20
3.646253396859196
 30
0.0
 11
-0.3532268962794111
 21
-0.1885936818066905
 31
0.0
210
0.0
220
0.0
230
1.0
 40
0.9833059182788758
 41
4.211497995761056
 42
5.951301366806
  0
SPLINE
  5
BA5
330
A8B
100
AcDbEntity
  8
FRONT
  6
Continuous
 62
     4
100
AcDbSpline
210
0.0
220
0.0
230
1.0
 70
    24
 71
     1
 72
     4
 73
     2
 74
     0
 42
0.0000000001
 43
0.0000000001
 40
0.0
 40
0.0
 40
1.0
 40
1.0
 10
14.69249519034973
 20
5.313189824235679
 30
0.0
 10
14.60768112625891
 20
5.315938369092338
 30
0.0
  0
SPLINE
  5
BA6
330
A8B
100
AcDbEntity
  8
FRONT
  6
Continuous
 62
     4
100
AcDbSpline
210
0.0
220
0.0
230
1.0
 70
    24
 71
     1
 72
     4
 73
     2
 74
     0
 42
0.0000000001
 43
0.0000000001
 40
0.0
 40
0.0
 40
1.0
 40
1.0
 10
14.83756674726533
 20
5.331362856545028
 30
0.0
 10
14.68992440208029
 20
5.336837850675596
 30
0.0
  0
SPLINE
  5
BA7
330
A8B
100
AcDbEntity
  8
FRONT
  6
Continuous
 62
     4
100
AcDbSpline
210
0.0
220
0.0
230
1.0
 70
    24
 71
     1
 72
     4
 73
     2
 74
     0
 42
0.0000000001
 43
0.0000000001
 40
0.0
 40
0.0
 40
1.0
 40
1.0
 10
12.81667247474081
 20
5.142126865126981
 30
0.0
 10
12.502260809944
 20
5.038954222702708
 30
0.0
  0
SPLINE
  5
BA8
330
A8B
100
AcDbEntity
  8
FRONT
  6
Continuous
 62
     4
100
AcDbSpline
210
0.0
220
0.0
230
1.0
 70
     8
 71
     2
 72
     6
 73
     3
 74
     0
 42
0.0000000001
 43
0.0000000001
 40
0.0
 40
0.0
 40
0.0
 40
1.0
 40
1.0
 40
1.0
 10
13.94329233751025
 20
5.287986048440243
 30
0.0
 10
13.36904800632871
 20
5.308177948949881
 30
0.0
 10
12.81667247474081
 20
5.142126865127038
 30
0.0
  0
SPLINE
  5
BA9
330
A8B
100
AcDbEntity
  8
FRONT
  6
Continuous
 62
     4
100
AcDbSpline
210
0.0
220
0.0
230
1.0
 70
     8
 71
     3
 72
    11
 73
     7
 74
     0
 42
0.0000000001
 43
0.0000000001
 40
0.0
 40
0.0
 40
0.0
 40
0.0
 40
0.2500000000004002
 40
0.5000000000000384
 40
0.7500000000002445
 40
1.0
 40
1.0
 40
1.0
 40
1.0
 10
13.24329890969342
 20
4.393410854946448
 30
0.0
 10
13.24233341373558
 20
4.393971351428181
 30
0.0
 10
13.24014478598936
 20
4.395146401648325
 30
0.0
 10
13.23597462327683
 20
4.397127664258944
 30
0.0
 10
13.23126018027509
 20
4.399158067618833
 30
0.0
 10
13.22803724322823
 20
4.400426501220721
 30
0.0
 10
13.22638220773661
 20
4.401049253290286
 30
0.0
  0
SPLINE
  5
BAA
330
A8B
100
AcDbEntity
  8
FRONT
  6
Continuous
 62
     4
100
AcDbSpline
210
0.0
220
0.0
230
1.0
 70
    24
 71
     1
 72
     4
 73
     2
 74
     0
 42
0.0000000001
 43
0.0000000001
 40
0.0
 40
0.0
 40
1.0
 40
1.0
 10
14.13280283862451
 20
5.763209387832385
 30
0.0
 10
14.60909340460244
 20
5.711114127719043
 30
0.0
  0
SPLINE
  5
BAB
330
A8B
100
AcDbEntity
  8
FRONT
  6
Continuous
 62
     4
100
AcDbSpline
210
0.0
220
0.0
230
1.0
 70
    24
 71
     1
 72
     4
 73
     2
 74
     0
 42
0.0000000001
 43
0.0000000001
 40
0.0
 40
0.0
 40
1.0
 40
1.0
 10
14.6090865051094
 20
5.711625498686736
 30
0.0
 10
14.92350318018168
 20
5.636516777042869
 30
0.0
  0
SPLINE
  5
BAC
330
A8B
100
AcDbEntity
  8
FRONT
  6
Continuous
 62
     4
100
AcDbSpline
210
0.0
220
0.0
230
1.0
 70
    24
 71
     1
 72
     4
 73
     2
 74
     0
 42
0.0000000001
 43
0.0000000001
 40
0.0
 40
0.0
 40
1.0
 40
1.0
 10
14.70338694437526
 20
4.489896482910467
 30
0.0
 10
14.71097785761778
 20
4.474938976988299
 30
0.0
  0
SPLINE
  5
BAD
330
A8B
100
AcDbEntity
  8
FRONT
  6
Continuous
 62
     4
100
AcDbSpline
210
0.0
220
0.0
230
1.0
 70
    24
 71
     1
 72
     4
 73
     2
 74
     0
 42
0.0000000001
 43
0.0000000001
 40
0.0
 40
0.0
 40
1.0
 40
1.0
 10
13.94524870938069
 20
5.758663903675718
 30
0.0
 10
13.94849591684476
 20
5.910374238520851
 30
0.0
  0
SPLINE
  5
BAE
330
A8B
100
AcDbEntity
  8
FRONT
  6
Continuous
 62
     4
100
AcDbSpline
210
0.0
220
0.0
230
1.0
 70
     8
 71
     3
 72
    27
 73
    23
 74
     0
 42
0.0000000001
 43
0.0000000001
 40
0.0
 40
0.0
 40
0.0
 40
0.0
 40
0.2366252197469015
 40
0.5011857703755036
 40
0.6170954909511118
 40
0.6813809129738626
 40
0.7150700700809978
 40
0.7322963567034382
 40
0.7410042896839962
 40
0.7453818723743754
 40
0.7475765575058172
 40
0.7486753722519263
 40
0.7492251475017373
 40
0.7495001270756441
 40
0.7496376398473227
 40
0.7497064019790262
 40
0.7497407844813076
 40
0.7497751679411861
 40
0.7516543580812576
 40
0.7684406215659994
 40
0.8166950275236356
 40
1.0
 40
1.0
 40
1.0
 40
1.0
 10
14.60909339101644
 20
5.711114124413491
 30
0.0
 10
14.60948781698238
 20
5.682031763659281
 30
0.0
 10
14.61005082917718
 20
5.620220915826541
 30
0.0
 10
14.61001311662804
 20
5.543096055524626
 30
0.0
 10
14.60961852963504
 20
5.487687827984436
 30
0.0
 10
14.60933943853557
 20
5.461104315057176
 30
0.0
 10
14.60916381097548
 20
5.446814350617032
 30
0.0
 10
14.60906622380328
 20
5.439426844543143
 30
0.0
 10
14.60901490310633
 20
5.435673462883299
 30
0.0
 10
14.60898860047587
 20
5.4337819906927
 30
0.0
 10
14.60897045899501
 20
5.432493419559841
 30
0.0
 10
14.60896905688914
 20
5.432393429389828
 30
0.0
 10
14.60896765478331
 20
5.432293439219815
 30
0.0
 10
14.60896625267744
 20
5.432193449049803
 30
0.0
 10
14.6089648505716
 20
5.43209345887979
 30
0.0
 10
14.60896344846577
 20
5.431993468709777
 30
0.0
 10
14.60896204635992
 20
5.431893478539762
 30
0.0
 10
14.60895863749725
 20
5.431652428828829
 30
0.0
 10
14.60892682016698
 20
5.429338529498513
 30
0.0
 10
14.60881020481483
 20
5.421061993311028
 30
0.0
 10
14.6083339813956
 20
5.390397134061578
 30
0.0
 10
14.60776482101609
 20
5.362037547077322
 30
0.0
 10
14.60723379104669
 20
5.339726363785728
 30
0.0
  0
SPLINE
  5
BAF
330
A8B
100
AcDbEntity
  8
FRONT
  6
Continuous
 62
     4
100
AcDbSpline
210
0.0
220
0.0
230
1.0
 70
    24
 71
     1
 72
     4
 73
     2
 74
     0
 42
0.0000000001
 43
0.0000000001
 40
0.0
 40
0.0
 40
1.0
 40
1.0
 10
13.77533931878937
 20
4.042581236833521
 30
0.0
 10
13.81073371171078
 20
3.987366922169501
 30
0.0
  0
SPLINE
  5
BB0
330
A8B
100
AcDbEntity
  8
FRONT
  6
Continuous
 62
     4
100
AcDbSpline
210
0.0
220
0.0
230
1.0
 70
    24
 71
     1
 72
     4
 73
     2
 74
     0
 42
0.0000000001
 43
0.0000000001
 40
0.0
 40
0.0
 40
1.0
 40
1.0
 10
15.248091543825
 20
4.037543166926567
 30
0.0
 10
15.21878522660067
 20
3.982550183926618
 30
0.0
  0
SPLINE
  5
BB1
330
A8B
100
AcDbEntity
  8
FRONT
  6
Continuous
 62
     4
100
AcDbSpline
210
0.0
220
0.0
230
1.0
 70
     8
 71
     3
 72
    13
 73
     9
 74
     0
 42
0.0000000001
 43
0.0000000001
 40
0.0
 40
0.0
 40
0.0
 40
0.0
 40
0.2195179240467221
 40
0.3900257003637577
 40
0.5330606690638802
 40
0.6760211201067881
 40
0.8783846008238288
 40
1.0
 40
1.0
 40
1.0
 40
1.0
 10
13.99589107417438
 20
4.295192292184528
 30
0.0
 10
14.02503990650797
 20
4.289018514220859
 30
0.0
 10
14.07813545040565
 20
4.286623059621509
 30
0.0
 10
14.15671911404191
 20
4.301478243787753
 30
0.0
 10
14.22171844805865
 20
4.332770470360475
 30
0.0
 10
14.28033457719675
 20
4.380945161854135
 30
0.0
 10
14.3195727746653
 20
4.436285674998737
 30
0.0
 10
14.33825358880528
 20
4.475847256447878
 30
0.0
 10
14.3439322300138
 20
4.491126124902221
 30
0.0
  0
SPLINE
  5
BB2
330
A8B
100
AcDbEntity
  8
FRONT
  6
Continuous
 62
     4
100
AcDbSpline
210
0.0
220
0.0
230
1.0
 70
    24
 71
     1
 72
     4
 73
     2
 74
     0
 42
0.0000000001
 43
0.0000000001
 40
0.0
 40
0.0
 40
1.0
 40
1.0
 10
14.67478420277406
 20
4.548934236990556
 30
0.0
 10
14.70338694437526
 20
4.489896482910471
 30
0.0
  0
SPLINE
  5
BB3
330
A8B
100
AcDbEntity
  8
FRONT
  6
Continuous
 62
     4
100
AcDbSpline
210
0.0
220
0.0
230
1.0
 70
     8
 71
     3
 72
    11
 73
     7
 74
     0
 42
0.0000000001
 43
0.0000000001
 40
0.0
 40
0.0
 40
0.0
 40
0.0
 40
0.2500000000000269
 40
0.5000000000000613
 40
0.7499999999997869
 40
1.0
 40
1.0
 40
1.0
 40
1.0
 10
13.32453443224985
 20
4.565040025424456
 30
0.0
 10
13.32359602231685
 20
4.565724324465811
 30
0.0
 10
13.3214696827018
 20
4.567186493161131
 30
0.0
 10
13.31741499243888
 20
4.569735924742813
 30
0.0
 10
13.31284498611547
 20
4.572415134760538
 30
0.0
 10
13.30974180656181
 20
4.574123313175141
 30
0.0
 10
13.30815217000305
 20
4.574971618696021
 30
0.0
  0
SPLINE
  5
BB4
330
A8B
100
AcDbEntity
  8
FRONT
  6
Continuous
 62
     4
100
AcDbSpline
210
0.0
220
0.0
230
1.0
 70
     8
 71
     2
 72
     6
 73
     3
 74
     0
 42
0.0000000001
 43
0.0000000001
 40
0.0
 40
0.0
 40
0.0
 40
1.0
 40
1.0
 40
1.0
 10
13.22638220773663
 20
4.401049253290271
 30
0.0
 10
13.2613789349715
 20
4.490908928155922
 30
0.0
 10
13.308152170003
 20
4.574971618696058
 30
0.0
  0
SPLINE
  5
BB5
330
A8B
100
AcDbEntity
  8
FRONT
  6
Continuous
 62
     4
100
AcDbSpline
210
0.0
220
0.0
230
1.0
 70
    24
 71
     1
 72
     4
 73
     2
 74
     0
 42
0.0000000001
 43
0.0000000001
 40
0.0
 40
0.0
 40
1.0
 40
1.0
 10
13.80267447603256
 20
3.591914630017021
 30
0.0
 10
13.80379348619884
 20
3.593141802474727
 30
0.0
  0
SPLINE
  5
BB6
330
A8B
100
AcDbEntity
  8
FRONT
  6
Continuous
 62
     4
100
AcDbSpline
210
0.0
220
0.0
230
1.0
 70
    24
 71
     1
 72
     4
 73
     2
 74
     0
 42
0.0000000001
 43
0.0000000001
 40
0.0
 40
0.0
 40
1.0
 40
1.0
 10
14.60909339101634
 20
5.711114124413048
 30
0.0
 10
14.6090865051094
 20
5.711625498686736
 30
0.0
  0
SPLINE
  5
BB7
330
A8B
100
AcDbEntity
  8
FRONT
  6
Continuous
 62
     4
100
AcDbSpline
210
0.0
220
0.0
230
1.0
 70
    24
 71
     1
 72
     4
 73
     2
 74
     0
 42
0.0000000001
 43
0.0000000001
 40
0.0
 40
0.0
 40
1.0
 40
1.0
 10
14.60713440708852
 20
5.335136932445034
 30
0.0
 10
14.69295620412083
 20
5.331857548057462
 30
0.0
  0
SPLINE
  5
BB8
330
A8B
100
AcDbEntity
  8
FRONT
  6
Continuous
 62
     4
100
AcDbSpline
210
0.0
220
0.0
230
1.0
 70
     8
 71
     3
 72
    13
 73
     9
 74
     0
 42
0.0000000001
 43
0.0000000001
 40
0.0
 40
0.0
 40
0.0
 40
0.0
 40
0.1870906036410149
 40
0.3646813612908705
 40
0.5136542261935185
 40
0.6625496942781221
 40
0.8732997954630318
 40
1.0
 40
1.0
 40
1.0
 40
1.0
 10
14.71097785761778
 20
4.474938976988299
 30
0.0
 10
14.72258946069355
 20
4.452117336803171
 30
0.0
 10
14.75023929494702
 20
4.410179915390369
 30
0.0
 10
14.80309030761751
 20
4.354724829831821
 30
0.0
 10
14.86319833542792
 20
4.314941243102536
 30
0.0
 10
14.93091957239508
 20
4.289394301276414
 30
0.0
 10
14.99207346962869
 20
4.284228893684812
 30
0.0
 10
15.03052376342849
 20
4.28859592198095
 30
0.0
 10
15.04448787470278
 20
4.291605195933395
 30
0.0
  0
SPLINE
  5
BB9
330
A8B
100
AcDbEntity
  8
FRONT
  6
Continuous
 62
     4
100
AcDbSpline
210
0.0
220
0.0
230
1.0
 70
    24
 71
     1
 72
     4
 73
     2
 74
     0
 42
0.0000000001
 43
0.0000000001
 40
0.0
 40
0.0
 40
1.0
 40
1.0
 10
14.36658232700411
 20
4.549988550519462
 30
0.0
 10
14.3439322300138
 20
4.491126124902221
 30
0.0
  0
SPLINE
  5
BBA
330
A8B
100
AcDbEntity
  8
FRONT
  6
Continuous
 62
     4
100
AcDbSpline
210
0.0
220
0.0
230
1.0
 70
    24
 71
     1
 72
     4
 73
     2
 74
     0
 42
0.0000000001
 43
0.0000000001
 40
0.0
 40
0.0
 40
1.0
 40
1.0
 10
12.81667247474081
 20
5.142126865126981
 30
0.0
 10
13.28408820193523
 20
4.587414672117768
 30
0.0
  0
SPLINE
  5
BBB
330
A8B
100
AcDbEntity
  8
FRONT
  6
Continuous
 62
     4
100
AcDbSpline
210
0.0
220
0.0
230
1.0
 70
    24
 71
     1
 72
     4
 73
     2
 74
     0
 42
0.0000000001
 43
0.0000000001
 40
0.0
 40
0.0
 40
1.0
 40
1.0
 10
14.68992440208029
 20
5.336837850675596
 30
0.0
 10
14.60723379104648
 20
5.339726363791863
 30
0.0
  0
SPLINE
  5
BBC
330
A8B
100
AcDbEntity
  8
FRONT
  6
Continuous
 62
     4
100
AcDbSpline
210
0.0
220
0.0
230
1.0
 70
    24
 71
     1
 72
     4
 73
     2
 74
     0
 42
0.0000000001
 43
0.0000000001
 40
0.0
 40
0.0
 40
1.0
 40
1.0
 10
13.934096024833
 20
4.306515336617805
 30
0.0
 10
13.99589107417434
 20
4.295192292184527
 30
0.0
  0
SPLINE
  5
BBD
330
A8B
100
AcDbEntity
  8
FRONT
  6
Continuous
 62
     4
100
AcDbSpline
210
0.0
220
0.0
230
1.0
 70
    24
 71
     1
 72
     4
 73
     2
 74
     0
 42
0.0000000001
 43
0.0000000001
 40
0.0
 40
0.0
 40
1.0
 40
1.0
 10
13.82870159920979
 20
3.956766489145926
 30
0.0
 10
13.81073371171078
 20
3.987366922169501
 30
0.0
  0
SPLINE
  5
BBE
330
A8B
100
AcDbEntity
  8
FRONT
  6
Continuous
 62
     4
100
AcDbSpline
210
0.0
220
0.0
230
1.0
 70
    24
 71
     1
 72
     4
 73
     2
 74
     0
 42
0.0000000001
 43
0.0000000001
 40
0.0
 40
0.0
 40
1.0
 40
1.0
 10
15.12498870412169
 20
5.250072189631183
 30
0.0
 10
14.83756674726533
 20
5.331362856545028
 30
0.0
  0
SPLINE
  5
BBF
330
A8B
100
AcDbEntity
  8
FRONT
  6
Continuous
 62
     4
100
AcDbSpline
210
0.0
220
0.0
230
1.0
 70
    24
 71
     1
 72
     4
 73
     2
 74
     0
 42
0.0000000001
 43
0.0000000001
 40
0.0
 40
0.0
 40
1.0
 40
1.0
 10
14.60613712230153
 20
5.930601946215412
 30
0.0
 10
13.9484959168259
 20
5.910374237639897
 30
0.0
  0
SPLINE
  5
BC0
330
A8B
100
AcDbEntity
  8
FRONT
  6
Continuous
 62
     4
100
AcDbSpline
210
0.0
220
0.0
230
1.0
 70
     8
 71
     3
 72
    13
 73
     9
 74
     0
 42
0.0000000001
 43
0.0000000001
 40
0.0
 40
0.0
 40
0.0
 40
0.0
 40
0.2347537562056165
 40
0.4839866866904262
 40
0.5952214255276555
 40
0.7119727950652918
 40
0.96740910102467
 40
1.0
 40
1.0
 40
1.0
 40
1.0
 10
13.28408820191653
 20
4.587414672136794
 30
0.0
 10
13.25012566103997
 20
4.527227778404608
 30
0.0
 10
13.16675985793541
 20
4.419327616560915
 30
0.0
 10
13.02099432060977
 20
4.324734681857227
 30
0.0
 10
12.89482138585317
 20
4.276802417204223
 30
0.0
 10
12.76176035094723
 20
4.247019780138493
 30
0.0
 10
12.64742901726418
 20
4.245333565339181
 30
0.0
 10
12.56818868716331
 20
4.25379454225212
 30
0.0
 10
12.55922715270803
 20
4.25489452478367
 30
0.0
  0
SPLINE
  5
BC1
330
A8B
100
AcDbEntity
  8
FRONT
  6
Continuous
 62
     4
100
AcDbSpline
210
0.0
220
0.0
230
1.0
 70
    24
 71
     1
 72
     4
 73
     2
 74
     0
 42
0.0000000001
 43
0.0000000001
 40
0.0
 40
0.0
 40
1.0
 40
1.0
 10
15.19781587154303
 20
3.611548393029448
 30
0.0
 10
15.21184500108873
 20
3.588325064231846
 30
0.0
  0
SPLINE
  5
BC2
330
A8B
100
AcDbEntity
  8
FRONT
  6
Continuous
 62
     4
100
AcDbSpline
210
0.0
220
0.0
230
1.0
 70
     8
 71
     3
 72
    13
 73
     9
 74
     0
 42
0.0000000001
 43
0.0000000001
 40
0.0
 40
0.0
 40
0.0
 40
0.0
 40
0.2396506614303369
 40
0.4258576417570409
 40
0.5820550163389703
 40
0.7381714217428096
 40
0.9591299429654435
 40
1.0
 40
1.0
 40
1.0
 40
1.0
 10
13.80379348619884
 20
3.593141802474731
 30
0.0
 10
13.82192418679251
 20
3.611675128293107
 30
0.0
 10
13.84805114611859
 20
3.651068053755462
 30
0.0
 10
13.87223513902732
 20
3.72087154530691
 30
0.0
 10
13.87761343104861
 20
3.791029577212136
 30
0.0
 10
13.86710343122898
 20
3.867335533638517
 30
0.0
 10
13.84678182979217
 20
3.921569727755633
 30
0.0
 10
13.83122577128982
 20
3.952077271441022
 30
0.0
 10
13.82870159920979
 20
3.956766489145926
 30
0.0
  0
SPLINE
  5
BC3
330
A8B
100
AcDbEntity
  8
FRONT
  6
Continuous
 62
     4
100
AcDbSpline
210
0.0
220
0.0
230
1.0
 70
    24
 71
     1
 72
     4
 73
     2
 74
     0
 42
0.0000000001
 43
0.0000000001
 40
0.0
 40
0.0
 40
1.0
 40
1.0
 10
13.32453443224985
 20
4.565040025424456
 30
0.0
 10
13.24329890969339
 20
4.393410854946447
 30
0.0
  0
SPLINE
  5
BC4
330
A8B
100
AcDbEntity
  8
FRONT
  6
Continuous
 62
     4
100
AcDbSpline
210
0.0
220
0.0
230
1.0
 70
    24
 71
     1
 72
     4
 73
     2
 74
     0
 42
0.0000000001
 43
0.0000000001
 40
0.0
 40
0.0
 40
1.0
 40
1.0
 10
14.11043689694178
 20
5.279305060039821
 30
0.0
 10
13.94329233739435
 20
5.287986047480941
 30
0.0
  0
SPLINE
  5
BC5
330
A8B
100
AcDbEntity
  8
FRONT
  6
Continuous
 62
     4
100
AcDbSpline
210
0.0
220
0.0
230
1.0
 70
     8
 71
     3
 72
    11
 73
     7
 74
     0
 42
0.0000000001
 43
0.0000000001
 40
0.0
 40
0.0
 40
0.0
 40
0.0
 40
0.1281905622924043
 40
0.421624799894869
 40
0.7263899413642454
 40
1.0
 40
1.0
 40
1.0
 40
1.0
 10
12.73853609935463
 20
3.667760942170496
 30
0.0
 10
12.76672223532988
 20
3.693449167011665
 30
0.0
 10
12.85617813617569
 20
3.780688567568847
 30
0.0
 10
12.99312764578302
 20
3.948243292988441
 30
0.0
 10
13.12308988273993
 20
4.171774666937092
 30
0.0
 10
13.19571953861603
 20
4.326067837016096
 30
0.0
 10
13.2263821747769
 20
4.401049180529136
 30
0.0
  0
SPLINE
  5
BC6
330
A8B
100
AcDbEntity
  8
FRONT
  6
Continuous
 62
     4
100
AcDbSpline
210
0.0
220
0.0
230
1.0
 70
    24
 71
     1
 72
     4
 73
     2
 74
     0
 42
0.0000000001
 43
0.0000000001
 40
0.0
 40
0.0
 40
1.0
 40
1.0
 10
15.23230844269541
 20
3.558198880030202
 30
0.0
 10
15.21184500108873
 20
3.588325064231844
 30
0.0
  0
SPLINE
  5
BC7
330
A8B
100
AcDbEntity
  8
FRONT
  6
Continuous
 62
     4
100
AcDbSpline
210
0.0
220
0.0
230
1.0
 70
     8
 71
     2
 72
     6
 73
     3
 74
     0
 42
0.0000000001
 43
0.0000000001
 40
0.0
 40
0.0
 40
0.0
 40
1.0
 40
1.0
 40
1.0
 10
14.60723379104669
 20
5.339726363785726
 30
0.0
 10
14.35457942540308
 20
5.348825046804551
 30
0.0
 10
14.11043689694178
 20
5.279305060039821
 30
0.0
  0
SPLINE
  5
BC8
330
A8B
100
AcDbEntity
  8
FRONT
  6
Continuous
 62
     4
100
AcDbSpline
210
0.0
220
0.0
230
1.0
 70
    24
 71
     1
 72
     4
 73
     2
 74
     0
 42
0.0000000001
 43
0.0000000001
 40
0.0
 40
0.0
 40
1.0
 40
1.0
 10
13.94524848483674
 20
5.758663915957267
 30
0.0
 10
14.13280283862451
 20
5.763209387832385
 30
0.0
  0
SPLINE
  5
BC9
330
A8B
100
AcDbEntity
  8
FRONT
  6
Continuous
 62
     4
100
AcDbSpline
210
0.0
220
0.0
230
1.0
 70
    24
 71
     1
 72
     4
 73
     2
 74
     0
 42
0.0000000001
 43
0.0000000001
 40
0.0
 40
0.0
 40
1.0
 40
1.0
 10
13.31078889119694
 20
4.573561762749701
 30
0.0
 10
13.28408820191651
 20
4.587414672136792
 30
0.0
  0
SPLINE
  5
BCA
330
A8B
100
AcDbEntity
  8
FRONT
  6
Continuous
 62
     4
100
AcDbSpline
210
0.0
220
0.0
230
1.0
 70
     8
 71
     3
 72
    10
 73
     6
 74
     0
 42
0.0000000001
 43
0.0000000001
 40
0.0
 40
0.0
 40
0.0
 40
0.0
 40
0.4926947242044152
 40
0.9999538112423723
 40
1.0
 40
1.0
 40
1.0
 40
1.0
 10
12.71058671127498
 20
5.473403005394001
 30
0.0
 10
12.90547943076539
 20
5.555788825541005
 30
0.0
 10
13.30796995905596
 20
5.686507873440067
 30
0.0
 10
13.73025717117942
 20
5.748973858563186
 30
0.0
 10
13.94514876776342
 20
5.758657162767132
 30
0.0
 10
13.94524866639153
 20
5.758661664333676
 30
0.0
  0
SPLINE
  5
BCB
330
A8B
100
AcDbEntity
  8
FRONT
  6
Continuous
 62
     4
100
AcDbSpline
210
0.0
220
0.0
230
1.0
 70
     8
 71
     2
 72
     6
 73
     3
 74
     0
 42
0.0000000001
 43
0.0000000001
 40
0.0
 40
0.0
 40
0.0
 40
1.0
 40
1.0
 40
1.0
 10
12.55931172980702
 20
4.254879951245562
 30
0.0
 10
12.58336828364422
 20
4.198188936261384
 30
0.0
 10
12.61302558883277
 20
4.142652858215962
 30
0.0
  0
SPLINE
  5
BCC
330
A8B
100
AcDbEntity
  8
FRONT
  6
Continuous
 62
     4
100
AcDbSpline
210
0.0
220
0.0
230
1.0
 70
     8
 71
     3
 72
    11
 73
     7
 74
     0
 42
0.0000000001
 43
0.0000000001
 40
0.0
 40
0.0
 40
0.0
 40
0.0
 40
0.3213498426608201
 40
0.6577811939102644
 40
0.9998827329771151
 40
1.0
 40
1.0
 40
1.0
 40
1.0
 10
12.61302558883341
 20
4.142652858218689
 30
0.0
 10
12.63661235923142
 20
4.096595077435822
 30
0.0
 10
12.67812392222471
 20
3.999067509734118
 30
0.0
 10
12.71731265817428
 20
3.837886834830852
 30
0.0
 10
12.73306739599114
 20
3.725263586159053
 30
0.0
 10
12.7384250930861
 20
3.668060358493228
 30
0.0
 10
12.73843441834863
 20
3.667960794245231
 30
0.0
  0
SPLINE
  5
BCD
330
A8B
100
AcDbEntity
  8
FRONT
  6
Continuous
 62
     4
100
AcDbSpline
210
0.0
220
0.0
230
1.0
 70
    24
 71
     1
 72
     4
 73
     2
 74
     0
 42
0.0000000001
 43
0.0000000001
 40
0.0
 40
0.0
 40
1.0
 40
1.0
 10
15.09864637409872
 20
4.302531580239758
 30
0.0
 10
15.04448787470278
 20
4.291605195933395
 30
0.0
  0
SPLINE
  5
BCE
330
A8B
100
AcDbEntity
  8
FRONT
  6
Continuous
 62
     4
100
AcDbSpline
210
0.0
220
0.0
230
1.0
 70
     8
 71
     3
 72
    13
 73
     9
 74
     0
 42
0.0000000001
 43
0.0000000001
 40
0.0
 40
0.0
 40
0.0
 40
0.0
 40
0.2396506614303343
 40
0.4258576417570496
 40
0.5820550163389778
 40
0.7381714217428188
 40
0.9591299429654512
 40
1.0
 40
1.0
 40
1.0
 40
1.0
 10
15.21878522660069
 20
3.982550183926613
 30
0.0
 10
15.20446185940899
 20
3.956885905746576
 30
0.0
 10
15.18382701449337
 20
3.907206514117078
 30
0.0
 10
15.16499089997498
 20
3.827386703527638
 30
0.0
 10
15.16059144136004
 20
3.755395363725888
 30
0.0
 10
15.16830971452799
 20
3.684318177059933
 30
0.0
 10
15.18379083088686
 20
3.63914997870789
 30
0.0
 10
15.19585560171569
 20
3.615181448933922
 30
0.0
 10
15.19781587154303
 20
3.611548393029448
 30
0.0
  0
LINE
  5
BCF
330
A8B
100
AcDbEntity
  8
FRONT
  6
Continuous
 62
     4
100
AcDbLine
 10
17.89827503693186
 20
4.305849194799654
 30
0.0
 11
16.84081100360065
 21
3.750289208641194
 31
0.0
  0
LINE
  5
BD0
330
A8B
100
AcDbEntity
  8
FRONT
  6
Continuous
 62
     4
100
AcDbLine
 10
17.9955352574119
 20
4.703931962073951
 30
0.0
 11
17.99860264302532
 21
5.577410944240638
 31
0.0
  0
LINE
  5
BD1
330
A8B
100
AcDbEntity
  8
FRONT
  6
Continuous
 62
     4
100
AcDbLine
 10
16.71085065679104
 20
4.613894536173183
 30
0.0
 11
16.71002253368082
 21
4.378075430726665
 31
0.0
  0
LINE
  5
BD2
330
A8B
100
AcDbEntity
  8
FRONT
  6
Continuous
 62
     4
100
AcDbLine
 10
16.39808469837355
 20
4.364837484698021
 30
0.0
 11
16.39891265055782
 21
4.600607916707208
 31
0.0
  0
LINE
  5
BD3
330
A8B
100
AcDbEntity
  8
FRONT
  6
Continuous
 62
     4
100
AcDbLine
 10
17.66367077329101
 20
4.879093702836494
 30
0.0
 11
17.66526427735394
 21
5.332865247206258
 31
0.0
  0
LINE
  5
BD4
330
A8B
100
AcDbEntity
  8
FRONT
  6
Continuous
 62
     4
100
AcDbLine
 10
15.64053491978258
 20
4.293450173624481
 30
0.0
 11
15.60441972687181
 21
4.361092193114611
 31
0.0
  0
LINE
  5
BD5
330
A8B
100
AcDbEntity
  8
FRONT
  6
Continuous
 62
     4
100
AcDbLine
 10
16.71002253368082
 20
4.378075430726665
 30
0.0
 11
17.66367077329101
 21
4.879093702836494
 31
0.0
  0
LINE
  5
BD6
330
A8B
100
AcDbEntity
  8
FRONT
  6
Continuous
 62
     4
100
AcDbLine
 10
17.82736069662903
 20
5.451970850041035
 30
0.0
 11
17.82538373039164
 21
4.889003337034266
 31
0.0
  0
ELLIPSE
  5
BD7
330
A8B
100
AcDbEntity
  8
FRONT
  6
Continuous
 62
     4
100
AcDbEllipse
 10
14.59586354314858
 20
3.865394052025882
 30
0.0
 11
-1.151135430529534
 21
-0.6146102435097502
 31
0.0
210
0.0
220
0.0
230
0.9999999999999998
 40
0.9833059182658811
 41
2.387532948130643
 42
2.854453357321848
  0
ELLIPSE
  5
BD8
330
A8B
100
AcDbEntity
  8
FRONT
  6
Continuous
 62
     4
100
AcDbEllipse
 10
23.34289700321895
 20
7.404971643362473
 30
0.0
 11
-5.502211667105154
 21
-2.588827676295629
 31
0.0
210
0.0
220
0.0
230
1.0
 40
0.1586239430231971
 41
6.208012116159168
 42
6.457681703334741
  0
ELLIPSE
  5
BD9
330
A8B
100
AcDbEntity
  8
FRONT
  6
Continuous
 62
     4
100
AcDbEllipse
 10
23.98792439919572
 20
7.261422965178862
 30
0.0
 11
-7.504621521697405
 21
-3.321134711197779
 31
0.0
210
0.0
220
0.0
230
1.0
 40
0.3415132911448714
 41
6.131781412421299
 42
6.217369236841816
  0
ELLIPSE
  5
BDA
330
A8B
100
AcDbEntity
  8
FRONT
  6
Continuous
 62
     4
100
AcDbEllipse
 10
16.32523872390661
 20
4.501274491612504
 30
0.0
 11
-0.8499947589592117
 21
0.0029849163490714
 31
0.0
210
0.0
220
0.0
230
1.0
 40
0.1608116416914428
 41
1.657167966400878
 42
2.041140401843712
  0
ELLIPSE
  5
BDB
330
A8B
100
AcDbEntity
  8
FRONT
  6
Continuous
 62
     4
100
AcDbEllipse
 10
23.91507831970675
 20
7.397859926833847
 30
0.0
 11
-7.163008401427503
 21
-3.337131822624029
 31
0.0
210
0.0
220
0.0
230
1.0
 40
0.2488347320293084
 41
6.1272315578895
 42
6.212819382930589
  0
ELLIPSE
  5
BDC
330
A8B
100
AcDbEntity
  8
FRONT
  6
Continuous
 62
     4
100
AcDbEllipse
 10
18.11635760682543
 20
4.734153631805039
 30
0.0
 11
-0.9999938318006432
 21
0.0035116660557411
 31
0.0
210
0.0
220
0.0
230
1.0
 40
0.1608116414610818
 41
5.008200129322958
 42
5.18273305487219
  0
ELLIPSE
  5
BDD
330
A8B
100
AcDbEntity
  8
FRONT
  6
Continuous
 62
     4
100
AcDbEllipse
 10
16.56225603727189
 20
3.633285833833903
 30
0.0
 11
-0.7801070765252688
 21
-0.3375395473105581
 31
0.0
210
0.0
220
0.0
230
1.0
 40
0.0040693916708658
 41
1.563153189442481
 42
1.934167124601573
  0
ELLIPSE
  5
BDE
330
A8B
100
AcDbEntity
  8
FRONT
  6
Continuous
 62
     4
100
AcDbEllipse
 10
14.51560790726658
 20
3.779757555178877
 30
0.0
 11
-1.088811819437994
 21
-0.5813346382489481
 31
0.0
210
0.0
220
0.0
230
1.0
 40
0.983305918289052
 41
2.448217296598584
 42
3.141592653297247
  0
ELLIPSE
  5
BDF
330
A8B
100
AcDbEntity
  8
FRONT
  6
Continuous
 62
     4
100
AcDbEllipse
 10
23.63387088225076
 20
7.250121938023302
 30
0.0
 11
-5.931785057190547
 21
-2.503957966687563
 31
0.0
210
0.0
220
0.0
230
0.9999999999999998
 40
0.3000603614080196
 41
6.212003631040982
 42
6.468355228140294
  0
ELLIPSE
  5
BE0
330
A8B
100
AcDbEntity
  8
FRONT
  6
Continuous
 62
     4
100
AcDbEllipse
 10
14.55172310019603
 20
3.712115535694636
 30
0.0
 11
-1.088811819366767
 21
-0.5813346383414362
 31
0.0
210
0.0
220
0.0
230
1.0
 40
0.9833059182967726
 41
2.505541426623854
 42
3.141592653205357
  0
ELLIPSE
  5
BE1
330
A8B
100
AcDbEntity
  8
FRONT
  6
Continuous
 62
     4
100
AcDbEllipse
 10
17.43753142984373
 20
3.994737951825666
 30
0.0
 11
-0.6378475908704978
 21
-2.576716806991784
 31
0.0
210
0.0
220
0.0
230
1.0
 40
0.1420508862706076
 41
1.726905085211521
 42
1.739170856938258
  0
SPLINE
  5
BE2
330
A8B
100
AcDbEntity
  8
FRONT
  6
Continuous
 62
     4
100
AcDbSpline
210
0.0
220
0.0
230
1.0
 70
    24
 71
     1
 72
     4
 73
     2
 74
     0
 42
0.0000000001
 43
0.0000000001
 40
0.0
 40
0.0
 40
1.0
 40
1.0
 10
16.49595502931909
 20
5.475699839190808
 30
0.0
 10
17.5948987190443
 20
5.975264142050702
 30
0.0
  0
SPLINE
  5
BE3
330
A8B
100
AcDbEntity
  8
FRONT
  6
Continuous
 62
     4
100
AcDbSpline
210
0.0
220
0.0
230
1.0
 70
    24
 71
     1
 72
     4
 73
     2
 74
     0
 42
0.0000000001
 43
0.0000000001
 40
0.0
 40
0.0
 40
1.0
 40
1.0
 10
17.67701948821644
 20
5.341527188321591
 30
0.0
 10
17.77311705953044
 20
5.412174745271188
 30
0.0
  0
SPLINE
  5
BE4
330
A8B
100
AcDbEntity
  8
FRONT
  6
Continuous
 62
     4
100
AcDbSpline
210
0.0
220
0.0
230
1.0
 70
    24
 71
     1
 72
     4
 73
     2
 74
     0
 42
0.0000000001
 43
0.0000000001
 40
0.0
 40
0.0
 40
1.0
 40
1.0
 10
16.90020018818717
 20
3.583522341359216
 30
0.0
 10
16.91843118442867
 20
3.518558886112968
 30
0.0
  0
SPLINE
  5
BE5
330
A8B
100
AcDbEntity
  8
FRONT
  6
Continuous
 62
     4
100
AcDbSpline
210
0.0
220
0.0
230
1.0
 70
    24
 71
     1
 72
     4
 73
     2
 74
     0
 42
0.0000000001
 43
0.0000000001
 40
0.0
 40
0.0
 40
1.0
 40
1.0
 10
16.60738235910093
 20
3.52622347312716
 30
0.0
 10
16.55766717029034
 20
3.62753152931504
 30
0.0
  0
SPLINE
  5
BE6
330
A8B
100
AcDbEntity
  8
FRONT
  6
Continuous
 62
     4
100
AcDbSpline
210
0.0
220
0.0
230
1.0
 70
     8
 71
     2
 72
     6
 73
     3
 74
     0
 42
0.0000000001
 43
0.0000000001
 40
0.0
 40
0.0
 40
0.0
 40
1.0
 40
1.0
 40
1.0
 10
17.96624821359698
 20
4.521740220909058
 30
0.0
 10
17.99450568315117
 20
4.587389658473391
 30
0.0
 10
17.99520039268492
 20
4.657821589442201
 30
0.0
  0
SPLINE
  5
BE7
330
A8B
100
AcDbEntity
  8
FRONT
  6
Continuous
 62
     4
100
AcDbSpline
210
0.0
220
0.0
230
1.0
 70
    24
 71
     1
 72
     4
 73
     2
 74
     0
 42
0.0000000001
 43
0.0000000001
 40
0.0
 40
0.0
 40
1.0
 40
1.0
 10
16.71141267560334
 20
4.194303491672547
 30
0.0
 10
16.84081100360065
 20
3.750289208641194
 30
0.0
  0
SPLINE
  5
BE8
330
A8B
100
AcDbEntity
  8
FRONT
  6
Continuous
 62
     4
100
AcDbSpline
210
0.0
220
0.0
230
1.0
 70
    24
 71
     1
 72
     4
 73
     2
 74
     0
 42
0.0000000001
 43
0.0000000001
 40
0.0
 40
0.0
 40
1.0
 40
1.0
 10
16.42495563095343
 20
4.116038923035028
 30
0.0
 10
16.71141267560334
 20
4.194303491672548
 30
0.0
  0
SPLINE
  5
BE9
330
A8B
100
AcDbEntity
  8
FRONT
  6
Continuous
 62
     4
100
AcDbSpline
210
0.0
220
0.0
230
1.0
 70
    24
 71
     1
 72
     4
 73
     2
 74
     0
 42
0.0000000001
 43
0.0000000001
 40
0.0
 40
0.0
 40
1.0
 40
1.0
 10
16.49314501744483
 20
5.474374826890542
 30
0.0
 10
16.49474485326082
 20
5.475120305234273
 30
0.0
  0
SPLINE
  5
BEA
330
A8B
100
AcDbEntity
  8
FRONT
  6
Continuous
 62
     4
100
AcDbSpline
210
0.0
220
0.0
230
1.0
 70
    24
 71
     1
 72
     4
 73
     2
 74
     0
 42
0.0000000001
 43
0.0000000001
 40
0.0
 40
0.0
 40
1.0
 40
1.0
 10
16.84081100360065
 20
3.750289208641194
 30
0.0
 10
16.90019487381277
 20
3.583520954077106
 30
0.0
  0
SPLINE
  5
BEB
330
A8B
100
AcDbEntity
  8
FRONT
  6
Continuous
 62
     4
100
AcDbSpline
210
0.0
220
0.0
230
1.0
 70
     8
 71
     3
 72
    12
 73
     8
 74
     0
 42
0.0000000001
 43
0.0000000001
 40
0.0
 40
0.0
 40
0.0
 40
0.0
 40
0.1495624586559048
 40
0.3981305669337531
 40
0.6362518309539893
 40
0.8431419366934655
 40
1.0
 40
1.0
 40
1.0
 40
1.0
 10
17.48589383548178
 20
3.463369935461981
 30
0.0
 10
17.4886026749378
 20
3.466280125578256
 30
0.0
 10
17.49078367105906
 20
3.47398973939262
 30
0.0
 10
17.47309542125874
 20
3.486777129879093
 30
0.0
 10
17.42482211552024
 20
3.49917167572542
 30
0.0
 10
17.36085181227452
 20
3.507004690170802
 30
0.0
 10
17.31746007618845
 20
3.509155435452544
 30
0.0
 10
17.29745226804206
 20
3.509679345658438
 30
0.0
  0
SPLINE
  5
BEC
330
A8B
100
AcDbEntity
  8
FRONT
  6
Continuous
 62
     4
100
AcDbSpline
210
0.0
220
0.0
230
1.0
 70
    24
 71
     1
 72
     4
 73
     2
 74
     0
 42
0.0000000001
 43
0.0000000001
 40
0.0
 40
0.0
 40
1.0
 40
1.0
 10
16.39885559051127
 20
4.600607322908822
 30
0.0
 10
16.71077838865055
 20
4.613840528244288
 30
0.0
  0
SPLINE
  5
BED
330
A8B
100
AcDbEntity
  8
FRONT
  6
Continuous
 62
     4
100
AcDbSpline
210
0.0
220
0.0
230
1.0
 70
     8
 71
     3
 72
    11
 73
     7
 74
     0
 42
0.0000000001
 43
0.0000000001
 40
0.0
 40
0.0
 40
0.0
 40
0.0
 40
0.0001349180935091
 40
0.1930788600656165
 40
0.9998650818819635
 40
1.0
 40
1.0
 40
1.0
 40
1.0
 10
16.19667844852219
 20
5.335343228005077
 30
0.0
 10
16.19672500268154
 20
5.335254725404842
 30
0.0
 10
16.20989169584736
 20
5.310223947250959
 30
0.0
 10
16.32367950371092
 20
5.208467742036122
 30
0.0
 10
16.43522792301602
 20
5.114125861270784
 30
0.0
 10
16.50623019806864
 20
5.020733760974486
 30
0.0
 10
16.50629071951281
 20
5.020654154726011
 30
0.0
  0
SPLINE
  5
BEE
330
A8B
100
AcDbEntity
  8
FRONT
  6
Continuous
 62
     4
100
AcDbSpline
210
0.0
220
0.0
230
1.0
 70
    24
 71
     1
 72
     4
 73
     2
 74
     0
 42
0.0000000001
 43
0.0000000001
 40
0.0
 40
0.0
 40
1.0
 40
1.0
 10
17.45883754226277
 20
5.180035611251119
 30
0.0
 10
17.66526427735394
 20
5.332865247206231
 30
0.0
  0
SPLINE
  5
BEF
330
A8B
100
AcDbEntity
  8
FRONT
  6
Continuous
 62
     4
100
AcDbSpline
210
0.0
220
0.0
230
1.0
 70
     8
 71
     3
 72
    11
 73
     7
 74
     0
 42
0.0000000001
 43
0.0000000001
 40
0.0
 40
0.0
 40
0.0
 40
0.0
 40
0.0001278625790222
 40
0.8000466519499596
 40
0.9998721041576972
 40
1.0
 40
1.0
 40
1.0
 40
1.0
 10
16.50629071951281
 20
5.020654154726011
 30
0.0
 10
16.50635300832185
 20
5.020575923630723
 30
0.0
 10
16.58269256964586
 20
4.924697907350288
 30
0.0
 10
16.65651612623752
 20
4.786080692263082
 30
0.0
 10
16.70188763166069
 20
4.642377138962474
 30
0.0
 10
16.71073896129634
 20
4.613939119367898
 30
0.0
 10
16.71076868003114
 20
4.613843637449183
 30
0.0
  0
SPLINE
  5
BF0
330
A8B
100
AcDbEntity
  8
FRONT
  6
Continuous
 62
     4
100
AcDbSpline
210
0.0
220
0.0
230
1.0
 70
    24
 71
     1
 72
     4
 73
     2
 74
     0
 42
0.0000000001
 43
0.0000000001
 40
0.0
 40
0.0
 40
1.0
 40
1.0
 10
16.94611636433103
 20
4.794203885304684
 30
0.0
 10
17.45883754226277
 20
5.180035611251119
 30
0.0
  0
SPLINE
  5
BF1
330
A8B
100
AcDbEntity
  8
FRONT
  6
Continuous
 62
     4
100
AcDbSpline
210
0.0
220
0.0
230
1.0
 70
    24
 71
     1
 72
     4
 73
     2
 74
     0
 42
0.0000000001
 43
0.0000000001
 40
0.0
 40
0.0
 40
1.0
 40
1.0
 10
17.9955352574119
 20
4.70393196207395
 30
0.0
 10
17.99520039268492
 20
4.657821589441173
 30
0.0
  0
SPLINE
  5
BF2
330
A8B
100
AcDbEntity
  8
FRONT
  6
Continuous
 62
     4
100
AcDbSpline
210
0.0
220
0.0
230
1.0
 70
    24
 71
     1
 72
     4
 73
     2
 74
     0
 42
0.0000000001
 43
0.0000000001
 40
0.0
 40
0.0
 40
1.0
 40
1.0
 10
17.66526427735397
 20
5.332865247206213
 30
0.0
 10
17.67698916139616
 20
5.341504848748127
 30
0.0
  0
SPLINE
  5
BF3
330
A8B
100
AcDbEntity
  8
FRONT
  6
Continuous
 62
     4
100
AcDbSpline
210
0.0
220
0.0
230
1.0
 70
     8
 71
     2
 72
     6
 73
     3
 74
     0
 42
0.0000000001
 43
0.0000000001
 40
0.0
 40
0.0
 40
0.0
 40
1.0
 40
1.0
 40
1.0
 10
17.45883752894693
 20
5.180035602533471
 30
0.0
 10
17.56761241759019
 20
5.260934079266407
 30
0.0
 10
17.67698907835551
 20
5.341504790199523
 30
0.0
  0
SPLINE
  5
BF4
330
A8B
100
AcDbEntity
  8
FRONT
  6
Continuous
 62
     4
100
AcDbSpline
210
0.0
220
0.0
230
1.0
 70
    24
 71
     1
 72
     4
 73
     2
 74
     0
 42
0.0000000001
 43
0.0000000001
 40
0.0
 40
0.0
 40
1.0
 40
1.0
 10
16.19667844839965
 20
5.335343227947221
 30
0.0
 10
16.49314024556977
 20
5.474388270071903
 30
0.0
  0
SPLINE
  5
BF5
330
A8B
100
AcDbEntity
  8
FRONT
  6
Continuous
 62
     4
100
AcDbSpline
210
0.0
220
0.0
230
1.0
 70
     8
 71
     3
 72
    11
 73
     7
 74
     0
 42
0.0000000001
 43
0.0000000001
 40
0.0
 40
0.0
 40
0.0
 40
0.0
 40
0.1632580369825384
 40
0.5369633765782555
 40
0.9250992724447831
 40
1.0
 40
1.0
 40
1.0
 40
1.0
 10
16.42490960875768
 20
4.115996823386628
 30
0.0
 10
16.39672347278242
 20
4.090308598545457
 30
0.0
 10
16.30722024578586
 20
4.003092807454835
 30
0.0
 10
16.17072554691022
 20
3.8353111918573
 30
0.0
 10
16.07136739334606
 20
3.667560355337826
 30
0.0
 10
16.0239448572469
 20
3.571267493264961
 30
0.0
 10
16.01647812761165
 20
3.555577697676341
 30
0.0
  0
SPLINE
  5
BF6
330
A8B
100
AcDbEntity
  8
FRONT
  6
Continuous
 62
     4
100
AcDbSpline
210
0.0
220
0.0
230
1.0
 70
    24
 71
     1
 72
     4
 73
     2
 74
     0
 42
0.0000000001
 43
0.0000000001
 40
0.0
 40
0.0
 40
1.0
 40
1.0
 10
17.96624821359698
 20
4.521740220909058
 30
0.0
 10
17.94182141506172
 20
4.461266655075603
 30
0.0
  0
SPLINE
  5
BF7
330
A8B
100
AcDbEntity
  8
FRONT
  6
Continuous
 62
     4
100
AcDbSpline
210
0.0
220
0.0
230
1.0
 70
    24
 71
     1
 72
     4
 73
     2
 74
     0
 42
0.0000000001
 43
0.0000000001
 40
0.0
 40
0.0
 40
1.0
 40
1.0
 10
16.68230017246027
 20
3.52498673459668
 30
0.0
 10
16.90020018819045
 20
3.583522341348273
 30
0.0
  0
SPLINE
  5
BF8
330
A8B
100
AcDbEntity
  8
FRONT
  6
Continuous
 62
     4
100
AcDbSpline
210
0.0
220
0.0
230
1.0
 70
    24
 71
     1
 72
     4
 73
     2
 74
     0
 42
0.0000000001
 43
0.0000000001
 40
0.0
 40
0.0
 40
1.0
 40
1.0
 10
17.94182141506172
 20
4.461266655075603
 30
0.0
 10
17.90527073750188
 20
4.337218884751766
 30
0.0
  0
SPLINE
  5
BF9
330
A8B
100
AcDbEntity
  8
FRONT
  6
Continuous
 62
     4
100
AcDbSpline
210
0.0
220
0.0
230
1.0
 70
     8
 71
     3
 72
    11
 73
     7
 74
     0
 42
0.0000000001
 43
0.0000000001
 40
0.0
 40
0.0
 40
0.0
 40
0.0
 40
0.3061272518132776
 40
0.6075448394179293
 40
0.8160124276962045
 40
1.0
 40
1.0
 40
1.0
 40
1.0
 10
16.39885559067653
 20
4.600607322599127
 30
0.0
 10
16.39520629565713
 20
4.65475168102716
 30
0.0
 10
16.37252336682536
 20
4.755034069650048
 30
0.0
 10
16.30304229067195
 20
4.879805706769669
 30
0.0
 10
16.21150627020276
 20
4.959021904353886
 30
0.0
 10
16.15015294733186
 20
4.986161952864643
 30
0.0
 10
16.11893736108915
 20
4.995457742129388
 30
0.0
  0
SPLINE
  5
BFA
330
A8B
100
AcDbEntity
  8
FRONT
  6
Continuous
 62
     4
100
AcDbSpline
210
0.0
220
0.0
230
1.0
 70
     8
 71
     3
 72
    11
 73
     7
 74
     0
 42
0.0000000001
 43
0.0000000001
 40
0.0
 40
0.0
 40
0.0
 40
0.0
 40
0.3213498426608153
 40
0.6577811939102688
 40
0.999882732977116
 40
1.0
 40
1.0
 40
1.0
 40
1.0
 10
16.55766717029036
 20
3.62753152931504
 30
0.0
 10
16.53240165908376
 20
3.676733510899357
 30
0.0
 10
16.48805584972428
 20
3.779569485735088
 30
0.0
 10
16.44656881178055
 20
3.945054769776882
 30
0.0
 10
16.43037839129144
 20
4.058494031060566
 30
0.0
 10
16.42502061513865
 20
4.11569740707443
 30
0.0
 10
16.42501128976365
 20
4.115796971311895
 30
0.0
  0
SPLINE
  5
BFB
330
A8B
100
AcDbEntity
  8
FRONT
  6
Continuous
 62
     4
100
AcDbSpline
210
0.0
220
0.0
230
1.0
 70
     8
 71
     2
 72
     6
 73
     3
 74
     0
 42
0.0000000001
 43
0.0000000001
 40
0.0
 40
0.0
 40
0.0
 40
1.0
 40
1.0
 40
1.0
 10
17.77370085353426
 20
5.412603271966885
 30
0.0
 10
17.88564682468245
 20
5.494754377154666
 30
0.0
 10
17.9986026430253
 20
5.57741094424067
 30
0.0
  0
SPLINE
  5
BFC
330
A8B
100
AcDbEntity
  8
FRONT
  6
Continuous
 62
     4
100
AcDbSpline
210
0.0
220
0.0
230
1.0
 70
    24
 71
     1
 72
     4
 73
     2
 74
     0
 42
0.0000000001
 43
0.0000000001
 40
0.0
 40
0.0
 40
1.0
 40
1.0
 10
16.49474485326082
 20
5.475120305234273
 30
0.0
 10
16.49595979536792
 20
5.475686399041637
 30
0.0
  0
SPLINE
  5
BFD
330
A8B
100
AcDbEntity
  8
FRONT
  6
Continuous
 62
     4
100
AcDbSpline
210
0.0
220
0.0
230
1.0
 70
    24
 71
     1
 72
     4
 73
     2
 74
     0
 42
0.0000000001
 43
0.0000000001
 40
0.0
 40
0.0
 40
1.0
 40
1.0
 10
16.71081487216573
 20
4.613866942044376
 30
0.0
 10
16.946116364331
 20
4.794203885304684
 30
0.0
  0
SPLINE
  5
BFE
330
A8B
100
AcDbEntity
  8
FRONT
  6
Continuous
 62
     4
100
AcDbSpline
210
0.0
220
0.0
230
1.0
 70
     8
 71
     2
 72
     6
 73
     3
 74
     0
 42
0.0000000001
 43
0.0000000001
 40
0.0
 40
0.0
 40
0.0
 40
1.0
 40
1.0
 40
1.0
 10
16.11893379407845
 20
4.995443832534546
 30
0.0
 10
16.16268975661965
 20
5.166852128994873
 30
0.0
 10
16.19668973819385
 20
5.335334408581799
 30
0.0
  0
SPLINE
  5
BFF
330
A8B
100
AcDbEntity
  8
FRONT
  6
Continuous
 62
     4
100
AcDbSpline
210
0.0
220
0.0
230
1.0
 70
     8
 71
     3
 72
    11
 73
     7
 74
     0
 42
0.0000000001
 43
0.0000000001
 40
0.0
 40
0.0
 40
0.0
 40
0.0
 40
0.2797385983135212
 40
0.5594467342961896
 40
0.779715829487904
 40
1.0
 40
1.0
 40
1.0
 40
1.0
 10
17.5948987190443
 20
5.975264142050701
 30
0.0
 10
17.65745563319629
 20
5.974483801919762
 30
0.0
 10
17.77036020044778
 20
5.950887920362918
 30
0.0
 10
17.90567908297141
 20
5.85040117171442
 30
0.0
 10
17.98283180302257
 20
5.717078973008209
 30
0.0
 10
17.99830296929956
 20
5.626215792883588
 30
0.0
 10
17.99860264302532
 20
5.577410944240644
 30
0.0
  0
ELLIPSE
  5
C00
330
A8B
100
AcDbEntity
  8
FRONT
  6
Continuous
 62
     4
100
AcDbEllipse
 10
177.0605964205228
 20
-0.0000000000000062
 30
-0.000000000000001
 11
328.7085881680908
 21
-5.639364115381655
 31
0.9119127835859078
210
-0.0173763522628257
220
-0.9870276605374339
230
0.1596072044615736
 40
0.0173763522628256
 41
2.090738282879778
 42
2.09261634979419
  0
ENDBLK
  5
C02
330
A8B
100
AcDbEntity
  8
0
100
AcDbBlockEnd
  0
BLOCK
  5
C05
330
C03
100
AcDbEntity
  8
0
100
AcDbBlockBegin
  2
ROFFE
 70
     0
 10
0.0
 20
0.0
 30
0.0
  3
ROFFE
  1

  0
INSERT
  5
C04
330
C03
100
AcDbEntity
  8
0
  6
Continuous
100
AcDbBlockReference
  2
2D00035417
 10
0.0
 20
0.0
 30
0.0
  0
ENDBLK
  5
C06
330
C03
100
AcDbEntity
  8
0
100
AcDbBlockEnd
  0
BLOCK
  5
12E0
330
12DF
100
AcDbEntity
  8
0
100
AcDbBlockBegin
  2
*D2
 70
     1
 10
0.0
 20
0.0
 30
0.0
  3
*D2
  1

  0
LINE
  5
12E1
330
12DF
100
AcDbEntity
  8
2
 62
     0
370
    -2
100
AcDbLine
 10
285.1633000021447
 20
152.2215599373829
 30
0.0
 11
261.3246195329089
 21
152.2215599373829
 31
0.0
  0
LINE
  5
12E2
330
12DF
100
AcDbEntity
  8
2
 62
     0
370
    -2
100
AcDbLine
 10
266.9132700883447
 20
136.2215599373829
 30
0.0
 11
261.3246195329089
 21
136.2215599373829
 31
0.0
  0
LINE
  5
12E3
330
12DF
100
AcDbEntity
  8
2
 62
     0
370
    -2
100
AcDbLine
 10
262.574619532909
 20
148.7215599373829
 30
0.0
 11
262.574619532909
 21
139.7215599373829
 31
0.0
  0
SOLID
  5
12E4
330
12DF
100
AcDbEntity
  8
2
 62
     0
100
AcDbTrace
 10
261.9912861995757
 20
148.7215599373829
 30
0.0
 11
263.1579528662423
 21
148.7215599373829
 31
0.0
 12
262.574619532909
 22
152.2215599373829
 32
0.0
 13
262.574619532909
 23
152.2215599373829
 33
0.0
  0
SOLID
  5
12E5
330
12DF
100
AcDbEntity
  8
2
 62
     0
100
AcDbTrace
 10
261.9912861995757
 20
139.7215599373829
 30
0.0
 11
263.1579528662423
 21
139.7215599373829
 31
0.0
 12
262.574619532909
 22
136.2215599373829
 32
0.0
 13
262.574619532909
 23
136.2215599373829
 33
0.0
  0
MTEXT
  5
12E6
330
12DF
100
AcDbEntity
  8
2
 62
     0
100
AcDbMText
 10
259.8246195329089
 20
144.2215599373829
 30
0.0
 40
3.5
 41
0.0
 71
     5
 72
     1
  1
Ø 16
 11
0.0000000000000001
 21
1.0
 31
0.0
 73
     1
 44
1.0
1001
ACAD
1000
MTEXTBEGIN
1070
    73
1070
     1
1070
    44
1040
1.0
1070
    74
1070
     0
1000
MTEXTEND
  0
POINT
  5
12E7
330
12DF
100
AcDbEntity
  8
DEFPOINTS
 62
     0
100
AcDbPoint
 10
286.6633000021447
 20
152.2215599373829
 30
0.0
  0
POINT
  5
12E8
330
12DF
100
AcDbEntity
  8
DEFPOINTS
 62
     0
100
AcDbPoint
 10
268.4132700883447
 20
136.2215599373829
 30
0.0
  0
POINT
  5
12E9
330
12DF
100
AcDbEntity
  8
DEFPOINTS
 62
     0
100
AcDbPoint
 10
262.574619532909
 20
136.2215599373829
 30
0.0
  0
ENDBLK
  5
12EA
330
12DF
100
AcDbEntity
  8
0
100
AcDbBlockEnd
  0
BLOCK
  5
12EC
330
12EB
100
AcDbEntity
  8
0
100
AcDbBlockBegin
  2
*D3
 70
     1
 10
0.0
 20
0.0
 30
0.0
  3
*D3
  1

  0
LINE
  5
12ED
330
12EB
100
AcDbEntity
  8
2
 62
     0
370
    -2
100
AcDbLine
 10
342.4133000021447
 20
149.3215599373829
 30
0.0
 11
342.4133000021447
 21
164.8291952713166
 31
0.0
  0
LINE
  5
12EE
330
12EB
100
AcDbEntity
  8
2
 62
     0
370
    -2
100
AcDbLine
 10
302.4133000021447
 20
160.2215610474829
 30
0.0
 11
302.4133000021447
 21
164.8291952713166
 31
0.0
  0
LINE
  5
12EF
330
12EB
100
AcDbEntity
  8
2
 62
     0
370
    -2
100
AcDbLine
 10
338.9133000021447
 20
163.5791952713166
 30
0.0
 11
305.9133000021447
 21
163.5791952713166
 31
0.0
  0
SOLID
  5
12F0
330
12EB
100
AcDbEntity
  8
2
 62
     0
100
AcDbTrace
 10
338.9133000021447
 20
164.1625286046499
 30
0.0
 11
338.9133000021447
 21
162.9958619379832
 31
0.0
 12
342.4133000021447
 22
163.5791952713166
 32
0.0
 13
342.4133000021447
 23
163.5791952713166
 33
0.0
  0
SOLID
  5
12F1
330
12EB
100
AcDbEntity
  8
2
 62
     0
100
AcDbTrace
 10
305.9133000021447
 20
164.1625286046499
 30
0.0
 11
305.9133000021447
 21
162.9958619379832
 31
0.0
 12
302.4133000021447
 22
163.5791952713166
 32
0.0
 13
302.4133000021447
 23
163.5791952713166
 33
0.0
  0
MTEXT
  5
12F2
330
12EB
100
AcDbEntity
  8
2
 62
     0
100
AcDbMText
 10
322.4133000021447
 20
166.3291952713166
 30
0.0
 40
3.5
 41
0.0
 71
     5
 72
     1
  1
40
 73
     1
 44
1.0
1001
ACAD
1000
MTEXTBEGIN
1070
    73
1070
     1
1070
    44
1040
1.0
1070
    74
1070
     0
1000
MTEXTEND
  0
POINT
  5
12F3
330
12EB
100
AcDbEntity
  8
DEFPOINTS
 62
     0
100
AcDbPoint
 10
342.4133000021447
 20
147.8215599373829
 30
0.0
  0
POINT
  5
12F4
330
12EB
100
AcDbEntity
  8
DEFPOINTS
 62
     0
100
AcDbPoint
 10
302.4133000021447
 20
158.7215610474829
 30
0.0
  0
POINT
  5
12F5
330
12EB
100
AcDbEntity
  8
DEFPOINTS
 62
     0
100
AcDbPoint
 10
302.4133000021447
 20
163.5791952713166
 30
0.0
  0
ENDBLK
  5
12F6
330
12EB
100
AcDbEntity
  8
0
100
AcDbBlockEnd
  0
BLOCK
  5
12F8
330
12F7
100
AcDbEntity
  8
0
100
AcDbBlockBegin
  2
*D4
 70
     1
 10
0.0
 20
0.0
 30
0.0
  3
*D4
  1

  0
LINE
  5
12F9
330
12F7
100
AcDbEntity
  8
2
 62
     0
370
    -2
100
AcDbLine
 10
297.4133000021447
 20
160.2215597484829
 30
0.0
 11
297.4133000021447
 21
173.5287250518268
 31
0.0
  0
LINE
  5
12FA
330
12F7
100
AcDbEntity
  8
2
 62
     0
370
    -2
100
AcDbLine
 10
350.9133000021447
 20
151.3593213553829
 30
0.0
 11
350.9133000021447
 21
173.5287250518268
 31
0.0
  0
LINE
  5
12FB
330
12F7
100
AcDbEntity
  8
2
 62
     0
370
    -2
100
AcDbLine
 10
300.9133000021447
 20
172.2787250518268
 30
0.0
 11
347.4133000021447
 21
172.2787250518268
 31
0.0
  0
SOLID
  5
12FC
330
12F7
100
AcDbEntity
  8
2
 62
     0
100
AcDbTrace
 10
300.9133000021447
 20
172.8620583851601
 30
0.0
 11
300.9133000021447
 21
171.6953917184935
 31
0.0
 12
297.4133000021447
 22
172.2787250518268
 32
0.0
 13
297.4133000021447
 23
172.2787250518268
 33
0.0
  0
SOLID
  5
12FD
330
12F7
100
AcDbEntity
  8
2
 62
     0
100
AcDbTrace
 10
347.4133000021447
 20
172.8620583851601
 30
0.0
 11
347.4133000021447
 21
171.6953917184935
 31
0.0
 12
350.9133000021447
 22
172.2787250518268
 32
0.0
 13
350.9133000021447
 23
172.2787250518268
 33
0.0
  0
MTEXT
  5
12FE
330
12F7
100
AcDbEntity
  8
2
 62
     0
100
AcDbMText
 10
324.1633000021447
 20
175.0287250518268
 30
0.0
 40
3.5
 41
0.0
 71
     5
 72
     1
  1
53.5
 73
     1
 44
1.0
1001
ACAD
1000
MTEXTBEGIN
1070
    73
1070
     1
1070
    44
1040
1.0
1070
    74
1070
     0
1000
MTEXTEND
  0
POINT
  5
12FF
330
12F7
100
AcDbEntity
  8
DEFPOINTS
 62
     0
100
AcDbPoint
 10
297.4133000021447
 20
158.7215597484829
 30
0.0
  0
POINT
  5
1300
330
12F7
100
AcDbEntity
  8
DEFPOINTS
 62
     0
100
AcDbPoint
 10
350.9133000021447
 20
149.8593213553829
 30
0.0
  0
POINT
  5
1301
330
12F7
100
AcDbEntity
  8
DEFPOINTS
 62
     0
100
AcDbPoint
 10
350.9133000021447
 20
172.2787250518268
 30
0.0
  0
ENDBLK
  5
1302
330
12F7
100
AcDbEntity
  8
0
100
AcDbBlockEnd
  0
BLOCK
  5
1304
330
1303
100
AcDbEntity
  8
0
100
AcDbBlockBegin
  2
*D5
 70
     1
 10
0.0
 20
0.0
 30
0.0
  3
*D5
  1

  0
LINE
  5
1305
330
1303
100
AcDbEntity
  8
2
 62
     0
370
    -2
100
AcDbLine
 10
302.4133000021447
 20
160.2215610474829
 30
0.0
 11
302.4133000021447
 21
164.844361987638
 31
0.0
  0
LINE
  5
1306
330
1303
100
AcDbEntity
  8
2
 62
     0
370
    -2
100
AcDbLine
 10
297.4133000021447
 20
160.2215597484829
 30
0.0
 11
297.4133000021447
 21
164.844361987638
 31
0.0
  0
LINE
  5
1307
330
1303
100
AcDbEntity
  8
2
 62
     0
370
    -2
100
AcDbLine
 10
305.9133000021447
 20
163.5943619876381
 30
0.0
 11
309.4133000021447
 21
163.5943619876381
 31
0.0
  0
LINE
  5
1308
330
1303
100
AcDbEntity
  8
2
 62
     0
370
    -2
100
AcDbLine
 10
293.9133000021447
 20
163.5943619876381
 30
0.0
 11
290.4133000021447
 21
163.5943619876381
 31
0.0
  0
LINE
  5
1309
330
1303
100
AcDbEntity
  8
2
 62
     0
370
    -2
100
AcDbLine
 10
302.4133000021447
 20
163.5943619876381
 30
0.0
 11
297.4133000021447
 21
163.5943619876381
 31
0.0
  0
SOLID
  5
130A
330
1303
100
AcDbEntity
  8
2
 62
     0
100
AcDbTrace
 10
305.9133000021447
 20
164.1776953209714
 30
0.0
 11
305.9133000021447
 21
163.0110286543047
 31
0.0
 12
302.4133000021447
 22
163.5943619876381
 32
0.0
 13
302.4133000021447
 23
163.5943619876381
 33
0.0
  0
SOLID
  5
130B
330
1303
100
AcDbEntity
  8
2
 62
     0
100
AcDbTrace
 10
293.9133000021447
 20
164.1776953209714
 30
0.0
 11
293.9133000021447
 21
163.0110286543047
 31
0.0
 12
297.4133000021447
 22
163.5943619876381
 32
0.0
 13
297.4133000021447
 23
163.5943619876381
 33
0.0
  0
MTEXT
  5
130C
330
1303
100
AcDbEntity
  8
2
 62
     0
100
AcDbMText
 10
299.9133000021447
 20
166.3443619876381
 30
0.0
 40
3.5
 41
0.0
 71
     5
 72
     1
  1
5
 73
     1
 44
1.0
1001
ACAD
1000
MTEXTBEGIN
1070
    73
1070
     1
1070
    44
1040
1.0
1070
    74
1070
     0
1000
MTEXTEND
  0
POINT
  5
130D
330
1303
100
AcDbEntity
  8
DEFPOINTS
 62
     0
100
AcDbPoint
 10
302.4133000021447
 20
158.7215610474829
 30
0.0
  0
POINT
  5
130E
330
1303
100
AcDbEntity
  8
DEFPOINTS
 62
     0
100
AcDbPoint
 10
297.4133000021447
 20
158.7215597484829
 30
0.0
  0
POINT
  5
130F
330
1303
100
AcDbEntity
  8
DEFPOINTS
 62
     0
100
AcDbPoint
 10
297.4133000021447
 20
163.5943619876381
 30
0.0
  0
ENDBLK
  5
1310
330
1303
100
AcDbEntity
  8
0
100
AcDbBlockEnd
  0
BLOCK
  5
1312
330
1311
100
AcDbEntity
  8
0
100
AcDbBlockBegin
  2
*D6
 70
     1
 10
0.0
 20
0.0
 30
0.0
  3
*D6
  1

  0
LINE
  5
1313
330
1311
100
AcDbEntity
  8
2
 62
     0
370
    -2
100
AcDbLine
 10
343.6133000021447
 20
148.1215599373829
 30
0.0
 11
358.3640374813847
 21
148.1215599373829
 31
0.0
  0
LINE
  5
1314
330
1311
100
AcDbEntity
  8
2
 62
     0
370
    -2
100
AcDbLine
 10
352.4133000021447
 20
144.2215599373829
 30
0.0
 11
358.3640374813847
 21
144.2215599373829
 31
0.0
  0
LINE
  5
1315
330
1311
100
AcDbEntity
  8
2
 62
     0
370
    -2
100
AcDbLine
 10
357.1140374813847
 20
140.7215599373829
 30
0.0
 11
357.1140374813847
 21
137.2215599373829
 31
0.0
  0
LINE
  5
1316
330
1311
100
AcDbEntity
  8
2
 62
     0
370
    -2
100
AcDbLine
 10
357.1140374813847
 20
151.6215599373829
 30
0.0
 11
357.1140374813847
 21
164.1215599373829
 31
0.0
  0
LINE
  5
1317
330
1311
100
AcDbEntity
  8
2
 62
     0
370
    -2
100
AcDbLine
 10
357.1140374813847
 20
144.2215599373829
 30
0.0
 11
357.1140374813847
 21
148.1215599373829
 31
0.0
  0
SOLID
  5
1318
330
1311
100
AcDbEntity
  8
2
 62
     0
100
AcDbTrace
 10
356.5307041480514
 20
140.7215599373829
 30
0.0
 11
357.6973708147181
 21
140.7215599373829
 31
0.0
 12
357.1140374813847
 22
144.2215599373829
 32
0.0
 13
357.1140374813847
 23
144.2215599373829
 33
0.0
  0
SOLID
  5
1319
330
1311
100
AcDbEntity
  8
2
 62
     0
100
AcDbTrace
 10
356.5307041480514
 20
151.6215599373829
 30
0.0
 11
357.6973708147181
 21
151.6215599373829
 31
0.0
 12
357.1140374813847
 22
148.1215599373829
 32
0.0
 13
357.1140374813847
 23
148.1215599373829
 33
0.0
  0
MTEXT
  5
131A
330
1311
100
AcDbEntity
  8
2
 62
     0
100
AcDbMText
 10
354.3640374813847
 20
159.6215599373829
 30
0.0
 40
3.5
 41
0.0
 71
     5
 72
     1
  1
3.9
 11
0.0000000000000001
 21
1.0
 31
0.0
 73
     1
 44
1.0
1001
ACAD
1000
MTEXTBEGIN
1070
    73
1070
     1
1070
    44
1040
1.0
1070
    74
1070
     0
1000
MTEXTEND
  0
POINT
  5
131B
330
1311
100
AcDbEntity
  8
DEFPOINTS
 62
     0
100
AcDbPoint
 10
342.1133000021447
 20
148.1215599373829
 30
0.0
  0
POINT
  5
131C
330
1311
100
AcDbEntity
  8
DEFPOINTS
 62
     0
100
AcDbPoint
 10
350.9133000021447
 20
144.2215599373829
 30
0.0
  0
POINT
  5
131D
330
1311
100
AcDbEntity
  8
DEFPOINTS
 62
     0
100
AcDbPoint
 10
357.1140374813847
 20
144.2215599373829
 30
0.0
  0
ENDBLK
  5
131E
330
1311
100
AcDbEntity
  8
0
100
AcDbBlockEnd
  0
BLOCK
  5
1320
330
131F
100
AcDbEntity
  8
0
100
AcDbBlockBegin
  2
*D7
 70
     1
 10
0.0
 20
0.0
 30
0.0
  3
*D7
  1

  0
LINE
  5
1321
330
131F
100
AcDbEntity
  8
2
 62
     0
370
    -2
100
AcDbLine
 10
296.4132985320447
 20
129.2215599373829
 30
0.0
 11
254.8008145788161
 21
129.2215599373829
 31
0.0
  0
LINE
  5
1322
330
131F
100
AcDbEntity
  8
2
 62
     0
370
    -2
100
AcDbLine
 10
296.4132985320447
 20
159.2215599373829
 30
0.0
 11
254.8008145788161
 21
159.2215599373829
 31
0.0
  0
LINE
  5
1323
330
131F
100
AcDbEntity
  8
2
 62
     0
370
    -2
100
AcDbLine
 10
256.0508145788161
 20
132.7215599373829
 30
0.0
 11
256.0508145788161
 21
155.7215599373829
 31
0.0
  0
SOLID
  5
1324
330
131F
100
AcDbEntity
  8
2
 62
     0
100
AcDbTrace
 10
255.4674812454828
 20
132.7215599373829
 30
0.0
 11
256.6341479121494
 21
132.7215599373829
 31
0.0
 12
256.0508145788161
 22
129.2215599373829
 32
0.0
 13
256.0508145788161
 23
129.2215599373829
 33
0.0
  0
SOLID
  5
1325
330
131F
100
AcDbEntity
  8
2
 62
     0
100
AcDbTrace
 10
255.4674812454828
 20
155.7215599373829
 30
0.0
 11
256.6341479121494
 21
155.7215599373829
 31
0.0
 12
256.0508145788161
 22
159.2215599373829
 32
0.0
 13
256.0508145788161
 23
159.2215599373829
 33
0.0
  0
MTEXT
  5
1326
330
131F
100
AcDbEntity
  8
2
 62
     0
100
AcDbMText
 10
253.3008145788161
 20
144.2215599373829
 30
0.0
 40
3.5
 41
0.0
 71
     5
 72
     1
  1
Ø 30
 11
0.0000000000000001
 21
1.0
 31
0.0
 73
     1
 44
1.0
1001
ACAD
1000
MTEXTBEGIN
1070
    73
1070
     1
1070
    44
1040
1.0
1070
    74
1070
     0
1000
MTEXTEND
  0
POINT
  5
1327
330
131F
100
AcDbEntity
  8
DEFPOINTS
 62
     0
100
AcDbPoint
 10
297.9132985320447
 20
129.2215599373829
 30
0.0
  0
POINT
  5
1328
330
131F
100
AcDbEntity
  8
DEFPOINTS
 62
     0
100
AcDbPoint
 10
297.9132985320447
 20
159.2215599373829
 30
0.0
  0
POINT
  5
1329
330
131F
100
AcDbEntity
  8
DEFPOINTS
 62
     0
100
AcDbPoint
 10
256.0508145788161
 20
159.2215599373829
 30
0.0
  0
ENDBLK
  5
132A
330
131F
100
AcDbEntity
  8
0
100
AcDbBlockEnd
  0
BLOCK
  5
132C
330
132B
100
AcDbEntity
  8
0
100
AcDbBlockBegin
  2
*D8
 70
     1
 10
0.0
 20
0.0
 30
0.0
  3
*D8
  1

  0
LINE
  5
132D
330
132B
100
AcDbEntity
  8
2
 62
     0
370
    -2
100
AcDbLine
 10
267.9133000021447
 20
152.4715599373829
 30
0.0
 11
267.9133000021447
 21
173.5908244611218
 31
0.0
  0
LINE
  5
132E
330
132B
100
AcDbEntity
  8
2
 62
     0
370
    -2
100
AcDbLine
 10
297.4133000021447
 20
160.2215597484829
 30
0.0
 11
297.4133000021447
 21
173.5908244611218
 31
0.0
  0
LINE
  5
132F
330
132B
100
AcDbEntity
  8
2
 62
     0
370
    -2
100
AcDbLine
 10
271.4133000021447
 20
172.3408244611218
 30
0.0
 11
293.9133000021447
 21
172.3408244611218
 31
0.0
  0
SOLID
  5
1330
330
132B
100
AcDbEntity
  8
2
 62
     0
100
AcDbTrace
 10
271.4133000021447
 20
172.9241577944551
 30
0.0
 11
271.4133000021447
 21
171.7574911277885
 31
0.0
 12
267.9133000021447
 22
172.3408244611218
 32
0.0
 13
267.9133000021447
 23
172.3408244611218
 33
0.0
  0
SOLID
  5
1331
330
132B
100
AcDbEntity
  8
2
 62
     0
100
AcDbTrace
 10
293.9133000021447
 20
172.9241577944551
 30
0.0
 11
293.9133000021447
 21
171.7574911277885
 31
0.0
 12
297.4133000021447
 22
172.3408244611218
 32
0.0
 13
297.4133000021447
 23
172.3408244611218
 33
0.0
  0
MTEXT
  5
1332
330
132B
100
AcDbEntity
  8
2
 62
     0
100
AcDbMText
 10
282.6633000021447
 20
175.0908244611218
 30
0.0
 40
3.5
 41
0.0
 71
     5
 72
     1
  1
29.5
 73
     1
 44
1.0
1001
ACAD
1000
MTEXTBEGIN
1070
    73
1070
     1
1070
    44
1040
1.0
1070
    74
1070
     0
1000
MTEXTEND
  0
POINT
  5
1333
330
132B
100
AcDbEntity
  8
DEFPOINTS
 62
     0
100
AcDbPoint
 10
267.9133000021447
 20
150.9715599373829
 30
0.0
  0
POINT
  5
1334
330
132B
100
AcDbEntity
  8
DEFPOINTS
 62
     0
100
AcDbPoint
 10
297.4133000021447
 20
158.7215597484829
 30
0.0
  0
POINT
  5
1335
330
132B
100
AcDbEntity
  8
DEFPOINTS
 62
     0
100
AcDbPoint
 10
297.4133000021447
 20
172.3408244611218
 30
0.0
  0
ENDBLK
  5
1336
330
132B
100
AcDbEntity
  8
0
100
AcDbBlockEnd
  0
BLOCK
  5
1338
330
1337
100
AcDbEntity
  8
0
100
AcDbBlockBegin
  2
*D9
 70
     1
 10
0.0
 20
0.0
 30
0.0
  3
*D9
  1

  0
LINE
  5
1339
330
1337
100
AcDbEntity
  8
2
 62
     0
370
    -2
100
AcDbLine
 10
333.7133000021446
 20
152.2215599373829
 30
0.0
 11
365.4019916800494
 21
152.2215599373829
 31
0.0
  0
LINE
  5
133A
330
1337
100
AcDbEntity
  8
2
 62
     0
370
    -2
100
AcDbLine
 10
352.1133000021447
 20
136.2215599373829
 30
0.0
 11
365.4019916800494
 21
136.2215599373829
 31
0.0
  0
LINE
  5
133B
330
1337
100
AcDbEntity
  8
2
 62
     0
370
    -2
100
AcDbLine
 10
364.1519916800494
 20
148.7215599373829
 30
0.0
 11
364.1519916800494
 21
139.7215599373829
 31
0.0
  0
SOLID
  5
133C
330
1337
100
AcDbEntity
  8
2
 62
     0
100
AcDbTrace
 10
363.5686583467161
 20
148.7215599373829
 30
0.0
 11
364.7353250133828
 21
148.7215599373829
 31
0.0
 12
364.1519916800494
 22
152.2215599373829
 32
0.0
 13
364.1519916800494
 23
152.2215599373829
 33
0.0
  0
SOLID
  5
133D
330
1337
100
AcDbEntity
  8
2
 62
     0
100
AcDbTrace
 10
363.5686583467161
 20
139.7215599373829
 30
0.0
 11
364.7353250133828
 21
139.7215599373829
 31
0.0
 12
364.1519916800494
 22
136.2215599373829
 32
0.0
 13
364.1519916800494
 23
136.2215599373829
 33
0.0
  0
MTEXT
  5
133E
330
1337
100
AcDbEntity
  8
2
 62
     0
100
AcDbMText
 10
361.4019916800494
 20
144.2215599373829
 30
0.0
 40
3.5
 41
0.0
 71
     5
 72
     1
  1
Ø 16
 11
0.0000000000000001
 21
1.0
 31
0.0
 73
     1
 44
1.0
1001
ACAD
1000
MTEXTBEGIN
1070
    73
1070
     1
1070
    44
1040
1.0
1070
    74
1070
     0
1000
MTEXTEND
  0
POINT
  5
133F
330
1337
100
AcDbEntity
  8
DEFPOINTS
 62
     0
100
AcDbPoint
 10
332.2133000021446
 20
152.2215599373829
 30
0.0
  0
POINT
  5
1340
330
1337
100
AcDbEntity
  8
DEFPOINTS
 62
     0
100
AcDbPoint
 10
350.6133000021447
 20
136.2215599373829
 30
0.0
  0
POINT
  5
1341
330
1337
100
AcDbEntity
  8
DEFPOINTS
 62
     0
100
AcDbPoint
 10
364.1519916800494
 20
136.2215599373829
 30
0.0
  0
ENDBLK
  5
1342
330
1337
100
AcDbEntity
  8
0
100
AcDbBlockEnd
  0
BLOCK
  5
1477
330
1476
100
AcDbEntity
  8
0
100
AcDbBlockBegin
  2
*D11
 70
     1
 10
0.0
 20
0.0
 30
0.0
  3
*D11
  1

  0
LINE
  5
1479
330
1476
100
AcDbEntity
  8
2
 62
     0
370
    -2
100
AcDbLine
 10
-273.1572884947958
 20
-62.24613108236101
 30
0.0
 11
-296.9959689640316
 21
-62.24613108236101
 31
0.0
  0
LINE
  5
147A
330
1476
100
AcDbEntity
  8
2
 62
     0
370
    -2
100
AcDbLine
 10
-291.4073184085958
 20
-78.24613108236102
 30
0.0
 11
-296.9959689640316
 21
-78.24613108236102
 31
0.0
  0
LINE
  5
147B
330
1476
100
AcDbEntity
  8
2
 62
     0
370
    -2
100
AcDbLine
 10
-295.7459689640316
 20
-65.746131082361
 30
0.0
 11
-295.7459689640316
 21
-74.74613108236102
 31
0.0
  0
SOLID
  5
147C
330
1476
100
AcDbEntity
  8
2
 62
     0
100
AcDbTrace
 10
-296.3293022973649
 20
-65.746131082361
 30
0.0
 11
-295.1626356306983
 21
-65.746131082361
 31
0.0
 12
-295.7459689640316
 22
-62.24613108236101
 32
0.0
 13
-295.7459689640316
 23
-62.24613108236101
 33
0.0
  0
SOLID
  5
147D
330
1476
100
AcDbEntity
  8
2
 62
     0
100
AcDbTrace
 10
-296.3293022973649
 20
-74.74613108236102
 30
0.0
 11
-295.1626356306983
 21
-74.74613108236102
 31
0.0
 12
-295.7459689640316
 22
-78.24613108236102
 32
0.0
 13
-295.7459689640316
 23
-78.24613108236102
 33
0.0
  0
MTEXT
  5
147E
330
1476
100
AcDbEntity
  8
2
 62
     0
100
AcDbMText
 10
-298.4959689640316
 20
-70.24613108236102
 30
0.0
 40
3.5
 41
0.0
 71
     5
 72
     1
  1
Ø 16
 11
0.0000000000000001
 21
1.0
 31
0.0
 73
     1
 44
1.0
1001
ACAD
1000
MTEXTBEGIN
1070
    73
1070
     1
1070
    44
1040
1.0
1070
    74
1070
     0
1000
MTEXTEND
  0
POINT
  5
147F
330
1476
100
AcDbEntity
  8
DEFPOINTS
 62
     0
100
AcDbPoint
 10
-271.6572884947958
 20
-62.24613108236102
 30
0.0
  0
POINT
  5
1480
330
1476
100
AcDbEntity
  8
DEFPOINTS
 62
     0
100
AcDbPoint
 10
-289.9073184085958
 20
-78.24613108236102
 30
0.0
  0
POINT
  5
1481
330
1476
100
AcDbEntity
  8
DEFPOINTS
 62
     0
100
AcDbPoint
 10
-295.7459689640316
 20
-78.24613108236102
 30
0.0
  0
ENDBLK
  5
1478
330
1476
100
AcDbEntity
  8
0
100
AcDbBlockEnd
  0
BLOCK
  5
1483
330
1482
100
AcDbEntity
  8
0
100
AcDbBlockBegin
  2
*D12
 70
     1
 10
0.0
 20
0.0
 30
0.0
  3
*D12
  1

  0
LINE
  5
1485
330
1482
100
AcDbEntity
  8
2
 62
     0
370
    -2
100
AcDbLine
 10
-215.9072884947958
 20
-65.14613108236102
 30
0.0
 11
-215.9072884947958
 21
-49.63849574842734
 31
0.0
  0
LINE
  5
1486
330
1482
100
AcDbEntity
  8
2
 62
     0
370
    -2
100
AcDbLine
 10
-255.9072884947958
 20
-54.24612997226103
 30
0.0
 11
-255.9072884947958
 21
-49.63849574842734
 31
0.0
  0
LINE
  5
1487
330
1482
100
AcDbEntity
  8
2
 62
     0
370
    -2
100
AcDbLine
 10
-219.4072884947958
 20
-50.88849574842734
 30
0.0
 11
-252.4072884947958
 21
-50.88849574842734
 31
0.0
  0
SOLID
  5
1488
330
1482
100
AcDbEntity
  8
2
 62
     0
100
AcDbTrace
 10
-219.4072884947958
 20
-50.30516241509401
 30
0.0
 11
-219.4072884947958
 21
-51.47182908176068
 31
0.0
 12
-215.9072884947958
 22
-50.88849574842734
 32
0.0
 13
-215.9072884947958
 23
-50.88849574842734
 33
0.0
  0
SOLID
  5
1489
330
1482
100
AcDbEntity
  8
2
 62
     0
100
AcDbTrace
 10
-252.4072884947958
 20
-50.30516241509401
 30
0.0
 11
-252.4072884947958
 21
-51.47182908176068
 31
0.0
 12
-255.9072884947958
 22
-50.88849574842734
 32
0.0
 13
-255.9072884947958
 23
-50.88849574842734
 33
0.0
  0
MTEXT
  5
148A
330
1482
100
AcDbEntity
  8
2
 62
     0
100
AcDbMText
 10
-235.9072884947958
 20
-48.13849574842734
 30
0.0
 40
3.5
 41
0.0
 71
     5
 72
     1
  1
40
 73
     1
 44
1.0
1001
ACAD
1000
MTEXTBEGIN
1070
    73
1070
     1
1070
    44
1040
1.0
1070
    74
1070
     0
1000
MTEXTEND
  0
POINT
  5
148B
330
1482
100
AcDbEntity
  8
DEFPOINTS
 62
     0
100
AcDbPoint
 10
-215.9072884947958
 20
-66.64613108236102
 30
0.0
  0
POINT
  5
148C
330
1482
100
AcDbEntity
  8
DEFPOINTS
 62
     0
100
AcDbPoint
 10
-255.9072884947958
 20
-55.74612997226103
 30
0.0
  0
POINT
  5
148D
330
1482
100
AcDbEntity
  8
DEFPOINTS
 62
     0
100
AcDbPoint
 10
-255.9072884947958
 20
-50.88849574842734
 30
0.0
  0
ENDBLK
  5
1484
330
1482
100
AcDbEntity
  8
0
100
AcDbBlockEnd
  0
BLOCK
  5
148F
330
148E
100
AcDbEntity
  8
0
100
AcDbBlockBegin
  2
*D13
 70
     1
 10
0.0
 20
0.0
 30
0.0
  3
*D13
  1

  0
LINE
  5
1491
330
148E
100
AcDbEntity
  8
2
 62
     0
370
    -2
100
AcDbLine
 10
-260.9072884947958
 20
-54.24613127126102
 30
0.0
 11
-260.9072884947958
 21
-40.93896596791711
 31
0.0
  0
LINE
  5
1492
330
148E
100
AcDbEntity
  8
2
 62
     0
370
    -2
100
AcDbLine
 10
-207.4072884947958
 20
-63.10836966436105
 30
0.0
 11
-207.4072884947958
 21
-40.93896596791711
 31
0.0
  0
LINE
  5
1493
330
148E
100
AcDbEntity
  8
2
 62
     0
370
    -2
100
AcDbLine
 10
-257.4072884947958
 20
-42.18896596791711
 30
0.0
 11
-210.9072884947958
 21
-42.18896596791711
 31
0.0
  0
SOLID
  5
1494
330
148E
100
AcDbEntity
  8
2
 62
     0
100
AcDbTrace
 10
-257.4072884947958
 20
-41.60563263458377
 30
0.0
 11
-257.4072884947958
 21
-42.77229930125044
 31
0.0
 12
-260.9072884947958
 22
-42.18896596791711
 32
0.0
 13
-260.9072884947958
 23
-42.18896596791711
 33
0.0
  0
SOLID
  5
1495
330
148E
100
AcDbEntity
  8
2
 62
     0
100
AcDbTrace
 10
-210.9072884947958
 20
-41.60563263458377
 30
0.0
 11
-210.9072884947958
 21
-42.77229930125044
 31
0.0
 12
-207.4072884947958
 22
-42.18896596791711
 32
0.0
 13
-207.4072884947958
 23
-42.18896596791711
 33
0.0
  0
MTEXT
  5
1496
330
148E
100
AcDbEntity
  8
2
 62
     0
100
AcDbMText
 10
-234.1572884947958
 20
-39.43896596791712
 30
0.0
 40
3.5
 41
0.0
 71
     5
 72
     1
  1
53.5
 73
     1
 44
1.0
1001
ACAD
1000
MTEXTBEGIN
1070
    73
1070
     1
1070
    44
1040
1.0
1070
    74
1070
     0
1000
MTEXTEND
  0
POINT
  5
1497
330
148E
100
AcDbEntity
  8
DEFPOINTS
 62
     0
100
AcDbPoint
 10
-260.9072884947958
 20
-55.74613127126102
 30
0.0
  0
POINT
  5
1498
330
148E
100
AcDbEntity
  8
DEFPOINTS
 62
     0
100
AcDbPoint
 10
-207.4072884947958
 20
-64.60836966436104
 30
0.0
  0
POINT
  5
1499
330
148E
100
AcDbEntity
  8
DEFPOINTS
 62
     0
100
AcDbPoint
 10
-207.4072884947958
 20
-42.18896596791711
 30
0.0
  0
ENDBLK
  5
1490
330
148E
100
AcDbEntity
  8
0
100
AcDbBlockEnd
  0
BLOCK
  5
149B
330
149A
100
AcDbEntity
  8
0
100
AcDbBlockBegin
  2
*D14
 70
     1
 10
0.0
 20
0.0
 30
0.0
  3
*D14
  1

  0
LINE
  5
149D
330
149A
100
AcDbEntity
  8
2
 62
     0
370
    -2
100
AcDbLine
 10
-255.9072884947958
 20
-54.24612997226103
 30
0.0
 11
-255.9072884947958
 21
-49.62332903210586
 31
0.0
  0
LINE
  5
149E
330
149A
100
AcDbEntity
  8
2
 62
     0
370
    -2
100
AcDbLine
 10
-260.9072884947958
 20
-54.24613127126102
 30
0.0
 11
-260.9072884947958
 21
-49.62332903210586
 31
0.0
  0
LINE
  5
149F
330
149A
100
AcDbEntity
  8
2
 62
     0
370
    -2
100
AcDbLine
 10
-252.4072884947958
 20
-50.87332903210586
 30
0.0
 11
-248.9072884947958
 21
-50.87332903210586
 31
0.0
  0
LINE
  5
14A0
330
149A
100
AcDbEntity
  8
2
 62
     0
370
    -2
100
AcDbLine
 10
-264.4072884947958
 20
-50.87332903210586
 30
0.0
 11
-267.9072884947958
 21
-50.87332903210586
 31
0.0
  0
LINE
  5
14A1
330
149A
100
AcDbEntity
  8
2
 62
     0
370
    -2
100
AcDbLine
 10
-255.9072884947958
 20
-50.87332903210586
 30
0.0
 11
-260.9072884947958
 21
-50.87332903210586
 31
0.0
  0
SOLID
  5
14A2
330
149A
100
AcDbEntity
  8
2
 62
     0
100
AcDbTrace
 10
-252.4072884947958
 20
-50.28999569877252
 30
0.0
 11
-252.4072884947958
 21
-51.45666236543919
 31
0.0
 12
-255.9072884947958
 22
-50.87332903210586
 32
0.0
 13
-255.9072884947958
 23
-50.87332903210586
 33
0.0
  0
SOLID
  5
14A3
330
149A
100
AcDbEntity
  8
2
 62
     0
100
AcDbTrace
 10
-264.4072884947958
 20
-50.28999569877252
 30
0.0
 11
-264.4072884947958
 21
-51.45666236543919
 31
0.0
 12
-260.9072884947958
 22
-50.87332903210586
 32
0.0
 13
-260.9072884947958
 23
-50.87332903210586
 33
0.0
  0
MTEXT
  5
14A4
330
149A
100
AcDbEntity
  8
2
 62
     0
100
AcDbMText
 10
-258.4072884947958
 20
-48.12332903210585
 30
0.0
 40
3.5
 41
0.0
 71
     5
 72
     1
  1
5
 73
     1
 44
1.0
1001
ACAD
1000
MTEXTBEGIN
1070
    73
1070
     1
1070
    44
1040
1.0
1070
    74
1070
     0
1000
MTEXTEND
  0
POINT
  5
14A5
330
149A
100
AcDbEntity
  8
DEFPOINTS
 62
     0
100
AcDbPoint
 10
-255.9072884947958
 20
-55.74612997226103
 30
0.0
  0
POINT
  5
14A6
330
149A
100
AcDbEntity
  8
DEFPOINTS
 62
     0
100
AcDbPoint
 10
-260.9072884947958
 20
-55.74613127126102
 30
0.0
  0
POINT
  5
14A7
330
149A
100
AcDbEntity
  8
DEFPOINTS
 62
     0
100
AcDbPoint
 10
-260.9072884947958
 20
-50.87332903210586
 30
0.0
  0
ENDBLK
  5
149C
330
149A
100
AcDbEntity
  8
0
100
AcDbBlockEnd
  0
BLOCK
  5
14A9
330
14A8
100
AcDbEntity
  8
0
100
AcDbBlockBegin
  2
*D15
 70
     1
 10
0.0
 20
0.0
 30
0.0
  3
*D15
  1

  0
LINE
  5
14AB
330
14A8
100
AcDbEntity
  8
2
 62
     0
370
    -2
100
AcDbLine
 10
-214.7072884947958
 20
-66.34613108236104
 30
0.0
 11
-199.9565510155558
 21
-66.34613108236104
 31
0.0
  0
LINE
  5
14AC
330
14A8
100
AcDbEntity
  8
2
 62
     0
370
    -2
100
AcDbLine
 10
-205.9072884947958
 20
-70.24613108236102
 30
0.0
 11
-199.9565510155558
 21
-70.24613108236102
 31
0.0
  0
LINE
  5
14AD
330
14A8
100
AcDbEntity
  8
2
 62
     0
370
    -2
100
AcDbLine
 10
-201.2065510155558
 20
-73.74613108236101
 30
0.0
 11
-201.2065510155558
 21
-77.24613108236102
 31
0.0
  0
LINE
  5
14AE
330
14A8
100
AcDbEntity
  8
2
 62
     0
370
    -2
100
AcDbLine
 10
-201.2065510155558
 20
-62.84613108236104
 30
0.0
 11
-201.2065510155558
 21
-50.34613108236095
 31
0.0
  0
LINE
  5
14AF
330
14A8
100
AcDbEntity
  8
2
 62
     0
370
    -2
100
AcDbLine
 10
-201.2065510155558
 20
-70.24613108236102
 30
0.0
 11
-201.2065510155558
 21
-66.34613108236104
 31
0.0
  0
SOLID
  5
14B0
330
14A8
100
AcDbEntity
  8
2
 62
     0
100
AcDbTrace
 10
-201.7898843488892
 20
-73.74613108236101
 30
0.0
 11
-200.6232176822225
 21
-73.74613108236101
 31
0.0
 12
-201.2065510155558
 22
-70.24613108236102
 32
0.0
 13
-201.2065510155558
 23
-70.24613108236102
 33
0.0
  0
SOLID
  5
14B1
330
14A8
100
AcDbEntity
  8
2
 62
     0
100
AcDbTrace
 10
-201.7898843488891
 20
-62.84613108236104
 30
0.0
 11
-200.6232176822225
 21
-62.84613108236104
 31
0.0
 12
-201.2065510155558
 22
-66.34613108236104
 32
0.0
 13
-201.2065510155558
 23
-66.34613108236104
 33
0.0
  0
MTEXT
  5
14B2
330
14A8
100
AcDbEntity
  8
2
 62
     0
100
AcDbMText
 10
-203.9565510155558
 20
-54.84613108236098
 30
0.0
 40
3.5
 41
0.0
 71
     5
 72
     1
  1
3.9
 11
0.0000000000000001
 21
1.0
 31
0.0
 73
     1
 44
1.0
1001
ACAD
1000
MTEXTBEGIN
1070
    73
1070
     1
1070
    44
1040
1.0
1070
    74
1070
     0
1000
MTEXTEND
  0
POINT
  5
14B3
330
14A8
100
AcDbEntity
  8
DEFPOINTS
 62
     0
100
AcDbPoint
 10
-216.2072884947958
 20
-66.34613108236104
 30
0.0
  0
POINT
  5
14B4
330
14A8
100
AcDbEntity
  8
DEFPOINTS
 62
     0
100
AcDbPoint
 10
-207.4072884947958
 20
-70.24613108236102
 30
0.0
  0
POINT
  5
14B5
330
14A8
100
AcDbEntity
  8
DEFPOINTS
 62
     0
100
AcDbPoint
 10
-201.2065510155558
 20
-70.24613108236102
 30
0.0
  0
ENDBLK
  5
14AA
330
14A8
100
AcDbEntity
  8
0
100
AcDbBlockEnd
  0
BLOCK
  5
14B7
330
14B6
100
AcDbEntity
  8
0
100
AcDbBlockBegin
  2
*D16
 70
     1
 10
0.0
 20
0.0
 30
0.0
  3
*D16
  1

  0
LINE
  5
14B9
330
14B6
100
AcDbEntity
  8
2
 62
     0
370
    -2
100
AcDbLine
 10
-261.9072899648958
 20
-85.24613108236101
 30
0.0
 11
-303.5197739181243
 21
-85.24613108236101
 31
0.0
  0
LINE
  5
14BA
330
14B6
100
AcDbEntity
  8
2
 62
     0
370
    -2
100
AcDbLine
 10
-261.9072899648958
 20
-55.24613108236102
 30
0.0
 11
-303.5197739181243
 21
-55.24613108236101
 31
0.0
  0
LINE
  5
14BB
330
14B6
100
AcDbEntity
  8
2
 62
     0
370
    -2
100
AcDbLine
 10
-302.2697739181243
 20
-81.74613108236099
 30
0.0
 11
-302.2697739181243
 21
-58.74613108236101
 31
0.0
  0
SOLID
  5
14BC
330
14B6
100
AcDbEntity
  8
2
 62
     0
100
AcDbTrace
 10
-302.8531072514576
 20
-81.74613108236099
 30
0.0
 11
-301.686440584791
 21
-81.74613108236099
 31
0.0
 12
-302.2697739181243
 22
-85.24613108236101
 32
0.0
 13
-302.2697739181243
 23
-85.24613108236101
 33
0.0
  0
SOLID
  5
14BD
330
14B6
100
AcDbEntity
  8
2
 62
     0
100
AcDbTrace
 10
-302.8531072514576
 20
-58.74613108236101
 30
0.0
 11
-301.686440584791
 21
-58.74613108236101
 31
0.0
 12
-302.2697739181243
 22
-55.24613108236101
 32
0.0
 13
-302.2697739181243
 23
-55.24613108236101
 33
0.0
  0
MTEXT
  5
14BE
330
14B6
100
AcDbEntity
  8
2
 62
     0
100
AcDbMText
 10
-305.0197739181243
 20
-70.24613108236106
 30
0.0
 40
3.5
 41
0.0
 71
     5
 72
     1
  1
Ø 30
 11
0.0000000000000001
 21
1.0
 31
0.0
 73
     1
 44
1.0
1001
ACAD
1000
MTEXTBEGIN
1070
    73
1070
     1
1070
    44
1040
1.0
1070
    74
1070
     0
1000
MTEXTEND
  0
POINT
  5
14BF
330
14B6
100
AcDbEntity
  8
DEFPOINTS
 62
     0
100
AcDbPoint
 10
-260.4072899648958
 20
-85.24613108236101
 30
0.0
  0
POINT
  5
14C0
330
14B6
100
AcDbEntity
  8
DEFPOINTS
 62
     0
100
AcDbPoint
 10
-260.4072899648958
 20
-55.24613108236102
 30
0.0
  0
POINT
  5
14C1
330
14B6
100
AcDbEntity
  8
DEFPOINTS
 62
     0
100
AcDbPoint
 10
-302.2697739181243
 20
-55.24613108236101
 30
0.0
  0
ENDBLK
  5
14B8
330
14B6
100
AcDbEntity
  8
0
100
AcDbBlockEnd
  0
BLOCK
  5
14C3
330
14C2
100
AcDbEntity
  8
0
100
AcDbBlockBegin
  2
*D17
 70
     1
 10
0.0
 20
0.0
 30
0.0
  3
*D17
  1

  0
LINE
  5
14C5
330
14C2
100
AcDbEntity
  8
2
 62
     0
370
    -2
100
AcDbLine
 10
-290.4072884947958
 20
-61.99613108236102
 30
0.0
 11
-290.4072884947958
 21
-40.87686655862211
 31
0.0
  0
LINE
  5
14C6
330
14C2
100
AcDbEntity
  8
2
 62
     0
370
    -2
100
AcDbLine
 10
-260.9072884947958
 20
-54.24613127126102
 30
0.0
 11
-260.9072884947958
 21
-40.87686655862211
 31
0.0
  0
LINE
  5
14C7
330
14C2
100
AcDbEntity
  8
2
 62
     0
370
    -2
100
AcDbLine
 10
-286.9072884947958
 20
-42.12686655862211
 30
0.0
 11
-264.4072884947958
 21
-42.12686655862211
 31
0.0
  0
SOLID
  5
14C8
330
14C2
100
AcDbEntity
  8
2
 62
     0
100
AcDbTrace
 10
-286.9072884947958
 20
-41.54353322528877
 30
0.0
 11
-286.9072884947958
 21
-42.71019989195544
 31
0.0
 12
-290.4072884947958
 22
-42.12686655862211
 32
0.0
 13
-290.4072884947958
 23
-42.12686655862211
 33
0.0
  0
SOLID
  5
14C9
330
14C2
100
AcDbEntity
  8
2
 62
     0
100
AcDbTrace
 10
-264.4072884947958
 20
-41.54353322528877
 30
0.0
 11
-264.4072884947958
 21
-42.71019989195544
 31
0.0
 12
-260.9072884947958
 22
-42.12686655862211
 32
0.0
 13
-260.9072884947958
 23
-42.12686655862211
 33
0.0
  0
MTEXT
  5
14CA
330
14C2
100
AcDbEntity
  8
2
 62
     0
100
AcDbMText
 10
-275.6572884947958
 20
-39.37686655862211
 30
0.0
 40
3.5
 41
0.0
 71
     5
 72
     1
  1
29.5
 73
     1
 44
1.0
1001
ACAD
1000
MTEXTBEGIN
1070
    73
1070
     1
1070
    44
1040
1.0
1070
    74
1070
     0
1000
MTEXTEND
  0
POINT
  5
14CB
330
14C2
100
AcDbEntity
  8
DEFPOINTS
 62
     0
100
AcDbPoint
 10
-290.4072884947958
 20
-63.49613108236102
 30
0.0
  0
POINT
  5
14CC
330
14C2
100
AcDbEntity
  8
DEFPOINTS
 62
     0
100
AcDbPoint
 10
-260.9072884947958
 20
-55.74613127126102
 30
0.0
  0
POINT
  5
14CD
330
14C2
100
AcDbEntity
  8
DEFPOINTS
 62
     0
100
AcDbPoint
 10
-260.9072884947958
 20
-42.12686655862211
 30
0.0
  0
ENDBLK
  5
14C4
330
14C2
100
AcDbEntity
  8
0
100
AcDbBlockEnd
  0
BLOCK
  5
14CF
330
14CE
100
AcDbEntity
  8
0
100
AcDbBlockBegin
  2
*D18
 70
     1
 10
0.0
 20
0.0
 30
0.0
  3
*D18
  1

  0
LINE
  5
14D1
330
14CE
100
AcDbEntity
  8
2
 62
     0
370
    -2
100
AcDbLine
 10
-224.6072884947958
 20
-62.24613108236102
 30
0.0
 11
-192.9185968168911
 21
-62.24613108236102
 31
0.0
  0
LINE
  5
14D2
330
14CE
100
AcDbEntity
  8
2
 62
     0
370
    -2
100
AcDbLine
 10
-206.2072884947958
 20
-78.24613108236102
 30
0.0
 11
-192.9185968168911
 21
-78.24613108236102
 31
0.0
  0
LINE
  5
14D3
330
14CE
100
AcDbEntity
  8
2
 62
     0
370
    -2
100
AcDbLine
 10
-194.1685968168911
 20
-65.74613108236103
 30
0.0
 11
-194.1685968168911
 21
-74.74613108236102
 31
0.0
  0
SOLID
  5
14D4
330
14CE
100
AcDbEntity
  8
2
 62
     0
100
AcDbTrace
 10
-194.7519301502244
 20
-65.74613108236103
 30
0.0
 11
-193.5852634835578
 21
-65.74613108236103
 31
0.0
 12
-194.1685968168911
 22
-62.24613108236102
 32
0.0
 13
-194.1685968168911
 23
-62.24613108236102
 33
0.0
  0
SOLID
  5
14D5
330
14CE
100
AcDbEntity
  8
2
 62
     0
100
AcDbTrace
 10
-194.7519301502244
 20
-74.74613108236102
 30
0.0
 11
-193.5852634835578
 21
-74.74613108236102
 31
0.0
 12
-194.1685968168911
 22
-78.24613108236102
 32
0.0
 13
-194.1685968168911
 23
-78.24613108236102
 33
0.0
  0
MTEXT
  5
14D6
330
14CE
100
AcDbEntity
  8
2
 62
     0
100
AcDbMText
 10
-196.9185968168911
 20
-70.24613108236102
 30
0.0
 40
3.5
 41
0.0
 71
     5
 72
     1
  1
Ø 16
 11
0.0000000000000001
 21
1.0
 31
0.0
 73
     1
 44
1.0
1001
ACAD
1000
MTEXTBEGIN
1070
    73
1070
     1
1070
    44
1040
1.0
1070
    74
1070
     0
1000
MTEXTEND
  0
POINT
  5
14D7
330
14CE
100
AcDbEntity
  8
DEFPOINTS
 62
     0
100
AcDbPoint
 10
-226.1072884947958
 20
-62.24613108236102
 30
0.0
  0
POINT
  5
14D8
330
14CE
100
AcDbEntity
  8
DEFPOINTS
 62
     0
100
AcDbPoint
 10
-207.7072884947958
 20
-78.24613108236102
 30
0.0
  0
POINT
  5
14D9
330
14CE
100
AcDbEntity
  8
DEFPOINTS
 62
     0
100
AcDbPoint
 10
-194.1685968168911
 20
-78.24613108236102
 30
0.0
  0
ENDBLK
  5
14D0
330
14CE
100
AcDbEntity
  8
0
100
AcDbBlockEnd
  0
BLOCK
  5
14E7
330
14E6
100
AcDbEntity
  8
0
100
AcDbBlockBegin
  2
*D20
 70
     1
 10
0.0
 20
0.0
 30
0.0
  3
*D20
  1

  0
LINE
  5
1581
330
14E6
100
AcDbEntity
  8
SK2
 62
     0
370
    -2
100
AcDbLine
 10
-272.6572884947958
 20
-62.24613108236101
 30
0.0
 11
-303.0486893225359
 21
-62.24613108236101
 31
0.0
  0
LINE
  5
1582
330
14E6
100
AcDbEntity
  8
SK2
 62
     0
370
    -2
100
AcDbLine
 10
-290.9073184085958
 20
-78.24613108236102
 30
0.0
 11
-303.0486893225359
 21
-78.24613108236102
 31
0.0
  0
LINE
  5
1583
330
14E6
100
AcDbEntity
  8
SK2
 62
     0
100
AcDbLine
 10
-302.0486893225359
 20
-65.746131082361
 30
0.0
 11
-302.0486893225359
 21
-74.74613108236102
 31
0.0
  0
SOLID
  5
1584
330
14E6
100
AcDbEntity
  8
SK2
 62
     0
100
AcDbTrace
 10
-302.6320226558692
 20
-65.746131082361
 30
0.0
 11
-301.4653559892026
 21
-65.746131082361
 31
0.0
 12
-302.0486893225359
 22
-62.24613108236101
 32
0.0
 13
-302.0486893225359
 23
-62.24613108236101
 33
0.0
  0
SOLID
  5
1585
330
14E6
100
AcDbEntity
  8
SK2
 62
     0
100
AcDbTrace
 10
-302.6320226558692
 20
-74.74613108236102
 30
0.0
 11
-301.4653559892026
 21
-74.74613108236102
 31
0.0
 12
-302.0486893225359
 22
-78.24613108236102
 32
0.0
 13
-302.0486893225359
 23
-78.24613108236102
 33
0.0
  0
MTEXT
  5
1586
330
14E6
100
AcDbEntity
  8
SK2
 62
     0
100
AcDbMText
 10
-304.7986893225359
 20
-70.24613108236106
 30
0.0
 40
3.5
 41
0.0
 71
     5
 72
     1
  1
\A1;%%C16
 11
0.0000000000000001
 21
1.0
 31
0.0
 73
     1
 44
1.0
1001
ACAD
1000
MTEXTBEGIN
1070
    73
1070
     1
1070
    44
1040
1.0
1070
    74
1070
     0
1000
MTEXTEND
  0
POINT
  5
1587
330
14E6
100
AcDbEntity
  8
DEFPOINTS
 62
     0
100
AcDbPoint
 10
-271.6572884947958
 20
-62.24613108236102
 30
0.0
  0
POINT
  5
1588
330
14E6
100
AcDbEntity
  8
DEFPOINTS
 62
     0
100
AcDbPoint
 10
-289.9073184085958
 20
-78.24613108236102
 30
0.0
  0
POINT
  5
1589
330
14E6
100
AcDbEntity
  8
DEFPOINTS
 62
     0
100
AcDbPoint
 10
-302.0486893225359
 20
-78.24613108236102
 30
0.0
  0
ENDBLK
  5
14E8
330
14E6
100
AcDbEntity
  8
0
100
AcDbBlockEnd
  0
BLOCK
  5
14FD
330
14FC
100
AcDbEntity
  8
0
100
AcDbBlockBegin
  2
*D21
 70
     1
 10
0.0
 20
0.0
 30
0.0
  3
*D21
  1

  0
LINE
  5
156F
330
14FC
100
AcDbEntity
  8
2
 62
     0
370
    -2
100
AcDbLine
 10
-260.9072884947958
 20
-54.74613127126102
 30
0.0
 11
-260.9072884947958
 21
-42.31891871599384
 31
0.0
  0
LINE
  5
1570
330
14FC
100
AcDbEntity
  8
2
 62
     0
370
    -2
100
AcDbLine
 10
-207.4072884947958
 20
-63.60836966436105
 30
0.0
 11
-207.4072884947958
 21
-42.31891871599384
 31
0.0
  0
LINE
  5
1571
330
14FC
100
AcDbEntity
  8
2
 62
     0
100
AcDbLine
 10
-257.4072884947958
 20
-43.31891871599384
 30
0.0
 11
-210.9072884947958
 21
-43.31891871599384
 31
0.0
  0
SOLID
  5
1572
330
14FC
100
AcDbEntity
  8
2
 62
     0
100
AcDbTrace
 10
-257.4072884947958
 20
-42.7355853826605
 30
0.0
 11
-257.4072884947958
 21
-43.90225204932717
 31
0.0
 12
-260.9072884947958
 22
-43.31891871599384
 32
0.0
 13
-260.9072884947958
 23
-43.31891871599384
 33
0.0
  0
SOLID
  5
1573
330
14FC
100
AcDbEntity
  8
2
 62
     0
100
AcDbTrace
 10
-210.9072884947958
 20
-42.7355853826605
 30
0.0
 11
-210.9072884947958
 21
-43.90225204932717
 31
0.0
 12
-207.4072884947958
 22
-43.31891871599384
 32
0.0
 13
-207.4072884947958
 23
-43.31891871599384
 33
0.0
  0
MTEXT
  5
1574
330
14FC
100
AcDbEntity
  8
2
 62
     0
100
AcDbMText
 10
-234.1572884947958
 20
-40.56891871599384
 30
0.0
 40
3.5
 41
0.0
 71
     5
 72
     1
  1
\A1;53.5
 73
     1
 44
1.0
1001
ACAD
1000
MTEXTBEGIN
1070
    73
1070
     1
1070
    44
1040
1.0
1070
    74
1070
     0
1000
MTEXTEND
  0
POINT
  5
1575
330
14FC
100
AcDbEntity
  8
DEFPOINTS
 62
     0
100
AcDbPoint
 10
-260.9072884947958
 20
-55.74613127126102
 30
0.0
  0
POINT
  5
1576
330
14FC
100
AcDbEntity
  8
DEFPOINTS
 62
     0
100
AcDbPoint
 10
-207.4072884947958
 20
-64.60836966436104
 30
0.0
  0
POINT
  5
1577
330
14FC
100
AcDbEntity
  8
DEFPOINTS
 62
     0
100
AcDbPoint
 10
-207.4072884947958
 20
-43.31891871599384
 30
0.0
  0
ENDBLK
  5
14FE
330
14FC
100
AcDbEntity
  8
0
100
AcDbBlockEnd
  0
BLOCK
  5
1513
330
1512
100
AcDbEntity
  8
0
100
AcDbBlockBegin
  2
*D22
 70
     1
 10
0.0
 20
0.0
 30
0.0
  3
*D22
  1

  0
LINE
  5
1566
330
1512
100
AcDbEntity
  8
2
 62
     0
370
    -2
100
AcDbLine
 10
-255.9072884947958
 20
-54.74613158226103
 30
0.0
 11
-255.9072884947958
 21
-49.28039371754437
 31
0.0
  0
LINE
  5
1567
330
1512
100
AcDbEntity
  8
2
 62
     0
370
    -2
100
AcDbLine
 10
-215.9072884947958
 20
-65.64613108236102
 30
0.0
 11
-215.9072884947958
 21
-49.28039371754437
 31
0.0
  0
LINE
  5
1568
330
1512
100
AcDbEntity
  8
2
 62
     0
100
AcDbLine
 10
-252.4072884947958
 20
-50.28039371754437
 30
0.0
 11
-219.4072884947958
 21
-50.28039371754437
 31
0.0
  0
SOLID
  5
1569
330
1512
100
AcDbEntity
  8
2
 62
     0
100
AcDbTrace
 10
-252.4072884947958
 20
-49.69706038421104
 30
0.0
 11
-252.4072884947958
 21
-50.86372705087771
 31
0.0
 12
-255.9072884947958
 22
-50.28039371754437
 32
0.0
 13
-255.9072884947958
 23
-50.28039371754437
 33
0.0
  0
SOLID
  5
156A
330
1512
100
AcDbEntity
  8
2
 62
     0
100
AcDbTrace
 10
-219.4072884947958
 20
-49.69706038421104
 30
0.0
 11
-219.4072884947958
 21
-50.86372705087771
 31
0.0
 12
-215.9072884947958
 22
-50.28039371754437
 32
0.0
 13
-215.9072884947958
 23
-50.28039371754437
 33
0.0
  0
MTEXT
  5
156B
330
1512
100
AcDbEntity
  8
2
 62
     0
100
AcDbMText
 10
-235.9072884947958
 20
-47.53039371754437
 30
0.0
 40
3.5
 41
0.0
 71
     5
 72
     1
  1
\A1;40
 73
     1
 44
1.0
1001
ACAD
1000
MTEXTBEGIN
1070
    73
1070
     1
1070
    44
1040
1.0
1070
    74
1070
     0
1000
MTEXTEND
  0
POINT
  5
156C
330
1512
100
AcDbEntity
  8
DEFPOINTS
 62
     0
100
AcDbPoint
 10
-255.9072884947958
 20
-55.74613158226103
 30
0.0
  0
POINT
  5
156D
330
1512
100
AcDbEntity
  8
DEFPOINTS
 62
     0
100
AcDbPoint
 10
-215.9072884947958
 20
-66.64613108236102
 30
0.0
  0
POINT
  5
156E
330
1512
100
AcDbEntity
  8
DEFPOINTS
 62
     0
100
AcDbPoint
 10
-215.9072884947958
 20
-50.28039371754437
 30
0.0
  0
ENDBLK
  5
1514
330
1512
100
AcDbEntity
  8
0
100
AcDbBlockEnd
  0
BLOCK
  5
1532
330
1531
100
AcDbEntity
  8
0
100
AcDbBlockBegin
  2
*D23
 70
     1
 10
0.0
 20
0.0
 30
0.0
  3
*D23
  1

  0
LINE
  5
155C
330
1531
100
AcDbEntity
  8
2
 62
     0
370
    -2
100
AcDbLine
 10
-203.3604995219595
 20
-70.24613108236102
 30
0.0
 11
-193.4962391590616
 21
-70.24613108236102
 31
0.0
  0
LINE
  5
155D
330
1531
100
AcDbEntity
  8
2
 62
     0
370
    -2
100
AcDbLine
 10
-215.2072884947958
 20
-66.34613108236104
 30
0.0
 11
-193.4962391590616
 21
-66.34613108236104
 31
0.0
  0
LINE
  5
155E
330
1531
100
AcDbEntity
  8
2
 62
     0
100
AcDbLine
 10
-194.4962391590616
 20
-73.74613108236101
 30
0.0
 11
-194.4962391590616
 21
-77.24613108236102
 31
0.0
  0
LINE
  5
155F
330
1531
100
AcDbEntity
  8
2
 62
     0
100
AcDbLine
 10
-194.4962391590615
 20
-62.84613108236104
 30
0.0
 11
-194.4962391590615
 21
-50.34613108236104
 31
0.0
  0
SOLID
  5
1560
330
1531
100
AcDbEntity
  8
2
 62
     0
100
AcDbTrace
 10
-195.0795724923949
 20
-73.74613108236101
 30
0.0
 11
-193.9129058257282
 21
-73.74613108236101
 31
0.0
 12
-194.4962391590616
 22
-70.24613108236102
 32
0.0
 13
-194.4962391590616
 23
-70.24613108236102
 33
0.0
  0
SOLID
  5
1561
330
1531
100
AcDbEntity
  8
2
 62
     0
100
AcDbTrace
 10
-195.0795724923949
 20
-62.84613108236104
 30
0.0
 11
-193.9129058257282
 21
-62.84613108236104
 31
0.0
 12
-194.4962391590616
 22
-66.34613108236104
 32
0.0
 13
-194.4962391590616
 23
-66.34613108236104
 33
0.0
  0
MTEXT
  5
1562
330
1531
100
AcDbEntity
  8
2
 62
     0
100
AcDbMText
 10
-197.2462391590615
 20
-54.84613108236107
 30
0.0
 40
3.5
 41
0.0
 71
     5
 72
     1
  1
\A1;3.9
 11
0.0000000000000001
 21
1.0
 31
0.0
 73
     1
 44
1.0
1001
ACAD
1000
MTEXTBEGIN
1070
    73
1070
     1
1070
    44
1040
1.0
1070
    74
1070
     0
1000
MTEXTEND
  0
POINT
  5
1563
330
1531
100
AcDbEntity
  8
DEFPOINTS
 62
     0
100
AcDbPoint
 10
-204.3604995219595
 20
-70.24613108236102
 30
0.0
  0
POINT
  5
1564
330
1531
100
AcDbEntity
  8
DEFPOINTS
 62
     0
100
AcDbPoint
 10
-216.2072884947958
 20
-66.34613108236104
 30
0.0
  0
POINT
  5
1565
330
1531
100
AcDbEntity
  8
DEFPOINTS
 62
     0
100
AcDbPoint
 10
-194.4962391590616
 20
-66.34613108236104
 30
0.0
  0
ENDBLK
  5
1533
330
1531
100
AcDbEntity
  8
0
100
AcDbBlockEnd
  0
ENDSEC
  0
SECTION
  2
ENTITIES
  0
LINE
  5
13E4
330
19
100
AcDbEntity
  8
1
 62
     4
100
AcDbLine
 10
-207.4072884947958
 20
-64.60836966436104
 30
0.0
 11
-207.4072884947958
 21
-77.94028462256102
 31
0.0
  0
LINE
  5
13E5
330
19
100
AcDbEntity
  8
1
 62
     4
100
AcDbLine
 10
-207.7072884947958
 20
-64.08252823986103
 30
0.0
 11
-207.7072884947958
 21
-70.77703278186104
 31
0.0
  0
LINE
  5
13E6
330
19
100
AcDbEntity
  8
1
 62
     4
100
AcDbLine
 10
-207.7072884947958
 20
-70.84613108236104
 30
0.0
 11
-207.7072884947958
 21
-78.24613108236102
 31
0.0
  0
LINE
  5
13E7
330
19
100
AcDbEntity
  8
1
 62
     4
100
AcDbLine
 10
-207.7072884947958
 20
-70.84613108236104
 30
0.0
 11
-207.7072884947958
 21
-64.08252823986103
 31
0.0
  0
LINE
  5
13E8
330
19
100
AcDbEntity
  8
1
 62
     4
100
AcDbLine
 10
-212.6272054794958
 20
-70.84613108236104
 30
0.0
 11
-212.6272054794958
 21
-78.24613108236102
 31
0.0
  0
LINE
  5
13E9
330
19
100
AcDbEntity
  8
1
 62
     4
100
AcDbLine
 10
-213.0030825277958
 20
-70.84613108236104
 30
0.0
 11
-213.0030825277958
 21
-78.24180053536102
 31
0.0
  0
LINE
  5
13EA
330
19
100
AcDbEntity
  8
SK1
 62
     4
100
AcDbLine
 10
-290.4072884947958
 20
-77.74615912676103
 30
0.0
 11
-289.9073184085958
 21
-78.24613108236102
 31
0.0
  0
LINE
  5
13EB
330
19
100
AcDbEntity
  8
1
 62
     4
100
AcDbLine
 10
-214.7635366894958
 20
-64.08252823986103
 30
0.0
 11
-214.1803776177958
 21
-69.01364321996104
 31
0.0
  0
LINE
  5
13EC
330
19
100
AcDbEntity
  8
1
 62
     4
100
AcDbLine
 10
-214.2456040977958
 20
-64.08252823986103
 30
0.0
 11
-214.2456040977958
 21
-68.46209684436104
 31
0.0
  0
LINE
  5
13ED
330
19
100
AcDbEntity
  8
1
 62
     4
100
AcDbLine
 10
-214.2456040977958
 20
-68.46209684436104
 30
0.0
 11
-214.2456040977958
 21
-69.38771060596105
 31
0.0
  0
LINE
  5
13EE
330
19
100
AcDbEntity
  8
1
 62
     4
100
AcDbLine
 10
-214.2456040977958
 20
-69.38771060596105
 30
0.0
 11
-214.2456040977958
 21
-69.69061032816103
 31
0.0
  0
LINE
  5
13EF
330
19
100
AcDbEntity
  8
1
 62
     4
100
AcDbLine
 10
-215.9072884947958
 20
-71.24094471786102
 30
0.0
 11
-215.9072884947958
 21
-71.24613068926104
 31
0.0
  0
LINE
  5
13F0
330
19
100
AcDbEntity
  8
1
 62
     4
100
AcDbLine
 10
-215.9072884947958
 20
-68.76790541046102
 30
0.0
 11
-215.9072884947958
 21
-68.72483124056103
 31
0.0
  0
LINE
  5
13F1
330
19
100
AcDbEntity
  8
SK3
100
AcDbLine
 10
-215.9072884947958
 20
-71.24094471786102
 30
0.0
 11
-215.9072884947958
 21
-66.64613108236102
 31
0.0
  0
LINE
  5
13F2
102
{ACAD_REACTORS
330
145E
102
}
330
19
100
AcDbEntity
  8
SK4
100
AcDbLine
 10
-219.2572884947958
 20
-75.64387386569163
 30
0.0
 11
-219.2572884947958
 21
-62.91601364295852
 31
0.0
  0
LINE
  5
13F3
330
19
100
AcDbEntity
  8
SK3
100
AcDbLine
 10
-215.9689728916958
 20
-64.08252823986103
 30
0.0
 11
-215.9689728916958
 21
-66.58444668536103
 31
0.0
  0
LINE
  5
13F4
330
19
100
AcDbEntity
  8
SK3
100
AcDbLine
 10
-216.1572884947958
 20
-66.39667957576103
 30
0.0
 11
-216.1572884947958
 21
-69.11985642806104
 31
0.0
  0
LINE
  5
13F5
330
19
100
AcDbEntity
  8
SK3
100
AcDbLine
 10
-223.6072884947958
 20
-66.34613108236104
 30
0.0
 11
-223.6072884947958
 21
-64.08252823986103
 31
0.0
  0
LINE
  5
13F6
330
19
100
AcDbEntity
  8
SK3
100
AcDbLine
 10
-225.4072884947958
 20
-72.24613108236102
 30
0.0
 11
-225.4072884947958
 21
-71.54018907926104
 31
0.0
  0
LINE
  5
13F7
330
19
100
AcDbEntity
  8
SK3
100
AcDbLine
 10
-225.4072884947958
 20
-72.24613108236102
 30
0.0
 11
-225.4072884947958
 21
-68.24613108236102
 31
0.0
  0
LINE
  5
13F8
330
19
100
AcDbEntity
  8
SK3
100
AcDbLine
 10
-226.1072884947958
 20
-62.78723581256102
 30
0.0
 11
-226.1072884947958
 21
-66.24613108236101
 31
0.0
  0
LINE
  5
13F9
330
19
100
AcDbEntity
  8
1
 62
     4
100
AcDbLine
 10
-226.1072884947958
 20
-62.78723581256102
 30
0.0
 11
-226.1072884947958
 21
-62.24613108236102
 31
0.0
  0
LINE
  5
13FA
330
19
100
AcDbEntity
  8
SK3
100
AcDbLine
 10
-225.1186133601897
 20
-71.74613108236101
 30
0.0
 11
-225.4072884947958
 21
-72.24613108236102
 31
0.0
  0
LINE
  5
13FB
330
19
100
AcDbEntity
  8
SK3
100
AcDbLine
 10
-290.4072884947958
 20
-66.78425086706102
 30
0.0
 11
-289.6072884947957
 21
-67.24613108236102
 31
0.0
  0
LINE
  5
13FC
330
19
100
AcDbEntity
  8
1
 62
     4
100
AcDbLine
 10
-260.9072884947958
 20
-84.74613250346104
 30
0.0
 11
-260.4072899648958
 21
-85.24613108236101
 31
0.0
  0
LINE
  5
13FD
330
19
100
AcDbEntity
  8
1
 62
     4
100
AcDbLine
 10
-260.4072899648958
 20
-85.24613108236101
 30
0.0
 11
-256.4072870245958
 21
-85.24613108236101
 31
0.0
  0
LINE
  5
13FE
330
19
100
AcDbEntity
  8
SK3
100
AcDbLine
 10
-265.4072884947958
 20
-67.24613108236102
 30
0.0
 11
-265.0433182604958
 21
-68.24613108236102
 31
0.0
  0
LINE
  5
13FF
330
19
100
AcDbEntity
  8
SK1
 62
     4
100
AcDbLine
 10
-289.9073184085958
 20
-78.24613108236102
 30
0.0
 11
-262.9072884947958
 21
-78.24613108236102
 31
0.0
  0
LINE
  5
1400
330
19
100
AcDbEntity
  8
SK4
100
AcDbLine
 10
-295.7459689640316
 20
-70.24613108236102
 30
0.0
 11
-204.3604995219595
 21
-70.24613108236102
 31
0.0
  0
LINE
  5
1401
330
19
100
AcDbEntity
  8
1
 62
     4
100
AcDbLine
 10
-207.7072884947958
 20
-78.24613108236102
 30
0.0
 11
-212.6272054794958
 21
-78.24613108236102
 31
0.0
  0
LINE
  5
1402
330
19
100
AcDbEntity
  8
1
 62
     4
100
AcDbLine
 10
-212.6272135410958
 20
-78.24613108236102
 30
0.0
 11
-212.9072884947958
 21
-78.24613108236102
 31
0.0
  0
LINE
  5
1403
330
19
100
AcDbEntity
  8
1
 62
     4
100
AcDbLine
 10
-212.9072884947958
 20
-78.24613108236102
 30
0.0
 11
-253.9072884947958
 21
-78.24613108236102
 31
0.0
  0
LINE
  5
1404
330
19
100
AcDbEntity
  8
SK1
 62
     4
100
AcDbLine
 10
-262.6474808735958
 20
-78.09613108236104
 30
0.0
 11
-260.9072884947958
 21
-78.09613108236104
 31
0.0
  0
LINE
  5
1405
330
19
100
AcDbEntity
  8
SK3
100
AcDbLine
 10
-289.6072884947957
 20
-73.24613108236102
 30
0.0
 11
-265.4072884947958
 21
-73.24613108236102
 31
0.0
  0
LINE
  5
1406
330
19
100
AcDbEntity
  8
1
 62
     4
100
AcDbLine
 10
-255.9072884947958
 20
-84.74613250346104
 30
0.0
 11
-256.4072870245958
 21
-85.24613108236101
 31
0.0
  0
LINE
  5
1407
330
19
100
AcDbEntity
  8
SK3
100
AcDbLine
 10
-225.4072884947958
 20
-72.24613108236102
 30
0.0
 11
-265.0433182604958
 21
-72.24613108236102
 31
0.0
  0
LINE
  5
1408
330
19
100
AcDbEntity
  8
SK3
100
AcDbLine
 10
-215.2730950172958
 20
-71.74613108236101
 30
0.0
 11
-225.1186133601897
 21
-71.74613108236101
 31
0.0
  0
LINE
  5
1409
330
19
100
AcDbEntity
  8
SK3
100
AcDbLine
 10
-215.8072884947958
 20
-71.34613108236104
 30
0.0
 11
-213.7262265524958
 21
-71.34613108236104
 31
0.0
  0
LINE
  5
140A
330
19
100
AcDbEntity
  8
SK3
100
AcDbLine
 10
-215.8108468170958
 20
-70.84623173466102
 30
0.0
 11
-214.1326453742959
 21
-70.84613108236104
 31
0.0
  0
LINE
  5
140B
330
19
100
AcDbEntity
  8
1
 62
     4
100
AcDbLine
 10
-214.1326453742959
 20
-70.84613108236104
 30
0.0
 11
-213.3192904290958
 21
-70.84613108236104
 31
0.0
  0
LINE
  5
140C
330
19
100
AcDbEntity
  8
1
 62
     4
100
AcDbLine
 10
-213.3192904290958
 20
-70.84613108236104
 30
0.0
 11
-213.0030825277958
 21
-70.84613108236104
 31
0.0
  0
LINE
  5
140D
330
19
100
AcDbEntity
  8
1
 62
     4
100
AcDbLine
 10
-213.3192904290958
 20
-70.84613108236104
 30
0.0
 11
-213.0030825277958
 21
-70.84613108236104
 31
0.0
  0
LINE
  5
140E
330
19
100
AcDbEntity
  8
1
 62
     4
100
AcDbLine
 10
-213.0030825277958
 20
-70.84613108236104
 30
0.0
 11
-212.6272054794958
 21
-70.84613108236104
 31
0.0
  0
LINE
  5
140F
330
19
100
AcDbEntity
  8
1
 62
     4
100
AcDbLine
 10
-212.6272054794958
 20
-70.84613108236104
 30
0.0
 11
-207.7072884947958
 21
-70.84613108236104
 31
0.0
  0
LINE
  5
1410
330
19
100
AcDbEntity
  8
1
 62
     4
100
AcDbLine
 10
-207.7072884947958
 20
-70.84613108236104
 30
0.0
 11
-212.6272054794958
 21
-70.84613108236104
 31
0.0
  0
LINE
  5
1411
330
19
100
AcDbEntity
  8
SK1
 62
     4
100
AcDbLine
 10
-262.9072884947958
 20
-62.24613108236102
 30
0.0
 11
-262.6474808735958
 21
-62.39613108236103
 31
0.0
  0
LINE
  5
1412
330
19
100
AcDbEntity
  8
SK1
 62
     4
100
AcDbLine
 10
-262.9072884947958
 20
-78.24613108236102
 30
0.0
 11
-262.6474808735958
 21
-78.09613108236104
 31
0.0
  0
LINE
  5
1413
330
19
100
AcDbEntity
  8
SK3
100
AcDbLine
 10
-215.8072884947958
 20
-69.01364321996104
 30
0.0
 11
-214.2456040977959
 21
-69.01364321996104
 31
0.0
  0
LINE
  5
1414
330
19
100
AcDbEntity
  8
1
 62
     4
100
AcDbLine
 10
-214.2456040977959
 20
-69.01364321996104
 30
0.0
 11
-214.1803776177958
 21
-69.01364321996104
 31
0.0
  0
LINE
  5
1415
330
19
100
AcDbEntity
  8
SK3
100
AcDbLine
 10
-215.2730950176958
 20
-68.74613108236101
 30
0.0
 11
-225.1186133602195
 21
-68.74613108236101
 31
0.0
  0
LINE
  5
1416
330
19
100
AcDbEntity
  8
SK3
100
AcDbLine
 10
-225.4072884947958
 20
-68.24613108236102
 30
0.0
 11
-265.0433182604958
 21
-68.24613108236102
 31
0.0
  0
LINE
  5
1417
330
19
100
AcDbEntity
  8
SK3
100
AcDbLine
 10
-289.6072884947957
 20
-67.24613108236102
 30
0.0
 11
-265.4072884947958
 21
-67.24613108236102
 31
0.0
  0
LINE
  5
1418
330
19
100
AcDbEntity
  8
SK3
100
AcDbLine
 10
-226.0072884947958
 20
-66.34613108236104
 30
0.0
 11
-216.2072884947958
 21
-66.34613108236104
 31
0.0
  0
LINE
  5
1419
330
19
100
AcDbEntity
  8
1
 62
     4
100
AcDbLine
 10
-223.6072884947958
 20
-64.08252823986103
 30
0.0
 11
-215.9689728916958
 21
-64.08252823986103
 31
0.0
  0
LINE
  5
141A
330
19
100
AcDbEntity
  8
1
 62
     4
100
AcDbLine
 10
-214.2456040977958
 20
-64.08252823986103
 30
0.0
 11
-207.7072884947958
 21
-64.08252823986103
 31
0.0
  0
LINE
  5
141B
330
19
100
AcDbEntity
  8
1
 62
     4
100
AcDbLine
 10
-214.7635366894958
 20
-64.08252823986103
 30
0.0
 11
-223.6072884947958
 21
-64.08252823986103
 31
0.0
  0
LINE
  5
141C
330
19
100
AcDbEntity
  8
1
 62
     4
100
AcDbLine
 10
-255.9072884947958
 20
-55.74612966126102
 30
0.0
 11
-256.4072870245958
 21
-55.24613108236102
 31
0.0
  0
LINE
  5
141D
330
19
100
AcDbEntity
  8
1
 62
     4
100
AcDbLine
 10
-253.9072884947958
 20
-78.24613108236102
 30
0.0
 11
-253.9072884947958
 21
-62.24613108236102
 31
0.0
  0
LINE
  5
141E
330
19
100
AcDbEntity
  8
SK1
 62
     4
100
AcDbLine
 10
-289.9072884947959
 20
-62.99613108236101
 30
0.0
 11
-272.4072884947958
 21
-62.99613108236101
 31
0.0
  0
LINE
  5
141F
330
19
100
AcDbEntity
  8
SK1
 62
     4
100
AcDbLine
 10
-262.6474808735958
 20
-62.39613108236103
 30
0.0
 11
-260.9072884947958
 21
-62.39613108236103
 31
0.0
  0
LINE
  5
1420
330
19
100
AcDbEntity
  8
SK1
 62
     4
100
AcDbLine
 10
-271.6572884947958
 20
-62.24613108236102
 30
0.0
 11
-262.9072884947958
 21
-62.24613108236102
 31
0.0
  0
LINE
  5
1421
330
19
100
AcDbEntity
  8
1
 62
     4
100
AcDbLine
 10
-226.1072884947958
 20
-62.24613108236102
 30
0.0
 11
-253.9072884947958
 21
-62.24613108236102
 31
0.0
  0
LINE
  5
1422
330
19
100
AcDbEntity
  8
1
 62
     4
100
AcDbLine
 10
-255.9072884947958
 20
-60.24613108236102
 30
0.0
 11
-255.9072884947958
 21
-80.24613108236101
 31
0.0
  0
LINE
  5
1423
330
19
100
AcDbEntity
  8
1
 62
     4
100
AcDbLine
 10
-255.9072884947958
 20
-55.74612997226103
 30
0.0
 11
-255.9072884947958
 21
-84.74613219256104
 31
0.0
  0
LINE
  5
1424
330
19
100
AcDbEntity
  8
1
 62
     4
100
AcDbLine
 10
-256.4072870245958
 20
-85.24613108236101
 30
0.0
 11
-256.4072870245958
 21
-55.24613108236102
 31
0.0
  0
LINE
  5
1425
330
19
100
AcDbEntity
  8
1
 62
     4
100
AcDbLine
 10
-260.4072899648958
 20
-55.24613108236102
 30
0.0
 11
-260.4072899648958
 21
-85.24613108236101
 31
0.0
  0
LINE
  5
1426
330
19
100
AcDbEntity
  8
1
 62
     4
100
AcDbLine
 10
-260.9072884947958
 20
-80.24613108236101
 30
0.0
 11
-260.9072884947958
 21
-60.24613108236102
 31
0.0
  0
LINE
  5
1427
330
19
100
AcDbEntity
  8
1
 62
     4
100
AcDbLine
 10
-260.9072884947958
 20
-84.74613089356102
 30
0.0
 11
-260.9072884947958
 21
-55.74613127126102
 31
0.0
  0
LINE
  5
1428
330
19
100
AcDbEntity
  8
1
 62
     4
100
AcDbLine
 10
-260.4072899648958
 20
-55.24613108236102
 30
0.0
 11
-256.4072870245958
 21
-55.24613108236102
 31
0.0
  0
LINE
  5
1429
330
19
100
AcDbEntity
  8
SK1
 62
     4
100
AcDbLine
 10
-262.6474808735958
 20
-78.09613108236104
 30
0.0
 11
-262.6474808735958
 21
-62.39613108236103
 31
0.0
  0
LINE
  5
142A
330
19
100
AcDbEntity
  8
SK1
 62
     4
100
AcDbLine
 10
-262.9072884947958
 20
-62.24613108236102
 30
0.0
 11
-262.9072884947958
 21
-78.24613108236102
 31
0.0
  0
LINE
  5
142B
330
19
100
AcDbEntity
  8
SK3
100
AcDbLine
 10
-265.4072884947958
 20
-73.24613108236102
 30
0.0
 11
-265.0433182604958
 21
-72.24613108236102
 31
0.0
  0
LINE
  5
142C
330
19
100
AcDbEntity
  8
SK3
100
AcDbLine
 10
-265.0433182604958
 20
-68.24613108236102
 30
0.0
 11
-265.0433182604958
 21
-72.24613108236102
 31
0.0
  0
LINE
  5
142D
330
19
100
AcDbEntity
  8
SK3
100
AcDbLine
 10
-265.4072884947958
 20
-67.24613108236102
 30
0.0
 11
-265.4072884947958
 21
-73.24613108236102
 31
0.0
  0
LINE
  5
142E
330
19
100
AcDbEntity
  8
SK3
100
AcDbLine
 10
-290.4072884947958
 20
-73.70801129776103
 30
0.0
 11
-289.6072884947957
 21
-73.24613108236102
 31
0.0
  0
LINE
  5
142F
330
19
100
AcDbEntity
  8
1
 62
     4
100
AcDbLine
 10
-260.9072884947958
 20
-55.74612966126102
 30
0.0
 11
-260.4072899648958
 21
-55.24613108236102
 31
0.0
  0
LINE
  5
1430
330
19
100
AcDbEntity
  8
SK3
100
AcDbLine
 10
-225.1186133602195
 20
-68.74613108236101
 30
0.0
 11
-225.4072884947958
 21
-68.24613108236102
 31
0.0
  0
LINE
  5
1431
330
19
100
AcDbEntity
  8
SK1
 62
     4
100
AcDbLine
 10
-272.4072884947958
 20
-62.99613108236101
 30
0.0
 11
-271.6572884947958
 21
-62.24613108236102
 31
0.0
  0
LINE
  5
1432
330
19
100
AcDbEntity
  8
SK3
100
AcDbLine
 10
-215.9072884947958
 20
-66.64613108236102
 30
0.0
 11
-216.2072884947958
 21
-66.34613108236104
 31
0.0
  0
LINE
  5
1433
330
19
100
AcDbEntity
  8
1
 62
     4
100
AcDbLine
 10
-207.7072884947958
 20
-70.84613108236104
 30
0.0
 11
-207.4072884947958
 21
-71.14613108236103
 31
0.0
  0
LINE
  5
1434
330
19
100
AcDbEntity
  8
SK1
 62
     4
100
AcDbLine
 10
-290.4072884947958
 20
-63.49613108236102
 30
0.0
 11
-289.9072884947959
 21
-62.99613108236101
 31
0.0
  0
LINE
  5
1435
330
19
100
AcDbEntity
  8
SK3
100
AcDbLine
 10
-289.6072884947957
 20
-67.24613108236102
 30
0.0
 11
-289.6072884947957
 21
-73.24613108236102
 31
0.0
  0
LINE
  5
1436
330
19
100
AcDbEntity
  8
SK1
 62
     4
100
AcDbLine
 10
-289.9073184085958
 20
-78.24613108236102
 30
0.0
 11
-289.9072884947959
 21
-62.99613108236101
 31
0.0
  0
LINE
  5
1437
330
19
100
AcDbEntity
  8
SK1
 62
     4
100
AcDbLine
 10
-290.4072884947958
 20
-77.74615912716104
 30
0.0
 11
-290.4072884947958
 21
-63.49613108236102
 31
0.0
  0
ARC
  5
1438
330
19
100
AcDbEntity
  8
1
 62
     4
100
AcDbCircle
 10
-230.9440784991958
 20
-77.68813017456102
 30
0.0
 40
26.9269484778
100
AcDbArc
 50
29.06160933860107
 51
30.34982026510054
  0
ARC
  5
1439
330
19
100
AcDbEntity
  8
1
 62
     4
100
AcDbCircle
 10
-223.2047086190958
 20
-62.74476847296103
 30
0.0
 40
21.9194472845
100
AcDbArc
 50
314.9927130120028
 51
316.1125831215025
  0
ARC
  5
143A
330
19
100
AcDbEntity
  8
SK3
100
AcDbCircle
 10
-212.6436939840958
 20
-62.76132778376103
 30
0.0
 40
7.36309007
100
AcDbArc
 50
245.3483728608995
 51
246.1702495368992
  0
ARC
  5
143B
330
19
100
AcDbEntity
  8
1
 62
     4
100
AcDbCircle
 10
-212.8393961445958
 20
-73.44150008236102
 30
0.0
 40
4.8042920863
100
AcDbArc
 50
269.0598492364002
 51
269.4096146561984
  0
ARC
  5
143C
330
19
100
AcDbEntity
  8
1
 62
     4
100
AcDbCircle
 10
-223.6072785027958
 20
-60.43602725126103
 30
0.0
 40
3.6465009886
100
AcDbArc
 50
267.2969405566007
 51
269.9998430013006
  0
ARC
  5
143D
330
19
100
AcDbEntity
  8
1
 62
     4
100
AcDbCircle
 10
-253.9072884947958
 20
-80.24613108236101
 30
0.0
 40
2.0
100
AcDbArc
 50
90.0
 51
180.0
  0
ARC
  5
143E
330
19
100
AcDbEntity
  8
1
 62
     4
100
AcDbCircle
 10
-253.9072884947958
 20
-60.24613108236102
 30
0.0
 40
2.0
100
AcDbArc
 50
180.0
 51
270.0
  0
ARC
  5
143F
330
19
100
AcDbEntity
  8
1
 62
     4
100
AcDbCircle
 10
-214.6231533082957
 20
-69.40124102306103
 30
0.0
 40
0.4756868729
100
AcDbArc
 50
318.0631659466014
 51
322.5319540399983
  0
ARC
  5
1440
330
19
100
AcDbEntity
  8
SK3
100
AcDbCircle
 10
-215.8072884947958
 20
-71.24613108236101
 30
0.0
 40
0.1
100
AcDbArc
 50
180.0
 51
270.0
  0
ARC
  5
1441
330
19
100
AcDbEntity
  8
SK3
100
AcDbCircle
 10
-226.0072884947958
 20
-66.24613108236101
 30
0.0
 40
0.1
100
AcDbArc
 50
180.0
 51
270.0
  0
ARC
  5
1442
330
19
100
AcDbEntity
  8
SK3
100
AcDbCircle
 10
-215.8072884947958
 20
-70.74613108236102
 30
0.0
 40
0.1
100
AcDbArc
 50
180.0
 51
270.0
  0
SPLINE
  5
1443
330
19
100
AcDbEntity
  8
SK3
100
AcDbSpline
210
0.0
220
0.0
230
1.0
 70
     8
 71
     3
 72
    19
 73
    15
 74
    13
 42
0.0000000001
 43
0.0000000001
 44
0.0000000001
 12
-1.0
 22
0.0000000000000001
 32
0.0
 13
-0.0000000000000001
 23
-1.0
 33
0.0
 40
0.0
 40
0.0
 40
0.0
 40
0.0
 40
0.0140620225405088
 40
0.0276541343388894
 40
0.0405452323744491
 40
0.0525326468842731
 40
0.0634450479953768
 40
0.0731458321269509
 40
0.081534360518446
 40
0.088547602403839
 40
0.0941646830686604
 40
0.0984211007102203
 40
0.1014555885030842
 40
0.1036613273322355
 40
0.1036613273322355
 40
0.1036613273322355
 40
0.1036613273322355
 10
-215.8072884947958
 20
-69.01364321996104
 30
0.0
 10
-215.8119758356426
 20
-69.01364321996104
 30
0.0
 10
-215.8211941989123
 20
-69.01374111913077
 30
0.0
 10
-215.8347033107225
 20
-69.01417620582927
 30
0.0
 10
-215.8475087227137
 20
-69.014880471116
 30
0.0
 10
-215.8594022657371
 20
-69.0158338376511
 30
0.0
 10
-215.8702067543706
 20
-69.01701353513222
 30
0.0
 10
-215.8797769756671
 20
-69.01839490489663
 30
0.0
 10
-215.8880028581404
 20
-69.01994941592334
 30
0.0
 10
-215.8948033102739
 20
-69.02165103932515
 30
0.0
 10
-215.9001472565379
 20
-69.02345912100191
 30
0.0
 10
-215.9040139158336
 20
-69.02537332336428
 30
0.0
 10
-215.9065438979137
 20
-69.0273577709825
 30
0.0
 10
-215.9072884947958
 20
-69.02908469988466
 30
0.0
 10
-215.9072884947958
 20
-69.02981994616104
 30
0.0
 11
-215.8072884947958
 21
-69.01364321996104
 31
0.0
 11
-215.8213497067958
 21
-69.01379420016104
 31
0.0
 11
-215.8349346177958
 21
-69.01423657586104
 31
0.0
 11
-215.8478058116958
 21
-69.01495265976103
 31
0.0
 11
-215.8597539378958
 21
-69.01592239526104
 31
0.0
 11
-215.8706000369958
 21
-69.01712349156102
 31
0.0
 11
-215.8801980544958
 21
-69.01853177876103
 31
0.0
 11
-215.8884345647958
 21
-69.02012152926104
 31
0.0
 11
-215.8952274441958
 21
-69.02186576296102
 31
0.0
 11
-215.9005238358957
 21
-69.02373654626103
 31
0.0
 11
-215.9042975836957
 21
-69.02570528156104
 31
0.0
 11
-215.9065462362958
 21
-69.02774284816104
 31
0.0
 11
-215.9072884947958
 21
-69.02981994616104
 31
0.0
  0
SPLINE
  5
1444
330
19
100
AcDbEntity
  8
SK3
100
AcDbSpline
210
0.0
220
0.0
230
1.0
 70
     8
 71
     3
 72
    23
 73
    19
 74
    17
 42
0.0000000001
 43
0.0000000001
 44
0.0000000001
 12
0.7125272775428671
 22
-0.7016444104796605
 32
0.0
 13
0.9616406982041938
 23
0.2743121717265761
 33
0.0
 40
0.0
 40
0.0
 40
0.0
 40
0.0
 40
0.078898752423361
 40
0.160375328810908
 40
0.2439146456806847
 40
0.3291197413068176
 40
0.4154424749977111
 40
0.5026611852335229
 40
0.5902813063153597
 40
0.6783166897293235
 40
0.7663878347658799
 40
0.8546350801654659
 40
0.9428512290339034
 40
1.031064232767614
 40
1.119311669097923
 40
1.207384714828829
 40
1.295414685657042
 40
1.323598866325434
 40
1.323598866325434
 40
1.323598866325434
 40
1.323598866325434
 10
-215.9689728916958
 20
-64.08252823986103
 30
0.0
 10
-215.9502337206072
 20
-64.10098119607159
 30
0.0
 10
-215.9104185761453
 20
-64.13677261562715
 30
0.0
 10
-215.8455826704388
 20
-64.18596822843941
 30
0.0
 10
-215.7753340000837
 20
-64.23108528170899
 30
0.0
 10
-215.7005157594253
 20
-64.27162812353492
 30
0.0
 10
-215.6218881092621
 20
-64.30724712488165
 30
0.0
 10
-215.5402446596101
 20
-64.33765084362708
 30
0.0
 10
-215.4562040181758
 20
-64.36268075080727
 30
0.0
 10
-215.3704273423576
 20
-64.38220703187354
 30
0.0
 10
-215.283363941212
 20
-64.39618565278803
 30
0.0
 10
-215.1955260768355
 20
-64.4045784568404
 30
0.0
 10
-215.1072857552783
 20
-64.4073767048848
 30
0.0
 10
-215.0190455715185
 20
-64.40457810736119
 30
0.0
 10
-214.9312075311599
 20
-64.39618490884183
 30
0.0
 10
-214.8441472973592
 20
-64.38220666464437
 30
0.0
 10
-214.7776974364134
 20
-64.36707949777868
 30
0.0
 10
-214.7403327050212
 20
-64.35684863019685
 30
0.0
 10
-214.7312983532958
 20
-64.35427154226101
 30
0.0
 11
-215.9689728916958
 21
-64.08252823986103
 31
0.0
 11
-215.9103772810958
 21
-64.13536352686103
 31
0.0
 11
-215.8455302510958
 21
-64.18469196896103
 31
0.0
 11
-215.7752813404957
 21
-64.22990156996104
 31
0.0
 11
-215.7003970053958
 21
-64.27054938266104
 31
0.0
 11
-215.6217851982958
 21
-64.30621166156104
 31
0.0
 11
-215.5400619960958
 21
-64.33668167366104
 31
0.0
 11
-215.4560942344958
 21
-64.36171566316102
 31
0.0
 11
-215.3702587203959
 21
-64.38127309786103
 31
0.0
 11
-215.2833030474959
 21
-64.39524584056101
 31
0.0
 11
-215.1954565006958
 21
-64.40364587246103
 31
0.0
 11
-215.1072847402958
 21
-64.40644401276094
 31
0.0
 11
-215.0191161353958
 21
-64.40364559576102
 31
0.0
 11
-214.9312694255958
 21
-64.39524526266104
 31
0.0
 11
-214.8443119321958
 21
-64.38127186916102
 31
0.0
 11
-214.7584817495957
 21
-64.36171539916102
 31
0.0
 11
-214.7312983532958
 21
-64.35427154226101
 31
0.0
  0
SPLINE
  5
1445
330
19
100
AcDbEntity
  8
SK3
100
AcDbSpline
210
0.0
220
0.0
230
1.0
 70
     8
 71
     3
 72
    16
 73
    12
 74
    10
 42
0.0000000001
 43
0.0000000001
 44
0.0000000001
 12
-0.0006449807933999
 22
0.9999997919998664
 32
0.0
 13
0.7132901803459132
 23
0.7008688312531061
 33
0.0
 40
0.0
 40
0.0
 40
0.0
 40
0.0
 40
0.0087015554360632
 40
0.0433936339722706
 40
0.0820071628635009
 40
0.1256909006238915
 40
0.1750827172941868
 40
0.2306431246136778
 40
0.2928640580232683
 40
0.3623616463222135
 40
0.4398774874074851
 40
0.4398774874074851
 40
0.4398774874074851
 40
0.4398774874074851
 10
-216.1572792223958
 20
-69.11998503186103
 30
0.0
 10
-216.1572810931745
 20
-69.11708451398566
 30
0.0
 10
-216.1567953162499
 20
-69.1026169824964
 30
0.0
 10
-216.151286521777
 20
-69.0755600569193
 30
0.0
 10
-216.1361844978686
 20
-69.03944264952063
 30
0.0
 10
-216.1139348720713
 20
-69.00149747872696
 30
0.0
 10
-216.0850619400259
 20
-68.96118130329383
 30
0.0
 10
-216.0498487041544
 20
-68.9179613271656
 30
0.0
 10
-216.0083373442182
 20
-68.87131833195678
 30
0.0
 10
-215.9603272806243
 20
-68.82071625994303
 30
0.0
 10
-215.9257189242183
 20
-68.78601488944271
 30
0.0
 10
-215.9072884947958
 20
-68.76790541046102
 30
0.0
 11
-216.1572792223958
 21
-69.11998503186103
 31
0.0
 11
-216.1569885925958
 21
-69.11128833126102
 31
0.0
 11
-216.1505334264958
 21
-69.07720210026105
 31
0.0
 11
-216.1361167255958
 21
-69.04138083076102
 31
0.0
 11
-216.1143806377958
 21
-69.00348872826103
 31
0.0
 11
-216.0858793078958
 21
-68.96314984196104
 31
0.0
 11
-216.0509629525958
 21
-68.91993170926105
 31
0.0
 11
-216.0097209775958
 21
-68.87334261126103
 31
0.0
 11
-215.9619715202958
 21
-68.82284603606104
 31
0.0
 11
-215.9072884947958
 21
-68.76790541046102
 31
0.0
  0
SPLINE
  5
1446
330
19
100
AcDbEntity
  8
1
 62
     4
100
AcDbSpline
210
0.0
220
0.0
230
1.0
 70
     8
 71
     3
 72
     8
 73
     4
 74
     2
 42
0.0000000001
 43
0.0000000001
 44
0.0000000001
 12
-0.0000000000000001
 22
-1.0
 32
0.0
 13
0.1804516823867704
 23
-0.9835838501743427
 33
0.0
 40
0.0
 40
0.0
 40
0.0
 40
0.0
 40
0.0656737766062536
 40
0.0656737766062536
 40
0.0656737766062536
 40
0.0656737766062536
 10
-226.1072884947958
 20
-62.78723581256102
 30
0.0
 10
-226.1072884947958
 20
-62.80912707142977
 30
0.0
 10
-226.1050720360883
 20
-62.83108752917775
 30
0.0
 10
-226.1011217215958
 20
-62.85261941786103
 30
0.0
 11
-226.1072884947958
 21
-62.78723581256102
 31
0.0
 11
-226.1011217215958
 21
-62.85261941786103
 31
0.0
  0
SPLINE
  5
1447
330
19
100
AcDbEntity
  8
1
 62
     4
100
AcDbSpline
210
0.0
220
0.0
230
1.0
 70
     8
 71
     3
 72
    27
 73
    23
 74
    21
 42
0.0000000001
 43
0.0000000001
 44
0.0000000001
 12
0.1804516826634511
 22
-0.9835838501235821
 32
0.0
 13
0.9988873087945725
 23
-0.047160834695076
 33
0.0
 40
0.0
 40
0.0
 40
0.0
 40
0.0
 40
0.0714184242321583
 40
0.1499540176484851
 40
0.2367112089703792
 40
0.332228582781688
 40
0.437152846864282
 40
0.5514042185513853
 40
0.6745723203057679
 40
0.806300793525342
 40
0.9461284140853862
 40
1.093071532977859
 40
1.246351858906082
 40
1.404904366363967
 40
1.567617419854348
 40
1.733627202535361
 40
1.901877347960216
 40
2.071870868075379
 40
2.242724653475594
 40
2.414337755144486
 40
2.586189442203404
 40
2.758335338824402
 40
2.758335338824402
 40
2.758335338824402
 40
2.758335338824402
 10
-226.1011217215958
 20
-62.85261941786103
 30
0.0
 10
-226.0968258633205
 20
-62.87603475408637
 30
0.0
 10
-226.0834435425025
 20
-62.92444688614399
 30
0.0
 10
-226.051809158889
 20
-62.99694835655547
 30
0.0
 10
-226.0078077753302
 20
-63.0721293400251
 30
0.0
 10
-225.9514196390067
 20
-63.14965533508209
 30
0.0
 10
-225.882673057527
 20
-63.22903066276643
 30
0.0
 10
-225.8017158488133
 20
-63.30958563247313
 30
0.0
 10
-225.7088973454902
 20
-63.39049109887333
 30
0.0
 10
-225.6046518143507
 20
-63.47088962820608
 30
0.0
 10
-225.4895635444905
 20
-63.54984405745009
 30
0.0
 10
-225.3643571901155
 20
-63.62638449415884
 30
0.0
 10
-225.2299685328891
 20
-63.6994946982596
 30
0.0
 10
-225.087423540728
 20
-63.76821239961182
 30
0.0
 10
-224.937832985944
 20
-63.83165279684101
 30
0.0
 10
-224.7823633591345
 20
-63.88903070983113
 30
0.0
 10
-224.6220437854684
 20
-63.93973539111996
 30
0.0
 10
-224.4579533617267
 20
-63.98324945140015
 30
0.0
 10
-224.2909018824486
 20
-64.01923248619795
 30
0.0
 10
-224.121729739874
 20
-64.04741675938542
 30
0.0
 10
-223.9509938305598
 20
-64.06765118027955
 30
0.0
 10
-223.8365648361277
 20
-64.07576480896968
 30
0.0
 10
-223.7792467189958
 20
-64.07847099036101
 30
0.0
 11
-226.1011217215958
 21
-62.85261941786103
 31
0.0
 11
-226.0825685142958
 21
-62.92158585766102
 31
0.0
 11
-226.0515993117958
 21
-62.99375751366094
 31
0.0
 11
-226.0081448466958
 21
-63.06884759096104
 31
0.0
 11
-225.9522598335958
 21
-63.14631005936104
 31
0.0
 11
-225.8838053180958
 21
-63.22582785926105
 31
0.0
 11
-225.8030019368958
 21
-63.30660031446104
 31
0.0
 11
-225.7102964546958
 21
-63.38769331576102
 31
0.0
 11
-225.6060939343958
 21
-63.46828007286103
 31
0.0
 11
-225.4908709504957
 21
-63.54749766846103
 31
0.0
 11
-225.3655560284958
 21
-63.62423390836102
 31
0.0
 11
-225.2309513521958
 21
-63.69755811606103
 31
0.0
 11
-225.0881559071958
 21
-63.76646645016103
 31
0.0
 11
-224.9383747637958
 21
-63.83003646556102
 31
0.0
 11
-224.7826436195957
 21
-63.88754349706101
 31
0.0
 11
-224.6222313432958
 21
-63.93829793576102
 31
0.0
 11
-224.4579200856958
 21
-63.98188242276103
 31
0.0
 11
-224.2908983344958
 21
-64.01786506596105
 31
0.0
 11
-224.1216188388958
 21
-64.04606983566103
 31
0.0
 11
-223.9509614974958
 21
-64.06629541776104
 31
0.0
 11
-223.7792467189958
 21
-64.07847099036101
 31
0.0
  0
SPLINE
  5
1448
330
19
100
AcDbEntity
  8
SK3
100
AcDbSpline
210
0.0
220
0.0
230
1.0
 70
     8
 71
     3
 72
    11
 73
     7
 74
     5
 42
0.0000000001
 43
0.0000000001
 44
0.0000000001
 12
-0.9087977852217745
 22
0.4172368458993015
 32
0.0
 13
-0.8840215880671028
 23
0.4674460737147311
 33
0.0
 40
0.0
 40
0.0
 40
0.0
 40
0.0
 40
0.0640142966214321
 40
0.1410681230362893
 40
0.2126270823369365
 40
0.2141428281305067
 40
0.2141428281305067
 40
0.2141428281305067
 40
0.2141428281305067
 10
-215.7148381356958
 20
-69.45335057056102
 30
0.0
 10
-215.7342301526932
 20
-69.44444752948943
 30
0.0
 10
-215.7768665875059
 20
-69.4246139099637
 30
0.0
 10
-215.8407075399816
 20
-69.3938217874078
 30
0.0
 10
-215.8853163397939
 20
-69.37112839375024
 30
0.0
 10
-215.9068532415279
 20
-69.35974922913437
 30
0.0
 10
-215.9072998921958
 20
-69.35951305266105
 30
0.0
 11
-215.7148381356958
 21
-69.45335057056102
 31
0.0
 11
-215.7728676667958
 21
-69.42632458876102
 31
0.0
 11
-215.8422330738957
 21
-69.39277265196105
 31
0.0
 11
-215.9059597109958
 21
-69.36022114846105
 31
0.0
 11
-215.9072998921958
 21
-69.35951305266105
 31
0.0
  0
SPLINE
  5
1449
330
19
100
AcDbEntity
  8
SK3
100
AcDbSpline
210
0.0
220
0.0
230
1.0
 70
     8
 71
     3
 72
    15
 73
    11
 74
     9
 42
0.0000000001
 43
0.0000000001
 44
0.0000000001
 12
-0.8840215882107811
 22
0.4674460734430105
 32
0.0
 13
-0.0006449808108795
 23
0.9999997919998552
 33
0.0
 40
0.0
 40
0.0
 40
0.0
 40
0.0
 40
0.0643081750839365
 40
0.124163632071245
 40
0.1778698289158774
 40
0.2253943470068362
 40
0.2670319473658229
 40
0.3036776530408032
 40
0.3370932404702873
 40
0.3611815043036946
 40
0.3611815043036946
 40
0.3611815043036946
 40
0.3611815043036946
 10
-215.9072998921958
 20
-69.35951305266105
 30
0.0
 10
-215.9262498305533
 20
-69.34949285134995
 30
0.0
 10
-215.9625751397446
 20
-69.32963959130124
 30
0.0
 10
-216.0134341835326
 20
-69.29912268720085
 30
0.0
 10
-216.0578300352058
 20
-69.26884502133237
 30
0.0
 10
-216.0948414405135
 20
-69.23875115920674
 30
0.0
 10
-216.1239900438902
 20
-69.20839461098239
 30
0.0
 10
-216.1447598314954
 20
-69.17716581332347
 30
0.0
 10
-216.1554381680414
 20
-69.14724290305096
 30
0.0
 10
-216.1572740435731
 20
-69.12801445146872
 30
0.0
 10
-216.1572792223958
 20
-69.11998503186103
 30
0.0
 11
-215.9072998921958
 21
-69.35951305266105
 31
0.0
 11
-215.9636571364958
 21
-69.32853883116104
 31
0.0
 11
-216.0148665427958
 21
-69.29755056826104
 31
0.0
 11
-216.0590623517957
 21
-69.26703686566103
 31
0.0
 11
-216.0956732377958
 21
-69.23673467356104
 31
0.0
 11
-216.1241334927958
 21
-69.20634218026103
 31
0.0
 11
-216.1439703120958
 21
-69.17552970966102
 31
0.0
 11
-216.1549136482958
 21
-69.14395685936094
 31
0.0
 11
-216.1572792223958
 21
-69.11998503186103
 31
0.0
  0
SPLINE
  5
144A
330
19
100
AcDbEntity
  8
SK3
100
AcDbSpline
210
0.0
220
0.0
230
1.0
 70
     8
 71
     3
 72
    26
 73
    22
 74
    20
 42
0.0000000001
 43
0.0000000001
 44
0.0000000001
 12
-0.668960192658978
 22
-0.7432982312892069
 32
0.0
 13
-0.9145091788688727
 23
0.4045651514460681
 33
0.0
 40
0.0
 40
0.0
 40
0.0
 40
0.0
 40
0.0198822790377692
 40
0.0719913752936246
 40
0.1209318991228847
 40
0.1689154598940777
 40
0.2183759213775644
 40
0.2713711979088651
 40
0.329980234296065
 40
0.3960511396530451
 40
0.4701899315301931
 40
0.5527943363422301
 40
0.6437595607650111
 40
0.741852460013837
 40
0.8453265382382383
 40
0.9513668302103029
 40
1.056282249880017
 40
1.158796534525608
 40
1.258370776865008
 40
1.354036324284539
 40
1.44524447676661
 40
1.44524447676661
 40
1.44524447676661
 40
1.44524447676661
 10
-214.2692983776958
 20
-69.71914775326104
 30
0.0
 10
-214.273731862101
 20
-69.72407390754196
 30
0.0
 10
-214.2901819461119
 20
-69.74155228329514
 30
0.0
 10
-214.3203413441839
 20
-69.7685021821384
 30
0.0
 10
-214.3617882459503
 20
-69.79618666143796
 30
0.0
 10
-214.4059931205524
 20
-69.81724320685862
 30
0.0
 10
-214.454033255789
 20
-69.83218311117011
 30
0.0
 10
-214.5071334823966
 20
-69.84106744262051
 30
0.0
 10
-214.566432708021
 20
-69.84361990628196
 30
0.0
 10
-214.6326770553457
 20
-69.83944857473769
 30
0.0
 10
-214.7061896214159
 20
-69.82835669736619
 30
0.0
 10
-214.7868514265893
 20
-69.81048421592236
 30
0.0
 10
-214.8741499217867
 20
-69.78630752952494
 30
0.0
 10
-214.9670592923087
 20
-69.75664887179687
 30
0.0
 10
-215.0638218279222
 20
-69.72269863432628
 30
0.0
 10
-215.1619873952215
 20
-69.68595952807572
 30
0.0
 10
-215.2592868359372
 20
-69.64785985880981
 30
0.0
 10
-215.3541440927615
 20
-69.6094561863569
 30
0.0
 10
-215.4457881204201
 20
-69.57134496846092
 30
0.0
 10
-215.533634377902
 20
-69.53392606295152
 30
0.0
 10
-215.590728491085
 20
-69.50901435116837
 30
0.0
 10
-215.6185320552958
 20
-69.49671447116102
 30
0.0
 11
-214.2692983776958
 21
-69.71914775326104
 31
0.0
 11
-214.2829328054958
 21
-69.73361866886103
 31
0.0
 11
-214.3219031380958
 21
-69.76821160296103
 31
0.0
 11
-214.3626443174958
 21
-69.79532859346105
 31
0.0
 11
-214.4059571867958
 21
-69.81597847136104
 31
0.0
 11
-214.4531516039957
 21
-69.83077793876103
 31
0.0
 11
-214.5053851010958
 21
-69.83973121276105
 31
0.0
 11
-214.5639268476958
 21
-69.84253888996102
 31
0.0
 11
-214.6298873621958
 21
-69.83872116006103
 31
0.0
 11
-214.7032459406958
 21
-69.82799365236104
 31
0.0
 11
-214.7839604986958
 21
-69.81042527676104
 31
0.0
 11
-214.8716955333958
 21
-69.78639954596104
 31
0.0
 11
-214.9652051487958
 21
-69.75676563446103
 31
0.0
 11
-215.0628938132958
 21
-69.72265097936105
 31
0.0
 11
-215.1622422578958
 21
-69.68557767256104
 31
0.0
 11
-215.2599569198958
 21
-69.64737963446103
 31
0.0
 11
-215.3549904583958
 21
-69.60893740356104
 31
0.0
 11
-215.4469347917958
 21
-69.57071085136101
 31
0.0
 11
-215.5349449311958
 21
-69.53321268706102
 31
0.0
 11
-215.6185320552958
 21
-69.49671447116102
 31
0.0
  0
SPLINE
  5
144B
330
19
100
AcDbEntity
  8
1
 62
     4
100
AcDbSpline
210
0.0
220
0.0
230
1.0
 70
     8
 71
     3
 72
    14
 73
    10
 74
     8
 42
0.0000000001
 43
0.0000000001
 44
0.0000000001
 12
0.9616406982043802
 22
0.2743121717259231
 32
0.0
 13
0.7125272776351757
 23
0.7016444103859202
 33
0.0
 40
0.0
 40
0.0
 40
0.0
 40
0.0
 40
0.0594521627948409
 40
0.1466621171534817
 40
0.2329918015971756
 40
0.3181884579534776
 40
0.4017335875455372
 40
0.4832033688689313
 40
0.5621065691834203
 40
0.5621065691834203
 40
0.5621065691834203
 40
0.5621065691834203
 10
-214.7312983532958
 20
-64.35427154226101
 30
0.0
 10
-214.7122411468492
 20
-64.348835391631
 30
0.0
 10
-214.6655243780505
 20
-64.33437074844848
 30
0.0
 10
-214.5926854353402
 20
-64.30724571870221
 30
0.0
 10
-214.5140614850068
 20
-64.27162821460115
 30
0.0
 10
-214.4392418775118
 20
-64.23108459110304
 30
0.0
 10
-214.3689958483209
 20
-64.18596928219236
 30
0.0
 10
-214.3041589842081
 20
-64.13677303731383
 30
0.0
 10
-214.2643443253014
 20
-64.10098223634844
 30
0.0
 10
-214.2456040977958
 20
-64.08252823986103
 30
0.0
 11
-214.7312983532958
 21
-64.35427154226101
 31
0.0
 11
-214.6745085616958
 21
-64.33667952046102
 31
0.0
 11
-214.5927936201958
 21
-64.30621241566104
 31
0.0
 11
-214.5141755273958
 21
-64.27054716786102
 31
0.0
 11
-214.4392986340958
 21
-64.22990333556104
 31
0.0
 11
-214.3690448138958
 21
-64.18469062246103
 31
0.0
 11
-214.3042031380958
 21
-64.13536636526103
 31
0.0
 11
-214.2456040977958
 21
-64.08252823986103
 31
0.0
  0
SPLINE
  5
144C
330
19
100
AcDbEntity
  8
1
 62
     4
100
AcDbSpline
210
0.0
220
0.0
230
1.0
 70
     8
 71
     3
 72
    26
 73
    22
 74
    20
 42
0.0000000001
 43
0.0000000001
 44
0.0000000001
 12
-0.9999999999999992
 22
-0.0000000426509353
 32
0.0
 13
0.0000000000000001
 23
1.0
 33
0.0
 40
0.0
 40
0.0
 40
0.0
 40
0.0
 40
0.0223617134726518
 40
0.0681732794022961
 40
0.117293996494969
 40
0.1713746038423704
 40
0.2315186144673546
 40
0.2983609682393245
 40
0.3721787045174028
 40
0.4529855544651963
 40
0.5406014545470124
 40
0.6347020241136709
 40
0.7348533566364568
 40
0.8405379289569872
 40
0.9511733335358018
 40
1.066127584956815
 40
1.184730193396236
 40
1.306282145618599
 40
1.430062933251722
 40
1.555337475368121
 40
1.681361096872728
 40
1.681361096872728
 40
1.681361096872728
 40
1.681361096872728
 10
-215.2730950168958
 20
-71.74612249726104
 30
0.0
 10
-215.2805489213867
 20
-71.74612249757895
 30
0.0
 10
-215.303289934336
 20
-71.74473487776271
 30
0.0
 10
-215.3415719101342
 20
-71.73501560939422
 30
0.0
 10
-215.3861195791319
 20
-71.71229941337066
 30
0.0
 10
-215.429442961898
 20
-71.67890433388699
 30
0.0
 10
-215.4713524443068
 20
-71.635225904648
 30
0.0
 10
-215.5116648750847
 20
-71.58163151843845
 30
0.0
 10
-215.5501558493815
 20
-71.51852739151879
 30
0.0
 10
-215.5865855815311
 20
-71.44638515229262
 30
0.0
 10
-215.6207129649246
 20
-71.36574572192469
 30
0.0
 10
-215.6523075789721
 20
-71.27721364425045
 30
0.0
 10
-215.6811558366976
 20
-71.18144863567716
 30
0.0
 10
-215.7070645001947
 20
-71.07915705355525
 30
0.0
 10
-215.7298624897202
 20
-70.97108368635222
 30
0.0
 10
-215.7494016726098
 20
-70.8580046585665
 30
0.0
 10
-215.7655571688831
 20
-70.74072079495639
 30
0.0
 10
-215.7782272727383
 20
-70.62005236485981
 30
0.0
 10
-215.7873332758428
 20
-70.49683346426309
 30
0.0
 10
-215.7928191943125
 20
-70.37191021750527
 30
0.0
 10
-215.7940395504958
 20
-70.28813895619588
 30
0.0
 10
-215.7940395504958
 20
-70.24613108236102
 30
0.0
 11
-215.2730950168958
 21
-71.74612249726104
 31
0.0
 11
-215.2954147972958
 21
-71.74475369036102
 31
0.0
 11
-215.3398855996958
 21
-71.73375154026103
 31
0.0
 11
-215.3838482962958
 21
-71.71183975906103
 31
0.0
 11
-215.4269701836958
 21
-71.67920212866104
 31
0.0
 11
-215.4689274454958
 21
-71.63611047986103
 31
0.0
 11
-215.5094083408958
 21
-71.58292027996111
 31
0.0
 11
-215.5481160373958
 21
-71.52006510976102
 31
0.0
 11
-215.5847711060958
 21
-71.44805016036102
 31
0.0
 11
-215.6191134845958
 21
-71.36744527846104
 31
0.0
 11
-215.6509041424959
 21
-71.27887738776104
 31
0.0
 11
-215.6799261336958
 21
-71.18302326196104
 31
0.0
 11
-215.7059854695958
 21
-71.08060187826104
 31
0.0
 11
-215.7289114068958
 21
-70.97236789956102
 31
0.0
 11
-215.7485567024958
 21
-70.85910474456103
 31
0.0
 11
-215.7647974104958
 21
-70.74161934916102
 31
0.0
 11
-215.7775327646958
 21
-70.62073639816103
 31
0.0
 11
-215.7866847986957
 21
-70.49729441316102
 31
0.0
 11
-215.7921981069958
 21
-70.37214124966101
 31
0.0
 11
-215.7940395504958
 21
-70.24613108236102
 31
0.0
  0
SPLINE
  5
144D
330
19
100
AcDbEntity
  8
1
 62
     4
100
AcDbSpline
210
0.0
220
0.0
230
1.0
 70
     8
 71
     3
 72
    26
 73
    22
 74
    20
 42
0.0000000001
 43
0.0000000001
 44
0.0000000001
 12
0.0000000000000001
 22
1.0
 32
0.0
 13
0.9999999999999992
 23
0.0000000426509353
 33
0.0
 40
0.0
 40
0.0
 40
0.0
 40
0.0
 40
0.1260235940958365
 40
0.2512980537411136
 40
0.3750787114262039
 40
0.4966304955500704
 40
0.6152329104580672
 40
0.7301869548288713
 40
0.8408221564076471
 40
0.9465065397891418
 40
1.046657714469554
 40
1.140758160908474
 40
1.228373985980692
 40
1.309180804098881
 40
1.382998557083613
 40
1.449840962668264
 40
1.509985054385827
 40
1.564065750898363
 40
1.613186547750762
 40
1.658998160263452
 40
1.681361097360969
 40
1.681361097360969
 40
1.681361097360969
 40
1.681361097360969
 10
-215.7940395504958
 20
-70.24613108236102
 30
0.0
 10
-215.7940395504958
 20
-70.2041232176624
 30
0.0
 10
-215.792819195093
 20
-70.12035199298378
 30
0.0
 10
-215.7873332822061
 20
-69.99542882603559
 30
0.0
 10
-215.7782272936323
 20
-69.87221005161114
 30
0.0
 10
-215.7655572169101
 20
-69.75154178351559
 30
0.0
 10
-215.7494017629183
 20
-69.63425810555353
 30
0.0
 10
-215.7298626386943
 20
-69.52117927196808
 30
0.0
 10
-215.7070647242262
 20
-69.41310609319588
 30
0.0
 10
-215.681156150497
 20
-69.31081467765928
 30
0.0
 10
-215.6523079953333
 20
-69.21504980213359
 30
0.0
 10
-215.6207134922453
 20
-69.12651781132192
 30
0.0
 10
-215.5865862249629
 20
-69.04587841570156
 30
0.0
 10
-215.5501566088671
 20
-68.97373615242123
 30
0.0
 10
-215.5116657464241
 20
-68.91063194423875
 30
0.0
 10
-215.4713534192431
 20
-68.85703741966522
 30
0.0
 10
-215.4294440294612
 20
-68.8133588018986
 30
0.0
 10
-215.3861207259696
 20
-68.77996348818922
 30
0.0
 10
-215.3415731186444
 20
-68.75724701917026
 30
0.0
 10
-215.3032907698657
 20
-68.74752739157308
 30
0.0
 10
-215.2805493304617
 20
-68.74613966777896
 30
0.0
 10
-215.2730950180958
 20
-68.74613966746102
 30
0.0
 11
-215.7940395504958
 21
-70.24613108236102
 31
0.0
 11
-215.7921981077958
 21
-70.12012094246102
 31
0.0
 11
-215.7866848051958
 21
-69.99496786126101
 31
0.0
 11
-215.7775327860958
 21
-69.87152600546102
 31
0.0
 11
-215.7647974596958
 21
-69.75064322056102
 31
0.0
 11
-215.7485567948958
 21
-69.63315801456102
 31
0.0
 11
-215.7289115594958
 21
-69.51989505926104
 31
0.0
 11
-215.7059856986956
 21
-69.41166127186105
 31
0.0
 11
-215.6799264549959
 21
-69.30924005966102
 31
0.0
 11
-215.6509045678958
 21
-69.21338606726104
 31
0.0
 11
-215.6191140239958
 21
-69.12481826646104
 31
0.0
 11
-215.5847717626958
 21
-69.04421341616103
 31
0.0
 11
-215.5481168124958
 21
-68.97219844216102
 31
0.0
 11
-215.5094092271958
 21
-68.90934318386104
 31
0.0
 11
-215.4689284347958
 21
-68.85615284046102
 31
0.0
 11
-215.4269712596958
 21
-68.81306099406103
 31
0.0
 11
-215.3838494421958
 21
-68.78042312356104
 31
0.0
 11
-215.3398867928958
 21
-68.75851106866105
 31
0.0
 11
-215.2954160151958
 21
-68.74750862476111
 31
0.0
 11
-215.2730950180958
 21
-68.74613966746102
 31
0.0
  0
SPLINE
  5
144E
330
19
100
AcDbEntity
  8
1
 62
     4
100
AcDbSpline
210
0.0
220
0.0
230
1.0
 70
     8
 71
     3
 72
    34
 73
    30
 74
    28
 42
0.0000000001
 43
0.0000000001
 44
0.0000000001
 12
-0.9999999265726637
 22
-0.0003832162142662
 32
0.0
 13
0.2359735284287816
 23
0.9717594835559214
 33
0.0
 40
0.0
 40
0.0
 40
0.0
 40
0.0
 40
0.0063781438217807
 40
0.0540805094334178
 40
0.1042373506123376
 40
0.1586061587432835
 40
0.218406541302071
 40
0.2843499803757474
 40
0.3567419322746983
 40
0.4355877180687376
 40
0.5206790214133325
 40
0.6116593294222139
 40
0.7080724584881514
 40
0.8093984200124468
 40
0.91507977141581
 40
1.024540626122839
 40
1.137199820794547
 40
1.252479370974357
 40
1.36980910719873
 40
1.48862827367039
 40
1.608384791073889
 40
1.728532842066772
 40
1.848529410146586
 40
1.967830381367855
 40
2.085886817181794
 40
2.202141994891524
 40
2.316029869103506
 40
2.426975507875023
 40
2.53439838493576
 40
2.53439838493576
 40
2.53439838493576
 40
2.53439838493576
 10
-213.7262265458956
 20
-71.34612944216101
 30
0.0
 10
-213.7283525936801
 20
-71.34613025689706
 30
0.0
 10
-213.7463771617569
 20
-71.34584686748238
 30
0.0
 10
-213.7810822250127
 20
-71.34047415708367
 30
0.0
 10
-213.8285271449074
 20
-71.32148418515869
 30
0.0
 10
-213.8747213944117
 20
-71.29151333541161
 30
0.0
 10
-213.9193779559916
 20
-71.25107892276608
 30
0.0
 10
-213.9622862619103
 20
-71.20067472502221
 30
0.0
 10
-214.00320972515
 20
-71.14082558351525
 30
0.0
 10
-214.0419081843347
 20
-71.07211566903885
 30
0.0
 10
-214.0781490818351
 20
-70.99518951370194
 30
0.0
 10
-214.1117208143521
 20
-70.91073973831176
 30
0.0
 10
-214.1424383347345
 20
-70.81949109382108
 30
0.0
 10
-214.17014521353
 20
-70.7221850873068
 30
0.0
 10
-214.1947129170692
 20
-70.61956696371703
 30
0.0
 10
-214.2160386295215
 20
-70.51237568087586
 30
0.0
 10
-214.2340422770435
 20
-70.40133701218284
 30
0.0
 10
-214.2486632731488
 20
-70.28715965516186
 30
0.0
 10
-214.2598573352834
 20
-70.17053406299506
 30
0.0
 10
-214.2675936300687
 20
-70.0521336193496
 30
0.0
 10
-214.2718524382632
 20
-69.93261770837884
 30
0.0
 10
-214.2726234665282
 20
-69.81263619533222
 30
0.0
 10
-214.2699048926647
 20
-69.69283479891235
 30
0.0
 10
-214.2637031968966
 20
-69.57386087017201
 30
0.0
 10
-214.2540337561214
 20
-69.45636891949302
 30
0.0
 10
-214.2409222780189
 20
-69.3410258627598
 30
0.0
 10
-214.2244066390396
 20
-69.22851365573007
 30
0.0
 10
-214.2045403413116
 20
-69.11953543019329
 30
0.0
 10
-214.1888272695738
 20
-69.04843961980592
 30
0.0
 10
-214.1803776177958
 20
-69.01364321996104
 30
0.0
 11
-213.7262265458956
 21
-71.34612944216101
 31
0.0
 11
-213.7326038921957
 21
-71.34602858196103
 31
0.0
 11
-213.7797703747958
 21
-71.33889846246103
 31
0.0
 11
-213.8264789664957
 21
-71.32062235296103
 31
0.0
 11
-213.8723355287958
 21
-71.29141374136103
 31
0.0
 11
-213.9169625279958
 21
-71.25160775316103
 31
0.0
 11
-213.9600055103958
 21
-71.20164938226102
 31
0.0
 11
-214.0011383689958
 21
-71.14207856186104
 31
0.0
 11
-214.0400671189958
 21
-71.07351318896101
 31
0.0
 11
-214.0765321195958
 21
-70.99663124286101
 31
0.0
 11
-214.1103087787957
 21
-70.91215311706102
 31
0.0
 11
-214.1412068867958
 21
-70.82082514556103
 31
0.0
 11
-214.1690688020959
 21
-70.72340510576103
 31
0.0
 11
-214.1937667603957
 21
-70.62065025726102
 31
0.0
 11
-214.2151996031958
 21
-70.51330822466102
 31
0.0
 11
-214.2332892134958
 21
-70.40211083196104
 31
0.0
 11
-214.2479769303958
 21
-70.28777078796102
 31
0.0
 11
-214.2592201761958
 21
-70.17098099206103
 31
0.0
 11
-214.2669894921958
 21
-70.05241610666104
 31
0.0
 11
-214.2712661385958
 21
-69.93273597566101
 31
0.0
 11
-214.2720403702958
 21
-69.81259041926103
 31
0.0
 11
-214.2693104659958
 21
-69.69262490766104
 31
0.0
 11
-214.2630825512958
 21
-69.57348660646101
 31
0.0
 11
-214.2533712212958
 21
-69.45583027596104
 31
0.0
 11
-214.2402009399958
 21
-69.34032352276105
 31
0.0
 11
-214.2236081511958
 21
-69.22765086746102
 31
0.0
 11
-214.2036440172958
 21
-69.11851623446103
 31
0.0
 11
-214.1803776177958
 21
-69.01364321996104
 31
0.0
  0
SPLINE
  5
144F
330
19
100
AcDbEntity
  8
1
 62
     4
100
AcDbSpline
210
0.0
220
0.0
230
1.0
 70
     8
 71
     3
 72
    29
 73
    25
 74
    23
 42
0.0000000001
 43
0.0000000001
 44
0.0000000001
 12
-1.0
 22
0.0000000000000001
 32
0.0
 13
0.0000000000000001
 23
1.0
 33
0.0
 40
0.0
 40
0.0
 40
0.0
 40
0.0
 40
0.1720182940991772
 40
0.3442007887147912
 40
0.5160769355006552
 40
0.6877141612404177
 40
0.8585913174128821
 40
1.028607682087967
 40
1.196880822875874
 40
1.362912874879011
 40
1.525641838907278
 40
1.684204767970346
 40
1.837503056859073
 40
1.984477323223878
 40
2.124302458108434
 40
2.256029990026151
 40
2.37909112071423
 40
2.493169935359577
 40
2.598042868510997
 40
2.693584222928553
 40
2.780356836595617
 40
2.858901218298115
 40
2.930336367312103
 40
2.996015181842674
 40
2.996015181842674
 40
2.996015181842674
 40
2.996015181842674
 10
-223.6072884947958
 20
-64.08252823986103
 30
0.0
 10
-223.6646279261622
 20
-64.08252823986103
 30
0.0
 10
-223.7793799357106
 20
-64.07982066802363
 30
0.0
 10
-223.9510353487129
 20
-64.06764758474763
 30
0.0
 10
-224.1218031027721
 20
-64.04740677236455
 30
0.0
 10
-224.2909972123256
 20
-64.01921463864635
 30
0.0
 10
-224.4580708388627
 20
-63.98322162992513
 30
0.0
 10
-224.6221819187023
 20
-63.93969564318462
 30
0.0
 10
-224.7825209807613
 20
-63.88897714034108
 30
0.0
 10
-224.9380068486658
 20
-63.83158427318011
 30
0.0
 10
-225.0876086752477
 20
-63.76812889859746
 30
0.0
 10
-225.2301625726228
 20
-63.69939561988878
 30
0.0
 10
-225.3645633856796
 20
-63.62626616786234
 30
0.0
 10
-225.4897764123874
 20
-63.54970673533157
 30
0.0
 10
-225.6048643059179
 20
-63.47073538953964
 30
0.0
 10
-225.7090715581117
 20
-63.39034741156257
 30
0.0
 10
-225.8018107848958
 20
-63.30949357442591
 30
0.0
 10
-225.8826858701329
 20
-63.22901267959574
 30
0.0
 10
-225.9513909972745
 20
-63.14969075423679
 30
0.0
 10
-226.0077816450472
 20
-63.07216869531291
 30
0.0
 10
-226.0517933787205
 20
-62.9969838566561
 30
0.0
 10
-226.0834410896014
 20
-62.92444570882242
 30
0.0
 10
-226.1026740485136
 20
-62.85490458194996
 30
0.0
 10
-226.1072884947958
 20
-62.80912875073788
 30
0.0
 10
-226.1072884947958
 20
-62.78723581256102
 30
0.0
 11
-223.6072884947958
 21
-64.08252823986103
 31
0.0
 11
-223.7792589211958
 21
-64.07847041426103
 31
0.0
 11
-223.9510101040958
 21
-64.06629081556102
 31
0.0
 11
-224.1216913963958
 21
-64.04605949596103
 31
0.0
 11
-224.2909940266958
 21
-64.01784679256104
 31
0.0
 11
-224.4580375425958
 21
-63.98185420586102
 31
0.0
 11
-224.6223692825958
 21
-63.93825783576102
 31
0.0
 11
-224.7828012729958
 21
-63.88748947586103
 31
0.0
 11
-224.9385503828958
 21
-63.82996681026103
 31
0.0
 11
-225.0883424865958
 21
-63.76638189536103
 31
0.0
 11
-225.2311428727958
 21
-63.69745982216102
 31
0.0
 11
-225.3657579710958
 21
-63.62411719686105
 31
0.0
 11
-225.4910927372958
 21
-63.54735372016103
 31
0.0
 11
-225.6063055760958
 21
-63.46812575716104
 31
0.0
 11
-225.7104980744958
 21
-63.38752758136101
 31
0.0
 11
-225.8031144764958
 21
-63.30649521766102
 31
0.0
 11
-225.8837925979958
 21
-63.22584153416102
 31
0.0
 11
-225.9522163686958
 21
-63.14636499856104
 31
0.0
 11
-226.0081197293958
 21
-63.06888619716102
 31
0.0
 11
-226.0515855108958
 21
-62.99378485016103
 31
0.0
 11
-226.0825612936958
 21
-62.92160645466103
 31
0.0
 11
-226.1011208067958
 21
-62.85262439186104
 31
0.0
 11
-226.1072884947958
 21
-62.78723581256102
 31
0.0
  0
SPLINE
  5
1450
330
19
100
AcDbEntity
  8
1
 62
     4
100
AcDbSpline
210
0.0
220
0.0
230
1.0
 70
     8
 71
     3
 72
    28
 73
    24
 74
    22
 42
0.0000000001
 43
0.0000000001
 44
0.0000000001
 12
-0.4026435737619622
 22
-0.915356844355356
 32
0.0
 13
0.0273689859864422
 23
-0.9996253991401347
 33
0.0
 40
0.0
 40
0.0
 40
0.0
 40
0.0
 40
0.2736097143347042
 40
0.5571699419319723
 40
0.8501962812954266
 40
1.152169367781636
 40
1.462543955481822
 40
1.780756510127741
 40
2.106231384153731
 40
2.438385900191738
 40
2.776634394948953
 40
3.120391365790109
 40
3.46907381396321
 40
3.822102877522525
 40
4.178904839609296
 40
4.538911591504204
 40
4.901560629907767
 40
5.266294653983045
 40
5.632560858078408
 40
5.999809884417513
 40
6.367495015778304
 40
6.735070540964356
 40
6.893562950509892
 40
6.893562950509892
 40
6.893562950509892
 40
6.893562950509892
 10
-214.7635366894958
 20
-64.08252823986103
 30
0.0
 10
-214.8002590872277
 20
-64.16601174809382
 30
0.0
 10
-214.8719190849728
 20
-64.33740155372297
 30
0.0
 10
-214.9725383883711
 20
-64.60238437997076
 30
0.0
 10
-215.0680899325728
 20
-64.87925657029369
 30
0.0
 10
-215.1584097032683
 20
-65.16725491027894
 30
0.0
 10
-215.2433536444913
 20
-65.46561970039213
 30
0.0
 10
-215.3227935950771
 20
-65.77359071471144
 30
0.0
 10
-215.3966172030793
 20
-66.09041250051273
 30
0.0
 10
-215.4647265786711
 20
-66.41533629500584
 30
0.0
 10
-215.5270372149593
 20
-66.74762215688485
 30
0.0
 10
-215.5834767983463
 20
-67.08654031507129
 30
0.0
 10
-215.6339840516661
 20
-67.43137204297394
 30
0.0
 10
-215.6785076101846
 20
-67.78141001167641
 30
0.0
 10
-215.7170049620211
 20
-68.13595818208907
 30
0.0
 10
-215.7494414693283
 20
-68.49433127777183
 30
0.0
 10
-215.775789494201
 20
-68.85585387624435
 30
0.0
 10
-215.7960276372071
 20
-69.21985921152137
 30
0.0
 10
-215.8101401073015
 20
-69.58568757957353
 30
0.0
 10
-215.8181162240069
 20
-69.9526850397482
 30
0.0
 10
-215.8199500889296
 20
-70.32020037236492
 30
0.0
 10
-215.8164552843526
 20
-70.61811282404218
 30
0.0
 10
-215.8122927426077
 20
-70.79342072194347
 30
0.0
 10
-215.8108468170958
 20
-70.84623173466102
 30
0.0
 11
-214.7635366894958
 21
-64.08252823986103
 31
0.0
 11
-214.8692599591958
 21
-64.33488684586103
 31
0.0
 11
-214.9700808791958
 21
-64.59991806056104
 31
0.0
 11
-215.0658181442958
 21
-64.87686356356104
 31
0.0
 11
-215.1563092142958
 21
-65.16495922686104
 31
0.0
 11
-215.2414094583958
 21
-65.46343926496104
 31
0.0
 11
-215.3209911651959
 21
-65.77153986846105
 31
0.0
 11
-215.3949424226958
 21
-66.08850217716102
 31
0.0
 11
-215.4631659509958
 21
-66.41357474246103
 31
0.0
 11
-215.5255778941958
 21
-66.74601540416102
 31
0.0
 11
-215.5821066093958
 21
-67.08509262156102
 31
0.0
 11
-215.6326914757958
 21
-67.43008627506103
 31
0.0
 11
-215.6772817505958
 21
-67.78028796996102
 31
0.0
 11
-215.7158354930958
 21
-68.13500088076103
 31
0.0
 11
-215.7483185753958
 21
-68.49353917826104
 31
0.0
 11
-215.7747037988958
 21
-68.85522708936105
 31
0.0
 11
-215.7949701274957
 21
-69.21939763216101
 31
0.0
 11
-215.8091020523958
 21
-69.58539110336104
 31
0.0
 11
-215.8170890931958
 21
-69.95255326716102
 31
0.0
 11
-215.8189254512958
 21
-70.32023381276104
 31
0.0
 11
-215.8146097920957
 21
-70.68778400226102
 31
0.0
 11
-215.8108468170958
 21
-70.84623173466102
 31
0.0
  0
SPLINE
  5
1451
330
19
100
AcDbEntity
  8
1
 62
     4
100
AcDbSpline
210
0.0
220
0.0
230
1.0
 70
     8
 71
     3
 72
    38
 73
    34
 74
    32
 42
0.0000000001
 43
0.0000000001
 44
0.0000000001
 12
0.0273689859932494
 22
-0.9996253991399486
 32
0.0
 13
0.9959353830275372
 23
-0.0900705991641721
 33
0.0
 40
0.0
 40
0.0
 40
0.0
 40
0.0
 40
0.208430175385982
 40
0.5741456190582332
 40
0.9381065224009994
 40
1.299758359599685
 40
1.658541796902053
 40
2.013892090093071
 40
2.365238836795446
 40
2.712006152087368
 40
3.053613342802868
 40
3.389476157755014
 40
3.71900869718213
 40
4.041626068267634
 40
4.35674788235785
 40
4.663802700332341
 40
4.962233548158679
 40
5.251504645168167
 40
5.531109515961606
 40
5.800580699255831
 40
6.059501317581038
 40
6.307518838342342
 40
6.544361435212964
 40
6.769857439701913
 40
6.98395842081573
 40
7.186766399856726
 40
7.378565455465334
 40
7.559857311887401
 40
7.731399083989259
 40
7.894238850648959
 40
8.049741036405485
 40
8.199589605241742
 40
8.345738736448007
 40
8.345738736448007
 40
8.345738736448007
 40
8.345738736448007
 10
-215.8108468170958
 20
-70.84623173466102
 30
0.0
 10
-215.8089453095789
 20
-70.91568243374869
 30
0.0
 10
-215.8027934121356
 20
-71.10696829378551
 30
0.0
 10
-215.7886071976146
 20
-71.41936446084947
 30
0.0
 10
-215.7659043651789
 20
-71.78244905448273
 30
0.0
 10
-215.7370995450697
 20
-72.14278344802477
 30
0.0
 10
-215.7022165871752
 20
-72.49969707265562
 30
0.0
 10
-215.6612858517528
 20
-72.85251078102461
 30
0.0
 10
-215.6143450447725
 20
-73.20053500546629
 30
0.0
 10
-215.561440129074
 20
-73.54306919749873
 30
0.0
 10
-215.5026263395019
 20
-73.87940141136242
 30
0.0
 10
-215.4379692711095
 20
-74.2088083924947
 30
0.0
 10
-215.3675460198794
 20
-74.53055612982805
 30
0.0
 10
-215.2914463532986
 20
-74.84390093128528
 30
0.0
 10
-215.2097738743351
 20
-75.14809104455858
 30
0.0
 10
-215.1226471538447
 20
-75.44236884790101
 30
0.0
 10
-215.0302007872971
 20
-75.72597362038656
 30
0.0
 10
-214.9325863323482
 20
-75.99814488959879
 30
0.0
 10
-214.829973082244
 20
-76.25812634187562
 30
0.0
 10
-214.7225486107831
 20
-76.50517025743872
 30
0.0
 10
-214.6105190272817
 20
-76.7385424124399
 30
0.0
 10
-214.4941088617222
 20
-76.95752735283062
 30
0.0
 10
-214.3735604932733
 20
-77.16143389792589
 30
0.0
 10
-214.2491330456164
 20
-77.34960065986381
 30
0.0
 10
-214.1211006726911
 20
-77.52140125659437
 30
0.0
 10
-213.9897503455669
 20
-77.67624874917899
 30
0.0
 10
-213.8553792236513
 20
-77.81359868909014
 30
0.0
 10
-213.718293091717
 20
-77.9329500233178
 30
0.0
 10
-213.5788050672036
 20
-78.03384366352405
 30
0.0
 10
-213.4372452851742
 20
-78.11585894351384
 30
0.0
 10
-213.2939555637521
 20
-78.17861372908843
 30
0.0
 10
-213.1493727394275
 20
-78.22176585155578
 30
0.0
 10
-213.0516008914514
 20
-78.23741262208933
 30
0.0
 10
-213.0030825277958
 20
-78.24180053536102
 30
0.0
 11
-215.8108468170958
 21
-70.84623173466102
 31
0.0
 11
-215.8041452218958
 21
-71.05455414496103
 31
0.0
 11
-215.7875393966958
 21
-71.41989238866106
 31
0.0
 11
-215.7648047746959
 21
-71.78314254506102
 31
0.0
 11
-215.7359590274958
 21
-72.14364216256104
 31
0.0
 11
-215.7010255943958
 21
-72.50072087956102
 31
0.0
 11
-215.6600343714958
 21
-72.85369899576102
 31
0.0
 11
-215.6130225277958
 21
-73.20188633466102
 31
0.0
 11
-215.5600354331958
 21
-73.54458144516105
 31
0.0
 11
-215.5011276845958
 21
-73.88107119226103
 31
0.0
 11
-215.4363642120958
 21
-74.21063078186103
 31
0.0
 11
-215.3658214443958
 21
-74.53252426186103
 31
0.0
 11
-215.2895885115958
 21
-74.84600553416104
 31
0.0
 11
-215.2077684570958
 21
-75.15031990516104
 31
0.0
 11
-215.1204794342958
 21
-75.44470619516104
 31
0.0
 11
-215.0278558554957
 21
-75.72839941606105
 31
0.0
 11
-214.9300494613958
 21
-76.00063401496104
 31
0.0
 11
-214.8272302811958
 21
-76.26064766836103
 31
0.0
 11
-214.7195874473958
 21
-76.50768559856103
 31
0.0
 11
-214.6073298352958
 21
-76.74100536866103
 31
0.0
 11
-214.4906864954958
 21
-76.95988209626102
 31
0.0
 11
-214.3699068515958
 21
-77.16361401156103
 31
0.0
 11
-214.2452606387958
 21
-77.35152827306103
 31
0.0
 11
-214.1170375629958
 21
-77.52298693556102
 31
0.0
 11
-213.9855466672958
 21
-77.67739296106103
 31
0.0
 11
-213.8511153987958
 21
-77.81419614736103
 31
0.0
 11
-213.7140883738958
 21
-77.93289885016102
 31
0.0
 11
-213.5748258532958
 21
-78.03306136776104
 31
0.0
 11
-213.4337019395958
 21
-78.11430686356104
 31
0.0
 11
-213.2911025251958
 21
-78.17632570576103
 31
0.0
 11
-213.1474230180958
 21
-78.21887911716103
 31
0.0
 11
-213.0030825277958
 21
-78.24180053536102
 31
0.0
  0
SPLINE
  5
1452
330
19
100
AcDbEntity
  8
1
 62
     4
100
AcDbSpline
210
0.0
220
0.0
230
1.0
 70
     8
 71
     3
 72
    26
 73
    22
 74
    20
 42
0.0000000001
 43
0.0000000001
 44
0.0000000001
 12
-0.0000000000000001
 22
-1.0
 32
0.0
 13
-0.9999999999999992
 23
-0.0000000426509353
 33
0.0
 40
0.0
 40
0.0
 40
0.0
 40
0.0
 40
0.1260235941958426
 40
0.2512980537412266
 40
0.3750787115260307
 40
0.4966304956499032
 40
0.6152329104588466
 40
0.7301869549281954
 40
0.8408221565069359
 40
0.9465065397915727
 40
1.046657714471969
 40
1.140758161005024
 40
1.22837398607722
 40
1.309180804195384
 40
1.382998557094976
 40
1.449840962679627
 40
1.509985054468869
 40
1.564065750921017
 40
1.613186547773378
 40
1.65899816031015
 40
1.681361097401541
 40
1.681361097401541
 40
1.681361097401541
 40
1.681361097401541
 10
-214.7521504844958
 20
-70.24613108236102
 30
0.0
 10
-214.7521504844958
 20
-70.28813894709296
 30
0.0
 10
-214.7533708398935
 20
-70.3719101717718
 30
0.0
 10
-214.7588567527933
 20
-70.49683333875271
 30
0.0
 10
-214.7679627413551
 20
-70.62005211317776
 30
0.0
 10
-214.7806328180716
 20
-70.7407203812746
 30
0.0
 10
-214.7967882720938
 20
-70.85800405923203
 30
0.0
 10
-214.8163273962865
 20
-70.97108289282239
 30
0.0
 10
-214.8391253107514
 20
-71.0791560715964
 30
0.0
 10
-214.8650338845077
 20
-71.18144748709318
 30
0.0
 10
-214.8938820396789
 20
-71.27721236261407
 30
0.0
 10
-214.9254765427229
 20
-71.36574435347561
 30
0.0
 10
-214.9596038100359
 20
-71.44638374911695
 30
0.0
 10
-214.9960334260949
 20
-71.51852601238466
 30
0.0
 10
-215.03452428859
 20
-71.58163022050588
 30
0.0
 10
-215.0748366157872
 20
-71.6352247450509
 30
0.0
 10
-215.1167460054633
 20
-71.67890336292851
 30
0.0
 10
-215.1600693090547
 20
-71.71229867654244
 30
0.0
 10
-215.2046169163623
 20
-71.73501514548386
 30
0.0
 10
-215.2428992651062
 20
-71.74473477336178
 30
0.0
 10
-215.265640704532
 20
-71.7461224969431
 30
0.0
 10
-215.2730950168958
 20
-71.74612249726104
 30
0.0
 11
-214.7521504844958
 21
-70.24613108236102
 31
0.0
 11
-214.7539919271958
 21
-70.37214122236102
 31
0.0
 11
-214.7595052297958
 21
-70.49729430346104
 31
0.0
 11
-214.7686572488958
 21
-70.62073615936103
 31
0.0
 11
-214.7813925752958
 21
-70.74161894426103
 31
0.0
 11
-214.7976332400958
 21
-70.85910415016105
 31
0.0
 11
-214.8172784754958
 21
-70.97236710556103
 31
0.0
 11
-214.8402043362958
 21
-71.08060089296103
 31
0.0
 11
-214.8662635799958
 21
-71.18302210506104
 31
0.0
 11
-214.8952854670959
 21
-71.27887609746102
 31
0.0
 11
-214.9270760109958
 21
-71.36744389836104
 31
0.0
 11
-214.9614182722958
 21
-71.44804874866105
 31
0.0
 11
-214.9980732224958
 21
-71.52006372266104
 31
0.0
 11
-215.0367808077958
 21
-71.58291898086102
 31
0.0
 11
-215.0772616001958
 21
-71.63610932426104
 31
0.0
 11
-215.1192187752958
 21
-71.67920117076102
 31
0.0
 11
-215.1623405927958
 21
-71.71183904116102
 31
0.0
 11
-215.2063032420957
 21
-71.73375109606104
 31
0.0
 11
-215.2507740197958
 21
-71.74475354006102
 31
0.0
 11
-215.2730950168958
 21
-71.74612249726104
 31
0.0
  0
SPLINE
  5
1453
330
19
100
AcDbEntity
  8
1
 62
     4
100
AcDbSpline
210
0.0
220
0.0
230
1.0
 70
     8
 71
     3
 72
    17
 73
    13
 74
    11
 42
0.0000000001
 43
0.0000000001
 44
0.0000000001
 12
-0.3095546483729374
 22
-0.9508816538721877
 32
0.0
 13
-0.9999999265726454
 23
-0.0003832162621445
 33
0.0
 40
0.0
 40
0.0
 40
0.0
 40
0.0
 40
0.0949932205334502
 40
0.1844230270761827
 40
0.2678562325159469
 40
0.3449708731337036
 40
0.4156090648939745
 40
0.479847697994495
 40
0.5380908818362326
 40
0.5911785575359659
 40
0.6404781064023334
 40
0.6815371413425239
 40
0.6815371413425239
 40
0.6815371413425239
 40
0.6815371413425239
 10
-213.3192904290958
 20
-70.84613108236104
 30
0.0
 10
-213.3290922934225
 20
-70.87624018591021
 30
0.0
 10
-213.3495179195101
 20
-70.9342563256203
 30
0.0
 10
-213.3838292269941
 20
-71.01674124105243
 30
0.0
 10
-213.4207555539635
 20
-71.09151402653485
 30
0.0
 10
-213.4600781563888
 20
-71.15789084707775
 30
0.0
 10
-213.501561078794
 20
-71.21524321984068
 30
0.0
 10
-213.5449637799025
 20
-71.26300374625325
 30
0.0
 10
-213.5900562813298
 20
-71.30066044711276
 30
0.0
 10
-213.6366194807105
 20
-71.32771786784444
 30
0.0
 10
-213.6823393721449
 20
-71.3429761437612
 30
0.0
 10
-213.7125402019205
 20
-71.34612419733105
 30
0.0
 10
-213.7262265458956
 20
-71.34612944216101
 30
0.0
 11
-213.3192904290958
 21
-70.84613108236104
 31
0.0
 11
-213.3509826140958
 21
-70.93568172366104
 31
0.0
 11
-213.3855052245958
 21
-71.01817947916103
 31
0.0
 11
-213.4226589468958
 21
-71.09288356666104
 31
0.0
 11
-213.4622097239958
 21
-71.15908329346104
 31
0.0
 11
-213.5038885280958
 21
-71.21611513916104
 31
0.0
 11
-213.5473924180958
 21
-71.26338049156103
 31
0.0
 11
-213.5923872013958
 21
-71.30036343276103
 31
0.0
 11
-213.6385116150958
 21
-71.32664726376103
 31
0.0
 11
-213.6853829657958
 21
-71.34192869046103
 31
0.0
 11
-213.7262265458956
 21
-71.34612944216101
 31
0.0
  0
SPLINE
  5
1454
330
19
100
AcDbEntity
  8
1
 62
     4
100
AcDbSpline
210
0.0
220
0.0
230
1.0
 70
     8
 71
     3
 72
    26
 73
    22
 74
    20
 42
0.0000000001
 43
0.0000000001
 44
0.0000000001
 12
0.9999999999999992
 22
0.0000000426509353
 32
0.0
 13
-0.0000000000000001
 23
-1.0
 33
0.0
 40
0.0
 40
0.0
 40
0.0
 40
0.0
 40
0.0223617134727085
 40
0.0681732794263108
 40
0.117293996519149
 40
0.1713746038664145
 40
0.2315186144197397
 40
0.2983609681918119
 40
0.3721787045221883
 40
0.4529855545137606
 40
0.5406014545956028
 40
0.6347020241622421
 40
0.7348533565893471
 40
0.8405379290067777
 40
0.9511733334877472
 40
1.066127584908761
 40
1.184730193447227
 40
1.306282145570153
 40
1.43006293320328
 40
1.555337475419567
 40
1.681361096824169
 40
1.681361096824169
 40
1.681361096824169
 40
1.681361096824169
 10
-215.2730950180958
 20
-68.74613966746102
 30
0.0
 10
-215.2656411136049
 20
-68.74613966714311
 30
0.0
 10
-215.2429001006431
 20
-68.74752728694261
 30
0.0
 10
-215.2046181248758
 20
-68.75724655546668
 30
0.0
 10
-215.1600704558525
 20
-68.77996275143491
 30
0.0
 10
-215.1167470731307
 20
-68.81335783094048
 30
0.0
 10
-215.0748375906409
 20
-68.85703626006663
 30
0.0
 10
-215.0345251599364
 20
-68.91063064632394
 30
0.0
 10
-214.9960341854398
 20
-68.97373477316008
 30
0.0
 10
-214.9596044535249
 20
-69.04587701254704
 30
0.0
 10
-214.925477070047
 20
-69.12651644288738
 30
0.0
 10
-214.8938824560467
 20
-69.21504852054757
 30
0.0
 10
-214.8650341982547
 20
-69.3108135291003
 30
0.0
 10
-214.8391255348311
 20
-69.41310511120855
 30
0.0
 10
-214.8163275452552
 20
-69.52117847839943
 30
0.0
 10
-214.7967883623742
 20
-69.63425750618821
 30
0.0
 10
-214.7806328661243
 20
-69.75154136980082
 30
0.0
 10
-214.7679627622458
 20
-69.87220979989479
 30
0.0
 10
-214.7588567591462
 20
-69.99542870049225
 30
0.0
 10
-214.7533708406832
 20
-70.12035194725022
 30
0.0
 10
-214.7521504844958
 20
-70.20412320855948
 30
0.0
 10
-214.7521504844958
 20
-70.24613108236102
 30
0.0
 11
-215.2730950180958
 21
-68.74613966746102
 31
0.0
 11
-215.2507752376958
 21
-68.74750847436104
 31
0.0
 11
-215.2063044352958
 21
-68.75851062456101
 31
0.0
 11
-215.1623417386956
 21
-68.78042240576104
 31
0.0
 11
-215.1192198512958
 21
-68.81306003616103
 31
0.0
 11
-215.0772625894958
 21
-68.85615168486103
 31
0.0
 11
-215.0367816940958
 21
-68.90934188476103
 31
0.0
 11
-214.9980739974959
 21
-68.97219705496104
 31
0.0
 11
-214.9614189288958
 21
-69.04421200446103
 31
0.0
 11
-214.9270765503958
 21
-69.12481688636103
 31
0.0
 11
-214.8952858924958
 21
-69.21338477706104
 31
0.0
 11
-214.8662639012958
 21
-69.30923890276105
 31
0.0
 11
-214.8402045653958
 21
-69.41166028656104
 31
0.0
 11
-214.8172786280958
 21
-69.51989426516104
 31
0.0
 11
-214.7976333324958
 21
-69.63315742016104
 31
0.0
 11
-214.7813926244958
 21
-69.75064281566102
 31
0.0
 11
-214.7686572702958
 21
-69.87152576656104
 31
0.0
 11
-214.7595052362958
 21
-69.99496775156103
 31
0.0
 11
-214.7539919279958
 21
-70.12012091516104
 31
0.0
 11
-214.7521504844958
 21
-70.24613108236102
 31
0.0
  0
SPLINE
  5
1455
330
19
100
AcDbEntity
  8
1
 62
     4
100
AcDbSpline
210
0.0
220
0.0
230
1.0
 70
     8
 71
     3
 72
    19
 73
    15
 74
    13
 42
0.0000000001
 43
0.0000000001
 44
0.0000000001
 12
0.2767290784319316
 22
0.9609479783787538
 32
0.0
 13
-0.6515109117563293
 23
0.7586392633277274
 33
0.0
 40
0.0
 40
0.0
 40
0.0
 40
0.0
 40
0.1168506833060931
 40
0.2277777179813738
 40
0.333357671914386
 40
0.4342321433812361
 40
0.5310662406106772
 40
0.6245335881736258
 40
0.7153099341900644
 40
0.8040650585737852
 40
0.8914587304203045
 40
0.9781434848276619
 40
1.064766801351772
 40
1.15197041669732
 40
1.15197041669732
 40
1.15197041669732
 40
1.15197041669732
 10
-214.0485593695959
 20
-70.77703278186104
 30
0.0
 10
-214.0377807089608
 20
-70.73960363922932
 30
0.0
 10
-214.01947913976
 20
-70.66582430889877
 30
0.0
 10
-214.0012157476221
 20
-70.55610439433476
 30
0.0
 10
-213.992203452009
 20
-70.45057930006009
 30
0.0
 10
-213.9917953353017
 20
-70.3493715838613
 30
0.0
 10
-213.9994015323862
 20
-70.25249986297004
 30
0.0
 10
-214.0145088158806
 20
-70.15992221392366
 30
0.0
 10
-214.0366889175496
 20
-70.07155568053121
 30
0.0
 10
-214.0656034190268
 20
-69.9872972010331
 30
0.0
 10
-214.1010037360935
 20
-69.90704203706741
 30
0.0
 10
-214.1427317422508
 20
-69.83069595892654
 30
0.0
 10
-214.1907081822281
 20
-69.75819826056862
 30
0.0
 10
-214.2266660621484
 20
-69.71266235699612
 30
0.0
 10
-214.2456040977958
 20
-69.69061032816103
 30
0.0
 11
-214.0485593695959
 21
-70.77703278186104
 31
0.0
 11
-214.0205355041958
 21
-70.66359229016104
 31
0.0
 11
-214.0024226545958
 21
-70.55415403496104
 31
0.0
 11
-213.9935303589957
 21
-70.44894921686102
 31
0.0
 11
-213.9932036196958
 21
-70.34807527456101
 31
0.0
 11
-214.0008506810958
 21
-70.25154359666103
 31
0.0
 11
-214.0159573243958
 21
-70.15930513186103
 31
0.0
 11
-214.0380960025958
 21
-70.07126977576104
 31
0.0
 11
-214.0669298576958
 21
-69.98732883876101
 31
0.0
 11
-214.1022124583958
 21
-69.90737390166103
 31
0.0
 11
-214.1437865845958
 21
-69.83130920106103
 31
0.0
 11
-214.1915811148958
 21
-69.75906460376103
 31
0.0
 11
-214.2456040977958
 21
-69.69061032816103
 31
0.0
  0
SPLINE
  5
1456
330
19
100
AcDbEntity
  8
1
 62
     4
100
AcDbSpline
210
0.0
220
0.0
230
1.0
 70
     8
 71
     3
 72
    14
 73
    10
 74
     8
 42
0.0000000001
 43
0.0000000001
 44
0.0000000001
 12
-1.0
 22
0.0000000000000001
 32
0.0
 13
-0.9999444820340222
 23
0.0105372126158241
 33
0.0
 40
0.0
 40
0.0
 40
0.0
 40
0.0
 40
0.0405582968008566
 40
0.080901521099667
 40
0.1203957111594028
 40
0.158446380353087
 40
0.1948786353861822
 40
0.2294838641296207
 40
0.2616956788786682
 40
0.2616956788786682
 40
0.2616956788786682
 40
0.2616956788786682
 10
-212.6272054794958
 20
-78.24613108246103
 30
0.0
 10
-212.6407249117628
 20
-78.24613108246103
 30
0.0
 10
-212.6676920854669
 20
-78.24613125725068
 30
0.0
 10
-212.7078239891629
 20
-78.24612890639842
 30
0.0
 10
-212.7471200159495
 20
-78.24611458412384
 30
0.0
 10
-212.7851123701283
 20
-78.24607336570072
 30
0.0
 10
-212.82147500127
 20
-78.24598559766029
 30
0.0
 10
-212.8558911030737
 20
-78.24582740420485
 30
0.0
 10
-212.8781628263243
 20
-78.24565026177461
 30
0.0
 10
-212.8888995017958
 20
-78.24553712086103
 30
0.0
 11
-212.6272054794958
 21
-78.24613108246103
 31
0.0
 11
-212.6677637762958
 21
-78.24613081676102
 31
0.0
 11
-212.7081070003958
 21
-78.24612681116104
 31
0.0
 11
-212.7476011866958
 21
-78.24610957826104
 31
0.0
 11
-212.7856518287959
 21
-78.24606417056102
 31
0.0
 11
-212.8220839634958
 21
-78.24597053296102
 31
0.0
 11
-212.8566887899959
 21
-78.24580368186104
 31
0.0
 11
-212.8888995017958
 21
-78.24553712086103
 31
0.0
  0
SPLINE
  5
1457
330
19
100
AcDbEntity
  8
1
 62
     4
100
AcDbSpline
210
0.0
220
0.0
230
1.0
 70
     8
 71
     3
 72
    11
 73
     7
 74
     5
 42
0.0000000001
 43
0.0000000001
 44
0.0000000001
 12
-0.999861525603085
 22
0.0166412024406691
 32
0.0
 13
-0.9959353829885737
 23
0.0900705995950018
 33
0.0
 40
0.0
 40
0.0
 40
0.0
 40
0.0
 40
0.0263161415859068
 40
0.049475075276072
 40
0.0691062808891596
 40
0.0849380023875678
 40
0.0849380023875678
 40
0.0849380023875678
 40
0.0849380023875678
 10
-212.9182249208958
 20
-78.24514541416104
 30
0.0
 10
-212.9269957533871
 20
-78.24499943674784
 30
0.0
 10
-212.9434843264816
 20
-78.24466947895711
 30
0.0
 10
-212.9665099232112
 20
-78.24397225153702
 30
0.0
 10
-212.9860309636721
 20
-78.243083562778
 30
0.0
 10
-212.9978267372578
 20
-78.24227585957702
 30
0.0
 10
-213.0030825277958
 20
-78.24180053536102
 30
0.0
 11
-212.9182249208958
 21
-78.24514541416104
 31
0.0
 11
-212.9445354212958
 21
-78.24460055026102
 31
0.0
 11
-212.9676829272958
 21
-78.24387310566104
 31
0.0
 11
-212.9872920960958
 21
-78.24294319556102
 31
0.0
 11
-213.0030825277958
 21
-78.24180053536102
 31
0.0
  0
SPLINE
  5
1458
330
19
100
AcDbEntity
  8
1
 62
     4
100
AcDbSpline
210
0.0
220
0.0
230
1.0
 70
     8
 71
     3
 72
    16
 73
    12
 74
    10
 42
0.0000000001
 43
0.0000000001
 44
0.0000000001
 12
-1.0
 22
0.0000000000000001
 32
0.0
 13
0.2767290789728203
 23
0.9609479782229913
 33
0.0
 40
0.0
 40
0.0
 40
0.0
 40
0.0
 40
0.0065016876000866
 40
0.012494858636379
 40
0.0187681821165173
 40
0.0258750593743195
 40
0.0341163313473817
 40
0.0436050487148858
 40
0.0544050721063758
 40
0.0665669991873463
 40
0.0799286666237867
 40
0.0799286666237867
 40
0.0799286666237867
 40
0.0799286666237867
 10
-214.0349218753957
 20
-70.84613108236104
 30
0.0
 10
-214.0370891045957
 20
-70.84613108236104
 30
0.0
 10
-214.0413202658709
 20
-70.8455017583031
 30
0.0
 10
-214.0467795236336
 20
-70.84212223410393
 30
0.0
 10
-214.0506950771653
 20
-70.83683842966006
 30
0.0
 10
-214.0532589904509
 20
-70.8300373393115
 30
0.0
 10
-214.0546342001466
 20
-70.82183598288864
 30
0.0
 10
-214.0548685748299
 20
-70.81230547517879
 30
0.0
 10
-214.0539600139955
 20
-70.80150981881712
 30
0.0
 10
-214.0518816580239
 20
-70.78956864110248
 30
0.0
 10
-214.049791890237
 20
-70.78131273763061
 30
0.0
 10
-214.0485593695959
 20
-70.77703278186104
 30
0.0
 11
-214.0349218753957
 21
-70.84613108236104
 31
0.0
 11
-214.0413309076958
 21
-70.84503735176102
 31
0.0
 11
-214.0464381067958
 21
-70.84190133256104
 31
0.0
 11
-214.0502809295958
 21
-70.83694277426104
 31
0.0
 11
-214.0529164533958
 21
-70.83034264406103
 31
0.0
 11
-214.0543844932958
 21
-70.82223317906104
 31
0.0
 11
-214.0546970981958
 21
-70.81274961246103
 31
0.0
 11
-214.0538497174958
 21
-70.80198288356104
 31
0.0
 11
-214.0518074072958
 21
-70.78999366176103
 31
0.0
 11
-214.0485593695959
 21
-70.77703278186104
 31
0.0
  0
LINE
  5
1465
330
19
100
AcDbEntity
  8
SK3
100
AcDbLine
 10
-225.1186133602195
 20
-68.74613108236101
 30
0.0
 11
-225.1186133601897
 21
-71.74613108236101
 31
0.0
  0
LINE
  5
14E1
330
19
100
AcDbEntity
  8
4
100
AcDbLine
 10
-204.3604995219595
 20
-70.24613108236102
 30
0.0
 11
-260.9072884947958
 21
-70.24613108236102
 31
0.0
  0
MTEXT
  5
14E4
330
19
100
AcDbEntity
  8
SK6
100
AcDbMText
 10
-289.8578225204822
 20
-92.40387461139254
 30
0.0
 40
3.5
 41
29.64688158316562
 71
     1
 72
     5
  1
{\fMonospac821 BT|b0|i0|c0|p49;A760S31\P02594974}
  7
SIMPLEX
 73
     1
 44
1.0
1001
ACAD
1000
MTEXTBEGIN
1070
    73
1070
     1
1070
    44
1040
1.0
1070
    74
1070
     0
1000
MTEXTEND
  0
DIMENSION
  5
14E5
330
19
100
AcDbEntity
  8
SK2
100
AcDbDimension
  2
*D20
 10
-302.0486893225359
 20
-78.24613108236102
 30
0.0
 11
-304.7986893225359
 21
-70.24613108236106
 31
0.0
 70
    32
  1
%%C<>
 71
     5
 42
16.00000000000001
  3
V-TYGEN_-160
100
AcDbAlignedDimension
 13
-271.6572884947958
 23
-62.24613108236102
 33
0.0
 14
-289.9073184085958
 24
-78.24613108236102
 34
0.0
 50
90.0
100
AcDbRotatedDimension
  0
DIMENSION
  5
14FB
330
19
100
AcDbEntity
  8
2
100
AcDbDimension
  2
*D21
 10
-207.4072884947958
 20
-43.31891871599384
 30
0.0
 11
-234.1572884947958
 21
-40.56891871599384
 31
0.0
 70
    32
 71
     5
 42
53.50000000000003
  3
V-TYGEN_-160
100
AcDbAlignedDimension
 13
-260.9072884947958
 23
-55.74613127126102
 33
0.0
 14
-207.4072884947958
 24
-64.60836966436104
 34
0.0
100
AcDbRotatedDimension
1001
ACAD
1000
DSTYLE
1002
{
1070
   271
1070
     1
1002
}
  0
DIMENSION
  5
1511
330
19
100
AcDbEntity
  8
2
100
AcDbDimension
  2
*D22
 10
-215.9072884947958
 20
-50.28039371754437
 30
0.0
 11
-235.9072884947958
 21
-47.53039371754437
 31
0.0
 70
    32
 71
     5
 42
40.0
  3
V-TYGEN_-160
100
AcDbAlignedDimension
 13
-255.9072884947958
 23
-55.74613158226103
 33
0.0
 14
-215.9072884947958
 24
-66.64613108236102
 34
0.0
100
AcDbRotatedDimension
  0
DIMENSION
  5
1530
330
19
100
AcDbEntity
  8
2
100
AcDbDimension
  2
*D23
 10
-194.4962391590616
 20
-66.34613108236104
 30
0.0
 11
-197.2462391590615
 21
-54.84613108236107
 31
0.0
 70
    32
 71
     5
 42
3.899999999999977
  3
V-TYGEN_-160
100
AcDbAlignedDimension
 13
-204.3604995219595
 23
-70.24613108236102
 33
0.0
 14
-216.2072884947958
 24
-66.34613108236104
 34
0.0
 50
90.0
100
AcDbRotatedDimension
1001
ACAD
1000
DSTYLE
1002
{
1070
   271
1070
     1
1002
}
  0
ENDSEC
  0
SECTION
  2
OBJECTS
  0
DICTIONARY
  5
C
330
0
100
AcDbDictionary
281
     1
  3
ACAD_COLOR
350
12B4
  3
ACAD_GROUP
350
D
  3
ACAD_LAYOUT
350
A85
  3
ACAD_MATERIAL
350
128A
  3
ACAD_MLEADERSTYLE
350
12D9
  3
ACAD_MLINESTYLE
350
E
  3
ACAD_PLOTSETTINGS
350
A86
  3
ACAD_PLOTSTYLENAME
350
E93
  3
ACAD_SCALELIST
350
12B7
  3
ACAD_TABLESTYLE
350
12B5
  3
ACAD_VISUALSTYLE
350
12A3
  3
ACDB_RECOMPOSE_DATA
350
15B1
  3
AcDbVariableDictionary
350
15A8
  3
DWGPROPS
350
15B2
1001
ACAD
1000
TREAT_AS_HARD
1070
     0
  0
DICTIONARY
  5
134A
330
2
100
AcDbDictionary
280
     1
281
     1
  3
ACAD_LAYERSTATES
360
134B
  0
DICTIONARY
  5
158A
330
F
100
AcDbDictionary
280
     1
281
     1
  3
ADSK_XREC_LAYER_RECONCILED
360
158B
  0
DICTIONARY
  5
158C
330
1E
100
AcDbDictionary
280
     1
281
     1
  3
ADSK_XREC_LAYER_RECONCILED
360
158D
  0
DICTIONARY
  5
158E
330
22
100
AcDbDictionary
280
     1
281
     1
  3
ADSK_XREC_LAYER_RECONCILED
360
158F
  0
DICTIONARY
  5
1590
330
23
100
AcDbDictionary
280
     1
281
     1
  3
ADSK_XREC_LAYER_RECONCILED
360
1591
  0
DICTIONARY
  5
1592
330
24
100
AcDbDictionary
280
     1
281
     1
  3
ADSK_XREC_LAYER_RECONCILED
360
1593
  0
DICTIONARY
  5
1594
330
25
100
AcDbDictionary
280
     1
281
     1
  3
ADSK_XREC_LAYER_RECONCILED
360
1595
  0
DICTIONARY
  5
1596
330
26
100
AcDbDictionary
280
     1
281
     1
  3
ADSK_XREC_LAYER_RECONCILED
360
1597
  0
DICTIONARY
  5
1598
330
27
100
AcDbDictionary
280
     1
281
     1
  3
ADSK_XREC_LAYER_RECONCILED
360
1599
  0
DICTIONARY
  5
159A
330
28
100
AcDbDictionary
280
     1
281
     1
  3
ADSK_XREC_LAYER_RECONCILED
360
159B
  0
DICTIONARY
  5
159C
330
29
100
AcDbDictionary
280
     1
281
     1
  3
ADSK_XREC_LAYER_RECONCILED
360
159D
  0
DICTIONARY
  5
159E
330
2A
100
AcDbDictionary
280
     1
281
     1
  3
ADSK_XREC_LAYER_RECONCILED
360
159F
  0
DICTIONARY
  5
15A0
330
2B
100
AcDbDictionary
280
     1
281
     1
  3
ADSK_XREC_LAYER_RECONCILED
360
15A1
  0
DICTIONARY
  5
15A2
330
2C
100
AcDbDictionary
280
     1
281
     1
  3
ADSK_XREC_LAYER_RECONCILED
360
15A3
  0
DICTIONARY
  5
15A4
330
2D
100
AcDbDictionary
280
     1
281
     1
  3
ADSK_XREC_LAYER_RECONCILED
360
15A5
  0
DICTIONARY
  5
15A6
330
C07
100
AcDbDictionary
280
     1
281
     1
  3
ADSK_XREC_LAYER_RECONCILED
360
15A7
  0
DICTIONARY
  5
E8D
330
19
100
AcDbDictionary
280
     1
281
     1
  0
DICTIONARY
  5
E8B
330
16
100
AcDbDictionary
280
     1
281
     1
  0
DICTIONARY
  5
12B4
102
{ACAD_REACTORS
330
C
102
}
330
C
100
AcDbDictionary
281
     1
  0
DICTIONARY
  5
D
102
{ACAD_REACTORS
330
C
102
}
330
C
100
AcDbDictionary
281
     1
1001
ACAD
1000
TREAT_AS_HARD
1070
     0
  0
DICTIONARY
  5
A85
102
{ACAD_REACTORS
330
C
102
}
330
C
100
AcDbDictionary
281
     1
  3
Layout1
350
E96
  3
Model
350
E95
1001
ACAD
1000
TREAT_AS_HARD
1070
     0
  0
DICTIONARY
  5
128A
102
{ACAD_REACTORS
330
C
102
}
330
C
100
AcDbDictionary
281
     1
  3
ByBlock
350
1293
  3
ByLayer
350
128B
  3
Global
350
129B
  0
DICTIONARY
  5
12D9
102
{ACAD_REACTORS
330
C
102
}
330
C
100
AcDbDictionary
281
     1
  3
Standard
350
12DA
  0
DICTIONARY
  5
E
102
{ACAD_REACTORS
330
C
102
}
330
C
100
AcDbDictionary
281
     1
  3
STANDARD
350
1C
1001
ACAD
1000
TREAT_AS_HARD
1070
     0
  0
DICTIONARY
  5
A86
102
{ACAD_REACTORS
330
C
102
}
330
C
100
AcDbDictionary
281
     1
1001
ACAD
1000
TREAT_AS_HARD
1070
     0
  0
ACDBDICTIONARYWDFLT
  5
E93
102
{ACAD_REACTORS
330
C
102
}
330
C
100
AcDbDictionary
281
     1
  3
Normal
350
E94
100
AcDbDictionaryWithDefault
340
E94
  0
DICTIONARY
  5
12B7
102
{ACAD_REACTORS
330
C
102
}
330
C
100
AcDbDictionary
281
     1
  3
A0
350
12B8
  3
A1
350
12B9
  3
A2
350
12BA
  3
A3
350
12BB
  3
A4
350
12BC
  3
A5
350
12BD
  3
A6
350
12BE
  3
A7
350
12BF
  3
A8
350
12C0
  3
A9
350
12C1
  3
B0
350
12C2
  3
B1
350
12C3
  3
B2
350
12C4
  3
B3
350
12C5
  3
B4
350
12C6
  3
B5
350
12C7
  3
B6
350
12C8
  3
B7
350
12C9
  3
B8
350
12CA
  3
B9
350
12CB
  3
C0
350
12CC
  3
C1
350
12CD
  3
C2
350
12CE
  3
C3
350
12CF
  3
C4
350
12D0
  3
C5
350
12D1
  3
C6
350
12D2
  3
C7
350
12D3
  3
C8
350
12D4
  3
C9
350
12D5
  3
D0
350
12D6
  3
D1
350
12D7
  3
D2
350
12D8
  0
DICTIONARY
  5
12B5
102
{ACAD_REACTORS
330
C
102
}
330
C
100
AcDbDictionary
281
     1
  3
Standard
350
12B6
  0
DICTIONARY
  5
12A3
102
{ACAD_REACTORS
330
C
102
}
330
C
100
AcDbDictionary
281
     1
  3
2dWireframe
350
12A9
  3
3D Hidden
350
12AB
  3
3dWireframe
350
12AA
  3
Basic
350
12A8
  3
Brighten
350
12AF
  3
ColorChange
350
12B3
  3
Conceptual
350
12AC
  3
Dim
350
12AE
  3
Facepattern
350
12B2
  3
Flat
350
12A4
  3
FlatWithEdges
350
12A5
  3
Gouraud
350
12A6
  3
GouraudWithEdges
350
12A7
  3
Linepattern
350
12B1
  3
Realistic
350
12AD
  3
Thicken
350
12B0
  0
XRECORD
  5
15B1
102
{ACAD_REACTORS
330
C
102
}
330
C
100
AcDbXrecord
280
     1
 90
        1
330
12B6
  0
DICTIONARY
  5
15A8
102
{ACAD_REACTORS
330
C
102
}
330
C
100
AcDbDictionary
281
     1
  3
CANNOSCALE
350
15AB
  3
CMLEADERSTYLE
350
15AA
  3
CTABLESTYLE
350
15A9
  3
DIMASSOC
350
15AE
  3
INDEXCTL
350
15AD
  3
SORTENTS
350
15AC
  0
XRECORD
  5
15B2
102
{ACAD_REACTORS
330
C
102
}
330
C
100
AcDbXrecord
280
     1
  1
DWGPROPS COOKIE
  2

  3

  4

  6

  7

  8
inpunvijd
  9

300
=
301
=
302
=
303
=
304
=
305
=
306
=
307
=
308
=
309
=
 40
0.0040259953703704
 41
2455621.661629815
 42
2455621.665655451
  1

 90
        0
  0
DICTIONARY
  5
134B
102
{ACAD_REACTORS
330
134A
102
}
330
134A
100
AcDbDictionary
281
     1
  0
XRECORD
  5
158B
102
{ACAD_REACTORS
330
158A
102
}
330
158A
100
AcDbXrecord
280
     1
290
     1
  0
XRECORD
  5
158D
102
{ACAD_REACTORS
330
158C
102
}
330
158C
100
AcDbXrecord
280
     1
290
     1
  0
XRECORD
  5
158F
102
{ACAD_REACTORS
330
158E
102
}
330
158E
100
AcDbXrecord
280
     1
290
     1
  0
XRECORD
  5
1591
102
{ACAD_REACTORS
330
1590
102
}
330
1590
100
AcDbXrecord
280
     1
290
     1
  0
XRECORD
  5
1593
102
{ACAD_REACTORS
330
1592
102
}
330
1592
100
AcDbXrecord
280
     1
290
     1
  0
XRECORD
  5
1595
102
{ACAD_REACTORS
330
1594
102
}
330
1594
100
AcDbXrecord
280
     1
290
     1
  0
XRECORD
  5
1597
102
{ACAD_REACTORS
330
1596
102
}
330
1596
100
AcDbXrecord
280
     1
290
     1
  0
XRECORD
  5
1599
102
{ACAD_REACTORS
330
1598
102
}
330
1598
100
AcDbXrecord
280
     1
290
     1
  0
XRECORD
  5
159B
102
{ACAD_REACTORS
330
159A
102
}
330
159A
100
AcDbXrecord
280
     1
290
     1
  0
XRECORD
  5
159D
102
{ACAD_REACTORS
330
159C
102
}
330
159C
100
AcDbXrecord
280
     1
290
     1
  0
XRECORD
  5
159F
102
{ACAD_REACTORS
330
159E
102
}
330
159E
100
AcDbXrecord
280
     1
290
     1
  0
XRECORD
  5
15A1
102
{ACAD_REACTORS
330
15A0
102
}
330
15A0
100
AcDbXrecord
280
     1
290
     1
  0
XRECORD
  5
15A3
102
{ACAD_REACTORS
330
15A2
102
}
330
15A2
100
AcDbXrecord
280
     1
290
     1
  0
XRECORD
  5
15A5
102
{ACAD_REACTORS
330
15A4
102
}
330
15A4
100
AcDbXrecord
280
     1
290
     1
  0
XRECORD
  5
15A7
102
{ACAD_REACTORS
330
15A6
102
}
330
15A6
100
AcDbXrecord
280
     1
290
     1
  0
LAYOUT
  5
E96
102
{ACAD_XDICTIONARY
360
15B5
102
}
102
{ACAD_REACTORS
330
A85
102
}
330
A85
100
AcDbPlotSettings
  1

  2
\\SECO_TOOLS\Q_HP8100_WMM.LANDSKAP.PL1.HUS_A.FAGERSTA.SE.SECO_TOOLS
  4

  6

 40
0.0
 41
0.0
 42
0.0
 43
0.0
 44
0.0
 45
0.0
 46
0.0
 47
0.0
 48
0.0
 49
0.0
140
0.0
141
0.0
142
1.0
143
1.0
 70
   688
 72
     0
 73
     0
 74
     5
  7

 75
    16
147
1.0
148
0.0
149
0.0
100
AcDbLayout
  1
Layout1
 70
     0
 71
     1
 10
0.0
 20
0.0
 11
12.0
 21
9.0
 12
0.0
 22
0.0
 32
0.0
 14
1.000000000000000E+20
 24
1.000000000000000E+20
 34
1.000000000000000E+20
 15
-1.000000000000000E+20
 25
-1.000000000000000E+20
 35
-1.000000000000000E+20
146
0.0
 13
0.0
 23
0.0
 33
0.0
 16
1.0
 26
0.0
 36
0.0
 17
0.0
 27
1.0
 37
0.0
 76
     0
330
16
  0
LAYOUT
  5
E95
102
{ACAD_XDICTIONARY
360
15B3
102
}
102
{ACAD_REACTORS
330
A85
102
}
330
A85
100
AcDbPlotSettings
  1

  2
\\SECO_TOOLS\Q_HP8100_WMM.LANDSKAP.PL1.HUS_A.FAGERSTA.SE.SECO_TOOLS
  4

  6

 40
0.0
 41
0.0
 42
0.0
 43
0.0
 44
0.0
 45
0.0
 46
0.0
 47
0.0
 48
0.0
 49
0.0
140
0.0
141
0.0
142
1.0
143
1.0
 70
  1712
 72
     0
 73
     0
 74
     0
  7

 75
     0
147
1.0
148
0.0
149
0.0
100
AcDbLayout
  1
Model
 70
     1
 71
     0
 10
0.0
 20
0.0
 11
12.0
 21
9.0
 12
0.0
 22
0.0
 32
0.0
 14
0.0
 24
0.0
 34
0.0
 15
0.0
 25
0.0
 35
0.0
146
0.0
 13
0.0
 23
0.0
 33
0.0
 16
1.0
 26
0.0
 36
0.0
 17
0.0
 27
1.0
 37
0.0
 76
     0
330
19
331
1288
  0
MATERIAL
  5
1293
102
{ACAD_XDICTIONARY
360
1294
102
}
102
{ACAD_REACTORS
330
128A
102
}
330
128A
100
AcDbMaterial
  1
ByBlock
 72
     0
 43
0.0208333333333333
 43
0.0
 43
0.0
 43
0.0
 43
0.0
 43
0.0208333333333333
 43
0.0
 43
0.0
 43
0.0
 43
0.0
 43
1.0
 43
0.0
 43
0.0
 43
0.0
 43
0.0
 43
1.0
 77
     0
 47
0.0208333333333333
 47
0.0
 47
0.0
 47
0.0
 47
0.0
 47
0.0208333333333333
 47
0.0
 47
0.0
 47
0.0
 47
0.0
 47
1.0
 47
0.0
 47
0.0
 47
0.0
 47
0.0
 47
1.0
171
     0
 49
0.0208333333333333
 49
0.0
 49
0.0
 49
0.0
 49
0.0
 49
0.0208333333333333
 49
0.0
 49
0.0
 49
0.0
 49
0.0
 49
1.0
 49
0.0
 49
0.0
 49
0.0
 49
0.0
 49
1.0
175
     0
142
0.0208333333333333
142
0.0
142
0.0
142
0.0
142
0.0
142
0.0208333333333333
142
0.0
142
0.0
142
0.0
142
0.0
142
1.0
142
0.0
142
0.0
142
0.0
142
0.0
142
1.0
179
     0
144
0.0208333333333333
144
0.0
144
0.0
144
0.0
144
0.0
144
0.0208333333333333
144
0.0
144
0.0
144
0.0
144
0.0
144
1.0
144
0.0
144
0.0
144
0.0
144
0.0
144
1.0
147
0.0208333333333333
147
0.0
147
0.0
147
0.0
147
0.0
147
0.0208333333333333
147
0.0
147
0.0
147
0.0
147
0.0
147
1.0
147
0.0
147
0.0
147
0.0
147
0.0
147
1.0
  0
MATERIAL
  5
128B
102
{ACAD_XDICTIONARY
360
128C
102
}
102
{ACAD_REACTORS
330
128A
102
}
330
128A
100
AcDbMaterial
  1
ByLayer
 72
     0
 43
0.0208333333333333
 43
0.0
 43
0.0
 43
0.0
 43
0.0
 43
0.0208333333333333
 43
0.0
 43
0.0
 43
0.0
 43
0.0
 43
1.0
 43
0.0
 43
0.0
 43
0.0
 43
0.0
 43
1.0
 77
     0
 47
0.0208333333333333
 47
0.0
 47
0.0
 47
0.0
 47
0.0
 47
0.0208333333333333
 47
0.0
 47
0.0
 47
0.0
 47
0.0
 47
1.0
 47
0.0
 47
0.0
 47
0.0
 47
0.0
 47
1.0
171
     0
 49
0.0208333333333333
 49
0.0
 49
0.0
 49
0.0
 49
0.0
 49
0.0208333333333333
 49
0.0
 49
0.0
 49
0.0
 49
0.0
 49
1.0
 49
0.0
 49
0.0
 49
0.0
 49
0.0
 49
1.0
175
     0
142
0.0208333333333333
142
0.0
142
0.0
142
0.0
142
0.0
142
0.0208333333333333
142
0.0
142
0.0
142
0.0
142
0.0
142
1.0
142
0.0
142
0.0
142
0.0
142
0.0
142
1.0
179
     0
144
0.0208333333333333
144
0.0
144
0.0
144
0.0
144
0.0
144
0.0208333333333333
144
0.0
144
0.0
144
0.0
144
0.0
144
1.0
144
0.0
144
0.0
144
0.0
144
0.0
144
1.0
147
0.0208333333333333
147
0.0
147
0.0
147
0.0
147
0.0
147
0.0208333333333333
147
0.0
147
0.0
147
0.0
147
0.0
147
1.0
147
0.0
147
0.0
147
0.0
147
0.0
147
1.0
  0
MATERIAL
  5
129B
102
{ACAD_XDICTIONARY
360
129C
102
}
102
{ACAD_REACTORS
330
128A
102
}
330
128A
100
AcDbMaterial
  1
Global
 72
     0
 43
0.0208333333333333
 43
0.0
 43
0.0
 43
0.0
 43
0.0
 43
0.0208333333333333
 43
0.0
 43
0.0
 43
0.0
 43
0.0
 43
1.0
 43
0.0
 43
0.0
 43
0.0
 43
0.0
 43
1.0
 77
     0
 47
0.0208333333333333
 47
0.0
 47
0.0
 47
0.0
 47
0.0
 47
0.0208333333333333
 47
0.0
 47
0.0
 47
0.0
 47
0.0
 47
1.0
 47
0.0
 47
0.0
 47
0.0
 47
0.0
 47
1.0
171
     0
 49
0.0208333333333333
 49
0.0
 49
0.0
 49
0.0
 49
0.0
 49
0.0208333333333333
 49
0.0
 49
0.0
 49
0.0
 49
0.0
 49
1.0
 49
0.0
 49
0.0
 49
0.0
 49
0.0
 49
1.0
175
     0
142
0.0208333333333333
142
0.0
142
0.0
142
0.0
142
0.0
142
0.0208333333333333
142
0.0
142
0.0
142
0.0
142
0.0
142
1.0
142
0.0
142
0.0
142
0.0
142
0.0
142
1.0
179
     0
144
0.0208333333333333
144
0.0
144
0.0
144
0.0
144
0.0
144
0.0208333333333333
144
0.0
144
0.0
144
0.0
144
0.0
144
1.0
144
0.0
144
0.0
144
0.0
144
0.0
144
1.0
147
0.0208333333333333
147
0.0
147
0.0
147
0.0
147
0.0
147
0.0208333333333333
147
0.0
147
0.0
147
0.0
147
0.0
147
1.0
147
0.0
147
0.0
147
0.0
147
0.0
147
1.0
  0
MLEADERSTYLE
  5
12DA
102
{ACAD_REACTORS
330
12D9
102
}
330
12D9
100
AcDbMLeaderStyle
170
     2
171
     1
172
     0
 90
        2
 40
0.0
 41
0.0
173
     1
 91
-1056964608
340
13
 92
       -2
290
     1
 42
2.0
291
     1
 43
0.36
  3
Standard
 44
4.0
300

342
10
174
     1
178
     6
175
     1
176
     0
 93
-1056964608
 45
4.0
292
     0
297
     0
 46
4.0
 94
-1056964608
 47
1.0
 49
1.0
140
1.0
293
     1
141
0.0
294
     1
177
     0
142
1.0
295
     0
296
     0
143
0.125
1001
ACAD_MLEADERVER
1070
     2
  0
MLINESTYLE
  5
1C
102
{ACAD_REACTORS
330
E
102
}
330
E
100
AcDbMlineStyle
  2
STANDARD
 70
     0
  3

 62
     0
 51
90.0
 52
90.0
 71
     2
 49
0.5
 62
   256
  6
BYLAYER
 49
-0.5
 62
   256
  6
BYLAYER
  0
ACDBPLACEHOLDER
  5
E94
102
{ACAD_REACTORS
330
E93
102
}
330
E93
  0
SCALE
  5
12B8
102
{ACAD_REACTORS
330
12B7
102
}
330
12B7
100
AcDbScale
 70
     0
300
1:1
140
1.0
141
1.0
290
     1
  0
SCALE
  5
12B9
102
{ACAD_REACTORS
330
12B7
102
}
330
12B7
100
AcDbScale
 70
     0
300
1:2
140
1.0
141
2.0
290
     0
  0
SCALE
  5
12BA
102
{ACAD_REACTORS
330
12B7
102
}
330
12B7
100
AcDbScale
 70
     0
300
1:4
140
1.0
141
4.0
290
     0
  0
SCALE
  5
12BB
102
{ACAD_REACTORS
330
12B7
102
}
330
12B7
100
AcDbScale
 70
     0
300
1:5
140
1.0
141
5.0
290
     0
  0
SCALE
  5
12BC
102
{ACAD_REACTORS
330
12B7
102
}
330
12B7
100
AcDbScale
 70
     0
300
1:8
140
1.0
141
8.0
290
     0
  0
SCALE
  5
12BD
102
{ACAD_REACTORS
330
12B7
102
}
330
12B7
100
AcDbScale
 70
     0
300
1:10
140
1.0
141
10.0
290
     0
  0
SCALE
  5
12BE
102
{ACAD_REACTORS
330
12B7
102
}
330
12B7
100
AcDbScale
 70
     0
300
1:16
140
1.0
141
16.0
290
     0
  0
SCALE
  5
12BF
102
{ACAD_REACTORS
330
12B7
102
}
330
12B7
100
AcDbScale
 70
     0
300
1:20
140
1.0
141
20.0
290
     0
  0
SCALE
  5
12C0
102
{ACAD_REACTORS
330
12B7
102
}
330
12B7
100
AcDbScale
 70
     0
300
1:30
140
1.0
141
30.0
290
     0
  0
SCALE
  5
12C1
102
{ACAD_REACTORS
330
12B7
102
}
330
12B7
100
AcDbScale
 70
     0
300
1:40
140
1.0
141
40.0
290
     0
  0
SCALE
  5
12C2
102
{ACAD_REACTORS
330
12B7
102
}
330
12B7
100
AcDbScale
 70
     0
300
1:50
140
1.0
141
50.0
290
     0
  0
SCALE
  5
12C3
102
{ACAD_REACTORS
330
12B7
102
}
330
12B7
100
AcDbScale
 70
     0
300
1:100
140
1.0
141
100.0
290
     0
  0
SCALE
  5
12C4
102
{ACAD_REACTORS
330
12B7
102
}
330
12B7
100
AcDbScale
 70
     0
300
2:1
140
2.0
141
1.0
290
     0
  0
SCALE
  5
12C5
102
{ACAD_REACTORS
330
12B7
102
}
330
12B7
100
AcDbScale
 70
     0
300
4:1
140
4.0
141
1.0
290
     0
  0
SCALE
  5
12C6
102
{ACAD_REACTORS
330
12B7
102
}
330
12B7
100
AcDbScale
 70
     0
300
8:1
140
8.0
141
1.0
290
     0
  0
SCALE
  5
12C7
102
{ACAD_REACTORS
330
12B7
102
}
330
12B7
100
AcDbScale
 70
     0
300
10:1
140
10.0
141
1.0
290
     0
  0
SCALE
  5
12C8
102
{ACAD_REACTORS
330
12B7
102
}
330
12B7
100
AcDbScale
 70
     0
300
100:1
140
100.0
141
1.0
290
     0
  0
SCALE
  5
12C9
102
{ACAD_REACTORS
330
12B7
102
}
330
12B7
100
AcDbScale
 70
     0
300
1/128" = 1'-0"
140
0.0078125
141
12.0
290
     0
  0
SCALE
  5
12CA
102
{ACAD_REACTORS
330
12B7
102
}
330
12B7
100
AcDbScale
 70
     0
300
1/64" = 1'-0"
140
0.015625
141
12.0
290
     0
  0
SCALE
  5
12CB
102
{ACAD_REACTORS
330
12B7
102
}
330
12B7
100
AcDbScale
 70
     0
300
1/32" = 1'-0"
140
0.03125
141
12.0
290
     0
  0
SCALE
  5
12CC
102
{ACAD_REACTORS
330
12B7
102
}
330
12B7
100
AcDbScale
 70
     0
300
1/16" = 1'-0"
140
0.0625
141
12.0
290
     0
  0
SCALE
  5
12CD
102
{ACAD_REACTORS
330
12B7
102
}
330
12B7
100
AcDbScale
 70
     0
300
3/32" = 1'-0"
140
0.09375
141
12.0
290
     0
  0
SCALE
  5
12CE
102
{ACAD_REACTORS
330
12B7
102
}
330
12B7
100
AcDbScale
 70
     0
300
1/8" = 1'-0"
140
0.125
141
12.0
290
     0
  0
SCALE
  5
12CF
102
{ACAD_REACTORS
330
12B7
102
}
330
12B7
100
AcDbScale
 70
     0
300
3/16" = 1'-0"
140
0.1875
141
12.0
290
     0
  0
SCALE
  5
12D0
102
{ACAD_REACTORS
330
12B7
102
}
330
12B7
100
AcDbScale
 70
     0
300
1/4" = 1'-0"
140
0.25
141
12.0
290
     0
  0
SCALE
  5
12D1
102
{ACAD_REACTORS
330
12B7
102
}
330
12B7
100
AcDbScale
 70
     0
300
3/8" = 1'-0"
140
0.375
141
12.0
290
     0
  0
SCALE
  5
12D2
102
{ACAD_REACTORS
330
12B7
102
}
330
12B7
100
AcDbScale
 70
     0
300
1/2" = 1'-0"
140
0.5
141
12.0
290
     0
  0
SCALE
  5
12D3
102
{ACAD_REACTORS
330
12B7
102
}
330
12B7
100
AcDbScale
 70
     0
300
3/4" = 1'-0"
140
0.75
141
12.0
290
     0
  0
SCALE
  5
12D4
102
{ACAD_REACTORS
330
12B7
102
}
330
12B7
100
AcDbScale
 70
     0
300
1" = 1'-0"
140
1.0
141
12.0
290
     0
  0
SCALE
  5
12D5
102
{ACAD_REACTORS
330
12B7
102
}
330
12B7
100
AcDbScale
 70
     0
300
1-1/2" = 1'-0"
140
1.5
141
12.0
290
     0
  0
SCALE
  5
12D6
102
{ACAD_REACTORS
330
12B7
102
}
330
12B7
100
AcDbScale
 70
     0
300
3" = 1'-0"
140
3.0
141
12.0
290
     0
  0
SCALE
  5
12D7
102
{ACAD_REACTORS
330
12B7
102
}
330
12B7
100
AcDbScale
 70
     0
300
6" = 1'-0"
140
6.0
141
12.0
290
     0
  0
SCALE
  5
12D8
102
{ACAD_REACTORS
330
12B7
102
}
330
12B7
100
AcDbScale
 70
     0
300
1'-0" = 1'-0"
140
12.0
141
12.0
290
     0
  0
TABLESTYLE
  5
12B6
102
{ACAD_XDICTIONARY
360
15AF
102
}
102
{ACAD_REACTORS
330
12B5
102
}
330
12B5
100
AcDbTableStyle
  3
Standard
 70
     0
 71
     0
 40
1.5
 41
1.5
280
     0
281
     0
  7
STANDARD
140
4.5
170
     2
 62
     0
 63
     7
283
     0
274
    -2
284
     1
 64
     0
275
    -2
285
     1
 65
     0
276
    -2
286
     1
 66
     0
277
    -2
287
     1
 67
     0
278
    -2
288
     1
 68
     0
279
    -2
289
     1
 69
     0
  7
STANDARD
140
6.0
170
     5
 62
     0
 63
     7
283
     0
274
    -2
284
     1
 64
     0
275
    -2
285
     1
 65
     0
276
    -2
286
     1
 66
     0
277
    -2
287
     1
 67
     0
278
    -2
288
     1
 68
     0
279
    -2
289
     1
 69
     0
  7
STANDARD
140
4.5
170
     5
 62
     0
 63
     7
283
     0
274
    -2
284
     1
 64
     0
275
    -2
285
     1
 65
     0
276
    -2
286
     1
 66
     0
277
    -2
287
     1
 67
     0
278
    -2
288
     1
 68
     0
279
    -2
289
     1
 69
     0
  0
VISUALSTYLE
  5
12A9
102
{ACAD_REACTORS
330
12A3
102
}
330
12A3
100
AcDbVisualStyle
  2
2dWireframe
 70
     4
 71
     0
 72
     2
 73
     0
 90
        0
 40
-0.6
 41
-30.0
 62
     5
 63
     7
 74
     1
 91
        4
 64
     7
 65
   257
 75
     1
175
     1
 42
1.0
 92
        0
 66
   257
 43
1.0
 76
     1
 77
     6
 78
     2
 67
     7
 79
     5
170
     0
171
     0
290
     0
174
     0
 93
        1
 44
0.0
173
     0
291
     0
 45
0.0
1001
ACAD
1000
AcDbSavedByObjectVersion
1070
     0
  0
VISUALSTYLE
  5
12AB
102
{ACAD_REACTORS
330
12A3
102
}
330
12A3
100
AcDbVisualStyle
  2
3D Hidden
 70
     6
 71
     1
 72
     2
 73
     2
 90
        0
 40
-0.6
 41
-30.0
 62
     5
 63
     7
 74
     2
 91
        2
 64
     7
 65
   257
 75
     2
175
     1
 42
40.0
 92
        0
 66
   257
 43
1.0
 76
     1
 77
     6
 78
     2
 67
     7
 79
     3
170
     0
171
     0
290
     0
174
     0
 93
        1
 44
0.0
173
     0
291
     0
 45
0.0
1001
ACAD
1000
AcDbSavedByObjectVersion
1070
     0
  0
VISUALSTYLE
  5
12AA
102
{ACAD_REACTORS
330
12A3
102
}
330
12A3
100
AcDbVisualStyle
  2
3dWireframe
 70
     5
 71
     0
 72
     2
 73
     0
 90
        0
 40
-0.6
 41
-30.0
 62
     5
 63
     7
 74
     1
 91
        4
 64
     7
 65
   257
 75
     1
175
     1
 42
1.0
 92
        0
 66
   257
 43
1.0
 76
     1
 77
     6
 78
     2
 67
     7
 79
     5
170
     0
171
     0
290
     0
174
     0
 93
        1
 44
0.0
173
     0
291
     0
 45
0.0
1001
ACAD
1000
AcDbSavedByObjectVersion
1070
     0
  0
VISUALSTYLE
  5
12A8
102
{ACAD_REACTORS
330
12A3
102
}
330
12A3
100
AcDbVisualStyle
  2
Basic
 70
     7
 71
     1
 72
     0
 73
     1
 90
        0
 40
-0.6
 41
-30.0
 62
     5
 63
     7
 74
     0
 91
        4
 64
     7
 65
   257
 75
     1
175
     1
 42
1.0
 92
        8
 66
     7
 43
1.0
 76
     1
 77
     6
 78
     2
 67
     7
 79
     5
170
     0
171
     0
290
     0
174
     0
 93
        1
 44
0.0
173
     0
291
     1
 45
0.0
1001
ACAD
1000
AcDbSavedByObjectVersion
1070
     0
  0
VISUALSTYLE
  5
12AF
102
{ACAD_REACTORS
330
12A3
102
}
330
12A3
100
AcDbVisualStyle
  2
Brighten
 70
    12
 71
     2
 72
     2
 73
     0
 90
        0
 40
-0.6
 41
-30.0
 62
     5
 63
     7
 74
     1
 91
        4
 64
     7
 65
   257
 75
     1
175
     1
 42
1.0
 92
        8
 66
     7
 43
1.0
 76
     1
 77
     6
 78
     2
 67
     7
 79
     5
170
     0
171
     0
290
     0
174
     0
 93
        1
 44
50.0
173
     0
291
     1
 45
0.0
1001
ACAD
1000
AcDbSavedByObjectVersion
1070
     0
  0
VISUALSTYLE
  5
12B3
102
{ACAD_REACTORS
330
12A3
102
}
330
12A3
100
AcDbVisualStyle
  2
ColorChange
 70
    16
 71
     2
 72
     2
 73
     3
 90
        0
 40
-0.6
 41
-30.0
 62
     5
 63
     8
 74
     1
 91
        4
 64
     7
 65
   257
 75
     1
175
     1
 42
1.0
 92
        8
 66
     8
 43
1.0
 76
     1
 77
     6
 78
     2
 67
     7
 79
     5
170
     0
171
     0
290
     0
174
     0
 93
        1
 44
0.0
173
     0
291
     1
 45
0.0
1001
ACAD
1000
AcDbSavedByObjectVersion
1070
     0
  0
VISUALSTYLE
  5
12AC
102
{ACAD_REACTORS
330
12A3
102
}
330
12A3
100
AcDbVisualStyle
  2
Conceptual
 70
     9
 71
     3
 72
     2
 73
     0
 90
        0
 40
-0.6
 41
-30.0
 62
     5
 63
     7
 74
     2
 91
        2
 64
     7
 65
   257
 75
     1
175
     1
 42
40.0
 92
        8
 66
     7
 43
1.0
 76
     1
 77
     6
 78
     2
 67
     7
 79
     3
170
     0
171
     0
290
     0
174
     0
 93
        1
 44
0.0
173
     0
291
     0
 45
0.0
1001
ACAD
1000
AcDbSavedByObjectVersion
1070
     0
  0
VISUALSTYLE
  5
12AE
102
{ACAD_REACTORS
330
12A3
102
}
330
12A3
100
AcDbVisualStyle
  2
Dim
 70
    11
 71
     2
 72
     2
 73
     0
 90
        0
 40
-0.6
 41
-30.0
 62
     5
 63
     7
 74
     1
 91
        4
 64
     7
 65
   257
 75
     1
175
     1
 42
1.0
 92
        8
 66
     7
 43
1.0
 76
     1
 77
     6
 78
     2
 67
     7
 79
     5
170
     0
171
     0
290
     0
174
     0
 93
        1
 44
-50.0
173
     0
291
     1
 45
0.0
1001
ACAD
1000
AcDbSavedByObjectVersion
1070
     0
  0
VISUALSTYLE
  5
12B2
102
{ACAD_REACTORS
330
12A3
102
}
330
12A3
100
AcDbVisualStyle
  2
Facepattern
 70
    15
 71
     2
 72
     2
 73
     0
 90
        0
 40
-0.6
 41
-30.0
 62
     5
 63
     7
 74
     1
 91
        4
 64
     7
 65
   257
 75
     1
175
     1
 42
1.0
 92
        8
 66
     7
 43
1.0
 76
     1
 77
     6
 78
     2
 67
     7
 79
     5
170
     0
171
     0
290
     0
174
     0
 93
        1
 44
0.0
173
     0
291
     1
 45
0.0
1001
ACAD
1000
AcDbSavedByObjectVersion
1070
     0
  0
VISUALSTYLE
  5
12A4
102
{ACAD_REACTORS
330
12A3
102
}
330
12A3
100
AcDbVisualStyle
  2
Flat
 70
     0
 71
     2
 72
     1
 73
     1
 90
        2
 40
-0.6
 41
30.0
 62
     5
 63
     7
 74
     0
 91
        4
 64
     7
 65
   257
 75
     1
175
     1
 42
1.0
 92
        8
 66
     7
 43
1.0
 76
     1
 77
     6
 78
     2
 67
     7
 79
     5
170
     0
171
     0
290
     0
174
     0
 93
       13
 44
0.0
173
     0
291
     1
 45
0.0
1001
ACAD
1000
AcDbSavedByObjectVersion
1070
     0
  0
VISUALSTYLE
  5
12A5
102
{ACAD_REACTORS
330
12A3
102
}
330
12A3
100
AcDbVisualStyle
  2
FlatWithEdges
 70
     1
 71
     2
 72
     1
 73
     1
 90
        2
 40
-0.6
 41
30.0
 62
     5
 63
     7
 74
     1
 91
        4
 64
     7
 65
   257
 75
     1
175
     1
 42
1.0
 92
        0
 66
   257
 43
1.0
 76
     1
 77
     6
 78
     2
 67
     7
 79
     5
170
     0
171
     0
290
     0
174
     0
 93
       13
 44
0.0
173
     0
291
     1
 45
0.0
1001
ACAD
1000
AcDbSavedByObjectVersion
1070
     0
  0
VISUALSTYLE
  5
12A6
102
{ACAD_REACTORS
330
12A3
102
}
330
12A3
100
AcDbVisualStyle
  2
Gouraud
 70
     2
 71
     2
 72
     2
 73
     1
 90
        2
 40
-0.6
 41
30.0
 62
     5
 63
     7
 74
     0
 91
        4
 64
     7
 65
   257
 75
     1
175
     1
 42
1.0
 92
        0
 66
     7
 43
1.0
 76
     1
 77
     6
 78
     2
 67
     7
 79
     5
170
     0
171
     0
290
     0
174
     0
 93
       13
 44
0.0
173
     0
291
     1
 45
0.0
1001
ACAD
1000
AcDbSavedByObjectVersion
1070
     0
  0
VISUALSTYLE
  5
12A7
102
{ACAD_REACTORS
330
12A3
102
}
330
12A3
100
AcDbVisualStyle
  2
GouraudWithEdges
 70
     3
 71
     2
 72
     2
 73
     1
 90
        2
 40
-0.6
 41
30.0
 62
     5
 63
     7
 74
     1
 91
        4
 64
     7
 65
   257
 75
     1
175
     1
 42
1.0
 92
        0
 66
   257
 43
1.0
 76
     1
 77
     6
 78
     2
 67
     7
 79
     5
170
     0
171
     0
290
     0
174
     0
 93
       13
 44
0.0
173
     0
291
     1
 45
0.0
1001
ACAD
1000
AcDbSavedByObjectVersion
1070
     0
  0
VISUALSTYLE
  5
12B1
102
{ACAD_REACTORS
330
12A3
102
}
330
12A3
100
AcDbVisualStyle
  2
Linepattern
 70
    14
 71
     2
 72
     2
 73
     0
 90
        0
 40
-0.6
 41
-30.0
 62
     5
 63
     7
 74
     1
 91
        4
 64
     7
 65
   257
 75
     7
175
     7
 42
1.0
 92
        8
 66
     7
 43
1.0
 76
     1
 77
     6
 78
     2
 67
     7
 79
     5
170
     0
171
     0
290
     0
174
     0
 93
        1
 44
0.0
173
     0
291
     1
 45
0.0
1001
ACAD
1000
AcDbSavedByObjectVersion
1070
     0
  0
VISUALSTYLE
  5
12AD
102
{ACAD_REACTORS
330
12A3
102
}
330
12A3
100
AcDbVisualStyle
  2
Realistic
 70
     8
 71
     2
 72
     2
 73
     0
 90
        0
 40
-0.6
 41
-30.0
 62
     5
 63
     7
 74
     1
 91
        0
 64
     7
 65
   257
 75
     1
175
     1
 42
1.0
 92
        8
 66
     8
 43
1.0
 76
     1
 77
     6
 78
     2
 67
     7
 79
     5
170
     0
171
     0
290
     0
174
     0
 93
       13
 44
0.0
173
     0
291
     0
 45
0.0
1001
ACAD
1000
AcDbSavedByObjectVersion
1070
     0
  0
VISUALSTYLE
  5
12B0
102
{ACAD_REACTORS
330
12A3
102
}
330
12A3
100
AcDbVisualStyle
  2
Thicken
 70
    13
 71
     2
 72
     2
 73
     0
 90
        0
 40
-0.6
 41
-30.0
 62
     5
 63
     7
 74
     1
 91
        4
 64
     7
 65
   257
 75
     1
175
     1
 42
1.0
 92
       12
 66
     7
 43
1.0
 76
     1
 77
     6
 78
     2
 67
     7
 79
     5
170
     0
171
     0
290
     0
174
     0
 93
        1
 44
0.0
173
     0
291
     1
 45
0.0
1001
ACAD
1000
AcDbSavedByObjectVersion
1070
     0
  0
DICTIONARYVAR
  5
15AB
102
{ACAD_REACTORS
330
15A8
102
}
330
15A8
100
DictionaryVariables
280
     0
  1
1:1
  0
DICTIONARYVAR
  5
15AA
102
{ACAD_REACTORS
330
15A8
102
}
330
15A8
100
DictionaryVariables
280
     0
  1
STANDARD
  0
DICTIONARYVAR
  5
15A9
102
{ACAD_REACTORS
330
15A8
102
}
330
15A8
100
DictionaryVariables
280
     0
  1
STANDARD
  0
DICTIONARYVAR
  5
15AE
102
{ACAD_REACTORS
330
15A8
102
}
330
15A8
100
DictionaryVariables
280
     0
  1
1
  0
DICTIONARYVAR
  5
15AD
102
{ACAD_REACTORS
330
15A8
102
}
330
15A8
100
DictionaryVariables
280
     0
  1
0
  0
DICTIONARYVAR
  5
15AC
102
{ACAD_REACTORS
330
15A8
102
}
330
15A8
100
DictionaryVariables
280
     0
  1
127
  0
DICTIONARY
  5
15B5
330
E96
100
AcDbDictionary
280
     1
281
     1
  3
ACAD_XREC_ROUNDTRIP
360
15B6
  0
DICTIONARY
  5
15B3
330
E95
100
AcDbDictionary
280
     1
281
     1
  3
ACAD_XREC_ROUNDTRIP
360
15B4
  0
DICTIONARY
  5
1294
330
1293
100
AcDbDictionary
280
     1
281
     1
  3
ACAD_XREC_ROUNDTRIP
360
15B8
  3
BUMPTILE
360
1296
  3
DIFFUSETILE
360
1295
  3
OPACITYTILE
360
1299
  3
REFLECTIONTILE
360
1298
  3
REFRACTIONTILE
360
129A
  3
SPECULARTILE
360
1297
  0
DICTIONARY
  5
128C
330
128B
100
AcDbDictionary
280
     1
281
     1
  3
ACAD_XREC_ROUNDTRIP
360
15B7
  3
BUMPTILE
360
128E
  3
DIFFUSETILE
360
128D
  3
OPACITYTILE
360
1291
  3
REFLECTIONTILE
360
1290
  3
REFRACTIONTILE
360
1292
  3
SPECULARTILE
360
128F
  0
DICTIONARY
  5
129C
330
129B
100
AcDbDictionary
280
     1
281
     1
  3
ACAD_XREC_ROUNDTRIP
360
15B9
  3
BUMPTILE
360
129E
  3
DIFFUSETILE
360
129D
  3
OPACITYTILE
360
12A1
  3
REFLECTIONTILE
360
12A0
  3
REFRACTIONTILE
360
12A2
  3
SPECULARTILE
360
129F
  0
DICTIONARY
  5
15AF
330
12B6
100
AcDbDictionary
280
     1
281
     1
  3
ACAD_ROUNDTRIP_2008_TABLESTYLE_CELLSTYLEMAP
360
15B0
  3
ACAD_XREC_ROUNDTRIP
360
15BA
  0
XRECORD
  5
15B6
102
{ACAD_REACTORS
330
15B5
102
}
330
15B5
100
AcDbXrecord
280
     1
102
SHADEPLOT
 70
     0
102
SHADEPLOTRESLEVEL
 70
     2
102
SHADEPLOTCUSTOMDPI
 70
   300
  0
XRECORD
  5
15B4
102
{ACAD_REACTORS
330
15B3
102
}
330
15B3
100
AcDbXrecord
280
     1
102
SHADEPLOT
 70
     0
102
SHADEPLOTRESLEVEL
 70
     2
102
SHADEPLOTCUSTOMDPI
 70
   300
  0
XRECORD
  5
15B8
102
{ACAD_REACTORS
330
1294
102
}
330
1294
100
AcDbXrecord
280
     1
102
MATERIAL
148
0.0
149
0.0
149
0.0
 93
        0
 94
      127
282
     0
 72
     0
 77
     0
171
     0
175
     0
179
     0
273
     0
  0
XRECORD
  5
1296
102
{ACAD_REACTORS
330
1294
102
}
330
1294
100
AcDbXrecord
280
     1
270
     1
271
     1
  0
XRECORD
  5
1295
102
{ACAD_REACTORS
330
1294
102
}
330
1294
100
AcDbXrecord
280
     1
270
     1
271
     1
  0
XRECORD
  5
1299
102
{ACAD_REACTORS
330
1294
102
}
330
1294
100
AcDbXrecord
280
     1
270
     1
271
     1
  0
XRECORD
  5
1298
102
{ACAD_REACTORS
330
1294
102
}
330
1294
100
AcDbXrecord
280
     1
270
     1
271
     1
  0
XRECORD
  5
129A
102
{ACAD_REACTORS
330
1294
102
}
330
1294
100
AcDbXrecord
280
     1
270
     1
271
     1
  0
XRECORD
  5
1297
102
{ACAD_REACTORS
330
1294
102
}
330
1294
100
AcDbXrecord
280
     1
270
     1
271
     1
  0
XRECORD
  5
15B7
102
{ACAD_REACTORS
330
128C
102
}
330
128C
100
AcDbXrecord
280
     1
102
MATERIAL
148
0.0
149
0.0
149
0.0
 93
        0
 94
      127
282
     0
 72
     0
 77
     0
171
     0
175
     0
179
     0
273
     0
  0
XRECORD
  5
128E
102
{ACAD_REACTORS
330
128C
102
}
330
128C
100
AcDbXrecord
280
     1
270
     1
271
     1
  0
XRECORD
  5
128D
102
{ACAD_REACTORS
330
128C
102
}
330
128C
100
AcDbXrecord
280
     1
270
     1
271
     1
  0
XRECORD
  5
1291
102
{ACAD_REACTORS
330
128C
102
}
330
128C
100
AcDbXrecord
280
     1
270
     1
271
     1
  0
XRECORD
  5
1290
102
{ACAD_REACTORS
330
128C
102
}
330
128C
100
AcDbXrecord
280
     1
270
     1
271
     1
  0
XRECORD
  5
1292
102
{ACAD_REACTORS
330
128C
102
}
330
128C
100
AcDbXrecord
280
     1
270
     1
271
     1
  0
XRECORD
  5
128F
102
{ACAD_REACTORS
330
128C
102
}
330
128C
100
AcDbXrecord
280
     1
270
     1
271
     1
  0
XRECORD
  5
15B9
102
{ACAD_REACTORS
330
129C
102
}
330
129C
100
AcDbXrecord
280
     1
102
MATERIAL
148
0.0
149
0.0
149
0.0
 93
        0
 94
      127
282
     0
 72
     0
 77
     0
171
     0
175
     0
179
     0
273
     0
  0
XRECORD
  5
129E
102
{ACAD_REACTORS
330
129C
102
}
330
129C
100
AcDbXrecord
280
     1
270
     1
271
     1
  0
XRECORD
  5
129D
102
{ACAD_REACTORS
330
129C
102
}
330
129C
100
AcDbXrecord
280
     1
270
     1
271
     1
  0
XRECORD
  5
12A1
102
{ACAD_REACTORS
330
129C
102
}
330
129C
100
AcDbXrecord
280
     1
270
     1
271
     1
  0
XRECORD
  5
12A0
102
{ACAD_REACTORS
330
129C
102
}
330
129C
100
AcDbXrecord
280
     1
270
     1
271
     1
  0
XRECORD
  5
12A2
102
{ACAD_REACTORS
330
129C
102
}
330
129C
100
AcDbXrecord
280
     1
270
     1
271
     1
  0
XRECORD
  5
129F
102
{ACAD_REACTORS
330
129C
102
}
330
129C
100
AcDbXrecord
280
     1
270
     1
271
     1
  0
CELLSTYLEMAP
  5
15B0
102
{ACAD_REACTORS
330
15AF
102
}
330
15AF
100
AcDbCellStyleMap
 90
        3
300
CELLSTYLE
  1
TABLEFORMAT_BEGIN
 90
        5
170
     1
 91
        0
 92
    32768
 62
   257
 93
        1
300
CONTENTFORMAT
  1
CONTENTFORMAT_BEGIN
 90
        0
 91
        0
 92
      512
 93
        0
300

 40
0.0
140
1.0
 94
        5
 62
     0
340
10
144
6.0
309
CONTENTFORMAT_END
171
     1
301
MARGIN
  1
CELLMARGIN_BEGIN
 40
1.5
 40
1.5
 40
1.5
 40
1.5
 40
4.5
 40
4.5
309
CELLMARGIN_END
 94
        6
 95
        1
302
GRIDFORMAT
  1
GRIDFORMAT_BEGIN
 90
        0
 91
        1
 62
     0
 92
       -2
340
0
 93
        0
 40
1.125
309
GRIDFORMAT_END
 95
        2
302
GRIDFORMAT
  1
GRIDFORMAT_BEGIN
 90
        0
 91
        1
 62
     0
 92
       -2
340
0
 93
        0
 40
1.125
309
GRIDFORMAT_END
 95
        4
302
GRIDFORMAT
  1
GRIDFORMAT_BEGIN
 90
        0
 91
        1
 62
     0
 92
       -2
340
0
 93
        0
 40
1.125
309
GRIDFORMAT_END
 95
        8
302
GRIDFORMAT
  1
GRIDFORMAT_BEGIN
 90
        0
 91
        1
 62
     0
 92
       -2
340
0
 93
        0
 40
1.125
309
GRIDFORMAT_END
 95
       16
302
GRIDFORMAT
  1
GRIDFORMAT_BEGIN
 90
        0
 91
        1
 62
     0
 92
       -2
340
0
 93
        0
 40
1.125
309
GRIDFORMAT_END
 95
       32
302
GRIDFORMAT
  1
GRIDFORMAT_BEGIN
 90
        0
 91
        1
 62
     0
 92
       -2
340
0
 93
        0
 40
1.125
309
GRIDFORMAT_END
309
TABLEFORMAT_END
  1
CELLSTYLE_BEGIN
 90
        1
 91
        1
300
_TITLE
309
CELLSTYLE_END
300
CELLSTYLE
  1
TABLEFORMAT_BEGIN
 90
        5
170
     1
 91
        0
 92
        0
 62
   257
 93
        1
300
CONTENTFORMAT
  1
CONTENTFORMAT_BEGIN
 90
        0
 91
        0
 92
      512
 93
        0
300

 40
0.0
140
1.0
 94
        5
 62
     0
340
10
144
4.5
309
CONTENTFORMAT_END
171
     1
301
MARGIN
  1
CELLMARGIN_BEGIN
 40
1.5
 40
1.5
 40
1.5
 40
1.5
 40
4.5
 40
4.5
309
CELLMARGIN_END
 94
        6
 95
        1
302
GRIDFORMAT
  1
GRIDFORMAT_BEGIN
 90
        0
 91
        1
 62
     0
 92
       -2
340
0
 93
        0
 40
1.125
309
GRIDFORMAT_END
 95
        2
302
GRIDFORMAT
  1
GRIDFORMAT_BEGIN
 90
        0
 91
        1
 62
     0
 92
       -2
340
0
 93
        0
 40
1.125
309
GRIDFORMAT_END
 95
        4
302
GRIDFORMAT
  1
GRIDFORMAT_BEGIN
 90
        0
 91
        1
 62
     0
 92
       -2
340
0
 93
        0
 40
1.125
309
GRIDFORMAT_END
 95
        8
302
GRIDFORMAT
  1
GRIDFORMAT_BEGIN
 90
        0
 91
        1
 62
     0
 92
       -2
340
0
 93
        0
 40
1.125
309
GRIDFORMAT_END
 95
       16
302
GRIDFORMAT
  1
GRIDFORMAT_BEGIN
 90
        0
 91
        1
 62
     0
 92
       -2
340
0
 93
        0
 40
1.125
309
GRIDFORMAT_END
 95
       32
302
GRIDFORMAT
  1
GRIDFORMAT_BEGIN
 90
        0
 91
        1
 62
     0
 92
       -2
340
0
 93
        0
 40
1.125
309
GRIDFORMAT_END
309
TABLEFORMAT_END
  1
CELLSTYLE_BEGIN
 90
        2
 91
        1
300
_HEADER
309
CELLSTYLE_END
300
CELLSTYLE
  1
TABLEFORMAT_BEGIN
 90
        5
170
     1
 91
        0
 92
        0
 62
   257
 93
        1
300
CONTENTFORMAT
  1
CONTENTFORMAT_BEGIN
 90
        0
 91
        0
 92
      512
 93
        0
300

 40
0.0
140
1.0
 94
        2
 62
     0
340
10
144
4.5
309
CONTENTFORMAT_END
171
     1
301
MARGIN
  1
CELLMARGIN_BEGIN
 40
1.5
 40
1.5
 40
1.5
 40
1.5
 40
4.5
 40
4.5
309
CELLMARGIN_END
 94
        6
 95
        1
302
GRIDFORMAT
  1
GRIDFORMAT_BEGIN
 90
        0
 91
        1
 62
     0
 92
       -2
340
0
 93
        0
 40
1.125
309
GRIDFORMAT_END
 95
        2
302
GRIDFORMAT
  1
GRIDFORMAT_BEGIN
 90
        0
 91
        1
 62
     0
 92
       -2
340
0
 93
        0
 40
1.125
309
GRIDFORMAT_END
 95
        4
302
GRIDFORMAT
  1
GRIDFORMAT_BEGIN
 90
        0
 91
        1
 62
     0
 92
       -2
340
0
 93
        0
 40
1.125
309
GRIDFORMAT_END
 95
        8
302
GRIDFORMAT
  1
GRIDFORMAT_BEGIN
 90
        0
 91
        1
 62
     0
 92
       -2
340
0
 93
        0
 40
1.125
309
GRIDFORMAT_END
 95
       16
302
GRIDFORMAT
  1
GRIDFORMAT_BEGIN
 90
        0
 91
        1
 62
     0
 92
       -2
340
0
 93
        0
 40
1.125
309
GRIDFORMAT_END
 95
       32
302
GRIDFORMAT
  1
GRIDFORMAT_BEGIN
 90
        0
 91
        1
 62
     0
 92
       -2
340
0
 93
        0
 40
1.125
309
GRIDFORMAT_END
309
TABLEFORMAT_END
  1
CELLSTYLE_BEGIN
 90
        3
 91
        2
300
_DATA
309
CELLSTYLE_END
  0
XRECORD
  5
15BA
102
{ACAD_REACTORS
330
15AF
102
}
330
15AF
100
AcDbXrecord
280
     1
102
ACAD_ROUNDTRIP_PRE2007_TABLESTYLE
 90
      512
 91
        0
  1

 92
      512
 93
        0
  2

 94
      512
 95
        0
  3

  0
ENDSEC
  0
EOF
