  0
SECTION
  2
HEADER
  9
$ACADVER
  1
AC1015
  9
$ACADMAINTVER
 70
    20
  9
$DWGCODEPAGE
  3
ANSI_1252
  9
$INSBASE
 10
0.0
 20
0.0
 30
0.0
  9
$EXTMIN
 10
-103.2615339626343
 20
-75.20263560721957
 30
-0.0015258207003583
  9
$EXTMAX
 10
172.8704388233257
 20
81.0214241326571
 30
0.0000000349246037
  9
$LIMMIN
 10
-170.0
 20
-170.0
  9
$LIMMAX
 10
519.0
 20
260.0
  9
$ORTHOMODE
 70
     1
  9
$REGENMODE
 70
     1
  9
$FILLMODE
 70
     1
  9
$QTEXTMODE
 70
     0
  9
$MIRRTEXT
 70
     1
  9
$LTSCALE
 40
10.0
  9
$ATTMODE
 70
     1
  9
$TEXTSIZE
 40
3.5
  9
$TRACEWID
 40
0.05
  9
$TEXTSTYLE
  7
SIMPLEX
  9
$CLAYER
  8
1
  9
$CELTYPE
  6
BYLAYER
  9
$CECOLOR
 62
   256
  9
$CELTSCALE
 40
1.0
  9
$DISPSILH
 70
     0
  9
$DIMSCALE
 40
1.0
  9
$DIMASZ
 40
5.0
  9
$DIMEXO
 40
1.0
  9
$DIMDLI
 40
0.5
  9
$DIMRND
 40
0.0
  9
$DIMDLE
 40
0.0
  9
$DIMEXE
 40
1.0
  9
$DIMTP
 40
0.0
  9
$DIMTM
 40
0.0
  9
$DIMTXT
 40
5.0
  9
$DIMCEN
 40
0.0
  9
$DIMTSZ
 40
0.0
  9
$DIMTOL
 70
     0
  9
$DIMLIM
 70
     0
  9
$DIMTIH
 70
     0
  9
$DIMTOH
 70
     0
  9
$DIMSE1
 70
     0
  9
$DIMSE2
 70
     0
  9
$DIMTAD
 70
     1
  9
$DIMZIN
 70
     0
  9
$DIMBLK
  1

  9
$DIMASO
 70
     1
  9
$DIMSHO
 70
     1
  9
$DIMPOST
  1

  9
$DIMAPOST
  1

  9
$DIMALT
 70
     0
  9
$DIMALTD
 70
     2
  9
$DIMALTF
 40
25.4
  9
$DIMLFAC
 40
1.0
  9
$DIMTOFL
 70
     0
  9
$DIMTVP
 40
0.0
  9
$DIMTIX
 70
     0
  9
$DIMSOXD
 70
     0
  9
$DIMSAH
 70
     0
  9
$DIMBLK1
  1

  9
$DIMBLK2
  1

  9
$DIMSTYLE
  2
V-TYG_160-300
  9
$DIMCLRD
 70
     0
  9
$DIMCLRE
 70
     0
  9
$DIMCLRT
 70
     0
  9
$DIMTFAC
 40
1.0
  9
$DIMGAP
 40
1.0
  9
$DIMJUST
 70
     0
  9
$DIMSD1
 70
     0
  9
$DIMSD2
 70
     0
  9
$DIMTOLJ
 70
     1
  9
$DIMTZIN
 70
     0
  9
$DIMALTZ
 70
     0
  9
$DIMALTTZ
 70
     0
  9
$DIMUPT
 70
     0
  9
$DIMDEC
 70
     0
  9
$DIMTDEC
 70
     0
  9
$DIMALTU
 70
     2
  9
$DIMALTTD
 70
     2
  9
$DIMTXSTY
  7
STANDARD
  9
$DIMAUNIT
 70
     0
  9
$DIMADEC
 70
     0
  9
$DIMALTRND
 40
0.0
  9
$DIMAZIN
 70
     0
  9
$DIMDSEP
 70
    46
  9
$DIMATFIT
 70
     3
  9
$DIMFRAC
 70
     0
  9
$DIMLDRBLK
  1

  9
$DIMLUNIT
 70
     2
  9
$DIMLWD
 70
    -2
  9
$DIMLWE
 70
    -2
  9
$DIMTMOVE
 70
     0
  9
$LUNITS
 70
     2
  9
$LUPREC
 70
     2
  9
$SKETCHINC
 40
0.1
  9
$FILLETRAD
 40
0.0
  9
$AUNITS
 70
     0
  9
$AUPREC
 70
     0
  9
$MENU
  1
TDMWIN
  9
$ELEVATION
 40
0.0
  9
$PELEVATION
 40
0.0
  9
$THICKNESS
 40
0.0
  9
$LIMCHECK
 70
     0
  9
$CHAMFERA
 40
0.0
  9
$CHAMFERB
 40
0.0
  9
$CHAMFERC
 40
0.0
  9
$CHAMFERD
 40
0.0
  9
$SKPOLY
 70
     0
  9
$TDCREATE
 40
2454564.424098727
  9
$TDUCREATE
 40
2454564.340765394
  9
$TDUPDATE
 40
2454620.444140810
  9
$TDUUPDATE
 40
2454620.360807477
  9
$TDINDWG
 40
0.0064388657
  9
$TDUSRTIMER
 40
0.0064388657
  9
$USRTIMER
 70
     1
  9
$ANGBASE
 50
0.0
  9
$ANGDIR
 70
     0
  9
$PDMODE
 70
     2
  9
$PDSIZE
 40
0.0
  9
$PLINEWID
 40
0.0
  9
$SPLFRAME
 70
     0
  9
$SPLINETYPE
 70
     6
  9
$SPLINESEGS
 70
     8
  9
$HANDSEED
  5
17DE
  9
$SURFTAB1
 70
     6
  9
$SURFTAB2
 70
     6
  9
$SURFTYPE
 70
     6
  9
$SURFU
 70
     6
  9
$SURFV
 70
     6
  9
$UCSBASE
  2

  9
$UCSNAME
  2

  9
$UCSORG
 10
0.0
 20
0.0
 30
0.0
  9
$UCSXDIR
 10
1.0
 20
0.0
 30
0.0
  9
$UCSYDIR
 10
0.0
 20
1.0
 30
0.0
  9
$UCSORTHOREF
  2

  9
$UCSORTHOVIEW
 70
     0
  9
$UCSORGTOP
 10
0.0
 20
0.0
 30
0.0
  9
$UCSORGBOTTOM
 10
0.0
 20
0.0
 30
0.0
  9
$UCSORGLEFT
 10
0.0
 20
0.0
 30
0.0
  9
$UCSORGRIGHT
 10
0.0
 20
0.0
 30
0.0
  9
$UCSORGFRONT
 10
0.0
 20
0.0
 30
0.0
  9
$UCSORGBACK
 10
0.0
 20
0.0
 30
0.0
  9
$PUCSBASE
  2

  9
$PUCSNAME
  2

  9
$PUCSORG
 10
0.0
 20
0.0
 30
0.0
  9
$PUCSXDIR
 10
1.0
 20
0.0
 30
0.0
  9
$PUCSYDIR
 10
0.0
 20
1.0
 30
0.0
  9
$PUCSORTHOREF
  2

  9
$PUCSORTHOVIEW
 70
     0
  9
$PUCSORGTOP
 10
0.0
 20
0.0
 30
0.0
  9
$PUCSORGBOTTOM
 10
0.0
 20
0.0
 30
0.0
  9
$PUCSORGLEFT
 10
0.0
 20
0.0
 30
0.0
  9
$PUCSORGRIGHT
 10
0.0
 20
0.0
 30
0.0
  9
$PUCSORGFRONT
 10
0.0
 20
0.0
 30
0.0
  9
$PUCSORGBACK
 10
0.0
 20
0.0
 30
0.0
  9
$USERI1
 70
     0
  9
$USERI2
 70
     0
  9
$USERI3
 70
     0
  9
$USERI4
 70
     0
  9
$USERI5
 70
     0
  9
$USERR1
 40
0.0
  9
$USERR2
 40
0.0
  9
$USERR3
 40
0.0
  9
$USERR4
 40
0.0
  9
$USERR5
 40
0.0
  9
$WORLDVIEW
 70
     1
  9
$SHADEDGE
 70
     3
  9
$SHADEDIF
 70
    70
  9
$TILEMODE
 70
     1
  9
$MAXACTVP
 70
    16
  9
$PINSBASE
 10
0.0
 20
0.0
 30
0.0
  9
$PLIMCHECK
 70
     0
  9
$PEXTMIN
 10
1.000000000000000E+20
 20
1.000000000000000E+20
 30
1.000000000000000E+20
  9
$PEXTMAX
 10
-1.000000000000000E+20
 20
-1.000000000000000E+20
 30
-1.000000000000000E+20
  9
$PLIMMIN
 10
0.0
 20
0.0
  9
$PLIMMAX
 10
12.0
 20
9.0
  9
$UNITMODE
 70
     0
  9
$VISRETAIN
 70
     0
  9
$PLINEGEN
 70
     0
  9
$PSLTSCALE
 70
     0
  9
$TREEDEPTH
 70
  3020
  9
$CMLSTYLE
  2
STANDARD
  9
$CMLJUST
 70
     0
  9
$CMLSCALE
 40
1.0
  9
$PROXYGRAPHICS
 70
     1
  9
$MEASUREMENT
 70
     0
  9
$CELWEIGHT
370
    -1
  9
$ENDCAPS
280
     0
  9
$JOINSTYLE
280
     0
  9
$LWDISPLAY
290
     0
  9
$INSUNITS
 70
     0
  9
$HYPERLINKBASE
  1

  9
$STYLESHEET
  1

  9
$XEDIT
290
     1
  9
$CEPSNTYPE
380
     0
  9
$PSTYLEMODE
290
     1
  9
$FINGERPRINTGUID
  2
{EE8A3681-2663-4334-BBD2-F44897E95D71}
  9
$VERSIONGUID
  2
{525B6F1B-E8F1-4B7F-BC49-EBC6C2F172CF}
  9
$EXTNAMES
290
     1
  9
$PSVPSCALE
 40
0.0
  9
$OLESTARTUP
290
     0
  0
ENDSEC
  0
SECTION
  2
CLASSES
  0
CLASS
  1
ACDBDICTIONARYWDFLT
  2
AcDbDictionaryWithDefault
  3
ObjectDBX Classes
 90
        0
280
     0
281
     0
  0
CLASS
  1
ACDBPLACEHOLDER
  2
AcDbPlaceHolder
  3
ObjectDBX Classes
 90
        0
280
     0
281
     0
  0
CLASS
  1
LAYOUT
  2
AcDbLayout
  3
ObjectDBX Classes
 90
        0
280
     0
281
     0
  0
CLASS
  1
MATERIAL
  2
AcDbMaterial
  3
ObjectDBX Classes
 90
     1024
280
     0
281
     0
  0
CLASS
  1
VISUALSTYLE
  2
AcDbVisualStyle
  3
ObjectDBX Classes
 90
     4095
280
     0
281
     0
  0
CLASS
  1
TABLESTYLE
  2
AcDbTableStyle
  3
ObjectDBX Classes
 90
     4095
280
     0
281
     0
  0
CLASS
  1
DICTIONARYVAR
  2
AcDbDictionaryVar
  3
ObjectDBX Classes
 90
        0
280
     0
281
     0
  0
ENDSEC
  0
SECTION
  2
TABLES
  0
TABLE
  2
VPORT
  5
8
330
0
100
AcDbSymbolTable
 70
     1
  0
VPORT
  5
1749
330
8
100
AcDbSymbolTableRecord
100
AcDbViewportTableRecord
  2
*ACTIVE
 70
     0
 10
0.0
 20
0.0
 11
1.0
 21
1.0
 12
34.80445243034568
 22
2.909394262718763
 13
0.0
 23
0.0
 14
5.0
 24
5.0
 15
5.0
 25
5.0
 16
0.0
 26
0.0
 36
1.0
 17
0.0
 27
0.0
 37
0.0
 40
228.3062792005509
 41
1.242219215155615
 42
50.0
 43
0.0
 44
0.0
 50
0.0
 51
0.0
 71
     0
 72
   100
 73
     1
 74
     1
 75
     0
 76
     0
 77
     0
 78
     0
281
     0
 65
     1
110
0.0
120
0.0
130
0.0
111
1.0
121
0.0
131
0.0
112
0.0
122
1.0
132
0.0
 79
     0
146
0.0
  0
ENDTAB
  0
TABLE
  2
LTYPE
  5
5
330
0
100
AcDbSymbolTable
 70
     3
  0
LTYPE
  5
13
330
5
100
AcDbSymbolTableRecord
100
AcDbLinetypeTableRecord
  2
BYBLOCK
 70
     0
  3

 72
    65
 73
     0
 40
0.0
  0
LTYPE
  5
14
330
5
100
AcDbSymbolTableRecord
100
AcDbLinetypeTableRecord
  2
BYLAYER
 70
     0
  3

 72
    65
 73
     0
 40
0.0
  0
LTYPE
  5
15
330
5
100
AcDbSymbolTableRecord
100
AcDbLinetypeTableRecord
  2
CONTINUOUS
 70
     0
  3
Solid line
 72
    65
 73
     0
 40
0.0
  0
LTYPE
  5
20
330
5
100
AcDbSymbolTableRecord
100
AcDbLinetypeTableRecord
  2
CENTER
 70
     0
  3
____ . ____ . ____
 72
    65
 73
     4
 40
1.5
 49
1.0
 74
     0
 49
-0.25
 74
     0
 49
0.0
 74
     0
 49
-0.25
 74
     0
  0
LTYPE
  5
21
330
5
100
AcDbSymbolTableRecord
100
AcDbLinetypeTableRecord
  2
HIDDEN
 70
     0
  3
_ _ _ _ _ _ _ _ _ _ _ _ _ _ _ _ _ _ _ _ _ _ _
 72
    65
 73
     2
 40
0.375
 49
0.25
 74
     0
 49
-0.125
 74
     0
  0
ENDTAB
  0
TABLE
  2
LAYER
  5
2
330
0
100
AcDbSymbolTable
 70
    11
  0
LAYER
  5
F
330
2
100
AcDbSymbolTableRecord
100
AcDbLayerTableRecord
  2
0
 70
     0
 62
    -7
  6
CONTINUOUS
370
    -3
390
1753
  0
LAYER
  5
1E
330
2
100
AcDbSymbolTableRecord
100
AcDbLayerTableRecord
  2
1
 70
     0
 62
     4
  6
CONTINUOUS
370
    -3
390
1753
  0
LAYER
  5
22
330
2
100
AcDbSymbolTableRecord
100
AcDbLayerTableRecord
  2
SK1
 70
     0
 62
     4
  6
CONTINUOUS
370
    -3
390
1753
  0
LAYER
  5
23
330
2
100
AcDbSymbolTableRecord
100
AcDbLayerTableRecord
  2
2
 70
     0
 62
     7
  6
CONTINUOUS
370
    -3
390
1753
  0
LAYER
  5
25
330
2
100
AcDbSymbolTableRecord
100
AcDbLayerTableRecord
  2
SK2
 70
     0
 62
     7
  6
CONTINUOUS
370
    -3
390
1753
  0
LAYER
  5
26
330
2
100
AcDbSymbolTableRecord
100
AcDbLayerTableRecord
  2
3
 70
     0
 62
     1
  6
HIDDEN
370
    -3
390
1753
  0
LAYER
  5
27
330
2
100
AcDbSymbolTableRecord
100
AcDbLayerTableRecord
  2
SK3
 70
     0
 62
     1
  6
HIDDEN
370
    -3
390
1753
  0
LAYER
  5
28
330
2
100
AcDbSymbolTableRecord
100
AcDbLayerTableRecord
  2
4
 70
     0
 62
    -2
  6
CENTER
370
    -3
390
1753
  0
LAYER
  5
29
330
2
100
AcDbSymbolTableRecord
100
AcDbLayerTableRecord
  2
SK4
 70
     0
 62
     2
  6
CENTER
370
    -3
390
1753
  0
LAYER
  5
2C
330
2
100
AcDbSymbolTableRecord
100
AcDbLayerTableRecord
  2
SK6
 70
     0
 62
     5
  6
CONTINUOUS
370
    -3
390
1753
  0
LAYER
  5
2E
330
2
100
AcDbSymbolTableRecord
100
AcDbLayerTableRecord
  2
DEFPOINTS
 70
     0
 62
    -7
  6
CONTINUOUS
290
     0
370
    -3
390
1753
  0
ENDTAB
  0
TABLE
  2
STYLE
  5
3
330
0
100
AcDbSymbolTable
 70
     2
  0
STYLE
  5
10
330
3
100
AcDbSymbolTableRecord
100
AcDbTextStyleTableRecord
  2
STANDARD
 70
     0
 40
0.0
 41
1.0
 50
0.0
 71
     0
 42
5.0
  3
txt
  4

  0
STYLE
  5
1F
330
3
100
AcDbSymbolTableRecord
100
AcDbTextStyleTableRecord
  2
SIMPLEX
 70
     0
 40
0.0
 41
1.0
 50
0.0
 71
     0
 42
3.5
  3
simplex
  4

  0
ENDTAB
  0
TABLE
  2
VIEW
  5
6
330
0
100
AcDbSymbolTable
 70
     0
  0
ENDTAB
  0
TABLE
  2
UCS
  5
7
330
0
100
AcDbSymbolTable
 70
     0
  0
ENDTAB
  0
TABLE
  2
APPID
  5
9
330
0
100
AcDbSymbolTable
 70
     2
  0
APPID
  5
11
330
9
100
AcDbSymbolTableRecord
100
AcDbRegAppTableRecord
  2
ACAD
 70
     0
  0
APPID
  5
E8F
330
9
100
AcDbSymbolTableRecord
100
AcDbRegAppTableRecord
  2
CONTENTBLOCKICON
 70
     0
  0
ENDTAB
  0
TABLE
  2
DIMSTYLE
  5
A
330
0
100
AcDbSymbolTable
 70
     2
100
AcDbDimStyleTable
 71
     0
  0
DIMSTYLE
105
980
330
A
100
AcDbSymbolTableRecord
100
AcDbDimStyleTableRecord
  2
STANDARD
 70
     0
340
10
  0
DIMSTYLE
105
D92
102
{ACAD_REACTORS
330
1595
330
1596
330
15DB
330
15DA
102
}
330
A
100
AcDbSymbolTableRecord
100
AcDbDimStyleTableRecord
  2
V-TYG_160-300
 70
     0
 41
5.0
 42
1.0
 43
0.5
 44
1.0
 73
     0
 74
     0
 77
     1
140
5.0
141
0.0
147
1.0
271
     0
272
     0
340
10
  0
ENDTAB
  0
TABLE
  2
BLOCK_RECORD
  5
1
330
0
100
AcDbSymbolTable
 70
     4
  0
BLOCK_RECORD
  5
19
102
{ACAD_XDICTIONARY
360
E8D
102
}
330
1
100
AcDbSymbolTableRecord
100
AcDbBlockTableRecord
  2
*MODEL_SPACE
340
176D
  0
BLOCK_RECORD
  5
16
102
{ACAD_XDICTIONARY
360
E8B
102
}
330
1
100
AcDbSymbolTableRecord
100
AcDbBlockTableRecord
  2
*PAPER_SPACE
340
176E
  0
BLOCK_RECORD
  5
15F0
330
1
100
AcDbSymbolTableRecord
100
AcDbBlockTableRecord
  2
*D0
340
0
  0
BLOCK_RECORD
  5
15FD
330
1
100
AcDbSymbolTableRecord
100
AcDbBlockTableRecord
  2
*D1
340
0
  0
BLOCK_RECORD
  5
160A
330
1
100
AcDbSymbolTableRecord
100
AcDbBlockTableRecord
  2
*D2
340
0
  0
BLOCK_RECORD
  5
1617
330
1
100
AcDbSymbolTableRecord
100
AcDbBlockTableRecord
  2
*D3
340
0
  0
ENDTAB
  0
ENDSEC
  0
SECTION
  2
BLOCKS
  0
BLOCK
  5
1A
330
19
100
AcDbEntity
  8
0
100
AcDbBlockBegin
  2
*MODEL_SPACE
 70
     0
 10
0.0
 20
0.0
 30
0.0
  3
*MODEL_SPACE
  1

  0
ENDBLK
  5
1B
330
19
100
AcDbEntity
  8
0
100
AcDbBlockEnd
  0
BLOCK
  5
17
330
16
100
AcDbEntity
 67
     1
  8
0
100
AcDbBlockBegin
  2
*PAPER_SPACE
 70
     0
 10
0.0
 20
0.0
 30
0.0
  3
*PAPER_SPACE
  1

  0
ENDBLK
  5
18
330
16
100
AcDbEntity
 67
     1
  8
0
100
AcDbBlockEnd
  0
BLOCK
  5
15FB
330
15F0
100
AcDbEntity
  8
0
100
AcDbBlockBegin
  2
*D0
 70
     1
 10
0.0
 20
0.0
 30
0.0
  3
*D0
  1

  0
LINE
  5
17CE
330
15F0
100
AcDbEntity
  8
2
 62
     0
370
    -2
100
AcDbLine
 10
120.205910829775
 20
-64.79843731654671
 30
0.0
 11
172.8227593123596
 21
-64.79843731654672
 31
0.0
  0
LINE
  5
17CF
330
15F0
100
AcDbEntity
  8
2
 62
     0
370
    -2
100
AcDbLine
 10
120.205910829775
 20
64.79843731654671
 30
0.0
 11
172.8227593123597
 21
64.79843731654669
 31
0.0
  0
LINE
  5
17D0
330
15F0
100
AcDbEntity
  8
2
 62
     0
370
    -2
100
AcDbLine
 10
171.8227593123596
 20
-59.79843731654671
 30
0.0
 11
171.8227593123596
 21
59.7984373165467
 31
0.0
  0
SOLID
  5
17D1
330
15F0
100
AcDbEntity
  8
2
 62
     0
100
AcDbTrace
 10
170.9894259790263
 20
-59.79843731654671
 30
0.0
 11
172.656092645693
 21
-59.79843731654671
 31
0.0
 12
171.8227593123596
 22
-64.79843731654672
 32
0.0
 13
171.8227593123596
 23
-64.79843731654672
 33
0.0
  0
SOLID
  5
17D2
330
15F0
100
AcDbEntity
  8
2
 62
     0
100
AcDbTrace
 10
170.9894259790263
 20
59.7984373165467
 30
0.0
 11
172.656092645693
 21
59.7984373165467
 31
0.0
 12
171.8227593123597
 22
64.79843731654669
 32
0.0
 13
171.8227593123597
 23
64.79843731654669
 33
0.0
  0
MTEXT
  5
17D3
330
15F0
100
AcDbEntity
  8
2
 62
     0
100
AcDbMText
 10
168.3227593123596
 20
0.0000000000000183
 30
0.0
 40
5.0
 41
0.0
 71
     5
 72
     1
  1
\A1;%%c114-205
  7
SIMPLEX
 11
0.0000000000000001
 21
1.0
 31
0.0
 73
     1
 44
1.0
1001
ACAD
1000
MTEXTBEGIN
1070
    73
1070
     1
1070
    44
1040
1.0
1070
    74
1070
     0
1000
MTEXTEND
  0
POINT
  5
17D4
330
15F0
100
AcDbEntity
  8
DEFPOINTS
 62
     0
100
AcDbPoint
 10
119.205910829775
 20
-64.79843731654671
 30
0.0
  0
POINT
  5
17D5
330
15F0
100
AcDbEntity
  8
DEFPOINTS
 62
     0
100
AcDbPoint
 10
119.205910829775
 20
64.79843731654671
 30
0.0
  0
POINT
  5
17D6
330
15F0
100
AcDbEntity
  8
DEFPOINTS
 62
     0
100
AcDbPoint
 10
171.8227593123597
 20
64.79843731654669
 30
0.0
  0
ENDBLK
  5
15FC
330
15F0
100
AcDbEntity
  8
0
100
AcDbBlockEnd
  0
BLOCK
  5
1608
330
15FD
100
AcDbEntity
  8
0
100
AcDbBlockBegin
  2
*D1
 70
     1
 10
0.0
 20
0.0
 30
0.0
  3
*D1
  1

  0
LINE
  5
17C5
330
15FD
100
AcDbEntity
  8
2
 62
     0
370
    -2
100
AcDbLine
 10
119.9991269301419
 20
64.99843731654668
 30
0.0
 11
119.9991269301419
 21
76.00000000000001
 31
0.0
  0
LINE
  5
17C6
330
15FD
100
AcDbEntity
  8
2
 62
     0
370
    -2
100
AcDbLine
 10
0.0000000000000001
 20
47.5
 30
0.0
 11
0.0000000000000018
 21
76.00000000000001
 31
0.0
  0
LINE
  5
17C7
330
15FD
100
AcDbEntity
  8
2
 62
     0
370
    -2
100
AcDbLine
 10
114.9991269301419
 20
75.00000000000001
 30
0.0
 11
5.000000000000001
 21
75.00000000000001
 31
0.0
  0
SOLID
  5
17C8
330
15FD
100
AcDbEntity
  8
2
 62
     0
100
AcDbTrace
 10
114.9991269301419
 20
75.83333333333334
 30
0.0
 11
114.9991269301419
 21
74.16666666666668
 31
0.0
 12
119.9991269301419
 22
75.00000000000001
 32
0.0
 13
119.9991269301419
 23
75.00000000000001
 33
0.0
  0
SOLID
  5
17C9
330
15FD
100
AcDbEntity
  8
2
 62
     0
100
AcDbTrace
 10
5.000000000000001
 20
75.83333333333334
 30
0.0
 11
5.000000000000001
 21
74.16666666666668
 31
0.0
 12
0.0000000000000017
 22
75.00000000000001
 32
0.0
 13
0.0000000000000017
 23
75.00000000000001
 33
0.0
  0
MTEXT
  5
17CA
330
15FD
100
AcDbEntity
  8
2
 62
     0
100
AcDbMText
 10
59.99956346507099
 20
78.50000000000001
 30
0.0
 40
5.0
 41
0.0
 71
     5
 72
     1
  1
\A1;120
  7
SIMPLEX
 73
     1
 44
1.0
1001
ACAD
1000
MTEXTBEGIN
1070
    73
1070
     1
1070
    44
1040
1.0
1070
    74
1070
     0
1000
MTEXTEND
  0
POINT
  5
17CB
330
15FD
100
AcDbEntity
  8
DEFPOINTS
 62
     0
100
AcDbPoint
 10
119.9991269301419
 20
63.99843731654669
 30
0.0
  0
POINT
  5
17CC
330
15FD
100
AcDbEntity
  8
DEFPOINTS
 62
     0
100
AcDbPoint
 10
0.0
 20
46.5
 30
0.0
  0
POINT
  5
17CD
330
15FD
100
AcDbEntity
  8
DEFPOINTS
 62
     0
100
AcDbPoint
 10
0.0000000000000017
 20
75.00000000000001
 30
0.0
  0
ENDBLK
  5
1609
330
15FD
100
AcDbEntity
  8
0
100
AcDbBlockEnd
  0
BLOCK
  5
1615
330
160A
100
AcDbEntity
  8
0
100
AcDbBlockBegin
  2
*D2
 70
     1
 10
0.0
 20
0.0
 30
0.0
  3
*D2
  1

  0
LINE
  5
17BC
330
160A
100
AcDbEntity
  8
SK2
 62
     0
370
    -2
100
AcDbLine
 10
0.0
 20
47.5
 30
0.0
 11
-98.21738721702397
 21
47.50000000000002
 31
0.0
  0
LINE
  5
17BD
330
160A
100
AcDbEntity
  8
SK2
 62
     0
370
    -2
100
AcDbLine
 10
-0.0000000000000144
 20
-47.5
 30
0.0
 11
-98.217387217024
 21
-47.49999999999997
 31
0.0
  0
LINE
  5
17BE
330
160A
100
AcDbEntity
  8
SK2
 62
     0
370
    -2
100
AcDbLine
 10
-97.21738721702397
 20
42.50000000000002
 30
0.0
 11
-97.21738721702401
 21
-42.49999999999997
 31
0.0
  0
SOLID
  5
17BF
330
160A
100
AcDbEntity
  8
SK2
 62
     0
100
AcDbTrace
 10
-98.05072055035729
 20
42.50000000000002
 30
0.0
 11
-96.38405388369065
 21
42.50000000000002
 31
0.0
 12
-97.21738721702397
 22
47.50000000000002
 32
0.0
 13
-97.21738721702397
 23
47.50000000000002
 33
0.0
  0
SOLID
  5
17C0
330
160A
100
AcDbEntity
  8
SK2
 62
     0
100
AcDbTrace
 10
-98.05072055035733
 20
-42.49999999999997
 30
0.0
 11
-96.38405388369067
 21
-42.49999999999997
 31
0.0
 12
-97.21738721702401
 22
-47.49999999999997
 32
0.0
 13
-97.21738721702401
 23
-47.49999999999997
 33
0.0
  0
MTEXT
  5
17C1
330
160A
100
AcDbEntity
  8
SK2
 62
     0
100
AcDbMText
 10
-100.717387217024
 20
0.0000000000000135
 30
0.0
 40
5.0
 41
0.0
 71
     5
 72
     1
  1
\A1;%%c95
  7
SIMPLEX
 11
0.0000000000000001
 21
1.0
 31
0.0
 73
     1
 44
1.0
1001
ACAD
1000
MTEXTBEGIN
1070
    73
1070
     1
1070
    44
1040
1.0
1070
    74
1070
     0
1000
MTEXTEND
  0
POINT
  5
17C2
330
160A
100
AcDbEntity
  8
DEFPOINTS
 62
     0
100
AcDbPoint
 10
1.0
 20
47.5
 30
0.0
  0
POINT
  5
17C3
330
160A
100
AcDbEntity
  8
DEFPOINTS
 62
     0
100
AcDbPoint
 10
0.9999999999999856
 20
-47.5
 30
0.0
  0
POINT
  5
17C4
330
160A
100
AcDbEntity
  8
DEFPOINTS
 62
     0
100
AcDbPoint
 10
-97.21738721702401
 20
-47.49999999999997
 30
0.0
  0
ENDBLK
  5
1616
330
160A
100
AcDbEntity
  8
0
100
AcDbBlockEnd
  0
BLOCK
  5
1622
330
1617
100
AcDbEntity
  8
0
100
AcDbBlockBegin
  2
*D3
 70
     1
 10
0.0
 20
0.0
 30
0.0
  3
*D3
  1

  0
LINE
  5
17B3
330
1617
100
AcDbEntity
  8
SK2
 62
     0
370
    -2
100
AcDbLine
 10
-48.9999999999995
 20
23.0
 30
0.0
 11
-63.57522407452401
 21
23.0
 31
0.0
  0
LINE
  5
17B4
330
1617
100
AcDbEntity
  8
SK2
 62
     0
370
    -2
100
AcDbLine
 10
-48.9999999999995
 20
-23.0
 30
0.0
 11
-63.57522407452402
 21
-23.0
 31
0.0
  0
LINE
  5
17B5
330
1617
100
AcDbEntity
  8
SK2
 62
     0
370
    -2
100
AcDbLine
 10
-62.57522407452401
 20
18.0
 30
0.0
 11
-62.57522407452402
 21
-18.0
 31
0.0
  0
SOLID
  5
17B6
330
1617
100
AcDbEntity
  8
SK2
 62
     0
100
AcDbTrace
 10
-63.40855740785734
 20
18.0
 30
0.0
 11
-61.74189074119067
 21
18.0
 31
0.0
 12
-62.57522407452401
 22
23.0
 32
0.0
 13
-62.57522407452401
 23
23.0
 33
0.0
  0
SOLID
  5
17B7
330
1617
100
AcDbEntity
  8
SK2
 62
     0
100
AcDbTrace
 10
-63.40855740785736
 20
-18.0
 30
0.0
 11
-61.74189074119069
 21
-18.0
 31
0.0
 12
-62.57522407452402
 22
-23.0
 32
0.0
 13
-62.57522407452402
 23
-23.0
 33
0.0
  0
MTEXT
  5
17B8
330
1617
100
AcDbEntity
  8
SK2
 62
     0
100
AcDbMText
 10
-66.07522407452401
 20
-0.0000000000000064
 30
0.0
 40
5.0
 41
0.0
 71
     5
 72
     1
  1
\A1;%%c46
  7
SIMPLEX
 11
0.0000000000000001
 21
1.0
 31
0.0
 73
     1
 44
1.0
1001
ACAD
1000
MTEXTBEGIN
1070
    73
1070
     1
1070
    44
1040
1.0
1070
    74
1070
     0
1000
MTEXTEND
  0
POINT
  5
17B9
330
1617
100
AcDbEntity
  8
DEFPOINTS
 62
     0
100
AcDbPoint
 10
-47.9999999999995
 20
23.0
 30
0.0
  0
POINT
  5
17BA
330
1617
100
AcDbEntity
  8
DEFPOINTS
 62
     0
100
AcDbPoint
 10
-47.9999999999995
 20
-23.0
 30
0.0
  0
POINT
  5
17BB
330
1617
100
AcDbEntity
  8
DEFPOINTS
 62
     0
100
AcDbPoint
 10
-62.57522407452402
 20
-23.0
 30
0.0
  0
ENDBLK
  5
1623
330
1617
100
AcDbEntity
  8
0
100
AcDbBlockEnd
  0
ENDSEC
  0
SECTION
  2
ENTITIES
  0
TEXT
  5
145C
330
19
100
AcDbEntity
  8
SK6
100
AcDbText
 10
-64.56650896127141
 20
-75.17048923492343
 30
0.0
 40
7.859837829906712
  1
00026694
  7
SIMPLEX
100
AcDbText
  0
TEXT
  5
145D
330
19
100
AcDbEntity
  8
SK6
100
AcDbText
 10
-63.87517134064669
 20
-63.27280498718963
 30
0.0
 40
7.859837829906712
  1
A75070
  7
SIMPLEX
100
AcDbText
  0
POLYLINE
  5
145E
330
19
100
AcDbEntity
  8
1
100
AcDb3dPolyline
 66
     1
 10
0.0
 20
0.0
 30
0.0
 70
     8
  0
VERTEX
  5
145F
330
145E
100
AcDbEntity
  8
1
100
AcDbVertex
100
AcDb3dPolylineVertex
 10
17.12905999999999
 20
46.16689
 30
0.0
 70
    32
  0
VERTEX
  5
1460
330
145E
100
AcDbEntity
  8
1
100
AcDbVertex
100
AcDb3dPolylineVertex
 10
16.99243799999999
 20
46.12492600000002
 30
0.0
 70
    32
  0
VERTEX
  5
1461
330
145E
100
AcDbEntity
  8
1
100
AcDbVertex
100
AcDb3dPolylineVertex
 10
16.886263
 20
46.075783
 30
0.0
 70
    32
  0
VERTEX
  5
1462
330
145E
100
AcDbEntity
  8
1
100
AcDbVertex
100
AcDb3dPolylineVertex
 10
16.81058899999999
 20
46.019608
 30
0.0
 70
    32
  0
VERTEX
  5
1463
330
145E
100
AcDbEntity
  8
1
100
AcDbVertex
100
AcDb3dPolylineVertex
 10
16.79213999999999
 20
45.993889
 30
0.0
 70
    32
  0
SEQEND
  5
1464
330
145E
100
AcDbEntity
  8
1
  0
POLYLINE
  5
1465
330
19
100
AcDbEntity
  8
1
100
AcDb3dPolyline
 66
     1
 10
0.0
 20
0.0
 30
0.0
 70
     8
  0
VERTEX
  5
1466
330
1465
100
AcDbEntity
  8
1
100
AcDbVertex
100
AcDb3dPolylineVertex
 10
22.18626400000009
 20
46.07885200000001
 30
0.0
 70
    32
  0
VERTEX
  5
1467
330
1465
100
AcDbEntity
  8
1
100
AcDbVertex
100
AcDb3dPolylineVertex
 10
19.97604699999999
 20
46.207266
 30
0.0
 70
    32
  0
VERTEX
  5
1468
330
1465
100
AcDbEntity
  8
1
100
AcDbVertex
100
AcDb3dPolylineVertex
 10
19.58757
 20
46.22735
 30
0.0
 70
    32
  0
VERTEX
  5
1469
330
1465
100
AcDbEntity
  8
1
100
AcDbVertex
100
AcDb3dPolylineVertex
 10
19.21732799999999
 20
46.24404199999998
 30
0.0
 70
    32
  0
VERTEX
  5
146A
330
1465
100
AcDbEntity
  8
1
100
AcDbVertex
100
AcDb3dPolylineVertex
 10
18.86741099999989
 20
46.25645999999998
 30
0.0
 70
    32
  0
VERTEX
  5
146B
330
1465
100
AcDbEntity
  8
1
100
AcDbVertex
100
AcDb3dPolylineVertex
 10
18.53998699999999
 20
46.26370299999999
 30
0.0
 70
    32
  0
VERTEX
  5
146C
330
1465
100
AcDbEntity
  8
1
100
AcDbVertex
100
AcDb3dPolylineVertex
 10
18.236968
 20
46.26496699999998
 30
0.0
 70
    32
  0
VERTEX
  5
146D
330
1465
100
AcDbEntity
  8
1
100
AcDbVertex
100
AcDb3dPolylineVertex
 10
17.95997699999999
 20
46.25966599999998
 30
0.0
 70
    32
  0
VERTEX
  5
146E
330
1465
100
AcDbEntity
  8
1
100
AcDbVertex
100
AcDb3dPolylineVertex
 10
17.71021299999999
 20
46.24743699999998
 30
0.0
 70
    32
  0
VERTEX
  5
146F
330
1465
100
AcDbEntity
  8
1
100
AcDbVertex
100
AcDb3dPolylineVertex
 10
17.48853599999999
 20
46.228037
 30
0.0
 70
    32
  0
VERTEX
  5
1470
330
1465
100
AcDbEntity
  8
1
100
AcDbVertex
100
AcDb3dPolylineVertex
 10
17.294972
 20
46.201289
 30
0.0
 70
    32
  0
VERTEX
  5
1471
330
1465
100
AcDbEntity
  8
1
100
AcDbVertex
100
AcDb3dPolylineVertex
 10
17.12905999999999
 20
46.16689
 30
0.0
 70
    32
  0
SEQEND
  5
1472
330
1465
100
AcDbEntity
  8
1
  0
POLYLINE
  5
1473
330
19
100
AcDbEntity
  8
1
100
AcDb3dPolyline
 66
     1
 10
0.0
 20
0.0
 30
0.0
 70
     8
  0
VERTEX
  5
1474
330
1473
100
AcDbEntity
  8
1
100
AcDbVertex
100
AcDb3dPolylineVertex
 10
16.009725
 20
46.61185499999999
 30
0.0
 70
    32
  0
VERTEX
  5
1475
330
1473
100
AcDbEntity
  8
1
100
AcDbVertex
100
AcDb3dPolylineVertex
 10
16.07220299999998
 20
46.481266
 30
0.0
 70
    32
  0
VERTEX
  5
1476
330
1473
100
AcDbEntity
  8
1
100
AcDbVertex
100
AcDb3dPolylineVertex
 10
16.17380299999999
 20
46.343388
 30
0.0
 70
    32
  0
VERTEX
  5
1477
330
1473
100
AcDbEntity
  8
1
100
AcDbVertex
100
AcDb3dPolylineVertex
 10
16.313927
 20
46.19857800000001
 30
0.0
 70
    32
  0
VERTEX
  5
1478
330
1473
100
AcDbEntity
  8
1
100
AcDbVertex
100
AcDb3dPolylineVertex
 10
16.492353
 20
46.047302
 30
0.0
 70
    32
  0
VERTEX
  5
1479
330
1473
100
AcDbEntity
  8
1
100
AcDbVertex
100
AcDb3dPolylineVertex
 10
16.70843999999989
 20
45.89065699999998
 30
0.0
 70
    32
  0
SEQEND
  5
147A
330
1473
100
AcDbEntity
  8
1
  0
POLYLINE
  5
147B
330
19
100
AcDbEntity
  8
1
100
AcDb3dPolyline
 66
     1
 10
0.0
 20
0.0
 30
0.0
 70
     8
  0
VERTEX
  5
147C
330
147B
100
AcDbEntity
  8
1
100
AcDbVertex
100
AcDb3dPolylineVertex
 10
19.556956
 20
47.49834200000001
 30
0.0
 70
    32
  0
VERTEX
  5
147D
330
147B
100
AcDbEntity
  8
1
100
AcDbVertex
100
AcDb3dPolylineVertex
 10
19.115721
 20
47.49290600000001
 30
0.0
 70
    32
  0
VERTEX
  5
147E
330
147B
100
AcDbEntity
  8
1
100
AcDbVertex
100
AcDb3dPolylineVertex
 10
18.69710800000009
 20
47.48297500000001
 30
0.0
 70
    32
  0
VERTEX
  5
147F
330
147B
100
AcDbEntity
  8
1
100
AcDbVertex
100
AcDb3dPolylineVertex
 10
18.30267
 20
47.46782300000001
 30
0.0
 70
    32
  0
VERTEX
  5
1480
330
147B
100
AcDbEntity
  8
1
100
AcDbVertex
100
AcDb3dPolylineVertex
 10
17.934605
 20
47.44677300000001
 30
0.0
 70
    32
  0
VERTEX
  5
1481
330
147B
100
AcDbEntity
  8
1
100
AcDbVertex
100
AcDb3dPolylineVertex
 10
17.59503299999998
 20
47.41924399999999
 30
0.0
 70
    32
  0
VERTEX
  5
1482
330
147B
100
AcDbEntity
  8
1
100
AcDbVertex
100
AcDb3dPolylineVertex
 10
17.28569699999999
 20
47.38475399999997
 30
0.0
 70
    32
  0
VERTEX
  5
1483
330
147B
100
AcDbEntity
  8
1
100
AcDbVertex
100
AcDb3dPolylineVertex
 10
17.00803099999999
 20
47.34294099999998
 30
0.0
 70
    32
  0
VERTEX
  5
1484
330
147B
100
AcDbEntity
  8
1
100
AcDbVertex
100
AcDb3dPolylineVertex
 10
16.76304899999999
 20
47.29354699999999
 30
0.0
 70
    32
  0
VERTEX
  5
1485
330
147B
100
AcDbEntity
  8
1
100
AcDbVertex
100
AcDb3dPolylineVertex
 10
16.551371
 20
47.23641499999999
 30
0.0
 70
    32
  0
VERTEX
  5
1486
330
147B
100
AcDbEntity
  8
1
100
AcDbVertex
100
AcDb3dPolylineVertex
 10
16.372854
 20
47.17126999999999
 30
0.0
 70
    32
  0
VERTEX
  5
1487
330
147B
100
AcDbEntity
  8
1
100
AcDbVertex
100
AcDb3dPolylineVertex
 10
16.2270040000001
 20
47.09750600000001
 30
0.0
 70
    32
  0
VERTEX
  5
1488
330
147B
100
AcDbEntity
  8
1
100
AcDbVertex
100
AcDb3dPolylineVertex
 10
16.115216
 20
47.01535799999999
 30
0.0
 70
    32
  0
VERTEX
  5
1489
330
147B
100
AcDbEntity
  8
1
100
AcDbVertex
100
AcDb3dPolylineVertex
 10
16.03823299999989
 20
46.92544
 30
0.0
 70
    32
  0
VERTEX
  5
148A
330
147B
100
AcDbEntity
  8
1
100
AcDbVertex
100
AcDb3dPolylineVertex
 10
15.99556099999999
 20
46.82814099999998
 30
0.0
 70
    32
  0
VERTEX
  5
148B
330
147B
100
AcDbEntity
  8
1
100
AcDbVertex
100
AcDb3dPolylineVertex
 10
15.986365
 20
46.723558
 30
0.0
 70
    32
  0
VERTEX
  5
148C
330
147B
100
AcDbEntity
  8
1
100
AcDbVertex
100
AcDb3dPolylineVertex
 10
16.009725
 20
46.61185499999999
 30
0.0
 70
    32
  0
SEQEND
  5
148D
330
147B
100
AcDbEntity
  8
1
  0
POLYLINE
  5
148E
330
19
100
AcDbEntity
  8
1
100
AcDb3dPolyline
 66
     1
 10
0.0
 20
0.0
 30
0.0
 70
     8
  0
VERTEX
  5
148F
330
148E
100
AcDbEntity
  8
1
100
AcDbVertex
100
AcDb3dPolylineVertex
 10
20.039749
 20
47.499997
 30
0.0
 70
    32
  0
VERTEX
  5
1490
330
148E
100
AcDbEntity
  8
1
100
AcDbVertex
100
AcDb3dPolylineVertex
 10
21.56071499999999
 20
47.48908499999997
 30
0.0
 70
    32
  0
VERTEX
  5
1491
330
148E
100
AcDbEntity
  8
1
100
AcDbVertex
100
AcDb3dPolylineVertex
 10
23.48456199999999
 20
47.464776
 30
0.0
 70
    32
  0
VERTEX
  5
1492
330
148E
100
AcDbEntity
  8
1
100
AcDbVertex
100
AcDb3dPolylineVertex
 10
25.49935499999999
 20
47.44734199999999
 30
0.0
 70
    32
  0
VERTEX
  5
1493
330
148E
100
AcDbEntity
  8
1
100
AcDbVertex
100
AcDb3dPolylineVertex
 10
26.5
 20
47.44515330355199
 30
0.0
 70
    32
  0
SEQEND
  5
1494
330
148E
100
AcDbEntity
  8
1
  0
POLYLINE
  5
1495
330
19
100
AcDbEntity
  8
1
100
AcDb3dPolyline
 66
     1
 10
0.0
 20
0.0
 30
0.0
 70
     8
  0
VERTEX
  5
1496
330
1495
100
AcDbEntity
  8
1
100
AcDbVertex
100
AcDb3dPolylineVertex
 10
26.5
 20
45.94495769544189
 30
0.0
 70
    32
  0
VERTEX
  5
1497
330
1495
100
AcDbEntity
  8
1
100
AcDbVertex
100
AcDb3dPolylineVertex
 10
26.24657299999999
 20
45.945774
 30
0.0
 70
    32
  0
VERTEX
  5
1498
330
1495
100
AcDbEntity
  8
1
100
AcDbVertex
100
AcDb3dPolylineVertex
 10
25.72699699999999
 20
45.950534
 30
0.0
 70
    32
  0
VERTEX
  5
1499
330
1495
100
AcDbEntity
  8
1
100
AcDbVertex
100
AcDb3dPolylineVertex
 10
25.20680799999999
 20
45.959305
 30
0.0
 70
    32
  0
VERTEX
  5
149A
330
1495
100
AcDbEntity
  8
1
100
AcDbVertex
100
AcDb3dPolylineVertex
 10
24.688612
 20
45.971858
 30
0.0
 70
    32
  0
VERTEX
  5
149B
330
1495
100
AcDbEntity
  8
1
100
AcDbVertex
100
AcDb3dPolylineVertex
 10
24.175055
 20
45.98787999999998
 30
0.0
 70
    32
  0
VERTEX
  5
149C
330
1495
100
AcDbEntity
  8
1
100
AcDbVertex
100
AcDb3dPolylineVertex
 10
23.668019
 20
46.00700499999999
 30
0.0
 70
    32
  0
VERTEX
  5
149D
330
1495
100
AcDbEntity
  8
1
100
AcDbVertex
100
AcDb3dPolylineVertex
 10
23.16726399999998
 20
46.02880899999997
 30
0.0
 70
    32
  0
VERTEX
  5
149E
330
1495
100
AcDbEntity
  8
1
100
AcDbVertex
100
AcDb3dPolylineVertex
 10
22.67217999999999
 20
46.05287799999999
 30
0.0
 70
    32
  0
VERTEX
  5
149F
330
1495
100
AcDbEntity
  8
1
100
AcDbVertex
100
AcDb3dPolylineVertex
 10
22.18626400000009
 20
46.07885200000001
 30
0.0
 70
    32
  0
SEQEND
  5
14A0
330
1495
100
AcDbEntity
  8
1
  0
POLYLINE
  5
14A1
330
19
100
AcDbEntity
  8
1
100
AcDb3dPolyline
 66
     1
 10
0.0
 20
0.0
 30
0.0
 70
     8
  0
VERTEX
  5
14A2
330
14A1
100
AcDbEntity
  8
1
100
AcDbVertex
100
AcDb3dPolylineVertex
 10
16.708517
 20
46.08203999999999
 30
0.0
 70
    32
  0
VERTEX
  5
14A3
330
14A1
100
AcDbEntity
  8
1
100
AcDbVertex
100
AcDb3dPolylineVertex
 10
16.735714
 20
46.048484
 30
0.0
 70
    32
  0
VERTEX
  5
14A4
330
14A1
100
AcDbEntity
  8
1
100
AcDbVertex
100
AcDb3dPolylineVertex
 10
16.84311199999999
 20
45.94457099999998
 30
0.0
 70
    32
  0
VERTEX
  5
14A5
330
14A1
100
AcDbEntity
  8
1
100
AcDbVertex
100
AcDb3dPolylineVertex
 10
17.0287
 20
45.80058
 30
0.0
 70
    32
  0
VERTEX
  5
14A6
330
14A1
100
AcDbEntity
  8
1
100
AcDbVertex
100
AcDb3dPolylineVertex
 10
17.288899
 20
45.63127399999999
 30
0.0
 70
    32
  0
VERTEX
  5
14A7
330
14A1
100
AcDbEntity
  8
1
100
AcDbVertex
100
AcDb3dPolylineVertex
 10
17.62021799999998
 20
45.44555600000001
 30
0.0
 70
    32
  0
VERTEX
  5
14A8
330
14A1
100
AcDbEntity
  8
1
100
AcDbVertex
100
AcDb3dPolylineVertex
 10
18.01902799999998
 20
45.24993799999998
 30
0.0
 70
    32
  0
VERTEX
  5
14A9
330
14A1
100
AcDbEntity
  8
1
100
AcDbVertex
100
AcDb3dPolylineVertex
 10
18.481195
 20
45.04989399999998
 30
0.0
 70
    32
  0
VERTEX
  5
14AA
330
14A1
100
AcDbEntity
  8
1
100
AcDbVertex
100
AcDb3dPolylineVertex
 10
19.00478899999998
 20
44.849296
 30
0.0
 70
    32
  0
VERTEX
  5
14AB
330
14A1
100
AcDbEntity
  8
1
100
AcDbVertex
100
AcDb3dPolylineVertex
 10
19.590415
 20
44.650902
 30
0.0
 70
    32
  0
VERTEX
  5
14AC
330
14A1
100
AcDbEntity
  8
1
100
AcDbVertex
100
AcDb3dPolylineVertex
 10
20.23937099999999
 20
44.45763999999999
 30
0.0
 70
    32
  0
VERTEX
  5
14AD
330
14A1
100
AcDbEntity
  8
1
100
AcDbVertex
100
AcDb3dPolylineVertex
 10
20.95368399999998
 20
44.272984
 30
0.0
 70
    32
  0
VERTEX
  5
14AE
330
14A1
100
AcDbEntity
  8
1
100
AcDbVertex
100
AcDb3dPolylineVertex
 10
21.735777
 20
44.10115300000001
 30
0.0
 70
    32
  0
VERTEX
  5
14AF
330
14A1
100
AcDbEntity
  8
1
100
AcDbVertex
100
AcDb3dPolylineVertex
 10
22.58770399999999
 20
43.94718499999998
 30
0.0
 70
    32
  0
VERTEX
  5
14B0
330
14A1
100
AcDbEntity
  8
1
100
AcDbVertex
100
AcDb3dPolylineVertex
 10
23.510748
 20
43.81698599999999
 30
0.0
 70
    32
  0
VERTEX
  5
14B1
330
14A1
100
AcDbEntity
  8
1
100
AcDbVertex
100
AcDb3dPolylineVertex
 10
24.54155099999999
 20
43.714328
 30
0.0
 70
    32
  0
VERTEX
  5
14B2
330
14A1
100
AcDbEntity
  8
1
100
AcDbVertex
100
AcDb3dPolylineVertex
 10
25.709078
 20
43.65028699999998
 30
0.0
 70
    32
  0
VERTEX
  5
14B3
330
14A1
100
AcDbEntity
  8
1
100
AcDbVertex
100
AcDb3dPolylineVertex
 10
26.5
 20
43.6374500513688
 30
0.0
 70
    32
  0
SEQEND
  5
14B4
330
14A1
100
AcDbEntity
  8
1
  0
POLYLINE
  5
14B5
330
19
100
AcDbEntity
  8
1
100
AcDb3dPolyline
 66
     1
 10
0.0
 20
0.0
 30
0.0
 70
     8
  0
VERTEX
  5
14B6
330
14B5
100
AcDbEntity
  8
1
100
AcDbVertex
100
AcDb3dPolylineVertex
 10
16.960784
 20
45.73026199999998
 30
0.0
 70
    32
  0
VERTEX
  5
14B7
330
14B5
100
AcDbEntity
  8
1
100
AcDbVertex
100
AcDb3dPolylineVertex
 10
17.248148
 20
45.56745899999998
 30
0.0
 70
    32
  0
VERTEX
  5
14B8
330
14B5
100
AcDbEntity
  8
1
100
AcDbVertex
100
AcDb3dPolylineVertex
 10
17.5696139999999
 20
45.40339900000001
 30
0.0
 70
    32
  0
VERTEX
  5
14B9
330
14B5
100
AcDbEntity
  8
1
100
AcDbVertex
100
AcDb3dPolylineVertex
 10
17.923691
 20
45.23950899999999
 30
0.0
 70
    32
  0
VERTEX
  5
14BA
330
14B5
100
AcDbEntity
  8
1
100
AcDbVertex
100
AcDb3dPolylineVertex
 10
18.30861799999999
 20
45.077289
 30
0.0
 70
    32
  0
VERTEX
  5
14BB
330
14B5
100
AcDbEntity
  8
1
100
AcDbVertex
100
AcDb3dPolylineVertex
 10
18.722266
 20
44.91827899999998
 30
0.0
 70
    32
  0
VERTEX
  5
14BC
330
14B5
100
AcDbEntity
  8
1
100
AcDbVertex
100
AcDb3dPolylineVertex
 10
19.16266300000001
 20
44.76375599999999
 30
0.0
 70
    32
  0
VERTEX
  5
14BD
330
14B5
100
AcDbEntity
  8
1
100
AcDbVertex
100
AcDb3dPolylineVertex
 10
19.627654
 20
44.61494699999999
 30
0.0
 70
    32
  0
VERTEX
  5
14BE
330
14B5
100
AcDbEntity
  8
1
100
AcDbVertex
100
AcDb3dPolylineVertex
 10
20.114182
 20
44.47328099999999
 30
0.0
 70
    32
  0
VERTEX
  5
14BF
330
14B5
100
AcDbEntity
  8
1
100
AcDbVertex
100
AcDb3dPolylineVertex
 10
20.619702
 20
44.339968
 30
0.0
 70
    32
  0
VERTEX
  5
14C0
330
14B5
100
AcDbEntity
  8
1
100
AcDbVertex
100
AcDb3dPolylineVertex
 10
21.14225
 20
44.216025
 30
0.0
 70
    32
  0
VERTEX
  5
14C1
330
14B5
100
AcDbEntity
  8
1
100
AcDbVertex
100
AcDb3dPolylineVertex
 10
21.679572
 20
44.10243199999999
 30
0.0
 70
    32
  0
VERTEX
  5
14C2
330
14B5
100
AcDbEntity
  8
1
100
AcDbVertex
100
AcDb3dPolylineVertex
 10
22.228991
 20
44.00011899999998
 30
0.0
 70
    32
  0
VERTEX
  5
14C3
330
14B5
100
AcDbEntity
  8
1
100
AcDbVertex
100
AcDb3dPolylineVertex
 10
22.787564
 20
43.90988099999998
 30
0.0
 70
    32
  0
VERTEX
  5
14C4
330
14B5
100
AcDbEntity
  8
1
100
AcDbVertex
100
AcDb3dPolylineVertex
 10
23.35413099999989
 20
43.832075
 30
0.0
 70
    32
  0
VERTEX
  5
14C5
330
14B5
100
AcDbEntity
  8
1
100
AcDbVertex
100
AcDb3dPolylineVertex
 10
23.92780099999999
 20
43.76697899999999
 30
0.0
 70
    32
  0
VERTEX
  5
14C6
330
14B5
100
AcDbEntity
  8
1
100
AcDbVertex
100
AcDb3dPolylineVertex
 10
24.50516299999999
 20
43.71503200000001
 30
0.0
 70
    32
  0
VERTEX
  5
14C7
330
14B5
100
AcDbEntity
  8
1
100
AcDbVertex
100
AcDb3dPolylineVertex
 10
25.08269299999989
 20
43.67640399999999
 30
0.0
 70
    32
  0
VERTEX
  5
14C8
330
14B5
100
AcDbEntity
  8
1
100
AcDbVertex
100
AcDb3dPolylineVertex
 10
25.656701
 20
43.65098799999998
 30
0.0
 70
    32
  0
VERTEX
  5
14C9
330
14B5
100
AcDbEntity
  8
1
100
AcDbVertex
100
AcDb3dPolylineVertex
 10
26.22498
 20
43.63836099999999
 30
0.0
 70
    32
  0
VERTEX
  5
14CA
330
14B5
100
AcDbEntity
  8
1
100
AcDbVertex
100
AcDb3dPolylineVertex
 10
26.5
 20
43.63667715866461
 30
0.0
 70
    32
  0
SEQEND
  5
14CB
330
14B5
100
AcDbEntity
  8
1
  0
POLYLINE
  5
14CC
330
19
100
AcDbEntity
  8
1
100
AcDb3dPolyline
 66
     1
 10
0.0
 20
0.0
 30
0.0
 70
     8
  0
VERTEX
  5
14CD
330
14CC
100
AcDbEntity
  8
1
100
AcDbVertex
100
AcDb3dPolylineVertex
 10
32.960251
 20
47.499997
 30
0.0
 70
    32
  0
VERTEX
  5
14CE
330
14CC
100
AcDbEntity
  8
1
100
AcDbVertex
100
AcDb3dPolylineVertex
 10
31.43928499999999
 20
47.48908499999997
 30
0.0
 70
    32
  0
VERTEX
  5
14CF
330
14CC
100
AcDbEntity
  8
1
100
AcDbVertex
100
AcDb3dPolylineVertex
 10
29.51543799999999
 20
47.464776
 30
0.0
 70
    32
  0
VERTEX
  5
14D0
330
14CC
100
AcDbEntity
  8
1
100
AcDbVertex
100
AcDb3dPolylineVertex
 10
27.50064500000001
 20
47.44734199999999
 30
0.0
 70
    32
  0
VERTEX
  5
14D1
330
14CC
100
AcDbEntity
  8
1
100
AcDbVertex
100
AcDb3dPolylineVertex
 10
26.5
 20
47.44515330355199
 30
0.0
 70
    32
  0
SEQEND
  5
14D2
330
14CC
100
AcDbEntity
  8
1
  0
POLYLINE
  5
14D3
330
19
100
AcDbEntity
  8
1
100
AcDb3dPolyline
 66
     1
 10
0.0
 20
0.0
 30
0.0
 70
     8
  0
VERTEX
  5
14D4
330
14D3
100
AcDbEntity
  8
1
100
AcDbVertex
100
AcDb3dPolylineVertex
 10
26.5
 20
45.94495769544189
 30
0.0
 70
    32
  0
VERTEX
  5
14D5
330
14D3
100
AcDbEntity
  8
1
100
AcDbVertex
100
AcDb3dPolylineVertex
 10
26.75342699999998
 20
45.945774
 30
0.0
 70
    32
  0
VERTEX
  5
14D6
330
14D3
100
AcDbEntity
  8
1
100
AcDbVertex
100
AcDb3dPolylineVertex
 10
27.273003
 20
45.950534
 30
0.0
 70
    32
  0
VERTEX
  5
14D7
330
14D3
100
AcDbEntity
  8
1
100
AcDbVertex
100
AcDb3dPolylineVertex
 10
27.793192
 20
45.959305
 30
0.0
 70
    32
  0
VERTEX
  5
14D8
330
14D3
100
AcDbEntity
  8
1
100
AcDbVertex
100
AcDb3dPolylineVertex
 10
28.31138799999999
 20
45.971858
 30
0.0
 70
    32
  0
VERTEX
  5
14D9
330
14D3
100
AcDbEntity
  8
1
100
AcDbVertex
100
AcDb3dPolylineVertex
 10
28.82494499999998
 20
45.98787999999998
 30
0.0
 70
    32
  0
VERTEX
  5
14DA
330
14D3
100
AcDbEntity
  8
1
100
AcDbVertex
100
AcDb3dPolylineVertex
 10
29.331981
 20
46.00700499999999
 30
0.0
 70
    32
  0
VERTEX
  5
14DB
330
14D3
100
AcDbEntity
  8
1
100
AcDbVertex
100
AcDb3dPolylineVertex
 10
29.832736
 20
46.02880899999997
 30
0.0
 70
    32
  0
VERTEX
  5
14DC
330
14D3
100
AcDbEntity
  8
1
100
AcDbVertex
100
AcDb3dPolylineVertex
 10
30.32782
 20
46.05287799999999
 30
0.0
 70
    32
  0
VERTEX
  5
14DD
330
14D3
100
AcDbEntity
  8
1
100
AcDbVertex
100
AcDb3dPolylineVertex
 10
30.81373599999989
 20
46.07885200000001
 30
0.0
 70
    32
  0
SEQEND
  5
14DE
330
14D3
100
AcDbEntity
  8
1
  0
POLYLINE
  5
14DF
330
19
100
AcDbEntity
  8
1
100
AcDb3dPolyline
 66
     1
 10
0.0
 20
0.0
 30
0.0
 70
     8
  0
VERTEX
  5
14E0
330
14DF
100
AcDbEntity
  8
1
100
AcDbVertex
100
AcDb3dPolylineVertex
 10
36.291483
 20
46.08203999999999
 30
0.0
 70
    32
  0
VERTEX
  5
14E1
330
14DF
100
AcDbEntity
  8
1
100
AcDbVertex
100
AcDb3dPolylineVertex
 10
36.264286
 20
46.048484
 30
0.0
 70
    32
  0
VERTEX
  5
14E2
330
14DF
100
AcDbEntity
  8
1
100
AcDbVertex
100
AcDb3dPolylineVertex
 10
36.156888
 20
45.94457099999998
 30
0.0
 70
    32
  0
VERTEX
  5
14E3
330
14DF
100
AcDbEntity
  8
1
100
AcDbVertex
100
AcDb3dPolylineVertex
 10
35.97129999999998
 20
45.80058
 30
0.0
 70
    32
  0
VERTEX
  5
14E4
330
14DF
100
AcDbEntity
  8
1
100
AcDbVertex
100
AcDb3dPolylineVertex
 10
35.711101
 20
45.63127399999999
 30
0.0
 70
    32
  0
VERTEX
  5
14E5
330
14DF
100
AcDbEntity
  8
1
100
AcDbVertex
100
AcDb3dPolylineVertex
 10
35.37978199999999
 20
45.44555600000001
 30
0.0
 70
    32
  0
VERTEX
  5
14E6
330
14DF
100
AcDbEntity
  8
1
100
AcDbVertex
100
AcDb3dPolylineVertex
 10
34.98097199999999
 20
45.24993799999998
 30
0.0
 70
    32
  0
VERTEX
  5
14E7
330
14DF
100
AcDbEntity
  8
1
100
AcDbVertex
100
AcDb3dPolylineVertex
 10
34.518805
 20
45.04989399999998
 30
0.0
 70
    32
  0
VERTEX
  5
14E8
330
14DF
100
AcDbEntity
  8
1
100
AcDbVertex
100
AcDb3dPolylineVertex
 10
33.99521099999998
 20
44.849296
 30
0.0
 70
    32
  0
VERTEX
  5
14E9
330
14DF
100
AcDbEntity
  8
1
100
AcDbVertex
100
AcDb3dPolylineVertex
 10
33.40958499999999
 20
44.650902
 30
0.0
 70
    32
  0
VERTEX
  5
14EA
330
14DF
100
AcDbEntity
  8
1
100
AcDbVertex
100
AcDb3dPolylineVertex
 10
32.76062899999999
 20
44.45763999999999
 30
0.0
 70
    32
  0
VERTEX
  5
14EB
330
14DF
100
AcDbEntity
  8
1
100
AcDbVertex
100
AcDb3dPolylineVertex
 10
32.04631599999999
 20
44.272984
 30
0.0
 70
    32
  0
VERTEX
  5
14EC
330
14DF
100
AcDbEntity
  8
1
100
AcDbVertex
100
AcDb3dPolylineVertex
 10
31.264223
 20
44.10115300000001
 30
0.0
 70
    32
  0
VERTEX
  5
14ED
330
14DF
100
AcDbEntity
  8
1
100
AcDbVertex
100
AcDb3dPolylineVertex
 10
30.41229599999999
 20
43.94718499999998
 30
0.0
 70
    32
  0
VERTEX
  5
14EE
330
14DF
100
AcDbEntity
  8
1
100
AcDbVertex
100
AcDb3dPolylineVertex
 10
29.48925199999999
 20
43.81698599999999
 30
0.0
 70
    32
  0
VERTEX
  5
14EF
330
14DF
100
AcDbEntity
  8
1
100
AcDbVertex
100
AcDb3dPolylineVertex
 10
28.458449
 20
43.714328
 30
0.0
 70
    32
  0
VERTEX
  5
14F0
330
14DF
100
AcDbEntity
  8
1
100
AcDbVertex
100
AcDb3dPolylineVertex
 10
27.29092199999999
 20
43.65028699999998
 30
0.0
 70
    32
  0
VERTEX
  5
14F1
330
14DF
100
AcDbEntity
  8
1
100
AcDbVertex
100
AcDb3dPolylineVertex
 10
26.5
 20
43.6374500513688
 30
0.0
 70
    32
  0
SEQEND
  5
14F2
330
14DF
100
AcDbEntity
  8
1
  0
POLYLINE
  5
14F3
330
19
100
AcDbEntity
  8
1
100
AcDb3dPolyline
 66
     1
 10
0.0
 20
0.0
 30
0.0
 70
     8
  0
VERTEX
  5
14F4
330
14F3
100
AcDbEntity
  8
1
100
AcDbVertex
100
AcDb3dPolylineVertex
 10
36.03921599999999
 20
45.73026199999998
 30
0.0
 70
    32
  0
VERTEX
  5
14F5
330
14F3
100
AcDbEntity
  8
1
100
AcDbVertex
100
AcDb3dPolylineVertex
 10
35.75185199999998
 20
45.56745899999998
 30
0.0
 70
    32
  0
VERTEX
  5
14F6
330
14F3
100
AcDbEntity
  8
1
100
AcDbVertex
100
AcDb3dPolylineVertex
 10
35.4303860000001
 20
45.40339900000001
 30
0.0
 70
    32
  0
VERTEX
  5
14F7
330
14F3
100
AcDbEntity
  8
1
100
AcDbVertex
100
AcDb3dPolylineVertex
 10
35.076309
 20
45.23950899999999
 30
0.0
 70
    32
  0
VERTEX
  5
14F8
330
14F3
100
AcDbEntity
  8
1
100
AcDbVertex
100
AcDb3dPolylineVertex
 10
34.69138199999999
 20
45.077289
 30
0.0
 70
    32
  0
VERTEX
  5
14F9
330
14F3
100
AcDbEntity
  8
1
100
AcDbVertex
100
AcDb3dPolylineVertex
 10
34.27773400000001
 20
44.91827899999998
 30
0.0
 70
    32
  0
VERTEX
  5
14FA
330
14F3
100
AcDbEntity
  8
1
100
AcDbVertex
100
AcDb3dPolylineVertex
 10
33.83733699999999
 20
44.76375599999999
 30
0.0
 70
    32
  0
VERTEX
  5
14FB
330
14F3
100
AcDbEntity
  8
1
100
AcDbVertex
100
AcDb3dPolylineVertex
 10
33.37234599999999
 20
44.61494699999999
 30
0.0
 70
    32
  0
VERTEX
  5
14FC
330
14F3
100
AcDbEntity
  8
1
100
AcDbVertex
100
AcDb3dPolylineVertex
 10
32.885818
 20
44.47328099999999
 30
0.0
 70
    32
  0
VERTEX
  5
14FD
330
14F3
100
AcDbEntity
  8
1
100
AcDbVertex
100
AcDb3dPolylineVertex
 10
32.38029799999999
 20
44.339968
 30
0.0
 70
    32
  0
VERTEX
  5
14FE
330
14F3
100
AcDbEntity
  8
1
100
AcDbVertex
100
AcDb3dPolylineVertex
 10
31.85774999999999
 20
44.216025
 30
0.0
 70
    32
  0
VERTEX
  5
14FF
330
14F3
100
AcDbEntity
  8
1
100
AcDbVertex
100
AcDb3dPolylineVertex
 10
31.32042800000001
 20
44.10243199999999
 30
0.0
 70
    32
  0
VERTEX
  5
1500
330
14F3
100
AcDbEntity
  8
1
100
AcDbVertex
100
AcDb3dPolylineVertex
 10
30.771009
 20
44.00011899999998
 30
0.0
 70
    32
  0
VERTEX
  5
1501
330
14F3
100
AcDbEntity
  8
1
100
AcDbVertex
100
AcDb3dPolylineVertex
 10
30.212436
 20
43.90988099999998
 30
0.0
 70
    32
  0
VERTEX
  5
1502
330
14F3
100
AcDbEntity
  8
1
100
AcDbVertex
100
AcDb3dPolylineVertex
 10
29.6458690000001
 20
43.832075
 30
0.0
 70
    32
  0
VERTEX
  5
1503
330
14F3
100
AcDbEntity
  8
1
100
AcDbVertex
100
AcDb3dPolylineVertex
 10
29.07219899999999
 20
43.76697899999999
 30
0.0
 70
    32
  0
VERTEX
  5
1504
330
14F3
100
AcDbEntity
  8
1
100
AcDbVertex
100
AcDb3dPolylineVertex
 10
28.494837
 20
43.71503200000001
 30
0.0
 70
    32
  0
VERTEX
  5
1505
330
14F3
100
AcDbEntity
  8
1
100
AcDbVertex
100
AcDb3dPolylineVertex
 10
27.91730700000011
 20
43.67640399999999
 30
0.0
 70
    32
  0
VERTEX
  5
1506
330
14F3
100
AcDbEntity
  8
1
100
AcDbVertex
100
AcDb3dPolylineVertex
 10
27.343299
 20
43.65098799999998
 30
0.0
 70
    32
  0
VERTEX
  5
1507
330
14F3
100
AcDbEntity
  8
1
100
AcDbVertex
100
AcDb3dPolylineVertex
 10
26.77502
 20
43.63836099999999
 30
0.0
 70
    32
  0
VERTEX
  5
1508
330
14F3
100
AcDbEntity
  8
1
100
AcDbVertex
100
AcDb3dPolylineVertex
 10
26.5
 20
43.63667715866461
 30
0.0
 70
    32
  0
SEQEND
  5
1509
330
14F3
100
AcDbEntity
  8
1
  0
POLYLINE
  5
150A
330
19
100
AcDbEntity
  8
1
100
AcDb3dPolyline
 66
     1
 10
0.0
 20
0.0
 30
0.0
 70
     8
  0
VERTEX
  5
150B
330
150A
100
AcDbEntity
  8
1
100
AcDbVertex
100
AcDb3dPolylineVertex
 10
35.87094
 20
46.16689
 30
0.0
 70
    32
  0
VERTEX
  5
150C
330
150A
100
AcDbEntity
  8
1
100
AcDbVertex
100
AcDb3dPolylineVertex
 10
36.00756200000001
 20
46.12492600000002
 30
0.0
 70
    32
  0
VERTEX
  5
150D
330
150A
100
AcDbEntity
  8
1
100
AcDbVertex
100
AcDb3dPolylineVertex
 10
36.113737
 20
46.075783
 30
0.0
 70
    32
  0
VERTEX
  5
150E
330
150A
100
AcDbEntity
  8
1
100
AcDbVertex
100
AcDb3dPolylineVertex
 10
36.189411
 20
46.019608
 30
0.0
 70
    32
  0
VERTEX
  5
150F
330
150A
100
AcDbEntity
  8
1
100
AcDbVertex
100
AcDb3dPolylineVertex
 10
36.20785999999998
 20
45.993889
 30
0.0
 70
    32
  0
SEQEND
  5
1510
330
150A
100
AcDbEntity
  8
1
  0
POLYLINE
  5
1511
330
19
100
AcDbEntity
  8
1
100
AcDb3dPolyline
 66
     1
 10
0.0
 20
0.0
 30
0.0
 70
     8
  0
VERTEX
  5
1512
330
1511
100
AcDbEntity
  8
1
100
AcDbVertex
100
AcDb3dPolylineVertex
 10
30.81373599999989
 20
46.07885200000001
 30
0.0
 70
    32
  0
VERTEX
  5
1513
330
1511
100
AcDbEntity
  8
1
100
AcDbVertex
100
AcDb3dPolylineVertex
 10
33.02395300000001
 20
46.207266
 30
0.0
 70
    32
  0
VERTEX
  5
1514
330
1511
100
AcDbEntity
  8
1
100
AcDbVertex
100
AcDb3dPolylineVertex
 10
33.41243
 20
46.22735
 30
0.0
 70
    32
  0
VERTEX
  5
1515
330
1511
100
AcDbEntity
  8
1
100
AcDbVertex
100
AcDb3dPolylineVertex
 10
33.78267199999999
 20
46.24404199999998
 30
0.0
 70
    32
  0
VERTEX
  5
1516
330
1511
100
AcDbEntity
  8
1
100
AcDbVertex
100
AcDb3dPolylineVertex
 10
34.13258900000011
 20
46.25645999999998
 30
0.0
 70
    32
  0
VERTEX
  5
1517
330
1511
100
AcDbEntity
  8
1
100
AcDbVertex
100
AcDb3dPolylineVertex
 10
34.46001299999998
 20
46.26370299999999
 30
0.0
 70
    32
  0
VERTEX
  5
1518
330
1511
100
AcDbEntity
  8
1
100
AcDbVertex
100
AcDb3dPolylineVertex
 10
34.76303200000001
 20
46.26496699999998
 30
0.0
 70
    32
  0
VERTEX
  5
1519
330
1511
100
AcDbEntity
  8
1
100
AcDbVertex
100
AcDb3dPolylineVertex
 10
35.04002299999999
 20
46.25966599999998
 30
0.0
 70
    32
  0
VERTEX
  5
151A
330
1511
100
AcDbEntity
  8
1
100
AcDbVertex
100
AcDb3dPolylineVertex
 10
35.28978699999999
 20
46.24743699999998
 30
0.0
 70
    32
  0
VERTEX
  5
151B
330
1511
100
AcDbEntity
  8
1
100
AcDbVertex
100
AcDb3dPolylineVertex
 10
35.51146399999999
 20
46.228037
 30
0.0
 70
    32
  0
VERTEX
  5
151C
330
1511
100
AcDbEntity
  8
1
100
AcDbVertex
100
AcDb3dPolylineVertex
 10
35.70502799999999
 20
46.201289
 30
0.0
 70
    32
  0
VERTEX
  5
151D
330
1511
100
AcDbEntity
  8
1
100
AcDbVertex
100
AcDb3dPolylineVertex
 10
35.87094
 20
46.16689
 30
0.0
 70
    32
  0
SEQEND
  5
151E
330
1511
100
AcDbEntity
  8
1
  0
POLYLINE
  5
151F
330
19
100
AcDbEntity
  8
1
100
AcDb3dPolyline
 66
     1
 10
0.0
 20
0.0
 30
0.0
 70
     8
  0
VERTEX
  5
1520
330
151F
100
AcDbEntity
  8
1
100
AcDbVertex
100
AcDb3dPolylineVertex
 10
36.99027499999999
 20
46.61185499999999
 30
0.0
 70
    32
  0
VERTEX
  5
1521
330
151F
100
AcDbEntity
  8
1
100
AcDbVertex
100
AcDb3dPolylineVertex
 10
36.92779699999999
 20
46.481266
 30
0.0
 70
    32
  0
VERTEX
  5
1522
330
151F
100
AcDbEntity
  8
1
100
AcDbVertex
100
AcDb3dPolylineVertex
 10
36.826197
 20
46.343388
 30
0.0
 70
    32
  0
VERTEX
  5
1523
330
151F
100
AcDbEntity
  8
1
100
AcDbVertex
100
AcDb3dPolylineVertex
 10
36.686073
 20
46.19857800000001
 30
0.0
 70
    32
  0
VERTEX
  5
1524
330
151F
100
AcDbEntity
  8
1
100
AcDbVertex
100
AcDb3dPolylineVertex
 10
36.50764699999999
 20
46.047302
 30
0.0
 70
    32
  0
VERTEX
  5
1525
330
151F
100
AcDbEntity
  8
1
100
AcDbVertex
100
AcDb3dPolylineVertex
 10
36.29156000000011
 20
45.89065699999998
 30
0.0
 70
    32
  0
SEQEND
  5
1526
330
151F
100
AcDbEntity
  8
1
  0
POLYLINE
  5
1527
330
19
100
AcDbEntity
  8
1
100
AcDb3dPolyline
 66
     1
 10
0.0
 20
0.0
 30
0.0
 70
     8
  0
VERTEX
  5
1528
330
1527
100
AcDbEntity
  8
1
100
AcDbVertex
100
AcDb3dPolylineVertex
 10
33.443044
 20
47.49834200000001
 30
0.0
 70
    32
  0
VERTEX
  5
1529
330
1527
100
AcDbEntity
  8
1
100
AcDbVertex
100
AcDb3dPolylineVertex
 10
33.88427899999999
 20
47.49290600000001
 30
0.0
 70
    32
  0
VERTEX
  5
152A
330
1527
100
AcDbEntity
  8
1
100
AcDbVertex
100
AcDb3dPolylineVertex
 10
34.3028919999999
 20
47.48297500000001
 30
0.0
 70
    32
  0
VERTEX
  5
152B
330
1527
100
AcDbEntity
  8
1
100
AcDbVertex
100
AcDb3dPolylineVertex
 10
34.69733
 20
47.46782300000001
 30
0.0
 70
    32
  0
VERTEX
  5
152C
330
1527
100
AcDbEntity
  8
1
100
AcDbVertex
100
AcDb3dPolylineVertex
 10
35.06539499999999
 20
47.44677300000001
 30
0.0
 70
    32
  0
VERTEX
  5
152D
330
1527
100
AcDbEntity
  8
1
100
AcDbVertex
100
AcDb3dPolylineVertex
 10
35.404967
 20
47.41924399999999
 30
0.0
 70
    32
  0
VERTEX
  5
152E
330
1527
100
AcDbEntity
  8
1
100
AcDbVertex
100
AcDb3dPolylineVertex
 10
35.714303
 20
47.38475399999997
 30
0.0
 70
    32
  0
VERTEX
  5
152F
330
1527
100
AcDbEntity
  8
1
100
AcDbVertex
100
AcDb3dPolylineVertex
 10
35.99196899999998
 20
47.34294099999998
 30
0.0
 70
    32
  0
VERTEX
  5
1530
330
1527
100
AcDbEntity
  8
1
100
AcDbVertex
100
AcDb3dPolylineVertex
 10
36.23695099999999
 20
47.29354699999999
 30
0.0
 70
    32
  0
VERTEX
  5
1531
330
1527
100
AcDbEntity
  8
1
100
AcDbVertex
100
AcDb3dPolylineVertex
 10
36.44862899999998
 20
47.23641499999999
 30
0.0
 70
    32
  0
VERTEX
  5
1532
330
1527
100
AcDbEntity
  8
1
100
AcDbVertex
100
AcDb3dPolylineVertex
 10
36.62714600000001
 20
47.17126999999999
 30
0.0
 70
    32
  0
VERTEX
  5
1533
330
1527
100
AcDbEntity
  8
1
100
AcDbVertex
100
AcDb3dPolylineVertex
 10
36.77299599999989
 20
47.09750600000001
 30
0.0
 70
    32
  0
VERTEX
  5
1534
330
1527
100
AcDbEntity
  8
1
100
AcDbVertex
100
AcDb3dPolylineVertex
 10
36.88478399999999
 20
47.01535799999999
 30
0.0
 70
    32
  0
VERTEX
  5
1535
330
1527
100
AcDbEntity
  8
1
100
AcDbVertex
100
AcDb3dPolylineVertex
 10
36.96176700000009
 20
46.92544
 30
0.0
 70
    32
  0
VERTEX
  5
1536
330
1527
100
AcDbEntity
  8
1
100
AcDbVertex
100
AcDb3dPolylineVertex
 10
37.00443899999999
 20
46.82814099999998
 30
0.0
 70
    32
  0
VERTEX
  5
1537
330
1527
100
AcDbEntity
  8
1
100
AcDbVertex
100
AcDb3dPolylineVertex
 10
37.01363499999999
 20
46.723558
 30
0.0
 70
    32
  0
VERTEX
  5
1538
330
1527
100
AcDbEntity
  8
1
100
AcDbVertex
100
AcDb3dPolylineVertex
 10
36.99027499999999
 20
46.61185499999999
 30
0.0
 70
    32
  0
SEQEND
  5
1539
330
1527
100
AcDbEntity
  8
1
  0
POLYLINE
  5
153A
330
19
100
AcDbEntity
  8
1
100
AcDb3dPolyline
 66
     1
 10
0.0
 20
0.0
 30
0.0
 70
     8
  0
VERTEX
  5
153B
330
153A
100
AcDbEntity
  8
1
100
AcDbVertex
100
AcDb3dPolylineVertex
 10
78.8477
 20
34.914993
 30
0.0
 70
    32
  0
VERTEX
  5
153C
330
153A
100
AcDbEntity
  8
1
100
AcDbVertex
100
AcDb3dPolylineVertex
 10
78.0244510000001
 20
34.73821900000001
 30
0.0
 70
    32
  0
VERTEX
  5
153D
330
153A
100
AcDbEntity
  8
1
100
AcDbVertex
100
AcDb3dPolylineVertex
 10
77.26218799999998
 20
34.62053199999999
 30
0.0
 70
    32
  0
VERTEX
  5
153E
330
153A
100
AcDbEntity
  8
1
100
AcDbVertex
100
AcDb3dPolylineVertex
 10
76.56367499999998
 20
34.55844200000001
 30
0.0
 70
    32
  0
VERTEX
  5
153F
330
153A
100
AcDbEntity
  8
1
100
AcDbVertex
100
AcDb3dPolylineVertex
 10
75.923438
 20
34.550286
 30
0.0
 70
    32
  0
VERTEX
  5
1540
330
153A
100
AcDbEntity
  8
1
100
AcDbVertex
100
AcDb3dPolylineVertex
 10
75.331918
 20
34.60026199999998
 30
0.0
 70
    32
  0
VERTEX
  5
1541
330
153A
100
AcDbEntity
  8
1
100
AcDbVertex
100
AcDb3dPolylineVertex
 10
74.809011
 20
34.71698699999999
 30
0.0
 70
    32
  0
VERTEX
  5
1542
330
153A
100
AcDbEntity
  8
1
100
AcDbVertex
100
AcDb3dPolylineVertex
 10
74.39530100000002
 20
34.90196
 30
0.0
 70
    32
  0
VERTEX
  5
1543
330
153A
100
AcDbEntity
  8
1
100
AcDbVertex
100
AcDb3dPolylineVertex
 10
74.11537300000003
 20
35.15161599999998
 30
0.0
 70
    32
  0
VERTEX
  5
1544
330
153A
100
AcDbEntity
  8
1
100
AcDbVertex
100
AcDb3dPolylineVertex
 10
73.98693100000001
 20
35.451875
 30
0.0
 70
    32
  0
VERTEX
  5
1545
330
153A
100
AcDbEntity
  8
1
100
AcDbVertex
100
AcDb3dPolylineVertex
 10
74.00914199999998
 20
35.78417899999999
 30
0.0
 70
    32
  0
VERTEX
  5
1546
330
153A
100
AcDbEntity
  8
1
100
AcDbVertex
100
AcDb3dPolylineVertex
 10
74.16755699999999
 20
36.129804
 30
0.0
 70
    32
  0
VERTEX
  5
1547
330
153A
100
AcDbEntity
  8
1
100
AcDbVertex
100
AcDb3dPolylineVertex
 10
74.4434210000001
 20
36.47615999999999
 30
0.0
 70
    32
  0
VERTEX
  5
1548
330
153A
100
AcDbEntity
  8
1
100
AcDbVertex
100
AcDb3dPolylineVertex
 10
74.83579500000002
 20
36.82730000000001
 30
0.0
 70
    32
  0
SEQEND
  5
1549
330
153A
100
AcDbEntity
  8
1
  0
POLYLINE
  5
154A
330
19
100
AcDbEntity
  8
1
100
AcDb3dPolyline
 66
     1
 10
0.0
 20
0.0
 30
0.0
 70
     8
  0
VERTEX
  5
154B
330
154A
100
AcDbEntity
  8
1
100
AcDbVertex
100
AcDb3dPolylineVertex
 10
83.28180000000003
 20
36.827147
 30
0.0
 70
    32
  0
VERTEX
  5
154C
330
154A
100
AcDbEntity
  8
1
100
AcDbVertex
100
AcDb3dPolylineVertex
 10
82.95849999999999
 20
36.59427299999999
 30
0.0
 70
    32
  0
VERTEX
  5
154D
330
154A
100
AcDbEntity
  8
1
100
AcDbVertex
100
AcDb3dPolylineVertex
 10
82.38423200000012
 20
36.247162
 30
0.0
 70
    32
  0
VERTEX
  5
154E
330
154A
100
AcDbEntity
  8
1
100
AcDbVertex
100
AcDb3dPolylineVertex
 10
81.69465700000001
 20
35.89950799999999
 30
0.0
 70
    32
  0
VERTEX
  5
154F
330
154A
100
AcDbEntity
  8
1
100
AcDbVertex
100
AcDb3dPolylineVertex
 10
80.88395300000001
 20
35.55547899999999
 30
0.0
 70
    32
  0
VERTEX
  5
1550
330
154A
100
AcDbEntity
  8
1
100
AcDbVertex
100
AcDb3dPolylineVertex
 10
79.94105000000008
 20
35.222574
 30
0.0
 70
    32
  0
VERTEX
  5
1551
330
154A
100
AcDbEntity
  8
1
100
AcDbVertex
100
AcDb3dPolylineVertex
 10
78.8477
 20
34.914993
 30
0.0
 70
    32
  0
SEQEND
  5
1552
330
154A
100
AcDbEntity
  8
1
  0
POLYLINE
  5
1553
330
19
100
AcDbEntity
  8
1
100
AcDb3dPolyline
 66
     1
 10
0.0
 20
0.0
 30
0.0
 70
     8
  0
VERTEX
  5
1554
330
1553
100
AcDbEntity
  8
1
100
AcDbVertex
100
AcDb3dPolylineVertex
 10
74.83579500000002
 20
36.82730000000001
 30
0.0
 70
    32
  0
VERTEX
  5
1555
330
1553
100
AcDbEntity
  8
1
100
AcDbVertex
100
AcDb3dPolylineVertex
 10
75.83389599999998
 20
37.453111
 30
0.0
 70
    32
  0
VERTEX
  5
1556
330
1553
100
AcDbEntity
  8
1
100
AcDbVertex
100
AcDb3dPolylineVertex
 10
76.9172760000001
 20
37.92939699999999
 30
0.0
 70
    32
  0
VERTEX
  5
1557
330
1553
100
AcDbEntity
  8
1
100
AcDbVertex
100
AcDb3dPolylineVertex
 10
77.9625590000001
 20
38.27053699999999
 30
0.0
 70
    32
  0
VERTEX
  5
1558
330
1553
100
AcDbEntity
  8
1
100
AcDbVertex
100
AcDb3dPolylineVertex
 10
78.93611400000003
 20
38.50835499999999
 30
0.0
 70
    32
  0
VERTEX
  5
1559
330
1553
100
AcDbEntity
  8
1
100
AcDbVertex
100
AcDb3dPolylineVertex
 10
79.84752799999998
 20
38.668686
 30
0.0
 70
    32
  0
VERTEX
  5
155A
330
1553
100
AcDbEntity
  8
1
100
AcDbVertex
100
AcDb3dPolylineVertex
 10
80.691214
 20
38.76339300000001
 30
0.0
 70
    32
  0
VERTEX
  5
155B
330
1553
100
AcDbEntity
  8
1
100
AcDbVertex
100
AcDb3dPolylineVertex
 10
81.465218
 20
38.79992099999998
 30
0.0
 70
    32
  0
VERTEX
  5
155C
330
1553
100
AcDbEntity
  8
1
100
AcDbVertex
100
AcDb3dPolylineVertex
 10
82.16620799999999
 20
38.78163699999999
 30
0.0
 70
    32
  0
VERTEX
  5
155D
330
1553
100
AcDbEntity
  8
1
100
AcDbVertex
100
AcDb3dPolylineVertex
 10
82.78322799999996
 20
38.708898
 30
0.0
 70
    32
  0
VERTEX
  5
155E
330
1553
100
AcDbEntity
  8
1
100
AcDbVertex
100
AcDb3dPolylineVertex
 10
83.29978399999998
 20
38.580588
 30
0.0
 70
    32
  0
VERTEX
  5
155F
330
1553
100
AcDbEntity
  8
1
100
AcDbVertex
100
AcDb3dPolylineVertex
 10
83.68769600000002
 20
38.39985699999999
 30
0.0
 70
    32
  0
VERTEX
  5
1560
330
1553
100
AcDbEntity
  8
1
100
AcDbVertex
100
AcDb3dPolylineVertex
 10
83.92997599999999
 20
38.17415499999998
 30
0.0
 70
    32
  0
VERTEX
  5
1561
330
1553
100
AcDbEntity
  8
1
100
AcDbVertex
100
AcDb3dPolylineVertex
 10
84.02357100000001
 20
37.907949
 30
0.0
 70
    32
  0
VERTEX
  5
1562
330
1553
100
AcDbEntity
  8
1
100
AcDbVertex
100
AcDb3dPolylineVertex
 10
83.96504099999999
 20
37.604151
 30
0.0
 70
    32
  0
VERTEX
  5
1563
330
1553
100
AcDbEntity
  8
1
100
AcDbVertex
100
AcDb3dPolylineVertex
 10
83.75768100000001
 20
37.27633199999999
 30
0.0
 70
    32
  0
VERTEX
  5
1564
330
1553
100
AcDbEntity
  8
1
100
AcDbVertex
100
AcDb3dPolylineVertex
 10
83.418127
 20
36.93822
 30
0.0
 70
    32
  0
VERTEX
  5
1565
330
1553
100
AcDbEntity
  8
1
100
AcDbVertex
100
AcDb3dPolylineVertex
 10
83.28180000000003
 20
36.827147
 30
0.0
 70
    32
  0
SEQEND
  5
1566
330
1553
100
AcDbEntity
  8
1
  0
POLYLINE
  5
1567
330
19
100
AcDbEntity
  8
1
100
AcDb3dPolyline
 66
     1
 10
0.0
 20
0.0
 30
0.0
 70
     8
  0
VERTEX
  5
1568
330
1567
100
AcDbEntity
  8
1
100
AcDbVertex
100
AcDb3dPolylineVertex
 10
78.8477
 20
-34.914993
 30
0.0
 70
    32
  0
VERTEX
  5
1569
330
1567
100
AcDbEntity
  8
1
100
AcDbVertex
100
AcDb3dPolylineVertex
 10
78.0244510000001
 20
-34.738219
 30
0.0
 70
    32
  0
VERTEX
  5
156A
330
1567
100
AcDbEntity
  8
1
100
AcDbVertex
100
AcDb3dPolylineVertex
 10
77.26218799999998
 20
-34.62053199999999
 30
0.0
 70
    32
  0
VERTEX
  5
156B
330
1567
100
AcDbEntity
  8
1
100
AcDbVertex
100
AcDb3dPolylineVertex
 10
76.56367499999998
 20
-34.558442
 30
0.0
 70
    32
  0
VERTEX
  5
156C
330
1567
100
AcDbEntity
  8
1
100
AcDbVertex
100
AcDb3dPolylineVertex
 10
75.923438
 20
-34.550286
 30
0.0
 70
    32
  0
VERTEX
  5
156D
330
1567
100
AcDbEntity
  8
1
100
AcDbVertex
100
AcDb3dPolylineVertex
 10
75.331918
 20
-34.600262
 30
0.0
 70
    32
  0
VERTEX
  5
156E
330
1567
100
AcDbEntity
  8
1
100
AcDbVertex
100
AcDb3dPolylineVertex
 10
74.809011
 20
-34.71698699999999
 30
0.0
 70
    32
  0
VERTEX
  5
156F
330
1567
100
AcDbEntity
  8
1
100
AcDbVertex
100
AcDb3dPolylineVertex
 10
74.39530100000002
 20
-34.90195899999999
 30
0.0
 70
    32
  0
VERTEX
  5
1570
330
1567
100
AcDbEntity
  8
1
100
AcDbVertex
100
AcDb3dPolylineVertex
 10
74.11537300000003
 20
-35.15161599999998
 30
0.0
 70
    32
  0
VERTEX
  5
1571
330
1567
100
AcDbEntity
  8
1
100
AcDbVertex
100
AcDb3dPolylineVertex
 10
73.98693100000001
 20
-35.451875
 30
0.0
 70
    32
  0
VERTEX
  5
1572
330
1567
100
AcDbEntity
  8
1
100
AcDbVertex
100
AcDb3dPolylineVertex
 10
74.00914199999998
 20
-35.78417899999999
 30
0.0
 70
    32
  0
VERTEX
  5
1573
330
1567
100
AcDbEntity
  8
1
100
AcDbVertex
100
AcDb3dPolylineVertex
 10
74.16755699999999
 20
-36.129804
 30
0.0
 70
    32
  0
VERTEX
  5
1574
330
1567
100
AcDbEntity
  8
1
100
AcDbVertex
100
AcDb3dPolylineVertex
 10
74.4434210000001
 20
-36.47616
 30
0.0
 70
    32
  0
VERTEX
  5
1575
330
1567
100
AcDbEntity
  8
1
100
AcDbVertex
100
AcDb3dPolylineVertex
 10
74.83579500000002
 20
-36.8273
 30
0.0
 70
    32
  0
SEQEND
  5
1576
330
1567
100
AcDbEntity
  8
1
  0
POLYLINE
  5
1577
330
19
100
AcDbEntity
  8
1
100
AcDb3dPolyline
 66
     1
 10
0.0
 20
0.0
 30
0.0
 70
     8
  0
VERTEX
  5
1578
330
1577
100
AcDbEntity
  8
1
100
AcDbVertex
100
AcDb3dPolylineVertex
 10
74.83579500000002
 20
-36.8273
 30
0.0
 70
    32
  0
VERTEX
  5
1579
330
1577
100
AcDbEntity
  8
1
100
AcDbVertex
100
AcDb3dPolylineVertex
 10
75.83389599999998
 20
-37.453111
 30
0.0
 70
    32
  0
VERTEX
  5
157A
330
1577
100
AcDbEntity
  8
1
100
AcDbVertex
100
AcDb3dPolylineVertex
 10
76.9172760000001
 20
-37.92939699999999
 30
0.0
 70
    32
  0
VERTEX
  5
157B
330
1577
100
AcDbEntity
  8
1
100
AcDbVertex
100
AcDb3dPolylineVertex
 10
77.9625590000001
 20
-38.270537
 30
0.0
 70
    32
  0
VERTEX
  5
157C
330
1577
100
AcDbEntity
  8
1
100
AcDbVertex
100
AcDb3dPolylineVertex
 10
78.93611400000003
 20
-38.508355
 30
0.0
 70
    32
  0
VERTEX
  5
157D
330
1577
100
AcDbEntity
  8
1
100
AcDbVertex
100
AcDb3dPolylineVertex
 10
79.84752799999998
 20
-38.668686
 30
0.0
 70
    32
  0
VERTEX
  5
157E
330
1577
100
AcDbEntity
  8
1
100
AcDbVertex
100
AcDb3dPolylineVertex
 10
80.691214
 20
-38.763393
 30
0.0
 70
    32
  0
VERTEX
  5
157F
330
1577
100
AcDbEntity
  8
1
100
AcDbVertex
100
AcDb3dPolylineVertex
 10
81.465218
 20
-38.79992099999999
 30
0.0
 70
    32
  0
VERTEX
  5
1580
330
1577
100
AcDbEntity
  8
1
100
AcDbVertex
100
AcDb3dPolylineVertex
 10
82.16620799999999
 20
-38.78163699999999
 30
0.0
 70
    32
  0
VERTEX
  5
1581
330
1577
100
AcDbEntity
  8
1
100
AcDbVertex
100
AcDb3dPolylineVertex
 10
82.78322799999996
 20
-38.708898
 30
0.0
 70
    32
  0
VERTEX
  5
1582
330
1577
100
AcDbEntity
  8
1
100
AcDbVertex
100
AcDb3dPolylineVertex
 10
83.29978399999998
 20
-38.580588
 30
0.0
 70
    32
  0
VERTEX
  5
1583
330
1577
100
AcDbEntity
  8
1
100
AcDbVertex
100
AcDb3dPolylineVertex
 10
83.68769600000002
 20
-38.39985699999999
 30
0.0
 70
    32
  0
VERTEX
  5
1584
330
1577
100
AcDbEntity
  8
1
100
AcDbVertex
100
AcDb3dPolylineVertex
 10
83.92997599999999
 20
-38.174155
 30
0.0
 70
    32
  0
VERTEX
  5
1585
330
1577
100
AcDbEntity
  8
1
100
AcDbVertex
100
AcDb3dPolylineVertex
 10
84.02357100000001
 20
-37.907949
 30
0.0
 70
    32
  0
VERTEX
  5
1586
330
1577
100
AcDbEntity
  8
1
100
AcDbVertex
100
AcDb3dPolylineVertex
 10
83.96504099999999
 20
-37.604151
 30
0.0
 70
    32
  0
VERTEX
  5
1587
330
1577
100
AcDbEntity
  8
1
100
AcDbVertex
100
AcDb3dPolylineVertex
 10
83.75768100000001
 20
-37.27633199999999
 30
0.0
 70
    32
  0
VERTEX
  5
1588
330
1577
100
AcDbEntity
  8
1
100
AcDbVertex
100
AcDb3dPolylineVertex
 10
83.418127
 20
-36.93822
 30
0.0
 70
    32
  0
VERTEX
  5
1589
330
1577
100
AcDbEntity
  8
1
100
AcDbVertex
100
AcDb3dPolylineVertex
 10
83.28180000000003
 20
-36.827147
 30
0.0
 70
    32
  0
SEQEND
  5
158A
330
1577
100
AcDbEntity
  8
1
  0
POLYLINE
  5
158B
330
19
100
AcDbEntity
  8
1
100
AcDb3dPolyline
 66
     1
 10
0.0
 20
0.0
 30
0.0
 70
     8
  0
VERTEX
  5
158C
330
158B
100
AcDbEntity
  8
1
100
AcDbVertex
100
AcDb3dPolylineVertex
 10
83.28180000000003
 20
-36.827147
 30
0.0
 70
    32
  0
VERTEX
  5
158D
330
158B
100
AcDbEntity
  8
1
100
AcDbVertex
100
AcDb3dPolylineVertex
 10
82.95849999999999
 20
-36.594273
 30
0.0
 70
    32
  0
VERTEX
  5
158E
330
158B
100
AcDbEntity
  8
1
100
AcDbVertex
100
AcDb3dPolylineVertex
 10
82.38423200000012
 20
-36.247162
 30
0.0
 70
    32
  0
VERTEX
  5
158F
330
158B
100
AcDbEntity
  8
1
100
AcDbVertex
100
AcDb3dPolylineVertex
 10
81.69465700000001
 20
-35.89950799999999
 30
0.0
 70
    32
  0
VERTEX
  5
1590
330
158B
100
AcDbEntity
  8
1
100
AcDbVertex
100
AcDb3dPolylineVertex
 10
80.88395300000001
 20
-35.555479
 30
0.0
 70
    32
  0
VERTEX
  5
1591
330
158B
100
AcDbEntity
  8
1
100
AcDbVertex
100
AcDb3dPolylineVertex
 10
79.94105000000008
 20
-35.222574
 30
0.0
 70
    32
  0
VERTEX
  5
1592
330
158B
100
AcDbEntity
  8
1
100
AcDbVertex
100
AcDb3dPolylineVertex
 10
78.8477
 20
-34.914993
 30
0.0
 70
    32
  0
SEQEND
  5
1593
330
158B
100
AcDbEntity
  8
1
  0
DIMENSION
  5
1595
330
19
100
AcDbEntity
  8
2
100
AcDbDimension
  2
*D0
 10
171.8227593123597
 20
64.79843731654669
 30
0.0
 11
168.3227593123596
 21
0.0000000000000183
 31
0.0
 70
    32
  1
%%c114-205
 71
     5
 42
129.5968746330934
  3
V-TYG_160-300
100
AcDbAlignedDimension
 13
119.205910829775
 23
-64.79843731654671
 33
0.0
 14
119.205910829775
 24
64.79843731654671
 34
0.0
 50
90.0
100
AcDbRotatedDimension
1001
ACAD
1000
DSTYLE
1002
{
1070
   340
1005
1F
1002
}
  0
DIMENSION
  5
1596
330
19
100
AcDbEntity
  8
2
100
AcDbDimension
  2
*D1
 10
0.0000000000000017
 20
75.00000000000001
 30
0.0
 11
59.99956346507099
 21
75.00000000000001
 31
0.0
 70
   160
 71
     5
 42
119.9991269301419
  3
V-TYG_160-300
100
AcDbAlignedDimension
 13
119.9991269301419
 23
63.99843731654669
 33
0.0
 14
0.0
 24
46.5
 34
0.0
 50
180.0
100
AcDbRotatedDimension
1001
ACAD
1000
DSTYLE
1002
{
1070
   340
1005
1F
1002
}
  0
LINE
  5
1597
330
19
100
AcDbEntity
  8
4
100
AcDbLine
 10
31.75966883434409
 20
0.0
 30
0.0
 11
76.37494858531444
 21
-34.857273035511
 31
0.0
  0
CIRCLE
  5
1598
330
19
100
AcDbEntity
  8
3
100
AcDbCircle
 10
113.6491269301419
 20
57.38420487764878
 30
0.0
 40
1.5
  0
LINE
  5
1599
330
19
100
AcDbEntity
  8
4
100
AcDbLine
 10
31.75966883434409
 20
0.0
 30
0.0
 11
76.37494858531444
 21
34.85727303551101
 31
0.0
  0
ARC
  5
159A
330
19
100
AcDbEntity
  8
3
100
AcDbCircle
 10
200.0
 20
-29.700523
 30
0.0
 40
100.00000032613
100
AcDbArc
 50
143.9009834850118
 51
162.7221812885601
  0
LINE
  5
159B
330
19
100
AcDbEntity
  8
3
100
AcDbLine
 10
119.1999999999999
 20
51.91501458087839
 30
0.0
 11
119.1999999999999
 21
29.217726
 31
0.0
  0
LINE
  5
159C
330
19
100
AcDbEntity
  8
3
100
AcDbLine
 10
119.060208388009
 20
64.7862835189565
 30
0.0
 11
107.9602083880079
 21
62.82905403309249
 31
0.0
  0
ARC
  5
159D
330
19
100
AcDbEntity
  8
3
100
AcDbCircle
 10
119.199126930142
 20
63.99843731654669
 30
0.0
 40
0.8
100
AcDbArc
 50
0.0
 51
100.0000000000001
  0
ARC
  5
159E
330
19
100
AcDbEntity
  8
3
100
AcDbCircle
 10
119.199126930142
 20
52.727201924615
 30
0.0
 40
0.8
100
AcDbArc
 50
280.0000000000001
 51
0.0
  0
LINE
  5
159F
330
19
100
AcDbEntity
  8
3
100
AcDbLine
 10
119.338045472276
 20
51.93935572220519
 30
0.0
 11
108.238045472275
 21
49.9821262363412
 31
0.0
  0
ARC
  5
15A0
330
19
100
AcDbEntity
  8
3
100
AcDbCircle
 10
108.099126930142
 20
50.7699724387509
 30
0.0
 40
0.8
100
AcDbArc
 50
180.0
 51
280.0000000000001
  0
LINE
  5
15A1
330
19
100
AcDbEntity
  8
3
100
AcDbLine
 10
107.299126930142
 20
62.04120783068271
 30
0.0
 11
107.299126930142
 21
50.7699724387509
 31
0.0
  0
ARC
  5
15A2
330
19
100
AcDbEntity
  8
3
100
AcDbCircle
 10
108.099126930142
 20
62.04120783068271
 30
0.0
 40
0.8
100
AcDbArc
 50
100.0000000000001
 51
180.0000000000007
  0
LINE
  5
15A3
330
19
100
AcDbEntity
  8
3
100
AcDbLine
 10
119.9991269301419
 20
63.99843731654669
 30
0.0
 11
119.9991269301419
 21
52.727201924615
 31
0.0
  0
LINE
  5
15A4
330
19
100
AcDbEntity
  8
3
100
AcDbLine
 10
68.15846299999998
 20
55.28895399999989
 30
0.0
 11
107.299126930142
 21
62.19184316533191
 31
0.0
  0
LINE
  5
15A5
330
19
100
AcDbEntity
  8
3
100
AcDbLine
 10
40.0
 20
55.28895399999989
 30
0.0
 11
68.15846299999998
 21
55.28895399999989
 31
0.0
  0
LINE
  5
15A6
330
19
100
AcDbEntity
  8
3
100
AcDbLine
 10
39.50139099999998
 20
54.79822399999989
 30
0.0
 11
40.0
 21
55.28895399999989
 31
0.0
  0
LINE
  5
15A7
330
19
100
AcDbEntity
  8
3
100
AcDbLine
 10
39.0
 20
47.5
 30
0.0
 11
39.0
 21
54.2887229999999
 31
0.0
  0
LINE
  5
15A8
330
19
100
AcDbEntity
  8
3
100
AcDbLine
 10
93.0
 20
-52.2889539999999
 30
0.0
 11
93.0
 21
-39.68999999999999
 31
0.0
  0
LINE
  5
15A9
330
19
100
AcDbEntity
  8
3
100
AcDbLine
 10
39.0
 20
-52.2889539999999
 30
0.0
 11
93.0
 21
-52.2889539999999
 31
0.0
  0
LINE
  5
15AA
330
19
100
AcDbEntity
  8
3
100
AcDbLine
 10
99.99999999999994
 20
38.689638
 30
0.0
 11
99.4986079999999
 21
39.19926999999998
 31
0.0
  0
LINE
  5
15AB
330
19
100
AcDbEntity
  8
3
100
AcDbLine
 10
99.4986079999999
 20
39.19926999999998
 30
0.0
 11
98.99999999999996
 21
39.68999999999999
 31
0.0
  0
LINE
  5
15AC
330
19
100
AcDbEntity
  8
3
100
AcDbLine
 10
40.0
 20
-55.28895399999989
 30
0.0
 11
68.15846299999998
 21
-55.28895399999989
 31
0.0
  0
LINE
  5
15AD
330
19
100
AcDbEntity
  8
3
100
AcDbLine
 10
93.0
 20
39.68999999999999
 30
0.0
 11
98.99999999999996
 21
39.68999999999999
 31
0.0
  0
LINE
  5
15AE
330
19
100
AcDbEntity
  8
3
100
AcDbLine
 10
39.50139099999998
 20
-54.79822399999989
 30
0.0
 11
39.0
 21
-54.2887229999999
 31
0.0
  0
LINE
  5
15AF
330
19
100
AcDbEntity
  8
3
100
AcDbLine
 10
39.50139099999998
 20
-54.79822399999989
 30
0.0
 11
40.0
 21
-55.28895399999989
 31
0.0
  0
LINE
  5
15B0
330
19
100
AcDbEntity
  8
3
100
AcDbLine
 10
99.99999999999994
 20
38.689638
 30
0.0
 11
99.99999999999994
 21
29.700523
 31
0.0
  0
LINE
  5
15B1
330
19
100
AcDbEntity
  8
3
100
AcDbLine
 10
39.0
 20
-47.5
 30
0.0
 11
39.0
 21
-54.2887229999999
 31
0.0
  0
LINE
  5
15B2
330
19
100
AcDbEntity
  8
3
100
AcDbLine
 10
68.15846299999998
 20
-55.28895399999989
 30
0.0
 11
119.1999999999999
 21
-64.2906938112621
 31
0.0
  0
ARC
  5
15B3
330
19
100
AcDbEntity
  8
3
100
AcDbCircle
 10
-200.0
 20
29.700523
 30
0.0
 40
100.00000032613
210
0.0
220
0.0
230
-1.0
100
AcDbArc
 50
323.9009834850118
 51
0.0
  0
LINE
  5
15B4
330
19
100
AcDbEntity
  8
3
100
AcDbLine
 10
119.060208388009
 20
-64.7862835189565
 30
0.0
 11
107.9602083880079
 21
-62.8290540330925
 31
0.0
  0
ARC
  5
15B5
330
19
100
AcDbEntity
  8
3
100
AcDbCircle
 10
-119.199126930142
 20
-63.9984373165467
 30
0.0
 40
0.8
210
0.0
220
0.0
230
-1.0
100
AcDbArc
 50
180.0
 51
280.0000000000009
  0
ARC
  5
15B6
330
19
100
AcDbEntity
  8
3
100
AcDbCircle
 10
-119.199126930142
 20
-52.727201924615
 30
0.0
 40
0.8
210
0.0
220
0.0
230
-1.0
100
AcDbArc
 50
90.0625290350055
 51
180.0
  0
ARC
  5
15B7
330
19
100
AcDbEntity
  8
3
100
AcDbCircle
 10
-108.099126930142
 20
-62.04120783068271
 30
0.0
 40
0.8
210
0.0
220
0.0
230
-1.0
100
AcDbArc
 50
280.0000000000009
 51
348.9561489336967
  0
LINE
  5
15B8
330
19
100
AcDbEntity
  8
3
100
AcDbLine
 10
119.9991269301419
 20
-63.9984373165467
 30
0.0
 11
119.9991269301419
 21
-52.727201924615
 31
0.0
  0
LINE
  5
15B9
330
19
100
AcDbEntity
  8
3
100
AcDbLine
 10
119.1999999999999
 20
-64.2906938112621
 30
0.0
 11
119.1999999999999
 21
-29.217726
 31
0.0
  0
LINE
  5
15BA
330
19
100
AcDbEntity
  8
SK3
100
AcDbLine
 10
-49.9999999999995
 20
-2.499999999999984
 30
0.0
 11
-9.0
 21
-2.499999999999984
 31
0.0
  0
LINE
  5
15BB
330
19
100
AcDbEntity
  8
SK3
100
AcDbLine
 10
-49.9999999999995
 20
2.500000000000014
 30
0.0
 11
-9.000000000000008
 21
2.500000000000014
 31
0.0
  0
LINE
  5
15BC
330
19
100
AcDbEntity
  8
1
100
AcDbLine
 10
29.0335785676273
 20
45.58326113262331
 30
0.0
 11
31.93039876873359
 21
44.23245168854939
 31
0.0
  0
LINE
  5
15BD
330
19
100
AcDbEntity
  8
1
100
AcDbLine
 10
23.96642143237269
 20
45.58326113262331
 30
0.0
 11
21.06960123126639
 21
44.23245168854939
 31
0.0
  0
LINE
  5
15BE
330
19
100
AcDbEntity
  8
1
100
AcDbLine
 10
26.5
 20
45.58326113262331
 30
0.0
 11
29.0335785676273
 21
45.58326113262331
 31
0.0
  0
LINE
  5
15BF
330
19
100
AcDbEntity
  8
1
100
AcDbLine
 10
1.0
 20
47.5
 30
0.0
 11
20.03911905969019
 21
47.5
 31
0.0
  0
LINE
  5
15C0
330
19
100
AcDbEntity
  8
1
100
AcDbLine
 10
32.96025099997731
 20
47.499997
 30
0.0
 11
39.0
 21
47.499997
 31
0.0
  0
LINE
  5
15C1
330
19
100
AcDbEntity
  8
1
100
AcDbLine
 10
26.5
 20
45.58326113262331
 30
0.0
 11
23.96642143237269
 21
45.58326113262331
 31
0.0
  0
LINE
  5
15C2
330
19
100
AcDbEntity
  8
1
100
AcDbLine
 10
16.70843999999989
 20
45.89065699999998
 30
0.0
 11
16.960784
 21
45.73026199999998
 31
0.0
  0
LINE
  5
15C3
330
19
100
AcDbEntity
  8
1
100
AcDbLine
 10
36.29156000000011
 20
45.89065699999998
 30
0.0
 11
36.03921599999999
 21
45.73026199999998
 31
0.0
  0
LINE
  5
15C5
330
19
100
AcDbEntity
  8
SK3
100
AcDbLine
 10
36.1452012016085
 20
0.0000000000000142
 30
0.0
 11
83.27348099999989
 21
36.820648
 31
0.0
  0
LINE
  5
15C6
330
19
100
AcDbEntity
  8
SK3
100
AcDbLine
 10
30.8988498742227
 20
2.499999999999984
 30
0.0
 11
74.83579500000002
 21
36.82730000000001
 31
0.0
  0
LINE
  5
15C7
330
19
100
AcDbEntity
  8
SK3
100
AcDbLine
 10
36.1452012016084
 20
0.0000000000000142
 30
0.0
 11
83.27348099999989
 21
-36.820648
 31
0.0
  0
LINE
  5
15C8
330
19
100
AcDbEntity
  8
SK3
100
AcDbLine
 10
30.8988498742227
 20
-2.5
 30
0.0
 11
74.83579500000002
 21
-36.8273
 31
0.0
  0
LINE
  5
15C9
330
19
100
AcDbEntity
  8
1
100
AcDbLine
 10
68.8867513459481
 20
-4.999999999999983
 30
0.0
 11
71.77350269189628
 21
0.0000000000000142
 31
0.0
  0
LINE
  5
15CA
330
19
100
AcDbEntity
  8
1
100
AcDbLine
 10
63.1132486540519
 20
-4.999999999999983
 30
0.0
 11
68.8867513459481
 21
-4.999999999999983
 31
0.0
  0
LINE
  5
15CB
330
19
100
AcDbEntity
  8
1
100
AcDbLine
 10
60.22649730810371
 20
0.0000000000000142
 30
0.0
 11
63.1132486540519
 21
-4.999999999999983
 31
0.0
  0
LINE
  5
15CC
330
19
100
AcDbEntity
  8
1
100
AcDbLine
 10
63.1132486540519
 20
5.000000000000012
 30
0.0
 11
60.22649730810371
 21
0.0000000000000142
 31
0.0
  0
LINE
  5
15CD
330
19
100
AcDbEntity
  8
1
100
AcDbLine
 10
68.8867513459481
 20
5.000000000000012
 30
0.0
 11
63.1132486540519
 21
5.000000000000012
 31
0.0
  0
LINE
  5
15CE
330
19
100
AcDbEntity
  8
1
100
AcDbLine
 10
71.77350269189628
 20
0.0000000000000142
 30
0.0
 11
68.8867513459481
 21
5.000000000000012
 31
0.0
  0
CIRCLE
  5
15CF
330
19
100
AcDbEntity
  8
1
100
AcDbCircle
 10
66.0
 20
0.0000000000000142
 30
0.0
 40
18.0
  0
CIRCLE
  5
15D0
330
19
100
AcDbEntity
  8
1
100
AcDbCircle
 10
66.0
 20
0.0000000000000142
 30
0.0
 40
20.0
  0
LINE
  5
15D2
330
19
100
AcDbEntity
  8
1
100
AcDbLine
 10
39.0
 20
47.5
 30
0.0
 11
39.0
 21
39.68999999999999
 31
0.0
  0
LINE
  5
15D3
330
19
100
AcDbEntity
  8
1
100
AcDbLine
 10
93.0
 20
39.68999999999999
 30
0.0
 11
93.0
 21
-39.68999999999999
 31
0.0
  0
LINE
  5
15D4
330
19
100
AcDbEntity
  8
1
100
AcDbLine
 10
39.0
 20
-39.68999999999999
 30
0.0
 11
93.0
 21
-39.68999999999999
 31
0.0
  0
LINE
  5
15D5
330
19
100
AcDbEntity
  8
4
100
AcDbLine
 10
0.0
 20
0.0
 30
0.0
 11
117.1642929099109
 21
0.0
 31
0.0
  0
LINE
  5
15D6
330
19
100
AcDbEntity
  8
1
100
AcDbLine
 10
39.0
 20
39.68999999999999
 30
0.0
 11
93.0
 21
39.68999999999999
 31
0.0
  0
LINE
  5
15D7
330
19
100
AcDbEntity
  8
1
100
AcDbLine
 10
39.0
 20
-39.68999999999999
 30
0.0
 11
39.0
 21
-47.5
 31
0.0
  0
DIMENSION
  5
15DA
330
19
100
AcDbEntity
  8
SK2
100
AcDbDimension
  2
*D2
 10
-97.21738721702401
 20
-47.49999999999997
 30
0.0
 11
-100.717387217024
 21
0.0000000000000135
 31
0.0
 70
    32
  1
%%c95
 71
     5
 42
95.0
  3
V-TYG_160-300
100
AcDbAlignedDimension
 13
1.0
 23
47.5
 33
0.0
 14
0.9999999999999856
 24
-47.5
 34
0.0
 50
270.0
100
AcDbRotatedDimension
1001
ACAD
1000
DSTYLE
1002
{
1070
   340
1005
1F
1002
}
  0
DIMENSION
  5
15DB
330
19
100
AcDbEntity
  8
SK2
100
AcDbDimension
  2
*D3
 10
-62.57522407452402
 20
-23.0
 30
0.0
 11
-66.07522407452401
 21
-0.0000000000000064
 31
0.0
 70
    32
  1
%%c46
 71
     5
 42
46.0
  3
V-TYG_160-300
100
AcDbAlignedDimension
 13
-47.9999999999995
 23
23.0
 33
0.0
 14
-47.9999999999995
 24
-23.0
 34
0.0
 50
270.0
100
AcDbRotatedDimension
1001
ACAD
1000
DSTYLE
1002
{
1070
   340
1005
1F
1002
}
  0
LINE
  5
15DD
330
19
100
AcDbEntity
  8
1
100
AcDbLine
 10
0.9999999999999856
 20
-8.999999999999984
 30
0.0
 11
0.9999999999999856
 21
-47.5
 31
0.0
  0
LINE
  5
15DE
330
19
100
AcDbEntity
  8
1
100
AcDbLine
 10
1.0
 20
47.5
 30
0.0
 11
0.9999999999999856
 21
9.000000000000012
 31
0.0
  0
LINE
  5
15DF
330
19
100
AcDbEntity
  8
1
100
AcDbLine
 10
0.0
 20
46.5
 30
0.0
 11
1.0
 21
47.5
 31
0.0
  0
LINE
  5
15E0
330
19
100
AcDbEntity
  8
1
100
AcDbLine
 10
-0.0000000000000142
 20
-46.5
 30
0.0
 11
0.9999999999999856
 21
-47.5
 31
0.0
  0
LINE
  5
15E1
330
19
100
AcDbEntity
  8
1
100
AcDbLine
 10
0.0
 20
46.5
 30
0.0
 11
0.0
 21
9.0
 31
0.0
  0
LINE
  5
15E2
330
19
100
AcDbEntity
  8
1
100
AcDbLine
 10
-9.0
 20
9.0
 30
0.0
 11
-9.0
 21
-9.0
 31
0.0
  0
LINE
  5
15E3
330
19
100
AcDbEntity
  8
1
100
AcDbLine
 10
39.0
 20
-47.5
 30
0.0
 11
0.9999999999999856
 21
-47.5
 31
0.0
  0
LINE
  5
15E4
330
19
100
AcDbEntity
  8
1
100
AcDbLine
 10
0.0
 20
-9.0
 30
0.0
 11
-0.0000000000000142
 21
-46.5
 31
0.0
  0
LINE
  5
15E5
330
19
100
AcDbEntity
  8
1
100
AcDbLine
 10
15.0
 20
9.0
 30
0.0
 11
-9.0
 21
9.0
 31
0.0
  0
ARC
  5
15E6
330
19
100
AcDbEntity
  8
SK1
100
AcDbCircle
 10
17.59999999999939
 20
23.79999999999999
 30
0.0
 40
12.0
210
0.0
220
0.0
230
-1.0
100
AcDbArc
 50
183.8225537292741
 51
356.1774462707258
  0
ARC
  5
15E7
330
19
100
AcDbEntity
  8
SK1
100
AcDbCircle
 10
-17.59999999999939
 20
-23.79999999999999
 30
0.0
 40
12.0
100
AcDbArc
 50
3.822553729274122
 51
176.1774462707258
  0
LINE
  5
15E8
330
19
100
AcDbEntity
  8
SK1
100
AcDbLine
 10
-47.9999999999995
 20
23.0
 30
0.0
 11
-47.9999999999995
 21
-23.0
 31
0.0
  0
LINE
  5
15E9
330
19
100
AcDbEntity
  8
SK1
100
AcDbLine
 10
-49.9999999999995
 20
-21.0
 30
0.0
 11
-47.9999999999995
 21
-23.0
 31
0.0
  0
LINE
  5
15EA
330
19
100
AcDbEntity
  8
SK1
100
AcDbLine
 10
-47.9999999999995
 20
23.0
 30
0.0
 11
-49.9999999999995
 21
21.0
 31
0.0
  0
LINE
  5
15EB
330
19
100
AcDbEntity
  8
SK1
100
AcDbLine
 10
-49.9999999999995
 20
21.0
 30
0.0
 11
-49.9999999999995
 21
-21.0
 31
0.0
  0
LINE
  5
15EC
330
19
100
AcDbEntity
  8
SK1
100
AcDbLine
 10
0.0
 20
23.0
 30
0.0
 11
-47.9999999999995
 21
23.0
 31
0.0
  0
LINE
  5
15ED
330
19
100
AcDbEntity
  8
SK1
100
AcDbLine
 10
0.0
 20
-23.0
 30
0.0
 11
-47.9999999999995
 21
-23.0
 31
0.0
  0
ARC
  5
15EE
330
19
100
AcDbEntity
  8
1
100
AcDbCircle
 10
15.0
 20
0.0
 30
0.0
 40
9.0
100
AcDbArc
 50
270.0
 51
90.0
  0
LINE
  5
15EF
330
19
100
AcDbEntity
  8
1
100
AcDbLine
 10
15.0
 20
-9.0
 30
0.0
 11
-9.0
 21
-9.0
 31
0.0
  0
LINE
  5
16E6
330
19
100
AcDbEntity
  8
SK3
100
AcDbLine
 10
-7.256172171721117
 20
2.500000000000014
 30
0.0
 11
30.89884987422272
 21
2.500000000000014
 31
0.0
  0
LINE
  5
16E7
330
19
100
AcDbEntity
  8
SK3
100
AcDbLine
 10
-7.256172171721117
 20
-2.499999999999984
 30
0.0
 11
30.8988498742228
 21
-2.499999999999984
 31
0.0
  0
LINE
  5
16F1
330
19
100
AcDbEntity
  8
SK4
100
AcDbLine
 10
117.1642929099109
 20
0.0
 30
0.0
 11
-55.85098590484154
 21
0.0
 31
0.0
  0
ENDSEC
  0
SECTION
  2
OBJECTS
  0
DICTIONARY
  5
C
330
0
100
AcDbDictionary
281
     1
  3
ACAD_COLOR
350
1769
  3
ACAD_GROUP
350
D
  3
ACAD_LAYOUT
350
176C
  3
ACAD_MATERIAL
350
1754
  3
ACAD_MLINESTYLE
350
E
  3
ACAD_PLOTSETTINGS
350
A86
  3
ACAD_PLOTSTYLENAME
350
1752
  3
ACAD_TABLESTYLE
350
176A
  3
ACAD_VISUALSTYLE
350
1758
  3
AcDbVariableDictionary
350
1770
  3
DWGPROPS
350
17D7
1001
ACAD
1000
TREAT_AS_HARD
1070
     0
1000
TREAT_AS_HARD
1070
     0
  0
DICTIONARY
  5
E8D
330
19
100
AcDbDictionary
281
     1
  3
ACAD_LAYOUTSELFREF
350
174B
1001
ACAD
1000
TREAT_AS_HARD
1070
     1
  0
DICTIONARY
  5
E8B
330
16
100
AcDbDictionary
281
     1
  3
ACAD_LAYOUTSELFREF
350
174A
1001
ACAD
1000
TREAT_AS_HARD
1070
     1
  0
DICTIONARY
  5
1769
102
{ACAD_REACTORS
330
C
102
}
330
C
100
AcDbDictionary
281
     1
  0
DICTIONARY
  5
D
102
{ACAD_REACTORS
330
C
102
}
330
C
100
AcDbDictionary
281
     1
1001
ACAD
1000
TREAT_AS_HARD
1070
     0
1000
TREAT_AS_HARD
1070
     0
  0
DICTIONARY
  5
176C
102
{ACAD_REACTORS
330
C
102
}
330
C
100
AcDbDictionary
281
     1
  3
Layout1
350
176E
  3
Model
350
176D
  0
DICTIONARY
  5
1754
102
{ACAD_REACTORS
330
C
102
}
330
C
100
AcDbDictionary
281
     1
  3
ByBlock
350
1756
  3
ByLayer
350
1755
  3
Global
350
1757
  0
DICTIONARY
  5
E
102
{ACAD_REACTORS
330
C
102
}
330
C
100
AcDbDictionary
281
     1
  3
STANDARD
350
1C
1001
ACAD
1000
TREAT_AS_HARD
1070
     0
1000
TREAT_AS_HARD
1070
     0
  0
DICTIONARY
  5
A86
102
{ACAD_REACTORS
330
C
102
}
330
C
100
AcDbDictionary
281
     1
1001
ACAD
1000
TREAT_AS_HARD
1070
     0
1000
TREAT_AS_HARD
1070
     0
  0
ACDBDICTIONARYWDFLT
  5
1752
102
{ACAD_REACTORS
330
C
102
}
330
C
100
AcDbDictionary
281
     1
  3
Normal
350
1753
100
AcDbDictionaryWithDefault
340
1753
  0
DICTIONARY
  5
176A
102
{ACAD_REACTORS
330
C
102
}
330
C
100
AcDbDictionary
281
     1
  3
Standard
350
176B
  0
DICTIONARY
  5
1758
102
{ACAD_REACTORS
330
C
102
}
330
C
100
AcDbDictionary
281
     1
  3
2dWireframe
350
175E
  3
3D Hidden
350
1760
  3
3dWireframe
350
175F
  3
Basic
350
175D
  3
Brighten
350
1764
  3
ColorChange
350
1768
  3
Conceptual
350
1761
  3
Dim
350
1763
  3
Facepattern
350
1767
  3
Flat
350
1759
  3
FlatWithEdges
350
175A
  3
Gouraud
350
175B
  3
GouraudWithEdges
350
175C
  3
Linepattern
350
1766
  3
Realistic
350
1762
  3
Thicken
350
1765
  0
DICTIONARY
  5
1770
102
{ACAD_REACTORS
330
C
102
}
330
C
100
AcDbDictionary
281
     1
  3
CTABLESTYLE
350
1771
  3
DIMASSOC
350
1774
  3
INDEXCTL
350
1773
  3
SORTENTS
350
1772
  0
XRECORD
  5
17D7
102
{ACAD_REACTORS
330
C
102
}
330
C
100
AcDbXrecord
280
     1
  1
DWGPROPS COOKIE
  2

  3

  4

  6

  7

  8
deerkdanf
  9

300
=
301
=
302
=
303
=
304
=
305
=
306
=
307
=
308
=
309
=
 40
0.0064388657407407
 41
2454564.424098727
 42
2454620.44414081
  1

 90
        0
  0
XRECORD
  5
174B
102
{ACAD_REACTORS
330
E8D
102
}
330
E8D
100
AcDbXrecord
280
     1
340
19
  0
XRECORD
  5
174A
102
{ACAD_REACTORS
330
E8B
102
}
330
E8B
100
AcDbXrecord
280
     1
340
16
  0
LAYOUT
  5
176E
102
{ACAD_XDICTIONARY
360
17DC
102
}
102
{ACAD_REACTORS
330
176C
102
}
330
176C
100
AcDbPlotSettings
  1

  2
hp LaserJet 1300 PCL 6
  4

  6

 40
0.0
 41
0.0
 42
0.0
 43
0.0
 44
0.0
 45
0.0
 46
0.0
 47
0.0
 48
0.0
 49
0.0
140
0.0
141
0.0
142
1.0
143
1.0
 70
   688
 72
     0
 73
     0
 74
     5
  7

 75
    16
147
1.0
148
0.0
149
0.0
100
AcDbLayout
  1
Layout1
 70
     0
 71
     1
 10
0.0
 20
0.0
 11
12.0
 21
9.0
 12
0.0
 22
0.0
 32
0.0
 14
1.000000000000000E+20
 24
1.000000000000000E+20
 34
1.000000000000000E+20
 15
-1.000000000000000E+20
 25
-1.000000000000000E+20
 35
-1.000000000000000E+20
146
0.0
 13
0.0
 23
0.0
 33
0.0
 16
1.0
 26
0.0
 36
0.0
 17
0.0
 27
1.0
 37
0.0
 76
     0
330
16
  0
LAYOUT
  5
176D
102
{ACAD_XDICTIONARY
360
17DA
102
}
102
{ACAD_REACTORS
330
176C
102
}
330
176C
100
AcDbPlotSettings
  1

  2
hp LaserJet 1300 PCL 6
  4

  6

 40
0.0
 41
0.0
 42
0.0
 43
0.0
 44
0.0
 45
0.0
 46
0.0
 47
0.0
 48
0.0
 49
0.0
140
0.0
141
0.0
142
1.0
143
1.0
 70
  1712
 72
     0
 73
     0
 74
     0
  7

 75
     0
147
1.0
148
0.0
149
0.0
100
AcDbLayout
  1
Model
 70
     1
 71
     0
 10
0.0
 20
0.0
 11
12.0
 21
9.0
 12
0.0
 22
0.0
 32
0.0
 14
0.0
 24
0.0
 34
0.0
 15
0.0
 25
0.0
 35
0.0
146
0.0
 13
0.0
 23
0.0
 33
0.0
 16
1.0
 26
0.0
 36
0.0
 17
0.0
 27
1.0
 37
0.0
 76
     0
330
19
331
1749
  0
MATERIAL
  5
1756
102
{ACAD_XDICTIONARY
360
1778
102
}
102
{ACAD_REACTORS
330
1754
102
}
330
1754
100
AcDbMaterial
  1
ByBlock
  0
MATERIAL
  5
1755
102
{ACAD_XDICTIONARY
360
1776
102
}
102
{ACAD_REACTORS
330
1754
102
}
330
1754
100
AcDbMaterial
  1
ByLayer
  0
MATERIAL
  5
1757
102
{ACAD_XDICTIONARY
360
177A
102
}
102
{ACAD_REACTORS
330
1754
102
}
330
1754
100
AcDbMaterial
  1
Global
  0
MLINESTYLE
  5
1C
102
{ACAD_REACTORS
330
E
102
}
330
E
100
AcDbMlineStyle
  2
STANDARD
 70
     0
  3

 62
     0
 51
90.0
 52
90.0
 71
     2
 49
0.5
 62
   256
  6
BYLAYER
 49
-0.5
 62
   256
  6
BYLAYER
  0
ACDBPLACEHOLDER
  5
1753
102
{ACAD_REACTORS
330
1752
102
}
330
1752
  0
TABLESTYLE
  5
176B
102
{ACAD_XDICTIONARY
360
17D8
102
}
102
{ACAD_REACTORS
330
176A
102
}
330
176A
100
AcDbTableStyle
  3
Standard
 70
     0
 71
     0
 40
0.06
 41
0.06
280
     0
281
     0
  7
STANDARD
140
0.18
170
     2
 62
     0
 63
     7
283
     0
274
    -2
284
     1
 64
     0
275
    -2
285
     1
 65
     0
276
    -2
286
     1
 66
     0
277
    -2
287
     1
 67
     0
278
    -2
288
     1
 68
     0
279
    -2
289
     1
 69
     0
  7
STANDARD
140
0.25
170
     5
 62
     0
 63
     7
283
     0
274
    -2
284
     1
 64
     0
275
    -2
285
     1
 65
     0
276
    -2
286
     1
 66
     0
277
    -2
287
     1
 67
     0
278
    -2
288
     1
 68
     0
279
    -2
289
     1
 69
     0
  7
STANDARD
140
0.18
170
     5
 62
     0
 63
     7
283
     0
274
    -2
284
     1
 64
     0
275
    -2
285
     1
 65
     0
276
    -2
286
     1
 66
     0
277
    -2
287
     1
 67
     0
278
    -2
288
     1
 68
     0
279
    -2
289
     1
 69
     0
  0
VISUALSTYLE
  5
175E
102
{ACAD_REACTORS
330
1758
102
}
330
1758
100
AcDbVisualStyle
  2
2dWireframe
 70
     4
 71
     0
 72
     2
 73
     0
 90
        0
 40
-0.6
 41
-30.0
 62
     5
 63
     7
 74
     1
 91
        4
 64
     7
 65
   257
 75
     1
175
     1
 42
1.0
 92
        0
 66
   257
 43
1.0
 76
     1
 77
     6
 78
     2
 67
     7
 79
     5
170
     0
171
     0
290
     0
174
     0
 93
        1
 44
0.0
173
     0
291
     0
 45
0.0
1001
ACAD
1000
AcDbSavedByObjectVersion
1070
     0
1000
AcDbSavedByObjectVersion
1070
     0
  0
VISUALSTYLE
  5
1760
102
{ACAD_REACTORS
330
1758
102
}
330
1758
100
AcDbVisualStyle
  2
3D Hidden
 70
     6
 71
     1
 72
     2
 73
     2
 90
        0
 40
-0.6
 41
-30.0
 62
     5
 63
     7
 74
     2
 91
        2
 64
     7
 65
   257
 75
     2
175
     1
 42
40.0
 92
        0
 66
   257
 43
1.0
 76
     1
 77
     6
 78
     2
 67
     7
 79
     3
170
     0
171
     0
290
     0
174
     0
 93
        1
 44
0.0
173
     0
291
     0
 45
0.0
1001
ACAD
1000
AcDbSavedByObjectVersion
1070
     0
1000
AcDbSavedByObjectVersion
1070
     0
  0
VISUALSTYLE
  5
175F
102
{ACAD_REACTORS
330
1758
102
}
330
1758
100
AcDbVisualStyle
  2
3dWireframe
 70
     5
 71
     0
 72
     2
 73
     0
 90
        0
 40
-0.6
 41
-30.0
 62
     5
 63
     7
 74
     1
 91
        4
 64
     7
 65
   257
 75
     1
175
     1
 42
1.0
 92
        0
 66
   257
 43
1.0
 76
     1
 77
     6
 78
     2
 67
     7
 79
     5
170
     0
171
     0
290
     0
174
     0
 93
        1
 44
0.0
173
     0
291
     0
 45
0.0
1001
ACAD
1000
AcDbSavedByObjectVersion
1070
     0
1000
AcDbSavedByObjectVersion
1070
     0
  0
VISUALSTYLE
  5
175D
102
{ACAD_REACTORS
330
1758
102
}
330
1758
100
AcDbVisualStyle
  2
Basic
 70
     7
 71
     1
 72
     0
 73
     1
 90
        0
 40
-0.6
 41
-30.0
 62
     5
 63
     7
 74
     0
 91
        4
 64
     7
 65
   257
 75
     1
175
     1
 42
1.0
 92
        8
 66
     7
 43
1.0
 76
     1
 77
     6
 78
     2
 67
     7
 79
     5
170
     0
171
     0
290
     0
174
     0
 93
        1
 44
0.0
173
     0
291
     1
 45
0.0
1001
ACAD
1000
AcDbSavedByObjectVersion
1070
     0
1000
AcDbSavedByObjectVersion
1070
     0
  0
VISUALSTYLE
  5
1764
102
{ACAD_REACTORS
330
1758
102
}
330
1758
100
AcDbVisualStyle
  2
Brighten
 70
    12
 71
     2
 72
     2
 73
     0
 90
        0
 40
-0.6
 41
-30.0
 62
     5
 63
     7
 74
     1
 91
        4
 64
     7
 65
   257
 75
     1
175
     1
 42
1.0
 92
        8
 66
     7
 43
1.0
 76
     1
 77
     6
 78
     2
 67
     7
 79
     5
170
     0
171
     0
290
     0
174
     0
 93
        1
 44
50.0
173
     0
291
     1
 45
0.0
1001
ACAD
1000
AcDbSavedByObjectVersion
1070
     0
1000
AcDbSavedByObjectVersion
1070
     0
  0
VISUALSTYLE
  5
1768
102
{ACAD_REACTORS
330
1758
102
}
330
1758
100
AcDbVisualStyle
  2
ColorChange
 70
    16
 71
     2
 72
     2
 73
     3
 90
        0
 40
-0.6
 41
-30.0
 62
     5
 63
     8
 74
     1
 91
        4
 64
     7
 65
   257
 75
     1
175
     1
 42
1.0
 92
        8
 66
     8
 43
1.0
 76
     1
 77
     6
 78
     2
 67
     7
 79
     5
170
     0
171
     0
290
     0
174
     0
 93
        1
 44
0.0
173
     0
291
     1
 45
0.0
1001
ACAD
1000
AcDbSavedByObjectVersion
1070
     0
1000
AcDbSavedByObjectVersion
1070
     0
  0
VISUALSTYLE
  5
1761
102
{ACAD_REACTORS
330
1758
102
}
330
1758
100
AcDbVisualStyle
  2
Conceptual
 70
     9
 71
     3
 72
     2
 73
     0
 90
        0
 40
-0.6
 41
-30.0
 62
     5
 63
     7
 74
     2
 91
        2
 64
     7
 65
   257
 75
     1
175
     1
 42
40.0
 92
        8
 66
     7
 43
1.0
 76
     1
 77
     6
 78
     2
 67
     7
 79
     3
170
     0
171
     0
290
     0
174
     0
 93
        1
 44
0.0
173
     0
291
     0
 45
0.0
1001
ACAD
1000
AcDbSavedByObjectVersion
1070
     0
1000
AcDbSavedByObjectVersion
1070
     0
  0
VISUALSTYLE
  5
1763
102
{ACAD_REACTORS
330
1758
102
}
330
1758
100
AcDbVisualStyle
  2
Dim
 70
    11
 71
     2
 72
     2
 73
     0
 90
        0
 40
-0.6
 41
-30.0
 62
     5
 63
     7
 74
     1
 91
        4
 64
     7
 65
   257
 75
     1
175
     1
 42
1.0
 92
        8
 66
     7
 43
1.0
 76
     1
 77
     6
 78
     2
 67
     7
 79
     5
170
     0
171
     0
290
     0
174
     0
 93
        1
 44
-50.0
173
     0
291
     1
 45
0.0
1001
ACAD
1000
AcDbSavedByObjectVersion
1070
     0
1000
AcDbSavedByObjectVersion
1070
     0
  0
VISUALSTYLE
  5
1767
102
{ACAD_REACTORS
330
1758
102
}
330
1758
100
AcDbVisualStyle
  2
Facepattern
 70
    15
 71
     2
 72
     2
 73
     0
 90
        0
 40
-0.6
 41
-30.0
 62
     5
 63
     7
 74
     1
 91
        4
 64
     7
 65
   257
 75
     1
175
     1
 42
1.0
 92
        8
 66
     7
 43
1.0
 76
     1
 77
     6
 78
     2
 67
     7
 79
     5
170
     0
171
     0
290
     0
174
     0
 93
        1
 44
0.0
173
     0
291
     1
 45
0.0
1001
ACAD
1000
AcDbSavedByObjectVersion
1070
     0
1000
AcDbSavedByObjectVersion
1070
     0
  0
VISUALSTYLE
  5
1759
102
{ACAD_REACTORS
330
1758
102
}
330
1758
100
AcDbVisualStyle
  2
Flat
 70
     0
 71
     2
 72
     1
 73
     1
 90
        2
 40
-0.6
 41
30.0
 62
     5
 63
     7
 74
     0
 91
        4
 64
     7
 65
   257
 75
     1
175
     1
 42
1.0
 92
        8
 66
     7
 43
1.0
 76
     1
 77
     6
 78
     2
 67
     7
 79
     5
170
     0
171
     0
290
     0
174
     0
 93
       13
 44
0.0
173
     0
291
     1
 45
0.0
1001
ACAD
1000
AcDbSavedByObjectVersion
1070
     0
1000
AcDbSavedByObjectVersion
1070
     0
  0
VISUALSTYLE
  5
175A
102
{ACAD_REACTORS
330
1758
102
}
330
1758
100
AcDbVisualStyle
  2
FlatWithEdges
 70
     1
 71
     2
 72
     1
 73
     1
 90
        2
 40
-0.6
 41
30.0
 62
     5
 63
     7
 74
     1
 91
        4
 64
     7
 65
   257
 75
     1
175
     1
 42
1.0
 92
        0
 66
   257
 43
1.0
 76
     1
 77
     6
 78
     2
 67
     7
 79
     5
170
     0
171
     0
290
     0
174
     0
 93
       13
 44
0.0
173
     0
291
     1
 45
0.0
1001
ACAD
1000
AcDbSavedByObjectVersion
1070
     0
1000
AcDbSavedByObjectVersion
1070
     0
  0
VISUALSTYLE
  5
175B
102
{ACAD_REACTORS
330
1758
102
}
330
1758
100
AcDbVisualStyle
  2
Gouraud
 70
     2
 71
     2
 72
     2
 73
     1
 90
        2
 40
-0.6
 41
30.0
 62
     5
 63
     7
 74
     0
 91
        4
 64
     7
 65
   257
 75
     1
175
     1
 42
1.0
 92
        0
 66
     7
 43
1.0
 76
     1
 77
     6
 78
     2
 67
     7
 79
     5
170
     0
171
     0
290
     0
174
     0
 93
       13
 44
0.0
173
     0
291
     1
 45
0.0
1001
ACAD
1000
AcDbSavedByObjectVersion
1070
     0
1000
AcDbSavedByObjectVersion
1070
     0
  0
VISUALSTYLE
  5
175C
102
{ACAD_REACTORS
330
1758
102
}
330
1758
100
AcDbVisualStyle
  2
GouraudWithEdges
 70
     3
 71
     2
 72
     2
 73
     1
 90
        2
 40
-0.6
 41
30.0
 62
     5
 63
     7
 74
     1
 91
        4
 64
     7
 65
   257
 75
     1
175
     1
 42
1.0
 92
        0
 66
   257
 43
1.0
 76
     1
 77
     6
 78
     2
 67
     7
 79
     5
170
     0
171
     0
290
     0
174
     0
 93
       13
 44
0.0
173
     0
291
     1
 45
0.0
1001
ACAD
1000
AcDbSavedByObjectVersion
1070
     0
1000
AcDbSavedByObjectVersion
1070
     0
  0
VISUALSTYLE
  5
1766
102
{ACAD_REACTORS
330
1758
102
}
330
1758
100
AcDbVisualStyle
  2
Linepattern
 70
    14
 71
     2
 72
     2
 73
     0
 90
        0
 40
-0.6
 41
-30.0
 62
     5
 63
     7
 74
     1
 91
        4
 64
     7
 65
   257
 75
     7
175
     7
 42
1.0
 92
        8
 66
     7
 43
1.0
 76
     1
 77
     6
 78
     2
 67
     7
 79
     5
170
     0
171
     0
290
     0
174
     0
 93
        1
 44
0.0
173
     0
291
     1
 45
0.0
1001
ACAD
1000
AcDbSavedByObjectVersion
1070
     0
1000
AcDbSavedByObjectVersion
1070
     0
  0
VISUALSTYLE
  5
1762
102
{ACAD_REACTORS
330
1758
102
}
330
1758
100
AcDbVisualStyle
  2
Realistic
 70
     8
 71
     2
 72
     2
 73
     0
 90
        0
 40
-0.6
 41
-30.0
 62
     5
 63
     7
 74
     1
 91
        0
 64
     7
 65
   257
 75
     1
175
     1
 42
1.0
 92
        8
 66
     8
 43
1.0
 76
     1
 77
     6
 78
     2
 67
     7
 79
     5
170
     0
171
     0
290
     0
174
     0
 93
       13
 44
0.0
173
     0
291
     0
 45
0.0
1001
ACAD
1000
AcDbSavedByObjectVersion
1070
     0
1000
AcDbSavedByObjectVersion
1070
     0
  0
VISUALSTYLE
  5
1765
102
{ACAD_REACTORS
330
1758
102
}
330
1758
100
AcDbVisualStyle
  2
Thicken
 70
    13
 71
     2
 72
     2
 73
     0
 90
        0
 40
-0.6
 41
-30.0
 62
     5
 63
     7
 74
     1
 91
        4
 64
     7
 65
   257
 75
     1
175
     1
 42
1.0
 92
       12
 66
     7
 43
1.0
 76
     1
 77
     6
 78
     2
 67
     7
 79
     5
170
     0
171
     0
290
     0
174
     0
 93
        1
 44
0.0
173
     0
291
     1
 45
0.0
1001
ACAD
1000
AcDbSavedByObjectVersion
1070
     0
1000
AcDbSavedByObjectVersion
1070
     0
  0
DICTIONARYVAR
  5
1771
102
{ACAD_REACTORS
330
1770
102
}
330
1770
100
DictionaryVariables
280
     0
  1
STANDARD
  0
DICTIONARYVAR
  5
1774
102
{ACAD_REACTORS
330
1770
102
}
330
1770
100
DictionaryVariables
280
     0
  1
1
  0
DICTIONARYVAR
  5
1773
102
{ACAD_REACTORS
330
1770
102
}
330
1770
100
DictionaryVariables
280
     0
  1
0
  0
DICTIONARYVAR
  5
1772
102
{ACAD_REACTORS
330
1770
102
}
330
1770
100
DictionaryVariables
280
     0
  1
127
  0
DICTIONARY
  5
17DC
330
176E
100
AcDbDictionary
280
     1
281
     1
  3
ACAD_XREC_ROUNDTRIP
360
17DD
  0
DICTIONARY
  5
17DA
330
176D
100
AcDbDictionary
280
     1
281
     1
  3
ACAD_XREC_ROUNDTRIP
360
17DB
  0
DICTIONARY
  5
1778
330
1756
100
AcDbDictionary
280
     1
281
     1
  3
ACAD_XREC_ROUNDTRIP
360
1779
  0
DICTIONARY
  5
1776
330
1755
100
AcDbDictionary
280
     1
281
     1
  3
ACAD_XREC_ROUNDTRIP
360
1777
  0
DICTIONARY
  5
177A
330
1757
100
AcDbDictionary
280
     1
281
     1
  3
ACAD_XREC_ROUNDTRIP
360
177B
  0
DICTIONARY
  5
17D8
330
176B
100
AcDbDictionary
280
     1
281
     1
  3
ACAD_XREC_ROUNDTRIP
360
17D9
  0
XRECORD
  5
17DD
102
{ACAD_REACTORS
330
17DC
102
}
330
17DC
100
AcDbXrecord
280
     1
102
SHADEPLOT
 70
     0
102
SHADEPLOTRESLEVEL
 70
     2
102
SHADEPLOTCUSTOMDPI
 70
   300
  0
XRECORD
  5
17DB
102
{ACAD_REACTORS
330
17DA
102
}
330
17DA
100
AcDbXrecord
280
     1
102
SHADEPLOT
 70
     0
102
SHADEPLOTRESLEVEL
 70
     2
102
SHADEPLOTCUSTOMDPI
 70
   300
  0
XRECORD
  5
1779
102
{ACAD_REACTORS
330
1778
102
}
330
1778
100
AcDbXrecord
280
     1
102
MATERIAL
148
0.0
149
0.0
149
0.0
 93
        0
 94
       63
282
     0
 72
     1
 77
     1
171
     1
175
     1
179
     1
273
     0
  0
XRECORD
  5
1777
102
{ACAD_REACTORS
330
1776
102
}
330
1776
100
AcDbXrecord
280
     1
102
MATERIAL
148
0.0
149
0.0
149
0.0
 93
        0
 94
       63
282
     0
 72
     1
 77
     1
171
     1
175
     1
179
     1
273
     0
  0
XRECORD
  5
177B
102
{ACAD_REACTORS
330
177A
102
}
330
177A
100
AcDbXrecord
280
     1
102
MATERIAL
148
0.0
149
0.0
149
0.0
 93
        0
 94
       63
282
     0
 72
     1
 77
     1
171
     1
175
     1
179
     1
273
     0
  0
XRECORD
  5
17D9
102
{ACAD_REACTORS
330
17D8
102
}
330
17D8
100
AcDbXrecord
280
     1
102
ACAD_ROUNDTRIP_PRE2007_TABLESTYLE
 90
      512
 91
        0
  1

 92
      512
 93
        0
  2

 94
      512
 95
        0
  3

  0
ENDSEC
  0
EOF
