  0
SECTION
  2
HEADER
  9
$ACADVER
  1
AC1015
  9
$ACADMAINTVER
 70
    20
  9
$DWGCODEPAGE
  3
ANSI_1252
  9
$INSBASE
 10
0.0
 20
0.0
 30
0.0
  9
$EXTMIN
 10
-71.24851817829608
 20
-44.95513801341303
 30
-0.0015258207003583
  9
$EXTMAX
 10
123.9835674285232
 20
79.51232989261893
 30
0.0000000349246037
  9
$LIMMIN
 10
-170.0
 20
-170.0
  9
$LIMMAX
 10
519.0
 20
260.0
  9
$ORTHOMODE
 70
     1
  9
$REGENMODE
 70
     1
  9
$FILLMODE
 70
     1
  9
$QTEXTMODE
 70
     0
  9
$MIRRTEXT
 70
     1
  9
$LTSCALE
 40
10.0
  9
$ATTMODE
 70
     1
  9
$TEXTSIZE
 40
3.5
  9
$TRACEWID
 40
0.05
  9
$TEXTSTYLE
  7
SIMPLEX
  9
$CLAYER
  8
1
  9
$CELTYPE
  6
BYLAYER
  9
$CECOLOR
 62
   256
  9
$CELTSCALE
 40
1.0
  9
$DISPSILH
 70
     0
  9
$DIMSCALE
 40
1.0
  9
$DIMASZ
 40
3.5
  9
$DIMEXO
 40
1.0
  9
$DIMDLI
 40
0.5
  9
$DIMRND
 40
0.0
  9
$DIMDLE
 40
0.0
  9
$DIMEXE
 40
1.0
  9
$DIMTP
 40
0.0
  9
$DIMTM
 40
0.0
  9
$DIMTXT
 40
3.5
  9
$DIMCEN
 40
0.0
  9
$DIMTSZ
 40
0.0
  9
$DIMTOL
 70
     0
  9
$DIMLIM
 70
     0
  9
$DIMTIH
 70
     0
  9
$DIMTOH
 70
     0
  9
$DIMSE1
 70
     0
  9
$DIMSE2
 70
     0
  9
$DIMTAD
 70
     1
  9
$DIMZIN
 70
     0
  9
$DIMBLK
  1

  9
$DIMASO
 70
     1
  9
$DIMSHO
 70
     1
  9
$DIMPOST
  1

  9
$DIMAPOST
  1

  9
$DIMALT
 70
     0
  9
$DIMALTD
 70
     2
  9
$DIMALTF
 40
25.4
  9
$DIMLFAC
 40
1.0
  9
$DIMTOFL
 70
     0
  9
$DIMTVP
 40
0.0
  9
$DIMTIX
 70
     0
  9
$DIMSOXD
 70
     0
  9
$DIMSAH
 70
     0
  9
$DIMBLK1
  1

  9
$DIMBLK2
  1

  9
$DIMSTYLE
  2
V-TYGEN_-160
  9
$DIMCLRD
 70
     0
  9
$DIMCLRE
 70
     0
  9
$DIMCLRT
 70
     0
  9
$DIMTFAC
 40
1.0
  9
$DIMGAP
 40
1.0
  9
$DIMJUST
 70
     0
  9
$DIMSD1
 70
     0
  9
$DIMSD2
 70
     0
  9
$DIMTOLJ
 70
     1
  9
$DIMTZIN
 70
     0
  9
$DIMALTZ
 70
     0
  9
$DIMALTTZ
 70
     0
  9
$DIMUPT
 70
     0
  9
$DIMDEC
 70
     0
  9
$DIMTDEC
 70
     0
  9
$DIMALTU
 70
     2
  9
$DIMALTTD
 70
     2
  9
$DIMTXSTY
  7
STANDARD
  9
$DIMAUNIT
 70
     0
  9
$DIMADEC
 70
     0
  9
$DIMALTRND
 40
0.0
  9
$DIMAZIN
 70
     0
  9
$DIMDSEP
 70
    46
  9
$DIMATFIT
 70
     3
  9
$DIMFRAC
 70
     0
  9
$DIMLDRBLK
  1

  9
$DIMLUNIT
 70
     2
  9
$DIMLWD
 70
    -2
  9
$DIMLWE
 70
    -2
  9
$DIMTMOVE
 70
     0
  9
$LUNITS
 70
     2
  9
$LUPREC
 70
     2
  9
$SKETCHINC
 40
0.1
  9
$FILLETRAD
 40
0.0
  9
$AUNITS
 70
     0
  9
$AUPREC
 70
     0
  9
$MENU
  1
TDMWIN
  9
$ELEVATION
 40
0.0
  9
$PELEVATION
 40
0.0
  9
$THICKNESS
 40
0.0
  9
$LIMCHECK
 70
     0
  9
$CHAMFERA
 40
0.0
  9
$CHAMFERB
 40
0.0
  9
$CHAMFERC
 40
0.0
  9
$CHAMFERD
 40
0.0
  9
$SKPOLY
 70
     0
  9
$TDCREATE
 40
2454564.382969386
  9
$TDUCREATE
 40
2454564.299636054
  9
$TDUPDATE
 40
2454620.443203924
  9
$TDUUPDATE
 40
2454620.359870590
  9
$TDINDWG
 40
0.0226447106
  9
$TDUSRTIMER
 40
0.0226447106
  9
$USRTIMER
 70
     1
  9
$ANGBASE
 50
0.0
  9
$ANGDIR
 70
     0
  9
$PDMODE
 70
     2
  9
$PDSIZE
 40
0.0
  9
$PLINEWID
 40
0.0
  9
$SPLFRAME
 70
     0
  9
$SPLINETYPE
 70
     6
  9
$SPLINESEGS
 70
     8
  9
$HANDSEED
  5
16B6
  9
$SURFTAB1
 70
     6
  9
$SURFTAB2
 70
     6
  9
$SURFTYPE
 70
     6
  9
$SURFU
 70
     6
  9
$SURFV
 70
     6
  9
$UCSBASE
  2

  9
$UCSNAME
  2

  9
$UCSORG
 10
0.0
 20
0.0
 30
0.0
  9
$UCSXDIR
 10
1.0
 20
0.0
 30
0.0
  9
$UCSYDIR
 10
0.0
 20
1.0
 30
0.0
  9
$UCSORTHOREF
  2

  9
$UCSORTHOVIEW
 70
     0
  9
$UCSORGTOP
 10
0.0
 20
0.0
 30
0.0
  9
$UCSORGBOTTOM
 10
0.0
 20
0.0
 30
0.0
  9
$UCSORGLEFT
 10
0.0
 20
0.0
 30
0.0
  9
$UCSORGRIGHT
 10
0.0
 20
0.0
 30
0.0
  9
$UCSORGFRONT
 10
0.0
 20
0.0
 30
0.0
  9
$UCSORGBACK
 10
0.0
 20
0.0
 30
0.0
  9
$PUCSBASE
  2

  9
$PUCSNAME
  2

  9
$PUCSORG
 10
0.0
 20
0.0
 30
0.0
  9
$PUCSXDIR
 10
1.0
 20
0.0
 30
0.0
  9
$PUCSYDIR
 10
0.0
 20
1.0
 30
0.0
  9
$PUCSORTHOREF
  2

  9
$PUCSORTHOVIEW
 70
     0
  9
$PUCSORGTOP
 10
0.0
 20
0.0
 30
0.0
  9
$PUCSORGBOTTOM
 10
0.0
 20
0.0
 30
0.0
  9
$PUCSORGLEFT
 10
0.0
 20
0.0
 30
0.0
  9
$PUCSORGRIGHT
 10
0.0
 20
0.0
 30
0.0
  9
$PUCSORGFRONT
 10
0.0
 20
0.0
 30
0.0
  9
$PUCSORGBACK
 10
0.0
 20
0.0
 30
0.0
  9
$USERI1
 70
     0
  9
$USERI2
 70
     0
  9
$USERI3
 70
     0
  9
$USERI4
 70
     0
  9
$USERI5
 70
     0
  9
$USERR1
 40
0.0
  9
$USERR2
 40
0.0
  9
$USERR3
 40
0.0
  9
$USERR4
 40
0.0
  9
$USERR5
 40
0.0
  9
$WORLDVIEW
 70
     1
  9
$SHADEDGE
 70
     3
  9
$SHADEDIF
 70
    70
  9
$TILEMODE
 70
     1
  9
$MAXACTVP
 70
    16
  9
$PINSBASE
 10
0.0
 20
0.0
 30
0.0
  9
$PLIMCHECK
 70
     0
  9
$PEXTMIN
 10
1.000000000000000E+20
 20
1.000000000000000E+20
 30
1.000000000000000E+20
  9
$PEXTMAX
 10
-1.000000000000000E+20
 20
-1.000000000000000E+20
 30
-1.000000000000000E+20
  9
$PLIMMIN
 10
0.0
 20
0.0
  9
$PLIMMAX
 10
12.0
 20
9.0
  9
$UNITMODE
 70
     0
  9
$VISRETAIN
 70
     0
  9
$PLINEGEN
 70
     0
  9
$PSLTSCALE
 70
     0
  9
$TREEDEPTH
 70
  3020
  9
$CMLSTYLE
  2
STANDARD
  9
$CMLJUST
 70
     0
  9
$CMLSCALE
 40
1.0
  9
$PROXYGRAPHICS
 70
     1
  9
$MEASUREMENT
 70
     0
  9
$CELWEIGHT
370
    -1
  9
$ENDCAPS
280
     0
  9
$JOINSTYLE
280
     0
  9
$LWDISPLAY
290
     0
  9
$INSUNITS
 70
     0
  9
$HYPERLINKBASE
  1

  9
$STYLESHEET
  1

  9
$XEDIT
290
     1
  9
$CEPSNTYPE
380
     0
  9
$PSTYLEMODE
290
     1
  9
$FINGERPRINTGUID
  2
{7616568E-13ED-4D16-A449-E4613FFDB53A}
  9
$VERSIONGUID
  2
{7EBD3F47-D2AC-4203-ADA0-4C0441507080}
  9
$EXTNAMES
290
     1
  9
$PSVPSCALE
 40
0.0
  9
$OLESTARTUP
290
     0
  0
ENDSEC
  0
SECTION
  2
CLASSES
  0
CLASS
  1
ACDBDICTIONARYWDFLT
  2
AcDbDictionaryWithDefault
  3
ObjectDBX Classes
 90
        0
280
     0
281
     0
  0
CLASS
  1
ACDBPLACEHOLDER
  2
AcDbPlaceHolder
  3
ObjectDBX Classes
 90
        0
280
     0
281
     0
  0
CLASS
  1
LAYOUT
  2
AcDbLayout
  3
ObjectDBX Classes
 90
        0
280
     0
281
     0
  0
CLASS
  1
MATERIAL
  2
AcDbMaterial
  3
ObjectDBX Classes
 90
     1024
280
     0
281
     0
  0
CLASS
  1
VISUALSTYLE
  2
AcDbVisualStyle
  3
ObjectDBX Classes
 90
     4095
280
     0
281
     0
  0
CLASS
  1
TABLESTYLE
  2
AcDbTableStyle
  3
ObjectDBX Classes
 90
     4095
280
     0
281
     0
  0
CLASS
  1
DICTIONARYVAR
  2
AcDbDictionaryVar
  3
ObjectDBX Classes
 90
        0
280
     0
281
     0
  0
ENDSEC
  0
SECTION
  2
TABLES
  0
TABLE
  2
VPORT
  5
8
330
0
100
AcDbSymbolTable
 70
     1
  0
VPORT
  5
1621
330
8
100
AcDbSymbolTableRecord
100
AcDbViewportTableRecord
  2
*ACTIVE
 70
     0
 10
0.0
 20
0.0
 11
1.0
 21
1.0
 12
26.36752462511356
 22
17.27859593960296
 13
0.0
 23
0.0
 14
5.0
 24
5.0
 15
5.0
 25
5.0
 16
0.0
 26
0.0
 36
1.0
 17
0.0
 27
0.0
 37
0.0
 40
161.4181458081505
 41
1.242219215155615
 42
50.0
 43
0.0
 44
0.0
 50
0.0
 51
0.0
 71
     0
 72
   100
 73
     1
 74
     3
 75
     0
 76
     0
 77
     0
 78
     0
281
     0
 65
     1
110
0.0
120
0.0
130
0.0
111
1.0
121
0.0
131
0.0
112
0.0
122
1.0
132
0.0
 79
     0
146
0.0
  0
ENDTAB
  0
TABLE
  2
LTYPE
  5
5
330
0
100
AcDbSymbolTable
 70
     3
  0
LTYPE
  5
13
330
5
100
AcDbSymbolTableRecord
100
AcDbLinetypeTableRecord
  2
BYBLOCK
 70
     0
  3

 72
    65
 73
     0
 40
0.0
  0
LTYPE
  5
14
330
5
100
AcDbSymbolTableRecord
100
AcDbLinetypeTableRecord
  2
BYLAYER
 70
     0
  3

 72
    65
 73
     0
 40
0.0
  0
LTYPE
  5
15
330
5
100
AcDbSymbolTableRecord
100
AcDbLinetypeTableRecord
  2
CONTINUOUS
 70
     0
  3
Solid line
 72
    65
 73
     0
 40
0.0
  0
LTYPE
  5
20
330
5
100
AcDbSymbolTableRecord
100
AcDbLinetypeTableRecord
  2
CENTER
 70
     0
  3
____ . ____ . ____
 72
    65
 73
     4
 40
1.5
 49
1.0
 74
     0
 49
-0.25
 74
     0
 49
0.0
 74
     0
 49
-0.25
 74
     0
  0
LTYPE
  5
21
330
5
100
AcDbSymbolTableRecord
100
AcDbLinetypeTableRecord
  2
HIDDEN
 70
     0
  3
_ _ _ _ _ _ _ _ _ _ _ _ _ _ _ _ _ _ _ _ _ _ _
 72
    65
 73
     2
 40
0.375
 49
0.25
 74
     0
 49
-0.125
 74
     0
  0
ENDTAB
  0
TABLE
  2
LAYER
  5
2
330
0
100
AcDbSymbolTable
 70
    11
  0
LAYER
  5
F
330
2
100
AcDbSymbolTableRecord
100
AcDbLayerTableRecord
  2
0
 70
     0
 62
     7
  6
CONTINUOUS
370
    -3
390
162B
  0
LAYER
  5
1E
330
2
100
AcDbSymbolTableRecord
100
AcDbLayerTableRecord
  2
1
 70
     0
 62
     4
  6
CONTINUOUS
370
    -3
390
162B
  0
LAYER
  5
22
330
2
100
AcDbSymbolTableRecord
100
AcDbLayerTableRecord
  2
SK1
 70
     0
 62
     4
  6
CONTINUOUS
370
    -3
390
162B
  0
LAYER
  5
23
330
2
100
AcDbSymbolTableRecord
100
AcDbLayerTableRecord
  2
2
 70
     0
 62
     7
  6
CONTINUOUS
370
    -3
390
162B
  0
LAYER
  5
25
330
2
100
AcDbSymbolTableRecord
100
AcDbLayerTableRecord
  2
SK2
 70
     0
 62
     7
  6
CONTINUOUS
370
    -3
390
162B
  0
LAYER
  5
26
330
2
100
AcDbSymbolTableRecord
100
AcDbLayerTableRecord
  2
3
 70
     0
 62
     1
  6
HIDDEN
370
    -3
390
162B
  0
LAYER
  5
27
330
2
100
AcDbSymbolTableRecord
100
AcDbLayerTableRecord
  2
SK3
 70
     0
 62
     1
  6
HIDDEN
370
    -3
390
162B
  0
LAYER
  5
28
330
2
100
AcDbSymbolTableRecord
100
AcDbLayerTableRecord
  2
4
 70
     0
 62
     2
  6
CENTER
370
    -3
390
162B
  0
LAYER
  5
29
330
2
100
AcDbSymbolTableRecord
100
AcDbLayerTableRecord
  2
SK4
 70
     0
 62
     2
  6
CENTER
370
    -3
390
162B
  0
LAYER
  5
2C
330
2
100
AcDbSymbolTableRecord
100
AcDbLayerTableRecord
  2
SK6
 70
     0
 62
     5
  6
CONTINUOUS
370
    -3
390
162B
  0
LAYER
  5
2E
330
2
100
AcDbSymbolTableRecord
100
AcDbLayerTableRecord
  2
DEFPOINTS
 70
     0
 62
     7
  6
CONTINUOUS
290
     0
370
    -3
390
162B
  0
ENDTAB
  0
TABLE
  2
STYLE
  5
3
330
0
100
AcDbSymbolTable
 70
     2
  0
STYLE
  5
10
330
3
100
AcDbSymbolTableRecord
100
AcDbTextStyleTableRecord
  2
STANDARD
 70
     0
 40
0.0
 41
1.0
 50
0.0
 71
     0
 42
5.0
  3
txt
  4

  0
STYLE
  5
1F
330
3
100
AcDbSymbolTableRecord
100
AcDbTextStyleTableRecord
  2
SIMPLEX
 70
     0
 40
0.0
 41
1.0
 50
0.0
 71
     0
 42
3.5
  3
simplex
  4

  0
ENDTAB
  0
TABLE
  2
VIEW
  5
6
330
0
100
AcDbSymbolTable
 70
     0
  0
ENDTAB
  0
TABLE
  2
UCS
  5
7
330
0
100
AcDbSymbolTable
 70
     0
  0
ENDTAB
  0
TABLE
  2
APPID
  5
9
330
0
100
AcDbSymbolTable
 70
     2
  0
APPID
  5
11
330
9
100
AcDbSymbolTableRecord
100
AcDbRegAppTableRecord
  2
ACAD
 70
     0
  0
APPID
  5
E8F
330
9
100
AcDbSymbolTableRecord
100
AcDbRegAppTableRecord
  2
CONTENTBLOCKICON
 70
     0
  0
ENDTAB
  0
TABLE
  2
DIMSTYLE
  5
A
330
0
100
AcDbSymbolTable
 70
     2
100
AcDbDimStyleTable
 71
     0
  0
DIMSTYLE
105
980
330
A
100
AcDbSymbolTableRecord
100
AcDbDimStyleTableRecord
  2
STANDARD
 70
     0
340
10
  0
DIMSTYLE
105
D91
102
{ACAD_REACTORS
330
149F
330
14A0
330
14DC
330
14DD
102
}
330
A
100
AcDbSymbolTableRecord
100
AcDbDimStyleTableRecord
  2
V-TYGEN_-160
 70
     0
 41
3.5
 42
1.0
 43
0.5
 44
1.0
 73
     0
 74
     0
 77
     1
140
3.5
141
0.0
147
1.0
271
     0
272
     0
340
10
  0
ENDTAB
  0
TABLE
  2
BLOCK_RECORD
  5
1
330
0
100
AcDbSymbolTable
 70
     4
  0
BLOCK_RECORD
  5
19
102
{ACAD_XDICTIONARY
360
E8D
102
}
330
1
100
AcDbSymbolTableRecord
100
AcDbBlockTableRecord
  2
*MODEL_SPACE
340
1645
  0
BLOCK_RECORD
  5
16
102
{ACAD_XDICTIONARY
360
E8B
102
}
330
1
100
AcDbSymbolTableRecord
100
AcDbBlockTableRecord
  2
*PAPER_SPACE
340
1646
  0
BLOCK_RECORD
  5
1506
330
1
100
AcDbSymbolTableRecord
100
AcDbBlockTableRecord
  2
*D0
340
0
  0
BLOCK_RECORD
  5
1513
330
1
100
AcDbSymbolTableRecord
100
AcDbBlockTableRecord
  2
*D1
340
0
  0
BLOCK_RECORD
  5
1520
330
1
100
AcDbSymbolTableRecord
100
AcDbBlockTableRecord
  2
*D2
340
0
  0
BLOCK_RECORD
  5
152D
330
1
100
AcDbSymbolTableRecord
100
AcDbBlockTableRecord
  2
*D3
340
0
  0
ENDTAB
  0
ENDSEC
  0
SECTION
  2
BLOCKS
  0
BLOCK
  5
1A
330
19
100
AcDbEntity
  8
0
100
AcDbBlockBegin
  2
*MODEL_SPACE
 70
     0
 10
0.0
 20
0.0
 30
0.0
  3
*MODEL_SPACE
  1

  0
ENDBLK
  5
1B
330
19
100
AcDbEntity
  8
0
100
AcDbBlockEnd
  0
BLOCK
  5
17
330
16
100
AcDbEntity
 67
     1
  8
0
100
AcDbBlockBegin
  2
*PAPER_SPACE
 70
     0
 10
0.0
 20
0.0
 30
0.0
  3
*PAPER_SPACE
  1

  0
ENDBLK
  5
18
330
16
100
AcDbEntity
 67
     1
  8
0
100
AcDbBlockEnd
  0
BLOCK
  5
1511
330
1506
100
AcDbEntity
  8
0
100
AcDbBlockBegin
  2
*D0
 70
     1
 10
0.0
 20
0.0
 30
0.0
  3
*D0
  1

  0
LINE
  5
16A6
330
1506
100
AcDbEntity
  8
2
 62
     0
370
    -2
100
AcDbLine
 10
84.56020838800947
 20
-36.40217851895611
 30
0.0
 11
123.9392563633076
 21
-36.40217851895612
 31
0.0
  0
LINE
  5
16A7
330
1506
100
AcDbEntity
  8
2
 62
     0
370
    -2
100
AcDbLine
 10
84.56020838800947
 20
36.40217851895611
 30
0.0
 11
123.9392563633077
 21
36.4021785189561
 31
0.0
  0
LINE
  5
16A8
330
1506
100
AcDbEntity
  8
2
 62
     0
370
    -2
100
AcDbLine
 10
122.9392563633076
 20
-32.90217851895612
 30
0.0
 11
122.9392563633077
 21
32.9021785189561
 31
0.0
  0
SOLID
  5
16A9
330
1506
100
AcDbEntity
  8
2
 62
     0
100
AcDbTrace
 10
122.3559230299743
 20
-32.90217851895612
 30
0.0
 11
123.522589696641
 21
-32.90217851895612
 31
0.0
 12
122.9392563633076
 22
-36.40217851895612
 32
0.0
 13
122.9392563633076
 23
-36.40217851895612
 33
0.0
  0
SOLID
  5
16AA
330
1506
100
AcDbEntity
  8
2
 62
     0
100
AcDbTrace
 10
122.3559230299744
 20
32.9021785189561
 30
0.0
 11
123.522589696641
 21
32.9021785189561
 31
0.0
 12
122.9392563633077
 22
36.4021785189561
 32
0.0
 13
122.9392563633077
 23
36.4021785189561
 33
0.0
  0
MTEXT
  5
16AB
330
1506
100
AcDbEntity
  8
2
 62
     0
100
AcDbMText
 10
120.1892563633077
 20
0.0000000000000141
 30
0.0
 40
3.5
 41
0.0
 71
     5
 72
     1
  1
\A1;%%c64-86
  7
SIMPLEX
 11
0.0000000000000001
 21
1.0
 31
0.0
 73
     1
 44
1.0
1001
ACAD
1000
MTEXTBEGIN
1070
    73
1070
     1
1070
    44
1040
1.0
1070
    74
1070
     0
1000
MTEXTEND
  0
POINT
  5
16AC
330
1506
100
AcDbEntity
  8
DEFPOINTS
 62
     0
100
AcDbPoint
 10
83.56020838800947
 20
-36.40217851895611
 30
0.0
  0
POINT
  5
16AD
330
1506
100
AcDbEntity
  8
DEFPOINTS
 62
     0
100
AcDbPoint
 10
83.56020838800947
 20
36.40217851895611
 30
0.0
  0
POINT
  5
16AE
330
1506
100
AcDbEntity
  8
DEFPOINTS
 62
     0
100
AcDbPoint
 10
122.9392563633077
 20
36.4021785189561
 30
0.0
  0
ENDBLK
  5
1512
330
1506
100
AcDbEntity
  8
0
100
AcDbBlockEnd
  0
BLOCK
  5
151E
330
1513
100
AcDbEntity
  8
0
100
AcDbBlockBegin
  2
*D1
 70
     1
 10
0.0
 20
0.0
 30
0.0
  3
*D1
  1

  0
LINE
  5
169D
330
1513
100
AcDbEntity
  8
2
 62
     0
370
    -2
100
AcDbLine
 10
84.49912693014182
 20
36.61433231654629
 30
0.0
 11
84.49912693014182
 21
76.0
 31
0.0
  0
LINE
  5
169E
330
1513
100
AcDbEntity
  8
2
 62
     0
370
    -2
100
AcDbLine
 10
0.0000000000000001
 20
27.0
 30
0.0
 11
0.0000000000000031
 21
76.0
 31
0.0
  0
LINE
  5
169F
330
1513
100
AcDbEntity
  8
2
 62
     0
370
    -2
100
AcDbLine
 10
80.9991269301418
 20
75.0
 30
0.0
 11
3.500000000000003
 21
75.0
 31
0.0
  0
SOLID
  5
16A0
330
1513
100
AcDbEntity
  8
2
 62
     0
100
AcDbTrace
 10
80.9991269301418
 20
75.58333333333333
 30
0.0
 11
80.9991269301418
 21
74.41666666666667
 31
0.0
 12
84.49912693014182
 22
75.0
 32
0.0
 13
84.49912693014182
 23
75.0
 33
0.0
  0
SOLID
  5
16A1
330
1513
100
AcDbEntity
  8
2
 62
     0
100
AcDbTrace
 10
3.500000000000003
 20
75.58333333333333
 30
0.0
 11
3.500000000000003
 21
74.41666666666667
 31
0.0
 12
0.000000000000003
 22
75.0
 32
0.0
 13
0.000000000000003
 23
75.0
 33
0.0
  0
MTEXT
  5
16A2
330
1513
100
AcDbEntity
  8
2
 62
     0
100
AcDbMText
 10
42.53589838486218
 20
77.75
 30
0.0
 40
3.5
 41
0.0
 71
     5
 72
     1
  1
\A1;84
  7
SIMPLEX
 73
     1
 44
1.0
1001
ACAD
1000
MTEXTBEGIN
1070
    73
1070
     1
1070
    44
1040
1.0
1070
    74
1070
     0
1000
MTEXTEND
  0
POINT
  5
16A3
330
1513
100
AcDbEntity
  8
DEFPOINTS
 62
     0
100
AcDbPoint
 10
84.49912693014182
 20
35.61433231654629
 30
0.0
  0
POINT
  5
16A4
330
1513
100
AcDbEntity
  8
DEFPOINTS
 62
     0
100
AcDbPoint
 10
0.0
 20
26.0
 30
0.0
  0
POINT
  5
16A5
330
1513
100
AcDbEntity
  8
DEFPOINTS
 62
     0
100
AcDbPoint
 10
0.000000000000003
 20
75.0
 30
0.0
  0
ENDBLK
  5
151F
330
1513
100
AcDbEntity
  8
0
100
AcDbBlockEnd
  0
BLOCK
  5
152B
330
1520
100
AcDbEntity
  8
0
100
AcDbBlockBegin
  2
*D2
 70
     1
 10
0.0
 20
0.0
 30
0.0
  3
*D2
  1

  0
LINE
  5
1694
330
1520
100
AcDbEntity
  8
SK2
 62
     0
370
    -2
100
AcDbLine
 10
0.0
 20
27.0
 30
0.0
 11
-67.73405547446827
 21
27.00000000000002
 31
0.0
  0
LINE
  5
1695
330
1520
100
AcDbEntity
  8
SK2
 62
     0
370
    -2
100
AcDbLine
 10
-0.0000000000000216
 20
-27.0
 30
0.0
 11
-67.73405547446827
 21
-26.99999999999998
 31
0.0
  0
LINE
  5
1696
330
1520
100
AcDbEntity
  8
SK2
 62
     0
370
    -2
100
AcDbLine
 10
-66.73405547446828
 20
23.50000000000002
 30
0.0
 11
-66.73405547446828
 21
-23.49999999999998
 31
0.0
  0
SOLID
  5
1697
330
1520
100
AcDbEntity
  8
SK2
 62
     0
100
AcDbTrace
 10
-67.3173888078016
 20
23.50000000000002
 30
0.0
 11
-66.15072214113495
 21
23.50000000000002
 31
0.0
 12
-66.73405547446828
 22
27.00000000000002
 32
0.0
 13
-66.73405547446828
 23
27.00000000000002
 33
0.0
  0
SOLID
  5
1698
330
1520
100
AcDbEntity
  8
SK2
 62
     0
100
AcDbTrace
 10
-67.3173888078016
 20
-23.49999999999998
 30
0.0
 11
-66.15072214113495
 21
-23.49999999999998
 31
0.0
 12
-66.73405547446828
 22
-26.99999999999998
 32
0.0
 13
-66.73405547446828
 23
-26.99999999999998
 33
0.0
  0
MTEXT
  5
1699
330
1520
100
AcDbEntity
  8
SK2
 62
     0
100
AcDbMText
 10
-69.48405547446828
 20
0.000000000000008
 30
0.0
 40
3.5
 41
0.0
 71
     5
 72
     1
  1
\A1;%%c54
  7
SIMPLEX
 11
0.0000000000000001
 21
1.0
 31
0.0
 73
     1
 44
1.0
1001
ACAD
1000
MTEXTBEGIN
1070
    73
1070
     1
1070
    44
1040
1.0
1070
    74
1070
     0
1000
MTEXTEND
  0
POINT
  5
169A
330
1520
100
AcDbEntity
  8
DEFPOINTS
 62
     0
100
AcDbPoint
 10
1.0
 20
27.0
 30
0.0
  0
POINT
  5
169B
330
1520
100
AcDbEntity
  8
DEFPOINTS
 62
     0
100
AcDbPoint
 10
0.9999999999999783
 20
-27.0
 30
0.0
  0
POINT
  5
169C
330
1520
100
AcDbEntity
  8
DEFPOINTS
 62
     0
100
AcDbPoint
 10
-66.73405547446828
 20
-26.99999999999998
 30
0.0
  0
ENDBLK
  5
152C
330
1520
100
AcDbEntity
  8
0
100
AcDbBlockEnd
  0
BLOCK
  5
1538
330
152D
100
AcDbEntity
  8
0
100
AcDbBlockBegin
  2
*D3
 70
     1
 10
0.0
 20
0.0
 30
0.0
  3
*D3
  1

  0
LINE
  5
168B
330
152D
100
AcDbEntity
  8
SK2
 62
     0
370
    -2
100
AcDbLine
 10
-29.99999999999999
 20
14.0000000000001
 30
0.0
 11
-49.49623774924202
 21
14.0000000000001
 31
0.0
  0
LINE
  5
168C
330
152D
100
AcDbEntity
  8
SK2
 62
     0
370
    -2
100
AcDbLine
 10
-29.99999999999999
 20
-14.0
 30
0.0
 11
-49.49623774924202
 21
-13.99999999999999
 31
0.0
  0
LINE
  5
168D
330
152D
100
AcDbEntity
  8
SK2
 62
     0
370
    -2
100
AcDbLine
 10
-48.49623774924202
 20
10.5000000000001
 30
0.0
 11
-48.49623774924202
 21
-10.49999999999999
 31
0.0
  0
SOLID
  5
168E
330
152D
100
AcDbEntity
  8
SK2
 62
     0
100
AcDbTrace
 10
-49.07957108257535
 20
10.5000000000001
 30
0.0
 11
-47.91290441590868
 21
10.5000000000001
 31
0.0
 12
-48.49623774924202
 22
14.0000000000001
 32
0.0
 13
-48.49623774924202
 23
14.0000000000001
 33
0.0
  0
SOLID
  5
168F
330
152D
100
AcDbEntity
  8
SK2
 62
     0
100
AcDbTrace
 10
-49.07957108257535
 20
-10.49999999999999
 30
0.0
 11
-47.91290441590868
 21
-10.49999999999999
 31
0.0
 12
-48.49623774924202
 22
-13.99999999999999
 32
0.0
 13
-48.49623774924202
 23
-13.99999999999999
 33
0.0
  0
MTEXT
  5
1690
330
152D
100
AcDbEntity
  8
SK2
 62
     0
100
AcDbMText
 10
-51.24623774924202
 20
0.0000000000000477
 30
0.0
 40
3.5
 41
0.0
 71
     5
 72
     1
  1
\A1;%%c28
  7
SIMPLEX
 11
0.0000000000000001
 21
1.0
 31
0.0
 73
     1
 44
1.0
1001
ACAD
1000
MTEXTBEGIN
1070
    73
1070
     1
1070
    44
1040
1.0
1070
    74
1070
     0
1000
MTEXTEND
  0
POINT
  5
1691
330
152D
100
AcDbEntity
  8
DEFPOINTS
 62
     0
100
AcDbPoint
 10
-28.99999999999999
 20
14.0000000000001
 30
0.0
  0
POINT
  5
1692
330
152D
100
AcDbEntity
  8
DEFPOINTS
 62
     0
100
AcDbPoint
 10
-28.99999999999999
 20
-14.0
 30
0.0
  0
POINT
  5
1693
330
152D
100
AcDbEntity
  8
DEFPOINTS
 62
     0
100
AcDbPoint
 10
-48.49623774924202
 20
-13.99999999999999
 30
0.0
  0
ENDBLK
  5
1539
330
152D
100
AcDbEntity
  8
0
100
AcDbBlockEnd
  0
ENDSEC
  0
SECTION
  2
ENTITIES
  0
TEXT
  5
13E7
330
19
100
AcDbEntity
  8
SK6
100
AcDbText
 10
-43.58941709024057
 20
-44.93453841692836
 30
0.0
 40
3.5
  1
00026692
  7
SIMPLEX
100
AcDbText
  0
TEXT
  5
13E8
330
19
100
AcDbEntity
  8
SK6
100
AcDbText
 10
-43.03207900527076
 20
-35.34294039537816
 30
0.0
 40
3.5
  1
A75050
  7
SIMPLEX
100
AcDbText
  0
POLYLINE
  5
13E9
330
19
100
AcDbEntity
  8
1
100
AcDb3dPolyline
 66
     1
 10
0.0
 20
0.0
 30
0.0
 70
     8
  0
VERTEX
  5
13EA
330
13E9
100
AcDbEntity
  8
1
100
AcDbVertex
100
AcDb3dPolylineVertex
 10
12.879652
 20
25.17134899999999
 30
0.0
 70
    32
  0
VERTEX
  5
13EB
330
13E9
100
AcDbEntity
  8
1
100
AcDbVertex
100
AcDb3dPolylineVertex
 10
13.715319
 20
24.63662999999999
 30
0.0
 70
    32
  0
VERTEX
  5
13EC
330
13E9
100
AcDbEntity
  8
1
100
AcDbVertex
100
AcDb3dPolylineVertex
 10
14.76405900000001
 20
24.125481
 30
0.0
 70
    32
  0
VERTEX
  5
13ED
330
13E9
100
AcDbEntity
  8
1
100
AcDbVertex
100
AcDb3dPolylineVertex
 10
15.9701430000001
 20
23.68433599999999
 30
0.0
 70
    32
  0
VERTEX
  5
13EE
330
13E9
100
AcDbEntity
  8
1
100
AcDbVertex
100
AcDb3dPolylineVertex
 10
17.265159
 20
23.353256
 30
0.0
 70
    32
  0
VERTEX
  5
13EF
330
13E9
100
AcDbEntity
  8
1
100
AcDbVertex
100
AcDb3dPolylineVertex
 10
18.623554
 20
23.148555
 30
0.0
 70
    32
  0
VERTEX
  5
13F0
330
13E9
100
AcDbEntity
  8
1
100
AcDbVertex
100
AcDb3dPolylineVertex
 10
19.811594
 20
23.08058099999999
 30
0.0
 70
    32
  0
SEQEND
  5
13F1
330
13E9
100
AcDbEntity
  8
1
  0
POLYLINE
  5
13F2
330
19
100
AcDbEntity
  8
1
100
AcDb3dPolyline
 66
     1
 10
0.0
 20
0.0
 30
0.0
 70
     8
  0
VERTEX
  5
13F3
330
13F2
100
AcDbEntity
  8
1
100
AcDbVertex
100
AcDb3dPolylineVertex
 10
15.515705
 20
25.65948799999999
 30
0.0
 70
    32
  0
VERTEX
  5
13F4
330
13F2
100
AcDbEntity
  8
1
100
AcDbVertex
100
AcDb3dPolylineVertex
 10
14.54633900000001
 20
25.729351
 30
0.0
 70
    32
  0
VERTEX
  5
13F5
330
13F2
100
AcDbEntity
  8
1
100
AcDbVertex
100
AcDb3dPolylineVertex
 10
13.77284500000001
 20
25.746144
 30
0.0
 70
    32
  0
VERTEX
  5
13F6
330
13F2
100
AcDbEntity
  8
1
100
AcDbVertex
100
AcDb3dPolylineVertex
 10
13.20946100000001
 20
25.691103
 30
0.0
 70
    32
  0
VERTEX
  5
13F7
330
13F2
100
AcDbEntity
  8
1
100
AcDbVertex
100
AcDb3dPolylineVertex
 10
12.86512000000001
 20
25.556616
 30
0.0
 70
    32
  0
VERTEX
  5
13F8
330
13F2
100
AcDbEntity
  8
1
100
AcDbVertex
100
AcDb3dPolylineVertex
 10
12.7500000000001
 20
25.345054
 30
0.0
 70
    32
  0
SEQEND
  5
13F9
330
13F2
100
AcDbEntity
  8
1
  0
POLYLINE
  5
13FA
330
19
100
AcDbEntity
  8
1
100
AcDb3dPolyline
 66
     1
 10
0.0
 20
0.0
 30
0.0
 70
     8
  0
VERTEX
  5
13FB
330
13FA
100
AcDbEntity
  8
1
100
AcDbVertex
100
AcDb3dPolylineVertex
 10
14.68838800000001
 20
27.0
 30
0.0
 70
    32
  0
VERTEX
  5
13FC
330
13FA
100
AcDbEntity
  8
1
100
AcDbVertex
100
AcDb3dPolylineVertex
 10
13.622846
 20
26.976144
 30
0.0
 70
    32
  0
VERTEX
  5
13FD
330
13FA
100
AcDbEntity
  8
1
100
AcDbVertex
100
AcDb3dPolylineVertex
 10
12.799471
 20
26.889791
 30
0.0
 70
    32
  0
VERTEX
  5
13FE
330
13FA
100
AcDbEntity
  8
1
100
AcDbVertex
100
AcDb3dPolylineVertex
 10
12.2428870000001
 20
26.72407199999999
 30
0.0
 70
    32
  0
VERTEX
  5
13FF
330
13FA
100
AcDbEntity
  8
1
100
AcDbVertex
100
AcDb3dPolylineVertex
 10
11.964559
 20
26.46914999999998
 30
0.0
 70
    32
  0
VERTEX
  5
1400
330
13FA
100
AcDbEntity
  8
1
100
AcDbVertex
100
AcDb3dPolylineVertex
 10
11.976919
 20
26.103616
 30
0.0
 70
    32
  0
SEQEND
  5
1401
330
13FA
100
AcDbEntity
  8
1
  0
POLYLINE
  5
1402
330
19
100
AcDbEntity
  8
1
100
AcDb3dPolyline
 66
     1
 10
0.0
 20
0.0
 30
0.0
 70
     8
  0
VERTEX
  5
1403
330
1402
100
AcDbEntity
  8
1
100
AcDbVertex
100
AcDb3dPolylineVertex
 10
14.752558
 20
26.999938
 30
0.0
 70
    32
  0
VERTEX
  5
1404
330
1402
100
AcDbEntity
  8
1
100
AcDbVertex
100
AcDb3dPolylineVertex
 10
15.91491600000001
 20
26.98475399999999
 30
0.0
 70
    32
  0
VERTEX
  5
1405
330
1402
100
AcDbEntity
  8
1
100
AcDbVertex
100
AcDb3dPolylineVertex
 10
17.20294900000001
 20
26.956125
 30
0.0
 70
    32
  0
VERTEX
  5
1406
330
1402
100
AcDbEntity
  8
1
100
AcDbVertex
100
AcDb3dPolylineVertex
 10
18.566329
 20
26.93124899999999
 30
0.0
 70
    32
  0
VERTEX
  5
1407
330
1402
100
AcDbEntity
  8
1
100
AcDbVertex
100
AcDb3dPolylineVertex
 10
19.983273
 20
26.92144600000001
 30
0.0
 70
    32
  0
VERTEX
  5
1408
330
1402
100
AcDbEntity
  8
1
100
AcDbVertex
100
AcDb3dPolylineVertex
 10
21.4022
 20
26.931285
 30
0.0
 70
    32
  0
VERTEX
  5
1409
330
1402
100
AcDbEntity
  8
1
100
AcDbVertex
100
AcDb3dPolylineVertex
 10
22.76720999999999
 20
26.95622800000001
 30
0.0
 70
    32
  0
VERTEX
  5
140A
330
1402
100
AcDbEntity
  8
1
100
AcDbVertex
100
AcDb3dPolylineVertex
 10
24.05488800000001
 20
26.984848
 30
0.0
 70
    32
  0
VERTEX
  5
140B
330
1402
100
AcDbEntity
  8
1
100
AcDbVertex
100
AcDb3dPolylineVertex
 10
25.209632
 20
26.999932
 30
0.0
 70
    32
  0
SEQEND
  5
140C
330
1402
100
AcDbEntity
  8
1
  0
POLYLINE
  5
140D
330
19
100
AcDbEntity
  8
1
100
AcDb3dPolyline
 66
     1
 10
0.0
 20
0.0
 30
0.0
 70
     8
  0
VERTEX
  5
140E
330
140D
100
AcDbEntity
  8
1
100
AcDbVertex
100
AcDb3dPolylineVertex
 10
24.46633
 20
25.68099399999999
 30
0.0
 70
    32
  0
VERTEX
  5
140F
330
140D
100
AcDbEntity
  8
1
100
AcDbVertex
100
AcDb3dPolylineVertex
 10
23.296335
 20
25.578704
 30
0.0
 70
    32
  0
VERTEX
  5
1410
330
140D
100
AcDbEntity
  8
1
100
AcDbVertex
100
AcDb3dPolylineVertex
 10
22.01193099999991
 20
25.485675
 30
0.0
 70
    32
  0
VERTEX
  5
1411
330
140D
100
AcDbEntity
  8
1
100
AcDbVertex
100
AcDb3dPolylineVertex
 10
20.670289
 20
25.43009499999999
 30
0.0
 70
    32
  0
VERTEX
  5
1412
330
140D
100
AcDbEntity
  8
1
100
AcDbVertex
100
AcDb3dPolylineVertex
 10
19.30691399999989
 20
25.42689699999999
 30
0.0
 70
    32
  0
VERTEX
  5
1413
330
140D
100
AcDbEntity
  8
1
100
AcDbVertex
100
AcDb3dPolylineVertex
 10
17.966476
 20
25.47614499999999
 30
0.0
 70
    32
  0
VERTEX
  5
1414
330
140D
100
AcDbEntity
  8
1
100
AcDbVertex
100
AcDb3dPolylineVertex
 10
16.685064
 20
25.562859
 30
0.0
 70
    32
  0
VERTEX
  5
1415
330
140D
100
AcDbEntity
  8
1
100
AcDbVertex
100
AcDb3dPolylineVertex
 10
15.515705
 20
25.65948799999999
 30
0.0
 70
    32
  0
SEQEND
  5
1416
330
140D
100
AcDbEntity
  8
1
  0
POLYLINE
  5
1417
330
19
100
AcDbEntity
  8
1
100
AcDb3dPolyline
 66
     1
 10
0.0
 20
0.0
 30
0.0
 70
     8
  0
VERTEX
  5
1418
330
1417
100
AcDbEntity
  8
1
100
AcDbVertex
100
AcDb3dPolylineVertex
 10
24.46633
 20
25.68099399999999
 30
0.0
 70
    32
  0
VERTEX
  5
1419
330
1417
100
AcDbEntity
  8
1
100
AcDbVertex
100
AcDb3dPolylineVertex
 10
25.4428090000001
 20
25.756299
 30
0.0
 70
    32
  0
VERTEX
  5
141A
330
1417
100
AcDbEntity
  8
1
100
AcDbVertex
100
AcDb3dPolylineVertex
 10
26.22142399999999
 20
25.777607
 30
0.0
 70
    32
  0
VERTEX
  5
141B
330
1417
100
AcDbEntity
  8
1
100
AcDbVertex
100
AcDb3dPolylineVertex
 10
26.78783200000001
 20
25.726072
 30
0.0
 70
    32
  0
VERTEX
  5
141C
330
1417
100
AcDbEntity
  8
1
100
AcDbVertex
100
AcDb3dPolylineVertex
 10
27.134867
 20
25.593722
 30
0.0
 70
    32
  0
VERTEX
  5
141D
330
1417
100
AcDbEntity
  8
1
100
AcDbVertex
100
AcDb3dPolylineVertex
 10
27.25
 20
25.38446
 30
0.0
 70
    32
  0
SEQEND
  5
141E
330
1417
100
AcDbEntity
  8
1
  0
POLYLINE
  5
141F
330
19
100
AcDbEntity
  8
1
100
AcDb3dPolyline
 66
     1
 10
0.0
 20
0.0
 30
0.0
 70
     8
  0
VERTEX
  5
1420
330
141F
100
AcDbEntity
  8
1
100
AcDbVertex
100
AcDb3dPolylineVertex
 10
27.9856779999999
 20
26.10752399999999
 30
0.0
 70
    32
  0
VERTEX
  5
1421
330
141F
100
AcDbEntity
  8
1
100
AcDbVertex
100
AcDb3dPolylineVertex
 10
27.98292599999999
 20
26.100443
 30
0.0
 70
    32
  0
VERTEX
  5
1422
330
141F
100
AcDbEntity
  8
1
100
AcDbVertex
100
AcDb3dPolylineVertex
 10
27.98174900000001
 20
26.093292
 30
0.0
 70
    32
  0
SEQEND
  5
1423
330
141F
100
AcDbEntity
  8
1
  0
POLYLINE
  5
1424
330
19
100
AcDbEntity
  8
1
100
AcDb3dPolyline
 66
     1
 10
0.0
 20
0.0
 30
0.0
 70
     8
  0
VERTEX
  5
1425
330
1424
100
AcDbEntity
  8
1
100
AcDbVertex
100
AcDb3dPolylineVertex
 10
25.2765549999999
 20
27.0
 30
0.0
 70
    32
  0
VERTEX
  5
1426
330
1424
100
AcDbEntity
  8
1
100
AcDbVertex
100
AcDb3dPolylineVertex
 10
26.3397209999999
 20
26.976234
 30
0.0
 70
    32
  0
VERTEX
  5
1427
330
1424
100
AcDbEntity
  8
1
100
AcDbVertex
100
AcDb3dPolylineVertex
 10
27.16187099999991
 20
26.890145
 30
0.0
 70
    32
  0
VERTEX
  5
1428
330
1424
100
AcDbEntity
  8
1
100
AcDbVertex
100
AcDb3dPolylineVertex
 10
27.718155
 20
26.724811
 30
0.0
 70
    32
  0
VERTEX
  5
1429
330
1424
100
AcDbEntity
  8
1
100
AcDbVertex
100
AcDb3dPolylineVertex
 10
27.996196
 20
26.47138400000001
 30
0.0
 70
    32
  0
VERTEX
  5
142A
330
1424
100
AcDbEntity
  8
1
100
AcDbVertex
100
AcDb3dPolylineVertex
 10
27.9856779999999
 20
26.10752399999999
 30
0.0
 70
    32
  0
SEQEND
  5
142B
330
1424
100
AcDbEntity
  8
1
  0
POLYLINE
  5
142C
330
19
100
AcDbEntity
  8
1
100
AcDb3dPolyline
 66
     1
 10
0.0
 20
0.0
 30
0.0
 70
     8
  0
VERTEX
  5
142D
330
142C
100
AcDbEntity
  8
1
100
AcDbVertex
100
AcDb3dPolylineVertex
 10
27.12034800000001
 20
25.17134899999999
 30
0.0
 70
    32
  0
VERTEX
  5
142E
330
142C
100
AcDbEntity
  8
1
100
AcDbVertex
100
AcDb3dPolylineVertex
 10
26.28468100000001
 20
24.63662999999999
 30
0.0
 70
    32
  0
VERTEX
  5
142F
330
142C
100
AcDbEntity
  8
1
100
AcDbVertex
100
AcDb3dPolylineVertex
 10
25.2359409999999
 20
24.125481
 30
0.0
 70
    32
  0
VERTEX
  5
1430
330
142C
100
AcDbEntity
  8
1
100
AcDbVertex
100
AcDb3dPolylineVertex
 10
24.02985699999991
 20
23.68433599999999
 30
0.0
 70
    32
  0
VERTEX
  5
1431
330
142C
100
AcDbEntity
  8
1
100
AcDbVertex
100
AcDb3dPolylineVertex
 10
22.73484100000001
 20
23.353256
 30
0.0
 70
    32
  0
VERTEX
  5
1432
330
142C
100
AcDbEntity
  8
1
100
AcDbVertex
100
AcDb3dPolylineVertex
 10
21.37644600000001
 20
23.148555
 30
0.0
 70
    32
  0
VERTEX
  5
1433
330
142C
100
AcDbEntity
  8
1
100
AcDbVertex
100
AcDb3dPolylineVertex
 10
20.188406
 20
23.08058099999999
 30
0.0
 70
    32
  0
SEQEND
  5
1434
330
142C
100
AcDbEntity
  8
1
  0
POLYLINE
  5
1435
330
19
100
AcDbEntity
  8
1
100
AcDb3dPolyline
 66
     1
 10
0.0
 20
0.0
 30
0.0
 70
     8
  0
VERTEX
  5
1436
330
1435
100
AcDbEntity
  8
1
100
AcDbVertex
100
AcDb3dPolylineVertex
 10
55.57606999999999
 20
19.002216
 30
0.0
 70
    32
  0
VERTEX
  5
1437
330
1435
100
AcDbEntity
  8
1
100
AcDbVertex
100
AcDb3dPolylineVertex
 10
54.97205799999989
 20
18.85293799999999
 30
0.0
 70
    32
  0
VERTEX
  5
1438
330
1435
100
AcDbEntity
  8
1
100
AcDbVertex
100
AcDb3dPolylineVertex
 10
54.41362300000001
 20
18.73529399999998
 30
0.0
 70
    32
  0
VERTEX
  5
1439
330
1435
100
AcDbEntity
  8
1
100
AcDbVertex
100
AcDb3dPolylineVertex
 10
53.89749399999989
 20
18.64527199999999
 30
0.0
 70
    32
  0
VERTEX
  5
143A
330
1435
100
AcDbEntity
  8
1
100
AcDbVertex
100
AcDb3dPolylineVertex
 10
53.42259099999999
 20
18.58036599999999
 30
0.0
 70
    32
  0
VERTEX
  5
143B
330
1435
100
AcDbEntity
  8
1
100
AcDbVertex
100
AcDb3dPolylineVertex
 10
52.98666199999989
 20
18.53862000000001
 30
0.0
 70
    32
  0
VERTEX
  5
143C
330
1435
100
AcDbEntity
  8
1
100
AcDbVertex
100
AcDb3dPolylineVertex
 10
52.58626800000001
 20
18.51880399999998
 30
0.0
 70
    32
  0
VERTEX
  5
143D
330
1435
100
AcDbEntity
  8
1
100
AcDbVertex
100
AcDb3dPolylineVertex
 10
52.212629
 20
18.52105299999999
 30
0.0
 70
    32
  0
VERTEX
  5
143E
330
1435
100
AcDbEntity
  8
1
100
AcDbVertex
100
AcDb3dPolylineVertex
 10
51.85984000000001
 20
18.54874499999999
 30
0.0
 70
    32
  0
VERTEX
  5
143F
330
1435
100
AcDbEntity
  8
1
100
AcDbVertex
100
AcDb3dPolylineVertex
 10
51.54569399999999
 20
18.60563299999999
 30
0.0
 70
    32
  0
VERTEX
  5
1440
330
1435
100
AcDbEntity
  8
1
100
AcDbVertex
100
AcDb3dPolylineVertex
 10
51.28314200000001
 20
18.695183
 30
0.0
 70
    32
  0
VERTEX
  5
1441
330
1435
100
AcDbEntity
  8
1
100
AcDbVertex
100
AcDb3dPolylineVertex
 10
51.08296000000001
 20
18.824134
 30
0.0
 70
    32
  0
VERTEX
  5
1442
330
1435
100
AcDbEntity
  8
1
100
AcDbVertex
100
AcDb3dPolylineVertex
 10
50.970284
 20
18.993358
 30
0.0
 70
    32
  0
VERTEX
  5
1443
330
1435
100
AcDbEntity
  8
1
100
AcDbVertex
100
AcDb3dPolylineVertex
 10
50.95999200000012
 20
19.18013099999998
 30
0.0
 70
    32
  0
VERTEX
  5
1444
330
1435
100
AcDbEntity
  8
1
100
AcDbVertex
100
AcDb3dPolylineVertex
 10
51.0346
 20
19.37205099999998
 30
0.0
 70
    32
  0
VERTEX
  5
1445
330
1435
100
AcDbEntity
  8
1
100
AcDbVertex
100
AcDb3dPolylineVertex
 10
51.17722800000001
 20
19.56439899999999
 30
0.0
 70
    32
  0
VERTEX
  5
1446
330
1435
100
AcDbEntity
  8
1
100
AcDbVertex
100
AcDb3dPolylineVertex
 10
51.372019
 20
19.75118399999999
 30
0.0
 70
    32
  0
VERTEX
  5
1447
330
1435
100
AcDbEntity
  8
1
100
AcDbVertex
100
AcDb3dPolylineVertex
 10
51.6168489999999
 20
19.93682699999999
 30
0.0
 70
    32
  0
VERTEX
  5
1448
330
1435
100
AcDbEntity
  8
1
100
AcDbVertex
100
AcDb3dPolylineVertex
 10
51.915833
 20
20.124611
 30
0.0
 70
    32
  0
SEQEND
  5
1449
330
1435
100
AcDbEntity
  8
1
  0
POLYLINE
  5
144A
330
19
100
AcDbEntity
  8
1
100
AcDb3dPolyline
 66
     1
 10
0.0
 20
0.0
 30
0.0
 70
     8
  0
VERTEX
  5
144B
330
144A
100
AcDbEntity
  8
1
100
AcDbVertex
100
AcDb3dPolylineVertex
 10
51.915833
 20
20.124611
 30
0.0
 70
    32
  0
VERTEX
  5
144C
330
144A
100
AcDbEntity
  8
1
100
AcDbVertex
100
AcDb3dPolylineVertex
 10
52.75869799999998
 20
20.533169
 30
0.0
 70
    32
  0
VERTEX
  5
144D
330
144A
100
AcDbEntity
  8
1
100
AcDbVertex
100
AcDb3dPolylineVertex
 10
53.56087099999999
 20
20.82535599999998
 30
0.0
 70
    32
  0
VERTEX
  5
144E
330
144A
100
AcDbEntity
  8
1
100
AcDbVertex
100
AcDb3dPolylineVertex
 10
54.30591999999999
 20
21.040282
 30
0.0
 70
    32
  0
VERTEX
  5
144F
330
144A
100
AcDbEntity
  8
1
100
AcDbVertex
100
AcDb3dPolylineVertex
 10
54.9944819999999
 20
21.19969899999999
 30
0.0
 70
    32
  0
VERTEX
  5
1450
330
144A
100
AcDbEntity
  8
1
100
AcDbVertex
100
AcDb3dPolylineVertex
 10
55.62902099999998
 20
21.316418
 30
0.0
 70
    32
  0
VERTEX
  5
1451
330
144A
100
AcDbEntity
  8
1
100
AcDbVertex
100
AcDb3dPolylineVertex
 10
56.213625
 20
21.398859
 30
0.0
 70
    32
  0
VERTEX
  5
1452
330
144A
100
AcDbEntity
  8
1
100
AcDbVertex
100
AcDb3dPolylineVertex
 10
56.75055699999999
 20
21.452398
 30
0.0
 70
    32
  0
VERTEX
  5
1453
330
144A
100
AcDbEntity
  8
1
100
AcDbVertex
100
AcDb3dPolylineVertex
 10
57.24368300000001
 20
21.480725
 30
0.0
 70
    32
  0
VERTEX
  5
1454
330
144A
100
AcDbEntity
  8
1
100
AcDbVertex
100
AcDb3dPolylineVertex
 10
57.69511600000002
 20
21.48582899999999
 30
0.0
 70
    32
  0
VERTEX
  5
1455
330
144A
100
AcDbEntity
  8
1
100
AcDbVertex
100
AcDb3dPolylineVertex
 10
58.10498600000012
 20
21.46833499999999
 30
0.0
 70
    32
  0
VERTEX
  5
1456
330
144A
100
AcDbEntity
  8
1
100
AcDbVertex
100
AcDb3dPolylineVertex
 10
58.46936500000001
 20
21.42788899999999
 30
0.0
 70
    32
  0
VERTEX
  5
1457
330
144A
100
AcDbEntity
  8
1
100
AcDbVertex
100
AcDb3dPolylineVertex
 10
58.78425799999998
 20
21.362859
 30
0.0
 70
    32
  0
VERTEX
  5
1458
330
144A
100
AcDbEntity
  8
1
100
AcDbVertex
100
AcDb3dPolylineVertex
 10
59.039999
 20
21.270741
 30
0.0
 70
    32
  0
VERTEX
  5
1459
330
144A
100
AcDbEntity
  8
1
100
AcDbVertex
100
AcDb3dPolylineVertex
 10
59.217513
 20
21.15316899999999
 30
0.0
 70
    32
  0
VERTEX
  5
145A
330
144A
100
AcDbEntity
  8
1
100
AcDbVertex
100
AcDb3dPolylineVertex
 10
59.30743900000001
 20
21.013169
 30
0.0
 70
    32
  0
VERTEX
  5
145B
330
144A
100
AcDbEntity
  8
1
100
AcDbVertex
100
AcDb3dPolylineVertex
 10
59.3066989999999
 20
20.85221999999999
 30
0.0
 70
    32
  0
VERTEX
  5
145C
330
144A
100
AcDbEntity
  8
1
100
AcDbVertex
100
AcDb3dPolylineVertex
 10
59.21693900000001
 20
20.67764099999999
 30
0.0
 70
    32
  0
VERTEX
  5
145D
330
144A
100
AcDbEntity
  8
1
100
AcDbVertex
100
AcDb3dPolylineVertex
 10
59.05060399999999
 20
20.498117
 30
0.0
 70
    32
  0
VERTEX
  5
145E
330
144A
100
AcDbEntity
  8
1
100
AcDbVertex
100
AcDb3dPolylineVertex
 10
58.82005000000002
 20
20.316838
 30
0.0
 70
    32
  0
VERTEX
  5
145F
330
144A
100
AcDbEntity
  8
1
100
AcDbVertex
100
AcDb3dPolylineVertex
 10
58.51580699999999
 20
20.12459599999999
 30
0.0
 70
    32
  0
SEQEND
  5
1460
330
144A
100
AcDbEntity
  8
1
  0
POLYLINE
  5
1461
330
19
100
AcDbEntity
  8
1
100
AcDb3dPolyline
 66
     1
 10
0.0
 20
0.0
 30
0.0
 70
     8
  0
VERTEX
  5
1462
330
1461
100
AcDbEntity
  8
1
100
AcDbVertex
100
AcDb3dPolylineVertex
 10
58.51580699999999
 20
20.12459599999999
 30
0.0
 70
    32
  0
VERTEX
  5
1463
330
1461
100
AcDbEntity
  8
1
100
AcDbVertex
100
AcDb3dPolylineVertex
 10
58.188391
 20
19.948858
 30
0.0
 70
    32
  0
VERTEX
  5
1464
330
1461
100
AcDbEntity
  8
1
100
AcDbVertex
100
AcDb3dPolylineVertex
 10
57.78957700000002
 20
19.76152999999999
 30
0.0
 70
    32
  0
VERTEX
  5
1465
330
1461
100
AcDbEntity
  8
1
100
AcDbVertex
100
AcDb3dPolylineVertex
 10
57.33333100000002
 20
19.57202999999999
 30
0.0
 70
    32
  0
VERTEX
  5
1466
330
1461
100
AcDbEntity
  8
1
100
AcDbVertex
100
AcDb3dPolylineVertex
 10
56.81605
 20
19.38105399999999
 30
0.0
 70
    32
  0
VERTEX
  5
1467
330
1461
100
AcDbEntity
  8
1
100
AcDbVertex
100
AcDb3dPolylineVertex
 10
56.232614
 20
19.19014599999998
 30
0.0
 70
    32
  0
VERTEX
  5
1468
330
1461
100
AcDbEntity
  8
1
100
AcDbVertex
100
AcDb3dPolylineVertex
 10
55.57606999999999
 20
19.002216
 30
0.0
 70
    32
  0
SEQEND
  5
1469
330
1461
100
AcDbEntity
  8
1
  0
POLYLINE
  5
146A
330
19
100
AcDbEntity
  8
1
100
AcDb3dPolyline
 66
     1
 10
0.0
 20
0.0
 30
0.0
 70
     8
  0
VERTEX
  5
146B
330
146A
100
AcDbEntity
  8
1
100
AcDbVertex
100
AcDb3dPolylineVertex
 10
55.57606999999999
 20
-19.002217
 30
0.0
 70
    32
  0
VERTEX
  5
146C
330
146A
100
AcDbEntity
  8
1
100
AcDbVertex
100
AcDb3dPolylineVertex
 10
54.97205799999989
 20
-18.85293899999999
 30
0.0
 70
    32
  0
VERTEX
  5
146D
330
146A
100
AcDbEntity
  8
1
100
AcDbVertex
100
AcDb3dPolylineVertex
 10
54.41362300000001
 20
-18.735295
 30
0.0
 70
    32
  0
VERTEX
  5
146E
330
146A
100
AcDbEntity
  8
1
100
AcDbVertex
100
AcDb3dPolylineVertex
 10
53.89749399999989
 20
-18.64527299999998
 30
0.0
 70
    32
  0
VERTEX
  5
146F
330
146A
100
AcDbEntity
  8
1
100
AcDbVertex
100
AcDb3dPolylineVertex
 10
53.42259099999999
 20
-18.58036699999998
 30
0.0
 70
    32
  0
VERTEX
  5
1470
330
146A
100
AcDbEntity
  8
1
100
AcDbVertex
100
AcDb3dPolylineVertex
 10
52.98666199999989
 20
-18.53862099999999
 30
0.0
 70
    32
  0
VERTEX
  5
1471
330
146A
100
AcDbEntity
  8
1
100
AcDbVertex
100
AcDb3dPolylineVertex
 10
52.58626800000001
 20
-18.518805
 30
0.0
 70
    32
  0
VERTEX
  5
1472
330
146A
100
AcDbEntity
  8
1
100
AcDbVertex
100
AcDb3dPolylineVertex
 10
52.212629
 20
-18.521054
 30
0.0
 70
    32
  0
VERTEX
  5
1473
330
146A
100
AcDbEntity
  8
1
100
AcDbVertex
100
AcDb3dPolylineVertex
 10
51.85984000000001
 20
-18.54874599999998
 30
0.0
 70
    32
  0
VERTEX
  5
1474
330
146A
100
AcDbEntity
  8
1
100
AcDbVertex
100
AcDb3dPolylineVertex
 10
51.54569399999999
 20
-18.60563399999999
 30
0.0
 70
    32
  0
VERTEX
  5
1475
330
146A
100
AcDbEntity
  8
1
100
AcDbVertex
100
AcDb3dPolylineVertex
 10
51.28314200000001
 20
-18.69518399999998
 30
0.0
 70
    32
  0
VERTEX
  5
1476
330
146A
100
AcDbEntity
  8
1
100
AcDbVertex
100
AcDb3dPolylineVertex
 10
51.08296000000001
 20
-18.824135
 30
0.0
 70
    32
  0
VERTEX
  5
1477
330
146A
100
AcDbEntity
  8
1
100
AcDbVertex
100
AcDb3dPolylineVertex
 10
50.970284
 20
-18.99335899999998
 30
0.0
 70
    32
  0
VERTEX
  5
1478
330
146A
100
AcDbEntity
  8
1
100
AcDbVertex
100
AcDb3dPolylineVertex
 10
50.95999200000012
 20
-19.180132
 30
0.0
 70
    32
  0
VERTEX
  5
1479
330
146A
100
AcDbEntity
  8
1
100
AcDbVertex
100
AcDb3dPolylineVertex
 10
51.0346
 20
-19.37205199999999
 30
0.0
 70
    32
  0
VERTEX
  5
147A
330
146A
100
AcDbEntity
  8
1
100
AcDbVertex
100
AcDb3dPolylineVertex
 10
51.17722800000001
 20
-19.56439999999999
 30
0.0
 70
    32
  0
VERTEX
  5
147B
330
146A
100
AcDbEntity
  8
1
100
AcDbVertex
100
AcDb3dPolylineVertex
 10
51.372019
 20
-19.75118399999998
 30
0.0
 70
    32
  0
VERTEX
  5
147C
330
146A
100
AcDbEntity
  8
1
100
AcDbVertex
100
AcDb3dPolylineVertex
 10
51.6168489999999
 20
-19.936828
 30
0.0
 70
    32
  0
VERTEX
  5
147D
330
146A
100
AcDbEntity
  8
1
100
AcDbVertex
100
AcDb3dPolylineVertex
 10
51.915833
 20
-20.124612
 30
0.0
 70
    32
  0
SEQEND
  5
147E
330
146A
100
AcDbEntity
  8
1
  0
POLYLINE
  5
147F
330
19
100
AcDbEntity
  8
1
100
AcDb3dPolyline
 66
     1
 10
0.0
 20
0.0
 30
0.0
 70
     8
  0
VERTEX
  5
1480
330
147F
100
AcDbEntity
  8
1
100
AcDbVertex
100
AcDb3dPolylineVertex
 10
51.915833
 20
-20.124612
 30
0.0
 70
    32
  0
VERTEX
  5
1481
330
147F
100
AcDbEntity
  8
1
100
AcDbVertex
100
AcDb3dPolylineVertex
 10
52.75869799999998
 20
-20.53316999999998
 30
0.0
 70
    32
  0
VERTEX
  5
1482
330
147F
100
AcDbEntity
  8
1
100
AcDbVertex
100
AcDb3dPolylineVertex
 10
53.56087099999999
 20
-20.82535599999998
 30
0.0
 70
    32
  0
VERTEX
  5
1483
330
147F
100
AcDbEntity
  8
1
100
AcDbVertex
100
AcDb3dPolylineVertex
 10
54.30591999999999
 20
-21.04028299999999
 30
0.0
 70
    32
  0
VERTEX
  5
1484
330
147F
100
AcDbEntity
  8
1
100
AcDbVertex
100
AcDb3dPolylineVertex
 10
54.9944819999999
 20
-21.19969999999999
 30
0.0
 70
    32
  0
VERTEX
  5
1485
330
147F
100
AcDbEntity
  8
1
100
AcDbVertex
100
AcDb3dPolylineVertex
 10
55.62902099999998
 20
-21.31641899999999
 30
0.0
 70
    32
  0
VERTEX
  5
1486
330
147F
100
AcDbEntity
  8
1
100
AcDbVertex
100
AcDb3dPolylineVertex
 10
56.213625
 20
-21.39886
 30
0.0
 70
    32
  0
VERTEX
  5
1487
330
147F
100
AcDbEntity
  8
1
100
AcDbVertex
100
AcDb3dPolylineVertex
 10
56.75055699999999
 20
-21.45239899999998
 30
0.0
 70
    32
  0
VERTEX
  5
1488
330
147F
100
AcDbEntity
  8
1
100
AcDbVertex
100
AcDb3dPolylineVertex
 10
57.24368300000001
 20
-21.480726
 30
0.0
 70
    32
  0
VERTEX
  5
1489
330
147F
100
AcDbEntity
  8
1
100
AcDbVertex
100
AcDb3dPolylineVertex
 10
57.69511600000002
 20
-21.48582999999999
 30
0.0
 70
    32
  0
VERTEX
  5
148A
330
147F
100
AcDbEntity
  8
1
100
AcDbVertex
100
AcDb3dPolylineVertex
 10
58.10498600000012
 20
-21.46833599999999
 30
0.0
 70
    32
  0
VERTEX
  5
148B
330
147F
100
AcDbEntity
  8
1
100
AcDbVertex
100
AcDb3dPolylineVertex
 10
58.46936500000001
 20
-21.42789
 30
0.0
 70
    32
  0
VERTEX
  5
148C
330
147F
100
AcDbEntity
  8
1
100
AcDbVertex
100
AcDb3dPolylineVertex
 10
58.78425799999998
 20
-21.36285999999999
 30
0.0
 70
    32
  0
VERTEX
  5
148D
330
147F
100
AcDbEntity
  8
1
100
AcDbVertex
100
AcDb3dPolylineVertex
 10
59.039999
 20
-21.270742
 30
0.0
 70
    32
  0
VERTEX
  5
148E
330
147F
100
AcDbEntity
  8
1
100
AcDbVertex
100
AcDb3dPolylineVertex
 10
59.217513
 20
-21.15317000000001
 30
0.0
 70
    32
  0
VERTEX
  5
148F
330
147F
100
AcDbEntity
  8
1
100
AcDbVertex
100
AcDb3dPolylineVertex
 10
59.30743900000001
 20
-21.01316999999998
 30
0.0
 70
    32
  0
VERTEX
  5
1490
330
147F
100
AcDbEntity
  8
1
100
AcDbVertex
100
AcDb3dPolylineVertex
 10
59.3066989999999
 20
-20.852221
 30
0.0
 70
    32
  0
VERTEX
  5
1491
330
147F
100
AcDbEntity
  8
1
100
AcDbVertex
100
AcDb3dPolylineVertex
 10
59.21693900000001
 20
-20.677641
 30
0.0
 70
    32
  0
VERTEX
  5
1492
330
147F
100
AcDbEntity
  8
1
100
AcDbVertex
100
AcDb3dPolylineVertex
 10
59.05060399999999
 20
-20.498118
 30
0.0
 70
    32
  0
VERTEX
  5
1493
330
147F
100
AcDbEntity
  8
1
100
AcDbVertex
100
AcDb3dPolylineVertex
 10
58.82005000000002
 20
-20.316839
 30
0.0
 70
    32
  0
VERTEX
  5
1494
330
147F
100
AcDbEntity
  8
1
100
AcDbVertex
100
AcDb3dPolylineVertex
 10
58.51580699999999
 20
-20.124597
 30
0.0
 70
    32
  0
SEQEND
  5
1495
330
147F
100
AcDbEntity
  8
1
  0
POLYLINE
  5
1496
330
19
100
AcDbEntity
  8
1
100
AcDb3dPolyline
 66
     1
 10
0.0
 20
0.0
 30
0.0
 70
     8
  0
VERTEX
  5
1497
330
1496
100
AcDbEntity
  8
1
100
AcDbVertex
100
AcDb3dPolylineVertex
 10
58.51580699999999
 20
-20.124597
 30
0.0
 70
    32
  0
VERTEX
  5
1498
330
1496
100
AcDbEntity
  8
1
100
AcDbVertex
100
AcDb3dPolylineVertex
 10
58.188391
 20
-19.94885899999998
 30
0.0
 70
    32
  0
VERTEX
  5
1499
330
1496
100
AcDbEntity
  8
1
100
AcDbVertex
100
AcDb3dPolylineVertex
 10
57.78957700000002
 20
-19.761531
 30
0.0
 70
    32
  0
VERTEX
  5
149A
330
1496
100
AcDbEntity
  8
1
100
AcDbVertex
100
AcDb3dPolylineVertex
 10
57.33333100000002
 20
-19.57203099999999
 30
0.0
 70
    32
  0
VERTEX
  5
149B
330
1496
100
AcDbEntity
  8
1
100
AcDbVertex
100
AcDb3dPolylineVertex
 10
56.81605
 20
-19.38105499999998
 30
0.0
 70
    32
  0
VERTEX
  5
149C
330
1496
100
AcDbEntity
  8
1
100
AcDbVertex
100
AcDb3dPolylineVertex
 10
56.232614
 20
-19.19014699999999
 30
0.0
 70
    32
  0
VERTEX
  5
149D
330
1496
100
AcDbEntity
  8
1
100
AcDbVertex
100
AcDb3dPolylineVertex
 10
55.57606999999999
 20
-19.002217
 30
0.0
 70
    32
  0
SEQEND
  5
149E
330
1496
100
AcDbEntity
  8
1
  0
DIMENSION
  5
149F
330
19
100
AcDbEntity
  8
2
100
AcDbDimension
  2
*D0
 10
122.9392563633077
 20
36.4021785189561
 30
0.0
 11
120.1892563633077
 21
0.0000000000000141
 31
0.0
 70
    32
  1
%%c64-86
 71
     5
 42
72.80435703791221
  3
V-TYGEN_-160
100
AcDbAlignedDimension
 13
83.56020838800947
 23
-36.40217851895611
 33
0.0
 14
83.56020838800947
 24
36.40217851895611
 34
0.0
 50
90.0
100
AcDbRotatedDimension
1001
ACAD
1000
DSTYLE
1002
{
1070
   340
1005
1F
1002
}
  0
DIMENSION
  5
14A0
330
19
100
AcDbEntity
  8
2
100
AcDbDimension
  2
*D1
 10
0.000000000000003
 20
75.0
 30
0.0
 11
42.53589838486218
 21
75.0
 31
0.0
 70
   160
 71
     5
 42
84.49912693014182
  3
V-TYGEN_-160
100
AcDbAlignedDimension
 13
84.49912693014182
 23
35.61433231654629
 33
0.0
 14
0.0
 24
26.0
 34
0.0
 50
180.0
100
AcDbRotatedDimension
1001
ACAD
1000
DSTYLE
1002
{
1070
   340
1005
1F
1002
}
  0
CIRCLE
  5
14A1
330
19
100
AcDbEntity
  8
3
 62
     1
100
AcDbCircle
 10
78.14912693014171
 20
29.000099877648
 30
0.0
 40
1.0
  0
LINE
  5
14A2
330
19
100
AcDbEntity
  8
3
 62
     1
100
AcDbLine
 10
62.00000000000001
 20
-29.4107429999995
 30
0.0
 11
62.00000000000001
 21
-22.58
 31
0.0
  0
LINE
  5
14A3
330
19
100
AcDbEntity
  8
3
 62
     1
100
AcDbLine
 10
30.0
 20
-29.4107429999995
 30
0.0
 11
62.00000000000001
 21
-29.4107429999995
 31
0.0
  0
ARC
  5
14A4
330
19
100
AcDbEntity
  8
3
 62
     1
100
AcDbCircle
 10
107.0
 20
-17.58462799999999
 30
0.0
 40
39.9999999372498
100
AcDbArc
 50
125.6265721787274
 51
153.9206360962799
  0
LINE
  5
14A5
330
19
100
AcDbEntity
  8
3
 62
     1
100
AcDbLine
 10
83.56020838800821
 20
36.40217851895611
 30
0.0
 11
72.4602083880082
 21
34.4449490330921
 31
0.0
  0
ARC
  5
14A6
330
19
100
AcDbEntity
  8
3
 62
     1
100
AcDbCircle
 10
83.69912693014169
 20
35.61433231654629
 30
0.0
 40
0.8
100
AcDbArc
 50
0.0
 51
100.0000000000005
  0
CIRCLE
  5
14A7
330
19
100
AcDbEntity
  8
3
 62
     1
100
AcDbCircle
 10
78.14912693014171
 20
29.000099877648
 30
0.0
 40
6.349999999999997
  0
ARC
  5
14A8
330
19
100
AcDbEntity
  8
3
 62
     1
100
AcDbCircle
 10
83.69912693014169
 20
24.34309692461499
 30
0.0
 40
0.8
100
AcDbArc
 50
279.9999999999997
 51
0.0000000000004071
  0
LINE
  5
14A9
330
19
100
AcDbEntity
  8
3
 62
     1
100
AcDbLine
 10
83.8380454722753
 20
23.55525072220499
 30
0.0
 11
72.73804547227531
 21
21.59802123634099
 31
0.0
  0
ARC
  5
14AA
330
19
100
AcDbEntity
  8
3
 62
     1
100
AcDbCircle
 10
72.59912693014169
 20
22.385867438751
 30
0.0
 40
0.8
100
AcDbArc
 50
180.0000000000004
 51
280.0000000000001
  0
LINE
  5
14AB
330
19
100
AcDbEntity
  8
3
 62
     1
100
AcDbLine
 10
71.79912693014171
 20
33.6571028306823
 30
0.0
 11
71.79912693014171
 21
22.385867438751
 31
0.0
  0
ARC
  5
14AC
330
19
100
AcDbEntity
  8
3
 62
     1
100
AcDbCircle
 10
72.59912693014169
 20
33.6571028306823
 30
0.0
 40
0.8
100
AcDbArc
 50
100.0000000000001
 51
180.0000000000004
  0
LINE
  5
14AD
330
19
100
AcDbEntity
  8
3
 62
     1
100
AcDbLine
 10
84.49912693014182
 20
35.61433231654629
 30
0.0
 11
84.49912693014182
 21
24.34309692461499
 31
0.0
  0
LINE
  5
14AE
330
19
100
AcDbEntity
  8
3
 62
     1
100
AcDbLine
 10
83.69999999999981
 20
23.530909580878
 30
0.0
 11
83.69999999999981
 21
14.9286
 31
0.0
  0
LINE
  5
14AF
330
19
100
AcDbEntity
  8
3
 62
     1
100
AcDbLine
 10
58.17923099999981
 20
31.41074299999948
 30
0.0
 11
71.81495819522637
 21
33.81546758427759
 31
0.0
  0
LINE
  5
14B0
330
19
100
AcDbEntity
  8
3
 62
     1
100
AcDbLine
 10
30.5
 20
31.41074299999948
 30
0.0
 11
58.17923099999981
 21
31.41074299999948
 31
0.0
  0
LINE
  5
14B1
330
19
100
AcDbEntity
  8
3
 62
     1
100
AcDbLine
 10
30.5
 20
31.41074299999948
 30
0.0
 11
30.250608
 21
31.16481699999948
 31
0.0
  0
LINE
  5
14B2
330
19
100
AcDbEntity
  8
3
 62
     1
100
AcDbLine
 10
30.250608
 20
31.16481699999948
 30
0.0
 11
30.0
 21
30.9106539999995
 31
0.0
  0
LINE
  5
14B3
330
19
100
AcDbEntity
  8
3
 62
     1
100
AcDbLine
 10
83.56020838800821
 20
-36.40217851895611
 30
0.0
 11
72.4602083880082
 21
-34.4449490330921
 31
0.0
  0
ARC
  5
14B4
330
19
100
AcDbEntity
  8
3
 62
     1
100
AcDbCircle
 10
-83.69912693014169
 20
-35.61433231654628
 30
0.0
 40
0.8
210
0.0
220
0.0
230
-1.0
100
AcDbArc
 50
180.0
 51
280.0000000000006
  0
ARC
  5
14B5
330
19
100
AcDbEntity
  8
3
 62
     1
100
AcDbCircle
 10
-83.69912693014169
 20
-24.34309692461499
 30
0.0
 40
0.8
210
0.0
220
0.0
230
-1.0
100
AcDbArc
 50
90.06252903502383
 51
179.9999999999996
  0
ARC
  5
14B6
330
19
100
AcDbEntity
  8
3
 62
     1
100
AcDbCircle
 10
-72.59912693014169
 20
-33.6571028306823
 30
0.0
 40
0.8
210
0.0
220
0.0
230
-1.0
100
AcDbArc
 50
279.9999999999997
 51
348.5825465254482
  0
LINE
  5
14B7
330
19
100
AcDbEntity
  8
3
 62
     1
100
AcDbLine
 10
84.49912693014182
 20
-35.61433231654628
 30
0.0
 11
84.49912693014182
 21
-24.34309692461499
 31
0.0
  0
ARC
  5
14B8
330
19
100
AcDbEntity
  8
3
 62
     1
100
AcDbCircle
 10
-107.0
 20
17.58462799999999
 30
0.0
 40
39.9999999372498
210
0.0
220
0.0
230
-1.0
100
AcDbArc
 50
305.6265721787274
 51
0.0000000000004071
  0
LINE
  5
14B9
330
19
100
AcDbEntity
  8
3
 62
     1
100
AcDbLine
 10
30.5
 20
-31.41074299999948
 30
0.0
 11
30.250608
 21
-31.16481699999948
 31
0.0
  0
LINE
  5
14BA
330
19
100
AcDbEntity
  8
3
 62
     1
100
AcDbLine
 10
30.250608
 20
-31.16481699999948
 30
0.0
 11
30.0
 21
-30.9106539999995
 31
0.0
  0
LINE
  5
14BB
330
19
100
AcDbEntity
  8
3
 62
     1
100
AcDbLine
 10
62.00000000000001
 20
22.58
 30
0.0
 11
66.4999999999999
 21
22.58
 31
0.0
  0
LINE
  5
14BC
330
19
100
AcDbEntity
  8
3
 62
     1
100
AcDbLine
 10
30.0
 20
-27.0
 30
0.0
 11
30.0
 21
-30.9106539999995
 31
0.0
  0
LINE
  5
14BD
330
19
100
AcDbEntity
  8
1
100
AcDbLine
 10
47.7320508075689
 20
-3.0
 30
0.0
 11
49.46410161513771
 21
0.0
 31
0.0
  0
LINE
  5
14BE
330
19
100
AcDbEntity
  8
1
100
AcDbLine
 10
44.2679491924311
 20
-3.0
 30
0.0
 11
47.7320508075689
 21
-3.0
 31
0.0
  0
LINE
  5
14BF
330
19
100
AcDbEntity
  8
1
100
AcDbLine
 10
42.53589838486218
 20
0.0
 30
0.0
 11
44.2679491924311
 21
-3.0
 31
0.0
  0
LINE
  5
14C0
330
19
100
AcDbEntity
  8
1
100
AcDbLine
 10
44.2679491924311
 20
3.0
 30
0.0
 11
42.53589838486218
 21
0.0
 31
0.0
  0
LINE
  5
14C1
330
19
100
AcDbEntity
  8
1
100
AcDbLine
 10
47.7320508075689
 20
3.0
 30
0.0
 11
44.2679491924311
 21
3.0
 31
0.0
  0
LINE
  5
14C2
330
19
100
AcDbEntity
  8
1
100
AcDbLine
 10
49.46410161513771
 20
0.0
 30
0.0
 11
47.7320508075689
 21
3.0
 31
0.0
  0
CIRCLE
  5
14C3
330
19
100
AcDbEntity
  8
1
100
AcDbCircle
 10
46.0
 20
0.0
 30
0.0
 40
10.0
  0
CIRCLE
  5
14C4
330
19
100
AcDbEntity
  8
1
100
AcDbCircle
 10
46.0
 20
0.0
 30
0.0
 40
12.0
  0
LINE
  5
14C6
330
19
100
AcDbEntity
  8
1
100
AcDbLine
 10
30.0
 20
-27.0
 30
0.0
 11
30.0
 21
-22.58
 31
0.0
  0
LINE
  5
14C7
330
19
100
AcDbEntity
  8
1
100
AcDbLine
 10
62.00000000000001
 20
-22.58
 30
0.0
 11
62.00000000000001
 21
22.58
 31
0.0
  0
LINE
  5
14C8
330
19
100
AcDbEntity
  8
1
100
AcDbLine
 10
30.0
 20
-22.58
 30
0.0
 11
62.00000000000001
 21
-22.58
 31
0.0
  0
LINE
  5
14C9
330
19
100
AcDbEntity
  8
1
100
AcDbLine
 10
30.0
 20
22.58
 30
0.0
 11
62.00000000000001
 21
22.58
 31
0.0
  0
LINE
  5
14CA
330
19
100
AcDbEntity
  8
1
100
AcDbLine
 10
30.0
 20
22.58
 30
0.0
 11
30.0
 21
27.0
 31
0.0
  0
LINE
  5
14CB
330
19
100
AcDbEntity
  8
4
100
AcDbLine
 10
0.0
 20
0.0
 30
0.0
 11
95.80724879636951
 21
0.0
 31
0.0
  0
LINE
  5
14CC
330
19
100
AcDbEntity
  8
3
 62
     1
100
AcDbLine
 10
66.99999999999993
 20
22.07991099999999
 30
0.0
 11
66.99999999999993
 21
17.58462799999999
 31
0.0
  0
LINE
  5
14CD
330
19
100
AcDbEntity
  8
3
 62
     1
100
AcDbLine
 10
30.5
 20
-31.41074299999948
 30
0.0
 11
58.17923099999981
 21
-31.41074299999948
 31
0.0
  0
LINE
  5
14CE
330
19
100
AcDbEntity
  8
3
 62
     1
100
AcDbLine
 10
58.17923099999981
 20
-31.41074299999948
 30
0.0
 11
83.69999999999981
 21
-35.91145057102411
 31
0.0
  0
LINE
  5
14CF
330
19
100
AcDbEntity
  8
3
 62
     1
100
AcDbLine
 10
66.7493919999999
 20
22.334074
 30
0.0
 11
66.4999999999999
 21
22.58
 31
0.0
  0
LINE
  5
14D0
330
19
100
AcDbEntity
  8
3
 62
     1
100
AcDbLine
 10
66.99999999999993
 20
22.07991099999999
 30
0.0
 11
66.7493919999999
 21
22.334074
 31
0.0
  0
LINE
  5
14D1
330
19
100
AcDbEntity
  8
3
 62
     1
100
AcDbLine
 10
83.69999999999981
 20
-35.91145057102411
 30
0.0
 11
83.69999999999981
 21
-14.9286
 31
0.0
  0
LINE
  5
14D2
330
19
100
AcDbEntity
  8
1
100
AcDbLine
 10
22.2309182980797
 20
24.97309272148029
 30
0.0
 11
24.591526092062
 21
23.87232322924597
 31
0.0
  0
LINE
  5
14D3
330
19
100
AcDbEntity
  8
1
100
AcDbLine
 10
17.7690817019203
 20
24.97309272148029
 30
0.0
 11
15.40847390793791
 21
23.87232322924597
 31
0.0
  0
LINE
  5
14D5
330
19
100
AcDbEntity
  8
1
100
AcDbLine
 10
20.0
 20
24.97309272148029
 30
0.0
 11
22.2309182980797
 21
24.97309272148029
 31
0.0
  0
LINE
  5
14D6
330
19
100
AcDbEntity
  8
1
100
AcDbLine
 10
20.0
 20
24.97309272148029
 30
0.0
 11
17.7690817019203
 21
24.97309272148029
 31
0.0
  0
LINE
  5
14D7
330
19
100
AcDbEntity
  8
4
100
AcDbLine
 10
20.35898019370231
 20
0.0
 30
0.0
 11
52.90278409144512
 21
-18.78917264720898
 31
0.0
  0
LINE
  5
14DA
330
19
100
AcDbEntity
  8
4
100
AcDbLine
 10
20.3589819257532
 20
-0.0000000000000142
 30
0.0
 11
53.14715859325772
 21
18.93026132189979
 31
0.0
  0
LINE
  5
14DB
330
19
100
AcDbEntity
  8
SK3
100
AcDbLine
 10
-29.99999999999999
 20
-1.599999999999994
 30
0.0
 11
-6.300000000000008
 21
-1.599999999999994
 31
0.0
  0
DIMENSION
  5
14DC
330
19
100
AcDbEntity
  8
SK2
100
AcDbDimension
  2
*D2
 10
-66.73405547446828
 20
-26.99999999999998
 30
0.0
 11
-69.48405547446828
 21
0.000000000000008
 31
0.0
 70
    32
  1
%%c54
 71
     5
 42
54.0
  3
V-TYGEN_-160
100
AcDbAlignedDimension
 13
1.0
 23
27.0
 33
0.0
 14
0.9999999999999783
 24
-27.0
 34
0.0
 50
270.0
100
AcDbRotatedDimension
1001
ACAD
1000
DSTYLE
1002
{
1070
   340
1005
1F
1002
}
  0
DIMENSION
  5
14DD
330
19
100
AcDbEntity
  8
SK2
100
AcDbDimension
  2
*D3
 10
-48.49623774924202
 20
-13.99999999999999
 30
0.0
 11
-51.24623774924202
 21
0.0000000000000477
 31
0.0
 70
    32
  1
%%c28
 71
     5
 42
28.0000000000001
  3
V-TYGEN_-160
100
AcDbAlignedDimension
 13
-28.99999999999999
 23
14.0000000000001
 33
0.0
 14
-28.99999999999999
 24
-14.0
 34
0.0
 50
270.0
100
AcDbRotatedDimension
1001
ACAD
1000
DSTYLE
1002
{
1070
   340
1005
1F
1002
}
  0
LINE
  5
14DF
330
19
100
AcDbEntity
  8
SK3
100
AcDbLine
 10
-29.99999999999999
 20
1.599999999999994
 30
0.0
 11
-6.300000000000008
 21
1.599999999999994
 31
0.0
  0
LINE
  5
14E0
330
19
100
AcDbEntity
  8
1
100
AcDbLine
 10
1.0
 20
27.0
 30
0.0
 11
14.13866465336381
 21
27.0
 31
0.0
  0
LINE
  5
14E1
330
19
100
AcDbEntity
  8
SK1
100
AcDbLine
 10
-28.99999999999999
 20
14.0000000000001
 30
0.0
 11
-28.99999999999999
 21
-14.0
 31
0.0
  0
LINE
  5
14E2
330
19
100
AcDbEntity
  8
1
100
AcDbLine
 10
0.9999999999999856
 20
-6.0
 30
0.0
 11
0.9999999999999783
 21
-27.0
 31
0.0
  0
LINE
  5
14E3
330
19
100
AcDbEntity
  8
1
100
AcDbLine
 10
1.0
 20
27.0
 30
0.0
 11
0.9999999999999927
 21
5.999999999999985
 31
0.0
  0
LINE
  5
14E4
330
19
100
AcDbEntity
  8
SK1
100
AcDbLine
 10
-29.99999999999999
 20
-13.0
 30
0.0
 11
-28.99999999999999
 21
-14.0
 31
0.0
  0
LINE
  5
14E5
330
19
100
AcDbEntity
  8
SK1
100
AcDbLine
 10
-29.99999999999999
 20
13.0000000000001
 30
0.0
 11
-28.99999999999999
 21
14.0000000000001
 31
0.0
  0
LINE
  5
14E6
330
19
100
AcDbEntity
  8
1
100
AcDbLine
 10
-0.0000000000000213
 20
-26.0
 30
0.0
 11
0.9999999999999783
 21
-27.0
 31
0.0
  0
LINE
  5
14E7
330
19
100
AcDbEntity
  8
1
100
AcDbLine
 10
0.0
 20
26.0
 30
0.0
 11
1.0
 21
27.0
 31
0.0
  0
LINE
  5
14E8
330
19
100
AcDbEntity
  8
1
100
AcDbLine
 10
12.308791
 20
25.62954399999999
 30
0.0
 11
11.9802340000001
 21
26.090585
 31
0.0
  0
LINE
  5
14E9
330
19
100
AcDbEntity
  8
1
100
AcDbLine
 10
12.7500000000001
 20
25.34513
 30
0.0
 11
12.79540500000011
 21
25.21028799999999
 31
0.0
  0
LINE
  5
14EA
330
19
100
AcDbEntity
  8
1
100
AcDbLine
 10
12.7954049710181
 20
25.21028808606979
 30
0.0
 11
12.879652
 21
25.17134899999999
 31
0.0
  0
LINE
  5
14EB
330
19
100
AcDbEntity
  8
1
100
AcDbLine
 10
12.7954049710181
 20
25.21028808606979
 30
0.0
 11
12.308791
 21
25.62954399999999
 31
0.0
  0
LINE
  5
14EC
330
19
100
AcDbEntity
  8
1
100
AcDbLine
 10
-6.300000000000013
 20
-6.0
 30
0.0
 11
-6.300000000000002
 21
5.999999999999985
 31
0.0
  0
LINE
  5
14ED
330
19
100
AcDbEntity
  8
1
100
AcDbLine
 10
-6.300000000000002
 20
5.999999999999985
 30
0.0
 11
12.0
 21
5.999999999999985
 31
0.0
  0
LINE
  5
14EE
330
19
100
AcDbEntity
  8
1
100
AcDbLine
 10
-6.300000000000013
 20
-6.0
 30
0.0
 11
12.0
 21
-6.0
 31
0.0
  0
ARC
  5
14EF
330
19
100
AcDbEntity
  8
1
100
AcDbCircle
 10
12.0
 20
0.0
 30
0.0
 40
6.0
100
AcDbArc
 50
270.0
 51
90.0
  0
LINE
  5
14F0
330
19
100
AcDbEntity
  8
1
100
AcDbLine
 10
-0.0000000000000213
 20
-26.0
 30
0.0
 11
-0.0000000000000071
 21
-6.000000000000013
 31
0.0
  0
LINE
  5
14F1
330
19
100
AcDbEntity
  8
1
100
AcDbLine
 10
15.515575
 20
25.659497
 30
0.0
 11
14.752602
 21
26.999938
 31
0.0
  0
LINE
  5
14F2
330
19
100
AcDbEntity
  8
1
100
AcDbLine
 10
30.0
 20
-27.0
 30
0.0
 11
0.9999999999999783
 21
-27.0
 31
0.0
  0
LINE
  5
14F3
330
19
100
AcDbEntity
  8
1
100
AcDbLine
 10
30.0
 20
27.0
 30
0.0
 11
25.8248779593078
 21
27.0
 31
0.0
  0
LINE
  5
14F4
330
19
100
AcDbEntity
  8
1
100
AcDbLine
 10
27.25
 20
25.38446999999999
 30
0.0
 11
27.197105
 21
25.237649
 31
0.0
  0
LINE
  5
14F5
330
19
100
AcDbEntity
  8
1
100
AcDbLine
 10
27.9817419999999
 20
26.093281
 30
0.0
 11
27.653745
 21
25.632078
 31
0.0
  0
ARC
  5
14F6
330
19
100
AcDbEntity
  8
SK1
100
AcDbCircle
 10
12.30279479999999
 20
-14.39999999999999
 30
0.0
 40
6.0
210
0.0
220
0.0
230
-1.0
100
AcDbArc
 50
3.822553729274528
 51
176.1774462707258
  0
LINE
  5
14F7
330
19
100
AcDbEntity
  8
SK1
100
AcDbLine
 10
-29.99999999999999
 20
-13.0
 30
0.0
 11
-29.99999999999999
 21
13.0000000000001
 31
0.0
  0
LINE
  5
14F8
330
19
100
AcDbEntity
  8
1
100
AcDbLine
 10
27.653745
 20
25.632078
 30
0.0
 11
27.12034800000001
 21
25.17134899999999
 31
0.0
  0
LINE
  5
14F9
330
19
100
AcDbEntity
  8
1
100
AcDbLine
 10
24.466223
 20
25.68098499999999
 30
0.0
 11
25.20957200000001
 21
26.999937
 31
0.0
  0
LINE
  5
14FA
330
19
100
AcDbEntity
  8
1
100
AcDbLine
 10
19.811594
 20
23.08058099999999
 30
0.0
 11
20.0
 21
23.0790600744568
 31
0.0
  0
LINE
  5
14FB
330
19
100
AcDbEntity
  8
1
100
AcDbLine
 10
20.188406
 20
23.08058099999999
 30
0.0
 11
20.0
 21
23.0790600744568
 31
0.0
  0
LINE
  5
14FD
330
19
100
AcDbEntity
  8
SK3
100
AcDbLine
 10
19.8302839801535
 20
1.599999999999994
 30
0.0
 11
51.915833
 21
20.124611
 31
0.0
  0
LINE
  5
14FE
330
19
100
AcDbEntity
  8
SK3
100
AcDbLine
 10
23.6589820961533
 20
-0.0000000000000142
 30
0.0
 11
58.51479399999998
 21
20.12401099999999
 31
0.0
  0
LINE
  5
14FF
330
19
100
AcDbEntity
  8
SK1
100
AcDbLine
 10
-0.0000000000000142
 20
-14.0
 30
0.0
 11
-28.99999999999999
 21
-14.0
 31
0.0
  0
LINE
  5
1500
330
19
100
AcDbEntity
  8
1
100
AcDbLine
 10
-0.0000000000000071
 20
5.999999999999985
 30
0.0
 11
0.0
 21
26.0
 31
0.0
  0
LINE
  5
1501
330
19
100
AcDbEntity
  8
SK3
100
AcDbLine
 10
23.65898036410239
 20
0.0000000000000284
 30
0.0
 11
58.51479400000002
 21
-20.124012
 31
0.0
  0
LINE
  5
1502
330
19
100
AcDbEntity
  8
SK3
100
AcDbLine
 10
19.8302822481036
 20
-1.599999999999994
 30
0.0
 11
51.915833
 21
-20.124612
 31
0.0
  0
ARC
  5
1503
330
19
100
AcDbEntity
  8
SK1
100
AcDbCircle
 10
-12.30279479999999
 20
14.4
 30
0.0
 40
6.0
100
AcDbArc
 50
183.8225537292745
 51
356.1774462707254
  0
LINE
  5
1504
330
19
100
AcDbEntity
  8
SK1
100
AcDbLine
 10
0.0
 20
14.0
 30
0.0
 11
-28.99999999999999
 21
14.0000000000001
 31
0.0
  0
LINE
  5
1505
330
19
100
AcDbEntity
  8
3
 62
     1
100
AcDbLine
 10
30.0
 20
27.0
 30
0.0
 11
30.0
 21
30.9106539999995
 31
0.0
  0
LINE
  5
15EB
330
19
100
AcDbEntity
  8
SK3
100
AcDbLine
 10
-5.532279509890486
 20
1.599999999999994
 30
0.0
 11
19.8302839801535
 21
1.599999999999994
 31
0.0
  0
LINE
  5
15EC
330
19
100
AcDbEntity
  8
SK3
100
AcDbLine
 10
-5.73807655553878
 20
-1.599999999999994
 30
0.0
 11
19.8302822481037
 21
-1.599999999999994
 31
0.0
  0
LINE
  5
15F6
330
19
100
AcDbEntity
  8
SK4
100
AcDbLine
 10
95.80724879636951
 20
0.0
 30
0.0
 11
-34.54964420771807
 21
0.0
 31
0.0
  0
ENDSEC
  0
SECTION
  2
OBJECTS
  0
DICTIONARY
  5
C
330
0
100
AcDbDictionary
281
     1
  3
ACAD_COLOR
350
1641
  3
ACAD_GROUP
350
D
  3
ACAD_LAYOUT
350
1644
  3
ACAD_MATERIAL
350
162C
  3
ACAD_MLINESTYLE
350
E
  3
ACAD_PLOTSETTINGS
350
A86
  3
ACAD_PLOTSTYLENAME
350
162A
  3
ACAD_TABLESTYLE
350
1642
  3
ACAD_VISUALSTYLE
350
1630
  3
AcDbVariableDictionary
350
1648
  3
DWGPROPS
350
16AF
1001
ACAD
1000
TREAT_AS_HARD
1070
     0
1000
TREAT_AS_HARD
1070
     0
  0
DICTIONARY
  5
E8D
330
19
100
AcDbDictionary
281
     1
  3
ACAD_LAYOUTSELFREF
350
1623
1001
ACAD
1000
TREAT_AS_HARD
1070
     1
  0
DICTIONARY
  5
E8B
330
16
100
AcDbDictionary
281
     1
  3
ACAD_LAYOUTSELFREF
350
1622
1001
ACAD
1000
TREAT_AS_HARD
1070
     1
  0
DICTIONARY
  5
1641
102
{ACAD_REACTORS
330
C
102
}
330
C
100
AcDbDictionary
281
     1
  0
DICTIONARY
  5
D
102
{ACAD_REACTORS
330
C
102
}
330
C
100
AcDbDictionary
281
     1
1001
ACAD
1000
TREAT_AS_HARD
1070
     0
1000
TREAT_AS_HARD
1070
     0
  0
DICTIONARY
  5
1644
102
{ACAD_REACTORS
330
C
102
}
330
C
100
AcDbDictionary
281
     1
  3
Layout1
350
1646
  3
Model
350
1645
  0
DICTIONARY
  5
162C
102
{ACAD_REACTORS
330
C
102
}
330
C
100
AcDbDictionary
281
     1
  3
ByBlock
350
162E
  3
ByLayer
350
162D
  3
Global
350
162F
  0
DICTIONARY
  5
E
102
{ACAD_REACTORS
330
C
102
}
330
C
100
AcDbDictionary
281
     1
  3
STANDARD
350
1C
1001
ACAD
1000
TREAT_AS_HARD
1070
     0
1000
TREAT_AS_HARD
1070
     0
  0
DICTIONARY
  5
A86
102
{ACAD_REACTORS
330
C
102
}
330
C
100
AcDbDictionary
281
     1
1001
ACAD
1000
TREAT_AS_HARD
1070
     0
1000
TREAT_AS_HARD
1070
     0
  0
ACDBDICTIONARYWDFLT
  5
162A
102
{ACAD_REACTORS
330
C
102
}
330
C
100
AcDbDictionary
281
     1
  3
Normal
350
162B
100
AcDbDictionaryWithDefault
340
162B
  0
DICTIONARY
  5
1642
102
{ACAD_REACTORS
330
C
102
}
330
C
100
AcDbDictionary
281
     1
  3
Standard
350
1643
  0
DICTIONARY
  5
1630
102
{ACAD_REACTORS
330
C
102
}
330
C
100
AcDbDictionary
281
     1
  3
2dWireframe
350
1636
  3
3D Hidden
350
1638
  3
3dWireframe
350
1637
  3
Basic
350
1635
  3
Brighten
350
163C
  3
ColorChange
350
1640
  3
Conceptual
350
1639
  3
Dim
350
163B
  3
Facepattern
350
163F
  3
Flat
350
1631
  3
FlatWithEdges
350
1632
  3
Gouraud
350
1633
  3
GouraudWithEdges
350
1634
  3
Linepattern
350
163E
  3
Realistic
350
163A
  3
Thicken
350
163D
  0
DICTIONARY
  5
1648
102
{ACAD_REACTORS
330
C
102
}
330
C
100
AcDbDictionary
281
     1
  3
CTABLESTYLE
350
1649
  3
DIMASSOC
350
164C
  3
INDEXCTL
350
164B
  3
SORTENTS
350
164A
  0
XRECORD
  5
16AF
102
{ACAD_REACTORS
330
C
102
}
330
C
100
AcDbXrecord
280
     1
  1
DWGPROPS COOKIE
  2

  3

  4

  6

  7

  8
deerkdanf
  9

300
=
301
=
302
=
303
=
304
=
305
=
306
=
307
=
308
=
309
=
 40
0.0226447106481482
 41
2454564.382969386
 42
2454620.443203924
  1

 90
        0
  0
XRECORD
  5
1623
102
{ACAD_REACTORS
330
E8D
102
}
330
E8D
100
AcDbXrecord
280
     1
340
19
  0
XRECORD
  5
1622
102
{ACAD_REACTORS
330
E8B
102
}
330
E8B
100
AcDbXrecord
280
     1
340
16
  0
LAYOUT
  5
1646
102
{ACAD_XDICTIONARY
360
16B4
102
}
102
{ACAD_REACTORS
330
1644
102
}
330
1644
100
AcDbPlotSettings
  1

  2
hp LaserJet 1300 PCL 6
  4

  6

 40
0.0
 41
0.0
 42
0.0
 43
0.0
 44
0.0
 45
0.0
 46
0.0
 47
0.0
 48
0.0
 49
0.0
140
0.0
141
0.0
142
1.0
143
1.0
 70
   688
 72
     0
 73
     0
 74
     5
  7

 75
    16
147
1.0
148
0.0
149
0.0
100
AcDbLayout
  1
Layout1
 70
     0
 71
     1
 10
0.0
 20
0.0
 11
12.0
 21
9.0
 12
0.0
 22
0.0
 32
0.0
 14
1.000000000000000E+20
 24
1.000000000000000E+20
 34
1.000000000000000E+20
 15
-1.000000000000000E+20
 25
-1.000000000000000E+20
 35
-1.000000000000000E+20
146
0.0
 13
0.0
 23
0.0
 33
0.0
 16
1.0
 26
0.0
 36
0.0
 17
0.0
 27
1.0
 37
0.0
 76
     0
330
16
  0
LAYOUT
  5
1645
102
{ACAD_XDICTIONARY
360
16B2
102
}
102
{ACAD_REACTORS
330
1644
102
}
330
1644
100
AcDbPlotSettings
  1

  2
hp LaserJet 1300 PCL 6
  4

  6

 40
0.0
 41
0.0
 42
0.0
 43
0.0
 44
0.0
 45
0.0
 46
0.0
 47
0.0
 48
0.0
 49
0.0
140
0.0
141
0.0
142
1.0
143
1.0
 70
  1712
 72
     0
 73
     0
 74
     0
  7

 75
     0
147
1.0
148
0.0
149
0.0
100
AcDbLayout
  1
Model
 70
     1
 71
     0
 10
0.0
 20
0.0
 11
12.0
 21
9.0
 12
0.0
 22
0.0
 32
0.0
 14
0.0
 24
0.0
 34
0.0
 15
0.0
 25
0.0
 35
0.0
146
0.0
 13
0.0
 23
0.0
 33
0.0
 16
1.0
 26
0.0
 36
0.0
 17
0.0
 27
1.0
 37
0.0
 76
     0
330
19
331
1621
  0
MATERIAL
  5
162E
102
{ACAD_XDICTIONARY
360
1650
102
}
102
{ACAD_REACTORS
330
162C
102
}
330
162C
100
AcDbMaterial
  1
ByBlock
  0
MATERIAL
  5
162D
102
{ACAD_XDICTIONARY
360
164E
102
}
102
{ACAD_REACTORS
330
162C
102
}
330
162C
100
AcDbMaterial
  1
ByLayer
  0
MATERIAL
  5
162F
102
{ACAD_XDICTIONARY
360
1652
102
}
102
{ACAD_REACTORS
330
162C
102
}
330
162C
100
AcDbMaterial
  1
Global
  0
MLINESTYLE
  5
1C
102
{ACAD_REACTORS
330
E
102
}
330
E
100
AcDbMlineStyle
  2
STANDARD
 70
     0
  3

 62
     0
 51
90.0
 52
90.0
 71
     2
 49
0.5
 62
   256
  6
BYLAYER
 49
-0.5
 62
   256
  6
BYLAYER
  0
ACDBPLACEHOLDER
  5
162B
102
{ACAD_REACTORS
330
162A
102
}
330
162A
  0
TABLESTYLE
  5
1643
102
{ACAD_XDICTIONARY
360
16B0
102
}
102
{ACAD_REACTORS
330
1642
102
}
330
1642
100
AcDbTableStyle
  3
Standard
 70
     0
 71
     0
 40
0.06
 41
0.06
280
     0
281
     0
  7
STANDARD
140
0.18
170
     2
 62
     0
 63
     7
283
     0
274
    -2
284
     1
 64
     0
275
    -2
285
     1
 65
     0
276
    -2
286
     1
 66
     0
277
    -2
287
     1
 67
     0
278
    -2
288
     1
 68
     0
279
    -2
289
     1
 69
     0
  7
STANDARD
140
0.25
170
     5
 62
     0
 63
     7
283
     0
274
    -2
284
     1
 64
     0
275
    -2
285
     1
 65
     0
276
    -2
286
     1
 66
     0
277
    -2
287
     1
 67
     0
278
    -2
288
     1
 68
     0
279
    -2
289
     1
 69
     0
  7
STANDARD
140
0.18
170
     5
 62
     0
 63
     7
283
     0
274
    -2
284
     1
 64
     0
275
    -2
285
     1
 65
     0
276
    -2
286
     1
 66
     0
277
    -2
287
     1
 67
     0
278
    -2
288
     1
 68
     0
279
    -2
289
     1
 69
     0
  0
VISUALSTYLE
  5
1636
102
{ACAD_REACTORS
330
1630
102
}
330
1630
100
AcDbVisualStyle
  2
2dWireframe
 70
     4
 71
     0
 72
     2
 73
     0
 90
        0
 40
-0.6
 41
-30.0
 62
     5
 63
     7
 74
     1
 91
        4
 64
     7
 65
   257
 75
     1
175
     1
 42
1.0
 92
        0
 66
   257
 43
1.0
 76
     1
 77
     6
 78
     2
 67
     7
 79
     5
170
     0
171
     0
290
     0
174
     0
 93
        1
 44
0.0
173
     0
291
     0
 45
0.0
1001
ACAD
1000
AcDbSavedByObjectVersion
1070
     0
1000
AcDbSavedByObjectVersion
1070
     0
  0
VISUALSTYLE
  5
1638
102
{ACAD_REACTORS
330
1630
102
}
330
1630
100
AcDbVisualStyle
  2
3D Hidden
 70
     6
 71
     1
 72
     2
 73
     2
 90
        0
 40
-0.6
 41
-30.0
 62
     5
 63
     7
 74
     2
 91
        2
 64
     7
 65
   257
 75
     2
175
     1
 42
40.0
 92
        0
 66
   257
 43
1.0
 76
     1
 77
     6
 78
     2
 67
     7
 79
     3
170
     0
171
     0
290
     0
174
     0
 93
        1
 44
0.0
173
     0
291
     0
 45
0.0
1001
ACAD
1000
AcDbSavedByObjectVersion
1070
     0
1000
AcDbSavedByObjectVersion
1070
     0
  0
VISUALSTYLE
  5
1637
102
{ACAD_REACTORS
330
1630
102
}
330
1630
100
AcDbVisualStyle
  2
3dWireframe
 70
     5
 71
     0
 72
     2
 73
     0
 90
        0
 40
-0.6
 41
-30.0
 62
     5
 63
     7
 74
     1
 91
        4
 64
     7
 65
   257
 75
     1
175
     1
 42
1.0
 92
        0
 66
   257
 43
1.0
 76
     1
 77
     6
 78
     2
 67
     7
 79
     5
170
     0
171
     0
290
     0
174
     0
 93
        1
 44
0.0
173
     0
291
     0
 45
0.0
1001
ACAD
1000
AcDbSavedByObjectVersion
1070
     0
1000
AcDbSavedByObjectVersion
1070
     0
  0
VISUALSTYLE
  5
1635
102
{ACAD_REACTORS
330
1630
102
}
330
1630
100
AcDbVisualStyle
  2
Basic
 70
     7
 71
     1
 72
     0
 73
     1
 90
        0
 40
-0.6
 41
-30.0
 62
     5
 63
     7
 74
     0
 91
        4
 64
     7
 65
   257
 75
     1
175
     1
 42
1.0
 92
        8
 66
     7
 43
1.0
 76
     1
 77
     6
 78
     2
 67
     7
 79
     5
170
     0
171
     0
290
     0
174
     0
 93
        1
 44
0.0
173
     0
291
     1
 45
0.0
1001
ACAD
1000
AcDbSavedByObjectVersion
1070
     0
1000
AcDbSavedByObjectVersion
1070
     0
  0
VISUALSTYLE
  5
163C
102
{ACAD_REACTORS
330
1630
102
}
330
1630
100
AcDbVisualStyle
  2
Brighten
 70
    12
 71
     2
 72
     2
 73
     0
 90
        0
 40
-0.6
 41
-30.0
 62
     5
 63
     7
 74
     1
 91
        4
 64
     7
 65
   257
 75
     1
175
     1
 42
1.0
 92
        8
 66
     7
 43
1.0
 76
     1
 77
     6
 78
     2
 67
     7
 79
     5
170
     0
171
     0
290
     0
174
     0
 93
        1
 44
50.0
173
     0
291
     1
 45
0.0
1001
ACAD
1000
AcDbSavedByObjectVersion
1070
     0
1000
AcDbSavedByObjectVersion
1070
     0
  0
VISUALSTYLE
  5
1640
102
{ACAD_REACTORS
330
1630
102
}
330
1630
100
AcDbVisualStyle
  2
ColorChange
 70
    16
 71
     2
 72
     2
 73
     3
 90
        0
 40
-0.6
 41
-30.0
 62
     5
 63
     8
 74
     1
 91
        4
 64
     7
 65
   257
 75
     1
175
     1
 42
1.0
 92
        8
 66
     8
 43
1.0
 76
     1
 77
     6
 78
     2
 67
     7
 79
     5
170
     0
171
     0
290
     0
174
     0
 93
        1
 44
0.0
173
     0
291
     1
 45
0.0
1001
ACAD
1000
AcDbSavedByObjectVersion
1070
     0
1000
AcDbSavedByObjectVersion
1070
     0
  0
VISUALSTYLE
  5
1639
102
{ACAD_REACTORS
330
1630
102
}
330
1630
100
AcDbVisualStyle
  2
Conceptual
 70
     9
 71
     3
 72
     2
 73
     0
 90
        0
 40
-0.6
 41
-30.0
 62
     5
 63
     7
 74
     2
 91
        2
 64
     7
 65
   257
 75
     1
175
     1
 42
40.0
 92
        8
 66
     7
 43
1.0
 76
     1
 77
     6
 78
     2
 67
     7
 79
     3
170
     0
171
     0
290
     0
174
     0
 93
        1
 44
0.0
173
     0
291
     0
 45
0.0
1001
ACAD
1000
AcDbSavedByObjectVersion
1070
     0
1000
AcDbSavedByObjectVersion
1070
     0
  0
VISUALSTYLE
  5
163B
102
{ACAD_REACTORS
330
1630
102
}
330
1630
100
AcDbVisualStyle
  2
Dim
 70
    11
 71
     2
 72
     2
 73
     0
 90
        0
 40
-0.6
 41
-30.0
 62
     5
 63
     7
 74
     1
 91
        4
 64
     7
 65
   257
 75
     1
175
     1
 42
1.0
 92
        8
 66
     7
 43
1.0
 76
     1
 77
     6
 78
     2
 67
     7
 79
     5
170
     0
171
     0
290
     0
174
     0
 93
        1
 44
-50.0
173
     0
291
     1
 45
0.0
1001
ACAD
1000
AcDbSavedByObjectVersion
1070
     0
1000
AcDbSavedByObjectVersion
1070
     0
  0
VISUALSTYLE
  5
163F
102
{ACAD_REACTORS
330
1630
102
}
330
1630
100
AcDbVisualStyle
  2
Facepattern
 70
    15
 71
     2
 72
     2
 73
     0
 90
        0
 40
-0.6
 41
-30.0
 62
     5
 63
     7
 74
     1
 91
        4
 64
     7
 65
   257
 75
     1
175
     1
 42
1.0
 92
        8
 66
     7
 43
1.0
 76
     1
 77
     6
 78
     2
 67
     7
 79
     5
170
     0
171
     0
290
     0
174
     0
 93
        1
 44
0.0
173
     0
291
     1
 45
0.0
1001
ACAD
1000
AcDbSavedByObjectVersion
1070
     0
1000
AcDbSavedByObjectVersion
1070
     0
  0
VISUALSTYLE
  5
1631
102
{ACAD_REACTORS
330
1630
102
}
330
1630
100
AcDbVisualStyle
  2
Flat
 70
     0
 71
     2
 72
     1
 73
     1
 90
        2
 40
-0.6
 41
30.0
 62
     5
 63
     7
 74
     0
 91
        4
 64
     7
 65
   257
 75
     1
175
     1
 42
1.0
 92
        8
 66
     7
 43
1.0
 76
     1
 77
     6
 78
     2
 67
     7
 79
     5
170
     0
171
     0
290
     0
174
     0
 93
       13
 44
0.0
173
     0
291
     1
 45
0.0
1001
ACAD
1000
AcDbSavedByObjectVersion
1070
     0
1000
AcDbSavedByObjectVersion
1070
     0
  0
VISUALSTYLE
  5
1632
102
{ACAD_REACTORS
330
1630
102
}
330
1630
100
AcDbVisualStyle
  2
FlatWithEdges
 70
     1
 71
     2
 72
     1
 73
     1
 90
        2
 40
-0.6
 41
30.0
 62
     5
 63
     7
 74
     1
 91
        4
 64
     7
 65
   257
 75
     1
175
     1
 42
1.0
 92
        0
 66
   257
 43
1.0
 76
     1
 77
     6
 78
     2
 67
     7
 79
     5
170
     0
171
     0
290
     0
174
     0
 93
       13
 44
0.0
173
     0
291
     1
 45
0.0
1001
ACAD
1000
AcDbSavedByObjectVersion
1070
     0
1000
AcDbSavedByObjectVersion
1070
     0
  0
VISUALSTYLE
  5
1633
102
{ACAD_REACTORS
330
1630
102
}
330
1630
100
AcDbVisualStyle
  2
Gouraud
 70
     2
 71
     2
 72
     2
 73
     1
 90
        2
 40
-0.6
 41
30.0
 62
     5
 63
     7
 74
     0
 91
        4
 64
     7
 65
   257
 75
     1
175
     1
 42
1.0
 92
        0
 66
     7
 43
1.0
 76
     1
 77
     6
 78
     2
 67
     7
 79
     5
170
     0
171
     0
290
     0
174
     0
 93
       13
 44
0.0
173
     0
291
     1
 45
0.0
1001
ACAD
1000
AcDbSavedByObjectVersion
1070
     0
1000
AcDbSavedByObjectVersion
1070
     0
  0
VISUALSTYLE
  5
1634
102
{ACAD_REACTORS
330
1630
102
}
330
1630
100
AcDbVisualStyle
  2
GouraudWithEdges
 70
     3
 71
     2
 72
     2
 73
     1
 90
        2
 40
-0.6
 41
30.0
 62
     5
 63
     7
 74
     1
 91
        4
 64
     7
 65
   257
 75
     1
175
     1
 42
1.0
 92
        0
 66
   257
 43
1.0
 76
     1
 77
     6
 78
     2
 67
     7
 79
     5
170
     0
171
     0
290
     0
174
     0
 93
       13
 44
0.0
173
     0
291
     1
 45
0.0
1001
ACAD
1000
AcDbSavedByObjectVersion
1070
     0
1000
AcDbSavedByObjectVersion
1070
     0
  0
VISUALSTYLE
  5
163E
102
{ACAD_REACTORS
330
1630
102
}
330
1630
100
AcDbVisualStyle
  2
Linepattern
 70
    14
 71
     2
 72
     2
 73
     0
 90
        0
 40
-0.6
 41
-30.0
 62
     5
 63
     7
 74
     1
 91
        4
 64
     7
 65
   257
 75
     7
175
     7
 42
1.0
 92
        8
 66
     7
 43
1.0
 76
     1
 77
     6
 78
     2
 67
     7
 79
     5
170
     0
171
     0
290
     0
174
     0
 93
        1
 44
0.0
173
     0
291
     1
 45
0.0
1001
ACAD
1000
AcDbSavedByObjectVersion
1070
     0
1000
AcDbSavedByObjectVersion
1070
     0
  0
VISUALSTYLE
  5
163A
102
{ACAD_REACTORS
330
1630
102
}
330
1630
100
AcDbVisualStyle
  2
Realistic
 70
     8
 71
     2
 72
     2
 73
     0
 90
        0
 40
-0.6
 41
-30.0
 62
     5
 63
     7
 74
     1
 91
        0
 64
     7
 65
   257
 75
     1
175
     1
 42
1.0
 92
        8
 66
     8
 43
1.0
 76
     1
 77
     6
 78
     2
 67
     7
 79
     5
170
     0
171
     0
290
     0
174
     0
 93
       13
 44
0.0
173
     0
291
     0
 45
0.0
1001
ACAD
1000
AcDbSavedByObjectVersion
1070
     0
1000
AcDbSavedByObjectVersion
1070
     0
  0
VISUALSTYLE
  5
163D
102
{ACAD_REACTORS
330
1630
102
}
330
1630
100
AcDbVisualStyle
  2
Thicken
 70
    13
 71
     2
 72
     2
 73
     0
 90
        0
 40
-0.6
 41
-30.0
 62
     5
 63
     7
 74
     1
 91
        4
 64
     7
 65
   257
 75
     1
175
     1
 42
1.0
 92
       12
 66
     7
 43
1.0
 76
     1
 77
     6
 78
     2
 67
     7
 79
     5
170
     0
171
     0
290
     0
174
     0
 93
        1
 44
0.0
173
     0
291
     1
 45
0.0
1001
ACAD
1000
AcDbSavedByObjectVersion
1070
     0
1000
AcDbSavedByObjectVersion
1070
     0
  0
DICTIONARYVAR
  5
1649
102
{ACAD_REACTORS
330
1648
102
}
330
1648
100
DictionaryVariables
280
     0
  1
STANDARD
  0
DICTIONARYVAR
  5
164C
102
{ACAD_REACTORS
330
1648
102
}
330
1648
100
DictionaryVariables
280
     0
  1
1
  0
DICTIONARYVAR
  5
164B
102
{ACAD_REACTORS
330
1648
102
}
330
1648
100
DictionaryVariables
280
     0
  1
0
  0
DICTIONARYVAR
  5
164A
102
{ACAD_REACTORS
330
1648
102
}
330
1648
100
DictionaryVariables
280
     0
  1
127
  0
DICTIONARY
  5
16B4
330
1646
100
AcDbDictionary
280
     1
281
     1
  3
ACAD_XREC_ROUNDTRIP
360
16B5
  0
DICTIONARY
  5
16B2
330
1645
100
AcDbDictionary
280
     1
281
     1
  3
ACAD_XREC_ROUNDTRIP
360
16B3
  0
DICTIONARY
  5
1650
330
162E
100
AcDbDictionary
280
     1
281
     1
  3
ACAD_XREC_ROUNDTRIP
360
1651
  0
DICTIONARY
  5
164E
330
162D
100
AcDbDictionary
280
     1
281
     1
  3
ACAD_XREC_ROUNDTRIP
360
164F
  0
DICTIONARY
  5
1652
330
162F
100
AcDbDictionary
280
     1
281
     1
  3
ACAD_XREC_ROUNDTRIP
360
1653
  0
DICTIONARY
  5
16B0
330
1643
100
AcDbDictionary
280
     1
281
     1
  3
ACAD_XREC_ROUNDTRIP
360
16B1
  0
XRECORD
  5
16B5
102
{ACAD_REACTORS
330
16B4
102
}
330
16B4
100
AcDbXrecord
280
     1
102
SHADEPLOT
 70
     0
102
SHADEPLOTRESLEVEL
 70
     2
102
SHADEPLOTCUSTOMDPI
 70
   300
  0
XRECORD
  5
16B3
102
{ACAD_REACTORS
330
16B2
102
}
330
16B2
100
AcDbXrecord
280
     1
102
SHADEPLOT
 70
     0
102
SHADEPLOTRESLEVEL
 70
     2
102
SHADEPLOTCUSTOMDPI
 70
   300
  0
XRECORD
  5
1651
102
{ACAD_REACTORS
330
1650
102
}
330
1650
100
AcDbXrecord
280
     1
102
MATERIAL
148
0.0
149
0.0
149
0.0
 93
        0
 94
       63
282
     0
 72
     1
 77
     1
171
     1
175
     1
179
     1
273
     0
  0
XRECORD
  5
164F
102
{ACAD_REACTORS
330
164E
102
}
330
164E
100
AcDbXrecord
280
     1
102
MATERIAL
148
0.0
149
0.0
149
0.0
 93
        0
 94
       63
282
     0
 72
     1
 77
     1
171
     1
175
     1
179
     1
273
     0
  0
XRECORD
  5
1653
102
{ACAD_REACTORS
330
1652
102
}
330
1652
100
AcDbXrecord
280
     1
102
MATERIAL
148
0.0
149
0.0
149
0.0
 93
        0
 94
       63
282
     0
 72
     1
 77
     1
171
     1
175
     1
179
     1
273
     0
  0
XRECORD
  5
16B1
102
{ACAD_REACTORS
330
16B0
102
}
330
16B0
100
AcDbXrecord
280
     1
102
ACAD_ROUNDTRIP_PRE2007_TABLESTYLE
 90
      512
 91
        0
  1

 92
      512
 93
        0
  2

 94
      512
 95
        0
  3

  0
ENDSEC
  0
EOF
