  0
SECTION
  2
HEADER
  9
$ACADVER
  1
AC1015
  9
$ACADMAINTVER
 70
    20
  9
$DWGCODEPAGE
  3
ANSI_1252
  9
$INSBASE
 10
0.0
 20
0.0
 30
0.0
  9
$EXTMIN
 10
-29.93122687043069
 20
-27.20687749470449
 30
-0.0015258207003583
  9
$EXTMAX
 10
50.23272810926733
 20
43.29406813170544
 30
0.0000000349246037
  9
$LIMMIN
 10
-170.0
 20
-170.0
  9
$LIMMAX
 10
519.0
 20
260.0
  9
$ORTHOMODE
 70
     0
  9
$REGENMODE
 70
     1
  9
$FILLMODE
 70
     1
  9
$QTEXTMODE
 70
     0
  9
$MIRRTEXT
 70
     0
  9
$LTSCALE
 40
1.0
  9
$ATTMODE
 70
     1
  9
$TEXTSIZE
 40
3.5
  9
$TRACEWID
 40
1.0
  9
$TEXTSTYLE
  7
SIMPLEX
  9
$CLAYER
  8
1
  9
$CELTYPE
  6
BYLAYER
  9
$CECOLOR
 62
   256
  9
$CELTSCALE
 40
1.0
  9
$DISPSILH
 70
     0
  9
$DIMSCALE
 40
1.0
  9
$DIMASZ
 40
2.5
  9
$DIMEXO
 40
0.0
  9
$DIMDLI
 40
3.75
  9
$DIMRND
 40
0.0
  9
$DIMDLE
 40
0.0
  9
$DIMEXE
 40
1.25
  9
$DIMTP
 40
0.0
  9
$DIMTM
 40
0.0
  9
$DIMTXT
 40
3.5
  9
$DIMCEN
 40
0.0
  9
$DIMTSZ
 40
0.0
  9
$DIMTOL
 70
     0
  9
$DIMLIM
 70
     0
  9
$DIMTIH
 70
     0
  9
$DIMTOH
 70
     0
  9
$DIMSE1
 70
     0
  9
$DIMSE2
 70
     0
  9
$DIMTAD
 70
     1
  9
$DIMZIN
 70
     8
  9
$DIMBLK
  1

  9
$DIMASO
 70
     1
  9
$DIMSHO
 70
     1
  9
$DIMPOST
  1

  9
$DIMAPOST
  1

  9
$DIMALT
 70
     0
  9
$DIMALTD
 70
     3
  9
$DIMALTF
 40
0.039370078
  9
$DIMLFAC
 40
1.0
  9
$DIMTOFL
 70
     0
  9
$DIMTVP
 40
0.0
  9
$DIMTIX
 70
     0
  9
$DIMSOXD
 70
     0
  9
$DIMSAH
 70
     0
  9
$DIMBLK1
  1

  9
$DIMBLK2
  1

  9
$DIMSTYLE
  2
STANDARD
  9
$DIMCLRD
 70
     0
  9
$DIMCLRE
 70
     0
  9
$DIMCLRT
 70
     0
  9
$DIMTFAC
 40
1.0
  9
$DIMGAP
 40
0.625
  9
$DIMJUST
 70
     0
  9
$DIMSD1
 70
     0
  9
$DIMSD2
 70
     0
  9
$DIMTOLJ
 70
     0
  9
$DIMTZIN
 70
     8
  9
$DIMALTZ
 70
     0
  9
$DIMALTTZ
 70
     0
  9
$DIMUPT
 70
     0
  9
$DIMDEC
 70
     2
  9
$DIMTDEC
 70
     2
  9
$DIMALTU
 70
     2
  9
$DIMALTTD
 70
     3
  9
$DIMTXSTY
  7
SIMPLEX
  9
$DIMAUNIT
 70
     0
  9
$DIMADEC
 70
     2
  9
$DIMALTRND
 40
0.0
  9
$DIMAZIN
 70
     2
  9
$DIMDSEP
 70
    46
  9
$DIMATFIT
 70
     3
  9
$DIMFRAC
 70
     0
  9
$DIMLDRBLK
  1

  9
$DIMLUNIT
 70
     2
  9
$DIMLWD
 70
    -2
  9
$DIMLWE
 70
    -2
  9
$DIMTMOVE
 70
     0
  9
$LUNITS
 70
     2
  9
$LUPREC
 70
     4
  9
$SKETCHINC
 40
1.0
  9
$FILLETRAD
 40
0.0
  9
$AUNITS
 70
     0
  9
$AUPREC
 70
     0
  9
$MENU
  1
c:\tdm21\cad\caduti13\tdm13
  9
$ELEVATION
 40
0.0
  9
$PELEVATION
 40
0.0
  9
$THICKNESS
 40
0.0
  9
$LIMCHECK
 70
     0
  9
$CHAMFERA
 40
0.0
  9
$CHAMFERB
 40
0.0
  9
$CHAMFERC
 40
0.0
  9
$CHAMFERD
 40
0.0
  9
$SKPOLY
 70
     0
  9
$TDCREATE
 40
2454664.482955614
  9
$TDUCREATE
 40
2454664.399622280
  9
$TDUPDATE
 40
2454664.494878356
  9
$TDUUPDATE
 40
2454664.411545024
  9
$TDINDWG
 40
0.0119229282
  9
$TDUSRTIMER
 40
0.0119229282
  9
$USRTIMER
 70
     1
  9
$ANGBASE
 50
0.0
  9
$ANGDIR
 70
     0
  9
$PDMODE
 70
     1
  9
$PDSIZE
 40
0.0
  9
$PLINEWID
 40
0.0
  9
$SPLFRAME
 70
     0
  9
$SPLINETYPE
 70
     6
  9
$SPLINESEGS
 70
     8
  9
$HANDSEED
  5
857
  9
$SURFTAB1
 70
     6
  9
$SURFTAB2
 70
     6
  9
$SURFTYPE
 70
     6
  9
$SURFU
 70
     6
  9
$SURFV
 70
     6
  9
$UCSBASE
  2

  9
$UCSNAME
  2

  9
$UCSORG
 10
0.0
 20
0.0
 30
0.0
  9
$UCSXDIR
 10
1.0
 20
0.0
 30
0.0
  9
$UCSYDIR
 10
0.0
 20
1.0
 30
0.0
  9
$UCSORTHOREF
  2

  9
$UCSORTHOVIEW
 70
     0
  9
$UCSORGTOP
 10
0.0
 20
0.0
 30
0.0
  9
$UCSORGBOTTOM
 10
0.0
 20
0.0
 30
0.0
  9
$UCSORGLEFT
 10
0.0
 20
0.0
 30
0.0
  9
$UCSORGRIGHT
 10
0.0
 20
0.0
 30
0.0
  9
$UCSORGFRONT
 10
0.0
 20
0.0
 30
0.0
  9
$UCSORGBACK
 10
0.0
 20
0.0
 30
0.0
  9
$PUCSBASE
  2

  9
$PUCSNAME
  2

  9
$PUCSORG
 10
0.0
 20
0.0
 30
0.0
  9
$PUCSXDIR
 10
1.0
 20
0.0
 30
0.0
  9
$PUCSYDIR
 10
0.0
 20
1.0
 30
0.0
  9
$PUCSORTHOREF
  2

  9
$PUCSORTHOVIEW
 70
     0
  9
$PUCSORGTOP
 10
0.0
 20
0.0
 30
0.0
  9
$PUCSORGBOTTOM
 10
0.0
 20
0.0
 30
0.0
  9
$PUCSORGLEFT
 10
0.0
 20
0.0
 30
0.0
  9
$PUCSORGRIGHT
 10
0.0
 20
0.0
 30
0.0
  9
$PUCSORGFRONT
 10
0.0
 20
0.0
 30
0.0
  9
$PUCSORGBACK
 10
0.0
 20
0.0
 30
0.0
  9
$USERI1
 70
     0
  9
$USERI2
 70
     0
  9
$USERI3
 70
     0
  9
$USERI4
 70
     0
  9
$USERI5
 70
     0
  9
$USERR1
 40
0.0
  9
$USERR2
 40
0.0
  9
$USERR3
 40
0.0
  9
$USERR4
 40
0.0
  9
$USERR5
 40
0.0
  9
$WORLDVIEW
 70
     1
  9
$SHADEDGE
 70
     3
  9
$SHADEDIF
 70
    70
  9
$TILEMODE
 70
     1
  9
$MAXACTVP
 70
    64
  9
$PINSBASE
 10
0.0
 20
0.0
 30
0.0
  9
$PLIMCHECK
 70
     0
  9
$PEXTMIN
 10
0.0
 20
0.0
 30
0.0
  9
$PEXTMAX
 10
0.0
 20
0.0
 30
0.0
  9
$PLIMMIN
 10
0.0
 20
0.0
  9
$PLIMMAX
 10
12.0
 20
9.0
  9
$UNITMODE
 70
     0
  9
$VISRETAIN
 70
     0
  9
$PLINEGEN
 70
     0
  9
$PSLTSCALE
 70
     1
  9
$TREEDEPTH
 70
  3020
  9
$CMLSTYLE
  2
STANDARD
  9
$CMLJUST
 70
     0
  9
$CMLSCALE
 40
20.0
  9
$PROXYGRAPHICS
 70
     1
  9
$MEASUREMENT
 70
     1
  9
$CELWEIGHT
370
    -1
  9
$ENDCAPS
280
     0
  9
$JOINSTYLE
280
     0
  9
$LWDISPLAY
290
     0
  9
$INSUNITS
 70
     4
  9
$HYPERLINKBASE
  1

  9
$STYLESHEET
  1
monochrome.ctb
  9
$XEDIT
290
     1
  9
$CEPSNTYPE
380
     0
  9
$PSTYLEMODE
290
     1
  9
$FINGERPRINTGUID
  2
{D06BF6DB-3592-4C49-AAEC-3A011D19C1FA}
  9
$VERSIONGUID
  2
{5EF69831-374A-47B2-827E-946653B5AFE7}
  9
$EXTNAMES
290
     1
  9
$PSVPSCALE
 40
0.0
  9
$OLESTARTUP
290
     0
  0
ENDSEC
  0
SECTION
  2
CLASSES
  0
CLASS
  1
ACDBDICTIONARYWDFLT
  2
AcDbDictionaryWithDefault
  3
ObjectDBX Classes
 90
        0
280
     0
281
     0
  0
CLASS
  1
ACDBPLACEHOLDER
  2
AcDbPlaceHolder
  3
ObjectDBX Classes
 90
        0
280
     0
281
     0
  0
CLASS
  1
LAYOUT
  2
AcDbLayout
  3
ObjectDBX Classes
 90
        0
280
     0
281
     0
  0
CLASS
  1
DICTIONARYVAR
  2
AcDbDictionaryVar
  3
ObjectDBX Classes
 90
        0
280
     0
281
     0
  0
CLASS
  1
TABLESTYLE
  2
AcDbTableStyle
  3
ObjectDBX Classes
 90
     4095
280
     0
281
     0
  0
CLASS
  1
MATERIAL
  2
AcDbMaterial
  3
ObjectDBX Classes
 90
     1024
280
     0
281
     0
  0
CLASS
  1
VISUALSTYLE
  2
AcDbVisualStyle
  3
ObjectDBX Classes
 90
     4095
280
     0
281
     0
  0
ENDSEC
  0
SECTION
  2
TABLES
  0
TABLE
  2
VPORT
  5
8
330
0
100
AcDbSymbolTable
 70
     1
  0
VPORT
  5
3ED
330
8
100
AcDbSymbolTableRecord
100
AcDbViewportTableRecord
  2
*Active
 70
     0
 10
0.0
 20
0.0
 11
1.0
 21
1.0
 12
10.15075061941832
 22
8.043595318500479
 13
0.0
 23
0.0
 14
5.0
 24
5.0
 15
5.0
 25
5.0
 16
0.0
 26
0.0
 36
1.0
 17
0.0
 27
0.0
 37
0.0
 40
72.52224845482968
 41
1.24054054054054
 42
50.0
 43
0.0
 44
0.0
 50
0.0
 51
0.0
 71
     0
 72
  2000
 73
     1
 74
     1
 75
     0
 76
     0
 77
     0
 78
     0
281
     0
 65
     1
110
0.0
120
0.0
130
0.0
111
1.0
121
0.0
131
0.0
112
0.0
122
1.0
132
0.0
 79
     0
146
0.0
  0
ENDTAB
  0
TABLE
  2
LTYPE
  5
5
330
0
100
AcDbSymbolTable
 70
    56
  0
LTYPE
  5
12
330
5
100
AcDbSymbolTableRecord
100
AcDbLinetypeTableRecord
  2
BYBLOCK
 70
     0
  3

 72
    65
 73
     0
 40
0.0
  0
LTYPE
  5
13
330
5
100
AcDbSymbolTableRecord
100
AcDbLinetypeTableRecord
  2
BYLAYER
 70
     0
  3

 72
    65
 73
     0
 40
0.0
  0
LTYPE
  5
14
330
5
100
AcDbSymbolTableRecord
100
AcDbLinetypeTableRecord
  2
CONTINUOUS
 70
     0
  3
Solid line
 72
    65
 73
     0
 40
0.0
  0
LTYPE
  5
20
330
5
100
AcDbSymbolTableRecord
100
AcDbLinetypeTableRecord
  2
HIDDEN
 70
     0
  3
Hidden __ __ __ __ __ __ __ __ __ __ __ __ __ _
 72
    65
 73
     2
 40
9.524999999999998
 49
6.349999999999999
 74
     0
 49
-3.174999999999999
 74
     0
  0
LTYPE
  5
351
330
5
100
AcDbSymbolTableRecord
100
AcDbLinetypeTableRecord
  2
CENTER
 70
     0
  3
Dash dot __ . __ . __ . __ . __ . __ . __ . __
 72
    65
 73
     4
 40
25.4
 49
12.7
 74
     0
 49
-6.349999999999999
 74
     0
 49
0.0
 74
     0
 49
-6.349999999999999
 74
     0
  0
ENDTAB
  0
TABLE
  2
LAYER
  5
2
102
{ACAD_XDICTIONARY
360
43C
102
}
330
0
100
AcDbSymbolTable
 70
    25
  0
LAYER
  5
F
330
2
100
AcDbSymbolTableRecord
100
AcDbLayerTableRecord
  2
0
 70
     0
 62
     7
  6
CONTINUOUS
370
    -3
390
300
  0
LAYER
  5
23
330
2
100
AcDbSymbolTableRecord
100
AcDbLayerTableRecord
  2
1
 70
     0
 62
     4
  6
CONTINUOUS
370
    -3
390
300
  0
LAYER
  5
24
330
2
100
AcDbSymbolTableRecord
100
AcDbLayerTableRecord
  2
SK1
 70
     0
 62
     4
  6
CONTINUOUS
370
    -3
390
300
  0
LAYER
  5
25
330
2
100
AcDbSymbolTableRecord
100
AcDbLayerTableRecord
  2
2
 70
     0
 62
     7
  6
CONTINUOUS
370
    -3
390
300
  0
LAYER
  5
27
330
2
100
AcDbSymbolTableRecord
100
AcDbLayerTableRecord
  2
SK2
 70
     0
 62
     7
  6
CONTINUOUS
370
    -3
390
300
  0
LAYER
  5
28
330
2
100
AcDbSymbolTableRecord
100
AcDbLayerTableRecord
  2
3
 70
     0
 62
     1
  6
HIDDEN
370
    -3
390
300
  0
LAYER
  5
2A
330
2
100
AcDbSymbolTableRecord
100
AcDbLayerTableRecord
  2
4
 70
     0
 62
     2
  6
CENTER
370
    -3
390
300
  0
LAYER
  5
2B
330
2
100
AcDbSymbolTableRecord
100
AcDbLayerTableRecord
  2
SK4
 70
     0
 62
     2
  6
CENTER
370
    -3
390
300
  0
LAYER
  5
2E
330
2
100
AcDbSymbolTableRecord
100
AcDbLayerTableRecord
  2
SK6
 70
     0
 62
     5
  6
CONTINUOUS
370
    -3
390
300
  0
LAYER
  5
2F
330
2
100
AcDbSymbolTableRecord
100
AcDbLayerTableRecord
  2
DEFPOINTS
 70
     0
 62
     7
  6
CONTINUOUS
290
     0
370
    -3
390
300
  0
LAYER
  5
4BB
330
2
100
AcDbSymbolTableRecord
100
AcDbLayerTableRecord
  2
11
 70
     0
 62
     7
  6
CONTINUOUS
370
    -3
390
300
  0
ENDTAB
  0
TABLE
  2
STYLE
  5
3
330
0
100
AcDbSymbolTable
 70
    11
  0
STYLE
  5
10
330
3
100
AcDbSymbolTableRecord
100
AcDbTextStyleTableRecord
  2
STANDARD
 70
     0
 40
0.0
 41
1.0
 50
0.0
 71
     0
 42
5.0
  3
txt
  4

  0
STYLE
  5
1E
330
3
100
AcDbSymbolTableRecord
100
AcDbTextStyleTableRecord
  2
SIMPLEX
 70
     0
 40
3.5
 41
1.0
 50
0.0
 71
     0
 42
3.5
  3
simplex.shx
  4

  0
ENDTAB
  0
TABLE
  2
VIEW
  5
6
330
0
100
AcDbSymbolTable
 70
     0
  0
ENDTAB
  0
TABLE
  2
UCS
  5
7
330
0
100
AcDbSymbolTable
 70
     0
  0
ENDTAB
  0
TABLE
  2
APPID
  5
9
330
0
100
AcDbSymbolTable
 70
     5
  0
APPID
  5
11
330
9
100
AcDbSymbolTableRecord
100
AcDbRegAppTableRecord
  2
ACAD
 70
     0
  0
APPID
  5
3A6
330
9
100
AcDbSymbolTableRecord
100
AcDbRegAppTableRecord
  2
ACAD_PSEXT
 70
     0
  0
APPID
  5
3A8
330
9
100
AcDbSymbolTableRecord
100
AcDbRegAppTableRecord
  2
ACAD_EXEMPT_FROM_CAD_STANDARDS
 70
     0
  0
APPID
  5
433
330
9
100
AcDbSymbolTableRecord
100
AcDbRegAppTableRecord
  2
AcAecLayerStandard
 70
     0
  0
APPID
  5
485
330
9
100
AcDbSymbolTableRecord
100
AcDbRegAppTableRecord
  2
DCO15
 70
     0
  0
ENDTAB
  0
TABLE
  2
DIMSTYLE
  5
A
330
0
100
AcDbSymbolTable
 70
     3
100
AcDbDimStyleTable
 71
     1
340
3F
  0
DIMSTYLE
105
3F
102
{ACAD_REACTORS
330
5D9
330
5D7
330
590
330
58F
102
}
330
A
100
AcDbSymbolTableRecord
100
AcDbDimStyleTableRecord
  2
STANDARD
 70
     0
 41
2.5
 42
0.0
 43
3.75
 44
1.25
 73
     0
 74
     0
 77
     1
 78
     8
 79
     2
140
3.5
141
0.0
143
0.039370078
147
0.625
171
     3
179
     2
271
     2
272
     2
274
     3
283
     0
284
     8
340
1E
  0
ENDTAB
  0
TABLE
  2
BLOCK_RECORD
  5
1
330
0
100
AcDbSymbolTable
 70
    12
  0
BLOCK_RECORD
  5
18
330
1
100
AcDbSymbolTableRecord
100
AcDbBlockTableRecord
  2
*MODEL_SPACE
340
303
  0
BLOCK_RECORD
  5
338
330
1
100
AcDbSymbolTableRecord
100
AcDbBlockTableRecord
  2
*Paper_Space
340
33B
  0
BLOCK_RECORD
  5
637
330
1
100
AcDbSymbolTableRecord
100
AcDbBlockTableRecord
  2
*D5
340
0
  0
BLOCK_RECORD
  5
643
330
1
100
AcDbSymbolTableRecord
100
AcDbBlockTableRecord
  2
*D6
340
0
  0
BLOCK_RECORD
  5
64F
330
1
100
AcDbSymbolTableRecord
100
AcDbBlockTableRecord
  2
*D7
340
0
  0
BLOCK_RECORD
  5
65B
330
1
100
AcDbSymbolTableRecord
100
AcDbBlockTableRecord
  2
*D8
340
0
  0
ENDTAB
  0
ENDSEC
  0
SECTION
  2
BLOCKS
  0
BLOCK
  5
32
330
18
100
AcDbEntity
  8
0
100
AcDbBlockBegin
  2
*MODEL_SPACE
 70
     0
 10
0.0
 20
0.0
 30
0.0
  3
*MODEL_SPACE
  1

  0
ENDBLK
  5
33
330
18
100
AcDbEntity
  8
0
100
AcDbBlockEnd
  0
BLOCK
  5
339
330
338
100
AcDbEntity
 67
     1
  8
0
100
AcDbBlockBegin
  2
*Paper_Space
 70
     0
 10
0.0
 20
0.0
 30
0.0
  3
*Paper_Space
  1

  0
ENDBLK
  5
33A
330
338
100
AcDbEntity
 67
     1
  8
0
100
AcDbBlockEnd
  0
BLOCK
  5
641
330
637
100
AcDbEntity
  8
0
100
AcDbBlockBegin
  2
*D5
 70
     1
 10
0.0
 20
0.0
 30
0.0
  3
*D5
  1

  0
LINE
  5
800
330
637
100
AcDbEntity
  8
SK2
 62
     0
370
    -2
100
AcDbLine
 10
-11.25
 20
4.0
 30
0.0
 11
-17.58133969753245
 21
4.000000000000001
 31
0.0
  0
LINE
  5
801
330
637
100
AcDbEntity
  8
SK2
 62
     0
370
    -2
100
AcDbLine
 10
-11.25
 20
-4.0
 30
0.0
 11
-17.58133969753245
 21
-3.999999999999998
 31
0.0
  0
LINE
  5
802
330
637
100
AcDbEntity
  8
SK2
 62
     0
370
    -2
100
AcDbLine
 10
-16.33133969753245
 20
1.500000000000001
 30
0.0
 11
-16.33133969753245
 21
-1.499999999999999
 31
0.0
  0
SOLID
  5
803
330
637
100
AcDbEntity
  8
SK2
 62
     0
100
AcDbTrace
 10
-16.74800636419912
 20
1.500000000000001
 30
0.0
 11
-15.91467303086579
 21
1.500000000000001
 31
0.0
 12
-16.33133969753245
 22
4.000000000000001
 32
0.0
 13
-16.33133969753245
 23
4.000000000000001
 33
0.0
  0
SOLID
  5
804
330
637
100
AcDbEntity
  8
SK2
 62
     0
100
AcDbTrace
 10
-16.74800636419912
 20
-1.499999999999998
 30
0.0
 11
-15.91467303086579
 21
-1.499999999999999
 31
0.0
 12
-16.33133969753245
 22
-3.999999999999999
 32
0.0
 13
-16.33133969753245
 23
-3.999999999999999
 33
0.0
  0
MTEXT
  5
805
330
637
100
AcDbEntity
  8
SK2
 62
     0
100
AcDbMText
 10
-18.70633969753246
 20
-0.0000000000000012
 30
0.0
 40
3.5
 41
0.0
 71
     5
 72
     1
  1
%%c8
  7
SIMPLEX
 11
0.0000000000000001
 21
1.0
 31
0.0
 73
     1
 44
1.0
1001
ACAD
1000
MTEXTBEGIN
1070
    73
1070
     1
1070
    44
1040
1.0
1070
    74
1070
     0
1000
MTEXTEND
  0
POINT
  5
806
330
637
100
AcDbEntity
  8
DEFPOINTS
 62
     0
100
AcDbPoint
 10
-11.25
 20
4.0
 30
0.0
  0
POINT
  5
807
330
637
100
AcDbEntity
  8
DEFPOINTS
 62
     0
100
AcDbPoint
 10
-11.25
 20
-4.0
 30
0.0
  0
POINT
  5
808
330
637
100
AcDbEntity
  8
DEFPOINTS
 62
     0
100
AcDbPoint
 10
-16.33133969753245
 20
-3.999999999999999
 30
0.0
  0
ENDBLK
  5
642
330
637
100
AcDbEntity
  8
0
100
AcDbBlockEnd
  0
BLOCK
  5
64D
330
643
100
AcDbEntity
  8
0
100
AcDbBlockBegin
  2
*D6
 70
     1
 10
0.0
 20
0.0
 30
0.0
  3
*D6
  1

  0
LINE
  5
834
330
643
100
AcDbEntity
  8
SK2
 62
     0
370
    -2
100
AcDbLine
 10
0.75
 20
8.25
 30
0.0
 11
-27.0324230527643
 21
8.250000000000007
 31
0.0
  0
LINE
  5
835
330
643
100
AcDbEntity
  8
SK2
 62
     0
370
    -2
100
AcDbLine
 10
0.75
 20
-8.25
 30
0.0
 11
-27.03242305276431
 21
-8.249999999999992
 31
0.0
  0
LINE
  5
836
330
643
100
AcDbEntity
  8
SK2
 62
     0
370
    -2
100
AcDbLine
 10
-25.7824230527643
 20
5.750000000000007
 30
0.0
 11
-25.7824230527643
 21
-5.749999999999992
 31
0.0
  0
SOLID
  5
837
330
643
100
AcDbEntity
  8
SK2
 62
     0
100
AcDbTrace
 10
-26.19908971943097
 20
5.750000000000007
 30
0.0
 11
-25.36575638609763
 21
5.750000000000007
 31
0.0
 12
-25.7824230527643
 22
8.250000000000007
 32
0.0
 13
-25.7824230527643
 23
8.250000000000007
 33
0.0
  0
SOLID
  5
838
330
643
100
AcDbEntity
  8
SK2
 62
     0
100
AcDbTrace
 10
-26.19908971943097
 20
-5.749999999999992
 30
0.0
 11
-25.36575638609763
 21
-5.749999999999992
 31
0.0
 12
-25.78242305276431
 22
-8.249999999999992
 32
0.0
 13
-25.78242305276431
 23
-8.249999999999992
 33
0.0
  0
MTEXT
  5
839
330
643
100
AcDbEntity
  8
SK2
 62
     0
100
AcDbMText
 10
-28.1574230527643
 20
0.0000000000000036
 30
0.0
 40
3.5
 41
0.0
 71
     5
 72
     1
  1
%%c16.5
  7
SIMPLEX
 11
0.0000000000000001
 21
1.0
 31
0.0
 73
     1
 44
1.0
1001
ACAD
1000
MTEXTBEGIN
1070
    73
1070
     1
1070
    44
1040
1.0
1070
    74
1070
     0
1000
MTEXTEND
  0
POINT
  5
83A
330
643
100
AcDbEntity
  8
DEFPOINTS
 62
     0
100
AcDbPoint
 10
0.75
 20
8.25
 30
0.0
  0
POINT
  5
83B
330
643
100
AcDbEntity
  8
DEFPOINTS
 62
     0
100
AcDbPoint
 10
0.75
 20
-8.25
 30
0.0
  0
POINT
  5
83C
330
643
100
AcDbEntity
  8
DEFPOINTS
 62
     0
100
AcDbPoint
 10
-25.78242305276431
 20
-8.249999999999992
 30
0.0
  0
ENDBLK
  5
64E
330
643
100
AcDbEntity
  8
0
100
AcDbBlockEnd
  0
BLOCK
  5
659
330
64F
100
AcDbEntity
  8
0
100
AcDbBlockBegin
  2
*D7
 70
     1
 10
0.0
 20
0.0
 30
0.0
  3
*D7
  1

  0
LINE
  5
7C0
330
64F
100
AcDbEntity
  8
2
 62
     0
370
    -2
100
AcDbLine
 10
35.0
 20
10.284551
 30
0.0
 11
35.0
 21
31.25
 31
0.0
  0
LINE
  5
7C1
330
64F
100
AcDbEntity
  8
2
 62
     0
370
    -2
100
AcDbLine
 10
0.0
 20
7.5
 30
0.0
 11
0.0000000000000015
 21
31.25
 31
0.0
  0
LINE
  5
7C2
330
64F
100
AcDbEntity
  8
2
 62
     0
370
    -2
100
AcDbLine
 10
32.5
 20
30.0
 30
0.0
 11
2.500000000000001
 21
30.0
 31
0.0
  0
SOLID
  5
7C3
330
64F
100
AcDbEntity
  8
2
 62
     0
100
AcDbTrace
 10
32.5
 20
30.41666666666667
 30
0.0
 11
32.5
 21
29.58333333333333
 31
0.0
 12
35.0
 22
30.0
 32
0.0
 13
35.0
 23
30.0
 33
0.0
  0
SOLID
  5
7C4
330
64F
100
AcDbEntity
  8
2
 62
     0
100
AcDbTrace
 10
2.500000000000001
 20
30.41666666666667
 30
0.0
 11
2.500000000000001
 21
29.58333333333333
 31
0.0
 12
0.0000000000000014
 22
30.0
 32
0.0
 13
0.0000000000000014
 23
30.0
 33
0.0
  0
MTEXT
  5
7C5
330
64F
100
AcDbEntity
  8
2
 62
     0
100
AcDbMText
 10
17.5
 20
32.375
 30
0.0
 40
3.5
 41
0.0
 71
     5
 72
     1
  1
35
  7
SIMPLEX
 73
     1
 44
1.0
1001
ACAD
1000
MTEXTBEGIN
1070
    73
1070
     1
1070
    44
1040
1.0
1070
    74
1070
     0
1000
MTEXTEND
  0
POINT
  5
7C6
330
64F
100
AcDbEntity
  8
DEFPOINTS
 62
     0
100
AcDbPoint
 10
35.0
 20
10.284551
 30
0.0
  0
POINT
  5
7C7
330
64F
100
AcDbEntity
  8
DEFPOINTS
 62
     0
100
AcDbPoint
 10
0.0
 20
7.5
 30
0.0
  0
POINT
  5
7C8
330
64F
100
AcDbEntity
  8
DEFPOINTS
 62
     0
100
AcDbPoint
 10
0.0000000000000014
 20
30.0
 30
0.0
  0
ENDBLK
  5
65A
330
64F
100
AcDbEntity
  8
0
100
AcDbBlockEnd
  0
BLOCK
  5
665
330
65B
100
AcDbEntity
  8
0
100
AcDbBlockBegin
  2
*D8
 70
     1
 10
0.0
 20
0.0
 30
0.0
  3
*D8
  1

  0
LINE
  5
7E4
330
65B
100
AcDbEntity
  8
2
 62
     0
370
    -2
100
AcDbLine
 10
34.53054072893332
 20
-10.67847410120499
 30
0.0
 11
50.21293469468537
 21
-10.678474101205
 31
0.0
  0
LINE
  5
7E5
330
65B
100
AcDbEntity
  8
2
 62
     0
370
    -2
100
AcDbLine
 10
34.53054072893332
 20
10.67847410120499
 30
0.0
 11
50.21293469468537
 21
10.67847410120499
 31
0.0
  0
LINE
  5
7E6
330
65B
100
AcDbEntity
  8
2
 62
     0
370
    -2
100
AcDbLine
 10
48.96293469468537
 20
-8.178474101205001
 30
0.0
 11
48.96293469468537
 21
8.178474101204994
 31
0.0
  0
LINE
  5
7E7
330
65B
100
AcDbEntity
  8
2
 62
     0
370
    -2
100
AcDbLine
 10
48.96293469468537
 20
10.67847410120499
 30
0.0
 11
48.96293469468538
 21
43.26180743453831
 31
0.0
  0
SOLID
  5
7E8
330
65B
100
AcDbEntity
  8
2
 62
     0
100
AcDbTrace
 10
48.5462680280187
 20
-8.178474101205001
 30
0.0
 11
49.37960136135203
 21
-8.178474101205001
 31
0.0
 12
48.96293469468537
 22
-10.678474101205
 32
0.0
 13
48.96293469468537
 23
-10.678474101205
 33
0.0
  0
SOLID
  5
7E9
330
65B
100
AcDbEntity
  8
2
 62
     0
100
AcDbTrace
 10
48.5462680280187
 20
8.178474101204994
 30
0.0
 11
49.37960136135203
 21
8.178474101204994
 31
0.0
 12
48.96293469468537
 22
10.67847410120499
 32
0.0
 13
48.96293469468537
 23
10.67847410120499
 33
0.0
  0
MTEXT
  5
7EA
330
65B
100
AcDbEntity
  8
2
 62
     0
100
AcDbMText
 10
46.58793469468537
 20
28.22014076787167
 30
0.0
 40
3.5
 41
0.0
 71
     5
 72
     1
  1
%%c18 - %%c24
  7
SIMPLEX
 11
0.0000000000000001
 21
1.0
 31
0.0
 73
     1
 44
1.0
1001
ACAD
1000
MTEXTBEGIN
1070
    73
1070
     1
1070
    44
1040
1.0
1070
    74
1070
     0
1000
MTEXTEND
  0
POINT
  5
7EB
330
65B
100
AcDbEntity
  8
DEFPOINTS
 62
     0
100
AcDbPoint
 10
34.53054072893332
 20
-10.67847410120499
 30
0.0
  0
POINT
  5
7EC
330
65B
100
AcDbEntity
  8
DEFPOINTS
 62
     0
100
AcDbPoint
 10
34.53054072893332
 20
10.67847410120499
 30
0.0
  0
POINT
  5
7ED
330
65B
100
AcDbEntity
  8
DEFPOINTS
 62
     0
100
AcDbPoint
 10
48.96293469468537
 20
10.67847410120499
 30
0.0
  0
ENDBLK
  5
666
330
65B
100
AcDbEntity
  8
0
100
AcDbBlockEnd
  0
ENDSEC
  0
SECTION
  2
ENTITIES
  0
LINE
  5
425
330
18
100
AcDbEntity
  8
DEFPOINTS
100
AcDbLine
 10
0.0
 20
0.0
 30
0.0
 11
0.0
 21
0.0
 31
0.0
  0
LINE
  5
57D
330
18
100
AcDbEntity
  8
SK1
100
AcDbLine
 10
-12.0
 20
-3.25
 30
0.0
 11
-12.0
 21
3.25
 31
0.0
  0
LINE
  5
57E
330
18
100
AcDbEntity
  8
1
100
AcDbLine
 10
0.0
 20
2.00000000000001
 30
0.0
 11
0.0
 21
7.5
 31
0.0
  0
LINE
  5
57F
330
18
100
AcDbEntity
  8
SK1
100
AcDbLine
 10
0.0
 20
4.0
 30
0.0
 11
-11.25
 21
4.0
 31
0.0
  0
LINE
  5
580
330
18
100
AcDbEntity
  8
SK1
100
AcDbLine
 10
0.0000000000000142
 20
-4.0
 30
0.0
 11
-11.25
 21
-4.0
 31
0.0
  0
ARC
  5
581
330
18
100
AcDbEntity
  8
SK1
100
AcDbCircle
 10
4.599999999999994
 20
-4.199999999999999
 30
0.0
 40
2.5
210
0.0
220
0.0
230
-1.0
100
AcDbArc
 50
4.588565735785759
 51
175.4114342642138
  0
ARC
  5
582
330
18
100
AcDbEntity
  8
SK1
100
AcDbCircle
 10
-4.599999999999994
 20
4.200000000000002
 30
0.0
 40
2.5
100
AcDbArc
 50
184.5885657357857
 51
355.4114342642142
  0
LINE
  5
583
330
18
100
AcDbEntity
  8
1
100
AcDbLine
 10
0.0
 20
-7.5
 30
0.0
 11
0.0
 21
-1.999999999999989
 31
0.0
  0
ARC
  5
584
330
18
100
AcDbEntity
  8
1
100
AcDbCircle
 10
4.0
 20
0.0
 30
0.0
 40
2.0
100
AcDbArc
 50
270.0
 51
90.0
  0
LINE
  5
585
330
18
100
AcDbEntity
  8
1
100
AcDbLine
 10
-2.0
 20
2.00000000000001
 30
0.0
 11
4.0
 21
2.00000000000001
 31
0.0
  0
LINE
  5
586
330
18
100
AcDbEntity
  8
1
100
AcDbLine
 10
-2.0
 20
-1.999999999999989
 30
0.0
 11
4.0
 21
-1.999999999999989
 31
0.0
  0
LINE
  5
587
330
18
100
AcDbEntity
  8
1
100
AcDbLine
 10
-2.0
 20
-1.999999999999989
 30
0.0
 11
-2.0
 21
2.00000000000001
 31
0.0
  0
LINE
  5
588
330
18
100
AcDbEntity
  8
SK1
100
AcDbLine
 10
-12.0
 20
3.25
 30
0.0
 11
-11.25
 21
4.0
 31
0.0
  0
LINE
  5
589
330
18
100
AcDbEntity
  8
SK1
100
AcDbLine
 10
-12.0
 20
-3.25
 30
0.0
 11
-11.25
 21
-4.0
 31
0.0
  0
LINE
  5
58A
330
18
100
AcDbEntity
  8
1
100
AcDbLine
 10
0.0
 20
7.5
 30
0.0
 11
0.75
 21
8.25
 31
0.0
  0
LINE
  5
58B
330
18
100
AcDbEntity
  8
1
100
AcDbLine
 10
0.0
 20
-7.5
 30
0.0
 11
0.75
 21
-8.25
 31
0.0
  0
LINE
  5
58C
330
18
100
AcDbEntity
  8
1
100
AcDbLine
 10
0.75
 20
8.25
 30
0.0
 11
0.75
 21
2.00000000000001
 31
0.0
  0
LINE
  5
58D
330
18
100
AcDbEntity
  8
1
100
AcDbLine
 10
0.75
 20
-1.999999999999989
 30
0.0
 11
0.75
 21
-8.25
 31
0.0
  0
LINE
  5
58E
330
18
100
AcDbEntity
  8
SK1
100
AcDbLine
 10
-11.25
 20
4.0
 30
0.0
 11
-11.25
 21
-4.0
 31
0.0
  0
DIMENSION
  5
58F
330
18
100
AcDbEntity
  8
SK2
100
AcDbDimension
  2
*D5
 10
-16.33133969753245
 20
-3.999999999999999
 30
0.0
 11
-18.70633969753246
 21
-0.0000000000000012
 31
0.0
 70
    32
  1
%%c8
 71
     5
 42
8.0
  3
STANDARD
100
AcDbAlignedDimension
 13
-11.25
 23
4.0
 33
0.0
 14
-11.25
 24
-4.0
 34
0.0
 50
270.0
100
AcDbRotatedDimension
  0
DIMENSION
  5
590
330
18
100
AcDbEntity
  8
SK2
100
AcDbDimension
  2
*D6
 10
-25.78242305276431
 20
-8.249999999999992
 30
0.0
 11
-28.1574230527643
 21
0.0000000000000036
 31
0.0
 70
    32
  1
%%c16.5
 71
     5
 42
16.5
  3
STANDARD
100
AcDbAlignedDimension
 13
0.75
 23
8.25
 33
0.0
 14
0.75
 24
-8.25
 34
0.0
 50
270.0
100
AcDbRotatedDimension
  0
POINT
  5
591
330
18
100
AcDbEntity
  8
11
 62
     1
100
AcDbPoint
 10
141.902341206925
 20
55.88645299244871
 30
0.0
  0
POINT
  5
592
330
18
100
AcDbEntity
  8
11
 62
     1
100
AcDbPoint
 10
64.3075771382463
 20
-2.306047007551288
 30
0.0
  0
LINE
  5
5A0
330
18
100
AcDbEntity
  8
SK4
100
AcDbLine
 10
-13.94642480348369
 20
0.0
 30
0.0
 11
28.5447397914608
 21
0.0
 31
0.0
  0
LINE
  5
5A1
330
18
100
AcDbEntity
  8
1
100
AcDbLine
 10
12.5
 20
6.810000000000002
 30
0.0
 11
25.5
 21
6.810000000000002
 31
0.0
  0
LINE
  5
5A2
330
18
100
AcDbEntity
  8
1
100
AcDbLine
 10
12.5
 20
-6.809999999999998
 30
0.0
 11
25.5
 21
-6.809999999999998
 31
0.0
  0
LINE
  5
5A3
330
18
100
AcDbEntity
  8
1
100
AcDbLine
 10
25.5
 20
-6.809999999999998
 30
0.0
 11
25.5
 21
6.810000000000002
 31
0.0
  0
LINE
  5
5A4
330
18
100
AcDbEntity
  8
1
100
AcDbLine
 10
12.5
 20
-8.25
 30
0.0
 11
12.5
 21
8.25
 31
0.0
  0
LINE
  5
5A5
330
18
100
AcDbEntity
  8
1
100
AcDbLine
 10
0.75
 20
-8.25
 30
0.0
 11
12.5
 21
-8.25
 31
0.0
  0
CIRCLE
  5
5A6
330
18
100
AcDbEntity
  8
1
100
AcDbCircle
 10
19.2500000000001
 20
0.0
 30
0.0
 40
4.75
  0
LINE
  5
5A8
330
18
100
AcDbEntity
  8
1
100
AcDbLine
 10
10.746207
 20
7.822123999999973
 30
0.0
 11
11.0062820000001
 21
8.249965999999972
 31
0.0
  0
LINE
  5
5A9
330
18
100
AcDbEntity
  8
1
100
AcDbLine
 10
11.5000000000001
 20
7.751832000000007
 30
0.0
 11
11.744923
 21
7.992734999999953
 31
0.0
  0
LINE
  5
5AA
330
18
100
AcDbEntity
  8
1
100
AcDbLine
 10
11.64898099999999
 20
7.858577000000963
 30
0.0
 11
11.61510200000009
 21
7.825270999999986
 31
0.0
  0
LINE
  5
5AB
330
18
100
AcDbEntity
  8
1
100
AcDbLine
 10
11.743651
 20
7.988416000000967
 30
0.0
 11
11.64898099999999
 21
7.858577000000963
 31
0.0
  0
LINE
  5
5AC
330
18
100
AcDbEntity
  8
1
100
AcDbLine
 10
11.5000000000001
 20
7.751950000000022
 30
0.0
 11
11.487897
 21
7.727201000000007
 31
0.0
  0
LINE
  5
5AD
330
18
100
AcDbEntity
  8
1
100
AcDbLine
 10
7.746245000000044
 20
7.811330000001021
 30
0.0
 11
7.476277000000038
 21
8.249965999999972
 31
0.0
  0
LINE
  5
5AE
330
18
100
AcDbEntity
  8
1
100
AcDbLine
 10
7.011991000000023
 20
7.709037999999992
 30
0.0
 11
7.000000000000113
 21
7.733649999999983
 31
0.0
  0
LINE
  5
5AF
330
18
100
AcDbEntity
  8
1
100
AcDbLine
 10
7.000000000000113
 20
7.733672999999953
 30
0.0
 11
6.739489999999989
 21
7.98718199999999
 31
0.0
  0
LINE
  5
5B0
330
18
100
AcDbEntity
  8
1
100
AcDbLine
 10
6.833816000000069
 20
7.857415000000997
 30
0.0
 11
6.738728999999977
 21
7.987241000000011
 31
0.0
  0
LINE
  5
5B1
330
18
100
AcDbEntity
  8
1
100
AcDbLine
 10
7.315757000000076
 20
7.519713999999957
 30
0.0
 11
7.034191000000021
 21
7.690550000000968
 31
0.0
  0
LINE
  5
5B2
330
18
100
AcDbEntity
  8
1
100
AcDbLine
 10
7.034191000000021
 20
7.690550000000968
 30
0.0
 11
6.833816000000069
 21
7.857415000000997
 31
0.0
  0
LINE
  5
5B3
330
18
100
AcDbEntity
  8
1
100
AcDbLine
 10
0.75
 20
8.25
 30
0.0
 11
12.5
 21
8.25
 31
0.0
  0
CIRCLE
  5
5B5
330
18
100
AcDbEntity
  8
1
100
AcDbCircle
 10
19.2500000000001
 20
0.0
 30
0.0
 40
4.25
  0
LINE
  5
5B6
330
18
100
AcDbEntity
  8
1
100
AcDbLine
 10
20.6933756729742
 20
0.0
 30
0.0
 11
19.9716878364871
 21
1.25
 31
0.0
  0
LINE
  5
5B7
330
18
100
AcDbEntity
  8
1
100
AcDbLine
 10
19.9716878364871
 20
1.25
 30
0.0
 11
18.52831216351311
 21
1.25
 31
0.0
  0
LINE
  5
5B8
330
18
100
AcDbEntity
  8
1
100
AcDbLine
 10
18.52831216351311
 20
1.25
 30
0.0
 11
17.806624327026
 21
0.0
 31
0.0
  0
LINE
  5
5B9
330
18
100
AcDbEntity
  8
1
100
AcDbLine
 10
17.806624327026
 20
0.0
 30
0.0
 11
18.52831216351311
 21
-1.25
 31
0.0
  0
LINE
  5
5BA
330
18
100
AcDbEntity
  8
1
100
AcDbLine
 10
18.52831216351311
 20
-1.25
 30
0.0
 11
19.9716878364871
 21
-1.25
 31
0.0
  0
LINE
  5
5BB
330
18
100
AcDbEntity
  8
1
100
AcDbLine
 10
19.9716878364871
 20
-1.25
 30
0.0
 11
20.6933756729742
 21
-0.0000000000000036
 31
0.0
  0
LINE
  5
5BC
330
18
100
AcDbEntity
  8
3
100
AcDbLine
 10
35.0
 20
-5.45112032742401
 30
0.0
 11
35.0
 21
-10.284551
 31
0.0
  0
LINE
  5
5BD
330
18
100
AcDbEntity
  8
3
100
AcDbLine
 10
12.5
 20
-8.25
 30
0.0
 11
12.5
 21
-9.378887999999989
 31
0.0
  0
LINE
  5
5BE
330
18
100
AcDbEntity
  8
3
100
AcDbLine
 10
27.75
 20
6.509774
 30
0.0
 11
27.75
 21
6.065449
 31
0.0
  0
LINE
  5
5BF
330
18
100
AcDbEntity
  8
3
100
AcDbLine
 10
25.5
 20
6.810000000000002
 30
0.0
 11
27.45
 21
6.810000000000002
 31
0.0
  0
LINE
  5
5C0
330
18
100
AcDbEntity
  8
3
100
AcDbLine
 10
12.65074899999999
 20
-9.533924999999982
 30
0.0
 11
12.5
 21
-9.378887999999989
 31
0.0
  0
LINE
  5
5C1
330
18
100
AcDbEntity
  8
3
100
AcDbLine
 10
12.8
 20
-9.679102000000035
 30
0.0
 11
34.50000000000012
 21
-9.679102000000035
 31
0.0
  0
LINE
  5
5C2
330
18
100
AcDbEntity
  8
3
100
AcDbLine
 10
34.50000000000012
 20
-9.679102000000035
 30
0.0
 11
34.50000000000012
 21
-2.648763000000059
 31
0.0
  0
ARC
  5
5C3
330
18
100
AcDbEntity
  8
3
100
AcDbCircle
 10
-36.75000000000011
 20
6.065449
 30
0.0
 40
8.99999948783021
210
0.0
220
0.0
230
-1.0
100
AcDbArc
 50
284.4775130278067
 51
0.0000000000002036
  0
ARC
  5
5C4
330
18
100
AcDbEntity
  8
3
100
AcDbCircle
 10
29.84
 20
-9.445234571828052
 30
0.0
 40
0.4
100
AcDbArc
 50
215.7795794828018
 51
259.9999999999998
  0
LINE
  5
5C5
330
18
100
AcDbEntity
  8
3
100
AcDbLine
 10
34.53054072893332
 20
-10.67847410120499
 30
0.0
 11
29.770540728933
 21
-9.839157673033021
 31
0.0
  0
ARC
  5
5C6
330
18
100
AcDbEntity
  8
3
100
AcDbCircle
 10
34.59999999999999
 20
-5.45112032742401
 30
0.0
 40
0.4
100
AcDbArc
 50
0.0
 51
64.07751998098316
  0
ARC
  5
5C7
330
18
100
AcDbEntity
  8
3
100
AcDbCircle
 10
34.59999999999999
 20
-10.284551
 30
0.0
 40
0.4
100
AcDbArc
 50
259.9999999999998
 51
0.0000000000002036
  0
LINE
  5
5C8
330
18
100
AcDbEntity
  8
3
100
AcDbLine
 10
12.5
 20
-8.679102000000028
 30
0.0
 11
25.5
 21
-8.679102000000028
 31
0.0
  0
LINE
  5
5C9
330
18
100
AcDbEntity
  8
3
100
AcDbLine
 10
25.5
 20
-8.679102000000028
 30
0.0
 11
25.5
 21
-6.809999999999998
 31
0.0
  0
ARC
  5
5CA
330
18
100
AcDbEntity
  8
3
100
AcDbCircle
 10
36.75000000000011
 20
-6.065449
 30
0.0
 40
8.99999948783021
100
AcDbArc
 50
104.4775130278067
 51
137.6282026943743
  0
LINE
  5
5CB
330
18
100
AcDbEntity
  8
3
100
AcDbLine
 10
35.0
 20
5.451120327424007
 30
0.0
 11
35.0
 21
10.284551
 31
0.0
  0
LINE
  5
5CC
330
18
100
AcDbEntity
  8
3
100
AcDbLine
 10
34.50000000000012
 20
5.02731698459906
 30
0.0
 11
34.50000000000012
 21
2.648763000000059
 31
0.0
  0
ARC
  5
5CD
330
18
100
AcDbEntity
  8
3
100
AcDbCircle
 10
-29.84
 20
9.445234571828052
 30
0.0
 40
0.4
210
0.0
220
0.0
230
-1.0
100
AcDbArc
 50
0.0
 51
80.00000000000063
  0
LINE
  5
5CE
330
18
100
AcDbEntity
  8
3
100
AcDbLine
 10
34.53054072893332
 20
10.67847410120499
 30
0.0
 11
29.770540728933
 21
9.839157673033021
 31
0.0
  0
LINE
  5
5CF
330
18
100
AcDbEntity
  8
3
100
AcDbLine
 10
29.44
 20
4.611803899252066
 30
0.0
 11
29.44
 21
9.445234571828052
 31
0.0
  0
ARC
  5
5D0
330
18
100
AcDbEntity
  8
3
100
AcDbCircle
 10
-29.84
 20
4.611803899252066
 30
0.0
 40
0.4
210
0.0
220
0.0
230
-1.0
100
AcDbArc
 50
259.999999999999
 51
0.0000000000002036
  0
LINE
  5
5D1
330
18
100
AcDbEntity
  8
3
100
AcDbLine
 10
34.66945927106678
 20
5.057197226219017
 30
0.0
 11
29.90945927106699
 21
4.217880798046991
 31
0.0
  0
ARC
  5
5D2
330
18
100
AcDbEntity
  8
3
100
AcDbCircle
 10
-34.59999999999999
 20
5.451120327424007
 30
0.0
 40
0.4
210
0.0
220
0.0
230
-1.0
100
AcDbArc
 50
180.0
 51
259.999999999999
  0
ARC
  5
5D3
330
18
100
AcDbEntity
  8
3
100
AcDbCircle
 10
-34.59999999999999
 20
10.284551
 30
0.0
 40
0.4
210
0.0
220
0.0
230
-1.0
100
AcDbArc
 50
80.00000000000063
 51
180.0000000000004
  0
LINE
  5
5D4
330
18
100
AcDbEntity
  8
3
100
AcDbLine
 10
12.65074899999999
 20
9.533924999999982
 30
0.0
 11
12.5
 21
9.378887999999989
 31
0.0
  0
LINE
  5
5D5
330
18
100
AcDbEntity
  8
3
100
AcDbLine
 10
12.8
 20
9.679102000000035
 30
0.0
 11
29.51549110021401
 21
9.679102000000035
 31
0.0
  0
LINE
  5
5D6
330
18
100
AcDbEntity
  8
3
100
AcDbLine
 10
12.5
 20
8.25
 30
0.0
 11
12.5
 21
9.378887999999989
 31
0.0
  0
DIMENSION
  5
5D7
330
18
100
AcDbEntity
  8
2
100
AcDbDimension
  2
*D7
 10
0.0000000000000014
 20
30.0
 30
0.0
 11
17.5
 21
30.0
 31
0.0
 70
   160
 71
     5
 42
35.0
  3
STANDARD
100
AcDbAlignedDimension
 13
35.0
 23
10.284551
 33
0.0
 14
0.0
 24
7.5
 34
0.0
 50
180.0
100
AcDbRotatedDimension
  0
LINE
  5
5D8
330
18
100
AcDbEntity
  8
3
100
AcDbLine
 10
34.77486187861831
 20
-5.09136579526897
 30
0.0
 11
34.50000000000012
 21
-5.042900230100389
 31
0.0
  0
DIMENSION
  5
5D9
330
18
100
AcDbEntity
  8
2
100
AcDbDimension
  2
*D8
 10
48.96293469468537
 20
10.67847410120499
 30
0.0
 11
48.96293469468537
 21
28.22014076787167
 31
0.0
 70
   160
  1
%%c18 - %%c24
 71
     5
 42
21.35694820240999
  3
STANDARD
100
AcDbAlignedDimension
 13
34.53054072893332
 23
-10.67847410120499
 33
0.0
 14
34.53054072893332
 24
10.67847410120499
 34
0.0
 50
90.0
100
AcDbRotatedDimension
  0
CIRCLE
  5
5DA
330
18
100
AcDbEntity
  8
3
100
AcDbCircle
 10
32.22
 20
7.448177449626058
 30
0.0
 40
1.0
  0
POLYLINE
  5
5DB
330
18
100
AcDbEntity
  8
1
100
AcDb3dPolyline
 66
     1
 10
0.0
 20
0.0
 30
0.0
 70
     8
  0
VERTEX
  5
5DC
330
5DB
100
AcDbEntity
  8
0
100
AcDbVertex
100
AcDb3dPolylineVertex
 10
11.744882
 20
7.992916000000953
 30
0.0
 70
    32
  0
VERTEX
  5
5DD
330
5DB
100
AcDbEntity
  8
0
100
AcDbVertex
100
AcDb3dPolylineVertex
 10
11.75325400000009
 20
8.096456999999986
 30
0.0
 70
    32
  0
VERTEX
  5
5DE
330
5DB
100
AcDbEntity
  8
0
100
AcDbVertex
100
AcDb3dPolylineVertex
 10
11.682851
 20
8.168833000000944
 30
0.0
 70
    32
  0
VERTEX
  5
5DF
330
5DB
100
AcDbEntity
  8
0
100
AcDbVertex
100
AcDb3dPolylineVertex
 10
11.536967
 20
8.216816999999991
 30
0.0
 70
    32
  0
VERTEX
  5
5E0
330
5DB
100
AcDbEntity
  8
0
100
AcDbVertex
100
AcDb3dPolylineVertex
 10
11.317712
 20
8.24259100000097
 30
0.0
 70
    32
  0
VERTEX
  5
5E1
330
5DB
100
AcDbEntity
  8
0
100
AcDbVertex
100
AcDb3dPolylineVertex
 10
11.0298530000001
 20
8.25
 30
0.0
 70
    32
  0
SEQEND
  5
5E2
330
5DB
100
AcDbEntity
  8
1
  0
POLYLINE
  5
5E3
330
18
100
AcDbEntity
  8
1
100
AcDb3dPolyline
 66
     1
 10
0.0
 20
0.0
 30
0.0
 70
     8
  0
VERTEX
  5
5E4
330
5E3
100
AcDbEntity
  8
0
100
AcDbVertex
100
AcDb3dPolylineVertex
 10
11.744882
 20
7.992916000000953
 30
0.0
 70
    32
  0
VERTEX
  5
5E5
330
5E3
100
AcDbEntity
  8
0
100
AcDbVertex
100
AcDb3dPolylineVertex
 10
11.74389999999999
 20
7.990567000000957
 30
0.0
 70
    32
  0
VERTEX
  5
5E6
330
5E3
100
AcDbEntity
  8
0
100
AcDbVertex
100
AcDb3dPolylineVertex
 10
11.74365799999999
 20
7.988428000000993
 30
0.0
 70
    32
  0
SEQEND
  5
5E7
330
5E3
100
AcDbEntity
  8
1
  0
POLYLINE
  5
5E8
330
18
100
AcDbEntity
  8
1
100
AcDb3dPolyline
 66
     1
 10
0.0
 20
0.0
 30
0.0
 70
     8
  0
VERTEX
  5
5E9
330
5E8
100
AcDbEntity
  8
0
100
AcDbVertex
100
AcDb3dPolylineVertex
 10
10.74624299999999
 20
7.822128999999989
 30
0.0
 70
    32
  0
VERTEX
  5
5EA
330
5E8
100
AcDbEntity
  8
0
100
AcDbVertex
100
AcDb3dPolylineVertex
 10
11.0123380000001
 20
7.847000000000008
 30
0.0
 70
    32
  0
VERTEX
  5
5EB
330
5E8
100
AcDbEntity
  8
0
100
AcDbVertex
100
AcDb3dPolylineVertex
 10
11.22300700000011
 20
7.855308000000007
 30
0.0
 70
    32
  0
VERTEX
  5
5EC
330
5E8
100
AcDbEntity
  8
0
100
AcDbVertex
100
AcDb3dPolylineVertex
 10
11.3757870000001
 20
7.842738000000991
 30
0.0
 70
    32
  0
VERTEX
  5
5ED
330
5E8
100
AcDbEntity
  8
0
100
AcDbVertex
100
AcDb3dPolylineVertex
 10
11.469137
 20
7.807888000000019
 30
0.0
 70
    32
  0
VERTEX
  5
5EE
330
5E8
100
AcDbEntity
  8
0
100
AcDbVertex
100
AcDb3dPolylineVertex
 10
11.5000000000001
 20
7.751831000000009
 30
0.0
 70
    32
  0
SEQEND
  5
5EF
330
5E8
100
AcDbEntity
  8
1
  0
POLYLINE
  5
5F0
330
18
100
AcDbEntity
  8
1
100
AcDb3dPolyline
 66
     1
 10
0.0
 20
0.0
 30
0.0
 70
     8
  0
VERTEX
  5
5F1
330
5F0
100
AcDbEntity
  8
0
100
AcDbVertex
100
AcDb3dPolylineVertex
 10
11.61510200000009
 20
7.825270999999986
 30
0.0
 70
    32
  0
VERTEX
  5
5F2
330
5F0
100
AcDbEntity
  8
0
100
AcDbVertex
100
AcDb3dPolylineVertex
 10
11.392528
 20
7.653673999999938
 30
0.0
 70
    32
  0
VERTEX
  5
5F3
330
5F0
100
AcDbEntity
  8
0
100
AcDbVertex
100
AcDb3dPolylineVertex
 10
11.09316100000009
 20
7.483283999999969
 30
0.0
 70
    32
  0
VERTEX
  5
5F4
330
5F0
100
AcDbEntity
  8
0
100
AcDbVertex
100
AcDb3dPolylineVertex
 10
10.72221300000009
 20
7.32403099999999
 30
0.0
 70
    32
  0
VERTEX
  5
5F5
330
5F0
100
AcDbEntity
  8
0
100
AcDbVertex
100
AcDb3dPolylineVertex
 10
10.3077600000001
 20
7.195434999999967
 30
0.0
 70
    32
  0
VERTEX
  5
5F6
330
5F0
100
AcDbEntity
  8
0
100
AcDbVertex
100
AcDb3dPolylineVertex
 10
9.870269000000121
 20
7.108561000000946
 30
0.0
 70
    32
  0
VERTEX
  5
5F7
330
5F0
100
AcDbEntity
  8
0
100
AcDbVertex
100
AcDb3dPolylineVertex
 10
9.417251000000078
 20
7.066943999999978
 30
0.0
 70
    32
  0
VERTEX
  5
5F8
330
5F0
100
AcDbEntity
  8
0
100
AcDbVertex
100
AcDb3dPolylineVertex
 10
8.964068000000054
 20
7.071474999999992
 30
0.0
 70
    32
  0
VERTEX
  5
5F9
330
5F0
100
AcDbEntity
  8
0
100
AcDbVertex
100
AcDb3dPolylineVertex
 10
8.51339200000001
 20
7.122606999999959
 30
0.0
 70
    32
  0
VERTEX
  5
5FA
330
5F0
100
AcDbEntity
  8
0
100
AcDbVertex
100
AcDb3dPolylineVertex
 10
8.081169000000045
 20
7.218671999999941
 30
0.0
 70
    32
  0
VERTEX
  5
5FB
330
5F0
100
AcDbEntity
  8
0
100
AcDbVertex
100
AcDb3dPolylineVertex
 10
7.674381000000039
 20
7.355317000001008
 30
0.0
 70
    32
  0
VERTEX
  5
5FC
330
5F0
100
AcDbEntity
  8
0
100
AcDbVertex
100
AcDb3dPolylineVertex
 10
7.315757000000076
 20
7.519713999999957
 30
0.0
 70
    32
  0
SEQEND
  5
5FD
330
5F0
100
AcDbEntity
  8
1
  0
POLYLINE
  5
5FE
330
18
100
AcDbEntity
  8
1
100
AcDb3dPolyline
 66
     1
 10
0.0
 20
0.0
 30
0.0
 70
     8
  0
VERTEX
  5
5FF
330
5FE
100
AcDbEntity
  8
0
100
AcDbVertex
100
AcDb3dPolylineVertex
 10
10.74624299999999
 20
7.822128999999989
 30
0.0
 70
    32
  0
VERTEX
  5
600
330
5FE
100
AcDbEntity
  8
0
100
AcDbVertex
100
AcDb3dPolylineVertex
 10
10.3631940000001
 20
7.780527000001001
 30
0.0
 70
    32
  0
VERTEX
  5
601
330
5FE
100
AcDbEntity
  8
0
100
AcDbVertex
100
AcDb3dPolylineVertex
 10
9.931820000000072
 20
7.741427000000044
 30
0.0
 70
    32
  0
VERTEX
  5
602
330
5FE
100
AcDbEntity
  8
0
100
AcDbVertex
100
AcDb3dPolylineVertex
 10
9.475917000000038
 20
7.717444000001002
 30
0.0
 70
    32
  0
VERTEX
  5
603
330
5FE
100
AcDbEntity
  8
0
100
AcDbVertex
100
AcDb3dPolylineVertex
 10
9.013701000000025
 20
7.71582699999999
 30
0.0
 70
    32
  0
VERTEX
  5
604
330
5FE
100
AcDbEntity
  8
0
100
AcDbVertex
100
AcDb3dPolylineVertex
 10
8.558335000000113
 20
7.736607999999989
 30
0.0
 70
    32
  0
VERTEX
  5
605
330
5FE
100
AcDbEntity
  8
0
100
AcDbVertex
100
AcDb3dPolylineVertex
 10
8.127961000000084
 20
7.772610999999983
 30
0.0
 70
    32
  0
VERTEX
  5
606
330
5FE
100
AcDbEntity
  8
0
100
AcDbVertex
100
AcDb3dPolylineVertex
 10
7.746243000000049
 20
7.811330000001021
 30
0.0
 70
    32
  0
SEQEND
  5
607
330
5FE
100
AcDbEntity
  8
1
  0
POLYLINE
  5
608
330
18
100
AcDbEntity
  8
1
100
AcDb3dPolyline
 66
     1
 10
0.0
 20
0.0
 30
0.0
 70
     8
  0
VERTEX
  5
609
330
608
100
AcDbEntity
  8
0
100
AcDbVertex
100
AcDb3dPolylineVertex
 10
7.453839000000073
 20
8.25
 30
0.0
 70
    32
  0
VERTEX
  5
60A
330
608
100
AcDbEntity
  8
0
100
AcDbVertex
100
AcDb3dPolylineVertex
 10
7.164788000000044
 20
8.242538999999993
 30
0.0
 70
    32
  0
VERTEX
  5
60B
330
608
100
AcDbEntity
  8
0
100
AcDbVertex
100
AcDb3dPolylineVertex
 10
6.94480400000009
 20
8.216577999999969
 30
0.0
 70
    32
  0
VERTEX
  5
60C
330
608
100
AcDbEntity
  8
0
100
AcDbVertex
100
AcDb3dPolylineVertex
 10
6.798629000000062
 20
8.168184999999937
 30
0.0
 70
    32
  0
VERTEX
  5
60D
330
608
100
AcDbEntity
  8
0
100
AcDbVertex
100
AcDb3dPolylineVertex
 10
6.728564000000005
 20
8.095108999999979
 30
0.0
 70
    32
  0
VERTEX
  5
60E
330
608
100
AcDbEntity
  8
0
100
AcDbVertex
100
AcDb3dPolylineVertex
 10
6.737797000000057
 20
7.98777099999998
 30
0.0
 70
    32
  0
SEQEND
  5
60F
330
608
100
AcDbEntity
  8
1
  0
POLYLINE
  5
610
330
18
100
AcDbEntity
  8
1
100
AcDb3dPolyline
 66
     1
 10
0.0
 20
0.0
 30
0.0
 70
     8
  0
VERTEX
  5
611
330
610
100
AcDbEntity
  8
0
100
AcDbVertex
100
AcDb3dPolylineVertex
 10
7.476244000000065
 20
8.249966999999998
 30
0.0
 70
    32
  0
VERTEX
  5
612
330
610
100
AcDbEntity
  8
0
100
AcDbVertex
100
AcDb3dPolylineVertex
 10
7.855248000000074
 20
8.243063999999982
 30
0.0
 70
    32
  0
VERTEX
  5
613
330
610
100
AcDbEntity
  8
0
100
AcDbVertex
100
AcDb3dPolylineVertex
 10
8.290531999999984
 20
8.229798999999985
 30
0.0
 70
    32
  0
VERTEX
  5
614
330
610
100
AcDbEntity
  8
0
100
AcDbVertex
100
AcDb3dPolylineVertex
 10
8.757628000000067
 20
8.218178999999963
 30
0.0
 70
    32
  0
VERTEX
  5
615
330
610
100
AcDbEntity
  8
0
100
AcDbVertex
100
AcDb3dPolylineVertex
 10
9.241165000000009
 20
8.213622999999955
 30
0.0
 70
    32
  0
VERTEX
  5
616
330
610
100
AcDbEntity
  8
0
100
AcDbVertex
100
AcDb3dPolylineVertex
 10
9.724758000000065
 20
8.218146999999987
 30
0.0
 70
    32
  0
VERTEX
  5
617
330
610
100
AcDbEntity
  8
0
100
AcDbVertex
100
AcDb3dPolylineVertex
 10
10.19138599999999
 20
8.229736000000968
 30
0.0
 70
    32
  0
VERTEX
  5
618
330
610
100
AcDbEntity
  8
0
100
AcDbVertex
100
AcDb3dPolylineVertex
 10
10.626382
 20
8.242998000000987
 30
0.0
 70
    32
  0
VERTEX
  5
619
330
610
100
AcDbEntity
  8
0
100
AcDbVertex
100
AcDb3dPolylineVertex
 10
11.00636900000009
 20
8.249962999999979
 30
0.0
 70
    32
  0
SEQEND
  5
61A
330
610
100
AcDbEntity
  8
1
  0
POLYLINE
  5
61B
330
18
100
AcDbEntity
  8
1
100
AcDb3dPolyline
 66
     1
 10
0.0
 20
0.0
 30
0.0
 70
     8
  0
VERTEX
  5
61C
330
61B
100
AcDbEntity
  8
0
100
AcDbVertex
100
AcDb3dPolylineVertex
 10
7.746243000000049
 20
7.811330000001021
 30
0.0
 70
    32
  0
VERTEX
  5
61D
330
61B
100
AcDbEntity
  8
0
100
AcDbVertex
100
AcDb3dPolylineVertex
 10
7.485422000000028
 20
7.833766999999973
 30
0.0
 70
    32
  0
VERTEX
  5
61E
330
61B
100
AcDbEntity
  8
0
100
AcDbVertex
100
AcDb3dPolylineVertex
 10
7.276389999999992
 20
7.840402000000011
 30
0.0
 70
    32
  0
VERTEX
  5
61F
330
61B
100
AcDbEntity
  8
0
100
AcDbVertex
100
AcDb3dPolylineVertex
 10
7.124028000000066
 20
7.826566999999982
 30
0.0
 70
    32
  0
VERTEX
  5
620
330
61B
100
AcDbEntity
  8
0
100
AcDbVertex
100
AcDb3dPolylineVertex
 10
7.030977000000063
 20
7.790740999999997
 30
0.0
 70
    32
  0
VERTEX
  5
621
330
61B
100
AcDbEntity
  8
0
100
AcDbVertex
100
AcDb3dPolylineVertex
 10
7.000000000000113
 20
7.733679000000961
 30
0.0
 70
    32
  0
SEQEND
  5
622
330
61B
100
AcDbEntity
  8
1
  0
POLYLINE
  5
623
330
18
100
AcDbEntity
  8
3
100
AcDb3dPolyline
 66
     1
 10
0.0
 20
0.0
 30
0.0
 70
     8
  0
VERTEX
  5
624
330
623
100
AcDbEntity
  8
3
100
AcDbVertex
100
AcDb3dPolylineVertex
 10
12.65074899999999
 20
-9.533924999999982
 30
0.0
 70
    32
  0
VERTEX
  5
625
330
623
100
AcDbEntity
  8
3
100
AcDbVertex
100
AcDb3dPolylineVertex
 10
12.749601
 20
-9.630363000000052
 30
0.0
 70
    32
  0
VERTEX
  5
626
330
623
100
AcDbEntity
  8
3
100
AcDbVertex
100
AcDb3dPolylineVertex
 10
12.8
 20
-9.679102000000035
 30
0.0
 70
    32
  0
SEQEND
  5
627
330
623
100
AcDbEntity
  8
3
  0
POLYLINE
  5
628
330
18
100
AcDbEntity
  8
3
100
AcDb3dPolyline
 66
     1
 10
0.0
 20
0.0
 30
0.0
 70
     8
  0
VERTEX
  5
629
330
628
100
AcDbEntity
  8
3
100
AcDbVertex
100
AcDb3dPolylineVertex
 10
27.75
 20
6.509774
 30
0.0
 70
    32
  0
VERTEX
  5
62A
330
628
100
AcDbEntity
  8
3
100
AcDbVertex
100
AcDb3dPolylineVertex
 10
27.649973
 20
6.612991
 30
0.0
 70
    32
  0
VERTEX
  5
62B
330
628
100
AcDbEntity
  8
3
100
AcDbVertex
100
AcDb3dPolylineVertex
 10
27.59925
 20
6.664824000000002
 30
0.0
 70
    32
  0
SEQEND
  5
62C
330
628
100
AcDbEntity
  8
3
  0
POLYLINE
  5
62D
330
18
100
AcDbEntity
  8
3
100
AcDb3dPolyline
 66
     1
 10
0.0
 20
0.0
 30
0.0
 70
     8
  0
VERTEX
  5
62E
330
62D
100
AcDbEntity
  8
3
100
AcDbVertex
100
AcDb3dPolylineVertex
 10
27.59925
 20
6.664824000000002
 30
0.0
 70
    32
  0
VERTEX
  5
62F
330
62D
100
AcDbEntity
  8
3
100
AcDbVertex
100
AcDb3dPolylineVertex
 10
27.50039800000001
 20
6.761260999999997
 30
0.0
 70
    32
  0
VERTEX
  5
630
330
62D
100
AcDbEntity
  8
3
100
AcDbVertex
100
AcDb3dPolylineVertex
 10
27.45
 20
6.810000000000002
 30
0.0
 70
    32
  0
SEQEND
  5
631
330
62D
100
AcDbEntity
  8
3
  0
POLYLINE
  5
632
330
18
100
AcDbEntity
  8
3
100
AcDb3dPolyline
 66
     1
 10
0.0
 20
0.0
 30
0.0
 70
     8
  0
VERTEX
  5
633
330
632
100
AcDbEntity
  8
3
100
AcDbVertex
100
AcDb3dPolylineVertex
 10
12.65074899999999
 20
9.533924999999982
 30
0.0
 70
    32
  0
VERTEX
  5
634
330
632
100
AcDbEntity
  8
3
100
AcDbVertex
100
AcDb3dPolylineVertex
 10
12.749601
 20
9.630363000000052
 30
0.0
 70
    32
  0
VERTEX
  5
635
330
632
100
AcDbEntity
  8
3
100
AcDbVertex
100
AcDb3dPolylineVertex
 10
12.8
 20
9.679102000000035
 30
0.0
 70
    32
  0
SEQEND
  5
636
330
632
100
AcDbEntity
  8
3
  0
LINE
  5
7B0
330
18
100
AcDbEntity
  8
4
100
AcDbLine
 10
-3.722613069265207
 20
0.0
 30
0.0
 11
28.5447397914608
 21
0.0
 31
0.0
  0
TEXT
  5
811
330
18
100
AcDbEntity
  8
SK6
100
AcDbText
 10
-12.0
 20
-20.21319044684128
 30
0.0
 40
3.5
  1
A75000
  7
SIMPLEX
100
AcDbText
  0
TEXT
  5
812
330
18
100
AcDbEntity
  8
SK6
100
AcDbText
 10
-12.40601762085881
 20
-27.20061498136724
 30
0.0
 40
3.5
  1
00026687
  7
SIMPLEX
100
AcDbText
  0
ENDSEC
  0
SECTION
  2
OBJECTS
  0
DICTIONARY
  5
C
330
0
100
AcDbDictionary
281
     1
  3
ACAD_COLOR
350
387
  3
ACAD_GROUP
350
D
  3
ACAD_LAYOUT
350
301
  3
ACAD_MATERIAL
350
386
  3
ACAD_MLINESTYLE
350
E
  3
ACAD_PLOTSETTINGS
350
302
  3
ACAD_PLOTSTYLENAME
350
2FF
  3
ACAD_TABLESTYLE
350
388
  3
ACAD_VISUALSTYLE
350
3F2
  3
AcDbVariableDictionary
350
357
  3
DWGPROPS
350
84A
  0
DICTIONARY
  5
43C
330
2
100
AcDbDictionary
280
     1
281
     1
  3
ACAD_LAYERFILTERS
360
445
  3
ACLYDICTIONARY
360
444
  0
DICTIONARY
  5
387
102
{ACAD_REACTORS
330
C
102
}
330
C
100
AcDbDictionary
281
     1
  0
DICTIONARY
  5
D
102
{ACAD_REACTORS
330
C
102
}
330
C
100
AcDbDictionary
281
     1
  0
DICTIONARY
  5
301
102
{ACAD_REACTORS
330
C
102
}
330
C
100
AcDbDictionary
281
     1
  3
Layout1
350
33B
  3
Model
350
303
  0
DICTIONARY
  5
386
102
{ACAD_REACTORS
330
C
102
}
330
C
100
AcDbDictionary
281
     1
  3
ByBlock
350
3F0
  3
ByLayer
350
3EF
  3
Global
350
3F1
  0
DICTIONARY
  5
E
102
{ACAD_REACTORS
330
C
102
}
330
C
100
AcDbDictionary
281
     1
  3
STANDARD
350
1B
  0
DICTIONARY
  5
302
102
{ACAD_REACTORS
330
C
102
}
330
C
100
AcDbDictionary
281
     1
  0
ACDBDICTIONARYWDFLT
  5
2FF
102
{ACAD_REACTORS
330
C
102
}
330
C
100
AcDbDictionary
281
     1
  3
Normal
350
300
100
AcDbDictionaryWithDefault
340
300
  0
DICTIONARY
  5
388
102
{ACAD_REACTORS
330
C
102
}
330
C
100
AcDbDictionary
281
     1
  3
Standard
350
389
  0
DICTIONARY
  5
3F2
102
{ACAD_REACTORS
330
C
102
}
330
C
100
AcDbDictionary
281
     1
  3
2dWireframe
350
3F8
  3
3D Hidden
350
3FA
  3
3dWireframe
350
3F9
  3
Basic
350
3F7
  3
Brighten
350
3FE
  3
ColorChange
350
402
  3
Conceptual
350
3FB
  3
Dim
350
3FD
  3
Facepattern
350
401
  3
Flat
350
3F3
  3
FlatWithEdges
350
3F4
  3
Gouraud
350
3F5
  3
GouraudWithEdges
350
3F6
  3
Linepattern
350
400
  3
Realistic
350
3FC
  3
Thicken
350
3FF
  0
DICTIONARY
  5
357
102
{ACAD_REACTORS
330
C
102
}
330
C
100
AcDbDictionary
281
     1
  3
CTABLESTYLE
350
38E
  3
DIMASSOC
350
359
  3
HIDETEXT
350
358
  3
INDEXCTL
350
814
  3
SORTENTS
350
813
  0
XRECORD
  5
84A
102
{ACAD_REACTORS
330
C
102
}
330
C
100
AcDbXrecord
280
     1
  1
DWGPROPS COOKIE
  2

  3

  4

  6

  7

  8
deerkdanf
  9

300
=
301
=
302
=
303
=
304
=
305
=
306
=
307
=
308
=
309
=
 40
0.0119227430555556
 41
2454664.482955614
 42
2454664.494878356
  1

 90
        0
  0
DICTIONARY
  5
445
102
{ACAD_REACTORS
330
43C
102
}
330
43C
100
AcDbDictionary
281
     1
  0
DICTIONARY
  5
444
102
{ACAD_REACTORS
330
43C
102
}
330
43C
100
AcDbDictionary
281
     1
1001
ACAD
1000
<All
  0
LAYOUT
  5
33B
102
{ACAD_XDICTIONARY
360
84D
102
}
102
{ACAD_REACTORS
330
301
102
}
330
301
100
AcDbPlotSettings
  1

  2
Lexmark Optra PS2
  4

  6

 40
0.0
 41
0.0
 42
0.0
 43
0.0
 44
0.0
 45
0.0
 46
0.0
 47
0.0
 48
0.0
 49
0.0
140
0.0
141
0.0
142
1.0
143
1.0
 70
   688
 72
     0
 73
     0
 74
     5
  7
monochrome.ctb
 75
    16
147
1.0
148
0.0
149
0.0
100
AcDbLayout
  1
Layout1
 70
     1
 71
     1
 10
0.0
 20
0.0
 11
12.0
 21
9.0
 12
0.0
 22
0.0
 32
0.0
 14
0.0
 24
0.0
 34
0.0
 15
0.0
 25
0.0
 35
0.0
146
0.0
 13
0.0
 23
0.0
 33
0.0
 16
1.0
 26
0.0
 36
0.0
 17
0.0
 27
1.0
 37
0.0
 76
     0
330
338
  0
LAYOUT
  5
303
102
{ACAD_XDICTIONARY
360
84B
102
}
102
{ACAD_REACTORS
330
301
102
}
330
301
100
AcDbPlotSettings
  1

  2
Default Windows System Printer.pc3
  4
A4
  6

 40
6.805083274841308
 41
5.535083293914794
 42
6.974411010742187
 43
7.14373779296875
 44
209.9733276367187
 45
296.9259948730469
 46
67.83299579489725
 47
0.0
 48
0.0
 49
0.0
140
0.0
141
0.0
142
1.0
143
0.3604333568168785
 70
  3764
 72
     1
 73
     1
 74
     1
  7
monochrome.ctb
 75
     0
147
2.774437995504559
148
-82.35087775247029
149
-53.69369632994494
100
AcDbLayout
  1
Model
 70
     1
 71
     0
 10
0.0
 20
0.0
 11
12.0
 21
9.0
 12
0.0
 22
0.0
 32
0.0
 14
0.0
 24
0.0
 34
0.0
 15
0.0
 25
0.0
 35
0.0
146
0.0
 13
0.0
 23
0.0
 33
0.0
 16
1.0
 26
0.0
 36
0.0
 17
0.0
 27
1.0
 37
0.0
 76
     0
330
18
331
3ED
1001
ACAD_PSEXT
1000
Default Windows System Printer.pc3
1000
Lexmark Optra Rx
1000
Lexmark Rx
1000
Erstellt von Lexmark Benutzerdefinierte Installation,Nov 13,2005,10:03
1070
     0
  0
MATERIAL
  5
3F0
102
{ACAD_XDICTIONARY
360
853
102
}
102
{ACAD_REACTORS
330
386
102
}
330
386
100
AcDbMaterial
  1
ByBlock
  0
MATERIAL
  5
3EF
102
{ACAD_XDICTIONARY
360
851
102
}
102
{ACAD_REACTORS
330
386
102
}
330
386
100
AcDbMaterial
  1
ByLayer
  0
MATERIAL
  5
3F1
102
{ACAD_XDICTIONARY
360
855
102
}
102
{ACAD_REACTORS
330
386
102
}
330
386
100
AcDbMaterial
  1
Global
  0
MLINESTYLE
  5
1B
102
{ACAD_REACTORS
330
E
102
}
330
E
100
AcDbMlineStyle
  2
STANDARD
 70
     0
  3

 62
     0
 51
90.0
 52
90.0
 71
     2
 49
0.5
 62
   256
  6
BYLAYER
 49
-0.5
 62
   256
  6
BYLAYER
  0
ACDBPLACEHOLDER
  5
300
102
{ACAD_REACTORS
330
2FF
102
}
330
2FF
  0
TABLESTYLE
  5
389
102
{ACAD_XDICTIONARY
360
84F
102
}
102
{ACAD_REACTORS
330
388
102
}
330
388
100
AcDbTableStyle
  3
Standard
 70
     0
 71
     0
 40
1.5
 41
1.5
280
     0
281
     0
  7
STANDARD
140
4.5
170
     2
 62
     0
 63
     7
283
     0
274
    -2
284
     1
 64
     0
275
    -2
285
     1
 65
     0
276
    -2
286
     1
 66
     0
277
    -2
287
     1
 67
     0
278
    -2
288
     1
 68
     0
279
    -2
289
     1
 69
     0
  7
STANDARD
140
6.0
170
     5
 62
     0
 63
     7
283
     0
274
    -2
284
     1
 64
     0
275
    -2
285
     1
 65
     0
276
    -2
286
     1
 66
     0
277
    -2
287
     1
 67
     0
278
    -2
288
     1
 68
     0
279
    -2
289
     1
 69
     0
  7
STANDARD
140
4.5
170
     5
 62
     0
 63
     7
283
     0
274
    -2
284
     1
 64
     0
275
    -2
285
     1
 65
     0
276
    -2
286
     1
 66
     0
277
    -2
287
     1
 67
     0
278
    -2
288
     1
 68
     0
279
    -2
289
     1
 69
     0
  0
VISUALSTYLE
  5
3F8
102
{ACAD_REACTORS
330
3F2
102
}
330
3F2
100
AcDbVisualStyle
  2
2dWireframe
 70
     4
 71
     0
 72
     2
 73
     0
 90
        0
 40
-0.6
 41
-30.0
 62
     5
 63
     7
 74
     1
 91
        4
 64
     7
 65
   257
 75
     1
175
     1
 42
1.0
 92
        0
 66
   257
 43
1.0
 76
     1
 77
     6
 78
     2
 67
     7
 79
     5
170
     0
171
     0
290
     0
174
     0
 93
        1
 44
0.0
173
     0
291
     0
 45
0.0
1001
ACAD
1000
AcDbSavedByObjectVersion
1070
     0
  0
VISUALSTYLE
  5
3FA
102
{ACAD_REACTORS
330
3F2
102
}
330
3F2
100
AcDbVisualStyle
  2
3D Hidden
 70
     6
 71
     1
 72
     2
 73
     2
 90
        0
 40
-0.6
 41
-30.0
 62
     5
 63
     7
 74
     2
 91
        2
 64
     7
 65
   257
 75
     2
175
     1
 42
40.0
 92
        0
 66
   257
 43
1.0
 76
     1
 77
     6
 78
     2
 67
     7
 79
     3
170
     0
171
     0
290
     0
174
     0
 93
        1
 44
0.0
173
     0
291
     0
 45
0.0
1001
ACAD
1000
AcDbSavedByObjectVersion
1070
     0
  0
VISUALSTYLE
  5
3F9
102
{ACAD_REACTORS
330
3F2
102
}
330
3F2
100
AcDbVisualStyle
  2
3dWireframe
 70
     5
 71
     0
 72
     2
 73
     0
 90
        0
 40
-0.6
 41
-30.0
 62
     5
 63
     7
 74
     1
 91
        4
 64
     7
 65
   257
 75
     1
175
     1
 42
1.0
 92
        0
 66
   257
 43
1.0
 76
     1
 77
     6
 78
     2
 67
     7
 79
     5
170
     0
171
     0
290
     0
174
     0
 93
        1
 44
0.0
173
     0
291
     0
 45
0.0
1001
ACAD
1000
AcDbSavedByObjectVersion
1070
     0
  0
VISUALSTYLE
  5
3F7
102
{ACAD_REACTORS
330
3F2
102
}
330
3F2
100
AcDbVisualStyle
  2
Basic
 70
     7
 71
     1
 72
     0
 73
     1
 90
        0
 40
-0.6
 41
-30.0
 62
     5
 63
     7
 74
     0
 91
        4
 64
     7
 65
   257
 75
     1
175
     1
 42
1.0
 92
        8
 66
     7
 43
1.0
 76
     1
 77
     6
 78
     2
 67
     7
 79
     5
170
     0
171
     0
290
     0
174
     0
 93
        1
 44
0.0
173
     0
291
     1
 45
0.0
1001
ACAD
1000
AcDbSavedByObjectVersion
1070
     0
  0
VISUALSTYLE
  5
3FE
102
{ACAD_REACTORS
330
3F2
102
}
330
3F2
100
AcDbVisualStyle
  2
Brighten
 70
    12
 71
     2
 72
     2
 73
     0
 90
        0
 40
-0.6
 41
-30.0
 62
     5
 63
     7
 74
     1
 91
        4
 64
     7
 65
   257
 75
     1
175
     1
 42
1.0
 92
        8
 66
     7
 43
1.0
 76
     1
 77
     6
 78
     2
 67
     7
 79
     5
170
     0
171
     0
290
     0
174
     0
 93
        1
 44
50.0
173
     0
291
     1
 45
0.0
1001
ACAD
1000
AcDbSavedByObjectVersion
1070
     0
  0
VISUALSTYLE
  5
402
102
{ACAD_REACTORS
330
3F2
102
}
330
3F2
100
AcDbVisualStyle
  2
ColorChange
 70
    16
 71
     2
 72
     2
 73
     3
 90
        0
 40
-0.6
 41
-30.0
 62
     5
 63
     8
 74
     1
 91
        4
 64
     7
 65
   257
 75
     1
175
     1
 42
1.0
 92
        8
 66
     8
 43
1.0
 76
     1
 77
     6
 78
     2
 67
     7
 79
     5
170
     0
171
     0
290
     0
174
     0
 93
        1
 44
0.0
173
     0
291
     1
 45
0.0
1001
ACAD
1000
AcDbSavedByObjectVersion
1070
     0
  0
VISUALSTYLE
  5
3FB
102
{ACAD_REACTORS
330
3F2
102
}
330
3F2
100
AcDbVisualStyle
  2
Conceptual
 70
     9
 71
     3
 72
     2
 73
     0
 90
        0
 40
-0.6
 41
-30.0
 62
     5
 63
     7
 74
     2
 91
        2
 64
     7
 65
   257
 75
     1
175
     1
 42
40.0
 92
        8
 66
     7
 43
1.0
 76
     1
 77
     6
 78
     2
 67
     7
 79
     3
170
     0
171
     0
290
     0
174
     0
 93
        1
 44
0.0
173
     0
291
     0
 45
0.0
1001
ACAD
1000
AcDbSavedByObjectVersion
1070
     0
  0
VISUALSTYLE
  5
3FD
102
{ACAD_REACTORS
330
3F2
102
}
330
3F2
100
AcDbVisualStyle
  2
Dim
 70
    11
 71
     2
 72
     2
 73
     0
 90
        0
 40
-0.6
 41
-30.0
 62
     5
 63
     7
 74
     1
 91
        4
 64
     7
 65
   257
 75
     1
175
     1
 42
1.0
 92
        8
 66
     7
 43
1.0
 76
     1
 77
     6
 78
     2
 67
     7
 79
     5
170
     0
171
     0
290
     0
174
     0
 93
        1
 44
-50.0
173
     0
291
     1
 45
0.0
1001
ACAD
1000
AcDbSavedByObjectVersion
1070
     0
  0
VISUALSTYLE
  5
401
102
{ACAD_REACTORS
330
3F2
102
}
330
3F2
100
AcDbVisualStyle
  2
Facepattern
 70
    15
 71
     2
 72
     2
 73
     0
 90
        0
 40
-0.6
 41
-30.0
 62
     5
 63
     7
 74
     1
 91
        4
 64
     7
 65
   257
 75
     1
175
     1
 42
1.0
 92
        8
 66
     7
 43
1.0
 76
     1
 77
     6
 78
     2
 67
     7
 79
     5
170
     0
171
     0
290
     0
174
     0
 93
        1
 44
0.0
173
     0
291
     1
 45
0.0
1001
ACAD
1000
AcDbSavedByObjectVersion
1070
     0
  0
VISUALSTYLE
  5
3F3
102
{ACAD_REACTORS
330
3F2
102
}
330
3F2
100
AcDbVisualStyle
  2
Flat
 70
     0
 71
     2
 72
     1
 73
     1
 90
        2
 40
-0.6
 41
30.0
 62
     5
 63
     7
 74
     0
 91
        4
 64
     7
 65
   257
 75
     1
175
     1
 42
1.0
 92
        8
 66
     7
 43
1.0
 76
     1
 77
     6
 78
     2
 67
     7
 79
     5
170
     0
171
     0
290
     0
174
     0
 93
       13
 44
0.0
173
     0
291
     1
 45
0.0
1001
ACAD
1000
AcDbSavedByObjectVersion
1070
     0
  0
VISUALSTYLE
  5
3F4
102
{ACAD_REACTORS
330
3F2
102
}
330
3F2
100
AcDbVisualStyle
  2
FlatWithEdges
 70
     1
 71
     2
 72
     1
 73
     1
 90
        2
 40
-0.6
 41
30.0
 62
     5
 63
     7
 74
     1
 91
        4
 64
     7
 65
   257
 75
     1
175
     1
 42
1.0
 92
        0
 66
   257
 43
1.0
 76
     1
 77
     6
 78
     2
 67
     7
 79
     5
170
     0
171
     0
290
     0
174
     0
 93
       13
 44
0.0
173
     0
291
     1
 45
0.0
1001
ACAD
1000
AcDbSavedByObjectVersion
1070
     0
  0
VISUALSTYLE
  5
3F5
102
{ACAD_REACTORS
330
3F2
102
}
330
3F2
100
AcDbVisualStyle
  2
Gouraud
 70
     2
 71
     2
 72
     2
 73
     1
 90
        2
 40
-0.6
 41
30.0
 62
     5
 63
     7
 74
     0
 91
        4
 64
     7
 65
   257
 75
     1
175
     1
 42
1.0
 92
        0
 66
     7
 43
1.0
 76
     1
 77
     6
 78
     2
 67
     7
 79
     5
170
     0
171
     0
290
     0
174
     0
 93
       13
 44
0.0
173
     0
291
     1
 45
0.0
1001
ACAD
1000
AcDbSavedByObjectVersion
1070
     0
  0
VISUALSTYLE
  5
3F6
102
{ACAD_REACTORS
330
3F2
102
}
330
3F2
100
AcDbVisualStyle
  2
GouraudWithEdges
 70
     3
 71
     2
 72
     2
 73
     1
 90
        2
 40
-0.6
 41
30.0
 62
     5
 63
     7
 74
     1
 91
        4
 64
     7
 65
   257
 75
     1
175
     1
 42
1.0
 92
        0
 66
   257
 43
1.0
 76
     1
 77
     6
 78
     2
 67
     7
 79
     5
170
     0
171
     0
290
     0
174
     0
 93
       13
 44
0.0
173
     0
291
     1
 45
0.0
1001
ACAD
1000
AcDbSavedByObjectVersion
1070
     0
  0
VISUALSTYLE
  5
400
102
{ACAD_REACTORS
330
3F2
102
}
330
3F2
100
AcDbVisualStyle
  2
Linepattern
 70
    14
 71
     2
 72
     2
 73
     0
 90
        0
 40
-0.6
 41
-30.0
 62
     5
 63
     7
 74
     1
 91
        4
 64
     7
 65
   257
 75
     7
175
     7
 42
1.0
 92
        8
 66
     7
 43
1.0
 76
     1
 77
     6
 78
     2
 67
     7
 79
     5
170
     0
171
     0
290
     0
174
     0
 93
        1
 44
0.0
173
     0
291
     1
 45
0.0
1001
ACAD
1000
AcDbSavedByObjectVersion
1070
     0
  0
VISUALSTYLE
  5
3FC
102
{ACAD_REACTORS
330
3F2
102
}
330
3F2
100
AcDbVisualStyle
  2
Realistic
 70
     8
 71
     2
 72
     2
 73
     0
 90
        0
 40
-0.6
 41
-30.0
 62
     5
 63
     7
 74
     1
 91
        0
 64
     7
 65
   257
 75
     1
175
     1
 42
1.0
 92
        8
 66
     8
 43
1.0
 76
     1
 77
     6
 78
     2
 67
     7
 79
     5
170
     0
171
     0
290
     0
174
     0
 93
       13
 44
0.0
173
     0
291
     0
 45
0.0
1001
ACAD
1000
AcDbSavedByObjectVersion
1070
     0
  0
VISUALSTYLE
  5
3FF
102
{ACAD_REACTORS
330
3F2
102
}
330
3F2
100
AcDbVisualStyle
  2
Thicken
 70
    13
 71
     2
 72
     2
 73
     0
 90
        0
 40
-0.6
 41
-30.0
 62
     5
 63
     7
 74
     1
 91
        4
 64
     7
 65
   257
 75
     1
175
     1
 42
1.0
 92
       12
 66
     7
 43
1.0
 76
     1
 77
     6
 78
     2
 67
     7
 79
     5
170
     0
171
     0
290
     0
174
     0
 93
        1
 44
0.0
173
     0
291
     1
 45
0.0
1001
ACAD
1000
AcDbSavedByObjectVersion
1070
     0
  0
DICTIONARYVAR
  5
38E
102
{ACAD_REACTORS
330
357
102
}
330
357
100
DictionaryVariables
280
     0
  1
STANDARD
  0
DICTIONARYVAR
  5
359
102
{ACAD_REACTORS
330
357
102
}
330
357
100
DictionaryVariables
280
     0
  1
2
  0
DICTIONARYVAR
  5
358
102
{ACAD_REACTORS
330
357
102
}
330
357
100
DictionaryVariables
280
     0
  1
1
  0
DICTIONARYVAR
  5
814
102
{ACAD_REACTORS
330
357
102
}
330
357
100
DictionaryVariables
280
     0
  1
0
  0
DICTIONARYVAR
  5
813
102
{ACAD_REACTORS
330
357
102
}
330
357
100
DictionaryVariables
280
     0
  1
127
  0
DICTIONARY
  5
84D
330
33B
100
AcDbDictionary
280
     1
281
     1
  3
ACAD_XREC_ROUNDTRIP
360
84E
  0
DICTIONARY
  5
84B
330
303
100
AcDbDictionary
280
     1
281
     1
  3
ACAD_XREC_ROUNDTRIP
360
84C
  0
DICTIONARY
  5
853
330
3F0
100
AcDbDictionary
280
     1
281
     1
  3
ACAD_XREC_ROUNDTRIP
360
854
  0
DICTIONARY
  5
851
330
3EF
100
AcDbDictionary
280
     1
281
     1
  3
ACAD_XREC_ROUNDTRIP
360
852
  0
DICTIONARY
  5
855
330
3F1
100
AcDbDictionary
280
     1
281
     1
  3
ACAD_XREC_ROUNDTRIP
360
856
  0
DICTIONARY
  5
84F
330
389
100
AcDbDictionary
280
     1
281
     1
  3
ACAD_XREC_ROUNDTRIP
360
850
  0
XRECORD
  5
84E
102
{ACAD_REACTORS
330
84D
102
}
330
84D
100
AcDbXrecord
280
     1
102
SHADEPLOT
 70
     0
102
SHADEPLOTRESLEVEL
 70
     2
102
SHADEPLOTCUSTOMDPI
 70
   300
  0
XRECORD
  5
84C
102
{ACAD_REACTORS
330
84B
102
}
330
84B
100
AcDbXrecord
280
     1
102
SHADEPLOT
 70
     1
102
SHADEPLOTRESLEVEL
 70
     2
102
SHADEPLOTCUSTOMDPI
 70
   300
  0
XRECORD
  5
854
102
{ACAD_REACTORS
330
853
102
}
330
853
100
AcDbXrecord
280
     1
102
MATERIAL
148
0.0
149
0.0
149
0.0
 93
        0
 94
       63
282
     0
 72
     1
 77
     1
171
     1
175
     1
179
     1
273
     0
  0
XRECORD
  5
852
102
{ACAD_REACTORS
330
851
102
}
330
851
100
AcDbXrecord
280
     1
102
MATERIAL
148
0.0
149
0.0
149
0.0
 93
        0
 94
       63
282
     0
 72
     1
 77
     1
171
     1
175
     1
179
     1
273
     0
  0
XRECORD
  5
856
102
{ACAD_REACTORS
330
855
102
}
330
855
100
AcDbXrecord
280
     1
102
MATERIAL
148
0.0
149
0.0
149
0.0
 93
        0
 94
       63
282
     0
 72
     1
 77
     1
171
     1
175
     1
179
     1
273
     0
  0
XRECORD
  5
850
102
{ACAD_REACTORS
330
84F
102
}
330
84F
100
AcDbXrecord
280
     1
102
ACAD_ROUNDTRIP_PRE2007_TABLESTYLE
 90
        4
 91
        0
  1

 92
        4
 93
        0
  2

 94
        4
 95
        0
  3

  0
ENDSEC
  0
EOF
