  0
SECTION
  2
HEADER
  9
$ACADVER
  1
AC1015
  9
$ACADMAINTVER
 70
    20
  9
$DWGCODEPAGE
  3
ANSI_1252
  9
$INSBASE
 10
0.0
 20
0.0
 30
0.0
  9
$EXTMIN
 10
-74.3944690205801
 20
-33.0687310361654
 30
-0.0015258207003583
  9
$EXTMAX
 10
92.0837255615543
 20
48.0614870635562
 30
0.0000000349246037
  9
$LIMMIN
 10
-170.0
 20
-170.0
  9
$LIMMAX
 10
519.0
 20
260.0
  9
$ORTHOMODE
 70
     0
  9
$REGENMODE
 70
     1
  9
$FILLMODE
 70
     1
  9
$QTEXTMODE
 70
     0
  9
$MIRRTEXT
 70
     0
  9
$LTSCALE
 40
1.0
  9
$ATTMODE
 70
     1
  9
$TEXTSIZE
 40
5.0
  9
$TRACEWID
 40
1.0
  9
$TEXTSTYLE
  7
STANDARD
  9
$CLAYER
  8
1
  9
$CELTYPE
  6
BYLAYER
  9
$CECOLOR
 62
   256
  9
$CELTSCALE
 40
1.0
  9
$DISPSILH
 70
     0
  9
$DIMSCALE
 40
1.0
  9
$DIMASZ
 40
2.5
  9
$DIMEXO
 40
1.0
  9
$DIMDLI
 40
15.0
  9
$DIMRND
 40
0.0
  9
$DIMDLE
 40
0.0
  9
$DIMEXE
 40
2.0
  9
$DIMTP
 40
0.0
  9
$DIMTM
 40
0.000000001
  9
$DIMTXT
 40
3.5
  9
$DIMCEN
 40
0.09
  9
$DIMTSZ
 40
0.0
  9
$DIMTOL
 70
     0
  9
$DIMLIM
 70
     0
  9
$DIMTIH
 70
     0
  9
$DIMTOH
 70
     0
  9
$DIMSE1
 70
     0
  9
$DIMSE2
 70
     0
  9
$DIMTAD
 70
     1
  9
$DIMZIN
 70
     8
  9
$DIMBLK
  1

  9
$DIMASO
 70
     1
  9
$DIMSHO
 70
     1
  9
$DIMPOST
  1

  9
$DIMAPOST
  1

  9
$DIMALT
 70
     0
  9
$DIMALTD
 70
     3
  9
$DIMALTF
 40
0.0393701
  9
$DIMLFAC
 40
1.0
  9
$DIMTOFL
 70
     1
  9
$DIMTVP
 40
0.0
  9
$DIMTIX
 70
     0
  9
$DIMSOXD
 70
     0
  9
$DIMSAH
 70
     0
  9
$DIMBLK1
  1

  9
$DIMBLK2
  1

  9
$DIMSTYLE
  2
AM_DIN
  9
$DIMCLRD
 70
     0
  9
$DIMCLRE
 70
     0
  9
$DIMCLRT
 70
     0
  9
$DIMTFAC
 40
0.7071069999999999
  9
$DIMGAP
 40
2.299999999999999
  9
$DIMJUST
 70
     0
  9
$DIMSD1
 70
     0
  9
$DIMSD2
 70
     0
  9
$DIMTOLJ
 70
     1
  9
$DIMTZIN
 70
     8
  9
$DIMALTZ
 70
    11
  9
$DIMALTTZ
 70
     8
  9
$DIMUPT
 70
     0
  9
$DIMDEC
 70
     2
  9
$DIMTDEC
 70
     2
  9
$DIMALTU
 70
     3
  9
$DIMALTTD
 70
     3
  9
$DIMTXSTY
  7
STANDARD 3.5 mm
  9
$DIMAUNIT
 70
     0
  9
$DIMADEC
 70
     0
  9
$DIMALTRND
 40
0.0
  9
$DIMAZIN
 70
     2
  9
$DIMDSEP
 70
    46
  9
$DIMATFIT
 70
     3
  9
$DIMFRAC
 70
     0
  9
$DIMLDRBLK
  1

  9
$DIMLUNIT
 70
     2
  9
$DIMLWD
 70
    -1
  9
$DIMLWE
 70
    -1
  9
$DIMTMOVE
 70
     0
  9
$LUNITS
 70
     2
  9
$LUPREC
 70
     4
  9
$SKETCHINC
 40
1.0
  9
$FILLETRAD
 40
0.0
  9
$AUNITS
 70
     0
  9
$AUPREC
 70
     0
  9
$MENU
  1
c:\tdm21\cad\caduti13\tdm13
  9
$ELEVATION
 40
0.0
  9
$PELEVATION
 40
0.0
  9
$THICKNESS
 40
0.0
  9
$LIMCHECK
 70
     0
  9
$CHAMFERA
 40
0.0
  9
$CHAMFERB
 40
0.0
  9
$CHAMFERC
 40
0.0
  9
$CHAMFERD
 40
0.0
  9
$SKPOLY
 70
     0
  9
$TDCREATE
 40
2457277.384583299
  9
$TDUCREATE
 40
2457277.155416632
  9
$TDUPDATE
 40
2457277.385469387
  9
$TDUUPDATE
 40
2457277.156302720
  9
$TDINDWG
 40
0.0008890625
  9
$TDUSRTIMER
 40
0.0008890162
  9
$USRTIMER
 70
     1
  9
$ANGBASE
 50
0.0
  9
$ANGDIR
 70
     0
  9
$PDMODE
 70
     1
  9
$PDSIZE
 40
0.0
  9
$PLINEWID
 40
0.0
  9
$SPLFRAME
 70
     0
  9
$SPLINETYPE
 70
     6
  9
$SPLINESEGS
 70
     8
  9
$HANDSEED
  5
14A7
  9
$SURFTAB1
 70
     6
  9
$SURFTAB2
 70
     6
  9
$SURFTYPE
 70
     6
  9
$SURFU
 70
     6
  9
$SURFV
 70
     6
  9
$UCSBASE
  2

  9
$UCSNAME
  2

  9
$UCSORG
 10
0.0
 20
0.0
 30
0.0
  9
$UCSXDIR
 10
1.0
 20
0.0
 30
0.0
  9
$UCSYDIR
 10
0.0
 20
1.0
 30
0.0
  9
$UCSORTHOREF
  2

  9
$UCSORTHOVIEW
 70
     0
  9
$UCSORGTOP
 10
0.0
 20
0.0
 30
0.0
  9
$UCSORGBOTTOM
 10
0.0
 20
0.0
 30
0.0
  9
$UCSORGLEFT
 10
0.0
 20
0.0
 30
0.0
  9
$UCSORGRIGHT
 10
0.0
 20
0.0
 30
0.0
  9
$UCSORGFRONT
 10
0.0
 20
0.0
 30
0.0
  9
$UCSORGBACK
 10
0.0
 20
0.0
 30
0.0
  9
$PUCSBASE
  2

  9
$PUCSNAME
  2

  9
$PUCSORG
 10
0.0
 20
0.0
 30
0.0
  9
$PUCSXDIR
 10
1.0
 20
0.0
 30
0.0
  9
$PUCSYDIR
 10
0.0
 20
1.0
 30
0.0
  9
$PUCSORTHOREF
  2

  9
$PUCSORTHOVIEW
 70
     0
  9
$PUCSORGTOP
 10
0.0
 20
0.0
 30
0.0
  9
$PUCSORGBOTTOM
 10
0.0
 20
0.0
 30
0.0
  9
$PUCSORGLEFT
 10
0.0
 20
0.0
 30
0.0
  9
$PUCSORGRIGHT
 10
0.0
 20
0.0
 30
0.0
  9
$PUCSORGFRONT
 10
0.0
 20
0.0
 30
0.0
  9
$PUCSORGBACK
 10
0.0
 20
0.0
 30
0.0
  9
$USERI1
 70
     0
  9
$USERI2
 70
     0
  9
$USERI3
 70
     0
  9
$USERI4
 70
     0
  9
$USERI5
 70
     0
  9
$USERR1
 40
0.0
  9
$USERR2
 40
0.0
  9
$USERR3
 40
0.0
  9
$USERR4
 40
0.0
  9
$USERR5
 40
0.0
  9
$WORLDVIEW
 70
     1
  9
$SHADEDGE
 70
     3
  9
$SHADEDIF
 70
    70
  9
$TILEMODE
 70
     1
  9
$MAXACTVP
 70
    64
  9
$PINSBASE
 10
0.0
 20
0.0
 30
0.0
  9
$PLIMCHECK
 70
     0
  9
$PEXTMIN
 10
-0.0226558438690745
 20
-0.0160192835437556
 30
-0.000000000000013
  9
$PEXTMAX
 10
297.000001383183
 20
210.0000009780083
 30
0.0000000000000023
  9
$PLIMMIN
 10
0.0
 20
0.0
  9
$PLIMMAX
 10
297.0
 20
210.0
  9
$UNITMODE
 70
     0
  9
$VISRETAIN
 70
     0
  9
$PLINEGEN
 70
     0
  9
$PSLTSCALE
 70
     1
  9
$TREEDEPTH
 70
  3020
  9
$CMLSTYLE
  2
STANDARD
  9
$CMLJUST
 70
     0
  9
$CMLSCALE
 40
20.0
  9
$PROXYGRAPHICS
 70
     1
  9
$MEASUREMENT
 70
     1
  9
$CELWEIGHT
370
    -1
  9
$ENDCAPS
280
     0
  9
$JOINSTYLE
280
     0
  9
$LWDISPLAY
290
     0
  9
$INSUNITS
 70
     0
  9
$HYPERLINKBASE
  1
http://www.secotools.com/
  9
$STYLESHEET
  1
monochrome.ctb
  9
$XEDIT
290
     1
  9
$CEPSNTYPE
380
     0
  9
$PSTYLEMODE
290
     1
  9
$FINGERPRINTGUID
  2
{682831BA-98FD-441E-BA48-BA09709F7562}
  9
$VERSIONGUID
  2
{A259FEA5-41B5-4622-8C33-DA21550FB7E8}
  9
$EXTNAMES
290
     1
  9
$PSVPSCALE
 40
0.0
  9
$OLESTARTUP
290
     0
  0
ENDSEC
  0
SECTION
  2
CLASSES
  0
CLASS
  1
ACDBDICTIONARYWDFLT
  2
AcDbDictionaryWithDefault
  3
ObjectDBX Classes
 90
        0
280
     0
281
     0
  0
CLASS
  1
ACDBPLACEHOLDER
  2
AcDbPlaceHolder
  3
ObjectDBX Classes
 90
        0
280
     0
281
     0
  0
CLASS
  1
LAYOUT
  2
AcDbLayout
  3
ObjectDBX Classes
 90
        0
280
     0
281
     0
  0
CLASS
  1
DICTIONARYVAR
  2
AcDbDictionaryVar
  3
ObjectDBX Classes
 90
        0
280
     0
281
     0
  0
CLASS
  1
TABLESTYLE
  2
AcDbTableStyle
  3
ObjectDBX Classes
 90
     4095
280
     0
281
     0
  0
CLASS
  1
MATERIAL
  2
AcDbMaterial
  3
ObjectDBX Classes
 90
     1153
280
     0
281
     0
  0
CLASS
  1
VISUALSTYLE
  2
AcDbVisualStyle
  3
ObjectDBX Classes
 90
     4095
280
     0
281
     0
  0
CLASS
  1
SCALE
  2
AcDbScale
  3
ObjectDBX Classes
 90
     1153
280
     0
281
     0
  0
CLASS
  1
MLEADERSTYLE
  2
AcDbMLeaderStyle
  3
ACDB_MLEADERSTYLE_CLASS
 90
     4095
280
     0
281
     0
  0
CLASS
  1
ACME_DOCUMENT
  2
AcMeDbDoc
  3
AcMeServices
 90
     1024
280
     0
281
     0
  0
CLASS
  1
AMGSETTINGSOBJ
  2
AmgSettingsObj
  3
"AcadM|Product Description: AutoCAD Mechanical|Company: Autodesk, Inc."
 90
     1024
280
     0
281
     0
  0
CLASS
  1
ACMESCOPE
  2
AcMeScope
  3
AcMeServices
 90
     1024
280
     0
281
     0
  0
CLASS
  1
ACMECOMMANDHISTORY
  2
AcMeCommandHistory
  3
AcMeServices
 90
     1024
280
     0
281
     0
  0
CLASS
  1
ACIMSYSVARMAN
  2
AcImSysVarManager
  3
AcMeServices
 90
     1024
280
     0
281
     0
  0
CLASS
  1
ACIMINTSYSVAR
  2
AcImIntSysVar
  3
AcMeServices
 90
     1024
280
     0
281
     0
  0
CLASS
  1
ACMEDRAWINGMAN
  2
AcMeDrawingMan
  3
AcMeServices
 90
    33792
280
     0
281
     0
  0
CLASS
  1
ACMEVIEW
  2
AcMeView
  3
AcMeServices
 90
    33792
280
     0
281
     0
  0
CLASS
  1
ACDBENTITYCACHE
  2
AcMeEntityCache
  3
AcMeServices
 90
     1024
280
     0
281
     0
  0
CLASS
  1
GSMANAGER
  2
AcMeGSManager
  3
AcMeServices
 90
    33792
280
     0
281
     0
  0
CLASS
  1
AMDTINTERNALREACTOR
  2
AmdtInternalReactor
  3
AcMeServices
 90
     1024
280
     0
281
     0
  0
CLASS
  1
ACMESTATEMGR
  2
AcMeStateMgr
  3
AcMeServices
 90
     1024
280
     0
281
     0
  0
CLASS
  1
ACGREFMASTER
  2
AcGrefMaster
  3
AcAttribServices
 90
     1024
280
     0
281
     0
  0
CLASS
  1
AM_DRAWING_MGR
  2
AcDmDwgMgr
  3
AcMechDwgViewMgmt
 90
     1024
280
     0
281
     0
  0
CLASS
  1
AM_DWG_DOCUMENT
  2
AcDmDwgDocument
  3
AcMechDwgViewMgmt
 90
     1024
280
     0
281
     0
  0
CLASS
  1
AM_DWG_SHEET
  2
AcDmSheet
  3
AcMechDwgViewMgmt
 90
     1024
280
     0
281
     0
  0
CLASS
  1
AM_VIEWDIMPARMAP
  2
AcDmViewDimParMap
  3
AcMechDwgViewMgmt
 90
     1024
280
     0
281
     0
  0
CLASS
  1
ACIMREALSYSVAR
  2
AcImRealSysVar
  3
AcMeServices
 90
     1024
280
     0
281
     0
  0
CLASS
  1
AM_DWGMGR_NAME
  2
AcDmDwgMgrName
  3
AcMechDwgViewMgmt
 90
     1024
280
     0
281
     0
  0
CLASS
  1
ACME_DATABASE
  2
AcMeDbDatabase
  3
AcMeServices
 90
     1024
280
     0
281
     0
  0
CLASS
  1
ACRFINSADJUSTERMGR
  2
AcRfInsAdjusterMgr
  3
AcMeServices
 90
     1024
280
     0
281
     0
  0
CLASS
  1
ACGREFACADMASTER
  2
AcGrefacadMaster
  3
AcGrefServices
 90
     1024
280
     0
281
     0
  0
CLASS
  1
AMDTMENUSTATEMGR
  2
AmdtMenuStateMgr
  3
McadcomServices
 90
     1024
280
     0
281
     0
  0
CLASS
  1
AMDTMCOMMENUSTATE
  2
AmdtMcomMenuState
  3
McadcomServices
 90
     1024
280
     0
281
     0
  0
CLASS
  1
AMIMASTER
  2
AmiMaster
  3
AmiServices
 90
     1024
280
     0
281
     0
  0
CLASS
  1
MAPIAMMOUDLE
  2
MApiAmModule
  3
MApiAmServices
 90
     1024
280
     0
281
     0
  0
CLASS
  1
ACIMSTRSYSVAR
  2
AcImStrSysVar
  3
AcMeServices
 90
     1024
280
     0
281
     0
  0
CLASS
  1
AMDTADMENUSTATE
  2
AmdtAdMenuState
  3
DesignerServices
 90
    33792
280
     0
281
     0
  0
CLASS
  1
ADAPPL
  2
AcAdAppl
  3
DesignerAssemblies
 90
    33792
280
     0
281
     0
  0
CLASS
  1
DEPMGR
  2
AcAdDepMgr
  3
DesignerAssemblies
 90
    33792
280
     0
281
     0
  0
CLASS
  1
PARAMMGR
  2
AcAdParamMgr
  3
DesignerAssemblies
 90
    33792
280
     0
281
     0
  0
CLASS
  1
PARAMSCOPE
  2
AcAdParamScope
  3
DesignerAssemblies
 90
    33792
280
     0
281
     0
  0
CLASS
  1
NAMEDAPPL
  2
AcAdNamedAppl
  3
DesignerAssemblies
 90
    33792
280
     0
281
     0
  0
CLASS
  1
AMDTDMMENUSTATE
  2
AmdtDmMenuState
  3
AcMechDwgViewMgmt
 90
    33792
280
     0
281
     0
  0
CLASS
  1
AMDTAMMENUSTATE
  2
AmdtAmMenuState
  3
DesignerAssemblies
 90
     1024
280
     0
281
     0
  0
CLASS
  1
ACAMPROJECT
  2
AcAmProject
  3
DesignerAssemblies
 90
     1024
280
     0
281
     0
  0
CLASS
  1
ACAMGRCOMPDEF
  2
AcAmGrCompDef
  3
DesignerAssemblies
 90
     1024
280
     0
281
     0
  0
CLASS
  1
ACCMCONTEXT
  2
AcCmContext
  3
DesignerAssemblies
 90
     1024
280
     0
281
     0
  0
CLASS
  1
ACAMCOMPDEF
  2
AcAmCompDef
  3
DesignerAssemblies
 90
     1024
280
     0
281
     0
  0
CLASS
  1
ACAMCOMPDEFMGR
  2
AcAmCompDefMgr
  3
DesignerAssemblies
 90
     1024
280
     0
281
     0
  0
CLASS
  1
AMCONTEXTMGR
  2
AcAmContextMgr
  3
DesignerAssemblies
 90
     1024
280
     0
281
     0
  0
CLASS
  1
ACAMCONTEXTMODELER
  2
AcAmContextModeler
  3
DesignerAssemblies
 90
     1024
280
     0
281
     0
  0
CLASS
  1
ACMDATADICTIONARY
  2
AcmDataDictionary
  3
"AcmSymBB|Product Description: AutoCAD Mechanical|Company: Autodesk, Inc."
 90
     1024
280
     0
281
     0
  0
CLASS
  1
CATALOGSTATE
  2
AcAmCatalogState
  3
DesignerAssemblies
 90
    33792
280
     0
281
     0
  0
CLASS
  1
ACAMGRCOMPDEFSET
  2
AcAmGrCompDefSet
  3
DesignerAssemblies
 90
     1024
280
     0
281
     0
  0
CLASS
  1
AMDTBROWSERDBTAB
  2
AmdtBrowserDbTab
  3
McadcomServices
 90
     1024
280
     0
281
     0
  0
CLASS
  1
CBROWSERAPPOBJECT
  2
CBrowserAppObject
  3
McadcomServices
 90
     1024
280
     0
281
     0
  0
CLASS
  1
DM_PLACEHOLDER
  2
AcDmSelsetPlaceholder
  3
McadcomServices
 90
     1024
280
     0
281
     0
  0
CLASS
  1
ACMSTANDARDDIN
  2
AcmStandardDIN
  3
"Amdt_StdImp|Product Description: AutoCAD Mechanical|Company: Autodesk, Inc."
 90
     1024
280
     0
281
     0
  0
CLASS
  1
AMGOBJPROPCFG
  2
AmgObjPropCfg
  3
"AmgLay|Product Description: AutoCAD Mechanical|Company: Autodesk, Inc."
 90
     1024
280
     0
281
     0
  0
CLASS
  1
AMDTEDGESTANDARDDIN13715
  2
AmdtEdgeStdDIN13715
  3
"Amdt_StdImp|Product Description: AutoCAD Mechanical|Company: Autodesk, Inc."
 90
     1024
280
     0
281
     0
  0
CLASS
  1
ACMSURFSTANDARDDIN2002
  2
AcmSurfTextStdDIN2002
  3
"Amdt_StdImp|Product Description: AutoCAD Mechanical|Company: Autodesk, Inc."
 90
     1024
280
     0
281
     0
  0
CLASS
  1
ACMFCFSTANDARDDIN
  2
AcmFCFStdDIN
  3
"Amdt_StdImp|Product Description: AutoCAD Mechanical|Company: Autodesk, Inc."
 90
     1024
280
     0
281
     0
  0
CLASS
  1
ACMWELDSTANDARDDIN
  2
AcmWeldingStdDIN
  3
"Amdt_StdImp|Product Description: AutoCAD Mechanical|Company: Autodesk, Inc."
 90
     1024
280
     0
281
     0
  0
CLASS
  1
ACMIDSTANDARDDIN
  2
AcmIdStdDIN
  3
"Amdt_StdImp|Product Description: AutoCAD Mechanical|Company: Autodesk, Inc."
 90
     1024
280
     0
281
     0
  0
CLASS
  1
ACMDATUMSTANDARDDIN
  2
AcmDatumStdDIN
  3
"Amdt_StdImp|Product Description: AutoCAD Mechanical|Company: Autodesk, Inc."
 90
     1024
280
     0
281
     0
  0
CLASS
  1
ACMBOMSTANDARDDIN
  2
AcmBOMStdDIN
  3
"Amdt_StdImp|Product Description: AutoCAD Mechanical|Company: Autodesk, Inc."
 90
     1024
280
     0
281
     0
  0
CLASS
  1
ACMDETAILSTANDARDDIN
  2
AmdtDetailSymStdDIN
  3
"Amdt_StdImp|Product Description: AutoCAD Mechanical|Company: Autodesk, Inc."
 90
     1024
280
     0
281
     0
  0
CLASS
  1
ACMSECTIONSTANDARDDIN
  2
AmdtSectionSymStdDIN
  3
"Amdt_StdImp|Product Description: AutoCAD Mechanical|Company: Autodesk, Inc."
 90
     1024
280
     0
281
     0
  0
CLASS
  1
ACMCENTERLINESTANDARDDIN
  2
AmdtCenterLineStdDIN
  3
"Amdt_StdImp|Product Description: AutoCAD Mechanical|Company: Autodesk, Inc."
 90
     1024
280
     0
281
     0
  0
CLASS
  1
ACMTHREADLINESTANDARDDIN
  2
AmdtThreadLineStdDIN
  3
"Amdt_StdImp|Product Description: AutoCAD Mechanical|Company: Autodesk, Inc."
 90
     1024
280
     0
281
     0
  0
CLASS
  1
ACMNOTESTANDARDDIN
  2
AmdtNoteStdDIN
  3
"Amdt_StdImp|Product Description: AutoCAD Mechanical|Company: Autodesk, Inc."
 90
     1024
280
     0
281
     0
  0
CLASS
  1
ACMTAPERSTANDARDDIN
  2
AcmTaperStdDIN
  3
"Amdt_StdImp|Product Description: AutoCAD Mechanical|Company: Autodesk, Inc."
 90
     1024
280
     0
281
     0
  0
CLASS
  1
ACMANOOTATIONVIEWSTANDARDDIN
  2
AmdtAnViewStdDIN
  3
"Amdt_StdImp|Product Description: AutoCAD Mechanical|Company: Autodesk, Inc."
 90
     1024
280
     0
281
     0
  0
CLASS
  1
AMDTNOTETEMPLATEDB
  2
AmdtNoteTemplateDB
  3
AcmSymBB|Product Description: AutoCAD Mechanical|Company: Autodesk, Inc.
 90
     1024
280
     0
281
     0
  0
CLASS
  1
ACAMGLAYSTD
  2
AcAmgLayStd
  3
"AmgLay|Product Description: AutoCAD Mechanical|Company: Autodesk, Inc."
 90
     1024
280
     0
281
     0
  0
CLASS
  1
ACAMGDIMSTD
  2
AcAmgDimStd
  3
"AmgDim|Product Description: AutoCAD Mechanical|Company: Autodesk, Inc."
 90
     1024
280
     0
281
     0
  0
CLASS
  1
ACAMGHOLECHARTSTDDIN
  2
AcAmgHoleChartStdDIN
  3
AmgDim|Product Description: AutoCAD Mechanical|Company: Autodesk, Inc.
 90
     1024
280
     0
281
     0
  0
CLASS
  1
ACAMGTITLESTD
  2
AcAmgTitleStd
  3
"AmgTitle|Product Description: AutoCAD Mechanical|Company: Autodesk, Inc."
 90
     1024
280
     0
281
     0
  0
CLASS
  1
ACAMGFILTERDAT
  2
AcAmgFilterDat
  3
"AcadM|Product Description: AutoCAD Mechanical|Company: Autodesk, Inc."
 90
     1024
280
     0
281
     0
  0
CLASS
  1
CAMSSTRUCTBTNSTATE
  2
StructBtnState
  3
DesignerAssemblies
 90
     1024
280
     0
281
     0
  0
CLASS
  1
CELLSTYLEMAP
  2
AcDbCellStyleMap
  3
ObjectDBX Classes
 90
     1152
280
     0
281
     0
  0
CLASS
  1
SORTENTSTABLE
  2
AcDbSortentsTable
  3
ObjectDBX Classes
 90
    32768
280
     0
281
     0
  0
CLASS
  1
PLOTSETTINGS
  2
AcDbPlotSettings
  3
ObjectDBX Classes
 90
        0
280
     0
281
     0
  0
CLASS
  1
SOLID_BACKGROUND
  2
AcDbSolidBackground
  3
SCENEOE
 90
    36863
280
     0
281
     0
  0
CLASS
  1
NPOCOLLECTION
  2
AcDbImpNonPersistentObjectsCollection
  3
ObjectDBX Classes
 90
    33921
280
     0
281
     0
  0
CLASS
  1
ACDBSECTIONVIEWSTYLE
  2
AcDbSectionViewStyle
  3
ObjectDBX Classes
 90
     1025
280
     0
281
     0
  0
CLASS
  1
ACDBDETAILVIEWSTYLE
  2
AcDbDetailViewStyle
  3
ObjectDBX Classes
 90
     1025
280
     0
281
     0
  0
CLASS
  1
ACMSECTIONSTANDARDCUSTOM
  2
AmdtSectionSymStdCustom
  3
"Amdt_StdImp|Product Description: AutoCAD Mechanical|Company: Autodesk, Inc."
 90
     1024
280
     0
281
     0
  0
CLASS
  1
ACMDETAILTANDARDCUSTOM
  2
AmdtDetailSymStdCustom
  3
"Amdt_StdImp|Product Description: AutoCAD Mechanical|Company: Autodesk, Inc."
 90
     1024
280
     0
281
     0
  0
CLASS
  1
FIELD
  2
AcDbField
  3
ObjectDBX Classes
 90
     1152
280
     0
281
     0
  0
CLASS
  1
FIELDLIST
  2
AcDbFieldList
  3
ObjectDBX Classes
 90
     1152
280
     0
281
     0
  0
CLASS
  1
ACMSTANDARDISO
  2
AcmStandardISO
  3
"Amdt_StdImp|Product Description: AutoCAD Mechanical|Company: Autodesk, Inc."
 90
     1024
280
     0
281
     0
  0
CLASS
  1
AMDTEDGESTANDARDISO13715
  2
AmdtEdgeStdISO13715
  3
"Amdt_StdImp|Product Description: AutoCAD Mechanical|Company: Autodesk, Inc."
 90
     1024
280
     0
281
     0
  0
CLASS
  1
ACMSURFSTANDARDISO2002
  2
AcmSurfTextStdISO2002
  3
"Amdt_StdImp|Product Description: AutoCAD Mechanical|Company: Autodesk, Inc."
 90
     1024
280
     0
281
     0
  0
CLASS
  1
ACMFCFSTANDARDISO2004
  2
AcmFCFStdISO2004
  3
"Amdt_StdImp|Product Description: AutoCAD Mechanical|Company: Autodesk, Inc."
 90
     1024
280
     0
281
     0
  0
CLASS
  1
ACMWELDSTANDARDISO
  2
AcmWeldingStdISO
  3
"Amdt_StdImp|Product Description: AutoCAD Mechanical|Company: Autodesk, Inc."
 90
     1024
280
     0
281
     0
  0
CLASS
  1
ACMIDSTANDARDISO2004
  2
AcmIdStdISO2004
  3
"Amdt_StdImp|Product Description: AutoCAD Mechanical|Company: Autodesk, Inc."
 90
     1024
280
     0
281
     0
  0
CLASS
  1
ACMDATUMSTANDARDISO
  2
AcmDatumStdISO
  3
"Amdt_StdImp|Product Description: AutoCAD Mechanical|Company: Autodesk, Inc."
 90
     1024
280
     0
281
     0
  0
CLASS
  1
ACMBOMSTANDARDISO
  2
AcmBOMStdISO
  3
"Amdt_StdImp|Product Description: AutoCAD Mechanical|Company: Autodesk, Inc."
 90
     1024
280
     0
281
     0
  0
CLASS
  1
ACMDETAILSTANDARDISO
  2
AmdtDetailSymStdISO
  3
"Amdt_StdImp|Product Description: AutoCAD Mechanical|Company: Autodesk, Inc."
 90
     1024
280
     0
281
     0
  0
CLASS
  1
ACMSECTIONSTANDARDISO2001
  2
AmdtSectionSymStdISO2001
  3
"Amdt_StdImp|Product Description: AutoCAD Mechanical|Company: Autodesk, Inc."
 90
     1024
280
     0
281
     0
  0
CLASS
  1
ACMCENTERLINESTANDARDISO
  2
AmdtCenterLineStdISO
  3
"Amdt_StdImp|Product Description: AutoCAD Mechanical|Company: Autodesk, Inc."
 90
     1024
280
     0
281
     0
  0
CLASS
  1
ACMTHREADLINESTANDARDISO
  2
AmdtThreadLineStdISO
  3
"Amdt_StdImp|Product Description: AutoCAD Mechanical|Company: Autodesk, Inc."
 90
     1024
280
     0
281
     0
  0
CLASS
  1
ACMNOTESTANDARDISO
  2
AmdtNoteStdISO
  3
"Amdt_StdImp|Product Description: AutoCAD Mechanical|Company: Autodesk, Inc."
 90
     1024
280
     0
281
     0
  0
CLASS
  1
ACMTAPERSTANDARDISO
  2
AcmTaperStdISO
  3
"Amdt_StdImp|Product Description: AutoCAD Mechanical|Company: Autodesk, Inc."
 90
     1024
280
     0
281
     0
  0
CLASS
  1
ACMANOOTATIONVIEWSTANDARDISO
  2
AmdtAnViewStdISO
  3
"Amdt_StdImp|Product Description: AutoCAD Mechanical|Company: Autodesk, Inc."
 90
     1024
280
     0
281
     0
  0
CLASS
  1
ACAMGHOLECHARTSTDISO
  2
AcAmgHoleChartStdISO
  3
AmgDim|Product Description: AutoCAD Mechanical|Company: Autodesk, Inc.
 90
     1024
280
     0
281
     0
  0
ENDSEC
  0
SECTION
  2
TABLES
  0
TABLE
  2
VPORT
  5
8
102
{ACAD_XDICTIONARY
360
A45
102
}
330
0
100
AcDbSymbolTable
 70
     1
  0
VPORT
  5
AD1
330
8
100
AcDbSymbolTableRecord
100
AcDbViewportTableRecord
  2
*Active
 70
     0
 10
0.0
 20
0.0
 11
1.0
 21
1.0
 12
8.84462827048709
 22
7.49637801369538
 13
0.0
 23
0.0
 14
5.0
 24
5.0
 15
5.0
 25
5.0
 16
0.0
 26
0.0
 36
1.0
 17
0.0
 27
0.0
 37
0.0
 40
88.63935601464133
 41
1.884374999999999
 42
50.0
 43
0.0
 44
0.0
 50
0.0
 51
0.0
 71
     0
 72
  2000
 73
     1
 74
     3
 75
     0
 76
     0
 77
     0
 78
     0
281
     0
 65
     1
110
110.4342352689418
120
79.11853697635224
130
0.0
111
1.0
121
0.0
131
0.0
112
0.0
122
1.0
132
0.0
 79
     0
146
0.0
1001
ACAD_NAV_VCDISPLAY
1070
     3
  0
ENDTAB
  0
TABLE
  2
LTYPE
  5
5
330
0
100
AcDbSymbolTable
 70
    14
  0
LTYPE
  5
12
330
5
100
AcDbSymbolTableRecord
100
AcDbLinetypeTableRecord
  2
BYBLOCK
 70
     0
  3

 72
    65
 73
     0
 40
0.0
  0
LTYPE
  5
13
330
5
100
AcDbSymbolTableRecord
100
AcDbLinetypeTableRecord
  2
BYLAYER
 70
     0
  3

 72
    65
 73
     0
 40
0.0
  0
LTYPE
  5
14
330
5
100
AcDbSymbolTableRecord
100
AcDbLinetypeTableRecord
  2
CONTINUOUS
 70
     0
  3
ISO continuous line ______________________________________
 72
    65
 73
     2
 40
9999.0
 49
9999.0
 74
     0
 49
0.0
 74
     0
  0
LTYPE
  5
4EF
330
5
100
AcDbSymbolTableRecord
100
AcDbLinetypeTableRecord
  2
ACDINWELD
 70
     0
  3
_ _ _ _ _
 72
    65
 73
     2
 40
2.0
 49
2.0
 74
     0
 49
-1.0
 74
     0
  0
LTYPE
  5
4F0
330
5
100
AcDbSymbolTableRecord
100
AcDbLinetypeTableRecord
  2
ACDINTGB
 70
     0
  3
__ . . __ . .
 72
    65
 73
     6
 40
9.0
 49
4.0
 74
     0
 49
-1.0
 74
     0
 49
1.0
 74
     0
 49
-1.0
 74
     0
 49
1.0
 74
     0
 49
-1.0
 74
     0
  0
LTYPE
  5
4F1
330
5
100
AcDbSymbolTableRecord
100
AcDbLinetypeTableRecord
  2
ACDINTGL
 70
     0
  3
_ _ _ _ _
 72
    65
 73
     2
 40
3.0
 49
2.0
 74
     0
 49
-1.0
 74
     0
  0
LTYPE
  5
916
330
5
100
AcDbSymbolTableRecord
100
AcDbLinetypeTableRecord
  2
LONGDASH_DASH
 70
     0
  3
ISO center line ____ _ ____ _ ____ _ ____ _ ___ _ ___
 72
    65
 73
     4
 40
10.5
 49
6.0
 74
     0
 49
-0.75
 74
     0
 49
3.0
 74
     0
 49
-0.75
 74
     0
  0
LTYPE
  5
CFA
330
5
100
AcDbSymbolTableRecord
100
AcDbLinetypeTableRecord
  2
HIDDEN
 70
     0
  3
Hidden __ __ __ __ __ __ __ __ __ __ __ __ __ _
 72
    65
 73
     2
 40
9.524999999999998
 49
6.349999999999999
 74
     0
 49
-3.174999999999999
 74
     0
  0
LTYPE
  5
CFB
330
5
100
AcDbSymbolTableRecord
100
AcDbLinetypeTableRecord
  2
PHANTOM2
 70
     0
  3
Phantom (.5x) ___ _ _ ___ _ _ ___ _ _ ___ _ _
 72
    65
 73
     6
 40
31.75
 49
15.875
 74
     0
 49
-3.174999999999999
 74
     0
 49
3.174999999999999
 74
     0
 49
-3.174999999999999
 74
     0
 49
3.174999999999999
 74
     0
 49
-3.174999999999999
 74
     0
  0
LTYPE
  5
CFC
330
5
100
AcDbSymbolTableRecord
100
AcDbLinetypeTableRecord
  2
CENTER
 70
     0
  3
Center ____ _ ____ _ ____ _ ____ _ ____ _ ____
 72
    65
 73
     4
 40
50.8
 49
31.75
 74
     0
 49
-6.349999999999999
 74
     0
 49
6.349999999999999
 74
     0
 49
-6.349999999999999
 74
     0
  0
LTYPE
  5
D85
330
5
100
AcDbSymbolTableRecord
100
AcDbLinetypeTableRecord
  2
ACISOWELD
 70
     0
  3
_ _ _ _ _
 72
    65
 73
     2
 40
2.0
 49
2.0
 74
     0
 49
-1.0
 74
     0
  0
LTYPE
  5
D86
330
5
100
AcDbSymbolTableRecord
100
AcDbLinetypeTableRecord
  2
ACISOTGL
 70
     0
  3
_ _ _ _ _
 72
    65
 73
     2
 40
3.0
 49
2.0
 74
     0
 49
-1.0
 74
     0
  0
LTYPE
  5
D87
330
5
100
AcDbSymbolTableRecord
100
AcDbLinetypeTableRecord
  2
ACISOTGB
 70
     0
  3
__ . . __ . .
 72
    65
 73
     6
 40
9.0
 49
4.0
 74
     0
 49
-1.0
 74
     0
 49
1.0
 74
     0
 49
-1.0
 74
     0
 49
1.0
 74
     0
 49
-1.0
 74
     0
  0
ENDTAB
  0
TABLE
  2
LAYER
  5
2
102
{ACAD_XDICTIONARY
360
43C
102
}
330
0
100
AcDbSymbolTable
 70
   102
  0
LAYER
  5
F
102
{ACAD_XDICTIONARY
360
52D
102
}
330
2
100
AcDbSymbolTableRecord
100
AcDbLayerTableRecord
  2
0
 70
     0
 62
     7
  6
CONTINUOUS
290
     0
370
    -3
390
300
  0
LAYER
  5
23
102
{ACAD_XDICTIONARY
360
52F
102
}
330
2
100
AcDbSymbolTableRecord
100
AcDbLayerTableRecord
  2
1
 70
     0
 62
     4
  6
CONTINUOUS
370
    50
390
300
  0
LAYER
  5
24
102
{ACAD_XDICTIONARY
360
531
102
}
330
2
100
AcDbSymbolTableRecord
100
AcDbLayerTableRecord
  2
SK1
 70
     0
 62
     4
  6
CONTINUOUS
370
    50
390
300
  0
LAYER
  5
25
102
{ACAD_XDICTIONARY
360
533
102
}
330
2
100
AcDbSymbolTableRecord
100
AcDbLayerTableRecord
  2
2
 70
     0
 62
     7
  6
CONTINUOUS
370
    25
390
300
  0
LAYER
  5
27
102
{ACAD_XDICTIONARY
360
537
102
}
330
2
100
AcDbSymbolTableRecord
100
AcDbLayerTableRecord
  2
SK2
 70
     0
 62
     7
  6
CONTINUOUS
370
    25
390
300
  0
LAYER
  5
2A
102
{ACAD_XDICTIONARY
360
53D
102
}
330
2
100
AcDbSymbolTableRecord
100
AcDbLayerTableRecord
  2
4
 70
     0
 62
     2
  6
LONGDASH_DASH
370
    25
390
300
  0
LAYER
  5
2B
102
{ACAD_XDICTIONARY
360
53F
102
}
330
2
100
AcDbSymbolTableRecord
100
AcDbLayerTableRecord
  2
SK4
 70
     0
 62
     2
  6
LONGDASH_DASH
370
    25
390
300
  0
LAYER
  5
2E
102
{ACAD_XDICTIONARY
360
545
102
}
330
2
100
AcDbSymbolTableRecord
100
AcDbLayerTableRecord
  2
SK6
 70
     0
 62
     5
  6
CONTINUOUS
370
    35
390
300
  0
LAYER
  5
2F
330
2
100
AcDbSymbolTableRecord
100
AcDbLayerTableRecord
  2
DEFPOINTS
 70
     0
 62
     7
  6
CONTINUOUS
290
     0
370
    -3
390
300
  0
ENDTAB
  0
TABLE
  2
STYLE
  5
3
330
0
100
AcDbSymbolTable
 70
    10
  0
STYLE
  5
10
330
3
100
AcDbSymbolTableRecord
100
AcDbTextStyleTableRecord
  2
STANDARD
 70
     0
 40
0.0
 41
1.0
 50
0.0
 71
     0
 42
5.0
  3
monos.ttf
  4

1001
ACAD
1000
Monospac821 BT
1071
       49
  0
STYLE
  5
1E
330
3
100
AcDbSymbolTableRecord
100
AcDbTextStyleTableRecord
  2
STANDARD 5 mm
 70
     0
 40
5.0
 41
1.0
 50
0.0
 71
     0
 42
3.5
  3
monos.ttf
  4

1001
ACAD
1000
Monospac821 BT
1071
       49
  0
STYLE
  5
4DF
330
3
100
AcDbSymbolTableRecord
100
AcDbTextStyleTableRecord
  2
ACDINTS
 70
     0
 40
1.0
 41
1.0
 50
0.0
 71
     0
 42
3.5
  3
monos.ttf
  4

1001
ACAD
1000
Monospac821 BT
1071
       49
  0
STYLE
  5
4EE
330
3
100
AcDbSymbolTableRecord
100
AcDbTextStyleTableRecord
  2
ACDINGDT
 70
     0
 40
0.0
 41
1.0
 50
0.0
 71
     0
 42
3.5
  3
monos.ttf
  4

1001
ACAD
1000
Monospac821 BT
1071
       49
  0
STYLE
  5
7DE
330
3
100
AcDbSymbolTableRecord
100
AcDbTextStyleTableRecord
  2
STANDARD 3.5 mm
 70
     0
 40
3.5
 41
1.0
 50
0.0
 71
     0
 42
3.5
  3
monos.ttf
  4

1001
ACAD
1000
Monospac821 BT
1071
       49
  0
STYLE
  5
D88
330
3
100
AcDbSymbolTableRecord
100
AcDbTextStyleTableRecord
  2
SIMPLEX
 70
     0
 40
0.0
 41
1.0
 50
0.0
 71
     0
 42
3.5
  3
simplex
  4

  0
STYLE
  5
D89
330
3
100
AcDbSymbolTableRecord
100
AcDbTextStyleTableRecord
  2
ACISOGDT
 70
     0
 40
0.0
 41
1.0
 50
0.0
 71
     0
 42
3.5
  3
amgdt.shx
  4

  0
ENDTAB
  0
TABLE
  2
VIEW
  5
6
330
0
100
AcDbSymbolTable
 70
     6
  0
VIEW
  5
758
330
6
100
AcDbSymbolTableRecord
100
AcDbViewTableRecord
  2
AM_VIEW1
 70
     1
 40
148.5265045166015
 10
121.0318359737553
 20
219.614756822586
 41
248.4136475334483
 11
0.0
 21
0.0
 31
1.0
 12
0.0
 22
0.0
 32
0.0
 42
50.0
 43
0.0
 44
0.0
 50
0.0
 71
     0
281
     0
 72
     0
  0
VIEW
  5
759
330
6
100
AcDbSymbolTableRecord
100
AcDbViewTableRecord
  2
AM_VIEW2
 70
     1
 40
148.5265045166015
 10
292.4378600711665
 20
219.614756822586
 41
248.4136475334483
 11
0.0
 21
0.0
 31
1.0
 12
0.0
 22
0.0
 32
0.0
 42
50.0
 43
0.0
 44
0.0
 50
0.0
 71
     0
281
     0
 72
     0
  0
VIEW
  5
75A
330
6
100
AcDbSymbolTableRecord
100
AcDbViewTableRecord
  2
AM_VIEW3
 70
     1
 40
148.5265045166015
 10
121.0318359737553
 20
71.0882523059845
 41
248.4136475334483
 11
0.0
 21
0.0
 31
1.0
 12
0.0
 22
0.0
 32
0.0
 42
50.0
 43
0.0
 44
0.0
 50
0.0
 71
     0
281
     0
 72
     0
  0
VIEW
  5
75B
330
6
100
AcDbSymbolTableRecord
100
AcDbViewTableRecord
  2
AM_VIEW4
 70
     1
 40
148.5265045166015
 10
292.4378600711665
 20
71.0882523059845
 41
248.4136475334483
 11
0.0
 21
0.0
 31
1.0
 12
0.0
 22
0.0
 32
0.0
 42
50.0
 43
0.0
 44
0.0
 50
0.0
 71
     0
281
     0
 72
     0
  0
VIEW
  5
75C
330
6
100
AcDbSymbolTableRecord
100
AcDbViewTableRecord
  2
AM_VIEW5
 70
     1
 40
148.5265045166015
 10
206.7348480224609
 20
145.3515045642852
 41
248.4136475334483
 11
0.0
 21
0.0
 31
1.0
 12
0.0
 22
0.0
 32
0.0
 42
50.0
 43
0.0
 44
0.0
 50
0.0
 71
     0
281
     0
 72
     0
  0
VIEW
  5
75D
330
6
100
AcDbSymbolTableRecord
100
AcDbViewTableRecord
  2
AM_VIEW6
 70
     1
 40
297.0500385031128
 10
206.7348480224609
 20
145.3515045642852
 41
496.8223267939459
 11
0.0
 21
0.0
 31
1.0
 12
0.0
 22
0.0
 32
0.0
 42
50.0
 43
0.0
 44
0.0
 50
0.0
 71
     0
281
     0
 72
     0
  0
ENDTAB
  0
TABLE
  2
UCS
  5
7
330
0
100
AcDbSymbolTable
 70
     0
  0
ENDTAB
  0
TABLE
  2
APPID
  5
9
330
0
100
AcDbSymbolTable
 70
    35
  0
APPID
  5
11
330
9
100
AcDbSymbolTableRecord
100
AcDbRegAppTableRecord
  2
ACAD
 70
     0
  0
APPID
  5
3A6
330
9
100
AcDbSymbolTableRecord
100
AcDbRegAppTableRecord
  2
ACAD_PSEXT
 70
     0
  0
APPID
  5
3A8
330
9
100
AcDbSymbolTableRecord
100
AcDbRegAppTableRecord
  2
ACAD_EXEMPT_FROM_CAD_STANDARDS
 70
     0
  0
APPID
  5
433
330
9
100
AcDbSymbolTableRecord
100
AcDbRegAppTableRecord
  2
AcAecLayerStandard
 70
     0
  0
APPID
  5
471
330
9
100
AcDbSymbolTableRecord
100
AcDbRegAppTableRecord
  2
ACAD_MLEADERVER
 70
     0
  0
APPID
  5
47D
330
9
100
AcDbSymbolTableRecord
100
AcDbRegAppTableRecord
  2
MCAD_NO_VIS
 70
     0
  0
APPID
  5
47E
330
9
100
AcDbSymbolTableRecord
100
AcDbRegAppTableRecord
  2
ACAD_TEMP_GRAPHIC
 70
     0
  0
APPID
  5
4AC
330
9
100
AcDbSymbolTableRecord
100
AcDbRegAppTableRecord
  2
AD_DRAW
 70
     0
  0
APPID
  5
4AF
330
9
100
AcDbSymbolTableRecord
100
AcDbRegAppTableRecord
  2
ACATTRIBSERVICES
 70
     0
  0
APPID
  5
4D0
330
9
100
AcDbSymbolTableRecord
100
AcDbRegAppTableRecord
  2
DESIGNERASSEMBLIES
 70
     0
  0
APPID
  5
4D6
330
9
100
AcDbSymbolTableRecord
100
AcDbRegAppTableRecord
  2
ACADM_DIM_EDIT
 70
     0
  0
APPID
  5
4D7
330
9
100
AcDbSymbolTableRecord
100
AcDbRegAppTableRecord
  2
AMDT_DM_ADJ
 70
     0
  0
APPID
  5
5CD
330
9
100
AcDbSymbolTableRecord
100
AcDbRegAppTableRecord
  2
AcDbAttr
 70
     0
  0
APPID
  5
5CE
330
9
100
AcDbSymbolTableRecord
100
AcDbRegAppTableRecord
  2
ACAUTHENVIRON
 70
     0
  0
APPID
  5
5CF
330
9
100
AcDbSymbolTableRecord
100
AcDbRegAppTableRecord
  2
AcDbDynamicBlockTrueName
 70
     0
  0
APPID
  5
5D0
330
9
100
AcDbSymbolTableRecord
100
AcDbRegAppTableRecord
  2
ACDBBLOCKREPETAG
 70
     0
  0
APPID
  5
723
330
9
100
AcDbSymbolTableRecord
100
AcDbRegAppTableRecord
  2
GENIUS_GENTRA_14
 70
     0
  0
APPID
  5
752
330
9
100
AcDbSymbolTableRecord
100
AcDbRegAppTableRecord
  2
GENIUS_GENOENT_13
 70
     0
  0
APPID
  5
753
330
9
100
AcDbSymbolTableRecord
100
AcDbRegAppTableRecord
  2
GENIUS_GENOBJ-N-TIT_13
 70
     0
  0
APPID
  5
754
330
9
100
AcDbSymbolTableRecord
100
AcDbRegAppTableRecord
  2
GENIUS_GENODEF_13
 70
     0
  0
APPID
  5
755
330
9
100
AcDbSymbolTableRecord
100
AcDbRegAppTableRecord
  2
GENIUS_GENOLIS_13
 70
     0
  0
APPID
  5
756
330
9
100
AcDbSymbolTableRecord
100
AcDbRegAppTableRecord
  2
GENIUS_GENTITLE_13
 70
     0
  0
APPID
  5
757
330
9
100
AcDbSymbolTableRecord
100
AcDbRegAppTableRecord
  2
GENIUS_GENOREF_13
 70
     0
  0
APPID
  5
75E
330
9
100
AcDbSymbolTableRecord
100
AcDbRegAppTableRecord
  2
GENIUS_GENSCREG_15
 70
     0
  0
APPID
  5
75F
330
9
100
AcDbSymbolTableRecord
100
AcDbRegAppTableRecord
  2
GENIUS_GENOBJ-N-SDF_13
 70
     0
  0
APPID
  5
7BE
330
9
100
AcDbSymbolTableRecord
100
AcDbRegAppTableRecord
  2
AcadAnnoPO
 70
     0
  0
APPID
  5
7BF
330
9
100
AcDbSymbolTableRecord
100
AcDbRegAppTableRecord
  2
ACAD_DSTYLE_DIMJAG
 70
     0
  0
APPID
  5
7C0
330
9
100
AcDbSymbolTableRecord
100
AcDbRegAppTableRecord
  2
ACAD_DSTYLE_DIMTALN
 70
     0
  0
APPID
  5
A53
330
9
100
AcDbSymbolTableRecord
100
AcDbRegAppTableRecord
  2
ACAD_DSTYLE_DIMARC_LENGTH_SYMBOL
 70
     0
  0
APPID
  5
A65
330
9
100
AcDbSymbolTableRecord
100
AcDbRegAppTableRecord
  2
ACAD_DSTYLE_DIMJOGGED_JOGANGLE_SYMBOL
 70
     0
  0
APPID
  5
CCE
330
9
100
AcDbSymbolTableRecord
100
AcDbRegAppTableRecord
  2
ACAD_DSTYLE_DIMBREAK
 70
     0
  0
APPID
  5
D24
330
9
100
AcDbSymbolTableRecord
100
AcDbRegAppTableRecord
  2
ACAD_NAV_VCDISPLAY
 70
     0
  0
APPID
  5
14A4
330
9
100
AcDbSymbolTableRecord
100
AcDbRegAppTableRecord
  2
ACAD_DSTYLE_DIM_LINETYPE
 70
     0
  0
APPID
  5
14A5
330
9
100
AcDbSymbolTableRecord
100
AcDbRegAppTableRecord
  2
ACAD_DSTYLE_DIM_EXT1_LINETYPE
 70
     0
  0
APPID
  5
14A6
330
9
100
AcDbSymbolTableRecord
100
AcDbRegAppTableRecord
  2
ACAD_DSTYLE_DIM_EXT2_LINETYPE
 70
     0
  0
ENDTAB
  0
TABLE
  2
DIMSTYLE
  5
A
330
0
100
AcDbSymbolTable
 70
    19
100
AcDbDimStyleTable
 71
     4
340
4FC
340
3F
340
501
340
506
  0
DIMSTYLE
105
3F
330
A
100
AcDbSymbolTableRecord
100
AcDbDimStyleTableRecord
  2
STANDARD
 70
     0
 41
5.0
 42
1.0
 43
15.0
 44
2.0
 48
0.000000001
 73
     0
 74
     0
 77
     1
 78
     9
 79
     2
140
3.5
143
0.0393700787401575
147
2.299999999999999
171
     3
172
     1
271
     2
272
     2
273
     3
274
     3
284
     8
285
    11
286
     8
340
7DE
1001
ACAD_DSTYLE_DIMJAG
1070
   388
1040
1.5
1001
ACAD_DSTYLE_DIMTALN
1070
   392
1070
     0
1001
ACAD_DSTYLE_DIMARC_LENGTH_SYMBOL
1070
   379
1070
     1
1001
ACAD_DSTYLE_DIMJOGGED_JOGANGLE_SYMBOL
1070
   384
1040
1.570796326794896
  0
DIMSTYLE
105
4FC
330
A
100
AcDbSymbolTableRecord
100
AcDbDimStyleTableRecord
  2
AM_DIN
 70
     0
 41
2.5
 42
1.0
 43
15.0
 44
2.0
 48
0.000000001
 73
     0
 74
     0
 77
     1
 78
     8
 79
     2
140
3.5
143
0.0393701
146
0.7071069999999999
147
2.299999999999999
171
     3
172
     1
271
     2
272
     2
273
     3
274
     3
284
     8
285
    11
286
     8
340
7DE
371
    -1
372
    -1
1001
ACAD_DSTYLE_DIMJAG
1070
   388
1040
1.5
1001
ACAD_DSTYLE_DIMTALN
1070
   392
1070
     0
1001
ACAD_DSTYLE_DIMARC_LENGTH_SYMBOL
1070
   379
1070
     1
1001
ACAD_DSTYLE_DIMJOGGED_JOGANGLE_SYMBOL
1070
   384
1040
1.570796326794896
  0
DIMSTYLE
105
4FD
330
A
100
AcDbSymbolTableRecord
100
AcDbDimStyleTableRecord
  2
AM_DIN$3
 70
     0
 41
2.5
 42
1.0
 43
10.0
 44
2.0
 48
0.000000001
 73
     0
 77
     1
 78
     8
 79
     2
140
3.5
143
0.0393701
146
0.7071069999999999
147
2.299999999999999
171
     3
271
     2
272
     3
273
     3
274
     4
284
     8
285
    11
286
     8
288
     1
289
     0
340
7DE
371
    -1
372
    -1
1001
ACAD_DSTYLE_DIMBREAK
1070
   391
1040
3.75
1001
ACAD_DSTYLE_DIMJAG
1070
   388
1040
1.5
1001
ACAD_DSTYLE_DIMTALN
1070
   392
1070
     0
1001
ACAD_DSTYLE_DIMARC_LENGTH_SYMBOL
1070
   379
1070
     1
1001
ACAD_DSTYLE_DIMJOGGED_JOGANGLE_SYMBOL
1070
   384
1040
1.570796326794896
  0
DIMSTYLE
105
4FE
330
A
100
AcDbSymbolTableRecord
100
AcDbDimStyleTableRecord
  2
AM_DIN$4
 70
     0
 41
2.5
 42
1.0
 43
10.0
 44
2.0
 48
0.000000001
 73
     0
 77
     1
 78
     8
 79
     2
140
3.5
143
0.0393701
146
0.7071069999999999
147
2.299999999999999
171
     3
271
     2
272
     3
273
     3
274
     4
284
     8
285
    11
286
     8
288
     1
289
     0
340
7DE
371
    -1
372
    -1
1001
ACAD_DSTYLE_DIMBREAK
1070
   391
1040
3.75
1001
ACAD_DSTYLE_DIMJAG
1070
   388
1040
1.5
1001
ACAD_DSTYLE_DIMTALN
1070
   392
1070
     0
1001
ACAD_DSTYLE_DIMARC_LENGTH_SYMBOL
1070
   379
1070
     1
1001
ACAD_DSTYLE_DIMJOGGED_JOGANGLE_SYMBOL
1070
   384
1040
1.570796326794896
  0
DIMSTYLE
105
4FF
330
A
100
AcDbSymbolTableRecord
100
AcDbDimStyleTableRecord
  2
AM_DIN$6
 70
     0
 41
2.5
 42
1.0
 43
10.0
 44
2.0
 48
0.000000001
 73
     0
 74
     0
 78
     8
 79
     2
140
3.5
143
0.0393701
146
0.7071069999999999
147
2.299999999999999
171
     3
172
     1
271
     2
272
     2
273
     3
274
     3
284
     8
285
    11
286
     8
340
7DE
371
    -1
372
    -1
1001
ACAD_DSTYLE_DIMBREAK
1070
   391
1040
3.75
1001
ACAD_DSTYLE_DIMJAG
1070
   388
1040
1.5
1001
ACAD_DSTYLE_DIMTALN
1070
   392
1070
     0
1001
ACAD_DSTYLE_DIMARC_LENGTH_SYMBOL
1070
   379
1070
     1
1001
ACAD_DSTYLE_DIMJOGGED_JOGANGLE_SYMBOL
1070
   384
1040
1.570796326794896
  0
DIMSTYLE
105
500
330
A
100
AcDbSymbolTableRecord
100
AcDbDimStyleTableRecord
  2
AM_DIN$7
 70
     0
 41
2.5
 42
1.0
 43
10.0
 44
2.0
 48
0.000000001
 73
     0
 74
     0
 77
     1
 78
     8
 79
     2
140
5.0
143
0.0393701
146
0.7071069999999999
147
2.299999999999999
171
     3
172
     1
271
     2
272
     3
273
     3
274
     4
284
     8
285
    11
286
     8
340
7DE
371
    -1
372
    -1
1001
ACAD_DSTYLE_DIMBREAK
1070
   391
1040
3.75
1001
ACAD_DSTYLE_DIMJAG
1070
   388
1040
1.5
1001
ACAD_DSTYLE_DIMTALN
1070
   392
1070
     0
1001
ACAD_DSTYLE_DIMARC_LENGTH_SYMBOL
1070
   379
1070
     1
1001
ACAD_DSTYLE_DIMJOGGED_JOGANGLE_SYMBOL
1070
   384
1040
1.570796326794896
  0
DIMSTYLE
105
501
330
A
100
AcDbSymbolTableRecord
100
AcDbDimStyleTableRecord
  2
AM_DIN$SF
 70
     0
 41
2.5
 42
1.0
 43
10.0
 44
2.0
 48
0.000000001
 73
     0
 74
     0
 75
     1
 76
     1
 77
     1
 78
     8
 79
     2
140
3.5
143
0.0393701
146
0.7071069999999999
147
2.299999999999999
171
     3
172
     1
271
     2
272
     2
273
     3
274
     3
284
     8
285
    11
286
     8
340
7DE
371
    -1
372
    -1
1001
ACAD_DSTYLE_DIMBREAK
1070
   391
1040
3.75
1001
ACAD_DSTYLE_DIMJAG
1070
   388
1040
1.5
1001
ACAD_DSTYLE_DIMTALN
1070
   392
1070
     0
1001
ACAD_DSTYLE_DIMARC_LENGTH_SYMBOL
1070
   379
1070
     1
1001
ACAD_DSTYLE_DIMJOGGED_JOGANGLE_SYMBOL
1070
   384
1040
1.570796326794896
  0
DIMSTYLE
105
506
330
A
100
AcDbSymbolTableRecord
100
AcDbDimStyleTableRecord
  2
AM_DIN$SH
 70
     0
 41
2.5
 42
1.0
 43
10.0
 44
2.0
 48
0.000000001
 73
     0
 74
     0
 75
     1
 76
     1
 77
     1
 78
     8
 79
     2
140
3.5
143
0.0393701
144
2.0
146
0.7071069999999999
147
2.299999999999999
171
     3
172
     1
271
     2
272
     2
273
     3
274
     3
284
     8
285
    11
286
     8
340
7DE
371
    -1
372
    -1
1001
ACAD_DSTYLE_DIMBREAK
1070
   391
1040
3.75
1001
ACAD_DSTYLE_DIMJAG
1070
   388
1040
1.5
1001
ACAD_DSTYLE_DIMTALN
1070
   392
1070
     0
1001
ACAD_DSTYLE_DIMARC_LENGTH_SYMBOL
1070
   379
1070
     1
1001
ACAD_DSTYLE_DIMJOGGED_JOGANGLE_SYMBOL
1070
   384
1040
1.570796326794896
  0
DIMSTYLE
105
D8A
102
{ACAD_REACTORS
330
FB3
330
FB2
330
FB0
330
FAF
330
FB1
330
11E8
330
11E9
330
11EA
330
11EB
330
11EC
102
}
330
A
100
AcDbSymbolTableRecord
100
AcDbDimStyleTableRecord
  2
V-TYGEN_-160
 70
     0
 41
3.5
 42
1.0
 43
0.5
 44
1.0
 73
     0
 74
     0
 77
     1
140
3.5
141
0.0
147
1.0
172
     1
271
     0
272
     0
340
10
371
    -1
1001
ACAD_DSTYLE_DIMJAG
1070
   388
1040
1.5
1001
ACAD_DSTYLE_DIMTALN
1070
   392
1070
     0
  0
DIMSTYLE
105
D8E
102
{ACAD_REACTORS
330
FB8
102
}
330
A
100
AcDbSymbolTableRecord
100
AcDbDimStyleTableRecord
  2
AM_ISO
 70
     0
  4
"
 41
3.5
 42
1.0
 43
10.0
 44
1.0
 47
0.1
 48
0.1
 73
     0
 74
     0
 77
     1
 78
     8
 79
     2
140
3.5
141
0.0
143
0.0393701
146
0.71
147
1.5
172
     1
176
   256
177
   256
178
     2
271
     2
272
     3
274
     4
283
     0
284
     8
340
10
371
    -1
372
    -1
1001
ACAD_DSTYLE_DIMJAG
1070
   388
1040
1.5
1001
ACAD_DSTYLE_DIMBREAK
1070
   391
1040
3.75
1001
ACAD_DSTYLE_DIMARC_LENGTH_SYMBOL
1070
   379
1070
     1
1001
ACAD_DSTYLE_DIM_LINETYPE
1070
   380
1005
12
1001
ACAD_DSTYLE_DIM_EXT1_LINETYPE
1070
   381
1005
12
1001
ACAD_DSTYLE_DIM_EXT2_LINETYPE
1070
   382
1005
12
  0
DIMSTYLE
105
D8F
330
A
100
AcDbSymbolTableRecord
100
AcDbDimStyleTableRecord
  2
AM_ISO$3
 70
     0
  4
"
 41
3.5
 42
1.0
 43
10.0
 44
1.0
 47
0.1
 48
0.1
 73
     0
 77
     1
 78
     8
 79
     2
140
3.5
141
0.0
143
0.0393701
146
0.71
147
1.5
176
   256
177
   256
178
     2
271
     2
272
     3
274
     4
283
     0
284
     8
288
     1
289
     0
340
10
371
    -1
372
    -1
1001
ACAD_DSTYLE_DIMBREAK
1070
   391
1040
3.75
1001
ACAD_DSTYLE_DIMJAG
1070
   388
1040
1.5
1001
ACAD_DSTYLE_DIMARC_LENGTH_SYMBOL
1070
   379
1070
     1
1001
ACAD_DSTYLE_DIM_LINETYPE
1070
   380
1005
12
1001
ACAD_DSTYLE_DIM_EXT1_LINETYPE
1070
   381
1005
12
1001
ACAD_DSTYLE_DIM_EXT2_LINETYPE
1070
   382
1005
12
  0
DIMSTYLE
105
D90
330
A
100
AcDbSymbolTableRecord
100
AcDbDimStyleTableRecord
  2
AM_ISO$4
 70
     0
  4
"
 41
3.5
 42
1.0
 43
10.0
 44
1.0
 47
0.1
 48
0.1
 73
     0
 77
     1
 78
     8
 79
     2
140
3.5
141
0.0
143
0.0393701
146
0.71
147
1.5
176
   256
177
   256
178
     2
271
     2
272
     3
274
     4
283
     0
284
     8
288
     1
289
     0
340
10
371
    -1
372
    -1
1001
ACAD_DSTYLE_DIMBREAK
1070
   391
1040
3.75
1001
ACAD_DSTYLE_DIMJAG
1070
   388
1040
1.5
1001
ACAD_DSTYLE_DIMARC_LENGTH_SYMBOL
1070
   379
1070
     1
1001
ACAD_DSTYLE_DIM_LINETYPE
1070
   380
1005
12
1001
ACAD_DSTYLE_DIM_EXT1_LINETYPE
1070
   381
1005
12
1001
ACAD_DSTYLE_DIM_EXT2_LINETYPE
1070
   382
1005
12
  0
DIMSTYLE
105
D91
330
A
100
AcDbSymbolTableRecord
100
AcDbDimStyleTableRecord
  2
AM_ISO$6
 70
     0
  4
"
 41
3.5
 42
1.0
 43
10.0
 44
1.0
 47
0.1
 48
0.1
 73
     0
 74
     0
 78
     8
 79
     2
140
3.5
141
0.0
143
0.0393701
146
0.71
147
1.5
172
     1
176
   256
177
   256
178
     2
271
     2
272
     3
274
     4
283
     0
284
     8
340
10
371
    -1
372
    -1
1001
ACAD_DSTYLE_DIMBREAK
1070
   391
1040
3.75
1001
ACAD_DSTYLE_DIMJAG
1070
   388
1040
1.5
1001
ACAD_DSTYLE_DIMARC_LENGTH_SYMBOL
1070
   379
1070
     1
1001
ACAD_DSTYLE_DIM_LINETYPE
1070
   380
1005
12
1001
ACAD_DSTYLE_DIM_EXT1_LINETYPE
1070
   381
1005
12
1001
ACAD_DSTYLE_DIM_EXT2_LINETYPE
1070
   382
1005
12
  0
DIMSTYLE
105
D92
330
A
100
AcDbSymbolTableRecord
100
AcDbDimStyleTableRecord
  2
AM_ISO$7
 70
     0
  4
"
 41
3.5
 42
1.0
 43
10.0
 44
1.0
 47
0.1
 48
0.1
 73
     0
 74
     0
 77
     1
 78
     8
 79
     2
140
3.5
141
0.0
143
0.0393701
146
0.71
147
1.5
172
     1
176
   256
177
   256
178
     2
271
     2
272
     3
274
     4
283
     0
284
     8
340
10
371
    -1
372
    -1
1001
ACAD_DSTYLE_DIMBREAK
1070
   391
1040
3.75
1001
ACAD_DSTYLE_DIMJAG
1070
   388
1040
1.5
1001
ACAD_DSTYLE_DIMARC_LENGTH_SYMBOL
1070
   379
1070
     1
1001
ACAD_DSTYLE_DIM_LINETYPE
1070
   380
1005
12
1001
ACAD_DSTYLE_DIM_EXT1_LINETYPE
1070
   381
1005
12
1001
ACAD_DSTYLE_DIM_EXT2_LINETYPE
1070
   382
1005
12
  0
DIMSTYLE
105
D93
330
A
100
AcDbSymbolTableRecord
100
AcDbDimStyleTableRecord
  2
AM_ISO$SF
 70
     0
  4
"
 41
3.5
 42
1.0
 43
10.0
 44
1.0
 47
0.1
 48
0.1
 73
     0
 74
     0
 75
     1
 76
     1
 77
     1
 78
     8
 79
     2
140
3.5
141
0.0
143
0.0393701
146
0.71
147
1.5
172
     1
176
   256
177
   256
178
     2
271
     2
272
     3
274
     4
283
     0
284
     8
340
10
371
    -1
372
    -1
1001
ACAD_DSTYLE_DIMBREAK
1070
   391
1040
3.75
1001
ACAD_DSTYLE_DIMJAG
1070
   388
1040
1.5
1001
ACAD_DSTYLE_DIMARC_LENGTH_SYMBOL
1070
   379
1070
     1
1001
ACAD_DSTYLE_DIM_LINETYPE
1070
   380
1005
12
1001
ACAD_DSTYLE_DIM_EXT1_LINETYPE
1070
   381
1005
12
1001
ACAD_DSTYLE_DIM_EXT2_LINETYPE
1070
   382
1005
12
  0
DIMSTYLE
105
D94
330
A
100
AcDbSymbolTableRecord
100
AcDbDimStyleTableRecord
  2
AM_ISO$SH
 70
     0
  4
"
 41
3.5
 42
1.0
 43
10.0
 44
1.0
 47
0.1
 48
0.1
 73
     0
 74
     0
 75
     1
 76
     1
 77
     1
 78
     8
 79
     2
140
3.5
141
0.0
143
0.0393701
144
2.0
146
0.71
147
1.5
172
     1
173
     1
176
   256
177
   256
178
     2
271
     2
272
     3
274
     4
283
     0
284
     8
340
10
343
D81
371
    -1
372
    -1
1001
ACAD_DSTYLE_DIMBREAK
1070
   391
1040
3.75
1001
ACAD_DSTYLE_DIMJAG
1070
   388
1040
1.5
1001
ACAD_DSTYLE_DIMARC_LENGTH_SYMBOL
1070
   379
1070
     1
1001
ACAD_DSTYLE_DIM_LINETYPE
1070
   380
1005
12
1001
ACAD_DSTYLE_DIM_EXT1_LINETYPE
1070
   381
1005
12
1001
ACAD_DSTYLE_DIM_EXT2_LINETYPE
1070
   382
1005
12
  0
ENDTAB
  0
TABLE
  2
BLOCK_RECORD
  5
1
330
0
100
AcDbSymbolTable
 70
    16
  0
BLOCK_RECORD
  5
18
330
1
100
AcDbSymbolTableRecord
100
AcDbBlockTableRecord
  2
*MODEL_SPACE
340
303
  0
BLOCK_RECORD
  5
B56
330
1
100
AcDbSymbolTableRecord
100
AcDbBlockTableRecord
  2
*Paper_Space
340
B57
  0
BLOCK_RECORD
  5
D0B
330
1
100
AcDbSymbolTableRecord
100
AcDbBlockTableRecord
  2
_ACMFILLED15
340
0
  0
BLOCK_RECORD
  5
D16
330
1
100
AcDbSymbolTableRecord
100
AcDbBlockTableRecord
  2
_ACMFILLED30
340
0
  0
BLOCK_RECORD
  5
D81
330
1
100
AcDbSymbolTableRecord
100
AcDbBlockTableRecord
  2
GENAXEH
340
0
  0
BLOCK_RECORD
  5
11EE
330
1
100
AcDbSymbolTableRecord
100
AcDbBlockTableRecord
  2
*D11
340
0
  0
BLOCK_RECORD
  5
11FB
330
1
100
AcDbSymbolTableRecord
100
AcDbBlockTableRecord
  2
*D12
340
0
  0
BLOCK_RECORD
  5
1207
330
1
100
AcDbSymbolTableRecord
100
AcDbBlockTableRecord
  2
*D13
340
0
  0
BLOCK_RECORD
  5
1213
330
1
100
AcDbSymbolTableRecord
100
AcDbBlockTableRecord
  2
*D14
340
0
  0
BLOCK_RECORD
  5
121F
330
1
100
AcDbSymbolTableRecord
100
AcDbBlockTableRecord
  2
*D15
340
0
  0
ENDTAB
  0
ENDSEC
  0
SECTION
  2
BLOCKS
  0
BLOCK
  5
32
330
18
100
AcDbEntity
  8
0
100
AcDbBlockBegin
  2
*MODEL_SPACE
 70
     0
 10
0.0
 20
0.0
 30
0.0
  3
*MODEL_SPACE
  1

  0
ENDBLK
  5
33
330
18
100
AcDbEntity
  8
0
100
AcDbBlockEnd
  0
BLOCK
  5
B58
330
B56
100
AcDbEntity
 67
     1
  8
0
100
AcDbBlockBegin
  2
*Paper_Space
 70
     0
 10
0.0
 20
0.0
 30
0.0
  3
*Paper_Space
  1

  0
ENDBLK
  5
B59
330
B56
100
AcDbEntity
 67
     1
  8
0
100
AcDbBlockEnd
  0
BLOCK
  5
D0D
330
D0B
100
AcDbEntity
  8
0
100
AcDbBlockBegin
  2
_ACMFILLED15
 70
     0
 10
0.0
 20
0.0
 30
0.0
  3
_ACMFILLED15
  1

  0
TRACE
  5
D0C
330
D0B
100
AcDbEntity
  8
1
 62
     0
100
AcDbTrace
 10
-111.434235268942
 20
-79.2501894733523
 30
0.0
 11
-111.434235268942
 21
-78.9868844793522
 31
0.0
 12
-110.434235268942
 22
-79.1185369763522
 32
0.0
 13
-110.434235268942
 23
-79.1185369763522
 33
0.0
  0
ENDBLK
  5
D0E
330
D0B
100
AcDbEntity
  8
0
100
AcDbBlockEnd
  0
BLOCK
  5
D18
330
D16
100
AcDbEntity
  8
0
100
AcDbBlockBegin
  2
_ACMFILLED30
 70
     0
 10
0.0
 20
0.0
 30
0.0
  3
_ACMFILLED30
  1

  0
TRACE
  5
D17
330
D16
100
AcDbEntity
  8
1
 62
     0
100
AcDbTrace
 10
-111.434235268942
 20
-79.3864861663522
 30
0.0
 11
-111.434235268942
 21
-78.8505877863523
 31
0.0
 12
-110.434235268942
 22
-79.1185369763522
 32
0.0
 13
-110.434235268942
 23
-79.1185369763522
 33
0.0
  0
ENDBLK
  5
D19
330
D16
100
AcDbEntity
  8
0
100
AcDbBlockEnd
  0
BLOCK
  5
D82
330
D81
100
AcDbEntity
  8
0
100
AcDbBlockBegin
  2
GENAXEH
 70
     0
 10
0.0
 20
0.0
 30
0.0
  3
GENAXEH
  1

  0
LINE
  5
D83
330
D81
100
AcDbEntity
  8
0
100
AcDbLine
 10
-111.434235268942
 20
-79.1185369763522
 30
0.0
 11
-109.434235268942
 21
-79.1185369763522
 31
0.0
  0
ENDBLK
  5
D84
330
D81
100
AcDbEntity
  8
0
100
AcDbBlockEnd
  0
BLOCK
  5
11EF
330
11EE
100
AcDbEntity
  8
0
100
AcDbBlockBegin
  2
*D11
 70
     1
 10
0.0
 20
0.0
 30
0.0
  3
*D11
  1

  0
LINE
  5
122B
330
11EE
100
AcDbEntity
  8
2
 62
     0
370
    -2
100
AcDbLine
 10
79.7999999999999
 20
13.146
 30
0.0
 11
92.0500000000001
 21
13.146
 31
0.0
  0
LINE
  5
122C
330
11EE
100
AcDbEntity
  8
2
 62
     0
370
    -2
100
AcDbLine
 10
79.7999999999999
 20
-13.146
 30
0.0
 11
92.0500000000001
 21
-13.146
 31
0.0
  0
LINE
  5
122D
330
11EE
100
AcDbEntity
  8
2
 62
     0
100
AcDbLine
 10
91.0500000000001
 20
-9.64599999999997
 30
0.0
 11
91.0500000000001
 21
9.646
 31
0.0
  0
LINE
  5
122E
330
11EE
100
AcDbEntity
  8
2
 62
     0
100
AcDbLine
 10
91.0500000000001
 20
13.146
 30
0.0
 11
91.0500000000001
 21
46.5480262356524
 31
0.0
  0
SOLID
  5
122F
330
11EE
100
AcDbEntity
  8
2
 62
     0
100
AcDbTrace
 10
90.4666666666667
 20
-9.64599999999997
 30
0.0
 11
91.6333333333334
 21
-9.64599999999997
 31
0.0
 12
91.0500000000001
 22
-13.146
 32
0.0
 13
91.0500000000001
 23
-13.146
 33
0.0
  0
SOLID
  5
1230
330
11EE
100
AcDbEntity
  8
2
 62
     0
100
AcDbTrace
 10
90.4666666666667
 20
9.646
 30
0.0
 11
91.6333333333334
 21
9.646
 31
0.0
 12
91.0500000000001
 22
13.146
 32
0.0
 13
91.0500000000001
 23
13.146
 33
0.0
  0
MTEXT
  5
1231
330
11EE
100
AcDbEntity
  8
2
 62
     0
100
AcDbMText
 10
88.0208362614196
 20
32.2293333333334
 30
0.0
 40
3.5
 41
0.0
 71
     5
 72
     1
  1
\A1;NPT3/4-14
 11
0.0000000000000001
 21
1.0
 31
0.0
 73
     1
 44
1.0
1001
ACAD
1000
MTEXTBEGIN
1070
    73
1070
     1
1070
    44
1040
1.0
1070
    74
1070
     0
1000
MTEXTEND
  0
POINT
  5
1232
330
11EE
100
AcDbEntity
  8
DEFPOINTS
 62
     0
100
AcDbPoint
 10
78.7999999999999
 20
13.146
 30
0.0
  0
POINT
  5
1233
330
11EE
100
AcDbEntity
  8
DEFPOINTS
 62
     0
100
AcDbPoint
 10
78.7999999999999
 20
-13.146
 30
0.0
  0
POINT
  5
1234
330
11EE
100
AcDbEntity
  8
DEFPOINTS
 62
     0
100
AcDbPoint
 10
91.0500000000001
 20
-13.146
 30
0.0
  0
ENDBLK
  5
11F0
330
11EE
100
AcDbEntity
  8
0
100
AcDbBlockEnd
  0
BLOCK
  5
11FC
330
11FB
100
AcDbEntity
  8
0
100
AcDbBlockBegin
  2
*D12
 70
     1
 10
0.0
 20
0.0
 30
0.0
  3
*D12
  1

  0
LINE
  5
1235
330
11FB
100
AcDbEntity
  8
2
 62
     0
370
    -2
100
AcDbLine
 10
0
 20
12
 30
0.0
 11
0
 21
32.7852595884215
 31
0.0
  0
LINE
  5
1236
330
11FB
100
AcDbEntity
  8
2
 62
     0
370
    -2
100
AcDbLine
 10
78.7999999999999
 20
14.146
 30
0.0
 11
78.7999999999999
 21
32.7852595884215
 31
0.0
  0
LINE
  5
1237
330
11FB
100
AcDbEntity
  8
2
 62
     0
100
AcDbLine
 10
3.5
 20
31.7852595884215
 30
0.0
 11
75.2999999999999
 21
31.7852595884215
 31
0.0
  0
SOLID
  5
1238
330
11FB
100
AcDbEntity
  8
2
 62
     0
100
AcDbTrace
 10
3.5
 20
32.3685929217548
 30
0.0
 11
3.5
 21
31.2019262550882
 31
0.0
 12
0
 22
31.7852595884215
 32
0.0
 13
0
 23
31.7852595884215
 33
0.0
  0
SOLID
  5
1239
330
11FB
100
AcDbEntity
  8
2
 62
     0
100
AcDbTrace
 10
75.2999999999999
 20
32.3685929217548
 30
0.0
 11
75.2999999999999
 21
31.2019262550882
 31
0.0
 12
78.7999999999999
 22
31.7852595884215
 32
0.0
 13
78.7999999999999
 23
31.7852595884215
 33
0.0
  0
MTEXT
  5
123A
330
11FB
100
AcDbEntity
  8
2
 62
     0
100
AcDbMText
 10
39.4
 20
34.5967493986815
 30
0.0
 40
3.5
 41
0.0
 71
     5
 72
     1
  1
\A1;78.8
 73
     1
 44
1.0
1001
ACAD
1000
MTEXTBEGIN
1070
    73
1070
     1
1070
    44
1040
1.0
1070
    74
1070
     0
1000
MTEXTEND
  0
POINT
  5
123B
330
11FB
100
AcDbEntity
  8
DEFPOINTS
 62
     0
100
AcDbPoint
 10
0
 20
11
 30
0.0
  0
POINT
  5
123C
330
11FB
100
AcDbEntity
  8
DEFPOINTS
 62
     0
100
AcDbPoint
 10
78.7999999999999
 20
13.146
 30
0.0
  0
POINT
  5
123D
330
11FB
100
AcDbEntity
  8
DEFPOINTS
 62
     0
100
AcDbPoint
 10
78.7999999999999
 20
31.7852595884215
 30
0.0
  0
ENDBLK
  5
11FD
330
11FB
100
AcDbEntity
  8
0
100
AcDbBlockEnd
  0
BLOCK
  5
1208
330
1207
100
AcDbEntity
  8
0
100
AcDbBlockBegin
  2
*D13
 70
     1
 10
0.0
 20
0.0
 30
0.0
  3
*D13
  1

  0
LINE
  5
123E
330
1207
100
AcDbEntity
  8
SK2
 62
     0
370
    -2
100
AcDbLine
 10
-44.2
 20
11
 30
0.0
 11
-69.3231390122469
 21
11
 31
0.0
  0
LINE
  5
123F
330
1207
100
AcDbEntity
  8
SK2
 62
     0
370
    -2
100
AcDbLine
 10
-44.2
 20
-11
 30
0.0
 11
-69.3231390122469
 21
-11
 31
0.0
  0
LINE
  5
1240
330
1207
100
AcDbEntity
  8
SK2
 62
     0
100
AcDbLine
 10
-68.3231390122469
 20
7.50000000000001
 30
0.0
 11
-68.3231390122469
 21
-7.49999999999999
 31
0.0
  0
SOLID
  5
1241
330
1207
100
AcDbEntity
  8
SK2
 62
     0
100
AcDbTrace
 10
-68.9064723455802
 20
7.50000000000001
 30
0.0
 11
-67.7398056789135
 21
7.50000000000001
 31
0.0
 12
-68.3231390122469
 22
11
 32
0.0
 13
-68.3231390122469
 23
11
 33
0.0
  0
SOLID
  5
1242
330
1207
100
AcDbEntity
  8
SK2
 62
     0
100
AcDbTrace
 10
-68.9064723455802
 20
-7.49999999999999
 30
0.0
 11
-67.7398056789135
 21
-7.49999999999999
 31
0.0
 12
-68.3231390122469
 22
-11
 32
0.0
 13
-68.3231390122469
 23
-11
 33
0.0
  0
MTEXT
  5
1243
330
1207
100
AcDbEntity
  8
SK2
 62
     0
100
AcDbMText
 10
-71.1862802631253
 20
2.8421709430404E-14
 30
0.0
 40
3.5
 41
0.0
 71
     5
 72
     1
  1
\A1;%%c22
 11
0.0000000000000001
 21
1.0
 31
0.0
 73
     1
 44
1.0
1001
ACAD
1000
MTEXTBEGIN
1070
    73
1070
     1
1070
    44
1040
1.0
1070
    74
1070
     0
1000
MTEXTEND
  0
POINT
  5
1244
330
1207
100
AcDbEntity
  8
DEFPOINTS
 62
     0
100
AcDbPoint
 10
-43.2
 20
11
 30
0.0
  0
POINT
  5
1245
330
1207
100
AcDbEntity
  8
DEFPOINTS
 62
     0
100
AcDbPoint
 10
-43.2
 20
-11
 30
0.0
  0
POINT
  5
1246
330
1207
100
AcDbEntity
  8
DEFPOINTS
 62
     0
100
AcDbPoint
 10
-68.3231390122469
 20
-11
 30
0.0
  0
ENDBLK
  5
1209
330
1207
100
AcDbEntity
  8
0
100
AcDbBlockEnd
  0
BLOCK
  5
1214
330
1213
100
AcDbEntity
  8
0
100
AcDbBlockBegin
  2
*D14
 70
     1
 10
0.0
 20
0.0
 30
0.0
  3
*D14
  1

  0
LINE
  5
1247
330
1213
100
AcDbEntity
  8
2
 62
     0
370
    -2
100
AcDbLine
 10
52.8
 20
12.35
 30
0.0
 11
52.8
 21
23.6648160048433
 31
0.0
  0
LINE
  5
1248
330
1213
100
AcDbEntity
  8
2
 62
     0
370
    -2
100
AcDbLine
 10
78.7999999999999
 20
14.146
 30
0.0
 11
78.7999999999999
 21
23.6648160048433
 31
0.0
  0
LINE
  5
1249
330
1213
100
AcDbEntity
  8
2
 62
     0
100
AcDbLine
 10
56.3
 20
22.6648160048433
 30
0.0
 11
75.2999999999999
 21
22.6648160048433
 31
0.0
  0
SOLID
  5
124A
330
1213
100
AcDbEntity
  8
2
 62
     0
100
AcDbTrace
 10
56.3
 20
23.2481493381766
 30
0.0
 11
56.3
 21
22.08148267151
 31
0.0
 12
52.8
 22
22.6648160048433
 32
0.0
 13
52.8
 23
22.6648160048433
 33
0.0
  0
SOLID
  5
124B
330
1213
100
AcDbEntity
  8
2
 62
     0
100
AcDbTrace
 10
75.2999999999999
 20
23.2481493381766
 30
0.0
 11
75.2999999999999
 21
22.08148267151
 31
0.0
 12
78.7999999999999
 22
22.6648160048433
 32
0.0
 13
78.7999999999999
 23
22.6648160048433
 33
0.0
  0
MTEXT
  5
124C
330
1213
100
AcDbEntity
  8
2
 62
     0
100
AcDbMText
 10
65.7999999999999
 20
25.4763058151033
 30
0.0
 40
3.5
 41
0.0
 71
     5
 72
     1
  1
\A1;26
 73
     1
 44
1.0
1001
ACAD
1000
MTEXTBEGIN
1070
    73
1070
     1
1070
    44
1040
1.0
1070
    74
1070
     0
1000
MTEXTEND
  0
POINT
  5
124D
330
1213
100
AcDbEntity
  8
DEFPOINTS
 62
     0
100
AcDbPoint
 10
52.8
 20
11.35
 30
0.0
  0
POINT
  5
124E
330
1213
100
AcDbEntity
  8
DEFPOINTS
 62
     0
100
AcDbPoint
 10
78.7999999999999
 20
13.146
 30
0.0
  0
POINT
  5
124F
330
1213
100
AcDbEntity
  8
DEFPOINTS
 62
     0
100
AcDbPoint
 10
78.7999999999999
 20
22.6648160048433
 30
0.0
  0
ENDBLK
  5
1215
330
1213
100
AcDbEntity
  8
0
100
AcDbBlockEnd
  0
BLOCK
  5
1220
330
121F
100
AcDbEntity
  8
0
100
AcDbBlockBegin
  2
*D15
 70
     1
 10
0.0
 20
0.0
 30
0.0
  3
*D15
  1

  0
LINE
  5
1250
330
121F
100
AcDbEntity
  8
SK2
 62
     0
370
    -2
100
AcDbLine
 10
-61.2
 20
9.60000000000005
 30
0.0
 11
-61.2
 21
43.0816134541124
 31
0.0
  0
LINE
  5
1251
330
121F
100
AcDbEntity
  8
SK2
 62
     0
370
    -2
100
AcDbLine
 10
78.7999999999999
 20
14.146
 30
0.0
 11
78.7999999999999
 21
43.0816134541124
 31
0.0
  0
LINE
  5
1252
330
121F
100
AcDbEntity
  8
SK2
 62
     0
100
AcDbLine
 10
-57.7
 20
42.0816134541124
 30
0.0
 11
75.2999999999999
 21
42.0816134541124
 31
0.0
  0
SOLID
  5
1253
330
121F
100
AcDbEntity
  8
SK2
 62
     0
100
AcDbTrace
 10
-57.7
 20
42.6649467874457
 30
0.0
 11
-57.7
 21
41.4982801207791
 31
0.0
 12
-61.2
 22
42.0816134541124
 32
0.0
 13
-61.2
 23
42.0816134541124
 33
0.0
  0
SOLID
  5
1254
330
121F
100
AcDbEntity
  8
SK2
 62
     0
100
AcDbTrace
 10
75.2999999999999
 20
42.6649467874457
 30
0.0
 11
75.2999999999999
 21
41.4982801207791
 31
0.0
 12
78.7999999999999
 22
42.0816134541124
 32
0.0
 13
78.7999999999999
 23
42.0816134541124
 33
0.0
  0
MTEXT
  5
1255
330
121F
100
AcDbEntity
  8
SK2
 62
     0
100
AcDbMText
 10
8.7999999999999
 20
44.8931032643724
 30
0.0
 40
3.5
 41
0.0
 71
     5
 72
     1
  1
\A1;140
 73
     1
 44
1.0
1001
ACAD
1000
MTEXTBEGIN
1070
    73
1070
     1
1070
    44
1040
1.0
1070
    74
1070
     0
1000
MTEXTEND
  0
POINT
  5
1256
330
121F
100
AcDbEntity
  8
DEFPOINTS
 62
     0
100
AcDbPoint
 10
-61.2
 20
8.60000000000002
 30
0.0
  0
POINT
  5
1257
330
121F
100
AcDbEntity
  8
DEFPOINTS
 62
     0
100
AcDbPoint
 10
78.7999999999999
 20
13.146
 30
0.0
  0
POINT
  5
1258
330
121F
100
AcDbEntity
  8
DEFPOINTS
 62
     0
100
AcDbPoint
 10
78.7999999999999
 20
42.0816134541124
 30
0.0
  0
ENDBLK
  5
1221
330
121F
100
AcDbEntity
  8
0
100
AcDbBlockEnd
  0
ENDSEC
  0
SECTION
  2
ENTITIES
  0
LINE
  5
FD7
330
18
100
AcDbEntity
  8
SK4
100
AcDbLine
 10
-63.2
 20
1.4210854715202E-14
 30
0.0
 11
80.7999999999999
 21
1.4210854715202E-14
 31
0.0
  0
LINE
  5
FD8
330
18
100
AcDbEntity
  8
4
100
AcDbLine
 10
0
 20
0
 30
0.0
 11
80.7999999999999
 21
1.4210854715202E-14
 31
0.0
  0
LINE
  5
FD9
330
18
100
AcDbEntity
  8
1
100
AcDbLine
 10
52.7379689012978
 20
-8.42004584887587
 30
0.0
 11
52.8
 21
-8.30653300336199
 31
0.0
  0
LINE
  5
FDA
330
18
100
AcDbEntity
  8
1
100
AcDbLine
 10
52.7379689013208
 20
-12.0512903171584
 30
0.0
 11
52.7379689013208
 21
-8.42004584883396
 31
0.0
  0
LINE
  5
FDB
330
18
100
AcDbEntity
  8
1
100
AcDbLine
 10
52.48113775
 20
6.94484577011967
 30
0.0
 11
52.48113775
 21
1.14307074031274
 31
0.0
  0
LINE
  5
FDC
330
18
100
AcDbEntity
  8
1
100
AcDbLine
 10
52.7379689013208
 20
0.872647178308526
 30
0.0
 11
52.48113775
 21
1.14307074031274
 31
0.0
  0
LINE
  5
FDD
330
18
100
AcDbEntity
  8
1
100
AcDbLine
 10
35.8
 20
-2.55424295640721
 30
0.0
 11
35.8
 21
-2.93500337204182
 31
0.0
  0
LINE
  5
FDE
330
18
100
AcDbEntity
  8
1
100
AcDbLine
 10
52.48113775
 20
-6.39182850914158
 30
0.0
 11
35.8
 21
-2.93500337204182
 31
0.0
  0
LINE
  5
FDF
330
18
100
AcDbEntity
  8
1
100
AcDbLine
 10
52.8
 20
-1.07751688349313
 30
0.0
 11
52.8
 21
0.870456807697877
 31
0.0
  0
LINE
  5
FE0
330
18
100
AcDbEntity
  8
1
100
AcDbLine
 10
52.8
 20
-1.07751688349315
 30
0.0
 11
28.8
 21
2.71712507067029
 31
0.0
  0
LINE
  5
FE1
330
18
100
AcDbEntity
  8
1
100
AcDbLine
 10
52.48113775
 20
1.14307074031274
 30
0.0
 11
46.4357661018612
 21
2.50882124726192
 31
0.0
  0
LINE
  5
FE2
330
18
100
AcDbEntity
  8
1
100
AcDbLine
 10
35.8
 20
4.73243107807707
 30
0.0
 11
35.8
 21
4.80893214960314
 31
0.0
  0
LINE
  5
FE3
330
18
100
AcDbEntity
  8
1
100
AcDbLine
 10
28.8
 20
-1.02237617146776
 30
0.0
 11
35.8
 21
-2.55424295640708
 31
0.0
  0
LINE
  5
FE4
330
18
100
AcDbEntity
  8
1
100
AcDbLine
 10
28.8
 20
6.08338737779461
 30
0.0
 11
28.8
 21
-1.02237617146774
 31
0.0
  0
LINE
  5
FE5
330
18
100
AcDbEntity
  8
1
100
AcDbLine
 10
28.8
 20
6.08338737779461
 30
0.0
 11
35.8
 21
4.73243107807707
 31
0.0
  0
LINE
  5
FE6
330
18
100
AcDbEntity
  8
1
100
AcDbLine
 10
28.8
 20
11
 30
0.0
 11
28.8
 21
10.9997991804743
 31
0.0
  0
LINE
  5
FE7
330
18
100
AcDbEntity
  8
1
100
AcDbLine
 10
28.8
 20
10.9997991804743
 30
0.0
 11
28.8
 21
10.9402065629925
 31
0.0
  0
LINE
  5
FE8
330
18
100
AcDbEntity
  8
1
100
AcDbLine
 10
28.8
 20
10.9402065629925
 30
0.0
 11
28.8
 21
10.1004059360389
 31
0.0
  0
LINE
  5
FE9
330
18
100
AcDbEntity
  8
1
100
AcDbLine
 10
28.8
 20
11
 30
0.0
 11
0
 21
11
 31
0.0
  0
ARC
  5
FEA
330
18
100
AcDbEntity
  8
1
100
AcDbCircle
 10
39.8268048783019
 20
215.515913919117
 30
0.0
 40
226.516726055348
100
AcDbArc
 50
267.2097462083982
 51
268.9813947963235
  0
LINE
  5
FEB
330
18
100
AcDbEntity
  8
1
100
AcDbLine
 10
28.8
 20
-6.83631243567768
 30
0.0
 11
28.8
 21
-10.7322691592939
 31
0.0
  0
LINE
  5
FEC
330
18
100
AcDbEntity
  8
1
100
AcDbLine
 10
52.48113775
 20
11.35
 30
0.0
 11
52.7379689013208
 21
12.984374178753
 31
0.0
  0
LINE
  5
FED
330
18
100
AcDbEntity
  8
1
100
AcDbLine
 10
52.48113775
 20
11.35
 30
0.0
 11
52.48113775
 21
11.3499416974102
 31
0.0
  0
LINE
  5
FEE
330
18
100
AcDbEntity
  8
1
100
AcDbLine
 10
52.48113775
 20
11.3499416974102
 30
0.0
 11
52.48113775
 21
11.3327998411997
 31
0.0
  0
LINE
  5
FEF
330
18
100
AcDbEntity
  8
1
100
AcDbLine
 10
52.48113775
 20
11.3327998411997
 30
0.0
 11
52.48113775
 21
11.0928374665511
 31
0.0
  0
ARC
  5
FF0
330
18
100
AcDbEntity
  8
1
100
AcDbCircle
 10
41.9152725745546
 20
-47.2009760395619
 30
0.0
 40
216.7880522593576
100
AcDbArc
 50
90.00065488045917
 51
91.61644410960652
  0
LINE
  5
FF1
330
18
100
AcDbEntity
  8
1
100
AcDbLine
 10
41.9127947261166
 20
11.35
 30
0.0
 11
52.48113775
 21
11.35
 31
0.0
  0
LINE
  5
FF2
330
18
100
AcDbEntity
  8
1
100
AcDbLine
 10
52.8
 20
0.870456807697977
 30
0.0
 11
52.8
 21
6.79111670453966
 31
0.0
  0
LINE
  5
FF3
330
18
100
AcDbEntity
  8
1
100
AcDbLine
 10
52.7379689012978
 20
6.79846626238674
 30
0.0
 11
52.8
 21
6.7911167045397
 31
0.0
  0
LINE
  5
FF4
330
18
100
AcDbEntity
  8
1
100
AcDbLine
 10
52.7379689013208
 20
0.872647178308526
 30
0.0
 11
52.7379689013208
 21
6.79846626238395
 31
0.0
  0
LINE
  5
FF5
330
18
100
AcDbEntity
  8
1
100
AcDbLine
 10
52.7379689012978
 20
0.872647178309379
 30
0.0
 11
52.8
 21
0.870456807697977
 31
0.0
  0
LINE
  5
FF6
330
18
100
AcDbEntity
  8
1
100
AcDbLine
 10
35.8
 20
9.52037258296384
 30
0.0
 11
35.8
 21
4.80893214960314
 31
0.0
  0
LINE
  5
FF7
330
18
100
AcDbEntity
  8
1
100
AcDbLine
 10
28.8
 20
10.1004059360389
 30
0.0
 11
35.8
 21
9.3863710561606
 31
0.0
  0
LINE
  5
FF8
330
18
100
AcDbEntity
  8
1
100
AcDbLine
 10
52.48113775
 20
6.94484577011967
 30
0.0
 11
50.3275832661502
 21
7.32832084711249
 31
0.0
  0
ARC
  5
FF9
330
18
100
AcDbEntity
  8
1
100
AcDbCircle
 10
49.1009096749287
 20
0.715031597044742
 30
0.0
 40
7.087764017591874
100
AcDbArc
 50
59.12636739213618
 51
61.51623322271933
  0
LINE
  5
FFA
330
18
100
AcDbEntity
  8
1
100
AcDbLine
 10
52.8
 20
7.16462697325251
 30
0.0
 11
52.8
 21
8.06594648869964
 31
0.0
  0
LINE
  5
FFB
330
18
100
AcDbEntity
  8
1
100
AcDbLine
 10
52.8
 20
8.06594648869964
 30
0.0
 11
52.8
 21
9.81473583718461
 31
0.0
  0
LINE
  5
FFC
330
18
100
AcDbEntity
  8
1
100
AcDbLine
 10
52.8
 20
9.81473583718463
 30
0.0
 11
42.6420961297056
 21
9.99099397824314
 31
0.0
  0
LINE
  5
FFD
330
18
100
AcDbEntity
  8
1
100
AcDbLine
 10
42.6420961297056
 20
9.99099397824314
 30
0.0
 11
32.4841922594113
 21
9.74887177270332
 31
0.0
  0
LINE
  5
FFE
330
18
100
AcDbEntity
  8
1
100
AcDbLine
 10
52.8
 20
7.16462697325251
 30
0.0
 11
50.3275832710581
 21
7.32832087517234
 31
0.0
  0
LINE
  5
FFF
330
18
100
AcDbEntity
  8
1
100
AcDbLine
 10
52.7379689013208
 20
12.5906159335398
 30
0.0
 11
52.48113775
 21
11.0928374665511
 31
0.0
  0
LINE
  5
1000
330
18
100
AcDbEntity
  8
1
100
AcDbLine
 10
52.48113775
 20
11.0928374665511
 30
0.0
 11
41.9127947261166
 21
11.35
 31
0.0
  0
ARC
  5
1001
330
18
100
AcDbEntity
  8
1
100
AcDbCircle
 10
42.4403164502625
 20
-59.7190719705267
 30
0.0
 40
228.958862980193
100
AcDbArc
 50
91.66193849261986
 51
93.41544137853594
  0
LINE
  5
1002
330
18
100
AcDbEntity
  8
1
100
AcDbLine
 10
35.8
 20
10.9063543369503
 30
0.0
 11
35.8
 21
11.2637479097015
 31
0.0
  0
LINE
  5
1003
330
18
100
AcDbEntity
  8
1
100
AcDbLine
 10
52.7379689013208
 20
12.5906159335397
 30
0.0
 11
52.7379689013208
 21
12.984374178753
 31
0.0
  0
LINE
  5
1004
330
18
100
AcDbEntity
  8
1
100
AcDbLine
 10
52.7379689012978
 20
12.5906159335779
 30
0.0
 11
52.8
 21
12.4876644672667
 31
0.0
  0
LINE
  5
1005
330
18
100
AcDbEntity
  8
1
100
AcDbLine
 10
52.7170105509256
 20
-11.9156656457803
 30
0.0
 11
52.48113775
 21
-10.8952130390297
 31
0.0
  0
LINE
  5
1006
330
18
100
AcDbEntity
  8
1
100
AcDbLine
 10
35.8
 20
-11.3343044239812
 30
0.0
 11
35.8
 21
-11.35
 31
0.0
  0
LINE
  5
1007
330
18
100
AcDbEntity
  8
1
100
AcDbLine
 10
52.7379689013208
 20
-8.42004584883396
 30
0.0
 11
52.48113775
 21
-6.39182850914158
 31
0.0
  0
LINE
  5
1008
330
18
100
AcDbEntity
  8
1
100
AcDbLine
 10
52.48113775
 20
-10.3863808974924
 30
0.0
 11
35.8
 21
-8.29166439165466
 31
0.0
  0
LINE
  5
1009
330
18
100
AcDbEntity
  8
1
100
AcDbLine
 10
52.48113775
 20
-6.39182850914158
 30
0.0
 11
52.48113775
 21
-10.3863808974923
 31
0.0
  0
LINE
  5
100A
330
18
100
AcDbEntity
  8
1
100
AcDbLine
 10
35.8
 20
-2.93500337204182
 30
0.0
 11
35.8
 21
-8.29166439165463
 31
0.0
  0
LINE
  5
100B
330
18
100
AcDbEntity
  8
1
100
AcDbLine
 10
35.8
 20
-10.9649800187452
 30
0.0
 11
35.8
 21
-11.3343044239812
 31
0.0
  0
LINE
  5
100C
330
18
100
AcDbEntity
  8
1
100
AcDbLine
 10
52.48113775
 20
-10.8952130390297
 30
0.0
 11
38.406262701246
 21
-11.3499999999987
 31
0.0
  0
LINE
  5
100D
330
18
100
AcDbEntity
  8
1
100
AcDbLine
 10
52.7379689012978
 20
-12.051290317196
 30
0.0
 11
52.8
 21
-11.9496925743706
 31
0.0
  0
LINE
  5
100E
330
18
100
AcDbEntity
  8
1
100
AcDbLine
 10
52.7379689013208
 20
-12.0512903171584
 30
0.0
 11
52.48113775
 21
-10.3863808974924
 31
0.0
  0
LINE
  5
100F
330
18
100
AcDbEntity
  8
1
100
AcDbLine
 10
28.8
 20
-6.83631243567768
 30
0.0
 11
35.8
 21
-7.98155108128238
 31
0.0
  0
LINE
  5
1010
330
18
100
AcDbEntity
  8
1
100
AcDbLine
 10
52.8
 20
12.4876644672667
 30
0.0
 11
52.8
 21
12.8769332142857
 31
0.0
  0
LINE
  5
1011
330
18
100
AcDbEntity
  8
1
100
AcDbLine
 10
52.8
 20
9.81473583718461
 30
0.0
 11
52.8
 21
12.4876644672667
 31
0.0
  0
LINE
  5
1012
330
18
100
AcDbEntity
  8
1
100
AcDbLine
 10
52.8
 20
6.7911167045397
 30
0.0
 11
52.8
 21
7.16462697325251
 31
0.0
  0
LINE
  5
1013
330
18
100
AcDbEntity
  8
1
100
AcDbLine
 10
52.8
 20
-8.30653300336198
 30
0.0
 11
52.8
 21
-1.07751688349313
 31
0.0
  0
LINE
  5
1014
330
18
100
AcDbEntity
  8
1
100
AcDbLine
 10
52.8
 20
-11.9496925743707
 30
0.0
 11
52.8
 21
-8.30653300336196
 31
0.0
  0
LINE
  5
1015
330
18
100
AcDbEntity
  8
1
100
AcDbLine
 10
46.4357661022829
 20
2.50882124914939
 30
0.0
 11
28.8
 21
5.72176048020995
 31
0.0
  0
LINE
  5
1016
330
18
100
AcDbEntity
  8
1
100
AcDbLine
 10
46.4357661018612
 20
2.50882124726192
 30
0.0
 11
35.8
 21
4.80893214960317
 31
0.0
  0
LINE
  5
1017
330
18
100
AcDbEntity
  8
1
100
AcDbLine
 10
35.8
 20
-11
 30
0.0
 11
0
 21
-11
 31
0.0
  0
LINE
  5
1018
330
18
100
AcDbEntity
  8
1
100
AcDbLine
 10
50.3275832661502
 20
7.32832084711249
 30
0.0
 11
35.8
 21
9.52037258296384
 31
0.0
  0
LINE
  5
1019
330
18
100
AcDbEntity
  8
1
100
AcDbLine
 10
52.8
 20
12.8769332142857
 30
0.0
 11
52.7379689012978
 21
12.9843741787928
 31
0.0
  0
LINE
  5
101A
330
18
100
AcDbEntity
  8
1
100
AcDbLine
 10
38.406262701246
 20
-11.3499999999987
 30
0.0
 11
35.8
 21
-11.3343044239812
 31
0.0
  0
LINE
  5
101B
330
18
100
AcDbEntity
  8
1
100
AcDbLine
 10
35.8
 20
-11.35
 30
0.0
 11
38.406262701246
 21
-11.35
 31
0.0
  0
LINE
  5
101C
330
18
100
AcDbEntity
  8
1
 62
     1
100
AcDbLine
 10
54.2801905938495
 20
13.3622373323629
 30
0.0
 11
54.3344523578723
 21
13.3616185792616
 31
0.0
  0
LINE
  5
101D
330
18
100
AcDbEntity
  8
1
 62
     1
100
AcDbLine
 10
56.0826099107331
 20
13.3416841387424
 30
0.0
 11
56.1607617521356
 21
13.3407929643563
 31
0.0
  0
LINE
  5
101E
330
18
100
AcDbEntity
  8
1
 62
     1
100
AcDbLine
 10
57.8850292276165
 20
13.3211309451219
 30
0.0
 11
57.987071146399
 21
13.319967349451
 31
0.0
  0
LINE
  5
101F
330
18
100
AcDbEntity
  8
1
 62
     1
100
AcDbLine
 10
76.9857142857143
 20
-11.8377032142857
 30
0.0
 11
76.8466227545694
 21
-12.0786167008052
 31
0.0
  0
LINE
  5
1020
330
18
100
AcDbEntity
  8
1
 62
     1
100
AcDbLine
 10
75.1714285714286
 20
-11.8377032142857
 30
0.0
 11
74.6580493617393
 21
-12.726901674428
 31
0.0
  0
LINE
  5
1021
330
18
100
AcDbEntity
  8
1
 62
     1
100
AcDbLine
 10
78.7999999999999
 20
1.33471091603512
 30
0.0
 11
77.0841791540416
 21
1.39506243562704
 31
0.0
  0
LINE
  5
1022
330
18
100
AcDbEntity
  8
1
 62
     1
100
AcDbLine
 10
77.0841791540417
 20
-4.76492490573084
 30
0.0
 11
77.0841791540417
 21
1.39506242852285
 31
0.0
  0
LINE
  5
1023
330
18
100
AcDbEntity
  8
1
 62
     1
100
AcDbLine
 10
76.8466227545694
 20
1.40700131467541
 30
0.0
 11
75.5348569977891
 21
1.48809232301575
 31
0.0
  0
LINE
  5
1024
330
18
100
AcDbEntity
  8
1
 62
     1
100
AcDbLine
 10
75.5348569977891
 20
-4.6778194058828
 30
0.0
 11
75.5348569977891
 21
1.48809232301575
 31
0.0
  0
LINE
  5
1025
330
18
100
AcDbEntity
  8
1
 62
     1
100
AcDbLine
 10
74.6580493617393
 20
1.55630339608339
 30
0.0
 11
73.9855348415367
 21
1.61605085617497
 31
0.0
  0
LINE
  5
1026
330
18
100
AcDbEntity
  8
1
 62
     1
100
AcDbLine
 10
73.9855348415367
 20
-4.56135019683494
 30
0.0
 11
73.9855348415367
 21
1.61605085617498
 31
0.0
  0
LINE
  5
1027
330
18
100
AcDbEntity
  8
1
 62
     1
100
AcDbLine
 10
74.6580493612182
 20
-4.61553183066283
 30
0.0
 11
73.9855348415367
 21
-4.56135019683494
 31
0.0
  0
LINE
  5
1028
330
18
100
AcDbEntity
  8
1
 62
     1
100
AcDbLine
 10
74.6580493617393
 20
-4.61553183130084
 30
0.0
 11
74.6580493617393
 21
1.55630339608339
 31
0.0
  0
LINE
  5
1029
330
18
100
AcDbEntity
  8
1
 62
     1
100
AcDbLine
 10
75.5348569977892
 20
-12.4671794201636
 30
0.0
 11
75.1714285714286
 21
-11.8377032142857
 31
0.0
  0
LINE
  5
102A
330
18
100
AcDbEntity
  8
1
 62
     1
100
AcDbLine
 10
75.5348569977892
 20
-12.4671794201636
 30
0.0
 11
75.5348569977891
 21
-12.4668929100322
 31
0.0
  0
LINE
  5
102B
330
18
100
AcDbEntity
  8
1
 62
     1
100
AcDbLine
 10
75.5348569977891
 20
-12.4668929100322
 30
0.0
 11
75.5348569977892
 21
-12.3845027129361
 31
0.0
  0
LINE
  5
102C
330
18
100
AcDbEntity
  8
1
 62
     1
100
AcDbLine
 10
75.5348569977892
 20
-12.3845027129361
 30
0.0
 11
75.5348569977891
 21
-11.3123801446949
 31
0.0
  0
LINE
  5
102D
330
18
100
AcDbEntity
  8
1
 62
     1
100
AcDbLine
 10
76.8466227545384
 20
-10.9744558071625
 30
0.0
 11
76.9857142857143
 21
-10.6912932434697
 31
0.0
  0
LINE
  5
102E
330
18
100
AcDbEntity
  8
1
 62
     1
100
AcDbLine
 10
76.9857142857143
 20
-11.8377032142857
 30
0.0
 11
76.9857142857143
 21
-11.8374565516863
 31
0.0
  0
LINE
  5
102F
330
18
100
AcDbEntity
  8
1
 62
     1
100
AcDbLine
 10
76.9857142857143
 20
-11.8374565516863
 30
0.0
 11
76.9857142857143
 21
-11.7634996512104
 31
0.0
  0
LINE
  5
1030
330
18
100
AcDbEntity
  8
1
 62
     1
100
AcDbLine
 10
76.9857142857143
 20
-11.7634996512104
 30
0.0
 11
76.9857142857143
 21
-10.6912932434697
 31
0.0
  0
LINE
  5
1031
330
18
100
AcDbEntity
  8
1
 62
     1
100
AcDbLine
 10
77.0841791540417
 20
-12.0082492894722
 30
0.0
 11
76.9857142857143
 21
-11.8377032142857
 31
0.0
  0
LINE
  5
1032
330
18
100
AcDbEntity
  8
1
 62
     1
100
AcDbLine
 10
77.0841791540417
 20
-12.0082492894722
 30
0.0
 11
77.0841791540417
 21
-12.0079773837943
 31
0.0
  0
LINE
  5
1033
330
18
100
AcDbEntity
  8
1
 62
     1
100
AcDbLine
 10
77.0841791540417
 20
-12.0079773837943
 30
0.0
 11
77.0841791540416
 21
-11.9297881668667
 31
0.0
  0
LINE
  5
1034
330
18
100
AcDbEntity
  8
1
 62
     1
100
AcDbLine
 10
77.0841791540416
 20
-11.9297881668667
 30
0.0
 11
77.0841791540417
 21
-10.9120941730177
 31
0.0
  0
LINE
  5
1035
330
18
100
AcDbEntity
  8
1
 62
     1
100
AcDbLine
 10
72.5975463005059
 20
1.85523381909843
 30
0.0
 11
72.3043837665004
 21
1.93051419810989
 31
0.0
  0
LINE
  5
1036
330
18
100
AcDbEntity
  8
1
 62
     1
100
AcDbLine
 10
72.3043837626845
 20
-4.26564964287807
 30
0.0
 11
72.3043837626845
 21
1.93051418579005
 31
0.0
  0
LINE
  5
1037
330
18
100
AcDbEntity
  8
1
 62
     1
100
AcDbLine
 10
72.5975463005059
 20
-4.3374925767434
 30
0.0
 11
72.5975463005059
 21
1.85523381909839
 31
0.0
  0
LINE
  5
1038
330
18
100
AcDbEntity
  8
1
 62
     1
100
AcDbLine
 10
70.7712369062425
 20
2.32375104790562
 30
0.0
 11
70.5019644474504
 21
2.39272102520795
 31
0.0
  0
LINE
  5
1039
330
18
100
AcDbEntity
  8
1
 62
     1
100
AcDbLine
 10
70.501964445801
 20
-3.8199879056524
 30
0.0
 11
70.501964445801
 21
2.39272102075037
 31
0.0
  0
LINE
  5
103A
330
18
100
AcDbEntity
  8
1
 62
     1
100
AcDbLine
 10
70.7712369062425
 20
-3.88698808870282
 30
0.0
 11
70.501964445801
 21
-3.8199879056524
 31
0.0
  0
LINE
  5
103B
330
18
100
AcDbEntity
  8
1
 62
     1
100
AcDbLine
 10
68.9449275119791
 20
2.79081134909796
 30
0.0
 11
68.6995451289175
 21
2.85342118099277
 31
0.0
  0
LINE
  5
103C
330
18
100
AcDbEntity
  8
1
 62
     1
100
AcDbLine
 10
68.6995451289175
 20
-3.36792524402578
 30
0.0
 11
68.6995451289175
 21
2.85342118099277
 31
0.0
  0
LINE
  5
103D
330
18
100
AcDbEntity
  8
1
 62
     1
100
AcDbLine
 10
68.9449275119791
 20
-3.42982482433733
 30
0.0
 11
68.6995451289175
 21
-3.36792524407254
 31
0.0
  0
LINE
  5
103E
330
18
100
AcDbEntity
  8
1
 62
     1
100
AcDbLine
 10
67.1186181177158
 20
3.2558038906904
 30
0.0
 11
66.8971258119674
 21
3.31202779950404
 31
0.0
  0
LINE
  5
103F
330
18
100
AcDbEntity
  8
1
 62
     1
100
AcDbLine
 10
66.8971258120341
 20
-2.91003503942589
 30
0.0
 11
66.897125812034
 21
3.31202780096933
 31
0.0
  0
LINE
  5
1040
330
18
100
AcDbEntity
  8
1
 62
     1
100
AcDbLine
 10
67.1186181177158
 20
-2.96659791644653
 30
0.0
 11
66.8971258119631
 21
-2.91003503699298
 31
0.0
  0
LINE
  5
1041
330
18
100
AcDbEntity
  8
1
 62
     1
100
AcDbLine
 10
65.2923087234524
 20
3.71812023693775
 30
0.0
 11
65.0947064951506
 21
3.76795548507134
 31
0.0
  0
LINE
  5
1042
330
18
100
AcDbEntity
  8
1
 62
     1
100
AcDbLine
 10
65.0947064951505
 20
-2.44689992396118
 30
0.0
 11
65.0947064951505
 21
3.76795548507134
 31
0.0
  0
LINE
  5
1043
330
18
100
AcDbEntity
  8
1
 62
     1
100
AcDbLine
 10
65.2923087234524
 20
-2.49791203097105
 30
0.0
 11
65.0947064951505
 21
-2.44689992396118
 31
0.0
  0
LINE
  5
1044
330
18
100
AcDbEntity
  8
1
 62
     1
100
AcDbLine
 10
63.4659993291891
 20
4.17715076308066
 30
0.0
 11
63.2922871783836
 21
4.22061904134993
 31
0.0
  0
LINE
  5
1045
330
18
100
AcDbEntity
  8
1
 62
     1
100
AcDbLine
 10
63.292287178267
 20
-1.97911146112536
 30
0.0
 11
63.292287178267
 21
4.22061904134522
 31
0.0
  0
LINE
  5
1046
330
18
100
AcDbEntity
  8
1
 62
     1
100
AcDbLine
 10
63.4659993291891
 20
-2.02438174749226
 30
0.0
 11
63.2922871782444
 21
-1.97911146055233
 31
0.0
  0
LINE
  5
1047
330
18
100
AcDbEntity
  8
1
 62
     1
100
AcDbLine
 10
61.6396899349257
 20
4.63228981293632
 30
0.0
 11
61.4898678628433
 21
4.6694359466229
 31
0.0
  0
LINE
  5
1048
330
18
100
AcDbEntity
  8
1
 62
     1
100
AcDbLine
 10
61.4898678613835
 20
-1.50726928083004
 30
0.0
 11
61.4898678613835
 21
4.66943594428952
 31
0.0
  0
LINE
  5
1049
330
18
100
AcDbEntity
  8
1
 62
     1
100
AcDbLine
 10
61.6396899349257
 20
-1.54662984120992
 30
0.0
 11
61.4898678613835
 21
-1.50726928354156
 31
0.0
  0
LINE
  5
104A
330
18
100
AcDbEntity
  8
1
 62
     1
100
AcDbLine
 10
59.8133805444747
 20
5.08293376313415
 30
0.0
 11
59.6874485456228
 21
5.11382673266282
 31
0.0
  0
LINE
  5
104B
330
18
100
AcDbEntity
  8
1
 62
     1
100
AcDbLine
 10
59.6874485445
 20
-1.03198002255887
 30
0.0
 11
59.6874485445
 21
5.11382673115578
 31
0.0
  0
LINE
  5
104C
330
18
100
AcDbEntity
  8
1
 62
     1
100
AcDbLine
 10
59.8133805406624
 20
-1.06528690631389
 30
0.0
 11
59.6874485444416
 21
-1.03198002073843
 31
0.0
  0
LINE
  5
104D
330
18
100
AcDbEntity
  8
1
 62
     1
100
AcDbLine
 10
57.987071146399
 20
5.52848246834472
 30
0.0
 11
57.8850292280721
 21
5.55321437544467
 31
0.0
  0
LINE
  5
104E
330
18
100
AcDbEntity
  8
1
 62
     1
100
AcDbLine
 10
57.8850292276165
 20
-0.553857284015677
 30
0.0
 11
57.8850292276165
 21
5.55321437508881
 31
0.0
  0
LINE
  5
104F
330
18
100
AcDbEntity
  8
1
 62
     1
100
AcDbLine
 10
57.987071146399
 20
-0.580990643510191
 30
0.0
 11
57.8850292275774
 21
-0.553857283018672
 31
0.0
  0
LINE
  5
1050
330
18
100
AcDbEntity
  8
1
 62
     1
100
AcDbLine
 10
56.16076175042
 20
5.96834127804597
 30
0.0
 11
56.0826099069024
 21
5.98702786913968
 31
0.0
  0
LINE
  5
1051
330
18
100
AcDbEntity
  8
1
 62
     1
100
AcDbLine
 10
56.0826099107331
 20
-0.0735196622213721
 30
0.0
 11
56.0826099107331
 21
5.98702788787904
 31
0.0
  0
LINE
  5
1052
330
18
100
AcDbEntity
  8
1
 62
     1
100
AcDbLine
 10
56.1607617522386
 20
-0.0943843280073082
 30
0.0
 11
56.0826099107757
 21
-0.0735196622419636
 31
0.0
  0
LINE
  5
1053
330
18
100
AcDbEntity
  8
1
 62
     1
100
AcDbLine
 10
54.3344523578978
 20
6.40191903463098
 30
0.0
 11
54.2801905938495
 21
6.41469900175237
 31
0.0
  0
LINE
  5
1054
330
18
100
AcDbEntity
  8
1
 62
     1
100
AcDbLine
 10
54.2801905938495
 20
0.408408474862625
 30
0.0
 11
54.2801905938495
 21
6.41469900175234
 31
0.0
  0
LINE
  5
1055
330
18
100
AcDbEntity
  8
1
 62
     1
100
AcDbLine
 10
54.3344523578659
 20
0.39388283130198
 30
0.0
 11
54.2801905938495
 21
0.408408474862625
 31
0.0
  0
LINE
  5
1056
330
18
100
AcDbEntity
  8
1
 62
     1
100
AcDbLine
 10
54.3344523578723
 20
0.39388283109416
 30
0.0
 11
54.3344523578723
 21
6.4019190349987
 31
0.0
  0
LINE
  5
1057
330
18
100
AcDbEntity
  8
1
 62
     1
100
AcDbLine
 10
70.7712369062113
 20
-11.6148698575166
 30
0.0
 11
71.5428571428571
 21
-10.0697664389447
 31
0.0
  0
LINE
  5
1058
330
18
100
AcDbEntity
  8
1
 62
     1
100
AcDbLine
 10
70.7712369062425
 20
-13.1727731979816
 30
0.0
 11
70.7712369062425
 21
-12.754584530923
 31
0.0
  0
LINE
  5
1059
330
18
100
AcDbEntity
  8
1
 62
     1
100
AcDbLine
 10
70.7712369062425
 20
-12.754584530923
 30
0.0
 11
70.7712369062425
 21
-11.614869857456
 31
0.0
  0
LINE
  5
105A
330
18
100
AcDbEntity
  8
1
 62
     1
100
AcDbLine
 10
72.3043837626846
 20
-13.1567053961578
 30
0.0
 11
71.9632526922689
 21
-12.5658493256444
 31
0.0
  0
LINE
  5
105B
330
18
100
AcDbEntity
  8
1
 62
     1
100
AcDbLine
 10
71.5428571428571
 20
-10.0697664389447
 30
0.0
 11
72.3043837627158
 21
-11.78077339808
 31
0.0
  0
LINE
  5
105C
330
18
100
AcDbEntity
  8
1
 62
     1
100
AcDbLine
 10
71.5428571428571
 20
-11.8350847692015
 30
0.0
 11
71.5428571428571
 21
-11.3826262821655
 31
0.0
  0
LINE
  5
105D
330
18
100
AcDbEntity
  8
1
 62
     1
100
AcDbLine
 10
71.5428571428571
 20
-11.3826262821655
 30
0.0
 11
71.5428571428571
 21
-10.0697664389446
 31
0.0
  0
LINE
  5
105E
330
18
100
AcDbEntity
  8
1
 62
     1
100
AcDbLine
 10
69.7285714285714
 20
-11.8180391787316
 30
0.0
 11
70.5019644458321
 21
-13.1746114080772
 31
0.0
  0
LINE
  5
105F
330
18
100
AcDbEntity
  8
1
 62
     1
100
AcDbLine
 10
70.5019644458011
 20
-13.1746114080229
 30
0.0
 11
70.5019644458011
 21
-12.7397814802588
 31
0.0
  0
LINE
  5
1060
330
18
100
AcDbEntity
  8
1
 62
     1
100
AcDbLine
 10
70.5019644458011
 20
-12.7397814802588
 30
0.0
 11
70.501964445801
 21
-11.5845921304525
 31
0.0
  0
LINE
  5
1061
330
18
100
AcDbEntity
  8
1
 62
     1
100
AcDbLine
 10
68.9449275119482
 20
-13.1777183979576
 30
0.0
 11
69.7285714285714
 21
-11.8180391787316
 31
0.0
  0
LINE
  5
1062
330
18
100
AcDbEntity
  8
1
 62
     1
100
AcDbLine
 10
69.7285714285714
 20
-11.8180391787316
 30
0.0
 11
69.7285714285714
 21
-9.8352061764686
 31
0.0
  0
LINE
  5
1063
330
18
100
AcDbEntity
  8
1
 62
     1
100
AcDbLine
 10
67.9142857142857
 20
-11.7851525802348
 30
0.0
 11
68.6995451289485
 21
-13.1770365280495
 31
0.0
  0
LINE
  5
1064
330
18
100
AcDbEntity
  8
1
 62
     1
100
AcDbLine
 10
68.6995451289175
 20
-13.17703652793
 30
0.0
 11
68.6995451289175
 21
-11.3732348962467
 31
0.0
  0
LINE
  5
1065
330
18
100
AcDbEntity
  8
1
 62
     1
100
AcDbLine
 10
67.9142857142857
 20
-9.5874630111004
 30
0.0
 11
68.6995451289485
 21
-11.3732348963152
 31
0.0
  0
LINE
  5
1066
330
18
100
AcDbEntity
  8
1
 62
     1
100
AcDbLine
 10
67.9142857142857
 20
-11.7851525802348
 30
0.0
 11
67.9142857142857
 21
-9.58746301110041
 31
0.0
  0
LINE
  5
1067
330
18
100
AcDbEntity
  8
1
 62
     1
100
AcDbLine
 10
67.1186181177158
 20
-13.1649822341556
 30
0.0
 11
67.1186181177158
 21
-11.1755263475073
 31
0.0
  0
LINE
  5
1068
330
18
100
AcDbEntity
  8
1
 62
     1
100
AcDbLine
 10
66.1
 20
-11.7364690165431
 30
0.0
 11
66.8971258120648
 21
-13.162233217381
 31
0.0
  0
LINE
  5
1069
330
18
100
AcDbEntity
  8
1
 62
     1
100
AcDbLine
 10
66.8971258120341
 20
-13.1622332173263
 30
0.0
 11
66.897125812034
 21
-11.1469162679521
 31
0.0
  0
LINE
  5
106A
330
18
100
AcDbEntity
  8
1
 62
     1
100
AcDbLine
 10
66.1
 20
-9.32686809622808
 30
0.0
 11
66.8971258120648
 21
-11.1469162693531
 31
0.0
  0
LINE
  5
106B
330
18
100
AcDbEntity
  8
1
 62
     1
100
AcDbLine
 10
66.1
 20
-11.7364690165431
 30
0.0
 11
66.1
 21
-9.32686809622808
 31
0.0
  0
LINE
  5
106C
330
18
100
AcDbEntity
  8
1
 62
     1
100
AcDbLine
 10
65.2923087234524
 20
-13.1345247867826
 30
0.0
 11
65.2923087234524
 21
-10.9330074764071
 31
0.0
  0
LINE
  5
106D
330
18
100
AcDbEntity
  8
1
 62
     1
100
AcDbLine
 10
64.2857142857142
 20
-11.6720538055902
 30
0.0
 11
65.0947064951811
 21
-13.1301660407533
 31
0.0
  0
LINE
  5
106E
330
18
100
AcDbEntity
  8
1
 62
     1
100
AcDbLine
 10
65.0947064951505
 20
-13.1301660406984
 30
0.0
 11
65.0947064951505
 21
-10.9058700909397
 31
0.0
  0
LINE
  5
106F
330
18
100
AcDbEntity
  8
1
 62
     1
100
AcDbLine
 10
64.2857142857142
 20
-11.6720538055902
 30
0.0
 11
64.2857142857142
 21
-9.05377193995791
 31
0.0
  0
LINE
  5
1070
330
18
100
AcDbEntity
  8
1
 62
     1
100
AcDbLine
 10
63.4659993291586
 20
-10.6755995267571
 30
0.0
 11
64.2857142857142
 21
-9.05377193995791
 31
0.0
  0
LINE
  5
1071
330
18
100
AcDbEntity
  8
1
 62
     1
100
AcDbLine
 10
63.4659993291891
 20
-13.0863300401155
 30
0.0
 11
63.4659993291891
 21
-10.6755995266988
 31
0.0
  0
LINE
  5
1072
330
18
100
AcDbEntity
  8
1
 62
     1
100
AcDbLine
 10
62.4714285714286
 20
-11.5919932062363
 30
0.0
 11
63.2922871782974
 21
-13.0808222198677
 31
0.0
  0
LINE
  5
1073
330
18
100
AcDbEntity
  8
1
 62
     1
100
AcDbLine
 10
63.292287178267
 20
-13.0808222198128
 30
0.0
 11
63.292287178267
 21
-10.6503503554633
 31
0.0
  0
LINE
  5
1074
330
18
100
AcDbEntity
  8
1
 62
     1
100
AcDbLine
 10
62.4714285714286
 20
-8.76853940813808
 30
0.0
 11
63.2922871782974
 21
-10.6503503555312
 31
0.0
  0
LINE
  5
1075
330
18
100
AcDbEntity
  8
1
 62
     1
100
AcDbLine
 10
61.6396899348965
 20
-13.0204059019359
 30
0.0
 11
62.4714285714286
 21
-11.5919932062363
 31
0.0
  0
LINE
  5
1076
330
18
100
AcDbEntity
  8
1
 62
     1
100
AcDbLine
 10
62.4714285714286
 20
-11.5919932062363
 30
0.0
 11
62.4714285714286
 21
-8.76853940813808
 31
0.0
  0
LINE
  5
1077
330
18
100
AcDbEntity
  8
1
 62
     1
100
AcDbLine
 10
61.6396899348965
 20
-10.4035840273258
 30
0.0
 11
62.4714285714286
 21
-8.76853940813808
 31
0.0
  0
LINE
  5
1078
330
18
100
AcDbEntity
  8
1
 62
     1
100
AcDbLine
 10
61.6396899349257
 20
-13.0204059018859
 30
0.0
 11
61.6396899349257
 21
-10.4035840272702
 31
0.0
  0
LINE
  5
1079
330
18
100
AcDbEntity
  8
1
 62
     1
100
AcDbLine
 10
60.6571428571428
 20
-11.4963946370336
 30
0.0
 11
61.489867861413
 21
-13.0142117276706
 31
0.0
  0
LINE
  5
107A
330
18
100
AcDbEntity
  8
1
 62
     1
100
AcDbLine
 10
61.4898678613835
 20
-13.0142117276171
 30
0.0
 11
61.4898678613835
 21
-10.3806300053028
 31
0.0
  0
LINE
  5
107B
330
18
100
AcDbEntity
  8
1
 62
     1
100
AcDbLine
 10
56.1607617521136
 20
-9.50301134547196
 30
0.0
 11
57.0285714285714
 21
-7.84393001913567
 31
0.0
  0
LINE
  5
107C
330
18
100
AcDbEntity
  8
1
 62
     1
100
AcDbLine
 10
56.1607617521356
 20
-12.7166969015936
 30
0.0
 11
56.1607617521356
 21
-9.50301135033006
 31
0.0
  0
LINE
  5
107D
330
18
100
AcDbEntity
  8
1
 62
     1
100
AcDbLine
 10
55.2142857142857
 20
-11.1177551475884
 30
0.0
 11
56.0826099107552
 21
-12.7112218105179
 31
0.0
  0
LINE
  5
107E
330
18
100
AcDbEntity
  8
1
 62
     1
100
AcDbLine
 10
56.0826099107331
 20
-12.7112218104772
 30
0.0
 11
56.082609910733
 21
-9.48927785083976
 31
0.0
  0
LINE
  5
107F
330
18
100
AcDbEntity
  8
1
 62
     1
100
AcDbLine
 10
55.2142857142857
 20
-7.51413264786447
 30
0.0
 11
56.0826099107552
 21
-9.48927785088908
 31
0.0
  0
LINE
  5
1080
330
18
100
AcDbEntity
  8
1
 62
     1
100
AcDbLine
 10
55.2142857142857
 20
-11.1177551475884
 30
0.0
 11
55.2142857142857
 21
-7.51413264786447
 31
0.0
  0
LINE
  5
1081
330
18
100
AcDbEntity
  8
1
 62
     1
100
AcDbLine
 10
54.3344523578507
 20
-9.17578228999791
 30
0.0
 11
55.2142857142857
 21
-7.51413264786447
 31
0.0
  0
LINE
  5
1082
330
18
100
AcDbEntity
  8
1
 62
     1
100
AcDbLine
 10
54.3344523578723
 20
-12.5804153020766
 30
0.0
 11
54.3344523578723
 21
-9.17578228995863
 31
0.0
  0
LINE
  5
1083
330
18
100
AcDbEntity
  8
1
 62
     1
100
AcDbLine
 10
74.6580493617038
 20
-11.5322390356876
 30
0.0
 11
75.1714285714286
 21
-10.4980985606125
 31
0.0
  0
LINE
  5
1084
330
18
100
AcDbEntity
  8
1
 62
     1
100
AcDbLine
 10
75.1714285714286
 20
-11.8377032142857
 30
0.0
 11
75.1714285714286
 21
-11.837416640807
 31
0.0
  0
LINE
  5
1085
330
18
100
AcDbEntity
  8
1
 62
     1
100
AcDbLine
 10
75.1714285714286
 20
-11.837416640807
 30
0.0
 11
75.1714285714286
 21
-11.7512437802262
 31
0.0
  0
LINE
  5
1086
330
18
100
AcDbEntity
  8
1
 62
     1
100
AcDbLine
 10
75.1714285714286
 20
-11.7512437802262
 30
0.0
 11
75.1714285714286
 21
-10.4980985606125
 31
0.0
  0
LINE
  5
1087
330
18
100
AcDbEntity
  8
1
 62
     1
100
AcDbLine
 10
73.3571428571428
 20
-10.2908295585994
 30
0.0
 11
73.9855348415711
 21
-11.6976183405583
 31
0.0
  0
LINE
  5
1088
330
18
100
AcDbEntity
  8
1
 62
     1
100
AcDbLine
 10
73.3571428571428
 20
-11.8377032142857
 30
0.0
 11
73.3571428571428
 21
-11.8373739780689
 31
0.0
  0
LINE
  5
1089
330
18
100
AcDbEntity
  8
1
 62
     1
100
AcDbLine
 10
73.3571428571428
 20
-11.8373739780689
 30
0.0
 11
73.3571428571428
 21
-11.738090023917
 31
0.0
  0
LINE
  5
108A
330
18
100
AcDbEntity
  8
1
 62
     1
100
AcDbLine
 10
73.3571428571428
 20
-11.738090023917
 30
0.0
 11
73.3571428571428
 21
-10.2908295585994
 31
0.0
  0
LINE
  5
108B
330
18
100
AcDbEntity
  8
1
 62
     1
100
AcDbLine
 10
73.9855348415367
 20
-12.9261095508551
 30
0.0
 11
73.3571428571428
 21
-11.8377032142857
 31
0.0
  0
LINE
  5
108C
330
18
100
AcDbEntity
  8
1
 62
     1
100
AcDbLine
 10
72.5975463005059
 20
-13.1533624302088
 30
0.0
 11
72.5975463005058
 21
-13.1530289182283
 31
0.0
  0
LINE
  5
108D
330
18
100
AcDbEntity
  8
1
 62
     1
100
AcDbLine
 10
72.5975463005058
 20
-13.1530289182283
 30
0.0
 11
72.5975463005058
 21
-13.057128130233
 31
0.0
  0
LINE
  5
108E
330
18
100
AcDbEntity
  8
1
 62
     1
100
AcDbLine
 10
72.5975463005058
 20
-13.057128130233
 30
0.0
 11
72.5975463005059
 21
-11.811233800967
 31
0.0
  0
LINE
  5
108F
330
18
100
AcDbEntity
  8
1
 62
     1
100
AcDbLine
 10
73.3571428571428
 20
-11.8377032142857
 30
0.0
 11
72.5975463005058
 21
-13.1533624302088
 31
0.0
  0
LINE
  5
1090
330
18
100
AcDbEntity
  8
1
 62
     1
100
AcDbLine
 10
57.0285714285714
 20
-11.2591165781399
 30
0.0
 11
57.8850292276394
 21
-12.8293445414908
 31
0.0
  0
LINE
  5
1091
330
18
100
AcDbEntity
  8
1
 62
     1
100
AcDbLine
 10
57.8850292276165
 20
-12.829344541449
 30
0.0
 11
57.8850292276165
 21
-9.79977395367594
 31
0.0
  0
LINE
  5
1092
330
18
100
AcDbEntity
  8
1
 62
     1
100
AcDbLine
 10
57.0285714285714
 20
-7.84393001913567
 30
0.0
 11
57.8850292276394
 21
-9.79977395508693
 31
0.0
  0
LINE
  5
1093
330
18
100
AcDbEntity
  8
1
 62
     1
100
AcDbLine
 10
57.0285714285714
 20
-11.2591165781399
 30
0.0
 11
57.0285714285714
 21
-7.84393001913567
 31
0.0
  0
LINE
  5
1094
330
18
100
AcDbEntity
  8
1
 62
     1
100
AcDbLine
 10
57.9870711463761
 20
-9.81695861766126
 30
0.0
 11
58.8428571428571
 21
-8.16321277828028
 31
0.0
  0
LINE
  5
1095
330
18
100
AcDbEntity
  8
1
 62
     1
100
AcDbLine
 10
57.987071146399
 20
-12.8355213127817
 30
0.0
 11
57.987071146399
 21
-9.81695861761852
 31
0.0
  0
LINE
  5
1096
330
18
100
AcDbEntity
  8
1
 62
     1
100
AcDbLine
 10
58.8428571428571
 20
-11.3853861221128
 30
0.0
 11
59.6874485445231
 21
-12.9303672836207
 31
0.0
  0
LINE
  5
1097
330
18
100
AcDbEntity
  8
1
 62
     1
100
AcDbLine
 10
59.6874485445
 20
-12.9303672835786
 30
0.0
 11
59.6874485445
 21
-10.0970007911808
 31
0.0
  0
LINE
  5
1098
330
18
100
AcDbEntity
  8
1
 62
     1
100
AcDbLine
 10
58.8428571428571
 20
-8.16321277828028
 30
0.0
 11
59.6874485445231
 21
-10.0970007943366
 31
0.0
  0
LINE
  5
1099
330
18
100
AcDbEntity
  8
1
 62
     1
100
AcDbLine
 10
58.8428571428571
 20
-11.3853861221128
 30
0.0
 11
58.8428571428571
 21
-8.1632127782803
 31
0.0
  0
LINE
  5
109A
330
18
100
AcDbEntity
  8
1
 62
     1
100
AcDbLine
 10
60.6571428571428
 20
-11.4963946370336
 30
0.0
 11
60.6571428571428
 21
-8.4715541136795
 31
0.0
  0
LINE
  5
109B
330
18
100
AcDbEntity
  8
1
 62
     1
100
AcDbLine
 10
59.8133805406392
 20
-10.1172630627269
 30
0.0
 11
60.6571428571428
 21
-8.4715541136795
 31
0.0
  0
LINE
  5
109C
330
18
100
AcDbEntity
  8
1
 62
     1
100
AcDbLine
 10
59.8133805406624
 20
-12.9367843096948
 30
0.0
 11
59.8133805406624
 21
-10.1172630626833
 31
0.0
  0
LINE
  5
109D
330
18
100
AcDbEntity
  8
1
 62
     1
100
AcDbLine
 10
53.4
 20
-10.9614914000941
 30
0.0
 11
54.2801905938711
 21
-12.5761004400641
 31
0.0
  0
LINE
  5
109E
330
18
100
AcDbEntity
  8
1
 62
     1
100
AcDbLine
 10
54.2801905938495
 20
-12.5761004400245
 30
0.0
 11
54.2801905938495
 21
-9.1658606305288
 31
0.0
  0
LINE
  5
109F
330
18
100
AcDbEntity
  8
1
 62
     1
100
AcDbLine
 10
53.3999999999999
 20
-7.17426364888424
 30
0.0
 11
54.2801905938711
 21
-9.1658606305765
 31
0.0
  0
LINE
  5
10A0
330
18
100
AcDbEntity
  8
1
 62
     1
100
AcDbLine
 10
53.4
 20
-10.9614914000941
 30
0.0
 11
53.4
 21
-7.17426364888424
 31
0.0
  0
LINE
  5
10A1
330
18
100
AcDbEntity
  8
1
 62
     1
100
AcDbLine
 10
76.8466227545383
 20
1.40700131464844
 30
0.0
 11
76.9857142857143
 21
1.52954735704199
 31
0.0
  0
LINE
  5
10A2
330
18
100
AcDbEntity
  8
1
 62
     1
100
AcDbLine
 10
76.8466227545694
 20
-4.75346253052045
 30
0.0
 11
76.8466227545694
 21
1.40700131467537
 31
0.0
  0
LINE
  5
10A3
330
18
100
AcDbEntity
  8
1
 62
     1
100
AcDbLine
 10
76.8466227545384
 20
-4.75346253394908
 30
0.0
 11
76.9857142857143
 21
-4.64214481348266
 31
0.0
  0
LINE
  5
10A4
330
18
100
AcDbEntity
  8
1
 62
     1
100
AcDbLine
 10
75.1714285714286
 20
-4.24041882202404
 30
0.0
 11
75.1714285714286
 21
1.95820949220483
 31
0.0
  0
LINE
  5
10A5
330
18
100
AcDbEntity
  8
1
 62
     1
100
AcDbLine
 10
78.7999999999999
 20
11.2756849437644
 30
0.0
 11
77.0841791540417
 21
11.7742901746634
 31
0.0
  0
LINE
  5
10A6
330
18
100
AcDbEntity
  8
1
 62
     1
100
AcDbLine
 10
77.0841791540417
 20
9.01049292135248
 30
0.0
 11
77.0841791540417
 21
11.7742901746634
 31
0.0
  0
LINE
  5
10A7
330
18
100
AcDbEntity
  8
1
 62
     1
100
AcDbLine
 10
78.7999999999999
 20
11.2756849437643
 30
0.0
 11
78.7999999999999
 21
8.43503332795305
 31
0.0
  0
LINE
  5
10A8
330
18
100
AcDbEntity
  8
1
 62
     1
100
AcDbLine
 10
76.8466227545694
 20
11.8440304417849
 30
0.0
 11
75.5348569977892
 21
12.2320717787164
 31
0.0
  0
LINE
  5
10A9
330
18
100
AcDbEntity
  8
1
 62
     1
100
AcDbLine
 10
75.5348569977892
 20
9.54518924344792
 30
0.0
 11
75.5348569977892
 21
12.2320717787164
 31
0.0
  0
LINE
  5
10AA
330
18
100
AcDbEntity
  8
1
 62
     1
100
AcDbLine
 10
76.8466227549569
 20
9.09157772234828
 30
0.0
 11
75.5348569977891
 21
9.54518924344792
 31
0.0
  0
LINE
  5
10AB
330
18
100
AcDbEntity
  8
1
 62
     1
100
AcDbLine
 10
76.8466227545694
 20
9.09157772064846
 30
0.0
 11
76.8466227545694
 21
11.8440304417849
 31
0.0
  0
LINE
  5
10AC
330
18
100
AcDbEntity
  8
1
 62
     1
100
AcDbLine
 10
74.6580493617393
 20
12.4940874312039
 30
0.0
 11
73.9855348415367
 21
12.6963926971475
 31
0.0
  0
LINE
  5
10AD
330
18
100
AcDbEntity
  8
1
 62
     1
100
AcDbLine
 10
73.9855348415367
 20
10.0930758005179
 30
0.0
 11
73.9855348415367
 21
12.6963926971475
 31
0.0
  0
LINE
  5
10AE
330
18
100
AcDbEntity
  8
1
 62
     1
100
AcDbLine
 10
74.6580493612167
 20
9.85370525890112
 30
0.0
 11
73.9855348415367
 21
10.0930758005179
 31
0.0
  0
LINE
  5
10AF
330
18
100
AcDbEntity
  8
1
 62
     1
100
AcDbLine
 10
74.6580493617393
 20
9.85370526026686
 30
0.0
 11
74.6580493617393
 21
12.4940874312039
 31
0.0
  0
LINE
  5
10B0
330
18
100
AcDbEntity
  8
1
 62
     1
100
AcDbLine
 10
76.9857142857143
 20
-4.64214481348314
 30
0.0
 11
76.9857142857143
 21
1.52954735704296
 31
0.0
  0
LINE
  5
10B1
330
18
100
AcDbEntity
  8
1
 62
     1
100
AcDbLine
 10
76.9857142857143
 20
-4.64214481348266
 30
0.0
 11
77.084179154075
 21
-4.76492490577239
 31
0.0
  0
LINE
  5
10B2
330
18
100
AcDbEntity
  8
1
 62
     1
100
AcDbLine
 10
59.8133805406624
 20
-1.06528690631389
 30
0.0
 11
59.8133805406624
 21
5.08293375794909
 31
0.0
  0
ARC
  5
10B3
330
18
100
AcDbEntity
  8
1
 62
     1
100
AcDbCircle
 10
56.8168068320779
 20
13.6987844346666
 30
0.0
 40
15.06510242136593
100
AcDbArc
 50
281.4731272575832
 51
284.768599675445
  0
LINE
  5
10B4
330
18
100
AcDbEntity
  8
1
 62
     1
100
AcDbLine
 10
58.8428571428571
 20
-0.435886134789229
 30
0.0
 11
58.8428571428571
 21
5.63066106236886
 31
0.0
  0
LINE
  5
10B5
330
18
100
AcDbEntity
  8
1
 62
     1
100
AcDbLine
 10
57.987071146399
 20
-0.580990643510191
 30
0.0
 11
57.987071146399
 21
5.52848246834472
 31
0.0
  0
ARC
  5
10B6
330
18
100
AcDbEntity
  8
1
 62
     1
100
AcDbCircle
 10
55.9914336658444
 20
13.7841058431269
 30
0.0
 40
14.50305488125738
100
AcDbArc
 50
277.9090612735792
 51
281.3386963573541
  0
LINE
  5
10B7
330
18
100
AcDbEntity
  8
1
 62
     1
100
AcDbLine
 10
57.0285714285714
 20
-0.00256316692598091
 30
0.0
 11
57.0285714285714
 21
6.00805337084199
 31
0.0
  0
ARC
  5
10B8
330
18
100
AcDbEntity
  8
1
 62
     1
100
AcDbCircle
 10
43.9749564435354
 20
-21.2213822665066
 30
0.0
 40
24.91255496874462
100
AcDbArc
 50
56.05786557391331
 51
58.40056733073456
  0
LINE
  5
10B9
330
18
100
AcDbEntity
  8
1
 62
     1
100
AcDbLine
 10
73.3571428571428
 20
-3.83300733903025
 30
0.0
 11
73.3571428571428
 21
2.38425262626987
 31
0.0
  0
ARC
  5
10BA
330
18
100
AcDbEntity
  8
1
 62
     1
100
AcDbCircle
 10
54.1900229322201
 20
14.3535666718442
 30
0.0
 40
13.96043055528063
100
AcDbArc
 50
270.5927713958925
 51
274.2075150829695
  0
LINE
  5
10BB
330
18
100
AcDbEntity
  8
1
 62
     1
100
AcDbLine
 10
55.2142857142857
 20
0.430763405751478
 30
0.0
 11
55.2142857142857
 21
6.37739303497665
 31
0.0
  0
LINE
  5
10BC
330
18
100
AcDbEntity
  8
1
 62
     1
100
AcDbLine
 10
56.1607617521356
 20
-0.0943843279435015
 30
0.0
 11
56.1607617521356
 21
5.96834128642099
 31
0.0
  0
LINE
  5
10BD
330
18
100
AcDbEntity
  8
1
 62
     1
100
AcDbLine
 10
60.6571428571428
 20
-0.86862505556077
 30
0.0
 11
60.6571428571428
 21
5.24572058933859
 31
0.0
  0
LINE
  5
10BE
330
18
100
AcDbEntity
  8
1
 62
     1
100
AcDbLine
 10
60.6571428571428
 20
-0.86862505556077
 30
0.0
 11
61.489867861413
 21
-1.50726928356497
 31
0.0
  0
LINE
  5
10BF
330
18
100
AcDbEntity
  8
1
 62
     1
100
AcDbLine
 10
61.6396899349257
 20
-1.54662984117276
 30
0.0
 11
61.6396899349257
 21
4.63228981293632
 31
0.0
  0
ARC
  5
10C0
330
18
100
AcDbEntity
  8
1
 62
     1
100
AcDbCircle
 10
57.5604099589643
 20
13.7474561396957
 30
0.0
 40
15.82876061715749
100
AcDbArc
 50
284.9344147079364
 51
288.0748376716374
  0
LINE
  5
10C1
330
18
100
AcDbEntity
  8
1
 62
     1
100
AcDbLine
 10
62.4714285714286
 20
-1.3001994074681
 30
0.0
 11
62.4714285714286
 21
4.85374957730838
 31
0.0
  0
LINE
  5
10C2
330
18
100
AcDbEntity
  8
1
 62
     1
100
AcDbLine
 10
62.4714285714286
 20
-1.3001994074681
 30
0.0
 11
63.2922871782974
 21
-1.97911146115128
 31
0.0
  0
LINE
  5
10C3
330
18
100
AcDbEntity
  8
1
 62
     1
100
AcDbLine
 10
63.4659993291891
 20
-2.02438174749226
 30
0.0
 11
63.4659993291891
 21
4.17715076308066
 31
0.0
  0
ARC
  5
10C4
330
18
100
AcDbEntity
  8
1
 62
     1
100
AcDbCircle
 10
58.1988835919791
 20
13.9312569744038
 30
0.0
 40
16.80252961438753
100
AcDbArc
 50
288.2685728263185
 51
291.238841045889
  0
LINE
  5
10C5
330
18
100
AcDbEntity
  8
1
 62
     1
100
AcDbLine
 10
68.9449275119791
 20
-3.42982482433733
 30
0.0
 11
68.9449275119791
 21
2.79081134909798
 31
0.0
  0
ARC
  5
10C6
330
18
100
AcDbEntity
  8
1
 62
     1
100
AcDbCircle
 10
59.2511022497522
 20
15.3137457147015
 30
0.0
 40
21.10193831958437
100
AcDbArc
 50
297.3471625996396
 51
299.7698044331614
  0
LINE
  5
10C7
330
18
100
AcDbEntity
  8
1
 62
     1
100
AcDbLine
 10
69.7285714285714
 20
-3.00332417037498
 30
0.0
 11
69.7285714285714
 21
3.2261840348601
 31
0.0
  0
LINE
  5
10C8
330
18
100
AcDbEntity
  8
1
 62
     1
100
AcDbLine
 10
71.5428571428571
 20
-3.42045809893411
 30
0.0
 11
71.5428571428571
 21
2.80710013376022
 31
0.0
  0
LINE
  5
10C9
330
18
100
AcDbEntity
  8
1
 62
     1
100
AcDbLine
 10
71.5428571428571
 20
-3.42045809893411
 30
0.0
 11
72.3043837627158
 21
-4.26564964291349
 31
0.0
  0
LINE
  5
10CA
330
18
100
AcDbEntity
  8
1
 62
     1
100
AcDbLine
 10
70.7712369062425
 20
-3.88698808870282
 30
0.0
 11
70.7712369062425
 21
2.32375104790562
 31
0.0
  0
LINE
  5
10CB
330
18
100
AcDbEntity
  8
1
 62
     1
100
AcDbLine
 10
72.5975463005059
 20
12.9578313582481
 30
0.0
 11
72.3043837665003
 21
12.9738967610321
 31
0.0
  0
LINE
  5
10CC
330
18
100
AcDbEntity
  8
1
 62
     1
100
AcDbLine
 10
72.3043837626846
 20
10.5186993466838
 30
0.0
 11
72.3043837626846
 21
12.9738967610321
 31
0.0
  0
LINE
  5
10CD
330
18
100
AcDbEntity
  8
1
 62
     1
100
AcDbLine
 10
72.5975463005059
 20
10.4694924104529
 30
0.0
 11
72.3043837644764
 21
10.518699331128
 31
0.0
  0
LINE
  5
10CE
330
18
100
AcDbEntity
  8
1
 62
     1
100
AcDbLine
 10
72.5975463005059
 20
10.4694924104529
 30
0.0
 11
72.5975463005059
 21
12.9578313582481
 31
0.0
  0
LINE
  5
10CF
330
18
100
AcDbEntity
  8
1
 62
     1
100
AcDbLine
 10
70.7712369062425
 20
13.0510269864548
 30
0.0
 11
70.5019644474447
 21
13.0633750347543
 31
0.0
  0
LINE
  5
10D0
330
18
100
AcDbEntity
  8
1
 62
     1
100
AcDbLine
 10
70.501964445801
 20
10.8137290457162
 30
0.0
 11
70.5019644458011
 21
13.0633750347543
 31
0.0
  0
LINE
  5
10D1
330
18
100
AcDbEntity
  8
1
 62
     1
100
AcDbLine
 10
70.7712369062425
 20
10.7704824452973
 30
0.0
 11
70.5019644464137
 21
10.8137290357694
 31
0.0
  0
LINE
  5
10D2
330
18
100
AcDbEntity
  8
1
 62
     1
100
AcDbLine
 10
68.9449275119791
 20
13.127710165922
 30
0.0
 11
68.6995451289175
 21
13.1367461703191
 31
0.0
  0
LINE
  5
10D3
330
18
100
AcDbEntity
  8
1
 62
     1
100
AcDbLine
 10
68.6995451289175
 20
11.0955442555894
 30
0.0
 11
68.6995451289175
 21
13.1367461703191
 31
0.0
  0
LINE
  5
10D4
330
18
100
AcDbEntity
  8
1
 62
     1
100
AcDbLine
 10
68.9449275119791
 20
11.0579700810054
 30
0.0
 11
68.6995451289175
 21
11.0955442555894
 31
0.0
  0
LINE
  5
10D5
330
18
100
AcDbEntity
  8
1
 62
     1
100
AcDbLine
 10
67.1186181177158
 20
13.1877238126581
 30
0.0
 11
66.8971258119679
 21
13.1938620148138
 31
0.0
  0
LINE
  5
10D6
330
18
100
AcDbEntity
  8
1
 62
     1
100
AcDbLine
 10
66.8971258120341
 20
11.3637326545079
 30
0.0
 11
66.8971258120341
 21
13.1938620148138
 31
0.0
  0
LINE
  5
10D7
330
18
100
AcDbEntity
  8
1
 62
     1
100
AcDbLine
 10
67.1186181177158
 20
11.3315238908371
 30
0.0
 11
66.8971258119629
 21
11.3637326497055
 31
0.0
  0
LINE
  5
10D8
330
18
100
AcDbEntity
  8
1
 62
     1
100
AcDbLine
 10
65.2923087234524
 20
13.2309321570934
 30
0.0
 11
65.0947064950695
 21
13.2345946418472
 31
0.0
  0
LINE
  5
10D9
330
18
100
AcDbEntity
  8
1
 62
     1
100
AcDbLine
 10
65.0947064951505
 20
11.6178987206209
 30
0.0
 11
65.0947064951505
 21
13.2345946418472
 31
0.0
  0
LINE
  5
10DA
330
18
100
AcDbEntity
  8
1
 62
     1
100
AcDbLine
 10
65.2923087234524
 20
11.5907302507353
 30
0.0
 11
65.0947064951505
 21
11.6178987206209
 31
0.0
  0
LINE
  5
10DB
330
18
100
AcDbEntity
  8
1
 62
     1
100
AcDbLine
 10
63.4659993291891
 20
11.8351933139604
 30
0.0
 11
63.2922871783099
 21
11.8576640680086
 31
0.0
  0
LINE
  5
10DC
330
18
100
AcDbEntity
  8
1
 62
     1
100
AcDbLine
 10
63.292287178267
 20
13.2594713642603
 30
0.0
 11
63.4659993291891
 21
13.2574905047352
 31
0.0
  0
LINE
  5
10DD
330
18
100
AcDbEntity
  8
1
 62
     1
100
AcDbLine
 10
63.292287178267
 20
11.8576640693129
 30
0.0
 11
63.292287178267
 21
13.2594713642603
 31
0.0
  0
LINE
  5
10DE
330
18
100
AcDbEntity
  8
1
 62
     1
100
AcDbLine
 10
61.6396899350219
 20
12.064536092102
 30
0.0
 11
61.4898678620075
 21
12.0826680722435
 31
0.0
  0
LINE
  5
10DF
330
18
100
AcDbEntity
  8
1
 62
     1
100
AcDbLine
 10
61.4898678613836
 20
13.2800245578809
 30
0.0
 11
61.6396899349257
 21
13.2783161196405
 31
0.0
  0
LINE
  5
10E0
330
18
100
AcDbEntity
  8
1
 62
     1
100
AcDbLine
 10
59.8133805419388
 20
12.2784007756216
 30
0.0
 11
59.6874485448093
 21
12.292568549516
 31
0.0
  0
LINE
  5
10E1
330
18
100
AcDbEntity
  8
1
 62
     1
100
AcDbLine
 10
59.8133805406624
 20
12.2784007938226
 30
0.0
 11
59.8133805406624
 21
13.2991417345458
 31
0.0
  0
LINE
  5
10E2
330
18
100
AcDbEntity
  8
1
 62
     1
100
AcDbLine
 10
59.6874485445001
 20
13.3005777515014
 30
0.0
 11
59.8133805406624
 21
13.2991417345458
 31
0.0
  0
LINE
  5
10E3
330
18
100
AcDbEntity
  8
1
 62
     1
100
AcDbLine
 10
57.987071146399
 20
12.4764493479467
 30
0.0
 11
57.8850292277907
 21
12.4870419120607
 31
0.0
  0
LINE
  5
10E4
330
18
100
AcDbEntity
  8
1
 62
     1
100
AcDbLine
 10
57.8850292276165
 20
12.4870419150106
 30
0.0
 11
57.8850292276165
 21
13.3211309451219
 31
0.0
  0
LINE
  5
10E5
330
18
100
AcDbEntity
  8
1
 62
     1
100
AcDbLine
 10
56.1607617516279
 20
12.6583641689811
 30
0.0
 11
56.0826099096532
 21
12.6657841407913
 31
0.0
  0
LINE
  5
10E6
330
18
100
AcDbEntity
  8
1
 62
     1
100
AcDbLine
 10
54.3344523579148
 20
12.8238482782089
 30
0.0
 11
54.2801905938495
 21
12.8285107587832
 31
0.0
  0
LINE
  5
10E7
330
18
100
AcDbEntity
  8
1
 62
     1
100
AcDbLine
 10
67.1186181177158
 20
-2.96659791644653
 30
0.0
 11
67.1186181177158
 21
3.2558038906904
 31
0.0
  0
ARC
  5
10E8
330
18
100
AcDbEntity
  8
1
 62
     1
100
AcDbCircle
 10
59.0673735692603
 20
14.7119303099752
 30
0.0
 40
19.4255761168164
100
AcDbArc
 50
294.485708261016
 51
297.0923240993272
  0
LINE
  5
10E9
330
18
100
AcDbEntity
  8
1
 62
     1
100
AcDbLine
 10
67.9142857142857
 20
-2.58216471558458
 30
0.0
 11
67.9142857142857
 21
3.6409430269221
 31
0.0
  0
LINE
  5
10EA
330
18
100
AcDbEntity
  8
1
 62
     1
100
AcDbLine
 10
66.1
 20
-2.15754383752265
 30
0.0
 11
66.1
 21
4.05082266167926
 31
0.0
  0
LINE
  5
10EB
330
18
100
AcDbEntity
  8
1
 62
     1
100
AcDbLine
 10
65.2923087234524
 20
-2.49791203097105
 30
0.0
 11
65.2923087234524
 21
3.71812023693775
 31
0.0
  0
ARC
  5
10EC
330
18
100
AcDbEntity
  8
1
 62
     1
100
AcDbCircle
 10
58.7088694210331
 20
14.2521423326152
 30
0.0
 40
17.99739127638392
100
AcDbArc
 50
291.4568058027128
 51
294.2474049085397
  0
LINE
  5
10ED
330
18
100
AcDbEntity
  8
1
 62
     1
100
AcDbLine
 10
64.2857142857142
 20
-1.73003123903788
 30
0.0
 11
64.2857142857142
 21
4.45527163052007
 31
0.0
  0
LINE
  5
10EE
330
18
100
AcDbEntity
  8
1
 62
     1
100
AcDbLine
 10
64.2857142857142
 20
-1.73003123903788
 30
0.0
 11
65.0947064951811
 21
-2.44689992398902
 31
0.0
  0
LINE
  5
10EF
330
18
100
AcDbEntity
  8
1
 62
     1
100
AcDbLine
 10
53.4
 20
0.863512470441378
 30
0.0
 11
53.4
 21
6.73818394355585
 31
0.0
  0
LINE
  5
10F0
330
18
100
AcDbEntity
  8
1
 62
     1
100
AcDbLine
 10
76.8466227545384
 20
9.09157772068636
 30
0.0
 11
76.9857142857143
 21
8.92205007264151
 31
0.0
  0
LINE
  5
10F1
330
18
100
AcDbEntity
  8
1
 62
     1
100
AcDbLine
 10
76.9857142857142
 20
8.92205007264153
 30
0.0
 11
76.9857142857143
 21
11.6366054975242
 31
0.0
  0
LINE
  5
10F2
330
18
100
AcDbEntity
  8
1
 62
     1
100
AcDbLine
 10
76.9857142857143
 20
8.92205007264153
 30
0.0
 11
77.084179154075
 21
9.01049292138227
 31
0.0
  0
LINE
  5
10F3
330
18
100
AcDbEntity
  8
1
 62
     1
100
AcDbLine
 10
59.8133805406393
 20
12.278400793859
 30
0.0
 11
60.6571428571428
 21
10.9595548292173
 31
0.0
  0
LINE
  5
10F4
330
18
100
AcDbEntity
  8
1
 62
     1
100
AcDbLine
 10
59.6874485445001
 20
12.2925685539264
 30
0.0
 11
59.6874485445001
 21
13.3005777515014
 31
0.0
  0
LINE
  5
10F5
330
18
100
AcDbEntity
  8
1
 62
     1
100
AcDbLine
 10
57.987071146399
 20
12.4764493479467
 30
0.0
 11
57.987071146399
 21
13.319967349451
 31
0.0
  0
LINE
  5
10F6
330
18
100
AcDbEntity
  8
1
 62
     1
100
AcDbLine
 10
57.9870711463761
 20
12.4764493479834
 30
0.0
 11
58.8428571428571
 21
11.1159936755882
 31
0.0
  0
LINE
  5
10F7
330
18
100
AcDbEntity
  8
1
 62
     1
100
AcDbLine
 10
58.8428571428571
 20
11.1159936755882
 30
0.0
 11
58.8428571428571
 21
11.8377032142857
 31
0.0
  0
LINE
  5
10F8
330
18
100
AcDbEntity
  8
1
 62
     1
100
AcDbLine
 10
72.5975463004745
 20
10.4694924104948
 30
0.0
 11
73.3571428571428
 21
9.46733767125397
 31
0.0
  0
LINE
  5
10F9
330
18
100
AcDbEntity
  8
1
 62
     1
100
AcDbLine
 10
73.3571428571428
 20
9.46733767125401
 30
0.0
 11
73.3571428571428
 21
11.7643787194004
 31
0.0
  0
LINE
  5
10FA
330
18
100
AcDbEntity
  8
1
 62
     1
100
AcDbLine
 10
73.3571428571428
 20
9.46733767125401
 30
0.0
 11
73.9855348415711
 21
10.0930758005515
 31
0.0
  0
LINE
  5
10FB
330
18
100
AcDbEntity
  8
1
 62
     1
100
AcDbLine
 10
74.6580493617038
 20
9.85370525518424
 30
0.0
 11
75.1714285714286
 21
9.20085977566342
 31
0.0
  0
LINE
  5
10FC
330
18
100
AcDbEntity
  8
1
 62
     1
100
AcDbLine
 10
75.1714285714286
 20
9.2008597756634
 30
0.0
 11
75.1714285714286
 21
11.7083385838878
 31
0.0
  0
LINE
  5
10FD
330
18
100
AcDbEntity
  8
1
 62
     1
100
AcDbLine
 10
54.3344523578723
 20
12.8238482792779
 30
0.0
 11
54.3344523578723
 21
13.3616185792616
 31
0.0
  0
LINE
  5
10FE
330
18
100
AcDbEntity
  8
1
 62
     1
100
AcDbLine
 10
54.3344523578507
 20
12.8238482793134
 30
0.0
 11
55.2142857142857
 21
11.3839815734525
 31
0.0
  0
LINE
  5
10FF
330
18
100
AcDbEntity
  8
1
 62
     1
100
AcDbLine
 10
55.2142857142857
 20
11.3839815734523
 30
0.0
 11
55.2142857142857
 21
11.8377032136819
 31
0.0
  0
LINE
  5
1100
330
18
100
AcDbEntity
  8
1
 62
     1
100
AcDbLine
 10
56.0826099107331
 20
12.6657841592142
 30
0.0
 11
56.0826099107331
 21
13.3416841387424
 31
0.0
  0
LINE
  5
1101
330
18
100
AcDbEntity
  8
1
 62
     1
100
AcDbLine
 10
56.1607617521356
 20
12.6583641759694
 30
0.0
 11
56.1607617521356
 21
13.3407929643563
 31
0.0
  0
LINE
  5
1102
330
18
100
AcDbEntity
  8
1
 62
     1
100
AcDbLine
 10
56.1607617521136
 20
12.6583641789043
 30
0.0
 11
57.0285714285714
 21
11.2575324538608
 31
0.0
  0
LINE
  5
1103
330
18
100
AcDbEntity
  8
1
 62
     1
100
AcDbLine
 10
57.0285714285714
 20
11.2575324538608
 30
0.0
 11
57.0285714285714
 21
11.8377032142857
 31
0.0
  0
LINE
  5
1104
330
18
100
AcDbEntity
  8
1
 62
     1
100
AcDbLine
 10
60.6571428571428
 20
10.9595548292173
 30
0.0
 11
60.6571428571428
 21
11.8377032142857
 31
0.0
  0
LINE
  5
1105
330
18
100
AcDbEntity
  8
1
 62
     1
100
AcDbLine
 10
60.6571428571428
 20
10.9595548292173
 30
0.0
 11
61.489867861413
 21
12.0826680802288
 31
0.0
  0
LINE
  5
1106
330
18
100
AcDbEntity
  8
1
 62
     1
100
AcDbLine
 10
61.4898678613835
 20
12.0826680801897
 30
0.0
 11
61.4898678613835
 21
13.2800245578809
 31
0.0
  0
LINE
  5
1107
330
18
100
AcDbEntity
  8
1
 62
     1
100
AcDbLine
 10
61.6396899349257
 20
12.0645360844371
 30
0.0
 11
61.6396899349257
 21
13.2783161196405
 31
0.0
  0
LINE
  5
1108
330
18
100
AcDbEntity
  8
1
 62
     1
100
AcDbLine
 10
61.6396899348965
 20
12.0645360920486
 30
0.0
 11
62.4714285714286
 21
10.7884257802685
 31
0.0
  0
LINE
  5
1109
330
18
100
AcDbEntity
  8
1
 62
     1
100
AcDbLine
 10
62.4714285714286
 20
10.7884257802685
 30
0.0
 11
62.4714285714286
 21
11.8377032142857
 31
0.0
  0
LINE
  5
110A
330
18
100
AcDbEntity
  8
1
 62
     1
100
AcDbLine
 10
63.4659993291891
 20
11.8351933139604
 30
0.0
 11
63.4659993291891
 21
13.2574905047352
 31
0.0
  0
LINE
  5
110B
330
18
100
AcDbEntity
  8
1
 62
     1
100
AcDbLine
 10
63.4659993291586
 20
11.8351933140065
 30
0.0
 11
64.2857142857142
 21
10.6028356982657
 31
0.0
  0
LINE
  5
110C
330
18
100
AcDbEntity
  8
1
 62
     1
100
AcDbLine
 10
68.9449275119791
 20
11.0579700810054
 30
0.0
 11
68.9449275119791
 21
13.127710165922
 31
0.0
  0
LINE
  5
110D
330
18
100
AcDbEntity
  8
1
 62
     1
100
AcDbLine
 10
68.9449275119482
 20
11.0579700810491
 30
0.0
 11
69.7285714285714
 21
9.96188276220578
 31
0.0
  0
LINE
  5
110E
330
18
100
AcDbEntity
  8
1
 62
     1
100
AcDbLine
 10
69.7285714285714
 20
9.96188276220578
 30
0.0
 11
69.7285714285714
 21
11.8290975639744
 31
0.0
  0
LINE
  5
110F
330
18
100
AcDbEntity
  8
1
 62
     1
100
AcDbLine
 10
69.7285714285714
 20
9.96188276220578
 30
0.0
 11
70.5019644458321
 21
10.8137290457497
 31
0.0
  0
LINE
  5
1110
330
18
100
AcDbEntity
  8
1
 62
     1
100
AcDbLine
 10
71.5428571428571
 20
9.72112540696536
 30
0.0
 11
71.5428571428571
 21
11.8046497314329
 31
0.0
  0
LINE
  5
1111
330
18
100
AcDbEntity
  8
1
 62
     1
100
AcDbLine
 10
70.7712369062425
 20
10.7704824452973
 30
0.0
 11
70.7712369062425
 21
13.0510269864548
 31
0.0
  0
LINE
  5
1112
330
18
100
AcDbEntity
  8
1
 62
     1
100
AcDbLine
 10
70.7712369062113
 20
10.7704824453401
 30
0.0
 11
71.5428571428571
 21
9.72112540696536
 31
0.0
  0
LINE
  5
1113
330
18
100
AcDbEntity
  8
1
 62
     1
100
AcDbLine
 10
67.1186181177158
 20
11.3315238908371
 30
0.0
 11
67.1186181177158
 21
13.1877238126581
 31
0.0
  0
LINE
  5
1114
330
18
100
AcDbEntity
  8
1
 62
     1
100
AcDbLine
 10
67.118618117685
 20
11.3315238908817
 30
0.0
 11
67.9142857142857
 21
10.1892870214528
 31
0.0
  0
LINE
  5
1115
330
18
100
AcDbEntity
  8
1
 62
     1
100
AcDbLine
 10
67.9142857142857
 20
10.1892870214528
 30
0.0
 11
67.9142857142857
 21
11.8376895528402
 31
0.0
  0
LINE
  5
1116
330
18
100
AcDbEntity
  8
1
 62
     1
100
AcDbLine
 10
66.1
 20
10.4030335927362
 30
0.0
 11
66.1
 21
11.8377032142857
 31
0.0
  0
LINE
  5
1117
330
18
100
AcDbEntity
  8
1
 62
     1
100
AcDbLine
 10
66.1
 20
10.4030335927362
 30
0.0
 11
66.8971258120648
 21
11.3637326545443
 31
0.0
  0
LINE
  5
1118
330
18
100
AcDbEntity
  8
1
 62
     1
100
AcDbLine
 10
65.2923087234524
 20
11.5907302507353
 30
0.0
 11
65.2923087234524
 21
13.2309321570934
 31
0.0
  0
LINE
  5
1119
330
18
100
AcDbEntity
  8
1
 62
     1
100
AcDbLine
 10
64.2857142857142
 20
10.6028356982657
 30
0.0
 11
64.2857142857142
 21
11.8377032142857
 31
0.0
  0
LINE
  5
111A
330
18
100
AcDbEntity
  8
1
 62
     1
100
AcDbLine
 10
54.2801905938495
 20
12.8285107587832
 30
0.0
 11
54.2801905938495
 21
13.3622373323629
 31
0.0
  0
LINE
  5
111B
330
18
100
AcDbEntity
  8
1
 62
     1
100
AcDbLine
 10
78.7999999999999
 20
7.55492320027933
 30
0.0
 11
78.7999999999999
 21
8.43503332795302
 31
0.0
  0
LINE
  5
111C
330
18
100
AcDbEntity
  8
1
 62
     1
100
AcDbLine
 10
78.7999999999999
 20
4.4670565224561
 30
0.0
 11
78.7999999999999
 21
7.55492320027933
 31
0.0
  0
LINE
  5
111D
330
18
100
AcDbEntity
  8
1
 62
     1
100
AcDbLine
 10
78.7999999999999
 20
1.33471091603515
 30
0.0
 11
78.7999999999999
 21
-4.82751916699142
 31
0.0
  0
LINE
  5
111E
330
18
100
AcDbEntity
  8
1
 62
     1
100
AcDbLine
 10
78.7999999999999
 20
-4.88179955116262
 30
0.0
 11
78.7999999999999
 21
-4.82751916699142
 31
0.0
  0
LINE
  5
111F
330
18
100
AcDbEntity
  8
1
 62
     1
100
AcDbLine
 10
78.7999999999999
 20
-10.4507882324991
 30
0.0
 11
78.7999999999999
 21
-11.5
 31
0.0
  0
LINE
  5
1120
330
18
100
AcDbEntity
  8
1
 62
     1
100
AcDbLine
 10
76.8466227545694
 20
-12.0786167008052
 30
0.0
 11
76.8466227545694
 21
-12.0783428046885
 31
0.0
  0
LINE
  5
1121
330
18
100
AcDbEntity
  8
1
 62
     1
100
AcDbLine
 10
76.8466227545694
 20
-12.0783428046885
 30
0.0
 11
76.8466227545694
 21
-11.9995809695166
 31
0.0
  0
LINE
  5
1122
330
18
100
AcDbEntity
  8
1
 62
     1
100
AcDbLine
 10
76.8466227545694
 20
-11.9995809695166
 30
0.0
 11
76.8466227545694
 21
-10.9744558070997
 31
0.0
  0
LINE
  5
1123
330
18
100
AcDbEntity
  8
1
 62
     1
100
AcDbLine
 10
74.6580493617393
 20
-12.726901674428
 30
0.0
 11
74.6580493617393
 21
-12.7266052157768
 31
0.0
  0
LINE
  5
1124
330
18
100
AcDbEntity
  8
1
 62
     1
100
AcDbLine
 10
74.6580493617393
 20
-12.7266052157768
 30
0.0
 11
74.6580493617393
 21
-12.6413537996809
 31
0.0
  0
LINE
  5
1125
330
18
100
AcDbEntity
  8
1
 62
     1
100
AcDbLine
 10
74.6580493617393
 20
-12.6413537996809
 30
0.0
 11
74.6580493617393
 21
-11.5322390356175
 31
0.0
  0
LINE
  5
1126
330
18
100
AcDbEntity
  8
1
 62
     1
100
AcDbLine
 10
73.9855348415367
 20
-12.9261095508551
 30
0.0
 11
73.9855348415367
 21
-12.925804640702
 31
0.0
  0
LINE
  5
1127
330
18
100
AcDbEntity
  8
1
 62
     1
100
AcDbLine
 10
73.9855348415367
 20
-12.925804640702
 30
0.0
 11
73.9855348415367
 21
-12.838122774964
 31
0.0
  0
LINE
  5
1128
330
18
100
AcDbEntity
  8
1
 62
     1
100
AcDbLine
 10
73.9855348415367
 20
-12.838122774964
 30
0.0
 11
73.9855348415367
 21
-11.697618340483
 31
0.0
  0
LINE
  5
1129
330
18
100
AcDbEntity
  8
1
 62
     1
100
AcDbLine
 10
72.3043837626846
 20
-13.1567053961578
 30
0.0
 11
72.3043837626846
 21
-13.1563633331851
 31
0.0
  0
LINE
  5
112A
330
18
100
AcDbEntity
  8
1
 62
     1
100
AcDbLine
 10
72.3043837626846
 20
-13.1563633331851
 30
0.0
 11
72.3043837626846
 21
-13.0580065069798
 31
0.0
  0
LINE
  5
112B
330
18
100
AcDbEntity
  8
1
 62
     1
100
AcDbLine
 10
72.3043837626846
 20
-13.0580065069798
 30
0.0
 11
72.3043837626845
 21
-11.7807733980116
 31
0.0
  0
LINE
  5
112C
330
18
100
AcDbEntity
  8
1
 62
     1
100
AcDbLine
 10
68.9449275119791
 20
-13.1777183975641
 30
0.0
 11
68.9449275119791
 21
-11.4028938964454
 31
0.0
  0
LINE
  5
112D
330
18
100
AcDbEntity
  8
1
 62
     1
100
AcDbLine
 10
68.944927511949
 20
-11.4028938941609
 30
0.0
 11
68.6995451289175
 21
-11.3732348962467
 31
0.0
  0
LINE
  5
112E
330
18
100
AcDbEntity
  8
1
 62
     1
100
AcDbLine
 10
59.8133805406624
 20
-10.1172630626833
 30
0.0
 11
59.6874485444212
 21
-10.097000785929
 31
0.0
  0
LINE
  5
112F
330
18
100
AcDbEntity
  8
1
 62
     1
100
AcDbLine
 10
54.3344523578605
 20
-9.1757822891431
 30
0.0
 11
54.2801905938495
 21
-9.1658606305288
 31
0.0
  0
LINE
  5
1130
330
18
100
AcDbEntity
  8
1
 62
     1
100
AcDbLine
 10
71.5428571428571
 20
-11.8350847692015
 30
0.0
 11
71.9632526922689
 21
-12.5658493256444
 31
0.0
  0
LINE
  5
1131
330
18
100
AcDbEntity
  8
1
 62
     1
100
AcDbLine
 10
70.7712369062113
 20
-13.1727731980356
 30
0.0
 11
71.5428571428571
 21
-11.8350847692015
 31
0.0
  0
LINE
  5
1132
330
18
100
AcDbEntity
  8
1
 62
     1
100
AcDbLine
 10
70.7712369062425
 20
-13.1727731979816
 30
0.0
 11
70.5019644465086
 21
-13.1746113841866
 31
0.0
  0
LINE
  5
1133
330
18
100
AcDbEntity
  8
1
 62
     1
100
AcDbLine
 10
68.944927511983
 20
-13.1777183979034
 30
0.0
 11
68.6995451288595
 21
-13.1770365228406
 31
0.0
  0
LINE
  5
1134
330
18
100
AcDbEntity
  8
1
 62
     1
100
AcDbLine
 10
67.118618117685
 20
-13.1649822342089
 30
0.0
 11
67.9142857142857
 21
-11.7851525802348
 31
0.0
  0
LINE
  5
1135
330
18
100
AcDbEntity
  8
1
 62
     1
100
AcDbLine
 10
67.1186181177158
 20
-13.1649822341556
 30
0.0
 11
66.897125812034
 21
-13.1622332173263
 31
0.0
  0
LINE
  5
1136
330
18
100
AcDbEntity
  8
1
 62
     1
100
AcDbLine
 10
65.2923087234218
 20
-13.1345247868354
 30
0.0
 11
66.1
 21
-11.7364690165431
 31
0.0
  0
LINE
  5
1137
330
18
100
AcDbEntity
  8
1
 62
     1
100
AcDbLine
 10
65.2923087234524
 20
-13.1345247867826
 30
0.0
 11
65.0947064951505
 21
-13.1301660406984
 31
0.0
  0
LINE
  5
1138
330
18
100
AcDbEntity
  8
1
 62
     1
100
AcDbLine
 10
63.4659993291586
 20
-13.0863300401678
 30
0.0
 11
64.2857142857142
 21
-11.6720538055902
 31
0.0
  0
LINE
  5
1139
330
18
100
AcDbEntity
  8
1
 62
     1
100
AcDbLine
 10
63.4659993291891
 20
-13.0863300401155
 30
0.0
 11
63.2922871777641
 21
-13.0808222090095
 31
0.0
  0
LINE
  5
113A
330
18
100
AcDbEntity
  8
1
 62
     1
100
AcDbLine
 10
61.6396899348721
 20
-13.0204059003847
 30
0.0
 11
61.4898678615425
 21
-13.0142117246091
 31
0.0
  0
LINE
  5
113B
330
18
100
AcDbEntity
  8
1
 62
     1
100
AcDbLine
 10
59.8133805406392
 20
-12.9367843097341
 30
0.0
 11
60.6571428571428
 21
-11.4963946370336
 31
0.0
  0
LINE
  5
113C
330
18
100
AcDbEntity
  8
1
 62
     1
100
AcDbLine
 10
59.8133805406624
 20
-12.9367843096948
 30
0.0
 11
59.6874485442123
 21
-12.9303672796963
 31
0.0
  0
LINE
  5
113D
330
18
100
AcDbEntity
  8
1
 62
     1
100
AcDbLine
 10
57.9870711463761
 20
-12.8355213128203
 30
0.0
 11
58.8428571428571
 21
-11.3853861221128
 31
0.0
  0
LINE
  5
113E
330
18
100
AcDbEntity
  8
1
 62
     1
100
AcDbLine
 10
57.987071146399
 20
-12.8355213127817
 30
0.0
 11
57.8850292278246
 21
-12.8293445371599
 31
0.0
  0
LINE
  5
113F
330
18
100
AcDbEntity
  8
1
 62
     1
100
AcDbLine
 10
56.1607617521136
 20
-12.7166969016303
 30
0.0
 11
57.0285714285714
 21
-11.2591165781399
 31
0.0
  0
LINE
  5
1140
330
18
100
AcDbEntity
  8
1
 62
     1
100
AcDbLine
 10
56.1607617521356
 20
-12.7166969015936
 30
0.0
 11
56.0826099106286
 21
-12.7112218094746
 31
0.0
  0
LINE
  5
1141
330
18
100
AcDbEntity
  8
1
 62
     1
100
AcDbLine
 10
54.3344523578507
 20
-12.5804153021123
 30
0.0
 11
55.2142857142857
 21
-11.1177551475884
 31
0.0
  0
LINE
  5
1142
330
18
100
AcDbEntity
  8
1
 62
     1
100
AcDbLine
 10
54.3344523578855
 20
-12.5804153019062
 30
0.0
 11
54.2801905938495
 21
-12.5761004400245
 31
0.0
  0
LINE
  5
1143
330
18
100
AcDbEntity
  8
1
 62
     1
100
AcDbLine
 10
52.8
 20
-11.9496925743706
 30
0.0
 11
53.4
 21
-10.9614914000941
 31
0.0
  0
LINE
  5
1144
330
18
100
AcDbEntity
  8
1
 62
     1
100
AcDbLine
 10
52.8637948069724
 20
-11.8450968228146
 30
0.0
 11
53.4
 21
-11.1721227228191
 31
0.0
  0
LINE
  5
1145
330
18
100
AcDbEntity
  8
1
 62
     1
100
AcDbLine
 10
53.4
 20
-11.1721227228191
 30
0.0
 11
53.6785899933858
 21
-11.4727960919716
 31
0.0
  0
LINE
  5
1146
330
18
100
AcDbEntity
  8
1
 62
     1
100
AcDbLine
 10
65.2923087234218
 20
13.2309321571456
 30
0.0
 11
65.6963033460691
 21
12.536926003899
 31
0.0
  0
LINE
  5
1147
330
18
100
AcDbEntity
  8
1
 62
     1
100
AcDbLine
 10
67.118618117685
 20
13.1877238127095
 30
0.0
 11
67.9142857142857
 21
11.8376895528402
 31
0.0
  0
ARC
  5
1148
330
18
100
AcDbEntity
  8
1
 62
     1
100
AcDbCircle
 10
102.316579691506
 20
-8.07356194063249
 30
0.0
 40
39.74892244011285
100
AcDbArc
 50
147.7505620869364
 51
149.9387348833927
  0
LINE
  5
1149
330
18
100
AcDbEntity
  8
1
 62
     1
100
AcDbLine
 10
68.9449275119482
 20
13.1277101659725
 30
0.0
 11
69.7285714285714
 21
11.8290975639744
 31
0.0
  0
ARC
  5
114A
330
18
100
AcDbEntity
  8
1
 62
     1
100
AcDbCircle
 10
101.41095151571
 20
-7.1657533002704
 30
0.0
 40
36.94020156686522
100
AcDbArc
 50
146.7962959668851
 51
149.0556312365767
  0
LINE
  5
114B
330
18
100
AcDbEntity
  8
1
 62
     1
100
AcDbLine
 10
70.7712369062113
 20
13.0510269865045
 30
0.0
 11
71.5428571428571
 21
11.8046497314329
 31
0.0
  0
ARC
  5
114C
330
18
100
AcDbEntity
  8
1
 62
     1
100
AcDbCircle
 10
100.604689365289
 20
-6.29265056060508
 30
0.0
 40
34.23599226214502
100
AcDbArc
 50
145.7533821281836
 51
148.0887715422849
  0
LINE
  5
114D
330
18
100
AcDbEntity
  8
1
 62
     1
100
AcDbLine
 10
72.5975463004745
 20
12.9578313582968
 30
0.0
 11
73.3571428571428
 21
11.7643787194004
 31
0.0
  0
ARC
  5
114E
330
18
100
AcDbEntity
  8
1
 62
     1
100
AcDbCircle
 10
99.6540955310054
 20
-5.28934655058576
 30
0.0
 40
31.34261784071347
100
AcDbArc
 50
144.9814023717339
 51
147.0363588976164
  0
LINE
  5
114F
330
18
100
AcDbEntity
  8
1
 62
     1
100
AcDbLine
 10
74.6580493617038
 20
12.4940874312577
 30
0.0
 11
75.1714285714286
 21
11.7083385838878
 31
0.0
  0
LINE
  5
1150
330
18
100
AcDbEntity
  8
1
 62
     1
100
AcDbLine
 10
75.1714285714286
 20
11.7083385838878
 30
0.0
 11
75.5348569978183
 21
12.2320717787574
 31
0.0
  0
LINE
  5
1151
330
18
100
AcDbEntity
  8
1
 62
     1
100
AcDbLine
 10
76.8466227545383
 20
11.844030441831
 30
0.0
 11
76.9857142857143
 21
11.6366054975242
 31
0.0
  0
LINE
  5
1152
330
18
100
AcDbEntity
  8
1
 62
     1
100
AcDbLine
 10
76.9857142857143
 20
11.6366054975242
 30
0.0
 11
77.084179154075
 21
11.7742901747096
 31
0.0
  0
LINE
  5
1153
330
18
100
AcDbEntity
  8
1
 62
     1
100
AcDbLine
 10
78.7999999999999
 20
7.55492320027933
 30
0.0
 11
65.7999999999999
 21
8.99252317673063
 31
0.0
  0
LINE
  5
1154
330
18
100
AcDbEntity
  8
1
 62
     1
100
AcDbLine
 10
65.7999999999999
 20
8.99252317673063
 30
0.0
 11
52.8
 21
9.81473583718463
 31
0.0
  0
LINE
  5
1155
330
18
100
AcDbEntity
  8
1
 62
     1
100
AcDbLine
 10
78.7999999999999
 20
8.43503332795305
 30
0.0
 11
77.0841791540417
 21
9.01049292135248
 31
0.0
  0
LINE
  5
1156
330
18
100
AcDbEntity
  8
1
 62
     1
100
AcDbLine
 10
75.1714285714286
 20
9.20085977566342
 30
0.0
 11
75.5348569978183
 21
9.54518924347515
 31
0.0
  0
LINE
  5
1157
330
18
100
AcDbEntity
  8
1
 62
     1
100
AcDbLine
 10
71.5428571428571
 20
9.72112540696536
 30
0.0
 11
72.3043837627158
 21
10.5186993467158
 31
0.0
  0
LINE
  5
1158
330
18
100
AcDbEntity
  8
1
 62
     1
100
AcDbLine
 10
67.9142857142857
 20
10.1892870214528
 30
0.0
 11
68.6995451289485
 21
11.0955442556243
 31
0.0
  0
LINE
  5
1159
330
18
100
AcDbEntity
  8
1
 62
     1
100
AcDbLine
 10
65.2923087234218
 20
11.5907302507806
 30
0.0
 11
66.1
 21
10.4030335927362
 31
0.0
  0
LINE
  5
115A
330
18
100
AcDbEntity
  8
1
 62
     1
100
AcDbLine
 10
64.2857142857142
 20
10.6028356982657
 30
0.0
 11
65.0947064951811
 21
11.6178987206585
 31
0.0
  0
LINE
  5
115B
330
18
100
AcDbEntity
  8
1
 62
     1
100
AcDbLine
 10
62.4714285714286
 20
10.7884257802685
 30
0.0
 11
63.2922871782974
 21
11.8576640693517
 31
0.0
  0
LINE
  5
115C
330
18
100
AcDbEntity
  8
1
 62
     1
100
AcDbLine
 10
58.8428571428571
 20
11.1159936755882
 30
0.0
 11
59.6874485445231
 21
12.292568553958
 31
0.0
  0
LINE
  5
115D
330
18
100
AcDbEntity
  8
1
 62
     1
100
AcDbLine
 10
57.0285714285714
 20
11.2575324538608
 30
0.0
 11
57.8850292276394
 21
12.487041915043
 31
0.0
  0
LINE
  5
115E
330
18
100
AcDbEntity
  8
1
 62
     1
100
AcDbLine
 10
55.2142857142857
 20
11.3839815734525
 30
0.0
 11
56.0826099107552
 21
12.6657841603805
 31
0.0
  0
LINE
  5
115F
330
18
100
AcDbEntity
  8
1
 62
     1
100
AcDbLine
 10
53.4
 20
11.4951714565363
 30
0.0
 11
54.2801905938711
 21
12.8285107588154
 31
0.0
  0
LINE
  5
1160
330
18
100
AcDbEntity
  8
1
 62
     1
100
AcDbLine
 10
52.8
 20
12.4876644672667
 30
0.0
 11
53.4
 21
11.4951714565363
 31
0.0
  0
ARC
  5
1161
330
18
100
AcDbEntity
  8
1
 62
     1
100
AcDbCircle
 10
48.5080443438063
 20
-7.92938901063984
 30
0.0
 40
15.46186206894058
100
AcDbArc
 50
68.07985270353748
 51
71.55533208149892
  0
LINE
  5
1162
330
18
100
AcDbEntity
  8
1
 62
     1
100
AcDbLine
 10
54.3344523578507
 20
6.40191903500022
 30
0.0
 11
54.7800251141188
 21
6.38014457689431
 31
0.0
  0
LINE
  5
1163
330
18
100
AcDbEntity
  8
1
 62
     1
100
AcDbLine
 10
54.7800251141188
 20
6.38014457689431
 30
0.0
 11
55.2142857142857
 21
6.37739303497665
 31
0.0
  0
ARC
  5
1164
330
18
100
AcDbEntity
  8
1
 62
     1
100
AcDbCircle
 10
48.1559123443707
 20
-10.4827007062139
 30
0.0
 40
18.2779529166943
100
AcDbArc
 50
64.29900440229444
 51
67.28368004653688
  0
LINE
  5
1165
330
18
100
AcDbEntity
  8
1
 62
     1
100
AcDbLine
 10
56.1607617521136
 20
5.96834128642094
 30
0.0
 11
56.6001881075993
 21
5.97883773897446
 31
0.0
  0
LINE
  5
1166
330
18
100
AcDbEntity
  8
1
 62
     1
100
AcDbLine
 10
56.6001881075993
 20
5.97883773897446
 30
0.0
 11
57.0285714285714
 21
6.00805337084196
 31
0.0
  0
ARC
  5
1167
330
18
100
AcDbEntity
  8
1
 62
     1
100
AcDbCircle
 10
47.1204323267713
 20
-13.682223204264
 30
0.0
 40
22.04264644180528
100
AcDbArc
 50
60.76761185236262
 51
63.28847819308652
  0
LINE
  5
1168
330
18
100
AcDbEntity
  8
1
 62
     1
100
AcDbLine
 10
57.9870711463761
 20
5.52848246834303
 30
0.0
 11
58.420352272904
 21
5.57037812497812
 31
0.0
  0
LINE
  5
1169
330
18
100
AcDbEntity
  8
1
 62
     1
100
AcDbLine
 10
58.420352272904
 20
5.57037812497812
 30
0.0
 11
58.8428571428571
 21
5.63066106236882
 31
0.0
  0
ARC
  5
116A
330
18
100
AcDbEntity
  8
1
 62
     1
100
AcDbCircle
 10
45.1247542230451
 20
-17.7360210584993
 30
0.0
 40
27.09590507073715
100
AcDbArc
 50
57.48977073035918
 51
59.58367315177269
  0
LINE
  5
116B
330
18
100
AcDbEntity
  8
1
 62
     1
100
AcDbLine
 10
59.8133805406392
 20
5.08293375794571
 30
0.0
 11
60.2405176072207
 21
5.1553125417784
 31
0.0
  0
LINE
  5
116C
330
18
100
AcDbEntity
  8
1
 62
     1
100
AcDbLine
 10
60.2405176072207
 20
5.1553125417784
 30
0.0
 11
60.6571428571428
 21
5.24572058933859
 31
0.0
  0
LINE
  5
116D
330
18
100
AcDbEntity
  8
1
 62
     1
100
AcDbLine
 10
60.6571428571428
 20
5.24572058933859
 30
0.0
 11
61.489867861413
 21
4.66943594426847
 31
0.0
  0
LINE
  5
116E
330
18
100
AcDbEntity
  8
1
 62
     1
100
AcDbLine
 10
61.6396899348965
 20
4.63228981292993
 30
0.0
 11
62.0606841171524
 21
4.73419630600738
 31
0.0
  0
LINE
  5
116F
330
18
100
AcDbEntity
  8
1
 62
     1
100
AcDbLine
 10
62.0606841171524
 20
4.73419630600738
 30
0.0
 11
62.4714285714286
 21
4.85374957730829
 31
0.0
  0
LINE
  5
1170
330
18
100
AcDbEntity
  8
1
 62
     1
100
AcDbLine
 10
62.4714285714286
 20
4.85374957730832
 30
0.0
 11
63.2922871782974
 21
4.2206190413212
 31
0.0
  0
LINE
  5
1171
330
18
100
AcDbEntity
  8
1
 62
     1
100
AcDbLine
 10
63.4659993291586
 20
4.17715076307185
 30
0.0
 11
63.8808518534607
 21
4.30759004883879
 31
0.0
  0
LINE
  5
1172
330
18
100
AcDbEntity
  8
1
 62
     1
100
AcDbLine
 10
63.8808518534607
 20
4.30759004883879
 30
0.0
 11
64.2857142857142
 21
4.45527163052007
 31
0.0
  0
LINE
  5
1173
330
18
100
AcDbEntity
  8
1
 62
     1
100
AcDbLine
 10
64.2857142857142
 20
4.45527163052009
 30
0.0
 11
65.0947064951811
 21
3.76795548504485
 31
0.0
  0
ARC
  5
1174
330
18
100
AcDbEntity
  8
1
 62
     1
100
AcDbCircle
 10
61.900186289766
 20
13.1027440603801
 30
0.0
 40
9.978845630491939
100
AcDbArc
 50
289.8726603251558
 51
294.8898531317922
  0
LINE
  5
1175
330
18
100
AcDbEntity
  8
1
 62
     1
100
AcDbLine
 10
66.1
 20
4.05082266167926
 30
0.0
 11
66.8971258120648
 21
3.31202779849062
 31
0.0
  0
ARC
  5
1176
330
18
100
AcDbEntity
  8
1
 62
     1
100
AcDbCircle
 10
62.9790887625056
 20
12.8246738934497
 30
0.0
 40
10.425866183392
100
AcDbArc
 50
293.3934915098945
 51
298.2529063318384
  0
LINE
  5
1177
330
18
100
AcDbEntity
  8
1
 62
     1
100
AcDbLine
 10
67.9142857142857
 20
3.64094302692206
 30
0.0
 11
68.6995451289485
 21
2.85342118096135
 31
0.0
  0
ARC
  5
1178
330
18
100
AcDbEntity
  8
1
 62
     1
100
AcDbCircle
 10
64.0015629182988
 20
12.6136492777878
 30
0.0
 40
10.99657730586127
100
AcDbArc
 50
296.7139260888131
 51
301.3861032846641
  0
LINE
  5
1179
330
18
100
AcDbEntity
  8
1
 62
     1
100
AcDbLine
 10
69.7285714285714
 20
3.2261840348601
 30
0.0
 11
70.5019644458321
 21
2.39272102071659
 31
0.0
  0
ARC
  5
117A
330
18
100
AcDbEntity
  8
1
 62
     1
100
AcDbCircle
 10
64.9592991652222
 20
12.4614603382998
 30
0.0
 40
11.68552460227588
100
AcDbArc
 50
299.8256004863122
 51
304.2910887633
  0
LINE
  5
117B
330
18
100
AcDbEntity
  8
1
 62
     1
100
AcDbLine
 10
71.5428571428571
 20
2.80710013376013
 30
0.0
 11
72.3043837627158
 21
1.93051418575382
 31
0.0
  0
ARC
  5
117C
330
18
100
AcDbEntity
  8
1
 62
     1
100
AcDbCircle
 10
65.8455210748961
 20
12.3618155395967
 30
0.0
 40
12.48910794261454
100
AcDbArc
 50
302.7267136972892
 51
306.9743118979235
  0
LINE
  5
117D
330
18
100
AcDbEntity
  8
1
 62
     1
100
AcDbLine
 10
73.3571428571428
 20
2.38425262626987
 30
0.0
 11
73.9855348415711
 21
1.61605085613277
 31
0.0
  0
ARC
  5
117E
330
18
100
AcDbEntity
  8
1
 62
     1
100
AcDbCircle
 10
66.8063285353645
 20
12.1154625890524
 30
0.0
 40
13.15846719350498
100
AcDbArc
 50
306.634247874958
 51
309.4734795331979
  0
LINE
  5
117F
330
18
100
AcDbEntity
  8
1
 62
     1
100
AcDbLine
 10
75.1714285714285
 20
1.95820949220483
 30
0.0
 11
75.5348569978183
 21
1.48809232297812
 31
0.0
  0
LINE
  5
1180
330
18
100
AcDbEntity
  8
1
 62
     1
100
AcDbLine
 10
76.9857142857143
 20
1.52954735704199
 30
0.0
 11
77.084179154075
 21
1.39506243558162
 31
0.0
  0
LINE
  5
1181
330
18
100
AcDbEntity
  8
1
 62
     1
100
AcDbLine
 10
78.7999999999999
 20
4.4670565224561
 30
0.0
 11
78.7999999999999
 21
1.33471091603515
 31
0.0
  0
LINE
  5
1182
330
18
100
AcDbEntity
  8
1
 62
     1
100
AcDbLine
 10
78.7999999999999
 20
4.4670565224561
 30
0.0
 11
52.8
 21
7.16462697325251
 31
0.0
  0
LINE
  5
1183
330
18
100
AcDbEntity
  8
1
 62
     1
100
AcDbLine
 10
78.7999999999999
 20
-4.82751916699139
 30
0.0
 11
77.0841791540417
 21
-4.76492490573084
 31
0.0
  0
LINE
  5
1184
330
18
100
AcDbEntity
  8
1
 62
     1
100
AcDbLine
 10
76.846622754359
 20
-4.75346253024097
 30
0.0
 11
75.5348569977891
 21
-4.6778194058828
 31
0.0
  0
LINE
  5
1185
330
18
100
AcDbEntity
  8
1
 62
     1
100
AcDbLine
 10
75.1714285714285
 20
-4.24041882202404
 30
0.0
 11
75.5348569978183
 21
-4.67781940591811
 31
0.0
  0
LINE
  5
1186
330
18
100
AcDbEntity
  8
1
 62
     1
100
AcDbLine
 10
74.6580493617038
 20
-4.61553183885709
 30
0.0
 11
75.1714285714286
 21
-4.24041882202404
 31
0.0
  0
LINE
  5
1187
330
18
100
AcDbEntity
  8
1
 62
     1
100
AcDbLine
 10
73.3571428571428
 20
-3.83300733902963
 30
0.0
 11
73.9855348415711
 21
-4.56135019687547
 31
0.0
  0
ARC
  5
1188
330
18
100
AcDbEntity
  8
1
 62
     1
100
AcDbCircle
 10
59.0022409023266
 20
16.9561033041437
 30
0.0
 40
25.2636038457051
100
AcDbArc
 50
302.55697816137
 51
304.6251181354084
  0
LINE
  5
1189
330
18
100
AcDbEntity
  8
1
 62
     1
100
AcDbLine
 10
72.5975463005059
 20
-4.3374925767434
 30
0.0
 11
72.3043837626845
 21
-4.26564964287807
 31
0.0
  0
ARC
  5
118A
330
18
100
AcDbEntity
  8
1
 62
     1
100
AcDbCircle
 10
59.2372117645159
 20
16.0603520436771
 30
0.0
 40
23.04192344097348
100
AcDbArc
 50
300.0375194291495
 51
302.2797982308884
  0
LINE
  5
118B
330
18
100
AcDbEntity
  8
1
 62
     1
100
AcDbLine
 10
69.7285714285714
 20
-3.00332417037498
 30
0.0
 11
70.5019644458321
 21
-3.81998790568592
 31
0.0
  0
LINE
  5
118C
330
18
100
AcDbEntity
  8
1
 62
     1
100
AcDbLine
 10
67.9142857142857
 20
-2.58216471558458
 30
0.0
 11
68.6995451289485
 21
-3.36792524410419
 31
0.0
  0
LINE
  5
118D
330
18
100
AcDbEntity
  8
1
 62
     1
100
AcDbLine
 10
66.1
 20
-2.15754383752265
 30
0.0
 11
66.8971258120648
 21
-2.91003503945568
 31
0.0
  0
ARC
  5
118E
330
18
100
AcDbEntity
  8
1
 62
     1
100
AcDbCircle
 10
43.3295373616945
 20
-23.3113923413378
 30
0.0
 40
27.63968390764033
100
AcDbArc
 50
53.71327196513496
 51
55.85633535961997
  0
ARC
  5
118F
330
18
100
AcDbEntity
  8
1
 62
     1
100
AcDbCircle
 10
55.1079102395635
 20
14.0025290642463
 30
0.0
 40
14.13617615713687
100
AcDbArc
 50
274.271300819266
 51
277.8088431859601
  0
ARC
  5
1190
330
18
100
AcDbEntity
  8
1
 62
     1
100
AcDbCircle
 10
44.3289206857062
 20
-19.3109512296222
 30
0.0
 40
22.54388403404381
100
AcDbArc
 50
58.57589707134715
 51
61.12813961986222
  0
ARC
  5
1191
330
18
100
AcDbEntity
  8
1
 62
     1
100
AcDbCircle
 10
44.4243398334617
 20
-17.5729222945512
 30
0.0
 40
20.50523909345879
100
AcDbArc
 50
61.27215823703548
 51
64.0411617709503
  0
ARC
  5
1192
330
18
100
AcDbEntity
  8
1
 62
     1
100
AcDbCircle
 10
53.2612661529482
 20
14.7956835742614
 30
0.0
 40
13.93286388044177
100
AcDbArc
 50
268.1027997252139
 51
270.5705213593227
  0
LINE
  5
1193
330
18
100
AcDbEntity
  8
1
 62
     1
100
AcDbLine
 10
52.8
 20
-8.30653300336198
 30
0.0
 11
52.8
 21
-1.07751688349313
 31
0.0
  0
LINE
  5
1194
330
18
100
AcDbEntity
  8
1
 62
     1
100
AcDbLine
 10
56.1607617520625
 20
-9.50301134576152
 30
0.0
 11
56.082609910733
 21
-9.48927785083974
 31
0.0
  0
LINE
  5
1195
330
18
100
AcDbEntity
  8
1
 62
     1
100
AcDbLine
 10
57.987071146399
 20
-9.81695861761852
 30
0.0
 11
57.8850292275796
 21
-9.79977395129008
 31
0.0
  0
LINE
  5
1196
330
18
100
AcDbEntity
  8
1
 62
     1
100
AcDbLine
 10
60.6571428571428
 20
-8.4715541136795
 30
0.0
 11
61.489867861413
 21
-10.3806300053687
 31
0.0
  0
LINE
  5
1197
330
18
100
AcDbEntity
  8
1
 62
     1
100
AcDbLine
 10
61.6396899349257
 20
-10.4035840272702
 30
0.0
 11
61.4898678613835
 21
-10.3806300053028
 31
0.0
  0
LINE
  5
1198
330
18
100
AcDbEntity
  8
1
 62
     1
100
AcDbLine
 10
63.4659993291891
 20
-10.6755995266988
 30
0.0
 11
63.2922871782498
 21
-10.650350353926
 31
0.0
  0
LINE
  5
1199
330
18
100
AcDbEntity
  8
1
 62
     1
100
AcDbLine
 10
64.2857142857142
 20
-9.05377193995791
 30
0.0
 11
65.0947064951811
 21
-10.9058700910079
 31
0.0
  0
LINE
  5
119A
330
18
100
AcDbEntity
  8
1
 62
     1
100
AcDbLine
 10
65.2923087234524
 20
-10.9330074764071
 30
0.0
 11
65.0947064951505
 21
-10.9058700909397
 31
0.0
  0
LINE
  5
119B
330
18
100
AcDbEntity
  8
1
 62
     1
100
AcDbLine
 10
65.2923087234218
 20
-10.933007476466
 30
0.0
 11
66.1
 21
-9.32686809622808
 31
0.0
  0
LINE
  5
119C
330
18
100
AcDbEntity
  8
1
 62
     1
100
AcDbLine
 10
67.1186181177158
 20
-11.1755263475073
 30
0.0
 11
66.897125811973
 21
-11.1469162634438
 31
0.0
  0
LINE
  5
119D
330
18
100
AcDbEntity
  8
1
 62
     1
100
AcDbLine
 10
67.118618117685
 20
-11.1755263475669
 30
0.0
 11
67.9142857142857
 21
-9.5874630111004
 31
0.0
  0
LINE
  5
119E
330
18
100
AcDbEntity
  8
1
 62
     1
100
AcDbLine
 10
68.9449275119482
 20
-11.4028938960506
 30
0.0
 11
69.7285714285714
 21
-9.8352061764686
 31
0.0
  0
LINE
  5
119F
330
18
100
AcDbEntity
  8
1
 62
     1
100
AcDbLine
 10
69.7285714285714
 20
-9.8352061764686
 30
0.0
 11
70.5019644458321
 21
-11.584592130521
 31
0.0
  0
LINE
  5
11A0
330
18
100
AcDbEntity
  8
1
 62
     1
100
AcDbLine
 10
70.7712369062425
 20
-11.614869857456
 30
0.0
 11
70.501964445801
 21
-11.5845921304525
 31
0.0
  0
LINE
  5
11A1
330
18
100
AcDbEntity
  8
1
 62
     1
100
AcDbLine
 10
72.5975463005059
 20
-11.811233800967
 30
0.0
 11
72.3043837626845
 21
-11.7807733980116
 31
0.0
  0
LINE
  5
11A2
330
18
100
AcDbEntity
  8
1
 62
     1
100
AcDbLine
 10
72.5975463004745
 20
-11.8112338010281
 30
0.0
 11
73.3571428571428
 21
-10.2908295585994
 31
0.0
  0
LINE
  5
11A3
330
18
100
AcDbEntity
  8
1
 62
     1
100
AcDbLine
 10
74.6580493617393
 20
-11.5322390356175
 30
0.0
 11
73.9855348415367
 21
-11.697618340483
 31
0.0
  0
LINE
  5
11A4
330
18
100
AcDbEntity
  8
1
 62
     1
100
AcDbLine
 10
75.1714285714286
 20
-10.4980985606125
 30
0.0
 11
75.5348569978183
 21
-11.3123801447591
 31
0.0
  0
LINE
  5
11A5
330
18
100
AcDbEntity
  8
1
 62
     1
100
AcDbLine
 10
76.8466227545694
 20
-10.9744558070997
 30
0.0
 11
75.5348569977891
 21
-11.3123801446949
 31
0.0
  0
LINE
  5
11A6
330
18
100
AcDbEntity
  8
1
 62
     1
100
AcDbLine
 10
76.9857142857143
 20
-10.6912932434697
 30
0.0
 11
77.084179154075
 21
-10.9120941730919
 31
0.0
  0
LINE
  5
11A7
330
18
100
AcDbEntity
  8
1
 62
     1
100
AcDbLine
 10
78.7999999999999
 20
-10.4507882324991
 30
0.0
 11
77.0841791540417
 21
-10.9120941730177
 31
0.0
  0
LINE
  5
11A8
330
18
100
AcDbEntity
  8
1
 62
     1
100
AcDbLine
 10
78.7999999999999
 20
-4.88179955116262
 30
0.0
 11
78.7999999999999
 21
-10.4507882324991
 31
0.0
  0
LINE
  5
11A9
330
18
100
AcDbEntity
  8
1
 62
     1
100
AcDbLine
 10
78.7999999999999
 20
-4.88179955116262
 30
0.0
 11
78.2451803407889
 21
-4.811145593042
 31
0.0
  0
LINE
  5
11AA
330
18
100
AcDbEntity
  8
1
 62
     1
100
AcDbLine
 10
76.9914447628553
 20
-4.6492772494253
 30
0.0
 11
76.9788853574218
 21
-4.64764047907853
 31
0.0
  0
LINE
  5
11AB
330
18
100
AcDbEntity
  8
1
 62
     1
100
AcDbLine
 10
75.3297883094233
 20
-4.43017320519118
 30
0.0
 11
74.9788141000426
 21
-4.38324885057897
 31
0.0
  0
LINE
  5
11AC
330
18
100
AcDbEntity
  8
1
 62
     1
100
AcDbLine
 10
73.6830636820333
 20
-4.20812527202364
 30
0.0
 11
72.9506779180203
 21
-4.10786157820566
 31
0.0
  0
LINE
  5
11AD
330
18
100
AcDbEntity
  8
1
 62
     1
100
AcDbLine
 10
72.0536736842762
 20
-3.98384095942036
 30
0.0
 11
70.8856587560703
 21
-3.8203992270392
 31
0.0
  0
LINE
  5
11AE
330
18
100
AcDbEntity
  8
1
 62
     1
100
AcDbLine
 10
70.4444786971491
 20
-3.75810717743578
 30
0.0
 11
52.8
 21
-1.07751688349315
 31
0.0
  0
LINE
  5
11AF
330
18
100
AcDbEntity
  8
1
 62
     1
100
AcDbLine
 10
53.4
 20
11.4951714565363
 30
0.0
 11
53.4
 21
11.8377032142857
 31
0.0
  0
LINE
  5
11B0
330
18
100
AcDbEntity
  8
1
 62
     1
100
AcDbLine
 10
52.8
 20
0.870456807697977
 30
0.0
 11
52.8
 21
6.79111670453966
 31
0.0
  0
ARC
  5
11B1
330
18
100
AcDbEntity
  8
1
 62
     1
100
AcDbCircle
 10
54.0600470495549
 20
17.6394612379832
 30
0.0
 40
10.9212715928927
100
AcDbArc
 50
263.374720332037
 51
266.535103471977
  0
LINE
  5
11B2
330
18
100
AcDbEntity
  8
1
 62
     1
100
AcDbLine
 10
52.8
 20
-8.30653300336199
 30
0.0
 11
53.4
 21
-7.17426364888424
 31
0.0
  0
LINE
  5
11B3
330
18
100
AcDbEntity
  8
1
 62
     1
100
AcDbLine
 10
52.8
 20
-11.9496925743707
 30
0.0
 11
52.8
 21
-8.30653300336196
 31
0.0
  0
LINE
  5
11B4
330
18
100
AcDbEntity
  8
1
 62
     1
100
AcDbLine
 10
52.8
 20
-1.07751688349313
 30
0.0
 11
52.8
 21
0.870456807697877
 31
0.0
  0
LINE
  5
11B5
330
18
100
AcDbEntity
  8
1
 62
     1
100
AcDbLine
 10
52.8
 20
6.7911167045397
 30
0.0
 11
52.8
 21
7.16462697325251
 31
0.0
  0
LINE
  5
11B6
330
18
100
AcDbEntity
  8
1
 62
     1
100
AcDbLine
 10
52.8
 20
7.16462697325251
 30
0.0
 11
52.8
 21
8.06594648869964
 31
0.0
  0
LINE
  5
11B7
330
18
100
AcDbEntity
  8
1
 62
     1
100
AcDbLine
 10
52.8
 20
8.06594648869964
 30
0.0
 11
52.8
 21
9.81473583718461
 31
0.0
  0
LINE
  5
11B8
330
18
100
AcDbEntity
  8
1
 62
     1
100
AcDbLine
 10
52.8
 20
9.81473583718461
 30
0.0
 11
52.8
 21
12.4876644672667
 31
0.0
  0
LINE
  5
11B9
330
18
100
AcDbEntity
  8
1
 62
     1
100
AcDbLine
 10
52.8
 20
12.4876644672667
 30
0.0
 11
52.8
 21
12.8769332142857
 31
0.0
  0
LINE
  5
11BA
330
18
100
AcDbEntity
  8
1
 62
     1
100
AcDbLine
 10
60.6571428571428
 20
11.8377032142857
 30
0.0
 11
59.8133805406393
 21
13.2991417345858
 31
0.0
  0
LINE
  5
11BB
330
18
100
AcDbEntity
  8
1
 62
     1
100
AcDbLine
 10
59.6874485445231
 20
13.3005777515413
 30
0.0
 11
58.8428571428571
 21
11.8377032142857
 31
0.0
  0
LINE
  5
11BC
330
18
100
AcDbEntity
  8
1
 62
     1
100
AcDbLine
 10
58.8428571428571
 20
11.8377032142857
 30
0.0
 11
57.9870711463761
 21
13.3199673494907
 31
0.0
  0
LINE
  5
11BD
330
18
100
AcDbEntity
  8
1
 62
     1
100
AcDbLine
 10
57.8850292276394
 20
13.3211309451614
 30
0.0
 11
57.0285714285714
 21
11.8377032142857
 31
0.0
  0
LINE
  5
11BE
330
18
100
AcDbEntity
  8
1
 62
     1
100
AcDbLine
 10
55.2142857142857
 20
11.8377032142857
 30
0.0
 11
54.3344523578507
 21
13.361618579299
 31
0.0
  0
LINE
  5
11BF
330
18
100
AcDbEntity
  8
1
 62
     1
100
AcDbLine
 10
56.0826099107552
 20
13.3416841387808
 30
0.0
 11
55.2142857142857
 21
11.8377032142857
 31
0.0
  0
LINE
  5
11C0
330
18
100
AcDbEntity
  8
1
 62
     1
100
AcDbLine
 10
57.0285714285714
 20
11.8377032142857
 30
0.0
 11
56.1607617521136
 21
13.3407929643944
 31
0.0
  0
LINE
  5
11C1
330
18
100
AcDbEntity
  8
1
 62
     1
100
AcDbLine
 10
61.489867861413
 20
13.2800245579319
 30
0.0
 11
60.6571428571428
 21
11.8377032142857
 31
0.0
  0
LINE
  5
11C2
330
18
100
AcDbEntity
  8
1
 62
     1
100
AcDbLine
 10
62.4714285714286
 20
11.8377032142857
 30
0.0
 11
61.6396899348965
 21
13.2783161196911
 31
0.0
  0
LINE
  5
11C3
330
18
100
AcDbEntity
  8
1
 62
     1
100
AcDbLine
 10
63.2922871782974
 20
13.259471364313
 30
0.0
 11
62.4714285714286
 21
11.8377032142857
 31
0.0
  0
LINE
  5
11C4
330
18
100
AcDbEntity
  8
1
 62
     1
100
AcDbLine
 10
64.2857142857142
 20
11.8377032142857
 30
0.0
 11
63.4659993291586
 21
13.2574905047879
 31
0.0
  0
LINE
  5
11C5
330
18
100
AcDbEntity
  8
1
 62
     1
100
AcDbLine
 10
66.3702344442555
 20
12.3057627835223
 30
0.0
 11
66.8971258120648
 21
13.1938620205048
 31
0.0
  0
LINE
  5
11C6
330
18
100
AcDbEntity
  8
1
 62
     1
100
AcDbLine
 10
66.3702344442832
 20
12.3057627835064
 30
0.0
 11
66.1
 21
11.8377032142857
 31
0.0
  0
LINE
  5
11C7
330
18
100
AcDbEntity
  8
1
 62
     1
100
AcDbLine
 10
66.1
 20
11.8377032142857
 30
0.0
 11
65.6963033459945
 21
12.5369260038559
 31
0.0
  0
LINE
  5
11C8
330
18
100
AcDbEntity
  8
1
 62
     1
100
AcDbLine
 10
64.8633866482647
 20
12.8382606299362
 30
0.0
 11
65.0947064951811
 21
13.2345946488622
 31
0.0
  0
LINE
  5
11C9
330
18
100
AcDbEntity
  8
1
 62
     1
100
AcDbLine
 10
64.8633866483058
 20
12.8382606299124
 30
0.0
 11
64.2857142857142
 21
11.8377032142857
 31
0.0
  0
LINE
  5
11CA
330
18
100
AcDbEntity
  8
1
 62
     1
100
AcDbLine
 10
54.2801905938711
 20
13.3622373324002
 30
0.0
 11
53.4
 21
11.8377032142857
 31
0.0
  0
LINE
  5
11CB
330
18
100
AcDbEntity
  8
1
 62
     1
100
AcDbLine
 10
77.0841791540417
 20
-12.0082492894722
 30
0.0
 11
78.7999999999999
 21
-11.5
 31
0.0
  0
LINE
  5
11CC
330
18
100
AcDbEntity
  8
1
 62
     1
100
AcDbLine
 10
75.5348569977892
 20
-12.4671794201636
 30
0.0
 11
76.8466227545694
 21
-12.0786167008052
 31
0.0
  0
LINE
  5
11CD
330
18
100
AcDbEntity
  8
1
 62
     1
100
AcDbLine
 10
73.9855348415367
 20
-12.9261095508551
 30
0.0
 11
74.6580493617393
 21
-12.726901674428
 31
0.0
  0
LINE
  5
11CE
330
18
100
AcDbEntity
  8
1
 62
     1
100
AcDbLine
 10
72.3043837626845
 20
-13.1567053961578
 30
0.0
 11
72.5975463005059
 21
-13.1533624302088
 31
0.0
  0
LINE
  5
11CF
330
18
100
AcDbEntity
  8
1
 62
     1
100
AcDbLine
 10
53.4
 20
11.8377032142857
 30
0.0
 11
52.7999999999917
 21
12.8769332143
 31
0.0
  0
LINE
  5
11D0
330
18
100
AcDbEntity
  8
SK1
100
AcDbLine
 10
-60.1
 20
6.85857127979291
 30
0.0
 11
-43.2
 21
6.85857127979291
 31
0.0
  0
LINE
  5
11D1
330
18
100
AcDbEntity
  8
SK1
100
AcDbLine
 10
-43.2
 20
8.60000000000001
 30
0.0
 11
-43.2
 21
6.8585712797929
 31
0.0
  0
LINE
  5
11D2
330
18
100
AcDbEntity
  8
SK1
100
AcDbLine
 10
-60.1
 20
8.60000000000002
 30
0.0
 11
-60.1
 21
6.85857127979291
 31
0.0
  0
LINE
  5
11D3
330
18
100
AcDbEntity
  8
SK1
100
AcDbLine
 10
-43.2
 20
11
 30
0.0
 11
-43.2
 21
10.9994963151781
 31
0.0
  0
LINE
  5
11D4
330
18
100
AcDbEntity
  8
SK1
100
AcDbLine
 10
-43.2
 20
10.9994963151781
 30
0.0
 11
-43.2
 21
10.84582889447
 31
0.0
  0
LINE
  5
11D5
330
18
100
AcDbEntity
  8
SK1
100
AcDbLine
 10
-43.2
 20
10.84582889447
 30
0.0
 11
-43.2
 21
8.60000000000001
 31
0.0
  0
LINE
  5
11D6
330
18
100
AcDbEntity
  8
SK1
100
AcDbLine
 10
-61.2
 20
8.60000000000002
 30
0.0
 11
-60.1
 21
8.60000000000002
 31
0.0
  0
LINE
  5
11D7
330
18
100
AcDbEntity
  8
SK1
100
AcDbLine
 10
-60.1
 20
8.60000000000002
 30
0.0
 11
-43.2
 21
8.60000000000002
 31
0.0
  0
LINE
  5
11D8
330
18
100
AcDbEntity
  8
SK1
100
AcDbLine
 10
-60.1
 20
-8.60000000000002
 30
0.0
 11
-43.2
 21
-8.60000000000002
 31
0.0
  0
LINE
  5
11D9
330
18
100
AcDbEntity
  8
SK1
100
AcDbLine
 10
-43.2
 20
-6.85857127979288
 30
0.0
 11
-43.2
 21
-8.60000000000002
 31
0.0
  0
LINE
  5
11DA
330
18
100
AcDbEntity
  8
SK1
100
AcDbLine
 10
-61.2
 20
8.60000000000002
 30
0.0
 11
-61.2
 21
4.90407993409572
 31
0.0
  0
LINE
  5
11DB
330
18
100
AcDbEntity
  8
SK1
100
AcDbLine
 10
-61.2
 20
-4.90407993409568
 30
0.0
 11
-60.6737318676716
 21
-5.89466585425384
 31
0.0
  0
LINE
  5
11DC
330
18
100
AcDbEntity
  8
SK1
100
AcDbLine
 10
-60.6737318676716
 20
-5.89466585425384
 30
0.0
 11
-60.1
 21
-6.85857127979288
 31
0.0
  0
LINE
  5
11DD
330
18
100
AcDbEntity
  8
SK1
100
AcDbLine
 10
-61.2
 20
-4.90407993409569
 30
0.0
 11
-61.2
 21
-8.60000000000002
 31
0.0
  0
LINE
  5
11DE
330
18
100
AcDbEntity
  8
SK1
100
AcDbLine
 10
-61.2
 20
-8.60000000000002
 30
0.0
 11
-60.1
 21
-8.59999999999998
 31
0.0
  0
LINE
  5
11DF
330
18
100
AcDbEntity
  8
SK1
100
AcDbLine
 10
-60.1
 20
-6.85857127979288
 30
0.0
 11
-60.1
 21
-8.59999999999998
 31
0.0
  0
LINE
  5
11E0
330
18
100
AcDbEntity
  8
SK1
100
AcDbLine
 10
-61.2
 20
4.90407993409572
 30
0.0
 11
-60.6737318676716
 21
5.89466585425387
 31
0.0
  0
LINE
  5
11E1
330
18
100
AcDbEntity
  8
SK1
100
AcDbLine
 10
-60.6737318676716
 20
5.89466585425387
 30
0.0
 11
-60.1
 21
6.85857127979291
 31
0.0
  0
LINE
  5
11E2
330
18
100
AcDbEntity
  8
SK1
100
AcDbLine
 10
-61.2
 20
4.90407993409572
 30
0.0
 11
-61.2
 21
-4.90407993409569
 31
0.0
  0
LINE
  5
11E3
330
18
100
AcDbEntity
  8
SK1
100
AcDbLine
 10
-60.1
 20
-6.85857127979288
 30
0.0
 11
-43.2
 21
-6.85857127979288
 31
0.0
  0
LINE
  5
11E4
330
18
100
AcDbEntity
  8
SK1
100
AcDbLine
 10
0
 20
11
 30
0.0
 11
-43.2
 21
11
 31
0.0
  0
LINE
  5
11E5
330
18
100
AcDbEntity
  8
SK1
100
AcDbLine
 10
-43.2
 20
6.8585712797929
 30
0.0
 11
-43.2
 21
-6.85857127979288
 31
0.0
  0
LINE
  5
11E6
330
18
100
AcDbEntity
  8
SK1
100
AcDbLine
 10
-43.2
 20
-8.59999999999998
 30
0.0
 11
-43.2
 21
-11
 31
0.0
  0
LINE
  5
11E7
330
18
100
AcDbEntity
  8
SK1
100
AcDbLine
 10
0
 20
-11
 30
0.0
 11
-43.2
 21
-11
 31
0.0
  0
DIMENSION
  5
11E8
330
18
100
AcDbEntity
  8
2
100
AcDbDimension
  2
*D11
 10
91.0500000000001
 20
-13.146
 30
0.0
 11
91.0500000000001
 21
32.2293333333334
 31
0.0
 70
   160
  1
NPT3/4-14
 71
     5
 42
26.29199999999999
  3
V-TYGEN_-160
100
AcDbAlignedDimension
 13
78.7999999999999
 23
13.146
 33
0.0
 14
78.7999999999999
 24
-13.146
 34
0.0
 50
90.0
100
AcDbRotatedDimension
  0
DIMENSION
  5
11E9
330
18
100
AcDbEntity
  8
2
100
AcDbDimension
  2
*D12
 10
78.7999999999999
 20
31.7852595884215
 30
0.0
 11
39.4
 21
34.5967493986815
 31
0.0
 70
    32
  1
<>
 71
     5
 42
78.79999999999995
  3
V-TYGEN_-160
100
AcDbAlignedDimension
 13
0
 23
11
 33
0.0
 14
78.7999999999999
 24
13.146
 34
0.0
100
AcDbRotatedDimension
1001
ACAD
1000
DSTYLE
1002
{
1070
   271
1070
     1
1002
}
  0
DIMENSION
  5
11EA
330
18
100
AcDbEntity
  8
SK2
100
AcDbDimension
  2
*D13
 10
-68.3231390122469
 20
-11
 30
0.0
 11
-71.1862802631253
 21
2.8421709430404E-14
 31
0.0
 70
    32
  1
%%c<>
 71
     5
 42
22.0
  3
V-TYGEN_-160
100
AcDbAlignedDimension
 13
-43.2
 23
11
 33
0.0
 14
-43.2
 24
-11
 34
0.0
 50
90.00000000029229
100
AcDbRotatedDimension
  0
DIMENSION
  5
11EB
330
18
100
AcDbEntity
  8
2
100
AcDbDimension
  2
*D14
 10
78.7999999999999
 20
22.6648160048433
 30
0.0
 11
65.7999999999999
 21
25.4763058151033
 31
0.0
 70
    32
  1
<>
 71
     5
 42
25.99999999999994
  3
V-TYGEN_-160
100
AcDbAlignedDimension
 13
52.8
 23
11.35
 33
0.0
 14
78.7999999999999
 24
13.146
 34
0.0
100
AcDbRotatedDimension
  0
DIMENSION
  5
11EC
330
18
100
AcDbEntity
  8
SK2
100
AcDbDimension
  2
*D15
 10
78.7999999999999
 20
42.0816134541124
 30
0.0
 11
8.7999999999999
 21
44.8931032643724
 31
0.0
 70
    32
  1
<>
 71
     5
 42
139.9999999999999
  3
V-TYGEN_-160
100
AcDbAlignedDimension
 13
-61.2
 23
8.60000000000002
 33
0.0
 14
78.7999999999999
 24
13.146
 34
0.0
100
AcDbRotatedDimension
  0
MTEXT
  5
11ED
330
18
100
AcDbEntity
  8
SK6
100
AcDbMText
 10
-61.2
 20
-16.5032320505438
 30
0.0
 40
3.5
 41
62.73051879520082
 71
     1
 72
     5
  1
{\fMonospac821 BT|b0|i0|c0|p49;MTH-3/4-14NPT-XC-V048\P02880755\PBSG:DIN/ANSI}
  7
SIMPLEX
 73
     1
 44
1.0
1001
ACAD
1000
ACAD_MTEXT_COLUMN_INFO_BEGIN
1070
    75
1070
     2
1070
    79
1070
     0
1070
    76
1070
     1
1070
    78
1070
     0
1070
    48
1040
62.73051879520082
1070
    49
1040
17.5
1070
    50
1070
     1
1040
0.0
1000
ACAD_MTEXT_COLUMN_INFO_END
1000
MTEXTBEGIN
1070
    73
1070
     1
1070
    44
1040
1.0
1070
    74
1070
     0
1000
MTEXTEND
  0
VIEWPORT
  5
B5D
102
{ACAD_XDICTIONARY
360
B5E
102
}
330
B56
100
AcDbEntity
 67
     1
  8
0
100
AcDbViewport
 10
148.4886727696569
 20
104.9919908472322
 30
0.0
 40
360.5799308901367
 41
215.6936333192457
 68
     1
 69
     1
 12
148.4886727696569
 22
104.9919908472322
 13
0.0
 23
0.0
 14
10.0
 24
10.0
 15
10.0
 25
10.0
 16
0.0
 26
0.0
 36
1.0
 17
0.0
 27
0.0
 37
0.0
 42
50.0
 43
0.0
 44
0.0
 45
215.6936333192457
 50
0.0
 51
0.0
 72
  2000
 90
   819232
  1

281
     0
 71
     1
 74
     0
110
0.0
120
0.0
130
0.0
111
1.0
121
0.0
131
0.0
112
0.0
122
1.0
132
0.0
 79
     0
146
0.0
  0
VIEWPORT
  5
B61
102
{ACAD_XDICTIONARY
360
B62
102
}
330
B56
100
AcDbEntity
 67
     1
  8
1
100
AcDbViewport
 10
148.5
 20
105.0
 30
0.0
 40
297.0
 41
210.0
 68
     2
 69
     2
 12
0.3212157160238718
 22
-0.0519849240370149
 13
0.0
 23
0.0
 14
5.0
 24
5.0
 15
5.0
 25
5.0
 16
0.0
 26
0.0
 36
1.0
 17
0.0
 27
0.0
 37
0.0
 42
50.0
 43
0.0
 44
0.0
 45
210.0000000373879
 50
0.0
 51
0.0
 72
  2000
 90
   819232
  1

281
     0
 71
     1
 74
     0
110
0.0
120
0.0
130
0.0
111
1.0
121
0.0
131
0.0
112
0.0
122
1.0
132
0.0
 79
     0
146
0.0
  0
ENDSEC
  0
SECTION
  2
OBJECTS
  0
DICTIONARY
  5
C
330
0
100
AcDbDictionary
281
     1
  3
ACAD_2007HEADERVARS_RT
350
1452
  3
ACAD_BACKGROUND
350
B0F
  3
ACAD_CIP_PREVIOUS_PRODUCT_INFO
350
CF7
  3
ACAD_COLOR
350
387
  3
ACAD_DETAILVIEWSTYLE
350
CEF
  3
ACAD_FIELDLIST
350
D13
  3
ACAD_GROUP
350
D
  3
ACAD_LAYOUT
350
301
  3
ACAD_MATERIAL
350
386
  3
ACAD_MLEADERSTYLE
350
46F
  3
ACAD_MLINESTYLE
350
E
  3
ACAD_PLOTSETTINGS
350
302
  3
ACAD_PLOTSTYLENAME
350
2FF
  3
ACAD_SCALELIST
350
44D
  3
ACAD_SECTIONVIEWSTYLE
350
CED
  3
ACAD_TABLESTYLE
350
388
  3
ACAD_VISUALSTYLE
350
3F2
  3
ACDB_RECOMPOSE_DATA
350
1450
  3
AcDbVariableDictionary
350
357
  3
AcDsDecomposeData
350
145A
  3
AcmDictionary
350
4D1
  3
AMG
350
478
  3
AMGSNAPSETTINGS
350
51E
  3
DWGPROPS
350
1451
  0
DICTIONARY
  5
A45
330
8
100
AcDbDictionary
280
     1
281
     1
  0
DICTIONARY
  5
43C
330
2
100
AcDbDictionary
280
     1
281
     1
  3
ACAD_LAYERFILTERS
360
B21
  3
ACAD_LAYERSTATES
360
567
  3
ACLYDICTIONARY
360
B20
  0
DICTIONARY
  5
52D
330
F
100
AcDbDictionary
280
     1
281
     1
  3
ADSK_XREC_LAYER_RECONCILED
360
1445
  0
DICTIONARY
  5
52F
330
23
100
AcDbDictionary
280
     1
281
     1
  3
ADSK_XREC_LAYER_RECONCILED
360
1446
  0
DICTIONARY
  5
531
330
24
100
AcDbDictionary
280
     1
281
     1
  3
ADSK_XREC_LAYER_RECONCILED
360
1447
  0
DICTIONARY
  5
533
330
25
100
AcDbDictionary
280
     1
281
     1
  3
ADSK_XREC_LAYER_RECONCILED
360
1448
  0
DICTIONARY
  5
537
330
27
100
AcDbDictionary
280
     1
281
     1
  3
ADSK_XREC_LAYER_RECONCILED
360
1449
  0
DICTIONARY
  5
53D
330
2A
100
AcDbDictionary
280
     1
281
     1
  3
ADSK_XREC_LAYER_RECONCILED
360
144A
  0
DICTIONARY
  5
53F
330
2B
100
AcDbDictionary
280
     1
281
     1
  3
ADSK_XREC_LAYER_RECONCILED
360
144B
  0
DICTIONARY
  5
545
330
2E
100
AcDbDictionary
280
     1
281
     1
  3
ADSK_XREC_LAYER_RECONCILED
360
144C
  0
DICTIONARY
  5
B5E
330
B5D
100
AcDbDictionary
280
     1
281
     1
  3
ACAD_XREC_ROUNDTRIP
360
148C
  3
ASDK_XREC_ANNOTATION_SCALE_INFO
360
B5F
  0
DICTIONARY
  5
B62
330
B61
100
AcDbDictionary
280
     1
281
     1
  3
ACAD_XREC_ROUNDTRIP
360
148D
  3
ASDK_XREC_ANNOTATION_SCALE_INFO
360
B63
  0
DICTIONARY
  5
1452
102
{ACAD_REACTORS
330
C
102
}
330
C
100
AcDbDictionary
281
     1
  3
DIMARCSYM
350
1453
  3
DIMJOGANG
350
1454
  0
DICTIONARY
  5
B0F
102
{ACAD_REACTORS
330
C
102
}
330
C
100
AcDbDictionary
281
     1
  0
XRECORD
  5
CF7
102
{ACAD_REACTORS
330
C
102
}
330
C
100
AcDbXrecord
280
     1
300
AMECH_PP
300
2014
300
86138AMECH_PP_2014_0F
  0
DICTIONARY
  5
387
102
{ACAD_REACTORS
330
C
102
}
330
C
100
AcDbDictionary
281
     1
  0
DICTIONARY
  5
CEF
102
{ACAD_REACTORS
330
C
102
}
330
C
100
AcDbDictionary
281
     1
  3
Metric50
350
CF0
  0
FIELDLIST
  5
D13
102
{ACAD_REACTORS
330
C
102
}
330
C
100
AcDbIdSet
 90
        9
330
D11
330
D12
330
D14
330
D1C
330
D1D
330
D1E
330
D98
330
D99
330
D9A
100
AcDbFieldList
  0
DICTIONARY
  5
D
102
{ACAD_REACTORS
330
C
102
}
330
C
100
AcDbDictionary
281
     1
  0
DICTIONARY
  5
301
102
{ACAD_REACTORS
330
C
102
}
330
C
100
AcDbDictionary
281
     1
  3
Layout1
350
B57
  3
Model
350
303
  0
DICTIONARY
  5
386
102
{ACAD_REACTORS
330
C
102
}
330
C
100
AcDbDictionary
281
     1
  3
ByBlock
350
3F0
  3
ByLayer
350
3EF
  3
Global
350
3F1
  0
DICTIONARY
  5
46F
102
{ACAD_REACTORS
330
C
102
}
330
C
100
AcDbDictionary
281
     1
  3
Standard
350
470
  0
DICTIONARY
  5
E
102
{ACAD_REACTORS
330
C
102
}
330
C
100
AcDbDictionary
281
     1
  3
STANDARD
350
1B
  0
DICTIONARY
  5
302
102
{ACAD_REACTORS
330
C
102
}
330
C
100
AcDbDictionary
281
     1
  3
DWG To PDF A4 - landscape
350
7EF
  3
DWG To PDF A4 - portrait
350
7F8
  0
ACDBDICTIONARYWDFLT
  5
2FF
102
{ACAD_REACTORS
330
C
102
}
330
C
100
AcDbDictionary
281
     1
  3
Normal
350
300
100
AcDbDictionaryWithDefault
340
300
  0
DICTIONARY
  5
44D
102
{ACAD_REACTORS
330
C
102
}
330
C
100
AcDbDictionary
281
     1
  3
A0
350
BFC
  3
A1
350
BFD
  3
A2
350
BFE
  3
A3
350
BFF
  3
A4
350
C00
  3
A5
350
C01
  3
A6
350
44E
  3
A7
350
C02
  3
A8
350
C03
  3
A9
350
C04
  3
B0
350
C05
  3
B1
350
C06
  3
B2
350
C07
  0
DICTIONARY
  5
CED
102
{ACAD_REACTORS
330
C
102
}
330
C
100
AcDbDictionary
281
     1
  3
Metric50
350
CEE
  0
DICTIONARY
  5
388
102
{ACAD_REACTORS
330
C
102
}
330
C
100
AcDbDictionary
281
     1
  3
Standard
350
389
  0
DICTIONARY
  5
3F2
102
{ACAD_REACTORS
330
C
102
}
330
C
100
AcDbDictionary
281
     1
  3
2dWireframe
350
3F8
  3
3D Hidden
350
3FA
  3
3dWireframe
350
3F9
  3
Basic
350
3F7
  3
Brighten
350
3FE
  3
ColorChange
350
402
  3
Conceptual
350
3FB
  3
Dim
350
3FD
  3
EdgeColorOff
350
BDF
  3
Facepattern
350
401
  3
Flat
350
3F3
  3
FlatWithEdges
350
3F4
  3
Gouraud
350
3F5
  3
GouraudWithEdges
350
3F6
  3
Hidden
350
CE7
  3
JitterOff
350
BDD
  3
Linepattern
350
400
  3
OverhangOff
350
BDE
  3
Realistic
350
3FC
  3
Shaded
350
CEC
  3
Shaded with edges
350
CEB
  3
Shades of Gray
350
CE8
  3
Sketchy
350
CE9
  3
Thicken
350
3FF
  3
Wireframe
350
CE6
  3
X-Ray
350
CEA
  0
XRECORD
  5
1450
102
{ACAD_REACTORS
330
C
102
}
330
C
100
AcDbXrecord
280
     1
 90
        1
330
389
330
11ED
  0
DICTIONARY
  5
357
102
{ACAD_REACTORS
330
C
102
}
330
C
100
AcDbDictionary
281
     1
  3
CANNOSCALE
350
57C
  3
CMLEADERSTYLE
350
57A
  3
CTABLESTYLE
350
38E
  3
CVIEWDETAILSTYLE
350
D2C
  3
CVIEWSECTIONSTYLE
350
D2D
  3
DIMASSOC
350
359
  3
HIDETEXT
350
358
  3
INDEXCTL
350
ACC
  3
LAYEREVAL
350
BF1
  3
LAYERNOTIFY
350
BF2
  3
LIGHTINGUNITS
350
57D
  3
MSLTSCALE
350
57B
  3
SOLIDHIST
350
144E
  3
SORTENTS
350
ACB
  3
XCLIPFRAME
350
144D
  0
DICTIONARY
  5
145A
102
{ACAD_REACTORS
330
C
102
}
330
C
100
AcDbDictionary
281
     1
  3
AcDsRecords
350
145C
  3
AcDsSchemas
350
145B
1001
ACAD
1070
     2
  0
DICTIONARY
  5
4D1
102
{ACAD_REACTORS
330
C
102
}
330
C
100
AcDbDictionary
281
     1
  3
AcmStdDictionary
350
4DC
  3
AMDTSECTSYM_ARROWCOLOR
350
4F3
  0
DICTIONARY
  5
478
102
{ACAD_REACTORS
330
C
102
}
330
C
100
AcDbDictionary
281
     1
  0
DICTIONARY
  5
51E
102
{ACAD_REACTORS
330
C
102
}
330
C
100
AcDbDictionary
281
     1
  0
XRECORD
  5
1451
102
{ACAD_REACTORS
330
C
102
}
330
C
100
AcDbXrecord
280
     1
  1
DWGPROPS COOKIE
  2

  3

  4
Philippe Vogel
  6
Secotools DIN Template metric
  7

  8
inpunrajy
  9

300
=
301
=
302
=
303
=
304
=
305
=
306
=
307
=
308
=
309
=
 40
0.0008869328703704
 41
2457277.384583299
 42
2457277.385469387
  1
http://www.secotools.com/
 90
        0
  0
DICTIONARY
  5
B21
102
{ACAD_REACTORS
330
43C
102
}
330
43C
100
AcDbDictionary
281
     1
  0
DICTIONARY
  5
567
102
{ACAD_REACTORS
330
43C
102
}
330
43C
100
AcDbDictionary
281
     1
  3
BMG3.0
350
8E9
  0
DICTIONARY
  5
B20
102
{ACAD_REACTORS
330
43C
102
}
330
43C
100
AcDbDictionary
281
     1
1001
ACAD
1000
<All
  0
XRECORD
  5
1445
102
{ACAD_REACTORS
330
52D
102
}
330
52D
100
AcDbXrecord
280
     1
290
     1
  0
XRECORD
  5
1446
102
{ACAD_REACTORS
330
52F
102
}
330
52F
100
AcDbXrecord
280
     1
290
     1
  0
XRECORD
  5
1447
102
{ACAD_REACTORS
330
531
102
}
330
531
100
AcDbXrecord
280
     1
290
     1
  0
XRECORD
  5
1448
102
{ACAD_REACTORS
330
533
102
}
330
533
100
AcDbXrecord
280
     1
290
     1
  0
XRECORD
  5
1449
102
{ACAD_REACTORS
330
537
102
}
330
537
100
AcDbXrecord
280
     1
290
     1
  0
XRECORD
  5
144A
102
{ACAD_REACTORS
330
53D
102
}
330
53D
100
AcDbXrecord
280
     1
290
     1
  0
XRECORD
  5
144B
102
{ACAD_REACTORS
330
53F
102
}
330
53F
100
AcDbXrecord
280
     1
290
     1
  0
XRECORD
  5
144C
102
{ACAD_REACTORS
330
545
102
}
330
545
100
AcDbXrecord
280
     1
290
     1
  0
XRECORD
  5
148C
102
{ACAD_REACTORS
330
B5E
102
}
330
B5E
100
AcDbXrecord
280
     1
102
SHADEPLOT
 70
     0
  0
XRECORD
  5
B5F
102
{ACAD_REACTORS
330
B5E
102
}
330
B5E
100
AcDbXrecord
280
     1
 90
        1
340
44E
  0
XRECORD
  5
148D
102
{ACAD_REACTORS
330
B62
102
}
330
B62
100
AcDbXrecord
280
     1
102
SHADEPLOT
 70
     0
  0
XRECORD
  5
B63
102
{ACAD_REACTORS
330
B62
102
}
330
B62
100
AcDbXrecord
280
     1
 90
        1
340
44E
  0
XRECORD
  5
1453
102
{ACAD_REACTORS
330
1452
102
}
330
1452
100
AcDbXrecord
280
     1
 70
     1
  0
XRECORD
  5
1454
102
{ACAD_REACTORS
330
1452
102
}
330
1452
100
AcDbXrecord
280
     1
 40
1.570796326794896
  0
ACDBDETAILVIEWSTYLE
  5
CF0
102
{ACAD_XDICTIONARY
360
D27
102
}
102
{ACAD_REACTORS
330
CEF
330
D05
102
}
330
CEF
100
AcDbModelDocViewStyle
 70
     0
  3
Metric50
290
     0
100
AcDbDetailViewStyle
 70
     0
 71
     0
 90
        3
 71
     1
340
10
 40
5.0
340
0
 40
5.0
300

 40
0.0
280
     1
 71
     2
340
14
 90
       25
 71
     3
340
10
 40
5.0
 90
        0
 40
15.0
 90
        1
300
%<\AcVar ViewDetailId>% (%<\AcVar ViewScale \f "%sn">%)
 71
     4
340
14
 90
       25
340
14
 90
       25
280
     0
  0
LAYOUT
  5
B57
102
{ACAD_XDICTIONARY
360
B74
102
}
102
{ACAD_REACTORS
330
301
102
}
330
301
100
AcDbPlotSettings
  1

  2
DWG To PDF.pc3
  4
UserDefinedMetric (297.00 x 210.00mm)
  6

 40
0.0
 41
0.0
 42
0.0
 43
0.0
 44
297.0
 45
210.0
 46
0.0
 47
0.0
 48
0.0
 49
0.0
140
0.0
141
0.0
142
1.0
143
1.0
 70
   688
 72
     1
 73
     0
 74
     5
  7
monochrome.ctb
 75
    16
147
1.0
148
0.0
149
0.0
100
AcDbLayout
  1
Layout1
 70
     1
 71
     1
 10
0.0
 20
0.0
 11
297.0
 21
210.0
 12
0.0
 22
0.0
 32
0.0
 14
-0.0226558438690745
 24
-0.0160192835437556
 34
-0.000000000000013
 15
297.000001383183
 25
210.0000009780083
 35
0.0000000000000023
146
0.0
 13
0.0
 23
0.0
 33
0.0
 16
1.0
 26
0.0
 36
0.0
 17
0.0
 27
1.0
 37
0.0
 76
     0
330
B56
331
B5D
1001
ACAD_PSEXT
1000
DWG To PDF.pc3
1000
PDF
1000
Datei
1000

1070
     0
  0
LAYOUT
  5
303
102
{ACAD_XDICTIONARY
360
BEF
102
}
102
{ACAD_REACTORS
330
301
102
}
330
301
100
AcDbPlotSettings
  1

  2
Default Windows System Printer.pc3
  4
A4
  6

 40
4.233333110809326
 41
4.995328426361083
 42
4.233322143554687
 43
4.995330810546875
 44
209.9733276367187
 45
296.9683227539062
 46
0.0
 47
97.55556227323859
 48
0.0
 49
0.0
140
0.0
141
0.0
142
1.0
143
6.090554118624327
 70
  3764
 72
     1
 73
     1
 74
     1
  7
monochrome.ctb
 75
     0
147
0.164188673234525
148
197.0402205952446
149
599.0551752795641
100
AcDbLayout
  1
Model
 70
     1
 71
     0
 10
0.0
 20
0.0
 11
12.0
 21
9.0
 12
0.0
 22
0.0
 32
0.0
 14
0.0
 24
0.0
 34
0.0
 15
0.0
 25
0.0
 35
0.0
146
0.0
 13
0.0
 23
0.0
 33
0.0
 16
1.0
 26
0.0
 36
0.0
 17
0.0
 27
1.0
 37
0.0
 76
     0
330
18
331
AD1
1001
ACAD_PSEXT
1000
Default Windows System Printer.pc3
1000
HP LaserJet 5100 PCL 6
1000
HPLaserJet5100Series
1000

1070
     0
  0
MATERIAL
  5
3F0
102
{ACAD_XDICTIONARY
360
1461
102
}
102
{ACAD_REACTORS
330
386
102
}
330
386
100
AcDbMaterial
  1
ByBlock
 73
     1
 78
     1
172
     1
176
     1
270
     1
274
     1
  0
MATERIAL
  5
3EF
102
{ACAD_XDICTIONARY
360
145F
102
}
102
{ACAD_REACTORS
330
386
102
}
330
386
100
AcDbMaterial
  1
ByLayer
 73
     1
 78
     1
172
     1
176
     1
270
     1
274
     1
  0
MATERIAL
  5
3F1
102
{ACAD_XDICTIONARY
360
1463
102
}
102
{ACAD_REACTORS
330
386
102
}
330
386
100
AcDbMaterial
  1
Global
 73
     1
 78
     1
172
     1
176
     1
270
     1
274
     1
  0
MLEADERSTYLE
  5
470
102
{ACAD_XDICTIONARY
360
1485
102
}
102
{ACAD_REACTORS
330
46F
102
}
330
46F
100
AcDbMLeaderStyle
170
     2
171
     1
172
     0
 90
        2
 40
0.0
 41
0.0
173
     1
 91
-1056964608
340
12
 92
       -2
290
     1
 42
2.0
291
     1
 43
0.36
  3
Standard
 44
5.0
300

342
10
174
     0
178
     6
175
     1
176
     0
 93
-1056964608
 45
3.5
292
     0
297
     0
 46
4.0
 94
-1056964608
 47
1.0
 49
1.0
140
1.0
293
     1
141
0.0
294
     1
177
     0
142
1.0
295
     0
296
     0
143
0.125
1001
ACAD_MLEADERVER
1070
     2
  0
MLINESTYLE
  5
1B
102
{ACAD_REACTORS
330
E
102
}
330
E
100
AcDbMlineStyle
  2
STANDARD
 70
     0
  3

 62
     0
 51
90.0
 52
90.0
 71
     2
 49
0.5
 62
   256
  6
BYLAYER
 49
-0.5
 62
   256
  6
BYLAYER
  0
PLOTSETTINGS
  5
7EF
102
{ACAD_XDICTIONARY
360
1487
102
}
102
{ACAD_REACTORS
330
302
102
}
330
302
100
AcDbPlotSettings
  1
DWG To PDF A4 - landscape
  2
DWG To PDF.pc3
  4
ISO_expand_A4_(297.00_x_210.00_MM)
  6

 40
5.793749809265136
 41
10.79374980926513
 42
5.79376220703125
 43
10.79374694824219
 44
297.0
 45
210.0
 46
99.7577788938406
 47
0.0
 48
0.0
 49
0.0
140
0.0
141
0.0
142
1.0
143
6.513831472368249
 70
 11956
 72
     1
 73
     0
 74
     1
  7
monochrome.ctb
 75
     0
147
0.153519476861201
148
197.0402205952446
149
599.0551752795641
1001
ACAD_PSEXT
1000
DWG To PDF.pc3
1000
PDF
1000
Datei
1000

1070
     0
  0
PLOTSETTINGS
  5
7F8
102
{ACAD_XDICTIONARY
360
1489
102
}
102
{ACAD_REACTORS
330
302
102
}
330
302
100
AcDbPlotSettings
  1
DWG To PDF A4 - portrait
  2
DWG To PDF.pc3
  4
ISO_expand_A4_(210.00_x_297.00_MM)
  6

 40
5.793749809265136
 41
10.79374980926513
 42
5.793746948242187
 43
10.79376220703125
 44
210.0
 45
297.0
 46
36.42621619811505
 47
0.0
 48
0.0
 49
0.0
140
0.0
141
0.0
142
1.0
143
4.456178811620383
 70
 11956
 72
     1
 73
     0
 74
     1
  7
monochrome.ctb
 75
     0
147
0.2244075119679441
148
197.0402205952446
149
599.0551752795641
1001
ACAD_PSEXT
1000
DWG To PDF.pc3
1000
PDF
1000
Datei
1000

1070
     0
  0
ACDBPLACEHOLDER
  5
300
102
{ACAD_REACTORS
330
2FF
102
}
330
2FF
  0
SCALE
  5
BFC
102
{ACAD_REACTORS
330
44D
102
}
330
44D
100
AcDbScale
 70
     0
300
100:1
140
100.0
141
1.0
290
     0
  0
SCALE
  5
BFD
102
{ACAD_REACTORS
330
44D
102
}
330
44D
100
AcDbScale
 70
     0
300
50:1
140
50.0
141
1.0
290
     0
  0
SCALE
  5
BFE
102
{ACAD_REACTORS
330
44D
102
}
330
44D
100
AcDbScale
 70
     0
300
20:1
140
20.0
141
1.0
290
     0
  0
SCALE
  5
BFF
102
{ACAD_REACTORS
330
44D
102
}
330
44D
100
AcDbScale
 70
     0
300
10:1
140
10.0
141
1.0
290
     0
  0
SCALE
  5
C00
102
{ACAD_REACTORS
330
44D
102
}
330
44D
100
AcDbScale
 70
     0
300
5:1
140
5.0
141
1.0
290
     0
  0
SCALE
  5
C01
102
{ACAD_REACTORS
330
44D
102
}
330
44D
100
AcDbScale
 70
     0
300
2:1
140
2.0
141
1.0
290
     0
  0
SCALE
  5
44E
102
{ACAD_REACTORS
330
44D
102
}
330
44D
100
AcDbScale
 70
     0
300
1:1
140
1.0
141
1.0
290
     1
  0
SCALE
  5
C02
102
{ACAD_REACTORS
330
44D
102
}
330
44D
100
AcDbScale
 70
     0
300
1:2
140
1.0
141
2.0
290
     0
  0
SCALE
  5
C03
102
{ACAD_REACTORS
330
44D
102
}
330
44D
100
AcDbScale
 70
     0
300
1:5
140
1.0
141
5.0
290
     0
  0
SCALE
  5
C04
102
{ACAD_REACTORS
330
44D
102
}
330
44D
100
AcDbScale
 70
     0
300
1:10
140
1.0
141
10.0
290
     0
  0
SCALE
  5
C05
102
{ACAD_REACTORS
330
44D
102
}
330
44D
100
AcDbScale
 70
     0
300
1:20
140
1.0
141
20.0
290
     0
  0
SCALE
  5
C06
102
{ACAD_REACTORS
330
44D
102
}
330
44D
100
AcDbScale
 70
     0
300
1:50
140
1.0
141
50.0
290
     0
  0
SCALE
  5
C07
102
{ACAD_REACTORS
330
44D
102
}
330
44D
100
AcDbScale
 70
     0
300
1:100
140
1.0
141
100.0
290
     0
  0
ACDBSECTIONVIEWSTYLE
  5
CEE
102
{ACAD_XDICTIONARY
360
D25
102
}
102
{ACAD_REACTORS
330
CED
330
D04
102
}
330
CED
100
AcDbModelDocViewStyle
 70
     0
  3
Metric50
290
     0
100
AcDbSectionViewStyle
 70
     0
 71
     0
 90
      102
 71
     1
340
10
 40
5.0
340
0
340
0
 40
5.0
300
I, O, Q, S, X, Z
 40
10.0
 90
        0
 40
2.5
 90
        0
 71
     2
340
14
 90
       25
340
14
 90
       50
 40
5.0
 40
2.5
 40
5.0
 71
     3
340
10
 40
5.0
 90
        0
 40
15.0
 90
        1
300
%<\AcVar ViewSectionStartId>%-%<\AcVar ViewSectionEndId>% (%<\AcVar ViewScale \f "%sn">%)
 71
     4
300
ANSI31
 40
1.0
 90
        0
290
     0
290
     0
 90
        6
 40
0.0
 40
1.570796326794896
 40
0.2617993877991494
 40
1.308996938995747
 40
-0.2617993877991494
 40
1.832595714594046
  0
TABLESTYLE
  5
389
102
{ACAD_XDICTIONARY
360
577
102
}
102
{ACAD_REACTORS
330
388
102
}
330
388
100
AcDbTableStyle
  3
Standard
 70
     0
 71
     0
 40
1.5
 41
1.5
280
     0
281
     0
  7
STANDARD
140
4.5
170
     2
 62
     0
 63
     7
283
     0
274
    -2
284
     1
 64
     0
275
    -2
285
     1
 65
     0
276
    -2
286
     1
 66
     0
277
    -2
287
     1
 67
     0
278
    -2
288
     1
 68
     0
279
    -2
289
     1
 69
     0
  7
STANDARD 5 mm
140
6.0
170
     5
 62
     0
 63
     7
283
     0
274
    -2
284
     1
 64
     0
275
    -2
285
     1
 65
     0
276
    -2
286
     1
 66
     0
277
    -2
287
     1
 67
     0
278
    -2
288
     1
 68
     0
279
    -2
289
     1
 69
     0
  7
STANDARD
140
4.5
170
     5
 62
     0
 63
     7
283
     0
274
    -2
284
     1
 64
     0
275
    -2
285
     1
 65
     0
276
    -2
286
     1
 66
     0
277
    -2
287
     1
 67
     0
278
    -2
288
     1
 68
     0
279
    -2
289
     1
 69
     0
  0
VISUALSTYLE
  5
3F8
102
{ACAD_XDICTIONARY
360
146F
102
}
102
{ACAD_REACTORS
330
3F2
102
}
330
3F2
100
AcDbVisualStyle
  2
2dWireframe
 70
     4
 71
     0
 72
     2
 73
     0
 90
        0
 40
-0.6
 41
-30.0
 62
     5
 63
     7
 74
     1
 91
        4
 64
     7
 65
   257
 75
     1
175
     1
 42
1.0
 92
        0
 66
   257
 43
1.0
 76
     1
 77
     6
 78
     2
 67
     7
 79
     5
170
     0
171
     0
290
     0
174
     0
 93
        1
 44
0.0
173
     0
291
     0
 45
0.0
1001
ACAD
1000
AcDbSavedByObjectVersion
1070
     0
  0
VISUALSTYLE
  5
3FA
102
{ACAD_XDICTIONARY
360
1473
102
}
102
{ACAD_REACTORS
330
3F2
102
}
330
3F2
100
AcDbVisualStyle
  2
3D Hidden
 70
     6
 71
     1
 72
     2
 73
     2
 90
        0
 40
-0.6
 41
-30.0
 62
     5
 63
     7
 74
     2
 91
        2
 64
     7
 65
   257
 75
     2
175
     1
 42
40.0
 92
        0
 66
   257
 43
1.0
 76
     1
 77
     6
 78
     2
 67
     7
 79
     3
170
     0
171
     0
290
     0
174
     0
 93
        1
 44
0.0
173
     0
291
     0
 45
0.0
1001
ACAD
1000
AcDbSavedByObjectVersion
1070
     0
  0
VISUALSTYLE
  5
3F9
102
{ACAD_XDICTIONARY
360
1471
102
}
102
{ACAD_REACTORS
330
3F2
102
}
330
3F2
100
AcDbVisualStyle
  2
3dWireframe
 70
     5
 71
     0
 72
     2
 73
     0
 90
        0
 40
-0.6
 41
-30.0
 62
     5
 63
     7
 74
     1
 91
        4
 64
     7
 65
   257
 75
     1
175
     1
 42
1.0
 92
        0
 66
   257
 43
1.0
 76
     1
 77
     6
 78
     2
 67
     7
 79
     5
170
     0
171
     0
290
     0
174
     0
 93
        1
 44
0.0
173
     0
291
     0
 45
0.0
1001
ACAD
1000
AcDbSavedByObjectVersion
1070
     0
  0
VISUALSTYLE
  5
3F7
102
{ACAD_XDICTIONARY
360
146D
102
}
102
{ACAD_REACTORS
330
3F2
102
}
330
3F2
100
AcDbVisualStyle
  2
Basic
 70
     7
 71
     1
 72
     0
 73
     1
 90
        0
 40
-0.6
 41
-30.0
 62
     5
 63
     7
 74
     0
 91
        4
 64
     7
 65
   257
 75
     1
175
     1
 42
1.0
 92
        8
 66
     7
 43
1.0
 76
     1
 77
     6
 78
     2
 67
     7
 79
     5
170
     0
171
     0
290
     0
174
     0
 93
        1
 44
0.0
173
     0
291
     1
 45
0.0
1001
ACAD
1000
AcDbSavedByObjectVersion
1070
     0
  0
VISUALSTYLE
  5
3FE
102
{ACAD_XDICTIONARY
360
147B
102
}
102
{ACAD_REACTORS
330
3F2
102
}
330
3F2
100
AcDbVisualStyle
  2
Brighten
 70
    12
 71
     2
 72
     2
 73
     0
 90
        0
 40
-0.6
 41
-30.0
 62
     5
 63
     7
 74
     1
 91
        4
 64
     7
 65
   257
 75
     1
175
     1
 42
1.0
 92
        8
 66
     7
 43
1.0
 76
     1
 77
     6
 78
     2
 67
     7
 79
     5
170
     0
171
     0
290
     0
174
     0
 93
        1
 44
50.0
173
     0
291
     1
 45
0.0
1001
ACAD
1000
AcDbSavedByObjectVersion
1070
     0
  0
VISUALSTYLE
  5
402
102
{ACAD_XDICTIONARY
360
1483
102
}
102
{ACAD_REACTORS
330
3F2
102
}
330
3F2
100
AcDbVisualStyle
  2
ColorChange
 70
    16
 71
     2
 72
     2
 73
     3
 90
        0
 40
-0.6
 41
-30.0
 62
     5
 63
     8
 74
     1
 91
        4
 64
     7
 65
   257
 75
     1
175
     1
 42
1.0
 92
        8
 66
     8
 43
1.0
 76
     1
 77
     6
 78
     2
 67
     7
 79
     5
170
     0
171
     0
290
     0
174
     0
 93
        1
 44
0.0
173
     0
291
     1
 45
0.0
1001
ACAD
1000
AcDbSavedByObjectVersion
1070
     0
  0
VISUALSTYLE
  5
3FB
102
{ACAD_XDICTIONARY
360
1475
102
}
102
{ACAD_REACTORS
330
3F2
102
}
330
3F2
100
AcDbVisualStyle
  2
Conceptual
 70
     9
 71
     3
 72
     2
 73
     0
 90
        0
 40
-0.6
 41
-30.0
 62
     5
 63
     7
 74
     2
 91
        2
 64
     7
 65
   257
 75
     1
175
     1
 42
40.0
 92
        8
 66
     7
 43
1.0
 76
     1
 77
     6
 78
     2
 67
     7
 79
     3
170
     0
171
     0
290
     0
174
     0
 93
        1
 44
0.0
173
     0
291
     0
 45
0.0
1001
ACAD
1000
AcDbSavedByObjectVersion
1070
     0
  0
VISUALSTYLE
  5
3FD
102
{ACAD_XDICTIONARY
360
1479
102
}
102
{ACAD_REACTORS
330
3F2
102
}
330
3F2
100
AcDbVisualStyle
  2
Dim
 70
    11
 71
     2
 72
     2
 73
     0
 90
        0
 40
-0.6
 41
-30.0
 62
     5
 63
     7
 74
     1
 91
        4
 64
     7
 65
   257
 75
     1
175
     1
 42
1.0
 92
        8
 66
     7
 43
1.0
 76
     1
 77
     6
 78
     2
 67
     7
 79
     5
170
     0
171
     0
290
     0
174
     0
 93
        1
 44
-50.0
173
     0
291
     1
 45
0.0
1001
ACAD
1000
AcDbSavedByObjectVersion
1070
     0
  0
VISUALSTYLE
  5
BDF
102
{ACAD_XDICTIONARY
360
1492
102
}
102
{ACAD_REACTORS
330
3F2
102
}
330
3F2
100
AcDbVisualStyle
  2
EdgeColorOff
 70
    22
 71
     2
 72
     2
 73
     0
 90
        0
 40
-0.6
 41
-30.0
 62
     5
 63
     7
 74
     1
 91
        4
 64
     7
 65
   257
 75
     1
175
     1
 42
1.0
 92
        8
 66
     7
 43
1.0
 76
     1
 77
     6
 78
     2
 67
     7
 79
     5
170
     0
171
     0
290
     0
174
     0
 93
        1
 44
0.0
173
     0
291
     1
 45
0.0
1001
ACAD
1000
AcDbSavedByObjectVersion
1070
     0
  0
VISUALSTYLE
  5
401
102
{ACAD_XDICTIONARY
360
1481
102
}
102
{ACAD_REACTORS
330
3F2
102
}
330
3F2
100
AcDbVisualStyle
  2
Facepattern
 70
    15
 71
     2
 72
     2
 73
     0
 90
        0
 40
-0.6
 41
-30.0
 62
     5
 63
     7
 74
     1
 91
        4
 64
     7
 65
   257
 75
     1
175
     1
 42
1.0
 92
        8
 66
     7
 43
1.0
 76
     1
 77
     6
 78
     2
 67
     7
 79
     5
170
     0
171
     0
290
     0
174
     0
 93
        1
 44
0.0
173
     0
291
     1
 45
0.0
1001
ACAD
1000
AcDbSavedByObjectVersion
1070
     0
  0
VISUALSTYLE
  5
3F3
102
{ACAD_XDICTIONARY
360
1465
102
}
102
{ACAD_REACTORS
330
3F2
102
}
330
3F2
100
AcDbVisualStyle
  2
Flat
 70
     0
 71
     2
 72
     1
 73
     1
 90
        2
 40
-0.6
 41
30.0
 62
     5
 63
     7
 74
     0
 91
        4
 64
     7
 65
   257
 75
     1
175
     1
 42
1.0
 92
        8
 66
     7
 43
1.0
 76
     1
 77
     6
 78
     2
 67
     7
 79
     5
170
     0
171
     0
290
     0
174
     0
 93
       13
 44
0.0
173
     0
291
     1
 45
0.0
1001
ACAD
1000
AcDbSavedByObjectVersion
1070
     0
  0
VISUALSTYLE
  5
3F4
102
{ACAD_XDICTIONARY
360
1467
102
}
102
{ACAD_REACTORS
330
3F2
102
}
330
3F2
100
AcDbVisualStyle
  2
FlatWithEdges
 70
     1
 71
     2
 72
     1
 73
     1
 90
        2
 40
-0.6
 41
30.0
 62
     5
 63
     7
 74
     1
 91
        4
 64
     7
 65
   257
 75
     1
175
     1
 42
1.0
 92
        0
 66
   257
 43
1.0
 76
     1
 77
     6
 78
     2
 67
     7
 79
     5
170
     0
171
     0
290
     0
174
     0
 93
       13
 44
0.0
173
     0
291
     1
 45
0.0
1001
ACAD
1000
AcDbSavedByObjectVersion
1070
     0
  0
VISUALSTYLE
  5
3F5
102
{ACAD_XDICTIONARY
360
1469
102
}
102
{ACAD_REACTORS
330
3F2
102
}
330
3F2
100
AcDbVisualStyle
  2
Gouraud
 70
     2
 71
     2
 72
     2
 73
     1
 90
        2
 40
-0.6
 41
30.0
 62
     5
 63
     7
 74
     0
 91
        4
 64
     7
 65
   257
 75
     1
175
     1
 42
1.0
 92
        0
 66
     7
 43
1.0
 76
     1
 77
     6
 78
     2
 67
     7
 79
     5
170
     0
171
     0
290
     0
174
     0
 93
       13
 44
0.0
173
     0
291
     1
 45
0.0
1001
ACAD
1000
AcDbSavedByObjectVersion
1070
     0
  0
VISUALSTYLE
  5
3F6
102
{ACAD_XDICTIONARY
360
146B
102
}
102
{ACAD_REACTORS
330
3F2
102
}
330
3F2
100
AcDbVisualStyle
  2
GouraudWithEdges
 70
     3
 71
     2
 72
     2
 73
     1
 90
        2
 40
-0.6
 41
30.0
 62
     5
 63
     7
 74
     1
 91
        4
 64
     7
 65
   257
 75
     1
175
     1
 42
1.0
 92
        0
 66
   257
 43
1.0
 76
     1
 77
     6
 78
     2
 67
     7
 79
     5
170
     0
171
     0
290
     0
174
     0
 93
       13
 44
0.0
173
     0
291
     1
 45
0.0
1001
ACAD
1000
AcDbSavedByObjectVersion
1070
     0
  0
VISUALSTYLE
  5
CE7
102
{ACAD_XDICTIONARY
360
1496
102
}
102
{ACAD_REACTORS
330
3F2
102
}
330
3F2
100
AcDbVisualStyle
  2
Hidden
 70
     6
 71
     1
 72
     2
 73
     2
 90
        0
 40
-0.6
 41
-30.0
 62
     5
 63
     7
 74
     2
 91
        2
 64
     7
 65
   257
 75
     2
175
     1
 42
40.0
 92
        0
 66
   257
 43
1.0
 76
     1
 77
     6
 78
     2
 67
     7
 79
     3
170
     0
171
     0
290
     0
174
     0
 93
        1
 44
0.0
173
     0
291
     0
 45
0.0
1001
ACAD
1000
AcDbSavedByObjectVersion
1070
     0
  0
VISUALSTYLE
  5
BDD
102
{ACAD_XDICTIONARY
360
148E
102
}
102
{ACAD_REACTORS
330
3F2
102
}
330
3F2
100
AcDbVisualStyle
  2
JitterOff
 70
    20
 71
     2
 72
     2
 73
     0
 90
        0
 40
-0.6
 41
-30.0
 62
     5
 63
     7
 74
     1
 91
        4
 64
     7
 65
   257
 75
     1
175
     1
 42
1.0
 92
       10
 66
     7
 43
1.0
 76
     1
 77
     6
 78
     2
 67
     7
 79
     5
170
     0
171
     0
290
     0
174
     0
 93
        1
 44
0.0
173
     0
291
     1
 45
0.0
1001
ACAD
1000
AcDbSavedByObjectVersion
1070
     0
  0
VISUALSTYLE
  5
400
102
{ACAD_XDICTIONARY
360
147F
102
}
102
{ACAD_REACTORS
330
3F2
102
}
330
3F2
100
AcDbVisualStyle
  2
Linepattern
 70
    14
 71
     2
 72
     2
 73
     0
 90
        0
 40
-0.6
 41
-30.0
 62
     5
 63
     7
 74
     1
 91
        4
 64
     7
 65
   257
 75
     7
175
     7
 42
1.0
 92
        8
 66
     7
 43
1.0
 76
     1
 77
     6
 78
     2
 67
     7
 79
     5
170
     0
171
     0
290
     0
174
     0
 93
        1
 44
0.0
173
     0
291
     1
 45
0.0
1001
ACAD
1000
AcDbSavedByObjectVersion
1070
     0
  0
VISUALSTYLE
  5
BDE
102
{ACAD_XDICTIONARY
360
1490
102
}
102
{ACAD_REACTORS
330
3F2
102
}
330
3F2
100
AcDbVisualStyle
  2
OverhangOff
 70
    21
 71
     2
 72
     2
 73
     0
 90
        0
 40
-0.6
 41
-30.0
 62
     5
 63
     7
 74
     1
 91
        4
 64
     7
 65
   257
 75
     1
175
     1
 42
1.0
 92
        9
 66
     7
 43
1.0
 76
     1
 77
     6
 78
     2
 67
     7
 79
     5
170
     0
171
     0
290
     0
174
     0
 93
        1
 44
0.0
173
     0
291
     1
 45
0.0
1001
ACAD
1000
AcDbSavedByObjectVersion
1070
     0
  0
VISUALSTYLE
  5
3FC
102
{ACAD_XDICTIONARY
360
1477
102
}
102
{ACAD_REACTORS
330
3F2
102
}
330
3F2
100
AcDbVisualStyle
  2
Realistic
 70
     8
 71
     2
 72
     2
 73
     0
 90
        0
 40
-0.6
 41
-30.0
 62
     5
 63
     7
 74
     1
 91
        0
 64
     7
 65
   257
 75
     1
175
     1
 42
1.0
 92
        8
 66
     8
 43
1.0
 76
     1
 77
     6
 78
     2
 67
     7
 79
     5
170
     0
171
     0
290
     0
174
     0
 93
       13
 44
0.0
173
     0
291
     0
 45
0.0
1001
ACAD
1000
AcDbSavedByObjectVersion
1070
     0
  0
VISUALSTYLE
  5
CEC
102
{ACAD_XDICTIONARY
360
14A0
102
}
102
{ACAD_REACTORS
330
3F2
102
}
330
3F2
100
AcDbVisualStyle
  2
Shaded
 70
    27
 71
     2
 72
     2
 73
     1
 90
        2
 40
-0.6
 41
30.0
 62
     5
 63
     7
 74
     0
 91
        4
 64
     7
 65
   257
 75
     1
175
     1
 42
1.0
 92
        8
 66
   257
 43
1.0
 76
     1
 77
     6
 78
     2
 67
     8
 79
     3
170
     0
171
     0
290
     0
174
     0
 93
        5
 44
0.0
173
     0
291
     0
 45
0.0
1001
ACAD
1000
AcDbSavedByObjectVersion
1070
     0
  0
VISUALSTYLE
  5
CEB
102
{ACAD_XDICTIONARY
360
149E
102
}
102
{ACAD_REACTORS
330
3F2
102
}
330
3F2
100
AcDbVisualStyle
  2
Shaded with edges
 70
    26
 71
     2
 72
     2
 73
     1
 90
        2
 40
-0.6
 41
30.0
 62
     5
 63
     7
 74
     1
 91
       10
 64
     7
 65
   257
 75
     2
175
     1
 42
1.0
 92
        8
 66
   257
 43
1.0
 76
     1
 77
     6
 78
     2
 67
     7
 79
     3
170
     0
171
     0
290
     0
174
     0
 93
        5
 44
0.0
173
     0
291
     0
 45
0.0
1001
ACAD
1000
AcDbSavedByObjectVersion
1070
     0
  0
VISUALSTYLE
  5
CE8
102
{ACAD_XDICTIONARY
360
1498
102
}
102
{ACAD_REACTORS
330
3F2
102
}
330
3F2
100
AcDbVisualStyle
  2
Shades of Gray
 70
    23
 71
     2
 72
     2
 73
     3
 90
        0
 40
-0.6
 41
-30.0
 62
     5
 63
     7
 74
     2
 91
        2
 64
     7
 65
     7
 75
     1
175
     1
 42
40.0
 92
        8
 66
     7
 43
1.0
 76
     1
 77
     6
 78
     2
 67
     7
 79
     3
170
     0
171
     0
290
     0
174
     0
 93
        1
 44
0.0
173
     0
291
     0
 45
0.0
1001
ACAD
1000
AcDbSavedByObjectVersion
1070
     0
  0
VISUALSTYLE
  5
CE9
102
{ACAD_XDICTIONARY
360
149A
102
}
102
{ACAD_REACTORS
330
3F2
102
}
330
3F2
100
AcDbVisualStyle
  2
Sketchy
 70
    24
 71
     1
 72
     2
 73
     2
 90
        0
 40
-0.6
 41
-30.0
 62
     5
 63
     7
 74
     2
 91
        2
 64
     7
 65
     7
 75
     1
175
     1
 42
40.0
 92
       11
 66
     7
 43
1.0
 76
     1
 77
     6
 78
     2
 67
     7
 79
     6
170
     0
171
     0
290
     0
174
     0
 93
        1
 44
0.0
173
     0
291
     0
 45
0.0
1001
ACAD
1000
AcDbSavedByObjectVersion
1070
     0
  0
VISUALSTYLE
  5
3FF
102
{ACAD_XDICTIONARY
360
147D
102
}
102
{ACAD_REACTORS
330
3F2
102
}
330
3F2
100
AcDbVisualStyle
  2
Thicken
 70
    13
 71
     2
 72
     2
 73
     0
 90
        0
 40
-0.6
 41
-30.0
 62
     5
 63
     7
 74
     1
 91
        4
 64
     7
 65
   257
 75
     1
175
     1
 42
1.0
 92
       12
 66
     7
 43
1.0
 76
     1
 77
     6
 78
     2
 67
     7
 79
     5
170
     0
171
     0
290
     0
174
     0
 93
        1
 44
0.0
173
     0
291
     1
 45
0.0
1001
ACAD
1000
AcDbSavedByObjectVersion
1070
     0
  0
VISUALSTYLE
  5
CE6
102
{ACAD_XDICTIONARY
360
1494
102
}
102
{ACAD_REACTORS
330
3F2
102
}
330
3F2
100
AcDbVisualStyle
  2
Wireframe
 70
     5
 71
     0
 72
     2
 73
     0
 90
        0
 40
-0.6
 41
-30.0
 62
     5
 63
     7
 74
     1
 91
        4
 64
     7
 65
   257
 75
     1
175
     1
 42
1.0
 92
        0
 66
   257
 43
1.0
 76
     1
 77
     6
 78
     2
 67
     7
 79
     3
170
     0
171
     0
290
     0
174
     0
 93
        1
 44
0.0
173
     0
291
     0
 45
0.0
1001
ACAD
1000
AcDbSavedByObjectVersion
1070
     0
  0
VISUALSTYLE
  5
CEA
102
{ACAD_XDICTIONARY
360
149C
102
}
102
{ACAD_REACTORS
330
3F2
102
}
330
3F2
100
AcDbVisualStyle
  2
X-Ray
 70
    25
 71
     2
 72
     2
 73
     1
 90
        1
 40
0.5
 41
-30.0
 62
     5
 63
     7
 74
     1
 91
        0
 64
     7
 65
   257
 75
     1
175
     1
 42
1.0
 92
        8
 66
     7
 43
1.0
 76
     1
 77
     6
 78
     2
 67
     7
 79
     3
170
     0
171
     0
290
     0
174
     0
 93
       13
 44
0.0
173
     0
291
     0
 45
0.0
1001
ACAD
1000
AcDbSavedByObjectVersion
1070
     0
  0
DICTIONARYVAR
  5
57C
102
{ACAD_REACTORS
330
357
102
}
330
357
100
DictionaryVariables
280
     0
  1
1:1
  0
DICTIONARYVAR
  5
57A
102
{ACAD_REACTORS
330
357
102
}
330
357
100
DictionaryVariables
280
     0
  1
STANDARD
  0
DICTIONARYVAR
  5
38E
102
{ACAD_REACTORS
330
357
102
}
330
357
100
DictionaryVariables
280
     0
  1
STANDARD
  0
DICTIONARYVAR
  5
D2C
102
{ACAD_REACTORS
330
357
102
}
330
357
100
DictionaryVariables
280
     0
  1
Metric50
  0
DICTIONARYVAR
  5
D2D
102
{ACAD_REACTORS
330
357
102
}
330
357
100
DictionaryVariables
280
     0
  1
Metric50
  0
DICTIONARYVAR
  5
359
102
{ACAD_REACTORS
330
357
102
}
330
357
100
DictionaryVariables
280
     0
  1
2
  0
DICTIONARYVAR
  5
358
102
{ACAD_REACTORS
330
357
102
}
330
357
100
DictionaryVariables
280
     0
  1
1
  0
DICTIONARYVAR
  5
ACC
102
{ACAD_REACTORS
330
357
102
}
330
357
100
DictionaryVariables
280
     0
  1
0
  0
DICTIONARYVAR
  5
BF1
102
{ACAD_REACTORS
330
357
102
}
330
357
100
DictionaryVariables
280
     0
  1
1
  0
DICTIONARYVAR
  5
BF2
102
{ACAD_REACTORS
330
357
102
}
330
357
100
DictionaryVariables
280
     0
  1
15
  0
DICTIONARYVAR
  5
57D
102
{ACAD_REACTORS
330
357
102
}
330
357
100
DictionaryVariables
280
     0
  1
0
  0
DICTIONARYVAR
  5
57B
102
{ACAD_REACTORS
330
357
102
}
330
357
100
DictionaryVariables
280
     0
  1
0
  0
DICTIONARYVAR
  5
144E
102
{ACAD_REACTORS
330
357
102
}
330
357
100
DictionaryVariables
280
     0
  1
1
  0
DICTIONARYVAR
  5
ACB
102
{ACAD_REACTORS
330
357
102
}
330
357
100
DictionaryVariables
280
     0
  1
127
  0
DICTIONARYVAR
  5
144D
102
{ACAD_REACTORS
330
357
102
}
330
357
100
DictionaryVariables
280
     0
  1
0
  0
DICTIONARY
  5
145C
102
{ACAD_REACTORS
330
145A
102
}
330
145A
100
AcDbDictionary
281
     1
  0
DICTIONARY
  5
145B
102
{ACAD_REACTORS
330
145A
102
}
330
145A
100
AcDbDictionary
281
     1
  3
8796088248016
350
1455
  3
8796088248032
350
1456
  3
8796088248048
350
1457
  3
8796088248064
350
1458
  3
8796088248080
350
1459
  0
DICTIONARY
  5
4DC
102
{ACAD_REACTORS
330
4D1
102
}
330
4D1
100
AcDbDictionary
281
     1
  0
XRECORD
  5
4F3
102
{ACAD_REACTORS
330
4D1
102
}
330
4D1
100
AcDbXrecord
280
     1
 90
-1023410169
  0
XRECORD
  5
8E9
102
{ACAD_REACTORS
330
567
102
}
330
567
100
AcDbXrecord
280
     1
 91
     1023
301

290
     0
302
1
  8
200
 90
        8
 62
     2
370
    50
331
14
  1
Color_2
  8
160
 90
        8
 62
     1
370
    35
331
14
  1
Color_1
  8
150
 90
        8
 62
    96
370
    50
331
14
  1
Color_96
 92
-1040154880
  8
140
 90
        8
 62
     5
370
    35
331
14
  1
Color_5
  8
130
 90
        8
 62
     6
370
    35
331
14
  1
Color_6
  8
120
 90
        8
 62
     3
370
    50
331
14
  1
Color_3
  8
110
 90
        8
 62
     7
370
    25
331
14
  1
Color_7
  8
100
 90
        8
 62
     4
370
    50
331
14
  1
Color_4
  8
INFTEXT69
 90
        8
 62
     5
370
    -3
331
14
  1
Color_5
  8
INFTEXT68
 90
        8
 62
     5
370
    -3
331
14
  1
Color_5
  8
INFTEXT67
 90
        8
 62
     5
370
    -3
331
14
  1
Color_5
  8
INFTEXT66
 90
        8
 62
     5
370
    -3
331
14
  1
Color_5
  8
INFTEXT65
 90
        8
 62
     5
370
    -3
331
14
  1
Color_5
  8
INFTEXT64
 90
        8
 62
     5
370
    -3
331
14
  1
Color_5
  8
INFTEXT63
 90
        8
 62
     5
370
    -3
331
14
  1
Color_5
  8
INFTEXT62
 90
        8
 62
     5
370
    -3
331
14
  1
Color_5
  8
RECON69
 90
        8
 62
     5
370
    35
331
14
  1
Color_5
  8
RECON68
 90
        8
 62
     5
370
    35
331
14
  1
Color_5
  8
RECON67
 90
        8
 62
     5
370
    35
331
14
  1
Color_5
  8
RECON66
 90
        8
 62
     5
370
    35
331
14
  1
Color_5
  8
RECON65
 90
        8
 62
     5
370
    35
331
14
  1
Color_5
  8
RECON64
 90
        8
 62
     5
370
    35
331
14
  1
Color_5
  8
RECON63
 90
        8
 62
     5
370
    35
331
14
  1
Color_5
  8
RECON62
 90
        8
 62
     5
370
    35
331
14
  1
Color_5
  8
RECON61
 90
        8
 62
     5
370
    35
331
14
  1
Color_5
  8
SK69
 90
        8
 62
     5
370
    35
331
14
  1
Color_5
  8
SK68
 90
        8
 62
     5
370
    35
331
14
  1
Color_5
  8
SK67
 90
        8
 62
     5
370
    35
331
14
  1
Color_5
  8
SK66
 90
        8
 62
     5
370
    35
331
14
  1
Color_5
  8
SK65
 90
        8
 62
     5
370
    35
331
14
  1
Color_5
  8
SK64
 90
        8
 62
     5
370
    35
331
14
  1
Color_5
  8
SK63
 90
        8
 62
     5
370
    35
331
14
  1
Color_5
  8
SK62
 90
        8
 62
     5
370
    35
331
14
  1
Color_5
  8
SK61
 90
        8
 62
     5
370
    35
331
14
  1
Color_5
  8
SKVIEW69
 90
        8
 62
     5
370
    35
331
14
  1
Color_5
  8
SKVIEW68
 90
        8
 62
     5
370
    35
331
14
  1
Color_5
  8
SKVIEW67
 90
        8
 62
     5
370
    35
331
14
  1
Color_5
  8
SKVIEW66
 90
        8
 62
     5
370
    35
331
14
  1
Color_5
  8
SKVIEW65
 90
        8
 62
     5
370
    35
331
14
  1
Color_5
  8
SKVIEW64
 90
        8
 62
     5
370
    35
331
14
  1
Color_5
  8
SKVIEW63
 90
        8
 62
     5
370
    35
331
14
  1
Color_5
  8
SKVIEW62
 90
        8
 62
     5
370
    35
331
14
  1
Color_5
  8
SKVIEW61
 90
        8
 62
     5
370
    35
331
14
  1
Color_5
  8
69
 90
        8
 62
     5
370
    35
331
14
  1
Color_5
  8
68
 90
        8
 62
     5
370
    35
331
14
  1
Color_5
  8
67
 90
        8
 62
     5
370
    35
331
14
  1
Color_5
  8
66
 90
        8
 62
     5
370
    35
331
14
  1
Color_5
  8
65
 90
        8
 62
     5
370
    35
331
14
  1
Color_5
  8
64
 90
        8
 62
     5
370
    35
331
14
  1
Color_5
  8
63
 90
        8
 62
     5
370
    35
331
14
  1
Color_5
  8
62
 90
        8
 62
     5
370
    35
331
14
  1
Color_5
  8
61
 90
        8
 62
     5
370
    35
331
14
  1
Color_5
  8
59
 90
        8
 62
     5
370
    -3
331
14
  1
Color_5
  8
58
 90
        8
 62
     5
370
    -3
331
14
  1
Color_5
  8
57
 90
        8
 62
     5
370
    -3
331
14
  1
Color_5
  8
56
 90
        8
 62
     5
370
    -3
331
14
  1
Color_5
  8
55
 90
        8
 62
     5
370
    -3
331
14
  1
Color_5
  8
54
 90
        8
 62
     5
370
    -3
331
14
  1
Color_5
  8
53
 90
        8
 62
     5
370
    -3
331
14
  1
Color_5
  8
52
 90
        8
 62
     5
370
    -3
331
14
  1
Color_5
  8
51
 90
        8
 62
     5
370
    -3
331
14
  1
Color_5
  8
FRAME59
 90
        8
 62
     7
370
    -3
331
14
  1
Color_7
  8
FRAME58
 90
        8
 62
     7
370
    -3
331
14
  1
Color_7
  8
FRAME57
 90
        8
 62
     7
370
    -3
331
14
  1
Color_7
  8
FRAME56
 90
        8
 62
     7
370
    -3
331
14
  1
Color_7
  8
FRAME55
 90
        8
 62
     7
370
    -3
331
14
  1
Color_7
  8
FRAME54
 90
        8
 62
     7
370
    -3
331
14
  1
Color_7
  8
FRAME53
 90
        8
 62
     7
370
    -3
331
14
  1
Color_7
  8
FRAME52
 90
        8
 62
     7
370
    -3
331
14
  1
Color_7
  8
RECON7
 90
        8
 62
     5
370
    25
331
14
  1
Color_5
  8
RECON6
 90
        8
 62
     5
370
    35
331
14
  1
Color_5
  8
RECON4
 90
        8
 62
     2
370
    25
331
14
  1
Color_2
  8
RECON3
 90
        8
 62
     1
370
    35
331
14
  1
Color_1
  8
RECON2
 90
        8
 62
     7
370
    25
331
14
  1
Color_7
  8
RECON1
 90
        8
 62
     4
370
    50
331
14
  1
Color_4
  8
SKVIEW7
 90
        8
 62
     5
370
    25
331
14
  1
Color_5
  8
SK7
 90
        8
 62
     5
370
    25
331
14
  1
Color_5
  8
7
 90
        8
 62
     5
370
    25
331
14
  1
Color_5
  8
INFMAINVIEW
 90
        8
 62
     9
370
    18
331
14
  1
Color_9
  8
INFTOTAL
 90
        8
 62
     9
370
    18
331
14
  1
Color_9
  8
INFTEXT61
 90
        8
 62
     5
370
    -3
331
14
  1
Color_5
  8
INFWKP
 90
        8
 62
    30
370
    25
331
14
  1
Color_30
  8
SKVIEW6
 90
        8
 62
     5
370
    35
331
14
  1
Color_5
  8
SKVIEW4
 90
        8
 62
     2
370
    25
331
14
  1
Color_2
  8
SKVIEW3
 90
        8
 62
     1
370
    35
331
14
  1
Color_1
  8
SKVIEW2
 90
        8
 62
     7
370
    25
331
14
  1
Color_7
  8
SKVIEW1
 90
        8
 62
     4
370
    50
331
14
  1
Color_4
  8
NOCUT
 90
        8
 62
     7
370
    25
331
14
  1
Color_7
  8
CUT
 90
        8
 62
     1
370
    25
331
14
  1
Color_1
  8
DEFPOINTS
 90
        0
 62
     7
370
    -3
331
14
  1
Color_7
  8
SK6
 90
        8
 62
     5
370
    35
331
14
  1
Color_5
  8
6
 90
        8
 62
     5
370
    35
331
14
  1
Color_5
  8
FRAME51
 90
        8
 62
     7
370
    -3
331
14
  1
Color_7
  8
SK4
 90
        8
 62
     2
370
    25
331
14
  1
Color_2
  8
4
 90
        8
 62
     2
370
    25
331
14
  1
Color_2
  8
SK3
 90
        8
 62
     1
370
    35
331
14
  1
Color_1
  8
3
 90
        8
 62
     1
370
    35
331
14
  1
Color_1
  8
SK2
 90
        8
 62
     7
370
    25
331
14
  1
Color_7
  8
2
 90
        8
 62
     7
370
    25
331
14
  1
Color_7
  8
SK1
 90
        8
 62
     4
370
    50
331
14
  1
Color_4
  8
1
 90
        8
 62
     4
370
    50
331
14
  1
Color_4
  8
0
 90
        0
 62
     7
370
    -3
331
14
  1
Color_7
  0
DICTIONARY
  5
D27
330
CF0
100
AcDbDictionary
280
     1
281
     1
  3
ACAD_XREC_ROUNDTRIP
360
14A3
  0
DICTIONARY
  5
B74
330
B57
100
AcDbDictionary
280
     1
281
     1
  3
ACAD_XREC_ROUNDTRIP
360
148B
  0
DICTIONARY
  5
BEF
330
303
100
AcDbDictionary
280
     1
281
     1
  3
ACAD_XREC_ROUNDTRIP
360
145D
  0
DICTIONARY
  5
1461
330
3F0
100
AcDbDictionary
280
     1
281
     1
  3
ACAD_XREC_ROUNDTRIP
360
1462
  0
DICTIONARY
  5
145F
330
3EF
100
AcDbDictionary
280
     1
281
     1
  3
ACAD_XREC_ROUNDTRIP
360
1460
  0
DICTIONARY
  5
1463
330
3F1
100
AcDbDictionary
280
     1
281
     1
  3
ACAD_XREC_ROUNDTRIP
360
1464
  0
DICTIONARY
  5
1485
330
470
100
AcDbDictionary
280
     1
281
     1
  3
ACAD_XREC_ROUNDTRIP
360
1486
  0
DICTIONARY
  5
1487
330
7EF
100
AcDbDictionary
280
     1
281
     1
  3
ACAD_XREC_ROUNDTRIP
360
1488
  0
DICTIONARY
  5
1489
330
7F8
100
AcDbDictionary
280
     1
281
     1
  3
ACAD_XREC_ROUNDTRIP
360
148A
  0
DICTIONARY
  5
D25
330
CEE
100
AcDbDictionary
280
     1
281
     1
  3
ACAD_XREC_ROUNDTRIP
360
14A2
  0
DICTIONARY
  5
577
330
389
100
AcDbDictionary
280
     1
281
     1
  3
ACAD_ROUNDTRIP_2008_TABLESTYLE_CELLSTYLEMAP
360
144F
  3
ACAD_XREC_ROUNDTRIP
360
145E
  0
DICTIONARY
  5
146F
330
3F8
100
AcDbDictionary
280
     1
281
     1
  3
ACAD_XREC_ROUNDTRIP
360
1470
  0
DICTIONARY
  5
1473
330
3FA
100
AcDbDictionary
280
     1
281
     1
  3
ACAD_XREC_ROUNDTRIP
360
1474
  0
DICTIONARY
  5
1471
330
3F9
100
AcDbDictionary
280
     1
281
     1
  3
ACAD_XREC_ROUNDTRIP
360
1472
  0
DICTIONARY
  5
146D
330
3F7
100
AcDbDictionary
280
     1
281
     1
  3
ACAD_XREC_ROUNDTRIP
360
146E
  0
DICTIONARY
  5
147B
330
3FE
100
AcDbDictionary
280
     1
281
     1
  3
ACAD_XREC_ROUNDTRIP
360
147C
  0
DICTIONARY
  5
1483
330
402
100
AcDbDictionary
280
     1
281
     1
  3
ACAD_XREC_ROUNDTRIP
360
1484
  0
DICTIONARY
  5
1475
330
3FB
100
AcDbDictionary
280
     1
281
     1
  3
ACAD_XREC_ROUNDTRIP
360
1476
  0
DICTIONARY
  5
1479
330
3FD
100
AcDbDictionary
280
     1
281
     1
  3
ACAD_XREC_ROUNDTRIP
360
147A
  0
DICTIONARY
  5
1492
330
BDF
100
AcDbDictionary
280
     1
281
     1
  3
ACAD_XREC_ROUNDTRIP
360
1493
  0
DICTIONARY
  5
1481
330
401
100
AcDbDictionary
280
     1
281
     1
  3
ACAD_XREC_ROUNDTRIP
360
1482
  0
DICTIONARY
  5
1465
330
3F3
100
AcDbDictionary
280
     1
281
     1
  3
ACAD_XREC_ROUNDTRIP
360
1466
  0
DICTIONARY
  5
1467
330
3F4
100
AcDbDictionary
280
     1
281
     1
  3
ACAD_XREC_ROUNDTRIP
360
1468
  0
DICTIONARY
  5
1469
330
3F5
100
AcDbDictionary
280
     1
281
     1
  3
ACAD_XREC_ROUNDTRIP
360
146A
  0
DICTIONARY
  5
146B
330
3F6
100
AcDbDictionary
280
     1
281
     1
  3
ACAD_XREC_ROUNDTRIP
360
146C
  0
DICTIONARY
  5
1496
330
CE7
100
AcDbDictionary
280
     1
281
     1
  3
ACAD_XREC_ROUNDTRIP
360
1497
  0
DICTIONARY
  5
148E
330
BDD
100
AcDbDictionary
280
     1
281
     1
  3
ACAD_XREC_ROUNDTRIP
360
148F
  0
DICTIONARY
  5
147F
330
400
100
AcDbDictionary
280
     1
281
     1
  3
ACAD_XREC_ROUNDTRIP
360
1480
  0
DICTIONARY
  5
1490
330
BDE
100
AcDbDictionary
280
     1
281
     1
  3
ACAD_XREC_ROUNDTRIP
360
1491
  0
DICTIONARY
  5
1477
330
3FC
100
AcDbDictionary
280
     1
281
     1
  3
ACAD_XREC_ROUNDTRIP
360
1478
  0
DICTIONARY
  5
14A0
330
CEC
100
AcDbDictionary
280
     1
281
     1
  3
ACAD_XREC_ROUNDTRIP
360
14A1
  0
DICTIONARY
  5
149E
330
CEB
100
AcDbDictionary
280
     1
281
     1
  3
ACAD_XREC_ROUNDTRIP
360
149F
  0
DICTIONARY
  5
1498
330
CE8
100
AcDbDictionary
280
     1
281
     1
  3
ACAD_XREC_ROUNDTRIP
360
1499
  0
DICTIONARY
  5
149A
330
CE9
100
AcDbDictionary
280
     1
281
     1
  3
ACAD_XREC_ROUNDTRIP
360
149B
  0
DICTIONARY
  5
147D
330
3FF
100
AcDbDictionary
280
     1
281
     1
  3
ACAD_XREC_ROUNDTRIP
360
147E
  0
DICTIONARY
  5
1494
330
CE6
100
AcDbDictionary
280
     1
281
     1
  3
ACAD_XREC_ROUNDTRIP
360
1495
  0
DICTIONARY
  5
149C
330
CEA
100
AcDbDictionary
280
     1
281
     1
  3
ACAD_XREC_ROUNDTRIP
360
149D
  0
XRECORD
  5
1455
102
{ACAD_REACTORS
330
145B
102
}
330
145B
100
AcDbXrecord
280
     1
  1
AcDb_Thumbnail_Schema
102
{ATTRRECORD
341
1456
  2
AcDbDs::TreatedAsObjectData
280
     1
291
     1
102
ATTRRECORD}
102
{ATTRRECORD
341
1457
  2
AcDbDs::Legacy
280
     1
291
     1
102
ATTRRECORD}
  2
AcDbDs::ID
280
    10
 91
        8
102
{ATTRRECORD
341
1458
  2
AcDs:Indexable
280
     1
291
     1
102
ATTRRECORD}
102
{ATTRRECORD
341
1459
  2
AcDbDs::HandleAttribute
280
     7
282
     1
102
ATTRRECORD}
  2
Thumbnail_Data
280
    15
 91
        0
  0
XRECORD
  5
1456
102
{ACAD_REACTORS
330
145B
102
}
330
145B
100
AcDbXrecord
280
     1
  1
AcDbDs::TreatedAsObjectDataSchema
  2
AcDbDs::TreatedAsObjectData
280
     1
 91
        0
  0
XRECORD
  5
1457
102
{ACAD_REACTORS
330
145B
102
}
330
145B
100
AcDbXrecord
280
     1
  1
AcDbDs::LegacySchema
  2
AcDbDs::Legacy
280
     1
 91
        0
  0
XRECORD
  5
1458
102
{ACAD_REACTORS
330
145B
102
}
330
145B
100
AcDbXrecord
280
     1
  1
AcDbDs::IndexedPropertySchema
  2
AcDs:Indexable
280
     1
 91
        0
  0
XRECORD
  5
1459
102
{ACAD_REACTORS
330
145B
102
}
330
145B
100
AcDbXrecord
280
     1
  1
AcDbDs::HandleAttributeSchema
  2
AcDbDs::HandleAttribute
280
     7
 91
        1
284
     1
  0
XRECORD
  5
14A3
102
{ACAD_REACTORS
330
D27
102
}
330
D27
100
AcDbXrecord
280
     1
102
DISPLAYNAME
  1
Metric50
102
FLAGS
 90
        0
  0
XRECORD
  5
148B
102
{ACAD_REACTORS
330
B74
102
}
330
B74
100
AcDbXrecord
280
     1
102
SHADEPLOT
 70
     0
102
SHADEPLOTRESLEVEL
 70
     2
102
SHADEPLOTCUSTOMDPI
 70
   300
  0
XRECORD
  5
145D
102
{ACAD_REACTORS
330
BEF
102
}
330
BEF
100
AcDbXrecord
280
     1
102
SHADEPLOT
 70
     0
102
SHADEPLOTRESLEVEL
 70
     2
102
SHADEPLOTCUSTOMDPI
 70
   300
  0
XRECORD
  5
1462
102
{ACAD_REACTORS
330
1461
102
}
330
1461
100
AcDbXrecord
280
     1
102
MATERIAL
148
0.0
149
0.0
149
0.0
 93
        0
 94
       63
282
     0
 72
     1
 77
     1
171
     1
175
     1
179
     1
273
     0
  0
XRECORD
  5
1460
102
{ACAD_REACTORS
330
145F
102
}
330
145F
100
AcDbXrecord
280
     1
102
MATERIAL
148
0.0
149
0.0
149
0.0
 93
        0
 94
       63
282
     0
 72
     1
 77
     1
171
     1
175
     1
179
     1
273
     0
  0
XRECORD
  5
1464
102
{ACAD_REACTORS
330
1463
102
}
330
1463
100
AcDbXrecord
280
     1
102
MATERIAL
148
0.0
149
0.0
149
0.0
 93
        0
 94
       63
282
     0
 72
     1
 77
     1
171
     1
175
     1
179
     1
273
     0
  0
XRECORD
  5
1486
102
{ACAD_REACTORS
330
1485
102
}
330
1485
100
AcDbXrecord
280
     1
102
ACAD_ROUNDTRIP_2012_MLEADER_STYLE
298
     1
  0
XRECORD
  5
1488
102
{ACAD_REACTORS
330
1487
102
}
330
1487
100
AcDbXrecord
280
     1
102
SHADEPLOT
 70
     0
102
SHADEPLOTRESLEVEL
 70
     2
102
SHADEPLOTCUSTOMDPI
 70
   300
  0
XRECORD
  5
148A
102
{ACAD_REACTORS
330
1489
102
}
330
1489
100
AcDbXrecord
280
     1
102
SHADEPLOT
 70
     0
102
SHADEPLOTRESLEVEL
 70
     2
102
SHADEPLOTCUSTOMDPI
 70
   300
  0
XRECORD
  5
14A2
102
{ACAD_REACTORS
330
D25
102
}
330
D25
100
AcDbXrecord
280
     1
102
DISPLAYNAME
  1
Metric50
102
FLAGS
 90
        0
  0
CELLSTYLEMAP
  5
144F
102
{ACAD_REACTORS
330
577
102
}
330
577
100
AcDbCellStyleMap
 90
        3
300
CELLSTYLE
  1
TABLEFORMAT_BEGIN
 90
        5
170
     1
 91
        0
 92
    32768
 62
   257
 93
        1
300
CONTENTFORMAT
  1
CONTENTFORMAT_BEGIN
 90
        0
 91
        0
 92
        4
 93
        0
300

 40
0.0
140
1.0
 94
        5
 62
     0
340
1E
144
6.0
309
CONTENTFORMAT_END
171
     1
301
MARGIN
  1
CELLMARGIN_BEGIN
 40
1.5
 40
1.5
 40
1.5
 40
1.5
 40
0.18
 40
0.18
309
CELLMARGIN_END
 94
        6
 95
        1
302
GRIDFORMAT
  1
GRIDFORMAT_BEGIN
 90
        0
 91
        1
 62
     0
 92
       -2
340
0
 93
        0
 40
0.045
309
GRIDFORMAT_END
 95
        2
302
GRIDFORMAT
  1
GRIDFORMAT_BEGIN
 90
        0
 91
        1
 62
     0
 92
       -2
340
0
 93
        0
 40
0.045
309
GRIDFORMAT_END
 95
        4
302
GRIDFORMAT
  1
GRIDFORMAT_BEGIN
 90
        0
 91
        1
 62
     0
 92
       -2
340
0
 93
        0
 40
0.045
309
GRIDFORMAT_END
 95
        8
302
GRIDFORMAT
  1
GRIDFORMAT_BEGIN
 90
        0
 91
        1
 62
     0
 92
       -2
340
0
 93
        0
 40
0.045
309
GRIDFORMAT_END
 95
       16
302
GRIDFORMAT
  1
GRIDFORMAT_BEGIN
 90
        0
 91
        1
 62
     0
 92
       -2
340
0
 93
        0
 40
0.045
309
GRIDFORMAT_END
 95
       32
302
GRIDFORMAT
  1
GRIDFORMAT_BEGIN
 90
        0
 91
        1
 62
     0
 92
       -2
340
0
 93
        0
 40
0.045
309
GRIDFORMAT_END
309
TABLEFORMAT_END
  1
CELLSTYLE_BEGIN
 90
        1
 91
        1
300
_TITLE
309
CELLSTYLE_END
300
CELLSTYLE
  1
TABLEFORMAT_BEGIN
 90
        5
170
     1
 91
        0
 92
        0
 62
   257
 93
        1
300
CONTENTFORMAT
  1
CONTENTFORMAT_BEGIN
 90
        0
 91
        0
 92
        4
 93
        0
300

 40
0.0
140
1.0
 94
        5
 62
     0
340
10
144
4.5
309
CONTENTFORMAT_END
171
     1
301
MARGIN
  1
CELLMARGIN_BEGIN
 40
1.5
 40
1.5
 40
1.5
 40
1.5
 40
0.18
 40
0.18
309
CELLMARGIN_END
 94
        6
 95
        1
302
GRIDFORMAT
  1
GRIDFORMAT_BEGIN
 90
        0
 91
        1
 62
     0
 92
       -2
340
0
 93
        0
 40
0.045
309
GRIDFORMAT_END
 95
        2
302
GRIDFORMAT
  1
GRIDFORMAT_BEGIN
 90
        0
 91
        1
 62
     0
 92
       -2
340
0
 93
        0
 40
0.045
309
GRIDFORMAT_END
 95
        4
302
GRIDFORMAT
  1
GRIDFORMAT_BEGIN
 90
        0
 91
        1
 62
     0
 92
       -2
340
0
 93
        0
 40
0.045
309
GRIDFORMAT_END
 95
        8
302
GRIDFORMAT
  1
GRIDFORMAT_BEGIN
 90
        0
 91
        1
 62
     0
 92
       -2
340
0
 93
        0
 40
0.045
309
GRIDFORMAT_END
 95
       16
302
GRIDFORMAT
  1
GRIDFORMAT_BEGIN
 90
        0
 91
        1
 62
     0
 92
       -2
340
0
 93
        0
 40
0.045
309
GRIDFORMAT_END
 95
       32
302
GRIDFORMAT
  1
GRIDFORMAT_BEGIN
 90
        0
 91
        1
 62
     0
 92
       -2
340
0
 93
        0
 40
0.045
309
GRIDFORMAT_END
309
TABLEFORMAT_END
  1
CELLSTYLE_BEGIN
 90
        2
 91
        1
300
_HEADER
309
CELLSTYLE_END
300
CELLSTYLE
  1
TABLEFORMAT_BEGIN
 90
        5
170
     1
 91
        0
 92
        0
 62
   257
 93
        1
300
CONTENTFORMAT
  1
CONTENTFORMAT_BEGIN
 90
        0
 91
        0
 92
        4
 93
        0
300

 40
0.0
140
1.0
 94
        2
 62
     0
340
10
144
4.5
309
CONTENTFORMAT_END
171
     1
301
MARGIN
  1
CELLMARGIN_BEGIN
 40
1.5
 40
1.5
 40
1.5
 40
1.5
 40
0.18
 40
0.18
309
CELLMARGIN_END
 94
        6
 95
        1
302
GRIDFORMAT
  1
GRIDFORMAT_BEGIN
 90
        0
 91
        1
 62
     0
 92
       -2
340
0
 93
        0
 40
0.045
309
GRIDFORMAT_END
 95
        2
302
GRIDFORMAT
  1
GRIDFORMAT_BEGIN
 90
        0
 91
        1
 62
     0
 92
       -2
340
0
 93
        0
 40
0.045
309
GRIDFORMAT_END
 95
        4
302
GRIDFORMAT
  1
GRIDFORMAT_BEGIN
 90
        0
 91
        1
 62
     0
 92
       -2
340
0
 93
        0
 40
0.045
309
GRIDFORMAT_END
 95
        8
302
GRIDFORMAT
  1
GRIDFORMAT_BEGIN
 90
        0
 91
        1
 62
     0
 92
       -2
340
0
 93
        0
 40
0.045
309
GRIDFORMAT_END
 95
       16
302
GRIDFORMAT
  1
GRIDFORMAT_BEGIN
 90
        0
 91
        1
 62
     0
 92
       -2
340
0
 93
        0
 40
0.045
309
GRIDFORMAT_END
 95
       32
302
GRIDFORMAT
  1
GRIDFORMAT_BEGIN
 90
        0
 91
        1
 62
     0
 92
       -2
340
0
 93
        0
 40
0.045
309
GRIDFORMAT_END
309
TABLEFORMAT_END
  1
CELLSTYLE_BEGIN
 90
        3
 91
        2
300
_DATA
309
CELLSTYLE_END
  0
XRECORD
  5
145E
102
{ACAD_REACTORS
330
577
102
}
330
577
100
AcDbXrecord
280
     1
102
ACAD_ROUNDTRIP_PRE2007_TABLESTYLE
 90
        4
 91
        0
  1

 92
        4
 93
        0
  2

 94
        4
 95
        0
  3

  0
XRECORD
  5
1470
102
{ACAD_REACTORS
330
146F
102
}
330
146F
100
AcDbXrecord
280
     1
102
RTVSPost2010Prop28
280
     1
102
RTVSPost2010PropOp28
 70
     1
102
RTVSPost2010Prop29
280
     1
102
RTVSPost2010PropOp29
 70
     1
102
RTVSPost2010Prop30
280
     0
102
RTVSPost2010PropOp30
 70
     1
102
RTVSPost2010Prop31
280
     0
102
RTVSPost2010PropOp31
 70
     1
102
RTVSPost2010Prop32
280
     0
102
RTVSPost2010PropOp32
 70
     1
102
RTVSPost2010Prop33
280
     0
102
RTVSPost2010PropOp33
 70
     1
102
RTVSPost2010Prop34
280
     0
102
RTVSPost2010PropOp34
 70
     1
102
RTVSPost2010Prop35
280
     0
102
RTVSPost2010PropOp35
 70
     1
102
RTVSPost2010Prop36
280
     0
102
RTVSPost2010PropOp36
 70
     1
102
RTVSPost2010Prop37
 90
       50
102
RTVSPost2010PropOp37
 70
     1
102
RTVSPost2010Prop38
140
0.0
102
RTVSPost2010PropOp38
 70
     1
102
RTVSPost2010Prop39
140
1.0
102
RTVSPost2010PropOp39
 70
     1
102
RTVSPost2010Prop40
 90
        0
102
RTVSPost2010PropOp40
 70
     1
102
RTVSPost2010Prop41ColorIndex
 90
       18
102
RTVSPost2010Prop41ColorRGB
 90
        0
102
RTVSPost2010PropOp41
 70
     1
102
RTVSPost2010Prop42
 90
       50
102
RTVSPost2010PropOp42
 70
     1
102
RTVSPost2010Prop43
 90
        3
102
RTVSPost2010PropOp43
 70
     1
102
RTVSPost2010Prop44ColorIndex
 90
        5
102
RTVSPost2010Prop44ColorRGB
 90
      255
102
RTVSPost2010PropOp44
 70
     1
102
RTVSPost2010Prop45
280
     0
102
RTVSPost2010PropOp45
 70
     1
102
RTVSPost2010Prop46
 90
       50
102
RTVSPost2010PropOp46
 70
     1
102
RTVSPost2010Prop47
 90
       50
102
RTVSPost2010PropOp47
 70
     1
102
RTVSPost2010Prop48
 90
       50
102
RTVSPost2010PropOp48
 70
     1
102
RTVSPost2010Prop49
280
     0
102
RTVSPost2010PropOp49
 70
     1
102
RTVSPost2010Prop50
 90
       50
102
RTVSPost2010PropOp50
 70
     1
102
RTVSPost2010Prop51ColorIndex
 90
      256
102
RTVSPost2010Prop51ColorRGB
 90
-16777216
102
RTVSPost2010PropOp51
 70
     0
102
RTVSPost2010Prop52
140
1.0
102
RTVSPost2010PropOp52
 70
     0
102
RTVSPost2010Prop53
 90
        2
102
RTVSPost2010PropOp53
 70
     1
102
RTVSPost2010Prop54
  1
strokes_ogs.tif
102
RTVSPost2010PropOp54
 70
     1
102
RTVSPost2010Prop55
280
     0
102
RTVSPost2010PropOp55
 70
     1
102
RTVSPost2010Prop56
140
1.0
102
RTVSPost2010PropOp56
 70
     1
102
RTVSPost2010Prop57
140
1.0
102
RTVSPost2010PropOp57
 70
     1
102
RTVSPropertyOp0
 70
     1
102
RTVSPropertyOp1
 70
     1
102
RTVSPropertyOp2
 70
     1
102
RTVSPropertyOp3
 70
     1
102
RTVSPropertyOp4
 70
     1
102
RTVSPropertyOp5
 70
     1
102
RTVSPropertyOp6
 70
     1
102
RTVSPropertyOp7
 70
     1
102
RTVSPropertyOp8
 70
     1
102
RTVSPropertyOp9
 70
     1
102
RTVSPropertyOp10
 70
     1
102
RTVSPropertyOp11
 70
     1
102
RTVSPropertyOp12
 70
     1
102
RTVSPropertyOp13
 70
     1
102
RTVSPropertyOp14
 70
     1
102
RTVSPropertyOp15
 70
     1
102
RTVSPropertyOp16
 70
     1
102
RTVSPropertyOp17
 70
     1
102
RTVSPropertyOp18
 70
     1
102
RTVSPropertyOp19
 70
     1
102
RTVSPropertyOp20
 70
     1
102
RTVSPropertyOp21
 70
     1
102
RTVSPropertyOp22
 70
     1
102
RTVSPropertyOp23
 70
     1
102
RTVSPropertyOp24
 70
     1
102
RTVSPropertyOp25
 70
     1
102
RTVSPropertyOp26
 70
     1
102
RTVSPropertyOp27
 70
     1
102
RTVSPropertyOp28
 70
     1
102
RTVSPropertyOp29
 70
     1
102
RTVSPropertyOp30
 70
     1
102
RTVSPropertyOp31
 70
     1
102
RTVSPropertyOp32
 70
     1
102
RTVSPropertyOp33
 70
     1
102
RTVSPropertyOp34
 70
     1
102
RTVSPropertyOp35
 70
     1
102
RTVSPropertyOp36
 70
     1
102
RTVSPropertyOp37
 70
     1
102
RTVSPropertyOp38
 70
     1
102
RTVSPropertyOp39
 70
     1
102
RTVSPropertyOp40
 70
     1
102
RTVSPropertyOp41
 70
     1
102
RTVSPropertyOp42
 70
     1
102
RTVSPropertyOp43
 70
     1
102
RTVSPropertyOp44
 70
     1
102
RTVSPropertyOp45
 70
     1
102
RTVSPropertyOp46
 70
     1
102
RTVSPropertyOp47
 70
     1
102
RTVSPropertyOp48
 70
     1
102
RTVSPropertyOp49
 70
     1
102
RTVSPropertyOp50
 70
     1
102
RTVSPropertyOp51
 70
     0
102
RTVSPropertyOp52
 70
     0
102
RTVSPropertyOp53
 70
     1
102
RTVSPropertyOp54
 70
     1
102
RTVSPropertyOp55
 70
     1
102
RTVSPropertyOp56
 70
     1
102
RTVSPropertyOp57
 70
     1
102
RTVSPropertyOp58
 70
     1
102
RTVSPropertyOp59
 70
     1
102
RTVSPropertyOp60
 70
     1
102
RTVSPropertyOp61
 70
     1
102
RTVSPropertyOp62
 70
     1
  0
XRECORD
  5
1474
102
{ACAD_REACTORS
330
1473
102
}
330
1473
100
AcDbXrecord
280
     1
102
RTVSPost2010Prop28
280
     0
102
RTVSPost2010PropOp28
 70
     1
102
RTVSPost2010Prop29
280
     1
102
RTVSPost2010PropOp29
 70
     1
102
RTVSPost2010Prop30
280
     1
102
RTVSPost2010PropOp30
 70
     1
102
RTVSPost2010Prop31
280
     0
102
RTVSPost2010PropOp31
 70
     1
102
RTVSPost2010Prop32
280
     0
102
RTVSPost2010PropOp32
 70
     1
102
RTVSPost2010Prop33
280
     0
102
RTVSPost2010PropOp33
 70
     1
102
RTVSPost2010Prop34
280
     0
102
RTVSPost2010PropOp34
 70
     1
102
RTVSPost2010Prop35
280
     0
102
RTVSPost2010PropOp35
 70
     1
102
RTVSPost2010Prop36
280
     0
102
RTVSPost2010PropOp36
 70
     1
102
RTVSPost2010Prop37
 90
       50
102
RTVSPost2010PropOp37
 70
     1
102
RTVSPost2010Prop38
140
0.0
102
RTVSPost2010PropOp38
 70
     1
102
RTVSPost2010Prop39
140
1.0
102
RTVSPost2010PropOp39
 70
     1
102
RTVSPost2010Prop40
 90
        0
102
RTVSPost2010PropOp40
 70
     1
102
RTVSPost2010Prop41ColorIndex
 90
       18
102
RTVSPost2010Prop41ColorRGB
 90
        0
102
RTVSPost2010PropOp41
 70
     1
102
RTVSPost2010Prop42
 90
       50
102
RTVSPost2010PropOp42
 70
     1
102
RTVSPost2010Prop43
 90
        3
102
RTVSPost2010PropOp43
 70
     1
102
RTVSPost2010Prop44ColorIndex
 90
        5
102
RTVSPost2010Prop44ColorRGB
 90
      255
102
RTVSPost2010PropOp44
 70
     1
102
RTVSPost2010Prop45
280
     0
102
RTVSPost2010PropOp45
 70
     1
102
RTVSPost2010Prop46
 90
       50
102
RTVSPost2010PropOp46
 70
     1
102
RTVSPost2010Prop47
 90
       50
102
RTVSPost2010PropOp47
 70
     1
102
RTVSPost2010Prop48
 90
       50
102
RTVSPost2010PropOp48
 70
     1
102
RTVSPost2010Prop49
280
     0
102
RTVSPost2010PropOp49
 70
     1
102
RTVSPost2010Prop50
 90
       50
102
RTVSPost2010PropOp50
 70
     1
102
RTVSPost2010Prop51ColorIndex
 90
      256
102
RTVSPost2010Prop51ColorRGB
 90
-16777216
102
RTVSPost2010PropOp51
 70
     0
102
RTVSPost2010Prop52
140
1.0
102
RTVSPost2010PropOp52
 70
     0
102
RTVSPost2010Prop53
 90
        2
102
RTVSPost2010PropOp53
 70
     1
102
RTVSPost2010Prop54
  1
strokes_ogs.tif
102
RTVSPost2010PropOp54
 70
     1
102
RTVSPost2010Prop55
280
     0
102
RTVSPost2010PropOp55
 70
     1
102
RTVSPost2010Prop56
140
1.0
102
RTVSPost2010PropOp56
 70
     1
102
RTVSPost2010Prop57
140
1.0
102
RTVSPost2010PropOp57
 70
     1
102
RTVSPropertyOp0
 70
     1
102
RTVSPropertyOp1
 70
     1
102
RTVSPropertyOp2
 70
     1
102
RTVSPropertyOp3
 70
     1
102
RTVSPropertyOp4
 70
     1
102
RTVSPropertyOp5
 70
     1
102
RTVSPropertyOp6
 70
     1
102
RTVSPropertyOp7
 70
     1
102
RTVSPropertyOp8
 70
     1
102
RTVSPropertyOp9
 70
     1
102
RTVSPropertyOp10
 70
     1
102
RTVSPropertyOp11
 70
     1
102
RTVSPropertyOp12
 70
     1
102
RTVSPropertyOp13
 70
     1
102
RTVSPropertyOp14
 70
     1
102
RTVSPropertyOp15
 70
     1
102
RTVSPropertyOp16
 70
     1
102
RTVSPropertyOp17
 70
     1
102
RTVSPropertyOp18
 70
     1
102
RTVSPropertyOp19
 70
     1
102
RTVSPropertyOp20
 70
     1
102
RTVSPropertyOp21
 70
     1
102
RTVSPropertyOp22
 70
     1
102
RTVSPropertyOp23
 70
     1
102
RTVSPropertyOp24
 70
     1
102
RTVSPropertyOp25
 70
     1
102
RTVSPropertyOp26
 70
     1
102
RTVSPropertyOp27
 70
     1
102
RTVSPropertyOp28
 70
     1
102
RTVSPropertyOp29
 70
     1
102
RTVSPropertyOp30
 70
     1
102
RTVSPropertyOp31
 70
     1
102
RTVSPropertyOp32
 70
     1
102
RTVSPropertyOp33
 70
     1
102
RTVSPropertyOp34
 70
     1
102
RTVSPropertyOp35
 70
     1
102
RTVSPropertyOp36
 70
     1
102
RTVSPropertyOp37
 70
     1
102
RTVSPropertyOp38
 70
     1
102
RTVSPropertyOp39
 70
     1
102
RTVSPropertyOp40
 70
     1
102
RTVSPropertyOp41
 70
     1
102
RTVSPropertyOp42
 70
     1
102
RTVSPropertyOp43
 70
     1
102
RTVSPropertyOp44
 70
     1
102
RTVSPropertyOp45
 70
     1
102
RTVSPropertyOp46
 70
     1
102
RTVSPropertyOp47
 70
     1
102
RTVSPropertyOp48
 70
     1
102
RTVSPropertyOp49
 70
     1
102
RTVSPropertyOp50
 70
     1
102
RTVSPropertyOp51
 70
     0
102
RTVSPropertyOp52
 70
     0
102
RTVSPropertyOp53
 70
     1
102
RTVSPropertyOp54
 70
     1
102
RTVSPropertyOp55
 70
     1
102
RTVSPropertyOp56
 70
     1
102
RTVSPropertyOp57
 70
     1
102
RTVSPropertyOp58
 70
     1
102
RTVSPropertyOp59
 70
     1
102
RTVSPropertyOp60
 70
     1
102
RTVSPropertyOp61
 70
     1
102
RTVSPropertyOp62
 70
     1
  0
XRECORD
  5
1472
102
{ACAD_REACTORS
330
1471
102
}
330
1471
100
AcDbXrecord
280
     1
102
RTVSPost2010Prop28
280
     0
102
RTVSPost2010PropOp28
 70
     1
102
RTVSPost2010Prop29
280
     1
102
RTVSPost2010PropOp29
 70
     1
102
RTVSPost2010Prop30
280
     1
102
RTVSPost2010PropOp30
 70
     1
102
RTVSPost2010Prop31
280
     0
102
RTVSPost2010PropOp31
 70
     1
102
RTVSPost2010Prop32
280
     0
102
RTVSPost2010PropOp32
 70
     1
102
RTVSPost2010Prop33
280
     0
102
RTVSPost2010PropOp33
 70
     1
102
RTVSPost2010Prop34
280
     0
102
RTVSPost2010PropOp34
 70
     1
102
RTVSPost2010Prop35
280
     0
102
RTVSPost2010PropOp35
 70
     1
102
RTVSPost2010Prop36
280
     0
102
RTVSPost2010PropOp36
 70
     1
102
RTVSPost2010Prop37
 90
       50
102
RTVSPost2010PropOp37
 70
     1
102
RTVSPost2010Prop38
140
0.0
102
RTVSPost2010PropOp38
 70
     1
102
RTVSPost2010Prop39
140
1.0
102
RTVSPost2010PropOp39
 70
     1
102
RTVSPost2010Prop40
 90
        0
102
RTVSPost2010PropOp40
 70
     1
102
RTVSPost2010Prop41ColorIndex
 90
       18
102
RTVSPost2010Prop41ColorRGB
 90
        0
102
RTVSPost2010PropOp41
 70
     1
102
RTVSPost2010Prop42
 90
       50
102
RTVSPost2010PropOp42
 70
     1
102
RTVSPost2010Prop43
 90
        3
102
RTVSPost2010PropOp43
 70
     1
102
RTVSPost2010Prop44ColorIndex
 90
        5
102
RTVSPost2010Prop44ColorRGB
 90
      255
102
RTVSPost2010PropOp44
 70
     1
102
RTVSPost2010Prop45
280
     0
102
RTVSPost2010PropOp45
 70
     1
102
RTVSPost2010Prop46
 90
       50
102
RTVSPost2010PropOp46
 70
     1
102
RTVSPost2010Prop47
 90
       50
102
RTVSPost2010PropOp47
 70
     1
102
RTVSPost2010Prop48
 90
       50
102
RTVSPost2010PropOp48
 70
     1
102
RTVSPost2010Prop49
280
     0
102
RTVSPost2010PropOp49
 70
     1
102
RTVSPost2010Prop50
 90
       50
102
RTVSPost2010PropOp50
 70
     1
102
RTVSPost2010Prop51ColorIndex
 90
      256
102
RTVSPost2010Prop51ColorRGB
 90
-16777216
102
RTVSPost2010PropOp51
 70
     0
102
RTVSPost2010Prop52
140
1.0
102
RTVSPost2010PropOp52
 70
     0
102
RTVSPost2010Prop53
 90
        2
102
RTVSPost2010PropOp53
 70
     1
102
RTVSPost2010Prop54
  1
strokes_ogs.tif
102
RTVSPost2010PropOp54
 70
     1
102
RTVSPost2010Prop55
280
     0
102
RTVSPost2010PropOp55
 70
     1
102
RTVSPost2010Prop56
140
1.0
102
RTVSPost2010PropOp56
 70
     1
102
RTVSPost2010Prop57
140
1.0
102
RTVSPost2010PropOp57
 70
     1
102
RTVSPropertyOp0
 70
     1
102
RTVSPropertyOp1
 70
     1
102
RTVSPropertyOp2
 70
     1
102
RTVSPropertyOp3
 70
     1
102
RTVSPropertyOp4
 70
     1
102
RTVSPropertyOp5
 70
     1
102
RTVSPropertyOp6
 70
     1
102
RTVSPropertyOp7
 70
     1
102
RTVSPropertyOp8
 70
     1
102
RTVSPropertyOp9
 70
     1
102
RTVSPropertyOp10
 70
     1
102
RTVSPropertyOp11
 70
     1
102
RTVSPropertyOp12
 70
     1
102
RTVSPropertyOp13
 70
     1
102
RTVSPropertyOp14
 70
     1
102
RTVSPropertyOp15
 70
     1
102
RTVSPropertyOp16
 70
     1
102
RTVSPropertyOp17
 70
     1
102
RTVSPropertyOp18
 70
     1
102
RTVSPropertyOp19
 70
     1
102
RTVSPropertyOp20
 70
     1
102
RTVSPropertyOp21
 70
     1
102
RTVSPropertyOp22
 70
     1
102
RTVSPropertyOp23
 70
     1
102
RTVSPropertyOp24
 70
     1
102
RTVSPropertyOp25
 70
     1
102
RTVSPropertyOp26
 70
     1
102
RTVSPropertyOp27
 70
     1
102
RTVSPropertyOp28
 70
     1
102
RTVSPropertyOp29
 70
     1
102
RTVSPropertyOp30
 70
     1
102
RTVSPropertyOp31
 70
     1
102
RTVSPropertyOp32
 70
     1
102
RTVSPropertyOp33
 70
     1
102
RTVSPropertyOp34
 70
     1
102
RTVSPropertyOp35
 70
     1
102
RTVSPropertyOp36
 70
     1
102
RTVSPropertyOp37
 70
     1
102
RTVSPropertyOp38
 70
     1
102
RTVSPropertyOp39
 70
     1
102
RTVSPropertyOp40
 70
     1
102
RTVSPropertyOp41
 70
     1
102
RTVSPropertyOp42
 70
     1
102
RTVSPropertyOp43
 70
     1
102
RTVSPropertyOp44
 70
     1
102
RTVSPropertyOp45
 70
     1
102
RTVSPropertyOp46
 70
     1
102
RTVSPropertyOp47
 70
     1
102
RTVSPropertyOp48
 70
     1
102
RTVSPropertyOp49
 70
     1
102
RTVSPropertyOp50
 70
     1
102
RTVSPropertyOp51
 70
     0
102
RTVSPropertyOp52
 70
     0
102
RTVSPropertyOp53
 70
     1
102
RTVSPropertyOp54
 70
     1
102
RTVSPropertyOp55
 70
     1
102
RTVSPropertyOp56
 70
     1
102
RTVSPropertyOp57
 70
     1
102
RTVSPropertyOp58
 70
     1
102
RTVSPropertyOp59
 70
     1
102
RTVSPropertyOp60
 70
     1
102
RTVSPropertyOp61
 70
     1
102
RTVSPropertyOp62
 70
     1
  0
XRECORD
  5
146E
102
{ACAD_REACTORS
330
146D
102
}
330
146D
100
AcDbXrecord
280
     1
102
RTVSPost2010Prop28
280
     0
102
RTVSPost2010PropOp28
 70
     1
102
RTVSPost2010Prop29
280
     1
102
RTVSPost2010PropOp29
 70
     1
102
RTVSPost2010Prop30
280
     1
102
RTVSPost2010PropOp30
 70
     1
102
RTVSPost2010Prop31
280
     0
102
RTVSPost2010PropOp31
 70
     1
102
RTVSPost2010Prop32
280
     0
102
RTVSPost2010PropOp32
 70
     1
102
RTVSPost2010Prop33
280
     0
102
RTVSPost2010PropOp33
 70
     1
102
RTVSPost2010Prop34
280
     0
102
RTVSPost2010PropOp34
 70
     1
102
RTVSPost2010Prop35
280
     0
102
RTVSPost2010PropOp35
 70
     1
102
RTVSPost2010Prop36
280
     0
102
RTVSPost2010PropOp36
 70
     1
102
RTVSPost2010Prop37
 90
       50
102
RTVSPost2010PropOp37
 70
     1
102
RTVSPost2010Prop38
140
0.0
102
RTVSPost2010PropOp38
 70
     1
102
RTVSPost2010Prop39
140
1.0
102
RTVSPost2010PropOp39
 70
     1
102
RTVSPost2010Prop40
 90
        0
102
RTVSPost2010PropOp40
 70
     1
102
RTVSPost2010Prop41ColorIndex
 90
       18
102
RTVSPost2010Prop41ColorRGB
 90
        0
102
RTVSPost2010PropOp41
 70
     1
102
RTVSPost2010Prop42
 90
       50
102
RTVSPost2010PropOp42
 70
     1
102
RTVSPost2010Prop43
 90
        3
102
RTVSPost2010PropOp43
 70
     1
102
RTVSPost2010Prop44ColorIndex
 90
        5
102
RTVSPost2010Prop44ColorRGB
 90
      255
102
RTVSPost2010PropOp44
 70
     1
102
RTVSPost2010Prop45
280
     0
102
RTVSPost2010PropOp45
 70
     1
102
RTVSPost2010Prop46
 90
       50
102
RTVSPost2010PropOp46
 70
     1
102
RTVSPost2010Prop47
 90
       50
102
RTVSPost2010PropOp47
 70
     1
102
RTVSPost2010Prop48
 90
       50
102
RTVSPost2010PropOp48
 70
     1
102
RTVSPost2010Prop49
280
     0
102
RTVSPost2010PropOp49
 70
     1
102
RTVSPost2010Prop50
 90
       50
102
RTVSPost2010PropOp50
 70
     1
102
RTVSPost2010Prop51ColorIndex
 90
      256
102
RTVSPost2010Prop51ColorRGB
 90
-16777216
102
RTVSPost2010PropOp51
 70
     0
102
RTVSPost2010Prop52
140
1.0
102
RTVSPost2010PropOp52
 70
     0
102
RTVSPost2010Prop53
 90
        2
102
RTVSPost2010PropOp53
 70
     1
102
RTVSPost2010Prop54
  1
strokes_ogs.tif
102
RTVSPost2010PropOp54
 70
     1
102
RTVSPost2010Prop55
280
     0
102
RTVSPost2010PropOp55
 70
     1
102
RTVSPost2010Prop56
140
1.0
102
RTVSPost2010PropOp56
 70
     1
102
RTVSPost2010Prop57
140
1.0
102
RTVSPost2010PropOp57
 70
     1
102
RTVSPropertyOp0
 70
     1
102
RTVSPropertyOp1
 70
     1
102
RTVSPropertyOp2
 70
     1
102
RTVSPropertyOp3
 70
     1
102
RTVSPropertyOp4
 70
     1
102
RTVSPropertyOp5
 70
     1
102
RTVSPropertyOp6
 70
     1
102
RTVSPropertyOp7
 70
     1
102
RTVSPropertyOp8
 70
     1
102
RTVSPropertyOp9
 70
     1
102
RTVSPropertyOp10
 70
     1
102
RTVSPropertyOp11
 70
     1
102
RTVSPropertyOp12
 70
     1
102
RTVSPropertyOp13
 70
     1
102
RTVSPropertyOp14
 70
     1
102
RTVSPropertyOp15
 70
     1
102
RTVSPropertyOp16
 70
     1
102
RTVSPropertyOp17
 70
     1
102
RTVSPropertyOp18
 70
     1
102
RTVSPropertyOp19
 70
     1
102
RTVSPropertyOp20
 70
     1
102
RTVSPropertyOp21
 70
     1
102
RTVSPropertyOp22
 70
     1
102
RTVSPropertyOp23
 70
     1
102
RTVSPropertyOp24
 70
     1
102
RTVSPropertyOp25
 70
     1
102
RTVSPropertyOp26
 70
     1
102
RTVSPropertyOp27
 70
     1
102
RTVSPropertyOp28
 70
     1
102
RTVSPropertyOp29
 70
     1
102
RTVSPropertyOp30
 70
     1
102
RTVSPropertyOp31
 70
     1
102
RTVSPropertyOp32
 70
     1
102
RTVSPropertyOp33
 70
     1
102
RTVSPropertyOp34
 70
     1
102
RTVSPropertyOp35
 70
     1
102
RTVSPropertyOp36
 70
     1
102
RTVSPropertyOp37
 70
     1
102
RTVSPropertyOp38
 70
     1
102
RTVSPropertyOp39
 70
     1
102
RTVSPropertyOp40
 70
     1
102
RTVSPropertyOp41
 70
     1
102
RTVSPropertyOp42
 70
     1
102
RTVSPropertyOp43
 70
     1
102
RTVSPropertyOp44
 70
     1
102
RTVSPropertyOp45
 70
     1
102
RTVSPropertyOp46
 70
     1
102
RTVSPropertyOp47
 70
     1
102
RTVSPropertyOp48
 70
     1
102
RTVSPropertyOp49
 70
     1
102
RTVSPropertyOp50
 70
     1
102
RTVSPropertyOp51
 70
     0
102
RTVSPropertyOp52
 70
     0
102
RTVSPropertyOp53
 70
     1
102
RTVSPropertyOp54
 70
     1
102
RTVSPropertyOp55
 70
     1
102
RTVSPropertyOp56
 70
     1
102
RTVSPropertyOp57
 70
     1
102
RTVSPropertyOp58
 70
     1
102
RTVSPropertyOp59
 70
     1
102
RTVSPropertyOp60
 70
     1
102
RTVSPropertyOp61
 70
     1
102
RTVSPropertyOp62
 70
     1
  0
XRECORD
  5
147C
102
{ACAD_REACTORS
330
147B
102
}
330
147B
100
AcDbXrecord
280
     1
102
RTVSPost2010Prop28
280
     0
102
RTVSPost2010PropOp28
 70
     1
102
RTVSPost2010Prop29
280
     1
102
RTVSPost2010PropOp29
 70
     1
102
RTVSPost2010Prop30
280
     1
102
RTVSPost2010PropOp30
 70
     1
102
RTVSPost2010Prop31
280
     0
102
RTVSPost2010PropOp31
 70
     1
102
RTVSPost2010Prop32
280
     0
102
RTVSPost2010PropOp32
 70
     1
102
RTVSPost2010Prop33
280
     0
102
RTVSPost2010PropOp33
 70
     1
102
RTVSPost2010Prop34
280
     0
102
RTVSPost2010PropOp34
 70
     1
102
RTVSPost2010Prop35
280
     0
102
RTVSPost2010PropOp35
 70
     1
102
RTVSPost2010Prop36
280
     0
102
RTVSPost2010PropOp36
 70
     1
102
RTVSPost2010Prop37
 90
       50
102
RTVSPost2010PropOp37
 70
     1
102
RTVSPost2010Prop38
140
0.0
102
RTVSPost2010PropOp38
 70
     1
102
RTVSPost2010Prop39
140
1.0
102
RTVSPost2010PropOp39
 70
     1
102
RTVSPost2010Prop40
 90
        0
102
RTVSPost2010PropOp40
 70
     1
102
RTVSPost2010Prop41ColorIndex
 90
       18
102
RTVSPost2010Prop41ColorRGB
 90
        0
102
RTVSPost2010PropOp41
 70
     1
102
RTVSPost2010Prop42
 90
       50
102
RTVSPost2010PropOp42
 70
     1
102
RTVSPost2010Prop43
 90
        3
102
RTVSPost2010PropOp43
 70
     1
102
RTVSPost2010Prop44ColorIndex
 90
        5
102
RTVSPost2010Prop44ColorRGB
 90
      255
102
RTVSPost2010PropOp44
 70
     1
102
RTVSPost2010Prop45
280
     0
102
RTVSPost2010PropOp45
 70
     1
102
RTVSPost2010Prop46
 90
       50
102
RTVSPost2010PropOp46
 70
     1
102
RTVSPost2010Prop47
 90
       50
102
RTVSPost2010PropOp47
 70
     1
102
RTVSPost2010Prop48
 90
       50
102
RTVSPost2010PropOp48
 70
     1
102
RTVSPost2010Prop49
280
     0
102
RTVSPost2010PropOp49
 70
     1
102
RTVSPost2010Prop50
 90
       50
102
RTVSPost2010PropOp50
 70
     1
102
RTVSPost2010Prop51ColorIndex
 90
      256
102
RTVSPost2010Prop51ColorRGB
 90
-16777216
102
RTVSPost2010PropOp51
 70
     0
102
RTVSPost2010Prop52
140
1.0
102
RTVSPost2010PropOp52
 70
     0
102
RTVSPost2010Prop53
 90
        2
102
RTVSPost2010PropOp53
 70
     1
102
RTVSPost2010Prop54
  1
strokes_ogs.tif
102
RTVSPost2010PropOp54
 70
     1
102
RTVSPost2010Prop55
280
     0
102
RTVSPost2010PropOp55
 70
     1
102
RTVSPost2010Prop56
140
1.0
102
RTVSPost2010PropOp56
 70
     1
102
RTVSPost2010Prop57
140
1.0
102
RTVSPost2010PropOp57
 70
     1
102
RTVSPropertyOp0
 70
     1
102
RTVSPropertyOp1
 70
     1
102
RTVSPropertyOp2
 70
     1
102
RTVSPropertyOp3
 70
     1
102
RTVSPropertyOp4
 70
     1
102
RTVSPropertyOp5
 70
     1
102
RTVSPropertyOp6
 70
     1
102
RTVSPropertyOp7
 70
     1
102
RTVSPropertyOp8
 70
     1
102
RTVSPropertyOp9
 70
     1
102
RTVSPropertyOp10
 70
     1
102
RTVSPropertyOp11
 70
     1
102
RTVSPropertyOp12
 70
     1
102
RTVSPropertyOp13
 70
     1
102
RTVSPropertyOp14
 70
     1
102
RTVSPropertyOp15
 70
     1
102
RTVSPropertyOp16
 70
     1
102
RTVSPropertyOp17
 70
     1
102
RTVSPropertyOp18
 70
     1
102
RTVSPropertyOp19
 70
     1
102
RTVSPropertyOp20
 70
     1
102
RTVSPropertyOp21
 70
     1
102
RTVSPropertyOp22
 70
     1
102
RTVSPropertyOp23
 70
     1
102
RTVSPropertyOp24
 70
     1
102
RTVSPropertyOp25
 70
     1
102
RTVSPropertyOp26
 70
     1
102
RTVSPropertyOp27
 70
     1
102
RTVSPropertyOp28
 70
     1
102
RTVSPropertyOp29
 70
     1
102
RTVSPropertyOp30
 70
     1
102
RTVSPropertyOp31
 70
     1
102
RTVSPropertyOp32
 70
     1
102
RTVSPropertyOp33
 70
     1
102
RTVSPropertyOp34
 70
     1
102
RTVSPropertyOp35
 70
     1
102
RTVSPropertyOp36
 70
     1
102
RTVSPropertyOp37
 70
     1
102
RTVSPropertyOp38
 70
     1
102
RTVSPropertyOp39
 70
     1
102
RTVSPropertyOp40
 70
     1
102
RTVSPropertyOp41
 70
     1
102
RTVSPropertyOp42
 70
     1
102
RTVSPropertyOp43
 70
     1
102
RTVSPropertyOp44
 70
     1
102
RTVSPropertyOp45
 70
     1
102
RTVSPropertyOp46
 70
     1
102
RTVSPropertyOp47
 70
     1
102
RTVSPropertyOp48
 70
     1
102
RTVSPropertyOp49
 70
     1
102
RTVSPropertyOp50
 70
     1
102
RTVSPropertyOp51
 70
     0
102
RTVSPropertyOp52
 70
     0
102
RTVSPropertyOp53
 70
     1
102
RTVSPropertyOp54
 70
     1
102
RTVSPropertyOp55
 70
     1
102
RTVSPropertyOp56
 70
     1
102
RTVSPropertyOp57
 70
     1
102
RTVSPropertyOp58
 70
     1
102
RTVSPropertyOp59
 70
     1
102
RTVSPropertyOp60
 70
     1
102
RTVSPropertyOp61
 70
     1
102
RTVSPropertyOp62
 70
     1
  0
XRECORD
  5
1484
102
{ACAD_REACTORS
330
1483
102
}
330
1483
100
AcDbXrecord
280
     1
102
RTVSPost2010Prop28
280
     0
102
RTVSPost2010PropOp28
 70
     1
102
RTVSPost2010Prop29
280
     1
102
RTVSPost2010PropOp29
 70
     1
102
RTVSPost2010Prop30
280
     1
102
RTVSPost2010PropOp30
 70
     1
102
RTVSPost2010Prop31
280
     0
102
RTVSPost2010PropOp31
 70
     1
102
RTVSPost2010Prop32
280
     0
102
RTVSPost2010PropOp32
 70
     1
102
RTVSPost2010Prop33
280
     0
102
RTVSPost2010PropOp33
 70
     1
102
RTVSPost2010Prop34
280
     0
102
RTVSPost2010PropOp34
 70
     1
102
RTVSPost2010Prop35
280
     0
102
RTVSPost2010PropOp35
 70
     1
102
RTVSPost2010Prop36
280
     0
102
RTVSPost2010PropOp36
 70
     1
102
RTVSPost2010Prop37
 90
       50
102
RTVSPost2010PropOp37
 70
     1
102
RTVSPost2010Prop38
140
0.0
102
RTVSPost2010PropOp38
 70
     1
102
RTVSPost2010Prop39
140
1.0
102
RTVSPost2010PropOp39
 70
     1
102
RTVSPost2010Prop40
 90
        0
102
RTVSPost2010PropOp40
 70
     1
102
RTVSPost2010Prop41ColorIndex
 90
       18
102
RTVSPost2010Prop41ColorRGB
 90
        0
102
RTVSPost2010PropOp41
 70
     1
102
RTVSPost2010Prop42
 90
       50
102
RTVSPost2010PropOp42
 70
     1
102
RTVSPost2010Prop43
 90
        3
102
RTVSPost2010PropOp43
 70
     1
102
RTVSPost2010Prop44ColorIndex
 90
        5
102
RTVSPost2010Prop44ColorRGB
 90
      255
102
RTVSPost2010PropOp44
 70
     1
102
RTVSPost2010Prop45
280
     0
102
RTVSPost2010PropOp45
 70
     1
102
RTVSPost2010Prop46
 90
       50
102
RTVSPost2010PropOp46
 70
     1
102
RTVSPost2010Prop47
 90
       50
102
RTVSPost2010PropOp47
 70
     1
102
RTVSPost2010Prop48
 90
       50
102
RTVSPost2010PropOp48
 70
     1
102
RTVSPost2010Prop49
280
     0
102
RTVSPost2010PropOp49
 70
     1
102
RTVSPost2010Prop50
 90
       50
102
RTVSPost2010PropOp50
 70
     1
102
RTVSPost2010Prop51ColorIndex
 90
      256
102
RTVSPost2010Prop51ColorRGB
 90
-16777216
102
RTVSPost2010PropOp51
 70
     0
102
RTVSPost2010Prop52
140
1.0
102
RTVSPost2010PropOp52
 70
     0
102
RTVSPost2010Prop53
 90
        2
102
RTVSPost2010PropOp53
 70
     1
102
RTVSPost2010Prop54
  1
strokes_ogs.tif
102
RTVSPost2010PropOp54
 70
     1
102
RTVSPost2010Prop55
280
     0
102
RTVSPost2010PropOp55
 70
     1
102
RTVSPost2010Prop56
140
1.0
102
RTVSPost2010PropOp56
 70
     1
102
RTVSPost2010Prop57
140
1.0
102
RTVSPost2010PropOp57
 70
     1
102
RTVSPropertyOp0
 70
     1
102
RTVSPropertyOp1
 70
     1
102
RTVSPropertyOp2
 70
     1
102
RTVSPropertyOp3
 70
     1
102
RTVSPropertyOp4
 70
     1
102
RTVSPropertyOp5
 70
     1
102
RTVSPropertyOp6
 70
     1
102
RTVSPropertyOp7
 70
     1
102
RTVSPropertyOp8
 70
     1
102
RTVSPropertyOp9
 70
     1
102
RTVSPropertyOp10
 70
     1
102
RTVSPropertyOp11
 70
     1
102
RTVSPropertyOp12
 70
     1
102
RTVSPropertyOp13
 70
     1
102
RTVSPropertyOp14
 70
     1
102
RTVSPropertyOp15
 70
     1
102
RTVSPropertyOp16
 70
     1
102
RTVSPropertyOp17
 70
     1
102
RTVSPropertyOp18
 70
     1
102
RTVSPropertyOp19
 70
     1
102
RTVSPropertyOp20
 70
     1
102
RTVSPropertyOp21
 70
     1
102
RTVSPropertyOp22
 70
     1
102
RTVSPropertyOp23
 70
     1
102
RTVSPropertyOp24
 70
     1
102
RTVSPropertyOp25
 70
     1
102
RTVSPropertyOp26
 70
     1
102
RTVSPropertyOp27
 70
     1
102
RTVSPropertyOp28
 70
     1
102
RTVSPropertyOp29
 70
     1
102
RTVSPropertyOp30
 70
     1
102
RTVSPropertyOp31
 70
     1
102
RTVSPropertyOp32
 70
     1
102
RTVSPropertyOp33
 70
     1
102
RTVSPropertyOp34
 70
     1
102
RTVSPropertyOp35
 70
     1
102
RTVSPropertyOp36
 70
     1
102
RTVSPropertyOp37
 70
     1
102
RTVSPropertyOp38
 70
     1
102
RTVSPropertyOp39
 70
     1
102
RTVSPropertyOp40
 70
     1
102
RTVSPropertyOp41
 70
     1
102
RTVSPropertyOp42
 70
     1
102
RTVSPropertyOp43
 70
     1
102
RTVSPropertyOp44
 70
     1
102
RTVSPropertyOp45
 70
     1
102
RTVSPropertyOp46
 70
     1
102
RTVSPropertyOp47
 70
     1
102
RTVSPropertyOp48
 70
     1
102
RTVSPropertyOp49
 70
     1
102
RTVSPropertyOp50
 70
     1
102
RTVSPropertyOp51
 70
     0
102
RTVSPropertyOp52
 70
     0
102
RTVSPropertyOp53
 70
     1
102
RTVSPropertyOp54
 70
     1
102
RTVSPropertyOp55
 70
     1
102
RTVSPropertyOp56
 70
     1
102
RTVSPropertyOp57
 70
     1
102
RTVSPropertyOp58
 70
     1
102
RTVSPropertyOp59
 70
     1
102
RTVSPropertyOp60
 70
     1
102
RTVSPropertyOp61
 70
     1
102
RTVSPropertyOp62
 70
     1
  0
XRECORD
  5
1476
102
{ACAD_REACTORS
330
1475
102
}
330
1475
100
AcDbXrecord
280
     1
102
RTVSPost2010Prop28
280
     0
102
RTVSPost2010PropOp28
 70
     1
102
RTVSPost2010Prop29
280
     1
102
RTVSPost2010PropOp29
 70
     1
102
RTVSPost2010Prop30
280
     1
102
RTVSPost2010PropOp30
 70
     1
102
RTVSPost2010Prop31
280
     0
102
RTVSPost2010PropOp31
 70
     1
102
RTVSPost2010Prop32
280
     0
102
RTVSPost2010PropOp32
 70
     1
102
RTVSPost2010Prop33
280
     0
102
RTVSPost2010PropOp33
 70
     1
102
RTVSPost2010Prop34
280
     0
102
RTVSPost2010PropOp34
 70
     1
102
RTVSPost2010Prop35
280
     0
102
RTVSPost2010PropOp35
 70
     1
102
RTVSPost2010Prop36
280
     0
102
RTVSPost2010PropOp36
 70
     1
102
RTVSPost2010Prop37
 90
       50
102
RTVSPost2010PropOp37
 70
     1
102
RTVSPost2010Prop38
140
0.0
102
RTVSPost2010PropOp38
 70
     1
102
RTVSPost2010Prop39
140
1.0
102
RTVSPost2010PropOp39
 70
     1
102
RTVSPost2010Prop40
 90
        0
102
RTVSPost2010PropOp40
 70
     1
102
RTVSPost2010Prop41ColorIndex
 90
       18
102
RTVSPost2010Prop41ColorRGB
 90
        0
102
RTVSPost2010PropOp41
 70
     1
102
RTVSPost2010Prop42
 90
       50
102
RTVSPost2010PropOp42
 70
     1
102
RTVSPost2010Prop43
 90
        3
102
RTVSPost2010PropOp43
 70
     1
102
RTVSPost2010Prop44ColorIndex
 90
        5
102
RTVSPost2010Prop44ColorRGB
 90
      255
102
RTVSPost2010PropOp44
 70
     1
102
RTVSPost2010Prop45
280
     0
102
RTVSPost2010PropOp45
 70
     1
102
RTVSPost2010Prop46
 90
       50
102
RTVSPost2010PropOp46
 70
     1
102
RTVSPost2010Prop47
 90
       50
102
RTVSPost2010PropOp47
 70
     1
102
RTVSPost2010Prop48
 90
       50
102
RTVSPost2010PropOp48
 70
     1
102
RTVSPost2010Prop49
280
     0
102
RTVSPost2010PropOp49
 70
     1
102
RTVSPost2010Prop50
 90
       50
102
RTVSPost2010PropOp50
 70
     1
102
RTVSPost2010Prop51ColorIndex
 90
      256
102
RTVSPost2010Prop51ColorRGB
 90
-16777216
102
RTVSPost2010PropOp51
 70
     0
102
RTVSPost2010Prop52
140
1.0
102
RTVSPost2010PropOp52
 70
     0
102
RTVSPost2010Prop53
 90
        2
102
RTVSPost2010PropOp53
 70
     1
102
RTVSPost2010Prop54
  1
strokes_ogs.tif
102
RTVSPost2010PropOp54
 70
     1
102
RTVSPost2010Prop55
280
     0
102
RTVSPost2010PropOp55
 70
     1
102
RTVSPost2010Prop56
140
1.0
102
RTVSPost2010PropOp56
 70
     1
102
RTVSPost2010Prop57
140
1.0
102
RTVSPost2010PropOp57
 70
     1
102
RTVSPropertyOp0
 70
     1
102
RTVSPropertyOp1
 70
     1
102
RTVSPropertyOp2
 70
     1
102
RTVSPropertyOp3
 70
     1
102
RTVSPropertyOp4
 70
     1
102
RTVSPropertyOp5
 70
     1
102
RTVSPropertyOp6
 70
     1
102
RTVSPropertyOp7
 70
     1
102
RTVSPropertyOp8
 70
     1
102
RTVSPropertyOp9
 70
     1
102
RTVSPropertyOp10
 70
     1
102
RTVSPropertyOp11
 70
     1
102
RTVSPropertyOp12
 70
     1
102
RTVSPropertyOp13
 70
     1
102
RTVSPropertyOp14
 70
     1
102
RTVSPropertyOp15
 70
     1
102
RTVSPropertyOp16
 70
     1
102
RTVSPropertyOp17
 70
     1
102
RTVSPropertyOp18
 70
     1
102
RTVSPropertyOp19
 70
     1
102
RTVSPropertyOp20
 70
     1
102
RTVSPropertyOp21
 70
     1
102
RTVSPropertyOp22
 70
     1
102
RTVSPropertyOp23
 70
     1
102
RTVSPropertyOp24
 70
     1
102
RTVSPropertyOp25
 70
     1
102
RTVSPropertyOp26
 70
     1
102
RTVSPropertyOp27
 70
     1
102
RTVSPropertyOp28
 70
     1
102
RTVSPropertyOp29
 70
     1
102
RTVSPropertyOp30
 70
     1
102
RTVSPropertyOp31
 70
     1
102
RTVSPropertyOp32
 70
     1
102
RTVSPropertyOp33
 70
     1
102
RTVSPropertyOp34
 70
     1
102
RTVSPropertyOp35
 70
     1
102
RTVSPropertyOp36
 70
     1
102
RTVSPropertyOp37
 70
     1
102
RTVSPropertyOp38
 70
     1
102
RTVSPropertyOp39
 70
     1
102
RTVSPropertyOp40
 70
     1
102
RTVSPropertyOp41
 70
     1
102
RTVSPropertyOp42
 70
     1
102
RTVSPropertyOp43
 70
     1
102
RTVSPropertyOp44
 70
     1
102
RTVSPropertyOp45
 70
     1
102
RTVSPropertyOp46
 70
     1
102
RTVSPropertyOp47
 70
     1
102
RTVSPropertyOp48
 70
     1
102
RTVSPropertyOp49
 70
     1
102
RTVSPropertyOp50
 70
     1
102
RTVSPropertyOp51
 70
     0
102
RTVSPropertyOp52
 70
     0
102
RTVSPropertyOp53
 70
     1
102
RTVSPropertyOp54
 70
     1
102
RTVSPropertyOp55
 70
     1
102
RTVSPropertyOp56
 70
     1
102
RTVSPropertyOp57
 70
     1
102
RTVSPropertyOp58
 70
     1
102
RTVSPropertyOp59
 70
     1
102
RTVSPropertyOp60
 70
     1
102
RTVSPropertyOp61
 70
     1
102
RTVSPropertyOp62
 70
     1
  0
XRECORD
  5
147A
102
{ACAD_REACTORS
330
1479
102
}
330
1479
100
AcDbXrecord
280
     1
102
RTVSPost2010Prop28
280
     0
102
RTVSPost2010PropOp28
 70
     1
102
RTVSPost2010Prop29
280
     1
102
RTVSPost2010PropOp29
 70
     1
102
RTVSPost2010Prop30
280
     1
102
RTVSPost2010PropOp30
 70
     1
102
RTVSPost2010Prop31
280
     0
102
RTVSPost2010PropOp31
 70
     1
102
RTVSPost2010Prop32
280
     0
102
RTVSPost2010PropOp32
 70
     1
102
RTVSPost2010Prop33
280
     0
102
RTVSPost2010PropOp33
 70
     1
102
RTVSPost2010Prop34
280
     0
102
RTVSPost2010PropOp34
 70
     1
102
RTVSPost2010Prop35
280
     0
102
RTVSPost2010PropOp35
 70
     1
102
RTVSPost2010Prop36
280
     0
102
RTVSPost2010PropOp36
 70
     1
102
RTVSPost2010Prop37
 90
       50
102
RTVSPost2010PropOp37
 70
     1
102
RTVSPost2010Prop38
140
0.0
102
RTVSPost2010PropOp38
 70
     1
102
RTVSPost2010Prop39
140
1.0
102
RTVSPost2010PropOp39
 70
     1
102
RTVSPost2010Prop40
 90
        0
102
RTVSPost2010PropOp40
 70
     1
102
RTVSPost2010Prop41ColorIndex
 90
       18
102
RTVSPost2010Prop41ColorRGB
 90
        0
102
RTVSPost2010PropOp41
 70
     1
102
RTVSPost2010Prop42
 90
       50
102
RTVSPost2010PropOp42
 70
     1
102
RTVSPost2010Prop43
 90
        3
102
RTVSPost2010PropOp43
 70
     1
102
RTVSPost2010Prop44ColorIndex
 90
        5
102
RTVSPost2010Prop44ColorRGB
 90
      255
102
RTVSPost2010PropOp44
 70
     1
102
RTVSPost2010Prop45
280
     0
102
RTVSPost2010PropOp45
 70
     1
102
RTVSPost2010Prop46
 90
       50
102
RTVSPost2010PropOp46
 70
     1
102
RTVSPost2010Prop47
 90
       50
102
RTVSPost2010PropOp47
 70
     1
102
RTVSPost2010Prop48
 90
       50
102
RTVSPost2010PropOp48
 70
     1
102
RTVSPost2010Prop49
280
     0
102
RTVSPost2010PropOp49
 70
     1
102
RTVSPost2010Prop50
 90
       50
102
RTVSPost2010PropOp50
 70
     1
102
RTVSPost2010Prop51ColorIndex
 90
      256
102
RTVSPost2010Prop51ColorRGB
 90
-16777216
102
RTVSPost2010PropOp51
 70
     0
102
RTVSPost2010Prop52
140
1.0
102
RTVSPost2010PropOp52
 70
     0
102
RTVSPost2010Prop53
 90
        2
102
RTVSPost2010PropOp53
 70
     1
102
RTVSPost2010Prop54
  1
strokes_ogs.tif
102
RTVSPost2010PropOp54
 70
     1
102
RTVSPost2010Prop55
280
     0
102
RTVSPost2010PropOp55
 70
     1
102
RTVSPost2010Prop56
140
1.0
102
RTVSPost2010PropOp56
 70
     1
102
RTVSPost2010Prop57
140
1.0
102
RTVSPost2010PropOp57
 70
     1
102
RTVSPropertyOp0
 70
     1
102
RTVSPropertyOp1
 70
     1
102
RTVSPropertyOp2
 70
     1
102
RTVSPropertyOp3
 70
     1
102
RTVSPropertyOp4
 70
     1
102
RTVSPropertyOp5
 70
     1
102
RTVSPropertyOp6
 70
     1
102
RTVSPropertyOp7
 70
     1
102
RTVSPropertyOp8
 70
     1
102
RTVSPropertyOp9
 70
     1
102
RTVSPropertyOp10
 70
     1
102
RTVSPropertyOp11
 70
     1
102
RTVSPropertyOp12
 70
     1
102
RTVSPropertyOp13
 70
     1
102
RTVSPropertyOp14
 70
     1
102
RTVSPropertyOp15
 70
     1
102
RTVSPropertyOp16
 70
     1
102
RTVSPropertyOp17
 70
     1
102
RTVSPropertyOp18
 70
     1
102
RTVSPropertyOp19
 70
     1
102
RTVSPropertyOp20
 70
     1
102
RTVSPropertyOp21
 70
     1
102
RTVSPropertyOp22
 70
     1
102
RTVSPropertyOp23
 70
     1
102
RTVSPropertyOp24
 70
     1
102
RTVSPropertyOp25
 70
     1
102
RTVSPropertyOp26
 70
     1
102
RTVSPropertyOp27
 70
     1
102
RTVSPropertyOp28
 70
     1
102
RTVSPropertyOp29
 70
     1
102
RTVSPropertyOp30
 70
     1
102
RTVSPropertyOp31
 70
     1
102
RTVSPropertyOp32
 70
     1
102
RTVSPropertyOp33
 70
     1
102
RTVSPropertyOp34
 70
     1
102
RTVSPropertyOp35
 70
     1
102
RTVSPropertyOp36
 70
     1
102
RTVSPropertyOp37
 70
     1
102
RTVSPropertyOp38
 70
     1
102
RTVSPropertyOp39
 70
     1
102
RTVSPropertyOp40
 70
     1
102
RTVSPropertyOp41
 70
     1
102
RTVSPropertyOp42
 70
     1
102
RTVSPropertyOp43
 70
     1
102
RTVSPropertyOp44
 70
     1
102
RTVSPropertyOp45
 70
     1
102
RTVSPropertyOp46
 70
     1
102
RTVSPropertyOp47
 70
     1
102
RTVSPropertyOp48
 70
     1
102
RTVSPropertyOp49
 70
     1
102
RTVSPropertyOp50
 70
     1
102
RTVSPropertyOp51
 70
     0
102
RTVSPropertyOp52
 70
     0
102
RTVSPropertyOp53
 70
     1
102
RTVSPropertyOp54
 70
     1
102
RTVSPropertyOp55
 70
     1
102
RTVSPropertyOp56
 70
     1
102
RTVSPropertyOp57
 70
     1
102
RTVSPropertyOp58
 70
     1
102
RTVSPropertyOp59
 70
     1
102
RTVSPropertyOp60
 70
     1
102
RTVSPropertyOp61
 70
     1
102
RTVSPropertyOp62
 70
     1
  0
XRECORD
  5
1493
102
{ACAD_REACTORS
330
1492
102
}
330
1492
100
AcDbXrecord
280
     1
102
RTVSPost2010Prop28
280
     0
102
RTVSPost2010PropOp28
 70
     1
102
RTVSPost2010Prop29
280
     1
102
RTVSPost2010PropOp29
 70
     1
102
RTVSPost2010Prop30
280
     1
102
RTVSPost2010PropOp30
 70
     1
102
RTVSPost2010Prop31
280
     0
102
RTVSPost2010PropOp31
 70
     1
102
RTVSPost2010Prop32
280
     0
102
RTVSPost2010PropOp32
 70
     1
102
RTVSPost2010Prop33
280
     0
102
RTVSPost2010PropOp33
 70
     1
102
RTVSPost2010Prop34
280
     0
102
RTVSPost2010PropOp34
 70
     1
102
RTVSPost2010Prop35
280
     0
102
RTVSPost2010PropOp35
 70
     1
102
RTVSPost2010Prop36
280
     0
102
RTVSPost2010PropOp36
 70
     1
102
RTVSPost2010Prop37
 90
       50
102
RTVSPost2010PropOp37
 70
     1
102
RTVSPost2010Prop38
140
0.0
102
RTVSPost2010PropOp38
 70
     1
102
RTVSPost2010Prop39
140
1.0
102
RTVSPost2010PropOp39
 70
     1
102
RTVSPost2010Prop40
 90
        0
102
RTVSPost2010PropOp40
 70
     1
102
RTVSPost2010Prop41ColorIndex
 90
       18
102
RTVSPost2010Prop41ColorRGB
 90
        0
102
RTVSPost2010PropOp41
 70
     1
102
RTVSPost2010Prop42
 90
       50
102
RTVSPost2010PropOp42
 70
     1
102
RTVSPost2010Prop43
 90
        3
102
RTVSPost2010PropOp43
 70
     1
102
RTVSPost2010Prop44ColorIndex
 90
        5
102
RTVSPost2010Prop44ColorRGB
 90
      255
102
RTVSPost2010PropOp44
 70
     1
102
RTVSPost2010Prop45
280
     0
102
RTVSPost2010PropOp45
 70
     1
102
RTVSPost2010Prop46
 90
       50
102
RTVSPost2010PropOp46
 70
     1
102
RTVSPost2010Prop47
 90
       50
102
RTVSPost2010PropOp47
 70
     1
102
RTVSPost2010Prop48
 90
       50
102
RTVSPost2010PropOp48
 70
     1
102
RTVSPost2010Prop49
280
     0
102
RTVSPost2010PropOp49
 70
     1
102
RTVSPost2010Prop50
 90
       50
102
RTVSPost2010PropOp50
 70
     1
102
RTVSPost2010Prop51ColorIndex
 90
      256
102
RTVSPost2010Prop51ColorRGB
 90
-16777216
102
RTVSPost2010PropOp51
 70
     0
102
RTVSPost2010Prop52
140
1.0
102
RTVSPost2010PropOp52
 70
     0
102
RTVSPost2010Prop53
 90
        2
102
RTVSPost2010PropOp53
 70
     1
102
RTVSPost2010Prop54
  1
strokes_ogs.tif
102
RTVSPost2010PropOp54
 70
     1
102
RTVSPost2010Prop55
280
     0
102
RTVSPost2010PropOp55
 70
     1
102
RTVSPost2010Prop56
140
1.0
102
RTVSPost2010PropOp56
 70
     1
102
RTVSPost2010Prop57
140
1.0
102
RTVSPost2010PropOp57
 70
     1
102
RTVSPropertyOp0
 70
     0
102
RTVSPropertyOp1
 70
     0
102
RTVSPropertyOp2
 70
     0
102
RTVSPropertyOp3
 70
     0
102
RTVSPropertyOp4
 70
     0
102
RTVSPropertyOp5
 70
     0
102
RTVSPropertyOp6
 70
     0
102
RTVSPropertyOp7
 70
     0
102
RTVSPropertyOp8
 70
     0
102
RTVSPropertyOp9
 70
     0
102
RTVSPropertyOp10
 70
     0
102
RTVSPropertyOp11
 70
     0
102
RTVSPropertyOp12
 70
     0
102
RTVSPropertyOp13
 70
     0
102
RTVSPropertyOp14
 70
     2
102
RTVSPropertyOp15
 70
     0
102
RTVSPropertyOp16
 70
     0
102
RTVSPropertyOp17
 70
     0
102
RTVSPropertyOp18
 70
     0
102
RTVSPropertyOp19
 70
     0
102
RTVSPropertyOp20
 70
     0
102
RTVSPropertyOp21
 70
     0
102
RTVSPropertyOp22
 70
     0
102
RTVSPropertyOp23
 70
     0
102
RTVSPropertyOp24
 70
     0
102
RTVSPropertyOp25
 70
     0
102
RTVSPropertyOp26
 70
     0
102
RTVSPropertyOp27
 70
     0
102
RTVSPropertyOp28
 70
     1
102
RTVSPropertyOp29
 70
     1
102
RTVSPropertyOp30
 70
     1
102
RTVSPropertyOp31
 70
     1
102
RTVSPropertyOp32
 70
     1
102
RTVSPropertyOp33
 70
     1
102
RTVSPropertyOp34
 70
     1
102
RTVSPropertyOp35
 70
     1
102
RTVSPropertyOp36
 70
     1
102
RTVSPropertyOp37
 70
     1
102
RTVSPropertyOp38
 70
     1
102
RTVSPropertyOp39
 70
     1
102
RTVSPropertyOp40
 70
     1
102
RTVSPropertyOp41
 70
     1
102
RTVSPropertyOp42
 70
     1
102
RTVSPropertyOp43
 70
     1
102
RTVSPropertyOp44
 70
     1
102
RTVSPropertyOp45
 70
     1
102
RTVSPropertyOp46
 70
     1
102
RTVSPropertyOp47
 70
     1
102
RTVSPropertyOp48
 70
     1
102
RTVSPropertyOp49
 70
     1
102
RTVSPropertyOp50
 70
     1
102
RTVSPropertyOp51
 70
     0
102
RTVSPropertyOp52
 70
     0
102
RTVSPropertyOp53
 70
     1
102
RTVSPropertyOp54
 70
     1
102
RTVSPropertyOp55
 70
     1
102
RTVSPropertyOp56
 70
     1
102
RTVSPropertyOp57
 70
     1
102
RTVSPropertyOp58
 70
     1
102
RTVSPropertyOp59
 70
     1
102
RTVSPropertyOp60
 70
     1
102
RTVSPropertyOp61
 70
     1
102
RTVSPropertyOp62
 70
     1
  0
XRECORD
  5
1482
102
{ACAD_REACTORS
330
1481
102
}
330
1481
100
AcDbXrecord
280
     1
102
RTVSPost2010Prop28
280
     0
102
RTVSPost2010PropOp28
 70
     1
102
RTVSPost2010Prop29
280
     1
102
RTVSPost2010PropOp29
 70
     1
102
RTVSPost2010Prop30
280
     1
102
RTVSPost2010PropOp30
 70
     1
102
RTVSPost2010Prop31
280
     0
102
RTVSPost2010PropOp31
 70
     1
102
RTVSPost2010Prop32
280
     0
102
RTVSPost2010PropOp32
 70
     1
102
RTVSPost2010Prop33
280
     0
102
RTVSPost2010PropOp33
 70
     1
102
RTVSPost2010Prop34
280
     0
102
RTVSPost2010PropOp34
 70
     1
102
RTVSPost2010Prop35
280
     0
102
RTVSPost2010PropOp35
 70
     1
102
RTVSPost2010Prop36
280
     0
102
RTVSPost2010PropOp36
 70
     1
102
RTVSPost2010Prop37
 90
       50
102
RTVSPost2010PropOp37
 70
     1
102
RTVSPost2010Prop38
140
0.0
102
RTVSPost2010PropOp38
 70
     1
102
RTVSPost2010Prop39
140
1.0
102
RTVSPost2010PropOp39
 70
     1
102
RTVSPost2010Prop40
 90
        0
102
RTVSPost2010PropOp40
 70
     1
102
RTVSPost2010Prop41ColorIndex
 90
       18
102
RTVSPost2010Prop41ColorRGB
 90
        0
102
RTVSPost2010PropOp41
 70
     1
102
RTVSPost2010Prop42
 90
       50
102
RTVSPost2010PropOp42
 70
     1
102
RTVSPost2010Prop43
 90
        3
102
RTVSPost2010PropOp43
 70
     1
102
RTVSPost2010Prop44ColorIndex
 90
        5
102
RTVSPost2010Prop44ColorRGB
 90
      255
102
RTVSPost2010PropOp44
 70
     1
102
RTVSPost2010Prop45
280
     0
102
RTVSPost2010PropOp45
 70
     1
102
RTVSPost2010Prop46
 90
       50
102
RTVSPost2010PropOp46
 70
     1
102
RTVSPost2010Prop47
 90
       50
102
RTVSPost2010PropOp47
 70
     1
102
RTVSPost2010Prop48
 90
       50
102
RTVSPost2010PropOp48
 70
     1
102
RTVSPost2010Prop49
280
     0
102
RTVSPost2010PropOp49
 70
     1
102
RTVSPost2010Prop50
 90
       50
102
RTVSPost2010PropOp50
 70
     1
102
RTVSPost2010Prop51ColorIndex
 90
      256
102
RTVSPost2010Prop51ColorRGB
 90
-16777216
102
RTVSPost2010PropOp51
 70
     0
102
RTVSPost2010Prop52
140
1.0
102
RTVSPost2010PropOp52
 70
     0
102
RTVSPost2010Prop53
 90
        2
102
RTVSPost2010PropOp53
 70
     1
102
RTVSPost2010Prop54
  1
strokes_ogs.tif
102
RTVSPost2010PropOp54
 70
     1
102
RTVSPost2010Prop55
280
     0
102
RTVSPost2010PropOp55
 70
     1
102
RTVSPost2010Prop56
140
1.0
102
RTVSPost2010PropOp56
 70
     1
102
RTVSPost2010Prop57
140
1.0
102
RTVSPost2010PropOp57
 70
     1
102
RTVSPropertyOp0
 70
     1
102
RTVSPropertyOp1
 70
     1
102
RTVSPropertyOp2
 70
     1
102
RTVSPropertyOp3
 70
     1
102
RTVSPropertyOp4
 70
     1
102
RTVSPropertyOp5
 70
     1
102
RTVSPropertyOp6
 70
     1
102
RTVSPropertyOp7
 70
     1
102
RTVSPropertyOp8
 70
     1
102
RTVSPropertyOp9
 70
     1
102
RTVSPropertyOp10
 70
     1
102
RTVSPropertyOp11
 70
     1
102
RTVSPropertyOp12
 70
     1
102
RTVSPropertyOp13
 70
     1
102
RTVSPropertyOp14
 70
     1
102
RTVSPropertyOp15
 70
     1
102
RTVSPropertyOp16
 70
     1
102
RTVSPropertyOp17
 70
     1
102
RTVSPropertyOp18
 70
     1
102
RTVSPropertyOp19
 70
     1
102
RTVSPropertyOp20
 70
     1
102
RTVSPropertyOp21
 70
     1
102
RTVSPropertyOp22
 70
     1
102
RTVSPropertyOp23
 70
     1
102
RTVSPropertyOp24
 70
     1
102
RTVSPropertyOp25
 70
     1
102
RTVSPropertyOp26
 70
     1
102
RTVSPropertyOp27
 70
     1
102
RTVSPropertyOp28
 70
     1
102
RTVSPropertyOp29
 70
     1
102
RTVSPropertyOp30
 70
     1
102
RTVSPropertyOp31
 70
     1
102
RTVSPropertyOp32
 70
     1
102
RTVSPropertyOp33
 70
     1
102
RTVSPropertyOp34
 70
     1
102
RTVSPropertyOp35
 70
     1
102
RTVSPropertyOp36
 70
     1
102
RTVSPropertyOp37
 70
     1
102
RTVSPropertyOp38
 70
     1
102
RTVSPropertyOp39
 70
     1
102
RTVSPropertyOp40
 70
     1
102
RTVSPropertyOp41
 70
     1
102
RTVSPropertyOp42
 70
     1
102
RTVSPropertyOp43
 70
     1
102
RTVSPropertyOp44
 70
     1
102
RTVSPropertyOp45
 70
     1
102
RTVSPropertyOp46
 70
     1
102
RTVSPropertyOp47
 70
     1
102
RTVSPropertyOp48
 70
     1
102
RTVSPropertyOp49
 70
     1
102
RTVSPropertyOp50
 70
     1
102
RTVSPropertyOp51
 70
     0
102
RTVSPropertyOp52
 70
     0
102
RTVSPropertyOp53
 70
     1
102
RTVSPropertyOp54
 70
     1
102
RTVSPropertyOp55
 70
     1
102
RTVSPropertyOp56
 70
     1
102
RTVSPropertyOp57
 70
     1
102
RTVSPropertyOp58
 70
     1
102
RTVSPropertyOp59
 70
     1
102
RTVSPropertyOp60
 70
     1
102
RTVSPropertyOp61
 70
     1
102
RTVSPropertyOp62
 70
     1
  0
XRECORD
  5
1466
102
{ACAD_REACTORS
330
1465
102
}
330
1465
100
AcDbXrecord
280
     1
102
RTVSPost2010Prop28
280
     0
102
RTVSPost2010PropOp28
 70
     1
102
RTVSPost2010Prop29
280
     1
102
RTVSPost2010PropOp29
 70
     1
102
RTVSPost2010Prop30
280
     1
102
RTVSPost2010PropOp30
 70
     1
102
RTVSPost2010Prop31
280
     0
102
RTVSPost2010PropOp31
 70
     1
102
RTVSPost2010Prop32
280
     0
102
RTVSPost2010PropOp32
 70
     1
102
RTVSPost2010Prop33
280
     0
102
RTVSPost2010PropOp33
 70
     1
102
RTVSPost2010Prop34
280
     0
102
RTVSPost2010PropOp34
 70
     1
102
RTVSPost2010Prop35
280
     0
102
RTVSPost2010PropOp35
 70
     1
102
RTVSPost2010Prop36
280
     0
102
RTVSPost2010PropOp36
 70
     1
102
RTVSPost2010Prop37
 90
       50
102
RTVSPost2010PropOp37
 70
     1
102
RTVSPost2010Prop38
140
0.0
102
RTVSPost2010PropOp38
 70
     1
102
RTVSPost2010Prop39
140
1.0
102
RTVSPost2010PropOp39
 70
     1
102
RTVSPost2010Prop40
 90
        0
102
RTVSPost2010PropOp40
 70
     1
102
RTVSPost2010Prop41ColorIndex
 90
       18
102
RTVSPost2010Prop41ColorRGB
 90
        0
102
RTVSPost2010PropOp41
 70
     1
102
RTVSPost2010Prop42
 90
       50
102
RTVSPost2010PropOp42
 70
     1
102
RTVSPost2010Prop43
 90
        3
102
RTVSPost2010PropOp43
 70
     1
102
RTVSPost2010Prop44ColorIndex
 90
        5
102
RTVSPost2010Prop44ColorRGB
 90
      255
102
RTVSPost2010PropOp44
 70
     1
102
RTVSPost2010Prop45
280
     0
102
RTVSPost2010PropOp45
 70
     1
102
RTVSPost2010Prop46
 90
       50
102
RTVSPost2010PropOp46
 70
     1
102
RTVSPost2010Prop47
 90
       50
102
RTVSPost2010PropOp47
 70
     1
102
RTVSPost2010Prop48
 90
       50
102
RTVSPost2010PropOp48
 70
     1
102
RTVSPost2010Prop49
280
     0
102
RTVSPost2010PropOp49
 70
     1
102
RTVSPost2010Prop50
 90
       50
102
RTVSPost2010PropOp50
 70
     1
102
RTVSPost2010Prop51ColorIndex
 90
      256
102
RTVSPost2010Prop51ColorRGB
 90
-16777216
102
RTVSPost2010PropOp51
 70
     0
102
RTVSPost2010Prop52
140
1.0
102
RTVSPost2010PropOp52
 70
     0
102
RTVSPost2010Prop53
 90
        2
102
RTVSPost2010PropOp53
 70
     1
102
RTVSPost2010Prop54
  1
strokes_ogs.tif
102
RTVSPost2010PropOp54
 70
     1
102
RTVSPost2010Prop55
280
     0
102
RTVSPost2010PropOp55
 70
     1
102
RTVSPost2010Prop56
140
1.0
102
RTVSPost2010PropOp56
 70
     1
102
RTVSPost2010Prop57
140
1.0
102
RTVSPost2010PropOp57
 70
     1
102
RTVSPropertyOp0
 70
     1
102
RTVSPropertyOp1
 70
     1
102
RTVSPropertyOp2
 70
     1
102
RTVSPropertyOp3
 70
     1
102
RTVSPropertyOp4
 70
     1
102
RTVSPropertyOp5
 70
     1
102
RTVSPropertyOp6
 70
     1
102
RTVSPropertyOp7
 70
     1
102
RTVSPropertyOp8
 70
     1
102
RTVSPropertyOp9
 70
     1
102
RTVSPropertyOp10
 70
     1
102
RTVSPropertyOp11
 70
     1
102
RTVSPropertyOp12
 70
     1
102
RTVSPropertyOp13
 70
     1
102
RTVSPropertyOp14
 70
     1
102
RTVSPropertyOp15
 70
     1
102
RTVSPropertyOp16
 70
     1
102
RTVSPropertyOp17
 70
     1
102
RTVSPropertyOp18
 70
     1
102
RTVSPropertyOp19
 70
     1
102
RTVSPropertyOp20
 70
     1
102
RTVSPropertyOp21
 70
     1
102
RTVSPropertyOp22
 70
     1
102
RTVSPropertyOp23
 70
     1
102
RTVSPropertyOp24
 70
     1
102
RTVSPropertyOp25
 70
     1
102
RTVSPropertyOp26
 70
     1
102
RTVSPropertyOp27
 70
     1
102
RTVSPropertyOp28
 70
     1
102
RTVSPropertyOp29
 70
     1
102
RTVSPropertyOp30
 70
     1
102
RTVSPropertyOp31
 70
     1
102
RTVSPropertyOp32
 70
     1
102
RTVSPropertyOp33
 70
     1
102
RTVSPropertyOp34
 70
     1
102
RTVSPropertyOp35
 70
     1
102
RTVSPropertyOp36
 70
     1
102
RTVSPropertyOp37
 70
     1
102
RTVSPropertyOp38
 70
     1
102
RTVSPropertyOp39
 70
     1
102
RTVSPropertyOp40
 70
     1
102
RTVSPropertyOp41
 70
     1
102
RTVSPropertyOp42
 70
     1
102
RTVSPropertyOp43
 70
     1
102
RTVSPropertyOp44
 70
     1
102
RTVSPropertyOp45
 70
     1
102
RTVSPropertyOp46
 70
     1
102
RTVSPropertyOp47
 70
     1
102
RTVSPropertyOp48
 70
     1
102
RTVSPropertyOp49
 70
     1
102
RTVSPropertyOp50
 70
     1
102
RTVSPropertyOp51
 70
     0
102
RTVSPropertyOp52
 70
     0
102
RTVSPropertyOp53
 70
     1
102
RTVSPropertyOp54
 70
     1
102
RTVSPropertyOp55
 70
     1
102
RTVSPropertyOp56
 70
     1
102
RTVSPropertyOp57
 70
     1
102
RTVSPropertyOp58
 70
     1
102
RTVSPropertyOp59
 70
     1
102
RTVSPropertyOp60
 70
     1
102
RTVSPropertyOp61
 70
     1
102
RTVSPropertyOp62
 70
     1
  0
XRECORD
  5
1468
102
{ACAD_REACTORS
330
1467
102
}
330
1467
100
AcDbXrecord
280
     1
102
RTVSPost2010Prop28
280
     0
102
RTVSPost2010PropOp28
 70
     1
102
RTVSPost2010Prop29
280
     1
102
RTVSPost2010PropOp29
 70
     1
102
RTVSPost2010Prop30
280
     1
102
RTVSPost2010PropOp30
 70
     1
102
RTVSPost2010Prop31
280
     0
102
RTVSPost2010PropOp31
 70
     1
102
RTVSPost2010Prop32
280
     0
102
RTVSPost2010PropOp32
 70
     1
102
RTVSPost2010Prop33
280
     0
102
RTVSPost2010PropOp33
 70
     1
102
RTVSPost2010Prop34
280
     0
102
RTVSPost2010PropOp34
 70
     1
102
RTVSPost2010Prop35
280
     0
102
RTVSPost2010PropOp35
 70
     1
102
RTVSPost2010Prop36
280
     0
102
RTVSPost2010PropOp36
 70
     1
102
RTVSPost2010Prop37
 90
       50
102
RTVSPost2010PropOp37
 70
     1
102
RTVSPost2010Prop38
140
0.0
102
RTVSPost2010PropOp38
 70
     1
102
RTVSPost2010Prop39
140
1.0
102
RTVSPost2010PropOp39
 70
     1
102
RTVSPost2010Prop40
 90
        0
102
RTVSPost2010PropOp40
 70
     1
102
RTVSPost2010Prop41ColorIndex
 90
       18
102
RTVSPost2010Prop41ColorRGB
 90
        0
102
RTVSPost2010PropOp41
 70
     1
102
RTVSPost2010Prop42
 90
       50
102
RTVSPost2010PropOp42
 70
     1
102
RTVSPost2010Prop43
 90
        3
102
RTVSPost2010PropOp43
 70
     1
102
RTVSPost2010Prop44ColorIndex
 90
        5
102
RTVSPost2010Prop44ColorRGB
 90
      255
102
RTVSPost2010PropOp44
 70
     1
102
RTVSPost2010Prop45
280
     0
102
RTVSPost2010PropOp45
 70
     1
102
RTVSPost2010Prop46
 90
       50
102
RTVSPost2010PropOp46
 70
     1
102
RTVSPost2010Prop47
 90
       50
102
RTVSPost2010PropOp47
 70
     1
102
RTVSPost2010Prop48
 90
       50
102
RTVSPost2010PropOp48
 70
     1
102
RTVSPost2010Prop49
280
     0
102
RTVSPost2010PropOp49
 70
     1
102
RTVSPost2010Prop50
 90
       50
102
RTVSPost2010PropOp50
 70
     1
102
RTVSPost2010Prop51ColorIndex
 90
      256
102
RTVSPost2010Prop51ColorRGB
 90
-16777216
102
RTVSPost2010PropOp51
 70
     0
102
RTVSPost2010Prop52
140
1.0
102
RTVSPost2010PropOp52
 70
     0
102
RTVSPost2010Prop53
 90
        2
102
RTVSPost2010PropOp53
 70
     1
102
RTVSPost2010Prop54
  1
strokes_ogs.tif
102
RTVSPost2010PropOp54
 70
     1
102
RTVSPost2010Prop55
280
     0
102
RTVSPost2010PropOp55
 70
     1
102
RTVSPost2010Prop56
140
1.0
102
RTVSPost2010PropOp56
 70
     1
102
RTVSPost2010Prop57
140
1.0
102
RTVSPost2010PropOp57
 70
     1
102
RTVSPropertyOp0
 70
     1
102
RTVSPropertyOp1
 70
     1
102
RTVSPropertyOp2
 70
     1
102
RTVSPropertyOp3
 70
     1
102
RTVSPropertyOp4
 70
     1
102
RTVSPropertyOp5
 70
     1
102
RTVSPropertyOp6
 70
     1
102
RTVSPropertyOp7
 70
     1
102
RTVSPropertyOp8
 70
     1
102
RTVSPropertyOp9
 70
     1
102
RTVSPropertyOp10
 70
     1
102
RTVSPropertyOp11
 70
     1
102
RTVSPropertyOp12
 70
     1
102
RTVSPropertyOp13
 70
     1
102
RTVSPropertyOp14
 70
     1
102
RTVSPropertyOp15
 70
     1
102
RTVSPropertyOp16
 70
     1
102
RTVSPropertyOp17
 70
     1
102
RTVSPropertyOp18
 70
     1
102
RTVSPropertyOp19
 70
     1
102
RTVSPropertyOp20
 70
     1
102
RTVSPropertyOp21
 70
     1
102
RTVSPropertyOp22
 70
     1
102
RTVSPropertyOp23
 70
     1
102
RTVSPropertyOp24
 70
     1
102
RTVSPropertyOp25
 70
     1
102
RTVSPropertyOp26
 70
     1
102
RTVSPropertyOp27
 70
     1
102
RTVSPropertyOp28
 70
     1
102
RTVSPropertyOp29
 70
     1
102
RTVSPropertyOp30
 70
     1
102
RTVSPropertyOp31
 70
     1
102
RTVSPropertyOp32
 70
     1
102
RTVSPropertyOp33
 70
     1
102
RTVSPropertyOp34
 70
     1
102
RTVSPropertyOp35
 70
     1
102
RTVSPropertyOp36
 70
     1
102
RTVSPropertyOp37
 70
     1
102
RTVSPropertyOp38
 70
     1
102
RTVSPropertyOp39
 70
     1
102
RTVSPropertyOp40
 70
     1
102
RTVSPropertyOp41
 70
     1
102
RTVSPropertyOp42
 70
     1
102
RTVSPropertyOp43
 70
     1
102
RTVSPropertyOp44
 70
     1
102
RTVSPropertyOp45
 70
     1
102
RTVSPropertyOp46
 70
     1
102
RTVSPropertyOp47
 70
     1
102
RTVSPropertyOp48
 70
     1
102
RTVSPropertyOp49
 70
     1
102
RTVSPropertyOp50
 70
     1
102
RTVSPropertyOp51
 70
     0
102
RTVSPropertyOp52
 70
     0
102
RTVSPropertyOp53
 70
     1
102
RTVSPropertyOp54
 70
     1
102
RTVSPropertyOp55
 70
     1
102
RTVSPropertyOp56
 70
     1
102
RTVSPropertyOp57
 70
     1
102
RTVSPropertyOp58
 70
     1
102
RTVSPropertyOp59
 70
     1
102
RTVSPropertyOp60
 70
     1
102
RTVSPropertyOp61
 70
     1
102
RTVSPropertyOp62
 70
     1
  0
XRECORD
  5
146A
102
{ACAD_REACTORS
330
1469
102
}
330
1469
100
AcDbXrecord
280
     1
102
RTVSPost2010Prop28
280
     0
102
RTVSPost2010PropOp28
 70
     1
102
RTVSPost2010Prop29
280
     1
102
RTVSPost2010PropOp29
 70
     1
102
RTVSPost2010Prop30
280
     1
102
RTVSPost2010PropOp30
 70
     1
102
RTVSPost2010Prop31
280
     0
102
RTVSPost2010PropOp31
 70
     1
102
RTVSPost2010Prop32
280
     0
102
RTVSPost2010PropOp32
 70
     1
102
RTVSPost2010Prop33
280
     0
102
RTVSPost2010PropOp33
 70
     1
102
RTVSPost2010Prop34
280
     0
102
RTVSPost2010PropOp34
 70
     1
102
RTVSPost2010Prop35
280
     0
102
RTVSPost2010PropOp35
 70
     1
102
RTVSPost2010Prop36
280
     0
102
RTVSPost2010PropOp36
 70
     1
102
RTVSPost2010Prop37
 90
       50
102
RTVSPost2010PropOp37
 70
     1
102
RTVSPost2010Prop38
140
0.0
102
RTVSPost2010PropOp38
 70
     1
102
RTVSPost2010Prop39
140
1.0
102
RTVSPost2010PropOp39
 70
     1
102
RTVSPost2010Prop40
 90
        0
102
RTVSPost2010PropOp40
 70
     1
102
RTVSPost2010Prop41ColorIndex
 90
       18
102
RTVSPost2010Prop41ColorRGB
 90
        0
102
RTVSPost2010PropOp41
 70
     1
102
RTVSPost2010Prop42
 90
       50
102
RTVSPost2010PropOp42
 70
     1
102
RTVSPost2010Prop43
 90
        3
102
RTVSPost2010PropOp43
 70
     1
102
RTVSPost2010Prop44ColorIndex
 90
        5
102
RTVSPost2010Prop44ColorRGB
 90
      255
102
RTVSPost2010PropOp44
 70
     1
102
RTVSPost2010Prop45
280
     0
102
RTVSPost2010PropOp45
 70
     1
102
RTVSPost2010Prop46
 90
       50
102
RTVSPost2010PropOp46
 70
     1
102
RTVSPost2010Prop47
 90
       50
102
RTVSPost2010PropOp47
 70
     1
102
RTVSPost2010Prop48
 90
       50
102
RTVSPost2010PropOp48
 70
     1
102
RTVSPost2010Prop49
280
     0
102
RTVSPost2010PropOp49
 70
     1
102
RTVSPost2010Prop50
 90
       50
102
RTVSPost2010PropOp50
 70
     1
102
RTVSPost2010Prop51ColorIndex
 90
      256
102
RTVSPost2010Prop51ColorRGB
 90
-16777216
102
RTVSPost2010PropOp51
 70
     0
102
RTVSPost2010Prop52
140
1.0
102
RTVSPost2010PropOp52
 70
     0
102
RTVSPost2010Prop53
 90
        2
102
RTVSPost2010PropOp53
 70
     1
102
RTVSPost2010Prop54
  1
strokes_ogs.tif
102
RTVSPost2010PropOp54
 70
     1
102
RTVSPost2010Prop55
280
     0
102
RTVSPost2010PropOp55
 70
     1
102
RTVSPost2010Prop56
140
1.0
102
RTVSPost2010PropOp56
 70
     1
102
RTVSPost2010Prop57
140
1.0
102
RTVSPost2010PropOp57
 70
     1
102
RTVSPropertyOp0
 70
     1
102
RTVSPropertyOp1
 70
     1
102
RTVSPropertyOp2
 70
     1
102
RTVSPropertyOp3
 70
     1
102
RTVSPropertyOp4
 70
     1
102
RTVSPropertyOp5
 70
     1
102
RTVSPropertyOp6
 70
     1
102
RTVSPropertyOp7
 70
     1
102
RTVSPropertyOp8
 70
     1
102
RTVSPropertyOp9
 70
     1
102
RTVSPropertyOp10
 70
     1
102
RTVSPropertyOp11
 70
     1
102
RTVSPropertyOp12
 70
     1
102
RTVSPropertyOp13
 70
     1
102
RTVSPropertyOp14
 70
     1
102
RTVSPropertyOp15
 70
     1
102
RTVSPropertyOp16
 70
     1
102
RTVSPropertyOp17
 70
     1
102
RTVSPropertyOp18
 70
     1
102
RTVSPropertyOp19
 70
     1
102
RTVSPropertyOp20
 70
     1
102
RTVSPropertyOp21
 70
     1
102
RTVSPropertyOp22
 70
     1
102
RTVSPropertyOp23
 70
     1
102
RTVSPropertyOp24
 70
     1
102
RTVSPropertyOp25
 70
     1
102
RTVSPropertyOp26
 70
     1
102
RTVSPropertyOp27
 70
     1
102
RTVSPropertyOp28
 70
     1
102
RTVSPropertyOp29
 70
     1
102
RTVSPropertyOp30
 70
     1
102
RTVSPropertyOp31
 70
     1
102
RTVSPropertyOp32
 70
     1
102
RTVSPropertyOp33
 70
     1
102
RTVSPropertyOp34
 70
     1
102
RTVSPropertyOp35
 70
     1
102
RTVSPropertyOp36
 70
     1
102
RTVSPropertyOp37
 70
     1
102
RTVSPropertyOp38
 70
     1
102
RTVSPropertyOp39
 70
     1
102
RTVSPropertyOp40
 70
     1
102
RTVSPropertyOp41
 70
     1
102
RTVSPropertyOp42
 70
     1
102
RTVSPropertyOp43
 70
     1
102
RTVSPropertyOp44
 70
     1
102
RTVSPropertyOp45
 70
     1
102
RTVSPropertyOp46
 70
     1
102
RTVSPropertyOp47
 70
     1
102
RTVSPropertyOp48
 70
     1
102
RTVSPropertyOp49
 70
     1
102
RTVSPropertyOp50
 70
     1
102
RTVSPropertyOp51
 70
     0
102
RTVSPropertyOp52
 70
     0
102
RTVSPropertyOp53
 70
     1
102
RTVSPropertyOp54
 70
     1
102
RTVSPropertyOp55
 70
     1
102
RTVSPropertyOp56
 70
     1
102
RTVSPropertyOp57
 70
     1
102
RTVSPropertyOp58
 70
     1
102
RTVSPropertyOp59
 70
     1
102
RTVSPropertyOp60
 70
     1
102
RTVSPropertyOp61
 70
     1
102
RTVSPropertyOp62
 70
     1
  0
XRECORD
  5
146C
102
{ACAD_REACTORS
330
146B
102
}
330
146B
100
AcDbXrecord
280
     1
102
RTVSPost2010Prop28
280
     0
102
RTVSPost2010PropOp28
 70
     1
102
RTVSPost2010Prop29
280
     1
102
RTVSPost2010PropOp29
 70
     1
102
RTVSPost2010Prop30
280
     1
102
RTVSPost2010PropOp30
 70
     1
102
RTVSPost2010Prop31
280
     0
102
RTVSPost2010PropOp31
 70
     1
102
RTVSPost2010Prop32
280
     0
102
RTVSPost2010PropOp32
 70
     1
102
RTVSPost2010Prop33
280
     0
102
RTVSPost2010PropOp33
 70
     1
102
RTVSPost2010Prop34
280
     0
102
RTVSPost2010PropOp34
 70
     1
102
RTVSPost2010Prop35
280
     0
102
RTVSPost2010PropOp35
 70
     1
102
RTVSPost2010Prop36
280
     0
102
RTVSPost2010PropOp36
 70
     1
102
RTVSPost2010Prop37
 90
       50
102
RTVSPost2010PropOp37
 70
     1
102
RTVSPost2010Prop38
140
0.0
102
RTVSPost2010PropOp38
 70
     1
102
RTVSPost2010Prop39
140
1.0
102
RTVSPost2010PropOp39
 70
     1
102
RTVSPost2010Prop40
 90
        0
102
RTVSPost2010PropOp40
 70
     1
102
RTVSPost2010Prop41ColorIndex
 90
       18
102
RTVSPost2010Prop41ColorRGB
 90
        0
102
RTVSPost2010PropOp41
 70
     1
102
RTVSPost2010Prop42
 90
       50
102
RTVSPost2010PropOp42
 70
     1
102
RTVSPost2010Prop43
 90
        3
102
RTVSPost2010PropOp43
 70
     1
102
RTVSPost2010Prop44ColorIndex
 90
        5
102
RTVSPost2010Prop44ColorRGB
 90
      255
102
RTVSPost2010PropOp44
 70
     1
102
RTVSPost2010Prop45
280
     0
102
RTVSPost2010PropOp45
 70
     1
102
RTVSPost2010Prop46
 90
       50
102
RTVSPost2010PropOp46
 70
     1
102
RTVSPost2010Prop47
 90
       50
102
RTVSPost2010PropOp47
 70
     1
102
RTVSPost2010Prop48
 90
       50
102
RTVSPost2010PropOp48
 70
     1
102
RTVSPost2010Prop49
280
     0
102
RTVSPost2010PropOp49
 70
     1
102
RTVSPost2010Prop50
 90
       50
102
RTVSPost2010PropOp50
 70
     1
102
RTVSPost2010Prop51ColorIndex
 90
      256
102
RTVSPost2010Prop51ColorRGB
 90
-16777216
102
RTVSPost2010PropOp51
 70
     0
102
RTVSPost2010Prop52
140
1.0
102
RTVSPost2010PropOp52
 70
     0
102
RTVSPost2010Prop53
 90
        2
102
RTVSPost2010PropOp53
 70
     1
102
RTVSPost2010Prop54
  1
strokes_ogs.tif
102
RTVSPost2010PropOp54
 70
     1
102
RTVSPost2010Prop55
280
     0
102
RTVSPost2010PropOp55
 70
     1
102
RTVSPost2010Prop56
140
1.0
102
RTVSPost2010PropOp56
 70
     1
102
RTVSPost2010Prop57
140
1.0
102
RTVSPost2010PropOp57
 70
     1
102
RTVSPropertyOp0
 70
     1
102
RTVSPropertyOp1
 70
     1
102
RTVSPropertyOp2
 70
     1
102
RTVSPropertyOp3
 70
     1
102
RTVSPropertyOp4
 70
     1
102
RTVSPropertyOp5
 70
     1
102
RTVSPropertyOp6
 70
     1
102
RTVSPropertyOp7
 70
     1
102
RTVSPropertyOp8
 70
     1
102
RTVSPropertyOp9
 70
     1
102
RTVSPropertyOp10
 70
     1
102
RTVSPropertyOp11
 70
     1
102
RTVSPropertyOp12
 70
     1
102
RTVSPropertyOp13
 70
     1
102
RTVSPropertyOp14
 70
     1
102
RTVSPropertyOp15
 70
     1
102
RTVSPropertyOp16
 70
     1
102
RTVSPropertyOp17
 70
     1
102
RTVSPropertyOp18
 70
     1
102
RTVSPropertyOp19
 70
     1
102
RTVSPropertyOp20
 70
     1
102
RTVSPropertyOp21
 70
     1
102
RTVSPropertyOp22
 70
     1
102
RTVSPropertyOp23
 70
     1
102
RTVSPropertyOp24
 70
     1
102
RTVSPropertyOp25
 70
     1
102
RTVSPropertyOp26
 70
     1
102
RTVSPropertyOp27
 70
     1
102
RTVSPropertyOp28
 70
     1
102
RTVSPropertyOp29
 70
     1
102
RTVSPropertyOp30
 70
     1
102
RTVSPropertyOp31
 70
     1
102
RTVSPropertyOp32
 70
     1
102
RTVSPropertyOp33
 70
     1
102
RTVSPropertyOp34
 70
     1
102
RTVSPropertyOp35
 70
     1
102
RTVSPropertyOp36
 70
     1
102
RTVSPropertyOp37
 70
     1
102
RTVSPropertyOp38
 70
     1
102
RTVSPropertyOp39
 70
     1
102
RTVSPropertyOp40
 70
     1
102
RTVSPropertyOp41
 70
     1
102
RTVSPropertyOp42
 70
     1
102
RTVSPropertyOp43
 70
     1
102
RTVSPropertyOp44
 70
     1
102
RTVSPropertyOp45
 70
     1
102
RTVSPropertyOp46
 70
     1
102
RTVSPropertyOp47
 70
     1
102
RTVSPropertyOp48
 70
     1
102
RTVSPropertyOp49
 70
     1
102
RTVSPropertyOp50
 70
     1
102
RTVSPropertyOp51
 70
     0
102
RTVSPropertyOp52
 70
     0
102
RTVSPropertyOp53
 70
     1
102
RTVSPropertyOp54
 70
     1
102
RTVSPropertyOp55
 70
     1
102
RTVSPropertyOp56
 70
     1
102
RTVSPropertyOp57
 70
     1
102
RTVSPropertyOp58
 70
     1
102
RTVSPropertyOp59
 70
     1
102
RTVSPropertyOp60
 70
     1
102
RTVSPropertyOp61
 70
     1
102
RTVSPropertyOp62
 70
     1
  0
XRECORD
  5
1497
102
{ACAD_REACTORS
330
1496
102
}
330
1496
100
AcDbXrecord
280
     1
102
RTVSPost2010Prop28
280
     0
102
RTVSPost2010PropOp28
 70
     1
102
RTVSPost2010Prop29
280
     1
102
RTVSPost2010PropOp29
 70
     1
102
RTVSPost2010Prop30
280
     1
102
RTVSPost2010PropOp30
 70
     1
102
RTVSPost2010Prop31
280
     0
102
RTVSPost2010PropOp31
 70
     1
102
RTVSPost2010Prop32
280
     0
102
RTVSPost2010PropOp32
 70
     1
102
RTVSPost2010Prop33
280
     0
102
RTVSPost2010PropOp33
 70
     1
102
RTVSPost2010Prop34
280
     0
102
RTVSPost2010PropOp34
 70
     1
102
RTVSPost2010Prop35
280
     0
102
RTVSPost2010PropOp35
 70
     1
102
RTVSPost2010Prop36
280
     0
102
RTVSPost2010PropOp36
 70
     1
102
RTVSPost2010Prop37
 90
       50
102
RTVSPost2010PropOp37
 70
     1
102
RTVSPost2010Prop38
140
0.0
102
RTVSPost2010PropOp38
 70
     1
102
RTVSPost2010Prop39
140
1.0
102
RTVSPost2010PropOp39
 70
     1
102
RTVSPost2010Prop40
 90
        0
102
RTVSPost2010PropOp40
 70
     1
102
RTVSPost2010Prop41ColorIndex
 90
       18
102
RTVSPost2010Prop41ColorRGB
 90
        0
102
RTVSPost2010PropOp41
 70
     1
102
RTVSPost2010Prop42
 90
       50
102
RTVSPost2010PropOp42
 70
     1
102
RTVSPost2010Prop43
 90
        3
102
RTVSPost2010PropOp43
 70
     1
102
RTVSPost2010Prop44ColorIndex
 90
        5
102
RTVSPost2010Prop44ColorRGB
 90
      255
102
RTVSPost2010PropOp44
 70
     1
102
RTVSPost2010Prop45
280
     0
102
RTVSPost2010PropOp45
 70
     1
102
RTVSPost2010Prop46
 90
       50
102
RTVSPost2010PropOp46
 70
     1
102
RTVSPost2010Prop47
 90
       50
102
RTVSPost2010PropOp47
 70
     1
102
RTVSPost2010Prop48
 90
       50
102
RTVSPost2010PropOp48
 70
     1
102
RTVSPost2010Prop49
280
     0
102
RTVSPost2010PropOp49
 70
     1
102
RTVSPost2010Prop50
 90
       50
102
RTVSPost2010PropOp50
 70
     1
102
RTVSPost2010Prop51ColorIndex
 90
      256
102
RTVSPost2010Prop51ColorRGB
 90
-16777216
102
RTVSPost2010PropOp51
 70
     0
102
RTVSPost2010Prop52
140
1.0
102
RTVSPost2010PropOp52
 70
     0
102
RTVSPost2010Prop53
 90
        2
102
RTVSPost2010PropOp53
 70
     1
102
RTVSPost2010Prop54
  1
strokes_ogs.tif
102
RTVSPost2010PropOp54
 70
     1
102
RTVSPost2010Prop55
280
     0
102
RTVSPost2010PropOp55
 70
     1
102
RTVSPost2010Prop56
140
1.0
102
RTVSPost2010PropOp56
 70
     1
102
RTVSPost2010Prop57
140
1.0
102
RTVSPost2010PropOp57
 70
     1
102
RTVSPropertyOp0
 70
     1
102
RTVSPropertyOp1
 70
     1
102
RTVSPropertyOp2
 70
     1
102
RTVSPropertyOp3
 70
     1
102
RTVSPropertyOp4
 70
     1
102
RTVSPropertyOp5
 70
     1
102
RTVSPropertyOp6
 70
     1
102
RTVSPropertyOp7
 70
     1
102
RTVSPropertyOp8
 70
     1
102
RTVSPropertyOp9
 70
     1
102
RTVSPropertyOp10
 70
     1
102
RTVSPropertyOp11
 70
     1
102
RTVSPropertyOp12
 70
     1
102
RTVSPropertyOp13
 70
     1
102
RTVSPropertyOp14
 70
     1
102
RTVSPropertyOp15
 70
     1
102
RTVSPropertyOp16
 70
     1
102
RTVSPropertyOp17
 70
     1
102
RTVSPropertyOp18
 70
     1
102
RTVSPropertyOp19
 70
     1
102
RTVSPropertyOp20
 70
     1
102
RTVSPropertyOp21
 70
     1
102
RTVSPropertyOp22
 70
     1
102
RTVSPropertyOp23
 70
     1
102
RTVSPropertyOp24
 70
     1
102
RTVSPropertyOp25
 70
     1
102
RTVSPropertyOp26
 70
     1
102
RTVSPropertyOp27
 70
     1
102
RTVSPropertyOp28
 70
     1
102
RTVSPropertyOp29
 70
     1
102
RTVSPropertyOp30
 70
     1
102
RTVSPropertyOp31
 70
     1
102
RTVSPropertyOp32
 70
     1
102
RTVSPropertyOp33
 70
     1
102
RTVSPropertyOp34
 70
     1
102
RTVSPropertyOp35
 70
     1
102
RTVSPropertyOp36
 70
     1
102
RTVSPropertyOp37
 70
     1
102
RTVSPropertyOp38
 70
     1
102
RTVSPropertyOp39
 70
     1
102
RTVSPropertyOp40
 70
     1
102
RTVSPropertyOp41
 70
     1
102
RTVSPropertyOp42
 70
     1
102
RTVSPropertyOp43
 70
     1
102
RTVSPropertyOp44
 70
     1
102
RTVSPropertyOp45
 70
     1
102
RTVSPropertyOp46
 70
     1
102
RTVSPropertyOp47
 70
     1
102
RTVSPropertyOp48
 70
     1
102
RTVSPropertyOp49
 70
     1
102
RTVSPropertyOp50
 70
     1
102
RTVSPropertyOp51
 70
     0
102
RTVSPropertyOp52
 70
     0
102
RTVSPropertyOp53
 70
     1
102
RTVSPropertyOp54
 70
     1
102
RTVSPropertyOp55
 70
     1
102
RTVSPropertyOp56
 70
     1
102
RTVSPropertyOp57
 70
     1
102
RTVSPropertyOp58
 70
     1
102
RTVSPropertyOp59
 70
     1
102
RTVSPropertyOp60
 70
     1
102
RTVSPropertyOp61
 70
     1
102
RTVSPropertyOp62
 70
     1
  0
XRECORD
  5
148F
102
{ACAD_REACTORS
330
148E
102
}
330
148E
100
AcDbXrecord
280
     1
102
RTVSPost2010Prop28
280
     0
102
RTVSPost2010PropOp28
 70
     1
102
RTVSPost2010Prop29
280
     1
102
RTVSPost2010PropOp29
 70
     1
102
RTVSPost2010Prop30
280
     1
102
RTVSPost2010PropOp30
 70
     1
102
RTVSPost2010Prop31
280
     0
102
RTVSPost2010PropOp31
 70
     1
102
RTVSPost2010Prop32
280
     0
102
RTVSPost2010PropOp32
 70
     1
102
RTVSPost2010Prop33
280
     0
102
RTVSPost2010PropOp33
 70
     1
102
RTVSPost2010Prop34
280
     0
102
RTVSPost2010PropOp34
 70
     1
102
RTVSPost2010Prop35
280
     0
102
RTVSPost2010PropOp35
 70
     1
102
RTVSPost2010Prop36
280
     0
102
RTVSPost2010PropOp36
 70
     1
102
RTVSPost2010Prop37
 90
       50
102
RTVSPost2010PropOp37
 70
     1
102
RTVSPost2010Prop38
140
0.0
102
RTVSPost2010PropOp38
 70
     1
102
RTVSPost2010Prop39
140
1.0
102
RTVSPost2010PropOp39
 70
     1
102
RTVSPost2010Prop40
 90
        0
102
RTVSPost2010PropOp40
 70
     1
102
RTVSPost2010Prop41ColorIndex
 90
       18
102
RTVSPost2010Prop41ColorRGB
 90
        0
102
RTVSPost2010PropOp41
 70
     1
102
RTVSPost2010Prop42
 90
       50
102
RTVSPost2010PropOp42
 70
     1
102
RTVSPost2010Prop43
 90
        3
102
RTVSPost2010PropOp43
 70
     1
102
RTVSPost2010Prop44ColorIndex
 90
        5
102
RTVSPost2010Prop44ColorRGB
 90
      255
102
RTVSPost2010PropOp44
 70
     1
102
RTVSPost2010Prop45
280
     0
102
RTVSPost2010PropOp45
 70
     1
102
RTVSPost2010Prop46
 90
       50
102
RTVSPost2010PropOp46
 70
     1
102
RTVSPost2010Prop47
 90
       50
102
RTVSPost2010PropOp47
 70
     1
102
RTVSPost2010Prop48
 90
       50
102
RTVSPost2010PropOp48
 70
     1
102
RTVSPost2010Prop49
280
     0
102
RTVSPost2010PropOp49
 70
     1
102
RTVSPost2010Prop50
 90
       50
102
RTVSPost2010PropOp50
 70
     1
102
RTVSPost2010Prop51ColorIndex
 90
      256
102
RTVSPost2010Prop51ColorRGB
 90
-16777216
102
RTVSPost2010PropOp51
 70
     0
102
RTVSPost2010Prop52
140
1.0
102
RTVSPost2010PropOp52
 70
     0
102
RTVSPost2010Prop53
 90
        2
102
RTVSPost2010PropOp53
 70
     1
102
RTVSPost2010Prop54
  1
strokes_ogs.tif
102
RTVSPost2010PropOp54
 70
     1
102
RTVSPost2010Prop55
280
     0
102
RTVSPost2010PropOp55
 70
     1
102
RTVSPost2010Prop56
140
1.0
102
RTVSPost2010PropOp56
 70
     1
102
RTVSPost2010Prop57
140
1.0
102
RTVSPost2010PropOp57
 70
     1
102
RTVSPropertyOp0
 70
     0
102
RTVSPropertyOp1
 70
     0
102
RTVSPropertyOp2
 70
     0
102
RTVSPropertyOp3
 70
     0
102
RTVSPropertyOp4
 70
     0
102
RTVSPropertyOp5
 70
     0
102
RTVSPropertyOp6
 70
     0
102
RTVSPropertyOp7
 70
     0
102
RTVSPropertyOp8
 70
     0
102
RTVSPropertyOp9
 70
     0
102
RTVSPropertyOp10
 70
     0
102
RTVSPropertyOp11
 70
     0
102
RTVSPropertyOp12
 70
     0
102
RTVSPropertyOp13
 70
     0
102
RTVSPropertyOp14
 70
     2
102
RTVSPropertyOp15
 70
     0
102
RTVSPropertyOp16
 70
     0
102
RTVSPropertyOp17
 70
     0
102
RTVSPropertyOp18
 70
     0
102
RTVSPropertyOp19
 70
     0
102
RTVSPropertyOp20
 70
     0
102
RTVSPropertyOp21
 70
     0
102
RTVSPropertyOp22
 70
     0
102
RTVSPropertyOp23
 70
     0
102
RTVSPropertyOp24
 70
     0
102
RTVSPropertyOp25
 70
     0
102
RTVSPropertyOp26
 70
     0
102
RTVSPropertyOp27
 70
     0
102
RTVSPropertyOp28
 70
     1
102
RTVSPropertyOp29
 70
     1
102
RTVSPropertyOp30
 70
     1
102
RTVSPropertyOp31
 70
     1
102
RTVSPropertyOp32
 70
     1
102
RTVSPropertyOp33
 70
     1
102
RTVSPropertyOp34
 70
     1
102
RTVSPropertyOp35
 70
     1
102
RTVSPropertyOp36
 70
     1
102
RTVSPropertyOp37
 70
     1
102
RTVSPropertyOp38
 70
     1
102
RTVSPropertyOp39
 70
     1
102
RTVSPropertyOp40
 70
     1
102
RTVSPropertyOp41
 70
     1
102
RTVSPropertyOp42
 70
     1
102
RTVSPropertyOp43
 70
     1
102
RTVSPropertyOp44
 70
     1
102
RTVSPropertyOp45
 70
     1
102
RTVSPropertyOp46
 70
     1
102
RTVSPropertyOp47
 70
     1
102
RTVSPropertyOp48
 70
     1
102
RTVSPropertyOp49
 70
     1
102
RTVSPropertyOp50
 70
     1
102
RTVSPropertyOp51
 70
     0
102
RTVSPropertyOp52
 70
     0
102
RTVSPropertyOp53
 70
     1
102
RTVSPropertyOp54
 70
     1
102
RTVSPropertyOp55
 70
     1
102
RTVSPropertyOp56
 70
     1
102
RTVSPropertyOp57
 70
     1
102
RTVSPropertyOp58
 70
     1
102
RTVSPropertyOp59
 70
     1
102
RTVSPropertyOp60
 70
     1
102
RTVSPropertyOp61
 70
     1
102
RTVSPropertyOp62
 70
     1
  0
XRECORD
  5
1480
102
{ACAD_REACTORS
330
147F
102
}
330
147F
100
AcDbXrecord
280
     1
102
RTVSPost2010Prop28
280
     0
102
RTVSPost2010PropOp28
 70
     1
102
RTVSPost2010Prop29
280
     1
102
RTVSPost2010PropOp29
 70
     1
102
RTVSPost2010Prop30
280
     1
102
RTVSPost2010PropOp30
 70
     1
102
RTVSPost2010Prop31
280
     0
102
RTVSPost2010PropOp31
 70
     1
102
RTVSPost2010Prop32
280
     0
102
RTVSPost2010PropOp32
 70
     1
102
RTVSPost2010Prop33
280
     0
102
RTVSPost2010PropOp33
 70
     1
102
RTVSPost2010Prop34
280
     0
102
RTVSPost2010PropOp34
 70
     1
102
RTVSPost2010Prop35
280
     0
102
RTVSPost2010PropOp35
 70
     1
102
RTVSPost2010Prop36
280
     0
102
RTVSPost2010PropOp36
 70
     1
102
RTVSPost2010Prop37
 90
       50
102
RTVSPost2010PropOp37
 70
     1
102
RTVSPost2010Prop38
140
0.0
102
RTVSPost2010PropOp38
 70
     1
102
RTVSPost2010Prop39
140
1.0
102
RTVSPost2010PropOp39
 70
     1
102
RTVSPost2010Prop40
 90
        0
102
RTVSPost2010PropOp40
 70
     1
102
RTVSPost2010Prop41ColorIndex
 90
       18
102
RTVSPost2010Prop41ColorRGB
 90
        0
102
RTVSPost2010PropOp41
 70
     1
102
RTVSPost2010Prop42
 90
       50
102
RTVSPost2010PropOp42
 70
     1
102
RTVSPost2010Prop43
 90
        3
102
RTVSPost2010PropOp43
 70
     1
102
RTVSPost2010Prop44ColorIndex
 90
        5
102
RTVSPost2010Prop44ColorRGB
 90
      255
102
RTVSPost2010PropOp44
 70
     1
102
RTVSPost2010Prop45
280
     0
102
RTVSPost2010PropOp45
 70
     1
102
RTVSPost2010Prop46
 90
       50
102
RTVSPost2010PropOp46
 70
     1
102
RTVSPost2010Prop47
 90
       50
102
RTVSPost2010PropOp47
 70
     1
102
RTVSPost2010Prop48
 90
       50
102
RTVSPost2010PropOp48
 70
     1
102
RTVSPost2010Prop49
280
     0
102
RTVSPost2010PropOp49
 70
     1
102
RTVSPost2010Prop50
 90
       50
102
RTVSPost2010PropOp50
 70
     1
102
RTVSPost2010Prop51ColorIndex
 90
      256
102
RTVSPost2010Prop51ColorRGB
 90
-16777216
102
RTVSPost2010PropOp51
 70
     0
102
RTVSPost2010Prop52
140
1.0
102
RTVSPost2010PropOp52
 70
     0
102
RTVSPost2010Prop53
 90
        2
102
RTVSPost2010PropOp53
 70
     1
102
RTVSPost2010Prop54
  1
strokes_ogs.tif
102
RTVSPost2010PropOp54
 70
     1
102
RTVSPost2010Prop55
280
     0
102
RTVSPost2010PropOp55
 70
     1
102
RTVSPost2010Prop56
140
1.0
102
RTVSPost2010PropOp56
 70
     1
102
RTVSPost2010Prop57
140
1.0
102
RTVSPost2010PropOp57
 70
     1
102
RTVSPropertyOp0
 70
     1
102
RTVSPropertyOp1
 70
     1
102
RTVSPropertyOp2
 70
     1
102
RTVSPropertyOp3
 70
     1
102
RTVSPropertyOp4
 70
     1
102
RTVSPropertyOp5
 70
     1
102
RTVSPropertyOp6
 70
     1
102
RTVSPropertyOp7
 70
     1
102
RTVSPropertyOp8
 70
     1
102
RTVSPropertyOp9
 70
     1
102
RTVSPropertyOp10
 70
     1
102
RTVSPropertyOp11
 70
     1
102
RTVSPropertyOp12
 70
     1
102
RTVSPropertyOp13
 70
     1
102
RTVSPropertyOp14
 70
     1
102
RTVSPropertyOp15
 70
     1
102
RTVSPropertyOp16
 70
     1
102
RTVSPropertyOp17
 70
     1
102
RTVSPropertyOp18
 70
     1
102
RTVSPropertyOp19
 70
     1
102
RTVSPropertyOp20
 70
     1
102
RTVSPropertyOp21
 70
     1
102
RTVSPropertyOp22
 70
     1
102
RTVSPropertyOp23
 70
     1
102
RTVSPropertyOp24
 70
     1
102
RTVSPropertyOp25
 70
     1
102
RTVSPropertyOp26
 70
     1
102
RTVSPropertyOp27
 70
     1
102
RTVSPropertyOp28
 70
     1
102
RTVSPropertyOp29
 70
     1
102
RTVSPropertyOp30
 70
     1
102
RTVSPropertyOp31
 70
     1
102
RTVSPropertyOp32
 70
     1
102
RTVSPropertyOp33
 70
     1
102
RTVSPropertyOp34
 70
     1
102
RTVSPropertyOp35
 70
     1
102
RTVSPropertyOp36
 70
     1
102
RTVSPropertyOp37
 70
     1
102
RTVSPropertyOp38
 70
     1
102
RTVSPropertyOp39
 70
     1
102
RTVSPropertyOp40
 70
     1
102
RTVSPropertyOp41
 70
     1
102
RTVSPropertyOp42
 70
     1
102
RTVSPropertyOp43
 70
     1
102
RTVSPropertyOp44
 70
     1
102
RTVSPropertyOp45
 70
     1
102
RTVSPropertyOp46
 70
     1
102
RTVSPropertyOp47
 70
     1
102
RTVSPropertyOp48
 70
     1
102
RTVSPropertyOp49
 70
     1
102
RTVSPropertyOp50
 70
     1
102
RTVSPropertyOp51
 70
     0
102
RTVSPropertyOp52
 70
     0
102
RTVSPropertyOp53
 70
     1
102
RTVSPropertyOp54
 70
     1
102
RTVSPropertyOp55
 70
     1
102
RTVSPropertyOp56
 70
     1
102
RTVSPropertyOp57
 70
     1
102
RTVSPropertyOp58
 70
     1
102
RTVSPropertyOp59
 70
     1
102
RTVSPropertyOp60
 70
     1
102
RTVSPropertyOp61
 70
     1
102
RTVSPropertyOp62
 70
     1
  0
XRECORD
  5
1491
102
{ACAD_REACTORS
330
1490
102
}
330
1490
100
AcDbXrecord
280
     1
102
RTVSPost2010Prop28
280
     0
102
RTVSPost2010PropOp28
 70
     1
102
RTVSPost2010Prop29
280
     1
102
RTVSPost2010PropOp29
 70
     1
102
RTVSPost2010Prop30
280
     1
102
RTVSPost2010PropOp30
 70
     1
102
RTVSPost2010Prop31
280
     0
102
RTVSPost2010PropOp31
 70
     1
102
RTVSPost2010Prop32
280
     0
102
RTVSPost2010PropOp32
 70
     1
102
RTVSPost2010Prop33
280
     0
102
RTVSPost2010PropOp33
 70
     1
102
RTVSPost2010Prop34
280
     0
102
RTVSPost2010PropOp34
 70
     1
102
RTVSPost2010Prop35
280
     0
102
RTVSPost2010PropOp35
 70
     1
102
RTVSPost2010Prop36
280
     0
102
RTVSPost2010PropOp36
 70
     1
102
RTVSPost2010Prop37
 90
       50
102
RTVSPost2010PropOp37
 70
     1
102
RTVSPost2010Prop38
140
0.0
102
RTVSPost2010PropOp38
 70
     1
102
RTVSPost2010Prop39
140
1.0
102
RTVSPost2010PropOp39
 70
     1
102
RTVSPost2010Prop40
 90
        0
102
RTVSPost2010PropOp40
 70
     1
102
RTVSPost2010Prop41ColorIndex
 90
       18
102
RTVSPost2010Prop41ColorRGB
 90
        0
102
RTVSPost2010PropOp41
 70
     1
102
RTVSPost2010Prop42
 90
       50
102
RTVSPost2010PropOp42
 70
     1
102
RTVSPost2010Prop43
 90
        3
102
RTVSPost2010PropOp43
 70
     1
102
RTVSPost2010Prop44ColorIndex
 90
        5
102
RTVSPost2010Prop44ColorRGB
 90
      255
102
RTVSPost2010PropOp44
 70
     1
102
RTVSPost2010Prop45
280
     0
102
RTVSPost2010PropOp45
 70
     1
102
RTVSPost2010Prop46
 90
       50
102
RTVSPost2010PropOp46
 70
     1
102
RTVSPost2010Prop47
 90
       50
102
RTVSPost2010PropOp47
 70
     1
102
RTVSPost2010Prop48
 90
       50
102
RTVSPost2010PropOp48
 70
     1
102
RTVSPost2010Prop49
280
     0
102
RTVSPost2010PropOp49
 70
     1
102
RTVSPost2010Prop50
 90
       50
102
RTVSPost2010PropOp50
 70
     1
102
RTVSPost2010Prop51ColorIndex
 90
      256
102
RTVSPost2010Prop51ColorRGB
 90
-16777216
102
RTVSPost2010PropOp51
 70
     0
102
RTVSPost2010Prop52
140
1.0
102
RTVSPost2010PropOp52
 70
     0
102
RTVSPost2010Prop53
 90
        2
102
RTVSPost2010PropOp53
 70
     1
102
RTVSPost2010Prop54
  1
strokes_ogs.tif
102
RTVSPost2010PropOp54
 70
     1
102
RTVSPost2010Prop55
280
     0
102
RTVSPost2010PropOp55
 70
     1
102
RTVSPost2010Prop56
140
1.0
102
RTVSPost2010PropOp56
 70
     1
102
RTVSPost2010Prop57
140
1.0
102
RTVSPost2010PropOp57
 70
     1
102
RTVSPropertyOp0
 70
     0
102
RTVSPropertyOp1
 70
     0
102
RTVSPropertyOp2
 70
     0
102
RTVSPropertyOp3
 70
     0
102
RTVSPropertyOp4
 70
     0
102
RTVSPropertyOp5
 70
     0
102
RTVSPropertyOp6
 70
     0
102
RTVSPropertyOp7
 70
     0
102
RTVSPropertyOp8
 70
     0
102
RTVSPropertyOp9
 70
     0
102
RTVSPropertyOp10
 70
     0
102
RTVSPropertyOp11
 70
     0
102
RTVSPropertyOp12
 70
     0
102
RTVSPropertyOp13
 70
     0
102
RTVSPropertyOp14
 70
     2
102
RTVSPropertyOp15
 70
     0
102
RTVSPropertyOp16
 70
     0
102
RTVSPropertyOp17
 70
     0
102
RTVSPropertyOp18
 70
     0
102
RTVSPropertyOp19
 70
     0
102
RTVSPropertyOp20
 70
     0
102
RTVSPropertyOp21
 70
     0
102
RTVSPropertyOp22
 70
     0
102
RTVSPropertyOp23
 70
     0
102
RTVSPropertyOp24
 70
     0
102
RTVSPropertyOp25
 70
     0
102
RTVSPropertyOp26
 70
     0
102
RTVSPropertyOp27
 70
     0
102
RTVSPropertyOp28
 70
     1
102
RTVSPropertyOp29
 70
     1
102
RTVSPropertyOp30
 70
     1
102
RTVSPropertyOp31
 70
     1
102
RTVSPropertyOp32
 70
     1
102
RTVSPropertyOp33
 70
     1
102
RTVSPropertyOp34
 70
     1
102
RTVSPropertyOp35
 70
     1
102
RTVSPropertyOp36
 70
     1
102
RTVSPropertyOp37
 70
     1
102
RTVSPropertyOp38
 70
     1
102
RTVSPropertyOp39
 70
     1
102
RTVSPropertyOp40
 70
     1
102
RTVSPropertyOp41
 70
     1
102
RTVSPropertyOp42
 70
     1
102
RTVSPropertyOp43
 70
     1
102
RTVSPropertyOp44
 70
     1
102
RTVSPropertyOp45
 70
     1
102
RTVSPropertyOp46
 70
     1
102
RTVSPropertyOp47
 70
     1
102
RTVSPropertyOp48
 70
     1
102
RTVSPropertyOp49
 70
     1
102
RTVSPropertyOp50
 70
     1
102
RTVSPropertyOp51
 70
     0
102
RTVSPropertyOp52
 70
     0
102
RTVSPropertyOp53
 70
     1
102
RTVSPropertyOp54
 70
     1
102
RTVSPropertyOp55
 70
     1
102
RTVSPropertyOp56
 70
     1
102
RTVSPropertyOp57
 70
     1
102
RTVSPropertyOp58
 70
     1
102
RTVSPropertyOp59
 70
     1
102
RTVSPropertyOp60
 70
     1
102
RTVSPropertyOp61
 70
     1
102
RTVSPropertyOp62
 70
     1
  0
XRECORD
  5
1478
102
{ACAD_REACTORS
330
1477
102
}
330
1477
100
AcDbXrecord
280
     1
102
RTVSPost2010Prop28
280
     0
102
RTVSPost2010PropOp28
 70
     1
102
RTVSPost2010Prop29
280
     1
102
RTVSPost2010PropOp29
 70
     1
102
RTVSPost2010Prop30
280
     1
102
RTVSPost2010PropOp30
 70
     1
102
RTVSPost2010Prop31
280
     0
102
RTVSPost2010PropOp31
 70
     1
102
RTVSPost2010Prop32
280
     0
102
RTVSPost2010PropOp32
 70
     1
102
RTVSPost2010Prop33
280
     0
102
RTVSPost2010PropOp33
 70
     1
102
RTVSPost2010Prop34
280
     0
102
RTVSPost2010PropOp34
 70
     1
102
RTVSPost2010Prop35
280
     0
102
RTVSPost2010PropOp35
 70
     1
102
RTVSPost2010Prop36
280
     0
102
RTVSPost2010PropOp36
 70
     1
102
RTVSPost2010Prop37
 90
       50
102
RTVSPost2010PropOp37
 70
     1
102
RTVSPost2010Prop38
140
0.0
102
RTVSPost2010PropOp38
 70
     1
102
RTVSPost2010Prop39
140
1.0
102
RTVSPost2010PropOp39
 70
     1
102
RTVSPost2010Prop40
 90
        0
102
RTVSPost2010PropOp40
 70
     1
102
RTVSPost2010Prop41ColorIndex
 90
       18
102
RTVSPost2010Prop41ColorRGB
 90
        0
102
RTVSPost2010PropOp41
 70
     1
102
RTVSPost2010Prop42
 90
       50
102
RTVSPost2010PropOp42
 70
     1
102
RTVSPost2010Prop43
 90
        3
102
RTVSPost2010PropOp43
 70
     1
102
RTVSPost2010Prop44ColorIndex
 90
        5
102
RTVSPost2010Prop44ColorRGB
 90
      255
102
RTVSPost2010PropOp44
 70
     1
102
RTVSPost2010Prop45
280
     0
102
RTVSPost2010PropOp45
 70
     1
102
RTVSPost2010Prop46
 90
       50
102
RTVSPost2010PropOp46
 70
     1
102
RTVSPost2010Prop47
 90
       50
102
RTVSPost2010PropOp47
 70
     1
102
RTVSPost2010Prop48
 90
       50
102
RTVSPost2010PropOp48
 70
     1
102
RTVSPost2010Prop49
280
     0
102
RTVSPost2010PropOp49
 70
     1
102
RTVSPost2010Prop50
 90
       50
102
RTVSPost2010PropOp50
 70
     1
102
RTVSPost2010Prop51ColorIndex
 90
      256
102
RTVSPost2010Prop51ColorRGB
 90
-16777216
102
RTVSPost2010PropOp51
 70
     0
102
RTVSPost2010Prop52
140
1.0
102
RTVSPost2010PropOp52
 70
     0
102
RTVSPost2010Prop53
 90
        2
102
RTVSPost2010PropOp53
 70
     1
102
RTVSPost2010Prop54
  1
strokes_ogs.tif
102
RTVSPost2010PropOp54
 70
     1
102
RTVSPost2010Prop55
280
     0
102
RTVSPost2010PropOp55
 70
     1
102
RTVSPost2010Prop56
140
1.0
102
RTVSPost2010PropOp56
 70
     1
102
RTVSPost2010Prop57
140
1.0
102
RTVSPost2010PropOp57
 70
     1
102
RTVSPropertyOp0
 70
     1
102
RTVSPropertyOp1
 70
     1
102
RTVSPropertyOp2
 70
     1
102
RTVSPropertyOp3
 70
     1
102
RTVSPropertyOp4
 70
     1
102
RTVSPropertyOp5
 70
     1
102
RTVSPropertyOp6
 70
     1
102
RTVSPropertyOp7
 70
     1
102
RTVSPropertyOp8
 70
     1
102
RTVSPropertyOp9
 70
     1
102
RTVSPropertyOp10
 70
     1
102
RTVSPropertyOp11
 70
     1
102
RTVSPropertyOp12
 70
     1
102
RTVSPropertyOp13
 70
     1
102
RTVSPropertyOp14
 70
     1
102
RTVSPropertyOp15
 70
     1
102
RTVSPropertyOp16
 70
     1
102
RTVSPropertyOp17
 70
     1
102
RTVSPropertyOp18
 70
     1
102
RTVSPropertyOp19
 70
     1
102
RTVSPropertyOp20
 70
     1
102
RTVSPropertyOp21
 70
     1
102
RTVSPropertyOp22
 70
     1
102
RTVSPropertyOp23
 70
     1
102
RTVSPropertyOp24
 70
     1
102
RTVSPropertyOp25
 70
     1
102
RTVSPropertyOp26
 70
     1
102
RTVSPropertyOp27
 70
     1
102
RTVSPropertyOp28
 70
     1
102
RTVSPropertyOp29
 70
     1
102
RTVSPropertyOp30
 70
     1
102
RTVSPropertyOp31
 70
     1
102
RTVSPropertyOp32
 70
     1
102
RTVSPropertyOp33
 70
     1
102
RTVSPropertyOp34
 70
     1
102
RTVSPropertyOp35
 70
     1
102
RTVSPropertyOp36
 70
     1
102
RTVSPropertyOp37
 70
     1
102
RTVSPropertyOp38
 70
     1
102
RTVSPropertyOp39
 70
     1
102
RTVSPropertyOp40
 70
     1
102
RTVSPropertyOp41
 70
     1
102
RTVSPropertyOp42
 70
     1
102
RTVSPropertyOp43
 70
     1
102
RTVSPropertyOp44
 70
     1
102
RTVSPropertyOp45
 70
     1
102
RTVSPropertyOp46
 70
     1
102
RTVSPropertyOp47
 70
     1
102
RTVSPropertyOp48
 70
     1
102
RTVSPropertyOp49
 70
     1
102
RTVSPropertyOp50
 70
     1
102
RTVSPropertyOp51
 70
     0
102
RTVSPropertyOp52
 70
     0
102
RTVSPropertyOp53
 70
     1
102
RTVSPropertyOp54
 70
     1
102
RTVSPropertyOp55
 70
     1
102
RTVSPropertyOp56
 70
     1
102
RTVSPropertyOp57
 70
     1
102
RTVSPropertyOp58
 70
     1
102
RTVSPropertyOp59
 70
     1
102
RTVSPropertyOp60
 70
     1
102
RTVSPropertyOp61
 70
     1
102
RTVSPropertyOp62
 70
     1
  0
XRECORD
  5
14A1
102
{ACAD_REACTORS
330
14A0
102
}
330
14A0
100
AcDbXrecord
280
     1
102
RTVSPost2010Prop28
280
     0
102
RTVSPost2010PropOp28
 70
     1
102
RTVSPost2010Prop29
280
     1
102
RTVSPost2010PropOp29
 70
     1
102
RTVSPost2010Prop30
280
     1
102
RTVSPost2010PropOp30
 70
     1
102
RTVSPost2010Prop31
280
     0
102
RTVSPost2010PropOp31
 70
     1
102
RTVSPost2010Prop32
280
     0
102
RTVSPost2010PropOp32
 70
     1
102
RTVSPost2010Prop33
280
     0
102
RTVSPost2010PropOp33
 70
     1
102
RTVSPost2010Prop34
280
     0
102
RTVSPost2010PropOp34
 70
     1
102
RTVSPost2010Prop35
280
     0
102
RTVSPost2010PropOp35
 70
     1
102
RTVSPost2010Prop36
280
     0
102
RTVSPost2010PropOp36
 70
     1
102
RTVSPost2010Prop37
 90
       50
102
RTVSPost2010PropOp37
 70
     1
102
RTVSPost2010Prop38
140
0.0
102
RTVSPost2010PropOp38
 70
     1
102
RTVSPost2010Prop39
140
1.0
102
RTVSPost2010PropOp39
 70
     1
102
RTVSPost2010Prop40
 90
        0
102
RTVSPost2010PropOp40
 70
     1
102
RTVSPost2010Prop41ColorIndex
 90
       18
102
RTVSPost2010Prop41ColorRGB
 90
        0
102
RTVSPost2010PropOp41
 70
     1
102
RTVSPost2010Prop42
 90
       50
102
RTVSPost2010PropOp42
 70
     1
102
RTVSPost2010Prop43
 90
        3
102
RTVSPost2010PropOp43
 70
     1
102
RTVSPost2010Prop44ColorIndex
 90
        5
102
RTVSPost2010Prop44ColorRGB
 90
      255
102
RTVSPost2010PropOp44
 70
     1
102
RTVSPost2010Prop45
280
     0
102
RTVSPost2010PropOp45
 70
     1
102
RTVSPost2010Prop46
 90
       50
102
RTVSPost2010PropOp46
 70
     1
102
RTVSPost2010Prop47
 90
       50
102
RTVSPost2010PropOp47
 70
     1
102
RTVSPost2010Prop48
 90
       50
102
RTVSPost2010PropOp48
 70
     1
102
RTVSPost2010Prop49
280
     0
102
RTVSPost2010PropOp49
 70
     1
102
RTVSPost2010Prop50
 90
       50
102
RTVSPost2010PropOp50
 70
     1
102
RTVSPost2010Prop51ColorIndex
 90
      256
102
RTVSPost2010Prop51ColorRGB
 90
-16777216
102
RTVSPost2010PropOp51
 70
     0
102
RTVSPost2010Prop52
140
1.0
102
RTVSPost2010PropOp52
 70
     0
102
RTVSPost2010Prop53
 90
        2
102
RTVSPost2010PropOp53
 70
     1
102
RTVSPost2010Prop54
  1
strokes_ogs.tif
102
RTVSPost2010PropOp54
 70
     1
102
RTVSPost2010Prop55
280
     0
102
RTVSPost2010PropOp55
 70
     1
102
RTVSPost2010Prop56
140
1.0
102
RTVSPost2010PropOp56
 70
     1
102
RTVSPost2010Prop57
140
1.0
102
RTVSPost2010PropOp57
 70
     1
102
RTVSPropertyOp0
 70
     1
102
RTVSPropertyOp1
 70
     1
102
RTVSPropertyOp2
 70
     1
102
RTVSPropertyOp3
 70
     1
102
RTVSPropertyOp4
 70
     1
102
RTVSPropertyOp5
 70
     1
102
RTVSPropertyOp6
 70
     1
102
RTVSPropertyOp7
 70
     1
102
RTVSPropertyOp8
 70
     1
102
RTVSPropertyOp9
 70
     1
102
RTVSPropertyOp10
 70
     1
102
RTVSPropertyOp11
 70
     1
102
RTVSPropertyOp12
 70
     1
102
RTVSPropertyOp13
 70
     1
102
RTVSPropertyOp14
 70
     1
102
RTVSPropertyOp15
 70
     1
102
RTVSPropertyOp16
 70
     1
102
RTVSPropertyOp17
 70
     1
102
RTVSPropertyOp18
 70
     1
102
RTVSPropertyOp19
 70
     1
102
RTVSPropertyOp20
 70
     1
102
RTVSPropertyOp21
 70
     1
102
RTVSPropertyOp22
 70
     1
102
RTVSPropertyOp23
 70
     1
102
RTVSPropertyOp24
 70
     1
102
RTVSPropertyOp25
 70
     1
102
RTVSPropertyOp26
 70
     1
102
RTVSPropertyOp27
 70
     1
102
RTVSPropertyOp28
 70
     1
102
RTVSPropertyOp29
 70
     1
102
RTVSPropertyOp30
 70
     1
102
RTVSPropertyOp31
 70
     1
102
RTVSPropertyOp32
 70
     1
102
RTVSPropertyOp33
 70
     1
102
RTVSPropertyOp34
 70
     1
102
RTVSPropertyOp35
 70
     1
102
RTVSPropertyOp36
 70
     1
102
RTVSPropertyOp37
 70
     1
102
RTVSPropertyOp38
 70
     1
102
RTVSPropertyOp39
 70
     1
102
RTVSPropertyOp40
 70
     1
102
RTVSPropertyOp41
 70
     1
102
RTVSPropertyOp42
 70
     1
102
RTVSPropertyOp43
 70
     1
102
RTVSPropertyOp44
 70
     1
102
RTVSPropertyOp45
 70
     1
102
RTVSPropertyOp46
 70
     1
102
RTVSPropertyOp47
 70
     1
102
RTVSPropertyOp48
 70
     1
102
RTVSPropertyOp49
 70
     1
102
RTVSPropertyOp50
 70
     1
102
RTVSPropertyOp51
 70
     0
102
RTVSPropertyOp52
 70
     0
102
RTVSPropertyOp53
 70
     1
102
RTVSPropertyOp54
 70
     1
102
RTVSPropertyOp55
 70
     1
102
RTVSPropertyOp56
 70
     1
102
RTVSPropertyOp57
 70
     1
102
RTVSPropertyOp58
 70
     1
102
RTVSPropertyOp59
 70
     1
102
RTVSPropertyOp60
 70
     1
102
RTVSPropertyOp61
 70
     1
102
RTVSPropertyOp62
 70
     1
  0
XRECORD
  5
149F
102
{ACAD_REACTORS
330
149E
102
}
330
149E
100
AcDbXrecord
280
     1
102
RTVSPost2010Prop28
280
     0
102
RTVSPost2010PropOp28
 70
     1
102
RTVSPost2010Prop29
280
     1
102
RTVSPost2010PropOp29
 70
     1
102
RTVSPost2010Prop30
280
     1
102
RTVSPost2010PropOp30
 70
     1
102
RTVSPost2010Prop31
280
     0
102
RTVSPost2010PropOp31
 70
     1
102
RTVSPost2010Prop32
280
     0
102
RTVSPost2010PropOp32
 70
     1
102
RTVSPost2010Prop33
280
     0
102
RTVSPost2010PropOp33
 70
     1
102
RTVSPost2010Prop34
280
     0
102
RTVSPost2010PropOp34
 70
     1
102
RTVSPost2010Prop35
280
     0
102
RTVSPost2010PropOp35
 70
     1
102
RTVSPost2010Prop36
280
     0
102
RTVSPost2010PropOp36
 70
     1
102
RTVSPost2010Prop37
 90
       50
102
RTVSPost2010PropOp37
 70
     1
102
RTVSPost2010Prop38
140
0.0
102
RTVSPost2010PropOp38
 70
     1
102
RTVSPost2010Prop39
140
1.0
102
RTVSPost2010PropOp39
 70
     1
102
RTVSPost2010Prop40
 90
        0
102
RTVSPost2010PropOp40
 70
     1
102
RTVSPost2010Prop41ColorIndex
 90
       18
102
RTVSPost2010Prop41ColorRGB
 90
        0
102
RTVSPost2010PropOp41
 70
     1
102
RTVSPost2010Prop42
 90
       50
102
RTVSPost2010PropOp42
 70
     1
102
RTVSPost2010Prop43
 90
        3
102
RTVSPost2010PropOp43
 70
     1
102
RTVSPost2010Prop44ColorIndex
 90
        5
102
RTVSPost2010Prop44ColorRGB
 90
      255
102
RTVSPost2010PropOp44
 70
     1
102
RTVSPost2010Prop45
280
     0
102
RTVSPost2010PropOp45
 70
     1
102
RTVSPost2010Prop46
 90
       50
102
RTVSPost2010PropOp46
 70
     1
102
RTVSPost2010Prop47
 90
       50
102
RTVSPost2010PropOp47
 70
     1
102
RTVSPost2010Prop48
 90
       50
102
RTVSPost2010PropOp48
 70
     1
102
RTVSPost2010Prop49
280
     0
102
RTVSPost2010PropOp49
 70
     1
102
RTVSPost2010Prop50
 90
       50
102
RTVSPost2010PropOp50
 70
     1
102
RTVSPost2010Prop51ColorIndex
 90
      256
102
RTVSPost2010Prop51ColorRGB
 90
-16777216
102
RTVSPost2010PropOp51
 70
     0
102
RTVSPost2010Prop52
140
1.0
102
RTVSPost2010PropOp52
 70
     0
102
RTVSPost2010Prop53
 90
        2
102
RTVSPost2010PropOp53
 70
     1
102
RTVSPost2010Prop54
  1
strokes_ogs.tif
102
RTVSPost2010PropOp54
 70
     1
102
RTVSPost2010Prop55
280
     0
102
RTVSPost2010PropOp55
 70
     1
102
RTVSPost2010Prop56
140
1.0
102
RTVSPost2010PropOp56
 70
     1
102
RTVSPost2010Prop57
140
1.0
102
RTVSPost2010PropOp57
 70
     1
102
RTVSPropertyOp0
 70
     1
102
RTVSPropertyOp1
 70
     1
102
RTVSPropertyOp2
 70
     1
102
RTVSPropertyOp3
 70
     1
102
RTVSPropertyOp4
 70
     1
102
RTVSPropertyOp5
 70
     1
102
RTVSPropertyOp6
 70
     1
102
RTVSPropertyOp7
 70
     1
102
RTVSPropertyOp8
 70
     1
102
RTVSPropertyOp9
 70
     1
102
RTVSPropertyOp10
 70
     1
102
RTVSPropertyOp11
 70
     1
102
RTVSPropertyOp12
 70
     1
102
RTVSPropertyOp13
 70
     1
102
RTVSPropertyOp14
 70
     1
102
RTVSPropertyOp15
 70
     1
102
RTVSPropertyOp16
 70
     1
102
RTVSPropertyOp17
 70
     1
102
RTVSPropertyOp18
 70
     1
102
RTVSPropertyOp19
 70
     1
102
RTVSPropertyOp20
 70
     1
102
RTVSPropertyOp21
 70
     1
102
RTVSPropertyOp22
 70
     1
102
RTVSPropertyOp23
 70
     1
102
RTVSPropertyOp24
 70
     1
102
RTVSPropertyOp25
 70
     1
102
RTVSPropertyOp26
 70
     1
102
RTVSPropertyOp27
 70
     1
102
RTVSPropertyOp28
 70
     1
102
RTVSPropertyOp29
 70
     1
102
RTVSPropertyOp30
 70
     1
102
RTVSPropertyOp31
 70
     1
102
RTVSPropertyOp32
 70
     1
102
RTVSPropertyOp33
 70
     1
102
RTVSPropertyOp34
 70
     1
102
RTVSPropertyOp35
 70
     1
102
RTVSPropertyOp36
 70
     1
102
RTVSPropertyOp37
 70
     1
102
RTVSPropertyOp38
 70
     1
102
RTVSPropertyOp39
 70
     1
102
RTVSPropertyOp40
 70
     1
102
RTVSPropertyOp41
 70
     1
102
RTVSPropertyOp42
 70
     1
102
RTVSPropertyOp43
 70
     1
102
RTVSPropertyOp44
 70
     1
102
RTVSPropertyOp45
 70
     1
102
RTVSPropertyOp46
 70
     1
102
RTVSPropertyOp47
 70
     1
102
RTVSPropertyOp48
 70
     1
102
RTVSPropertyOp49
 70
     1
102
RTVSPropertyOp50
 70
     1
102
RTVSPropertyOp51
 70
     0
102
RTVSPropertyOp52
 70
     0
102
RTVSPropertyOp53
 70
     1
102
RTVSPropertyOp54
 70
     1
102
RTVSPropertyOp55
 70
     1
102
RTVSPropertyOp56
 70
     1
102
RTVSPropertyOp57
 70
     1
102
RTVSPropertyOp58
 70
     1
102
RTVSPropertyOp59
 70
     1
102
RTVSPropertyOp60
 70
     1
102
RTVSPropertyOp61
 70
     1
102
RTVSPropertyOp62
 70
     1
  0
XRECORD
  5
1499
102
{ACAD_REACTORS
330
1498
102
}
330
1498
100
AcDbXrecord
280
     1
102
RTVSPost2010Prop28
280
     0
102
RTVSPost2010PropOp28
 70
     1
102
RTVSPost2010Prop29
280
     1
102
RTVSPost2010PropOp29
 70
     1
102
RTVSPost2010Prop30
280
     1
102
RTVSPost2010PropOp30
 70
     1
102
RTVSPost2010Prop31
280
     0
102
RTVSPost2010PropOp31
 70
     1
102
RTVSPost2010Prop32
280
     0
102
RTVSPost2010PropOp32
 70
     1
102
RTVSPost2010Prop33
280
     0
102
RTVSPost2010PropOp33
 70
     1
102
RTVSPost2010Prop34
280
     0
102
RTVSPost2010PropOp34
 70
     1
102
RTVSPost2010Prop35
280
     0
102
RTVSPost2010PropOp35
 70
     1
102
RTVSPost2010Prop36
280
     0
102
RTVSPost2010PropOp36
 70
     1
102
RTVSPost2010Prop37
 90
       50
102
RTVSPost2010PropOp37
 70
     1
102
RTVSPost2010Prop38
140
0.0
102
RTVSPost2010PropOp38
 70
     1
102
RTVSPost2010Prop39
140
1.0
102
RTVSPost2010PropOp39
 70
     1
102
RTVSPost2010Prop40
 90
        0
102
RTVSPost2010PropOp40
 70
     1
102
RTVSPost2010Prop41ColorIndex
 90
       18
102
RTVSPost2010Prop41ColorRGB
 90
        0
102
RTVSPost2010PropOp41
 70
     1
102
RTVSPost2010Prop42
 90
       50
102
RTVSPost2010PropOp42
 70
     1
102
RTVSPost2010Prop43
 90
        3
102
RTVSPost2010PropOp43
 70
     1
102
RTVSPost2010Prop44ColorIndex
 90
        5
102
RTVSPost2010Prop44ColorRGB
 90
      255
102
RTVSPost2010PropOp44
 70
     1
102
RTVSPost2010Prop45
280
     0
102
RTVSPost2010PropOp45
 70
     1
102
RTVSPost2010Prop46
 90
       50
102
RTVSPost2010PropOp46
 70
     1
102
RTVSPost2010Prop47
 90
       50
102
RTVSPost2010PropOp47
 70
     1
102
RTVSPost2010Prop48
 90
       50
102
RTVSPost2010PropOp48
 70
     1
102
RTVSPost2010Prop49
280
     0
102
RTVSPost2010PropOp49
 70
     1
102
RTVSPost2010Prop50
 90
       50
102
RTVSPost2010PropOp50
 70
     1
102
RTVSPost2010Prop51ColorIndex
 90
      256
102
RTVSPost2010Prop51ColorRGB
 90
-16777216
102
RTVSPost2010PropOp51
 70
     0
102
RTVSPost2010Prop52
140
1.0
102
RTVSPost2010PropOp52
 70
     0
102
RTVSPost2010Prop53
 90
        2
102
RTVSPost2010PropOp53
 70
     1
102
RTVSPost2010Prop54
  1
strokes_ogs.tif
102
RTVSPost2010PropOp54
 70
     1
102
RTVSPost2010Prop55
280
     0
102
RTVSPost2010PropOp55
 70
     1
102
RTVSPost2010Prop56
140
1.0
102
RTVSPost2010PropOp56
 70
     1
102
RTVSPost2010Prop57
140
1.0
102
RTVSPost2010PropOp57
 70
     1
102
RTVSPropertyOp0
 70
     1
102
RTVSPropertyOp1
 70
     1
102
RTVSPropertyOp2
 70
     1
102
RTVSPropertyOp3
 70
     1
102
RTVSPropertyOp4
 70
     1
102
RTVSPropertyOp5
 70
     1
102
RTVSPropertyOp6
 70
     1
102
RTVSPropertyOp7
 70
     1
102
RTVSPropertyOp8
 70
     1
102
RTVSPropertyOp9
 70
     1
102
RTVSPropertyOp10
 70
     1
102
RTVSPropertyOp11
 70
     1
102
RTVSPropertyOp12
 70
     1
102
RTVSPropertyOp13
 70
     1
102
RTVSPropertyOp14
 70
     1
102
RTVSPropertyOp15
 70
     1
102
RTVSPropertyOp16
 70
     1
102
RTVSPropertyOp17
 70
     1
102
RTVSPropertyOp18
 70
     1
102
RTVSPropertyOp19
 70
     1
102
RTVSPropertyOp20
 70
     1
102
RTVSPropertyOp21
 70
     1
102
RTVSPropertyOp22
 70
     1
102
RTVSPropertyOp23
 70
     1
102
RTVSPropertyOp24
 70
     1
102
RTVSPropertyOp25
 70
     1
102
RTVSPropertyOp26
 70
     1
102
RTVSPropertyOp27
 70
     1
102
RTVSPropertyOp28
 70
     1
102
RTVSPropertyOp29
 70
     1
102
RTVSPropertyOp30
 70
     1
102
RTVSPropertyOp31
 70
     1
102
RTVSPropertyOp32
 70
     1
102
RTVSPropertyOp33
 70
     1
102
RTVSPropertyOp34
 70
     1
102
RTVSPropertyOp35
 70
     1
102
RTVSPropertyOp36
 70
     1
102
RTVSPropertyOp37
 70
     1
102
RTVSPropertyOp38
 70
     1
102
RTVSPropertyOp39
 70
     1
102
RTVSPropertyOp40
 70
     1
102
RTVSPropertyOp41
 70
     1
102
RTVSPropertyOp42
 70
     1
102
RTVSPropertyOp43
 70
     1
102
RTVSPropertyOp44
 70
     1
102
RTVSPropertyOp45
 70
     1
102
RTVSPropertyOp46
 70
     1
102
RTVSPropertyOp47
 70
     1
102
RTVSPropertyOp48
 70
     1
102
RTVSPropertyOp49
 70
     1
102
RTVSPropertyOp50
 70
     1
102
RTVSPropertyOp51
 70
     0
102
RTVSPropertyOp52
 70
     0
102
RTVSPropertyOp53
 70
     1
102
RTVSPropertyOp54
 70
     1
102
RTVSPropertyOp55
 70
     1
102
RTVSPropertyOp56
 70
     1
102
RTVSPropertyOp57
 70
     1
102
RTVSPropertyOp58
 70
     1
102
RTVSPropertyOp59
 70
     1
102
RTVSPropertyOp60
 70
     1
102
RTVSPropertyOp61
 70
     1
102
RTVSPropertyOp62
 70
     1
  0
XRECORD
  5
149B
102
{ACAD_REACTORS
330
149A
102
}
330
149A
100
AcDbXrecord
280
     1
102
RTVSPost2010Prop28
280
     0
102
RTVSPost2010PropOp28
 70
     1
102
RTVSPost2010Prop29
280
     1
102
RTVSPost2010PropOp29
 70
     1
102
RTVSPost2010Prop30
280
     1
102
RTVSPost2010PropOp30
 70
     1
102
RTVSPost2010Prop31
280
     0
102
RTVSPost2010PropOp31
 70
     1
102
RTVSPost2010Prop32
280
     0
102
RTVSPost2010PropOp32
 70
     1
102
RTVSPost2010Prop33
280
     0
102
RTVSPost2010PropOp33
 70
     1
102
RTVSPost2010Prop34
280
     0
102
RTVSPost2010PropOp34
 70
     1
102
RTVSPost2010Prop35
280
     0
102
RTVSPost2010PropOp35
 70
     1
102
RTVSPost2010Prop36
280
     0
102
RTVSPost2010PropOp36
 70
     1
102
RTVSPost2010Prop37
 90
       50
102
RTVSPost2010PropOp37
 70
     1
102
RTVSPost2010Prop38
140
0.0
102
RTVSPost2010PropOp38
 70
     1
102
RTVSPost2010Prop39
140
1.0
102
RTVSPost2010PropOp39
 70
     1
102
RTVSPost2010Prop40
 90
        0
102
RTVSPost2010PropOp40
 70
     1
102
RTVSPost2010Prop41ColorIndex
 90
       18
102
RTVSPost2010Prop41ColorRGB
 90
        0
102
RTVSPost2010PropOp41
 70
     1
102
RTVSPost2010Prop42
 90
       50
102
RTVSPost2010PropOp42
 70
     1
102
RTVSPost2010Prop43
 90
        3
102
RTVSPost2010PropOp43
 70
     1
102
RTVSPost2010Prop44ColorIndex
 90
        5
102
RTVSPost2010Prop44ColorRGB
 90
      255
102
RTVSPost2010PropOp44
 70
     1
102
RTVSPost2010Prop45
280
     0
102
RTVSPost2010PropOp45
 70
     1
102
RTVSPost2010Prop46
 90
       50
102
RTVSPost2010PropOp46
 70
     1
102
RTVSPost2010Prop47
 90
       50
102
RTVSPost2010PropOp47
 70
     1
102
RTVSPost2010Prop48
 90
       50
102
RTVSPost2010PropOp48
 70
     1
102
RTVSPost2010Prop49
280
     0
102
RTVSPost2010PropOp49
 70
     1
102
RTVSPost2010Prop50
 90
       50
102
RTVSPost2010PropOp50
 70
     1
102
RTVSPost2010Prop51ColorIndex
 90
      256
102
RTVSPost2010Prop51ColorRGB
 90
-16777216
102
RTVSPost2010PropOp51
 70
     0
102
RTVSPost2010Prop52
140
1.0
102
RTVSPost2010PropOp52
 70
     0
102
RTVSPost2010Prop53
 90
        2
102
RTVSPost2010PropOp53
 70
     1
102
RTVSPost2010Prop54
  1
strokes_ogs.tif
102
RTVSPost2010PropOp54
 70
     1
102
RTVSPost2010Prop55
280
     0
102
RTVSPost2010PropOp55
 70
     1
102
RTVSPost2010Prop56
140
1.0
102
RTVSPost2010PropOp56
 70
     1
102
RTVSPost2010Prop57
140
1.0
102
RTVSPost2010PropOp57
 70
     1
102
RTVSPropertyOp0
 70
     1
102
RTVSPropertyOp1
 70
     1
102
RTVSPropertyOp2
 70
     1
102
RTVSPropertyOp3
 70
     1
102
RTVSPropertyOp4
 70
     1
102
RTVSPropertyOp5
 70
     1
102
RTVSPropertyOp6
 70
     1
102
RTVSPropertyOp7
 70
     1
102
RTVSPropertyOp8
 70
     1
102
RTVSPropertyOp9
 70
     1
102
RTVSPropertyOp10
 70
     1
102
RTVSPropertyOp11
 70
     1
102
RTVSPropertyOp12
 70
     1
102
RTVSPropertyOp13
 70
     1
102
RTVSPropertyOp14
 70
     1
102
RTVSPropertyOp15
 70
     1
102
RTVSPropertyOp16
 70
     1
102
RTVSPropertyOp17
 70
     1
102
RTVSPropertyOp18
 70
     1
102
RTVSPropertyOp19
 70
     1
102
RTVSPropertyOp20
 70
     1
102
RTVSPropertyOp21
 70
     1
102
RTVSPropertyOp22
 70
     1
102
RTVSPropertyOp23
 70
     1
102
RTVSPropertyOp24
 70
     1
102
RTVSPropertyOp25
 70
     1
102
RTVSPropertyOp26
 70
     1
102
RTVSPropertyOp27
 70
     1
102
RTVSPropertyOp28
 70
     1
102
RTVSPropertyOp29
 70
     1
102
RTVSPropertyOp30
 70
     1
102
RTVSPropertyOp31
 70
     1
102
RTVSPropertyOp32
 70
     1
102
RTVSPropertyOp33
 70
     1
102
RTVSPropertyOp34
 70
     1
102
RTVSPropertyOp35
 70
     1
102
RTVSPropertyOp36
 70
     1
102
RTVSPropertyOp37
 70
     1
102
RTVSPropertyOp38
 70
     1
102
RTVSPropertyOp39
 70
     1
102
RTVSPropertyOp40
 70
     1
102
RTVSPropertyOp41
 70
     1
102
RTVSPropertyOp42
 70
     1
102
RTVSPropertyOp43
 70
     1
102
RTVSPropertyOp44
 70
     1
102
RTVSPropertyOp45
 70
     1
102
RTVSPropertyOp46
 70
     1
102
RTVSPropertyOp47
 70
     1
102
RTVSPropertyOp48
 70
     1
102
RTVSPropertyOp49
 70
     1
102
RTVSPropertyOp50
 70
     1
102
RTVSPropertyOp51
 70
     0
102
RTVSPropertyOp52
 70
     0
102
RTVSPropertyOp53
 70
     1
102
RTVSPropertyOp54
 70
     1
102
RTVSPropertyOp55
 70
     1
102
RTVSPropertyOp56
 70
     1
102
RTVSPropertyOp57
 70
     1
102
RTVSPropertyOp58
 70
     1
102
RTVSPropertyOp59
 70
     1
102
RTVSPropertyOp60
 70
     1
102
RTVSPropertyOp61
 70
     1
102
RTVSPropertyOp62
 70
     1
  0
XRECORD
  5
147E
102
{ACAD_REACTORS
330
147D
102
}
330
147D
100
AcDbXrecord
280
     1
102
RTVSPost2010Prop28
280
     0
102
RTVSPost2010PropOp28
 70
     1
102
RTVSPost2010Prop29
280
     1
102
RTVSPost2010PropOp29
 70
     1
102
RTVSPost2010Prop30
280
     1
102
RTVSPost2010PropOp30
 70
     1
102
RTVSPost2010Prop31
280
     0
102
RTVSPost2010PropOp31
 70
     1
102
RTVSPost2010Prop32
280
     0
102
RTVSPost2010PropOp32
 70
     1
102
RTVSPost2010Prop33
280
     0
102
RTVSPost2010PropOp33
 70
     1
102
RTVSPost2010Prop34
280
     0
102
RTVSPost2010PropOp34
 70
     1
102
RTVSPost2010Prop35
280
     0
102
RTVSPost2010PropOp35
 70
     1
102
RTVSPost2010Prop36
280
     0
102
RTVSPost2010PropOp36
 70
     1
102
RTVSPost2010Prop37
 90
       50
102
RTVSPost2010PropOp37
 70
     1
102
RTVSPost2010Prop38
140
0.0
102
RTVSPost2010PropOp38
 70
     1
102
RTVSPost2010Prop39
140
1.0
102
RTVSPost2010PropOp39
 70
     1
102
RTVSPost2010Prop40
 90
        0
102
RTVSPost2010PropOp40
 70
     1
102
RTVSPost2010Prop41ColorIndex
 90
       18
102
RTVSPost2010Prop41ColorRGB
 90
        0
102
RTVSPost2010PropOp41
 70
     1
102
RTVSPost2010Prop42
 90
       50
102
RTVSPost2010PropOp42
 70
     1
102
RTVSPost2010Prop43
 90
        3
102
RTVSPost2010PropOp43
 70
     1
102
RTVSPost2010Prop44ColorIndex
 90
        5
102
RTVSPost2010Prop44ColorRGB
 90
      255
102
RTVSPost2010PropOp44
 70
     1
102
RTVSPost2010Prop45
280
     0
102
RTVSPost2010PropOp45
 70
     1
102
RTVSPost2010Prop46
 90
       50
102
RTVSPost2010PropOp46
 70
     1
102
RTVSPost2010Prop47
 90
       50
102
RTVSPost2010PropOp47
 70
     1
102
RTVSPost2010Prop48
 90
       50
102
RTVSPost2010PropOp48
 70
     1
102
RTVSPost2010Prop49
280
     0
102
RTVSPost2010PropOp49
 70
     1
102
RTVSPost2010Prop50
 90
       50
102
RTVSPost2010PropOp50
 70
     1
102
RTVSPost2010Prop51ColorIndex
 90
      256
102
RTVSPost2010Prop51ColorRGB
 90
-16777216
102
RTVSPost2010PropOp51
 70
     0
102
RTVSPost2010Prop52
140
1.0
102
RTVSPost2010PropOp52
 70
     0
102
RTVSPost2010Prop53
 90
        2
102
RTVSPost2010PropOp53
 70
     1
102
RTVSPost2010Prop54
  1
strokes_ogs.tif
102
RTVSPost2010PropOp54
 70
     1
102
RTVSPost2010Prop55
280
     0
102
RTVSPost2010PropOp55
 70
     1
102
RTVSPost2010Prop56
140
1.0
102
RTVSPost2010PropOp56
 70
     1
102
RTVSPost2010Prop57
140
1.0
102
RTVSPost2010PropOp57
 70
     1
102
RTVSPropertyOp0
 70
     1
102
RTVSPropertyOp1
 70
     1
102
RTVSPropertyOp2
 70
     1
102
RTVSPropertyOp3
 70
     1
102
RTVSPropertyOp4
 70
     1
102
RTVSPropertyOp5
 70
     1
102
RTVSPropertyOp6
 70
     1
102
RTVSPropertyOp7
 70
     1
102
RTVSPropertyOp8
 70
     1
102
RTVSPropertyOp9
 70
     1
102
RTVSPropertyOp10
 70
     1
102
RTVSPropertyOp11
 70
     1
102
RTVSPropertyOp12
 70
     1
102
RTVSPropertyOp13
 70
     1
102
RTVSPropertyOp14
 70
     1
102
RTVSPropertyOp15
 70
     1
102
RTVSPropertyOp16
 70
     1
102
RTVSPropertyOp17
 70
     1
102
RTVSPropertyOp18
 70
     1
102
RTVSPropertyOp19
 70
     1
102
RTVSPropertyOp20
 70
     1
102
RTVSPropertyOp21
 70
     1
102
RTVSPropertyOp22
 70
     1
102
RTVSPropertyOp23
 70
     1
102
RTVSPropertyOp24
 70
     1
102
RTVSPropertyOp25
 70
     1
102
RTVSPropertyOp26
 70
     1
102
RTVSPropertyOp27
 70
     1
102
RTVSPropertyOp28
 70
     1
102
RTVSPropertyOp29
 70
     1
102
RTVSPropertyOp30
 70
     1
102
RTVSPropertyOp31
 70
     1
102
RTVSPropertyOp32
 70
     1
102
RTVSPropertyOp33
 70
     1
102
RTVSPropertyOp34
 70
     1
102
RTVSPropertyOp35
 70
     1
102
RTVSPropertyOp36
 70
     1
102
RTVSPropertyOp37
 70
     1
102
RTVSPropertyOp38
 70
     1
102
RTVSPropertyOp39
 70
     1
102
RTVSPropertyOp40
 70
     1
102
RTVSPropertyOp41
 70
     1
102
RTVSPropertyOp42
 70
     1
102
RTVSPropertyOp43
 70
     1
102
RTVSPropertyOp44
 70
     1
102
RTVSPropertyOp45
 70
     1
102
RTVSPropertyOp46
 70
     1
102
RTVSPropertyOp47
 70
     1
102
RTVSPropertyOp48
 70
     1
102
RTVSPropertyOp49
 70
     1
102
RTVSPropertyOp50
 70
     1
102
RTVSPropertyOp51
 70
     0
102
RTVSPropertyOp52
 70
     0
102
RTVSPropertyOp53
 70
     1
102
RTVSPropertyOp54
 70
     1
102
RTVSPropertyOp55
 70
     1
102
RTVSPropertyOp56
 70
     1
102
RTVSPropertyOp57
 70
     1
102
RTVSPropertyOp58
 70
     1
102
RTVSPropertyOp59
 70
     1
102
RTVSPropertyOp60
 70
     1
102
RTVSPropertyOp61
 70
     1
102
RTVSPropertyOp62
 70
     1
  0
XRECORD
  5
1495
102
{ACAD_REACTORS
330
1494
102
}
330
1494
100
AcDbXrecord
280
     1
102
RTVSPost2010Prop28
280
     0
102
RTVSPost2010PropOp28
 70
     1
102
RTVSPost2010Prop29
280
     1
102
RTVSPost2010PropOp29
 70
     1
102
RTVSPost2010Prop30
280
     1
102
RTVSPost2010PropOp30
 70
     1
102
RTVSPost2010Prop31
280
     0
102
RTVSPost2010PropOp31
 70
     1
102
RTVSPost2010Prop32
280
     0
102
RTVSPost2010PropOp32
 70
     1
102
RTVSPost2010Prop33
280
     0
102
RTVSPost2010PropOp33
 70
     1
102
RTVSPost2010Prop34
280
     0
102
RTVSPost2010PropOp34
 70
     1
102
RTVSPost2010Prop35
280
     0
102
RTVSPost2010PropOp35
 70
     1
102
RTVSPost2010Prop36
280
     0
102
RTVSPost2010PropOp36
 70
     1
102
RTVSPost2010Prop37
 90
       50
102
RTVSPost2010PropOp37
 70
     1
102
RTVSPost2010Prop38
140
0.0
102
RTVSPost2010PropOp38
 70
     1
102
RTVSPost2010Prop39
140
1.0
102
RTVSPost2010PropOp39
 70
     1
102
RTVSPost2010Prop40
 90
        0
102
RTVSPost2010PropOp40
 70
     1
102
RTVSPost2010Prop41ColorIndex
 90
       18
102
RTVSPost2010Prop41ColorRGB
 90
        0
102
RTVSPost2010PropOp41
 70
     1
102
RTVSPost2010Prop42
 90
       50
102
RTVSPost2010PropOp42
 70
     1
102
RTVSPost2010Prop43
 90
        3
102
RTVSPost2010PropOp43
 70
     1
102
RTVSPost2010Prop44ColorIndex
 90
        5
102
RTVSPost2010Prop44ColorRGB
 90
      255
102
RTVSPost2010PropOp44
 70
     1
102
RTVSPost2010Prop45
280
     0
102
RTVSPost2010PropOp45
 70
     1
102
RTVSPost2010Prop46
 90
       50
102
RTVSPost2010PropOp46
 70
     1
102
RTVSPost2010Prop47
 90
       50
102
RTVSPost2010PropOp47
 70
     1
102
RTVSPost2010Prop48
 90
       50
102
RTVSPost2010PropOp48
 70
     1
102
RTVSPost2010Prop49
280
     0
102
RTVSPost2010PropOp49
 70
     1
102
RTVSPost2010Prop50
 90
       50
102
RTVSPost2010PropOp50
 70
     1
102
RTVSPost2010Prop51ColorIndex
 90
      256
102
RTVSPost2010Prop51ColorRGB
 90
-16777216
102
RTVSPost2010PropOp51
 70
     0
102
RTVSPost2010Prop52
140
1.0
102
RTVSPost2010PropOp52
 70
     0
102
RTVSPost2010Prop53
 90
        2
102
RTVSPost2010PropOp53
 70
     1
102
RTVSPost2010Prop54
  1
strokes_ogs.tif
102
RTVSPost2010PropOp54
 70
     1
102
RTVSPost2010Prop55
280
     0
102
RTVSPost2010PropOp55
 70
     1
102
RTVSPost2010Prop56
140
1.0
102
RTVSPost2010PropOp56
 70
     1
102
RTVSPost2010Prop57
140
1.0
102
RTVSPost2010PropOp57
 70
     1
102
RTVSPropertyOp0
 70
     1
102
RTVSPropertyOp1
 70
     1
102
RTVSPropertyOp2
 70
     1
102
RTVSPropertyOp3
 70
     1
102
RTVSPropertyOp4
 70
     1
102
RTVSPropertyOp5
 70
     1
102
RTVSPropertyOp6
 70
     1
102
RTVSPropertyOp7
 70
     1
102
RTVSPropertyOp8
 70
     1
102
RTVSPropertyOp9
 70
     1
102
RTVSPropertyOp10
 70
     1
102
RTVSPropertyOp11
 70
     1
102
RTVSPropertyOp12
 70
     1
102
RTVSPropertyOp13
 70
     1
102
RTVSPropertyOp14
 70
     1
102
RTVSPropertyOp15
 70
     1
102
RTVSPropertyOp16
 70
     1
102
RTVSPropertyOp17
 70
     1
102
RTVSPropertyOp18
 70
     1
102
RTVSPropertyOp19
 70
     1
102
RTVSPropertyOp20
 70
     1
102
RTVSPropertyOp21
 70
     1
102
RTVSPropertyOp22
 70
     1
102
RTVSPropertyOp23
 70
     1
102
RTVSPropertyOp24
 70
     1
102
RTVSPropertyOp25
 70
     1
102
RTVSPropertyOp26
 70
     1
102
RTVSPropertyOp27
 70
     1
102
RTVSPropertyOp28
 70
     1
102
RTVSPropertyOp29
 70
     1
102
RTVSPropertyOp30
 70
     1
102
RTVSPropertyOp31
 70
     1
102
RTVSPropertyOp32
 70
     1
102
RTVSPropertyOp33
 70
     1
102
RTVSPropertyOp34
 70
     1
102
RTVSPropertyOp35
 70
     1
102
RTVSPropertyOp36
 70
     1
102
RTVSPropertyOp37
 70
     1
102
RTVSPropertyOp38
 70
     1
102
RTVSPropertyOp39
 70
     1
102
RTVSPropertyOp40
 70
     1
102
RTVSPropertyOp41
 70
     1
102
RTVSPropertyOp42
 70
     1
102
RTVSPropertyOp43
 70
     1
102
RTVSPropertyOp44
 70
     1
102
RTVSPropertyOp45
 70
     1
102
RTVSPropertyOp46
 70
     1
102
RTVSPropertyOp47
 70
     1
102
RTVSPropertyOp48
 70
     1
102
RTVSPropertyOp49
 70
     1
102
RTVSPropertyOp50
 70
     1
102
RTVSPropertyOp51
 70
     0
102
RTVSPropertyOp52
 70
     0
102
RTVSPropertyOp53
 70
     1
102
RTVSPropertyOp54
 70
     1
102
RTVSPropertyOp55
 70
     1
102
RTVSPropertyOp56
 70
     1
102
RTVSPropertyOp57
 70
     1
102
RTVSPropertyOp58
 70
     1
102
RTVSPropertyOp59
 70
     1
102
RTVSPropertyOp60
 70
     1
102
RTVSPropertyOp61
 70
     1
102
RTVSPropertyOp62
 70
     1
  0
XRECORD
  5
149D
102
{ACAD_REACTORS
330
149C
102
}
330
149C
100
AcDbXrecord
280
     1
102
RTVSPost2010Prop28
280
     0
102
RTVSPost2010PropOp28
 70
     1
102
RTVSPost2010Prop29
280
     1
102
RTVSPost2010PropOp29
 70
     1
102
RTVSPost2010Prop30
280
     1
102
RTVSPost2010PropOp30
 70
     1
102
RTVSPost2010Prop31
280
     0
102
RTVSPost2010PropOp31
 70
     1
102
RTVSPost2010Prop32
280
     0
102
RTVSPost2010PropOp32
 70
     1
102
RTVSPost2010Prop33
280
     0
102
RTVSPost2010PropOp33
 70
     1
102
RTVSPost2010Prop34
280
     0
102
RTVSPost2010PropOp34
 70
     1
102
RTVSPost2010Prop35
280
     0
102
RTVSPost2010PropOp35
 70
     1
102
RTVSPost2010Prop36
280
     0
102
RTVSPost2010PropOp36
 70
     1
102
RTVSPost2010Prop37
 90
       50
102
RTVSPost2010PropOp37
 70
     1
102
RTVSPost2010Prop38
140
0.0
102
RTVSPost2010PropOp38
 70
     1
102
RTVSPost2010Prop39
140
1.0
102
RTVSPost2010PropOp39
 70
     1
102
RTVSPost2010Prop40
 90
        0
102
RTVSPost2010PropOp40
 70
     1
102
RTVSPost2010Prop41ColorIndex
 90
       18
102
RTVSPost2010Prop41ColorRGB
 90
        0
102
RTVSPost2010PropOp41
 70
     1
102
RTVSPost2010Prop42
 90
       50
102
RTVSPost2010PropOp42
 70
     1
102
RTVSPost2010Prop43
 90
        3
102
RTVSPost2010PropOp43
 70
     1
102
RTVSPost2010Prop44ColorIndex
 90
        5
102
RTVSPost2010Prop44ColorRGB
 90
      255
102
RTVSPost2010PropOp44
 70
     1
102
RTVSPost2010Prop45
280
     0
102
RTVSPost2010PropOp45
 70
     1
102
RTVSPost2010Prop46
 90
       50
102
RTVSPost2010PropOp46
 70
     1
102
RTVSPost2010Prop47
 90
       50
102
RTVSPost2010PropOp47
 70
     1
102
RTVSPost2010Prop48
 90
       50
102
RTVSPost2010PropOp48
 70
     1
102
RTVSPost2010Prop49
280
     0
102
RTVSPost2010PropOp49
 70
     1
102
RTVSPost2010Prop50
 90
       50
102
RTVSPost2010PropOp50
 70
     1
102
RTVSPost2010Prop51ColorIndex
 90
      256
102
RTVSPost2010Prop51ColorRGB
 90
-16777216
102
RTVSPost2010PropOp51
 70
     0
102
RTVSPost2010Prop52
140
1.0
102
RTVSPost2010PropOp52
 70
     0
102
RTVSPost2010Prop53
 90
        2
102
RTVSPost2010PropOp53
 70
     1
102
RTVSPost2010Prop54
  1
strokes_ogs.tif
102
RTVSPost2010PropOp54
 70
     1
102
RTVSPost2010Prop55
280
     0
102
RTVSPost2010PropOp55
 70
     1
102
RTVSPost2010Prop56
140
1.0
102
RTVSPost2010PropOp56
 70
     1
102
RTVSPost2010Prop57
140
1.0
102
RTVSPost2010PropOp57
 70
     1
102
RTVSPropertyOp0
 70
     1
102
RTVSPropertyOp1
 70
     1
102
RTVSPropertyOp2
 70
     1
102
RTVSPropertyOp3
 70
     1
102
RTVSPropertyOp4
 70
     1
102
RTVSPropertyOp5
 70
     1
102
RTVSPropertyOp6
 70
     1
102
RTVSPropertyOp7
 70
     1
102
RTVSPropertyOp8
 70
     1
102
RTVSPropertyOp9
 70
     1
102
RTVSPropertyOp10
 70
     1
102
RTVSPropertyOp11
 70
     1
102
RTVSPropertyOp12
 70
     1
102
RTVSPropertyOp13
 70
     1
102
RTVSPropertyOp14
 70
     1
102
RTVSPropertyOp15
 70
     1
102
RTVSPropertyOp16
 70
     1
102
RTVSPropertyOp17
 70
     1
102
RTVSPropertyOp18
 70
     1
102
RTVSPropertyOp19
 70
     1
102
RTVSPropertyOp20
 70
     1
102
RTVSPropertyOp21
 70
     1
102
RTVSPropertyOp22
 70
     1
102
RTVSPropertyOp23
 70
     1
102
RTVSPropertyOp24
 70
     1
102
RTVSPropertyOp25
 70
     1
102
RTVSPropertyOp26
 70
     1
102
RTVSPropertyOp27
 70
     1
102
RTVSPropertyOp28
 70
     1
102
RTVSPropertyOp29
 70
     1
102
RTVSPropertyOp30
 70
     1
102
RTVSPropertyOp31
 70
     1
102
RTVSPropertyOp32
 70
     1
102
RTVSPropertyOp33
 70
     1
102
RTVSPropertyOp34
 70
     1
102
RTVSPropertyOp35
 70
     1
102
RTVSPropertyOp36
 70
     1
102
RTVSPropertyOp37
 70
     1
102
RTVSPropertyOp38
 70
     1
102
RTVSPropertyOp39
 70
     1
102
RTVSPropertyOp40
 70
     1
102
RTVSPropertyOp41
 70
     1
102
RTVSPropertyOp42
 70
     1
102
RTVSPropertyOp43
 70
     1
102
RTVSPropertyOp44
 70
     1
102
RTVSPropertyOp45
 70
     1
102
RTVSPropertyOp46
 70
     1
102
RTVSPropertyOp47
 70
     1
102
RTVSPropertyOp48
 70
     1
102
RTVSPropertyOp49
 70
     1
102
RTVSPropertyOp50
 70
     1
102
RTVSPropertyOp51
 70
     0
102
RTVSPropertyOp52
 70
     0
102
RTVSPropertyOp53
 70
     1
102
RTVSPropertyOp54
 70
     1
102
RTVSPropertyOp55
 70
     1
102
RTVSPropertyOp56
 70
     1
102
RTVSPropertyOp57
 70
     1
102
RTVSPropertyOp58
 70
     1
102
RTVSPropertyOp59
 70
     1
102
RTVSPropertyOp60
 70
     1
102
RTVSPropertyOp61
 70
     1
102
RTVSPropertyOp62
 70
     1
  0
ENDSEC
  0
EOF
