  0
SECTION
  2
HEADER
  9
$ACADVER
  1
AC1015
  9
$ACADMAINTVER
 70
    20
  9
$DWGCODEPAGE
  3
ANSI_1252
  9
$INSBASE
 10
0.0
 20
0.0
 30
0.0
  9
$EXTMIN
 10
-55.6946176569284
 20
-29.3951399950366
 30
-0.0015258207003583
  9
$EXTMAX
 10
95.1713179958981
 20
46.5516674541194
 30
0.0000000349246037
  9
$LIMMIN
 10
-170.0
 20
-170.0
  9
$LIMMAX
 10
519.0
 20
260.0
  9
$ORTHOMODE
 70
     0
  9
$REGENMODE
 70
     1
  9
$FILLMODE
 70
     1
  9
$QTEXTMODE
 70
     0
  9
$MIRRTEXT
 70
     0
  9
$LTSCALE
 40
1.0
  9
$ATTMODE
 70
     1
  9
$TEXTSIZE
 40
5.0
  9
$TRACEWID
 40
1.0
  9
$TEXTSTYLE
  7
STANDARD
  9
$CLAYER
  8
1
  9
$CELTYPE
  6
BYLAYER
  9
$CECOLOR
 62
   256
  9
$CELTSCALE
 40
1.0
  9
$DISPSILH
 70
     0
  9
$DIMSCALE
 40
1.0
  9
$DIMASZ
 40
2.5
  9
$DIMEXO
 40
1.0
  9
$DIMDLI
 40
15.0
  9
$DIMRND
 40
0.0
  9
$DIMDLE
 40
0.0
  9
$DIMEXE
 40
2.0
  9
$DIMTP
 40
0.0
  9
$DIMTM
 40
0.000000001
  9
$DIMTXT
 40
3.5
  9
$DIMCEN
 40
0.09
  9
$DIMTSZ
 40
0.0
  9
$DIMTOL
 70
     0
  9
$DIMLIM
 70
     0
  9
$DIMTIH
 70
     0
  9
$DIMTOH
 70
     0
  9
$DIMSE1
 70
     0
  9
$DIMSE2
 70
     0
  9
$DIMTAD
 70
     1
  9
$DIMZIN
 70
     8
  9
$DIMBLK
  1

  9
$DIMASO
 70
     1
  9
$DIMSHO
 70
     1
  9
$DIMPOST
  1

  9
$DIMAPOST
  1

  9
$DIMALT
 70
     0
  9
$DIMALTD
 70
     3
  9
$DIMALTF
 40
0.0393701
  9
$DIMLFAC
 40
1.0
  9
$DIMTOFL
 70
     1
  9
$DIMTVP
 40
0.0
  9
$DIMTIX
 70
     0
  9
$DIMSOXD
 70
     0
  9
$DIMSAH
 70
     0
  9
$DIMBLK1
  1

  9
$DIMBLK2
  1

  9
$DIMSTYLE
  2
AM_DIN
  9
$DIMCLRD
 70
     0
  9
$DIMCLRE
 70
     0
  9
$DIMCLRT
 70
     0
  9
$DIMTFAC
 40
0.7071069999999999
  9
$DIMGAP
 40
2.299999999999999
  9
$DIMJUST
 70
     0
  9
$DIMSD1
 70
     0
  9
$DIMSD2
 70
     0
  9
$DIMTOLJ
 70
     1
  9
$DIMTZIN
 70
     8
  9
$DIMALTZ
 70
    11
  9
$DIMALTTZ
 70
     8
  9
$DIMUPT
 70
     0
  9
$DIMDEC
 70
     2
  9
$DIMTDEC
 70
     2
  9
$DIMALTU
 70
     3
  9
$DIMALTTD
 70
     3
  9
$DIMTXSTY
  7
STANDARD 3.5 mm
  9
$DIMAUNIT
 70
     0
  9
$DIMADEC
 70
     0
  9
$DIMALTRND
 40
0.0
  9
$DIMAZIN
 70
     2
  9
$DIMDSEP
 70
    46
  9
$DIMATFIT
 70
     3
  9
$DIMFRAC
 70
     0
  9
$DIMLDRBLK
  1

  9
$DIMLUNIT
 70
     2
  9
$DIMLWD
 70
    -1
  9
$DIMLWE
 70
    -1
  9
$DIMTMOVE
 70
     0
  9
$LUNITS
 70
     2
  9
$LUPREC
 70
     4
  9
$SKETCHINC
 40
1.0
  9
$FILLETRAD
 40
0.0
  9
$AUNITS
 70
     0
  9
$AUPREC
 70
     0
  9
$MENU
  1
c:\tdm21\cad\caduti13\tdm13
  9
$ELEVATION
 40
0.0
  9
$PELEVATION
 40
0.0
  9
$THICKNESS
 40
0.0
  9
$LIMCHECK
 70
     0
  9
$CHAMFERA
 40
0.0
  9
$CHAMFERB
 40
0.0
  9
$CHAMFERC
 40
0.0
  9
$CHAMFERD
 40
0.0
  9
$SKPOLY
 70
     0
  9
$TDCREATE
 40
2457277.396521794
  9
$TDUCREATE
 40
2457277.167355127
  9
$TDUPDATE
 40
2457277.397033334
  9
$TDUUPDATE
 40
2457277.167866667
  9
$TDINDWG
 40
0.0005137847
  9
$TDUSRTIMER
 40
0.0005137269
  9
$USRTIMER
 70
     1
  9
$ANGBASE
 50
0.0
  9
$ANGDIR
 70
     0
  9
$PDMODE
 70
     1
  9
$PDSIZE
 40
0.0
  9
$PLINEWID
 40
0.0
  9
$SPLFRAME
 70
     0
  9
$SPLINETYPE
 70
     6
  9
$SPLINESEGS
 70
     8
  9
$HANDSEED
  5
13E5
  9
$SURFTAB1
 70
     6
  9
$SURFTAB2
 70
     6
  9
$SURFTYPE
 70
     6
  9
$SURFU
 70
     6
  9
$SURFV
 70
     6
  9
$UCSBASE
  2

  9
$UCSNAME
  2

  9
$UCSORG
 10
0.0
 20
0.0
 30
0.0
  9
$UCSXDIR
 10
1.0
 20
0.0
 30
0.0
  9
$UCSYDIR
 10
0.0
 20
1.0
 30
0.0
  9
$UCSORTHOREF
  2

  9
$UCSORTHOVIEW
 70
     0
  9
$UCSORGTOP
 10
0.0
 20
0.0
 30
0.0
  9
$UCSORGBOTTOM
 10
0.0
 20
0.0
 30
0.0
  9
$UCSORGLEFT
 10
0.0
 20
0.0
 30
0.0
  9
$UCSORGRIGHT
 10
0.0
 20
0.0
 30
0.0
  9
$UCSORGFRONT
 10
0.0
 20
0.0
 30
0.0
  9
$UCSORGBACK
 10
0.0
 20
0.0
 30
0.0
  9
$PUCSBASE
  2

  9
$PUCSNAME
  2

  9
$PUCSORG
 10
0.0
 20
0.0
 30
0.0
  9
$PUCSXDIR
 10
1.0
 20
0.0
 30
0.0
  9
$PUCSYDIR
 10
0.0
 20
1.0
 30
0.0
  9
$PUCSORTHOREF
  2

  9
$PUCSORTHOVIEW
 70
     0
  9
$PUCSORGTOP
 10
0.0
 20
0.0
 30
0.0
  9
$PUCSORGBOTTOM
 10
0.0
 20
0.0
 30
0.0
  9
$PUCSORGLEFT
 10
0.0
 20
0.0
 30
0.0
  9
$PUCSORGRIGHT
 10
0.0
 20
0.0
 30
0.0
  9
$PUCSORGFRONT
 10
0.0
 20
0.0
 30
0.0
  9
$PUCSORGBACK
 10
0.0
 20
0.0
 30
0.0
  9
$USERI1
 70
     0
  9
$USERI2
 70
     0
  9
$USERI3
 70
     0
  9
$USERI4
 70
     0
  9
$USERI5
 70
     0
  9
$USERR1
 40
0.0
  9
$USERR2
 40
0.0
  9
$USERR3
 40
0.0
  9
$USERR4
 40
0.0
  9
$USERR5
 40
0.0
  9
$WORLDVIEW
 70
     1
  9
$SHADEDGE
 70
     3
  9
$SHADEDIF
 70
    70
  9
$TILEMODE
 70
     1
  9
$MAXACTVP
 70
    64
  9
$PINSBASE
 10
0.0
 20
0.0
 30
0.0
  9
$PLIMCHECK
 70
     0
  9
$PEXTMIN
 10
-0.0226558438690745
 20
-0.0160192835437556
 30
-0.000000000000013
  9
$PEXTMAX
 10
297.000001383183
 20
210.0000009780083
 30
0.0000000000000023
  9
$PLIMMIN
 10
0.0
 20
0.0
  9
$PLIMMAX
 10
297.0
 20
210.0
  9
$UNITMODE
 70
     0
  9
$VISRETAIN
 70
     0
  9
$PLINEGEN
 70
     0
  9
$PSLTSCALE
 70
     1
  9
$TREEDEPTH
 70
  3020
  9
$CMLSTYLE
  2
STANDARD
  9
$CMLJUST
 70
     0
  9
$CMLSCALE
 40
20.0
  9
$PROXYGRAPHICS
 70
     1
  9
$MEASUREMENT
 70
     1
  9
$CELWEIGHT
370
    -1
  9
$ENDCAPS
280
     0
  9
$JOINSTYLE
280
     0
  9
$LWDISPLAY
290
     0
  9
$INSUNITS
 70
     0
  9
$HYPERLINKBASE
  1
http://www.secotools.com/
  9
$STYLESHEET
  1
monochrome.ctb
  9
$XEDIT
290
     1
  9
$CEPSNTYPE
380
     0
  9
$PSTYLEMODE
290
     1
  9
$FINGERPRINTGUID
  2
{8D31EB82-7E64-436B-87D4-ACF2D3EC9C1C}
  9
$VERSIONGUID
  2
{5A331B40-EC4F-4FA8-85AC-F1F15A9D0FE3}
  9
$EXTNAMES
290
     1
  9
$PSVPSCALE
 40
0.0
  9
$OLESTARTUP
290
     0
  0
ENDSEC
  0
SECTION
  2
CLASSES
  0
CLASS
  1
ACDBDICTIONARYWDFLT
  2
AcDbDictionaryWithDefault
  3
ObjectDBX Classes
 90
        0
280
     0
281
     0
  0
CLASS
  1
ACDBPLACEHOLDER
  2
AcDbPlaceHolder
  3
ObjectDBX Classes
 90
        0
280
     0
281
     0
  0
CLASS
  1
LAYOUT
  2
AcDbLayout
  3
ObjectDBX Classes
 90
        0
280
     0
281
     0
  0
CLASS
  1
DICTIONARYVAR
  2
AcDbDictionaryVar
  3
ObjectDBX Classes
 90
        0
280
     0
281
     0
  0
CLASS
  1
TABLESTYLE
  2
AcDbTableStyle
  3
ObjectDBX Classes
 90
     4095
280
     0
281
     0
  0
CLASS
  1
MATERIAL
  2
AcDbMaterial
  3
ObjectDBX Classes
 90
     1153
280
     0
281
     0
  0
CLASS
  1
VISUALSTYLE
  2
AcDbVisualStyle
  3
ObjectDBX Classes
 90
     4095
280
     0
281
     0
  0
CLASS
  1
SCALE
  2
AcDbScale
  3
ObjectDBX Classes
 90
     1153
280
     0
281
     0
  0
CLASS
  1
MLEADERSTYLE
  2
AcDbMLeaderStyle
  3
ACDB_MLEADERSTYLE_CLASS
 90
     4095
280
     0
281
     0
  0
CLASS
  1
ACME_DOCUMENT
  2
AcMeDbDoc
  3
AcMeServices
 90
     1024
280
     0
281
     0
  0
CLASS
  1
AMGSETTINGSOBJ
  2
AmgSettingsObj
  3
"AcadM|Product Description: AutoCAD Mechanical|Company: Autodesk, Inc."
 90
     1024
280
     0
281
     0
  0
CLASS
  1
ACMESCOPE
  2
AcMeScope
  3
AcMeServices
 90
     1024
280
     0
281
     0
  0
CLASS
  1
ACMECOMMANDHISTORY
  2
AcMeCommandHistory
  3
AcMeServices
 90
     1024
280
     0
281
     0
  0
CLASS
  1
ACIMSYSVARMAN
  2
AcImSysVarManager
  3
AcMeServices
 90
     1024
280
     0
281
     0
  0
CLASS
  1
ACIMINTSYSVAR
  2
AcImIntSysVar
  3
AcMeServices
 90
     1024
280
     0
281
     0
  0
CLASS
  1
ACMEDRAWINGMAN
  2
AcMeDrawingMan
  3
AcMeServices
 90
    33792
280
     0
281
     0
  0
CLASS
  1
ACMEVIEW
  2
AcMeView
  3
AcMeServices
 90
    33792
280
     0
281
     0
  0
CLASS
  1
ACDBENTITYCACHE
  2
AcMeEntityCache
  3
AcMeServices
 90
     1024
280
     0
281
     0
  0
CLASS
  1
GSMANAGER
  2
AcMeGSManager
  3
AcMeServices
 90
    33792
280
     0
281
     0
  0
CLASS
  1
AMDTINTERNALREACTOR
  2
AmdtInternalReactor
  3
AcMeServices
 90
     1024
280
     0
281
     0
  0
CLASS
  1
ACMESTATEMGR
  2
AcMeStateMgr
  3
AcMeServices
 90
     1024
280
     0
281
     0
  0
CLASS
  1
ACGREFMASTER
  2
AcGrefMaster
  3
AcAttribServices
 90
     1024
280
     0
281
     0
  0
CLASS
  1
AM_DRAWING_MGR
  2
AcDmDwgMgr
  3
AcMechDwgViewMgmt
 90
     1024
280
     0
281
     0
  0
CLASS
  1
AM_DWG_DOCUMENT
  2
AcDmDwgDocument
  3
AcMechDwgViewMgmt
 90
     1024
280
     0
281
     0
  0
CLASS
  1
AM_DWG_SHEET
  2
AcDmSheet
  3
AcMechDwgViewMgmt
 90
     1024
280
     0
281
     0
  0
CLASS
  1
AM_VIEWDIMPARMAP
  2
AcDmViewDimParMap
  3
AcMechDwgViewMgmt
 90
     1024
280
     0
281
     0
  0
CLASS
  1
ACIMREALSYSVAR
  2
AcImRealSysVar
  3
AcMeServices
 90
     1024
280
     0
281
     0
  0
CLASS
  1
AM_DWGMGR_NAME
  2
AcDmDwgMgrName
  3
AcMechDwgViewMgmt
 90
     1024
280
     0
281
     0
  0
CLASS
  1
ACME_DATABASE
  2
AcMeDbDatabase
  3
AcMeServices
 90
     1024
280
     0
281
     0
  0
CLASS
  1
ACRFINSADJUSTERMGR
  2
AcRfInsAdjusterMgr
  3
AcMeServices
 90
     1024
280
     0
281
     0
  0
CLASS
  1
ACGREFACADMASTER
  2
AcGrefacadMaster
  3
AcGrefServices
 90
     1024
280
     0
281
     0
  0
CLASS
  1
AMDTMENUSTATEMGR
  2
AmdtMenuStateMgr
  3
McadcomServices
 90
     1024
280
     0
281
     0
  0
CLASS
  1
AMDTMCOMMENUSTATE
  2
AmdtMcomMenuState
  3
McadcomServices
 90
     1024
280
     0
281
     0
  0
CLASS
  1
AMIMASTER
  2
AmiMaster
  3
AmiServices
 90
     1024
280
     0
281
     0
  0
CLASS
  1
MAPIAMMOUDLE
  2
MApiAmModule
  3
MApiAmServices
 90
     1024
280
     0
281
     0
  0
CLASS
  1
ACIMSTRSYSVAR
  2
AcImStrSysVar
  3
AcMeServices
 90
     1024
280
     0
281
     0
  0
CLASS
  1
AMDTADMENUSTATE
  2
AmdtAdMenuState
  3
DesignerServices
 90
    33792
280
     0
281
     0
  0
CLASS
  1
ADAPPL
  2
AcAdAppl
  3
DesignerAssemblies
 90
    33792
280
     0
281
     0
  0
CLASS
  1
DEPMGR
  2
AcAdDepMgr
  3
DesignerAssemblies
 90
    33792
280
     0
281
     0
  0
CLASS
  1
PARAMMGR
  2
AcAdParamMgr
  3
DesignerAssemblies
 90
    33792
280
     0
281
     0
  0
CLASS
  1
PARAMSCOPE
  2
AcAdParamScope
  3
DesignerAssemblies
 90
    33792
280
     0
281
     0
  0
CLASS
  1
NAMEDAPPL
  2
AcAdNamedAppl
  3
DesignerAssemblies
 90
    33792
280
     0
281
     0
  0
CLASS
  1
AMDTDMMENUSTATE
  2
AmdtDmMenuState
  3
AcMechDwgViewMgmt
 90
    33792
280
     0
281
     0
  0
CLASS
  1
AMDTAMMENUSTATE
  2
AmdtAmMenuState
  3
DesignerAssemblies
 90
     1024
280
     0
281
     0
  0
CLASS
  1
ACAMPROJECT
  2
AcAmProject
  3
DesignerAssemblies
 90
     1024
280
     0
281
     0
  0
CLASS
  1
ACAMGRCOMPDEF
  2
AcAmGrCompDef
  3
DesignerAssemblies
 90
     1024
280
     0
281
     0
  0
CLASS
  1
ACCMCONTEXT
  2
AcCmContext
  3
DesignerAssemblies
 90
     1024
280
     0
281
     0
  0
CLASS
  1
ACAMCOMPDEF
  2
AcAmCompDef
  3
DesignerAssemblies
 90
     1024
280
     0
281
     0
  0
CLASS
  1
ACAMCOMPDEFMGR
  2
AcAmCompDefMgr
  3
DesignerAssemblies
 90
     1024
280
     0
281
     0
  0
CLASS
  1
AMCONTEXTMGR
  2
AcAmContextMgr
  3
DesignerAssemblies
 90
     1024
280
     0
281
     0
  0
CLASS
  1
ACAMCONTEXTMODELER
  2
AcAmContextModeler
  3
DesignerAssemblies
 90
     1024
280
     0
281
     0
  0
CLASS
  1
ACMDATADICTIONARY
  2
AcmDataDictionary
  3
"AcmSymBB|Product Description: AutoCAD Mechanical|Company: Autodesk, Inc."
 90
     1024
280
     0
281
     0
  0
CLASS
  1
CATALOGSTATE
  2
AcAmCatalogState
  3
DesignerAssemblies
 90
    33792
280
     0
281
     0
  0
CLASS
  1
ACAMGRCOMPDEFSET
  2
AcAmGrCompDefSet
  3
DesignerAssemblies
 90
     1024
280
     0
281
     0
  0
CLASS
  1
AMDTBROWSERDBTAB
  2
AmdtBrowserDbTab
  3
McadcomServices
 90
     1024
280
     0
281
     0
  0
CLASS
  1
CBROWSERAPPOBJECT
  2
CBrowserAppObject
  3
McadcomServices
 90
     1024
280
     0
281
     0
  0
CLASS
  1
DM_PLACEHOLDER
  2
AcDmSelsetPlaceholder
  3
McadcomServices
 90
     1024
280
     0
281
     0
  0
CLASS
  1
ACMSTANDARDDIN
  2
AcmStandardDIN
  3
"Amdt_StdImp|Product Description: AutoCAD Mechanical|Company: Autodesk, Inc."
 90
     1024
280
     0
281
     0
  0
CLASS
  1
AMGOBJPROPCFG
  2
AmgObjPropCfg
  3
"AmgLay|Product Description: AutoCAD Mechanical|Company: Autodesk, Inc."
 90
     1024
280
     0
281
     0
  0
CLASS
  1
AMDTEDGESTANDARDDIN13715
  2
AmdtEdgeStdDIN13715
  3
"Amdt_StdImp|Product Description: AutoCAD Mechanical|Company: Autodesk, Inc."
 90
     1024
280
     0
281
     0
  0
CLASS
  1
ACMSURFSTANDARDDIN2002
  2
AcmSurfTextStdDIN2002
  3
"Amdt_StdImp|Product Description: AutoCAD Mechanical|Company: Autodesk, Inc."
 90
     1024
280
     0
281
     0
  0
CLASS
  1
ACMFCFSTANDARDDIN
  2
AcmFCFStdDIN
  3
"Amdt_StdImp|Product Description: AutoCAD Mechanical|Company: Autodesk, Inc."
 90
     1024
280
     0
281
     0
  0
CLASS
  1
ACMWELDSTANDARDDIN
  2
AcmWeldingStdDIN
  3
"Amdt_StdImp|Product Description: AutoCAD Mechanical|Company: Autodesk, Inc."
 90
     1024
280
     0
281
     0
  0
CLASS
  1
ACMIDSTANDARDDIN
  2
AcmIdStdDIN
  3
"Amdt_StdImp|Product Description: AutoCAD Mechanical|Company: Autodesk, Inc."
 90
     1024
280
     0
281
     0
  0
CLASS
  1
ACMDATUMSTANDARDDIN
  2
AcmDatumStdDIN
  3
"Amdt_StdImp|Product Description: AutoCAD Mechanical|Company: Autodesk, Inc."
 90
     1024
280
     0
281
     0
  0
CLASS
  1
ACMBOMSTANDARDDIN
  2
AcmBOMStdDIN
  3
"Amdt_StdImp|Product Description: AutoCAD Mechanical|Company: Autodesk, Inc."
 90
     1024
280
     0
281
     0
  0
CLASS
  1
ACMDETAILSTANDARDDIN
  2
AmdtDetailSymStdDIN
  3
"Amdt_StdImp|Product Description: AutoCAD Mechanical|Company: Autodesk, Inc."
 90
     1024
280
     0
281
     0
  0
CLASS
  1
ACMSECTIONSTANDARDDIN
  2
AmdtSectionSymStdDIN
  3
"Amdt_StdImp|Product Description: AutoCAD Mechanical|Company: Autodesk, Inc."
 90
     1024
280
     0
281
     0
  0
CLASS
  1
ACMCENTERLINESTANDARDDIN
  2
AmdtCenterLineStdDIN
  3
"Amdt_StdImp|Product Description: AutoCAD Mechanical|Company: Autodesk, Inc."
 90
     1024
280
     0
281
     0
  0
CLASS
  1
ACMTHREADLINESTANDARDDIN
  2
AmdtThreadLineStdDIN
  3
"Amdt_StdImp|Product Description: AutoCAD Mechanical|Company: Autodesk, Inc."
 90
     1024
280
     0
281
     0
  0
CLASS
  1
ACMNOTESTANDARDDIN
  2
AmdtNoteStdDIN
  3
"Amdt_StdImp|Product Description: AutoCAD Mechanical|Company: Autodesk, Inc."
 90
     1024
280
     0
281
     0
  0
CLASS
  1
ACMTAPERSTANDARDDIN
  2
AcmTaperStdDIN
  3
"Amdt_StdImp|Product Description: AutoCAD Mechanical|Company: Autodesk, Inc."
 90
     1024
280
     0
281
     0
  0
CLASS
  1
ACMANOOTATIONVIEWSTANDARDDIN
  2
AmdtAnViewStdDIN
  3
"Amdt_StdImp|Product Description: AutoCAD Mechanical|Company: Autodesk, Inc."
 90
     1024
280
     0
281
     0
  0
CLASS
  1
AMDTNOTETEMPLATEDB
  2
AmdtNoteTemplateDB
  3
AcmSymBB|Product Description: AutoCAD Mechanical|Company: Autodesk, Inc.
 90
     1024
280
     0
281
     0
  0
CLASS
  1
ACAMGLAYSTD
  2
AcAmgLayStd
  3
"AmgLay|Product Description: AutoCAD Mechanical|Company: Autodesk, Inc."
 90
     1024
280
     0
281
     0
  0
CLASS
  1
ACAMGDIMSTD
  2
AcAmgDimStd
  3
"AmgDim|Product Description: AutoCAD Mechanical|Company: Autodesk, Inc."
 90
     1024
280
     0
281
     0
  0
CLASS
  1
ACAMGHOLECHARTSTDDIN
  2
AcAmgHoleChartStdDIN
  3
AmgDim|Product Description: AutoCAD Mechanical|Company: Autodesk, Inc.
 90
     1024
280
     0
281
     0
  0
CLASS
  1
ACAMGTITLESTD
  2
AcAmgTitleStd
  3
"AmgTitle|Product Description: AutoCAD Mechanical|Company: Autodesk, Inc."
 90
     1024
280
     0
281
     0
  0
CLASS
  1
ACAMGFILTERDAT
  2
AcAmgFilterDat
  3
"AcadM|Product Description: AutoCAD Mechanical|Company: Autodesk, Inc."
 90
     1024
280
     0
281
     0
  0
CLASS
  1
CAMSSTRUCTBTNSTATE
  2
StructBtnState
  3
DesignerAssemblies
 90
     1024
280
     0
281
     0
  0
CLASS
  1
CELLSTYLEMAP
  2
AcDbCellStyleMap
  3
ObjectDBX Classes
 90
     1152
280
     0
281
     0
  0
CLASS
  1
SORTENTSTABLE
  2
AcDbSortentsTable
  3
ObjectDBX Classes
 90
    32768
280
     0
281
     0
  0
CLASS
  1
PLOTSETTINGS
  2
AcDbPlotSettings
  3
ObjectDBX Classes
 90
        0
280
     0
281
     0
  0
CLASS
  1
SOLID_BACKGROUND
  2
AcDbSolidBackground
  3
SCENEOE
 90
    36863
280
     0
281
     0
  0
CLASS
  1
NPOCOLLECTION
  2
AcDbImpNonPersistentObjectsCollection
  3
ObjectDBX Classes
 90
    33921
280
     0
281
     0
  0
CLASS
  1
ACDBSECTIONVIEWSTYLE
  2
AcDbSectionViewStyle
  3
ObjectDBX Classes
 90
     1025
280
     0
281
     0
  0
CLASS
  1
ACDBDETAILVIEWSTYLE
  2
AcDbDetailViewStyle
  3
ObjectDBX Classes
 90
     1025
280
     0
281
     0
  0
CLASS
  1
ACMSECTIONSTANDARDCUSTOM
  2
AmdtSectionSymStdCustom
  3
"Amdt_StdImp|Product Description: AutoCAD Mechanical|Company: Autodesk, Inc."
 90
     1024
280
     0
281
     0
  0
CLASS
  1
ACMDETAILTANDARDCUSTOM
  2
AmdtDetailSymStdCustom
  3
"Amdt_StdImp|Product Description: AutoCAD Mechanical|Company: Autodesk, Inc."
 90
     1024
280
     0
281
     0
  0
CLASS
  1
FIELD
  2
AcDbField
  3
ObjectDBX Classes
 90
     1152
280
     0
281
     0
  0
CLASS
  1
FIELDLIST
  2
AcDbFieldList
  3
ObjectDBX Classes
 90
     1152
280
     0
281
     0
  0
CLASS
  1
ACMSTANDARDISO
  2
AcmStandardISO
  3
"Amdt_StdImp|Product Description: AutoCAD Mechanical|Company: Autodesk, Inc."
 90
     1024
280
     0
281
     0
  0
CLASS
  1
AMDTEDGESTANDARDISO13715
  2
AmdtEdgeStdISO13715
  3
"Amdt_StdImp|Product Description: AutoCAD Mechanical|Company: Autodesk, Inc."
 90
     1024
280
     0
281
     0
  0
CLASS
  1
ACMSURFSTANDARDISO2002
  2
AcmSurfTextStdISO2002
  3
"Amdt_StdImp|Product Description: AutoCAD Mechanical|Company: Autodesk, Inc."
 90
     1024
280
     0
281
     0
  0
CLASS
  1
ACMFCFSTANDARDISO2004
  2
AcmFCFStdISO2004
  3
"Amdt_StdImp|Product Description: AutoCAD Mechanical|Company: Autodesk, Inc."
 90
     1024
280
     0
281
     0
  0
CLASS
  1
ACMWELDSTANDARDISO
  2
AcmWeldingStdISO
  3
"Amdt_StdImp|Product Description: AutoCAD Mechanical|Company: Autodesk, Inc."
 90
     1024
280
     0
281
     0
  0
CLASS
  1
ACMIDSTANDARDISO2004
  2
AcmIdStdISO2004
  3
"Amdt_StdImp|Product Description: AutoCAD Mechanical|Company: Autodesk, Inc."
 90
     1024
280
     0
281
     0
  0
CLASS
  1
ACMDATUMSTANDARDISO
  2
AcmDatumStdISO
  3
"Amdt_StdImp|Product Description: AutoCAD Mechanical|Company: Autodesk, Inc."
 90
     1024
280
     0
281
     0
  0
CLASS
  1
ACMBOMSTANDARDISO
  2
AcmBOMStdISO
  3
"Amdt_StdImp|Product Description: AutoCAD Mechanical|Company: Autodesk, Inc."
 90
     1024
280
     0
281
     0
  0
CLASS
  1
ACMDETAILSTANDARDISO
  2
AmdtDetailSymStdISO
  3
"Amdt_StdImp|Product Description: AutoCAD Mechanical|Company: Autodesk, Inc."
 90
     1024
280
     0
281
     0
  0
CLASS
  1
ACMSECTIONSTANDARDISO2001
  2
AmdtSectionSymStdISO2001
  3
"Amdt_StdImp|Product Description: AutoCAD Mechanical|Company: Autodesk, Inc."
 90
     1024
280
     0
281
     0
  0
CLASS
  1
ACMCENTERLINESTANDARDISO
  2
AmdtCenterLineStdISO
  3
"Amdt_StdImp|Product Description: AutoCAD Mechanical|Company: Autodesk, Inc."
 90
     1024
280
     0
281
     0
  0
CLASS
  1
ACMTHREADLINESTANDARDISO
  2
AmdtThreadLineStdISO
  3
"Amdt_StdImp|Product Description: AutoCAD Mechanical|Company: Autodesk, Inc."
 90
     1024
280
     0
281
     0
  0
CLASS
  1
ACMNOTESTANDARDISO
  2
AmdtNoteStdISO
  3
"Amdt_StdImp|Product Description: AutoCAD Mechanical|Company: Autodesk, Inc."
 90
     1024
280
     0
281
     0
  0
CLASS
  1
ACMTAPERSTANDARDISO
  2
AcmTaperStdISO
  3
"Amdt_StdImp|Product Description: AutoCAD Mechanical|Company: Autodesk, Inc."
 90
     1024
280
     0
281
     0
  0
CLASS
  1
ACMANOOTATIONVIEWSTANDARDISO
  2
AmdtAnViewStdISO
  3
"Amdt_StdImp|Product Description: AutoCAD Mechanical|Company: Autodesk, Inc."
 90
     1024
280
     0
281
     0
  0
CLASS
  1
ACAMGHOLECHARTSTDISO
  2
AcAmgHoleChartStdISO
  3
AmgDim|Product Description: AutoCAD Mechanical|Company: Autodesk, Inc.
 90
     1024
280
     0
281
     0
  0
ENDSEC
  0
SECTION
  2
TABLES
  0
TABLE
  2
VPORT
  5
8
102
{ACAD_XDICTIONARY
360
A45
102
}
330
0
100
AcDbSymbolTable
 70
     1
  0
VPORT
  5
AD1
330
8
100
AcDbSymbolTableRecord
100
AcDbViewportTableRecord
  2
*Active
 70
     0
 10
0.0
 20
0.0
 11
1.0
 21
1.0
 12
19.6546761156297
 22
8.57826357885254
 13
0.0
 23
0.0
 14
5.0
 24
5.0
 15
5.0
 25
5.0
 16
0.0
 26
0.0
 36
1.0
 17
0.0
 27
0.0
 37
0.0
 40
80.32679280767821
 41
1.884374999999999
 42
50.0
 43
0.0
 44
0.0
 50
0.0
 51
0.0
 71
     0
 72
  2000
 73
     1
 74
     3
 75
     0
 76
     0
 77
     0
 78
     0
281
     0
 65
     1
110
87.52906163476955
120
89.97817959472047
130
0.0
111
1.0
121
0.0
131
0.0
112
0.0
122
1.0
132
0.0
 79
     0
146
0.0
1001
ACAD_NAV_VCDISPLAY
1070
     3
  0
ENDTAB
  0
TABLE
  2
LTYPE
  5
5
330
0
100
AcDbSymbolTable
 70
    14
  0
LTYPE
  5
12
330
5
100
AcDbSymbolTableRecord
100
AcDbLinetypeTableRecord
  2
BYBLOCK
 70
     0
  3

 72
    65
 73
     0
 40
0.0
  0
LTYPE
  5
13
330
5
100
AcDbSymbolTableRecord
100
AcDbLinetypeTableRecord
  2
BYLAYER
 70
     0
  3

 72
    65
 73
     0
 40
0.0
  0
LTYPE
  5
14
330
5
100
AcDbSymbolTableRecord
100
AcDbLinetypeTableRecord
  2
CONTINUOUS
 70
     0
  3
ISO continuous line ______________________________________
 72
    65
 73
     2
 40
9999.0
 49
9999.0
 74
     0
 49
0.0
 74
     0
  0
LTYPE
  5
4EF
330
5
100
AcDbSymbolTableRecord
100
AcDbLinetypeTableRecord
  2
ACDINWELD
 70
     0
  3
_ _ _ _ _
 72
    65
 73
     2
 40
2.0
 49
2.0
 74
     0
 49
-1.0
 74
     0
  0
LTYPE
  5
4F0
330
5
100
AcDbSymbolTableRecord
100
AcDbLinetypeTableRecord
  2
ACDINTGB
 70
     0
  3
__ . . __ . .
 72
    65
 73
     6
 40
9.0
 49
4.0
 74
     0
 49
-1.0
 74
     0
 49
1.0
 74
     0
 49
-1.0
 74
     0
 49
1.0
 74
     0
 49
-1.0
 74
     0
  0
LTYPE
  5
4F1
330
5
100
AcDbSymbolTableRecord
100
AcDbLinetypeTableRecord
  2
ACDINTGL
 70
     0
  3
_ _ _ _ _
 72
    65
 73
     2
 40
3.0
 49
2.0
 74
     0
 49
-1.0
 74
     0
  0
LTYPE
  5
916
330
5
100
AcDbSymbolTableRecord
100
AcDbLinetypeTableRecord
  2
LONGDASH_DASH
 70
     0
  3
ISO center line ____ _ ____ _ ____ _ ____ _ ___ _ ___
 72
    65
 73
     4
 40
10.5
 49
6.0
 74
     0
 49
-0.75
 74
     0
 49
3.0
 74
     0
 49
-0.75
 74
     0
  0
LTYPE
  5
CFA
330
5
100
AcDbSymbolTableRecord
100
AcDbLinetypeTableRecord
  2
HIDDEN
 70
     0
  3
Hidden __ __ __ __ __ __ __ __ __ __ __ __ __ _
 72
    65
 73
     2
 40
9.524999999999998
 49
6.349999999999999
 74
     0
 49
-3.174999999999999
 74
     0
  0
LTYPE
  5
CFB
330
5
100
AcDbSymbolTableRecord
100
AcDbLinetypeTableRecord
  2
PHANTOM2
 70
     0
  3
Phantom (.5x) ___ _ _ ___ _ _ ___ _ _ ___ _ _
 72
    65
 73
     6
 40
31.75
 49
15.875
 74
     0
 49
-3.174999999999999
 74
     0
 49
3.174999999999999
 74
     0
 49
-3.174999999999999
 74
     0
 49
3.174999999999999
 74
     0
 49
-3.174999999999999
 74
     0
  0
LTYPE
  5
CFC
330
5
100
AcDbSymbolTableRecord
100
AcDbLinetypeTableRecord
  2
CENTER
 70
     0
  3
Center ____ _ ____ _ ____ _ ____ _ ____ _ ____
 72
    65
 73
     4
 40
50.8
 49
31.75
 74
     0
 49
-6.349999999999999
 74
     0
 49
6.349999999999999
 74
     0
 49
-6.349999999999999
 74
     0
  0
LTYPE
  5
D85
330
5
100
AcDbSymbolTableRecord
100
AcDbLinetypeTableRecord
  2
ACISOWELD
 70
     0
  3
_ _ _ _ _
 72
    65
 73
     2
 40
2.0
 49
2.0
 74
     0
 49
-1.0
 74
     0
  0
LTYPE
  5
D86
330
5
100
AcDbSymbolTableRecord
100
AcDbLinetypeTableRecord
  2
ACISOTGL
 70
     0
  3
_ _ _ _ _
 72
    65
 73
     2
 40
3.0
 49
2.0
 74
     0
 49
-1.0
 74
     0
  0
LTYPE
  5
D87
330
5
100
AcDbSymbolTableRecord
100
AcDbLinetypeTableRecord
  2
ACISOTGB
 70
     0
  3
__ . . __ . .
 72
    65
 73
     6
 40
9.0
 49
4.0
 74
     0
 49
-1.0
 74
     0
 49
1.0
 74
     0
 49
-1.0
 74
     0
 49
1.0
 74
     0
 49
-1.0
 74
     0
  0
ENDTAB
  0
TABLE
  2
LAYER
  5
2
102
{ACAD_XDICTIONARY
360
43C
102
}
330
0
100
AcDbSymbolTable
 70
   102
  0
LAYER
  5
F
102
{ACAD_XDICTIONARY
360
52D
102
}
330
2
100
AcDbSymbolTableRecord
100
AcDbLayerTableRecord
  2
0
 70
     0
 62
     7
  6
CONTINUOUS
290
     0
370
    -3
390
300
  0
LAYER
  5
23
102
{ACAD_XDICTIONARY
360
52F
102
}
330
2
100
AcDbSymbolTableRecord
100
AcDbLayerTableRecord
  2
1
 70
     0
 62
     4
  6
CONTINUOUS
370
    50
390
300
  0
LAYER
  5
24
102
{ACAD_XDICTIONARY
360
531
102
}
330
2
100
AcDbSymbolTableRecord
100
AcDbLayerTableRecord
  2
SK1
 70
     0
 62
     4
  6
CONTINUOUS
370
    50
390
300
  0
LAYER
  5
25
102
{ACAD_XDICTIONARY
360
533
102
}
330
2
100
AcDbSymbolTableRecord
100
AcDbLayerTableRecord
  2
2
 70
     0
 62
     7
  6
CONTINUOUS
370
    25
390
300
  0
LAYER
  5
27
102
{ACAD_XDICTIONARY
360
537
102
}
330
2
100
AcDbSymbolTableRecord
100
AcDbLayerTableRecord
  2
SK2
 70
     0
 62
     7
  6
CONTINUOUS
370
    25
390
300
  0
LAYER
  5
2A
102
{ACAD_XDICTIONARY
360
53D
102
}
330
2
100
AcDbSymbolTableRecord
100
AcDbLayerTableRecord
  2
4
 70
     0
 62
     2
  6
LONGDASH_DASH
370
    25
390
300
  0
LAYER
  5
2B
102
{ACAD_XDICTIONARY
360
53F
102
}
330
2
100
AcDbSymbolTableRecord
100
AcDbLayerTableRecord
  2
SK4
 70
     0
 62
     2
  6
LONGDASH_DASH
370
    25
390
300
  0
LAYER
  5
2E
102
{ACAD_XDICTIONARY
360
545
102
}
330
2
100
AcDbSymbolTableRecord
100
AcDbLayerTableRecord
  2
SK6
 70
     0
 62
     5
  6
CONTINUOUS
370
    35
390
300
  0
LAYER
  5
2F
330
2
100
AcDbSymbolTableRecord
100
AcDbLayerTableRecord
  2
DEFPOINTS
 70
     0
 62
     7
  6
CONTINUOUS
290
     0
370
    -3
390
300
  0
ENDTAB
  0
TABLE
  2
STYLE
  5
3
330
0
100
AcDbSymbolTable
 70
    10
  0
STYLE
  5
10
330
3
100
AcDbSymbolTableRecord
100
AcDbTextStyleTableRecord
  2
STANDARD
 70
     0
 40
0.0
 41
1.0
 50
0.0
 71
     0
 42
5.0
  3
monos.ttf
  4

1001
ACAD
1000
Monospac821 BT
1071
       49
  0
STYLE
  5
1E
330
3
100
AcDbSymbolTableRecord
100
AcDbTextStyleTableRecord
  2
STANDARD 5 mm
 70
     0
 40
5.0
 41
1.0
 50
0.0
 71
     0
 42
3.5
  3
monos.ttf
  4

1001
ACAD
1000
Monospac821 BT
1071
       49
  0
STYLE
  5
4DF
330
3
100
AcDbSymbolTableRecord
100
AcDbTextStyleTableRecord
  2
ACDINTS
 70
     0
 40
1.0
 41
1.0
 50
0.0
 71
     0
 42
3.5
  3
monos.ttf
  4

1001
ACAD
1000
Monospac821 BT
1071
       49
  0
STYLE
  5
4EE
330
3
100
AcDbSymbolTableRecord
100
AcDbTextStyleTableRecord
  2
ACDINGDT
 70
     0
 40
0.0
 41
1.0
 50
0.0
 71
     0
 42
3.5
  3
monos.ttf
  4

1001
ACAD
1000
Monospac821 BT
1071
       49
  0
STYLE
  5
7DE
330
3
100
AcDbSymbolTableRecord
100
AcDbTextStyleTableRecord
  2
STANDARD 3.5 mm
 70
     0
 40
3.5
 41
1.0
 50
0.0
 71
     0
 42
3.5
  3
monos.ttf
  4

1001
ACAD
1000
Monospac821 BT
1071
       49
  0
STYLE
  5
D88
330
3
100
AcDbSymbolTableRecord
100
AcDbTextStyleTableRecord
  2
SIMPLEX
 70
     0
 40
0.0
 41
1.0
 50
0.0
 71
     0
 42
3.5
  3
simplex
  4

  0
STYLE
  5
D89
330
3
100
AcDbSymbolTableRecord
100
AcDbTextStyleTableRecord
  2
ACISOGDT
 70
     0
 40
0.0
 41
1.0
 50
0.0
 71
     0
 42
3.5
  3
amgdt.shx
  4

  0
ENDTAB
  0
TABLE
  2
VIEW
  5
6
330
0
100
AcDbSymbolTable
 70
     6
  0
VIEW
  5
758
330
6
100
AcDbSymbolTableRecord
100
AcDbViewTableRecord
  2
AM_VIEW1
 70
     1
 40
148.5265045166015
 10
121.0318359737553
 20
219.614756822586
 41
248.4136475334483
 11
0.0
 21
0.0
 31
1.0
 12
0.0
 22
0.0
 32
0.0
 42
50.0
 43
0.0
 44
0.0
 50
0.0
 71
     0
281
     0
 72
     0
  0
VIEW
  5
759
330
6
100
AcDbSymbolTableRecord
100
AcDbViewTableRecord
  2
AM_VIEW2
 70
     1
 40
148.5265045166015
 10
292.4378600711665
 20
219.614756822586
 41
248.4136475334483
 11
0.0
 21
0.0
 31
1.0
 12
0.0
 22
0.0
 32
0.0
 42
50.0
 43
0.0
 44
0.0
 50
0.0
 71
     0
281
     0
 72
     0
  0
VIEW
  5
75A
330
6
100
AcDbSymbolTableRecord
100
AcDbViewTableRecord
  2
AM_VIEW3
 70
     1
 40
148.5265045166015
 10
121.0318359737553
 20
71.0882523059845
 41
248.4136475334483
 11
0.0
 21
0.0
 31
1.0
 12
0.0
 22
0.0
 32
0.0
 42
50.0
 43
0.0
 44
0.0
 50
0.0
 71
     0
281
     0
 72
     0
  0
VIEW
  5
75B
330
6
100
AcDbSymbolTableRecord
100
AcDbViewTableRecord
  2
AM_VIEW4
 70
     1
 40
148.5265045166015
 10
292.4378600711665
 20
71.0882523059845
 41
248.4136475334483
 11
0.0
 21
0.0
 31
1.0
 12
0.0
 22
0.0
 32
0.0
 42
50.0
 43
0.0
 44
0.0
 50
0.0
 71
     0
281
     0
 72
     0
  0
VIEW
  5
75C
330
6
100
AcDbSymbolTableRecord
100
AcDbViewTableRecord
  2
AM_VIEW5
 70
     1
 40
148.5265045166015
 10
206.7348480224609
 20
145.3515045642852
 41
248.4136475334483
 11
0.0
 21
0.0
 31
1.0
 12
0.0
 22
0.0
 32
0.0
 42
50.0
 43
0.0
 44
0.0
 50
0.0
 71
     0
281
     0
 72
     0
  0
VIEW
  5
75D
330
6
100
AcDbSymbolTableRecord
100
AcDbViewTableRecord
  2
AM_VIEW6
 70
     1
 40
297.0500385031128
 10
206.7348480224609
 20
145.3515045642852
 41
496.8223267939459
 11
0.0
 21
0.0
 31
1.0
 12
0.0
 22
0.0
 32
0.0
 42
50.0
 43
0.0
 44
0.0
 50
0.0
 71
     0
281
     0
 72
     0
  0
ENDTAB
  0
TABLE
  2
UCS
  5
7
330
0
100
AcDbSymbolTable
 70
     0
  0
ENDTAB
  0
TABLE
  2
APPID
  5
9
330
0
100
AcDbSymbolTable
 70
    35
  0
APPID
  5
11
330
9
100
AcDbSymbolTableRecord
100
AcDbRegAppTableRecord
  2
ACAD
 70
     0
  0
APPID
  5
3A6
330
9
100
AcDbSymbolTableRecord
100
AcDbRegAppTableRecord
  2
ACAD_PSEXT
 70
     0
  0
APPID
  5
3A8
330
9
100
AcDbSymbolTableRecord
100
AcDbRegAppTableRecord
  2
ACAD_EXEMPT_FROM_CAD_STANDARDS
 70
     0
  0
APPID
  5
433
330
9
100
AcDbSymbolTableRecord
100
AcDbRegAppTableRecord
  2
AcAecLayerStandard
 70
     0
  0
APPID
  5
471
330
9
100
AcDbSymbolTableRecord
100
AcDbRegAppTableRecord
  2
ACAD_MLEADERVER
 70
     0
  0
APPID
  5
47D
330
9
100
AcDbSymbolTableRecord
100
AcDbRegAppTableRecord
  2
MCAD_NO_VIS
 70
     0
  0
APPID
  5
47E
330
9
100
AcDbSymbolTableRecord
100
AcDbRegAppTableRecord
  2
ACAD_TEMP_GRAPHIC
 70
     0
  0
APPID
  5
4AC
330
9
100
AcDbSymbolTableRecord
100
AcDbRegAppTableRecord
  2
AD_DRAW
 70
     0
  0
APPID
  5
4AF
330
9
100
AcDbSymbolTableRecord
100
AcDbRegAppTableRecord
  2
ACATTRIBSERVICES
 70
     0
  0
APPID
  5
4D0
330
9
100
AcDbSymbolTableRecord
100
AcDbRegAppTableRecord
  2
DESIGNERASSEMBLIES
 70
     0
  0
APPID
  5
4D6
330
9
100
AcDbSymbolTableRecord
100
AcDbRegAppTableRecord
  2
ACADM_DIM_EDIT
 70
     0
  0
APPID
  5
4D7
330
9
100
AcDbSymbolTableRecord
100
AcDbRegAppTableRecord
  2
AMDT_DM_ADJ
 70
     0
  0
APPID
  5
5CD
330
9
100
AcDbSymbolTableRecord
100
AcDbRegAppTableRecord
  2
AcDbAttr
 70
     0
  0
APPID
  5
5CE
330
9
100
AcDbSymbolTableRecord
100
AcDbRegAppTableRecord
  2
ACAUTHENVIRON
 70
     0
  0
APPID
  5
5CF
330
9
100
AcDbSymbolTableRecord
100
AcDbRegAppTableRecord
  2
AcDbDynamicBlockTrueName
 70
     0
  0
APPID
  5
5D0
330
9
100
AcDbSymbolTableRecord
100
AcDbRegAppTableRecord
  2
ACDBBLOCKREPETAG
 70
     0
  0
APPID
  5
723
330
9
100
AcDbSymbolTableRecord
100
AcDbRegAppTableRecord
  2
GENIUS_GENTRA_14
 70
     0
  0
APPID
  5
752
330
9
100
AcDbSymbolTableRecord
100
AcDbRegAppTableRecord
  2
GENIUS_GENOENT_13
 70
     0
  0
APPID
  5
753
330
9
100
AcDbSymbolTableRecord
100
AcDbRegAppTableRecord
  2
GENIUS_GENOBJ-N-TIT_13
 70
     0
  0
APPID
  5
754
330
9
100
AcDbSymbolTableRecord
100
AcDbRegAppTableRecord
  2
GENIUS_GENODEF_13
 70
     0
  0
APPID
  5
755
330
9
100
AcDbSymbolTableRecord
100
AcDbRegAppTableRecord
  2
GENIUS_GENOLIS_13
 70
     0
  0
APPID
  5
756
330
9
100
AcDbSymbolTableRecord
100
AcDbRegAppTableRecord
  2
GENIUS_GENTITLE_13
 70
     0
  0
APPID
  5
757
330
9
100
AcDbSymbolTableRecord
100
AcDbRegAppTableRecord
  2
GENIUS_GENOREF_13
 70
     0
  0
APPID
  5
75E
330
9
100
AcDbSymbolTableRecord
100
AcDbRegAppTableRecord
  2
GENIUS_GENSCREG_15
 70
     0
  0
APPID
  5
75F
330
9
100
AcDbSymbolTableRecord
100
AcDbRegAppTableRecord
  2
GENIUS_GENOBJ-N-SDF_13
 70
     0
  0
APPID
  5
7BE
330
9
100
AcDbSymbolTableRecord
100
AcDbRegAppTableRecord
  2
AcadAnnoPO
 70
     0
  0
APPID
  5
7BF
330
9
100
AcDbSymbolTableRecord
100
AcDbRegAppTableRecord
  2
ACAD_DSTYLE_DIMJAG
 70
     0
  0
APPID
  5
7C0
330
9
100
AcDbSymbolTableRecord
100
AcDbRegAppTableRecord
  2
ACAD_DSTYLE_DIMTALN
 70
     0
  0
APPID
  5
A53
330
9
100
AcDbSymbolTableRecord
100
AcDbRegAppTableRecord
  2
ACAD_DSTYLE_DIMARC_LENGTH_SYMBOL
 70
     0
  0
APPID
  5
A65
330
9
100
AcDbSymbolTableRecord
100
AcDbRegAppTableRecord
  2
ACAD_DSTYLE_DIMJOGGED_JOGANGLE_SYMBOL
 70
     0
  0
APPID
  5
CCE
330
9
100
AcDbSymbolTableRecord
100
AcDbRegAppTableRecord
  2
ACAD_DSTYLE_DIMBREAK
 70
     0
  0
APPID
  5
D24
330
9
100
AcDbSymbolTableRecord
100
AcDbRegAppTableRecord
  2
ACAD_NAV_VCDISPLAY
 70
     0
  0
APPID
  5
13E2
330
9
100
AcDbSymbolTableRecord
100
AcDbRegAppTableRecord
  2
ACAD_DSTYLE_DIM_LINETYPE
 70
     0
  0
APPID
  5
13E3
330
9
100
AcDbSymbolTableRecord
100
AcDbRegAppTableRecord
  2
ACAD_DSTYLE_DIM_EXT1_LINETYPE
 70
     0
  0
APPID
  5
13E4
330
9
100
AcDbSymbolTableRecord
100
AcDbRegAppTableRecord
  2
ACAD_DSTYLE_DIM_EXT2_LINETYPE
 70
     0
  0
ENDTAB
  0
TABLE
  2
DIMSTYLE
  5
A
330
0
100
AcDbSymbolTable
 70
    19
100
AcDbDimStyleTable
 71
     4
340
4FC
340
3F
340
501
340
506
  0
DIMSTYLE
105
3F
330
A
100
AcDbSymbolTableRecord
100
AcDbDimStyleTableRecord
  2
STANDARD
 70
     0
 41
5.0
 42
1.0
 43
15.0
 44
2.0
 48
0.000000001
 73
     0
 74
     0
 77
     1
 78
     9
 79
     2
140
3.5
143
0.0393700787401575
147
2.299999999999999
171
     3
172
     1
271
     2
272
     2
273
     3
274
     3
284
     8
285
    11
286
     8
340
7DE
1001
ACAD_DSTYLE_DIMJAG
1070
   388
1040
1.5
1001
ACAD_DSTYLE_DIMTALN
1070
   392
1070
     0
1001
ACAD_DSTYLE_DIMARC_LENGTH_SYMBOL
1070
   379
1070
     1
1001
ACAD_DSTYLE_DIMJOGGED_JOGANGLE_SYMBOL
1070
   384
1040
1.570796326794896
  0
DIMSTYLE
105
4FC
330
A
100
AcDbSymbolTableRecord
100
AcDbDimStyleTableRecord
  2
AM_DIN
 70
     0
 41
2.5
 42
1.0
 43
15.0
 44
2.0
 48
0.000000001
 73
     0
 74
     0
 77
     1
 78
     8
 79
     2
140
3.5
143
0.0393701
146
0.7071069999999999
147
2.299999999999999
171
     3
172
     1
271
     2
272
     2
273
     3
274
     3
284
     8
285
    11
286
     8
340
7DE
371
    -1
372
    -1
1001
ACAD_DSTYLE_DIMJAG
1070
   388
1040
1.5
1001
ACAD_DSTYLE_DIMTALN
1070
   392
1070
     0
1001
ACAD_DSTYLE_DIMARC_LENGTH_SYMBOL
1070
   379
1070
     1
1001
ACAD_DSTYLE_DIMJOGGED_JOGANGLE_SYMBOL
1070
   384
1040
1.570796326794896
  0
DIMSTYLE
105
4FD
330
A
100
AcDbSymbolTableRecord
100
AcDbDimStyleTableRecord
  2
AM_DIN$3
 70
     0
 41
2.5
 42
1.0
 43
10.0
 44
2.0
 48
0.000000001
 73
     0
 77
     1
 78
     8
 79
     2
140
3.5
143
0.0393701
146
0.7071069999999999
147
2.299999999999999
171
     3
271
     2
272
     3
273
     3
274
     4
284
     8
285
    11
286
     8
288
     1
289
     0
340
7DE
371
    -1
372
    -1
1001
ACAD_DSTYLE_DIMBREAK
1070
   391
1040
3.75
1001
ACAD_DSTYLE_DIMJAG
1070
   388
1040
1.5
1001
ACAD_DSTYLE_DIMTALN
1070
   392
1070
     0
1001
ACAD_DSTYLE_DIMARC_LENGTH_SYMBOL
1070
   379
1070
     1
1001
ACAD_DSTYLE_DIMJOGGED_JOGANGLE_SYMBOL
1070
   384
1040
1.570796326794896
  0
DIMSTYLE
105
4FE
330
A
100
AcDbSymbolTableRecord
100
AcDbDimStyleTableRecord
  2
AM_DIN$4
 70
     0
 41
2.5
 42
1.0
 43
10.0
 44
2.0
 48
0.000000001
 73
     0
 77
     1
 78
     8
 79
     2
140
3.5
143
0.0393701
146
0.7071069999999999
147
2.299999999999999
171
     3
271
     2
272
     3
273
     3
274
     4
284
     8
285
    11
286
     8
288
     1
289
     0
340
7DE
371
    -1
372
    -1
1001
ACAD_DSTYLE_DIMBREAK
1070
   391
1040
3.75
1001
ACAD_DSTYLE_DIMJAG
1070
   388
1040
1.5
1001
ACAD_DSTYLE_DIMTALN
1070
   392
1070
     0
1001
ACAD_DSTYLE_DIMARC_LENGTH_SYMBOL
1070
   379
1070
     1
1001
ACAD_DSTYLE_DIMJOGGED_JOGANGLE_SYMBOL
1070
   384
1040
1.570796326794896
  0
DIMSTYLE
105
4FF
330
A
100
AcDbSymbolTableRecord
100
AcDbDimStyleTableRecord
  2
AM_DIN$6
 70
     0
 41
2.5
 42
1.0
 43
10.0
 44
2.0
 48
0.000000001
 73
     0
 74
     0
 78
     8
 79
     2
140
3.5
143
0.0393701
146
0.7071069999999999
147
2.299999999999999
171
     3
172
     1
271
     2
272
     2
273
     3
274
     3
284
     8
285
    11
286
     8
340
7DE
371
    -1
372
    -1
1001
ACAD_DSTYLE_DIMBREAK
1070
   391
1040
3.75
1001
ACAD_DSTYLE_DIMJAG
1070
   388
1040
1.5
1001
ACAD_DSTYLE_DIMTALN
1070
   392
1070
     0
1001
ACAD_DSTYLE_DIMARC_LENGTH_SYMBOL
1070
   379
1070
     1
1001
ACAD_DSTYLE_DIMJOGGED_JOGANGLE_SYMBOL
1070
   384
1040
1.570796326794896
  0
DIMSTYLE
105
500
330
A
100
AcDbSymbolTableRecord
100
AcDbDimStyleTableRecord
  2
AM_DIN$7
 70
     0
 41
2.5
 42
1.0
 43
10.0
 44
2.0
 48
0.000000001
 73
     0
 74
     0
 77
     1
 78
     8
 79
     2
140
5.0
143
0.0393701
146
0.7071069999999999
147
2.299999999999999
171
     3
172
     1
271
     2
272
     3
273
     3
274
     4
284
     8
285
    11
286
     8
340
7DE
371
    -1
372
    -1
1001
ACAD_DSTYLE_DIMBREAK
1070
   391
1040
3.75
1001
ACAD_DSTYLE_DIMJAG
1070
   388
1040
1.5
1001
ACAD_DSTYLE_DIMTALN
1070
   392
1070
     0
1001
ACAD_DSTYLE_DIMARC_LENGTH_SYMBOL
1070
   379
1070
     1
1001
ACAD_DSTYLE_DIMJOGGED_JOGANGLE_SYMBOL
1070
   384
1040
1.570796326794896
  0
DIMSTYLE
105
501
330
A
100
AcDbSymbolTableRecord
100
AcDbDimStyleTableRecord
  2
AM_DIN$SF
 70
     0
 41
2.5
 42
1.0
 43
10.0
 44
2.0
 48
0.000000001
 73
     0
 74
     0
 75
     1
 76
     1
 77
     1
 78
     8
 79
     2
140
3.5
143
0.0393701
146
0.7071069999999999
147
2.299999999999999
171
     3
172
     1
271
     2
272
     2
273
     3
274
     3
284
     8
285
    11
286
     8
340
7DE
371
    -1
372
    -1
1001
ACAD_DSTYLE_DIMBREAK
1070
   391
1040
3.75
1001
ACAD_DSTYLE_DIMJAG
1070
   388
1040
1.5
1001
ACAD_DSTYLE_DIMTALN
1070
   392
1070
     0
1001
ACAD_DSTYLE_DIMARC_LENGTH_SYMBOL
1070
   379
1070
     1
1001
ACAD_DSTYLE_DIMJOGGED_JOGANGLE_SYMBOL
1070
   384
1040
1.570796326794896
  0
DIMSTYLE
105
506
330
A
100
AcDbSymbolTableRecord
100
AcDbDimStyleTableRecord
  2
AM_DIN$SH
 70
     0
 41
2.5
 42
1.0
 43
10.0
 44
2.0
 48
0.000000001
 73
     0
 74
     0
 75
     1
 76
     1
 77
     1
 78
     8
 79
     2
140
3.5
143
0.0393701
144
2.0
146
0.7071069999999999
147
2.299999999999999
171
     3
172
     1
271
     2
272
     2
273
     3
274
     3
284
     8
285
    11
286
     8
340
7DE
371
    -1
372
    -1
1001
ACAD_DSTYLE_DIMBREAK
1070
   391
1040
3.75
1001
ACAD_DSTYLE_DIMJAG
1070
   388
1040
1.5
1001
ACAD_DSTYLE_DIMTALN
1070
   392
1070
     0
1001
ACAD_DSTYLE_DIMARC_LENGTH_SYMBOL
1070
   379
1070
     1
1001
ACAD_DSTYLE_DIMJOGGED_JOGANGLE_SYMBOL
1070
   384
1040
1.570796326794896
  0
DIMSTYLE
105
D8A
102
{ACAD_REACTORS
330
FB4
330
FB3
330
FB1
330
FB0
330
FB2
330
11EA
330
11EB
330
11EC
330
11ED
330
11EE
102
}
330
A
100
AcDbSymbolTableRecord
100
AcDbDimStyleTableRecord
  2
V-TYGEN_-160
 70
     0
 41
3.5
 42
1.0
 43
0.5
 44
1.0
 73
     0
 74
     0
 77
     1
140
3.5
141
0.0
147
1.0
172
     1
271
     0
272
     0
340
10
371
    -1
1001
ACAD_DSTYLE_DIMJAG
1070
   388
1040
1.5
1001
ACAD_DSTYLE_DIMTALN
1070
   392
1070
     0
  0
DIMSTYLE
105
D8E
102
{ACAD_REACTORS
330
FB9
102
}
330
A
100
AcDbSymbolTableRecord
100
AcDbDimStyleTableRecord
  2
AM_ISO
 70
     0
  4
"
 41
3.5
 42
1.0
 43
10.0
 44
1.0
 47
0.1
 48
0.1
 73
     0
 74
     0
 77
     1
 78
     8
 79
     2
140
3.5
141
0.0
143
0.0393701
146
0.71
147
1.5
172
     1
176
   256
177
   256
178
     2
271
     2
272
     3
274
     4
283
     0
284
     8
340
10
371
    -1
372
    -1
1001
ACAD_DSTYLE_DIMJAG
1070
   388
1040
1.5
1001
ACAD_DSTYLE_DIMBREAK
1070
   391
1040
3.75
1001
ACAD_DSTYLE_DIMARC_LENGTH_SYMBOL
1070
   379
1070
     1
1001
ACAD_DSTYLE_DIM_LINETYPE
1070
   380
1005
12
1001
ACAD_DSTYLE_DIM_EXT1_LINETYPE
1070
   381
1005
12
1001
ACAD_DSTYLE_DIM_EXT2_LINETYPE
1070
   382
1005
12
  0
DIMSTYLE
105
D8F
330
A
100
AcDbSymbolTableRecord
100
AcDbDimStyleTableRecord
  2
AM_ISO$3
 70
     0
  4
"
 41
3.5
 42
1.0
 43
10.0
 44
1.0
 47
0.1
 48
0.1
 73
     0
 77
     1
 78
     8
 79
     2
140
3.5
141
0.0
143
0.0393701
146
0.71
147
1.5
176
   256
177
   256
178
     2
271
     2
272
     3
274
     4
283
     0
284
     8
288
     1
289
     0
340
10
371
    -1
372
    -1
1001
ACAD_DSTYLE_DIMBREAK
1070
   391
1040
3.75
1001
ACAD_DSTYLE_DIMJAG
1070
   388
1040
1.5
1001
ACAD_DSTYLE_DIMARC_LENGTH_SYMBOL
1070
   379
1070
     1
1001
ACAD_DSTYLE_DIM_LINETYPE
1070
   380
1005
12
1001
ACAD_DSTYLE_DIM_EXT1_LINETYPE
1070
   381
1005
12
1001
ACAD_DSTYLE_DIM_EXT2_LINETYPE
1070
   382
1005
12
  0
DIMSTYLE
105
D90
330
A
100
AcDbSymbolTableRecord
100
AcDbDimStyleTableRecord
  2
AM_ISO$4
 70
     0
  4
"
 41
3.5
 42
1.0
 43
10.0
 44
1.0
 47
0.1
 48
0.1
 73
     0
 77
     1
 78
     8
 79
     2
140
3.5
141
0.0
143
0.0393701
146
0.71
147
1.5
176
   256
177
   256
178
     2
271
     2
272
     3
274
     4
283
     0
284
     8
288
     1
289
     0
340
10
371
    -1
372
    -1
1001
ACAD_DSTYLE_DIMBREAK
1070
   391
1040
3.75
1001
ACAD_DSTYLE_DIMJAG
1070
   388
1040
1.5
1001
ACAD_DSTYLE_DIMARC_LENGTH_SYMBOL
1070
   379
1070
     1
1001
ACAD_DSTYLE_DIM_LINETYPE
1070
   380
1005
12
1001
ACAD_DSTYLE_DIM_EXT1_LINETYPE
1070
   381
1005
12
1001
ACAD_DSTYLE_DIM_EXT2_LINETYPE
1070
   382
1005
12
  0
DIMSTYLE
105
D91
330
A
100
AcDbSymbolTableRecord
100
AcDbDimStyleTableRecord
  2
AM_ISO$6
 70
     0
  4
"
 41
3.5
 42
1.0
 43
10.0
 44
1.0
 47
0.1
 48
0.1
 73
     0
 74
     0
 78
     8
 79
     2
140
3.5
141
0.0
143
0.0393701
146
0.71
147
1.5
172
     1
176
   256
177
   256
178
     2
271
     2
272
     3
274
     4
283
     0
284
     8
340
10
371
    -1
372
    -1
1001
ACAD_DSTYLE_DIMBREAK
1070
   391
1040
3.75
1001
ACAD_DSTYLE_DIMJAG
1070
   388
1040
1.5
1001
ACAD_DSTYLE_DIMARC_LENGTH_SYMBOL
1070
   379
1070
     1
1001
ACAD_DSTYLE_DIM_LINETYPE
1070
   380
1005
12
1001
ACAD_DSTYLE_DIM_EXT1_LINETYPE
1070
   381
1005
12
1001
ACAD_DSTYLE_DIM_EXT2_LINETYPE
1070
   382
1005
12
  0
DIMSTYLE
105
D92
330
A
100
AcDbSymbolTableRecord
100
AcDbDimStyleTableRecord
  2
AM_ISO$7
 70
     0
  4
"
 41
3.5
 42
1.0
 43
10.0
 44
1.0
 47
0.1
 48
0.1
 73
     0
 74
     0
 77
     1
 78
     8
 79
     2
140
3.5
141
0.0
143
0.0393701
146
0.71
147
1.5
172
     1
176
   256
177
   256
178
     2
271
     2
272
     3
274
     4
283
     0
284
     8
340
10
371
    -1
372
    -1
1001
ACAD_DSTYLE_DIMBREAK
1070
   391
1040
3.75
1001
ACAD_DSTYLE_DIMJAG
1070
   388
1040
1.5
1001
ACAD_DSTYLE_DIMARC_LENGTH_SYMBOL
1070
   379
1070
     1
1001
ACAD_DSTYLE_DIM_LINETYPE
1070
   380
1005
12
1001
ACAD_DSTYLE_DIM_EXT1_LINETYPE
1070
   381
1005
12
1001
ACAD_DSTYLE_DIM_EXT2_LINETYPE
1070
   382
1005
12
  0
DIMSTYLE
105
D93
330
A
100
AcDbSymbolTableRecord
100
AcDbDimStyleTableRecord
  2
AM_ISO$SF
 70
     0
  4
"
 41
3.5
 42
1.0
 43
10.0
 44
1.0
 47
0.1
 48
0.1
 73
     0
 74
     0
 75
     1
 76
     1
 77
     1
 78
     8
 79
     2
140
3.5
141
0.0
143
0.0393701
146
0.71
147
1.5
172
     1
176
   256
177
   256
178
     2
271
     2
272
     3
274
     4
283
     0
284
     8
340
10
371
    -1
372
    -1
1001
ACAD_DSTYLE_DIMBREAK
1070
   391
1040
3.75
1001
ACAD_DSTYLE_DIMJAG
1070
   388
1040
1.5
1001
ACAD_DSTYLE_DIMARC_LENGTH_SYMBOL
1070
   379
1070
     1
1001
ACAD_DSTYLE_DIM_LINETYPE
1070
   380
1005
12
1001
ACAD_DSTYLE_DIM_EXT1_LINETYPE
1070
   381
1005
12
1001
ACAD_DSTYLE_DIM_EXT2_LINETYPE
1070
   382
1005
12
  0
DIMSTYLE
105
D94
330
A
100
AcDbSymbolTableRecord
100
AcDbDimStyleTableRecord
  2
AM_ISO$SH
 70
     0
  4
"
 41
3.5
 42
1.0
 43
10.0
 44
1.0
 47
0.1
 48
0.1
 73
     0
 74
     0
 75
     1
 76
     1
 77
     1
 78
     8
 79
     2
140
3.5
141
0.0
143
0.0393701
144
2.0
146
0.71
147
1.5
172
     1
173
     1
176
   256
177
   256
178
     2
271
     2
272
     3
274
     4
283
     0
284
     8
340
10
343
D81
371
    -1
372
    -1
1001
ACAD_DSTYLE_DIMBREAK
1070
   391
1040
3.75
1001
ACAD_DSTYLE_DIMJAG
1070
   388
1040
1.5
1001
ACAD_DSTYLE_DIMARC_LENGTH_SYMBOL
1070
   379
1070
     1
1001
ACAD_DSTYLE_DIM_LINETYPE
1070
   380
1005
12
1001
ACAD_DSTYLE_DIM_EXT1_LINETYPE
1070
   381
1005
12
1001
ACAD_DSTYLE_DIM_EXT2_LINETYPE
1070
   382
1005
12
  0
ENDTAB
  0
TABLE
  2
BLOCK_RECORD
  5
1
330
0
100
AcDbSymbolTable
 70
    16
  0
BLOCK_RECORD
  5
18
330
1
100
AcDbSymbolTableRecord
100
AcDbBlockTableRecord
  2
*MODEL_SPACE
340
303
  0
BLOCK_RECORD
  5
B56
330
1
100
AcDbSymbolTableRecord
100
AcDbBlockTableRecord
  2
*Paper_Space
340
B57
  0
BLOCK_RECORD
  5
D0B
330
1
100
AcDbSymbolTableRecord
100
AcDbBlockTableRecord
  2
_ACMFILLED15
340
0
  0
BLOCK_RECORD
  5
D16
330
1
100
AcDbSymbolTableRecord
100
AcDbBlockTableRecord
  2
_ACMFILLED30
340
0
  0
BLOCK_RECORD
  5
D81
330
1
100
AcDbSymbolTableRecord
100
AcDbBlockTableRecord
  2
GENAXEH
340
0
  0
BLOCK_RECORD
  5
11F0
330
1
100
AcDbSymbolTableRecord
100
AcDbBlockTableRecord
  2
*D11
340
0
  0
BLOCK_RECORD
  5
11FD
330
1
100
AcDbSymbolTableRecord
100
AcDbBlockTableRecord
  2
*D12
340
0
  0
BLOCK_RECORD
  5
1209
330
1
100
AcDbSymbolTableRecord
100
AcDbBlockTableRecord
  2
*D13
340
0
  0
BLOCK_RECORD
  5
1215
330
1
100
AcDbSymbolTableRecord
100
AcDbBlockTableRecord
  2
*D14
340
0
  0
BLOCK_RECORD
  5
1221
330
1
100
AcDbSymbolTableRecord
100
AcDbBlockTableRecord
  2
*D15
340
0
  0
ENDTAB
  0
ENDSEC
  0
SECTION
  2
BLOCKS
  0
BLOCK
  5
32
330
18
100
AcDbEntity
  8
0
100
AcDbBlockBegin
  2
*MODEL_SPACE
 70
     0
 10
0.0
 20
0.0
 30
0.0
  3
*MODEL_SPACE
  1

  0
ENDBLK
  5
33
330
18
100
AcDbEntity
  8
0
100
AcDbBlockEnd
  0
BLOCK
  5
B58
330
B56
100
AcDbEntity
 67
     1
  8
0
100
AcDbBlockBegin
  2
*Paper_Space
 70
     0
 10
0.0
 20
0.0
 30
0.0
  3
*Paper_Space
  1

  0
ENDBLK
  5
B59
330
B56
100
AcDbEntity
 67
     1
  8
0
100
AcDbBlockEnd
  0
BLOCK
  5
D0D
330
D0B
100
AcDbEntity
  8
0
100
AcDbBlockBegin
  2
_ACMFILLED15
 70
     0
 10
0.0
 20
0.0
 30
0.0
  3
_ACMFILLED15
  1

  0
TRACE
  5
D0C
330
D0B
100
AcDbEntity
  8
1
 62
     0
100
AcDbTrace
 10
-88.5290616347695
 20
-90.1098320917205
 30
0.0
 11
-88.5290616347695
 21
-89.8465270977205
 31
0.0
 12
-87.5290616347695
 22
-89.9781795947205
 32
0.0
 13
-87.5290616347695
 23
-89.9781795947205
 33
0.0
  0
ENDBLK
  5
D0E
330
D0B
100
AcDbEntity
  8
0
100
AcDbBlockEnd
  0
BLOCK
  5
D18
330
D16
100
AcDbEntity
  8
0
100
AcDbBlockBegin
  2
_ACMFILLED30
 70
     0
 10
0.0
 20
0.0
 30
0.0
  3
_ACMFILLED30
  1

  0
TRACE
  5
D17
330
D16
100
AcDbEntity
  8
1
 62
     0
100
AcDbTrace
 10
-88.5290616347695
 20
-90.2461287847205
 30
0.0
 11
-88.5290616347695
 21
-89.7102304047205
 31
0.0
 12
-87.5290616347695
 22
-89.9781795947205
 32
0.0
 13
-87.5290616347695
 23
-89.9781795947205
 33
0.0
  0
ENDBLK
  5
D19
330
D16
100
AcDbEntity
  8
0
100
AcDbBlockEnd
  0
BLOCK
  5
D82
330
D81
100
AcDbEntity
  8
0
100
AcDbBlockBegin
  2
GENAXEH
 70
     0
 10
0.0
 20
0.0
 30
0.0
  3
GENAXEH
  1

  0
LINE
  5
D83
330
D81
100
AcDbEntity
  8
0
100
AcDbLine
 10
-88.5290616347695
 20
-89.9781795947205
 30
0.0
 11
-86.5290616347695
 21
-89.9781795947205
 31
0.0
  0
ENDBLK
  5
D84
330
D81
100
AcDbEntity
  8
0
100
AcDbBlockEnd
  0
BLOCK
  5
11F1
330
11F0
100
AcDbEntity
  8
0
100
AcDbBlockBegin
  2
*D11
 70
     1
 10
0.0
 20
0.0
 30
0.0
  3
*D11
  1

  0
LINE
  5
122D
330
11F0
100
AcDbEntity
  8
2
 62
     0
370
    -2
100
AcDbLine
 10
82.9
 20
10.4605
 30
0.0
 11
95.15
 21
10.4605
 31
0.0
  0
LINE
  5
122E
330
11F0
100
AcDbEntity
  8
2
 62
     0
370
    -2
100
AcDbLine
 10
82.9
 20
-10.4605
 30
0.0
 11
95.15
 21
-10.4605
 31
0.0
  0
LINE
  5
122F
330
11F0
100
AcDbEntity
  8
2
 62
     0
100
AcDbLine
 10
94.15
 20
-6.9605
 30
0.0
 11
94.15
 21
6.9605
 31
0.0
  0
LINE
  5
1230
330
11F0
100
AcDbEntity
  8
2
 62
     0
100
AcDbLine
 10
94.15
 20
10.4605
 30
0.0
 11
94.15
 21
46.5455316233309
 31
0.0
  0
SOLID
  5
1231
330
11F0
100
AcDbEntity
  8
2
 62
     0
100
AcDbTrace
 10
93.5666666666668
 20
-6.9605
 30
0.0
 11
94.7333333333334
 21
-6.9605
 31
0.0
 12
94.15
 22
-10.4605
 32
0.0
 13
94.15
 23
-10.4605
 33
0.0
  0
SOLID
  5
1232
330
11F0
100
AcDbEntity
  8
2
 62
     0
100
AcDbTrace
 10
93.5666666666668
 20
6.9605
 30
0.0
 11
94.7333333333334
 21
6.9605
 31
0.0
 12
94.15
 22
10.4605
 32
0.0
 13
94.15
 23
10.4605
 33
0.0
  0
MTEXT
  5
1233
330
11F0
100
AcDbEntity
  8
2
 62
     0
100
AcDbMText
 10
91.1208362614195
 20
30.7105
 30
0.0
 40
3.5
 41
0.0
 71
     5
 72
     1
  1
\A1;NPTF1/2-14
 11
0.0000000000000001
 21
1.0
 31
0.0
 73
     1
 44
1.0
1001
ACAD
1000
MTEXTBEGIN
1070
    73
1070
     1
1070
    44
1040
1.0
1070
    74
1070
     0
1000
MTEXTEND
  0
POINT
  5
1234
330
11F0
100
AcDbEntity
  8
DEFPOINTS
 62
     0
100
AcDbPoint
 10
81.9
 20
10.4605
 30
0.0
  0
POINT
  5
1235
330
11F0
100
AcDbEntity
  8
DEFPOINTS
 62
     0
100
AcDbPoint
 10
81.9
 20
-10.4605
 30
0.0
  0
POINT
  5
1236
330
11F0
100
AcDbEntity
  8
DEFPOINTS
 62
     0
100
AcDbPoint
 10
94.15
 20
-10.4605
 30
0.0
  0
ENDBLK
  5
11F2
330
11F0
100
AcDbEntity
  8
0
100
AcDbBlockEnd
  0
BLOCK
  5
11FE
330
11FD
100
AcDbEntity
  8
0
100
AcDbBlockBegin
  2
*D12
 70
     1
 10
0.0
 20
0.0
 30
0.0
  3
*D12
  1

  0
LINE
  5
1237
330
11FD
100
AcDbEntity
  8
2
 62
     0
370
    -2
100
AcDbLine
 10
0
 20
9.99999999999999
 30
0.0
 11
0
 21
29.7581286428105
 31
0.0
  0
LINE
  5
1238
330
11FD
100
AcDbEntity
  8
2
 62
     0
370
    -2
100
AcDbLine
 10
81.9
 20
11.4604999999999
 30
0.0
 11
81.9
 21
29.7581286428105
 31
0.0
  0
LINE
  5
1239
330
11FD
100
AcDbEntity
  8
2
 62
     0
100
AcDbLine
 10
3.50000000000003
 20
28.7581286428105
 30
0.0
 11
78.4
 21
28.7581286428105
 31
0.0
  0
SOLID
  5
123A
330
11FD
100
AcDbEntity
  8
2
 62
     0
100
AcDbTrace
 10
3.50000000000003
 20
29.3414619761439
 30
0.0
 11
3.50000000000003
 21
28.1747953094772
 31
0.0
 12
0
 22
28.7581286428105
 32
0.0
 13
0
 23
28.7581286428105
 33
0.0
  0
SOLID
  5
123B
330
11FD
100
AcDbEntity
  8
2
 62
     0
100
AcDbTrace
 10
78.4
 20
29.3414619761439
 30
0.0
 11
78.4
 21
28.1747953094772
 31
0.0
 12
81.9
 22
28.7581286428105
 32
0.0
 13
81.9
 23
28.7581286428105
 33
0.0
  0
MTEXT
  5
123C
330
11FD
100
AcDbEntity
  8
2
 62
     0
100
AcDbMText
 10
40.9499999999999
 20
31.5696184530705
 30
0.0
 40
3.5
 41
0.0
 71
     5
 72
     1
  1
\A1;81.9
 73
     1
 44
1.0
1001
ACAD
1000
MTEXTBEGIN
1070
    73
1070
     1
1070
    44
1040
1.0
1070
    74
1070
     0
1000
MTEXTEND
  0
POINT
  5
123D
330
11FD
100
AcDbEntity
  8
DEFPOINTS
 62
     0
100
AcDbPoint
 10
0
 20
8.99999999999999
 30
0.0
  0
POINT
  5
123E
330
11FD
100
AcDbEntity
  8
DEFPOINTS
 62
     0
100
AcDbPoint
 10
81.9
 20
10.4605
 30
0.0
  0
POINT
  5
123F
330
11FD
100
AcDbEntity
  8
DEFPOINTS
 62
     0
100
AcDbPoint
 10
81.9
 20
28.7581286428105
 30
0.0
  0
ENDBLK
  5
11FF
330
11FD
100
AcDbEntity
  8
0
100
AcDbBlockEnd
  0
BLOCK
  5
120A
330
1209
100
AcDbEntity
  8
0
100
AcDbBlockBegin
  2
*D13
 70
     1
 10
0.0
 20
0.0
 30
0.0
  3
*D13
  1

  0
LINE
  5
1240
330
1209
100
AcDbEntity
  8
SK2
 62
     0
370
    -2
100
AcDbLine
 10
-28.1
 20
8.99999999999999
 30
0.0
 11
-50.6443809301498
 21
8.99999999999999
 31
0.0
  0
LINE
  5
1241
330
1209
100
AcDbEntity
  8
SK2
 62
     0
370
    -2
100
AcDbLine
 10
-28.1
 20
-9
 30
0.0
 11
-50.6443809301498
 21
-9
 31
0.0
  0
LINE
  5
1242
330
1209
100
AcDbEntity
  8
SK2
 62
     0
100
AcDbLine
 10
-49.6443809301498
 20
5.49999999999999
 30
0.0
 11
-49.6443809301498
 21
-5.5
 31
0.0
  0
SOLID
  5
1243
330
1209
100
AcDbEntity
  8
SK2
 62
     0
100
AcDbTrace
 10
-50.2277142634832
 20
5.49999999999999
 30
0.0
 11
-49.0610475968165
 21
5.49999999999999
 31
0.0
 12
-49.6443809301498
 22
8.99999999999999
 32
0.0
 13
-49.6443809301498
 23
8.99999999999999
 33
0.0
  0
SOLID
  5
1244
330
1209
100
AcDbEntity
  8
SK2
 62
     0
100
AcDbTrace
 10
-50.2277142634832
 20
-5.5
 30
0.0
 11
-49.0610475968165
 21
-5.5
 31
0.0
 12
-49.6443809301498
 22
-9
 32
0.0
 13
-49.6443809301498
 23
-9
 33
0.0
  0
MTEXT
  5
1245
330
1209
100
AcDbEntity
  8
SK2
 62
     0
100
AcDbMText
 10
-52.5075221810283
 20
0
 30
0.0
 40
3.5
 41
0.0
 71
     5
 72
     1
  1
\A1;%%c18
 11
0.0000000000000001
 21
1.0
 31
0.0
 73
     1
 44
1.0
1001
ACAD
1000
MTEXTBEGIN
1070
    73
1070
     1
1070
    44
1040
1.0
1070
    74
1070
     0
1000
MTEXTEND
  0
POINT
  5
1246
330
1209
100
AcDbEntity
  8
DEFPOINTS
 62
     0
100
AcDbPoint
 10
-27.1
 20
8.99999999999999
 30
0.0
  0
POINT
  5
1247
330
1209
100
AcDbEntity
  8
DEFPOINTS
 62
     0
100
AcDbPoint
 10
-27.1
 20
-9
 30
0.0
  0
POINT
  5
1248
330
1209
100
AcDbEntity
  8
DEFPOINTS
 62
     0
100
AcDbPoint
 10
-49.6443809301498
 20
-9
 30
0.0
  0
ENDBLK
  5
120B
330
1209
100
AcDbEntity
  8
0
100
AcDbBlockEnd
  0
BLOCK
  5
1216
330
1215
100
AcDbEntity
  8
0
100
AcDbBlockBegin
  2
*D14
 70
     1
 10
0.0
 20
0.0
 30
0.0
  3
*D14
  1

  0
LINE
  5
1249
330
1215
100
AcDbEntity
  8
2
 62
     0
370
    -2
100
AcDbLine
 10
55.9
 20
9.5
 30
0.0
 11
55.9
 21
21.0051581487107
 31
0.0
  0
LINE
  5
124A
330
1215
100
AcDbEntity
  8
2
 62
     0
370
    -2
100
AcDbLine
 10
81.9
 20
11.4604999999999
 30
0.0
 11
81.9
 21
21.0051581487107
 31
0.0
  0
LINE
  5
124B
330
1215
100
AcDbEntity
  8
2
 62
     0
100
AcDbLine
 10
59.4
 20
20.0051581487107
 30
0.0
 11
78.4
 21
20.0051581487107
 31
0.0
  0
SOLID
  5
124C
330
1215
100
AcDbEntity
  8
2
 62
     0
100
AcDbTrace
 10
59.4
 20
20.588491482044
 30
0.0
 11
59.4
 21
19.4218248153773
 31
0.0
 12
55.9
 22
20.0051581487107
 32
0.0
 13
55.9
 23
20.0051581487107
 33
0.0
  0
SOLID
  5
124D
330
1215
100
AcDbEntity
  8
2
 62
     0
100
AcDbTrace
 10
78.4
 20
20.588491482044
 30
0.0
 11
78.4
 21
19.4218248153773
 31
0.0
 12
81.9
 22
20.0051581487107
 32
0.0
 13
81.9
 23
20.0051581487107
 33
0.0
  0
MTEXT
  5
124E
330
1215
100
AcDbEntity
  8
2
 62
     0
100
AcDbMText
 10
68.9
 20
22.8166479589707
 30
0.0
 40
3.5
 41
0.0
 71
     5
 72
     1
  1
\A1;26
 73
     1
 44
1.0
1001
ACAD
1000
MTEXTBEGIN
1070
    73
1070
     1
1070
    44
1040
1.0
1070
    74
1070
     0
1000
MTEXTEND
  0
POINT
  5
124F
330
1215
100
AcDbEntity
  8
DEFPOINTS
 62
     0
100
AcDbPoint
 10
55.9
 20
8.49999999999997
 30
0.0
  0
POINT
  5
1250
330
1215
100
AcDbEntity
  8
DEFPOINTS
 62
     0
100
AcDbPoint
 10
81.9
 20
10.4605
 30
0.0
  0
POINT
  5
1251
330
1215
100
AcDbEntity
  8
DEFPOINTS
 62
     0
100
AcDbPoint
 10
81.9
 20
20.0051581487107
 30
0.0
  0
ENDBLK
  5
1217
330
1215
100
AcDbEntity
  8
0
100
AcDbBlockEnd
  0
BLOCK
  5
1222
330
1221
100
AcDbEntity
  8
0
100
AcDbBlockBegin
  2
*D15
 70
     1
 10
0.0
 20
0.0
 30
0.0
  3
*D15
  1

  0
LINE
  5
1252
330
1221
100
AcDbEntity
  8
SK2
 62
     0
370
    -2
100
AcDbLine
 10
-43.1
 20
7.55000000000001
 30
0.0
 11
-43.1
 21
38.8785722263887
 31
0.0
  0
LINE
  5
1253
330
1221
100
AcDbEntity
  8
SK2
 62
     0
370
    -2
100
AcDbLine
 10
81.9
 20
11.4604999999999
 30
0.0
 11
81.9
 21
38.8785722263887
 31
0.0
  0
LINE
  5
1254
330
1221
100
AcDbEntity
  8
SK2
 62
     0
100
AcDbLine
 10
-39.6
 20
37.8785722263887
 30
0.0
 11
78.4
 21
37.8785722263887
 31
0.0
  0
SOLID
  5
1255
330
1221
100
AcDbEntity
  8
SK2
 62
     0
100
AcDbTrace
 10
-39.6
 20
38.461905559722
 30
0.0
 11
-39.6
 21
37.2952388930554
 31
0.0
 12
-43.1
 22
37.8785722263887
 32
0.0
 13
-43.1
 23
37.8785722263887
 33
0.0
  0
SOLID
  5
1256
330
1221
100
AcDbEntity
  8
SK2
 62
     0
100
AcDbTrace
 10
78.4
 20
38.461905559722
 30
0.0
 11
78.4
 21
37.2952388930554
 31
0.0
 12
81.9
 22
37.8785722263887
 32
0.0
 13
81.9
 23
37.8785722263887
 33
0.0
  0
MTEXT
  5
1257
330
1221
100
AcDbEntity
  8
SK2
 62
     0
100
AcDbMText
 10
19.3999999999999
 20
40.6900620366487
 30
0.0
 40
3.5
 41
0.0
 71
     5
 72
     1
  1
\A1;125
 73
     1
 44
1.0
1001
ACAD
1000
MTEXTBEGIN
1070
    73
1070
     1
1070
    44
1040
1.0
1070
    74
1070
     0
1000
MTEXTEND
  0
POINT
  5
1258
330
1221
100
AcDbEntity
  8
DEFPOINTS
 62
     0
100
AcDbPoint
 10
-43.1
 20
6.55000000000001
 30
0.0
  0
POINT
  5
1259
330
1221
100
AcDbEntity
  8
DEFPOINTS
 62
     0
100
AcDbPoint
 10
81.9
 20
10.4605
 30
0.0
  0
POINT
  5
125A
330
1221
100
AcDbEntity
  8
DEFPOINTS
 62
     0
100
AcDbPoint
 10
81.9
 20
37.8785722263887
 30
0.0
  0
ENDBLK
  5
1223
330
1221
100
AcDbEntity
  8
0
100
AcDbBlockEnd
  0
ENDSEC
  0
SECTION
  2
ENTITIES
  0
LINE
  5
FD8
330
18
100
AcDbEntity
  8
SK4
100
AcDbLine
 10
-45.1
 20
0
 30
0.0
 11
83.9
 21
0
 31
0.0
  0
LINE
  5
FD9
330
18
100
AcDbEntity
  8
4
100
AcDbLine
 10
0
 20
0
 30
0.0
 11
83.9
 21
0
 31
0.0
  0
LINE
  5
FDA
330
18
100
AcDbEntity
  8
1
100
AcDbLine
 10
55.8294792244838
 20
-5.47543651117942
 30
0.0
 11
55.9
 21
-5.35390599597682
 31
0.0
  0
LINE
  5
FDB
330
18
100
AcDbEntity
  8
1
100
AcDbLine
 10
55.8294792245083
 20
-8.90048637682283
 30
0.0
 11
55.8294792245083
 21
-5.4754365111372
 31
0.0
  0
LINE
  5
FDC
330
18
100
AcDbEntity
  8
1
100
AcDbLine
 10
55.8294792245083
 20
6.55999507140579
 30
0.0
 11
55.7574450554375
 21
6.52318024961944
 31
0.0
  0
LINE
  5
FDD
330
18
100
AcDbEntity
  8
1
100
AcDbLine
 10
55.7574450554375
 20
6.52318024961944
 30
0.0
 11
55.6871536762437
 21
6.48394820748872
 31
0.0
  0
LINE
  5
FDE
330
18
100
AcDbEntity
  8
1
100
AcDbLine
 10
55.6871536762437
 20
6.48394820748872
 30
0.0
 11
55.618874940479
 21
6.44232451003039
 31
0.0
  0
LINE
  5
FDF
330
18
100
AcDbEntity
  8
1
100
AcDbLine
 10
55.618874940479
 20
6.44232451003039
 30
0.0
 11
55.5529274299999
 21
6.398342354511
 31
0.0
  0
LINE
  5
FE0
330
18
100
AcDbEntity
  8
1
100
AcDbLine
 10
55.5529274299999
 20
6.398342354511
 30
0.0
 11
55.5529274299999
 21
2.14192731235232
 31
0.0
  0
ARC
  5
FE1
330
18
100
AcDbEntity
  8
1
100
AcDbCircle
 10
55.2654654743694
 20
-0.929554888429905
 30
0.0
 40
3.08491553178479
100
AcDbArc
 50
79.46538991489326
 51
84.65322673743463
  0
LINE
  5
FE2
330
18
100
AcDbEntity
  8
1
100
AcDbLine
 10
55.8294792245083
 20
2.10336534616027
 30
0.0
 11
55.8294792245083
 21
6.55999507140582
 31
0.0
  0
LINE
  5
FE3
330
18
100
AcDbEntity
  8
1
100
AcDbLine
 10
55.5529274299999
 20
2.14192731235232
 30
0.0
 11
41.4
 21
4.89497893154115
 31
0.0
  0
LINE
  5
FE4
330
18
100
AcDbEntity
  8
1
100
AcDbLine
 10
41.4
 20
4.89497893154116
 30
0.0
 11
41.4
 21
5.08384736479032
 31
0.0
  0
LINE
  5
FE5
330
18
100
AcDbEntity
  8
1
100
AcDbLine
 10
36.8999999999999
 20
0.157358152938912
 30
0.0
 11
41.4
 21
-0.868432879483947
 31
0.0
  0
LINE
  5
FE6
330
18
100
AcDbEntity
  8
1
100
AcDbLine
 10
41.4
 20
-0.38637163786052
 30
0.0
 11
41.4
 21
-0.868432879483947
 31
0.0
  0
LINE
  5
FE7
330
18
100
AcDbEntity
  8
1
100
AcDbLine
 10
55.9
 20
0.00921910346015409
 30
0.0
 11
36.8999999999999
 21
2.94234658201717
 31
0.0
  0
LINE
  5
FE8
330
18
100
AcDbEntity
  8
1
100
AcDbLine
 10
36.8999999999999
 20
5.89651800376346
 30
0.0
 11
41.4
 21
5.08384736479032
 31
0.0
  0
LINE
  5
FE9
330
18
100
AcDbEntity
  8
1
100
AcDbLine
 10
55.9
 20
2.06442573729828
 30
0.0
 11
36.8999999999999
 21
5.38780460920236
 31
0.0
  0
LINE
  5
FEA
330
18
100
AcDbEntity
  8
1
100
AcDbLine
 10
36.8999999999999
 20
-4.64443590921141
 30
0.0
 11
41.4
 21
-5.49212803301958
 31
0.0
  0
LINE
  5
FEB
330
18
100
AcDbEntity
  8
1
100
AcDbLine
 10
36.9
 20
5.89651800376345
 30
0.0
 11
36.9
 21
0.157358152938912
 31
0.0
  0
LINE
  5
FEC
330
18
100
AcDbEntity
  8
1
100
AcDbLine
 10
41.4
 20
8.25120695750992
 30
0.0
 11
41.4
 21
5.08384736479032
 31
0.0
  0
LINE
  5
FED
330
18
100
AcDbEntity
  8
1
100
AcDbLine
 10
36.8999999999999
 20
8.99999999999999
 30
0.0
 11
36.8999999999999
 21
8.99991290388063
 31
0.0
  0
LINE
  5
FEE
330
18
100
AcDbEntity
  8
1
100
AcDbLine
 10
36.8999999999999
 20
8.99991290388063
 30
0.0
 11
36.8999999999999
 21
8.97410934872252
 31
0.0
  0
LINE
  5
FEF
330
18
100
AcDbEntity
  8
1
100
AcDbLine
 10
36.8999999999999
 20
8.97410934872252
 30
0.0
 11
36.8999999999999
 21
8.60682657512049
 31
0.0
  0
LINE
  5
FF0
330
18
100
AcDbEntity
  8
1
100
AcDbLine
 10
36.8999999999999
 20
8.99999999999999
 30
0.0
 11
0
 21
8.99999999999999
 31
0.0
  0
LINE
  5
FF1
330
18
100
AcDbEntity
  8
1
100
AcDbLine
 10
41.4
 20
-8.78792799397904
 30
0.0
 11
41.4
 21
-8.99999999935871
 31
0.0
  0
ARC
  5
FF2
330
18
100
AcDbEntity
  8
1
100
AcDbCircle
 10
50.320748403702
 20
171.917885227771
 30
0.0
 40
180.9259027189785
100
AcDbArc
 50
265.7459980259211
 51
267.1738228721728
  0
LINE
  5
FF3
330
18
100
AcDbEntity
  8
1
100
AcDbLine
 10
36.8999999999999
 20
-4.64443590921138
 30
0.0
 11
36.8999999999999
 21
-8.50957388819738
 31
0.0
  0
LINE
  5
FF4
330
18
100
AcDbEntity
  8
1
100
AcDbLine
 10
53.2099582745017
 20
8.49999999999997
 30
0.0
 11
55.5529274299999
 21
8.49999999999997
 31
0.0
  0
LINE
  5
FF5
330
18
100
AcDbEntity
  8
1
100
AcDbLine
 10
55.8294792245085
 20
10.2004376515084
 30
0.0
 11
55.5529274299999
 21
8.4849979251302
 31
0.0
  0
LINE
  5
FF6
330
18
100
AcDbEntity
  8
1
100
AcDbLine
 10
55.8294792245085
 20
10.2004376515084
 30
0.0
 11
55.8294792245085
 21
10.2598687234758
 31
0.0
  0
LINE
  5
FF7
330
18
100
AcDbEntity
  8
1
100
AcDbLine
 10
55.5529274299999
 20
8.49999999999997
 30
0.0
 11
55.8294792245085
 21
10.2598687234758
 31
0.0
  0
LINE
  5
FF8
330
18
100
AcDbEntity
  8
1
100
AcDbLine
 10
55.5529274299999
 20
8.49999999999997
 30
0.0
 11
55.5529274299999
 21
8.4849979251302
 31
0.0
  0
LINE
  5
FF9
330
18
100
AcDbEntity
  8
1
100
AcDbLine
 10
55.9
 20
2.08429808331854
 30
0.0
 11
55.9
 21
6.53287952910884
 31
0.0
  0
LINE
  5
FFA
330
18
100
AcDbEntity
  8
1
100
AcDbLine
 10
55.8294792244838
 20
6.55999507141534
 30
0.0
 11
55.9
 21
6.53287952910885
 31
0.0
  0
LINE
  5
FFB
330
18
100
AcDbEntity
  8
1
100
AcDbLine
 10
55.8294792244838
 20
2.10336534616698
 30
0.0
 11
55.9
 21
2.08429808331854
 31
0.0
  0
LINE
  5
FFC
330
18
100
AcDbEntity
  8
1
100
AcDbLine
 10
41.4
 20
8.25120695750996
 30
0.0
 11
41.4
 21
8.63411849807662
 31
0.0
  0
ARC
  5
FFD
330
18
100
AcDbEntity
  8
1
100
AcDbCircle
 10
24.538438833158
 20
3.51721969975159
 30
0.0
 40
185.4584069017084
100
AcDbArc
 50
84.7835633738436
 51
86.17816835859908
  0
LINE
  5
FFE
330
18
100
AcDbEntity
  8
1
100
AcDbLine
 10
55.5529274299999
 20
6.398342354511
 30
0.0
 11
41.4
 21
7.95622910248247
 31
0.0
  0
LINE
  5
FFF
330
18
100
AcDbEntity
  8
1
100
AcDbLine
 10
55.5529274299999
 20
8.4849979251302
 30
0.0
 11
53.2099582745017
 21
8.49999999999997
 31
0.0
  0
LINE
  5
1000
330
18
100
AcDbEntity
  8
1
100
AcDbLine
 10
53.2099582745017
 20
8.49999999999997
 30
0.0
 11
41.4
 21
8.12156311642894
 31
0.0
  0
LINE
  5
1001
330
18
100
AcDbEntity
  8
1
100
AcDbLine
 10
38.9419186270642
 20
8.45909542526624
 30
0.0
 11
41.4
 21
8.63411849807662
 31
0.0
  0
LINE
  5
1002
330
18
100
AcDbEntity
  8
1
100
AcDbLine
 10
55.9
 20
7.94050383088087
 30
0.0
 11
44.2773774636764
 21
7.71695013328026
 31
0.0
  0
LINE
  5
1003
330
18
100
AcDbEntity
  8
1
100
AcDbLine
 10
55.9
 20
10.0796538665837
 30
0.0
 11
55.9
 21
10.1377232142857
 31
0.0
  0
LINE
  5
1004
330
18
100
AcDbEntity
  8
1
100
AcDbLine
 10
55.8294792244838
 20
10.2004376515507
 30
0.0
 11
55.9
 21
10.0796538665837
 31
0.0
  0
LINE
  5
1005
330
18
100
AcDbEntity
  8
1
100
AcDbLine
 10
41.4
 20
-8.19501990696926
 30
0.0
 11
41.4
 21
-8.78792799397904
 31
0.0
  0
LINE
  5
1006
330
18
100
AcDbEntity
  8
1
100
AcDbLine
 10
55.8294792245085
 20
-9.94400093853065
 30
0.0
 11
55.5529274299999
 21
-8.46540384588202
 31
0.0
  0
LINE
  5
1007
330
18
100
AcDbEntity
  8
1
100
AcDbLine
 10
41.4
 20
-0.868432879483947
 30
0.0
 11
41.4
 21
-5.4921280330196
 31
0.0
  0
LINE
  5
1008
330
18
100
AcDbEntity
  8
1
100
AcDbLine
 10
55.5529274299999
 20
-3.34457574987464
 30
0.0
 11
55.5529274299999
 21
-7.16121404466435
 31
0.0
  0
LINE
  5
1009
330
18
100
AcDbEntity
  8
1
100
AcDbLine
 10
55.5529274299999
 20
-3.34457574987434
 30
0.0
 11
41.4
 21
-0.38637163786052
 31
0.0
  0
LINE
  5
100A
330
18
100
AcDbEntity
  8
1
100
AcDbLine
 10
55.8294792244838
 20
-9.94400093856638
 30
0.0
 11
55.9
 21
-9.84177540719432
 31
0.0
  0
LINE
  5
100B
330
18
100
AcDbEntity
  8
1
100
AcDbLine
 10
55.8294792245083
 20
-5.47543651113709
 30
0.0
 11
55.5529274299999
 21
-3.34457574987434
 31
0.0
  0
LINE
  5
100C
330
18
100
AcDbEntity
  8
1
100
AcDbLine
 10
55.5529274299999
 20
-8.46540384588202
 30
0.0
 11
51.9942540278326
 21
-8.49999999998903
 31
0.0
  0
LINE
  5
100D
330
18
100
AcDbEntity
  8
1
100
AcDbLine
 10
55.8294792244838
 20
-8.90048637686083
 30
0.0
 11
55.9
 21
-8.79148680840672
 31
0.0
  0
LINE
  5
100E
330
18
100
AcDbEntity
  8
1
100
AcDbLine
 10
55.8294792245083
 20
-8.90048637682276
 30
0.0
 11
55.5529274299999
 21
-7.16121404466477
 31
0.0
  0
LINE
  5
100F
330
18
100
AcDbEntity
  8
1
100
AcDbLine
 10
55.5529274299999
 20
-7.1612140446648
 30
0.0
 11
41.4
 21
-5.09629976252187
 31
0.0
  0
LINE
  5
1010
330
18
100
AcDbEntity
  8
1
100
AcDbLine
 10
55.9
 20
7.94050383088087
 30
0.0
 11
55.9
 21
10.0796538665837
 31
0.0
  0
LINE
  5
1011
330
18
100
AcDbEntity
  8
1
100
AcDbLine
 10
55.9
 20
2.06442573729828
 30
0.0
 11
55.9
 21
2.08429808331854
 31
0.0
  0
LINE
  5
1012
330
18
100
AcDbEntity
  8
1
100
AcDbLine
 10
55.9
 20
0.00921910346015409
 30
0.0
 11
55.9
 21
2.06442573729828
 31
0.0
  0
LINE
  5
1013
330
18
100
AcDbEntity
  8
1
100
AcDbLine
 10
55.9
 20
-5.35390599597682
 30
0.0
 11
55.9
 21
0.00921910346015409
 31
0.0
  0
LINE
  5
1014
330
18
100
AcDbEntity
  8
1
100
AcDbLine
 10
55.9
 20
-8.79148680840657
 30
0.0
 11
55.9
 21
-5.35390599597675
 31
0.0
  0
LINE
  5
1015
330
18
100
AcDbEntity
  8
1
100
AcDbLine
 10
55.9
 20
-9.84177540719432
 30
0.0
 11
55.9
 21
-8.79148680840672
 31
0.0
  0
LINE
  5
1016
330
18
100
AcDbEntity
  8
1
100
AcDbLine
 10
41.4
 20
-9
 30
0.0
 11
0
 21
-9
 31
0.0
  0
LINE
  5
1017
330
18
100
AcDbEntity
  8
1
100
AcDbLine
 10
55.9
 20
6.53287952910884
 30
0.0
 11
55.9
 21
7.94050383088087
 31
0.0
  0
LINE
  5
1018
330
18
100
AcDbEntity
  8
1
100
AcDbLine
 10
55.9
 20
10.1377232142856
 30
0.0
 11
55.8294792244838
 21
10.2598687235185
 31
0.0
  0
LINE
  5
1019
330
18
100
AcDbEntity
  8
1
100
AcDbLine
 10
51.9942540278326
 20
-8.49999999998903
 30
0.0
 11
41.4
 21
-8.19501990696926
 31
0.0
  0
LINE
  5
101A
330
18
100
AcDbEntity
  8
1
100
AcDbLine
 10
41.4
 20
-8.49999999999999
 30
0.0
 11
51.9942540278326
 21
-8.49999999999999
 31
0.0
  0
LINE
  5
101B
330
18
100
AcDbEntity
  8
1
 62
     1
100
AcDbLine
 10
70.0311657859111
 20
10.5381139137731
 30
0.0
 11
70.0812378643719
 21
10.537509690499
 31
0.0
  0
LINE
  5
101C
330
18
100
AcDbEntity
  8
1
 62
     1
100
AcDbLine
 10
81.9
 20
1.29935850881485
 30
0.0
 11
80.2281625912367
 21
1.34317358702512
 31
0.0
  0
LINE
  5
101D
330
18
100
AcDbEntity
  8
1
 62
     1
100
AcDbLine
 10
80.2281625912367
 20
-3.57770165246964
 30
0.0
 11
80.2281625912367
 21
1.34317358702512
 31
0.0
  0
LINE
  5
101E
330
18
100
AcDbEntity
  8
1
 62
     1
100
AcDbLine
 10
79.8844917338128
 20
1.35911864805311
 30
0.0
 11
78.6788404350045
 21
1.43288551053163
 31
0.0
  0
LINE
  5
101F
330
18
100
AcDbEntity
  8
1
 62
     1
100
AcDbLine
 10
78.6788404350045
 20
-3.48856580226325
 30
0.0
 11
78.6788404350045
 21
1.43288551053163
 31
0.0
  0
LINE
  5
1020
330
18
100
AcDbEntity
  8
1
 62
     1
100
AcDbLine
 10
77.6959183323375
 20
1.51292360724318
 30
0.0
 11
77.1295182787725
 21
1.56692052433178
 31
0.0
  0
LINE
  5
1021
330
18
100
AcDbEntity
  8
1
 62
     1
100
AcDbLine
 10
77.1295182787725
 20
-3.36250030739677
 30
0.0
 11
77.1295182787725
 21
1.56692052433178
 31
0.0
  0
LINE
  5
1022
330
18
100
AcDbEntity
  8
1
 62
     1
100
AcDbLine
 10
77.6959183323375
 20
-3.41289702606799
 30
0.0
 11
77.6959183323375
 21
1.51292360724318
 31
0.0
  0
LINE
  5
1023
330
18
100
AcDbEntity
  8
1
 62
     1
100
AcDbLine
 10
78.2714285714286
 20
-7.85089584786547
 30
0.0
 11
78.6788404350309
 21
-8.78139417641326
 31
0.0
  0
LINE
  5
1024
330
18
100
AcDbEntity
  8
1
 62
     1
100
AcDbLine
 10
78.2714285714286
 20
-9.09849321428572
 30
0.0
 11
78.2714285714286
 21
-9.09822810780864
 31
0.0
  0
LINE
  5
1025
330
18
100
AcDbEntity
  8
1
 62
     1
100
AcDbLine
 10
78.2714285714286
 20
-9.09822810780864
 30
0.0
 11
78.2714285714286
 21
-9.01820369220323
 31
0.0
  0
LINE
  5
1026
330
18
100
AcDbEntity
  8
1
 62
     1
100
AcDbLine
 10
78.2714285714286
 20
-9.01820369220323
 30
0.0
 11
78.2714285714286
 21
-7.85089584786547
 31
0.0
  0
LINE
  5
1027
330
18
100
AcDbEntity
  8
1
 62
     1
100
AcDbLine
 10
78.6788404350045
 20
-9.80415093259245
 30
0.0
 11
78.2714285714286
 21
-9.09849321428572
 31
0.0
  0
LINE
  5
1028
330
18
100
AcDbEntity
  8
1
 62
     1
100
AcDbLine
 10
79.8844917251808
 20
-8.47119226669908
 30
0.0
 11
80.0857142857142
 21
-8.05410032722443
 31
0.0
  0
LINE
  5
1029
330
18
100
AcDbEntity
  8
1
 62
     1
100
AcDbLine
 10
79.8844917252083
 20
-9.44702075021019
 30
0.0
 11
79.8844917252083
 21
-9.44677811635046
 31
0.0
  0
LINE
  5
102A
330
18
100
AcDbEntity
  8
1
 62
     1
100
AcDbLine
 10
79.8844917252083
 20
-9.44677811635046
 30
0.0
 11
79.8844917252083
 21
-9.37703394288911
 31
0.0
  0
LINE
  5
102B
330
18
100
AcDbEntity
  8
1
 62
     1
100
AcDbLine
 10
79.8844917252083
 20
-9.37703394288911
 30
0.0
 11
79.8844917252083
 21
-8.47119226664282
 31
0.0
  0
LINE
  5
102C
330
18
100
AcDbEntity
  8
1
 62
     1
100
AcDbLine
 10
80.0857142857142
 20
-9.09849321428572
 30
0.0
 11
79.8844917252083
 21
-9.44702075021019
 31
0.0
  0
LINE
  5
102D
330
18
100
AcDbEntity
  8
1
 62
     1
100
AcDbLine
 10
80.0857142857142
 20
-9.09849321428572
 30
0.0
 11
80.0857142857142
 21
-9.09826990878562
 31
0.0
  0
LINE
  5
102E
330
18
100
AcDbEntity
  8
1
 62
     1
100
AcDbLine
 10
80.0857142857142
 20
-9.09826990878562
 30
0.0
 11
80.0857142857142
 21
-9.03110334094767
 31
0.0
  0
LINE
  5
102F
330
18
100
AcDbEntity
  8
1
 62
     1
100
AcDbLine
 10
80.0857142857142
 20
-9.03110334094767
 30
0.0
 11
80.0857142857144
 21
-8.05410032722443
 31
0.0
  0
LINE
  5
1030
330
18
100
AcDbEntity
  8
1
 62
     1
100
AcDbLine
 10
80.2281625912367
 20
-9.34522080186574
 30
0.0
 11
80.0857142857142
 21
-9.09849321428572
 31
0.0
  0
LINE
  5
1031
330
18
100
AcDbEntity
  8
1
 62
     1
100
AcDbLine
 10
75.6652291928909
 20
1.8417117013189
 30
0.0
 11
75.4363652906089
 21
1.90018580133847
 31
0.0
  0
LINE
  5
1032
330
18
100
AcDbEntity
  8
1
 62
     1
100
AcDbLine
 10
75.4363652857788
 20
-3.04312831606383
 30
0.0
 11
75.4363652857788
 21
1.90018578702488
 31
0.0
  0
LINE
  5
1033
330
18
100
AcDbEntity
  8
1
 62
     1
100
AcDbLine
 10
75.6652291928909
 20
-3.09991247416376
 30
0.0
 11
75.4363652857788
 21
-3.04312831606383
 31
0.0
  0
LINE
  5
1034
330
18
100
AcDbEntity
  8
1
 62
     1
100
AcDbLine
 10
75.6652291928909
 20
-3.09991247416376
 30
0.0
 11
75.6652291928909
 21
1.84171170131887
 31
0.0
  0
LINE
  5
1035
330
18
100
AcDbEntity
  8
1
 62
     1
100
AcDbLine
 10
73.8382147984139
 20
2.30761189323005
 30
0.0
 11
73.634632114603
 21
2.35938019321461
 31
0.0
  0
LINE
  5
1036
330
18
100
AcDbEntity
  8
1
 62
     1
100
AcDbLine
 10
73.6346321191562
 20
-2.59165191297403
 30
0.0
 11
73.6346321191562
 21
2.35938021324321
 31
0.0
  0
LINE
  5
1037
330
18
100
AcDbEntity
  8
1
 62
     1
100
AcDbLine
 10
73.8382147984139
 20
-2.64304525647695
 30
0.0
 11
73.6346321191562
 21
-2.59165191297403
 31
0.0
  0
LINE
  5
1038
330
18
100
AcDbEntity
  8
1
 62
     1
100
AcDbLine
 10
72.0112004039367
 20
2.77085952305529
 30
0.0
 11
71.8328989525337
 21
2.81589072064706
 31
0.0
  0
LINE
  5
1039
330
18
100
AcDbEntity
  8
1
 62
     1
100
AcDbLine
 10
71.8328989525337
 20
-2.13293478096195
 30
0.0
 11
71.8328989525337
 21
2.81589072064706
 31
0.0
  0
LINE
  5
103A
330
18
100
AcDbEntity
  8
1
 62
     1
100
AcDbLine
 10
72.0112004039367
 20
-2.1786269082284
 30
0.0
 11
71.8328989525337
 21
-2.13293478096195
 31
0.0
  0
LINE
  5
103B
330
18
100
AcDbEntity
  8
1
 62
     1
100
AcDbLine
 10
70.1841860094598
 20
3.23049710917971
 30
0.0
 11
70.0311657858374
 21
3.26879952499948
 31
0.0
  0
LINE
  5
103C
330
18
100
AcDbEntity
  8
1
 62
     1
100
AcDbLine
 10
70.0311657859113
 20
-1.66789667677442
 30
0.0
 11
70.0311657859113
 21
3.26879952689728
 31
0.0
  0
LINE
  5
103D
330
18
100
AcDbEntity
  8
1
 62
     1
100
AcDbLine
 10
70.1841860094598
 20
-1.70761454173552
 30
0.0
 11
70.0311657858289
 21
-1.66789667569512
 31
0.0
  0
LINE
  5
103E
330
18
100
AcDbEntity
  8
1
 62
     1
100
AcDbLine
 10
68.3571716149828
 20
3.68556551078277
 30
0.0
 11
68.2294326192887
 21
3.71718707024141
 31
0.0
  0
LINE
  5
103F
330
18
100
AcDbEntity
  8
1
 62
     1
100
AcDbLine
 10
68.2294326192887
 20
-1.19747563561802
 30
0.0
 11
68.2294326192887
 21
3.71718707024141
 31
0.0
  0
LINE
  5
1040
330
18
100
AcDbEntity
  8
1
 62
     1
100
AcDbLine
 10
68.3571716149828
 20
-1.23098470406697
 30
0.0
 11
68.2294326192887
 21
-1.19747563561802
 31
0.0
  0
LINE
  5
1041
330
18
100
AcDbEntity
  8
1
 62
     1
100
AcDbLine
 10
66.5301572205058
 20
4.13511462770933
 30
0.0
 11
66.4276994527917
 21
4.16014230039022
 31
0.0
  0
LINE
  5
1042
330
18
100
AcDbEntity
  8
1
 62
     1
100
AcDbLine
 10
66.4276994526661
 20
-0.722623952420705
 30
0.0
 11
66.4276994526661
 21
4.16014230041336
 31
0.0
  0
LINE
  5
1043
330
18
100
AcDbEntity
  8
1
 62
     1
100
AcDbLine
 10
66.5301572205058
 20
-0.749729046944921
 30
0.0
 11
66.4276994526445
 21
-0.722623951964422
 31
0.0
  0
LINE
  5
1044
330
18
100
AcDbEntity
  8
1
 62
     1
100
AcDbLine
 10
64.7031428260293
 20
4.57819858771757
 30
0.0
 11
64.6259662852249
 21
4.59675893227571
 31
0.0
  0
LINE
  5
1045
330
18
100
AcDbEntity
  8
1
 62
     1
100
AcDbLine
 10
64.6259662860436
 20
-0.244307538270178
 30
0.0
 11
64.6259662860437
 21
4.59675893709652
 31
0.0
  0
LINE
  5
1046
330
18
100
AcDbEntity
  8
1
 62
     1
100
AcDbLine
 10
64.7031428260286
 20
-0.264854032697698
 30
0.0
 11
64.6259662860273
 21
-0.244307538722268
 31
0.0
  0
LINE
  5
1047
330
18
100
AcDbEntity
  8
1
 62
     1
100
AcDbLine
 10
62.8761284344659
 20
5.01388031483452
 30
0.0
 11
62.8242331214507
 21
5.02613833981411
 31
0.0
  0
LINE
  5
1048
330
18
100
AcDbEntity
  8
1
 62
     1
100
AcDbLine
 10
62.8242331194212
 20
0.236495964587633
 30
0.0
 11
62.8242331194212
 21
5.02613834585442
 31
0.0
  0
LINE
  5
1049
330
18
100
AcDbEntity
  8
1
 62
     1
100
AcDbLine
 10
62.8761284315517
 20
0.222621636779053
 30
0.0
 11
62.824233119393
 21
0.236495965020055
 31
0.0
  0
LINE
  5
104A
330
18
100
AcDbEntity
  8
1
 62
     1
100
AcDbLine
 10
61.0491140370745
 20
5.44123549848345
 30
0.0
 11
61.0224999528863
 21
5.44739467363544
 31
0.0
  0
LINE
  5
104B
330
18
100
AcDbEntity
  8
1
 62
     1
100
AcDbLine
 10
61.0224999527986
 20
0.718800601722862
 30
0.0
 11
61.0224999527986
 21
5.44739467359359
 31
0.0
  0
LINE
  5
104C
330
18
100
AcDbEntity
  8
1
 62
     1
100
AcDbLine
 10
61.0491140370745
 20
0.711670160530616
 30
0.0
 11
61.0224999528206
 21
0.718800601846212
 31
0.0
  0
LINE
  5
104D
330
18
100
AcDbEntity
  8
1
 62
     1
100
AcDbLine
 10
59.2220996425975
 20
1.20125475225312
 30
0.0
 11
59.2207667861762
 21
1.20161186021198
 31
0.0
  0
LINE
  5
104E
330
18
100
AcDbEntity
  8
1
 62
     1
100
AcDbLine
 10
59.2220996425975
 20
1.20125475225302
 30
0.0
 11
59.2220996425975
 21
5.85934908128439
 31
0.0
  0
LINE
  5
104F
330
18
100
AcDbEntity
  8
1
 62
     1
100
AcDbLine
 10
73.8382147983882
 20
-10.4736009923408
 30
0.0
 11
74.6428571428572
 21
-9.07691826644081
 31
0.0
  0
LINE
  5
1050
330
18
100
AcDbEntity
  8
1
 62
     1
100
AcDbLine
 10
74.6428571428572
 20
-9.07691826644081
 30
0.0
 11
74.6428571428572
 21
-7.39508724620481
 31
0.0
  0
LINE
  5
1051
330
18
100
AcDbEntity
  8
1
 62
     1
100
AcDbLine
 10
73.8382147983882
 20
-9.02122384386206
 30
0.0
 11
74.6428571428572
 21
-7.39508724620481
 31
0.0
  0
LINE
  5
1052
330
18
100
AcDbEntity
  8
1
 62
     1
100
AcDbLine
 10
73.8382147984139
 20
-10.4736009922964
 30
0.0
 11
73.8382147984139
 21
-9.02122384381231
 31
0.0
  0
LINE
  5
1053
330
18
100
AcDbEntity
  8
1
 62
     1
100
AcDbLine
 10
75.4363652857788
 20
-10.4709314795284
 30
0.0
 11
75.4363652857788
 21
-10.126335485295
 31
0.0
  0
LINE
  5
1054
330
18
100
AcDbEntity
  8
1
 62
     1
100
AcDbLine
 10
75.4363652857788
 20
-10.126335485295
 30
0.0
 11
75.4363652857788
 21
-9.20780123850409
 31
0.0
  0
LINE
  5
1055
330
18
100
AcDbEntity
  8
1
 62
     1
100
AcDbLine
 10
72.8285714285715
 20
-9.03850729716856
 30
0.0
 11
73.6346321191817
 21
-10.4727217408903
 31
0.0
  0
LINE
  5
1056
330
18
100
AcDbEntity
  8
1
 62
     1
100
AcDbLine
 10
73.6346321191562
 20
-10.4727217398188
 30
0.0
 11
73.6346321191562
 21
-8.99639308568527
 31
0.0
  0
LINE
  5
1057
330
18
100
AcDbEntity
  8
1
 62
     1
100
AcDbLine
 10
72.0112004039122
 20
-10.4558289908013
 30
0.0
 11
72.8285714285715
 21
-9.03850729716856
 31
0.0
  0
LINE
  5
1058
330
18
100
AcDbEntity
  8
1
 62
     1
100
AcDbLine
 10
72.8285714285715
 20
-9.03850729716856
 30
0.0
 11
72.8285714285715
 21
-7.14345228970443
 31
0.0
  0
LINE
  5
1059
330
18
100
AcDbEntity
  8
1
 62
     1
100
AcDbLine
 10
72.0112004039122
 20
-8.78988873683447
 30
0.0
 11
72.8285714285715
 21
-7.14345228970443
 31
0.0
  0
LINE
  5
105A
330
18
100
AcDbEntity
  8
1
 62
     1
100
AcDbLine
 10
72.0112004039367
 20
-10.4558289907587
 30
0.0
 11
72.0112004039367
 21
-8.78988873678678
 31
0.0
  0
LINE
  5
105B
330
18
100
AcDbEntity
  8
1
 62
     1
100
AcDbLine
 10
71.0142857142857
 20
-8.98096308297993
 30
0.0
 11
71.8328989525582
 21
-10.4529024351537
 31
0.0
  0
LINE
  5
105C
330
18
100
AcDbEntity
  8
1
 62
     1
100
AcDbLine
 10
71.8328989525337
 20
-10.45290243511
 30
0.0
 11
71.8328989525337
 21
-8.76629483344401
 31
0.0
  0
LINE
  5
105D
330
18
100
AcDbEntity
  8
1
 62
     1
100
AcDbLine
 10
71.0142857142857
 20
-8.98096308297993
 30
0.0
 11
71.0142857142857
 21
-6.87669570294605
 31
0.0
  0
LINE
  5
105E
330
18
100
AcDbEntity
  8
1
 62
     1
100
AcDbLine
 10
70.1841860094303
 20
-8.53967660386076
 30
0.0
 11
71.0142857142857
 21
-6.87669570294605
 31
0.0
  0
LINE
  5
105F
330
18
100
AcDbEntity
  8
1
 62
     1
100
AcDbLine
 10
70.1841860094598
 20
-10.4157879032279
 30
0.0
 11
70.1841860094598
 21
-8.53967660380408
 31
0.0
  0
LINE
  5
1060
330
18
100
AcDbEntity
  8
1
 62
     1
100
AcDbLine
 10
69.1999999999999
 20
-8.90440745035633
 30
0.0
 11
70.0311657859352
 21
-10.4114229603773
 31
0.0
  0
LINE
  5
1061
330
18
100
AcDbEntity
  8
1
 62
     1
100
AcDbLine
 10
70.0311657859113
 20
-10.4114229600507
 30
0.0
 11
70.0311657859111
 21
-8.51787670862507
 31
0.0
  0
LINE
  5
1062
330
18
100
AcDbEntity
  8
1
 62
     1
100
AcDbLine
 10
68.3571716149591
 20
-10.3534675746309
 30
0.0
 11
69.1999999999999
 21
-8.90440745035633
 31
0.0
  0
LINE
  5
1063
330
18
100
AcDbEntity
  8
1
 62
     1
100
AcDbLine
 10
69.1999999999999
 20
-8.90440745035633
 30
0.0
 11
69.1999999999999
 21
-6.59538214161196
 31
0.0
  0
LINE
  5
1064
330
18
100
AcDbEntity
  8
1
 62
     1
100
AcDbLine
 10
68.3571716149593
 20
-8.27101266274204
 30
0.0
 11
69.1999999999999
 21
-6.59538214161196
 31
0.0
  0
LINE
  5
1065
330
18
100
AcDbEntity
  8
1
 62
     1
100
AcDbLine
 10
68.3571716149828
 20
-10.3534675745906
 30
0.0
 11
68.3571716149828
 21
-8.27101266269726
 31
0.0
  0
LINE
  5
1066
330
18
100
AcDbEntity
  8
1
 62
     1
100
AcDbLine
 10
67.3857142857143
 20
-8.80900238212624
 30
0.0
 11
68.2294326193122
 21
-10.3482777076365
 31
0.0
  0
LINE
  5
1067
330
18
100
AcDbEntity
  8
1
 62
     1
100
AcDbLine
 10
68.2294326192887
 20
-10.3482777075938
 30
0.0
 11
68.2294326192887
 21
-8.25155004126049
 31
0.0
  0
LINE
  5
1068
330
18
100
AcDbEntity
  8
1
 62
     1
100
AcDbLine
 10
67.3857142857143
 20
-6.3001065920983
 30
0.0
 11
68.2294326193122
 21
-8.2515500413131
 31
0.0
  0
LINE
  5
1069
330
18
100
AcDbEntity
  8
1
 62
     1
100
AcDbLine
 10
67.3857142857143
 20
-8.80900238212624
 30
0.0
 11
67.3857142857143
 21
-6.3001065920983
 31
0.0
  0
LINE
  5
106A
330
18
100
AcDbEntity
  8
1
 62
     1
100
AcDbLine
 10
66.5301572205056
 20
-10.2689053585215
 30
0.0
 11
66.5301572205056
 21
-7.98435960340655
 31
0.0
  0
LINE
  5
106B
330
18
100
AcDbEntity
  8
1
 62
     1
100
AcDbLine
 10
61.9428571428572
 20
-8.41190749738581
 30
0.0
 11
62.8242331194443
 21
-10.0294672621315
 31
0.0
  0
LINE
  5
106C
330
18
100
AcDbEntity
  8
1
 62
     1
100
AcDbLine
 10
62.8242331194212
 20
-10.0294672620888
 30
0.0
 11
62.8242331194212
 21
-7.34977681017145
 31
0.0
  0
LINE
  5
106D
330
18
100
AcDbEntity
  8
1
 62
     1
100
AcDbLine
 10
61.0491140370514
 20
-9.88285882456441
 30
0.0
 11
61.9428571428572
 21
-8.41190749738581
 31
0.0
  0
LINE
  5
106E
330
18
100
AcDbEntity
  8
1
 62
     1
100
AcDbLine
 10
61.9428571428572
 20
-8.41190749738581
 30
0.0
 11
61.9428571428572
 21
-5.33690273348232
 31
0.0
  0
LINE
  5
106F
330
18
100
AcDbEntity
  8
1
 62
     1
100
AcDbLine
 10
61.0491140370514
 20
-7.02169111002303
 30
0.0
 11
61.9428571428572
 21
-5.33690273348232
 31
0.0
  0
LINE
  5
1070
330
18
100
AcDbEntity
  8
1
 62
     1
100
AcDbLine
 10
61.0491140370745
 20
-9.88285882452664
 30
0.0
 11
61.0491140370745
 21
-7.0216911099815
 31
0.0
  0
LINE
  5
1071
330
18
100
AcDbEntity
  8
1
 62
     1
100
AcDbLine
 10
60.1285714285714
 20
-8.24351668124777
 30
0.0
 11
61.0224999528217
 21
-9.88050491938988
 31
0.0
  0
LINE
  5
1072
330
18
100
AcDbEntity
  8
1
 62
     1
100
AcDbLine
 10
61.0224999527986
 20
-9.88050491934743
 30
0.0
 11
61.0224999527986
 21
-7.01665761027323
 31
0.0
  0
LINE
  5
1073
330
18
100
AcDbEntity
  8
1
 62
     1
100
AcDbLine
 10
77.6959183323375
 20
-10.0953057239034
 30
0.0
 11
77.6959183323375
 21
-10.0950395656401
 31
0.0
  0
LINE
  5
1074
330
18
100
AcDbEntity
  8
1
 62
     1
100
AcDbLine
 10
77.6959183323375
 20
-10.0950395656401
 30
0.0
 11
77.6959183323375
 21
-10.0185295145055
 31
0.0
  0
LINE
  5
1075
330
18
100
AcDbEntity
  8
1
 62
     1
100
AcDbLine
 10
77.6959183323375
 20
-10.0185295145055
 30
0.0
 11
77.6959183323375
 21
-9.02525701352602
 31
0.0
  0
LINE
  5
1076
330
18
100
AcDbEntity
  8
1
 62
     1
100
AcDbLine
 10
78.2714285714286
 20
-9.09849321428572
 30
0.0
 11
77.6959183323375
 21
-10.0953057239034
 31
0.0
  0
LINE
  5
1077
330
18
100
AcDbEntity
  8
1
 62
     1
100
AcDbLine
 10
77.1295182787725
 20
-10.2630810633192
 30
0.0
 11
76.8065573586602
 21
-9.7036966016388
 31
0.0
  0
LINE
  5
1078
330
18
100
AcDbEntity
  8
1
 62
     1
100
AcDbLine
 10
76.4571428571428
 20
-7.63106782124717
 30
0.0
 11
77.1295182788088
 21
-9.1621335095401
 31
0.0
  0
LINE
  5
1079
330
18
100
AcDbEntity
  8
1
 62
     1
100
AcDbLine
 10
76.4571428571428
 20
-9.09611467008857
 30
0.0
 11
76.4571428571428
 21
-8.71917320604977
 31
0.0
  0
LINE
  5
107A
330
18
100
AcDbEntity
  8
1
 62
     1
100
AcDbLine
 10
76.4571428571428
 20
-8.71917320604977
 30
0.0
 11
76.4571428571428
 21
-7.63106782124717
 31
0.0
  0
LINE
  5
107B
330
18
100
AcDbEntity
  8
1
 62
     1
100
AcDbLine
 10
75.6652291928909
 20
-10.4691616424302
 30
0.0
 11
75.6652291928909
 21
-10.1386984019956
 31
0.0
  0
LINE
  5
107C
330
18
100
AcDbEntity
  8
1
 62
     1
100
AcDbLine
 10
75.6652291928909
 20
-10.1386984019956
 30
0.0
 11
75.6652291928909
 21
-9.23329999842186
 31
0.0
  0
LINE
  5
107D
330
18
100
AcDbEntity
  8
1
 62
     1
100
AcDbLine
 10
62.8761284315284
 20
-7.35913881714743
 30
0.0
 11
63.7571428571429
 21
-5.67020035172509
 31
0.0
  0
LINE
  5
107E
330
18
100
AcDbEntity
  8
1
 62
     1
100
AcDbLine
 10
62.8761284315517
 20
-10.0334441149433
 30
0.0
 11
62.8761284315517
 21
-7.35913881710493
 31
0.0
  0
LINE
  5
107F
330
18
100
AcDbEntity
  8
1
 62
     1
100
AcDbLine
 10
63.7571428571429
 20
-8.56249151335584
 30
0.0
 11
64.6259662860669
 21
-10.1571925711141
 31
0.0
  0
LINE
  5
1080
330
18
100
AcDbEntity
  8
1
 62
     1
100
AcDbLine
 10
64.6259662860437
 20
-10.1571925710713
 30
0.0
 11
64.6259662860437
 21
-7.66699662036005
 31
0.0
  0
LINE
  5
1081
330
18
100
AcDbEntity
  8
1
 62
     1
100
AcDbLine
 10
63.7571428571429
 20
-5.67020035172509
 30
0.0
 11
64.6259662860669
 21
-7.66699661807358
 31
0.0
  0
LINE
  5
1082
330
18
100
AcDbEntity
  8
1
 62
     1
100
AcDbLine
 10
63.7571428571429
 20
-8.56249151335584
 30
0.0
 11
63.7571428571429
 21
-5.67020035172509
 31
0.0
  0
LINE
  5
1083
330
18
100
AcDbEntity
  8
1
 62
     1
100
AcDbLine
 10
64.7031428260054
 20
-7.68022096672769
 30
0.0
 11
65.5714285714285
 21
-5.99149548095028
 31
0.0
  0
LINE
  5
1084
330
18
100
AcDbEntity
  8
1
 62
     1
100
AcDbLine
 10
64.7031428260286
 20
-10.1621864946057
 30
0.0
 11
64.7031428260286
 21
-7.68022096668437
 31
0.0
  0
LINE
  5
1085
330
18
100
AcDbEntity
  8
1
 62
     1
100
AcDbLine
 10
65.5714285714285
 20
-8.69494998197811
 30
0.0
 11
66.4276994526896
 21
-10.2635060419247
 31
0.0
  0
LINE
  5
1086
330
18
100
AcDbEntity
  8
1
 62
     1
100
AcDbLine
 10
66.4276994526661
 20
-10.2635060418819
 30
0.0
 11
66.4276994526661
 21
-7.96776167828327
 31
0.0
  0
LINE
  5
1087
330
18
100
AcDbEntity
  8
1
 62
     1
100
AcDbLine
 10
65.5714285714285
 20
-8.69494998197811
 30
0.0
 11
65.5714285714285
 21
-5.99149548095028
 31
0.0
  0
LINE
  5
1088
330
18
100
AcDbEntity
  8
1
 62
     1
100
AcDbLine
 10
59.222099642601
 20
-9.71065918874942
 30
0.0
 11
60.1285714285714
 21
-8.24351668124777
 31
0.0
  0
LINE
  5
1089
330
18
100
AcDbEntity
  8
1
 62
     1
100
AcDbLine
 10
60.1285714285714
 20
-8.24351668124777
 30
0.0
 11
60.1285714285714
 21
-4.99230765702582
 31
0.0
  0
LINE
  5
108A
330
18
100
AcDbEntity
  8
1
 62
     1
100
AcDbLine
 10
56.5
 20
-7.85477729712098
 30
0.0
 11
57.4071428571429
 21
-9.49820661722285
 31
0.0
  0
LINE
  5
108B
330
18
100
AcDbEntity
  8
1
 62
     1
100
AcDbLine
 10
57.4071428571429
 20
-9.49820661722285
 30
0.0
 11
57.4071428571429
 21
-6.27954100566234
 31
0.0
  0
LINE
  5
108C
330
18
100
AcDbEntity
  8
1
 62
     1
100
AcDbLine
 10
56.5
 20
-4.27216505999036
 30
0.0
 11
57.4071428571429
 21
-6.27954100566234
 31
0.0
  0
LINE
  5
108D
330
18
100
AcDbEntity
  8
1
 62
     1
100
AcDbLine
 10
56.5
 20
-7.85477729712098
 30
0.0
 11
56.5
 21
-4.27216505999037
 31
0.0
  0
LINE
  5
108E
330
18
100
AcDbEntity
  8
1
 62
     1
100
AcDbLine
 10
58.3142857142858
 20
-8.05767539227412
 30
0.0
 11
58.3142857142858
 21
-4.63714393155384
 31
0.0
  0
LINE
  5
108F
330
18
100
AcDbEntity
  8
1
 62
     1
100
AcDbLine
 10
57.4071428571429
 20
-6.27954100566234
 30
0.0
 11
58.3142857142858
 21
-4.63714393155381
 31
0.0
  0
LINE
  5
1090
330
18
100
AcDbEntity
  8
1
 62
     1
100
AcDbLine
 10
58.3142857142858
 20
-8.05767539227411
 30
0.0
 11
59.2207667861741
 21
-9.71052573865028
 31
0.0
  0
LINE
  5
1091
330
18
100
AcDbEntity
  8
1
 62
     1
100
AcDbLine
 10
59.2207667861762
 20
-9.71052573864914
 30
0.0
 11
59.2207667861762
 21
-6.66823186917887
 31
0.0
  0
LINE
  5
1092
330
18
100
AcDbEntity
  8
1
 62
     1
100
AcDbLine
 10
79.8844917251808
 20
1.35911868927209
 30
0.0
 11
80.0857142857142
 21
1.53649175555766
 31
0.0
  0
LINE
  5
1093
330
18
100
AcDbEntity
  8
1
 62
     1
100
AcDbLine
 10
79.8844917252083
 20
-3.5610933490661
 30
0.0
 11
79.8844917252083
 21
1.35911868929568
 31
0.0
  0
LINE
  5
1094
330
18
100
AcDbEntity
  8
1
 62
     1
100
AcDbLine
 10
78.2714285714286
 20
-3.01111488748305
 30
0.0
 11
78.2714285714286
 21
1.94735359801732
 31
0.0
  0
LINE
  5
1095
330
18
100
AcDbEntity
  8
1
 62
     1
100
AcDbLine
 10
81.9
 20
8.72716231385479
 30
0.0
 11
80.2281625912367
 21
9.21061576787702
 31
0.0
  0
LINE
  5
1096
330
18
100
AcDbEntity
  8
1
 62
     1
100
AcDbLine
 10
80.2281625912367
 20
7.1051489167407
 30
0.0
 11
80.2281625912367
 21
9.21061576787702
 31
0.0
  0
LINE
  5
1097
330
18
100
AcDbEntity
  8
1
 62
     1
100
AcDbLine
 10
81.9
 20
6.55228980133668
 30
0.0
 11
80.2281625912367
 21
7.10514891760349
 31
0.0
  0
LINE
  5
1098
330
18
100
AcDbEntity
  8
1
 62
     1
100
AcDbLine
 10
81.9
 20
8.72716231385479
 30
0.0
 11
81.9
 21
6.55228980133668
 31
0.0
  0
LINE
  5
1099
330
18
100
AcDbEntity
  8
1
 62
     1
100
AcDbLine
 10
79.8844917252083
 20
9.31117381137274
 30
0.0
 11
78.6788404350045
 21
9.6669661238503
 31
0.0
  0
LINE
  5
109A
330
18
100
AcDbEntity
  8
1
 62
     1
100
AcDbLine
 10
78.6788404350045
 20
7.63602287486167
 30
0.0
 11
78.6788404350045
 21
9.6669661238503
 31
0.0
  0
LINE
  5
109B
330
18
100
AcDbEntity
  8
1
 62
     1
100
AcDbLine
 10
79.8844917252083
 20
7.2214319760426
 30
0.0
 11
78.6788404350045
 21
7.63602287486167
 31
0.0
  0
LINE
  5
109C
330
18
100
AcDbEntity
  8
1
 62
     1
100
AcDbLine
 10
77.6959183323375
 20
9.96029523023753
 30
0.0
 11
77.1295182787725
 21
10.1305436511667
 31
0.0
  0
LINE
  5
109D
330
18
100
AcDbEntity
  8
1
 62
     1
100
AcDbLine
 10
77.1295182787725
 20
8.18296317121914
 30
0.0
 11
77.1295182787725
 21
10.1305436511667
 31
0.0
  0
LINE
  5
109E
330
18
100
AcDbEntity
  8
1
 62
     1
100
AcDbLine
 10
77.6959183321888
 20
7.9812612228281
 30
0.0
 11
77.1295182787725
 21
8.18296317121914
 31
0.0
  0
LINE
  5
109F
330
18
100
AcDbEntity
  8
1
 62
     1
100
AcDbLine
 10
77.6959183323375
 20
7.98126122174278
 30
0.0
 11
77.6959183323375
 21
9.96029523023753
 31
0.0
  0
LINE
  5
10A0
330
18
100
AcDbEntity
  8
1
 62
     1
100
AcDbLine
 10
80.0857142857142
 20
-3.40284816474895
 30
0.0
 11
80.0857142857142
 21
1.53649175555766
 31
0.0
  0
LINE
  5
10A1
330
18
100
AcDbEntity
  8
1
 62
     1
100
AcDbLine
 10
65.5714285714285
 20
-0.138406557793388
 30
0.0
 11
65.5714285714285
 21
4.66062892358221
 31
0.0
  0
ARC
  5
10A2
330
18
100
AcDbEntity
  8
1
 62
     1
100
AcDbCircle
 10
54.07883658665
 20
-17.900648695497
 30
0.0
 40
21.15602126181114
100
AcDbArc
 50
54.28856378355513
 51
57.09617480675164
  0
LINE
  5
10A3
330
18
100
AcDbEntity
  8
1
 62
     1
100
AcDbLine
 10
64.7031428260286
 20
-0.264854032697698
 30
0.0
 11
64.7031428260286
 21
4.57819858769547
 31
0.0
  0
LINE
  5
10A4
330
18
100
AcDbEntity
  8
1
 62
     1
100
AcDbLine
 10
63.7571428571429
 20
0.28019650719898
 30
0.0
 11
63.7571428571429
 21
5.01512564467832
 31
0.0
  0
LINE
  5
10A5
330
18
100
AcDbEntity
  8
1
 62
     1
100
AcDbLine
 10
62.8761284315517
 20
0.222621636779053
 30
0.0
 11
62.8761284315517
 21
5.01388032431365
 31
0.0
  0
ARC
  5
10A6
330
18
100
AcDbEntity
  8
1
 62
     1
100
AcDbCircle
 10
62.5917621884137
 20
11.3437337586402
 30
0.0
 40
11.12474688118236
100
AcDbArc
 50
271.4647308538256
 51
276.0130922911378
  0
ARC
  5
10A7
330
18
100
AcDbEntity
  8
1
 62
     1
100
AcDbCircle
 10
66.3644270606998
 20
12.913473477232
 30
0.0
 40
18.5184667751825
100
AcDbArc
 50
300.1486286823784
 51
303.0251765692622
  0
LINE
  5
10A8
330
18
100
AcDbEntity
  8
1
 62
     1
100
AcDbLine
 10
76.4571428571428
 20
-2.61300527592022
 30
0.0
 11
76.4571428571428
 21
2.35410180742583
 31
0.0
  0
LINE
  5
10A9
330
18
100
AcDbEntity
  8
1
 62
     1
100
AcDbLine
 10
60.1285714285714
 20
1.11473802963647
 30
0.0
 11
60.1285714285714
 21
5.69154104219422
 31
0.0
  0
LINE
  5
10AA
330
18
100
AcDbEntity
  8
1
 62
     1
100
AcDbLine
 10
61.0491140370745
 20
0.711670159887802
 30
0.0
 11
61.0491140370745
 21
5.44123549848345
 31
0.0
  0
ARC
  5
10AB
330
18
100
AcDbEntity
  8
1
 62
     1
100
AcDbCircle
 10
61.6632134605739
 20
11.7949556923375
 30
0.0
 40
11.10028328789993
100
AcDbArc
 50
266.8286150537805
 51
271.4435770085349
  0
LINE
  5
10AC
330
18
100
AcDbEntity
  8
1
 62
     1
100
AcDbLine
 10
61.9428571428572
 20
0.698206297313078
 30
0.0
 11
61.9428571428572
 21
5.35900547042408
 31
0.0
  0
ARC
  5
10AD
330
18
100
AcDbEntity
  8
1
 62
     1
100
AcDbCircle
 10
54.7388728711366
 20
-14.1238519223339
 30
0.0
 40
16.48002091156766
100
AcDbArc
 50
60.6190214416285
 51
64.07879726178245
  0
LINE
  5
10AE
330
18
100
AcDbEntity
  8
1
 62
     1
100
AcDbLine
 10
66.5301572205058
 20
-0.749729046944921
 30
0.0
 11
66.5301572205058
 21
4.13511462770933
 31
0.0
  0
ARC
  5
10AF
330
18
100
AcDbEntity
  8
1
 62
     1
100
AcDbCircle
 10
64.342035314823
 20
10.9410827550817
 30
0.0
 40
11.89382287713333
100
AcDbArc
 50
280.6011645689145
 51
284.827150162127
  0
LINE
  5
10B0
330
18
100
AcDbEntity
  8
1
 62
     1
100
AcDbLine
 10
72.0112004039367
 20
-2.1786269082284
 30
0.0
 11
72.0112004039367
 21
2.77085952305529
 31
0.0
  0
ARC
  5
10B1
330
18
100
AcDbEntity
  8
1
 62
     1
100
AcDbCircle
 10
66.141487171318
 20
11.6003046622115
 30
0.0
 40
14.97706998016548
100
AcDbArc
 50
293.0736117380844
 51
296.5185438772662
  0
LINE
  5
10B2
330
18
100
AcDbEntity
  8
1
 62
     1
100
AcDbLine
 10
72.8285714285715
 20
-1.80104770444859
 30
0.0
 11
72.8285714285715
 21
3.15179271028941
 31
0.0
  0
LINE
  5
10B3
330
18
100
AcDbEntity
  8
1
 62
     1
100
AcDbLine
 10
74.6428571428572
 20
-2.2093650075484
 30
0.0
 11
74.6428571428572
 21
2.75586412393376
 31
0.0
  0
LINE
  5
10B4
330
18
100
AcDbEntity
  8
1
 62
     1
100
AcDbLine
 10
74.6428571428572
 20
-2.20936500754836
 30
0.0
 11
75.4363652858054
 21
-3.04312831609251
 31
0.0
  0
LINE
  5
10B5
330
18
100
AcDbEntity
  8
1
 62
     1
100
AcDbLine
 10
73.8382147984139
 20
-2.64304525647695
 30
0.0
 11
73.8382147984139
 21
2.30761189323005
 31
0.0
  0
ARC
  5
10B6
330
18
100
AcDbEntity
  8
1
 62
     1
100
AcDbCircle
 10
66.3747398090054
 20
12.1667614669322
 30
0.0
 40
16.58414862023065
100
AcDbArc
 50
296.7460445108925
 51
299.90442650157
  0
LINE
  5
10B7
330
18
100
AcDbEntity
  8
1
 62
     1
100
AcDbLine
 10
75.6652291928909
 20
10.3715404273153
 30
0.0
 11
75.4363652906085
 21
10.3821806122325
 31
0.0
  0
LINE
  5
10B8
330
18
100
AcDbEntity
  8
1
 62
     1
100
AcDbLine
 10
75.4363652857788
 20
8.59017477976951
 30
0.0
 11
75.4363652857788
 21
10.3821806122325
 31
0.0
  0
LINE
  5
10B9
330
18
100
AcDbEntity
  8
1
 62
     1
100
AcDbLine
 10
75.6652291928909
 20
8.55331037124728
 30
0.0
 11
75.4363652876377
 21
8.59017475964657
 31
0.0
  0
LINE
  5
10BA
330
18
100
AcDbEntity
  8
1
 62
     1
100
AcDbLine
 10
75.6652291928909
 20
8.55331037124725
 30
0.0
 11
75.6652291928909
 21
10.3715404273153
 31
0.0
  0
LINE
  5
10BB
330
18
100
AcDbEntity
  8
1
 62
     1
100
AcDbLine
 10
73.8382147984139
 20
10.4474064266719
 30
0.0
 11
73.6346321146093
 21
10.4545702326638
 31
0.0
  0
LINE
  5
10BC
330
18
100
AcDbEntity
  8
1
 62
     1
100
AcDbLine
 10
73.6346321191562
 20
8.8709927716188
 30
0.0
 11
73.6346321191562
 21
10.4545702326638
 31
0.0
  0
LINE
  5
10BD
330
18
100
AcDbEntity
  8
1
 62
     1
100
AcDbLine
 10
73.8382147984139
 20
8.84010918998949
 30
0.0
 11
73.6346321180257
 21
8.87099275482939
 31
0.0
  0
LINE
  5
10BE
330
18
100
AcDbEntity
  8
1
 62
     1
100
AcDbLine
 10
72.0112004039367
 20
10.5023741000862
 30
0.0
 11
71.8328989525337
 21
10.5066110074093
 31
0.0
  0
LINE
  5
10BF
330
18
100
AcDbEntity
  8
1
 62
     1
100
AcDbLine
 10
71.8328989525337
 20
9.13467624468865
 30
0.0
 11
71.8328989525337
 21
10.5066110074093
 31
0.0
  0
LINE
  5
10C0
330
18
100
AcDbEntity
  8
1
 62
     1
100
AcDbLine
 10
72.0112004039367
 20
9.10936351266848
 30
0.0
 11
71.8328989525337
 21
9.13467624468865
 31
0.0
  0
LINE
  5
10C1
330
18
100
AcDbEntity
  8
1
 62
     1
100
AcDbLine
 10
70.1841860094598
 20
9.3604240767518
 30
0.0
 11
70.0311657858287
 21
9.38060611800287
 31
0.0
  0
LINE
  5
10C2
330
18
100
AcDbEntity
  8
1
 62
     1
100
AcDbLine
 10
68.3571716149828
 20
9.59267718784599
 30
0.0
 11
68.2294326192887
 21
9.60819706408192
 31
0.0
  0
LINE
  5
10C3
330
18
100
AcDbEntity
  8
1
 62
     1
100
AcDbLine
 10
68.2294326192887
 20
10.5598555539531
 30
0.0
 11
68.3571716149828
 21
10.5583141185548
 31
0.0
  0
LINE
  5
10C4
330
18
100
AcDbEntity
  8
1
 62
     1
100
AcDbLine
 10
66.5301572205056
 20
9.80554732515647
 30
0.0
 11
66.4276994527236
 21
9.8168998769824
 31
0.0
  0
LINE
  5
10C5
330
18
100
AcDbEntity
  8
1
 62
     1
100
AcDbLine
 10
66.4276994526661
 20
10.5815971941332
 30
0.0
 11
66.5301572205056
 21
10.5803608290802
 31
0.0
  0
LINE
  5
10C6
330
18
100
AcDbEntity
  8
1
 62
     1
100
AcDbLine
 10
64.7031428260286
 20
9.99849770034106
 30
0.0
 11
64.6259662859141
 21
10.0062022033512
 31
0.0
  0
LINE
  5
10C7
330
18
100
AcDbEntity
  8
1
 62
     1
100
AcDbLine
 10
64.6259662860437
 20
10.6033388343133
 30
0.0
 11
64.7031428260286
 21
10.6024075396056
 31
0.0
  0
LINE
  5
10C8
330
18
100
AcDbEntity
  8
1
 62
     1
100
AcDbLine
 10
62.8761284334455
 20
10.1710318164759
 30
0.0
 11
62.8242331206336
 21
10.175629783421
 31
0.0
  0
LINE
  5
10C9
330
18
100
AcDbEntity
  8
1
 62
     1
100
AcDbLine
 10
62.8761284315517
 20
10.1710318531038
 30
0.0
 11
62.8761284315517
 21
10.624454250131
 31
0.0
  0
LINE
  5
10CA
330
18
100
AcDbEntity
  8
1
 62
     1
100
AcDbLine
 10
62.8242331194212
 20
10.6250804744933
 30
0.0
 11
62.8761284315517
 21
10.624454250131
 31
0.0
  0
LINE
  5
10CB
330
18
100
AcDbEntity
  8
1
 62
     1
100
AcDbLine
 10
61.0491140370745
 20
10.3226951725136
 30
0.0
 11
61.0224999528379
 21
10.3247481218893
 31
0.0
  0
LINE
  5
10CC
330
18
100
AcDbEntity
  8
1
 62
     1
100
AcDbLine
 10
61.0224999527986
 20
10.6468221146734
 30
0.0
 11
61.0491140370745
 21
10.6465009606563
 31
0.0
  0
ARC
  5
10CD
330
18
100
AcDbEntity
  8
1
 62
     1
100
AcDbCircle
 10
49.0895950196435
 20
35.6410074162334
 30
0.0
 40
155.0997540828515
100
AcDbArc
 50
86.25425906468789
 51
86.25475249236878
  0
LINE
  5
10CE
330
18
100
AcDbEntity
  8
1
 62
     1
100
AcDbLine
 10
59.2220996425975
 20
10.4530754547876
 30
0.0
 11
59.2220996425975
 21
10.6685476711817
 31
0.0
  0
LINE
  5
10CF
330
18
100
AcDbEntity
  8
1
 62
     1
100
AcDbLine
 10
59.2207667861762
 20
10.6685637548534
 30
0.0
 11
59.2220996425975
 21
10.6685476711817
 31
0.0
  0
LINE
  5
10D0
330
18
100
AcDbEntity
  8
1
 62
     1
100
AcDbLine
 10
70.1841860094598
 20
-1.70761454173552
 30
0.0
 11
70.1841860094598
 21
3.23049710917971
 31
0.0
  0
ARC
  5
10D1
330
18
100
AcDbEntity
  8
1
 62
     1
100
AcDbCircle
 10
65.7007495616975
 20
11.2095250450168
 30
0.0
 40
13.67310552101934
100
AcDbArc
 50
289.1414812777089
 51
292.8681365807892
  0
LINE
  5
10D2
330
18
100
AcDbEntity
  8
1
 62
     1
100
AcDbLine
 10
71.0142857142857
 20
-1.3889178806179
 30
0.0
 11
71.0142857142857
 21
3.54104932596748
 31
0.0
  0
ARC
  5
10D3
330
18
100
AcDbEntity
  8
1
 62
     1
100
AcDbCircle
 10
51.8274598756474
 20
-22.6217413660466
 30
0.0
 40
27.75674266654306
100
AcDbArc
 50
49.01743792737937
 51
51.25278691365014
  0
LINE
  5
10D4
330
18
100
AcDbEntity
  8
1
 62
     1
100
AcDbLine
 10
68.3571716149828
 20
-1.23098470406697
 30
0.0
 11
68.3571716149828
 21
3.68556551078277
 31
0.0
  0
ARC
  5
10D5
330
18
100
AcDbEntity
  8
1
 62
     1
100
AcDbCircle
 10
65.0888248530187
 20
10.9905391857115
 30
0.0
 40
12.65100114077852
100
AcDbArc
 50
284.9719993079326
 51
288.9636281103522
  0
LINE
  5
10D6
330
18
100
AcDbEntity
  8
1
 62
     1
100
AcDbLine
 10
69.1999999999999
 20
-0.973847993354383
 30
0.0
 11
69.2000000000001
 21
3.92281002395923
 31
0.0
  0
LINE
  5
10D7
330
18
100
AcDbEntity
  8
1
 62
     1
100
AcDbLine
 10
67.3857142857143
 20
-0.556716347051619
 30
0.0
 11
67.3857142857143
 21
4.29626730342591
 31
0.0
  0
ARC
  5
10D8
330
18
100
AcDbEntity
  8
1
 62
     1
100
AcDbCircle
 10
53.1807620067214
 20
-20.13529924368
 30
0.0
 40
24.18887973485862
100
AcDbArc
 50
51.52809256103591
 51
54.0377911354007
  0
ARC
  5
10D9
330
18
100
AcDbEntity
  8
1
 62
     1
100
AcDbCircle
 10
54.2317703395714
 20
-11.1946030669755
 30
0.0
 40
13.36244589590482
100
AcDbArc
 50
68.07712431548174
 51
72.21044257745877
  0
LINE
  5
10DA
330
18
100
AcDbEntity
  8
1
 62
     1
100
AcDbLine
 10
59.2207667861762
 20
1.20161186021198
 30
0.0
 11
59.2207667861762
 21
5.85965051448329
 31
0.0
  0
LINE
  5
10DB
330
18
100
AcDbEntity
  8
1
 62
     1
100
AcDbLine
 10
58.3142857142858
 20
1.52891026119124
 30
0.0
 11
58.3142857142858
 21
6.01202899686973
 31
0.0
  0
LINE
  5
10DC
330
18
100
AcDbEntity
  8
1
 62
     1
100
AcDbLine
 10
56.5
 20
6.31978943332899
 30
0.0
 11
56.9461103916747
 21
6.30497660538606
 31
0.0
  0
LINE
  5
10DD
330
18
100
AcDbEntity
  8
1
 62
     1
100
AcDbLine
 10
56.9461103916747
 20
6.30497660538606
 30
0.0
 11
57.4071428571429
 21
6.2634499145019
 31
0.0
  0
LINE
  5
10DE
330
18
100
AcDbEntity
  8
1
 62
     1
100
AcDbLine
 10
56.5
 20
1.93984566740832
 30
0.0
 11
56.5
 21
6.31978943332902
 31
0.0
  0
ARC
  5
10DF
330
18
100
AcDbEntity
  8
1
 62
     1
100
AcDbCircle
 10
53.6634475243529
 20
-10.0220378540371
 30
0.0
 40
12.29361140263503
100
AcDbArc
 50
72.27055556407659
 51
76.65970998460014
  0
LINE
  5
10E0
330
18
100
AcDbEntity
  8
1
 62
     1
100
AcDbLine
 10
57.4071428571429
 20
1.68773013296085
 30
0.0
 11
57.4071428571429
 21
6.2634499145019
 31
0.0
  0
ARC
  5
10E1
330
18
100
AcDbEntity
  8
1
 62
     1
100
AcDbCircle
 10
60.7498796196233
 20
12.4131515359636
 30
0.0
 40
11.31550480152964
100
AcDbArc
 50
262.2404281791179
 51
266.8524324979658
  0
LINE
  5
10E2
330
18
100
AcDbEntity
  8
1
 62
     1
100
AcDbLine
 10
78.2714285714286
 20
7.23508452447204
 30
0.0
 11
78.2714285714286
 21
9.0544265595546
 31
0.0
  0
LINE
  5
10E3
330
18
100
AcDbEntity
  8
1
 62
     1
100
AcDbLine
 10
78.2714285714286
 20
7.23508452447204
 30
0.0
 11
78.6788404350309
 21
7.63602287488713
 31
0.0
  0
LINE
  5
10E4
330
18
100
AcDbEntity
  8
1
 62
     1
100
AcDbLine
 10
79.8844917252083
 20
7.2214319760426
 30
0.0
 11
79.8844917252083
 21
9.31117381137274
 31
0.0
  0
LINE
  5
10E5
330
18
100
AcDbEntity
  8
1
 62
     1
100
AcDbLine
 10
79.8844917251808
 20
7.2214319760766
 30
0.0
 11
80.0857142857142
 21
6.97366627620471
 31
0.0
  0
LINE
  5
10E6
330
18
100
AcDbEntity
  8
1
 62
     1
100
AcDbLine
 10
80.0857142857142
 20
6.97366627620471
 30
0.0
 11
80.0857142857142
 21
9.00370445559309
 31
0.0
  0
LINE
  5
10E7
330
18
100
AcDbEntity
  8
1
 62
     1
100
AcDbLine
 10
66.4276994526661
 20
9.81689987820114
 30
0.0
 11
66.4276994526661
 21
10.5815971941332
 31
0.0
  0
LINE
  5
10E8
330
18
100
AcDbEntity
  8
1
 62
     1
100
AcDbLine
 10
64.7031428260286
 20
9.99849770034106
 30
0.0
 11
64.7031428260286
 21
10.6024075396056
 31
0.0
  0
LINE
  5
10E9
330
18
100
AcDbEntity
  8
1
 62
     1
100
AcDbLine
 10
64.7031428260054
 20
9.99849770037872
 30
0.0
 11
65.5714285714285
 21
8.60941002499595
 31
0.0
  0
LINE
  5
10EA
330
18
100
AcDbEntity
  8
1
 62
     1
100
AcDbLine
 10
65.5714285714285
 20
8.6094100249958
 30
0.0
 11
65.5714285714285
 21
9.09849321428571
 31
0.0
  0
LINE
  5
10EB
330
18
100
AcDbEntity
  8
1
 62
     1
100
AcDbLine
 10
64.6259662860437
 20
10.0062022087125
 30
0.0
 11
64.6259662860437
 21
10.6033388343133
 31
0.0
  0
LINE
  5
10EC
330
18
100
AcDbEntity
  8
1
 62
     1
100
AcDbLine
 10
62.8761284315284
 20
10.171031853142
 30
0.0
 11
63.7571428571429
 21
8.73566247833382
 31
0.0
  0
LINE
  5
10ED
330
18
100
AcDbEntity
  8
1
 62
     1
100
AcDbLine
 10
63.7571428571429
 20
8.73566247833382
 30
0.0
 11
63.7571428571429
 21
9.09849321320011
 31
0.0
  0
LINE
  5
10EE
330
18
100
AcDbEntity
  8
1
 62
     1
100
AcDbLine
 10
75.6652291928604
 20
8.55331037128924
 30
0.0
 11
76.4571428571428
 21
7.48118859678709
 31
0.0
  0
LINE
  5
10EF
330
18
100
AcDbEntity
  8
1
 62
     1
100
AcDbLine
 10
76.4571428571428
 20
7.48118859678709
 30
0.0
 11
76.4571428571428
 21
9.08598275121389
 31
0.0
  0
LINE
  5
10F0
330
18
100
AcDbEntity
  8
1
 62
     1
100
AcDbLine
 10
77.6959183323107
 20
7.98126122177794
 30
0.0
 11
78.2714285714286
 21
7.23508452447204
 31
0.0
  0
LINE
  5
10F1
330
18
100
AcDbEntity
  8
1
 62
     1
100
AcDbLine
 10
60.1285714285714
 20
8.93246267211505
 30
0.0
 11
60.1285714285714
 21
9.09849321428571
 31
0.0
  0
LINE
  5
10F2
330
18
100
AcDbEntity
  8
1
 62
     1
100
AcDbLine
 10
60.1285714285714
 20
8.93246267211505
 30
0.0
 11
61.0224999528219
 21
10.3247481224431
 31
0.0
  0
LINE
  5
10F3
330
18
100
AcDbEntity
  8
1
 62
     1
100
AcDbLine
 10
61.0224999527986
 20
10.3247481224075
 30
0.0
 11
61.0224999527986
 21
10.6468221146734
 31
0.0
  0
LINE
  5
10F4
330
18
100
AcDbEntity
  8
1
 62
     1
100
AcDbLine
 10
61.0491140370745
 20
10.3226951725136
 30
0.0
 11
61.0491140370745
 21
10.6465009606563
 31
0.0
  0
LINE
  5
10F5
330
18
100
AcDbEntity
  8
1
 62
     1
100
AcDbLine
 10
61.0491140370514
 20
10.3226951725522
 30
0.0
 11
61.9428571428572
 21
8.84342272028452
 31
0.0
  0
LINE
  5
10F6
330
18
100
AcDbEntity
  8
1
 62
     1
100
AcDbLine
 10
61.9428571428572
 20
8.84342272028448
 30
0.0
 11
61.9428571428572
 21
9.09849321428571
 31
0.0
  0
LINE
  5
10F7
330
18
100
AcDbEntity
  8
1
 62
     1
100
AcDbLine
 10
62.8242331194212
 20
10.1756298064061
 30
0.0
 11
62.8242331194212
 21
10.6250804744933
 31
0.0
  0
LINE
  5
10F8
330
18
100
AcDbEntity
  8
1
 62
     1
100
AcDbLine
 10
66.5301572205056
 20
9.80554732515647
 30
0.0
 11
66.5301572205056
 21
10.5803608290802
 31
0.0
  0
LINE
  5
10F9
330
18
100
AcDbEntity
  8
1
 62
     1
100
AcDbLine
 10
66.5301572204823
 20
9.80554732519352
 30
0.0
 11
67.3857142857143
 21
8.4649327575557
 31
0.0
  0
LINE
  5
10FA
330
18
100
AcDbEntity
  8
1
 62
     1
100
AcDbLine
 10
72.0112004039367
 20
9.10936351266848
 30
0.0
 11
72.0112004039367
 21
10.5023741000862
 31
0.0
  0
LINE
  5
10FB
330
18
100
AcDbEntity
  8
1
 62
     1
100
AcDbLine
 10
72.0112004039122
 20
9.10936351270463
 30
0.0
 11
72.8285714285715
 21
7.92539860045935
 31
0.0
  0
LINE
  5
10FC
330
18
100
AcDbEntity
  8
1
 62
     1
100
AcDbLine
 10
72.8285714285715
 20
7.92539860045935
 30
0.0
 11
72.8285714285715
 21
9.09849321428571
 31
0.0
  0
LINE
  5
10FD
330
18
100
AcDbEntity
  8
1
 62
     1
100
AcDbLine
 10
72.8285714285715
 20
7.92539860045935
 30
0.0
 11
73.6346321191817
 21
8.87099277164782
 31
0.0
  0
LINE
  5
10FE
330
18
100
AcDbEntity
  8
1
 62
     1
100
AcDbLine
 10
74.6428571428572
 20
7.71145559822102
 30
0.0
 11
74.6428571428572
 21
9.09830494317234
 31
0.0
  0
LINE
  5
10FF
330
18
100
AcDbEntity
  8
1
 62
     1
100
AcDbLine
 10
73.8382147984139
 20
8.84010918998949
 30
0.0
 11
73.8382147984139
 21
10.4474064266719
 31
0.0
  0
LINE
  5
1100
330
18
100
AcDbEntity
  8
1
 62
     1
100
AcDbLine
 10
73.8382147983882
 20
8.84010919002586
 30
0.0
 11
74.6428571428572
 21
7.71145559822126
 31
0.0
  0
LINE
  5
1101
330
18
100
AcDbEntity
  8
1
 62
     1
100
AcDbLine
 10
70.1841860094598
 20
9.3604240767518
 30
0.0
 11
70.1841860094598
 21
10.5362336107151
 31
0.0
  0
LINE
  5
1102
330
18
100
AcDbEntity
  8
1
 62
     1
100
AcDbLine
 10
70.1841860094303
 20
9.36042407679631
 30
0.0
 11
71.0142857142857
 21
8.12256462517561
 31
0.0
  0
LINE
  5
1103
330
18
100
AcDbEntity
  8
1
 62
     1
100
AcDbLine
 10
71.0142857142857
 20
8.12256462517561
 30
0.0
 11
71.0142857142857
 21
9.09849321428571
 31
0.0
  0
LINE
  5
1104
330
18
100
AcDbEntity
  8
1
 62
     1
100
AcDbLine
 10
70.0311657859113
 20
9.38060612325803
 30
0.0
 11
70.0311657859111
 21
10.5381139137731
 31
0.0
  0
LINE
  5
1105
330
18
100
AcDbEntity
  8
1
 62
     1
100
AcDbLine
 10
68.3571716149828
 20
9.59267718784599
 30
0.0
 11
68.3571716149828
 21
10.5583141185548
 31
0.0
  0
LINE
  5
1106
330
18
100
AcDbEntity
  8
1
 62
     1
100
AcDbLine
 10
68.3571716149593
 20
9.59267718788237
 30
0.0
 11
69.1999999999999
 21
8.30253629058745
 31
0.0
  0
LINE
  5
1107
330
18
100
AcDbEntity
  8
1
 62
     1
100
AcDbLine
 10
69.1999999999999
 20
8.30253629058744
 30
0.0
 11
69.1999999999999
 21
9.09849321428571
 31
0.0
  0
LINE
  5
1108
330
18
100
AcDbEntity
  8
1
 62
     1
100
AcDbLine
 10
67.3857142857143
 20
8.46493275755569
 30
0.0
 11
67.3857142857143
 21
9.09849321428571
 31
0.0
  0
LINE
  5
1109
330
18
100
AcDbEntity
  8
1
 62
     1
100
AcDbLine
 10
68.2294326192887
 20
9.60819706408192
 30
0.0
 11
68.2294326192887
 21
10.5598555539531
 31
0.0
  0
LINE
  5
110A
330
18
100
AcDbEntity
  8
1
 62
     1
100
AcDbLine
 10
59.2220996426008
 20
10.4530754547897
 30
0.0
 11
60.1285714285714
 21
8.93246267211505
 31
0.0
  0
LINE
  5
110B
330
18
100
AcDbEntity
  8
1
 62
     1
100
AcDbLine
 10
56.5
 20
9.05366785250854
 30
0.0
 11
56.5
 21
9.09849321428571
 31
0.0
  0
LINE
  5
110C
330
18
100
AcDbEntity
  8
1
 62
     1
100
AcDbLine
 10
57.4071428571429
 20
10.54128120323
 30
0.0
 11
57.4071428571429
 21
10.6697099999999
 31
0.0
  0
LINE
  5
110D
330
18
100
AcDbEntity
  8
1
 62
     1
100
AcDbLine
 10
57.4071428571429
 20
10.54128120323
 30
0.0
 11
58.3142857142858
 21
9.00259389943879
 31
0.0
  0
LINE
  5
110E
330
18
100
AcDbEntity
  8
1
 62
     1
100
AcDbLine
 10
58.3142857142858
 20
9.00259389943879
 30
0.0
 11
58.3142857142858
 21
9.09849321428571
 31
0.0
  0
LINE
  5
110F
330
18
100
AcDbEntity
  8
1
 62
     1
100
AcDbLine
 10
58.3142857142858
 20
9.00259389943879
 30
0.0
 11
59.2207667861741
 21
10.4531627095458
 31
0.0
  0
LINE
  5
1110
330
18
100
AcDbEntity
  8
1
 62
     1
100
AcDbLine
 10
59.2207667861762
 20
10.4531627095451
 30
0.0
 11
59.2207667861762
 21
10.6685637548534
 31
0.0
  0
LINE
  5
1111
330
18
100
AcDbEntity
  8
1
 62
     1
100
AcDbLine
 10
81.9
 20
1.29935850881486
 30
0.0
 11
81.9
 21
-3.63301814297999
 31
0.0
  0
LINE
  5
1112
330
18
100
AcDbEntity
  8
1
 62
     1
100
AcDbLine
 10
81.9
 20
-3.87156922712875
 30
0.0
 11
81.9
 21
-3.63301814297999
 31
0.0
  0
LINE
  5
1113
330
18
100
AcDbEntity
  8
1
 62
     1
100
AcDbLine
 10
81.9
 20
-7.92411459183582
 30
0.0
 11
81.9
 21
-8.84999999933734
 31
0.0
  0
LINE
  5
1114
330
18
100
AcDbEntity
  8
1
 62
     1
100
AcDbLine
 10
81.9
 20
-7.92411459183583
 30
0.0
 11
80.2281625912367
 21
-8.38048883830436
 31
0.0
  0
LINE
  5
1115
330
18
100
AcDbEntity
  8
1
 62
     1
100
AcDbLine
 10
80.2281625912367
 20
-9.34522080186574
 30
0.0
 11
80.2281625912367
 21
-9.34498092492598
 31
0.0
  0
LINE
  5
1116
330
18
100
AcDbEntity
  8
1
 62
     1
100
AcDbLine
 10
80.2281625912367
 20
-9.34498092492598
 30
0.0
 11
80.2281625912367
 21
-9.27603025777427
 31
0.0
  0
LINE
  5
1117
330
18
100
AcDbEntity
  8
1
 62
     1
100
AcDbLine
 10
80.2281625912367
 20
-9.27603025777427
 30
0.0
 11
80.2281625912367
 21
-8.38048883830436
 31
0.0
  0
LINE
  5
1118
330
18
100
AcDbEntity
  8
1
 62
     1
100
AcDbLine
 10
78.6788404350045
 20
-9.80415093259245
 30
0.0
 11
78.6788404350045
 21
-9.80389660160006
 31
0.0
  0
LINE
  5
1119
330
18
100
AcDbEntity
  8
1
 62
     1
100
AcDbLine
 10
78.6788404350045
 20
-9.80389660160006
 30
0.0
 11
78.6788404350045
 21
-9.73078741186123
 31
0.0
  0
LINE
  5
111A
330
18
100
AcDbEntity
  8
1
 62
     1
100
AcDbLine
 10
78.6788404350045
 20
-9.73078741186123
 30
0.0
 11
78.6788404350045
 21
-8.7813941763545
 31
0.0
  0
LINE
  5
111B
330
18
100
AcDbEntity
  8
1
 62
     1
100
AcDbLine
 10
77.1295182787725
 20
-10.2630810633192
 30
0.0
 11
77.1295182787725
 21
-10.2628071636696
 31
0.0
  0
LINE
  5
111C
330
18
100
AcDbEntity
  8
1
 62
     1
100
AcDbLine
 10
77.1295182787725
 20
-10.2628071636696
 30
0.0
 11
77.1295182787725
 21
-10.184071658551
 31
0.0
  0
LINE
  5
111D
330
18
100
AcDbEntity
  8
1
 62
     1
100
AcDbLine
 10
77.1295182787725
 20
-10.184071658551
 30
0.0
 11
77.1295182787725
 21
-9.16213350945993
 31
0.0
  0
LINE
  5
111E
330
18
100
AcDbEntity
  8
1
 62
     1
100
AcDbLine
 10
61.3143522581303
 20
-9.44923117493849
 30
0.0
 11
61.9428571428572
 21
-8.65739275436837
 31
0.0
  0
LINE
  5
111F
330
18
100
AcDbEntity
  8
1
 62
     1
100
AcDbLine
 10
64.7031428260286
 20
-7.68022096668437
 30
0.0
 11
64.6259662859922
 21
-7.66699661727981
 31
0.0
  0
LINE
  5
1120
330
18
100
AcDbEntity
  8
1
 62
     1
100
AcDbLine
 10
59.2220996425975
 20
-9.71065918874794
 30
0.0
 11
59.2220996425975
 21
-6.66849512845349
 31
0.0
  0
ARC
  5
1121
330
18
100
AcDbEntity
  8
1
 62
     1
100
AcDbCircle
 10
104.561023946391
 20
222.881630930196
 30
0.0
 40
233.9847824764815
100
AcDbArc
 50
258.8268645724383
 51
258.827197253987
  0
LINE
  5
1122
330
18
100
AcDbEntity
  8
1
 62
     1
100
AcDbLine
 10
76.4571428571428
 20
-9.09611467008857
 30
0.0
 11
76.8065573586602
 21
-9.70369660163882
 31
0.0
  0
LINE
  5
1123
330
18
100
AcDbEntity
  8
1
 62
     1
100
AcDbLine
 10
75.6652291928604
 20
-10.4691616424832
 30
0.0
 11
76.4571428571428
 21
-9.09611467008857
 31
0.0
  0
LINE
  5
1124
330
18
100
AcDbEntity
  8
1
 62
     1
100
AcDbLine
 10
75.6652291928909
 20
-10.4691616424302
 30
0.0
 11
75.4363652878138
 21
-10.4709314795142
 31
0.0
  0
LINE
  5
1125
330
18
100
AcDbEntity
  8
1
 62
     1
100
AcDbLine
 10
74.6428571428572
 20
-9.07691826644081
 30
0.0
 11
75.4363652858053
 21
-10.4709315135014
 31
0.0
  0
LINE
  5
1126
330
18
100
AcDbEntity
  8
1
 62
     1
100
AcDbLine
 10
73.8382147984139
 20
-10.4736009922964
 30
0.0
 11
73.6346321179717
 21
-10.4727217233884
 31
0.0
  0
LINE
  5
1127
330
18
100
AcDbEntity
  8
1
 62
     1
100
AcDbLine
 10
72.0112004039367
 20
-10.4558289907587
 30
0.0
 11
71.8328989525337
 21
-10.45290243511
 31
0.0
  0
LINE
  5
1128
330
18
100
AcDbEntity
  8
1
 62
     1
100
AcDbLine
 10
70.1841860094303
 20
-10.4157879032788
 30
0.0
 11
71.0142857142857
 21
-8.98096308297994
 31
0.0
  0
LINE
  5
1129
330
18
100
AcDbEntity
  8
1
 62
     1
100
AcDbLine
 10
70.1841860094598
 20
-10.4157879032279
 30
0.0
 11
70.0311657858282
 21
-10.4114229532529
 31
0.0
  0
LINE
  5
112A
330
18
100
AcDbEntity
  8
1
 62
     1
100
AcDbLine
 10
68.3571716149828
 20
-10.3534675745906
 30
0.0
 11
68.2294326192887
 21
-10.3482777075938
 31
0.0
  0
LINE
  5
112B
330
18
100
AcDbEntity
  8
1
 62
     1
100
AcDbLine
 10
66.5301572204823
 20
-10.2689053585612
 30
0.0
 11
67.3857142857143
 21
-8.80900238212624
 31
0.0
  0
LINE
  5
112C
330
18
100
AcDbEntity
  8
1
 62
     1
100
AcDbLine
 10
66.5301572205056
 20
-10.2689053585215
 30
0.0
 11
66.4276994527249
 21
-10.2635060404046
 31
0.0
  0
LINE
  5
112D
330
18
100
AcDbEntity
  8
1
 62
     1
100
AcDbLine
 10
64.7031428260054
 20
-10.1621864946449
 30
0.0
 11
65.5714285714285
 21
-8.69494998197813
 31
0.0
  0
LINE
  5
112E
330
18
100
AcDbEntity
  8
1
 62
     1
100
AcDbLine
 10
64.7031428260286
 20
-10.1621864946057
 30
0.0
 11
64.625966285916
 21
-10.1571925657336
 31
0.0
  0
LINE
  5
112F
330
18
100
AcDbEntity
  8
1
 62
     1
100
AcDbLine
 10
62.8761284315284
 20
-10.0334441149818
 30
0.0
 11
63.7571428571429
 21
-8.56249151335584
 31
0.0
  0
LINE
  5
1130
330
18
100
AcDbEntity
  8
1
 62
     1
100
AcDbLine
 10
62.8761284335969
 20
-10.0334440701997
 30
0.0
 11
62.8242331207586
 21
-10.0294672333652
 31
0.0
  0
LINE
  5
1131
330
18
100
AcDbEntity
  8
1
 62
     1
100
AcDbLine
 10
61.0491140370745
 20
-9.88285882452664
 30
0.0
 11
61.0224999528379
 21
-9.88050491874586
 31
0.0
  0
ARC
  5
1132
330
18
100
AcDbEntity
  8
1
 62
     1
100
AcDbCircle
 10
75.0331453103201
 20
148.211675349538
 30
0.0
 40
158.7118549797988
100
AcDbArc
 50
264.2821656887592
 51
264.2826492624108
  0
LINE
  5
1133
330
18
100
AcDbEntity
  8
1
 62
     1
100
AcDbLine
 10
57.4071428571429
 20
-9.49820661722285
 30
0.0
 11
58.3142857142858
 21
-8.05767539227411
 31
0.0
  0
LINE
  5
1134
330
18
100
AcDbEntity
  8
1
 62
     1
100
AcDbLine
 10
55.9
 20
-8.79148680840672
 30
0.0
 11
56.5
 21
-7.85477729712099
 31
0.0
  0
LINE
  5
1135
330
18
100
AcDbEntity
  8
1
 62
     1
100
AcDbLine
 10
55.9
 20
-9.84177540719432
 30
0.0
 11
56.5
 21
-8.96013264595277
 31
0.0
  0
LINE
  5
1136
330
18
100
AcDbEntity
  8
1
 62
     1
100
AcDbLine
 10
56.5
 20
-8.96013264595277
 30
0.0
 11
56.9461098097903
 21
-9.56519370361077
 31
0.0
  0
LINE
  5
1137
330
18
100
AcDbEntity
  8
1
 62
     1
100
AcDbLine
 10
56.9461098097903
 20
-9.56519370361077
 30
0.0
 11
57.4071428571429
 21
-10.1444196897499
 31
0.0
  0
LINE
  5
1138
330
18
100
AcDbEntity
  8
1
 62
     1
100
AcDbLine
 10
57.4071428571429
 20
-10.1444196897499
 30
0.0
 11
58.3142857142858
 21
-8.87794155729536
 31
0.0
  0
LINE
  5
1139
330
18
100
AcDbEntity
  8
1
 62
     1
100
AcDbLine
 10
58.3142857142858
 20
-8.87794155729536
 30
0.0
 11
58.7600737706266
 21
-9.44250599798113
 31
0.0
  0
LINE
  5
113A
330
18
100
AcDbEntity
  8
1
 62
     1
100
AcDbLine
 10
58.7600737706266
 20
-9.44250599798113
 30
0.0
 11
59.220766786176
 21
-9.9808444545011
 31
0.0
  0
ARC
  5
113B
330
18
100
AcDbEntity
  8
1
 62
     1
100
AcDbCircle
 10
41.1891416957167
 20
163.26547333064
 30
0.0
 40
174.1821636377073
100
AcDbArc
 50
275.9419992096431
 51
275.9424400102286
  0
LINE
  5
113C
330
18
100
AcDbEntity
  8
1
 62
     1
100
AcDbLine
 10
59.2220996426137
 20
-9.98070572448785
 30
0.0
 11
60.1285714285714
 21
-8.77695685653251
 31
0.0
  0
LINE
  5
113D
330
18
100
AcDbEntity
  8
1
 62
     1
100
AcDbLine
 10
60.1285714285714
 20
-8.77695685653251
 30
0.0
 11
60.5081448463178
 21
-9.22540971234022
 31
0.0
  0
LINE
  5
113E
330
18
100
AcDbEntity
  8
1
 62
     1
100
AcDbLine
 10
60.5081448463178
 20
-9.22540971234022
 30
0.0
 11
60.8990293567972
 21
-9.65441685680572
 31
0.0
  0
ARC
  5
113F
330
18
100
AcDbEntity
  8
1
 62
     1
100
AcDbCircle
 10
72.1603797388749
 20
0.369858703408312
 30
0.0
 40
13.63411485935671
100
AcDbArc
 50
221.4608182581592
 51
223.5117561262445
  0
LINE
  5
1140
330
18
100
AcDbEntity
  8
1
 62
     1
100
AcDbLine
 10
70.1841860093738
 20
10.5362336107151
 30
0.0
 11
70.0812378643719
 21
10.537509690499
 31
0.0
  0
LINE
  5
1141
330
18
100
AcDbEntity
  8
1
 62
     1
100
AcDbLine
 10
70.1841860094303
 20
10.5362336178864
 30
0.0
 11
70.2141445864803
 21
10.4843776563156
 31
0.0
  0
LINE
  5
1142
330
18
100
AcDbEntity
  8
1
 62
     1
100
AcDbLine
 10
70.2141445864803
 20
10.4843776563156
 30
0.0
 11
70.2141451152116
 21
10.4843767405269
 31
0.0
  0
LINE
  5
1143
330
18
100
AcDbEntity
  8
1
 62
     1
100
AcDbLine
 10
72.0112004039122
 20
10.5023741001278
 30
0.0
 11
72.5025878348442
 21
9.66311309789252
 31
0.0
  0
LINE
  5
1144
330
18
100
AcDbEntity
  8
1
 62
     1
100
AcDbLine
 10
73.8382147983882
 20
10.4474064267139
 30
0.0
 11
74.6428571428572
 21
9.09830494317234
 31
0.0
  0
LINE
  5
1145
330
18
100
AcDbEntity
  8
1
 62
     1
100
AcDbLine
 10
74.6428571428572
 20
9.09830494317234
 30
0.0
 11
75.4363652745875
 21
10.3821806227059
 31
0.0
  0
LINE
  5
1146
330
18
100
AcDbEntity
  8
1
 62
     1
100
AcDbLine
 10
75.6652291928604
 20
10.371540427364
 30
0.0
 11
76.4571428571428
 21
9.0859827512139
 31
0.0
  0
ARC
  5
1147
330
18
100
AcDbEntity
  8
1
 62
     1
100
AcDbCircle
 10
98.3053194683666
 20
-4.24105453970691
 30
0.0
 40
25.59205973606623
100
AcDbArc
 50
145.8360361892643
 51
148.6174787369818
  0
LINE
  5
1148
330
18
100
AcDbEntity
  8
1
 62
     1
100
AcDbLine
 10
77.6959183323107
 20
9.9602952302791
 30
0.0
 11
78.2714285714286
 21
9.0544265595546
 31
0.0
  0
LINE
  5
1149
330
18
100
AcDbEntity
  8
1
 62
     1
100
AcDbLine
 10
78.2714285714286
 20
9.0544265595546
 30
0.0
 11
78.6788404350309
 21
9.66696612388851
 31
0.0
  0
LINE
  5
114A
330
18
100
AcDbEntity
  8
1
 62
     1
100
AcDbLine
 10
79.8844917251808
 20
9.31117381141445
 30
0.0
 11
80.0857142857144
 21
9.00370445559309
 31
0.0
  0
LINE
  5
114B
330
18
100
AcDbEntity
  8
1
 62
     1
100
AcDbLine
 10
80.0857142857144
 20
9.00370445559309
 30
0.0
 11
80.2281625912645
 21
9.21061576791681
 31
0.0
  0
LINE
  5
114C
330
18
100
AcDbEntity
  8
1
 62
     1
100
AcDbLine
 10
81.9
 20
6.02504562066991
 30
0.0
 11
81.9
 21
6.55228980133668
 31
0.0
  0
LINE
  5
114D
330
18
100
AcDbEntity
  8
1
 62
     1
100
AcDbLine
 10
80.0857142857142
 20
6.97366627620471
 30
0.0
 11
80.2281625912645
 21
7.10514891762892
 31
0.0
  0
LINE
  5
114E
330
18
100
AcDbEntity
  8
1
 62
     1
100
AcDbLine
 10
76.4571428571428
 20
7.48118859678709
 30
0.0
 11
77.1295182788088
 21
8.18296317125616
 31
0.0
  0
LINE
  5
114F
330
18
100
AcDbEntity
  8
1
 62
     1
100
AcDbLine
 10
74.6428571428572
 20
7.71145559822126
 30
0.0
 11
75.4363652858054
 21
8.59017478202902
 31
0.0
  0
LINE
  5
1150
330
18
100
AcDbEntity
  8
1
 62
     1
100
AcDbLine
 10
71.0142857142857
 20
8.12256462517561
 30
0.0
 11
71.8328989525582
 21
9.13467624471821
 31
0.0
  0
LINE
  5
1151
330
18
100
AcDbEntity
  8
1
 62
     1
100
AcDbLine
 10
69.1999999999999
 20
8.30253629058745
 30
0.0
 11
70.0311657859352
 21
9.38060612328832
 31
0.0
  0
LINE
  5
1152
330
18
100
AcDbEntity
  8
1
 62
     1
100
AcDbLine
 10
67.3857142857143
 20
8.4649327575557
 30
0.0
 11
68.2294326193122
 21
9.60819706411311
 31
0.0
  0
LINE
  5
1153
330
18
100
AcDbEntity
  8
1
 62
     1
100
AcDbLine
 10
65.5714285714285
 20
8.60941002499595
 30
0.0
 11
66.4276994526896
 21
9.81689987823354
 31
0.0
  0
LINE
  5
1154
330
18
100
AcDbEntity
  8
1
 62
     1
100
AcDbLine
 10
63.7571428571429
 20
8.73566247833382
 30
0.0
 11
64.6259662860669
 21
10.0062022087461
 31
0.0
  0
LINE
  5
1155
330
18
100
AcDbEntity
  8
1
 62
     1
100
AcDbLine
 10
61.9428571428572
 20
8.84342272028452
 30
0.0
 11
62.8242331194443
 21
10.1756298064407
 31
0.0
  0
LINE
  5
1156
330
18
100
AcDbEntity
  8
1
 62
     1
100
AcDbLine
 10
56.5
 20
9.05366785250854
 30
0.0
 11
57.4071428571429
 21
10.54128120323
 31
0.0
  0
LINE
  5
1157
330
18
100
AcDbEntity
  8
1
 62
     1
100
AcDbLine
 10
55.9
 20
10.0796538665837
 30
0.0
 11
56.5
 21
9.05366785250854
 31
0.0
  0
LINE
  5
1158
330
18
100
AcDbEntity
  8
1
 62
     1
100
AcDbLine
 10
81.9
 20
3.56807607053086
 30
0.0
 11
59.346145979124
 21
5.83127171146259
 31
0.0
  0
LINE
  5
1159
330
18
100
AcDbEntity
  8
1
 62
     1
100
AcDbLine
 10
81.9
 20
3.56807607053086
 30
0.0
 11
81.9
 21
6.02504562066991
 31
0.0
  0
LINE
  5
115A
330
18
100
AcDbEntity
  8
1
 62
     1
100
AcDbLine
 10
81.9
 20
6.02504562066991
 30
0.0
 11
68.9
 21
7.38028317483999
 31
0.0
  0
LINE
  5
115B
330
18
100
AcDbEntity
  8
1
 62
     1
100
AcDbLine
 10
68.9
 20
7.38028317483999
 30
0.0
 11
55.9
 21
7.94050383088087
 31
0.0
  0
LINE
  5
115C
330
18
100
AcDbEntity
  8
1
 62
     1
100
AcDbLine
 10
57.4071428571429
 20
6.2634499145019
 30
0.0
 11
57.8688261535299
 21
6.12547404227132
 31
0.0
  0
LINE
  5
115D
330
18
100
AcDbEntity
  8
1
 62
     1
100
AcDbLine
 10
57.8688261535299
 20
6.12547404227132
 30
0.0
 11
58.3142857142858
 21
6.01202899686977
 31
0.0
  0
LINE
  5
115E
330
18
100
AcDbEntity
  8
1
 62
     1
100
AcDbLine
 10
58.3142857142858
 20
6.01202899686977
 30
0.0
 11
58.7600743492016
 21
5.94899868676239
 31
0.0
  0
LINE
  5
115F
330
18
100
AcDbEntity
  8
1
 62
     1
100
AcDbLine
 10
58.7600743492016
 20
5.94899868676239
 30
0.0
 11
59.2207667861714
 21
5.85965051448278
 31
0.0
  0
ARC
  5
1160
330
18
100
AcDbEntity
  8
1
 62
     1
100
AcDbCircle
 10
-19.046780597798
 20
-160.265102886753
 30
0.0
 40
354.8210048256776
100
AcDbArc
 50
77.25649077787939
 51
77.25671144025632
  0
LINE
  5
1161
330
18
100
AcDbEntity
  8
1
 62
     1
100
AcDbLine
 10
59.2220996426347
 20
5.85934908128901
 30
0.0
 11
59.3461460122389
 21
5.83127186195578
 31
0.0
  0
LINE
  5
1162
330
18
100
AcDbEntity
  8
1
 62
     1
100
AcDbLine
 10
60.1285714285714
 20
5.69154104219422
 30
0.0
 11
60.5682561121229
 21
5.58207384426784
 31
0.0
  0
LINE
  5
1163
330
18
100
AcDbEntity
  8
1
 62
     1
100
AcDbLine
 10
60.5682561121229
 20
5.58207384426784
 30
0.0
 11
61.0224999528219
 21
5.44739467358617
 31
0.0
  0
LINE
  5
1164
330
18
100
AcDbEntity
  8
1
 62
     1
100
AcDbLine
 10
61.0491140370514
 20
5.44123549848678
 30
0.0
 11
61.5038974079408
 21
5.3877378022232
 31
0.0
  0
LINE
  5
1165
330
18
100
AcDbEntity
  8
1
 62
     1
100
AcDbLine
 10
61.5038974079408
 20
5.3877378022232
 30
0.0
 11
61.9428571428572
 21
5.35900547042408
 31
0.0
  0
ARC
  5
1166
330
18
100
AcDbEntity
  8
1
 62
     1
100
AcDbCircle
 10
57.9340799197893
 20
-6.58597063089127
 30
0.0
 40
12.59972410952644
100
AcDbArc
 50
67.16280795394138
 51
71.44806094888025
  0
LINE
  5
1167
330
18
100
AcDbEntity
  8
1
 62
     1
100
AcDbLine
 10
62.8761284315284
 20
5.01388032431488
 30
0.0
 11
63.3243590207021
 21
5.0022699265252
 31
0.0
  0
LINE
  5
1168
330
18
100
AcDbEntity
  8
1
 62
     1
100
AcDbLine
 10
63.3243590207021
 20
5.0022699265252
 30
0.0
 11
63.7571428571429
 21
5.01512564467831
 31
0.0
  0
ARC
  5
1169
330
18
100
AcDbEntity
  8
1
 62
     1
100
AcDbCircle
 10
57.3270825190103
 20
-9.44846528701746
 30
0.0
 40
15.82849526134285
100
AcDbArc
 50
62.54044684859491
 51
66.03156458035781
  0
LINE
  5
116A
330
18
100
AcDbEntity
  8
1
 62
     1
100
AcDbLine
 10
64.7031428260054
 20
4.57819858769923
 30
0.0
 11
65.1448222491671
 21
4.60736106516725
 31
0.0
  0
LINE
  5
116B
330
18
100
AcDbEntity
  8
1
 62
     1
100
AcDbLine
 10
65.1448222491671
 20
4.60736106516725
 30
0.0
 11
65.5714285714285
 21
4.66062892358217
 31
0.0
  0
ARC
  5
116C
330
18
100
AcDbEntity
  8
1
 62
     1
100
AcDbCircle
 10
55.6181363169456
 20
-13.3516670067611
 30
0.0
 40
20.5793752701687
100
AcDbArc
 50
58.31409593973628
 51
61.07569730659967
  0
LINE
  5
116D
330
18
100
AcDbEntity
  8
1
 62
     1
100
AcDbLine
 10
66.5301572204823
 20
4.13511462770634
 30
0.0
 11
66.9652868977017
 21
4.20384742334895
 31
0.0
  0
LINE
  5
116E
330
18
100
AcDbEntity
  8
1
 62
     1
100
AcDbLine
 10
66.9652868977017
 20
4.20384742334895
 30
0.0
 11
67.3857142857143
 21
4.29626730342591
 31
0.0
  0
ARC
  5
116F
330
18
100
AcDbEntity
  8
1
 62
     1
100
AcDbCircle
 10
52.1307910832802
 20
-18.8370373114385
 30
0.0
 40
27.71032134474493
100
AcDbArc
 50
54.48170288058848
 51
56.59772268066226
  0
LINE
  5
1170
330
18
100
AcDbEntity
  8
1
 62
     1
100
AcDbLine
 10
68.3571716149593
 20
3.68556551077759
 30
0.0
 11
68.7857530552397
 21
3.79257971014739
 31
0.0
  0
LINE
  5
1171
330
18
100
AcDbEntity
  8
1
 62
     1
100
AcDbLine
 10
68.7857530552397
 20
3.79257971014739
 30
0.0
 11
69.1999999999999
 21
3.92281002395923
 31
0.0
  0
ARC
  5
1172
330
18
100
AcDbEntity
  8
1
 62
     1
100
AcDbCircle
 10
45.5993758797672
 20
-26.9311702099333
 30
0.0
 40
38.84528745212453
100
AcDbArc
 50
51.02712468160727
 51
52.58714014909153
  0
LINE
  5
1173
330
18
100
AcDbEntity
  8
1
 62
     1
100
AcDbLine
 10
70.1841860094303
 20
3.23049710917057
 30
0.0
 11
70.6062206143908
 21
3.37442560694363
 31
0.0
  0
LINE
  5
1174
330
18
100
AcDbEntity
  8
1
 62
     1
100
AcDbLine
 10
70.6062206143908
 20
3.37442560694363
 30
0.0
 11
71.0142857142857
 21
3.54104932596695
 31
0.0
  0
LINE
  5
1175
330
18
100
AcDbEntity
  8
1
 62
     1
100
AcDbLine
 10
71.0142857142857
 20
3.54104932596695
 30
0.0
 11
71.8328989525582
 21
2.81589072062489
 31
0.0
  0
LINE
  5
1176
330
18
100
AcDbEntity
  8
1
 62
     1
100
AcDbLine
 10
72.0112004039122
 20
2.77085952304543
 30
0.0
 11
72.4266897679147
 21
2.95026122755213
 31
0.0
  0
LINE
  5
1177
330
18
100
AcDbEntity
  8
1
 62
     1
100
AcDbLine
 10
72.4266897679147
 20
2.95026122755213
 30
0.0
 11
72.8285714285715
 21
3.15179271028941
 31
0.0
  0
LINE
  5
1178
330
18
100
AcDbEntity
  8
1
 62
     1
100
AcDbLine
 10
72.8285714285715
 20
3.15179271028941
 30
0.0
 11
73.6346321191817
 21
2.35938021321785
 31
0.0
  0
LINE
  5
1179
330
18
100
AcDbEntity
  8
1
 62
     1
100
AcDbLine
 10
73.8382147983882
 20
2.30761189321754
 30
0.0
 11
74.2471604044012
 21
2.52097652802786
 31
0.0
  0
LINE
  5
117A
330
18
100
AcDbEntity
  8
1
 62
     1
100
AcDbLine
 10
74.2471604044012
 20
2.52097652802786
 30
0.0
 11
74.6428571428572
 21
2.75586412393376
 31
0.0
  0
LINE
  5
117B
330
18
100
AcDbEntity
  8
1
 62
     1
100
AcDbLine
 10
74.6428571428572
 20
2.75586412393376
 30
0.0
 11
75.4363652858054
 21
1.90018578699596
 31
0.0
  0
LINE
  5
117C
330
18
100
AcDbEntity
  8
1
 62
     1
100
AcDbLine
 10
75.6652291928604
 20
1.84171170130129
 30
0.0
 11
76.0676325741698
 21
2.08746733080015
 31
0.0
  0
LINE
  5
117D
330
18
100
AcDbEntity
  8
1
 62
     1
100
AcDbLine
 10
76.0676325741698
 20
2.08746733080015
 30
0.0
 11
76.4571428571428
 21
2.35410180742583
 31
0.0
  0
LINE
  5
117E
330
18
100
AcDbEntity
  8
1
 62
     1
100
AcDbLine
 10
76.4571428571428
 20
2.35410180742583
 30
0.0
 11
77.1295182788088
 21
1.56692052428903
 31
0.0
  0
ARC
  5
117F
330
18
100
AcDbEntity
  8
1
 62
     1
100
AcDbCircle
 10
72.1174910250331
 20
9.50286123446834
 30
0.0
 40
9.744627015395483
100
AcDbArc
 50
304.9220359014898
 51
309.1627091333338
  0
LINE
  5
1180
330
18
100
AcDbEntity
  8
1
 62
     1
100
AcDbLine
 10
78.2714285714286
 20
1.94735359801732
 30
0.0
 11
78.6788404350309
 21
1.43288551049845
 31
0.0
  0
LINE
  5
1181
330
18
100
AcDbEntity
  8
1
 62
     1
100
AcDbLine
 10
80.0857142857142
 20
1.53649175555766
 30
0.0
 11
80.2281625912644
 21
1.34317358698752
 31
0.0
  0
LINE
  5
1182
330
18
100
AcDbEntity
  8
1
 62
     1
100
AcDbLine
 10
81.9
 20
3.56807607053086
 30
0.0
 11
81.9
 21
1.29935850881486
 31
0.0
  0
LINE
  5
1183
330
18
100
AcDbEntity
  8
1
 62
     1
100
AcDbLine
 10
81.9
 20
-3.63301814297996
 30
0.0
 11
80.2281625912367
 21
-3.57770165246964
 31
0.0
  0
LINE
  5
1184
330
18
100
AcDbEntity
  8
1
 62
     1
100
AcDbLine
 10
80.0857142857142
 20
-3.40284816474895
 30
0.0
 11
80.2281625912644
 21
-3.57770165250385
 31
0.0
  0
LINE
  5
1185
330
18
100
AcDbEntity
  8
1
 62
     1
100
AcDbLine
 10
79.8844917251808
 20
-3.56109334908744
 30
0.0
 11
80.0857142857142
 21
-3.40284816474895
 31
0.0
  0
LINE
  5
1186
330
18
100
AcDbEntity
  8
1
 62
     1
100
AcDbLine
 10
79.8844917252083
 20
-3.5610933490661
 30
0.0
 11
78.6788404350045
 21
-3.48856580226325
 31
0.0
  0
LINE
  5
1187
330
18
100
AcDbEntity
  8
1
 62
     1
100
AcDbLine
 10
78.2714285714286
 20
-3.01111488748305
 30
0.0
 11
78.6788404350309
 21
-3.48856580229446
 31
0.0
  0
LINE
  5
1188
330
18
100
AcDbEntity
  8
1
 62
     1
100
AcDbLine
 10
77.6959183323107
 20
-3.41289702835259
 30
0.0
 11
78.2714285714286
 21
-3.01111488748305
 31
0.0
  0
LINE
  5
1189
330
18
100
AcDbEntity
  8
1
 62
     1
100
AcDbLine
 10
77.6959183321895
 20
-3.4128970258991
 30
0.0
 11
77.1295182787725
 21
-3.36250030739677
 31
0.0
  0
LINE
  5
118A
330
18
100
AcDbEntity
  8
1
 62
     1
100
AcDbLine
 10
76.4571428571428
 20
-2.61300527592022
 30
0.0
 11
77.1295182788088
 21
-3.3625003074382
 31
0.0
  0
LINE
  5
118B
330
18
100
AcDbEntity
  8
1
 62
     1
100
AcDbLine
 10
72.8285714285715
 20
-1.80104770444859
 30
0.0
 11
73.6346321191817
 21
-2.59165191299971
 31
0.0
  0
LINE
  5
118C
330
18
100
AcDbEntity
  8
1
 62
     1
100
AcDbLine
 10
71.0142857142857
 20
-1.3889178806179
 30
0.0
 11
71.8328989525582
 21
-2.13293478098497
 31
0.0
  0
ARC
  5
118D
330
18
100
AcDbEntity
  8
1
 62
     1
100
AcDbCircle
 10
63.4972836966358
 20
11.0590874487366
 30
0.0
 40
11.38796638594377
100
AcDbArc
 50
276.0783825102543
 51
280.4941231072031
  0
ARC
  5
118E
330
18
100
AcDbEntity
  8
1
 62
     1
100
AcDbCircle
 10
54.580259240667
 20
-15.9009796421618
 30
0.0
 40
18.60231066360267
100
AcDbArc
 50
57.31476800902751
 51
60.44098475460629
  0
ARC
  5
118F
330
18
100
AcDbEntity
  8
1
 62
     1
100
AcDbCircle
 10
54.6064277520901
 20
-12.5578585567515
 30
0.0
 40
14.74565138080444
100
AcDbArc
 50
64.20740096792489
 51
68.00700330620427
  0
ARC
  5
1190
330
18
100
AcDbEntity
  8
1
 62
     1
100
AcDbCircle
 10
59.8898119538726
 20
13.1954313443859
 30
0.0
 40
11.77245506060144
100
AcDbArc
 50
257.8256116562362
 51
262.3089192800475
  0
LINE
  5
1191
330
18
100
AcDbEntity
  8
1
 62
     1
100
AcDbLine
 10
55.9
 20
2.08429808331854
 30
0.0
 11
56.2493596313684
 21
1.99631246229508
 31
0.0
  0
LINE
  5
1192
330
18
100
AcDbEntity
  8
1
 62
     1
100
AcDbLine
 10
58.3142857142858
 20
-4.63714393155379
 30
0.0
 11
59.2207667861714
 21
-6.66823186918097
 31
0.0
  0
LINE
  5
1193
330
18
100
AcDbEntity
  8
1
 62
     1
100
AcDbLine
 10
59.2220996426347
 20
-6.66849512846956
 30
0.0
 11
60.1285714285714
 21
-4.99230765702582
 31
0.0
  0
LINE
  5
1194
330
18
100
AcDbEntity
  8
1
 62
     1
100
AcDbLine
 10
60.1285714285714
 20
-4.99230765702582
 30
0.0
 11
61.0224999528217
 21
-7.01665761032416
 31
0.0
  0
LINE
  5
1195
330
18
100
AcDbEntity
  8
1
 62
     1
100
AcDbLine
 10
61.0491140370745
 20
-7.0216911099815
 30
0.0
 11
61.0224999527924
 21
-7.01665760964366
 31
0.0
  0
LINE
  5
1196
330
18
100
AcDbEntity
  8
1
 62
     1
100
AcDbLine
 10
61.9428571428572
 20
-5.33690273348232
 30
0.0
 11
62.8242331194443
 21
-7.34977681022295
 31
0.0
  0
LINE
  5
1197
330
18
100
AcDbEntity
  8
1
 62
     1
100
AcDbLine
 10
62.8761284315517
 20
-7.35913881710493
 30
0.0
 11
62.82423311942
 21
-7.34977681008661
 31
0.0
  0
LINE
  5
1198
330
18
100
AcDbEntity
  8
1
 62
     1
100
AcDbLine
 10
65.5714285714285
 20
-5.99149548095028
 30
0.0
 11
66.4276994526896
 21
-7.96776167833561
 31
0.0
  0
LINE
  5
1199
330
18
100
AcDbEntity
  8
1
 62
     1
100
AcDbLine
 10
66.5301572205056
 20
-7.98435960340655
 30
0.0
 11
66.4276994526503
 21
-7.96776167690824
 31
0.0
  0
LINE
  5
119A
330
18
100
AcDbEntity
  8
1
 62
     1
100
AcDbLine
 10
66.5301572204823
 20
-7.98435960345063
 30
0.0
 11
67.3857142857143
 21
-6.3001065920983
 31
0.0
  0
LINE
  5
119B
330
18
100
AcDbEntity
  8
1
 62
     1
100
AcDbLine
 10
68.3571716149828
 20
-8.27101266269726
 30
0.0
 11
68.2294326192887
 21
-8.25155004126049
 31
0.0
  0
LINE
  5
119C
330
18
100
AcDbEntity
  8
1
 62
     1
100
AcDbLine
 10
69.1999999999999
 20
-6.59538214161195
 30
0.0
 11
70.0311657859352
 21
-8.51787671066523
 31
0.0
  0
LINE
  5
119D
330
18
100
AcDbEntity
  8
1
 62
     1
100
AcDbLine
 10
70.1841860094598
 20
-8.53967660380408
 30
0.0
 11
70.0311657858442
 21
-8.517876704131
 31
0.0
  0
LINE
  5
119E
330
18
100
AcDbEntity
  8
1
 62
     1
100
AcDbLine
 10
71.0142857142857
 20
-6.87669570294605
 30
0.0
 11
71.8328989525582
 21
-8.76629483349859
 31
0.0
  0
LINE
  5
119F
330
18
100
AcDbEntity
  8
1
 62
     1
100
AcDbLine
 10
72.0112004039367
 20
-8.78988873678678
 30
0.0
 11
71.8328989525337
 21
-8.76629483344401
 31
0.0
  0
LINE
  5
11A0
330
18
100
AcDbEntity
  8
1
 62
     1
100
AcDbLine
 10
72.8285714285715
 20
-7.14345228970443
 30
0.0
 11
73.6346321191817
 21
-8.99639308574164
 31
0.0
  0
LINE
  5
11A1
330
18
100
AcDbEntity
  8
1
 62
     1
100
AcDbLine
 10
73.8382147984139
 20
-9.02122384381231
 30
0.0
 11
73.6346321191562
 21
-8.99639308568527
 31
0.0
  0
LINE
  5
11A2
330
18
100
AcDbEntity
  8
1
 62
     1
100
AcDbLine
 10
74.6428571428572
 20
-7.39508724620478
 30
0.0
 11
75.4363652858054
 21
-9.20780123856261
 31
0.0
  0
LINE
  5
11A3
330
18
100
AcDbEntity
  8
1
 62
     1
100
AcDbLine
 10
75.6652291928909
 20
-9.23329999842186
 30
0.0
 11
75.4363652857788
 21
-9.20780123850409
 31
0.0
  0
LINE
  5
11A4
330
18
100
AcDbEntity
  8
1
 62
     1
100
AcDbLine
 10
75.6652291928604
 20
-9.23329999848141
 30
0.0
 11
76.4571428571428
 21
-7.63106782124721
 31
0.0
  0
LINE
  5
11A5
330
18
100
AcDbEntity
  8
1
 62
     1
100
AcDbLine
 10
77.6959183338866
 20
-9.02525701820116
 30
0.0
 11
77.1295182787725
 21
-9.16213350945993
 31
0.0
  0
LINE
  5
11A6
330
18
100
AcDbEntity
  8
1
 62
     1
100
AcDbLine
 10
77.6959183323107
 20
-9.02525701863229
 30
0.0
 11
78.2714285714286
 21
-7.85089584786549
 31
0.0
  0
LINE
  5
11A7
330
18
100
AcDbEntity
  8
1
 62
     1
100
AcDbLine
 10
79.8844917252083
 20
-8.47119226664279
 30
0.0
 11
78.6788404350045
 21
-8.7813941763545
 31
0.0
  0
LINE
  5
11A8
330
18
100
AcDbEntity
  8
1
 62
     1
100
AcDbLine
 10
80.0857142857142
 20
-8.05410032722443
 30
0.0
 11
80.2281625912645
 21
-8.38048883836741
 31
0.0
  0
LINE
  5
11A9
330
18
100
AcDbEntity
  8
1
 62
     1
100
AcDbLine
 10
81.9
 20
-3.87156922712875
 30
0.0
 11
81.9
 21
-7.92411459183583
 31
0.0
  0
LINE
  5
11AA
330
18
100
AcDbEntity
  8
1
 62
     1
100
AcDbLine
 10
81.9
 20
-3.87156922712875
 30
0.0
 11
79.2405197440801
 21
-3.52512400025309
 31
0.0
  0
LINE
  5
11AB
330
18
100
AcDbEntity
  8
1
 62
     1
100
AcDbLine
 10
78.6419483986632
 20
-3.44488142298745
 30
0.0
 11
77.8142403607876
 21
-3.33261846460144
 31
0.0
  0
LINE
  5
11AC
330
18
100
AcDbEntity
  8
1
 62
     1
100
AcDbLine
 10
77.0050952917872
 20
-3.22145419469183
 30
0.0
 11
75.7555388168255
 21
-3.04713555874972
 31
0.0
  0
LINE
  5
11AD
330
18
100
AcDbEntity
  8
1
 62
     1
100
AcDbLine
 10
75.3925559185777
 20
-2.99591619469598
 30
0.0
 11
55.9
 21
0.00921910346015409
 31
0.0
  0
LINE
  5
11AE
330
18
100
AcDbEntity
  8
1
 62
     1
100
AcDbLine
 10
55.9
 20
10.0796538665837
 30
0.0
 11
55.9
 21
10.1377232142857
 31
0.0
  0
LINE
  5
11AF
330
18
100
AcDbEntity
  8
1
 62
     1
100
AcDbLine
 10
55.9
 20
2.08429808331854
 30
0.0
 11
55.9
 21
6.53287952910884
 31
0.0
  0
ARC
  5
11B0
330
18
100
AcDbEntity
  8
1
 62
     1
100
AcDbCircle
 10
60.7675673964902
 20
19.286194365615
 30
0.0
 40
13.65064741331891
100
AcDbArc
 50
249.1096066746199
 51
251.7823347182023
  0
LINE
  5
11B1
330
18
100
AcDbEntity
  8
1
 62
     1
100
AcDbLine
 10
55.9
 20
-5.35390599597682
 30
0.0
 11
56.5
 21
-4.27216505999037
 31
0.0
  0
LINE
  5
11B2
330
18
100
AcDbEntity
  8
1
 62
     1
100
AcDbLine
 10
55.9
 20
-9.84177540719432
 30
0.0
 11
55.9
 21
-8.79148680840672
 31
0.0
  0
LINE
  5
11B3
330
18
100
AcDbEntity
  8
1
 62
     1
100
AcDbLine
 10
55.9
 20
-8.79148680840657
 30
0.0
 11
55.9
 21
-5.35390599597675
 31
0.0
  0
LINE
  5
11B4
330
18
100
AcDbEntity
  8
1
 62
     1
100
AcDbLine
 10
55.9
 20
-5.35390599597682
 30
0.0
 11
55.9
 21
0.00921910346015409
 31
0.0
  0
LINE
  5
11B5
330
18
100
AcDbEntity
  8
1
 62
     1
100
AcDbLine
 10
55.9
 20
0.00921910346015409
 30
0.0
 11
55.9
 21
2.06442573729828
 31
0.0
  0
LINE
  5
11B6
330
18
100
AcDbEntity
  8
1
 62
     1
100
AcDbLine
 10
55.9
 20
2.06442573729828
 30
0.0
 11
55.9
 21
2.08429808331854
 31
0.0
  0
LINE
  5
11B7
330
18
100
AcDbEntity
  8
1
 62
     1
100
AcDbLine
 10
55.9
 20
7.94050383088087
 30
0.0
 11
55.9
 21
10.0796538665837
 31
0.0
  0
LINE
  5
11B8
330
18
100
AcDbEntity
  8
1
 62
     1
100
AcDbLine
 10
66.4276994526896
 20
10.5815971941738
 30
0.0
 11
65.5714285714285
 21
9.09849321428571
 31
0.0
  0
LINE
  5
11B9
330
18
100
AcDbEntity
  8
1
 62
     1
100
AcDbLine
 10
65.5714285714285
 20
9.09849321428571
 30
0.0
 11
64.7031428260054
 21
10.6024075396461
 31
0.0
  0
LINE
  5
11BA
330
18
100
AcDbEntity
  8
1
 62
     1
100
AcDbLine
 10
64.6259662860669
 20
10.6033388343537
 30
0.0
 11
63.7571428571429
 21
9.09849321428571
 31
0.0
  0
LINE
  5
11BB
330
18
100
AcDbEntity
  8
1
 62
     1
100
AcDbLine
 10
63.7571428571429
 20
9.09849321428571
 30
0.0
 11
62.8761284315284
 21
10.6244542501713
 31
0.0
  0
LINE
  5
11BC
330
18
100
AcDbEntity
  8
1
 62
     1
100
AcDbLine
 10
61.0224999528217
 20
10.6468221147135
 30
0.0
 11
60.1285714285714
 21
9.09849321428571
 31
0.0
  0
LINE
  5
11BD
330
18
100
AcDbEntity
  8
1
 62
     1
100
AcDbLine
 10
61.9428571428572
 20
9.09849321428571
 30
0.0
 11
61.0491140370514
 21
10.6465009606965
 31
0.0
  0
LINE
  5
11BE
330
18
100
AcDbEntity
  8
1
 62
     1
100
AcDbLine
 10
62.8242331194443
 20
10.6250804745336
 30
0.0
 11
61.9428571428572
 21
9.09849321428571
 31
0.0
  0
LINE
  5
11BF
330
18
100
AcDbEntity
  8
1
 62
     1
100
AcDbLine
 10
67.3857142857143
 20
9.09849321428571
 30
0.0
 11
66.5301572204823
 21
10.5803608291208
 31
0.0
  0
LINE
  5
11C0
330
18
100
AcDbEntity
  8
1
 62
     1
100
AcDbLine
 10
72.8285714285715
 20
9.09849321428571
 30
0.0
 11
72.5025878348045
 21
9.6631130978696
 31
0.0
  0
LINE
  5
11C1
330
18
100
AcDbEntity
  8
1
 62
     1
100
AcDbLine
 10
73.0538809389289
 20
9.48874055171893
 30
0.0
 11
73.6346321191817
 21
10.4545702498942
 31
0.0
  0
LINE
  5
11C2
330
18
100
AcDbEntity
  8
1
 62
     1
100
AcDbLine
 10
73.053880938937
 20
9.48874055171427
 30
0.0
 11
72.8285714285715
 21
9.09849321428571
 31
0.0
  0
LINE
  5
11C3
330
18
100
AcDbEntity
  8
1
 62
     1
100
AcDbLine
 10
71.5300257635848
 20
9.99178076669243
 30
0.0
 11
71.8328989525582
 21
10.5066110074502
 31
0.0
  0
LINE
  5
11C4
330
18
100
AcDbEntity
  8
1
 62
     1
100
AcDbLine
 10
71.5300257635927
 20
9.99178076668782
 30
0.0
 11
71.0142857142857
 21
9.09849321428571
 31
0.0
  0
LINE
  5
11C5
330
18
100
AcDbEntity
  8
1
 62
     1
100
AcDbLine
 10
71.0142857142857
 20
9.09849321428571
 30
0.0
 11
70.2141451145122
 21
10.4843767401232
 31
0.0
  0
LINE
  5
11C6
330
18
100
AcDbEntity
  8
1
 62
     1
100
AcDbLine
 10
70.031165785935
 20
10.5381139138145
 30
0.0
 11
69.1999999999999
 21
9.09849321428571
 31
0.0
  0
LINE
  5
11C7
330
18
100
AcDbEntity
  8
1
 62
     1
100
AcDbLine
 10
69.1999999999999
 20
9.09849321428571
 30
0.0
 11
68.3571716149593
 21
10.5583141185956
 31
0.0
  0
LINE
  5
11C8
330
18
100
AcDbEntity
  8
1
 62
     1
100
AcDbLine
 10
68.2294326193122
 20
10.5598555539939
 30
0.0
 11
67.3857142857143
 21
9.09849321428571
 31
0.0
  0
LINE
  5
11C9
330
18
100
AcDbEntity
  8
1
 62
     1
100
AcDbLine
 10
60.1285714285714
 20
9.09849321428571
 30
0.0
 11
59.2220996425975
 21
10.6685476711817
 31
0.0
  0
LINE
  5
11CA
330
18
100
AcDbEntity
  8
1
 62
     1
100
AcDbLine
 10
57.4071428571429
 20
10.6697099999999
 30
0.0
 11
56.5
 21
9.09849321428571
 31
0.0
  0
LINE
  5
11CB
330
18
100
AcDbEntity
  8
1
 62
     1
100
AcDbLine
 10
58.3142857142858
 20
9.09849321428571
 30
0.0
 11
57.4071428571429
 21
10.6697099999999
 31
0.0
  0
LINE
  5
11CC
330
18
100
AcDbEntity
  8
1
 62
     1
100
AcDbLine
 10
59.2207667861762
 20
10.6685637548534
 30
0.0
 11
58.3142857142858
 21
9.09849321428571
 31
0.0
  0
LINE
  5
11CD
330
18
100
AcDbEntity
  8
1
 62
     1
100
AcDbLine
 10
80.2281625912367
 20
-9.34522080186574
 30
0.0
 11
81.9
 21
-8.84999999999999
 31
0.0
  0
LINE
  5
11CE
330
18
100
AcDbEntity
  8
1
 62
     1
100
AcDbLine
 10
78.6788404350045
 20
-9.80415093259245
 30
0.0
 11
79.8844917252083
 21
-9.44702075021019
 31
0.0
  0
LINE
  5
11CF
330
18
100
AcDbEntity
  8
1
 62
     1
100
AcDbLine
 10
77.1295182787725
 20
-10.2630810633192
 30
0.0
 11
77.6959183323375
 21
-10.0953057239034
 31
0.0
  0
LINE
  5
11D0
330
18
100
AcDbEntity
  8
1
 62
     1
100
AcDbLine
 10
55.9
 20
6.53287952910884
 30
0.0
 11
55.9
 21
7.94050383088087
 31
0.0
  0
LINE
  5
11D1
330
18
100
AcDbEntity
  8
1
 62
     1
100
AcDbLine
 10
59.3461460122389
 20
5.83127186195578
 30
0.0
 11
59.7436734256315
 21
5.75200548379938
 31
0.0
  0
LINE
  5
11D2
330
18
100
AcDbEntity
  8
1
 62
     1
100
AcDbLine
 10
59.7436734256315
 20
5.75200548379938
 30
0.0
 11
60.1285714285714
 21
5.69154104219422
 31
0.0
  0
LINE
  5
11D3
330
18
100
AcDbEntity
  8
1
 62
     1
100
AcDbLine
 10
56.2493596263644
 20
1.99631244112761
 30
0.0
 11
55.9
 21
2.06442573729828
 31
0.0
  0
LINE
  5
11D4
330
18
100
AcDbEntity
  8
1
 62
     1
100
AcDbLine
 10
56.2493596313684
 20
1.99631246229508
 30
0.0
 11
56.5
 21
1.93984566740832
 31
0.0
  0
LINE
  5
11D5
330
18
100
AcDbEntity
  8
1
 62
     1
100
AcDbLine
 10
56.5
 20
9.09849321428571
 30
0.0
 11
55.8999999999923
 21
10.1377232142988
 31
0.0
  0
LINE
  5
11D6
330
18
100
AcDbEntity
  8
SK1
100
AcDbLine
 10
-43.1
 20
-6.55000000000001
 30
0.0
 11
-42.225
 21
-6.55000000000001
 31
0.0
  0
LINE
  5
11D7
330
18
100
AcDbEntity
  8
SK1
100
AcDbLine
 10
-42.225
 20
6.55000000000001
 30
0.0
 11
-27.1
 21
6.55000000000001
 31
0.0
  0
LINE
  5
11D8
330
18
100
AcDbEntity
  8
SK1
100
AcDbLine
 10
-43.1
 20
4.37185601318249
 30
0.0
 11
-42.6765006013771
 21
5.09535214341889
 31
0.0
  0
LINE
  5
11D9
330
18
100
AcDbEntity
  8
SK1
100
AcDbLine
 10
-42.6765006013771
 20
5.09535214341889
 30
0.0
 11
-42.225
 21
5.80172388174412
 31
0.0
  0
LINE
  5
11DA
330
18
100
AcDbEntity
  8
SK1
100
AcDbLine
 10
-42.225
 20
6.54999999999998
 30
0.0
 11
-42.225
 21
5.80172388174427
 31
0.0
  0
LINE
  5
11DB
330
18
100
AcDbEntity
  8
SK1
100
AcDbLine
 10
-43.1
 20
6.55000000000001
 30
0.0
 11
-42.225
 21
6.55000000000001
 31
0.0
  0
LINE
  5
11DC
330
18
100
AcDbEntity
  8
SK1
100
AcDbLine
 10
-43.1
 20
6.55000000000001
 30
0.0
 11
-43.1
 21
4.37185601318249
 31
0.0
  0
LINE
  5
11DD
330
18
100
AcDbEntity
  8
SK1
100
AcDbLine
 10
-42.225
 20
-6.55
 30
0.0
 11
-27.1
 21
-6.55
 31
0.0
  0
LINE
  5
11DE
330
18
100
AcDbEntity
  8
SK1
100
AcDbLine
 10
-43.1
 20
-4.37185601318251
 30
0.0
 11
-42.6765006013771
 21
-5.09535214341889
 31
0.0
  0
LINE
  5
11DF
330
18
100
AcDbEntity
  8
SK1
100
AcDbLine
 10
-42.6765006013771
 20
-5.09535214341889
 30
0.0
 11
-42.225
 21
-5.80172388174412
 31
0.0
  0
LINE
  5
11E0
330
18
100
AcDbEntity
  8
SK1
100
AcDbLine
 10
-42.225
 20
-5.80172388174412
 30
0.0
 11
-42.225
 21
-6.55
 31
0.0
  0
LINE
  5
11E1
330
18
100
AcDbEntity
  8
SK1
100
AcDbLine
 10
-43.1
 20
-4.37185601318251
 30
0.0
 11
-43.1
 21
-6.55
 31
0.0
  0
LINE
  5
11E2
330
18
100
AcDbEntity
  8
SK1
100
AcDbLine
 10
-43.1
 20
4.37185601318249
 30
0.0
 11
-43.1
 21
-4.37185601318251
 31
0.0
  0
LINE
  5
11E3
330
18
100
AcDbEntity
  8
SK1
100
AcDbLine
 10
-42.225
 20
-5.80172388174412
 30
0.0
 11
-27.1
 21
-5.80172388174412
 31
0.0
  0
LINE
  5
11E4
330
18
100
AcDbEntity
  8
SK1
100
AcDbLine
 10
-42.225
 20
5.80172388174412
 30
0.0
 11
-27.1
 21
5.80172388174412
 31
0.0
  0
LINE
  5
11E5
330
18
100
AcDbEntity
  8
SK1
100
AcDbLine
 10
0
 20
8.99999999999999
 30
0.0
 11
-27.1
 21
8.99999999999999
 31
0.0
  0
LINE
  5
11E6
330
18
100
AcDbEntity
  8
SK1
100
AcDbLine
 10
-27.1
 20
8.99999999999999
 30
0.0
 11
-27.1
 21
8.99105226035103
 31
0.0
  0
LINE
  5
11E7
330
18
100
AcDbEntity
  8
SK1
100
AcDbLine
 10
-27.1
 20
8.99105226035103
 30
0.0
 11
-27.1
 21
8.19246048981077
 31
0.0
  0
LINE
  5
11E8
330
18
100
AcDbEntity
  8
SK1
100
AcDbLine
 10
-27.1
 20
8.19246048981077
 30
0.0
 11
-27.1
 21
-9
 31
0.0
  0
LINE
  5
11E9
330
18
100
AcDbEntity
  8
SK1
100
AcDbLine
 10
0
 20
-9
 30
0.0
 11
-27.1
 21
-9
 31
0.0
  0
DIMENSION
  5
11EA
330
18
100
AcDbEntity
  8
2
100
AcDbDimension
  2
*D11
 10
94.15
 20
-10.4605
 30
0.0
 11
94.15
 21
30.7105
 31
0.0
 70
   160
  1
NPTF1/2-14
 71
     5
 42
20.92099999999999
  3
V-TYGEN_-160
100
AcDbAlignedDimension
 13
81.9
 23
10.4605
 33
0.0
 14
81.9
 24
-10.4605
 34
0.0
 50
90.0000000000004
100
AcDbRotatedDimension
  0
DIMENSION
  5
11EB
330
18
100
AcDbEntity
  8
2
100
AcDbDimension
  2
*D12
 10
81.9
 20
28.7581286428105
 30
0.0
 11
40.9499999999999
 21
31.5696184530705
 31
0.0
 70
    32
  1
<>
 71
     5
 42
81.89999999999997
  3
V-TYGEN_-160
100
AcDbAlignedDimension
 13
0
 23
8.99999999999999
 33
0.0
 14
81.9
 24
10.4605
 34
0.0
100
AcDbRotatedDimension
1001
ACAD
1000
DSTYLE
1002
{
1070
   271
1070
     1
1002
}
  0
DIMENSION
  5
11EC
330
18
100
AcDbEntity
  8
SK2
100
AcDbDimension
  2
*D13
 10
-49.6443809301498
 20
-9
 30
0.0
 11
-52.5075221810283
 21
0
 31
0.0
 70
    32
  1
%%c<>
 71
     5
 42
17.99999999999998
  3
V-TYGEN_-160
100
AcDbAlignedDimension
 13
-27.1
 23
8.99999999999999
 33
0.0
 14
-27.1
 24
-9
 34
0.0
 50
90.00000000029229
100
AcDbRotatedDimension
  0
DIMENSION
  5
11ED
330
18
100
AcDbEntity
  8
2
100
AcDbDimension
  2
*D14
 10
81.9
 20
20.0051581487107
 30
0.0
 11
68.9
 21
22.8166479589707
 31
0.0
 70
    32
  1
<>
 71
     5
 42
25.99999999999997
  3
V-TYGEN_-160
100
AcDbAlignedDimension
 13
55.9
 23
8.49999999999997
 33
0.0
 14
81.9
 24
10.4605
 34
0.0
100
AcDbRotatedDimension
  0
DIMENSION
  5
11EE
330
18
100
AcDbEntity
  8
SK2
100
AcDbDimension
  2
*D15
 10
81.9
 20
37.8785722263887
 30
0.0
 11
19.3999999999999
 21
40.6900620366487
 31
0.0
 70
    32
  1
<>
 71
     5
 42
125.0
  3
V-TYGEN_-160
100
AcDbAlignedDimension
 13
-43.1
 23
6.55000000000001
 33
0.0
 14
81.9
 24
10.4605
 34
0.0
100
AcDbRotatedDimension
  0
MTEXT
  5
11EF
330
18
100
AcDbEntity
  8
SK6
100
AcDbMText
 10
-43.0999999999999
 20
-12.8123307504998
 30
0.0
 40
3.5
 41
66.18541065279735
 71
     1
 72
     5
  1
{\fMonospac821 BT|b0|i0|c0|p49;MTH-1/2-14NPTF-XC-V050\P02880761\PBSG:DIN/ANSI}
  7
SIMPLEX
 73
     1
 44
1.0
1001
ACAD
1000
ACAD_MTEXT_COLUMN_INFO_BEGIN
1070
    75
1070
     2
1070
    79
1070
     0
1070
    76
1070
     1
1070
    78
1070
     0
1070
    48
1040
66.18541065279735
1070
    49
1040
17.5
1070
    50
1070
     1
1040
0.0
1000
ACAD_MTEXT_COLUMN_INFO_END
1000
MTEXTBEGIN
1070
    73
1070
     1
1070
    44
1040
1.0
1070
    74
1070
     0
1000
MTEXTEND
  0
VIEWPORT
  5
B5D
102
{ACAD_XDICTIONARY
360
B5E
102
}
330
B56
100
AcDbEntity
 67
     1
  8
0
100
AcDbViewport
 10
148.4886727696569
 20
104.9919908472322
 30
0.0
 40
360.5799308901367
 41
215.6936333192457
 68
     1
 69
     1
 12
148.4886727696569
 22
104.9919908472322
 13
0.0
 23
0.0
 14
10.0
 24
10.0
 15
10.0
 25
10.0
 16
0.0
 26
0.0
 36
1.0
 17
0.0
 27
0.0
 37
0.0
 42
50.0
 43
0.0
 44
0.0
 45
215.6936333192457
 50
0.0
 51
0.0
 72
  2000
 90
   819232
  1

281
     0
 71
     1
 74
     0
110
0.0
120
0.0
130
0.0
111
1.0
121
0.0
131
0.0
112
0.0
122
1.0
132
0.0
 79
     0
146
0.0
  0
VIEWPORT
  5
B61
102
{ACAD_XDICTIONARY
360
B62
102
}
330
B56
100
AcDbEntity
 67
     1
  8
1
100
AcDbViewport
 10
148.5
 20
105.0
 30
0.0
 40
297.0
 41
210.0
 68
     2
 69
     2
 12
0.3212157160238718
 22
-0.0519849240370149
 13
0.0
 23
0.0
 14
5.0
 24
5.0
 15
5.0
 25
5.0
 16
0.0
 26
0.0
 36
1.0
 17
0.0
 27
0.0
 37
0.0
 42
50.0
 43
0.0
 44
0.0
 45
210.0000000373879
 50
0.0
 51
0.0
 72
  2000
 90
   819232
  1

281
     0
 71
     1
 74
     0
110
0.0
120
0.0
130
0.0
111
1.0
121
0.0
131
0.0
112
0.0
122
1.0
132
0.0
 79
     0
146
0.0
  0
ENDSEC
  0
SECTION
  2
OBJECTS
  0
DICTIONARY
  5
C
330
0
100
AcDbDictionary
281
     1
  3
ACAD_2007HEADERVARS_RT
350
1390
  3
ACAD_BACKGROUND
350
B0F
  3
ACAD_CIP_PREVIOUS_PRODUCT_INFO
350
CF7
  3
ACAD_COLOR
350
387
  3
ACAD_DETAILVIEWSTYLE
350
CEF
  3
ACAD_FIELDLIST
350
D13
  3
ACAD_GROUP
350
D
  3
ACAD_LAYOUT
350
301
  3
ACAD_MATERIAL
350
386
  3
ACAD_MLEADERSTYLE
350
46F
  3
ACAD_MLINESTYLE
350
E
  3
ACAD_PLOTSETTINGS
350
302
  3
ACAD_PLOTSTYLENAME
350
2FF
  3
ACAD_SCALELIST
350
44D
  3
ACAD_SECTIONVIEWSTYLE
350
CED
  3
ACAD_TABLESTYLE
350
388
  3
ACAD_VISUALSTYLE
350
3F2
  3
ACDB_RECOMPOSE_DATA
350
138E
  3
AcDbVariableDictionary
350
357
  3
AcDsDecomposeData
350
1398
  3
AcmDictionary
350
4D1
  3
AMG
350
478
  3
AMGSNAPSETTINGS
350
51E
  3
DWGPROPS
350
138F
  0
DICTIONARY
  5
A45
330
8
100
AcDbDictionary
280
     1
281
     1
  0
DICTIONARY
  5
43C
330
2
100
AcDbDictionary
280
     1
281
     1
  3
ACAD_LAYERFILTERS
360
B21
  3
ACAD_LAYERSTATES
360
567
  3
ACLYDICTIONARY
360
B20
  0
DICTIONARY
  5
52D
330
F
100
AcDbDictionary
280
     1
281
     1
  3
ADSK_XREC_LAYER_RECONCILED
360
1383
  0
DICTIONARY
  5
52F
330
23
100
AcDbDictionary
280
     1
281
     1
  3
ADSK_XREC_LAYER_RECONCILED
360
1384
  0
DICTIONARY
  5
531
330
24
100
AcDbDictionary
280
     1
281
     1
  3
ADSK_XREC_LAYER_RECONCILED
360
1385
  0
DICTIONARY
  5
533
330
25
100
AcDbDictionary
280
     1
281
     1
  3
ADSK_XREC_LAYER_RECONCILED
360
1386
  0
DICTIONARY
  5
537
330
27
100
AcDbDictionary
280
     1
281
     1
  3
ADSK_XREC_LAYER_RECONCILED
360
1387
  0
DICTIONARY
  5
53D
330
2A
100
AcDbDictionary
280
     1
281
     1
  3
ADSK_XREC_LAYER_RECONCILED
360
1388
  0
DICTIONARY
  5
53F
330
2B
100
AcDbDictionary
280
     1
281
     1
  3
ADSK_XREC_LAYER_RECONCILED
360
1389
  0
DICTIONARY
  5
545
330
2E
100
AcDbDictionary
280
     1
281
     1
  3
ADSK_XREC_LAYER_RECONCILED
360
138A
  0
DICTIONARY
  5
B5E
330
B5D
100
AcDbDictionary
280
     1
281
     1
  3
ACAD_XREC_ROUNDTRIP
360
13CA
  3
ASDK_XREC_ANNOTATION_SCALE_INFO
360
B5F
  0
DICTIONARY
  5
B62
330
B61
100
AcDbDictionary
280
     1
281
     1
  3
ACAD_XREC_ROUNDTRIP
360
13CB
  3
ASDK_XREC_ANNOTATION_SCALE_INFO
360
B63
  0
DICTIONARY
  5
1390
102
{ACAD_REACTORS
330
C
102
}
330
C
100
AcDbDictionary
281
     1
  3
DIMARCSYM
350
1391
  3
DIMJOGANG
350
1392
  0
DICTIONARY
  5
B0F
102
{ACAD_REACTORS
330
C
102
}
330
C
100
AcDbDictionary
281
     1
  0
XRECORD
  5
CF7
102
{ACAD_REACTORS
330
C
102
}
330
C
100
AcDbXrecord
280
     1
300
AMECH_PP
300
2014
300
86138AMECH_PP_2014_0F
  0
DICTIONARY
  5
387
102
{ACAD_REACTORS
330
C
102
}
330
C
100
AcDbDictionary
281
     1
  0
DICTIONARY
  5
CEF
102
{ACAD_REACTORS
330
C
102
}
330
C
100
AcDbDictionary
281
     1
  3
Metric50
350
CF0
  0
FIELDLIST
  5
D13
102
{ACAD_REACTORS
330
C
102
}
330
C
100
AcDbIdSet
 90
        9
330
D98
330
D99
330
D9A
330
D11
330
D12
330
D14
330
D1C
330
D1D
330
D1E
100
AcDbFieldList
  0
DICTIONARY
  5
D
102
{ACAD_REACTORS
330
C
102
}
330
C
100
AcDbDictionary
281
     1
  0
DICTIONARY
  5
301
102
{ACAD_REACTORS
330
C
102
}
330
C
100
AcDbDictionary
281
     1
  3
Layout1
350
B57
  3
Model
350
303
  0
DICTIONARY
  5
386
102
{ACAD_REACTORS
330
C
102
}
330
C
100
AcDbDictionary
281
     1
  3
ByBlock
350
3F0
  3
ByLayer
350
3EF
  3
Global
350
3F1
  0
DICTIONARY
  5
46F
102
{ACAD_REACTORS
330
C
102
}
330
C
100
AcDbDictionary
281
     1
  3
Standard
350
470
  0
DICTIONARY
  5
E
102
{ACAD_REACTORS
330
C
102
}
330
C
100
AcDbDictionary
281
     1
  3
STANDARD
350
1B
  0
DICTIONARY
  5
302
102
{ACAD_REACTORS
330
C
102
}
330
C
100
AcDbDictionary
281
     1
  3
DWG To PDF A4 - landscape
350
7EF
  3
DWG To PDF A4 - portrait
350
7F8
  0
ACDBDICTIONARYWDFLT
  5
2FF
102
{ACAD_REACTORS
330
C
102
}
330
C
100
AcDbDictionary
281
     1
  3
Normal
350
300
100
AcDbDictionaryWithDefault
340
300
  0
DICTIONARY
  5
44D
102
{ACAD_REACTORS
330
C
102
}
330
C
100
AcDbDictionary
281
     1
  3
A0
350
BFC
  3
A1
350
BFD
  3
A2
350
BFE
  3
A3
350
BFF
  3
A4
350
C00
  3
A5
350
C01
  3
A6
350
44E
  3
A7
350
C02
  3
A8
350
C03
  3
A9
350
C04
  3
B0
350
C05
  3
B1
350
C06
  3
B2
350
C07
  0
DICTIONARY
  5
CED
102
{ACAD_REACTORS
330
C
102
}
330
C
100
AcDbDictionary
281
     1
  3
Metric50
350
CEE
  0
DICTIONARY
  5
388
102
{ACAD_REACTORS
330
C
102
}
330
C
100
AcDbDictionary
281
     1
  3
Standard
350
389
  0
DICTIONARY
  5
3F2
102
{ACAD_REACTORS
330
C
102
}
330
C
100
AcDbDictionary
281
     1
  3
2dWireframe
350
3F8
  3
3D Hidden
350
3FA
  3
3dWireframe
350
3F9
  3
Basic
350
3F7
  3
Brighten
350
3FE
  3
ColorChange
350
402
  3
Conceptual
350
3FB
  3
Dim
350
3FD
  3
EdgeColorOff
350
BDF
  3
Facepattern
350
401
  3
Flat
350
3F3
  3
FlatWithEdges
350
3F4
  3
Gouraud
350
3F5
  3
GouraudWithEdges
350
3F6
  3
Hidden
350
CE7
  3
JitterOff
350
BDD
  3
Linepattern
350
400
  3
OverhangOff
350
BDE
  3
Realistic
350
3FC
  3
Shaded
350
CEC
  3
Shaded with edges
350
CEB
  3
Shades of Gray
350
CE8
  3
Sketchy
350
CE9
  3
Thicken
350
3FF
  3
Wireframe
350
CE6
  3
X-Ray
350
CEA
  0
XRECORD
  5
138E
102
{ACAD_REACTORS
330
C
102
}
330
C
100
AcDbXrecord
280
     1
 90
        1
330
389
330
11EF
  0
DICTIONARY
  5
357
102
{ACAD_REACTORS
330
C
102
}
330
C
100
AcDbDictionary
281
     1
  3
CANNOSCALE
350
57C
  3
CMLEADERSTYLE
350
57A
  3
CTABLESTYLE
350
38E
  3
CVIEWDETAILSTYLE
350
D2C
  3
CVIEWSECTIONSTYLE
350
D2D
  3
DIMASSOC
350
359
  3
HIDETEXT
350
358
  3
INDEXCTL
350
ACC
  3
LAYEREVAL
350
BF1
  3
LAYERNOTIFY
350
BF2
  3
LIGHTINGUNITS
350
57D
  3
MSLTSCALE
350
57B
  3
SOLIDHIST
350
138C
  3
SORTENTS
350
ACB
  3
XCLIPFRAME
350
138B
  0
DICTIONARY
  5
1398
102
{ACAD_REACTORS
330
C
102
}
330
C
100
AcDbDictionary
281
     1
  3
AcDsRecords
350
139A
  3
AcDsSchemas
350
1399
1001
ACAD
1070
     2
  0
DICTIONARY
  5
4D1
102
{ACAD_REACTORS
330
C
102
}
330
C
100
AcDbDictionary
281
     1
  3
AcmStdDictionary
350
4DC
  3
AMDTSECTSYM_ARROWCOLOR
350
4F3
  0
DICTIONARY
  5
478
102
{ACAD_REACTORS
330
C
102
}
330
C
100
AcDbDictionary
281
     1
  0
DICTIONARY
  5
51E
102
{ACAD_REACTORS
330
C
102
}
330
C
100
AcDbDictionary
281
     1
  0
XRECORD
  5
138F
102
{ACAD_REACTORS
330
C
102
}
330
C
100
AcDbXrecord
280
     1
  1
DWGPROPS COOKIE
  2

  3

  4
Philippe Vogel
  6
Secotools DIN Template metric
  7

  8
inpunrajy
  9

300
=
301
=
302
=
303
=
304
=
305
=
306
=
307
=
308
=
309
=
 40
0.0005121412037037
 41
2457277.396521794
 42
2457277.397033334
  1
http://www.secotools.com/
 90
        0
  0
DICTIONARY
  5
B21
102
{ACAD_REACTORS
330
43C
102
}
330
43C
100
AcDbDictionary
281
     1
  0
DICTIONARY
  5
567
102
{ACAD_REACTORS
330
43C
102
}
330
43C
100
AcDbDictionary
281
     1
  3
BMG3.0
350
8E9
  0
DICTIONARY
  5
B20
102
{ACAD_REACTORS
330
43C
102
}
330
43C
100
AcDbDictionary
281
     1
1001
ACAD
1000
<All
  0
XRECORD
  5
1383
102
{ACAD_REACTORS
330
52D
102
}
330
52D
100
AcDbXrecord
280
     1
290
     1
  0
XRECORD
  5
1384
102
{ACAD_REACTORS
330
52F
102
}
330
52F
100
AcDbXrecord
280
     1
290
     1
  0
XRECORD
  5
1385
102
{ACAD_REACTORS
330
531
102
}
330
531
100
AcDbXrecord
280
     1
290
     1
  0
XRECORD
  5
1386
102
{ACAD_REACTORS
330
533
102
}
330
533
100
AcDbXrecord
280
     1
290
     1
  0
XRECORD
  5
1387
102
{ACAD_REACTORS
330
537
102
}
330
537
100
AcDbXrecord
280
     1
290
     1
  0
XRECORD
  5
1388
102
{ACAD_REACTORS
330
53D
102
}
330
53D
100
AcDbXrecord
280
     1
290
     1
  0
XRECORD
  5
1389
102
{ACAD_REACTORS
330
53F
102
}
330
53F
100
AcDbXrecord
280
     1
290
     1
  0
XRECORD
  5
138A
102
{ACAD_REACTORS
330
545
102
}
330
545
100
AcDbXrecord
280
     1
290
     1
  0
XRECORD
  5
13CA
102
{ACAD_REACTORS
330
B5E
102
}
330
B5E
100
AcDbXrecord
280
     1
102
SHADEPLOT
 70
     0
  0
XRECORD
  5
B5F
102
{ACAD_REACTORS
330
B5E
102
}
330
B5E
100
AcDbXrecord
280
     1
 90
        1
340
44E
  0
XRECORD
  5
13CB
102
{ACAD_REACTORS
330
B62
102
}
330
B62
100
AcDbXrecord
280
     1
102
SHADEPLOT
 70
     0
  0
XRECORD
  5
B63
102
{ACAD_REACTORS
330
B62
102
}
330
B62
100
AcDbXrecord
280
     1
 90
        1
340
44E
  0
XRECORD
  5
1391
102
{ACAD_REACTORS
330
1390
102
}
330
1390
100
AcDbXrecord
280
     1
 70
     1
  0
XRECORD
  5
1392
102
{ACAD_REACTORS
330
1390
102
}
330
1390
100
AcDbXrecord
280
     1
 40
1.570796326794896
  0
ACDBDETAILVIEWSTYLE
  5
CF0
102
{ACAD_XDICTIONARY
360
D27
102
}
102
{ACAD_REACTORS
330
CEF
330
D05
102
}
330
CEF
100
AcDbModelDocViewStyle
 70
     0
  3
Metric50
290
     0
100
AcDbDetailViewStyle
 70
     0
 71
     0
 90
        3
 71
     1
340
10
 40
5.0
340
0
 40
5.0
300

 40
0.0
280
     1
 71
     2
340
14
 90
       25
 71
     3
340
10
 40
5.0
 90
        0
 40
15.0
 90
        1
300
%<\AcVar ViewDetailId>% (%<\AcVar ViewScale \f "%sn">%)
 71
     4
340
14
 90
       25
340
14
 90
       25
280
     0
  0
LAYOUT
  5
B57
102
{ACAD_XDICTIONARY
360
B74
102
}
102
{ACAD_REACTORS
330
301
102
}
330
301
100
AcDbPlotSettings
  1

  2
DWG To PDF.pc3
  4
UserDefinedMetric (297.00 x 210.00mm)
  6

 40
0.0
 41
0.0
 42
0.0
 43
0.0
 44
297.0
 45
210.0
 46
0.0
 47
0.0
 48
0.0
 49
0.0
140
0.0
141
0.0
142
1.0
143
1.0
 70
   688
 72
     1
 73
     0
 74
     5
  7
monochrome.ctb
 75
    16
147
1.0
148
0.0
149
0.0
100
AcDbLayout
  1
Layout1
 70
     1
 71
     1
 10
0.0
 20
0.0
 11
297.0
 21
210.0
 12
0.0
 22
0.0
 32
0.0
 14
-0.0226558438690745
 24
-0.0160192835437556
 34
-0.000000000000013
 15
297.000001383183
 25
210.0000009780083
 35
0.0000000000000023
146
0.0
 13
0.0
 23
0.0
 33
0.0
 16
1.0
 26
0.0
 36
0.0
 17
0.0
 27
1.0
 37
0.0
 76
     0
330
B56
331
B5D
1001
ACAD_PSEXT
1000
DWG To PDF.pc3
1000
PDF
1000
Datei
1000

1070
     0
  0
LAYOUT
  5
303
102
{ACAD_XDICTIONARY
360
BEF
102
}
102
{ACAD_REACTORS
330
301
102
}
330
301
100
AcDbPlotSettings
  1

  2
Default Windows System Printer.pc3
  4
A4
  6

 40
4.233333110809326
 41
4.995328426361083
 42
4.233322143554687
 43
4.995330810546875
 44
209.9733276367187
 45
296.9683227539062
 46
0.0
 47
97.55556227323859
 48
0.0
 49
0.0
140
0.0
141
0.0
142
1.0
143
6.090554118624327
 70
  3764
 72
     1
 73
     1
 74
     1
  7
monochrome.ctb
 75
     0
147
0.164188673234525
148
197.0402205952446
149
599.0551752795641
100
AcDbLayout
  1
Model
 70
     1
 71
     0
 10
0.0
 20
0.0
 11
12.0
 21
9.0
 12
0.0
 22
0.0
 32
0.0
 14
0.0
 24
0.0
 34
0.0
 15
0.0
 25
0.0
 35
0.0
146
0.0
 13
0.0
 23
0.0
 33
0.0
 16
1.0
 26
0.0
 36
0.0
 17
0.0
 27
1.0
 37
0.0
 76
     0
330
18
331
AD1
1001
ACAD_PSEXT
1000
Default Windows System Printer.pc3
1000
HP LaserJet 5100 PCL 6
1000
HPLaserJet5100Series
1000

1070
     0
  0
MATERIAL
  5
3F0
102
{ACAD_XDICTIONARY
360
139F
102
}
102
{ACAD_REACTORS
330
386
102
}
330
386
100
AcDbMaterial
  1
ByBlock
 73
     1
 78
     1
172
     1
176
     1
270
     1
274
     1
  0
MATERIAL
  5
3EF
102
{ACAD_XDICTIONARY
360
139D
102
}
102
{ACAD_REACTORS
330
386
102
}
330
386
100
AcDbMaterial
  1
ByLayer
 73
     1
 78
     1
172
     1
176
     1
270
     1
274
     1
  0
MATERIAL
  5
3F1
102
{ACAD_XDICTIONARY
360
13A1
102
}
102
{ACAD_REACTORS
330
386
102
}
330
386
100
AcDbMaterial
  1
Global
 73
     1
 78
     1
172
     1
176
     1
270
     1
274
     1
  0
MLEADERSTYLE
  5
470
102
{ACAD_XDICTIONARY
360
13C3
102
}
102
{ACAD_REACTORS
330
46F
102
}
330
46F
100
AcDbMLeaderStyle
170
     2
171
     1
172
     0
 90
        2
 40
0.0
 41
0.0
173
     1
 91
-1056964608
340
12
 92
       -2
290
     1
 42
2.0
291
     1
 43
0.36
  3
Standard
 44
5.0
300

342
10
174
     0
178
     6
175
     1
176
     0
 93
-1056964608
 45
3.5
292
     0
297
     0
 46
4.0
 94
-1056964608
 47
1.0
 49
1.0
140
1.0
293
     1
141
0.0
294
     1
177
     0
142
1.0
295
     0
296
     0
143
0.125
1001
ACAD_MLEADERVER
1070
     2
  0
MLINESTYLE
  5
1B
102
{ACAD_REACTORS
330
E
102
}
330
E
100
AcDbMlineStyle
  2
STANDARD
 70
     0
  3

 62
     0
 51
90.0
 52
90.0
 71
     2
 49
0.5
 62
   256
  6
BYLAYER
 49
-0.5
 62
   256
  6
BYLAYER
  0
PLOTSETTINGS
  5
7EF
102
{ACAD_XDICTIONARY
360
13C5
102
}
102
{ACAD_REACTORS
330
302
102
}
330
302
100
AcDbPlotSettings
  1
DWG To PDF A4 - landscape
  2
DWG To PDF.pc3
  4
ISO_expand_A4_(297.00_x_210.00_MM)
  6

 40
5.793749809265136
 41
10.79374980926513
 42
5.79376220703125
 43
10.79374694824219
 44
297.0
 45
210.0
 46
99.7577788938406
 47
0.0
 48
0.0
 49
0.0
140
0.0
141
0.0
142
1.0
143
6.513831472368249
 70
 11956
 72
     1
 73
     0
 74
     1
  7
monochrome.ctb
 75
     0
147
0.153519476861201
148
197.0402205952446
149
599.0551752795641
1001
ACAD_PSEXT
1000
DWG To PDF.pc3
1000
PDF
1000
Datei
1000

1070
     0
  0
PLOTSETTINGS
  5
7F8
102
{ACAD_XDICTIONARY
360
13C7
102
}
102
{ACAD_REACTORS
330
302
102
}
330
302
100
AcDbPlotSettings
  1
DWG To PDF A4 - portrait
  2
DWG To PDF.pc3
  4
ISO_expand_A4_(210.00_x_297.00_MM)
  6

 40
5.793749809265136
 41
10.79374980926513
 42
5.793746948242187
 43
10.79376220703125
 44
210.0
 45
297.0
 46
36.42621619811505
 47
0.0
 48
0.0
 49
0.0
140
0.0
141
0.0
142
1.0
143
4.456178811620383
 70
 11956
 72
     1
 73
     0
 74
     1
  7
monochrome.ctb
 75
     0
147
0.2244075119679441
148
197.0402205952446
149
599.0551752795641
1001
ACAD_PSEXT
1000
DWG To PDF.pc3
1000
PDF
1000
Datei
1000

1070
     0
  0
ACDBPLACEHOLDER
  5
300
102
{ACAD_REACTORS
330
2FF
102
}
330
2FF
  0
SCALE
  5
BFC
102
{ACAD_REACTORS
330
44D
102
}
330
44D
100
AcDbScale
 70
     0
300
100:1
140
100.0
141
1.0
290
     0
  0
SCALE
  5
BFD
102
{ACAD_REACTORS
330
44D
102
}
330
44D
100
AcDbScale
 70
     0
300
50:1
140
50.0
141
1.0
290
     0
  0
SCALE
  5
BFE
102
{ACAD_REACTORS
330
44D
102
}
330
44D
100
AcDbScale
 70
     0
300
20:1
140
20.0
141
1.0
290
     0
  0
SCALE
  5
BFF
102
{ACAD_REACTORS
330
44D
102
}
330
44D
100
AcDbScale
 70
     0
300
10:1
140
10.0
141
1.0
290
     0
  0
SCALE
  5
C00
102
{ACAD_REACTORS
330
44D
102
}
330
44D
100
AcDbScale
 70
     0
300
5:1
140
5.0
141
1.0
290
     0
  0
SCALE
  5
C01
102
{ACAD_REACTORS
330
44D
102
}
330
44D
100
AcDbScale
 70
     0
300
2:1
140
2.0
141
1.0
290
     0
  0
SCALE
  5
44E
102
{ACAD_REACTORS
330
44D
102
}
330
44D
100
AcDbScale
 70
     0
300
1:1
140
1.0
141
1.0
290
     1
  0
SCALE
  5
C02
102
{ACAD_REACTORS
330
44D
102
}
330
44D
100
AcDbScale
 70
     0
300
1:2
140
1.0
141
2.0
290
     0
  0
SCALE
  5
C03
102
{ACAD_REACTORS
330
44D
102
}
330
44D
100
AcDbScale
 70
     0
300
1:5
140
1.0
141
5.0
290
     0
  0
SCALE
  5
C04
102
{ACAD_REACTORS
330
44D
102
}
330
44D
100
AcDbScale
 70
     0
300
1:10
140
1.0
141
10.0
290
     0
  0
SCALE
  5
C05
102
{ACAD_REACTORS
330
44D
102
}
330
44D
100
AcDbScale
 70
     0
300
1:20
140
1.0
141
20.0
290
     0
  0
SCALE
  5
C06
102
{ACAD_REACTORS
330
44D
102
}
330
44D
100
AcDbScale
 70
     0
300
1:50
140
1.0
141
50.0
290
     0
  0
SCALE
  5
C07
102
{ACAD_REACTORS
330
44D
102
}
330
44D
100
AcDbScale
 70
     0
300
1:100
140
1.0
141
100.0
290
     0
  0
ACDBSECTIONVIEWSTYLE
  5
CEE
102
{ACAD_XDICTIONARY
360
D25
102
}
102
{ACAD_REACTORS
330
CED
330
D04
102
}
330
CED
100
AcDbModelDocViewStyle
 70
     0
  3
Metric50
290
     0
100
AcDbSectionViewStyle
 70
     0
 71
     0
 90
      102
 71
     1
340
10
 40
5.0
340
0
340
0
 40
5.0
300
I, O, Q, S, X, Z
 40
10.0
 90
        0
 40
2.5
 90
        0
 71
     2
340
14
 90
       25
340
14
 90
       50
 40
5.0
 40
2.5
 40
5.0
 71
     3
340
10
 40
5.0
 90
        0
 40
15.0
 90
        1
300
%<\AcVar ViewSectionStartId>%-%<\AcVar ViewSectionEndId>% (%<\AcVar ViewScale \f "%sn">%)
 71
     4
300
ANSI31
 40
1.0
 90
        0
290
     0
290
     0
 90
        6
 40
0.0
 40
1.570796326794896
 40
0.2617993877991494
 40
1.308996938995747
 40
-0.2617993877991494
 40
1.832595714594046
  0
TABLESTYLE
  5
389
102
{ACAD_XDICTIONARY
360
577
102
}
102
{ACAD_REACTORS
330
388
102
}
330
388
100
AcDbTableStyle
  3
Standard
 70
     0
 71
     0
 40
1.5
 41
1.5
280
     0
281
     0
  7
STANDARD
140
4.5
170
     2
 62
     0
 63
     7
283
     0
274
    -2
284
     1
 64
     0
275
    -2
285
     1
 65
     0
276
    -2
286
     1
 66
     0
277
    -2
287
     1
 67
     0
278
    -2
288
     1
 68
     0
279
    -2
289
     1
 69
     0
  7
STANDARD 5 mm
140
6.0
170
     5
 62
     0
 63
     7
283
     0
274
    -2
284
     1
 64
     0
275
    -2
285
     1
 65
     0
276
    -2
286
     1
 66
     0
277
    -2
287
     1
 67
     0
278
    -2
288
     1
 68
     0
279
    -2
289
     1
 69
     0
  7
STANDARD
140
4.5
170
     5
 62
     0
 63
     7
283
     0
274
    -2
284
     1
 64
     0
275
    -2
285
     1
 65
     0
276
    -2
286
     1
 66
     0
277
    -2
287
     1
 67
     0
278
    -2
288
     1
 68
     0
279
    -2
289
     1
 69
     0
  0
VISUALSTYLE
  5
3F8
102
{ACAD_XDICTIONARY
360
13AD
102
}
102
{ACAD_REACTORS
330
3F2
102
}
330
3F2
100
AcDbVisualStyle
  2
2dWireframe
 70
     4
 71
     0
 72
     2
 73
     0
 90
        0
 40
-0.6
 41
-30.0
 62
     5
 63
     7
 74
     1
 91
        4
 64
     7
 65
   257
 75
     1
175
     1
 42
1.0
 92
        0
 66
   257
 43
1.0
 76
     1
 77
     6
 78
     2
 67
     7
 79
     5
170
     0
171
     0
290
     0
174
     0
 93
        1
 44
0.0
173
     0
291
     0
 45
0.0
1001
ACAD
1000
AcDbSavedByObjectVersion
1070
     0
  0
VISUALSTYLE
  5
3FA
102
{ACAD_XDICTIONARY
360
13B1
102
}
102
{ACAD_REACTORS
330
3F2
102
}
330
3F2
100
AcDbVisualStyle
  2
3D Hidden
 70
     6
 71
     1
 72
     2
 73
     2
 90
        0
 40
-0.6
 41
-30.0
 62
     5
 63
     7
 74
     2
 91
        2
 64
     7
 65
   257
 75
     2
175
     1
 42
40.0
 92
        0
 66
   257
 43
1.0
 76
     1
 77
     6
 78
     2
 67
     7
 79
     3
170
     0
171
     0
290
     0
174
     0
 93
        1
 44
0.0
173
     0
291
     0
 45
0.0
1001
ACAD
1000
AcDbSavedByObjectVersion
1070
     0
  0
VISUALSTYLE
  5
3F9
102
{ACAD_XDICTIONARY
360
13AF
102
}
102
{ACAD_REACTORS
330
3F2
102
}
330
3F2
100
AcDbVisualStyle
  2
3dWireframe
 70
     5
 71
     0
 72
     2
 73
     0
 90
        0
 40
-0.6
 41
-30.0
 62
     5
 63
     7
 74
     1
 91
        4
 64
     7
 65
   257
 75
     1
175
     1
 42
1.0
 92
        0
 66
   257
 43
1.0
 76
     1
 77
     6
 78
     2
 67
     7
 79
     5
170
     0
171
     0
290
     0
174
     0
 93
        1
 44
0.0
173
     0
291
     0
 45
0.0
1001
ACAD
1000
AcDbSavedByObjectVersion
1070
     0
  0
VISUALSTYLE
  5
3F7
102
{ACAD_XDICTIONARY
360
13AB
102
}
102
{ACAD_REACTORS
330
3F2
102
}
330
3F2
100
AcDbVisualStyle
  2
Basic
 70
     7
 71
     1
 72
     0
 73
     1
 90
        0
 40
-0.6
 41
-30.0
 62
     5
 63
     7
 74
     0
 91
        4
 64
     7
 65
   257
 75
     1
175
     1
 42
1.0
 92
        8
 66
     7
 43
1.0
 76
     1
 77
     6
 78
     2
 67
     7
 79
     5
170
     0
171
     0
290
     0
174
     0
 93
        1
 44
0.0
173
     0
291
     1
 45
0.0
1001
ACAD
1000
AcDbSavedByObjectVersion
1070
     0
  0
VISUALSTYLE
  5
3FE
102
{ACAD_XDICTIONARY
360
13B9
102
}
102
{ACAD_REACTORS
330
3F2
102
}
330
3F2
100
AcDbVisualStyle
  2
Brighten
 70
    12
 71
     2
 72
     2
 73
     0
 90
        0
 40
-0.6
 41
-30.0
 62
     5
 63
     7
 74
     1
 91
        4
 64
     7
 65
   257
 75
     1
175
     1
 42
1.0
 92
        8
 66
     7
 43
1.0
 76
     1
 77
     6
 78
     2
 67
     7
 79
     5
170
     0
171
     0
290
     0
174
     0
 93
        1
 44
50.0
173
     0
291
     1
 45
0.0
1001
ACAD
1000
AcDbSavedByObjectVersion
1070
     0
  0
VISUALSTYLE
  5
402
102
{ACAD_XDICTIONARY
360
13C1
102
}
102
{ACAD_REACTORS
330
3F2
102
}
330
3F2
100
AcDbVisualStyle
  2
ColorChange
 70
    16
 71
     2
 72
     2
 73
     3
 90
        0
 40
-0.6
 41
-30.0
 62
     5
 63
     8
 74
     1
 91
        4
 64
     7
 65
   257
 75
     1
175
     1
 42
1.0
 92
        8
 66
     8
 43
1.0
 76
     1
 77
     6
 78
     2
 67
     7
 79
     5
170
     0
171
     0
290
     0
174
     0
 93
        1
 44
0.0
173
     0
291
     1
 45
0.0
1001
ACAD
1000
AcDbSavedByObjectVersion
1070
     0
  0
VISUALSTYLE
  5
3FB
102
{ACAD_XDICTIONARY
360
13B3
102
}
102
{ACAD_REACTORS
330
3F2
102
}
330
3F2
100
AcDbVisualStyle
  2
Conceptual
 70
     9
 71
     3
 72
     2
 73
     0
 90
        0
 40
-0.6
 41
-30.0
 62
     5
 63
     7
 74
     2
 91
        2
 64
     7
 65
   257
 75
     1
175
     1
 42
40.0
 92
        8
 66
     7
 43
1.0
 76
     1
 77
     6
 78
     2
 67
     7
 79
     3
170
     0
171
     0
290
     0
174
     0
 93
        1
 44
0.0
173
     0
291
     0
 45
0.0
1001
ACAD
1000
AcDbSavedByObjectVersion
1070
     0
  0
VISUALSTYLE
  5
3FD
102
{ACAD_XDICTIONARY
360
13B7
102
}
102
{ACAD_REACTORS
330
3F2
102
}
330
3F2
100
AcDbVisualStyle
  2
Dim
 70
    11
 71
     2
 72
     2
 73
     0
 90
        0
 40
-0.6
 41
-30.0
 62
     5
 63
     7
 74
     1
 91
        4
 64
     7
 65
   257
 75
     1
175
     1
 42
1.0
 92
        8
 66
     7
 43
1.0
 76
     1
 77
     6
 78
     2
 67
     7
 79
     5
170
     0
171
     0
290
     0
174
     0
 93
        1
 44
-50.0
173
     0
291
     1
 45
0.0
1001
ACAD
1000
AcDbSavedByObjectVersion
1070
     0
  0
VISUALSTYLE
  5
BDF
102
{ACAD_XDICTIONARY
360
13D0
102
}
102
{ACAD_REACTORS
330
3F2
102
}
330
3F2
100
AcDbVisualStyle
  2
EdgeColorOff
 70
    22
 71
     2
 72
     2
 73
     0
 90
        0
 40
-0.6
 41
-30.0
 62
     5
 63
     7
 74
     1
 91
        4
 64
     7
 65
   257
 75
     1
175
     1
 42
1.0
 92
        8
 66
     7
 43
1.0
 76
     1
 77
     6
 78
     2
 67
     7
 79
     5
170
     0
171
     0
290
     0
174
     0
 93
        1
 44
0.0
173
     0
291
     1
 45
0.0
1001
ACAD
1000
AcDbSavedByObjectVersion
1070
     0
  0
VISUALSTYLE
  5
401
102
{ACAD_XDICTIONARY
360
13BF
102
}
102
{ACAD_REACTORS
330
3F2
102
}
330
3F2
100
AcDbVisualStyle
  2
Facepattern
 70
    15
 71
     2
 72
     2
 73
     0
 90
        0
 40
-0.6
 41
-30.0
 62
     5
 63
     7
 74
     1
 91
        4
 64
     7
 65
   257
 75
     1
175
     1
 42
1.0
 92
        8
 66
     7
 43
1.0
 76
     1
 77
     6
 78
     2
 67
     7
 79
     5
170
     0
171
     0
290
     0
174
     0
 93
        1
 44
0.0
173
     0
291
     1
 45
0.0
1001
ACAD
1000
AcDbSavedByObjectVersion
1070
     0
  0
VISUALSTYLE
  5
3F3
102
{ACAD_XDICTIONARY
360
13A3
102
}
102
{ACAD_REACTORS
330
3F2
102
}
330
3F2
100
AcDbVisualStyle
  2
Flat
 70
     0
 71
     2
 72
     1
 73
     1
 90
        2
 40
-0.6
 41
30.0
 62
     5
 63
     7
 74
     0
 91
        4
 64
     7
 65
   257
 75
     1
175
     1
 42
1.0
 92
        8
 66
     7
 43
1.0
 76
     1
 77
     6
 78
     2
 67
     7
 79
     5
170
     0
171
     0
290
     0
174
     0
 93
       13
 44
0.0
173
     0
291
     1
 45
0.0
1001
ACAD
1000
AcDbSavedByObjectVersion
1070
     0
  0
VISUALSTYLE
  5
3F4
102
{ACAD_XDICTIONARY
360
13A5
102
}
102
{ACAD_REACTORS
330
3F2
102
}
330
3F2
100
AcDbVisualStyle
  2
FlatWithEdges
 70
     1
 71
     2
 72
     1
 73
     1
 90
        2
 40
-0.6
 41
30.0
 62
     5
 63
     7
 74
     1
 91
        4
 64
     7
 65
   257
 75
     1
175
     1
 42
1.0
 92
        0
 66
   257
 43
1.0
 76
     1
 77
     6
 78
     2
 67
     7
 79
     5
170
     0
171
     0
290
     0
174
     0
 93
       13
 44
0.0
173
     0
291
     1
 45
0.0
1001
ACAD
1000
AcDbSavedByObjectVersion
1070
     0
  0
VISUALSTYLE
  5
3F5
102
{ACAD_XDICTIONARY
360
13A7
102
}
102
{ACAD_REACTORS
330
3F2
102
}
330
3F2
100
AcDbVisualStyle
  2
Gouraud
 70
     2
 71
     2
 72
     2
 73
     1
 90
        2
 40
-0.6
 41
30.0
 62
     5
 63
     7
 74
     0
 91
        4
 64
     7
 65
   257
 75
     1
175
     1
 42
1.0
 92
        0
 66
     7
 43
1.0
 76
     1
 77
     6
 78
     2
 67
     7
 79
     5
170
     0
171
     0
290
     0
174
     0
 93
       13
 44
0.0
173
     0
291
     1
 45
0.0
1001
ACAD
1000
AcDbSavedByObjectVersion
1070
     0
  0
VISUALSTYLE
  5
3F6
102
{ACAD_XDICTIONARY
360
13A9
102
}
102
{ACAD_REACTORS
330
3F2
102
}
330
3F2
100
AcDbVisualStyle
  2
GouraudWithEdges
 70
     3
 71
     2
 72
     2
 73
     1
 90
        2
 40
-0.6
 41
30.0
 62
     5
 63
     7
 74
     1
 91
        4
 64
     7
 65
   257
 75
     1
175
     1
 42
1.0
 92
        0
 66
   257
 43
1.0
 76
     1
 77
     6
 78
     2
 67
     7
 79
     5
170
     0
171
     0
290
     0
174
     0
 93
       13
 44
0.0
173
     0
291
     1
 45
0.0
1001
ACAD
1000
AcDbSavedByObjectVersion
1070
     0
  0
VISUALSTYLE
  5
CE7
102
{ACAD_XDICTIONARY
360
13D4
102
}
102
{ACAD_REACTORS
330
3F2
102
}
330
3F2
100
AcDbVisualStyle
  2
Hidden
 70
     6
 71
     1
 72
     2
 73
     2
 90
        0
 40
-0.6
 41
-30.0
 62
     5
 63
     7
 74
     2
 91
        2
 64
     7
 65
   257
 75
     2
175
     1
 42
40.0
 92
        0
 66
   257
 43
1.0
 76
     1
 77
     6
 78
     2
 67
     7
 79
     3
170
     0
171
     0
290
     0
174
     0
 93
        1
 44
0.0
173
     0
291
     0
 45
0.0
1001
ACAD
1000
AcDbSavedByObjectVersion
1070
     0
  0
VISUALSTYLE
  5
BDD
102
{ACAD_XDICTIONARY
360
13CC
102
}
102
{ACAD_REACTORS
330
3F2
102
}
330
3F2
100
AcDbVisualStyle
  2
JitterOff
 70
    20
 71
     2
 72
     2
 73
     0
 90
        0
 40
-0.6
 41
-30.0
 62
     5
 63
     7
 74
     1
 91
        4
 64
     7
 65
   257
 75
     1
175
     1
 42
1.0
 92
       10
 66
     7
 43
1.0
 76
     1
 77
     6
 78
     2
 67
     7
 79
     5
170
     0
171
     0
290
     0
174
     0
 93
        1
 44
0.0
173
     0
291
     1
 45
0.0
1001
ACAD
1000
AcDbSavedByObjectVersion
1070
     0
  0
VISUALSTYLE
  5
400
102
{ACAD_XDICTIONARY
360
13BD
102
}
102
{ACAD_REACTORS
330
3F2
102
}
330
3F2
100
AcDbVisualStyle
  2
Linepattern
 70
    14
 71
     2
 72
     2
 73
     0
 90
        0
 40
-0.6
 41
-30.0
 62
     5
 63
     7
 74
     1
 91
        4
 64
     7
 65
   257
 75
     7
175
     7
 42
1.0
 92
        8
 66
     7
 43
1.0
 76
     1
 77
     6
 78
     2
 67
     7
 79
     5
170
     0
171
     0
290
     0
174
     0
 93
        1
 44
0.0
173
     0
291
     1
 45
0.0
1001
ACAD
1000
AcDbSavedByObjectVersion
1070
     0
  0
VISUALSTYLE
  5
BDE
102
{ACAD_XDICTIONARY
360
13CE
102
}
102
{ACAD_REACTORS
330
3F2
102
}
330
3F2
100
AcDbVisualStyle
  2
OverhangOff
 70
    21
 71
     2
 72
     2
 73
     0
 90
        0
 40
-0.6
 41
-30.0
 62
     5
 63
     7
 74
     1
 91
        4
 64
     7
 65
   257
 75
     1
175
     1
 42
1.0
 92
        9
 66
     7
 43
1.0
 76
     1
 77
     6
 78
     2
 67
     7
 79
     5
170
     0
171
     0
290
     0
174
     0
 93
        1
 44
0.0
173
     0
291
     1
 45
0.0
1001
ACAD
1000
AcDbSavedByObjectVersion
1070
     0
  0
VISUALSTYLE
  5
3FC
102
{ACAD_XDICTIONARY
360
13B5
102
}
102
{ACAD_REACTORS
330
3F2
102
}
330
3F2
100
AcDbVisualStyle
  2
Realistic
 70
     8
 71
     2
 72
     2
 73
     0
 90
        0
 40
-0.6
 41
-30.0
 62
     5
 63
     7
 74
     1
 91
        0
 64
     7
 65
   257
 75
     1
175
     1
 42
1.0
 92
        8
 66
     8
 43
1.0
 76
     1
 77
     6
 78
     2
 67
     7
 79
     5
170
     0
171
     0
290
     0
174
     0
 93
       13
 44
0.0
173
     0
291
     0
 45
0.0
1001
ACAD
1000
AcDbSavedByObjectVersion
1070
     0
  0
VISUALSTYLE
  5
CEC
102
{ACAD_XDICTIONARY
360
13DE
102
}
102
{ACAD_REACTORS
330
3F2
102
}
330
3F2
100
AcDbVisualStyle
  2
Shaded
 70
    27
 71
     2
 72
     2
 73
     1
 90
        2
 40
-0.6
 41
30.0
 62
     5
 63
     7
 74
     0
 91
        4
 64
     7
 65
   257
 75
     1
175
     1
 42
1.0
 92
        8
 66
   257
 43
1.0
 76
     1
 77
     6
 78
     2
 67
     8
 79
     3
170
     0
171
     0
290
     0
174
     0
 93
        5
 44
0.0
173
     0
291
     0
 45
0.0
1001
ACAD
1000
AcDbSavedByObjectVersion
1070
     0
  0
VISUALSTYLE
  5
CEB
102
{ACAD_XDICTIONARY
360
13DC
102
}
102
{ACAD_REACTORS
330
3F2
102
}
330
3F2
100
AcDbVisualStyle
  2
Shaded with edges
 70
    26
 71
     2
 72
     2
 73
     1
 90
        2
 40
-0.6
 41
30.0
 62
     5
 63
     7
 74
     1
 91
       10
 64
     7
 65
   257
 75
     2
175
     1
 42
1.0
 92
        8
 66
   257
 43
1.0
 76
     1
 77
     6
 78
     2
 67
     7
 79
     3
170
     0
171
     0
290
     0
174
     0
 93
        5
 44
0.0
173
     0
291
     0
 45
0.0
1001
ACAD
1000
AcDbSavedByObjectVersion
1070
     0
  0
VISUALSTYLE
  5
CE8
102
{ACAD_XDICTIONARY
360
13D6
102
}
102
{ACAD_REACTORS
330
3F2
102
}
330
3F2
100
AcDbVisualStyle
  2
Shades of Gray
 70
    23
 71
     2
 72
     2
 73
     3
 90
        0
 40
-0.6
 41
-30.0
 62
     5
 63
     7
 74
     2
 91
        2
 64
     7
 65
     7
 75
     1
175
     1
 42
40.0
 92
        8
 66
     7
 43
1.0
 76
     1
 77
     6
 78
     2
 67
     7
 79
     3
170
     0
171
     0
290
     0
174
     0
 93
        1
 44
0.0
173
     0
291
     0
 45
0.0
1001
ACAD
1000
AcDbSavedByObjectVersion
1070
     0
  0
VISUALSTYLE
  5
CE9
102
{ACAD_XDICTIONARY
360
13D8
102
}
102
{ACAD_REACTORS
330
3F2
102
}
330
3F2
100
AcDbVisualStyle
  2
Sketchy
 70
    24
 71
     1
 72
     2
 73
     2
 90
        0
 40
-0.6
 41
-30.0
 62
     5
 63
     7
 74
     2
 91
        2
 64
     7
 65
     7
 75
     1
175
     1
 42
40.0
 92
       11
 66
     7
 43
1.0
 76
     1
 77
     6
 78
     2
 67
     7
 79
     6
170
     0
171
     0
290
     0
174
     0
 93
        1
 44
0.0
173
     0
291
     0
 45
0.0
1001
ACAD
1000
AcDbSavedByObjectVersion
1070
     0
  0
VISUALSTYLE
  5
3FF
102
{ACAD_XDICTIONARY
360
13BB
102
}
102
{ACAD_REACTORS
330
3F2
102
}
330
3F2
100
AcDbVisualStyle
  2
Thicken
 70
    13
 71
     2
 72
     2
 73
     0
 90
        0
 40
-0.6
 41
-30.0
 62
     5
 63
     7
 74
     1
 91
        4
 64
     7
 65
   257
 75
     1
175
     1
 42
1.0
 92
       12
 66
     7
 43
1.0
 76
     1
 77
     6
 78
     2
 67
     7
 79
     5
170
     0
171
     0
290
     0
174
     0
 93
        1
 44
0.0
173
     0
291
     1
 45
0.0
1001
ACAD
1000
AcDbSavedByObjectVersion
1070
     0
  0
VISUALSTYLE
  5
CE6
102
{ACAD_XDICTIONARY
360
13D2
102
}
102
{ACAD_REACTORS
330
3F2
102
}
330
3F2
100
AcDbVisualStyle
  2
Wireframe
 70
     5
 71
     0
 72
     2
 73
     0
 90
        0
 40
-0.6
 41
-30.0
 62
     5
 63
     7
 74
     1
 91
        4
 64
     7
 65
   257
 75
     1
175
     1
 42
1.0
 92
        0
 66
   257
 43
1.0
 76
     1
 77
     6
 78
     2
 67
     7
 79
     3
170
     0
171
     0
290
     0
174
     0
 93
        1
 44
0.0
173
     0
291
     0
 45
0.0
1001
ACAD
1000
AcDbSavedByObjectVersion
1070
     0
  0
VISUALSTYLE
  5
CEA
102
{ACAD_XDICTIONARY
360
13DA
102
}
102
{ACAD_REACTORS
330
3F2
102
}
330
3F2
100
AcDbVisualStyle
  2
X-Ray
 70
    25
 71
     2
 72
     2
 73
     1
 90
        1
 40
0.5
 41
-30.0
 62
     5
 63
     7
 74
     1
 91
        0
 64
     7
 65
   257
 75
     1
175
     1
 42
1.0
 92
        8
 66
     7
 43
1.0
 76
     1
 77
     6
 78
     2
 67
     7
 79
     3
170
     0
171
     0
290
     0
174
     0
 93
       13
 44
0.0
173
     0
291
     0
 45
0.0
1001
ACAD
1000
AcDbSavedByObjectVersion
1070
     0
  0
DICTIONARYVAR
  5
57C
102
{ACAD_REACTORS
330
357
102
}
330
357
100
DictionaryVariables
280
     0
  1
1:1
  0
DICTIONARYVAR
  5
57A
102
{ACAD_REACTORS
330
357
102
}
330
357
100
DictionaryVariables
280
     0
  1
STANDARD
  0
DICTIONARYVAR
  5
38E
102
{ACAD_REACTORS
330
357
102
}
330
357
100
DictionaryVariables
280
     0
  1
STANDARD
  0
DICTIONARYVAR
  5
D2C
102
{ACAD_REACTORS
330
357
102
}
330
357
100
DictionaryVariables
280
     0
  1
Metric50
  0
DICTIONARYVAR
  5
D2D
102
{ACAD_REACTORS
330
357
102
}
330
357
100
DictionaryVariables
280
     0
  1
Metric50
  0
DICTIONARYVAR
  5
359
102
{ACAD_REACTORS
330
357
102
}
330
357
100
DictionaryVariables
280
     0
  1
2
  0
DICTIONARYVAR
  5
358
102
{ACAD_REACTORS
330
357
102
}
330
357
100
DictionaryVariables
280
     0
  1
1
  0
DICTIONARYVAR
  5
ACC
102
{ACAD_REACTORS
330
357
102
}
330
357
100
DictionaryVariables
280
     0
  1
0
  0
DICTIONARYVAR
  5
BF1
102
{ACAD_REACTORS
330
357
102
}
330
357
100
DictionaryVariables
280
     0
  1
1
  0
DICTIONARYVAR
  5
BF2
102
{ACAD_REACTORS
330
357
102
}
330
357
100
DictionaryVariables
280
     0
  1
15
  0
DICTIONARYVAR
  5
57D
102
{ACAD_REACTORS
330
357
102
}
330
357
100
DictionaryVariables
280
     0
  1
0
  0
DICTIONARYVAR
  5
57B
102
{ACAD_REACTORS
330
357
102
}
330
357
100
DictionaryVariables
280
     0
  1
0
  0
DICTIONARYVAR
  5
138C
102
{ACAD_REACTORS
330
357
102
}
330
357
100
DictionaryVariables
280
     0
  1
1
  0
DICTIONARYVAR
  5
ACB
102
{ACAD_REACTORS
330
357
102
}
330
357
100
DictionaryVariables
280
     0
  1
127
  0
DICTIONARYVAR
  5
138B
102
{ACAD_REACTORS
330
357
102
}
330
357
100
DictionaryVariables
280
     0
  1
0
  0
DICTIONARY
  5
139A
102
{ACAD_REACTORS
330
1398
102
}
330
1398
100
AcDbDictionary
281
     1
  0
DICTIONARY
  5
1399
102
{ACAD_REACTORS
330
1398
102
}
330
1398
100
AcDbDictionary
281
     1
  3
8796087925296
350
1393
  3
8796087925312
350
1394
  3
8796087925328
350
1395
  3
8796087925344
350
1396
  3
8796087925360
350
1397
  0
DICTIONARY
  5
4DC
102
{ACAD_REACTORS
330
4D1
102
}
330
4D1
100
AcDbDictionary
281
     1
  0
XRECORD
  5
4F3
102
{ACAD_REACTORS
330
4D1
102
}
330
4D1
100
AcDbXrecord
280
     1
 90
-1023410169
  0
XRECORD
  5
8E9
102
{ACAD_REACTORS
330
567
102
}
330
567
100
AcDbXrecord
280
     1
 91
     1023
301

290
     0
302
1
  8
200
 90
        8
 62
     2
370
    50
331
14
  1
Color_2
  8
160
 90
        8
 62
     1
370
    35
331
14
  1
Color_1
  8
150
 90
        8
 62
    96
370
    50
331
14
  1
Color_96
 92
-1040154880
  8
140
 90
        8
 62
     5
370
    35
331
14
  1
Color_5
  8
130
 90
        8
 62
     6
370
    35
331
14
  1
Color_6
  8
120
 90
        8
 62
     3
370
    50
331
14
  1
Color_3
  8
110
 90
        8
 62
     7
370
    25
331
14
  1
Color_7
  8
100
 90
        8
 62
     4
370
    50
331
14
  1
Color_4
  8
INFTEXT69
 90
        8
 62
     5
370
    -3
331
14
  1
Color_5
  8
INFTEXT68
 90
        8
 62
     5
370
    -3
331
14
  1
Color_5
  8
INFTEXT67
 90
        8
 62
     5
370
    -3
331
14
  1
Color_5
  8
INFTEXT66
 90
        8
 62
     5
370
    -3
331
14
  1
Color_5
  8
INFTEXT65
 90
        8
 62
     5
370
    -3
331
14
  1
Color_5
  8
INFTEXT64
 90
        8
 62
     5
370
    -3
331
14
  1
Color_5
  8
INFTEXT63
 90
        8
 62
     5
370
    -3
331
14
  1
Color_5
  8
INFTEXT62
 90
        8
 62
     5
370
    -3
331
14
  1
Color_5
  8
RECON69
 90
        8
 62
     5
370
    35
331
14
  1
Color_5
  8
RECON68
 90
        8
 62
     5
370
    35
331
14
  1
Color_5
  8
RECON67
 90
        8
 62
     5
370
    35
331
14
  1
Color_5
  8
RECON66
 90
        8
 62
     5
370
    35
331
14
  1
Color_5
  8
RECON65
 90
        8
 62
     5
370
    35
331
14
  1
Color_5
  8
RECON64
 90
        8
 62
     5
370
    35
331
14
  1
Color_5
  8
RECON63
 90
        8
 62
     5
370
    35
331
14
  1
Color_5
  8
RECON62
 90
        8
 62
     5
370
    35
331
14
  1
Color_5
  8
RECON61
 90
        8
 62
     5
370
    35
331
14
  1
Color_5
  8
SK69
 90
        8
 62
     5
370
    35
331
14
  1
Color_5
  8
SK68
 90
        8
 62
     5
370
    35
331
14
  1
Color_5
  8
SK67
 90
        8
 62
     5
370
    35
331
14
  1
Color_5
  8
SK66
 90
        8
 62
     5
370
    35
331
14
  1
Color_5
  8
SK65
 90
        8
 62
     5
370
    35
331
14
  1
Color_5
  8
SK64
 90
        8
 62
     5
370
    35
331
14
  1
Color_5
  8
SK63
 90
        8
 62
     5
370
    35
331
14
  1
Color_5
  8
SK62
 90
        8
 62
     5
370
    35
331
14
  1
Color_5
  8
SK61
 90
        8
 62
     5
370
    35
331
14
  1
Color_5
  8
SKVIEW69
 90
        8
 62
     5
370
    35
331
14
  1
Color_5
  8
SKVIEW68
 90
        8
 62
     5
370
    35
331
14
  1
Color_5
  8
SKVIEW67
 90
        8
 62
     5
370
    35
331
14
  1
Color_5
  8
SKVIEW66
 90
        8
 62
     5
370
    35
331
14
  1
Color_5
  8
SKVIEW65
 90
        8
 62
     5
370
    35
331
14
  1
Color_5
  8
SKVIEW64
 90
        8
 62
     5
370
    35
331
14
  1
Color_5
  8
SKVIEW63
 90
        8
 62
     5
370
    35
331
14
  1
Color_5
  8
SKVIEW62
 90
        8
 62
     5
370
    35
331
14
  1
Color_5
  8
SKVIEW61
 90
        8
 62
     5
370
    35
331
14
  1
Color_5
  8
69
 90
        8
 62
     5
370
    35
331
14
  1
Color_5
  8
68
 90
        8
 62
     5
370
    35
331
14
  1
Color_5
  8
67
 90
        8
 62
     5
370
    35
331
14
  1
Color_5
  8
66
 90
        8
 62
     5
370
    35
331
14
  1
Color_5
  8
65
 90
        8
 62
     5
370
    35
331
14
  1
Color_5
  8
64
 90
        8
 62
     5
370
    35
331
14
  1
Color_5
  8
63
 90
        8
 62
     5
370
    35
331
14
  1
Color_5
  8
62
 90
        8
 62
     5
370
    35
331
14
  1
Color_5
  8
61
 90
        8
 62
     5
370
    35
331
14
  1
Color_5
  8
59
 90
        8
 62
     5
370
    -3
331
14
  1
Color_5
  8
58
 90
        8
 62
     5
370
    -3
331
14
  1
Color_5
  8
57
 90
        8
 62
     5
370
    -3
331
14
  1
Color_5
  8
56
 90
        8
 62
     5
370
    -3
331
14
  1
Color_5
  8
55
 90
        8
 62
     5
370
    -3
331
14
  1
Color_5
  8
54
 90
        8
 62
     5
370
    -3
331
14
  1
Color_5
  8
53
 90
        8
 62
     5
370
    -3
331
14
  1
Color_5
  8
52
 90
        8
 62
     5
370
    -3
331
14
  1
Color_5
  8
51
 90
        8
 62
     5
370
    -3
331
14
  1
Color_5
  8
FRAME59
 90
        8
 62
     7
370
    -3
331
14
  1
Color_7
  8
FRAME58
 90
        8
 62
     7
370
    -3
331
14
  1
Color_7
  8
FRAME57
 90
        8
 62
     7
370
    -3
331
14
  1
Color_7
  8
FRAME56
 90
        8
 62
     7
370
    -3
331
14
  1
Color_7
  8
FRAME55
 90
        8
 62
     7
370
    -3
331
14
  1
Color_7
  8
FRAME54
 90
        8
 62
     7
370
    -3
331
14
  1
Color_7
  8
FRAME53
 90
        8
 62
     7
370
    -3
331
14
  1
Color_7
  8
FRAME52
 90
        8
 62
     7
370
    -3
331
14
  1
Color_7
  8
RECON7
 90
        8
 62
     5
370
    25
331
14
  1
Color_5
  8
RECON6
 90
        8
 62
     5
370
    35
331
14
  1
Color_5
  8
RECON4
 90
        8
 62
     2
370
    25
331
14
  1
Color_2
  8
RECON3
 90
        8
 62
     1
370
    35
331
14
  1
Color_1
  8
RECON2
 90
        8
 62
     7
370
    25
331
14
  1
Color_7
  8
RECON1
 90
        8
 62
     4
370
    50
331
14
  1
Color_4
  8
SKVIEW7
 90
        8
 62
     5
370
    25
331
14
  1
Color_5
  8
SK7
 90
        8
 62
     5
370
    25
331
14
  1
Color_5
  8
7
 90
        8
 62
     5
370
    25
331
14
  1
Color_5
  8
INFMAINVIEW
 90
        8
 62
     9
370
    18
331
14
  1
Color_9
  8
INFTOTAL
 90
        8
 62
     9
370
    18
331
14
  1
Color_9
  8
INFTEXT61
 90
        8
 62
     5
370
    -3
331
14
  1
Color_5
  8
INFWKP
 90
        8
 62
    30
370
    25
331
14
  1
Color_30
  8
SKVIEW6
 90
        8
 62
     5
370
    35
331
14
  1
Color_5
  8
SKVIEW4
 90
        8
 62
     2
370
    25
331
14
  1
Color_2
  8
SKVIEW3
 90
        8
 62
     1
370
    35
331
14
  1
Color_1
  8
SKVIEW2
 90
        8
 62
     7
370
    25
331
14
  1
Color_7
  8
SKVIEW1
 90
        8
 62
     4
370
    50
331
14
  1
Color_4
  8
NOCUT
 90
        8
 62
     7
370
    25
331
14
  1
Color_7
  8
CUT
 90
        8
 62
     1
370
    25
331
14
  1
Color_1
  8
DEFPOINTS
 90
        0
 62
     7
370
    -3
331
14
  1
Color_7
  8
SK6
 90
        8
 62
     5
370
    35
331
14
  1
Color_5
  8
6
 90
        8
 62
     5
370
    35
331
14
  1
Color_5
  8
FRAME51
 90
        8
 62
     7
370
    -3
331
14
  1
Color_7
  8
SK4
 90
        8
 62
     2
370
    25
331
14
  1
Color_2
  8
4
 90
        8
 62
     2
370
    25
331
14
  1
Color_2
  8
SK3
 90
        8
 62
     1
370
    35
331
14
  1
Color_1
  8
3
 90
        8
 62
     1
370
    35
331
14
  1
Color_1
  8
SK2
 90
        8
 62
     7
370
    25
331
14
  1
Color_7
  8
2
 90
        8
 62
     7
370
    25
331
14
  1
Color_7
  8
SK1
 90
        8
 62
     4
370
    50
331
14
  1
Color_4
  8
1
 90
        8
 62
     4
370
    50
331
14
  1
Color_4
  8
0
 90
        0
 62
     7
370
    -3
331
14
  1
Color_7
  0
DICTIONARY
  5
D27
330
CF0
100
AcDbDictionary
280
     1
281
     1
  3
ACAD_XREC_ROUNDTRIP
360
13E1
  0
DICTIONARY
  5
B74
330
B57
100
AcDbDictionary
280
     1
281
     1
  3
ACAD_XREC_ROUNDTRIP
360
13C9
  0
DICTIONARY
  5
BEF
330
303
100
AcDbDictionary
280
     1
281
     1
  3
ACAD_XREC_ROUNDTRIP
360
139B
  0
DICTIONARY
  5
139F
330
3F0
100
AcDbDictionary
280
     1
281
     1
  3
ACAD_XREC_ROUNDTRIP
360
13A0
  0
DICTIONARY
  5
139D
330
3EF
100
AcDbDictionary
280
     1
281
     1
  3
ACAD_XREC_ROUNDTRIP
360
139E
  0
DICTIONARY
  5
13A1
330
3F1
100
AcDbDictionary
280
     1
281
     1
  3
ACAD_XREC_ROUNDTRIP
360
13A2
  0
DICTIONARY
  5
13C3
330
470
100
AcDbDictionary
280
     1
281
     1
  3
ACAD_XREC_ROUNDTRIP
360
13C4
  0
DICTIONARY
  5
13C5
330
7EF
100
AcDbDictionary
280
     1
281
     1
  3
ACAD_XREC_ROUNDTRIP
360
13C6
  0
DICTIONARY
  5
13C7
330
7F8
100
AcDbDictionary
280
     1
281
     1
  3
ACAD_XREC_ROUNDTRIP
360
13C8
  0
DICTIONARY
  5
D25
330
CEE
100
AcDbDictionary
280
     1
281
     1
  3
ACAD_XREC_ROUNDTRIP
360
13E0
  0
DICTIONARY
  5
577
330
389
100
AcDbDictionary
280
     1
281
     1
  3
ACAD_ROUNDTRIP_2008_TABLESTYLE_CELLSTYLEMAP
360
138D
  3
ACAD_XREC_ROUNDTRIP
360
139C
  0
DICTIONARY
  5
13AD
330
3F8
100
AcDbDictionary
280
     1
281
     1
  3
ACAD_XREC_ROUNDTRIP
360
13AE
  0
DICTIONARY
  5
13B1
330
3FA
100
AcDbDictionary
280
     1
281
     1
  3
ACAD_XREC_ROUNDTRIP
360
13B2
  0
DICTIONARY
  5
13AF
330
3F9
100
AcDbDictionary
280
     1
281
     1
  3
ACAD_XREC_ROUNDTRIP
360
13B0
  0
DICTIONARY
  5
13AB
330
3F7
100
AcDbDictionary
280
     1
281
     1
  3
ACAD_XREC_ROUNDTRIP
360
13AC
  0
DICTIONARY
  5
13B9
330
3FE
100
AcDbDictionary
280
     1
281
     1
  3
ACAD_XREC_ROUNDTRIP
360
13BA
  0
DICTIONARY
  5
13C1
330
402
100
AcDbDictionary
280
     1
281
     1
  3
ACAD_XREC_ROUNDTRIP
360
13C2
  0
DICTIONARY
  5
13B3
330
3FB
100
AcDbDictionary
280
     1
281
     1
  3
ACAD_XREC_ROUNDTRIP
360
13B4
  0
DICTIONARY
  5
13B7
330
3FD
100
AcDbDictionary
280
     1
281
     1
  3
ACAD_XREC_ROUNDTRIP
360
13B8
  0
DICTIONARY
  5
13D0
330
BDF
100
AcDbDictionary
280
     1
281
     1
  3
ACAD_XREC_ROUNDTRIP
360
13D1
  0
DICTIONARY
  5
13BF
330
401
100
AcDbDictionary
280
     1
281
     1
  3
ACAD_XREC_ROUNDTRIP
360
13C0
  0
DICTIONARY
  5
13A3
330
3F3
100
AcDbDictionary
280
     1
281
     1
  3
ACAD_XREC_ROUNDTRIP
360
13A4
  0
DICTIONARY
  5
13A5
330
3F4
100
AcDbDictionary
280
     1
281
     1
  3
ACAD_XREC_ROUNDTRIP
360
13A6
  0
DICTIONARY
  5
13A7
330
3F5
100
AcDbDictionary
280
     1
281
     1
  3
ACAD_XREC_ROUNDTRIP
360
13A8
  0
DICTIONARY
  5
13A9
330
3F6
100
AcDbDictionary
280
     1
281
     1
  3
ACAD_XREC_ROUNDTRIP
360
13AA
  0
DICTIONARY
  5
13D4
330
CE7
100
AcDbDictionary
280
     1
281
     1
  3
ACAD_XREC_ROUNDTRIP
360
13D5
  0
DICTIONARY
  5
13CC
330
BDD
100
AcDbDictionary
280
     1
281
     1
  3
ACAD_XREC_ROUNDTRIP
360
13CD
  0
DICTIONARY
  5
13BD
330
400
100
AcDbDictionary
280
     1
281
     1
  3
ACAD_XREC_ROUNDTRIP
360
13BE
  0
DICTIONARY
  5
13CE
330
BDE
100
AcDbDictionary
280
     1
281
     1
  3
ACAD_XREC_ROUNDTRIP
360
13CF
  0
DICTIONARY
  5
13B5
330
3FC
100
AcDbDictionary
280
     1
281
     1
  3
ACAD_XREC_ROUNDTRIP
360
13B6
  0
DICTIONARY
  5
13DE
330
CEC
100
AcDbDictionary
280
     1
281
     1
  3
ACAD_XREC_ROUNDTRIP
360
13DF
  0
DICTIONARY
  5
13DC
330
CEB
100
AcDbDictionary
280
     1
281
     1
  3
ACAD_XREC_ROUNDTRIP
360
13DD
  0
DICTIONARY
  5
13D6
330
CE8
100
AcDbDictionary
280
     1
281
     1
  3
ACAD_XREC_ROUNDTRIP
360
13D7
  0
DICTIONARY
  5
13D8
330
CE9
100
AcDbDictionary
280
     1
281
     1
  3
ACAD_XREC_ROUNDTRIP
360
13D9
  0
DICTIONARY
  5
13BB
330
3FF
100
AcDbDictionary
280
     1
281
     1
  3
ACAD_XREC_ROUNDTRIP
360
13BC
  0
DICTIONARY
  5
13D2
330
CE6
100
AcDbDictionary
280
     1
281
     1
  3
ACAD_XREC_ROUNDTRIP
360
13D3
  0
DICTIONARY
  5
13DA
330
CEA
100
AcDbDictionary
280
     1
281
     1
  3
ACAD_XREC_ROUNDTRIP
360
13DB
  0
XRECORD
  5
1393
102
{ACAD_REACTORS
330
1399
102
}
330
1399
100
AcDbXrecord
280
     1
  1
AcDb_Thumbnail_Schema
102
{ATTRRECORD
341
1394
  2
AcDbDs::TreatedAsObjectData
280
     1
291
     1
102
ATTRRECORD}
102
{ATTRRECORD
341
1395
  2
AcDbDs::Legacy
280
     1
291
     1
102
ATTRRECORD}
  2
AcDbDs::ID
280
    10
 91
        8
102
{ATTRRECORD
341
1396
  2
AcDs:Indexable
280
     1
291
     1
102
ATTRRECORD}
102
{ATTRRECORD
341
1397
  2
AcDbDs::HandleAttribute
280
     7
282
     1
102
ATTRRECORD}
  2
Thumbnail_Data
280
    15
 91
        0
  0
XRECORD
  5
1394
102
{ACAD_REACTORS
330
1399
102
}
330
1399
100
AcDbXrecord
280
     1
  1
AcDbDs::TreatedAsObjectDataSchema
  2
AcDbDs::TreatedAsObjectData
280
     1
 91
        0
  0
XRECORD
  5
1395
102
{ACAD_REACTORS
330
1399
102
}
330
1399
100
AcDbXrecord
280
     1
  1
AcDbDs::LegacySchema
  2
AcDbDs::Legacy
280
     1
 91
        0
  0
XRECORD
  5
1396
102
{ACAD_REACTORS
330
1399
102
}
330
1399
100
AcDbXrecord
280
     1
  1
AcDbDs::IndexedPropertySchema
  2
AcDs:Indexable
280
     1
 91
        0
  0
XRECORD
  5
1397
102
{ACAD_REACTORS
330
1399
102
}
330
1399
100
AcDbXrecord
280
     1
  1
AcDbDs::HandleAttributeSchema
  2
AcDbDs::HandleAttribute
280
     7
 91
        1
284
     1
  0
XRECORD
  5
13E1
102
{ACAD_REACTORS
330
D27
102
}
330
D27
100
AcDbXrecord
280
     1
102
DISPLAYNAME
  1
Metric50
102
FLAGS
 90
        0
  0
XRECORD
  5
13C9
102
{ACAD_REACTORS
330
B74
102
}
330
B74
100
AcDbXrecord
280
     1
102
SHADEPLOT
 70
     0
102
SHADEPLOTRESLEVEL
 70
     2
102
SHADEPLOTCUSTOMDPI
 70
   300
  0
XRECORD
  5
139B
102
{ACAD_REACTORS
330
BEF
102
}
330
BEF
100
AcDbXrecord
280
     1
102
SHADEPLOT
 70
     0
102
SHADEPLOTRESLEVEL
 70
     2
102
SHADEPLOTCUSTOMDPI
 70
   300
  0
XRECORD
  5
13A0
102
{ACAD_REACTORS
330
139F
102
}
330
139F
100
AcDbXrecord
280
     1
102
MATERIAL
148
0.0
149
0.0
149
0.0
 93
        0
 94
       63
282
     0
 72
     1
 77
     1
171
     1
175
     1
179
     1
273
     0
  0
XRECORD
  5
139E
102
{ACAD_REACTORS
330
139D
102
}
330
139D
100
AcDbXrecord
280
     1
102
MATERIAL
148
0.0
149
0.0
149
0.0
 93
        0
 94
       63
282
     0
 72
     1
 77
     1
171
     1
175
     1
179
     1
273
     0
  0
XRECORD
  5
13A2
102
{ACAD_REACTORS
330
13A1
102
}
330
13A1
100
AcDbXrecord
280
     1
102
MATERIAL
148
0.0
149
0.0
149
0.0
 93
        0
 94
       63
282
     0
 72
     1
 77
     1
171
     1
175
     1
179
     1
273
     0
  0
XRECORD
  5
13C4
102
{ACAD_REACTORS
330
13C3
102
}
330
13C3
100
AcDbXrecord
280
     1
102
ACAD_ROUNDTRIP_2012_MLEADER_STYLE
298
     1
  0
XRECORD
  5
13C6
102
{ACAD_REACTORS
330
13C5
102
}
330
13C5
100
AcDbXrecord
280
     1
102
SHADEPLOT
 70
     0
102
SHADEPLOTRESLEVEL
 70
     2
102
SHADEPLOTCUSTOMDPI
 70
   300
  0
XRECORD
  5
13C8
102
{ACAD_REACTORS
330
13C7
102
}
330
13C7
100
AcDbXrecord
280
     1
102
SHADEPLOT
 70
     0
102
SHADEPLOTRESLEVEL
 70
     2
102
SHADEPLOTCUSTOMDPI
 70
   300
  0
XRECORD
  5
13E0
102
{ACAD_REACTORS
330
D25
102
}
330
D25
100
AcDbXrecord
280
     1
102
DISPLAYNAME
  1
Metric50
102
FLAGS
 90
        0
  0
CELLSTYLEMAP
  5
138D
102
{ACAD_REACTORS
330
577
102
}
330
577
100
AcDbCellStyleMap
 90
        3
300
CELLSTYLE
  1
TABLEFORMAT_BEGIN
 90
        5
170
     1
 91
        0
 92
    32768
 62
   257
 93
        1
300
CONTENTFORMAT
  1
CONTENTFORMAT_BEGIN
 90
        0
 91
        0
 92
        4
 93
        0
300

 40
0.0
140
1.0
 94
        5
 62
     0
340
1E
144
6.0
309
CONTENTFORMAT_END
171
     1
301
MARGIN
  1
CELLMARGIN_BEGIN
 40
1.5
 40
1.5
 40
1.5
 40
1.5
 40
0.18
 40
0.18
309
CELLMARGIN_END
 94
        6
 95
        1
302
GRIDFORMAT
  1
GRIDFORMAT_BEGIN
 90
        0
 91
        1
 62
     0
 92
       -2
340
0
 93
        0
 40
0.045
309
GRIDFORMAT_END
 95
        2
302
GRIDFORMAT
  1
GRIDFORMAT_BEGIN
 90
        0
 91
        1
 62
     0
 92
       -2
340
0
 93
        0
 40
0.045
309
GRIDFORMAT_END
 95
        4
302
GRIDFORMAT
  1
GRIDFORMAT_BEGIN
 90
        0
 91
        1
 62
     0
 92
       -2
340
0
 93
        0
 40
0.045
309
GRIDFORMAT_END
 95
        8
302
GRIDFORMAT
  1
GRIDFORMAT_BEGIN
 90
        0
 91
        1
 62
     0
 92
       -2
340
0
 93
        0
 40
0.045
309
GRIDFORMAT_END
 95
       16
302
GRIDFORMAT
  1
GRIDFORMAT_BEGIN
 90
        0
 91
        1
 62
     0
 92
       -2
340
0
 93
        0
 40
0.045
309
GRIDFORMAT_END
 95
       32
302
GRIDFORMAT
  1
GRIDFORMAT_BEGIN
 90
        0
 91
        1
 62
     0
 92
       -2
340
0
 93
        0
 40
0.045
309
GRIDFORMAT_END
309
TABLEFORMAT_END
  1
CELLSTYLE_BEGIN
 90
        1
 91
        1
300
_TITLE
309
CELLSTYLE_END
300
CELLSTYLE
  1
TABLEFORMAT_BEGIN
 90
        5
170
     1
 91
        0
 92
        0
 62
   257
 93
        1
300
CONTENTFORMAT
  1
CONTENTFORMAT_BEGIN
 90
        0
 91
        0
 92
        4
 93
        0
300

 40
0.0
140
1.0
 94
        5
 62
     0
340
10
144
4.5
309
CONTENTFORMAT_END
171
     1
301
MARGIN
  1
CELLMARGIN_BEGIN
 40
1.5
 40
1.5
 40
1.5
 40
1.5
 40
0.18
 40
0.18
309
CELLMARGIN_END
 94
        6
 95
        1
302
GRIDFORMAT
  1
GRIDFORMAT_BEGIN
 90
        0
 91
        1
 62
     0
 92
       -2
340
0
 93
        0
 40
0.045
309
GRIDFORMAT_END
 95
        2
302
GRIDFORMAT
  1
GRIDFORMAT_BEGIN
 90
        0
 91
        1
 62
     0
 92
       -2
340
0
 93
        0
 40
0.045
309
GRIDFORMAT_END
 95
        4
302
GRIDFORMAT
  1
GRIDFORMAT_BEGIN
 90
        0
 91
        1
 62
     0
 92
       -2
340
0
 93
        0
 40
0.045
309
GRIDFORMAT_END
 95
        8
302
GRIDFORMAT
  1
GRIDFORMAT_BEGIN
 90
        0
 91
        1
 62
     0
 92
       -2
340
0
 93
        0
 40
0.045
309
GRIDFORMAT_END
 95
       16
302
GRIDFORMAT
  1
GRIDFORMAT_BEGIN
 90
        0
 91
        1
 62
     0
 92
       -2
340
0
 93
        0
 40
0.045
309
GRIDFORMAT_END
 95
       32
302
GRIDFORMAT
  1
GRIDFORMAT_BEGIN
 90
        0
 91
        1
 62
     0
 92
       -2
340
0
 93
        0
 40
0.045
309
GRIDFORMAT_END
309
TABLEFORMAT_END
  1
CELLSTYLE_BEGIN
 90
        2
 91
        1
300
_HEADER
309
CELLSTYLE_END
300
CELLSTYLE
  1
TABLEFORMAT_BEGIN
 90
        5
170
     1
 91
        0
 92
        0
 62
   257
 93
        1
300
CONTENTFORMAT
  1
CONTENTFORMAT_BEGIN
 90
        0
 91
        0
 92
        4
 93
        0
300

 40
0.0
140
1.0
 94
        2
 62
     0
340
10
144
4.5
309
CONTENTFORMAT_END
171
     1
301
MARGIN
  1
CELLMARGIN_BEGIN
 40
1.5
 40
1.5
 40
1.5
 40
1.5
 40
0.18
 40
0.18
309
CELLMARGIN_END
 94
        6
 95
        1
302
GRIDFORMAT
  1
GRIDFORMAT_BEGIN
 90
        0
 91
        1
 62
     0
 92
       -2
340
0
 93
        0
 40
0.045
309
GRIDFORMAT_END
 95
        2
302
GRIDFORMAT
  1
GRIDFORMAT_BEGIN
 90
        0
 91
        1
 62
     0
 92
       -2
340
0
 93
        0
 40
0.045
309
GRIDFORMAT_END
 95
        4
302
GRIDFORMAT
  1
GRIDFORMAT_BEGIN
 90
        0
 91
        1
 62
     0
 92
       -2
340
0
 93
        0
 40
0.045
309
GRIDFORMAT_END
 95
        8
302
GRIDFORMAT
  1
GRIDFORMAT_BEGIN
 90
        0
 91
        1
 62
     0
 92
       -2
340
0
 93
        0
 40
0.045
309
GRIDFORMAT_END
 95
       16
302
GRIDFORMAT
  1
GRIDFORMAT_BEGIN
 90
        0
 91
        1
 62
     0
 92
       -2
340
0
 93
        0
 40
0.045
309
GRIDFORMAT_END
 95
       32
302
GRIDFORMAT
  1
GRIDFORMAT_BEGIN
 90
        0
 91
        1
 62
     0
 92
       -2
340
0
 93
        0
 40
0.045
309
GRIDFORMAT_END
309
TABLEFORMAT_END
  1
CELLSTYLE_BEGIN
 90
        3
 91
        2
300
_DATA
309
CELLSTYLE_END
  0
XRECORD
  5
139C
102
{ACAD_REACTORS
330
577
102
}
330
577
100
AcDbXrecord
280
     1
102
ACAD_ROUNDTRIP_PRE2007_TABLESTYLE
 90
        4
 91
        0
  1

 92
        4
 93
        0
  2

 94
        4
 95
        0
  3

  0
XRECORD
  5
13AE
102
{ACAD_REACTORS
330
13AD
102
}
330
13AD
100
AcDbXrecord
280
     1
102
RTVSPost2010Prop28
280
     1
102
RTVSPost2010PropOp28
 70
     1
102
RTVSPost2010Prop29
280
     1
102
RTVSPost2010PropOp29
 70
     1
102
RTVSPost2010Prop30
280
     0
102
RTVSPost2010PropOp30
 70
     1
102
RTVSPost2010Prop31
280
     0
102
RTVSPost2010PropOp31
 70
     1
102
RTVSPost2010Prop32
280
     0
102
RTVSPost2010PropOp32
 70
     1
102
RTVSPost2010Prop33
280
     0
102
RTVSPost2010PropOp33
 70
     1
102
RTVSPost2010Prop34
280
     0
102
RTVSPost2010PropOp34
 70
     1
102
RTVSPost2010Prop35
280
     0
102
RTVSPost2010PropOp35
 70
     1
102
RTVSPost2010Prop36
280
     0
102
RTVSPost2010PropOp36
 70
     1
102
RTVSPost2010Prop37
 90
       50
102
RTVSPost2010PropOp37
 70
     1
102
RTVSPost2010Prop38
140
0.0
102
RTVSPost2010PropOp38
 70
     1
102
RTVSPost2010Prop39
140
1.0
102
RTVSPost2010PropOp39
 70
     1
102
RTVSPost2010Prop40
 90
        0
102
RTVSPost2010PropOp40
 70
     1
102
RTVSPost2010Prop41ColorIndex
 90
       18
102
RTVSPost2010Prop41ColorRGB
 90
        0
102
RTVSPost2010PropOp41
 70
     1
102
RTVSPost2010Prop42
 90
       50
102
RTVSPost2010PropOp42
 70
     1
102
RTVSPost2010Prop43
 90
        3
102
RTVSPost2010PropOp43
 70
     1
102
RTVSPost2010Prop44ColorIndex
 90
        5
102
RTVSPost2010Prop44ColorRGB
 90
      255
102
RTVSPost2010PropOp44
 70
     1
102
RTVSPost2010Prop45
280
     0
102
RTVSPost2010PropOp45
 70
     1
102
RTVSPost2010Prop46
 90
       50
102
RTVSPost2010PropOp46
 70
     1
102
RTVSPost2010Prop47
 90
       50
102
RTVSPost2010PropOp47
 70
     1
102
RTVSPost2010Prop48
 90
       50
102
RTVSPost2010PropOp48
 70
     1
102
RTVSPost2010Prop49
280
     0
102
RTVSPost2010PropOp49
 70
     1
102
RTVSPost2010Prop50
 90
       50
102
RTVSPost2010PropOp50
 70
     1
102
RTVSPost2010Prop51ColorIndex
 90
      256
102
RTVSPost2010Prop51ColorRGB
 90
-16777216
102
RTVSPost2010PropOp51
 70
     0
102
RTVSPost2010Prop52
140
1.0
102
RTVSPost2010PropOp52
 70
     0
102
RTVSPost2010Prop53
 90
        2
102
RTVSPost2010PropOp53
 70
     1
102
RTVSPost2010Prop54
  1
strokes_ogs.tif
102
RTVSPost2010PropOp54
 70
     1
102
RTVSPost2010Prop55
280
     0
102
RTVSPost2010PropOp55
 70
     1
102
RTVSPost2010Prop56
140
1.0
102
RTVSPost2010PropOp56
 70
     1
102
RTVSPost2010Prop57
140
1.0
102
RTVSPost2010PropOp57
 70
     1
102
RTVSPropertyOp0
 70
     1
102
RTVSPropertyOp1
 70
     1
102
RTVSPropertyOp2
 70
     1
102
RTVSPropertyOp3
 70
     1
102
RTVSPropertyOp4
 70
     1
102
RTVSPropertyOp5
 70
     1
102
RTVSPropertyOp6
 70
     1
102
RTVSPropertyOp7
 70
     1
102
RTVSPropertyOp8
 70
     1
102
RTVSPropertyOp9
 70
     1
102
RTVSPropertyOp10
 70
     1
102
RTVSPropertyOp11
 70
     1
102
RTVSPropertyOp12
 70
     1
102
RTVSPropertyOp13
 70
     1
102
RTVSPropertyOp14
 70
     1
102
RTVSPropertyOp15
 70
     1
102
RTVSPropertyOp16
 70
     1
102
RTVSPropertyOp17
 70
     1
102
RTVSPropertyOp18
 70
     1
102
RTVSPropertyOp19
 70
     1
102
RTVSPropertyOp20
 70
     1
102
RTVSPropertyOp21
 70
     1
102
RTVSPropertyOp22
 70
     1
102
RTVSPropertyOp23
 70
     1
102
RTVSPropertyOp24
 70
     1
102
RTVSPropertyOp25
 70
     1
102
RTVSPropertyOp26
 70
     1
102
RTVSPropertyOp27
 70
     1
102
RTVSPropertyOp28
 70
     1
102
RTVSPropertyOp29
 70
     1
102
RTVSPropertyOp30
 70
     1
102
RTVSPropertyOp31
 70
     1
102
RTVSPropertyOp32
 70
     1
102
RTVSPropertyOp33
 70
     1
102
RTVSPropertyOp34
 70
     1
102
RTVSPropertyOp35
 70
     1
102
RTVSPropertyOp36
 70
     1
102
RTVSPropertyOp37
 70
     1
102
RTVSPropertyOp38
 70
     1
102
RTVSPropertyOp39
 70
     1
102
RTVSPropertyOp40
 70
     1
102
RTVSPropertyOp41
 70
     1
102
RTVSPropertyOp42
 70
     1
102
RTVSPropertyOp43
 70
     1
102
RTVSPropertyOp44
 70
     1
102
RTVSPropertyOp45
 70
     1
102
RTVSPropertyOp46
 70
     1
102
RTVSPropertyOp47
 70
     1
102
RTVSPropertyOp48
 70
     1
102
RTVSPropertyOp49
 70
     1
102
RTVSPropertyOp50
 70
     1
102
RTVSPropertyOp51
 70
     0
102
RTVSPropertyOp52
 70
     0
102
RTVSPropertyOp53
 70
     1
102
RTVSPropertyOp54
 70
     1
102
RTVSPropertyOp55
 70
     1
102
RTVSPropertyOp56
 70
     1
102
RTVSPropertyOp57
 70
     1
102
RTVSPropertyOp58
 70
     1
102
RTVSPropertyOp59
 70
     1
102
RTVSPropertyOp60
 70
     1
102
RTVSPropertyOp61
 70
     1
102
RTVSPropertyOp62
 70
     1
  0
XRECORD
  5
13B2
102
{ACAD_REACTORS
330
13B1
102
}
330
13B1
100
AcDbXrecord
280
     1
102
RTVSPost2010Prop28
280
     0
102
RTVSPost2010PropOp28
 70
     1
102
RTVSPost2010Prop29
280
     1
102
RTVSPost2010PropOp29
 70
     1
102
RTVSPost2010Prop30
280
     1
102
RTVSPost2010PropOp30
 70
     1
102
RTVSPost2010Prop31
280
     0
102
RTVSPost2010PropOp31
 70
     1
102
RTVSPost2010Prop32
280
     0
102
RTVSPost2010PropOp32
 70
     1
102
RTVSPost2010Prop33
280
     0
102
RTVSPost2010PropOp33
 70
     1
102
RTVSPost2010Prop34
280
     0
102
RTVSPost2010PropOp34
 70
     1
102
RTVSPost2010Prop35
280
     0
102
RTVSPost2010PropOp35
 70
     1
102
RTVSPost2010Prop36
280
     0
102
RTVSPost2010PropOp36
 70
     1
102
RTVSPost2010Prop37
 90
       50
102
RTVSPost2010PropOp37
 70
     1
102
RTVSPost2010Prop38
140
0.0
102
RTVSPost2010PropOp38
 70
     1
102
RTVSPost2010Prop39
140
1.0
102
RTVSPost2010PropOp39
 70
     1
102
RTVSPost2010Prop40
 90
        0
102
RTVSPost2010PropOp40
 70
     1
102
RTVSPost2010Prop41ColorIndex
 90
       18
102
RTVSPost2010Prop41ColorRGB
 90
        0
102
RTVSPost2010PropOp41
 70
     1
102
RTVSPost2010Prop42
 90
       50
102
RTVSPost2010PropOp42
 70
     1
102
RTVSPost2010Prop43
 90
        3
102
RTVSPost2010PropOp43
 70
     1
102
RTVSPost2010Prop44ColorIndex
 90
        5
102
RTVSPost2010Prop44ColorRGB
 90
      255
102
RTVSPost2010PropOp44
 70
     1
102
RTVSPost2010Prop45
280
     0
102
RTVSPost2010PropOp45
 70
     1
102
RTVSPost2010Prop46
 90
       50
102
RTVSPost2010PropOp46
 70
     1
102
RTVSPost2010Prop47
 90
       50
102
RTVSPost2010PropOp47
 70
     1
102
RTVSPost2010Prop48
 90
       50
102
RTVSPost2010PropOp48
 70
     1
102
RTVSPost2010Prop49
280
     0
102
RTVSPost2010PropOp49
 70
     1
102
RTVSPost2010Prop50
 90
       50
102
RTVSPost2010PropOp50
 70
     1
102
RTVSPost2010Prop51ColorIndex
 90
      256
102
RTVSPost2010Prop51ColorRGB
 90
-16777216
102
RTVSPost2010PropOp51
 70
     0
102
RTVSPost2010Prop52
140
1.0
102
RTVSPost2010PropOp52
 70
     0
102
RTVSPost2010Prop53
 90
        2
102
RTVSPost2010PropOp53
 70
     1
102
RTVSPost2010Prop54
  1
strokes_ogs.tif
102
RTVSPost2010PropOp54
 70
     1
102
RTVSPost2010Prop55
280
     0
102
RTVSPost2010PropOp55
 70
     1
102
RTVSPost2010Prop56
140
1.0
102
RTVSPost2010PropOp56
 70
     1
102
RTVSPost2010Prop57
140
1.0
102
RTVSPost2010PropOp57
 70
     1
102
RTVSPropertyOp0
 70
     1
102
RTVSPropertyOp1
 70
     1
102
RTVSPropertyOp2
 70
     1
102
RTVSPropertyOp3
 70
     1
102
RTVSPropertyOp4
 70
     1
102
RTVSPropertyOp5
 70
     1
102
RTVSPropertyOp6
 70
     1
102
RTVSPropertyOp7
 70
     1
102
RTVSPropertyOp8
 70
     1
102
RTVSPropertyOp9
 70
     1
102
RTVSPropertyOp10
 70
     1
102
RTVSPropertyOp11
 70
     1
102
RTVSPropertyOp12
 70
     1
102
RTVSPropertyOp13
 70
     1
102
RTVSPropertyOp14
 70
     1
102
RTVSPropertyOp15
 70
     1
102
RTVSPropertyOp16
 70
     1
102
RTVSPropertyOp17
 70
     1
102
RTVSPropertyOp18
 70
     1
102
RTVSPropertyOp19
 70
     1
102
RTVSPropertyOp20
 70
     1
102
RTVSPropertyOp21
 70
     1
102
RTVSPropertyOp22
 70
     1
102
RTVSPropertyOp23
 70
     1
102
RTVSPropertyOp24
 70
     1
102
RTVSPropertyOp25
 70
     1
102
RTVSPropertyOp26
 70
     1
102
RTVSPropertyOp27
 70
     1
102
RTVSPropertyOp28
 70
     1
102
RTVSPropertyOp29
 70
     1
102
RTVSPropertyOp30
 70
     1
102
RTVSPropertyOp31
 70
     1
102
RTVSPropertyOp32
 70
     1
102
RTVSPropertyOp33
 70
     1
102
RTVSPropertyOp34
 70
     1
102
RTVSPropertyOp35
 70
     1
102
RTVSPropertyOp36
 70
     1
102
RTVSPropertyOp37
 70
     1
102
RTVSPropertyOp38
 70
     1
102
RTVSPropertyOp39
 70
     1
102
RTVSPropertyOp40
 70
     1
102
RTVSPropertyOp41
 70
     1
102
RTVSPropertyOp42
 70
     1
102
RTVSPropertyOp43
 70
     1
102
RTVSPropertyOp44
 70
     1
102
RTVSPropertyOp45
 70
     1
102
RTVSPropertyOp46
 70
     1
102
RTVSPropertyOp47
 70
     1
102
RTVSPropertyOp48
 70
     1
102
RTVSPropertyOp49
 70
     1
102
RTVSPropertyOp50
 70
     1
102
RTVSPropertyOp51
 70
     0
102
RTVSPropertyOp52
 70
     0
102
RTVSPropertyOp53
 70
     1
102
RTVSPropertyOp54
 70
     1
102
RTVSPropertyOp55
 70
     1
102
RTVSPropertyOp56
 70
     1
102
RTVSPropertyOp57
 70
     1
102
RTVSPropertyOp58
 70
     1
102
RTVSPropertyOp59
 70
     1
102
RTVSPropertyOp60
 70
     1
102
RTVSPropertyOp61
 70
     1
102
RTVSPropertyOp62
 70
     1
  0
XRECORD
  5
13B0
102
{ACAD_REACTORS
330
13AF
102
}
330
13AF
100
AcDbXrecord
280
     1
102
RTVSPost2010Prop28
280
     0
102
RTVSPost2010PropOp28
 70
     1
102
RTVSPost2010Prop29
280
     1
102
RTVSPost2010PropOp29
 70
     1
102
RTVSPost2010Prop30
280
     1
102
RTVSPost2010PropOp30
 70
     1
102
RTVSPost2010Prop31
280
     0
102
RTVSPost2010PropOp31
 70
     1
102
RTVSPost2010Prop32
280
     0
102
RTVSPost2010PropOp32
 70
     1
102
RTVSPost2010Prop33
280
     0
102
RTVSPost2010PropOp33
 70
     1
102
RTVSPost2010Prop34
280
     0
102
RTVSPost2010PropOp34
 70
     1
102
RTVSPost2010Prop35
280
     0
102
RTVSPost2010PropOp35
 70
     1
102
RTVSPost2010Prop36
280
     0
102
RTVSPost2010PropOp36
 70
     1
102
RTVSPost2010Prop37
 90
       50
102
RTVSPost2010PropOp37
 70
     1
102
RTVSPost2010Prop38
140
0.0
102
RTVSPost2010PropOp38
 70
     1
102
RTVSPost2010Prop39
140
1.0
102
RTVSPost2010PropOp39
 70
     1
102
RTVSPost2010Prop40
 90
        0
102
RTVSPost2010PropOp40
 70
     1
102
RTVSPost2010Prop41ColorIndex
 90
       18
102
RTVSPost2010Prop41ColorRGB
 90
        0
102
RTVSPost2010PropOp41
 70
     1
102
RTVSPost2010Prop42
 90
       50
102
RTVSPost2010PropOp42
 70
     1
102
RTVSPost2010Prop43
 90
        3
102
RTVSPost2010PropOp43
 70
     1
102
RTVSPost2010Prop44ColorIndex
 90
        5
102
RTVSPost2010Prop44ColorRGB
 90
      255
102
RTVSPost2010PropOp44
 70
     1
102
RTVSPost2010Prop45
280
     0
102
RTVSPost2010PropOp45
 70
     1
102
RTVSPost2010Prop46
 90
       50
102
RTVSPost2010PropOp46
 70
     1
102
RTVSPost2010Prop47
 90
       50
102
RTVSPost2010PropOp47
 70
     1
102
RTVSPost2010Prop48
 90
       50
102
RTVSPost2010PropOp48
 70
     1
102
RTVSPost2010Prop49
280
     0
102
RTVSPost2010PropOp49
 70
     1
102
RTVSPost2010Prop50
 90
       50
102
RTVSPost2010PropOp50
 70
     1
102
RTVSPost2010Prop51ColorIndex
 90
      256
102
RTVSPost2010Prop51ColorRGB
 90
-16777216
102
RTVSPost2010PropOp51
 70
     0
102
RTVSPost2010Prop52
140
1.0
102
RTVSPost2010PropOp52
 70
     0
102
RTVSPost2010Prop53
 90
        2
102
RTVSPost2010PropOp53
 70
     1
102
RTVSPost2010Prop54
  1
strokes_ogs.tif
102
RTVSPost2010PropOp54
 70
     1
102
RTVSPost2010Prop55
280
     0
102
RTVSPost2010PropOp55
 70
     1
102
RTVSPost2010Prop56
140
1.0
102
RTVSPost2010PropOp56
 70
     1
102
RTVSPost2010Prop57
140
1.0
102
RTVSPost2010PropOp57
 70
     1
102
RTVSPropertyOp0
 70
     1
102
RTVSPropertyOp1
 70
     1
102
RTVSPropertyOp2
 70
     1
102
RTVSPropertyOp3
 70
     1
102
RTVSPropertyOp4
 70
     1
102
RTVSPropertyOp5
 70
     1
102
RTVSPropertyOp6
 70
     1
102
RTVSPropertyOp7
 70
     1
102
RTVSPropertyOp8
 70
     1
102
RTVSPropertyOp9
 70
     1
102
RTVSPropertyOp10
 70
     1
102
RTVSPropertyOp11
 70
     1
102
RTVSPropertyOp12
 70
     1
102
RTVSPropertyOp13
 70
     1
102
RTVSPropertyOp14
 70
     1
102
RTVSPropertyOp15
 70
     1
102
RTVSPropertyOp16
 70
     1
102
RTVSPropertyOp17
 70
     1
102
RTVSPropertyOp18
 70
     1
102
RTVSPropertyOp19
 70
     1
102
RTVSPropertyOp20
 70
     1
102
RTVSPropertyOp21
 70
     1
102
RTVSPropertyOp22
 70
     1
102
RTVSPropertyOp23
 70
     1
102
RTVSPropertyOp24
 70
     1
102
RTVSPropertyOp25
 70
     1
102
RTVSPropertyOp26
 70
     1
102
RTVSPropertyOp27
 70
     1
102
RTVSPropertyOp28
 70
     1
102
RTVSPropertyOp29
 70
     1
102
RTVSPropertyOp30
 70
     1
102
RTVSPropertyOp31
 70
     1
102
RTVSPropertyOp32
 70
     1
102
RTVSPropertyOp33
 70
     1
102
RTVSPropertyOp34
 70
     1
102
RTVSPropertyOp35
 70
     1
102
RTVSPropertyOp36
 70
     1
102
RTVSPropertyOp37
 70
     1
102
RTVSPropertyOp38
 70
     1
102
RTVSPropertyOp39
 70
     1
102
RTVSPropertyOp40
 70
     1
102
RTVSPropertyOp41
 70
     1
102
RTVSPropertyOp42
 70
     1
102
RTVSPropertyOp43
 70
     1
102
RTVSPropertyOp44
 70
     1
102
RTVSPropertyOp45
 70
     1
102
RTVSPropertyOp46
 70
     1
102
RTVSPropertyOp47
 70
     1
102
RTVSPropertyOp48
 70
     1
102
RTVSPropertyOp49
 70
     1
102
RTVSPropertyOp50
 70
     1
102
RTVSPropertyOp51
 70
     0
102
RTVSPropertyOp52
 70
     0
102
RTVSPropertyOp53
 70
     1
102
RTVSPropertyOp54
 70
     1
102
RTVSPropertyOp55
 70
     1
102
RTVSPropertyOp56
 70
     1
102
RTVSPropertyOp57
 70
     1
102
RTVSPropertyOp58
 70
     1
102
RTVSPropertyOp59
 70
     1
102
RTVSPropertyOp60
 70
     1
102
RTVSPropertyOp61
 70
     1
102
RTVSPropertyOp62
 70
     1
  0
XRECORD
  5
13AC
102
{ACAD_REACTORS
330
13AB
102
}
330
13AB
100
AcDbXrecord
280
     1
102
RTVSPost2010Prop28
280
     0
102
RTVSPost2010PropOp28
 70
     1
102
RTVSPost2010Prop29
280
     1
102
RTVSPost2010PropOp29
 70
     1
102
RTVSPost2010Prop30
280
     1
102
RTVSPost2010PropOp30
 70
     1
102
RTVSPost2010Prop31
280
     0
102
RTVSPost2010PropOp31
 70
     1
102
RTVSPost2010Prop32
280
     0
102
RTVSPost2010PropOp32
 70
     1
102
RTVSPost2010Prop33
280
     0
102
RTVSPost2010PropOp33
 70
     1
102
RTVSPost2010Prop34
280
     0
102
RTVSPost2010PropOp34
 70
     1
102
RTVSPost2010Prop35
280
     0
102
RTVSPost2010PropOp35
 70
     1
102
RTVSPost2010Prop36
280
     0
102
RTVSPost2010PropOp36
 70
     1
102
RTVSPost2010Prop37
 90
       50
102
RTVSPost2010PropOp37
 70
     1
102
RTVSPost2010Prop38
140
0.0
102
RTVSPost2010PropOp38
 70
     1
102
RTVSPost2010Prop39
140
1.0
102
RTVSPost2010PropOp39
 70
     1
102
RTVSPost2010Prop40
 90
        0
102
RTVSPost2010PropOp40
 70
     1
102
RTVSPost2010Prop41ColorIndex
 90
       18
102
RTVSPost2010Prop41ColorRGB
 90
        0
102
RTVSPost2010PropOp41
 70
     1
102
RTVSPost2010Prop42
 90
       50
102
RTVSPost2010PropOp42
 70
     1
102
RTVSPost2010Prop43
 90
        3
102
RTVSPost2010PropOp43
 70
     1
102
RTVSPost2010Prop44ColorIndex
 90
        5
102
RTVSPost2010Prop44ColorRGB
 90
      255
102
RTVSPost2010PropOp44
 70
     1
102
RTVSPost2010Prop45
280
     0
102
RTVSPost2010PropOp45
 70
     1
102
RTVSPost2010Prop46
 90
       50
102
RTVSPost2010PropOp46
 70
     1
102
RTVSPost2010Prop47
 90
       50
102
RTVSPost2010PropOp47
 70
     1
102
RTVSPost2010Prop48
 90
       50
102
RTVSPost2010PropOp48
 70
     1
102
RTVSPost2010Prop49
280
     0
102
RTVSPost2010PropOp49
 70
     1
102
RTVSPost2010Prop50
 90
       50
102
RTVSPost2010PropOp50
 70
     1
102
RTVSPost2010Prop51ColorIndex
 90
      256
102
RTVSPost2010Prop51ColorRGB
 90
-16777216
102
RTVSPost2010PropOp51
 70
     0
102
RTVSPost2010Prop52
140
1.0
102
RTVSPost2010PropOp52
 70
     0
102
RTVSPost2010Prop53
 90
        2
102
RTVSPost2010PropOp53
 70
     1
102
RTVSPost2010Prop54
  1
strokes_ogs.tif
102
RTVSPost2010PropOp54
 70
     1
102
RTVSPost2010Prop55
280
     0
102
RTVSPost2010PropOp55
 70
     1
102
RTVSPost2010Prop56
140
1.0
102
RTVSPost2010PropOp56
 70
     1
102
RTVSPost2010Prop57
140
1.0
102
RTVSPost2010PropOp57
 70
     1
102
RTVSPropertyOp0
 70
     1
102
RTVSPropertyOp1
 70
     1
102
RTVSPropertyOp2
 70
     1
102
RTVSPropertyOp3
 70
     1
102
RTVSPropertyOp4
 70
     1
102
RTVSPropertyOp5
 70
     1
102
RTVSPropertyOp6
 70
     1
102
RTVSPropertyOp7
 70
     1
102
RTVSPropertyOp8
 70
     1
102
RTVSPropertyOp9
 70
     1
102
RTVSPropertyOp10
 70
     1
102
RTVSPropertyOp11
 70
     1
102
RTVSPropertyOp12
 70
     1
102
RTVSPropertyOp13
 70
     1
102
RTVSPropertyOp14
 70
     1
102
RTVSPropertyOp15
 70
     1
102
RTVSPropertyOp16
 70
     1
102
RTVSPropertyOp17
 70
     1
102
RTVSPropertyOp18
 70
     1
102
RTVSPropertyOp19
 70
     1
102
RTVSPropertyOp20
 70
     1
102
RTVSPropertyOp21
 70
     1
102
RTVSPropertyOp22
 70
     1
102
RTVSPropertyOp23
 70
     1
102
RTVSPropertyOp24
 70
     1
102
RTVSPropertyOp25
 70
     1
102
RTVSPropertyOp26
 70
     1
102
RTVSPropertyOp27
 70
     1
102
RTVSPropertyOp28
 70
     1
102
RTVSPropertyOp29
 70
     1
102
RTVSPropertyOp30
 70
     1
102
RTVSPropertyOp31
 70
     1
102
RTVSPropertyOp32
 70
     1
102
RTVSPropertyOp33
 70
     1
102
RTVSPropertyOp34
 70
     1
102
RTVSPropertyOp35
 70
     1
102
RTVSPropertyOp36
 70
     1
102
RTVSPropertyOp37
 70
     1
102
RTVSPropertyOp38
 70
     1
102
RTVSPropertyOp39
 70
     1
102
RTVSPropertyOp40
 70
     1
102
RTVSPropertyOp41
 70
     1
102
RTVSPropertyOp42
 70
     1
102
RTVSPropertyOp43
 70
     1
102
RTVSPropertyOp44
 70
     1
102
RTVSPropertyOp45
 70
     1
102
RTVSPropertyOp46
 70
     1
102
RTVSPropertyOp47
 70
     1
102
RTVSPropertyOp48
 70
     1
102
RTVSPropertyOp49
 70
     1
102
RTVSPropertyOp50
 70
     1
102
RTVSPropertyOp51
 70
     0
102
RTVSPropertyOp52
 70
     0
102
RTVSPropertyOp53
 70
     1
102
RTVSPropertyOp54
 70
     1
102
RTVSPropertyOp55
 70
     1
102
RTVSPropertyOp56
 70
     1
102
RTVSPropertyOp57
 70
     1
102
RTVSPropertyOp58
 70
     1
102
RTVSPropertyOp59
 70
     1
102
RTVSPropertyOp60
 70
     1
102
RTVSPropertyOp61
 70
     1
102
RTVSPropertyOp62
 70
     1
  0
XRECORD
  5
13BA
102
{ACAD_REACTORS
330
13B9
102
}
330
13B9
100
AcDbXrecord
280
     1
102
RTVSPost2010Prop28
280
     0
102
RTVSPost2010PropOp28
 70
     1
102
RTVSPost2010Prop29
280
     1
102
RTVSPost2010PropOp29
 70
     1
102
RTVSPost2010Prop30
280
     1
102
RTVSPost2010PropOp30
 70
     1
102
RTVSPost2010Prop31
280
     0
102
RTVSPost2010PropOp31
 70
     1
102
RTVSPost2010Prop32
280
     0
102
RTVSPost2010PropOp32
 70
     1
102
RTVSPost2010Prop33
280
     0
102
RTVSPost2010PropOp33
 70
     1
102
RTVSPost2010Prop34
280
     0
102
RTVSPost2010PropOp34
 70
     1
102
RTVSPost2010Prop35
280
     0
102
RTVSPost2010PropOp35
 70
     1
102
RTVSPost2010Prop36
280
     0
102
RTVSPost2010PropOp36
 70
     1
102
RTVSPost2010Prop37
 90
       50
102
RTVSPost2010PropOp37
 70
     1
102
RTVSPost2010Prop38
140
0.0
102
RTVSPost2010PropOp38
 70
     1
102
RTVSPost2010Prop39
140
1.0
102
RTVSPost2010PropOp39
 70
     1
102
RTVSPost2010Prop40
 90
        0
102
RTVSPost2010PropOp40
 70
     1
102
RTVSPost2010Prop41ColorIndex
 90
       18
102
RTVSPost2010Prop41ColorRGB
 90
        0
102
RTVSPost2010PropOp41
 70
     1
102
RTVSPost2010Prop42
 90
       50
102
RTVSPost2010PropOp42
 70
     1
102
RTVSPost2010Prop43
 90
        3
102
RTVSPost2010PropOp43
 70
     1
102
RTVSPost2010Prop44ColorIndex
 90
        5
102
RTVSPost2010Prop44ColorRGB
 90
      255
102
RTVSPost2010PropOp44
 70
     1
102
RTVSPost2010Prop45
280
     0
102
RTVSPost2010PropOp45
 70
     1
102
RTVSPost2010Prop46
 90
       50
102
RTVSPost2010PropOp46
 70
     1
102
RTVSPost2010Prop47
 90
       50
102
RTVSPost2010PropOp47
 70
     1
102
RTVSPost2010Prop48
 90
       50
102
RTVSPost2010PropOp48
 70
     1
102
RTVSPost2010Prop49
280
     0
102
RTVSPost2010PropOp49
 70
     1
102
RTVSPost2010Prop50
 90
       50
102
RTVSPost2010PropOp50
 70
     1
102
RTVSPost2010Prop51ColorIndex
 90
      256
102
RTVSPost2010Prop51ColorRGB
 90
-16777216
102
RTVSPost2010PropOp51
 70
     0
102
RTVSPost2010Prop52
140
1.0
102
RTVSPost2010PropOp52
 70
     0
102
RTVSPost2010Prop53
 90
        2
102
RTVSPost2010PropOp53
 70
     1
102
RTVSPost2010Prop54
  1
strokes_ogs.tif
102
RTVSPost2010PropOp54
 70
     1
102
RTVSPost2010Prop55
280
     0
102
RTVSPost2010PropOp55
 70
     1
102
RTVSPost2010Prop56
140
1.0
102
RTVSPost2010PropOp56
 70
     1
102
RTVSPost2010Prop57
140
1.0
102
RTVSPost2010PropOp57
 70
     1
102
RTVSPropertyOp0
 70
     1
102
RTVSPropertyOp1
 70
     1
102
RTVSPropertyOp2
 70
     1
102
RTVSPropertyOp3
 70
     1
102
RTVSPropertyOp4
 70
     1
102
RTVSPropertyOp5
 70
     1
102
RTVSPropertyOp6
 70
     1
102
RTVSPropertyOp7
 70
     1
102
RTVSPropertyOp8
 70
     1
102
RTVSPropertyOp9
 70
     1
102
RTVSPropertyOp10
 70
     1
102
RTVSPropertyOp11
 70
     1
102
RTVSPropertyOp12
 70
     1
102
RTVSPropertyOp13
 70
     1
102
RTVSPropertyOp14
 70
     1
102
RTVSPropertyOp15
 70
     1
102
RTVSPropertyOp16
 70
     1
102
RTVSPropertyOp17
 70
     1
102
RTVSPropertyOp18
 70
     1
102
RTVSPropertyOp19
 70
     1
102
RTVSPropertyOp20
 70
     1
102
RTVSPropertyOp21
 70
     1
102
RTVSPropertyOp22
 70
     1
102
RTVSPropertyOp23
 70
     1
102
RTVSPropertyOp24
 70
     1
102
RTVSPropertyOp25
 70
     1
102
RTVSPropertyOp26
 70
     1
102
RTVSPropertyOp27
 70
     1
102
RTVSPropertyOp28
 70
     1
102
RTVSPropertyOp29
 70
     1
102
RTVSPropertyOp30
 70
     1
102
RTVSPropertyOp31
 70
     1
102
RTVSPropertyOp32
 70
     1
102
RTVSPropertyOp33
 70
     1
102
RTVSPropertyOp34
 70
     1
102
RTVSPropertyOp35
 70
     1
102
RTVSPropertyOp36
 70
     1
102
RTVSPropertyOp37
 70
     1
102
RTVSPropertyOp38
 70
     1
102
RTVSPropertyOp39
 70
     1
102
RTVSPropertyOp40
 70
     1
102
RTVSPropertyOp41
 70
     1
102
RTVSPropertyOp42
 70
     1
102
RTVSPropertyOp43
 70
     1
102
RTVSPropertyOp44
 70
     1
102
RTVSPropertyOp45
 70
     1
102
RTVSPropertyOp46
 70
     1
102
RTVSPropertyOp47
 70
     1
102
RTVSPropertyOp48
 70
     1
102
RTVSPropertyOp49
 70
     1
102
RTVSPropertyOp50
 70
     1
102
RTVSPropertyOp51
 70
     0
102
RTVSPropertyOp52
 70
     0
102
RTVSPropertyOp53
 70
     1
102
RTVSPropertyOp54
 70
     1
102
RTVSPropertyOp55
 70
     1
102
RTVSPropertyOp56
 70
     1
102
RTVSPropertyOp57
 70
     1
102
RTVSPropertyOp58
 70
     1
102
RTVSPropertyOp59
 70
     1
102
RTVSPropertyOp60
 70
     1
102
RTVSPropertyOp61
 70
     1
102
RTVSPropertyOp62
 70
     1
  0
XRECORD
  5
13C2
102
{ACAD_REACTORS
330
13C1
102
}
330
13C1
100
AcDbXrecord
280
     1
102
RTVSPost2010Prop28
280
     0
102
RTVSPost2010PropOp28
 70
     1
102
RTVSPost2010Prop29
280
     1
102
RTVSPost2010PropOp29
 70
     1
102
RTVSPost2010Prop30
280
     1
102
RTVSPost2010PropOp30
 70
     1
102
RTVSPost2010Prop31
280
     0
102
RTVSPost2010PropOp31
 70
     1
102
RTVSPost2010Prop32
280
     0
102
RTVSPost2010PropOp32
 70
     1
102
RTVSPost2010Prop33
280
     0
102
RTVSPost2010PropOp33
 70
     1
102
RTVSPost2010Prop34
280
     0
102
RTVSPost2010PropOp34
 70
     1
102
RTVSPost2010Prop35
280
     0
102
RTVSPost2010PropOp35
 70
     1
102
RTVSPost2010Prop36
280
     0
102
RTVSPost2010PropOp36
 70
     1
102
RTVSPost2010Prop37
 90
       50
102
RTVSPost2010PropOp37
 70
     1
102
RTVSPost2010Prop38
140
0.0
102
RTVSPost2010PropOp38
 70
     1
102
RTVSPost2010Prop39
140
1.0
102
RTVSPost2010PropOp39
 70
     1
102
RTVSPost2010Prop40
 90
        0
102
RTVSPost2010PropOp40
 70
     1
102
RTVSPost2010Prop41ColorIndex
 90
       18
102
RTVSPost2010Prop41ColorRGB
 90
        0
102
RTVSPost2010PropOp41
 70
     1
102
RTVSPost2010Prop42
 90
       50
102
RTVSPost2010PropOp42
 70
     1
102
RTVSPost2010Prop43
 90
        3
102
RTVSPost2010PropOp43
 70
     1
102
RTVSPost2010Prop44ColorIndex
 90
        5
102
RTVSPost2010Prop44ColorRGB
 90
      255
102
RTVSPost2010PropOp44
 70
     1
102
RTVSPost2010Prop45
280
     0
102
RTVSPost2010PropOp45
 70
     1
102
RTVSPost2010Prop46
 90
       50
102
RTVSPost2010PropOp46
 70
     1
102
RTVSPost2010Prop47
 90
       50
102
RTVSPost2010PropOp47
 70
     1
102
RTVSPost2010Prop48
 90
       50
102
RTVSPost2010PropOp48
 70
     1
102
RTVSPost2010Prop49
280
     0
102
RTVSPost2010PropOp49
 70
     1
102
RTVSPost2010Prop50
 90
       50
102
RTVSPost2010PropOp50
 70
     1
102
RTVSPost2010Prop51ColorIndex
 90
      256
102
RTVSPost2010Prop51ColorRGB
 90
-16777216
102
RTVSPost2010PropOp51
 70
     0
102
RTVSPost2010Prop52
140
1.0
102
RTVSPost2010PropOp52
 70
     0
102
RTVSPost2010Prop53
 90
        2
102
RTVSPost2010PropOp53
 70
     1
102
RTVSPost2010Prop54
  1
strokes_ogs.tif
102
RTVSPost2010PropOp54
 70
     1
102
RTVSPost2010Prop55
280
     0
102
RTVSPost2010PropOp55
 70
     1
102
RTVSPost2010Prop56
140
1.0
102
RTVSPost2010PropOp56
 70
     1
102
RTVSPost2010Prop57
140
1.0
102
RTVSPost2010PropOp57
 70
     1
102
RTVSPropertyOp0
 70
     1
102
RTVSPropertyOp1
 70
     1
102
RTVSPropertyOp2
 70
     1
102
RTVSPropertyOp3
 70
     1
102
RTVSPropertyOp4
 70
     1
102
RTVSPropertyOp5
 70
     1
102
RTVSPropertyOp6
 70
     1
102
RTVSPropertyOp7
 70
     1
102
RTVSPropertyOp8
 70
     1
102
RTVSPropertyOp9
 70
     1
102
RTVSPropertyOp10
 70
     1
102
RTVSPropertyOp11
 70
     1
102
RTVSPropertyOp12
 70
     1
102
RTVSPropertyOp13
 70
     1
102
RTVSPropertyOp14
 70
     1
102
RTVSPropertyOp15
 70
     1
102
RTVSPropertyOp16
 70
     1
102
RTVSPropertyOp17
 70
     1
102
RTVSPropertyOp18
 70
     1
102
RTVSPropertyOp19
 70
     1
102
RTVSPropertyOp20
 70
     1
102
RTVSPropertyOp21
 70
     1
102
RTVSPropertyOp22
 70
     1
102
RTVSPropertyOp23
 70
     1
102
RTVSPropertyOp24
 70
     1
102
RTVSPropertyOp25
 70
     1
102
RTVSPropertyOp26
 70
     1
102
RTVSPropertyOp27
 70
     1
102
RTVSPropertyOp28
 70
     1
102
RTVSPropertyOp29
 70
     1
102
RTVSPropertyOp30
 70
     1
102
RTVSPropertyOp31
 70
     1
102
RTVSPropertyOp32
 70
     1
102
RTVSPropertyOp33
 70
     1
102
RTVSPropertyOp34
 70
     1
102
RTVSPropertyOp35
 70
     1
102
RTVSPropertyOp36
 70
     1
102
RTVSPropertyOp37
 70
     1
102
RTVSPropertyOp38
 70
     1
102
RTVSPropertyOp39
 70
     1
102
RTVSPropertyOp40
 70
     1
102
RTVSPropertyOp41
 70
     1
102
RTVSPropertyOp42
 70
     1
102
RTVSPropertyOp43
 70
     1
102
RTVSPropertyOp44
 70
     1
102
RTVSPropertyOp45
 70
     1
102
RTVSPropertyOp46
 70
     1
102
RTVSPropertyOp47
 70
     1
102
RTVSPropertyOp48
 70
     1
102
RTVSPropertyOp49
 70
     1
102
RTVSPropertyOp50
 70
     1
102
RTVSPropertyOp51
 70
     0
102
RTVSPropertyOp52
 70
     0
102
RTVSPropertyOp53
 70
     1
102
RTVSPropertyOp54
 70
     1
102
RTVSPropertyOp55
 70
     1
102
RTVSPropertyOp56
 70
     1
102
RTVSPropertyOp57
 70
     1
102
RTVSPropertyOp58
 70
     1
102
RTVSPropertyOp59
 70
     1
102
RTVSPropertyOp60
 70
     1
102
RTVSPropertyOp61
 70
     1
102
RTVSPropertyOp62
 70
     1
  0
XRECORD
  5
13B4
102
{ACAD_REACTORS
330
13B3
102
}
330
13B3
100
AcDbXrecord
280
     1
102
RTVSPost2010Prop28
280
     0
102
RTVSPost2010PropOp28
 70
     1
102
RTVSPost2010Prop29
280
     1
102
RTVSPost2010PropOp29
 70
     1
102
RTVSPost2010Prop30
280
     1
102
RTVSPost2010PropOp30
 70
     1
102
RTVSPost2010Prop31
280
     0
102
RTVSPost2010PropOp31
 70
     1
102
RTVSPost2010Prop32
280
     0
102
RTVSPost2010PropOp32
 70
     1
102
RTVSPost2010Prop33
280
     0
102
RTVSPost2010PropOp33
 70
     1
102
RTVSPost2010Prop34
280
     0
102
RTVSPost2010PropOp34
 70
     1
102
RTVSPost2010Prop35
280
     0
102
RTVSPost2010PropOp35
 70
     1
102
RTVSPost2010Prop36
280
     0
102
RTVSPost2010PropOp36
 70
     1
102
RTVSPost2010Prop37
 90
       50
102
RTVSPost2010PropOp37
 70
     1
102
RTVSPost2010Prop38
140
0.0
102
RTVSPost2010PropOp38
 70
     1
102
RTVSPost2010Prop39
140
1.0
102
RTVSPost2010PropOp39
 70
     1
102
RTVSPost2010Prop40
 90
        0
102
RTVSPost2010PropOp40
 70
     1
102
RTVSPost2010Prop41ColorIndex
 90
       18
102
RTVSPost2010Prop41ColorRGB
 90
        0
102
RTVSPost2010PropOp41
 70
     1
102
RTVSPost2010Prop42
 90
       50
102
RTVSPost2010PropOp42
 70
     1
102
RTVSPost2010Prop43
 90
        3
102
RTVSPost2010PropOp43
 70
     1
102
RTVSPost2010Prop44ColorIndex
 90
        5
102
RTVSPost2010Prop44ColorRGB
 90
      255
102
RTVSPost2010PropOp44
 70
     1
102
RTVSPost2010Prop45
280
     0
102
RTVSPost2010PropOp45
 70
     1
102
RTVSPost2010Prop46
 90
       50
102
RTVSPost2010PropOp46
 70
     1
102
RTVSPost2010Prop47
 90
       50
102
RTVSPost2010PropOp47
 70
     1
102
RTVSPost2010Prop48
 90
       50
102
RTVSPost2010PropOp48
 70
     1
102
RTVSPost2010Prop49
280
     0
102
RTVSPost2010PropOp49
 70
     1
102
RTVSPost2010Prop50
 90
       50
102
RTVSPost2010PropOp50
 70
     1
102
RTVSPost2010Prop51ColorIndex
 90
      256
102
RTVSPost2010Prop51ColorRGB
 90
-16777216
102
RTVSPost2010PropOp51
 70
     0
102
RTVSPost2010Prop52
140
1.0
102
RTVSPost2010PropOp52
 70
     0
102
RTVSPost2010Prop53
 90
        2
102
RTVSPost2010PropOp53
 70
     1
102
RTVSPost2010Prop54
  1
strokes_ogs.tif
102
RTVSPost2010PropOp54
 70
     1
102
RTVSPost2010Prop55
280
     0
102
RTVSPost2010PropOp55
 70
     1
102
RTVSPost2010Prop56
140
1.0
102
RTVSPost2010PropOp56
 70
     1
102
RTVSPost2010Prop57
140
1.0
102
RTVSPost2010PropOp57
 70
     1
102
RTVSPropertyOp0
 70
     1
102
RTVSPropertyOp1
 70
     1
102
RTVSPropertyOp2
 70
     1
102
RTVSPropertyOp3
 70
     1
102
RTVSPropertyOp4
 70
     1
102
RTVSPropertyOp5
 70
     1
102
RTVSPropertyOp6
 70
     1
102
RTVSPropertyOp7
 70
     1
102
RTVSPropertyOp8
 70
     1
102
RTVSPropertyOp9
 70
     1
102
RTVSPropertyOp10
 70
     1
102
RTVSPropertyOp11
 70
     1
102
RTVSPropertyOp12
 70
     1
102
RTVSPropertyOp13
 70
     1
102
RTVSPropertyOp14
 70
     1
102
RTVSPropertyOp15
 70
     1
102
RTVSPropertyOp16
 70
     1
102
RTVSPropertyOp17
 70
     1
102
RTVSPropertyOp18
 70
     1
102
RTVSPropertyOp19
 70
     1
102
RTVSPropertyOp20
 70
     1
102
RTVSPropertyOp21
 70
     1
102
RTVSPropertyOp22
 70
     1
102
RTVSPropertyOp23
 70
     1
102
RTVSPropertyOp24
 70
     1
102
RTVSPropertyOp25
 70
     1
102
RTVSPropertyOp26
 70
     1
102
RTVSPropertyOp27
 70
     1
102
RTVSPropertyOp28
 70
     1
102
RTVSPropertyOp29
 70
     1
102
RTVSPropertyOp30
 70
     1
102
RTVSPropertyOp31
 70
     1
102
RTVSPropertyOp32
 70
     1
102
RTVSPropertyOp33
 70
     1
102
RTVSPropertyOp34
 70
     1
102
RTVSPropertyOp35
 70
     1
102
RTVSPropertyOp36
 70
     1
102
RTVSPropertyOp37
 70
     1
102
RTVSPropertyOp38
 70
     1
102
RTVSPropertyOp39
 70
     1
102
RTVSPropertyOp40
 70
     1
102
RTVSPropertyOp41
 70
     1
102
RTVSPropertyOp42
 70
     1
102
RTVSPropertyOp43
 70
     1
102
RTVSPropertyOp44
 70
     1
102
RTVSPropertyOp45
 70
     1
102
RTVSPropertyOp46
 70
     1
102
RTVSPropertyOp47
 70
     1
102
RTVSPropertyOp48
 70
     1
102
RTVSPropertyOp49
 70
     1
102
RTVSPropertyOp50
 70
     1
102
RTVSPropertyOp51
 70
     0
102
RTVSPropertyOp52
 70
     0
102
RTVSPropertyOp53
 70
     1
102
RTVSPropertyOp54
 70
     1
102
RTVSPropertyOp55
 70
     1
102
RTVSPropertyOp56
 70
     1
102
RTVSPropertyOp57
 70
     1
102
RTVSPropertyOp58
 70
     1
102
RTVSPropertyOp59
 70
     1
102
RTVSPropertyOp60
 70
     1
102
RTVSPropertyOp61
 70
     1
102
RTVSPropertyOp62
 70
     1
  0
XRECORD
  5
13B8
102
{ACAD_REACTORS
330
13B7
102
}
330
13B7
100
AcDbXrecord
280
     1
102
RTVSPost2010Prop28
280
     0
102
RTVSPost2010PropOp28
 70
     1
102
RTVSPost2010Prop29
280
     1
102
RTVSPost2010PropOp29
 70
     1
102
RTVSPost2010Prop30
280
     1
102
RTVSPost2010PropOp30
 70
     1
102
RTVSPost2010Prop31
280
     0
102
RTVSPost2010PropOp31
 70
     1
102
RTVSPost2010Prop32
280
     0
102
RTVSPost2010PropOp32
 70
     1
102
RTVSPost2010Prop33
280
     0
102
RTVSPost2010PropOp33
 70
     1
102
RTVSPost2010Prop34
280
     0
102
RTVSPost2010PropOp34
 70
     1
102
RTVSPost2010Prop35
280
     0
102
RTVSPost2010PropOp35
 70
     1
102
RTVSPost2010Prop36
280
     0
102
RTVSPost2010PropOp36
 70
     1
102
RTVSPost2010Prop37
 90
       50
102
RTVSPost2010PropOp37
 70
     1
102
RTVSPost2010Prop38
140
0.0
102
RTVSPost2010PropOp38
 70
     1
102
RTVSPost2010Prop39
140
1.0
102
RTVSPost2010PropOp39
 70
     1
102
RTVSPost2010Prop40
 90
        0
102
RTVSPost2010PropOp40
 70
     1
102
RTVSPost2010Prop41ColorIndex
 90
       18
102
RTVSPost2010Prop41ColorRGB
 90
        0
102
RTVSPost2010PropOp41
 70
     1
102
RTVSPost2010Prop42
 90
       50
102
RTVSPost2010PropOp42
 70
     1
102
RTVSPost2010Prop43
 90
        3
102
RTVSPost2010PropOp43
 70
     1
102
RTVSPost2010Prop44ColorIndex
 90
        5
102
RTVSPost2010Prop44ColorRGB
 90
      255
102
RTVSPost2010PropOp44
 70
     1
102
RTVSPost2010Prop45
280
     0
102
RTVSPost2010PropOp45
 70
     1
102
RTVSPost2010Prop46
 90
       50
102
RTVSPost2010PropOp46
 70
     1
102
RTVSPost2010Prop47
 90
       50
102
RTVSPost2010PropOp47
 70
     1
102
RTVSPost2010Prop48
 90
       50
102
RTVSPost2010PropOp48
 70
     1
102
RTVSPost2010Prop49
280
     0
102
RTVSPost2010PropOp49
 70
     1
102
RTVSPost2010Prop50
 90
       50
102
RTVSPost2010PropOp50
 70
     1
102
RTVSPost2010Prop51ColorIndex
 90
      256
102
RTVSPost2010Prop51ColorRGB
 90
-16777216
102
RTVSPost2010PropOp51
 70
     0
102
RTVSPost2010Prop52
140
1.0
102
RTVSPost2010PropOp52
 70
     0
102
RTVSPost2010Prop53
 90
        2
102
RTVSPost2010PropOp53
 70
     1
102
RTVSPost2010Prop54
  1
strokes_ogs.tif
102
RTVSPost2010PropOp54
 70
     1
102
RTVSPost2010Prop55
280
     0
102
RTVSPost2010PropOp55
 70
     1
102
RTVSPost2010Prop56
140
1.0
102
RTVSPost2010PropOp56
 70
     1
102
RTVSPost2010Prop57
140
1.0
102
RTVSPost2010PropOp57
 70
     1
102
RTVSPropertyOp0
 70
     1
102
RTVSPropertyOp1
 70
     1
102
RTVSPropertyOp2
 70
     1
102
RTVSPropertyOp3
 70
     1
102
RTVSPropertyOp4
 70
     1
102
RTVSPropertyOp5
 70
     1
102
RTVSPropertyOp6
 70
     1
102
RTVSPropertyOp7
 70
     1
102
RTVSPropertyOp8
 70
     1
102
RTVSPropertyOp9
 70
     1
102
RTVSPropertyOp10
 70
     1
102
RTVSPropertyOp11
 70
     1
102
RTVSPropertyOp12
 70
     1
102
RTVSPropertyOp13
 70
     1
102
RTVSPropertyOp14
 70
     1
102
RTVSPropertyOp15
 70
     1
102
RTVSPropertyOp16
 70
     1
102
RTVSPropertyOp17
 70
     1
102
RTVSPropertyOp18
 70
     1
102
RTVSPropertyOp19
 70
     1
102
RTVSPropertyOp20
 70
     1
102
RTVSPropertyOp21
 70
     1
102
RTVSPropertyOp22
 70
     1
102
RTVSPropertyOp23
 70
     1
102
RTVSPropertyOp24
 70
     1
102
RTVSPropertyOp25
 70
     1
102
RTVSPropertyOp26
 70
     1
102
RTVSPropertyOp27
 70
     1
102
RTVSPropertyOp28
 70
     1
102
RTVSPropertyOp29
 70
     1
102
RTVSPropertyOp30
 70
     1
102
RTVSPropertyOp31
 70
     1
102
RTVSPropertyOp32
 70
     1
102
RTVSPropertyOp33
 70
     1
102
RTVSPropertyOp34
 70
     1
102
RTVSPropertyOp35
 70
     1
102
RTVSPropertyOp36
 70
     1
102
RTVSPropertyOp37
 70
     1
102
RTVSPropertyOp38
 70
     1
102
RTVSPropertyOp39
 70
     1
102
RTVSPropertyOp40
 70
     1
102
RTVSPropertyOp41
 70
     1
102
RTVSPropertyOp42
 70
     1
102
RTVSPropertyOp43
 70
     1
102
RTVSPropertyOp44
 70
     1
102
RTVSPropertyOp45
 70
     1
102
RTVSPropertyOp46
 70
     1
102
RTVSPropertyOp47
 70
     1
102
RTVSPropertyOp48
 70
     1
102
RTVSPropertyOp49
 70
     1
102
RTVSPropertyOp50
 70
     1
102
RTVSPropertyOp51
 70
     0
102
RTVSPropertyOp52
 70
     0
102
RTVSPropertyOp53
 70
     1
102
RTVSPropertyOp54
 70
     1
102
RTVSPropertyOp55
 70
     1
102
RTVSPropertyOp56
 70
     1
102
RTVSPropertyOp57
 70
     1
102
RTVSPropertyOp58
 70
     1
102
RTVSPropertyOp59
 70
     1
102
RTVSPropertyOp60
 70
     1
102
RTVSPropertyOp61
 70
     1
102
RTVSPropertyOp62
 70
     1
  0
XRECORD
  5
13D1
102
{ACAD_REACTORS
330
13D0
102
}
330
13D0
100
AcDbXrecord
280
     1
102
RTVSPost2010Prop28
280
     0
102
RTVSPost2010PropOp28
 70
     1
102
RTVSPost2010Prop29
280
     1
102
RTVSPost2010PropOp29
 70
     1
102
RTVSPost2010Prop30
280
     1
102
RTVSPost2010PropOp30
 70
     1
102
RTVSPost2010Prop31
280
     0
102
RTVSPost2010PropOp31
 70
     1
102
RTVSPost2010Prop32
280
     0
102
RTVSPost2010PropOp32
 70
     1
102
RTVSPost2010Prop33
280
     0
102
RTVSPost2010PropOp33
 70
     1
102
RTVSPost2010Prop34
280
     0
102
RTVSPost2010PropOp34
 70
     1
102
RTVSPost2010Prop35
280
     0
102
RTVSPost2010PropOp35
 70
     1
102
RTVSPost2010Prop36
280
     0
102
RTVSPost2010PropOp36
 70
     1
102
RTVSPost2010Prop37
 90
       50
102
RTVSPost2010PropOp37
 70
     1
102
RTVSPost2010Prop38
140
0.0
102
RTVSPost2010PropOp38
 70
     1
102
RTVSPost2010Prop39
140
1.0
102
RTVSPost2010PropOp39
 70
     1
102
RTVSPost2010Prop40
 90
        0
102
RTVSPost2010PropOp40
 70
     1
102
RTVSPost2010Prop41ColorIndex
 90
       18
102
RTVSPost2010Prop41ColorRGB
 90
        0
102
RTVSPost2010PropOp41
 70
     1
102
RTVSPost2010Prop42
 90
       50
102
RTVSPost2010PropOp42
 70
     1
102
RTVSPost2010Prop43
 90
        3
102
RTVSPost2010PropOp43
 70
     1
102
RTVSPost2010Prop44ColorIndex
 90
        5
102
RTVSPost2010Prop44ColorRGB
 90
      255
102
RTVSPost2010PropOp44
 70
     1
102
RTVSPost2010Prop45
280
     0
102
RTVSPost2010PropOp45
 70
     1
102
RTVSPost2010Prop46
 90
       50
102
RTVSPost2010PropOp46
 70
     1
102
RTVSPost2010Prop47
 90
       50
102
RTVSPost2010PropOp47
 70
     1
102
RTVSPost2010Prop48
 90
       50
102
RTVSPost2010PropOp48
 70
     1
102
RTVSPost2010Prop49
280
     0
102
RTVSPost2010PropOp49
 70
     1
102
RTVSPost2010Prop50
 90
       50
102
RTVSPost2010PropOp50
 70
     1
102
RTVSPost2010Prop51ColorIndex
 90
      256
102
RTVSPost2010Prop51ColorRGB
 90
-16777216
102
RTVSPost2010PropOp51
 70
     0
102
RTVSPost2010Prop52
140
1.0
102
RTVSPost2010PropOp52
 70
     0
102
RTVSPost2010Prop53
 90
        2
102
RTVSPost2010PropOp53
 70
     1
102
RTVSPost2010Prop54
  1
strokes_ogs.tif
102
RTVSPost2010PropOp54
 70
     1
102
RTVSPost2010Prop55
280
     0
102
RTVSPost2010PropOp55
 70
     1
102
RTVSPost2010Prop56
140
1.0
102
RTVSPost2010PropOp56
 70
     1
102
RTVSPost2010Prop57
140
1.0
102
RTVSPost2010PropOp57
 70
     1
102
RTVSPropertyOp0
 70
     0
102
RTVSPropertyOp1
 70
     0
102
RTVSPropertyOp2
 70
     0
102
RTVSPropertyOp3
 70
     0
102
RTVSPropertyOp4
 70
     0
102
RTVSPropertyOp5
 70
     0
102
RTVSPropertyOp6
 70
     0
102
RTVSPropertyOp7
 70
     0
102
RTVSPropertyOp8
 70
     0
102
RTVSPropertyOp9
 70
     0
102
RTVSPropertyOp10
 70
     0
102
RTVSPropertyOp11
 70
     0
102
RTVSPropertyOp12
 70
     0
102
RTVSPropertyOp13
 70
     0
102
RTVSPropertyOp14
 70
     2
102
RTVSPropertyOp15
 70
     0
102
RTVSPropertyOp16
 70
     0
102
RTVSPropertyOp17
 70
     0
102
RTVSPropertyOp18
 70
     0
102
RTVSPropertyOp19
 70
     0
102
RTVSPropertyOp20
 70
     0
102
RTVSPropertyOp21
 70
     0
102
RTVSPropertyOp22
 70
     0
102
RTVSPropertyOp23
 70
     0
102
RTVSPropertyOp24
 70
     0
102
RTVSPropertyOp25
 70
     0
102
RTVSPropertyOp26
 70
     0
102
RTVSPropertyOp27
 70
     0
102
RTVSPropertyOp28
 70
     1
102
RTVSPropertyOp29
 70
     1
102
RTVSPropertyOp30
 70
     1
102
RTVSPropertyOp31
 70
     1
102
RTVSPropertyOp32
 70
     1
102
RTVSPropertyOp33
 70
     1
102
RTVSPropertyOp34
 70
     1
102
RTVSPropertyOp35
 70
     1
102
RTVSPropertyOp36
 70
     1
102
RTVSPropertyOp37
 70
     1
102
RTVSPropertyOp38
 70
     1
102
RTVSPropertyOp39
 70
     1
102
RTVSPropertyOp40
 70
     1
102
RTVSPropertyOp41
 70
     1
102
RTVSPropertyOp42
 70
     1
102
RTVSPropertyOp43
 70
     1
102
RTVSPropertyOp44
 70
     1
102
RTVSPropertyOp45
 70
     1
102
RTVSPropertyOp46
 70
     1
102
RTVSPropertyOp47
 70
     1
102
RTVSPropertyOp48
 70
     1
102
RTVSPropertyOp49
 70
     1
102
RTVSPropertyOp50
 70
     1
102
RTVSPropertyOp51
 70
     0
102
RTVSPropertyOp52
 70
     0
102
RTVSPropertyOp53
 70
     1
102
RTVSPropertyOp54
 70
     1
102
RTVSPropertyOp55
 70
     1
102
RTVSPropertyOp56
 70
     1
102
RTVSPropertyOp57
 70
     1
102
RTVSPropertyOp58
 70
     1
102
RTVSPropertyOp59
 70
     1
102
RTVSPropertyOp60
 70
     1
102
RTVSPropertyOp61
 70
     1
102
RTVSPropertyOp62
 70
     1
  0
XRECORD
  5
13C0
102
{ACAD_REACTORS
330
13BF
102
}
330
13BF
100
AcDbXrecord
280
     1
102
RTVSPost2010Prop28
280
     0
102
RTVSPost2010PropOp28
 70
     1
102
RTVSPost2010Prop29
280
     1
102
RTVSPost2010PropOp29
 70
     1
102
RTVSPost2010Prop30
280
     1
102
RTVSPost2010PropOp30
 70
     1
102
RTVSPost2010Prop31
280
     0
102
RTVSPost2010PropOp31
 70
     1
102
RTVSPost2010Prop32
280
     0
102
RTVSPost2010PropOp32
 70
     1
102
RTVSPost2010Prop33
280
     0
102
RTVSPost2010PropOp33
 70
     1
102
RTVSPost2010Prop34
280
     0
102
RTVSPost2010PropOp34
 70
     1
102
RTVSPost2010Prop35
280
     0
102
RTVSPost2010PropOp35
 70
     1
102
RTVSPost2010Prop36
280
     0
102
RTVSPost2010PropOp36
 70
     1
102
RTVSPost2010Prop37
 90
       50
102
RTVSPost2010PropOp37
 70
     1
102
RTVSPost2010Prop38
140
0.0
102
RTVSPost2010PropOp38
 70
     1
102
RTVSPost2010Prop39
140
1.0
102
RTVSPost2010PropOp39
 70
     1
102
RTVSPost2010Prop40
 90
        0
102
RTVSPost2010PropOp40
 70
     1
102
RTVSPost2010Prop41ColorIndex
 90
       18
102
RTVSPost2010Prop41ColorRGB
 90
        0
102
RTVSPost2010PropOp41
 70
     1
102
RTVSPost2010Prop42
 90
       50
102
RTVSPost2010PropOp42
 70
     1
102
RTVSPost2010Prop43
 90
        3
102
RTVSPost2010PropOp43
 70
     1
102
RTVSPost2010Prop44ColorIndex
 90
        5
102
RTVSPost2010Prop44ColorRGB
 90
      255
102
RTVSPost2010PropOp44
 70
     1
102
RTVSPost2010Prop45
280
     0
102
RTVSPost2010PropOp45
 70
     1
102
RTVSPost2010Prop46
 90
       50
102
RTVSPost2010PropOp46
 70
     1
102
RTVSPost2010Prop47
 90
       50
102
RTVSPost2010PropOp47
 70
     1
102
RTVSPost2010Prop48
 90
       50
102
RTVSPost2010PropOp48
 70
     1
102
RTVSPost2010Prop49
280
     0
102
RTVSPost2010PropOp49
 70
     1
102
RTVSPost2010Prop50
 90
       50
102
RTVSPost2010PropOp50
 70
     1
102
RTVSPost2010Prop51ColorIndex
 90
      256
102
RTVSPost2010Prop51ColorRGB
 90
-16777216
102
RTVSPost2010PropOp51
 70
     0
102
RTVSPost2010Prop52
140
1.0
102
RTVSPost2010PropOp52
 70
     0
102
RTVSPost2010Prop53
 90
        2
102
RTVSPost2010PropOp53
 70
     1
102
RTVSPost2010Prop54
  1
strokes_ogs.tif
102
RTVSPost2010PropOp54
 70
     1
102
RTVSPost2010Prop55
280
     0
102
RTVSPost2010PropOp55
 70
     1
102
RTVSPost2010Prop56
140
1.0
102
RTVSPost2010PropOp56
 70
     1
102
RTVSPost2010Prop57
140
1.0
102
RTVSPost2010PropOp57
 70
     1
102
RTVSPropertyOp0
 70
     1
102
RTVSPropertyOp1
 70
     1
102
RTVSPropertyOp2
 70
     1
102
RTVSPropertyOp3
 70
     1
102
RTVSPropertyOp4
 70
     1
102
RTVSPropertyOp5
 70
     1
102
RTVSPropertyOp6
 70
     1
102
RTVSPropertyOp7
 70
     1
102
RTVSPropertyOp8
 70
     1
102
RTVSPropertyOp9
 70
     1
102
RTVSPropertyOp10
 70
     1
102
RTVSPropertyOp11
 70
     1
102
RTVSPropertyOp12
 70
     1
102
RTVSPropertyOp13
 70
     1
102
RTVSPropertyOp14
 70
     1
102
RTVSPropertyOp15
 70
     1
102
RTVSPropertyOp16
 70
     1
102
RTVSPropertyOp17
 70
     1
102
RTVSPropertyOp18
 70
     1
102
RTVSPropertyOp19
 70
     1
102
RTVSPropertyOp20
 70
     1
102
RTVSPropertyOp21
 70
     1
102
RTVSPropertyOp22
 70
     1
102
RTVSPropertyOp23
 70
     1
102
RTVSPropertyOp24
 70
     1
102
RTVSPropertyOp25
 70
     1
102
RTVSPropertyOp26
 70
     1
102
RTVSPropertyOp27
 70
     1
102
RTVSPropertyOp28
 70
     1
102
RTVSPropertyOp29
 70
     1
102
RTVSPropertyOp30
 70
     1
102
RTVSPropertyOp31
 70
     1
102
RTVSPropertyOp32
 70
     1
102
RTVSPropertyOp33
 70
     1
102
RTVSPropertyOp34
 70
     1
102
RTVSPropertyOp35
 70
     1
102
RTVSPropertyOp36
 70
     1
102
RTVSPropertyOp37
 70
     1
102
RTVSPropertyOp38
 70
     1
102
RTVSPropertyOp39
 70
     1
102
RTVSPropertyOp40
 70
     1
102
RTVSPropertyOp41
 70
     1
102
RTVSPropertyOp42
 70
     1
102
RTVSPropertyOp43
 70
     1
102
RTVSPropertyOp44
 70
     1
102
RTVSPropertyOp45
 70
     1
102
RTVSPropertyOp46
 70
     1
102
RTVSPropertyOp47
 70
     1
102
RTVSPropertyOp48
 70
     1
102
RTVSPropertyOp49
 70
     1
102
RTVSPropertyOp50
 70
     1
102
RTVSPropertyOp51
 70
     0
102
RTVSPropertyOp52
 70
     0
102
RTVSPropertyOp53
 70
     1
102
RTVSPropertyOp54
 70
     1
102
RTVSPropertyOp55
 70
     1
102
RTVSPropertyOp56
 70
     1
102
RTVSPropertyOp57
 70
     1
102
RTVSPropertyOp58
 70
     1
102
RTVSPropertyOp59
 70
     1
102
RTVSPropertyOp60
 70
     1
102
RTVSPropertyOp61
 70
     1
102
RTVSPropertyOp62
 70
     1
  0
XRECORD
  5
13A4
102
{ACAD_REACTORS
330
13A3
102
}
330
13A3
100
AcDbXrecord
280
     1
102
RTVSPost2010Prop28
280
     0
102
RTVSPost2010PropOp28
 70
     1
102
RTVSPost2010Prop29
280
     1
102
RTVSPost2010PropOp29
 70
     1
102
RTVSPost2010Prop30
280
     1
102
RTVSPost2010PropOp30
 70
     1
102
RTVSPost2010Prop31
280
     0
102
RTVSPost2010PropOp31
 70
     1
102
RTVSPost2010Prop32
280
     0
102
RTVSPost2010PropOp32
 70
     1
102
RTVSPost2010Prop33
280
     0
102
RTVSPost2010PropOp33
 70
     1
102
RTVSPost2010Prop34
280
     0
102
RTVSPost2010PropOp34
 70
     1
102
RTVSPost2010Prop35
280
     0
102
RTVSPost2010PropOp35
 70
     1
102
RTVSPost2010Prop36
280
     0
102
RTVSPost2010PropOp36
 70
     1
102
RTVSPost2010Prop37
 90
       50
102
RTVSPost2010PropOp37
 70
     1
102
RTVSPost2010Prop38
140
0.0
102
RTVSPost2010PropOp38
 70
     1
102
RTVSPost2010Prop39
140
1.0
102
RTVSPost2010PropOp39
 70
     1
102
RTVSPost2010Prop40
 90
        0
102
RTVSPost2010PropOp40
 70
     1
102
RTVSPost2010Prop41ColorIndex
 90
       18
102
RTVSPost2010Prop41ColorRGB
 90
        0
102
RTVSPost2010PropOp41
 70
     1
102
RTVSPost2010Prop42
 90
       50
102
RTVSPost2010PropOp42
 70
     1
102
RTVSPost2010Prop43
 90
        3
102
RTVSPost2010PropOp43
 70
     1
102
RTVSPost2010Prop44ColorIndex
 90
        5
102
RTVSPost2010Prop44ColorRGB
 90
      255
102
RTVSPost2010PropOp44
 70
     1
102
RTVSPost2010Prop45
280
     0
102
RTVSPost2010PropOp45
 70
     1
102
RTVSPost2010Prop46
 90
       50
102
RTVSPost2010PropOp46
 70
     1
102
RTVSPost2010Prop47
 90
       50
102
RTVSPost2010PropOp47
 70
     1
102
RTVSPost2010Prop48
 90
       50
102
RTVSPost2010PropOp48
 70
     1
102
RTVSPost2010Prop49
280
     0
102
RTVSPost2010PropOp49
 70
     1
102
RTVSPost2010Prop50
 90
       50
102
RTVSPost2010PropOp50
 70
     1
102
RTVSPost2010Prop51ColorIndex
 90
      256
102
RTVSPost2010Prop51ColorRGB
 90
-16777216
102
RTVSPost2010PropOp51
 70
     0
102
RTVSPost2010Prop52
140
1.0
102
RTVSPost2010PropOp52
 70
     0
102
RTVSPost2010Prop53
 90
        2
102
RTVSPost2010PropOp53
 70
     1
102
RTVSPost2010Prop54
  1
strokes_ogs.tif
102
RTVSPost2010PropOp54
 70
     1
102
RTVSPost2010Prop55
280
     0
102
RTVSPost2010PropOp55
 70
     1
102
RTVSPost2010Prop56
140
1.0
102
RTVSPost2010PropOp56
 70
     1
102
RTVSPost2010Prop57
140
1.0
102
RTVSPost2010PropOp57
 70
     1
102
RTVSPropertyOp0
 70
     1
102
RTVSPropertyOp1
 70
     1
102
RTVSPropertyOp2
 70
     1
102
RTVSPropertyOp3
 70
     1
102
RTVSPropertyOp4
 70
     1
102
RTVSPropertyOp5
 70
     1
102
RTVSPropertyOp6
 70
     1
102
RTVSPropertyOp7
 70
     1
102
RTVSPropertyOp8
 70
     1
102
RTVSPropertyOp9
 70
     1
102
RTVSPropertyOp10
 70
     1
102
RTVSPropertyOp11
 70
     1
102
RTVSPropertyOp12
 70
     1
102
RTVSPropertyOp13
 70
     1
102
RTVSPropertyOp14
 70
     1
102
RTVSPropertyOp15
 70
     1
102
RTVSPropertyOp16
 70
     1
102
RTVSPropertyOp17
 70
     1
102
RTVSPropertyOp18
 70
     1
102
RTVSPropertyOp19
 70
     1
102
RTVSPropertyOp20
 70
     1
102
RTVSPropertyOp21
 70
     1
102
RTVSPropertyOp22
 70
     1
102
RTVSPropertyOp23
 70
     1
102
RTVSPropertyOp24
 70
     1
102
RTVSPropertyOp25
 70
     1
102
RTVSPropertyOp26
 70
     1
102
RTVSPropertyOp27
 70
     1
102
RTVSPropertyOp28
 70
     1
102
RTVSPropertyOp29
 70
     1
102
RTVSPropertyOp30
 70
     1
102
RTVSPropertyOp31
 70
     1
102
RTVSPropertyOp32
 70
     1
102
RTVSPropertyOp33
 70
     1
102
RTVSPropertyOp34
 70
     1
102
RTVSPropertyOp35
 70
     1
102
RTVSPropertyOp36
 70
     1
102
RTVSPropertyOp37
 70
     1
102
RTVSPropertyOp38
 70
     1
102
RTVSPropertyOp39
 70
     1
102
RTVSPropertyOp40
 70
     1
102
RTVSPropertyOp41
 70
     1
102
RTVSPropertyOp42
 70
     1
102
RTVSPropertyOp43
 70
     1
102
RTVSPropertyOp44
 70
     1
102
RTVSPropertyOp45
 70
     1
102
RTVSPropertyOp46
 70
     1
102
RTVSPropertyOp47
 70
     1
102
RTVSPropertyOp48
 70
     1
102
RTVSPropertyOp49
 70
     1
102
RTVSPropertyOp50
 70
     1
102
RTVSPropertyOp51
 70
     0
102
RTVSPropertyOp52
 70
     0
102
RTVSPropertyOp53
 70
     1
102
RTVSPropertyOp54
 70
     1
102
RTVSPropertyOp55
 70
     1
102
RTVSPropertyOp56
 70
     1
102
RTVSPropertyOp57
 70
     1
102
RTVSPropertyOp58
 70
     1
102
RTVSPropertyOp59
 70
     1
102
RTVSPropertyOp60
 70
     1
102
RTVSPropertyOp61
 70
     1
102
RTVSPropertyOp62
 70
     1
  0
XRECORD
  5
13A6
102
{ACAD_REACTORS
330
13A5
102
}
330
13A5
100
AcDbXrecord
280
     1
102
RTVSPost2010Prop28
280
     0
102
RTVSPost2010PropOp28
 70
     1
102
RTVSPost2010Prop29
280
     1
102
RTVSPost2010PropOp29
 70
     1
102
RTVSPost2010Prop30
280
     1
102
RTVSPost2010PropOp30
 70
     1
102
RTVSPost2010Prop31
280
     0
102
RTVSPost2010PropOp31
 70
     1
102
RTVSPost2010Prop32
280
     0
102
RTVSPost2010PropOp32
 70
     1
102
RTVSPost2010Prop33
280
     0
102
RTVSPost2010PropOp33
 70
     1
102
RTVSPost2010Prop34
280
     0
102
RTVSPost2010PropOp34
 70
     1
102
RTVSPost2010Prop35
280
     0
102
RTVSPost2010PropOp35
 70
     1
102
RTVSPost2010Prop36
280
     0
102
RTVSPost2010PropOp36
 70
     1
102
RTVSPost2010Prop37
 90
       50
102
RTVSPost2010PropOp37
 70
     1
102
RTVSPost2010Prop38
140
0.0
102
RTVSPost2010PropOp38
 70
     1
102
RTVSPost2010Prop39
140
1.0
102
RTVSPost2010PropOp39
 70
     1
102
RTVSPost2010Prop40
 90
        0
102
RTVSPost2010PropOp40
 70
     1
102
RTVSPost2010Prop41ColorIndex
 90
       18
102
RTVSPost2010Prop41ColorRGB
 90
        0
102
RTVSPost2010PropOp41
 70
     1
102
RTVSPost2010Prop42
 90
       50
102
RTVSPost2010PropOp42
 70
     1
102
RTVSPost2010Prop43
 90
        3
102
RTVSPost2010PropOp43
 70
     1
102
RTVSPost2010Prop44ColorIndex
 90
        5
102
RTVSPost2010Prop44ColorRGB
 90
      255
102
RTVSPost2010PropOp44
 70
     1
102
RTVSPost2010Prop45
280
     0
102
RTVSPost2010PropOp45
 70
     1
102
RTVSPost2010Prop46
 90
       50
102
RTVSPost2010PropOp46
 70
     1
102
RTVSPost2010Prop47
 90
       50
102
RTVSPost2010PropOp47
 70
     1
102
RTVSPost2010Prop48
 90
       50
102
RTVSPost2010PropOp48
 70
     1
102
RTVSPost2010Prop49
280
     0
102
RTVSPost2010PropOp49
 70
     1
102
RTVSPost2010Prop50
 90
       50
102
RTVSPost2010PropOp50
 70
     1
102
RTVSPost2010Prop51ColorIndex
 90
      256
102
RTVSPost2010Prop51ColorRGB
 90
-16777216
102
RTVSPost2010PropOp51
 70
     0
102
RTVSPost2010Prop52
140
1.0
102
RTVSPost2010PropOp52
 70
     0
102
RTVSPost2010Prop53
 90
        2
102
RTVSPost2010PropOp53
 70
     1
102
RTVSPost2010Prop54
  1
strokes_ogs.tif
102
RTVSPost2010PropOp54
 70
     1
102
RTVSPost2010Prop55
280
     0
102
RTVSPost2010PropOp55
 70
     1
102
RTVSPost2010Prop56
140
1.0
102
RTVSPost2010PropOp56
 70
     1
102
RTVSPost2010Prop57
140
1.0
102
RTVSPost2010PropOp57
 70
     1
102
RTVSPropertyOp0
 70
     1
102
RTVSPropertyOp1
 70
     1
102
RTVSPropertyOp2
 70
     1
102
RTVSPropertyOp3
 70
     1
102
RTVSPropertyOp4
 70
     1
102
RTVSPropertyOp5
 70
     1
102
RTVSPropertyOp6
 70
     1
102
RTVSPropertyOp7
 70
     1
102
RTVSPropertyOp8
 70
     1
102
RTVSPropertyOp9
 70
     1
102
RTVSPropertyOp10
 70
     1
102
RTVSPropertyOp11
 70
     1
102
RTVSPropertyOp12
 70
     1
102
RTVSPropertyOp13
 70
     1
102
RTVSPropertyOp14
 70
     1
102
RTVSPropertyOp15
 70
     1
102
RTVSPropertyOp16
 70
     1
102
RTVSPropertyOp17
 70
     1
102
RTVSPropertyOp18
 70
     1
102
RTVSPropertyOp19
 70
     1
102
RTVSPropertyOp20
 70
     1
102
RTVSPropertyOp21
 70
     1
102
RTVSPropertyOp22
 70
     1
102
RTVSPropertyOp23
 70
     1
102
RTVSPropertyOp24
 70
     1
102
RTVSPropertyOp25
 70
     1
102
RTVSPropertyOp26
 70
     1
102
RTVSPropertyOp27
 70
     1
102
RTVSPropertyOp28
 70
     1
102
RTVSPropertyOp29
 70
     1
102
RTVSPropertyOp30
 70
     1
102
RTVSPropertyOp31
 70
     1
102
RTVSPropertyOp32
 70
     1
102
RTVSPropertyOp33
 70
     1
102
RTVSPropertyOp34
 70
     1
102
RTVSPropertyOp35
 70
     1
102
RTVSPropertyOp36
 70
     1
102
RTVSPropertyOp37
 70
     1
102
RTVSPropertyOp38
 70
     1
102
RTVSPropertyOp39
 70
     1
102
RTVSPropertyOp40
 70
     1
102
RTVSPropertyOp41
 70
     1
102
RTVSPropertyOp42
 70
     1
102
RTVSPropertyOp43
 70
     1
102
RTVSPropertyOp44
 70
     1
102
RTVSPropertyOp45
 70
     1
102
RTVSPropertyOp46
 70
     1
102
RTVSPropertyOp47
 70
     1
102
RTVSPropertyOp48
 70
     1
102
RTVSPropertyOp49
 70
     1
102
RTVSPropertyOp50
 70
     1
102
RTVSPropertyOp51
 70
     0
102
RTVSPropertyOp52
 70
     0
102
RTVSPropertyOp53
 70
     1
102
RTVSPropertyOp54
 70
     1
102
RTVSPropertyOp55
 70
     1
102
RTVSPropertyOp56
 70
     1
102
RTVSPropertyOp57
 70
     1
102
RTVSPropertyOp58
 70
     1
102
RTVSPropertyOp59
 70
     1
102
RTVSPropertyOp60
 70
     1
102
RTVSPropertyOp61
 70
     1
102
RTVSPropertyOp62
 70
     1
  0
XRECORD
  5
13A8
102
{ACAD_REACTORS
330
13A7
102
}
330
13A7
100
AcDbXrecord
280
     1
102
RTVSPost2010Prop28
280
     0
102
RTVSPost2010PropOp28
 70
     1
102
RTVSPost2010Prop29
280
     1
102
RTVSPost2010PropOp29
 70
     1
102
RTVSPost2010Prop30
280
     1
102
RTVSPost2010PropOp30
 70
     1
102
RTVSPost2010Prop31
280
     0
102
RTVSPost2010PropOp31
 70
     1
102
RTVSPost2010Prop32
280
     0
102
RTVSPost2010PropOp32
 70
     1
102
RTVSPost2010Prop33
280
     0
102
RTVSPost2010PropOp33
 70
     1
102
RTVSPost2010Prop34
280
     0
102
RTVSPost2010PropOp34
 70
     1
102
RTVSPost2010Prop35
280
     0
102
RTVSPost2010PropOp35
 70
     1
102
RTVSPost2010Prop36
280
     0
102
RTVSPost2010PropOp36
 70
     1
102
RTVSPost2010Prop37
 90
       50
102
RTVSPost2010PropOp37
 70
     1
102
RTVSPost2010Prop38
140
0.0
102
RTVSPost2010PropOp38
 70
     1
102
RTVSPost2010Prop39
140
1.0
102
RTVSPost2010PropOp39
 70
     1
102
RTVSPost2010Prop40
 90
        0
102
RTVSPost2010PropOp40
 70
     1
102
RTVSPost2010Prop41ColorIndex
 90
       18
102
RTVSPost2010Prop41ColorRGB
 90
        0
102
RTVSPost2010PropOp41
 70
     1
102
RTVSPost2010Prop42
 90
       50
102
RTVSPost2010PropOp42
 70
     1
102
RTVSPost2010Prop43
 90
        3
102
RTVSPost2010PropOp43
 70
     1
102
RTVSPost2010Prop44ColorIndex
 90
        5
102
RTVSPost2010Prop44ColorRGB
 90
      255
102
RTVSPost2010PropOp44
 70
     1
102
RTVSPost2010Prop45
280
     0
102
RTVSPost2010PropOp45
 70
     1
102
RTVSPost2010Prop46
 90
       50
102
RTVSPost2010PropOp46
 70
     1
102
RTVSPost2010Prop47
 90
       50
102
RTVSPost2010PropOp47
 70
     1
102
RTVSPost2010Prop48
 90
       50
102
RTVSPost2010PropOp48
 70
     1
102
RTVSPost2010Prop49
280
     0
102
RTVSPost2010PropOp49
 70
     1
102
RTVSPost2010Prop50
 90
       50
102
RTVSPost2010PropOp50
 70
     1
102
RTVSPost2010Prop51ColorIndex
 90
      256
102
RTVSPost2010Prop51ColorRGB
 90
-16777216
102
RTVSPost2010PropOp51
 70
     0
102
RTVSPost2010Prop52
140
1.0
102
RTVSPost2010PropOp52
 70
     0
102
RTVSPost2010Prop53
 90
        2
102
RTVSPost2010PropOp53
 70
     1
102
RTVSPost2010Prop54
  1
strokes_ogs.tif
102
RTVSPost2010PropOp54
 70
     1
102
RTVSPost2010Prop55
280
     0
102
RTVSPost2010PropOp55
 70
     1
102
RTVSPost2010Prop56
140
1.0
102
RTVSPost2010PropOp56
 70
     1
102
RTVSPost2010Prop57
140
1.0
102
RTVSPost2010PropOp57
 70
     1
102
RTVSPropertyOp0
 70
     1
102
RTVSPropertyOp1
 70
     1
102
RTVSPropertyOp2
 70
     1
102
RTVSPropertyOp3
 70
     1
102
RTVSPropertyOp4
 70
     1
102
RTVSPropertyOp5
 70
     1
102
RTVSPropertyOp6
 70
     1
102
RTVSPropertyOp7
 70
     1
102
RTVSPropertyOp8
 70
     1
102
RTVSPropertyOp9
 70
     1
102
RTVSPropertyOp10
 70
     1
102
RTVSPropertyOp11
 70
     1
102
RTVSPropertyOp12
 70
     1
102
RTVSPropertyOp13
 70
     1
102
RTVSPropertyOp14
 70
     1
102
RTVSPropertyOp15
 70
     1
102
RTVSPropertyOp16
 70
     1
102
RTVSPropertyOp17
 70
     1
102
RTVSPropertyOp18
 70
     1
102
RTVSPropertyOp19
 70
     1
102
RTVSPropertyOp20
 70
     1
102
RTVSPropertyOp21
 70
     1
102
RTVSPropertyOp22
 70
     1
102
RTVSPropertyOp23
 70
     1
102
RTVSPropertyOp24
 70
     1
102
RTVSPropertyOp25
 70
     1
102
RTVSPropertyOp26
 70
     1
102
RTVSPropertyOp27
 70
     1
102
RTVSPropertyOp28
 70
     1
102
RTVSPropertyOp29
 70
     1
102
RTVSPropertyOp30
 70
     1
102
RTVSPropertyOp31
 70
     1
102
RTVSPropertyOp32
 70
     1
102
RTVSPropertyOp33
 70
     1
102
RTVSPropertyOp34
 70
     1
102
RTVSPropertyOp35
 70
     1
102
RTVSPropertyOp36
 70
     1
102
RTVSPropertyOp37
 70
     1
102
RTVSPropertyOp38
 70
     1
102
RTVSPropertyOp39
 70
     1
102
RTVSPropertyOp40
 70
     1
102
RTVSPropertyOp41
 70
     1
102
RTVSPropertyOp42
 70
     1
102
RTVSPropertyOp43
 70
     1
102
RTVSPropertyOp44
 70
     1
102
RTVSPropertyOp45
 70
     1
102
RTVSPropertyOp46
 70
     1
102
RTVSPropertyOp47
 70
     1
102
RTVSPropertyOp48
 70
     1
102
RTVSPropertyOp49
 70
     1
102
RTVSPropertyOp50
 70
     1
102
RTVSPropertyOp51
 70
     0
102
RTVSPropertyOp52
 70
     0
102
RTVSPropertyOp53
 70
     1
102
RTVSPropertyOp54
 70
     1
102
RTVSPropertyOp55
 70
     1
102
RTVSPropertyOp56
 70
     1
102
RTVSPropertyOp57
 70
     1
102
RTVSPropertyOp58
 70
     1
102
RTVSPropertyOp59
 70
     1
102
RTVSPropertyOp60
 70
     1
102
RTVSPropertyOp61
 70
     1
102
RTVSPropertyOp62
 70
     1
  0
XRECORD
  5
13AA
102
{ACAD_REACTORS
330
13A9
102
}
330
13A9
100
AcDbXrecord
280
     1
102
RTVSPost2010Prop28
280
     0
102
RTVSPost2010PropOp28
 70
     1
102
RTVSPost2010Prop29
280
     1
102
RTVSPost2010PropOp29
 70
     1
102
RTVSPost2010Prop30
280
     1
102
RTVSPost2010PropOp30
 70
     1
102
RTVSPost2010Prop31
280
     0
102
RTVSPost2010PropOp31
 70
     1
102
RTVSPost2010Prop32
280
     0
102
RTVSPost2010PropOp32
 70
     1
102
RTVSPost2010Prop33
280
     0
102
RTVSPost2010PropOp33
 70
     1
102
RTVSPost2010Prop34
280
     0
102
RTVSPost2010PropOp34
 70
     1
102
RTVSPost2010Prop35
280
     0
102
RTVSPost2010PropOp35
 70
     1
102
RTVSPost2010Prop36
280
     0
102
RTVSPost2010PropOp36
 70
     1
102
RTVSPost2010Prop37
 90
       50
102
RTVSPost2010PropOp37
 70
     1
102
RTVSPost2010Prop38
140
0.0
102
RTVSPost2010PropOp38
 70
     1
102
RTVSPost2010Prop39
140
1.0
102
RTVSPost2010PropOp39
 70
     1
102
RTVSPost2010Prop40
 90
        0
102
RTVSPost2010PropOp40
 70
     1
102
RTVSPost2010Prop41ColorIndex
 90
       18
102
RTVSPost2010Prop41ColorRGB
 90
        0
102
RTVSPost2010PropOp41
 70
     1
102
RTVSPost2010Prop42
 90
       50
102
RTVSPost2010PropOp42
 70
     1
102
RTVSPost2010Prop43
 90
        3
102
RTVSPost2010PropOp43
 70
     1
102
RTVSPost2010Prop44ColorIndex
 90
        5
102
RTVSPost2010Prop44ColorRGB
 90
      255
102
RTVSPost2010PropOp44
 70
     1
102
RTVSPost2010Prop45
280
     0
102
RTVSPost2010PropOp45
 70
     1
102
RTVSPost2010Prop46
 90
       50
102
RTVSPost2010PropOp46
 70
     1
102
RTVSPost2010Prop47
 90
       50
102
RTVSPost2010PropOp47
 70
     1
102
RTVSPost2010Prop48
 90
       50
102
RTVSPost2010PropOp48
 70
     1
102
RTVSPost2010Prop49
280
     0
102
RTVSPost2010PropOp49
 70
     1
102
RTVSPost2010Prop50
 90
       50
102
RTVSPost2010PropOp50
 70
     1
102
RTVSPost2010Prop51ColorIndex
 90
      256
102
RTVSPost2010Prop51ColorRGB
 90
-16777216
102
RTVSPost2010PropOp51
 70
     0
102
RTVSPost2010Prop52
140
1.0
102
RTVSPost2010PropOp52
 70
     0
102
RTVSPost2010Prop53
 90
        2
102
RTVSPost2010PropOp53
 70
     1
102
RTVSPost2010Prop54
  1
strokes_ogs.tif
102
RTVSPost2010PropOp54
 70
     1
102
RTVSPost2010Prop55
280
     0
102
RTVSPost2010PropOp55
 70
     1
102
RTVSPost2010Prop56
140
1.0
102
RTVSPost2010PropOp56
 70
     1
102
RTVSPost2010Prop57
140
1.0
102
RTVSPost2010PropOp57
 70
     1
102
RTVSPropertyOp0
 70
     1
102
RTVSPropertyOp1
 70
     1
102
RTVSPropertyOp2
 70
     1
102
RTVSPropertyOp3
 70
     1
102
RTVSPropertyOp4
 70
     1
102
RTVSPropertyOp5
 70
     1
102
RTVSPropertyOp6
 70
     1
102
RTVSPropertyOp7
 70
     1
102
RTVSPropertyOp8
 70
     1
102
RTVSPropertyOp9
 70
     1
102
RTVSPropertyOp10
 70
     1
102
RTVSPropertyOp11
 70
     1
102
RTVSPropertyOp12
 70
     1
102
RTVSPropertyOp13
 70
     1
102
RTVSPropertyOp14
 70
     1
102
RTVSPropertyOp15
 70
     1
102
RTVSPropertyOp16
 70
     1
102
RTVSPropertyOp17
 70
     1
102
RTVSPropertyOp18
 70
     1
102
RTVSPropertyOp19
 70
     1
102
RTVSPropertyOp20
 70
     1
102
RTVSPropertyOp21
 70
     1
102
RTVSPropertyOp22
 70
     1
102
RTVSPropertyOp23
 70
     1
102
RTVSPropertyOp24
 70
     1
102
RTVSPropertyOp25
 70
     1
102
RTVSPropertyOp26
 70
     1
102
RTVSPropertyOp27
 70
     1
102
RTVSPropertyOp28
 70
     1
102
RTVSPropertyOp29
 70
     1
102
RTVSPropertyOp30
 70
     1
102
RTVSPropertyOp31
 70
     1
102
RTVSPropertyOp32
 70
     1
102
RTVSPropertyOp33
 70
     1
102
RTVSPropertyOp34
 70
     1
102
RTVSPropertyOp35
 70
     1
102
RTVSPropertyOp36
 70
     1
102
RTVSPropertyOp37
 70
     1
102
RTVSPropertyOp38
 70
     1
102
RTVSPropertyOp39
 70
     1
102
RTVSPropertyOp40
 70
     1
102
RTVSPropertyOp41
 70
     1
102
RTVSPropertyOp42
 70
     1
102
RTVSPropertyOp43
 70
     1
102
RTVSPropertyOp44
 70
     1
102
RTVSPropertyOp45
 70
     1
102
RTVSPropertyOp46
 70
     1
102
RTVSPropertyOp47
 70
     1
102
RTVSPropertyOp48
 70
     1
102
RTVSPropertyOp49
 70
     1
102
RTVSPropertyOp50
 70
     1
102
RTVSPropertyOp51
 70
     0
102
RTVSPropertyOp52
 70
     0
102
RTVSPropertyOp53
 70
     1
102
RTVSPropertyOp54
 70
     1
102
RTVSPropertyOp55
 70
     1
102
RTVSPropertyOp56
 70
     1
102
RTVSPropertyOp57
 70
     1
102
RTVSPropertyOp58
 70
     1
102
RTVSPropertyOp59
 70
     1
102
RTVSPropertyOp60
 70
     1
102
RTVSPropertyOp61
 70
     1
102
RTVSPropertyOp62
 70
     1
  0
XRECORD
  5
13D5
102
{ACAD_REACTORS
330
13D4
102
}
330
13D4
100
AcDbXrecord
280
     1
102
RTVSPost2010Prop28
280
     0
102
RTVSPost2010PropOp28
 70
     1
102
RTVSPost2010Prop29
280
     1
102
RTVSPost2010PropOp29
 70
     1
102
RTVSPost2010Prop30
280
     1
102
RTVSPost2010PropOp30
 70
     1
102
RTVSPost2010Prop31
280
     0
102
RTVSPost2010PropOp31
 70
     1
102
RTVSPost2010Prop32
280
     0
102
RTVSPost2010PropOp32
 70
     1
102
RTVSPost2010Prop33
280
     0
102
RTVSPost2010PropOp33
 70
     1
102
RTVSPost2010Prop34
280
     0
102
RTVSPost2010PropOp34
 70
     1
102
RTVSPost2010Prop35
280
     0
102
RTVSPost2010PropOp35
 70
     1
102
RTVSPost2010Prop36
280
     0
102
RTVSPost2010PropOp36
 70
     1
102
RTVSPost2010Prop37
 90
       50
102
RTVSPost2010PropOp37
 70
     1
102
RTVSPost2010Prop38
140
0.0
102
RTVSPost2010PropOp38
 70
     1
102
RTVSPost2010Prop39
140
1.0
102
RTVSPost2010PropOp39
 70
     1
102
RTVSPost2010Prop40
 90
        0
102
RTVSPost2010PropOp40
 70
     1
102
RTVSPost2010Prop41ColorIndex
 90
       18
102
RTVSPost2010Prop41ColorRGB
 90
        0
102
RTVSPost2010PropOp41
 70
     1
102
RTVSPost2010Prop42
 90
       50
102
RTVSPost2010PropOp42
 70
     1
102
RTVSPost2010Prop43
 90
        3
102
RTVSPost2010PropOp43
 70
     1
102
RTVSPost2010Prop44ColorIndex
 90
        5
102
RTVSPost2010Prop44ColorRGB
 90
      255
102
RTVSPost2010PropOp44
 70
     1
102
RTVSPost2010Prop45
280
     0
102
RTVSPost2010PropOp45
 70
     1
102
RTVSPost2010Prop46
 90
       50
102
RTVSPost2010PropOp46
 70
     1
102
RTVSPost2010Prop47
 90
       50
102
RTVSPost2010PropOp47
 70
     1
102
RTVSPost2010Prop48
 90
       50
102
RTVSPost2010PropOp48
 70
     1
102
RTVSPost2010Prop49
280
     0
102
RTVSPost2010PropOp49
 70
     1
102
RTVSPost2010Prop50
 90
       50
102
RTVSPost2010PropOp50
 70
     1
102
RTVSPost2010Prop51ColorIndex
 90
      256
102
RTVSPost2010Prop51ColorRGB
 90
-16777216
102
RTVSPost2010PropOp51
 70
     0
102
RTVSPost2010Prop52
140
1.0
102
RTVSPost2010PropOp52
 70
     0
102
RTVSPost2010Prop53
 90
        2
102
RTVSPost2010PropOp53
 70
     1
102
RTVSPost2010Prop54
  1
strokes_ogs.tif
102
RTVSPost2010PropOp54
 70
     1
102
RTVSPost2010Prop55
280
     0
102
RTVSPost2010PropOp55
 70
     1
102
RTVSPost2010Prop56
140
1.0
102
RTVSPost2010PropOp56
 70
     1
102
RTVSPost2010Prop57
140
1.0
102
RTVSPost2010PropOp57
 70
     1
102
RTVSPropertyOp0
 70
     1
102
RTVSPropertyOp1
 70
     1
102
RTVSPropertyOp2
 70
     1
102
RTVSPropertyOp3
 70
     1
102
RTVSPropertyOp4
 70
     1
102
RTVSPropertyOp5
 70
     1
102
RTVSPropertyOp6
 70
     1
102
RTVSPropertyOp7
 70
     1
102
RTVSPropertyOp8
 70
     1
102
RTVSPropertyOp9
 70
     1
102
RTVSPropertyOp10
 70
     1
102
RTVSPropertyOp11
 70
     1
102
RTVSPropertyOp12
 70
     1
102
RTVSPropertyOp13
 70
     1
102
RTVSPropertyOp14
 70
     1
102
RTVSPropertyOp15
 70
     1
102
RTVSPropertyOp16
 70
     1
102
RTVSPropertyOp17
 70
     1
102
RTVSPropertyOp18
 70
     1
102
RTVSPropertyOp19
 70
     1
102
RTVSPropertyOp20
 70
     1
102
RTVSPropertyOp21
 70
     1
102
RTVSPropertyOp22
 70
     1
102
RTVSPropertyOp23
 70
     1
102
RTVSPropertyOp24
 70
     1
102
RTVSPropertyOp25
 70
     1
102
RTVSPropertyOp26
 70
     1
102
RTVSPropertyOp27
 70
     1
102
RTVSPropertyOp28
 70
     1
102
RTVSPropertyOp29
 70
     1
102
RTVSPropertyOp30
 70
     1
102
RTVSPropertyOp31
 70
     1
102
RTVSPropertyOp32
 70
     1
102
RTVSPropertyOp33
 70
     1
102
RTVSPropertyOp34
 70
     1
102
RTVSPropertyOp35
 70
     1
102
RTVSPropertyOp36
 70
     1
102
RTVSPropertyOp37
 70
     1
102
RTVSPropertyOp38
 70
     1
102
RTVSPropertyOp39
 70
     1
102
RTVSPropertyOp40
 70
     1
102
RTVSPropertyOp41
 70
     1
102
RTVSPropertyOp42
 70
     1
102
RTVSPropertyOp43
 70
     1
102
RTVSPropertyOp44
 70
     1
102
RTVSPropertyOp45
 70
     1
102
RTVSPropertyOp46
 70
     1
102
RTVSPropertyOp47
 70
     1
102
RTVSPropertyOp48
 70
     1
102
RTVSPropertyOp49
 70
     1
102
RTVSPropertyOp50
 70
     1
102
RTVSPropertyOp51
 70
     0
102
RTVSPropertyOp52
 70
     0
102
RTVSPropertyOp53
 70
     1
102
RTVSPropertyOp54
 70
     1
102
RTVSPropertyOp55
 70
     1
102
RTVSPropertyOp56
 70
     1
102
RTVSPropertyOp57
 70
     1
102
RTVSPropertyOp58
 70
     1
102
RTVSPropertyOp59
 70
     1
102
RTVSPropertyOp60
 70
     1
102
RTVSPropertyOp61
 70
     1
102
RTVSPropertyOp62
 70
     1
  0
XRECORD
  5
13CD
102
{ACAD_REACTORS
330
13CC
102
}
330
13CC
100
AcDbXrecord
280
     1
102
RTVSPost2010Prop28
280
     0
102
RTVSPost2010PropOp28
 70
     1
102
RTVSPost2010Prop29
280
     1
102
RTVSPost2010PropOp29
 70
     1
102
RTVSPost2010Prop30
280
     1
102
RTVSPost2010PropOp30
 70
     1
102
RTVSPost2010Prop31
280
     0
102
RTVSPost2010PropOp31
 70
     1
102
RTVSPost2010Prop32
280
     0
102
RTVSPost2010PropOp32
 70
     1
102
RTVSPost2010Prop33
280
     0
102
RTVSPost2010PropOp33
 70
     1
102
RTVSPost2010Prop34
280
     0
102
RTVSPost2010PropOp34
 70
     1
102
RTVSPost2010Prop35
280
     0
102
RTVSPost2010PropOp35
 70
     1
102
RTVSPost2010Prop36
280
     0
102
RTVSPost2010PropOp36
 70
     1
102
RTVSPost2010Prop37
 90
       50
102
RTVSPost2010PropOp37
 70
     1
102
RTVSPost2010Prop38
140
0.0
102
RTVSPost2010PropOp38
 70
     1
102
RTVSPost2010Prop39
140
1.0
102
RTVSPost2010PropOp39
 70
     1
102
RTVSPost2010Prop40
 90
        0
102
RTVSPost2010PropOp40
 70
     1
102
RTVSPost2010Prop41ColorIndex
 90
       18
102
RTVSPost2010Prop41ColorRGB
 90
        0
102
RTVSPost2010PropOp41
 70
     1
102
RTVSPost2010Prop42
 90
       50
102
RTVSPost2010PropOp42
 70
     1
102
RTVSPost2010Prop43
 90
        3
102
RTVSPost2010PropOp43
 70
     1
102
RTVSPost2010Prop44ColorIndex
 90
        5
102
RTVSPost2010Prop44ColorRGB
 90
      255
102
RTVSPost2010PropOp44
 70
     1
102
RTVSPost2010Prop45
280
     0
102
RTVSPost2010PropOp45
 70
     1
102
RTVSPost2010Prop46
 90
       50
102
RTVSPost2010PropOp46
 70
     1
102
RTVSPost2010Prop47
 90
       50
102
RTVSPost2010PropOp47
 70
     1
102
RTVSPost2010Prop48
 90
       50
102
RTVSPost2010PropOp48
 70
     1
102
RTVSPost2010Prop49
280
     0
102
RTVSPost2010PropOp49
 70
     1
102
RTVSPost2010Prop50
 90
       50
102
RTVSPost2010PropOp50
 70
     1
102
RTVSPost2010Prop51ColorIndex
 90
      256
102
RTVSPost2010Prop51ColorRGB
 90
-16777216
102
RTVSPost2010PropOp51
 70
     0
102
RTVSPost2010Prop52
140
1.0
102
RTVSPost2010PropOp52
 70
     0
102
RTVSPost2010Prop53
 90
        2
102
RTVSPost2010PropOp53
 70
     1
102
RTVSPost2010Prop54
  1
strokes_ogs.tif
102
RTVSPost2010PropOp54
 70
     1
102
RTVSPost2010Prop55
280
     0
102
RTVSPost2010PropOp55
 70
     1
102
RTVSPost2010Prop56
140
1.0
102
RTVSPost2010PropOp56
 70
     1
102
RTVSPost2010Prop57
140
1.0
102
RTVSPost2010PropOp57
 70
     1
102
RTVSPropertyOp0
 70
     0
102
RTVSPropertyOp1
 70
     0
102
RTVSPropertyOp2
 70
     0
102
RTVSPropertyOp3
 70
     0
102
RTVSPropertyOp4
 70
     0
102
RTVSPropertyOp5
 70
     0
102
RTVSPropertyOp6
 70
     0
102
RTVSPropertyOp7
 70
     0
102
RTVSPropertyOp8
 70
     0
102
RTVSPropertyOp9
 70
     0
102
RTVSPropertyOp10
 70
     0
102
RTVSPropertyOp11
 70
     0
102
RTVSPropertyOp12
 70
     0
102
RTVSPropertyOp13
 70
     0
102
RTVSPropertyOp14
 70
     2
102
RTVSPropertyOp15
 70
     0
102
RTVSPropertyOp16
 70
     0
102
RTVSPropertyOp17
 70
     0
102
RTVSPropertyOp18
 70
     0
102
RTVSPropertyOp19
 70
     0
102
RTVSPropertyOp20
 70
     0
102
RTVSPropertyOp21
 70
     0
102
RTVSPropertyOp22
 70
     0
102
RTVSPropertyOp23
 70
     0
102
RTVSPropertyOp24
 70
     0
102
RTVSPropertyOp25
 70
     0
102
RTVSPropertyOp26
 70
     0
102
RTVSPropertyOp27
 70
     0
102
RTVSPropertyOp28
 70
     1
102
RTVSPropertyOp29
 70
     1
102
RTVSPropertyOp30
 70
     1
102
RTVSPropertyOp31
 70
     1
102
RTVSPropertyOp32
 70
     1
102
RTVSPropertyOp33
 70
     1
102
RTVSPropertyOp34
 70
     1
102
RTVSPropertyOp35
 70
     1
102
RTVSPropertyOp36
 70
     1
102
RTVSPropertyOp37
 70
     1
102
RTVSPropertyOp38
 70
     1
102
RTVSPropertyOp39
 70
     1
102
RTVSPropertyOp40
 70
     1
102
RTVSPropertyOp41
 70
     1
102
RTVSPropertyOp42
 70
     1
102
RTVSPropertyOp43
 70
     1
102
RTVSPropertyOp44
 70
     1
102
RTVSPropertyOp45
 70
     1
102
RTVSPropertyOp46
 70
     1
102
RTVSPropertyOp47
 70
     1
102
RTVSPropertyOp48
 70
     1
102
RTVSPropertyOp49
 70
     1
102
RTVSPropertyOp50
 70
     1
102
RTVSPropertyOp51
 70
     0
102
RTVSPropertyOp52
 70
     0
102
RTVSPropertyOp53
 70
     1
102
RTVSPropertyOp54
 70
     1
102
RTVSPropertyOp55
 70
     1
102
RTVSPropertyOp56
 70
     1
102
RTVSPropertyOp57
 70
     1
102
RTVSPropertyOp58
 70
     1
102
RTVSPropertyOp59
 70
     1
102
RTVSPropertyOp60
 70
     1
102
RTVSPropertyOp61
 70
     1
102
RTVSPropertyOp62
 70
     1
  0
XRECORD
  5
13BE
102
{ACAD_REACTORS
330
13BD
102
}
330
13BD
100
AcDbXrecord
280
     1
102
RTVSPost2010Prop28
280
     0
102
RTVSPost2010PropOp28
 70
     1
102
RTVSPost2010Prop29
280
     1
102
RTVSPost2010PropOp29
 70
     1
102
RTVSPost2010Prop30
280
     1
102
RTVSPost2010PropOp30
 70
     1
102
RTVSPost2010Prop31
280
     0
102
RTVSPost2010PropOp31
 70
     1
102
RTVSPost2010Prop32
280
     0
102
RTVSPost2010PropOp32
 70
     1
102
RTVSPost2010Prop33
280
     0
102
RTVSPost2010PropOp33
 70
     1
102
RTVSPost2010Prop34
280
     0
102
RTVSPost2010PropOp34
 70
     1
102
RTVSPost2010Prop35
280
     0
102
RTVSPost2010PropOp35
 70
     1
102
RTVSPost2010Prop36
280
     0
102
RTVSPost2010PropOp36
 70
     1
102
RTVSPost2010Prop37
 90
       50
102
RTVSPost2010PropOp37
 70
     1
102
RTVSPost2010Prop38
140
0.0
102
RTVSPost2010PropOp38
 70
     1
102
RTVSPost2010Prop39
140
1.0
102
RTVSPost2010PropOp39
 70
     1
102
RTVSPost2010Prop40
 90
        0
102
RTVSPost2010PropOp40
 70
     1
102
RTVSPost2010Prop41ColorIndex
 90
       18
102
RTVSPost2010Prop41ColorRGB
 90
        0
102
RTVSPost2010PropOp41
 70
     1
102
RTVSPost2010Prop42
 90
       50
102
RTVSPost2010PropOp42
 70
     1
102
RTVSPost2010Prop43
 90
        3
102
RTVSPost2010PropOp43
 70
     1
102
RTVSPost2010Prop44ColorIndex
 90
        5
102
RTVSPost2010Prop44ColorRGB
 90
      255
102
RTVSPost2010PropOp44
 70
     1
102
RTVSPost2010Prop45
280
     0
102
RTVSPost2010PropOp45
 70
     1
102
RTVSPost2010Prop46
 90
       50
102
RTVSPost2010PropOp46
 70
     1
102
RTVSPost2010Prop47
 90
       50
102
RTVSPost2010PropOp47
 70
     1
102
RTVSPost2010Prop48
 90
       50
102
RTVSPost2010PropOp48
 70
     1
102
RTVSPost2010Prop49
280
     0
102
RTVSPost2010PropOp49
 70
     1
102
RTVSPost2010Prop50
 90
       50
102
RTVSPost2010PropOp50
 70
     1
102
RTVSPost2010Prop51ColorIndex
 90
      256
102
RTVSPost2010Prop51ColorRGB
 90
-16777216
102
RTVSPost2010PropOp51
 70
     0
102
RTVSPost2010Prop52
140
1.0
102
RTVSPost2010PropOp52
 70
     0
102
RTVSPost2010Prop53
 90
        2
102
RTVSPost2010PropOp53
 70
     1
102
RTVSPost2010Prop54
  1
strokes_ogs.tif
102
RTVSPost2010PropOp54
 70
     1
102
RTVSPost2010Prop55
280
     0
102
RTVSPost2010PropOp55
 70
     1
102
RTVSPost2010Prop56
140
1.0
102
RTVSPost2010PropOp56
 70
     1
102
RTVSPost2010Prop57
140
1.0
102
RTVSPost2010PropOp57
 70
     1
102
RTVSPropertyOp0
 70
     1
102
RTVSPropertyOp1
 70
     1
102
RTVSPropertyOp2
 70
     1
102
RTVSPropertyOp3
 70
     1
102
RTVSPropertyOp4
 70
     1
102
RTVSPropertyOp5
 70
     1
102
RTVSPropertyOp6
 70
     1
102
RTVSPropertyOp7
 70
     1
102
RTVSPropertyOp8
 70
     1
102
RTVSPropertyOp9
 70
     1
102
RTVSPropertyOp10
 70
     1
102
RTVSPropertyOp11
 70
     1
102
RTVSPropertyOp12
 70
     1
102
RTVSPropertyOp13
 70
     1
102
RTVSPropertyOp14
 70
     1
102
RTVSPropertyOp15
 70
     1
102
RTVSPropertyOp16
 70
     1
102
RTVSPropertyOp17
 70
     1
102
RTVSPropertyOp18
 70
     1
102
RTVSPropertyOp19
 70
     1
102
RTVSPropertyOp20
 70
     1
102
RTVSPropertyOp21
 70
     1
102
RTVSPropertyOp22
 70
     1
102
RTVSPropertyOp23
 70
     1
102
RTVSPropertyOp24
 70
     1
102
RTVSPropertyOp25
 70
     1
102
RTVSPropertyOp26
 70
     1
102
RTVSPropertyOp27
 70
     1
102
RTVSPropertyOp28
 70
     1
102
RTVSPropertyOp29
 70
     1
102
RTVSPropertyOp30
 70
     1
102
RTVSPropertyOp31
 70
     1
102
RTVSPropertyOp32
 70
     1
102
RTVSPropertyOp33
 70
     1
102
RTVSPropertyOp34
 70
     1
102
RTVSPropertyOp35
 70
     1
102
RTVSPropertyOp36
 70
     1
102
RTVSPropertyOp37
 70
     1
102
RTVSPropertyOp38
 70
     1
102
RTVSPropertyOp39
 70
     1
102
RTVSPropertyOp40
 70
     1
102
RTVSPropertyOp41
 70
     1
102
RTVSPropertyOp42
 70
     1
102
RTVSPropertyOp43
 70
     1
102
RTVSPropertyOp44
 70
     1
102
RTVSPropertyOp45
 70
     1
102
RTVSPropertyOp46
 70
     1
102
RTVSPropertyOp47
 70
     1
102
RTVSPropertyOp48
 70
     1
102
RTVSPropertyOp49
 70
     1
102
RTVSPropertyOp50
 70
     1
102
RTVSPropertyOp51
 70
     0
102
RTVSPropertyOp52
 70
     0
102
RTVSPropertyOp53
 70
     1
102
RTVSPropertyOp54
 70
     1
102
RTVSPropertyOp55
 70
     1
102
RTVSPropertyOp56
 70
     1
102
RTVSPropertyOp57
 70
     1
102
RTVSPropertyOp58
 70
     1
102
RTVSPropertyOp59
 70
     1
102
RTVSPropertyOp60
 70
     1
102
RTVSPropertyOp61
 70
     1
102
RTVSPropertyOp62
 70
     1
  0
XRECORD
  5
13CF
102
{ACAD_REACTORS
330
13CE
102
}
330
13CE
100
AcDbXrecord
280
     1
102
RTVSPost2010Prop28
280
     0
102
RTVSPost2010PropOp28
 70
     1
102
RTVSPost2010Prop29
280
     1
102
RTVSPost2010PropOp29
 70
     1
102
RTVSPost2010Prop30
280
     1
102
RTVSPost2010PropOp30
 70
     1
102
RTVSPost2010Prop31
280
     0
102
RTVSPost2010PropOp31
 70
     1
102
RTVSPost2010Prop32
280
     0
102
RTVSPost2010PropOp32
 70
     1
102
RTVSPost2010Prop33
280
     0
102
RTVSPost2010PropOp33
 70
     1
102
RTVSPost2010Prop34
280
     0
102
RTVSPost2010PropOp34
 70
     1
102
RTVSPost2010Prop35
280
     0
102
RTVSPost2010PropOp35
 70
     1
102
RTVSPost2010Prop36
280
     0
102
RTVSPost2010PropOp36
 70
     1
102
RTVSPost2010Prop37
 90
       50
102
RTVSPost2010PropOp37
 70
     1
102
RTVSPost2010Prop38
140
0.0
102
RTVSPost2010PropOp38
 70
     1
102
RTVSPost2010Prop39
140
1.0
102
RTVSPost2010PropOp39
 70
     1
102
RTVSPost2010Prop40
 90
        0
102
RTVSPost2010PropOp40
 70
     1
102
RTVSPost2010Prop41ColorIndex
 90
       18
102
RTVSPost2010Prop41ColorRGB
 90
        0
102
RTVSPost2010PropOp41
 70
     1
102
RTVSPost2010Prop42
 90
       50
102
RTVSPost2010PropOp42
 70
     1
102
RTVSPost2010Prop43
 90
        3
102
RTVSPost2010PropOp43
 70
     1
102
RTVSPost2010Prop44ColorIndex
 90
        5
102
RTVSPost2010Prop44ColorRGB
 90
      255
102
RTVSPost2010PropOp44
 70
     1
102
RTVSPost2010Prop45
280
     0
102
RTVSPost2010PropOp45
 70
     1
102
RTVSPost2010Prop46
 90
       50
102
RTVSPost2010PropOp46
 70
     1
102
RTVSPost2010Prop47
 90
       50
102
RTVSPost2010PropOp47
 70
     1
102
RTVSPost2010Prop48
 90
       50
102
RTVSPost2010PropOp48
 70
     1
102
RTVSPost2010Prop49
280
     0
102
RTVSPost2010PropOp49
 70
     1
102
RTVSPost2010Prop50
 90
       50
102
RTVSPost2010PropOp50
 70
     1
102
RTVSPost2010Prop51ColorIndex
 90
      256
102
RTVSPost2010Prop51ColorRGB
 90
-16777216
102
RTVSPost2010PropOp51
 70
     0
102
RTVSPost2010Prop52
140
1.0
102
RTVSPost2010PropOp52
 70
     0
102
RTVSPost2010Prop53
 90
        2
102
RTVSPost2010PropOp53
 70
     1
102
RTVSPost2010Prop54
  1
strokes_ogs.tif
102
RTVSPost2010PropOp54
 70
     1
102
RTVSPost2010Prop55
280
     0
102
RTVSPost2010PropOp55
 70
     1
102
RTVSPost2010Prop56
140
1.0
102
RTVSPost2010PropOp56
 70
     1
102
RTVSPost2010Prop57
140
1.0
102
RTVSPost2010PropOp57
 70
     1
102
RTVSPropertyOp0
 70
     0
102
RTVSPropertyOp1
 70
     0
102
RTVSPropertyOp2
 70
     0
102
RTVSPropertyOp3
 70
     0
102
RTVSPropertyOp4
 70
     0
102
RTVSPropertyOp5
 70
     0
102
RTVSPropertyOp6
 70
     0
102
RTVSPropertyOp7
 70
     0
102
RTVSPropertyOp8
 70
     0
102
RTVSPropertyOp9
 70
     0
102
RTVSPropertyOp10
 70
     0
102
RTVSPropertyOp11
 70
     0
102
RTVSPropertyOp12
 70
     0
102
RTVSPropertyOp13
 70
     0
102
RTVSPropertyOp14
 70
     2
102
RTVSPropertyOp15
 70
     0
102
RTVSPropertyOp16
 70
     0
102
RTVSPropertyOp17
 70
     0
102
RTVSPropertyOp18
 70
     0
102
RTVSPropertyOp19
 70
     0
102
RTVSPropertyOp20
 70
     0
102
RTVSPropertyOp21
 70
     0
102
RTVSPropertyOp22
 70
     0
102
RTVSPropertyOp23
 70
     0
102
RTVSPropertyOp24
 70
     0
102
RTVSPropertyOp25
 70
     0
102
RTVSPropertyOp26
 70
     0
102
RTVSPropertyOp27
 70
     0
102
RTVSPropertyOp28
 70
     1
102
RTVSPropertyOp29
 70
     1
102
RTVSPropertyOp30
 70
     1
102
RTVSPropertyOp31
 70
     1
102
RTVSPropertyOp32
 70
     1
102
RTVSPropertyOp33
 70
     1
102
RTVSPropertyOp34
 70
     1
102
RTVSPropertyOp35
 70
     1
102
RTVSPropertyOp36
 70
     1
102
RTVSPropertyOp37
 70
     1
102
RTVSPropertyOp38
 70
     1
102
RTVSPropertyOp39
 70
     1
102
RTVSPropertyOp40
 70
     1
102
RTVSPropertyOp41
 70
     1
102
RTVSPropertyOp42
 70
     1
102
RTVSPropertyOp43
 70
     1
102
RTVSPropertyOp44
 70
     1
102
RTVSPropertyOp45
 70
     1
102
RTVSPropertyOp46
 70
     1
102
RTVSPropertyOp47
 70
     1
102
RTVSPropertyOp48
 70
     1
102
RTVSPropertyOp49
 70
     1
102
RTVSPropertyOp50
 70
     1
102
RTVSPropertyOp51
 70
     0
102
RTVSPropertyOp52
 70
     0
102
RTVSPropertyOp53
 70
     1
102
RTVSPropertyOp54
 70
     1
102
RTVSPropertyOp55
 70
     1
102
RTVSPropertyOp56
 70
     1
102
RTVSPropertyOp57
 70
     1
102
RTVSPropertyOp58
 70
     1
102
RTVSPropertyOp59
 70
     1
102
RTVSPropertyOp60
 70
     1
102
RTVSPropertyOp61
 70
     1
102
RTVSPropertyOp62
 70
     1
  0
XRECORD
  5
13B6
102
{ACAD_REACTORS
330
13B5
102
}
330
13B5
100
AcDbXrecord
280
     1
102
RTVSPost2010Prop28
280
     0
102
RTVSPost2010PropOp28
 70
     1
102
RTVSPost2010Prop29
280
     1
102
RTVSPost2010PropOp29
 70
     1
102
RTVSPost2010Prop30
280
     1
102
RTVSPost2010PropOp30
 70
     1
102
RTVSPost2010Prop31
280
     0
102
RTVSPost2010PropOp31
 70
     1
102
RTVSPost2010Prop32
280
     0
102
RTVSPost2010PropOp32
 70
     1
102
RTVSPost2010Prop33
280
     0
102
RTVSPost2010PropOp33
 70
     1
102
RTVSPost2010Prop34
280
     0
102
RTVSPost2010PropOp34
 70
     1
102
RTVSPost2010Prop35
280
     0
102
RTVSPost2010PropOp35
 70
     1
102
RTVSPost2010Prop36
280
     0
102
RTVSPost2010PropOp36
 70
     1
102
RTVSPost2010Prop37
 90
       50
102
RTVSPost2010PropOp37
 70
     1
102
RTVSPost2010Prop38
140
0.0
102
RTVSPost2010PropOp38
 70
     1
102
RTVSPost2010Prop39
140
1.0
102
RTVSPost2010PropOp39
 70
     1
102
RTVSPost2010Prop40
 90
        0
102
RTVSPost2010PropOp40
 70
     1
102
RTVSPost2010Prop41ColorIndex
 90
       18
102
RTVSPost2010Prop41ColorRGB
 90
        0
102
RTVSPost2010PropOp41
 70
     1
102
RTVSPost2010Prop42
 90
       50
102
RTVSPost2010PropOp42
 70
     1
102
RTVSPost2010Prop43
 90
        3
102
RTVSPost2010PropOp43
 70
     1
102
RTVSPost2010Prop44ColorIndex
 90
        5
102
RTVSPost2010Prop44ColorRGB
 90
      255
102
RTVSPost2010PropOp44
 70
     1
102
RTVSPost2010Prop45
280
     0
102
RTVSPost2010PropOp45
 70
     1
102
RTVSPost2010Prop46
 90
       50
102
RTVSPost2010PropOp46
 70
     1
102
RTVSPost2010Prop47
 90
       50
102
RTVSPost2010PropOp47
 70
     1
102
RTVSPost2010Prop48
 90
       50
102
RTVSPost2010PropOp48
 70
     1
102
RTVSPost2010Prop49
280
     0
102
RTVSPost2010PropOp49
 70
     1
102
RTVSPost2010Prop50
 90
       50
102
RTVSPost2010PropOp50
 70
     1
102
RTVSPost2010Prop51ColorIndex
 90
      256
102
RTVSPost2010Prop51ColorRGB
 90
-16777216
102
RTVSPost2010PropOp51
 70
     0
102
RTVSPost2010Prop52
140
1.0
102
RTVSPost2010PropOp52
 70
     0
102
RTVSPost2010Prop53
 90
        2
102
RTVSPost2010PropOp53
 70
     1
102
RTVSPost2010Prop54
  1
strokes_ogs.tif
102
RTVSPost2010PropOp54
 70
     1
102
RTVSPost2010Prop55
280
     0
102
RTVSPost2010PropOp55
 70
     1
102
RTVSPost2010Prop56
140
1.0
102
RTVSPost2010PropOp56
 70
     1
102
RTVSPost2010Prop57
140
1.0
102
RTVSPost2010PropOp57
 70
     1
102
RTVSPropertyOp0
 70
     1
102
RTVSPropertyOp1
 70
     1
102
RTVSPropertyOp2
 70
     1
102
RTVSPropertyOp3
 70
     1
102
RTVSPropertyOp4
 70
     1
102
RTVSPropertyOp5
 70
     1
102
RTVSPropertyOp6
 70
     1
102
RTVSPropertyOp7
 70
     1
102
RTVSPropertyOp8
 70
     1
102
RTVSPropertyOp9
 70
     1
102
RTVSPropertyOp10
 70
     1
102
RTVSPropertyOp11
 70
     1
102
RTVSPropertyOp12
 70
     1
102
RTVSPropertyOp13
 70
     1
102
RTVSPropertyOp14
 70
     1
102
RTVSPropertyOp15
 70
     1
102
RTVSPropertyOp16
 70
     1
102
RTVSPropertyOp17
 70
     1
102
RTVSPropertyOp18
 70
     1
102
RTVSPropertyOp19
 70
     1
102
RTVSPropertyOp20
 70
     1
102
RTVSPropertyOp21
 70
     1
102
RTVSPropertyOp22
 70
     1
102
RTVSPropertyOp23
 70
     1
102
RTVSPropertyOp24
 70
     1
102
RTVSPropertyOp25
 70
     1
102
RTVSPropertyOp26
 70
     1
102
RTVSPropertyOp27
 70
     1
102
RTVSPropertyOp28
 70
     1
102
RTVSPropertyOp29
 70
     1
102
RTVSPropertyOp30
 70
     1
102
RTVSPropertyOp31
 70
     1
102
RTVSPropertyOp32
 70
     1
102
RTVSPropertyOp33
 70
     1
102
RTVSPropertyOp34
 70
     1
102
RTVSPropertyOp35
 70
     1
102
RTVSPropertyOp36
 70
     1
102
RTVSPropertyOp37
 70
     1
102
RTVSPropertyOp38
 70
     1
102
RTVSPropertyOp39
 70
     1
102
RTVSPropertyOp40
 70
     1
102
RTVSPropertyOp41
 70
     1
102
RTVSPropertyOp42
 70
     1
102
RTVSPropertyOp43
 70
     1
102
RTVSPropertyOp44
 70
     1
102
RTVSPropertyOp45
 70
     1
102
RTVSPropertyOp46
 70
     1
102
RTVSPropertyOp47
 70
     1
102
RTVSPropertyOp48
 70
     1
102
RTVSPropertyOp49
 70
     1
102
RTVSPropertyOp50
 70
     1
102
RTVSPropertyOp51
 70
     0
102
RTVSPropertyOp52
 70
     0
102
RTVSPropertyOp53
 70
     1
102
RTVSPropertyOp54
 70
     1
102
RTVSPropertyOp55
 70
     1
102
RTVSPropertyOp56
 70
     1
102
RTVSPropertyOp57
 70
     1
102
RTVSPropertyOp58
 70
     1
102
RTVSPropertyOp59
 70
     1
102
RTVSPropertyOp60
 70
     1
102
RTVSPropertyOp61
 70
     1
102
RTVSPropertyOp62
 70
     1
  0
XRECORD
  5
13DF
102
{ACAD_REACTORS
330
13DE
102
}
330
13DE
100
AcDbXrecord
280
     1
102
RTVSPost2010Prop28
280
     0
102
RTVSPost2010PropOp28
 70
     1
102
RTVSPost2010Prop29
280
     1
102
RTVSPost2010PropOp29
 70
     1
102
RTVSPost2010Prop30
280
     1
102
RTVSPost2010PropOp30
 70
     1
102
RTVSPost2010Prop31
280
     0
102
RTVSPost2010PropOp31
 70
     1
102
RTVSPost2010Prop32
280
     0
102
RTVSPost2010PropOp32
 70
     1
102
RTVSPost2010Prop33
280
     0
102
RTVSPost2010PropOp33
 70
     1
102
RTVSPost2010Prop34
280
     0
102
RTVSPost2010PropOp34
 70
     1
102
RTVSPost2010Prop35
280
     0
102
RTVSPost2010PropOp35
 70
     1
102
RTVSPost2010Prop36
280
     0
102
RTVSPost2010PropOp36
 70
     1
102
RTVSPost2010Prop37
 90
       50
102
RTVSPost2010PropOp37
 70
     1
102
RTVSPost2010Prop38
140
0.0
102
RTVSPost2010PropOp38
 70
     1
102
RTVSPost2010Prop39
140
1.0
102
RTVSPost2010PropOp39
 70
     1
102
RTVSPost2010Prop40
 90
        0
102
RTVSPost2010PropOp40
 70
     1
102
RTVSPost2010Prop41ColorIndex
 90
       18
102
RTVSPost2010Prop41ColorRGB
 90
        0
102
RTVSPost2010PropOp41
 70
     1
102
RTVSPost2010Prop42
 90
       50
102
RTVSPost2010PropOp42
 70
     1
102
RTVSPost2010Prop43
 90
        3
102
RTVSPost2010PropOp43
 70
     1
102
RTVSPost2010Prop44ColorIndex
 90
        5
102
RTVSPost2010Prop44ColorRGB
 90
      255
102
RTVSPost2010PropOp44
 70
     1
102
RTVSPost2010Prop45
280
     0
102
RTVSPost2010PropOp45
 70
     1
102
RTVSPost2010Prop46
 90
       50
102
RTVSPost2010PropOp46
 70
     1
102
RTVSPost2010Prop47
 90
       50
102
RTVSPost2010PropOp47
 70
     1
102
RTVSPost2010Prop48
 90
       50
102
RTVSPost2010PropOp48
 70
     1
102
RTVSPost2010Prop49
280
     0
102
RTVSPost2010PropOp49
 70
     1
102
RTVSPost2010Prop50
 90
       50
102
RTVSPost2010PropOp50
 70
     1
102
RTVSPost2010Prop51ColorIndex
 90
      256
102
RTVSPost2010Prop51ColorRGB
 90
-16777216
102
RTVSPost2010PropOp51
 70
     0
102
RTVSPost2010Prop52
140
1.0
102
RTVSPost2010PropOp52
 70
     0
102
RTVSPost2010Prop53
 90
        2
102
RTVSPost2010PropOp53
 70
     1
102
RTVSPost2010Prop54
  1
strokes_ogs.tif
102
RTVSPost2010PropOp54
 70
     1
102
RTVSPost2010Prop55
280
     0
102
RTVSPost2010PropOp55
 70
     1
102
RTVSPost2010Prop56
140
1.0
102
RTVSPost2010PropOp56
 70
     1
102
RTVSPost2010Prop57
140
1.0
102
RTVSPost2010PropOp57
 70
     1
102
RTVSPropertyOp0
 70
     1
102
RTVSPropertyOp1
 70
     1
102
RTVSPropertyOp2
 70
     1
102
RTVSPropertyOp3
 70
     1
102
RTVSPropertyOp4
 70
     1
102
RTVSPropertyOp5
 70
     1
102
RTVSPropertyOp6
 70
     1
102
RTVSPropertyOp7
 70
     1
102
RTVSPropertyOp8
 70
     1
102
RTVSPropertyOp9
 70
     1
102
RTVSPropertyOp10
 70
     1
102
RTVSPropertyOp11
 70
     1
102
RTVSPropertyOp12
 70
     1
102
RTVSPropertyOp13
 70
     1
102
RTVSPropertyOp14
 70
     1
102
RTVSPropertyOp15
 70
     1
102
RTVSPropertyOp16
 70
     1
102
RTVSPropertyOp17
 70
     1
102
RTVSPropertyOp18
 70
     1
102
RTVSPropertyOp19
 70
     1
102
RTVSPropertyOp20
 70
     1
102
RTVSPropertyOp21
 70
     1
102
RTVSPropertyOp22
 70
     1
102
RTVSPropertyOp23
 70
     1
102
RTVSPropertyOp24
 70
     1
102
RTVSPropertyOp25
 70
     1
102
RTVSPropertyOp26
 70
     1
102
RTVSPropertyOp27
 70
     1
102
RTVSPropertyOp28
 70
     1
102
RTVSPropertyOp29
 70
     1
102
RTVSPropertyOp30
 70
     1
102
RTVSPropertyOp31
 70
     1
102
RTVSPropertyOp32
 70
     1
102
RTVSPropertyOp33
 70
     1
102
RTVSPropertyOp34
 70
     1
102
RTVSPropertyOp35
 70
     1
102
RTVSPropertyOp36
 70
     1
102
RTVSPropertyOp37
 70
     1
102
RTVSPropertyOp38
 70
     1
102
RTVSPropertyOp39
 70
     1
102
RTVSPropertyOp40
 70
     1
102
RTVSPropertyOp41
 70
     1
102
RTVSPropertyOp42
 70
     1
102
RTVSPropertyOp43
 70
     1
102
RTVSPropertyOp44
 70
     1
102
RTVSPropertyOp45
 70
     1
102
RTVSPropertyOp46
 70
     1
102
RTVSPropertyOp47
 70
     1
102
RTVSPropertyOp48
 70
     1
102
RTVSPropertyOp49
 70
     1
102
RTVSPropertyOp50
 70
     1
102
RTVSPropertyOp51
 70
     0
102
RTVSPropertyOp52
 70
     0
102
RTVSPropertyOp53
 70
     1
102
RTVSPropertyOp54
 70
     1
102
RTVSPropertyOp55
 70
     1
102
RTVSPropertyOp56
 70
     1
102
RTVSPropertyOp57
 70
     1
102
RTVSPropertyOp58
 70
     1
102
RTVSPropertyOp59
 70
     1
102
RTVSPropertyOp60
 70
     1
102
RTVSPropertyOp61
 70
     1
102
RTVSPropertyOp62
 70
     1
  0
XRECORD
  5
13DD
102
{ACAD_REACTORS
330
13DC
102
}
330
13DC
100
AcDbXrecord
280
     1
102
RTVSPost2010Prop28
280
     0
102
RTVSPost2010PropOp28
 70
     1
102
RTVSPost2010Prop29
280
     1
102
RTVSPost2010PropOp29
 70
     1
102
RTVSPost2010Prop30
280
     1
102
RTVSPost2010PropOp30
 70
     1
102
RTVSPost2010Prop31
280
     0
102
RTVSPost2010PropOp31
 70
     1
102
RTVSPost2010Prop32
280
     0
102
RTVSPost2010PropOp32
 70
     1
102
RTVSPost2010Prop33
280
     0
102
RTVSPost2010PropOp33
 70
     1
102
RTVSPost2010Prop34
280
     0
102
RTVSPost2010PropOp34
 70
     1
102
RTVSPost2010Prop35
280
     0
102
RTVSPost2010PropOp35
 70
     1
102
RTVSPost2010Prop36
280
     0
102
RTVSPost2010PropOp36
 70
     1
102
RTVSPost2010Prop37
 90
       50
102
RTVSPost2010PropOp37
 70
     1
102
RTVSPost2010Prop38
140
0.0
102
RTVSPost2010PropOp38
 70
     1
102
RTVSPost2010Prop39
140
1.0
102
RTVSPost2010PropOp39
 70
     1
102
RTVSPost2010Prop40
 90
        0
102
RTVSPost2010PropOp40
 70
     1
102
RTVSPost2010Prop41ColorIndex
 90
       18
102
RTVSPost2010Prop41ColorRGB
 90
        0
102
RTVSPost2010PropOp41
 70
     1
102
RTVSPost2010Prop42
 90
       50
102
RTVSPost2010PropOp42
 70
     1
102
RTVSPost2010Prop43
 90
        3
102
RTVSPost2010PropOp43
 70
     1
102
RTVSPost2010Prop44ColorIndex
 90
        5
102
RTVSPost2010Prop44ColorRGB
 90
      255
102
RTVSPost2010PropOp44
 70
     1
102
RTVSPost2010Prop45
280
     0
102
RTVSPost2010PropOp45
 70
     1
102
RTVSPost2010Prop46
 90
       50
102
RTVSPost2010PropOp46
 70
     1
102
RTVSPost2010Prop47
 90
       50
102
RTVSPost2010PropOp47
 70
     1
102
RTVSPost2010Prop48
 90
       50
102
RTVSPost2010PropOp48
 70
     1
102
RTVSPost2010Prop49
280
     0
102
RTVSPost2010PropOp49
 70
     1
102
RTVSPost2010Prop50
 90
       50
102
RTVSPost2010PropOp50
 70
     1
102
RTVSPost2010Prop51ColorIndex
 90
      256
102
RTVSPost2010Prop51ColorRGB
 90
-16777216
102
RTVSPost2010PropOp51
 70
     0
102
RTVSPost2010Prop52
140
1.0
102
RTVSPost2010PropOp52
 70
     0
102
RTVSPost2010Prop53
 90
        2
102
RTVSPost2010PropOp53
 70
     1
102
RTVSPost2010Prop54
  1
strokes_ogs.tif
102
RTVSPost2010PropOp54
 70
     1
102
RTVSPost2010Prop55
280
     0
102
RTVSPost2010PropOp55
 70
     1
102
RTVSPost2010Prop56
140
1.0
102
RTVSPost2010PropOp56
 70
     1
102
RTVSPost2010Prop57
140
1.0
102
RTVSPost2010PropOp57
 70
     1
102
RTVSPropertyOp0
 70
     1
102
RTVSPropertyOp1
 70
     1
102
RTVSPropertyOp2
 70
     1
102
RTVSPropertyOp3
 70
     1
102
RTVSPropertyOp4
 70
     1
102
RTVSPropertyOp5
 70
     1
102
RTVSPropertyOp6
 70
     1
102
RTVSPropertyOp7
 70
     1
102
RTVSPropertyOp8
 70
     1
102
RTVSPropertyOp9
 70
     1
102
RTVSPropertyOp10
 70
     1
102
RTVSPropertyOp11
 70
     1
102
RTVSPropertyOp12
 70
     1
102
RTVSPropertyOp13
 70
     1
102
RTVSPropertyOp14
 70
     1
102
RTVSPropertyOp15
 70
     1
102
RTVSPropertyOp16
 70
     1
102
RTVSPropertyOp17
 70
     1
102
RTVSPropertyOp18
 70
     1
102
RTVSPropertyOp19
 70
     1
102
RTVSPropertyOp20
 70
     1
102
RTVSPropertyOp21
 70
     1
102
RTVSPropertyOp22
 70
     1
102
RTVSPropertyOp23
 70
     1
102
RTVSPropertyOp24
 70
     1
102
RTVSPropertyOp25
 70
     1
102
RTVSPropertyOp26
 70
     1
102
RTVSPropertyOp27
 70
     1
102
RTVSPropertyOp28
 70
     1
102
RTVSPropertyOp29
 70
     1
102
RTVSPropertyOp30
 70
     1
102
RTVSPropertyOp31
 70
     1
102
RTVSPropertyOp32
 70
     1
102
RTVSPropertyOp33
 70
     1
102
RTVSPropertyOp34
 70
     1
102
RTVSPropertyOp35
 70
     1
102
RTVSPropertyOp36
 70
     1
102
RTVSPropertyOp37
 70
     1
102
RTVSPropertyOp38
 70
     1
102
RTVSPropertyOp39
 70
     1
102
RTVSPropertyOp40
 70
     1
102
RTVSPropertyOp41
 70
     1
102
RTVSPropertyOp42
 70
     1
102
RTVSPropertyOp43
 70
     1
102
RTVSPropertyOp44
 70
     1
102
RTVSPropertyOp45
 70
     1
102
RTVSPropertyOp46
 70
     1
102
RTVSPropertyOp47
 70
     1
102
RTVSPropertyOp48
 70
     1
102
RTVSPropertyOp49
 70
     1
102
RTVSPropertyOp50
 70
     1
102
RTVSPropertyOp51
 70
     0
102
RTVSPropertyOp52
 70
     0
102
RTVSPropertyOp53
 70
     1
102
RTVSPropertyOp54
 70
     1
102
RTVSPropertyOp55
 70
     1
102
RTVSPropertyOp56
 70
     1
102
RTVSPropertyOp57
 70
     1
102
RTVSPropertyOp58
 70
     1
102
RTVSPropertyOp59
 70
     1
102
RTVSPropertyOp60
 70
     1
102
RTVSPropertyOp61
 70
     1
102
RTVSPropertyOp62
 70
     1
  0
XRECORD
  5
13D7
102
{ACAD_REACTORS
330
13D6
102
}
330
13D6
100
AcDbXrecord
280
     1
102
RTVSPost2010Prop28
280
     0
102
RTVSPost2010PropOp28
 70
     1
102
RTVSPost2010Prop29
280
     1
102
RTVSPost2010PropOp29
 70
     1
102
RTVSPost2010Prop30
280
     1
102
RTVSPost2010PropOp30
 70
     1
102
RTVSPost2010Prop31
280
     0
102
RTVSPost2010PropOp31
 70
     1
102
RTVSPost2010Prop32
280
     0
102
RTVSPost2010PropOp32
 70
     1
102
RTVSPost2010Prop33
280
     0
102
RTVSPost2010PropOp33
 70
     1
102
RTVSPost2010Prop34
280
     0
102
RTVSPost2010PropOp34
 70
     1
102
RTVSPost2010Prop35
280
     0
102
RTVSPost2010PropOp35
 70
     1
102
RTVSPost2010Prop36
280
     0
102
RTVSPost2010PropOp36
 70
     1
102
RTVSPost2010Prop37
 90
       50
102
RTVSPost2010PropOp37
 70
     1
102
RTVSPost2010Prop38
140
0.0
102
RTVSPost2010PropOp38
 70
     1
102
RTVSPost2010Prop39
140
1.0
102
RTVSPost2010PropOp39
 70
     1
102
RTVSPost2010Prop40
 90
        0
102
RTVSPost2010PropOp40
 70
     1
102
RTVSPost2010Prop41ColorIndex
 90
       18
102
RTVSPost2010Prop41ColorRGB
 90
        0
102
RTVSPost2010PropOp41
 70
     1
102
RTVSPost2010Prop42
 90
       50
102
RTVSPost2010PropOp42
 70
     1
102
RTVSPost2010Prop43
 90
        3
102
RTVSPost2010PropOp43
 70
     1
102
RTVSPost2010Prop44ColorIndex
 90
        5
102
RTVSPost2010Prop44ColorRGB
 90
      255
102
RTVSPost2010PropOp44
 70
     1
102
RTVSPost2010Prop45
280
     0
102
RTVSPost2010PropOp45
 70
     1
102
RTVSPost2010Prop46
 90
       50
102
RTVSPost2010PropOp46
 70
     1
102
RTVSPost2010Prop47
 90
       50
102
RTVSPost2010PropOp47
 70
     1
102
RTVSPost2010Prop48
 90
       50
102
RTVSPost2010PropOp48
 70
     1
102
RTVSPost2010Prop49
280
     0
102
RTVSPost2010PropOp49
 70
     1
102
RTVSPost2010Prop50
 90
       50
102
RTVSPost2010PropOp50
 70
     1
102
RTVSPost2010Prop51ColorIndex
 90
      256
102
RTVSPost2010Prop51ColorRGB
 90
-16777216
102
RTVSPost2010PropOp51
 70
     0
102
RTVSPost2010Prop52
140
1.0
102
RTVSPost2010PropOp52
 70
     0
102
RTVSPost2010Prop53
 90
        2
102
RTVSPost2010PropOp53
 70
     1
102
RTVSPost2010Prop54
  1
strokes_ogs.tif
102
RTVSPost2010PropOp54
 70
     1
102
RTVSPost2010Prop55
280
     0
102
RTVSPost2010PropOp55
 70
     1
102
RTVSPost2010Prop56
140
1.0
102
RTVSPost2010PropOp56
 70
     1
102
RTVSPost2010Prop57
140
1.0
102
RTVSPost2010PropOp57
 70
     1
102
RTVSPropertyOp0
 70
     1
102
RTVSPropertyOp1
 70
     1
102
RTVSPropertyOp2
 70
     1
102
RTVSPropertyOp3
 70
     1
102
RTVSPropertyOp4
 70
     1
102
RTVSPropertyOp5
 70
     1
102
RTVSPropertyOp6
 70
     1
102
RTVSPropertyOp7
 70
     1
102
RTVSPropertyOp8
 70
     1
102
RTVSPropertyOp9
 70
     1
102
RTVSPropertyOp10
 70
     1
102
RTVSPropertyOp11
 70
     1
102
RTVSPropertyOp12
 70
     1
102
RTVSPropertyOp13
 70
     1
102
RTVSPropertyOp14
 70
     1
102
RTVSPropertyOp15
 70
     1
102
RTVSPropertyOp16
 70
     1
102
RTVSPropertyOp17
 70
     1
102
RTVSPropertyOp18
 70
     1
102
RTVSPropertyOp19
 70
     1
102
RTVSPropertyOp20
 70
     1
102
RTVSPropertyOp21
 70
     1
102
RTVSPropertyOp22
 70
     1
102
RTVSPropertyOp23
 70
     1
102
RTVSPropertyOp24
 70
     1
102
RTVSPropertyOp25
 70
     1
102
RTVSPropertyOp26
 70
     1
102
RTVSPropertyOp27
 70
     1
102
RTVSPropertyOp28
 70
     1
102
RTVSPropertyOp29
 70
     1
102
RTVSPropertyOp30
 70
     1
102
RTVSPropertyOp31
 70
     1
102
RTVSPropertyOp32
 70
     1
102
RTVSPropertyOp33
 70
     1
102
RTVSPropertyOp34
 70
     1
102
RTVSPropertyOp35
 70
     1
102
RTVSPropertyOp36
 70
     1
102
RTVSPropertyOp37
 70
     1
102
RTVSPropertyOp38
 70
     1
102
RTVSPropertyOp39
 70
     1
102
RTVSPropertyOp40
 70
     1
102
RTVSPropertyOp41
 70
     1
102
RTVSPropertyOp42
 70
     1
102
RTVSPropertyOp43
 70
     1
102
RTVSPropertyOp44
 70
     1
102
RTVSPropertyOp45
 70
     1
102
RTVSPropertyOp46
 70
     1
102
RTVSPropertyOp47
 70
     1
102
RTVSPropertyOp48
 70
     1
102
RTVSPropertyOp49
 70
     1
102
RTVSPropertyOp50
 70
     1
102
RTVSPropertyOp51
 70
     0
102
RTVSPropertyOp52
 70
     0
102
RTVSPropertyOp53
 70
     1
102
RTVSPropertyOp54
 70
     1
102
RTVSPropertyOp55
 70
     1
102
RTVSPropertyOp56
 70
     1
102
RTVSPropertyOp57
 70
     1
102
RTVSPropertyOp58
 70
     1
102
RTVSPropertyOp59
 70
     1
102
RTVSPropertyOp60
 70
     1
102
RTVSPropertyOp61
 70
     1
102
RTVSPropertyOp62
 70
     1
  0
XRECORD
  5
13D9
102
{ACAD_REACTORS
330
13D8
102
}
330
13D8
100
AcDbXrecord
280
     1
102
RTVSPost2010Prop28
280
     0
102
RTVSPost2010PropOp28
 70
     1
102
RTVSPost2010Prop29
280
     1
102
RTVSPost2010PropOp29
 70
     1
102
RTVSPost2010Prop30
280
     1
102
RTVSPost2010PropOp30
 70
     1
102
RTVSPost2010Prop31
280
     0
102
RTVSPost2010PropOp31
 70
     1
102
RTVSPost2010Prop32
280
     0
102
RTVSPost2010PropOp32
 70
     1
102
RTVSPost2010Prop33
280
     0
102
RTVSPost2010PropOp33
 70
     1
102
RTVSPost2010Prop34
280
     0
102
RTVSPost2010PropOp34
 70
     1
102
RTVSPost2010Prop35
280
     0
102
RTVSPost2010PropOp35
 70
     1
102
RTVSPost2010Prop36
280
     0
102
RTVSPost2010PropOp36
 70
     1
102
RTVSPost2010Prop37
 90
       50
102
RTVSPost2010PropOp37
 70
     1
102
RTVSPost2010Prop38
140
0.0
102
RTVSPost2010PropOp38
 70
     1
102
RTVSPost2010Prop39
140
1.0
102
RTVSPost2010PropOp39
 70
     1
102
RTVSPost2010Prop40
 90
        0
102
RTVSPost2010PropOp40
 70
     1
102
RTVSPost2010Prop41ColorIndex
 90
       18
102
RTVSPost2010Prop41ColorRGB
 90
        0
102
RTVSPost2010PropOp41
 70
     1
102
RTVSPost2010Prop42
 90
       50
102
RTVSPost2010PropOp42
 70
     1
102
RTVSPost2010Prop43
 90
        3
102
RTVSPost2010PropOp43
 70
     1
102
RTVSPost2010Prop44ColorIndex
 90
        5
102
RTVSPost2010Prop44ColorRGB
 90
      255
102
RTVSPost2010PropOp44
 70
     1
102
RTVSPost2010Prop45
280
     0
102
RTVSPost2010PropOp45
 70
     1
102
RTVSPost2010Prop46
 90
       50
102
RTVSPost2010PropOp46
 70
     1
102
RTVSPost2010Prop47
 90
       50
102
RTVSPost2010PropOp47
 70
     1
102
RTVSPost2010Prop48
 90
       50
102
RTVSPost2010PropOp48
 70
     1
102
RTVSPost2010Prop49
280
     0
102
RTVSPost2010PropOp49
 70
     1
102
RTVSPost2010Prop50
 90
       50
102
RTVSPost2010PropOp50
 70
     1
102
RTVSPost2010Prop51ColorIndex
 90
      256
102
RTVSPost2010Prop51ColorRGB
 90
-16777216
102
RTVSPost2010PropOp51
 70
     0
102
RTVSPost2010Prop52
140
1.0
102
RTVSPost2010PropOp52
 70
     0
102
RTVSPost2010Prop53
 90
        2
102
RTVSPost2010PropOp53
 70
     1
102
RTVSPost2010Prop54
  1
strokes_ogs.tif
102
RTVSPost2010PropOp54
 70
     1
102
RTVSPost2010Prop55
280
     0
102
RTVSPost2010PropOp55
 70
     1
102
RTVSPost2010Prop56
140
1.0
102
RTVSPost2010PropOp56
 70
     1
102
RTVSPost2010Prop57
140
1.0
102
RTVSPost2010PropOp57
 70
     1
102
RTVSPropertyOp0
 70
     1
102
RTVSPropertyOp1
 70
     1
102
RTVSPropertyOp2
 70
     1
102
RTVSPropertyOp3
 70
     1
102
RTVSPropertyOp4
 70
     1
102
RTVSPropertyOp5
 70
     1
102
RTVSPropertyOp6
 70
     1
102
RTVSPropertyOp7
 70
     1
102
RTVSPropertyOp8
 70
     1
102
RTVSPropertyOp9
 70
     1
102
RTVSPropertyOp10
 70
     1
102
RTVSPropertyOp11
 70
     1
102
RTVSPropertyOp12
 70
     1
102
RTVSPropertyOp13
 70
     1
102
RTVSPropertyOp14
 70
     1
102
RTVSPropertyOp15
 70
     1
102
RTVSPropertyOp16
 70
     1
102
RTVSPropertyOp17
 70
     1
102
RTVSPropertyOp18
 70
     1
102
RTVSPropertyOp19
 70
     1
102
RTVSPropertyOp20
 70
     1
102
RTVSPropertyOp21
 70
     1
102
RTVSPropertyOp22
 70
     1
102
RTVSPropertyOp23
 70
     1
102
RTVSPropertyOp24
 70
     1
102
RTVSPropertyOp25
 70
     1
102
RTVSPropertyOp26
 70
     1
102
RTVSPropertyOp27
 70
     1
102
RTVSPropertyOp28
 70
     1
102
RTVSPropertyOp29
 70
     1
102
RTVSPropertyOp30
 70
     1
102
RTVSPropertyOp31
 70
     1
102
RTVSPropertyOp32
 70
     1
102
RTVSPropertyOp33
 70
     1
102
RTVSPropertyOp34
 70
     1
102
RTVSPropertyOp35
 70
     1
102
RTVSPropertyOp36
 70
     1
102
RTVSPropertyOp37
 70
     1
102
RTVSPropertyOp38
 70
     1
102
RTVSPropertyOp39
 70
     1
102
RTVSPropertyOp40
 70
     1
102
RTVSPropertyOp41
 70
     1
102
RTVSPropertyOp42
 70
     1
102
RTVSPropertyOp43
 70
     1
102
RTVSPropertyOp44
 70
     1
102
RTVSPropertyOp45
 70
     1
102
RTVSPropertyOp46
 70
     1
102
RTVSPropertyOp47
 70
     1
102
RTVSPropertyOp48
 70
     1
102
RTVSPropertyOp49
 70
     1
102
RTVSPropertyOp50
 70
     1
102
RTVSPropertyOp51
 70
     0
102
RTVSPropertyOp52
 70
     0
102
RTVSPropertyOp53
 70
     1
102
RTVSPropertyOp54
 70
     1
102
RTVSPropertyOp55
 70
     1
102
RTVSPropertyOp56
 70
     1
102
RTVSPropertyOp57
 70
     1
102
RTVSPropertyOp58
 70
     1
102
RTVSPropertyOp59
 70
     1
102
RTVSPropertyOp60
 70
     1
102
RTVSPropertyOp61
 70
     1
102
RTVSPropertyOp62
 70
     1
  0
XRECORD
  5
13BC
102
{ACAD_REACTORS
330
13BB
102
}
330
13BB
100
AcDbXrecord
280
     1
102
RTVSPost2010Prop28
280
     0
102
RTVSPost2010PropOp28
 70
     1
102
RTVSPost2010Prop29
280
     1
102
RTVSPost2010PropOp29
 70
     1
102
RTVSPost2010Prop30
280
     1
102
RTVSPost2010PropOp30
 70
     1
102
RTVSPost2010Prop31
280
     0
102
RTVSPost2010PropOp31
 70
     1
102
RTVSPost2010Prop32
280
     0
102
RTVSPost2010PropOp32
 70
     1
102
RTVSPost2010Prop33
280
     0
102
RTVSPost2010PropOp33
 70
     1
102
RTVSPost2010Prop34
280
     0
102
RTVSPost2010PropOp34
 70
     1
102
RTVSPost2010Prop35
280
     0
102
RTVSPost2010PropOp35
 70
     1
102
RTVSPost2010Prop36
280
     0
102
RTVSPost2010PropOp36
 70
     1
102
RTVSPost2010Prop37
 90
       50
102
RTVSPost2010PropOp37
 70
     1
102
RTVSPost2010Prop38
140
0.0
102
RTVSPost2010PropOp38
 70
     1
102
RTVSPost2010Prop39
140
1.0
102
RTVSPost2010PropOp39
 70
     1
102
RTVSPost2010Prop40
 90
        0
102
RTVSPost2010PropOp40
 70
     1
102
RTVSPost2010Prop41ColorIndex
 90
       18
102
RTVSPost2010Prop41ColorRGB
 90
        0
102
RTVSPost2010PropOp41
 70
     1
102
RTVSPost2010Prop42
 90
       50
102
RTVSPost2010PropOp42
 70
     1
102
RTVSPost2010Prop43
 90
        3
102
RTVSPost2010PropOp43
 70
     1
102
RTVSPost2010Prop44ColorIndex
 90
        5
102
RTVSPost2010Prop44ColorRGB
 90
      255
102
RTVSPost2010PropOp44
 70
     1
102
RTVSPost2010Prop45
280
     0
102
RTVSPost2010PropOp45
 70
     1
102
RTVSPost2010Prop46
 90
       50
102
RTVSPost2010PropOp46
 70
     1
102
RTVSPost2010Prop47
 90
       50
102
RTVSPost2010PropOp47
 70
     1
102
RTVSPost2010Prop48
 90
       50
102
RTVSPost2010PropOp48
 70
     1
102
RTVSPost2010Prop49
280
     0
102
RTVSPost2010PropOp49
 70
     1
102
RTVSPost2010Prop50
 90
       50
102
RTVSPost2010PropOp50
 70
     1
102
RTVSPost2010Prop51ColorIndex
 90
      256
102
RTVSPost2010Prop51ColorRGB
 90
-16777216
102
RTVSPost2010PropOp51
 70
     0
102
RTVSPost2010Prop52
140
1.0
102
RTVSPost2010PropOp52
 70
     0
102
RTVSPost2010Prop53
 90
        2
102
RTVSPost2010PropOp53
 70
     1
102
RTVSPost2010Prop54
  1
strokes_ogs.tif
102
RTVSPost2010PropOp54
 70
     1
102
RTVSPost2010Prop55
280
     0
102
RTVSPost2010PropOp55
 70
     1
102
RTVSPost2010Prop56
140
1.0
102
RTVSPost2010PropOp56
 70
     1
102
RTVSPost2010Prop57
140
1.0
102
RTVSPost2010PropOp57
 70
     1
102
RTVSPropertyOp0
 70
     1
102
RTVSPropertyOp1
 70
     1
102
RTVSPropertyOp2
 70
     1
102
RTVSPropertyOp3
 70
     1
102
RTVSPropertyOp4
 70
     1
102
RTVSPropertyOp5
 70
     1
102
RTVSPropertyOp6
 70
     1
102
RTVSPropertyOp7
 70
     1
102
RTVSPropertyOp8
 70
     1
102
RTVSPropertyOp9
 70
     1
102
RTVSPropertyOp10
 70
     1
102
RTVSPropertyOp11
 70
     1
102
RTVSPropertyOp12
 70
     1
102
RTVSPropertyOp13
 70
     1
102
RTVSPropertyOp14
 70
     1
102
RTVSPropertyOp15
 70
     1
102
RTVSPropertyOp16
 70
     1
102
RTVSPropertyOp17
 70
     1
102
RTVSPropertyOp18
 70
     1
102
RTVSPropertyOp19
 70
     1
102
RTVSPropertyOp20
 70
     1
102
RTVSPropertyOp21
 70
     1
102
RTVSPropertyOp22
 70
     1
102
RTVSPropertyOp23
 70
     1
102
RTVSPropertyOp24
 70
     1
102
RTVSPropertyOp25
 70
     1
102
RTVSPropertyOp26
 70
     1
102
RTVSPropertyOp27
 70
     1
102
RTVSPropertyOp28
 70
     1
102
RTVSPropertyOp29
 70
     1
102
RTVSPropertyOp30
 70
     1
102
RTVSPropertyOp31
 70
     1
102
RTVSPropertyOp32
 70
     1
102
RTVSPropertyOp33
 70
     1
102
RTVSPropertyOp34
 70
     1
102
RTVSPropertyOp35
 70
     1
102
RTVSPropertyOp36
 70
     1
102
RTVSPropertyOp37
 70
     1
102
RTVSPropertyOp38
 70
     1
102
RTVSPropertyOp39
 70
     1
102
RTVSPropertyOp40
 70
     1
102
RTVSPropertyOp41
 70
     1
102
RTVSPropertyOp42
 70
     1
102
RTVSPropertyOp43
 70
     1
102
RTVSPropertyOp44
 70
     1
102
RTVSPropertyOp45
 70
     1
102
RTVSPropertyOp46
 70
     1
102
RTVSPropertyOp47
 70
     1
102
RTVSPropertyOp48
 70
     1
102
RTVSPropertyOp49
 70
     1
102
RTVSPropertyOp50
 70
     1
102
RTVSPropertyOp51
 70
     0
102
RTVSPropertyOp52
 70
     0
102
RTVSPropertyOp53
 70
     1
102
RTVSPropertyOp54
 70
     1
102
RTVSPropertyOp55
 70
     1
102
RTVSPropertyOp56
 70
     1
102
RTVSPropertyOp57
 70
     1
102
RTVSPropertyOp58
 70
     1
102
RTVSPropertyOp59
 70
     1
102
RTVSPropertyOp60
 70
     1
102
RTVSPropertyOp61
 70
     1
102
RTVSPropertyOp62
 70
     1
  0
XRECORD
  5
13D3
102
{ACAD_REACTORS
330
13D2
102
}
330
13D2
100
AcDbXrecord
280
     1
102
RTVSPost2010Prop28
280
     0
102
RTVSPost2010PropOp28
 70
     1
102
RTVSPost2010Prop29
280
     1
102
RTVSPost2010PropOp29
 70
     1
102
RTVSPost2010Prop30
280
     1
102
RTVSPost2010PropOp30
 70
     1
102
RTVSPost2010Prop31
280
     0
102
RTVSPost2010PropOp31
 70
     1
102
RTVSPost2010Prop32
280
     0
102
RTVSPost2010PropOp32
 70
     1
102
RTVSPost2010Prop33
280
     0
102
RTVSPost2010PropOp33
 70
     1
102
RTVSPost2010Prop34
280
     0
102
RTVSPost2010PropOp34
 70
     1
102
RTVSPost2010Prop35
280
     0
102
RTVSPost2010PropOp35
 70
     1
102
RTVSPost2010Prop36
280
     0
102
RTVSPost2010PropOp36
 70
     1
102
RTVSPost2010Prop37
 90
       50
102
RTVSPost2010PropOp37
 70
     1
102
RTVSPost2010Prop38
140
0.0
102
RTVSPost2010PropOp38
 70
     1
102
RTVSPost2010Prop39
140
1.0
102
RTVSPost2010PropOp39
 70
     1
102
RTVSPost2010Prop40
 90
        0
102
RTVSPost2010PropOp40
 70
     1
102
RTVSPost2010Prop41ColorIndex
 90
       18
102
RTVSPost2010Prop41ColorRGB
 90
        0
102
RTVSPost2010PropOp41
 70
     1
102
RTVSPost2010Prop42
 90
       50
102
RTVSPost2010PropOp42
 70
     1
102
RTVSPost2010Prop43
 90
        3
102
RTVSPost2010PropOp43
 70
     1
102
RTVSPost2010Prop44ColorIndex
 90
        5
102
RTVSPost2010Prop44ColorRGB
 90
      255
102
RTVSPost2010PropOp44
 70
     1
102
RTVSPost2010Prop45
280
     0
102
RTVSPost2010PropOp45
 70
     1
102
RTVSPost2010Prop46
 90
       50
102
RTVSPost2010PropOp46
 70
     1
102
RTVSPost2010Prop47
 90
       50
102
RTVSPost2010PropOp47
 70
     1
102
RTVSPost2010Prop48
 90
       50
102
RTVSPost2010PropOp48
 70
     1
102
RTVSPost2010Prop49
280
     0
102
RTVSPost2010PropOp49
 70
     1
102
RTVSPost2010Prop50
 90
       50
102
RTVSPost2010PropOp50
 70
     1
102
RTVSPost2010Prop51ColorIndex
 90
      256
102
RTVSPost2010Prop51ColorRGB
 90
-16777216
102
RTVSPost2010PropOp51
 70
     0
102
RTVSPost2010Prop52
140
1.0
102
RTVSPost2010PropOp52
 70
     0
102
RTVSPost2010Prop53
 90
        2
102
RTVSPost2010PropOp53
 70
     1
102
RTVSPost2010Prop54
  1
strokes_ogs.tif
102
RTVSPost2010PropOp54
 70
     1
102
RTVSPost2010Prop55
280
     0
102
RTVSPost2010PropOp55
 70
     1
102
RTVSPost2010Prop56
140
1.0
102
RTVSPost2010PropOp56
 70
     1
102
RTVSPost2010Prop57
140
1.0
102
RTVSPost2010PropOp57
 70
     1
102
RTVSPropertyOp0
 70
     1
102
RTVSPropertyOp1
 70
     1
102
RTVSPropertyOp2
 70
     1
102
RTVSPropertyOp3
 70
     1
102
RTVSPropertyOp4
 70
     1
102
RTVSPropertyOp5
 70
     1
102
RTVSPropertyOp6
 70
     1
102
RTVSPropertyOp7
 70
     1
102
RTVSPropertyOp8
 70
     1
102
RTVSPropertyOp9
 70
     1
102
RTVSPropertyOp10
 70
     1
102
RTVSPropertyOp11
 70
     1
102
RTVSPropertyOp12
 70
     1
102
RTVSPropertyOp13
 70
     1
102
RTVSPropertyOp14
 70
     1
102
RTVSPropertyOp15
 70
     1
102
RTVSPropertyOp16
 70
     1
102
RTVSPropertyOp17
 70
     1
102
RTVSPropertyOp18
 70
     1
102
RTVSPropertyOp19
 70
     1
102
RTVSPropertyOp20
 70
     1
102
RTVSPropertyOp21
 70
     1
102
RTVSPropertyOp22
 70
     1
102
RTVSPropertyOp23
 70
     1
102
RTVSPropertyOp24
 70
     1
102
RTVSPropertyOp25
 70
     1
102
RTVSPropertyOp26
 70
     1
102
RTVSPropertyOp27
 70
     1
102
RTVSPropertyOp28
 70
     1
102
RTVSPropertyOp29
 70
     1
102
RTVSPropertyOp30
 70
     1
102
RTVSPropertyOp31
 70
     1
102
RTVSPropertyOp32
 70
     1
102
RTVSPropertyOp33
 70
     1
102
RTVSPropertyOp34
 70
     1
102
RTVSPropertyOp35
 70
     1
102
RTVSPropertyOp36
 70
     1
102
RTVSPropertyOp37
 70
     1
102
RTVSPropertyOp38
 70
     1
102
RTVSPropertyOp39
 70
     1
102
RTVSPropertyOp40
 70
     1
102
RTVSPropertyOp41
 70
     1
102
RTVSPropertyOp42
 70
     1
102
RTVSPropertyOp43
 70
     1
102
RTVSPropertyOp44
 70
     1
102
RTVSPropertyOp45
 70
     1
102
RTVSPropertyOp46
 70
     1
102
RTVSPropertyOp47
 70
     1
102
RTVSPropertyOp48
 70
     1
102
RTVSPropertyOp49
 70
     1
102
RTVSPropertyOp50
 70
     1
102
RTVSPropertyOp51
 70
     0
102
RTVSPropertyOp52
 70
     0
102
RTVSPropertyOp53
 70
     1
102
RTVSPropertyOp54
 70
     1
102
RTVSPropertyOp55
 70
     1
102
RTVSPropertyOp56
 70
     1
102
RTVSPropertyOp57
 70
     1
102
RTVSPropertyOp58
 70
     1
102
RTVSPropertyOp59
 70
     1
102
RTVSPropertyOp60
 70
     1
102
RTVSPropertyOp61
 70
     1
102
RTVSPropertyOp62
 70
     1
  0
XRECORD
  5
13DB
102
{ACAD_REACTORS
330
13DA
102
}
330
13DA
100
AcDbXrecord
280
     1
102
RTVSPost2010Prop28
280
     0
102
RTVSPost2010PropOp28
 70
     1
102
RTVSPost2010Prop29
280
     1
102
RTVSPost2010PropOp29
 70
     1
102
RTVSPost2010Prop30
280
     1
102
RTVSPost2010PropOp30
 70
     1
102
RTVSPost2010Prop31
280
     0
102
RTVSPost2010PropOp31
 70
     1
102
RTVSPost2010Prop32
280
     0
102
RTVSPost2010PropOp32
 70
     1
102
RTVSPost2010Prop33
280
     0
102
RTVSPost2010PropOp33
 70
     1
102
RTVSPost2010Prop34
280
     0
102
RTVSPost2010PropOp34
 70
     1
102
RTVSPost2010Prop35
280
     0
102
RTVSPost2010PropOp35
 70
     1
102
RTVSPost2010Prop36
280
     0
102
RTVSPost2010PropOp36
 70
     1
102
RTVSPost2010Prop37
 90
       50
102
RTVSPost2010PropOp37
 70
     1
102
RTVSPost2010Prop38
140
0.0
102
RTVSPost2010PropOp38
 70
     1
102
RTVSPost2010Prop39
140
1.0
102
RTVSPost2010PropOp39
 70
     1
102
RTVSPost2010Prop40
 90
        0
102
RTVSPost2010PropOp40
 70
     1
102
RTVSPost2010Prop41ColorIndex
 90
       18
102
RTVSPost2010Prop41ColorRGB
 90
        0
102
RTVSPost2010PropOp41
 70
     1
102
RTVSPost2010Prop42
 90
       50
102
RTVSPost2010PropOp42
 70
     1
102
RTVSPost2010Prop43
 90
        3
102
RTVSPost2010PropOp43
 70
     1
102
RTVSPost2010Prop44ColorIndex
 90
        5
102
RTVSPost2010Prop44ColorRGB
 90
      255
102
RTVSPost2010PropOp44
 70
     1
102
RTVSPost2010Prop45
280
     0
102
RTVSPost2010PropOp45
 70
     1
102
RTVSPost2010Prop46
 90
       50
102
RTVSPost2010PropOp46
 70
     1
102
RTVSPost2010Prop47
 90
       50
102
RTVSPost2010PropOp47
 70
     1
102
RTVSPost2010Prop48
 90
       50
102
RTVSPost2010PropOp48
 70
     1
102
RTVSPost2010Prop49
280
     0
102
RTVSPost2010PropOp49
 70
     1
102
RTVSPost2010Prop50
 90
       50
102
RTVSPost2010PropOp50
 70
     1
102
RTVSPost2010Prop51ColorIndex
 90
      256
102
RTVSPost2010Prop51ColorRGB
 90
-16777216
102
RTVSPost2010PropOp51
 70
     0
102
RTVSPost2010Prop52
140
1.0
102
RTVSPost2010PropOp52
 70
     0
102
RTVSPost2010Prop53
 90
        2
102
RTVSPost2010PropOp53
 70
     1
102
RTVSPost2010Prop54
  1
strokes_ogs.tif
102
RTVSPost2010PropOp54
 70
     1
102
RTVSPost2010Prop55
280
     0
102
RTVSPost2010PropOp55
 70
     1
102
RTVSPost2010Prop56
140
1.0
102
RTVSPost2010PropOp56
 70
     1
102
RTVSPost2010Prop57
140
1.0
102
RTVSPost2010PropOp57
 70
     1
102
RTVSPropertyOp0
 70
     1
102
RTVSPropertyOp1
 70
     1
102
RTVSPropertyOp2
 70
     1
102
RTVSPropertyOp3
 70
     1
102
RTVSPropertyOp4
 70
     1
102
RTVSPropertyOp5
 70
     1
102
RTVSPropertyOp6
 70
     1
102
RTVSPropertyOp7
 70
     1
102
RTVSPropertyOp8
 70
     1
102
RTVSPropertyOp9
 70
     1
102
RTVSPropertyOp10
 70
     1
102
RTVSPropertyOp11
 70
     1
102
RTVSPropertyOp12
 70
     1
102
RTVSPropertyOp13
 70
     1
102
RTVSPropertyOp14
 70
     1
102
RTVSPropertyOp15
 70
     1
102
RTVSPropertyOp16
 70
     1
102
RTVSPropertyOp17
 70
     1
102
RTVSPropertyOp18
 70
     1
102
RTVSPropertyOp19
 70
     1
102
RTVSPropertyOp20
 70
     1
102
RTVSPropertyOp21
 70
     1
102
RTVSPropertyOp22
 70
     1
102
RTVSPropertyOp23
 70
     1
102
RTVSPropertyOp24
 70
     1
102
RTVSPropertyOp25
 70
     1
102
RTVSPropertyOp26
 70
     1
102
RTVSPropertyOp27
 70
     1
102
RTVSPropertyOp28
 70
     1
102
RTVSPropertyOp29
 70
     1
102
RTVSPropertyOp30
 70
     1
102
RTVSPropertyOp31
 70
     1
102
RTVSPropertyOp32
 70
     1
102
RTVSPropertyOp33
 70
     1
102
RTVSPropertyOp34
 70
     1
102
RTVSPropertyOp35
 70
     1
102
RTVSPropertyOp36
 70
     1
102
RTVSPropertyOp37
 70
     1
102
RTVSPropertyOp38
 70
     1
102
RTVSPropertyOp39
 70
     1
102
RTVSPropertyOp40
 70
     1
102
RTVSPropertyOp41
 70
     1
102
RTVSPropertyOp42
 70
     1
102
RTVSPropertyOp43
 70
     1
102
RTVSPropertyOp44
 70
     1
102
RTVSPropertyOp45
 70
     1
102
RTVSPropertyOp46
 70
     1
102
RTVSPropertyOp47
 70
     1
102
RTVSPropertyOp48
 70
     1
102
RTVSPropertyOp49
 70
     1
102
RTVSPropertyOp50
 70
     1
102
RTVSPropertyOp51
 70
     0
102
RTVSPropertyOp52
 70
     0
102
RTVSPropertyOp53
 70
     1
102
RTVSPropertyOp54
 70
     1
102
RTVSPropertyOp55
 70
     1
102
RTVSPropertyOp56
 70
     1
102
RTVSPropertyOp57
 70
     1
102
RTVSPropertyOp58
 70
     1
102
RTVSPropertyOp59
 70
     1
102
RTVSPropertyOp60
 70
     1
102
RTVSPropertyOp61
 70
     1
102
RTVSPropertyOp62
 70
     1
  0
ENDSEC
  0
EOF
