  0
SECTION
  2
HEADER
  9
$ACADVER
  1
AC1015
  9
$ACADMAINTVER
 70
    20
  9
$DWGCODEPAGE
  3
ANSI_1252
  9
$INSBASE
 10
0.0
 20
0.0
 30
0.0
  9
$EXTMIN
 10
83.5073413768635
 20
61.0751355475224
 30
-0.0015258207003583
  9
$EXTMAX
 10
192.320054324484
 20
131.707306760023
 30
0.0000000349246037
  9
$LIMMIN
 10
-170.0
 20
-170.0
  9
$LIMMAX
 10
519.0
 20
260.0
  9
$ORTHOMODE
 70
     0
  9
$REGENMODE
 70
     1
  9
$FILLMODE
 70
     1
  9
$QTEXTMODE
 70
     0
  9
$MIRRTEXT
 70
     0
  9
$LTSCALE
 40
1.0
  9
$ATTMODE
 70
     1
  9
$TEXTSIZE
 40
5.0
  9
$TRACEWID
 40
1.0
  9
$TEXTSTYLE
  7
STANDARD
  9
$CLAYER
  8
1
  9
$CELTYPE
  6
BYLAYER
  9
$CECOLOR
 62
   256
  9
$CELTSCALE
 40
1.0
  9
$DISPSILH
 70
     0
  9
$DIMSCALE
 40
1.0
  9
$DIMASZ
 40
2.5
  9
$DIMEXO
 40
1.0
  9
$DIMDLI
 40
15.0
  9
$DIMRND
 40
0.0
  9
$DIMDLE
 40
0.0
  9
$DIMEXE
 40
2.0
  9
$DIMTP
 40
0.0
  9
$DIMTM
 40
0.000000001
  9
$DIMTXT
 40
3.5
  9
$DIMCEN
 40
0.09
  9
$DIMTSZ
 40
0.0
  9
$DIMTOL
 70
     0
  9
$DIMLIM
 70
     0
  9
$DIMTIH
 70
     0
  9
$DIMTOH
 70
     0
  9
$DIMSE1
 70
     0
  9
$DIMSE2
 70
     0
  9
$DIMTAD
 70
     1
  9
$DIMZIN
 70
     8
  9
$DIMBLK
  1

  9
$DIMASO
 70
     1
  9
$DIMSHO
 70
     1
  9
$DIMPOST
  1

  9
$DIMAPOST
  1

  9
$DIMALT
 70
     0
  9
$DIMALTD
 70
     3
  9
$DIMALTF
 40
0.0393701
  9
$DIMLFAC
 40
1.0
  9
$DIMTOFL
 70
     1
  9
$DIMTVP
 40
0.0
  9
$DIMTIX
 70
     0
  9
$DIMSOXD
 70
     0
  9
$DIMSAH
 70
     0
  9
$DIMBLK1
  1

  9
$DIMBLK2
  1

  9
$DIMSTYLE
  2
AM_DIN
  9
$DIMCLRD
 70
     0
  9
$DIMCLRE
 70
     0
  9
$DIMCLRT
 70
     0
  9
$DIMTFAC
 40
0.7071069999999999
  9
$DIMGAP
 40
2.299999999999999
  9
$DIMJUST
 70
     0
  9
$DIMSD1
 70
     0
  9
$DIMSD2
 70
     0
  9
$DIMTOLJ
 70
     1
  9
$DIMTZIN
 70
     8
  9
$DIMALTZ
 70
    11
  9
$DIMALTTZ
 70
     8
  9
$DIMUPT
 70
     0
  9
$DIMDEC
 70
     2
  9
$DIMTDEC
 70
     2
  9
$DIMALTU
 70
     3
  9
$DIMALTTD
 70
     3
  9
$DIMTXSTY
  7
STANDARD 3.5 mm
  9
$DIMAUNIT
 70
     0
  9
$DIMADEC
 70
     0
  9
$DIMALTRND
 40
0.0
  9
$DIMAZIN
 70
     2
  9
$DIMDSEP
 70
    46
  9
$DIMATFIT
 70
     3
  9
$DIMFRAC
 70
     0
  9
$DIMLDRBLK
  1

  9
$DIMLUNIT
 70
     2
  9
$DIMLWD
 70
    -1
  9
$DIMLWE
 70
    -1
  9
$DIMTMOVE
 70
     0
  9
$LUNITS
 70
     2
  9
$LUPREC
 70
     4
  9
$SKETCHINC
 40
1.0
  9
$FILLETRAD
 40
0.0
  9
$AUNITS
 70
     0
  9
$AUPREC
 70
     0
  9
$MENU
  1
c:\tdm21\cad\caduti13\tdm13
  9
$ELEVATION
 40
0.0
  9
$PELEVATION
 40
0.0
  9
$THICKNESS
 40
0.0
  9
$LIMCHECK
 70
     0
  9
$CHAMFERA
 40
0.0
  9
$CHAMFERB
 40
0.0
  9
$CHAMFERC
 40
0.0
  9
$CHAMFERD
 40
0.0
  9
$SKPOLY
 70
     0
  9
$TDCREATE
 40
2457277.411367431
  9
$TDUCREATE
 40
2457277.182200764
  9
$TDUPDATE
 40
2457277.411856655
  9
$TDUUPDATE
 40
2457277.182689989
  9
$TDINDWG
 40
0.0004914699
  9
$TDUSRTIMER
 40
0.0004914120
  9
$USRTIMER
 70
     1
  9
$ANGBASE
 50
0.0
  9
$ANGDIR
 70
     0
  9
$PDMODE
 70
     1
  9
$PDSIZE
 40
0.0
  9
$PLINEWID
 40
0.0
  9
$SPLFRAME
 70
     0
  9
$SPLINETYPE
 70
     6
  9
$SPLINESEGS
 70
     8
  9
$HANDSEED
  5
12D0
  9
$SURFTAB1
 70
     6
  9
$SURFTAB2
 70
     6
  9
$SURFTYPE
 70
     6
  9
$SURFU
 70
     6
  9
$SURFV
 70
     6
  9
$UCSBASE
  2

  9
$UCSNAME
  2

  9
$UCSORG
 10
0.0
 20
0.0
 30
0.0
  9
$UCSXDIR
 10
1.0
 20
0.0
 30
0.0
  9
$UCSYDIR
 10
0.0
 20
1.0
 30
0.0
  9
$UCSORTHOREF
  2

  9
$UCSORTHOVIEW
 70
     0
  9
$UCSORGTOP
 10
0.0
 20
0.0
 30
0.0
  9
$UCSORGBOTTOM
 10
0.0
 20
0.0
 30
0.0
  9
$UCSORGLEFT
 10
0.0
 20
0.0
 30
0.0
  9
$UCSORGRIGHT
 10
0.0
 20
0.0
 30
0.0
  9
$UCSORGFRONT
 10
0.0
 20
0.0
 30
0.0
  9
$UCSORGBACK
 10
0.0
 20
0.0
 30
0.0
  9
$PUCSBASE
  2

  9
$PUCSNAME
  2

  9
$PUCSORG
 10
0.0
 20
0.0
 30
0.0
  9
$PUCSXDIR
 10
1.0
 20
0.0
 30
0.0
  9
$PUCSYDIR
 10
0.0
 20
1.0
 30
0.0
  9
$PUCSORTHOREF
  2

  9
$PUCSORTHOVIEW
 70
     0
  9
$PUCSORGTOP
 10
0.0
 20
0.0
 30
0.0
  9
$PUCSORGBOTTOM
 10
0.0
 20
0.0
 30
0.0
  9
$PUCSORGLEFT
 10
0.0
 20
0.0
 30
0.0
  9
$PUCSORGRIGHT
 10
0.0
 20
0.0
 30
0.0
  9
$PUCSORGFRONT
 10
0.0
 20
0.0
 30
0.0
  9
$PUCSORGBACK
 10
0.0
 20
0.0
 30
0.0
  9
$USERI1
 70
     0
  9
$USERI2
 70
     0
  9
$USERI3
 70
     0
  9
$USERI4
 70
     0
  9
$USERI5
 70
     0
  9
$USERR1
 40
0.0
  9
$USERR2
 40
0.0
  9
$USERR3
 40
0.0
  9
$USERR4
 40
0.0
  9
$USERR5
 40
0.0
  9
$WORLDVIEW
 70
     1
  9
$SHADEDGE
 70
     3
  9
$SHADEDIF
 70
    70
  9
$TILEMODE
 70
     1
  9
$MAXACTVP
 70
    64
  9
$PINSBASE
 10
0.0
 20
0.0
 30
0.0
  9
$PLIMCHECK
 70
     0
  9
$PEXTMIN
 10
-0.0226558438690745
 20
-0.0160192835437556
 30
-0.000000000000013
  9
$PEXTMAX
 10
297.000001383183
 20
210.0000009780083
 30
0.0000000000000023
  9
$PLIMMIN
 10
0.0
 20
0.0
  9
$PLIMMAX
 10
297.0
 20
210.0
  9
$UNITMODE
 70
     0
  9
$VISRETAIN
 70
     0
  9
$PLINEGEN
 70
     0
  9
$PSLTSCALE
 70
     1
  9
$TREEDEPTH
 70
  3020
  9
$CMLSTYLE
  2
STANDARD
  9
$CMLJUST
 70
     0
  9
$CMLSCALE
 40
20.0
  9
$PROXYGRAPHICS
 70
     1
  9
$MEASUREMENT
 70
     1
  9
$CELWEIGHT
370
    -1
  9
$ENDCAPS
280
     0
  9
$JOINSTYLE
280
     0
  9
$LWDISPLAY
290
     0
  9
$INSUNITS
 70
     0
  9
$HYPERLINKBASE
  1
http://www.secotools.com/
  9
$STYLESHEET
  1
monochrome.ctb
  9
$XEDIT
290
     1
  9
$CEPSNTYPE
380
     0
  9
$PSTYLEMODE
290
     1
  9
$FINGERPRINTGUID
  2
{D64AC1C5-EEAF-4532-AA28-D5A74E91FB0E}
  9
$VERSIONGUID
  2
{93298BE1-25E3-484A-9B81-80970385705B}
  9
$EXTNAMES
290
     1
  9
$PSVPSCALE
 40
0.0
  9
$OLESTARTUP
290
     0
  0
ENDSEC
  0
SECTION
  2
CLASSES
  0
CLASS
  1
ACDBDICTIONARYWDFLT
  2
AcDbDictionaryWithDefault
  3
ObjectDBX Classes
 90
        0
280
     0
281
     0
  0
CLASS
  1
ACDBPLACEHOLDER
  2
AcDbPlaceHolder
  3
ObjectDBX Classes
 90
        0
280
     0
281
     0
  0
CLASS
  1
LAYOUT
  2
AcDbLayout
  3
ObjectDBX Classes
 90
        0
280
     0
281
     0
  0
CLASS
  1
DICTIONARYVAR
  2
AcDbDictionaryVar
  3
ObjectDBX Classes
 90
        0
280
     0
281
     0
  0
CLASS
  1
TABLESTYLE
  2
AcDbTableStyle
  3
ObjectDBX Classes
 90
     4095
280
     0
281
     0
  0
CLASS
  1
MATERIAL
  2
AcDbMaterial
  3
ObjectDBX Classes
 90
     1153
280
     0
281
     0
  0
CLASS
  1
VISUALSTYLE
  2
AcDbVisualStyle
  3
ObjectDBX Classes
 90
     4095
280
     0
281
     0
  0
CLASS
  1
SCALE
  2
AcDbScale
  3
ObjectDBX Classes
 90
     1153
280
     0
281
     0
  0
CLASS
  1
MLEADERSTYLE
  2
AcDbMLeaderStyle
  3
ACDB_MLEADERSTYLE_CLASS
 90
     4095
280
     0
281
     0
  0
CLASS
  1
ACME_DOCUMENT
  2
AcMeDbDoc
  3
AcMeServices
 90
     1024
280
     0
281
     0
  0
CLASS
  1
AMGSETTINGSOBJ
  2
AmgSettingsObj
  3
"AcadM|Product Description: AutoCAD Mechanical|Company: Autodesk, Inc."
 90
     1024
280
     0
281
     0
  0
CLASS
  1
ACMESCOPE
  2
AcMeScope
  3
AcMeServices
 90
     1024
280
     0
281
     0
  0
CLASS
  1
ACMECOMMANDHISTORY
  2
AcMeCommandHistory
  3
AcMeServices
 90
     1024
280
     0
281
     0
  0
CLASS
  1
ACIMSYSVARMAN
  2
AcImSysVarManager
  3
AcMeServices
 90
     1024
280
     0
281
     0
  0
CLASS
  1
ACIMINTSYSVAR
  2
AcImIntSysVar
  3
AcMeServices
 90
     1024
280
     0
281
     0
  0
CLASS
  1
ACMEDRAWINGMAN
  2
AcMeDrawingMan
  3
AcMeServices
 90
    33792
280
     0
281
     0
  0
CLASS
  1
ACMEVIEW
  2
AcMeView
  3
AcMeServices
 90
    33792
280
     0
281
     0
  0
CLASS
  1
ACDBENTITYCACHE
  2
AcMeEntityCache
  3
AcMeServices
 90
     1024
280
     0
281
     0
  0
CLASS
  1
GSMANAGER
  2
AcMeGSManager
  3
AcMeServices
 90
    33792
280
     0
281
     0
  0
CLASS
  1
AMDTINTERNALREACTOR
  2
AmdtInternalReactor
  3
AcMeServices
 90
     1024
280
     0
281
     0
  0
CLASS
  1
ACMESTATEMGR
  2
AcMeStateMgr
  3
AcMeServices
 90
     1024
280
     0
281
     0
  0
CLASS
  1
ACGREFMASTER
  2
AcGrefMaster
  3
AcAttribServices
 90
     1024
280
     0
281
     0
  0
CLASS
  1
AM_DRAWING_MGR
  2
AcDmDwgMgr
  3
AcMechDwgViewMgmt
 90
     1024
280
     0
281
     0
  0
CLASS
  1
AM_DWG_DOCUMENT
  2
AcDmDwgDocument
  3
AcMechDwgViewMgmt
 90
     1024
280
     0
281
     0
  0
CLASS
  1
AM_DWG_SHEET
  2
AcDmSheet
  3
AcMechDwgViewMgmt
 90
     1024
280
     0
281
     0
  0
CLASS
  1
AM_VIEWDIMPARMAP
  2
AcDmViewDimParMap
  3
AcMechDwgViewMgmt
 90
     1024
280
     0
281
     0
  0
CLASS
  1
ACIMREALSYSVAR
  2
AcImRealSysVar
  3
AcMeServices
 90
     1024
280
     0
281
     0
  0
CLASS
  1
AM_DWGMGR_NAME
  2
AcDmDwgMgrName
  3
AcMechDwgViewMgmt
 90
     1024
280
     0
281
     0
  0
CLASS
  1
ACME_DATABASE
  2
AcMeDbDatabase
  3
AcMeServices
 90
     1024
280
     0
281
     0
  0
CLASS
  1
ACRFINSADJUSTERMGR
  2
AcRfInsAdjusterMgr
  3
AcMeServices
 90
     1024
280
     0
281
     0
  0
CLASS
  1
ACGREFACADMASTER
  2
AcGrefacadMaster
  3
AcGrefServices
 90
     1024
280
     0
281
     0
  0
CLASS
  1
AMDTMENUSTATEMGR
  2
AmdtMenuStateMgr
  3
McadcomServices
 90
     1024
280
     0
281
     0
  0
CLASS
  1
AMDTMCOMMENUSTATE
  2
AmdtMcomMenuState
  3
McadcomServices
 90
     1024
280
     0
281
     0
  0
CLASS
  1
AMIMASTER
  2
AmiMaster
  3
AmiServices
 90
     1024
280
     0
281
     0
  0
CLASS
  1
MAPIAMMOUDLE
  2
MApiAmModule
  3
MApiAmServices
 90
     1024
280
     0
281
     0
  0
CLASS
  1
ACIMSTRSYSVAR
  2
AcImStrSysVar
  3
AcMeServices
 90
     1024
280
     0
281
     0
  0
CLASS
  1
AMDTADMENUSTATE
  2
AmdtAdMenuState
  3
DesignerServices
 90
    33792
280
     0
281
     0
  0
CLASS
  1
ADAPPL
  2
AcAdAppl
  3
DesignerAssemblies
 90
    33792
280
     0
281
     0
  0
CLASS
  1
DEPMGR
  2
AcAdDepMgr
  3
DesignerAssemblies
 90
    33792
280
     0
281
     0
  0
CLASS
  1
PARAMMGR
  2
AcAdParamMgr
  3
DesignerAssemblies
 90
    33792
280
     0
281
     0
  0
CLASS
  1
PARAMSCOPE
  2
AcAdParamScope
  3
DesignerAssemblies
 90
    33792
280
     0
281
     0
  0
CLASS
  1
NAMEDAPPL
  2
AcAdNamedAppl
  3
DesignerAssemblies
 90
    33792
280
     0
281
     0
  0
CLASS
  1
AMDTDMMENUSTATE
  2
AmdtDmMenuState
  3
AcMechDwgViewMgmt
 90
    33792
280
     0
281
     0
  0
CLASS
  1
AMDTAMMENUSTATE
  2
AmdtAmMenuState
  3
DesignerAssemblies
 90
     1024
280
     0
281
     0
  0
CLASS
  1
ACAMPROJECT
  2
AcAmProject
  3
DesignerAssemblies
 90
     1024
280
     0
281
     0
  0
CLASS
  1
ACAMGRCOMPDEF
  2
AcAmGrCompDef
  3
DesignerAssemblies
 90
     1024
280
     0
281
     0
  0
CLASS
  1
ACCMCONTEXT
  2
AcCmContext
  3
DesignerAssemblies
 90
     1024
280
     0
281
     0
  0
CLASS
  1
ACAMCOMPDEF
  2
AcAmCompDef
  3
DesignerAssemblies
 90
     1024
280
     0
281
     0
  0
CLASS
  1
ACAMCOMPDEFMGR
  2
AcAmCompDefMgr
  3
DesignerAssemblies
 90
     1024
280
     0
281
     0
  0
CLASS
  1
AMCONTEXTMGR
  2
AcAmContextMgr
  3
DesignerAssemblies
 90
     1024
280
     0
281
     0
  0
CLASS
  1
ACAMCONTEXTMODELER
  2
AcAmContextModeler
  3
DesignerAssemblies
 90
     1024
280
     0
281
     0
  0
CLASS
  1
ACMDATADICTIONARY
  2
AcmDataDictionary
  3
"AcmSymBB|Product Description: AutoCAD Mechanical|Company: Autodesk, Inc."
 90
     1024
280
     0
281
     0
  0
CLASS
  1
CATALOGSTATE
  2
AcAmCatalogState
  3
DesignerAssemblies
 90
    33792
280
     0
281
     0
  0
CLASS
  1
ACAMGRCOMPDEFSET
  2
AcAmGrCompDefSet
  3
DesignerAssemblies
 90
     1024
280
     0
281
     0
  0
CLASS
  1
AMDTBROWSERDBTAB
  2
AmdtBrowserDbTab
  3
McadcomServices
 90
     1024
280
     0
281
     0
  0
CLASS
  1
CBROWSERAPPOBJECT
  2
CBrowserAppObject
  3
McadcomServices
 90
     1024
280
     0
281
     0
  0
CLASS
  1
DM_PLACEHOLDER
  2
AcDmSelsetPlaceholder
  3
McadcomServices
 90
     1024
280
     0
281
     0
  0
CLASS
  1
ACMSTANDARDDIN
  2
AcmStandardDIN
  3
"Amdt_StdImp|Product Description: AutoCAD Mechanical|Company: Autodesk, Inc."
 90
     1024
280
     0
281
     0
  0
CLASS
  1
AMGOBJPROPCFG
  2
AmgObjPropCfg
  3
"AmgLay|Product Description: AutoCAD Mechanical|Company: Autodesk, Inc."
 90
     1024
280
     0
281
     0
  0
CLASS
  1
AMDTEDGESTANDARDDIN13715
  2
AmdtEdgeStdDIN13715
  3
"Amdt_StdImp|Product Description: AutoCAD Mechanical|Company: Autodesk, Inc."
 90
     1024
280
     0
281
     0
  0
CLASS
  1
ACMSURFSTANDARDDIN2002
  2
AcmSurfTextStdDIN2002
  3
"Amdt_StdImp|Product Description: AutoCAD Mechanical|Company: Autodesk, Inc."
 90
     1024
280
     0
281
     0
  0
CLASS
  1
ACMFCFSTANDARDDIN
  2
AcmFCFStdDIN
  3
"Amdt_StdImp|Product Description: AutoCAD Mechanical|Company: Autodesk, Inc."
 90
     1024
280
     0
281
     0
  0
CLASS
  1
ACMWELDSTANDARDDIN
  2
AcmWeldingStdDIN
  3
"Amdt_StdImp|Product Description: AutoCAD Mechanical|Company: Autodesk, Inc."
 90
     1024
280
     0
281
     0
  0
CLASS
  1
ACMIDSTANDARDDIN
  2
AcmIdStdDIN
  3
"Amdt_StdImp|Product Description: AutoCAD Mechanical|Company: Autodesk, Inc."
 90
     1024
280
     0
281
     0
  0
CLASS
  1
ACMDATUMSTANDARDDIN
  2
AcmDatumStdDIN
  3
"Amdt_StdImp|Product Description: AutoCAD Mechanical|Company: Autodesk, Inc."
 90
     1024
280
     0
281
     0
  0
CLASS
  1
ACMBOMSTANDARDDIN
  2
AcmBOMStdDIN
  3
"Amdt_StdImp|Product Description: AutoCAD Mechanical|Company: Autodesk, Inc."
 90
     1024
280
     0
281
     0
  0
CLASS
  1
ACMDETAILSTANDARDDIN
  2
AmdtDetailSymStdDIN
  3
"Amdt_StdImp|Product Description: AutoCAD Mechanical|Company: Autodesk, Inc."
 90
     1024
280
     0
281
     0
  0
CLASS
  1
ACMSECTIONSTANDARDDIN
  2
AmdtSectionSymStdDIN
  3
"Amdt_StdImp|Product Description: AutoCAD Mechanical|Company: Autodesk, Inc."
 90
     1024
280
     0
281
     0
  0
CLASS
  1
ACMCENTERLINESTANDARDDIN
  2
AmdtCenterLineStdDIN
  3
"Amdt_StdImp|Product Description: AutoCAD Mechanical|Company: Autodesk, Inc."
 90
     1024
280
     0
281
     0
  0
CLASS
  1
ACMTHREADLINESTANDARDDIN
  2
AmdtThreadLineStdDIN
  3
"Amdt_StdImp|Product Description: AutoCAD Mechanical|Company: Autodesk, Inc."
 90
     1024
280
     0
281
     0
  0
CLASS
  1
ACMNOTESTANDARDDIN
  2
AmdtNoteStdDIN
  3
"Amdt_StdImp|Product Description: AutoCAD Mechanical|Company: Autodesk, Inc."
 90
     1024
280
     0
281
     0
  0
CLASS
  1
ACMTAPERSTANDARDDIN
  2
AcmTaperStdDIN
  3
"Amdt_StdImp|Product Description: AutoCAD Mechanical|Company: Autodesk, Inc."
 90
     1024
280
     0
281
     0
  0
CLASS
  1
ACMANOOTATIONVIEWSTANDARDDIN
  2
AmdtAnViewStdDIN
  3
"Amdt_StdImp|Product Description: AutoCAD Mechanical|Company: Autodesk, Inc."
 90
     1024
280
     0
281
     0
  0
CLASS
  1
AMDTNOTETEMPLATEDB
  2
AmdtNoteTemplateDB
  3
AcmSymBB|Product Description: AutoCAD Mechanical|Company: Autodesk, Inc.
 90
     1024
280
     0
281
     0
  0
CLASS
  1
ACAMGLAYSTD
  2
AcAmgLayStd
  3
"AmgLay|Product Description: AutoCAD Mechanical|Company: Autodesk, Inc."
 90
     1024
280
     0
281
     0
  0
CLASS
  1
ACAMGDIMSTD
  2
AcAmgDimStd
  3
"AmgDim|Product Description: AutoCAD Mechanical|Company: Autodesk, Inc."
 90
     1024
280
     0
281
     0
  0
CLASS
  1
ACAMGHOLECHARTSTDDIN
  2
AcAmgHoleChartStdDIN
  3
AmgDim|Product Description: AutoCAD Mechanical|Company: Autodesk, Inc.
 90
     1024
280
     0
281
     0
  0
CLASS
  1
ACAMGTITLESTD
  2
AcAmgTitleStd
  3
"AmgTitle|Product Description: AutoCAD Mechanical|Company: Autodesk, Inc."
 90
     1024
280
     0
281
     0
  0
CLASS
  1
ACAMGFILTERDAT
  2
AcAmgFilterDat
  3
"AcadM|Product Description: AutoCAD Mechanical|Company: Autodesk, Inc."
 90
     1024
280
     0
281
     0
  0
CLASS
  1
CAMSSTRUCTBTNSTATE
  2
StructBtnState
  3
DesignerAssemblies
 90
     1024
280
     0
281
     0
  0
CLASS
  1
CELLSTYLEMAP
  2
AcDbCellStyleMap
  3
ObjectDBX Classes
 90
     1152
280
     0
281
     0
  0
CLASS
  1
SORTENTSTABLE
  2
AcDbSortentsTable
  3
ObjectDBX Classes
 90
    32768
280
     0
281
     0
  0
CLASS
  1
PLOTSETTINGS
  2
AcDbPlotSettings
  3
ObjectDBX Classes
 90
        0
280
     0
281
     0
  0
CLASS
  1
SOLID_BACKGROUND
  2
AcDbSolidBackground
  3
SCENEOE
 90
    36863
280
     0
281
     0
  0
CLASS
  1
NPOCOLLECTION
  2
AcDbImpNonPersistentObjectsCollection
  3
ObjectDBX Classes
 90
    33921
280
     0
281
     0
  0
CLASS
  1
ACDBSECTIONVIEWSTYLE
  2
AcDbSectionViewStyle
  3
ObjectDBX Classes
 90
     1025
280
     0
281
     0
  0
CLASS
  1
ACDBDETAILVIEWSTYLE
  2
AcDbDetailViewStyle
  3
ObjectDBX Classes
 90
     1025
280
     0
281
     0
  0
CLASS
  1
ACMSECTIONSTANDARDCUSTOM
  2
AmdtSectionSymStdCustom
  3
"Amdt_StdImp|Product Description: AutoCAD Mechanical|Company: Autodesk, Inc."
 90
     1024
280
     0
281
     0
  0
CLASS
  1
ACMDETAILTANDARDCUSTOM
  2
AmdtDetailSymStdCustom
  3
"Amdt_StdImp|Product Description: AutoCAD Mechanical|Company: Autodesk, Inc."
 90
     1024
280
     0
281
     0
  0
CLASS
  1
FIELD
  2
AcDbField
  3
ObjectDBX Classes
 90
     1152
280
     0
281
     0
  0
CLASS
  1
FIELDLIST
  2
AcDbFieldList
  3
ObjectDBX Classes
 90
     1152
280
     0
281
     0
  0
CLASS
  1
ACMSTANDARDISO
  2
AcmStandardISO
  3
"Amdt_StdImp|Product Description: AutoCAD Mechanical|Company: Autodesk, Inc."
 90
     1024
280
     0
281
     0
  0
CLASS
  1
AMDTEDGESTANDARDISO13715
  2
AmdtEdgeStdISO13715
  3
"Amdt_StdImp|Product Description: AutoCAD Mechanical|Company: Autodesk, Inc."
 90
     1024
280
     0
281
     0
  0
CLASS
  1
ACMSURFSTANDARDISO2002
  2
AcmSurfTextStdISO2002
  3
"Amdt_StdImp|Product Description: AutoCAD Mechanical|Company: Autodesk, Inc."
 90
     1024
280
     0
281
     0
  0
CLASS
  1
ACMFCFSTANDARDISO2004
  2
AcmFCFStdISO2004
  3
"Amdt_StdImp|Product Description: AutoCAD Mechanical|Company: Autodesk, Inc."
 90
     1024
280
     0
281
     0
  0
CLASS
  1
ACMWELDSTANDARDISO
  2
AcmWeldingStdISO
  3
"Amdt_StdImp|Product Description: AutoCAD Mechanical|Company: Autodesk, Inc."
 90
     1024
280
     0
281
     0
  0
CLASS
  1
ACMIDSTANDARDISO2004
  2
AcmIdStdISO2004
  3
"Amdt_StdImp|Product Description: AutoCAD Mechanical|Company: Autodesk, Inc."
 90
     1024
280
     0
281
     0
  0
CLASS
  1
ACMDATUMSTANDARDISO
  2
AcmDatumStdISO
  3
"Amdt_StdImp|Product Description: AutoCAD Mechanical|Company: Autodesk, Inc."
 90
     1024
280
     0
281
     0
  0
CLASS
  1
ACMBOMSTANDARDISO
  2
AcmBOMStdISO
  3
"Amdt_StdImp|Product Description: AutoCAD Mechanical|Company: Autodesk, Inc."
 90
     1024
280
     0
281
     0
  0
CLASS
  1
ACMDETAILSTANDARDISO
  2
AmdtDetailSymStdISO
  3
"Amdt_StdImp|Product Description: AutoCAD Mechanical|Company: Autodesk, Inc."
 90
     1024
280
     0
281
     0
  0
CLASS
  1
ACMSECTIONSTANDARDISO2001
  2
AmdtSectionSymStdISO2001
  3
"Amdt_StdImp|Product Description: AutoCAD Mechanical|Company: Autodesk, Inc."
 90
     1024
280
     0
281
     0
  0
CLASS
  1
ACMCENTERLINESTANDARDISO
  2
AmdtCenterLineStdISO
  3
"Amdt_StdImp|Product Description: AutoCAD Mechanical|Company: Autodesk, Inc."
 90
     1024
280
     0
281
     0
  0
CLASS
  1
ACMTHREADLINESTANDARDISO
  2
AmdtThreadLineStdISO
  3
"Amdt_StdImp|Product Description: AutoCAD Mechanical|Company: Autodesk, Inc."
 90
     1024
280
     0
281
     0
  0
CLASS
  1
ACMNOTESTANDARDISO
  2
AmdtNoteStdISO
  3
"Amdt_StdImp|Product Description: AutoCAD Mechanical|Company: Autodesk, Inc."
 90
     1024
280
     0
281
     0
  0
CLASS
  1
ACMTAPERSTANDARDISO
  2
AcmTaperStdISO
  3
"Amdt_StdImp|Product Description: AutoCAD Mechanical|Company: Autodesk, Inc."
 90
     1024
280
     0
281
     0
  0
CLASS
  1
ACMANOOTATIONVIEWSTANDARDISO
  2
AmdtAnViewStdISO
  3
"Amdt_StdImp|Product Description: AutoCAD Mechanical|Company: Autodesk, Inc."
 90
     1024
280
     0
281
     0
  0
CLASS
  1
ACAMGHOLECHARTSTDISO
  2
AcAmgHoleChartStdISO
  3
AmgDim|Product Description: AutoCAD Mechanical|Company: Autodesk, Inc.
 90
     1024
280
     0
281
     0
  0
ENDSEC
  0
SECTION
  2
TABLES
  0
TABLE
  2
VPORT
  5
8
102
{ACAD_XDICTIONARY
360
A45
102
}
330
0
100
AcDbSymbolTable
 70
     1
  0
VPORT
  5
AD1
330
8
100
AcDbSymbolTableRecord
100
AcDbViewportTableRecord
  2
*Active
 70
     0
 10
0.0
 20
0.0
 11
1.0
 21
1.0
 12
137.913697850673
 22
96.3912211537726
 13
0.0
 23
0.0
 14
5.0
 24
5.0
 15
5.0
 25
5.0
 16
0.0
 26
0.0
 36
1.0
 17
0.0
 27
0.0
 37
0.0
 40
71.07316291622033
 41
1.884374999999999
 42
50.0
 43
0.0
 44
0.0
 50
0.0
 51
0.0
 71
     0
 72
  2000
 73
     1
 74
     1
 75
     0
 76
     0
 77
     0
 78
     0
281
     0
 65
     1
110
0.0
120
0.0
130
0.0
111
1.0
121
0.0
131
0.0
112
0.0
122
1.0
132
0.0
 79
     0
146
0.0
1001
ACAD_NAV_VCDISPLAY
1070
     3
  0
ENDTAB
  0
TABLE
  2
LTYPE
  5
5
330
0
100
AcDbSymbolTable
 70
    14
  0
LTYPE
  5
12
330
5
100
AcDbSymbolTableRecord
100
AcDbLinetypeTableRecord
  2
BYBLOCK
 70
     0
  3

 72
    65
 73
     0
 40
0.0
  0
LTYPE
  5
13
330
5
100
AcDbSymbolTableRecord
100
AcDbLinetypeTableRecord
  2
BYLAYER
 70
     0
  3

 72
    65
 73
     0
 40
0.0
  0
LTYPE
  5
14
330
5
100
AcDbSymbolTableRecord
100
AcDbLinetypeTableRecord
  2
CONTINUOUS
 70
     0
  3
ISO continuous line ______________________________________
 72
    65
 73
     2
 40
9999.0
 49
9999.0
 74
     0
 49
0.0
 74
     0
  0
LTYPE
  5
4EF
330
5
100
AcDbSymbolTableRecord
100
AcDbLinetypeTableRecord
  2
ACDINWELD
 70
     0
  3
_ _ _ _ _
 72
    65
 73
     2
 40
2.0
 49
2.0
 74
     0
 49
-1.0
 74
     0
  0
LTYPE
  5
4F0
330
5
100
AcDbSymbolTableRecord
100
AcDbLinetypeTableRecord
  2
ACDINTGB
 70
     0
  3
__ . . __ . .
 72
    65
 73
     6
 40
9.0
 49
4.0
 74
     0
 49
-1.0
 74
     0
 49
1.0
 74
     0
 49
-1.0
 74
     0
 49
1.0
 74
     0
 49
-1.0
 74
     0
  0
LTYPE
  5
4F1
330
5
100
AcDbSymbolTableRecord
100
AcDbLinetypeTableRecord
  2
ACDINTGL
 70
     0
  3
_ _ _ _ _
 72
    65
 73
     2
 40
3.0
 49
2.0
 74
     0
 49
-1.0
 74
     0
  0
LTYPE
  5
916
330
5
100
AcDbSymbolTableRecord
100
AcDbLinetypeTableRecord
  2
LONGDASH_DASH
 70
     0
  3
ISO center line ____ _ ____ _ ____ _ ____ _ ___ _ ___
 72
    65
 73
     4
 40
10.5
 49
6.0
 74
     0
 49
-0.75
 74
     0
 49
3.0
 74
     0
 49
-0.75
 74
     0
  0
LTYPE
  5
CFA
330
5
100
AcDbSymbolTableRecord
100
AcDbLinetypeTableRecord
  2
HIDDEN
 70
     0
  3
Hidden __ __ __ __ __ __ __ __ __ __ __ __ __ _
 72
    65
 73
     2
 40
9.524999999999998
 49
6.349999999999999
 74
     0
 49
-3.174999999999999
 74
     0
  0
LTYPE
  5
CFB
330
5
100
AcDbSymbolTableRecord
100
AcDbLinetypeTableRecord
  2
PHANTOM2
 70
     0
  3
Phantom (.5x) ___ _ _ ___ _ _ ___ _ _ ___ _ _
 72
    65
 73
     6
 40
31.75
 49
15.875
 74
     0
 49
-3.174999999999999
 74
     0
 49
3.174999999999999
 74
     0
 49
-3.174999999999999
 74
     0
 49
3.174999999999999
 74
     0
 49
-3.174999999999999
 74
     0
  0
LTYPE
  5
CFC
330
5
100
AcDbSymbolTableRecord
100
AcDbLinetypeTableRecord
  2
CENTER
 70
     0
  3
Center ____ _ ____ _ ____ _ ____ _ ____ _ ____
 72
    65
 73
     4
 40
50.8
 49
31.75
 74
     0
 49
-6.349999999999999
 74
     0
 49
6.349999999999999
 74
     0
 49
-6.349999999999999
 74
     0
  0
LTYPE
  5
D88
330
5
100
AcDbSymbolTableRecord
100
AcDbLinetypeTableRecord
  2
ACISOWELD
 70
     0
  3
_ _ _ _ _
 72
    65
 73
     2
 40
2.0
 49
2.0
 74
     0
 49
-1.0
 74
     0
  0
LTYPE
  5
D89
330
5
100
AcDbSymbolTableRecord
100
AcDbLinetypeTableRecord
  2
ACISOTGL
 70
     0
  3
_ _ _ _ _
 72
    65
 73
     2
 40
3.0
 49
2.0
 74
     0
 49
-1.0
 74
     0
  0
LTYPE
  5
D8A
330
5
100
AcDbSymbolTableRecord
100
AcDbLinetypeTableRecord
  2
ACISOTGB
 70
     0
  3
__ . . __ . .
 72
    65
 73
     6
 40
9.0
 49
4.0
 74
     0
 49
-1.0
 74
     0
 49
1.0
 74
     0
 49
-1.0
 74
     0
 49
1.0
 74
     0
 49
-1.0
 74
     0
  0
ENDTAB
  0
TABLE
  2
LAYER
  5
2
102
{ACAD_XDICTIONARY
360
43C
102
}
330
0
100
AcDbSymbolTable
 70
   102
  0
LAYER
  5
F
102
{ACAD_XDICTIONARY
360
52D
102
}
330
2
100
AcDbSymbolTableRecord
100
AcDbLayerTableRecord
  2
0
 70
     0
 62
     7
  6
CONTINUOUS
290
     0
370
    -3
390
300
  0
LAYER
  5
23
102
{ACAD_XDICTIONARY
360
52F
102
}
330
2
100
AcDbSymbolTableRecord
100
AcDbLayerTableRecord
  2
1
 70
     0
 62
     4
  6
CONTINUOUS
370
    50
390
300
  0
LAYER
  5
24
102
{ACAD_XDICTIONARY
360
531
102
}
330
2
100
AcDbSymbolTableRecord
100
AcDbLayerTableRecord
  2
SK1
 70
     0
 62
     4
  6
CONTINUOUS
370
    50
390
300
  0
LAYER
  5
25
102
{ACAD_XDICTIONARY
360
533
102
}
330
2
100
AcDbSymbolTableRecord
100
AcDbLayerTableRecord
  2
2
 70
     0
 62
     7
  6
CONTINUOUS
370
    25
390
300
  0
LAYER
  5
27
102
{ACAD_XDICTIONARY
360
537
102
}
330
2
100
AcDbSymbolTableRecord
100
AcDbLayerTableRecord
  2
SK2
 70
     0
 62
     7
  6
CONTINUOUS
370
    25
390
300
  0
LAYER
  5
2A
102
{ACAD_XDICTIONARY
360
53D
102
}
330
2
100
AcDbSymbolTableRecord
100
AcDbLayerTableRecord
  2
4
 70
     0
 62
     2
  6
LONGDASH_DASH
370
    25
390
300
  0
LAYER
  5
2B
102
{ACAD_XDICTIONARY
360
53F
102
}
330
2
100
AcDbSymbolTableRecord
100
AcDbLayerTableRecord
  2
SK4
 70
     0
 62
     2
  6
LONGDASH_DASH
370
    25
390
300
  0
LAYER
  5
2E
102
{ACAD_XDICTIONARY
360
545
102
}
330
2
100
AcDbSymbolTableRecord
100
AcDbLayerTableRecord
  2
SK6
 70
     0
 62
     5
  6
CONTINUOUS
370
    35
390
300
  0
LAYER
  5
2F
330
2
100
AcDbSymbolTableRecord
100
AcDbLayerTableRecord
  2
DEFPOINTS
 70
     0
 62
     7
  6
CONTINUOUS
290
     0
370
    -3
390
300
  0
ENDTAB
  0
TABLE
  2
STYLE
  5
3
330
0
100
AcDbSymbolTable
 70
    10
  0
STYLE
  5
10
330
3
100
AcDbSymbolTableRecord
100
AcDbTextStyleTableRecord
  2
STANDARD
 70
     0
 40
0.0
 41
1.0
 50
0.0
 71
     0
 42
5.0
  3
monos.ttf
  4

1001
ACAD
1000
Monospac821 BT
1071
       49
  0
STYLE
  5
1E
330
3
100
AcDbSymbolTableRecord
100
AcDbTextStyleTableRecord
  2
STANDARD 5 mm
 70
     0
 40
5.0
 41
1.0
 50
0.0
 71
     0
 42
3.5
  3
monos.ttf
  4

1001
ACAD
1000
Monospac821 BT
1071
       49
  0
STYLE
  5
4DF
330
3
100
AcDbSymbolTableRecord
100
AcDbTextStyleTableRecord
  2
ACDINTS
 70
     0
 40
1.0
 41
1.0
 50
0.0
 71
     0
 42
3.5
  3
monos.ttf
  4

1001
ACAD
1000
Monospac821 BT
1071
       49
  0
STYLE
  5
4EE
330
3
100
AcDbSymbolTableRecord
100
AcDbTextStyleTableRecord
  2
ACDINGDT
 70
     0
 40
0.0
 41
1.0
 50
0.0
 71
     0
 42
3.5
  3
monos.ttf
  4

1001
ACAD
1000
Monospac821 BT
1071
       49
  0
STYLE
  5
7DE
330
3
100
AcDbSymbolTableRecord
100
AcDbTextStyleTableRecord
  2
STANDARD 3.5 mm
 70
     0
 40
3.5
 41
1.0
 50
0.0
 71
     0
 42
3.5
  3
monos.ttf
  4

1001
ACAD
1000
Monospac821 BT
1071
       49
  0
STYLE
  5
D8B
330
3
100
AcDbSymbolTableRecord
100
AcDbTextStyleTableRecord
  2
SIMPLEX
 70
     0
 40
0.0
 41
1.0
 50
0.0
 71
     0
 42
3.5
  3
simplex
  4

  0
STYLE
  5
D8C
330
3
100
AcDbSymbolTableRecord
100
AcDbTextStyleTableRecord
  2
ACISOGDT
 70
     0
 40
0.0
 41
1.0
 50
0.0
 71
     0
 42
3.5
  3
amgdt.shx
  4

  0
ENDTAB
  0
TABLE
  2
VIEW
  5
6
330
0
100
AcDbSymbolTable
 70
     6
  0
VIEW
  5
758
330
6
100
AcDbSymbolTableRecord
100
AcDbViewTableRecord
  2
AM_VIEW1
 70
     1
 40
148.5265045166015
 10
121.0318359737553
 20
219.614756822586
 41
248.4136475334483
 11
0.0
 21
0.0
 31
1.0
 12
0.0
 22
0.0
 32
0.0
 42
50.0
 43
0.0
 44
0.0
 50
0.0
 71
     0
281
     0
 72
     0
  0
VIEW
  5
759
330
6
100
AcDbSymbolTableRecord
100
AcDbViewTableRecord
  2
AM_VIEW2
 70
     1
 40
148.5265045166015
 10
292.4378600711665
 20
219.614756822586
 41
248.4136475334483
 11
0.0
 21
0.0
 31
1.0
 12
0.0
 22
0.0
 32
0.0
 42
50.0
 43
0.0
 44
0.0
 50
0.0
 71
     0
281
     0
 72
     0
  0
VIEW
  5
75A
330
6
100
AcDbSymbolTableRecord
100
AcDbViewTableRecord
  2
AM_VIEW3
 70
     1
 40
148.5265045166015
 10
121.0318359737553
 20
71.0882523059845
 41
248.4136475334483
 11
0.0
 21
0.0
 31
1.0
 12
0.0
 22
0.0
 32
0.0
 42
50.0
 43
0.0
 44
0.0
 50
0.0
 71
     0
281
     0
 72
     0
  0
VIEW
  5
75B
330
6
100
AcDbSymbolTableRecord
100
AcDbViewTableRecord
  2
AM_VIEW4
 70
     1
 40
148.5265045166015
 10
292.4378600711665
 20
71.0882523059845
 41
248.4136475334483
 11
0.0
 21
0.0
 31
1.0
 12
0.0
 22
0.0
 32
0.0
 42
50.0
 43
0.0
 44
0.0
 50
0.0
 71
     0
281
     0
 72
     0
  0
VIEW
  5
75C
330
6
100
AcDbSymbolTableRecord
100
AcDbViewTableRecord
  2
AM_VIEW5
 70
     1
 40
148.5265045166015
 10
206.7348480224609
 20
145.3515045642852
 41
248.4136475334483
 11
0.0
 21
0.0
 31
1.0
 12
0.0
 22
0.0
 32
0.0
 42
50.0
 43
0.0
 44
0.0
 50
0.0
 71
     0
281
     0
 72
     0
  0
VIEW
  5
75D
330
6
100
AcDbSymbolTableRecord
100
AcDbViewTableRecord
  2
AM_VIEW6
 70
     1
 40
297.0500385031128
 10
206.7348480224609
 20
145.3515045642852
 41
496.8223267939459
 11
0.0
 21
0.0
 31
1.0
 12
0.0
 22
0.0
 32
0.0
 42
50.0
 43
0.0
 44
0.0
 50
0.0
 71
     0
281
     0
 72
     0
  0
ENDTAB
  0
TABLE
  2
UCS
  5
7
330
0
100
AcDbSymbolTable
 70
     0
  0
ENDTAB
  0
TABLE
  2
APPID
  5
9
330
0
100
AcDbSymbolTable
 70
    35
  0
APPID
  5
11
330
9
100
AcDbSymbolTableRecord
100
AcDbRegAppTableRecord
  2
ACAD
 70
     0
  0
APPID
  5
3A6
330
9
100
AcDbSymbolTableRecord
100
AcDbRegAppTableRecord
  2
ACAD_PSEXT
 70
     0
  0
APPID
  5
3A8
330
9
100
AcDbSymbolTableRecord
100
AcDbRegAppTableRecord
  2
ACAD_EXEMPT_FROM_CAD_STANDARDS
 70
     0
  0
APPID
  5
433
330
9
100
AcDbSymbolTableRecord
100
AcDbRegAppTableRecord
  2
AcAecLayerStandard
 70
     0
  0
APPID
  5
471
330
9
100
AcDbSymbolTableRecord
100
AcDbRegAppTableRecord
  2
ACAD_MLEADERVER
 70
     0
  0
APPID
  5
47D
330
9
100
AcDbSymbolTableRecord
100
AcDbRegAppTableRecord
  2
MCAD_NO_VIS
 70
     0
  0
APPID
  5
47E
330
9
100
AcDbSymbolTableRecord
100
AcDbRegAppTableRecord
  2
ACAD_TEMP_GRAPHIC
 70
     0
  0
APPID
  5
4AC
330
9
100
AcDbSymbolTableRecord
100
AcDbRegAppTableRecord
  2
AD_DRAW
 70
     0
  0
APPID
  5
4AF
330
9
100
AcDbSymbolTableRecord
100
AcDbRegAppTableRecord
  2
ACATTRIBSERVICES
 70
     0
  0
APPID
  5
4D0
330
9
100
AcDbSymbolTableRecord
100
AcDbRegAppTableRecord
  2
DESIGNERASSEMBLIES
 70
     0
  0
APPID
  5
4D6
330
9
100
AcDbSymbolTableRecord
100
AcDbRegAppTableRecord
  2
ACADM_DIM_EDIT
 70
     0
  0
APPID
  5
4D7
330
9
100
AcDbSymbolTableRecord
100
AcDbRegAppTableRecord
  2
AMDT_DM_ADJ
 70
     0
  0
APPID
  5
5CD
330
9
100
AcDbSymbolTableRecord
100
AcDbRegAppTableRecord
  2
AcDbAttr
 70
     0
  0
APPID
  5
5CE
330
9
100
AcDbSymbolTableRecord
100
AcDbRegAppTableRecord
  2
ACAUTHENVIRON
 70
     0
  0
APPID
  5
5CF
330
9
100
AcDbSymbolTableRecord
100
AcDbRegAppTableRecord
  2
AcDbDynamicBlockTrueName
 70
     0
  0
APPID
  5
5D0
330
9
100
AcDbSymbolTableRecord
100
AcDbRegAppTableRecord
  2
ACDBBLOCKREPETAG
 70
     0
  0
APPID
  5
723
330
9
100
AcDbSymbolTableRecord
100
AcDbRegAppTableRecord
  2
GENIUS_GENTRA_14
 70
     0
  0
APPID
  5
752
330
9
100
AcDbSymbolTableRecord
100
AcDbRegAppTableRecord
  2
GENIUS_GENOENT_13
 70
     0
  0
APPID
  5
753
330
9
100
AcDbSymbolTableRecord
100
AcDbRegAppTableRecord
  2
GENIUS_GENOBJ-N-TIT_13
 70
     0
  0
APPID
  5
754
330
9
100
AcDbSymbolTableRecord
100
AcDbRegAppTableRecord
  2
GENIUS_GENODEF_13
 70
     0
  0
APPID
  5
755
330
9
100
AcDbSymbolTableRecord
100
AcDbRegAppTableRecord
  2
GENIUS_GENOLIS_13
 70
     0
  0
APPID
  5
756
330
9
100
AcDbSymbolTableRecord
100
AcDbRegAppTableRecord
  2
GENIUS_GENTITLE_13
 70
     0
  0
APPID
  5
757
330
9
100
AcDbSymbolTableRecord
100
AcDbRegAppTableRecord
  2
GENIUS_GENOREF_13
 70
     0
  0
APPID
  5
75E
330
9
100
AcDbSymbolTableRecord
100
AcDbRegAppTableRecord
  2
GENIUS_GENSCREG_15
 70
     0
  0
APPID
  5
75F
330
9
100
AcDbSymbolTableRecord
100
AcDbRegAppTableRecord
  2
GENIUS_GENOBJ-N-SDF_13
 70
     0
  0
APPID
  5
7BE
330
9
100
AcDbSymbolTableRecord
100
AcDbRegAppTableRecord
  2
AcadAnnoPO
 70
     0
  0
APPID
  5
7BF
330
9
100
AcDbSymbolTableRecord
100
AcDbRegAppTableRecord
  2
ACAD_DSTYLE_DIMJAG
 70
     0
  0
APPID
  5
7C0
330
9
100
AcDbSymbolTableRecord
100
AcDbRegAppTableRecord
  2
ACAD_DSTYLE_DIMTALN
 70
     0
  0
APPID
  5
A53
330
9
100
AcDbSymbolTableRecord
100
AcDbRegAppTableRecord
  2
ACAD_DSTYLE_DIMARC_LENGTH_SYMBOL
 70
     0
  0
APPID
  5
A65
330
9
100
AcDbSymbolTableRecord
100
AcDbRegAppTableRecord
  2
ACAD_DSTYLE_DIMJOGGED_JOGANGLE_SYMBOL
 70
     0
  0
APPID
  5
CCE
330
9
100
AcDbSymbolTableRecord
100
AcDbRegAppTableRecord
  2
ACAD_DSTYLE_DIMBREAK
 70
     0
  0
APPID
  5
D24
330
9
100
AcDbSymbolTableRecord
100
AcDbRegAppTableRecord
  2
ACAD_NAV_VCDISPLAY
 70
     0
  0
APPID
  5
12CD
330
9
100
AcDbSymbolTableRecord
100
AcDbRegAppTableRecord
  2
ACAD_DSTYLE_DIM_LINETYPE
 70
     0
  0
APPID
  5
12CE
330
9
100
AcDbSymbolTableRecord
100
AcDbRegAppTableRecord
  2
ACAD_DSTYLE_DIM_EXT1_LINETYPE
 70
     0
  0
APPID
  5
12CF
330
9
100
AcDbSymbolTableRecord
100
AcDbRegAppTableRecord
  2
ACAD_DSTYLE_DIM_EXT2_LINETYPE
 70
     0
  0
ENDTAB
  0
TABLE
  2
DIMSTYLE
  5
A
330
0
100
AcDbSymbolTable
 70
    19
100
AcDbDimStyleTable
 71
     4
340
4FC
340
3F
340
501
340
506
  0
DIMSTYLE
105
3F
330
A
100
AcDbSymbolTableRecord
100
AcDbDimStyleTableRecord
  2
STANDARD
 70
     0
 41
5.0
 42
1.0
 43
15.0
 44
2.0
 48
0.000000001
 73
     0
 74
     0
 77
     1
 78
     9
 79
     2
140
3.5
143
0.0393700787401575
147
2.299999999999999
171
     3
172
     1
271
     2
272
     2
273
     3
274
     3
284
     8
285
    11
286
     8
340
7DE
1001
ACAD_DSTYLE_DIMJAG
1070
   388
1040
1.5
1001
ACAD_DSTYLE_DIMTALN
1070
   392
1070
     0
1001
ACAD_DSTYLE_DIMARC_LENGTH_SYMBOL
1070
   379
1070
     1
1001
ACAD_DSTYLE_DIMJOGGED_JOGANGLE_SYMBOL
1070
   384
1040
1.570796326794896
  0
DIMSTYLE
105
4FC
330
A
100
AcDbSymbolTableRecord
100
AcDbDimStyleTableRecord
  2
AM_DIN
 70
     0
 41
2.5
 42
1.0
 43
15.0
 44
2.0
 48
0.000000001
 73
     0
 74
     0
 77
     1
 78
     8
 79
     2
140
3.5
143
0.0393701
146
0.7071069999999999
147
2.299999999999999
171
     3
172
     1
271
     2
272
     2
273
     3
274
     3
284
     8
285
    11
286
     8
340
7DE
371
    -1
372
    -1
1001
ACAD_DSTYLE_DIMJAG
1070
   388
1040
1.5
1001
ACAD_DSTYLE_DIMTALN
1070
   392
1070
     0
1001
ACAD_DSTYLE_DIMARC_LENGTH_SYMBOL
1070
   379
1070
     1
1001
ACAD_DSTYLE_DIMJOGGED_JOGANGLE_SYMBOL
1070
   384
1040
1.570796326794896
  0
DIMSTYLE
105
4FD
330
A
100
AcDbSymbolTableRecord
100
AcDbDimStyleTableRecord
  2
AM_DIN$3
 70
     0
 41
2.5
 42
1.0
 43
10.0
 44
2.0
 48
0.000000001
 73
     0
 77
     1
 78
     8
 79
     2
140
3.5
143
0.0393701
146
0.7071069999999999
147
2.299999999999999
171
     3
271
     2
272
     3
273
     3
274
     4
284
     8
285
    11
286
     8
288
     1
289
     0
340
7DE
371
    -1
372
    -1
1001
ACAD_DSTYLE_DIMBREAK
1070
   391
1040
3.75
1001
ACAD_DSTYLE_DIMJAG
1070
   388
1040
1.5
1001
ACAD_DSTYLE_DIMTALN
1070
   392
1070
     0
1001
ACAD_DSTYLE_DIMARC_LENGTH_SYMBOL
1070
   379
1070
     1
1001
ACAD_DSTYLE_DIMJOGGED_JOGANGLE_SYMBOL
1070
   384
1040
1.570796326794896
  0
DIMSTYLE
105
4FE
330
A
100
AcDbSymbolTableRecord
100
AcDbDimStyleTableRecord
  2
AM_DIN$4
 70
     0
 41
2.5
 42
1.0
 43
10.0
 44
2.0
 48
0.000000001
 73
     0
 77
     1
 78
     8
 79
     2
140
3.5
143
0.0393701
146
0.7071069999999999
147
2.299999999999999
171
     3
271
     2
272
     3
273
     3
274
     4
284
     8
285
    11
286
     8
288
     1
289
     0
340
7DE
371
    -1
372
    -1
1001
ACAD_DSTYLE_DIMBREAK
1070
   391
1040
3.75
1001
ACAD_DSTYLE_DIMJAG
1070
   388
1040
1.5
1001
ACAD_DSTYLE_DIMTALN
1070
   392
1070
     0
1001
ACAD_DSTYLE_DIMARC_LENGTH_SYMBOL
1070
   379
1070
     1
1001
ACAD_DSTYLE_DIMJOGGED_JOGANGLE_SYMBOL
1070
   384
1040
1.570796326794896
  0
DIMSTYLE
105
4FF
330
A
100
AcDbSymbolTableRecord
100
AcDbDimStyleTableRecord
  2
AM_DIN$6
 70
     0
 41
2.5
 42
1.0
 43
10.0
 44
2.0
 48
0.000000001
 73
     0
 74
     0
 78
     8
 79
     2
140
3.5
143
0.0393701
146
0.7071069999999999
147
2.299999999999999
171
     3
172
     1
271
     2
272
     2
273
     3
274
     3
284
     8
285
    11
286
     8
340
7DE
371
    -1
372
    -1
1001
ACAD_DSTYLE_DIMBREAK
1070
   391
1040
3.75
1001
ACAD_DSTYLE_DIMJAG
1070
   388
1040
1.5
1001
ACAD_DSTYLE_DIMTALN
1070
   392
1070
     0
1001
ACAD_DSTYLE_DIMARC_LENGTH_SYMBOL
1070
   379
1070
     1
1001
ACAD_DSTYLE_DIMJOGGED_JOGANGLE_SYMBOL
1070
   384
1040
1.570796326794896
  0
DIMSTYLE
105
500
330
A
100
AcDbSymbolTableRecord
100
AcDbDimStyleTableRecord
  2
AM_DIN$7
 70
     0
 41
2.5
 42
1.0
 43
10.0
 44
2.0
 48
0.000000001
 73
     0
 74
     0
 77
     1
 78
     8
 79
     2
140
5.0
143
0.0393701
146
0.7071069999999999
147
2.299999999999999
171
     3
172
     1
271
     2
272
     3
273
     3
274
     4
284
     8
285
    11
286
     8
340
7DE
371
    -1
372
    -1
1001
ACAD_DSTYLE_DIMBREAK
1070
   391
1040
3.75
1001
ACAD_DSTYLE_DIMJAG
1070
   388
1040
1.5
1001
ACAD_DSTYLE_DIMTALN
1070
   392
1070
     0
1001
ACAD_DSTYLE_DIMARC_LENGTH_SYMBOL
1070
   379
1070
     1
1001
ACAD_DSTYLE_DIMJOGGED_JOGANGLE_SYMBOL
1070
   384
1040
1.570796326794896
  0
DIMSTYLE
105
501
330
A
100
AcDbSymbolTableRecord
100
AcDbDimStyleTableRecord
  2
AM_DIN$SF
 70
     0
 41
2.5
 42
1.0
 43
10.0
 44
2.0
 48
0.000000001
 73
     0
 74
     0
 75
     1
 76
     1
 77
     1
 78
     8
 79
     2
140
3.5
143
0.0393701
146
0.7071069999999999
147
2.299999999999999
171
     3
172
     1
271
     2
272
     2
273
     3
274
     3
284
     8
285
    11
286
     8
340
7DE
371
    -1
372
    -1
1001
ACAD_DSTYLE_DIMBREAK
1070
   391
1040
3.75
1001
ACAD_DSTYLE_DIMJAG
1070
   388
1040
1.5
1001
ACAD_DSTYLE_DIMTALN
1070
   392
1070
     0
1001
ACAD_DSTYLE_DIMARC_LENGTH_SYMBOL
1070
   379
1070
     1
1001
ACAD_DSTYLE_DIMJOGGED_JOGANGLE_SYMBOL
1070
   384
1040
1.570796326794896
  0
DIMSTYLE
105
506
330
A
100
AcDbSymbolTableRecord
100
AcDbDimStyleTableRecord
  2
AM_DIN$SH
 70
     0
 41
2.5
 42
1.0
 43
10.0
 44
2.0
 48
0.000000001
 73
     0
 74
     0
 75
     1
 76
     1
 77
     1
 78
     8
 79
     2
140
3.5
143
0.0393701
144
2.0
146
0.7071069999999999
147
2.299999999999999
171
     3
172
     1
271
     2
272
     2
273
     3
274
     3
284
     8
285
    11
286
     8
340
7DE
371
    -1
372
    -1
1001
ACAD_DSTYLE_DIMBREAK
1070
   391
1040
3.75
1001
ACAD_DSTYLE_DIMJAG
1070
   388
1040
1.5
1001
ACAD_DSTYLE_DIMTALN
1070
   392
1070
     0
1001
ACAD_DSTYLE_DIMARC_LENGTH_SYMBOL
1070
   379
1070
     1
1001
ACAD_DSTYLE_DIMJOGGED_JOGANGLE_SYMBOL
1070
   384
1040
1.570796326794896
  0
DIMSTYLE
105
D8D
102
{ACAD_REACTORS
330
F8A
330
F89
330
F87
330
F86
330
F88
330
1193
330
1194
330
1195
330
1196
330
1197
102
}
330
A
100
AcDbSymbolTableRecord
100
AcDbDimStyleTableRecord
  2
V-TYGEN_-160
 70
     0
 41
3.5
 42
1.0
 43
0.5
 44
1.0
 73
     0
 74
     0
 77
     1
140
3.5
141
0.0
147
1.0
172
     1
271
     0
272
     0
340
10
371
    -1
1001
ACAD_DSTYLE_DIMJAG
1070
   388
1040
1.5
1001
ACAD_DSTYLE_DIMTALN
1070
   392
1070
     0
  0
DIMSTYLE
105
D91
102
{ACAD_REACTORS
330
F8F
102
}
330
A
100
AcDbSymbolTableRecord
100
AcDbDimStyleTableRecord
  2
AM_ISO
 70
     0
  4
"
 41
3.5
 42
1.0
 43
10.0
 44
1.0
 47
0.1
 48
0.1
 73
     0
 74
     0
 77
     1
 78
     8
 79
     2
140
3.5
141
0.0
143
0.0393701
146
0.71
147
1.5
172
     1
176
   256
177
   256
178
     2
271
     2
272
     3
274
     4
283
     0
284
     8
340
10
371
    -1
372
    -1
1001
ACAD_DSTYLE_DIMJAG
1070
   388
1040
1.5
1001
ACAD_DSTYLE_DIMBREAK
1070
   391
1040
3.75
1001
ACAD_DSTYLE_DIMARC_LENGTH_SYMBOL
1070
   379
1070
     1
1001
ACAD_DSTYLE_DIM_LINETYPE
1070
   380
1005
12
1001
ACAD_DSTYLE_DIM_EXT1_LINETYPE
1070
   381
1005
12
1001
ACAD_DSTYLE_DIM_EXT2_LINETYPE
1070
   382
1005
12
  0
DIMSTYLE
105
D92
330
A
100
AcDbSymbolTableRecord
100
AcDbDimStyleTableRecord
  2
AM_ISO$3
 70
     0
  4
"
 41
3.5
 42
1.0
 43
10.0
 44
1.0
 47
0.1
 48
0.1
 73
     0
 77
     1
 78
     8
 79
     2
140
3.5
141
0.0
143
0.0393701
146
0.71
147
1.5
176
   256
177
   256
178
     2
271
     2
272
     3
274
     4
283
     0
284
     8
288
     1
289
     0
340
10
371
    -1
372
    -1
1001
ACAD_DSTYLE_DIMBREAK
1070
   391
1040
3.75
1001
ACAD_DSTYLE_DIMJAG
1070
   388
1040
1.5
1001
ACAD_DSTYLE_DIMARC_LENGTH_SYMBOL
1070
   379
1070
     1
1001
ACAD_DSTYLE_DIM_LINETYPE
1070
   380
1005
12
1001
ACAD_DSTYLE_DIM_EXT1_LINETYPE
1070
   381
1005
12
1001
ACAD_DSTYLE_DIM_EXT2_LINETYPE
1070
   382
1005
12
  0
DIMSTYLE
105
D93
330
A
100
AcDbSymbolTableRecord
100
AcDbDimStyleTableRecord
  2
AM_ISO$4
 70
     0
  4
"
 41
3.5
 42
1.0
 43
10.0
 44
1.0
 47
0.1
 48
0.1
 73
     0
 77
     1
 78
     8
 79
     2
140
3.5
141
0.0
143
0.0393701
146
0.71
147
1.5
176
   256
177
   256
178
     2
271
     2
272
     3
274
     4
283
     0
284
     8
288
     1
289
     0
340
10
371
    -1
372
    -1
1001
ACAD_DSTYLE_DIMBREAK
1070
   391
1040
3.75
1001
ACAD_DSTYLE_DIMJAG
1070
   388
1040
1.5
1001
ACAD_DSTYLE_DIMARC_LENGTH_SYMBOL
1070
   379
1070
     1
1001
ACAD_DSTYLE_DIM_LINETYPE
1070
   380
1005
12
1001
ACAD_DSTYLE_DIM_EXT1_LINETYPE
1070
   381
1005
12
1001
ACAD_DSTYLE_DIM_EXT2_LINETYPE
1070
   382
1005
12
  0
DIMSTYLE
105
D94
330
A
100
AcDbSymbolTableRecord
100
AcDbDimStyleTableRecord
  2
AM_ISO$6
 70
     0
  4
"
 41
3.5
 42
1.0
 43
10.0
 44
1.0
 47
0.1
 48
0.1
 73
     0
 74
     0
 78
     8
 79
     2
140
3.5
141
0.0
143
0.0393701
146
0.71
147
1.5
172
     1
176
   256
177
   256
178
     2
271
     2
272
     3
274
     4
283
     0
284
     8
340
10
371
    -1
372
    -1
1001
ACAD_DSTYLE_DIMBREAK
1070
   391
1040
3.75
1001
ACAD_DSTYLE_DIMJAG
1070
   388
1040
1.5
1001
ACAD_DSTYLE_DIMARC_LENGTH_SYMBOL
1070
   379
1070
     1
1001
ACAD_DSTYLE_DIM_LINETYPE
1070
   380
1005
12
1001
ACAD_DSTYLE_DIM_EXT1_LINETYPE
1070
   381
1005
12
1001
ACAD_DSTYLE_DIM_EXT2_LINETYPE
1070
   382
1005
12
  0
DIMSTYLE
105
D95
330
A
100
AcDbSymbolTableRecord
100
AcDbDimStyleTableRecord
  2
AM_ISO$7
 70
     0
  4
"
 41
3.5
 42
1.0
 43
10.0
 44
1.0
 47
0.1
 48
0.1
 73
     0
 74
     0
 77
     1
 78
     8
 79
     2
140
3.5
141
0.0
143
0.0393701
146
0.71
147
1.5
172
     1
176
   256
177
   256
178
     2
271
     2
272
     3
274
     4
283
     0
284
     8
340
10
371
    -1
372
    -1
1001
ACAD_DSTYLE_DIMBREAK
1070
   391
1040
3.75
1001
ACAD_DSTYLE_DIMJAG
1070
   388
1040
1.5
1001
ACAD_DSTYLE_DIMARC_LENGTH_SYMBOL
1070
   379
1070
     1
1001
ACAD_DSTYLE_DIM_LINETYPE
1070
   380
1005
12
1001
ACAD_DSTYLE_DIM_EXT1_LINETYPE
1070
   381
1005
12
1001
ACAD_DSTYLE_DIM_EXT2_LINETYPE
1070
   382
1005
12
  0
DIMSTYLE
105
D96
330
A
100
AcDbSymbolTableRecord
100
AcDbDimStyleTableRecord
  2
AM_ISO$SF
 70
     0
  4
"
 41
3.5
 42
1.0
 43
10.0
 44
1.0
 47
0.1
 48
0.1
 73
     0
 74
     0
 75
     1
 76
     1
 77
     1
 78
     8
 79
     2
140
3.5
141
0.0
143
0.0393701
146
0.71
147
1.5
172
     1
176
   256
177
   256
178
     2
271
     2
272
     3
274
     4
283
     0
284
     8
340
10
371
    -1
372
    -1
1001
ACAD_DSTYLE_DIMBREAK
1070
   391
1040
3.75
1001
ACAD_DSTYLE_DIMJAG
1070
   388
1040
1.5
1001
ACAD_DSTYLE_DIMARC_LENGTH_SYMBOL
1070
   379
1070
     1
1001
ACAD_DSTYLE_DIM_LINETYPE
1070
   380
1005
12
1001
ACAD_DSTYLE_DIM_EXT1_LINETYPE
1070
   381
1005
12
1001
ACAD_DSTYLE_DIM_EXT2_LINETYPE
1070
   382
1005
12
  0
DIMSTYLE
105
D97
330
A
100
AcDbSymbolTableRecord
100
AcDbDimStyleTableRecord
  2
AM_ISO$SH
 70
     0
  4
"
 41
3.5
 42
1.0
 43
10.0
 44
1.0
 47
0.1
 48
0.1
 73
     0
 74
     0
 75
     1
 76
     1
 77
     1
 78
     8
 79
     2
140
3.5
141
0.0
143
0.0393701
144
2.0
146
0.71
147
1.5
172
     1
173
     1
176
   256
177
   256
178
     2
271
     2
272
     3
274
     4
283
     0
284
     8
340
10
343
D84
371
    -1
372
    -1
1001
ACAD_DSTYLE_DIMBREAK
1070
   391
1040
3.75
1001
ACAD_DSTYLE_DIMJAG
1070
   388
1040
1.5
1001
ACAD_DSTYLE_DIMARC_LENGTH_SYMBOL
1070
   379
1070
     1
1001
ACAD_DSTYLE_DIM_LINETYPE
1070
   380
1005
12
1001
ACAD_DSTYLE_DIM_EXT1_LINETYPE
1070
   381
1005
12
1001
ACAD_DSTYLE_DIM_EXT2_LINETYPE
1070
   382
1005
12
  0
ENDTAB
  0
TABLE
  2
BLOCK_RECORD
  5
1
330
0
100
AcDbSymbolTable
 70
    16
  0
BLOCK_RECORD
  5
18
330
1
100
AcDbSymbolTableRecord
100
AcDbBlockTableRecord
  2
*MODEL_SPACE
340
303
  0
BLOCK_RECORD
  5
B56
330
1
100
AcDbSymbolTableRecord
100
AcDbBlockTableRecord
  2
*Paper_Space
340
B57
  0
BLOCK_RECORD
  5
D0B
330
1
100
AcDbSymbolTableRecord
100
AcDbBlockTableRecord
  2
_ACMFILLED15
340
0
  0
BLOCK_RECORD
  5
D16
330
1
100
AcDbSymbolTableRecord
100
AcDbBlockTableRecord
  2
_ACMFILLED30
340
0
  0
BLOCK_RECORD
  5
D84
330
1
100
AcDbSymbolTableRecord
100
AcDbBlockTableRecord
  2
GENAXEH
340
0
  0
BLOCK_RECORD
  5
1199
330
1
100
AcDbSymbolTableRecord
100
AcDbBlockTableRecord
  2
*D11
340
0
  0
BLOCK_RECORD
  5
11A7
330
1
100
AcDbSymbolTableRecord
100
AcDbBlockTableRecord
  2
*D12
340
0
  0
BLOCK_RECORD
  5
11B3
330
1
100
AcDbSymbolTableRecord
100
AcDbBlockTableRecord
  2
*D13
340
0
  0
BLOCK_RECORD
  5
11C1
330
1
100
AcDbSymbolTableRecord
100
AcDbBlockTableRecord
  2
*D14
340
0
  0
BLOCK_RECORD
  5
11CD
330
1
100
AcDbSymbolTableRecord
100
AcDbBlockTableRecord
  2
*D15
340
0
  0
ENDTAB
  0
ENDSEC
  0
SECTION
  2
BLOCKS
  0
BLOCK
  5
32
330
18
100
AcDbEntity
  8
0
100
AcDbBlockBegin
  2
*MODEL_SPACE
 70
     0
 10
0.0
 20
0.0
 30
0.0
  3
*MODEL_SPACE
  1

  0
ENDBLK
  5
33
330
18
100
AcDbEntity
  8
0
100
AcDbBlockEnd
  0
BLOCK
  5
B58
330
B56
100
AcDbEntity
 67
     1
  8
0
100
AcDbBlockBegin
  2
*Paper_Space
 70
     0
 10
0.0
 20
0.0
 30
0.0
  3
*Paper_Space
  1

  0
ENDBLK
  5
B59
330
B56
100
AcDbEntity
 67
     1
  8
0
100
AcDbBlockEnd
  0
BLOCK
  5
D0D
330
D0B
100
AcDbEntity
  8
0
100
AcDbBlockBegin
  2
_ACMFILLED15
 70
     0
 10
0.0
 20
0.0
 30
0.0
  3
_ACMFILLED15
  1

  0
TRACE
  5
D0C
330
D0B
100
AcDbEntity
  8
1
 62
     0
100
AcDbTrace
 10
-1
 20
-0.131652497
 30
0.0
 11
-1
 21
0.131652497
 31
0.0
 12
0
 22
0
 32
0.0
 13
0
 23
0
 33
0.0
  0
ENDBLK
  5
D0E
330
D0B
100
AcDbEntity
  8
0
100
AcDbBlockEnd
  0
BLOCK
  5
D18
330
D16
100
AcDbEntity
  8
0
100
AcDbBlockBegin
  2
_ACMFILLED30
 70
     0
 10
0.0
 20
0.0
 30
0.0
  3
_ACMFILLED30
  1

  0
TRACE
  5
D17
330
D16
100
AcDbEntity
  8
1
 62
     0
100
AcDbTrace
 10
-1
 20
-0.26794919
 30
0.0
 11
-1
 21
0.26794919
 31
0.0
 12
0
 22
0
 32
0.0
 13
0
 23
0
 33
0.0
  0
ENDBLK
  5
D19
330
D16
100
AcDbEntity
  8
0
100
AcDbBlockEnd
  0
BLOCK
  5
D85
330
D84
100
AcDbEntity
  8
0
100
AcDbBlockBegin
  2
GENAXEH
 70
     0
 10
0.0
 20
0.0
 30
0.0
  3
GENAXEH
  1

  0
LINE
  5
D86
330
D84
100
AcDbEntity
  8
0
100
AcDbLine
 10
-1
 20
0
 30
0.0
 11
1
 21
0
 31
0.0
  0
ENDBLK
  5
D87
330
D84
100
AcDbEntity
  8
0
100
AcDbBlockEnd
  0
BLOCK
  5
119A
330
1199
100
AcDbEntity
  8
0
100
AcDbBlockBegin
  2
*D11
 70
     1
 10
0.0
 20
0.0
 30
0.0
  3
*D11
  1

  0
LINE
  5
11D9
330
1199
100
AcDbEntity
  8
2
 62
     0
370
    -2
100
AcDbLine
 10
177.312203494924
 20
92.1149822246658
 30
0.0
 11
192.312203494924
 21
92.1149822246658
 31
0.0
  0
LINE
  5
11DA
330
1199
100
AcDbEntity
  8
2
 62
     0
370
    -2
100
AcDbLine
 10
177.312203494924
 20
84.3979822246658
 30
0.0
 11
192.312203494924
 21
84.3979822246658
 31
0.0
  0
LINE
  5
11DB
330
1199
100
AcDbEntity
  8
2
 62
     0
100
AcDbLine
 10
191.312203494924
 20
80.8979822246658
 30
0.0
 11
191.312203494924
 21
77.3979822246658
 31
0.0
  0
LINE
  5
11DC
330
1199
100
AcDbEntity
  8
2
 62
     0
100
AcDbLine
 10
191.312203494924
 20
95.6149822246658
 30
0.0
 11
191.312203494924
 21
131.695094663176
 31
0.0
  0
LINE
  5
11DD
330
1199
100
AcDbEntity
  8
2
 62
     0
100
AcDbLine
 10
191.312203494924
 20
84.3979822246658
 30
0.0
 11
191.312203494924
 21
92.1149822246658
 31
0.0
  0
SOLID
  5
11DE
330
1199
100
AcDbEntity
  8
2
 62
     0
100
AcDbTrace
 10
190.728870161591
 20
80.8979822246658
 30
0.0
 11
191.895536828257
 21
80.8979822246658
 31
0.0
 12
191.312203494924
 22
84.3979822246658
 32
0.0
 13
191.312203494924
 23
84.3979822246658
 33
0.0
  0
SOLID
  5
11DF
330
1199
100
AcDbEntity
  8
2
 62
     0
100
AcDbTrace
 10
190.728870161591
 20
95.6149822246658
 30
0.0
 11
191.895536828257
 21
95.6149822246658
 31
0.0
 12
191.312203494924
 22
92.1149822246658
 32
0.0
 13
191.312203494924
 23
92.1149822246658
 33
0.0
  0
MTEXT
  5
11E0
330
1199
100
AcDbEntity
  8
2
 62
     0
100
AcDbMText
 10
188.283039756343
 20
115.864982224666
 30
0.0
 40
3.5
 41
0.0
 71
     5
 72
     1
  1
\A1;NPT1/16-27
 11
0.0000000000000001
 21
1.0
 31
0.0
 73
     1
 44
1.0
1001
ACAD
1000
MTEXTBEGIN
1070
    73
1070
     1
1070
    44
1040
1.0
1070
    74
1070
     0
1000
MTEXTEND
  0
POINT
  5
11E1
330
1199
100
AcDbEntity
  8
DEFPOINTS
 62
     0
100
AcDbPoint
 10
176.312203494924
 20
92.1149822246658
 30
0.0
  0
POINT
  5
11E2
330
1199
100
AcDbEntity
  8
DEFPOINTS
 62
     0
100
AcDbPoint
 10
176.312203494924
 20
84.3979822246658
 30
0.0
  0
POINT
  5
11E3
330
1199
100
AcDbEntity
  8
DEFPOINTS
 62
     0
100
AcDbPoint
 10
191.312203494924
 20
84.3979822246658
 30
0.0
  0
ENDBLK
  5
119B
330
1199
100
AcDbEntity
  8
0
100
AcDbBlockEnd
  0
BLOCK
  5
11A8
330
11A7
100
AcDbEntity
  8
0
100
AcDbBlockBegin
  2
*D12
 70
     1
 10
0.0
 20
0.0
 30
0.0
  3
*D12
  1

  0
LINE
  5
11E4
330
11A7
100
AcDbEntity
  8
2
 62
     0
370
    -2
100
AcDbLine
 10
117.212203494924
 20
93.2564822246658
 30
0.0
 11
117.212203494924
 21
110.6872889904
 31
0.0
  0
LINE
  5
11E5
330
11A7
100
AcDbEntity
  8
2
 62
     0
370
    -2
100
AcDbLine
 10
176.312203494924
 20
93.1149822246658
 30
0.0
 11
176.312203494924
 21
110.6872889904
 31
0.0
  0
LINE
  5
11E6
330
11A7
100
AcDbEntity
  8
2
 62
     0
100
AcDbLine
 10
120.712203494924
 20
109.6872889904
 30
0.0
 11
172.812203494924
 21
109.6872889904
 31
0.0
  0
SOLID
  5
11E7
330
11A7
100
AcDbEntity
  8
2
 62
     0
100
AcDbTrace
 10
120.712203494924
 20
110.270622323733
 30
0.0
 11
120.712203494924
 21
109.103955657066
 31
0.0
 12
117.212203494924
 22
109.6872889904
 32
0.0
 13
117.212203494924
 23
109.6872889904
 33
0.0
  0
SOLID
  5
11E8
330
11A7
100
AcDbEntity
  8
2
 62
     0
100
AcDbTrace
 10
172.812203494924
 20
110.270622323733
 30
0.0
 11
172.812203494924
 21
109.103955657066
 31
0.0
 12
176.312203494924
 22
109.6872889904
 32
0.0
 13
176.312203494924
 23
109.6872889904
 33
0.0
  0
MTEXT
  5
11E9
330
11A7
100
AcDbEntity
  8
2
 62
     0
100
AcDbMText
 10
146.762203494924
 20
112.49877880066
 30
0.0
 40
3.5
 41
0.0
 71
     5
 72
     1
  1
\A1;59.1
 73
     1
 44
1.0
1001
ACAD
1000
MTEXTBEGIN
1070
    73
1070
     1
1070
    44
1040
1.0
1070
    74
1070
     0
1000
MTEXTEND
  0
POINT
  5
11EA
330
11A7
100
AcDbEntity
  8
DEFPOINTS
 62
     0
100
AcDbPoint
 10
117.212203494924
 20
92.2564822246658
 30
0.0
  0
POINT
  5
11EB
330
11A7
100
AcDbEntity
  8
DEFPOINTS
 62
     0
100
AcDbPoint
 10
176.312203494924
 20
92.1149822246658
 30
0.0
  0
POINT
  5
11EC
330
11A7
100
AcDbEntity
  8
DEFPOINTS
 62
     0
100
AcDbPoint
 10
176.312203494924
 20
109.6872889904
 30
0.0
  0
ENDBLK
  5
11A9
330
11A7
100
AcDbEntity
  8
0
100
AcDbBlockEnd
  0
BLOCK
  5
11B4
330
11B3
100
AcDbEntity
  8
0
100
AcDbBlockBegin
  2
*D13
 70
     1
 10
0.0
 20
0.0
 30
0.0
  3
*D13
  1

  0
LINE
  5
11ED
330
11B3
100
AcDbEntity
  8
SK2
 62
     0
370
    -2
100
AcDbLine
 10
104.312203494924
 20
92.2564822246658
 30
0.0
 11
88.5408707462366
 21
92.2564822246658
 31
0.0
  0
LINE
  5
11EE
330
11B3
100
AcDbEntity
  8
SK2
 62
     0
370
    -2
100
AcDbLine
 10
104.312203494924
 20
84.2564822246658
 30
0.0
 11
88.5408707462366
 21
84.2564822246658
 31
0.0
  0
LINE
  5
11EF
330
11B3
100
AcDbEntity
  8
SK2
 62
     0
100
AcDbLine
 10
89.5408707462366
 20
95.7564822246658
 30
0.0
 11
89.5408707462366
 21
99.2564822246658
 31
0.0
  0
LINE
  5
11F0
330
11B3
100
AcDbEntity
  8
SK2
 62
     0
100
AcDbLine
 10
89.5408707462366
 20
80.7564822246658
 30
0.0
 11
89.5408707462366
 21
77.2564822246658
 31
0.0
  0
LINE
  5
11F1
330
11B3
100
AcDbEntity
  8
SK2
 62
     0
100
AcDbLine
 10
89.5408707462366
 20
92.2564822246658
 30
0.0
 11
89.5408707462366
 21
84.2564822246658
 31
0.0
  0
SOLID
  5
11F2
330
11B3
100
AcDbEntity
  8
SK2
 62
     0
100
AcDbTrace
 10
88.9575374129033
 20
95.7564822246658
 30
0.0
 11
90.12420407957
 21
95.7564822246658
 31
0.0
 12
89.5408707462366
 22
92.2564822246658
 32
0.0
 13
89.5408707462366
 23
92.2564822246658
 33
0.0
  0
SOLID
  5
11F3
330
11B3
100
AcDbEntity
  8
SK2
 62
     0
100
AcDbTrace
 10
88.9575374129033
 20
80.7564822246658
 30
0.0
 11
90.12420407957
 21
80.7564822246658
 31
0.0
 12
89.5408707462366
 22
84.2564822246658
 32
0.0
 13
89.5408707462366
 23
84.2564822246658
 33
0.0
  0
MTEXT
  5
11F4
330
11B3
100
AcDbEntity
  8
SK2
 62
     0
100
AcDbMText
 10
86.6777294953582
 20
88.2564822246658
 30
0.0
 40
3.5
 41
0.0
 71
     5
 72
     1
  1
\A1;%%c8
 11
0.0000000000000001
 21
1.0
 31
0.0
 73
     1
 44
1.0
1001
ACAD
1000
MTEXTBEGIN
1070
    73
1070
     1
1070
    44
1040
1.0
1070
    74
1070
     0
1000
MTEXTEND
  0
POINT
  5
11F5
330
11B3
100
AcDbEntity
  8
DEFPOINTS
 62
     0
100
AcDbPoint
 10
105.312203494924
 20
92.2564822246658
 30
0.0
  0
POINT
  5
11F6
330
11B3
100
AcDbEntity
  8
DEFPOINTS
 62
     0
100
AcDbPoint
 10
105.312203494924
 20
84.2564822246658
 30
0.0
  0
POINT
  5
11F7
330
11B3
100
AcDbEntity
  8
DEFPOINTS
 62
     0
100
AcDbPoint
 10
89.5408707462366
 20
84.2564822246658
 30
0.0
  0
ENDBLK
  5
11B5
330
11B3
100
AcDbEntity
  8
0
100
AcDbBlockEnd
  0
BLOCK
  5
11C2
330
11C1
100
AcDbEntity
  8
0
100
AcDbBlockBegin
  2
*D14
 70
     1
 10
0.0
 20
0.0
 30
0.0
  3
*D14
  1

  0
LINE
  5
11F8
330
11C1
100
AcDbEntity
  8
2
 62
     0
370
    -2
100
AcDbLine
 10
162.312203494924
 20
93.0564822246658
 30
0.0
 11
162.312203494924
 21
102.051626793604
 31
0.0
  0
LINE
  5
11F9
330
11C1
100
AcDbEntity
  8
2
 62
     0
370
    -2
100
AcDbLine
 10
176.312203494924
 20
93.1149822246658
 30
0.0
 11
176.312203494924
 21
102.051626793604
 31
0.0
  0
LINE
  5
11FA
330
11C1
100
AcDbEntity
  8
2
 62
     0
100
AcDbLine
 10
165.812203494924
 20
101.051626793604
 30
0.0
 11
172.812203494924
 21
101.051626793604
 31
0.0
  0
SOLID
  5
11FB
330
11C1
100
AcDbEntity
  8
2
 62
     0
100
AcDbTrace
 10
165.812203494924
 20
101.634960126937
 30
0.0
 11
165.812203494924
 21
100.468293460271
 31
0.0
 12
162.312203494924
 22
101.051626793604
 32
0.0
 13
162.312203494924
 23
101.051626793604
 33
0.0
  0
SOLID
  5
11FC
330
11C1
100
AcDbEntity
  8
2
 62
     0
100
AcDbTrace
 10
172.812203494924
 20
101.634960126937
 30
0.0
 11
172.812203494924
 21
100.468293460271
 31
0.0
 12
176.312203494924
 22
101.051626793604
 32
0.0
 13
176.312203494924
 23
101.051626793604
 33
0.0
  0
MTEXT
  5
11FD
330
11C1
100
AcDbEntity
  8
2
 62
     0
100
AcDbMText
 10
169.312203494924
 20
103.812694959451
 30
0.0
 40
3.5
 41
0.0
 71
     5
 72
     1
  1
\A1;14
 73
     1
 44
1.0
1001
ACAD
1000
MTEXTBEGIN
1070
    73
1070
     1
1070
    44
1040
1.0
1070
    74
1070
     0
1000
MTEXTEND
  0
POINT
  5
11FE
330
11C1
100
AcDbEntity
  8
DEFPOINTS
 62
     0
100
AcDbPoint
 10
162.312203494924
 20
92.0564822246658
 30
0.0
  0
POINT
  5
11FF
330
11C1
100
AcDbEntity
  8
DEFPOINTS
 62
     0
100
AcDbPoint
 10
176.312203494924
 20
92.1149822246658
 30
0.0
  0
POINT
  5
1200
330
11C1
100
AcDbEntity
  8
DEFPOINTS
 62
     0
100
AcDbPoint
 10
176.312203494924
 20
101.051626793604
 30
0.0
  0
ENDBLK
  5
11C3
330
11C1
100
AcDbEntity
  8
0
100
AcDbBlockEnd
  0
BLOCK
  5
11CE
330
11CD
100
AcDbEntity
  8
0
100
AcDbBlockBegin
  2
*D15
 70
     1
 10
0.0
 20
0.0
 30
0.0
  3
*D15
  1

  0
LINE
  5
1201
330
11CD
100
AcDbEntity
  8
SK2
 62
     0
370
    -2
100
AcDbLine
 10
96.3122034949239
 20
92.2064822246658
 30
0.0
 11
96.3122034949239
 21
120.595818948071
 31
0.0
  0
LINE
  5
1202
330
11CD
100
AcDbEntity
  8
SK2
 62
     0
370
    -2
100
AcDbLine
 10
176.312203494924
 20
93.1149822246658
 30
0.0
 11
176.312203494924
 21
120.595818948071
 31
0.0
  0
LINE
  5
1203
330
11CD
100
AcDbEntity
  8
SK2
 62
     0
100
AcDbLine
 10
99.8122034949239
 20
119.595818948071
 30
0.0
 11
172.812203494924
 21
119.595818948071
 31
0.0
  0
SOLID
  5
1204
330
11CD
100
AcDbEntity
  8
SK2
 62
     0
100
AcDbTrace
 10
99.8122034949239
 20
120.179152281404
 30
0.0
 11
99.8122034949239
 21
119.012485614738
 31
0.0
 12
96.3122034949239
 22
119.595818948071
 32
0.0
 13
96.3122034949239
 23
119.595818948071
 33
0.0
  0
SOLID
  5
1205
330
11CD
100
AcDbEntity
  8
SK2
 62
     0
100
AcDbTrace
 10
172.812203494924
 20
120.179152281404
 30
0.0
 11
172.812203494924
 21
119.012485614738
 31
0.0
 12
176.312203494924
 22
119.595818948071
 32
0.0
 13
176.312203494924
 23
119.595818948071
 33
0.0
  0
MTEXT
  5
1206
330
11CD
100
AcDbEntity
  8
SK2
 62
     0
100
AcDbMText
 10
136.312203494924
 20
122.407308758331
 30
0.0
 40
3.5
 41
0.0
 71
     5
 72
     1
  1
\A1;80
 73
     1
 44
1.0
1001
ACAD
1000
MTEXTBEGIN
1070
    73
1070
     1
1070
    44
1040
1.0
1070
    74
1070
     0
1000
MTEXTEND
  0
POINT
  5
1207
330
11CD
100
AcDbEntity
  8
DEFPOINTS
 62
     0
100
AcDbPoint
 10
96.3122034949239
 20
91.2064822246658
 30
0.0
  0
POINT
  5
1208
330
11CD
100
AcDbEntity
  8
DEFPOINTS
 62
     0
100
AcDbPoint
 10
176.312203494924
 20
92.1149822246658
 30
0.0
  0
POINT
  5
1209
330
11CD
100
AcDbEntity
  8
DEFPOINTS
 62
     0
100
AcDbPoint
 10
176.312203494924
 20
119.595818948071
 30
0.0
  0
ENDBLK
  5
11CF
330
11CD
100
AcDbEntity
  8
0
100
AcDbBlockEnd
  0
ENDSEC
  0
SECTION
  2
ENTITIES
  0
LINE
  5
FAE
330
18
100
AcDbEntity
  8
SK4
100
AcDbLine
 10
94.3122034949239
 20
88.2564822246658
 30
0.0
 11
178.312203494924
 21
88.2564822246658
 31
0.0
  0
LINE
  5
FAF
330
18
100
AcDbEntity
  8
4
100
AcDbLine
 10
117.212203494924
 20
88.2564822246658
 30
0.0
 11
178.312203494924
 21
88.2564822246658
 31
0.0
  0
LINE
  5
FB0
330
18
100
AcDbEntity
  8
1
100
AcDbLine
 10
162.312203494924
 20
90.7415174297145
 30
0.0
 11
162.279850894924
 21
90.6522960472107
 31
0.0
  0
LINE
  5
FB1
330
18
100
AcDbEntity
  8
1
100
AcDbLine
 10
162.279850894924
 20
90.6522960472107
 30
0.0
 11
162.279850894924
 21
88.1070699397079
 31
0.0
  0
LINE
  5
FB2
330
18
100
AcDbEntity
  8
1
100
AcDbLine
 10
162.295107128899
 20
88.0653852472707
 30
0.0
 11
162.312203494924
 21
88.0158799854046
 31
0.0
  0
LINE
  5
FB3
330
18
100
AcDbEntity
  8
1
100
AcDbLine
 10
162.312203494924
 20
90.7415174297145
 30
0.0
 11
162.312203494924
 21
88.0158799854046
 31
0.0
  0
LINE
  5
FB4
330
18
100
AcDbEntity
  8
1
100
AcDbLine
 10
151.312203494924
 20
90.8233647636382
 30
0.0
 11
151.312203494924
 21
85.7769330281997
 31
0.0
  0
LINE
  5
FB5
330
18
100
AcDbEntity
  8
1
100
AcDbLine
 10
162.312203494924
 20
84.2929808568086
 30
0.0
 11
162.312203494924
 21
86.0370866986764
 31
0.0
  0
LINE
  5
FB6
330
18
100
AcDbEntity
  8
1
100
AcDbLine
 10
162.312203494924
 20
86.0370866986764
 30
0.0
 11
156.812203494924
 21
86.4408347386997
 31
0.0
  0
LINE
  5
FB7
330
18
100
AcDbEntity
  8
1
100
AcDbLine
 10
156.812203494924
 20
86.4408347386997
 30
0.0
 11
151.312203494924
 21
87.1011481549443
 31
0.0
  0
LINE
  5
FB8
330
18
100
AcDbEntity
  8
1
100
AcDbLine
 10
153.312203494924
 20
85.5420846794545
 30
0.0
 11
153.312203494924
 21
85.3700785666199
 31
0.0
  0
LINE
  5
FB9
330
18
100
AcDbEntity
  8
1
100
AcDbLine
 10
162.295107128899
 20
88.0653852472707
 30
0.0
 11
162.279850894924
 21
88.1070699397079
 31
0.0
  0
LINE
  5
FBA
330
18
100
AcDbEntity
  8
1
100
AcDbLine
 10
162.279850894924
 20
88.1070699397079
 30
0.0
 11
157.147608869773
 21
89.4285257263881
 31
0.0
  0
LINE
  5
FBB
330
18
100
AcDbEntity
  8
1
100
AcDbLine
 10
157.147608869773
 20
89.4285257263881
 30
0.0
 11
157.147585863926
 21
89.4285314441401
 31
0.0
  0
LINE
  5
FBC
330
18
100
AcDbEntity
  8
1
100
AcDbLine
 10
153.312203494924
 20
90.3302331956402
 30
0.0
 11
153.312203494924
 21
90.3547964958362
 31
0.0
  0
LINE
  5
FBD
330
18
100
AcDbEntity
  8
1
100
AcDbLine
 10
153.312203494924
 20
90.3547964958362
 30
0.0
 11
151.312203494924
 21
90.78515410635
 31
0.0
  0
LINE
  5
FBE
330
18
100
AcDbEntity
  8
1
100
AcDbLine
 10
153.312203494924
 20
90.3547964958362
 30
0.0
 11
153.312203494924
 21
90.3786052442775
 31
0.0
  0
LINE
  5
FBF
330
18
100
AcDbEntity
  8
1
100
AcDbLine
 10
151.312203494924
 20
90.8233647636382
 30
0.0
 11
153.312203494924
 21
90.3786052442776
 31
0.0
  0
LINE
  5
FC0
330
18
100
AcDbEntity
  8
1
100
AcDbLine
 10
162.279850894924
 20
91.6195400783867
 30
0.0
 11
159.339330624953
 21
91.1957879399304
 31
0.0
  0
LINE
  5
FC1
330
18
100
AcDbEntity
  8
1
100
AcDbLine
 10
151.312203494924
 20
92.2564822246658
 30
0.0
 11
151.312203494924
 21
92.2564723419708
 31
0.0
  0
LINE
  5
FC2
330
18
100
AcDbEntity
  8
1
100
AcDbLine
 10
151.312203494924
 20
92.2564723419708
 30
0.0
 11
151.312203494924
 21
92.253597082388
 31
0.0
  0
LINE
  5
FC3
330
18
100
AcDbEntity
  8
1
100
AcDbLine
 10
151.312203494924
 20
92.253597082388
 30
0.0
 11
151.312203494924
 21
92.2145056777185
 31
0.0
  0
LINE
  5
FC4
330
18
100
AcDbEntity
  8
1
100
AcDbLine
 10
162.279850894924
 20
90.6522960472107
 30
0.0
 11
157.796026432791
 21
91.4343380608281
 31
0.0
  0
LINE
  5
FC5
330
18
100
AcDbEntity
  8
1
100
AcDbLine
 10
157.796026432791
 20
91.4343380608281
 30
0.0
 11
155.554107637823
 21
91.7165600830006
 31
0.0
  0
LINE
  5
FC6
330
18
100
AcDbEntity
  8
1
100
AcDbLine
 10
155.554107637823
 20
91.7165600830006
 30
0.0
 11
153.312203494924
 21
91.9167299491857
 31
0.0
  0
LINE
  5
FC7
330
18
100
AcDbEntity
  8
1
100
AcDbLine
 10
162.312203494924
 20
91.7250359225314
 30
0.0
 11
162.295107128899
 21
91.7229450994519
 31
0.0
  0
LINE
  5
FC8
330
18
100
AcDbEntity
  8
1
100
AcDbLine
 10
162.295107128899
 20
91.7229450994519
 30
0.0
 11
162.279850894924
 21
91.6195400783867
 31
0.0
  0
LINE
  5
FC9
330
18
100
AcDbEntity
  8
1
100
AcDbLine
 10
162.295107128899
 20
91.7229450994519
 30
0.0
 11
162.312203494924
 21
91.8397135415139
 31
0.0
  0
LINE
  5
FCA
330
18
100
AcDbEntity
  8
1
100
AcDbLine
 10
153.312203494924
 20
85.3700785666199
 30
0.0
 11
153.312203494924
 21
84.2590206370052
 31
0.0
  0
LINE
  5
FCB
330
18
100
AcDbEntity
  8
1
100
AcDbLine
 10
151.312203494924
 20
85.7769330281997
 30
0.0
 11
153.312203494924
 21
85.3700785666199
 31
0.0
  0
LINE
  5
FCC
330
18
100
AcDbEntity
  8
1
100
AcDbLine
 10
153.312203494924
 20
92.0979137011818
 30
0.0
 11
153.312203494924
 21
90.3786052442777
 31
0.0
  0
ARC
  5
FCD
330
18
100
AcDbEntity
  8
1
100
AcDbCircle
 10
149.150856368767
 20
37.93885915921
 30
0.0
 40
54.31866770665971
100
AcDbArc
 50
85.60627338910423
 51
87.71959100979756
  0
LINE
  5
FCE
330
18
100
AcDbEntity
  8
1
100
AcDbLine
 10
151.312203494924
 20
92.2564822246658
 30
0.0
 11
117.212203494924
 21
92.2564822246658
 31
0.0
  0
LINE
  5
FCF
330
18
100
AcDbEntity
  8
1
100
AcDbLine
 10
162.312203494924
 20
84.2929808568086
 30
0.0
 11
162.279850894924
 21
84.5041561825973
 31
0.0
  0
LINE
  5
FD0
330
18
100
AcDbEntity
  8
1
100
AcDbLine
 10
162.279850894924
 20
84.5041561825973
 30
0.0
 11
162.279850894924
 21
84.4564822314359
 31
0.0
  0
LINE
  5
FD1
330
18
100
AcDbEntity
  8
1
100
AcDbLine
 10
162.279850894924
 20
84.5041561825973
 30
0.0
 11
160.037936405581
 21
84.6407763013634
 31
0.0
  0
LINE
  5
FD2
330
18
100
AcDbEntity
  8
1
100
AcDbLine
 10
160.037936405581
 20
84.6407763013634
 30
0.0
 11
157.796026450264
 21
84.8631365415877
 31
0.0
  0
LINE
  5
FD3
330
18
100
AcDbEntity
  8
1
100
AcDbLine
 10
157.796026450264
 20
84.8631365415877
 30
0.0
 11
153.312203494924
 21
85.5420846794545
 31
0.0
  0
LINE
  5
FD4
330
18
100
AcDbEntity
  8
1
100
AcDbLine
 10
151.312203494924
 20
84.3162881395532
 30
0.0
 11
151.312203494924
 21
84.2564822246658
 31
0.0
  0
ARC
  5
FD5
330
18
100
AcDbEntity
  8
1
100
AcDbCircle
 10
153.83830049968
 20
137.574109158036
 30
0.0
 40
53.31769372952146
100
AcDbArc
 50
267.2844119077448
 51
269.4346411021626
  0
LINE
  5
FD6
330
18
100
AcDbEntity
  8
1
100
AcDbLine
 10
162.312203494924
 20
91.7250359225314
 30
0.0
 11
162.312203494924
 21
91.8397135415145
 31
0.0
  0
LINE
  5
FD7
330
18
100
AcDbEntity
  8
1
100
AcDbLine
 10
162.312203494924
 20
86.0370866986764
 30
0.0
 11
162.312203494924
 21
88.0158799854046
 31
0.0
  0
LINE
  5
FD8
330
18
100
AcDbEntity
  8
1
100
AcDbLine
 10
162.312203494924
 20
84.2929808568086
 30
0.0
 11
162.312203494924
 21
84.2506027741658
 31
0.0
  0
LINE
  5
FD9
330
18
100
AcDbEntity
  8
1
100
AcDbLine
 10
157.147585863926
 20
89.4285314441401
 30
0.0
 11
153.312203494924
 21
90.3302331956402
 31
0.0
  0
LINE
  5
FDA
330
18
100
AcDbEntity
  8
1
100
AcDbLine
 10
157.147608877368
 20
89.4285257569796
 30
0.0
 11
157.147585871529
 21
89.4285314747325
 31
0.0
  0
LINE
  5
FDB
330
18
100
AcDbEntity
  8
1
100
AcDbLine
 10
162.312203494924
 20
90.7415174297145
 30
0.0
 11
162.312203494924
 21
91.7250359225314
 31
0.0
  0
LINE
  5
FDC
330
18
100
AcDbEntity
  8
1
100
AcDbLine
 10
151.312203494924
 20
84.2564822246658
 30
0.0
 11
117.212203494924
 21
84.2564822246658
 31
0.0
  0
LINE
  5
FDD
330
18
100
AcDbEntity
  8
1
100
AcDbLine
 10
162.279850894924
 20
84.4564822246658
 30
0.0
 11
162.312203494924
 21
84.2506027741658
 31
0.0
  0
LINE
  5
FDE
330
18
100
AcDbEntity
  8
1
100
AcDbLine
 10
154.092555569523
 20
84.4564822246729
 30
0.0
 11
153.312203494924
 21
84.4619505454541
 31
0.0
  0
LINE
  5
FDF
330
18
100
AcDbEntity
  8
1
100
AcDbLine
 10
154.092555569523
 20
84.4564822246658
 30
0.0
 11
162.279850894924
 21
84.4564822246658
 31
0.0
  0
LINE
  5
FE0
330
18
100
AcDbEntity
  8
1
 62
     1
100
AcDbLine
 10
172.078678508606
 20
92.1346502721145
 30
0.0
 11
172.079064730445
 21
92.1346452216809
 31
0.0
  0
LINE
  5
FE1
330
18
100
AcDbEntity
  8
1
 62
     1
100
AcDbLine
 10
173.012370129903
 20
92.1224408447821
 30
0.0
 11
173.026961838214
 21
92.1222500361701
 31
0.0
  0
LINE
  5
FE2
330
18
100
AcDbEntity
  8
1
 62
     1
100
AcDbLine
 10
176.312203494924
 20
87.5587566635888
 30
0.0
 11
175.502049881221
 21
87.6211355605727
 31
0.0
  0
LINE
  5
FE3
330
18
100
AcDbEntity
  8
1
 62
     1
100
AcDbLine
 10
175.502049881221
 20
85.6454460184135
 30
0.0
 11
175.502049881221
 21
87.6211355605727
 31
0.0
  0
LINE
  5
FE4
330
18
100
AcDbEntity
  8
1
 62
     1
100
AcDbLine
 10
175.186995301406
 20
87.6527822550121
 30
0.0
 11
174.698697652069
 21
87.7100342261911
 31
0.0
  0
LINE
  5
FE5
330
18
100
AcDbEntity
  8
1
 62
     1
100
AcDbLine
 10
174.698697652069
 20
85.552654523315
 30
0.0
 11
174.698697652069
 21
87.7100342261911
 31
0.0
  0
LINE
  5
FE6
330
18
100
AcDbEntity
  8
1
 62
     1
100
AcDbLine
 10
175.186995301406
 20
85.6083777880392
 30
0.0
 11
175.186995301406
 21
87.6527822550121
 31
0.0
  0
LINE
  5
FE7
330
18
100
AcDbEntity
  8
1
 62
     1
100
AcDbLine
 10
174.052179468055
 20
87.8012007120207
 30
0.0
 11
173.895345422917
 21
87.8259545924552
 31
0.0
  0
LINE
  5
FE8
330
18
100
AcDbEntity
  8
1
 62
     1
100
AcDbLine
 10
173.895345422917
 20
85.4645566086529
 30
0.0
 11
173.895345422917
 21
87.8259545924552
 31
0.0
  0
LINE
  5
FE9
330
18
100
AcDbEntity
  8
1
 62
     1
100
AcDbLine
 10
174.052179468055
 20
85.481477899386
 30
0.0
 11
174.052179468055
 21
87.8012007120207
 31
0.0
  0
LINE
  5
FEA
330
18
100
AcDbEntity
  8
1
 62
     1
100
AcDbLine
 10
174.052179468029
 20
85.287207570564
 30
0.0
 11
174.430722013442
 21
85.7740695852295
 31
0.0
  0
LINE
  5
FEB
330
18
100
AcDbEntity
  8
1
 62
     1
100
AcDbLine
 10
162.671462754183
 20
90.6610800800778
 30
0.0
 11
162.312203494924
 21
90.7415174297145
 31
0.0
  0
LINE
  5
FEC
330
18
100
AcDbEntity
  8
1
 62
     1
100
AcDbLine
 10
162.312203494924
 20
90.7415174297145
 30
0.0
 11
162.312203494924
 21
88.0158799854046
 31
0.0
  0
LINE
  5
FED
330
18
100
AcDbEntity
  8
1
 62
     1
100
AcDbLine
 10
162.671462754183
 20
87.9192411662077
 30
0.0
 11
162.312203494924
 21
88.0158799854046
 31
0.0
  0
LINE
  5
FEE
330
18
100
AcDbEntity
  8
1
 62
     1
100
AcDbLine
 10
173.026961838214
 20
88.0234106368162
 30
0.0
 11
173.012370129899
 21
88.0272315894487
 31
0.0
  0
LINE
  5
FEF
330
18
100
AcDbEntity
  8
1
 62
     1
100
AcDbLine
 10
173.012370129903
 20
85.529214321177
 30
0.0
 11
173.012370129903
 21
88.0272315893102
 31
0.0
  0
LINE
  5
FF0
330
18
100
AcDbEntity
  8
1
 62
     1
100
AcDbLine
 10
173.012370129971
 20
85.5292143218989
 30
0.0
 11
173.026961838214
 21
85.526648904134
 31
0.0
  0
LINE
  5
FF1
330
18
100
AcDbEntity
  8
1
 62
     1
100
AcDbLine
 10
173.026961838214
 20
85.526648904134
 30
0.0
 11
173.026961838214
 21
88.0234106368162
 31
0.0
  0
ARC
  5
FF2
330
18
100
AcDbEntity
  8
1
 62
     1
100
AcDbCircle
 10
187.116962127813
 20
165.543055848626
 30
0.0
 40
81.2475985025536
100
AcDbArc
 50
259.3335015193302
 51
259.3337786715796
  0
LINE
  5
FF3
330
18
100
AcDbEntity
  8
1
 62
     1
100
AcDbLine
 10
172.079064730445
 20
85.6992464185989
 30
0.0
 11
172.079064730445
 21
88.2727253164691
 31
0.0
  0
LINE
  5
FF4
330
18
100
AcDbEntity
  8
1
 62
     1
100
AcDbLine
 10
172.079064730447
 20
84.8898024620529
 30
0.0
 11
172.549240531961
 21
85.563163266735
 31
0.0
  0
ARC
  5
FF5
330
18
100
AcDbEntity
  8
1
 62
     1
100
AcDbCircle
 10
185.10267094339
 20
95.9784254852996
 30
0.0
 40
16.3115363298959
100
AcDbArc
 50
219.6816318502123
 51
222.1652072091312
  0
LINE
  5
FF6
330
18
100
AcDbEntity
  8
1
 62
     1
100
AcDbLine
 10
170.197388680109
 20
84.66929789674
 30
0.0
 11
170.667759050479
 21
85.3972672123061
 31
0.0
  0
LINE
  5
FF7
330
18
100
AcDbEntity
  8
1
 62
     1
100
AcDbLine
 10
173.026961838196
 20
85.0312551895263
 30
0.0
 11
173.489981272702
 21
85.6631931517183
 31
0.0
  0
ARC
  5
FF8
330
18
100
AcDbEntity
  8
1
 62
     1
100
AcDbCircle
 10
183.672646903214
 20
94.8239224880525
 30
0.0
 40
13.69691870535142
100
AcDbArc
 50
221.975802259301
 51
224.4523718596898
  0
LINE
  5
FF9
330
18
100
AcDbEntity
  8
1
 62
     1
100
AcDbLine
 10
167.375166457887
 20
84.4522464536258
 30
0.0
 11
167.845536828257
 21
85.2386638902975
 31
0.0
  0
LINE
  5
FFA
330
18
100
AcDbEntity
  8
1
 62
     1
100
AcDbLine
 10
168.786277568998
 20
85.2791534038106
 30
0.0
 11
169.256647939368
 21
84.5814765007271
 31
0.0
  0
LINE
  5
FFB
330
18
100
AcDbEntity
  8
1
 62
     1
100
AcDbLine
 10
169.727018309739
 20
85.3320950836521
 30
0.0
 11
170.197388680109
 21
84.66929789674
 31
0.0
  0
LINE
  5
FFC
330
18
100
AcDbEntity
  8
1
 62
     1
100
AcDbLine
 10
165.964055346776
 20
85.1956654348276
 30
0.0
 11
166.434425717146
 21
84.4113783571349
 31
0.0
  0
LINE
  5
FFD
330
18
100
AcDbEntity
  8
1
 62
     1
100
AcDbLine
 10
163.612203494924
 20
84.3779822246658
 30
0.0
 11
163.141833124554
 21
85.1926872246658
 31
0.0
  0
LINE
  5
FFE
330
18
100
AcDbEntity
  8
1
 62
     1
100
AcDbLine
 10
162.671462754183
 20
84.409417032868
 30
0.0
 11
163.141833124554
 21
85.2270672913043
 31
0.0
  0
LINE
  5
FFF
330
18
100
AcDbEntity
  8
1
 62
     1
100
AcDbLine
 10
163.141833124554
 20
85.1926872246658
 30
0.0
 11
162.671462754183
 21
84.3779822246658
 31
0.0
  0
LINE
  5
1000
330
18
100
AcDbEntity
  8
1
 62
     1
100
AcDbLine
 10
163.141833124554
 20
85.1926872246658
 30
0.0
 11
163.141833124554
 21
85.2270672913043
 31
0.0
  0
LINE
  5
1001
330
18
100
AcDbEntity
  8
1
 62
     1
100
AcDbLine
 10
162.671462754183
 20
90.6610800800778
 30
0.0
 11
162.671462754183
 21
87.9192411662077
 31
0.0
  0
LINE
  5
1002
330
18
100
AcDbEntity
  8
1
 62
     1
100
AcDbLine
 10
163.612203494924
 20
84.3779822246658
 30
0.0
 11
163.612203494924
 21
84.3779840416714
 31
0.0
  0
LINE
  5
1003
330
18
100
AcDbEntity
  8
1
 62
     1
100
AcDbLine
 10
163.612203494924
 20
84.3779840416714
 30
0.0
 11
163.612203494924
 21
84.3785106883614
 31
0.0
  0
LINE
  5
1004
330
18
100
AcDbEntity
  8
1
 62
     1
100
AcDbLine
 10
163.612203494924
 20
84.3785106883614
 30
0.0
 11
163.612203494924
 21
84.3856087914154
 31
0.0
  0
LINE
  5
1005
330
18
100
AcDbEntity
  8
1
 62
     1
100
AcDbLine
 10
164.082573865294
 20
85.1926872246658
 30
0.0
 11
163.612203494924
 21
84.3779822246658
 31
0.0
  0
LINE
  5
1006
330
18
100
AcDbEntity
  8
1
 62
     1
100
AcDbLine
 10
164.082573865294
 20
85.1926872246658
 30
0.0
 11
164.082573865294
 21
85.2038183084673
 31
0.0
  0
LINE
  5
1007
330
18
100
AcDbEntity
  8
1
 62
     1
100
AcDbLine
 10
164.540761291046
 20
84.399083693892
 30
0.0
 11
164.082573865294
 21
85.1926872246658
 31
0.0
  0
LINE
  5
1008
330
18
100
AcDbEntity
  8
1
 62
     1
100
AcDbLine
 10
165.023314606035
 20
85.1926872246658
 30
0.0
 11
164.628027477362
 21
84.5080301534472
 31
0.0
  0
LINE
  5
1009
330
18
100
AcDbEntity
  8
1
 62
     1
100
AcDbLine
 10
164.552944235665
 20
84.3779896744787
 30
0.0
 11
164.628027477362
 21
84.5080301534472
 31
0.0
  0
LINE
  5
100A
330
18
100
AcDbEntity
  8
1
 62
     1
100
AcDbLine
 10
165.023314606035
 20
85.1926872246755
 30
0.0
 11
165.023314606035
 21
85.1926872274388
 31
0.0
  0
LINE
  5
100B
330
18
100
AcDbEntity
  8
1
 62
     1
100
AcDbLine
 10
165.023314606035
 20
85.1926872274388
 30
0.0
 11
165.023314606035
 21
85.1926879396242
 31
0.0
  0
LINE
  5
100C
330
18
100
AcDbEntity
  8
1
 62
     1
100
AcDbLine
 10
165.023314606035
 20
85.1926879396242
 30
0.0
 11
165.023314606035
 21
85.192739010665
 31
0.0
  0
LINE
  5
100D
330
18
100
AcDbEntity
  8
1
 62
     1
100
AcDbLine
 10
165.023314606035
 20
85.192739010665
 30
0.0
 11
165.023314606035
 21
85.1933363890079
 31
0.0
  0
LINE
  5
100E
330
18
100
AcDbEntity
  8
1
 62
     1
100
AcDbLine
 10
165.121630946347
 20
85.0223984074276
 30
0.0
 11
165.493684976405
 21
84.3865915077294
 31
0.0
  0
LINE
  5
100F
330
18
100
AcDbEntity
  8
1
 62
     1
100
AcDbLine
 10
165.121630946347
 20
85.0223984074276
 30
0.0
 11
165.023314606035
 21
85.1926872246658
 31
0.0
  0
LINE
  5
1010
330
18
100
AcDbEntity
  8
1
 62
     1
100
AcDbLine
 10
165.493684976405
 20
84.3865915077294
 30
0.0
 11
165.964055346776
 21
85.1956654348276
 31
0.0
  0
LINE
  5
1011
330
18
100
AcDbEntity
  8
1
 62
     1
100
AcDbLine
 10
175.502049881221
 20
91.5464606580514
 30
0.0
 11
176.312203494924
 21
91.3064822246658
 31
0.0
  0
LINE
  5
1012
330
18
100
AcDbEntity
  8
1
 62
     1
100
AcDbLine
 10
175.502049881221
 20
91.2954466050603
 30
0.0
 11
175.502049881221
 21
91.5464606580515
 31
0.0
  0
LINE
  5
1013
330
18
100
AcDbEntity
  8
1
 62
     1
100
AcDbLine
 10
175.186995301406
 20
91.4041862007791
 30
0.0
 11
174.698697652069
 21
91.5709884863631
 31
0.0
  0
LINE
  5
1014
330
18
100
AcDbEntity
  8
1
 62
     1
100
AcDbLine
 10
174.698697652069
 20
91.7844244295486
 30
0.0
 11
175.186995301406
 21
91.6397840762477
 31
0.0
  0
LINE
  5
1015
330
18
100
AcDbEntity
  8
1
 62
     1
100
AcDbLine
 10
174.052179468055
 20
91.7888019387575
 30
0.0
 11
173.895345422917
 21
91.8411431350127
 31
0.0
  0
LINE
  5
1016
330
18
100
AcDbEntity
  8
1
 62
     1
100
AcDbLine
 10
173.895345422917
 20
92.0223882010457
 30
0.0
 11
174.052179468055
 21
91.9759318404033
 31
0.0
  0
LINE
  5
1017
330
18
100
AcDbEntity
  8
1
 62
     1
100
AcDbLine
 10
175.371462754183
 20
85.8517427408845
 30
0.0
 11
175.502049881243
 21
85.6454460183766
 31
0.0
  0
ARC
  5
1018
330
18
100
AcDbEntity
  8
1
 62
     1
100
AcDbCircle
 10
180.750552681008
 20
81.583287067294
 30
0.0
 40
6.866912903810838
100
AcDbArc
 50
141.5670336605963
 51
144.1152286851109
  0
LINE
  5
1019
330
18
100
AcDbEntity
  8
1
 62
     1
100
AcDbLine
 10
175.371462754183
 20
85.8517427408845
 30
0.0
 11
175.371462754183
 21
87.7462502052343
 31
0.0
  0
LINE
  5
101A
330
18
100
AcDbEntity
  8
1
 62
     1
100
AcDbLine
 10
174.430722013442
 20
85.9794802788724
 30
0.0
 11
174.430722013442
 21
87.9425838960745
 31
0.0
  0
LINE
  5
101B
330
18
100
AcDbEntity
  8
1
 62
     1
100
AcDbLine
 10
174.430722013442
 20
85.9794802788724
 30
0.0
 11
174.565957672104
 21
85.7728805884374
 31
0.0
  0
LINE
  5
101C
330
18
100
AcDbEntity
  8
1
 62
     1
100
AcDbLine
 10
174.565957672104
 20
85.7728805884374
 30
0.0
 11
174.698697652086
 21
85.5526545232856
 31
0.0
  0
LINE
  5
101D
330
18
100
AcDbEntity
  8
1
 62
     1
100
AcDbLine
 10
174.052179468029
 20
85.4814778993479
 30
0.0
 11
174.241238019649
 21
85.7434411356652
 31
0.0
  0
LINE
  5
101E
330
18
100
AcDbEntity
  8
1
 62
     1
100
AcDbLine
 10
174.241238019649
 20
85.7434411356652
 30
0.0
 11
174.430722013442
 21
85.9794802788724
 31
0.0
  0
LINE
  5
101F
330
18
100
AcDbEntity
  8
1
 62
     1
100
AcDbLine
 10
162.671462754183
 20
91.8778975579405
 30
0.0
 11
162.312203494924
 21
91.8397135415139
 31
0.0
  0
LINE
  5
1020
330
18
100
AcDbEntity
  8
1
 62
     1
100
AcDbLine
 10
173.012370129957
 20
91.993033025635
 30
0.0
 11
173.026961838214
 21
91.9918689039222
 31
0.0
  0
LINE
  5
1021
330
18
100
AcDbEntity
  8
1
 62
     1
100
AcDbLine
 10
173.012370129903
 20
91.9930330216722
 30
0.0
 11
173.012370129903
 21
92.1224408447821
 31
0.0
  0
ARC
  5
1022
330
18
100
AcDbEntity
  8
1
 62
     1
100
AcDbCircle
 10
168.310604738527
 20
33.1348354408767
 30
0.0
 40
59.04562352566319
100
AcDbArc
 50
86.34073291770956
 51
86.34110845924721
  0
LINE
  5
1023
330
18
100
AcDbEntity
  8
1
 62
     1
100
AcDbLine
 10
172.078678508606
 20
92.0601040240465
 30
0.0
 11
172.078678508606
 21
92.1346502721145
 31
0.0
  0
LINE
  5
1024
330
18
100
AcDbEntity
  8
1
 62
     1
100
AcDbLine
 10
169.727018309739
 20
86.748986908264
 30
0.0
 11
169.847972333811
 21
86.6090470324701
 31
0.0
  0
LINE
  5
1025
330
18
100
AcDbEntity
  8
1
 62
     1
100
AcDbLine
 10
169.847972333811
 20
86.6090470324701
 30
0.0
 11
169.967002820253
 21
86.4525417808068
 31
0.0
  0
LINE
  5
1026
330
18
100
AcDbEntity
  8
1
 62
     1
100
AcDbLine
 10
169.967002820253
 20
86.4525417808068
 30
0.0
 11
170.08360895705
 21
86.2811272330987
 31
0.0
  0
LINE
  5
1027
330
18
100
AcDbEntity
  8
1
 62
     1
100
AcDbLine
 10
170.08360895705
 20
86.2811272330987
 30
0.0
 11
170.197388680109
 21
86.0964908775195
 31
0.0
  0
ARC
  5
1028
330
18
100
AcDbEntity
  8
1
 62
     1
100
AcDbCircle
 10
170.342777012521
 20
93.2813587424758
 30
0.0
 40
4.397308848978818
100
AcDbArc
 50
255.7000474609443
 51
261.9503068711438
  0
LINE
  5
1029
330
18
100
AcDbEntity
  8
1
 62
     1
100
AcDbLine
 10
169.256647939368
 20
86.3092263609266
 30
0.0
 11
169.256647939368
 21
89.0202898858154
 31
0.0
  0
LINE
  5
102A
330
18
100
AcDbEntity
  8
1
 62
     1
100
AcDbLine
 10
169.256647939368
 20
86.3092263609266
 30
0.0
 11
169.373501810905
 21
86.4390057683297
 31
0.0
  0
LINE
  5
102B
330
18
100
AcDbEntity
  8
1
 62
     1
100
AcDbLine
 10
169.373501810905
 20
86.4390057683297
 30
0.0
 11
169.491148044118
 21
86.5555382820385
 31
0.0
  0
LINE
  5
102C
330
18
100
AcDbEntity
  8
1
 62
     1
100
AcDbLine
 10
169.491148044118
 20
86.5555382820385
 30
0.0
 11
169.609145247994
 21
86.6588478884208
 31
0.0
  0
LINE
  5
102D
330
18
100
AcDbEntity
  8
1
 62
     1
100
AcDbLine
 10
169.609145247994
 20
86.6588478884208
 30
0.0
 11
169.727018309739
 21
86.748986908264
 31
0.0
  0
LINE
  5
102E
330
18
100
AcDbEntity
  8
1
 62
     1
100
AcDbLine
 10
169.727018309739
 20
86.748986908264
 30
0.0
 11
169.727018309739
 21
88.9274111500489
 31
0.0
  0
LINE
  5
102F
330
18
100
AcDbEntity
  8
1
 62
     1
100
AcDbLine
 10
168.786277568998
 20
86.9245426868334
 30
0.0
 11
168.786277568998
 21
89.1192355624182
 31
0.0
  0
LINE
  5
1030
330
18
100
AcDbEntity
  8
1
 62
     1
100
AcDbLine
 10
168.315907198628
 20
86.530105724501
 30
0.0
 11
168.432761061743
 21
86.6493460612878
 31
0.0
  0
LINE
  5
1031
330
18
100
AcDbEntity
  8
1
 62
     1
100
AcDbLine
 10
168.432761061743
 20
86.6493460612878
 30
0.0
 11
168.550407295458
 21
86.7547632233472
 31
0.0
  0
LINE
  5
1032
330
18
100
AcDbEntity
  8
1
 62
     1
100
AcDbLine
 10
168.550407295458
 20
86.7547632233472
 30
0.0
 11
168.609390386676
 21
86.8023174924583
 31
0.0
  0
LINE
  5
1033
330
18
100
AcDbEntity
  8
1
 62
     1
100
AcDbLine
 10
168.609390386676
 20
86.8023174924583
 30
0.0
 11
168.668404503701
 21
86.8464559044961
 31
0.0
  0
LINE
  5
1034
330
18
100
AcDbEntity
  8
1
 62
     1
100
AcDbLine
 10
168.668404503701
 20
86.8464559044961
 30
0.0
 11
168.727390412804
 21
86.8871937650085
 31
0.0
  0
LINE
  5
1035
330
18
100
AcDbEntity
  8
1
 62
     1
100
AcDbLine
 10
168.727390412804
 20
86.8871937650085
 30
0.0
 11
168.786277568998
 21
86.9245426868334
 31
0.0
  0
LINE
  5
1036
330
18
100
AcDbEntity
  8
1
 62
     1
100
AcDbLine
 10
167.845536828257
 20
87.1056689786822
 30
0.0
 11
167.845536828257
 21
89.3074511915163
 31
0.0
  0
LINE
  5
1037
330
18
100
AcDbEntity
  8
1
 62
     1
100
AcDbLine
 10
167.845536828257
 20
87.105668978683
 30
0.0
 11
167.906220810577
 21
87.0490584895801
 31
0.0
  0
LINE
  5
1038
330
18
100
AcDbEntity
  8
1
 62
     1
100
AcDbLine
 10
167.906220810577
 20
87.0490584895801
 30
0.0
 11
167.966490862783
 21
86.9876982312609
 31
0.0
  0
LINE
  5
1039
330
18
100
AcDbEntity
  8
1
 62
     1
100
AcDbLine
 10
167.966490862783
 20
86.9876982312609
 30
0.0
 11
168.02628376423
 21
86.9217587312251
 31
0.0
  0
LINE
  5
103A
330
18
100
AcDbEntity
  8
1
 62
     1
100
AcDbLine
 10
168.02628376423
 20
86.9217587312251
 30
0.0
 11
168.085521352706
 21
86.8514391133513
 31
0.0
  0
LINE
  5
103B
330
18
100
AcDbEntity
  8
1
 62
     1
100
AcDbLine
 10
168.085521352706
 20
86.8514391133513
 30
0.0
 11
168.202127485892
 21
86.6983925328015
 31
0.0
  0
LINE
  5
103C
330
18
100
AcDbEntity
  8
1
 62
     1
100
AcDbLine
 10
168.202127485892
 20
86.6983925328015
 30
0.0
 11
168.315907198628
 21
86.530105724501
 31
0.0
  0
LINE
  5
103D
330
18
100
AcDbEntity
  8
1
 62
     1
100
AcDbLine
 10
168.315907198628
 20
86.530105724501
 30
0.0
 11
168.315907198628
 21
89.2644768557426
 31
0.0
  0
LINE
  5
103E
330
18
100
AcDbEntity
  8
1
 62
     1
100
AcDbLine
 10
166.904796087516
 20
87.2916082283453
 30
0.0
 11
166.904796087516
 21
89.4912716313259
 31
0.0
  0
LINE
  5
103F
330
18
100
AcDbEntity
  8
1
 62
     1
100
AcDbLine
 10
166.904796087516
 20
87.2916082283454
 30
0.0
 11
166.965480066234
 21
87.2409599964602
 31
0.0
  0
LINE
  5
1040
330
18
100
AcDbEntity
  8
1
 62
     1
100
AcDbLine
 10
166.965480066234
 20
87.2409599964602
 30
0.0
 11
167.025750117562
 21
87.1853857872353
 31
0.0
  0
LINE
  5
1041
330
18
100
AcDbEntity
  8
1
 62
     1
100
AcDbLine
 10
167.025750117562
 20
87.1853857872353
 30
0.0
 11
167.085543020869
 21
87.125045692558
 31
0.0
  0
LINE
  5
1042
330
18
100
AcDbEntity
  8
1
 62
     1
100
AcDbLine
 10
167.085543020869
 20
87.125045692558
 30
0.0
 11
167.144780613101
 21
87.0601265480981
 31
0.0
  0
LINE
  5
1043
330
18
100
AcDbEntity
  8
1
 62
     1
100
AcDbLine
 10
167.144780613101
 20
87.0601265480981
 30
0.0
 11
167.203411393454
 21
86.9908010803307
 31
0.0
  0
LINE
  5
1044
330
18
100
AcDbEntity
  8
1
 62
     1
100
AcDbLine
 10
167.203411393454
 20
86.9908010803307
 30
0.0
 11
167.261386753989
 21
86.9172441756403
 31
0.0
  0
LINE
  5
1045
330
18
100
AcDbEntity
  8
1
 62
     1
100
AcDbLine
 10
167.261386753989
 20
86.9172441756403
 30
0.0
 11
167.375166457887
 21
86.7582058447933
 31
0.0
  0
LINE
  5
1046
330
18
100
AcDbEntity
  8
1
 62
     1
100
AcDbLine
 10
166.434425717146
 20
86.9925713260248
 30
0.0
 11
166.434425717146
 21
89.7392002427045
 31
0.0
  0
LINE
  5
1047
330
18
100
AcDbEntity
  8
1
 62
     1
100
AcDbLine
 10
166.434425717146
 20
86.9925713260251
 30
0.0
 11
166.492716960958
 21
87.0427833794436
 31
0.0
  0
LINE
  5
1048
330
18
100
AcDbEntity
  8
1
 62
     1
100
AcDbLine
 10
166.492716960958
 20
87.0427833794436
 30
0.0
 11
166.551279582545
 21
87.0892832382015
 31
0.0
  0
LINE
  5
1049
330
18
100
AcDbEntity
  8
1
 62
     1
100
AcDbLine
 10
166.551279582545
 20
87.0892832382015
 30
0.0
 11
166.610028296397
 21
87.1320725441339
 31
0.0
  0
LINE
  5
104A
330
18
100
AcDbEntity
  8
1
 62
     1
100
AcDbLine
 10
166.610028296397
 20
87.1320725441339
 30
0.0
 11
166.668925815311
 21
87.1711952058272
 31
0.0
  0
LINE
  5
104B
330
18
100
AcDbEntity
  8
1
 62
     1
100
AcDbLine
 10
166.668925815311
 20
87.1711952058272
 30
0.0
 11
166.727908905967
 21
87.2066775547992
 31
0.0
  0
LINE
  5
104C
330
18
100
AcDbEntity
  8
1
 62
     1
100
AcDbLine
 10
166.727908905967
 20
87.2066775547992
 30
0.0
 11
166.786923022328
 21
87.2385537771287
 31
0.0
  0
LINE
  5
104D
330
18
100
AcDbEntity
  8
1
 62
     1
100
AcDbLine
 10
166.786923022328
 20
87.2385537771287
 30
0.0
 11
166.845908931355
 21
87.2668547913784
 31
0.0
  0
LINE
  5
104E
330
18
100
AcDbEntity
  8
1
 62
     1
100
AcDbLine
 10
166.845908931355
 20
87.2668547913784
 30
0.0
 11
166.904796087516
 21
87.2916082283454
 31
0.0
  0
LINE
  5
104F
330
18
100
AcDbEntity
  8
1
 62
     1
100
AcDbLine
 10
173.489981272702
 20
86.1167408349224
 30
0.0
 11
173.696001981136
 21
85.8067520261938
 31
0.0
  0
LINE
  5
1050
330
18
100
AcDbEntity
  8
1
 62
     1
100
AcDbLine
 10
173.696001981136
 20
85.8067520261938
 30
0.0
 11
173.895345422944
 21
85.4645566086032
 31
0.0
  0
LINE
  5
1051
330
18
100
AcDbEntity
  8
1
 62
     1
100
AcDbLine
 10
173.489981272702
 20
86.1167408349224
 30
0.0
 11
173.489981272702
 21
88.1402330320797
 31
0.0
  0
ARC
  5
1052
330
18
100
AcDbEntity
  8
1
 62
     1
100
AcDbCircle
 10
171.263478891877
 20
92.5724795617908
 30
0.0
 40
4.051050464770089
100
AcDbArc
 50
268.2268454560599
 51
274.885713146488
  0
LINE
  5
1053
330
18
100
AcDbEntity
  8
1
 62
     1
100
AcDbLine
 10
171.13812942085
 20
85.8927887625531
 30
0.0
 11
171.13812942085
 21
88.5233668082101
 31
0.0
  0
LINE
  5
1054
330
18
100
AcDbEntity
  8
1
 62
     1
100
AcDbLine
 10
171.13812942085
 20
85.8927887625531
 30
0.0
 11
171.254983287354
 21
86.0419765986179
 31
0.0
  0
LINE
  5
1055
330
18
100
AcDbEntity
  8
1
 62
     1
100
AcDbLine
 10
171.254983287354
 20
86.0419765986179
 30
0.0
 11
171.372629519839
 21
86.1792335024472
 31
0.0
  0
LINE
  5
1056
330
18
100
AcDbEntity
  8
1
 62
     1
100
AcDbLine
 10
171.372629519839
 20
86.1792335024472
 30
0.0
 11
171.490626726122
 21
86.3044340445728
 31
0.0
  0
LINE
  5
1057
330
18
100
AcDbEntity
  8
1
 62
     1
100
AcDbLine
 10
171.490626726122
 20
86.3044340445728
 30
0.0
 11
171.60849979122
 21
86.417497686383
 31
0.0
  0
LINE
  5
1058
330
18
100
AcDbEntity
  8
1
 62
     1
100
AcDbLine
 10
171.60849979122
 20
86.417497686383
 30
0.0
 11
171.60849979122
 21
88.5361589485111
 31
0.0
  0
LINE
  5
1059
330
18
100
AcDbEntity
  8
1
 62
     1
100
AcDbLine
 10
172.078678508606
 20
85.6993191611386
 30
0.0
 11
172.078678508606
 21
88.2728272860408
 31
0.0
  0
LINE
  5
105A
330
18
100
AcDbEntity
  8
1
 62
     1
100
AcDbLine
 10
172.549240531961
 20
86.2629504590849
 30
0.0
 11
172.668260250518
 21
86.0973699307911
 31
0.0
  0
LINE
  5
105B
330
18
100
AcDbEntity
  8
1
 62
     1
100
AcDbLine
 10
172.668260250518
 20
86.0973699307911
 30
0.0
 11
172.785426036861
 21
85.9187195183402
 31
0.0
  0
LINE
  5
105C
330
18
100
AcDbEntity
  8
1
 62
     1
100
AcDbLine
 10
172.785426036861
 20
85.9187195183402
 30
0.0
 11
173.01237012993
 21
85.5292143211273
 31
0.0
  0
LINE
  5
105D
330
18
100
AcDbEntity
  8
1
 62
     1
100
AcDbLine
 10
172.07906473046
 20
85.6992464185773
 30
0.0
 11
172.195871321691
 21
85.8571399489592
 31
0.0
  0
LINE
  5
105E
330
18
100
AcDbEntity
  8
1
 62
     1
100
AcDbLine
 10
172.195871321691
 20
85.8571399489592
 30
0.0
 11
172.313468929163
 21
86.0038456508589
 31
0.0
  0
LINE
  5
105F
330
18
100
AcDbEntity
  8
1
 62
     1
100
AcDbLine
 10
172.313468929163
 20
86.0038456508589
 30
0.0
 11
172.431416852364
 21
86.1391646151579
 31
0.0
  0
LINE
  5
1060
330
18
100
AcDbEntity
  8
1
 62
     1
100
AcDbLine
 10
172.431416852364
 20
86.1391646151579
 30
0.0
 11
172.549240531961
 21
86.2629504590849
 31
0.0
  0
LINE
  5
1061
330
18
100
AcDbEntity
  8
1
 62
     1
100
AcDbLine
 10
172.549240531961
 20
86.2629504590849
 30
0.0
 11
172.549240531961
 21
88.3383671803834
 31
0.0
  0
ARC
  5
1062
330
18
100
AcDbEntity
  8
1
 62
     1
100
AcDbCircle
 10
170.783764046386
 20
92.8665655616064
 30
0.0
 40
4.135435581967623
100
AcDbArc
 50
261.8484027290301
 51
268.3925497093739
  0
LINE
  5
1063
330
18
100
AcDbEntity
  8
1
 62
     1
100
AcDbLine
 10
170.197388680109
 20
86.0964908775195
 30
0.0
 11
170.197388680109
 21
88.7729083322318
 31
0.0
  0
LINE
  5
1064
330
18
100
AcDbEntity
  8
1
 62
     1
100
AcDbLine
 10
170.667759050479
 20
86.579736050832
 30
0.0
 11
170.667759050479
 21
88.7327812884508
 31
0.0
  0
ARC
  5
1065
330
18
100
AcDbEntity
  8
1
 62
     1
100
AcDbCircle
 10
169.740790501258
 20
94.4912863395553
 30
0.0
 40
5.519477559504155
100
AcDbArc
 50
244.621573747706
 51
249.9171632336192
  0
LINE
  5
1066
330
18
100
AcDbEntity
  8
1
 62
     1
100
AcDbLine
 10
167.375166457887
 20
86.758205844793
 30
0.0
 11
167.375166457887
 21
89.5044484945381
 31
0.0
  0
LINE
  5
1067
330
18
100
AcDbEntity
  8
1
 62
     1
100
AcDbLine
 10
165.023314606035
 20
87.6747984526853
 30
0.0
 11
165.083998581909
 21
87.6366842631969
 31
0.0
  0
LINE
  5
1068
330
18
100
AcDbEntity
  8
1
 62
     1
100
AcDbLine
 10
165.083998581909
 20
87.6366842631969
 30
0.0
 11
165.144268629473
 21
87.5933541005395
 31
0.0
  0
LINE
  5
1069
330
18
100
AcDbEntity
  8
1
 62
     1
100
AcDbLine
 10
165.144268629473
 20
87.5933541005395
 30
0.0
 11
165.204061528816
 21
87.5449452395284
 31
0.0
  0
LINE
  5
106A
330
18
100
AcDbEntity
  8
1
 62
     1
100
AcDbLine
 10
165.204061528816
 20
87.5449452395284
 30
0.0
 11
165.263299117179
 21
87.4916176695638
 31
0.0
  0
LINE
  5
106B
330
18
100
AcDbEntity
  8
1
 62
     1
100
AcDbLine
 10
165.263299117179
 20
87.4916176695638
 30
0.0
 11
165.321929895941
 21
87.4335220163339
 31
0.0
  0
LINE
  5
106C
330
18
100
AcDbEntity
  8
1
 62
     1
100
AcDbLine
 10
165.321929895941
 20
87.4335220163339
 30
0.0
 11
165.379905257709
 21
87.3708111544186
 31
0.0
  0
LINE
  5
106D
330
18
100
AcDbEntity
  8
1
 62
     1
100
AcDbLine
 10
165.379905257709
 20
87.3708111544186
 30
0.0
 11
165.437167796188
 21
87.3036600351593
 31
0.0
  0
LINE
  5
106E
330
18
100
AcDbEntity
  8
1
 62
     1
100
AcDbLine
 10
165.437167796188
 20
87.3036600351593
 30
0.0
 11
165.493684976405
 21
87.2322237070748
 31
0.0
  0
ARC
  5
106F
330
18
100
AcDbEntity
  8
1
 62
     1
100
AcDbCircle
 10
170.211684728862
 20
97.3777729063856
 30
0.0
 40
9.148638407964188
100
AcDbArc
 50
231.7909037227837
 51
235.4502498535499
  0
LINE
  5
1070
330
18
100
AcDbEntity
  8
1
 62
     1
100
AcDbLine
 10
164.552944235665
 20
87.4761592087903
 30
0.0
 11
164.552944235665
 21
90.1891451034412
 31
0.0
  0
LINE
  5
1071
330
18
100
AcDbEntity
  8
1
 62
     1
100
AcDbLine
 10
164.552944235665
 20
87.4761592087903
 30
0.0
 11
164.611235482268
 21
87.514401845335
 31
0.0
  0
LINE
  5
1072
330
18
100
AcDbEntity
  8
1
 62
     1
100
AcDbLine
 10
164.611235482268
 20
87.514401845335
 30
0.0
 11
164.669798105066
 21
87.5487264243026
 31
0.0
  0
LINE
  5
1073
330
18
100
AcDbEntity
  8
1
 62
     1
100
AcDbLine
 10
164.669798105066
 20
87.5487264243026
 30
0.0
 11
164.728546819315
 21
87.5791609443293
 31
0.0
  0
LINE
  5
1074
330
18
100
AcDbEntity
  8
1
 62
     1
100
AcDbLine
 10
164.728546819315
 20
87.5791609443293
 30
0.0
 11
164.787444337826
 21
87.6057642510289
 31
0.0
  0
LINE
  5
1075
330
18
100
AcDbEntity
  8
1
 62
     1
100
AcDbLine
 10
164.787444337826
 20
87.6057642510289
 30
0.0
 11
164.84642742772
 21
87.6285816829268
 31
0.0
  0
LINE
  5
1076
330
18
100
AcDbEntity
  8
1
 62
     1
100
AcDbLine
 10
164.84642742772
 20
87.6285816829268
 30
0.0
 11
164.905441542796
 21
87.6476629875
 31
0.0
  0
LINE
  5
1077
330
18
100
AcDbEntity
  8
1
 62
     1
100
AcDbLine
 10
164.905441542796
 20
87.6476629875
 30
0.0
 11
164.964427450831
 21
87.6630541811357
 31
0.0
  0
LINE
  5
1078
330
18
100
AcDbEntity
  8
1
 62
     1
100
AcDbLine
 10
164.964427450831
 20
87.6630541811357
 30
0.0
 11
165.023314606035
 21
87.6747984526853
 31
0.0
  0
LINE
  5
1079
330
18
100
AcDbEntity
  8
1
 62
     1
100
AcDbLine
 10
165.023314606035
 20
87.6747984526853
 30
0.0
 11
165.023314606035
 21
89.8426723892003
 31
0.0
  0
LINE
  5
107A
330
18
100
AcDbEntity
  8
1
 62
     1
100
AcDbLine
 10
164.082573865294
 20
87.8704468086914
 30
0.0
 11
164.082573865294
 21
90.0087834562811
 31
0.0
  0
LINE
  5
107B
330
18
100
AcDbEntity
  8
1
 62
     1
100
AcDbLine
 10
164.082573865294
 20
87.8704468086915
 30
0.0
 11
164.112959585766
 21
87.8553252161987
 31
0.0
  0
LINE
  5
107C
330
18
100
AcDbEntity
  8
1
 62
     1
100
AcDbLine
 10
164.112959585766
 20
87.8553252161987
 30
0.0
 11
164.1432578528
 21
87.8388521143106
 31
0.0
  0
LINE
  5
107D
330
18
100
AcDbEntity
  8
1
 62
     1
100
AcDbLine
 10
164.1432578528
 20
87.8388521143106
 30
0.0
 11
164.203527911031
 21
87.8019288712664
 31
0.0
  0
LINE
  5
107E
330
18
100
AcDbEntity
  8
1
 62
     1
100
AcDbLine
 10
164.203527911031
 20
87.8019288712664
 30
0.0
 11
164.263320818812
 21
87.7598020519123
 31
0.0
  0
LINE
  5
107F
330
18
100
AcDbEntity
  8
1
 62
     1
100
AcDbLine
 10
164.263320818812
 20
87.7598020519123
 30
0.0
 11
164.322558411577
 21
87.7126171846225
 31
0.0
  0
LINE
  5
1080
330
18
100
AcDbEntity
  8
1
 62
     1
100
AcDbLine
 10
164.322558411577
 20
87.7126171846225
 30
0.0
 11
164.381189190128
 21
87.6605128737389
 31
0.0
  0
LINE
  5
1081
330
18
100
AcDbEntity
  8
1
 62
     1
100
AcDbLine
 10
164.381189190128
 20
87.6605128737389
 30
0.0
 11
164.439164546028
 21
87.6036300048891
 31
0.0
  0
LINE
  5
1082
330
18
100
AcDbEntity
  8
1
 62
     1
100
AcDbLine
 10
164.439164546028
 20
87.6036300048891
 30
0.0
 11
164.496427072588
 21
87.5421305867978
 31
0.0
  0
LINE
  5
1083
330
18
100
AcDbEntity
  8
1
 62
     1
100
AcDbLine
 10
164.496427072588
 20
87.5421305867978
 30
0.0
 11
164.552944235665
 21
87.4761592087903
 31
0.0
  0
LINE
  5
1084
330
18
100
AcDbEntity
  8
1
 62
     1
100
AcDbLine
 10
163.612203494924
 20
87.7233584070416
 30
0.0
 11
163.670494736545
 21
87.7553638257088
 31
0.0
  0
LINE
  5
1085
330
18
100
AcDbEntity
  8
1
 62
     1
100
AcDbLine
 10
163.670494736545
 20
87.7553638257088
 30
0.0
 11
163.729057357146
 21
87.7833726095852
 31
0.0
  0
LINE
  5
1086
330
18
100
AcDbEntity
  8
1
 62
     1
100
AcDbLine
 10
163.729057357146
 20
87.7833726095852
 30
0.0
 11
163.787806071238
 21
87.8074257856861
 31
0.0
  0
LINE
  5
1087
330
18
100
AcDbEntity
  8
1
 62
     1
100
AcDbLine
 10
163.787806071238
 20
87.8074257856861
 30
0.0
 11
163.84670359104
 21
87.8275893154198
 31
0.0
  0
LINE
  5
1088
330
18
100
AcDbEntity
  8
1
 62
     1
100
AcDbLine
 10
163.84670359104
 20
87.8275893154198
 30
0.0
 11
163.905686682877
 21
87.8439177788566
 31
0.0
  0
LINE
  5
1089
330
18
100
AcDbEntity
  8
1
 62
     1
100
AcDbLine
 10
163.905686682877
 20
87.8439177788566
 30
0.0
 11
163.96470079978
 21
87.8564684129709
 31
0.0
  0
LINE
  5
108A
330
18
100
AcDbEntity
  8
1
 62
     1
100
AcDbLine
 10
163.96470079978
 20
87.8564684129709
 30
0.0
 11
164.023686709294
 21
87.8652945159759
 31
0.0
  0
LINE
  5
108B
330
18
100
AcDbEntity
  8
1
 62
     1
100
AcDbLine
 10
164.023686709294
 20
87.8652945159759
 30
0.0
 11
164.082573865294
 21
87.8704468086915
 31
0.0
  0
ARC
  5
108C
330
18
100
AcDbEntity
  8
1
 62
     1
100
AcDbCircle
 10
172.060723810228
 20
100.189471811315
 30
0.0
 40
13.41588051011595
100
AcDbArc
 50
225.5841097418865
 51
228.3328506572489
  0
ARC
  5
108D
330
18
100
AcDbEntity
  8
1
 62
     1
100
AcDbCircle
 10
165.848473653558
 20
85.3368684779532
 30
0.0
 40
5.537279584649097
100
AcDbArc
 50
113.8196910051592
 51
119.2619191656379
  0
LINE
  5
108E
330
18
100
AcDbEntity
  8
1
 62
     1
100
AcDbLine
 10
163.141833124554
 20
88.0677096043623
 30
0.0
 11
163.141833124554
 21
90.1675654255475
 31
0.0
  0
LINE
  5
108F
330
18
100
AcDbEntity
  8
1
 62
     1
100
AcDbLine
 10
163.141833124554
 20
88.0677096043623
 30
0.0
 11
163.172218841699
 21
88.0559238391706
 31
0.0
  0
LINE
  5
1090
330
18
100
AcDbEntity
  8
1
 62
     1
100
AcDbLine
 10
163.172218841699
 20
88.0559238391706
 30
0.0
 11
163.202517105162
 21
88.0427664280432
 31
0.0
  0
LINE
  5
1091
330
18
100
AcDbEntity
  8
1
 62
     1
100
AcDbLine
 10
163.202517105162
 20
88.0427664280432
 30
0.0
 11
163.232709939397
 21
88.0282552447808
 31
0.0
  0
LINE
  5
1092
330
18
100
AcDbEntity
  8
1
 62
     1
100
AcDbLine
 10
163.232709939397
 20
88.0282552447808
 30
0.0
 11
163.26278715601
 21
88.012404439501
 31
0.0
  0
LINE
  5
1093
330
18
100
AcDbEntity
  8
1
 62
     1
100
AcDbLine
 10
163.26278715601
 20
88.012404439501
 30
0.0
 11
163.322580057227
 21
87.9767357997986
 31
0.0
  0
LINE
  5
1094
330
18
100
AcDbEntity
  8
1
 62
     1
100
AcDbLine
 10
163.322580057227
 20
87.9767357997986
 30
0.0
 11
163.381817645412
 21
87.9358909759909
 31
0.0
  0
LINE
  5
1095
330
18
100
AcDbEntity
  8
1
 62
     1
100
AcDbLine
 10
163.381817645412
 20
87.9358909759909
 30
0.0
 11
163.440448423184
 21
87.889995974545
 31
0.0
  0
LINE
  5
1096
330
18
100
AcDbEntity
  8
1
 62
     1
100
AcDbLine
 10
163.440448423184
 20
87.889995974545
 30
0.0
 11
163.498423782674
 21
87.8391791018793
 31
0.0
  0
LINE
  5
1097
330
18
100
AcDbEntity
  8
1
 62
     1
100
AcDbLine
 10
163.498423782674
 20
87.8391791018793
 30
0.0
 11
163.555686317864
 21
87.7835887405221
 31
0.0
  0
LINE
  5
1098
330
18
100
AcDbEntity
  8
1
 62
     1
100
AcDbLine
 10
163.555686317864
 20
87.7835887405221
 30
0.0
 11
163.612203494924
 21
87.7233584070416
 31
0.0
  0
LINE
  5
1099
330
18
100
AcDbEntity
  8
1
 62
     1
100
AcDbLine
 10
163.612203494924
 20
87.7233584070416
 30
0.0
 11
163.612203494924
 21
90.4024559577917
 31
0.0
  0
ARC
  5
109A
330
18
100
AcDbEntity
  8
1
 62
     1
100
AcDbCircle
 10
169.806360149888
 20
96.2574009575029
 30
0.0
 40
7.626187607581303
100
AcDbArc
 50
235.5624198883389
 51
239.7460797351408
  0
LINE
  5
109B
330
18
100
AcDbEntity
  8
1
 62
     1
100
AcDbLine
 10
165.493684976405
 20
87.2322237070748
 30
0.0
 11
165.493684976405
 21
89.9677513288572
 31
0.0
  0
LINE
  5
109C
330
18
100
AcDbEntity
  8
1
 62
     1
100
AcDbLine
 10
165.493684976405
 20
87.2322237070748
 30
0.0
 11
165.551976219562
 21
87.2765437495416
 31
0.0
  0
LINE
  5
109D
330
18
100
AcDbEntity
  8
1
 62
     1
100
AcDbLine
 10
165.551976219562
 20
87.2765437495416
 30
0.0
 11
165.610538842081
 21
87.317040644819
 31
0.0
  0
LINE
  5
109E
330
18
100
AcDbEntity
  8
1
 62
     1
100
AcDbLine
 10
165.610538842081
 20
87.317040644819
 30
0.0
 11
165.66928755733
 21
87.353729247612
 31
0.0
  0
LINE
  5
109F
330
18
100
AcDbEntity
  8
1
 62
     1
100
AcDbLine
 10
165.66928755733
 20
87.353729247612
 30
0.0
 11
165.728185077378
 21
87.3866610500538
 31
0.0
  0
LINE
  5
10A0
330
18
100
AcDbEntity
  8
1
 62
     1
100
AcDbLine
 10
165.728185077378
 20
87.3866610500538
 30
0.0
 11
165.787168168351
 21
87.4158719725549
 31
0.0
  0
LINE
  5
10A1
330
18
100
AcDbEntity
  8
1
 62
     1
100
AcDbLine
 10
165.787168168351
 20
87.4158719725549
 30
0.0
 11
165.846182284043
 21
87.4414040782399
 31
0.0
  0
LINE
  5
10A2
330
18
100
AcDbEntity
  8
1
 62
     1
100
AcDbLine
 10
165.846182284043
 20
87.4414040782399
 30
0.0
 11
165.905168191887
 21
87.4632959216325
 31
0.0
  0
LINE
  5
10A3
330
18
100
AcDbEntity
  8
1
 62
     1
100
AcDbLine
 10
165.905168191887
 20
87.4632959216325
 30
0.0
 11
165.964055346776
 21
87.4815829907844
 31
0.0
  0
LINE
  5
10A4
330
18
100
AcDbEntity
  8
1
 62
     1
100
AcDbLine
 10
165.964055346776
 20
87.4815829907844
 30
0.0
 11
165.964055346776
 21
89.6699278656742
 31
0.0
  0
LINE
  5
10A5
330
18
100
AcDbEntity
  8
1
 62
     1
100
AcDbLine
 10
174.052179468055
 20
91.7888019387575
 30
0.0
 11
174.052179468055
 21
91.9759318404033
 31
0.0
  0
LINE
  5
10A6
330
18
100
AcDbEntity
  8
1
 62
     1
100
AcDbLine
 10
174.052179468029
 20
91.7888019387985
 30
0.0
 11
174.430722013442
 21
91.1702511930095
 31
0.0
  0
LINE
  5
10A7
330
18
100
AcDbEntity
  8
1
 62
     1
100
AcDbLine
 10
174.430722013442
 20
91.1702511930095
 30
0.0
 11
174.430722013442
 21
91.3202772246658
 31
0.0
  0
LINE
  5
10A8
330
18
100
AcDbEntity
  8
1
 62
     1
100
AcDbLine
 10
174.430722013442
 20
91.1702511930095
 30
0.0
 11
174.698697652086
 21
91.5709884863873
 31
0.0
  0
LINE
  5
10A9
330
18
100
AcDbEntity
  8
1
 62
     1
100
AcDbLine
 10
174.698697652069
 20
91.5709884863631
 30
0.0
 11
174.698697652069
 21
91.7844244295486
 31
0.0
  0
LINE
  5
10AA
330
18
100
AcDbEntity
  8
1
 62
     1
100
AcDbLine
 10
175.186995301406
 20
91.4041862007791
 30
0.0
 11
175.186995301406
 21
91.6397840762477
 31
0.0
  0
LINE
  5
10AB
330
18
100
AcDbEntity
  8
1
 62
     1
100
AcDbLine
 10
175.18699530138
 20
91.404186200821
 30
0.0
 11
175.371462754183
 21
91.102947724983
 31
0.0
  0
LINE
  5
10AC
330
18
100
AcDbEntity
  8
1
 62
     1
100
AcDbLine
 10
174.881665489361
 20
85.5733082620123
 30
0.0
 11
174.698697652069
 21
85.5112913933229
 31
0.0
  0
LINE
  5
10AD
330
18
100
AcDbEntity
  8
1
 62
     1
100
AcDbLine
 10
176.312203494924
 20
91.3064822246658
 30
0.0
 11
176.312203494924
 21
91.306418737499
 31
0.0
  0
LINE
  5
10AE
330
18
100
AcDbEntity
  8
1
 62
     1
100
AcDbLine
 10
176.312203494924
 20
91.306418737499
 30
0.0
 11
176.312203494924
 21
91.2873837356688
 31
0.0
  0
LINE
  5
10AF
330
18
100
AcDbEntity
  8
1
 62
     1
100
AcDbLine
 10
176.312203494924
 20
91.2873837356688
 30
0.0
 11
176.312203494924
 21
91.0114258479425
 31
0.0
  0
LINE
  5
10B0
330
18
100
AcDbEntity
  8
1
 62
     1
100
AcDbLine
 10
176.312203494924
 20
87.5587566635886
 30
0.0
 11
176.312203494924
 21
85.745613207973
 31
0.0
  0
LINE
  5
10B1
330
18
100
AcDbEntity
  8
1
 62
     1
100
AcDbLine
 10
175.371462754183
 20
91.102947724983
 30
0.0
 11
175.371462754183
 21
91.3202772246658
 31
0.0
  0
LINE
  5
10B2
330
18
100
AcDbEntity
  8
1
 62
     1
100
AcDbLine
 10
175.371462754183
 20
91.102947724983
 30
0.0
 11
175.502049881243
 21
91.2954466109078
 31
0.0
  0
ARC
  5
10B3
330
18
100
AcDbEntity
  8
1
 62
     1
100
AcDbCircle
 10
162.20549206888
 20
154.238407499452
 30
0.0
 40
70.04795826957525
100
AcDbArc
 50
278.1027618283787
 51
278.1030809245241
  0
LINE
  5
10B4
330
18
100
AcDbEntity
  8
1
 62
     1
100
AcDbLine
 10
167.375166457887
 20
92.1037565647151
 30
0.0
 11
167.845536828257
 21
91.2909235172322
 31
0.0
  0
LINE
  5
10B5
330
18
100
AcDbEntity
  8
1
 62
     1
100
AcDbLine
 10
172.079064730445
 20
92.060079325176
 30
0.0
 11
172.079064730445
 21
92.1346452216809
 31
0.0
  0
LINE
  5
10B6
330
18
100
AcDbEntity
  8
1
 62
     1
100
AcDbLine
 10
172.07906473046
 20
92.0600793251738
 30
0.0
 11
172.549240531961
 21
91.2680689868978
 31
0.0
  0
LINE
  5
10B7
330
18
100
AcDbEntity
  8
1
 62
     1
100
AcDbLine
 10
172.549240531961
 20
91.2680689868978
 30
0.0
 11
172.549240531961
 21
91.3202772246658
 31
0.0
  0
LINE
  5
10B8
330
18
100
AcDbEntity
  8
1
 62
     1
100
AcDbLine
 10
171.60849979122
 20
91.298174237584
 30
0.0
 11
171.60849979122
 21
91.3202772246658
 31
0.0
  0
LINE
  5
10B9
330
18
100
AcDbEntity
  8
1
 62
     1
100
AcDbLine
 10
169.256647939368
 20
92.1349711925146
 30
0.0
 11
169.256647939368
 21
92.134979467987
 31
0.0
  0
LINE
  5
10BA
330
18
100
AcDbEntity
  8
1
 62
     1
100
AcDbLine
 10
169.256647939368
 20
92.134979467987
 30
0.0
 11
169.256647939368
 21
92.1349815356661
 31
0.0
  0
LINE
  5
10BB
330
18
100
AcDbEntity
  8
1
 62
     1
100
AcDbLine
 10
169.256647939368
 20
92.1349815356661
 30
0.0
 11
169.256647939368
 21
92.1349820524371
 31
0.0
  0
LINE
  5
10BC
330
18
100
AcDbEntity
  8
1
 62
     1
100
AcDbLine
 10
169.256647939368
 20
92.1349820524371
 30
0.0
 11
169.256647939368
 21
92.1349821816113
 31
0.0
  0
LINE
  5
10BD
330
18
100
AcDbEntity
  8
1
 62
     1
100
AcDbLine
 10
169.256647939368
 20
92.1349821816113
 30
0.0
 11
169.256647939368
 21
92.1349822139025
 31
0.0
  0
LINE
  5
10BE
330
18
100
AcDbEntity
  8
1
 62
     1
100
AcDbLine
 10
169.256647939368
 20
92.1349822139025
 30
0.0
 11
169.256647939368
 21
92.134982221975
 31
0.0
  0
LINE
  5
10BF
330
18
100
AcDbEntity
  8
1
 62
     1
100
AcDbLine
 10
169.256647939368
 20
92.134982221975
 30
0.0
 11
169.256647939368
 21
92.1349822239931
 31
0.0
  0
LINE
  5
10C0
330
18
100
AcDbEntity
  8
1
 62
     1
100
AcDbLine
 10
169.256647939368
 20
92.1349822239931
 30
0.0
 11
169.256647939368
 21
92.1349822244976
 31
0.0
  0
LINE
  5
10C1
330
18
100
AcDbEntity
  8
1
 62
     1
100
AcDbLine
 10
169.256647939368
 20
92.1349822244976
 30
0.0
 11
169.256647939368
 21
92.1349822246238
 31
0.0
  0
LINE
  5
10C2
330
18
100
AcDbEntity
  8
1
 62
     1
100
AcDbLine
 10
169.256647939368
 20
92.1349822246238
 30
0.0
 11
169.256647939368
 21
92.1349822246553
 31
0.0
  0
LINE
  5
10C3
330
18
100
AcDbEntity
  8
1
 62
     1
100
AcDbLine
 10
169.256647939368
 20
92.1349822246553
 30
0.0
 11
169.256647939368
 21
92.1349822246632
 31
0.0
  0
LINE
  5
10C4
330
18
100
AcDbEntity
  8
1
 62
     1
100
AcDbLine
 10
169.256647939368
 20
92.1349822246632
 30
0.0
 11
169.256647939368
 21
92.1349822246652
 31
0.0
  0
LINE
  5
10C5
330
18
100
AcDbEntity
  8
1
 62
     1
100
AcDbLine
 10
169.256647939368
 20
92.1349822246652
 30
0.0
 11
169.256647939368
 21
92.1349822246656
 31
0.0
  0
LINE
  5
10C6
330
18
100
AcDbEntity
  8
1
 62
     1
100
AcDbLine
 10
169.256647939368
 20
92.1349822246656
 30
0.0
 11
169.256647939368
 21
92.1349822246658
 31
0.0
  0
LINE
  5
10C7
330
18
100
AcDbEntity
  8
1
 62
     1
100
AcDbLine
 10
169.256647939368
 20
92.1349822246658
 30
0.0
 11
169.256647939368
 21
92.1349822246658
 31
0.0
  0
LINE
  5
10C8
330
18
100
AcDbEntity
  8
1
 62
     1
100
AcDbLine
 10
169.256647939368
 20
92.1349822246658
 30
0.0
 11
169.256647939368
 21
92.1349822246658
 31
0.0
  0
LINE
  5
10C9
330
18
100
AcDbEntity
  8
1
 62
     1
100
AcDbLine
 10
169.256647939368
 20
92.1349822246658
 30
0.0
 11
169.256647939368
 21
92.1349822246658
 31
0.0
  0
LINE
  5
10CA
330
18
100
AcDbEntity
  8
1
 62
     1
100
AcDbLine
 10
169.256647939368
 20
92.1349822246658
 30
0.0
 11
169.256647939368
 21
92.1349822246658
 31
0.0
  0
LINE
  5
10CB
330
18
100
AcDbEntity
  8
1
 62
     1
100
AcDbLine
 10
170.197388680109
 20
92.1262627864857
 30
0.0
 11
170.197388680109
 21
92.1328305196978
 31
0.0
  0
LINE
  5
10CC
330
18
100
AcDbEntity
  8
1
 62
     1
100
AcDbLine
 10
170.197388680109
 20
92.1328305196978
 30
0.0
 11
170.197388680109
 21
92.1344478794047
 31
0.0
  0
LINE
  5
10CD
330
18
100
AcDbEntity
  8
1
 62
     1
100
AcDbLine
 10
170.197388680109
 20
92.1344478794047
 30
0.0
 11
170.197388680109
 21
92.1348490895499
 31
0.0
  0
LINE
  5
10CE
330
18
100
AcDbEntity
  8
1
 62
     1
100
AcDbLine
 10
170.197388680109
 20
92.1348490895499
 30
0.0
 11
170.197388680109
 21
92.1349489975018
 31
0.0
  0
LINE
  5
10CF
330
18
100
AcDbEntity
  8
1
 62
     1
100
AcDbLine
 10
170.197388680109
 20
92.1349489975018
 30
0.0
 11
170.197388680109
 21
92.1349822246658
 31
0.0
  0
LINE
  5
10D0
330
18
100
AcDbEntity
  8
1
 62
     1
100
AcDbLine
 10
168.315907198628
 20
92.1274586691294
 30
0.0
 11
168.786277568998
 21
91.3119252937442
 31
0.0
  0
LINE
  5
10D1
330
18
100
AcDbEntity
  8
1
 62
     1
100
AcDbLine
 10
166.904796087516
 20
91.2572308556343
 30
0.0
 11
167.375166457887
 21
92.1037565647151
 31
0.0
  0
LINE
  5
10D2
330
18
100
AcDbEntity
  8
1
 62
     1
100
AcDbLine
 10
173.489981272702
 20
91.2253684382427
 30
0.0
 11
173.489981272702
 21
91.3202772246658
 31
0.0
  0
LINE
  5
10D3
330
18
100
AcDbEntity
  8
1
 62
     1
100
AcDbLine
 10
173.489981272702
 20
91.2253684382427
 30
0.0
 11
173.895345422944
 21
91.841143135051
 31
0.0
  0
LINE
  5
10D4
330
18
100
AcDbEntity
  8
1
 62
     1
100
AcDbLine
 10
173.895345422917
 20
91.8411431350126
 30
0.0
 11
173.895345422917
 21
92.0223882010457
 31
0.0
  0
LINE
  5
10D5
330
18
100
AcDbEntity
  8
1
 62
     1
100
AcDbLine
 10
173.026961838214
 20
91.9918689039222
 30
0.0
 11
173.026961838214
 21
92.1222500361701
 31
0.0
  0
LINE
  5
10D6
330
18
100
AcDbEntity
  8
1
 62
     1
100
AcDbLine
 10
170.667759050479
 20
91.3155582527522
 30
0.0
 11
170.667759050479
 21
91.3191102551754
 31
0.0
  0
LINE
  5
10D7
330
18
100
AcDbEntity
  8
1
 62
     1
100
AcDbLine
 10
170.667759050479
 20
91.3191102551754
 30
0.0
 11
170.667759050479
 21
91.3199871014749
 31
0.0
  0
LINE
  5
10D8
330
18
100
AcDbEntity
  8
1
 62
     1
100
AcDbLine
 10
170.667759050479
 20
91.3199871014749
 30
0.0
 11
170.667759050479
 21
91.3202048975862
 31
0.0
  0
LINE
  5
10D9
330
18
100
AcDbEntity
  8
1
 62
     1
100
AcDbLine
 10
170.667759050479
 20
91.3202048975862
 30
0.0
 11
170.667759050479
 21
91.3202591684405
 31
0.0
  0
LINE
  5
10DA
330
18
100
AcDbEntity
  8
1
 62
     1
100
AcDbLine
 10
170.667759050479
 20
91.3202591684405
 30
0.0
 11
170.667759050479
 21
91.3202727138075
 31
0.0
  0
LINE
  5
10DB
330
18
100
AcDbEntity
  8
1
 62
     1
100
AcDbLine
 10
170.667759050479
 20
91.3202727138075
 30
0.0
 11
170.667759050479
 21
91.3202760973513
 31
0.0
  0
LINE
  5
10DC
330
18
100
AcDbEntity
  8
1
 62
     1
100
AcDbLine
 10
170.667759050479
 20
91.3202760973513
 30
0.0
 11
170.667759050479
 21
91.3202769428872
 31
0.0
  0
LINE
  5
10DD
330
18
100
AcDbEntity
  8
1
 62
     1
100
AcDbLine
 10
170.667759050479
 20
91.3202769428872
 30
0.0
 11
170.667759050479
 21
91.3202771542274
 31
0.0
  0
LINE
  5
10DE
330
18
100
AcDbEntity
  8
1
 62
     1
100
AcDbLine
 10
170.667759050479
 20
91.3202771542274
 30
0.0
 11
170.667759050479
 21
91.320277207057
 31
0.0
  0
LINE
  5
10DF
330
18
100
AcDbEntity
  8
1
 62
     1
100
AcDbLine
 10
170.667759050479
 20
91.320277207057
 30
0.0
 11
170.667759050479
 21
91.3202772202637
 31
0.0
  0
LINE
  5
10E0
330
18
100
AcDbEntity
  8
1
 62
     1
100
AcDbLine
 10
170.667759050479
 20
91.3202772202637
 30
0.0
 11
170.667759050479
 21
91.3202772235653
 31
0.0
  0
LINE
  5
10E1
330
18
100
AcDbEntity
  8
1
 62
     1
100
AcDbLine
 10
170.667759050479
 20
91.3202772235653
 30
0.0
 11
170.667759050479
 21
91.3202772243907
 31
0.0
  0
LINE
  5
10E2
330
18
100
AcDbEntity
  8
1
 62
     1
100
AcDbLine
 10
170.667759050479
 20
91.3202772243907
 30
0.0
 11
170.667759050479
 21
91.320277224597
 31
0.0
  0
LINE
  5
10E3
330
18
100
AcDbEntity
  8
1
 62
     1
100
AcDbLine
 10
170.667759050479
 20
91.320277224597
 30
0.0
 11
170.667759050479
 21
91.3202772246486
 31
0.0
  0
LINE
  5
10E4
330
18
100
AcDbEntity
  8
1
 62
     1
100
AcDbLine
 10
170.667759050479
 20
91.3202772246486
 30
0.0
 11
170.667759050479
 21
91.3202772246615
 31
0.0
  0
LINE
  5
10E5
330
18
100
AcDbEntity
  8
1
 62
     1
100
AcDbLine
 10
170.667759050479
 20
91.3202772246615
 30
0.0
 11
170.667759050479
 21
91.3202772246647
 31
0.0
  0
LINE
  5
10E6
330
18
100
AcDbEntity
  8
1
 62
     1
100
AcDbLine
 10
170.667759050479
 20
91.3202772246647
 30
0.0
 11
170.667759050479
 21
91.3202772246657
 31
0.0
  0
LINE
  5
10E7
330
18
100
AcDbEntity
  8
1
 62
     1
100
AcDbLine
 10
170.667759050479
 20
91.3202772246657
 30
0.0
 11
170.667759050479
 21
91.3202772246658
 31
0.0
  0
LINE
  5
10E8
330
18
100
AcDbEntity
  8
1
 62
     1
100
AcDbLine
 10
171.13812942085
 20
92.1013698116562
 30
0.0
 11
171.13812942085
 21
92.1349822246658
 31
0.0
  0
LINE
  5
10E9
330
18
100
AcDbEntity
  8
1
 62
     1
100
AcDbLine
 10
162.671462754183
 20
84.2846124867461
 30
0.0
 11
162.671462754183
 21
84.2553006312734
 31
0.0
  0
LINE
  5
10EA
330
18
100
AcDbEntity
  8
1
 62
     1
100
AcDbLine
 10
165.023314606035
 20
91.1523889550658
 30
0.0
 11
165.493684976405
 21
92.0082476596942
 31
0.0
  0
LINE
  5
10EB
330
18
100
AcDbEntity
  8
1
 62
     1
100
AcDbLine
 10
164.082573865294
 20
91.0816781835944
 30
0.0
 11
164.552944235665
 21
91.9368403347341
 31
0.0
  0
LINE
  5
10EC
330
18
100
AcDbEntity
  8
1
 62
     1
100
AcDbLine
 10
176.312203494924
 20
87.9185908041552
 30
0.0
 11
176.312203494924
 21
91.0114258479425
 31
0.0
  0
LINE
  5
10ED
330
18
100
AcDbEntity
  8
1
 62
     1
100
AcDbLine
 10
176.312203494924
 20
91.0114258479425
 30
0.0
 11
175.502049882899
 21
91.2954466102939
 31
0.0
  0
LINE
  5
10EE
330
18
100
AcDbEntity
  8
1
 62
     1
100
AcDbLine
 10
173.026961838196
 20
91.9918689039504
 30
0.0
 11
173.489981272702
 21
91.2253684382427
 31
0.0
  0
LINE
  5
10EF
330
18
100
AcDbEntity
  8
1
 62
     1
100
AcDbLine
 10
172.549240531961
 20
91.2680689868978
 30
0.0
 11
173.01237012993
 21
91.9930330262964
 31
0.0
  0
LINE
  5
10F0
330
18
100
AcDbEntity
  8
1
 62
     1
100
AcDbLine
 10
171.60849979122
 20
91.298174237584
 30
0.0
 11
172.078678508601
 21
92.0601040240291
 31
0.0
  0
LINE
  5
10F1
330
18
100
AcDbEntity
  8
1
 62
     1
100
AcDbLine
 10
171.13812942085
 20
92.1013698116563
 30
0.0
 11
171.60849979122
 21
91.298174237584
 31
0.0
  0
LINE
  5
10F2
330
18
100
AcDbEntity
  8
1
 62
     1
100
AcDbLine
 10
170.667759050479
 20
91.3155582527522
 30
0.0
 11
171.13812942085
 21
92.1013698116563
 31
0.0
  0
LINE
  5
10F3
330
18
100
AcDbEntity
  8
1
 62
     1
100
AcDbLine
 10
170.197388680109
 20
92.1262627864857
 30
0.0
 11
170.667759050479
 21
91.3155582527523
 31
0.0
  0
LINE
  5
10F4
330
18
100
AcDbEntity
  8
1
 62
     1
100
AcDbLine
 10
169.727018309739
 20
91.3201483348448
 30
0.0
 11
169.817175377197
 21
91.4764337911671
 31
0.0
  0
LINE
  5
10F5
330
18
100
AcDbEntity
  8
1
 62
     1
100
AcDbLine
 10
169.256647939368
 20
92.1349711925146
 30
0.0
 11
169.284076536646
 21
92.0874745581857
 31
0.0
  0
LINE
  5
10F6
330
18
100
AcDbEntity
  8
1
 62
     1
100
AcDbLine
 10
168.786277568998
 20
91.3119252937442
 30
0.0
 11
169.246120926473
 21
92.1167489116237
 31
0.0
  0
LINE
  5
10F7
330
18
100
AcDbEntity
  8
1
 62
     1
100
AcDbLine
 10
167.845536828257
 20
91.2909235172322
 30
0.0
 11
168.315907198628
 21
92.1274586691294
 31
0.0
  0
LINE
  5
10F8
330
18
100
AcDbEntity
  8
1
 62
     1
100
AcDbLine
 10
166.434425717146
 20
92.0639641843027
 30
0.0
 11
166.904796087516
 21
91.2572308556343
 31
0.0
  0
LINE
  5
10F9
330
18
100
AcDbEntity
  8
1
 62
     1
100
AcDbLine
 10
165.964055346776
 20
91.2109881780581
 30
0.0
 11
166.434425717146
 21
92.0639641843027
 31
0.0
  0
ARC
  5
10FA
330
18
100
AcDbEntity
  8
1
 62
     1
100
AcDbCircle
 10
188.146010118901
 20
104.834614743091
 30
0.0
 40
26.03158220597201
100
AcDbArc
 50
209.5197277792143
 51
211.5572519858118
  0
ARC
  5
10FB
330
18
100
AcDbEntity
  8
1
 62
     1
100
AcDbCircle
 10
182.218129135687
 20
101.994896331174
 30
0.0
 40
20.32788590899887
100
AcDbArc
 50
209.6559608899813
 51
212.2342371019186
  0
ARC
  5
10FC
330
18
100
AcDbEntity
  8
1
 62
     1
100
AcDbCircle
 10
177.815905246204
 20
100.015639837025
 30
0.0
 40
16.3835829597137
100
AcDbArc
 50
209.8942653543592
 51
213.0452614120275
  0
LINE
  5
10FD
330
18
100
AcDbEntity
  8
1
 62
     1
100
AcDbLine
 10
163.141833124554
 20
90.999151662598
 30
0.0
 11
163.612203494924
 21
91.8500406669614
 31
0.0
  0
ARC
  5
10FE
330
18
100
AcDbEntity
  8
1
 62
     1
100
AcDbCircle
 10
174.302534052521
 20
98.5280061917359
 30
0.0
 40
13.46280092947492
100
AcDbArc
 50
210.2380677850718
 51
214.0030579641942
  0
LINE
  5
10FF
330
18
100
AcDbEntity
  8
1
 62
     1
100
AcDbLine
 10
162.671462754183
 20
91.7482115528998
 30
0.0
 11
162.671462754183
 21
91.7678582905897
 31
0.0
  0
ARC
  5
1100
330
18
100
AcDbEntity
  8
1
 62
     1
100
AcDbCircle
 10
170.940914859354
 20
98.6801464484667
 30
0.0
 40
11.05576951903529
100
AcDbArc
 50
228.4797023378775
 51
231.6588773163897
  0
ARC
  5
1101
330
18
100
AcDbEntity
  8
1
 62
     1
100
AcDbCircle
 10
166.045283780427
 20
85.5946315813528
 30
0.0
 40
4.830829607661458
100
AcDbArc
 50
107.994265314821
 51
113.9718600855581
  0
ARC
  5
1102
330
18
100
AcDbEntity
  8
1
 62
     1
100
AcDbCircle
 10
166.371582167339
 20
85.7201676968085
 30
0.0
 40
4.337376976782834
100
AcDbArc
 50
101.6775559366281
 51
108.1103629089453
  0
ARC
  5
1103
330
18
100
AcDbEntity
  8
1
 62
     1
100
AcDbCircle
 10
166.786934128725
 20
85.7144235876447
 30
0.0
 40
4.040189978447723
100
AcDbArc
 50
95.00545436443246
 51
101.7518425685475
  0
ARC
  5
1104
330
18
100
AcDbEntity
  8
1
 62
     1
100
AcDbCircle
 10
169.66662182282
 20
95.2997857180282
 30
0.0
 40
6.431725388734058
100
AcDbArc
 50
239.8318895565766
 51
244.5698995601733
  0
ARC
  5
1105
330
18
100
AcDbEntity
  8
1
 62
     1
100
AcDbCircle
 10
167.249718328642
 20
85.5769082571299
 30
0.0
 40
3.92953270308285
100
AcDbArc
 50
88.17055838394528
 51
95.03572972653952
  0
ARC
  5
1106
330
18
100
AcDbEntity
  8
1
 62
     1
100
AcDbCircle
 10
167.716817859903
 20
85.305816614516
 30
0.0
 40
4.003709186132961
100
AcDbArc
 50
81.39436466908016
 51
88.157624981815
  0
ARC
  5
1107
330
18
100
AcDbEntity
  8
1
 62
     1
100
AcDbCircle
 10
169.981018105226
 20
93.8210572295563
 30
0.0
 40
4.851282342751223
100
AcDbArc
 50
249.9261829721771
 51
255.7427888347467
  0
ARC
  5
1108
330
18
100
AcDbEntity
  8
1
 62
     1
100
AcDbCircle
 10
168.14760334337
 20
84.9203259589443
 30
0.0
 40
4.247209421702618
100
AcDbArc
 50
75.69645971798675
 51
81.35132957572034
  0
ARC
  5
1109
330
18
100
AcDbEntity
  8
1
 62
     1
100
AcDbCircle
 10
168.483232954196
 20
84.349320569749
 30
0.0
 40
4.744048959451991
100
AcDbArc
 50
68.81847630964921
 51
74.8006331626644
  0
ARC
  5
110A
330
18
100
AcDbEntity
  8
1
 62
     1
100
AcDbCircle
 10
168.687156265908
 20
83.652750222656
 30
0.0
 40
5.452486429994096
100
AcDbArc
 50
63.28771894685403
 51
68.70018174765734
  0
ARC
  5
110B
330
18
100
AcDbEntity
  8
1
 62
     1
100
AcDbCircle
 10
168.703744870761
 20
82.7997862636096
 30
0.0
 40
6.42990629135104
100
AcDbArc
 50
58.3400705100185
 51
63.14349244063627
  0
LINE
  5
110C
330
18
100
AcDbEntity
  8
1
 62
     1
100
AcDbLine
 10
172.079064730445
 20
88.2727253164691
 30
0.0
 11
172.078678508606
 21
88.2728272860408
 31
0.0
  0
ARC
  5
110D
330
18
100
AcDbEntity
  8
1
 62
     1
100
AcDbCircle
 10
171.742922047214
 20
92.3969107493684
 30
0.0
 40
4.13786198743208
100
AcDbArc
 50
274.6596058359391
 51
281.236744959104
  0
ARC
  5
110E
330
18
100
AcDbEntity
  8
1
 62
     1
100
AcDbCircle
 10
168.481533185129
 20
81.7846081871176
 30
0.0
 40
7.713503051046912
100
AcDbArc
 50
54.0282104600746
 51
58.17345630980293
  0
ARC
  5
110F
330
18
100
AcDbEntity
  8
1
 62
     1
100
AcDbCircle
 10
172.183989752746
 20
92.3398519920832
 30
0.0
 40
4.397987193660876
100
AcDbArc
 50
281.0503974806446
 51
287.2745744928141
  0
ARC
  5
1110
330
18
100
AcDbEntity
  8
1
 62
     1
100
AcDbCircle
 10
167.996170439395
 20
80.6365404594654
 30
0.0
 40
9.299862891832315
100
AcDbArc
 50
50.62988014618566
 51
53.7903646530396
  0
ARC
  5
1111
330
18
100
AcDbEntity
  8
1
 62
     1
100
AcDbCircle
 10
172.539899971451
 20
92.4271919879281
 30
0.0
 40
4.866909310315955
100
AcDbArc
 50
288.1030490720321
 51
292.8614951710345
  0
LINE
  5
1112
330
18
100
AcDbEntity
  8
1
 62
     1
100
AcDbLine
 10
174.430722013442
 20
87.9425838960745
 30
0.0
 11
174.698697652086
 21
87.7100342261758
 31
0.0
  0
ARC
  5
1113
330
18
100
AcDbEntity
  8
1
 62
     1
100
AcDbCircle
 10
172.747903521937
 20
92.6952167372899
 30
0.0
 40
5.601367437065322
100
AcDbArc
 50
295.8136638661404
 51
297.9290754935342
  0
LINE
  5
1114
330
18
100
AcDbEntity
  8
1
 62
     1
100
AcDbLine
 10
175.371462754183
 20
87.7462502052343
 30
0.0
 11
175.502049881243
 21
87.6211355605509
 31
0.0
  0
LINE
  5
1115
330
18
100
AcDbEntity
  8
1
 62
     1
100
AcDbLine
 10
176.312203494924
 20
87.9185908041552
 30
0.0
 11
176.312203494924
 21
87.5587566635887
 31
0.0
  0
LINE
  5
1116
330
18
100
AcDbEntity
  8
1
 62
     1
100
AcDbLine
 10
176.312203494924
 20
87.9185908041552
 30
0.0
 11
169.196920606793
 21
89.0358990918703
 31
0.0
  0
LINE
  5
1117
330
18
100
AcDbEntity
  8
1
 62
     1
100
AcDbLine
 10
176.312203494924
 20
85.745613207973
 30
0.0
 11
175.502049881221
 21
85.6454460184135
 31
0.0
  0
LINE
  5
1118
330
18
100
AcDbEntity
  8
1
 62
     1
100
AcDbLine
 10
175.186995301406
 20
85.6083777880392
 30
0.0
 11
174.698697652069
 21
85.552654523315
 31
0.0
  0
LINE
  5
1119
330
18
100
AcDbEntity
  8
1
 62
     1
100
AcDbLine
 10
174.052179468055
 20
85.481477899386
 30
0.0
 11
173.895345422917
 21
85.4645566086529
 31
0.0
  0
LINE
  5
111A
330
18
100
AcDbEntity
  8
1
 62
     1
100
AcDbLine
 10
173.026961838196
 20
85.5266489041079
 30
0.0
 11
173.25783666207
 21
85.8423897107479
 31
0.0
  0
LINE
  5
111B
330
18
100
AcDbEntity
  8
1
 62
     1
100
AcDbLine
 10
173.25783666207
 20
85.8423897107479
 30
0.0
 11
173.373972920063
 21
85.9848461914813
 31
0.0
  0
LINE
  5
111C
330
18
100
AcDbEntity
  8
1
 62
     1
100
AcDbLine
 10
173.373972920063
 20
85.9848461914813
 30
0.0
 11
173.489981272702
 21
86.1167408349224
 31
0.0
  0
LINE
  5
111D
330
18
100
AcDbEntity
  8
1
 62
     1
100
AcDbLine
 10
171.60849979122
 20
86.417497686383
 30
0.0
 11
171.729402551994
 21
86.2579986652479
 31
0.0
  0
LINE
  5
111E
330
18
100
AcDbEntity
  8
1
 62
     1
100
AcDbLine
 10
171.729402551994
 20
86.2579986652479
 30
0.0
 11
171.848383642932
 21
86.0839457452915
 31
0.0
  0
LINE
  5
111F
330
18
100
AcDbEntity
  8
1
 62
     1
100
AcDbLine
 10
171.848383642932
 20
86.0839457452915
 30
0.0
 11
171.964942835514
 21
85.8971201786811
 31
0.0
  0
LINE
  5
1120
330
18
100
AcDbEntity
  8
1
 62
     1
100
AcDbLine
 10
171.964942835514
 20
85.8971201786811
 30
0.0
 11
172.078678508601
 21
85.6993191611242
 31
0.0
  0
LINE
  5
1121
330
18
100
AcDbEntity
  8
1
 62
     1
100
AcDbLine
 10
170.667759050479
 20
86.579736050832
 30
0.0
 11
170.78871309788
 21
86.4296671092697
 31
0.0
  0
LINE
  5
1122
330
18
100
AcDbEntity
  8
1
 62
     1
100
AcDbLine
 10
170.78871309788
 20
86.4296671092697
 30
0.0
 11
170.907743595538
 21
86.2639999845808
 31
0.0
  0
LINE
  5
1123
330
18
100
AcDbEntity
  8
1
 62
     1
100
AcDbLine
 10
170.907743595538
 20
86.2639999845808
 30
0.0
 11
171.024349724048
 21
86.0844581312125
 31
0.0
  0
LINE
  5
1124
330
18
100
AcDbEntity
  8
1
 62
     1
100
AcDbLine
 10
171.024349724048
 20
86.0844581312125
 30
0.0
 11
171.13812942085
 21
85.8927887625531
 31
0.0
  0
LINE
  5
1125
330
18
100
AcDbEntity
  8
1
 62
     1
100
AcDbLine
 10
170.197388680109
 20
86.0964908775195
 30
0.0
 11
170.314242545324
 21
86.2362668420176
 31
0.0
  0
LINE
  5
1126
330
18
100
AcDbEntity
  8
1
 62
     1
100
AcDbLine
 10
170.314242545324
 20
86.2362668420176
 30
0.0
 11
170.431888780268
 21
86.36342743562
 31
0.0
  0
LINE
  5
1127
330
18
100
AcDbEntity
  8
1
 62
     1
100
AcDbLine
 10
170.431888780268
 20
86.36342743562
 30
0.0
 11
170.549885987151
 21
86.4779218656439
 31
0.0
  0
LINE
  5
1128
330
18
100
AcDbEntity
  8
1
 62
     1
100
AcDbLine
 10
170.549885987151
 20
86.4779218656439
 30
0.0
 11
170.667759050479
 21
86.579736050832
 31
0.0
  0
LINE
  5
1129
330
18
100
AcDbEntity
  8
1
 62
     1
100
AcDbLine
 10
168.786277568998
 20
86.9245426868334
 30
0.0
 11
168.846961555197
 21
86.8622068046735
 31
0.0
  0
LINE
  5
112A
330
18
100
AcDbEntity
  8
1
 62
     1
100
AcDbLine
 10
168.846961555197
 20
86.8622068046735
 30
0.0
 11
168.907231612654
 21
86.7953172446723
 31
0.0
  0
LINE
  5
112B
330
18
100
AcDbEntity
  8
1
 62
     1
100
AcDbLine
 10
168.907231612654
 20
86.7953172446723
 30
0.0
 11
169.026262112491
 21
86.6486283643416
 31
0.0
  0
LINE
  5
112C
330
18
100
AcDbEntity
  8
1
 62
     1
100
AcDbLine
 10
169.026262112491
 20
86.6486283643416
 30
0.0
 11
169.142868245263
 21
86.4860578179961
 31
0.0
  0
LINE
  5
112D
330
18
100
AcDbEntity
  8
1
 62
     1
100
AcDbLine
 10
169.142868245263
 20
86.4860578179961
 30
0.0
 11
169.256647939368
 21
86.3092263609266
 31
0.0
  0
LINE
  5
112E
330
18
100
AcDbEntity
  8
1
 62
     1
100
AcDbLine
 10
167.375166457887
 20
86.7582058447933
 30
0.0
 11
167.433457705255
 21
86.8140998251736
 31
0.0
  0
LINE
  5
112F
330
18
100
AcDbEntity
  8
1
 62
     1
100
AcDbLine
 10
167.433457705255
 20
86.8140998251736
 30
0.0
 11
167.492020329859
 21
86.8664080618852
 31
0.0
  0
LINE
  5
1130
330
18
100
AcDbEntity
  8
1
 62
     1
100
AcDbLine
 10
167.492020329859
 20
86.8664080618852
 30
0.0
 11
167.550769045233
 21
86.915118988924
 31
0.0
  0
LINE
  5
1131
330
18
100
AcDbEntity
  8
1
 62
     1
100
AcDbLine
 10
167.550769045233
 20
86.915118988924
 30
0.0
 11
167.609666564098
 21
86.9602687613208
 31
0.0
  0
LINE
  5
1132
330
18
100
AcDbEntity
  8
1
 62
     1
100
AcDbLine
 10
167.609666564098
 20
86.9602687613208
 30
0.0
 11
167.668649653363
 21
87.00187402629
 31
0.0
  0
LINE
  5
1133
330
18
100
AcDbEntity
  8
1
 62
     1
100
AcDbLine
 10
167.668649653363
 20
87.00187402629
 30
0.0
 11
167.727663767645
 21
87.0399609606024
 31
0.0
  0
LINE
  5
1134
330
18
100
AcDbEntity
  8
1
 62
     1
100
AcDbLine
 10
167.727663767645
 20
87.0399609606024
 30
0.0
 11
167.786649674157
 21
87.074552724502
 31
0.0
  0
LINE
  5
1135
330
18
100
AcDbEntity
  8
1
 62
     1
100
AcDbLine
 10
167.786649674157
 20
87.074552724502
 30
0.0
 11
167.845536828257
 21
87.105668978683
 31
0.0
  0
LINE
  5
1136
330
18
100
AcDbEntity
  8
1
 62
     1
100
AcDbLine
 10
165.964055346776
 20
87.4815829907844
 30
0.0
 11
166.024739334102
 21
87.4371087744987
 31
0.0
  0
LINE
  5
1137
330
18
100
AcDbEntity
  8
1
 62
     1
100
AcDbLine
 10
166.024739334102
 20
87.4371087744987
 30
0.0
 11
166.085009390978
 21
87.3875529312127
 31
0.0
  0
LINE
  5
1138
330
18
100
AcDbEntity
  8
1
 62
     1
100
AcDbLine
 10
166.085009390978
 20
87.3875529312127
 30
0.0
 11
166.144802296423
 21
87.3330644575692
 31
0.0
  0
LINE
  5
1139
330
18
100
AcDbEntity
  8
1
 62
     1
100
AcDbLine
 10
166.144802296423
 20
87.3330644575692
 30
0.0
 11
166.204039887049
 21
87.2738171336926
 31
0.0
  0
LINE
  5
113A
330
18
100
AcDbEntity
  8
1
 62
     1
100
AcDbLine
 10
166.204039887049
 20
87.2738171336926
 30
0.0
 11
166.262670663475
 21
87.2099729804109
 31
0.0
  0
LINE
  5
113B
330
18
100
AcDbEntity
  8
1
 62
     1
100
AcDbLine
 10
166.262670663475
 20
87.2099729804109
 30
0.0
 11
166.320646018922
 21
87.1416962290553
 31
0.0
  0
LINE
  5
113C
330
18
100
AcDbEntity
  8
1
 62
     1
100
AcDbLine
 10
166.320646018922
 20
87.1416962290553
 30
0.0
 11
166.434425717146
 21
86.9925713260251
 31
0.0
  0
LINE
  5
113D
330
18
100
AcDbEntity
  8
1
 62
     1
100
AcDbLine
 10
162.671462754183
 20
87.972787663962
 30
0.0
 11
162.729754001912
 21
87.9984218059802
 31
0.0
  0
LINE
  5
113E
330
18
100
AcDbEntity
  8
1
 62
     1
100
AcDbLine
 10
162.729754001912
 20
87.9984218059802
 30
0.0
 11
162.788316625641
 21
88.0199974917956
 31
0.0
  0
LINE
  5
113F
330
18
100
AcDbEntity
  8
1
 62
     1
100
AcDbLine
 10
162.788316625641
 20
88.0199974917956
 30
0.0
 11
162.847065340622
 21
88.0375686115138
 31
0.0
  0
LINE
  5
1140
330
18
100
AcDbEntity
  8
1
 62
     1
100
AcDbLine
 10
162.847065340622
 20
88.0375686115138
 30
0.0
 11
162.90596285936
 21
88.0512079672476
 31
0.0
  0
LINE
  5
1141
330
18
100
AcDbEntity
  8
1
 62
     1
100
AcDbLine
 10
162.90596285936
 20
88.0512079672476
 30
0.0
 11
162.964945949084
 21
88.0609791493967
 31
0.0
  0
LINE
  5
1142
330
18
100
AcDbEntity
  8
1
 62
     1
100
AcDbLine
 10
162.964945949084
 20
88.0609791493967
 30
0.0
 11
163.023960063275
 21
88.0669466381013
 31
0.0
  0
LINE
  5
1143
330
18
100
AcDbEntity
  8
1
 62
     1
100
AcDbLine
 10
163.023960063275
 20
88.0669466381013
 30
0.0
 11
163.082945970428
 21
88.0691707806034
 31
0.0
  0
LINE
  5
1144
330
18
100
AcDbEntity
  8
1
 62
     1
100
AcDbLine
 10
163.082945970428
 20
88.0691707806034
 30
0.0
 11
163.141833124554
 21
88.0677096043623
 31
0.0
  0
LINE
  5
1145
330
18
100
AcDbEntity
  8
1
 62
     1
100
AcDbLine
 10
162.312203494924
 20
84.2929808568086
 30
0.0
 11
162.312203494924
 21
86.0370866986764
 31
0.0
  0
LINE
  5
1146
330
18
100
AcDbEntity
  8
1
 62
     1
100
AcDbLine
 10
162.671462754183
 20
84.2846124867461
 30
0.0
 11
162.312203494924
 21
84.2929808568086
 31
0.0
  0
LINE
  5
1147
330
18
100
AcDbEntity
  8
1
 62
     1
100
AcDbLine
 10
162.671462754183
 20
84.409417032868
 30
0.0
 11
162.671462754183
 21
84.2846124867461
 31
0.0
  0
LINE
  5
1148
330
18
100
AcDbEntity
  8
1
 62
     1
100
AcDbLine
 10
163.141833124554
 20
85.2270672913043
 30
0.0
 11
163.612203494924
 21
84.3856087914154
 31
0.0
  0
LINE
  5
1149
330
18
100
AcDbEntity
  8
1
 62
     1
100
AcDbLine
 10
163.612203494924
 20
84.3856087914154
 30
0.0
 11
164.082573865294
 21
85.2038183084673
 31
0.0
  0
LINE
  5
114A
330
18
100
AcDbEntity
  8
1
 62
     1
100
AcDbLine
 10
164.082573865294
 20
85.2038183084673
 30
0.0
 11
164.540761291046
 21
84.399083693892
 31
0.0
  0
LINE
  5
114B
330
18
100
AcDbEntity
  8
1
 62
     1
100
AcDbLine
 10
164.540761291046
 20
84.399083693892
 30
0.0
 11
164.552944235665
 21
84.3779896744787
 31
0.0
  0
LINE
  5
114C
330
18
100
AcDbEntity
  8
1
 62
     1
100
AcDbLine
 10
165.023314606035
 20
85.1933363890079
 30
0.0
 11
164.628157995026
 21
84.5082562165955
 31
0.0
  0
LINE
  5
114D
330
18
100
AcDbEntity
  8
1
 62
     1
100
AcDbLine
 10
164.628157995026
 20
84.5082562165955
 30
0.0
 11
164.628116765471
 21
84.508184804929
 31
0.0
  0
LINE
  5
114E
330
18
100
AcDbEntity
  8
1
 62
     1
100
AcDbLine
 10
164.628116765471
 20
84.508184804929
 30
0.0
 11
164.628027477362
 21
84.5080301534472
 31
0.0
  0
LINE
  5
114F
330
18
100
AcDbEntity
  8
1
 62
     1
100
AcDbLine
 10
165.023314606035
 20
85.1933363890079
 30
0.0
 11
165.121630946347
 21
85.0223984074276
 31
0.0
  0
LINE
  5
1150
330
18
100
AcDbEntity
  8
1
 62
     1
100
AcDbLine
 10
166.434425717146
 20
84.4113783571349
 30
0.0
 11
166.904796087516
 21
85.2107956952945
 31
0.0
  0
LINE
  5
1151
330
18
100
AcDbEntity
  8
1
 62
     1
100
AcDbLine
 10
166.904796087516
 20
85.2107956952945
 30
0.0
 11
167.375166457887
 21
84.4522464536258
 31
0.0
  0
LINE
  5
1152
330
18
100
AcDbEntity
  8
1
 62
     1
100
AcDbLine
 10
167.845536828257
 20
85.2386638902975
 30
0.0
 11
168.315907198628
 21
84.5090250580902
 31
0.0
  0
LINE
  5
1153
330
18
100
AcDbEntity
  8
1
 62
     1
100
AcDbLine
 10
168.315907198628
 20
84.5090250580902
 30
0.0
 11
168.786277568998
 21
85.2791534038106
 31
0.0
  0
LINE
  5
1154
330
18
100
AcDbEntity
  8
1
 62
     1
100
AcDbLine
 10
169.256647939368
 20
84.5814765007271
 30
0.0
 11
169.727018309739
 21
85.3320950836521
 31
0.0
  0
LINE
  5
1155
330
18
100
AcDbEntity
  8
1
 62
     1
100
AcDbLine
 10
170.667759050479
 20
85.3972672123061
 30
0.0
 11
171.13812942085
 21
84.7721219763033
 31
0.0
  0
LINE
  5
1156
330
18
100
AcDbEntity
  8
1
 62
     1
100
AcDbLine
 10
171.13812942085
 20
84.7721219763033
 30
0.0
 11
171.60849979122
 21
85.474397555314
 31
0.0
  0
ARC
  5
1157
330
18
100
AcDbEntity
  8
1
 62
     1
100
AcDbCircle
 10
186.987425435678
 20
97.360372032484
 30
0.0
 40
19.43676081853857
100
AcDbArc
 50
217.6995101868661
 51
219.9112557837319
  0
LINE
  5
1158
330
18
100
AcDbEntity
  8
1
 62
     1
100
AcDbLine
 10
173.026961838214
 20
85.0312551895512
 30
0.0
 11
173.012370129892
 21
85.0289809521326
 31
0.0
  0
LINE
  5
1159
330
18
100
AcDbEntity
  8
1
 62
     1
100
AcDbLine
 10
174.052179468055
 20
85.2872075705983
 30
0.0
 11
173.895345422917
 21
85.2317583346791
 31
0.0
  0
LINE
  5
115A
330
18
100
AcDbEntity
  8
1
 62
     1
100
AcDbLine
 10
174.430722013442
 20
85.7740695852295
 30
0.0
 11
174.698697652086
 21
85.5112913933067
 31
0.0
  0
LINE
  5
115B
330
18
100
AcDbEntity
  8
1
 62
     1
100
AcDbLine
 10
172.640425531552
 20
86.1375373245482
 30
0.0
 11
172.417102380895
 21
86.1233579441342
 31
0.0
  0
LINE
  5
115C
330
18
100
AcDbEntity
  8
1
 62
     1
100
AcDbLine
 10
171.844869087472
 20
86.0893286911246
 30
0.0
 11
171.268543119609
 21
86.0584472078714
 31
0.0
  0
LINE
  5
115D
330
18
100
AcDbEntity
  8
1
 62
     1
100
AcDbLine
 10
171.047065301376
 20
86.0474947126261
 30
0.0
 11
166.67963439815
 21
85.9385670241948
 31
0.0
  0
LINE
  5
115E
330
18
100
AcDbEntity
  8
1
 62
     1
100
AcDbLine
 10
166.67963439815
 20
85.9385670241948
 30
0.0
 11
162.312203494924
 21
86.0370866986764
 31
0.0
  0
LINE
  5
115F
330
18
100
AcDbEntity
  8
1
 62
     1
100
AcDbLine
 10
162.671462754183
 20
91.7678582905897
 30
0.0
 11
162.312203494924
 21
91.7250359225314
 31
0.0
  0
LINE
  5
1160
330
18
100
AcDbEntity
  8
1
 62
     1
100
AcDbLine
 10
162.671462754183
 20
91.7678582905897
 30
0.0
 11
162.671462754183
 21
91.8778975579405
 31
0.0
  0
LINE
  5
1161
330
18
100
AcDbEntity
  8
1
 62
     1
100
AcDbLine
 10
162.312203494924
 20
84.2929808568086
 30
0.0
 11
162.312203494924
 21
84.2506027741658
 31
0.0
  0
LINE
  5
1162
330
18
100
AcDbEntity
  8
1
 62
     1
100
AcDbLine
 10
162.312203494924
 20
86.0370866986764
 30
0.0
 11
162.312203494924
 21
88.0158799854046
 31
0.0
  0
LINE
  5
1163
330
18
100
AcDbEntity
  8
1
 62
     1
100
AcDbLine
 10
162.312203494924
 20
91.7250359225314
 30
0.0
 11
162.312203494924
 21
91.8397135415145
 31
0.0
  0
LINE
  5
1164
330
18
100
AcDbEntity
  8
1
 62
     1
100
AcDbLine
 10
174.430722013442
 20
91.3202772246658
 30
0.0
 11
174.052179468029
 21
91.9759318404485
 31
0.0
  0
LINE
  5
1165
330
18
100
AcDbEntity
  8
1
 62
     1
100
AcDbLine
 10
174.698697652086
 20
91.7844244295782
 30
0.0
 11
174.430722013442
 21
91.3202772246658
 31
0.0
  0
LINE
  5
1166
330
18
100
AcDbEntity
  8
1
 62
     1
100
AcDbLine
 10
175.371462754183
 20
91.3202772246658
 30
0.0
 11
175.18699530138
 21
91.6397840762931
 31
0.0
  0
LINE
  5
1167
330
18
100
AcDbEntity
  8
1
 62
     1
100
AcDbLine
 10
175.502049881243
 20
91.5464606580904
 30
0.0
 11
175.371462754183
 21
91.3202772246658
 31
0.0
  0
LINE
  5
1168
330
18
100
AcDbEntity
  8
1
 62
     1
100
AcDbLine
 10
162.312203494924
 20
84.2506027741658
 30
0.0
 11
162.671462754183
 21
84.2553006312734
 31
0.0
  0
LINE
  5
1169
330
18
100
AcDbEntity
  8
1
 62
     1
100
AcDbLine
 10
170.667759050479
 20
91.3202772246658
 30
0.0
 11
170.197388680109
 21
92.1349822246658
 31
0.0
  0
LINE
  5
116A
330
18
100
AcDbEntity
  8
1
 62
     1
100
AcDbLine
 10
172.549240531961
 20
91.3202772246658
 30
0.0
 11
172.079064730445
 21
92.1346452216809
 31
0.0
  0
LINE
  5
116B
330
18
100
AcDbEntity
  8
1
 62
     1
100
AcDbLine
 10
173.01237012993
 20
92.1224408448288
 30
0.0
 11
172.549240531961
 21
91.3202772246658
 31
0.0
  0
LINE
  5
116C
330
18
100
AcDbEntity
  8
1
 62
     1
100
AcDbLine
 10
172.078678508606
 20
92.1346502721145
 30
0.0
 11
171.60849979122
 21
91.3202772246658
 31
0.0
  0
LINE
  5
116D
330
18
100
AcDbEntity
  8
1
 62
     1
100
AcDbLine
 10
171.60849979122
 20
91.3202772246658
 30
0.0
 11
171.13812942085
 21
92.1349822246658
 31
0.0
  0
LINE
  5
116E
330
18
100
AcDbEntity
  8
1
 62
     1
100
AcDbLine
 10
169.246120926473
 20
92.1167489116237
 30
0.0
 11
169.246124182127
 21
92.1167545505788
 31
0.0
  0
LINE
  5
116F
330
18
100
AcDbEntity
  8
1
 62
     1
100
AcDbLine
 10
169.246124182127
 20
92.1167545505788
 30
0.0
 11
169.256647939368
 21
92.1349711925146
 31
0.0
  0
LINE
  5
1170
330
18
100
AcDbEntity
  8
1
 62
     1
100
AcDbLine
 10
169.256647939368
 20
92.1349822246658
 30
0.0
 11
169.246120926319
 21
92.116748911713
 31
0.0
  0
LINE
  5
1171
330
18
100
AcDbEntity
  8
1
 62
     1
100
AcDbLine
 10
169.284076536646
 20
92.0874745581857
 30
0.0
 11
169.727018309739
 21
91.3201483348448
 31
0.0
  0
LINE
  5
1172
330
18
100
AcDbEntity
  8
1
 62
     1
100
AcDbLine
 10
169.284076521302
 20
92.087474549327
 30
0.0
 11
169.256647939368
 21
92.1349822246658
 31
0.0
  0
LINE
  5
1173
330
18
100
AcDbEntity
  8
1
 62
     1
100
AcDbLine
 10
169.817175377197
 20
91.4764337911671
 30
0.0
 11
169.824400427896
 21
91.4889467150797
 31
0.0
  0
LINE
  5
1174
330
18
100
AcDbEntity
  8
1
 62
     1
100
AcDbLine
 10
169.824400427896
 20
91.4889467150797
 30
0.0
 11
170.197388680109
 21
92.1262627864857
 31
0.0
  0
LINE
  5
1175
330
18
100
AcDbEntity
  8
1
 62
     1
100
AcDbLine
 10
170.197388680109
 20
92.1349822246658
 30
0.0
 11
169.817175384909
 21
91.4764337867146
 31
0.0
  0
LINE
  5
1176
330
18
100
AcDbEntity
  8
1
 62
     1
100
AcDbLine
 10
173.895345422944
 20
92.022388201093
 30
0.0
 11
173.489981272702
 21
91.3202772246658
 31
0.0
  0
LINE
  5
1177
330
18
100
AcDbEntity
  8
1
 62
     1
100
AcDbLine
 10
173.489981272702
 20
91.3202772246658
 30
0.0
 11
173.026961838196
 21
92.122250036201
 31
0.0
  0
LINE
  5
1178
330
18
100
AcDbEntity
  8
1
 62
     1
100
AcDbLine
 10
171.13812942085
 20
92.1349822246658
 30
0.0
 11
170.667759050479
 21
91.3202772246658
 31
0.0
  0
LINE
  5
1179
330
18
100
AcDbEntity
  8
1
 62
     1
100
AcDbLine
 10
162.312203494924
 20
90.7415174297145
 30
0.0
 11
162.312203494924
 21
91.7250359225314
 31
0.0
  0
LINE
  5
117A
330
18
100
AcDbEntity
  8
1
 62
     1
100
AcDbLine
 10
169.19692060628
 20
89.0358990898118
 30
0.0
 11
169.256647939368
 21
89.0202898858154
 31
0.0
  0
LINE
  5
117B
330
18
100
AcDbEntity
  8
SK1
100
AcDbLine
 10
96.3122034949239
 20
85.3064822246658
 30
0.0
 11
96.7122034949239
 21
85.3064822246658
 31
0.0
  0
LINE
  5
117C
330
18
100
AcDbEntity
  8
SK1
100
AcDbLine
 10
96.7122034949239
 20
91.2064822246658
 30
0.0
 11
96.7122034949239
 21
90.9578707565139
 31
0.0
  0
LINE
  5
117D
330
18
100
AcDbEntity
  8
SK1
100
AcDbLine
 10
96.3122034949239
 20
91.2064822246658
 30
0.0
 11
96.7122034949239
 21
91.2064822246658
 31
0.0
  0
LINE
  5
117E
330
18
100
AcDbEntity
  8
SK1
100
AcDbLine
 10
96.3122034949239
 20
91.2064822246658
 30
0.0
 11
96.3122034949239
 21
90.3198532528621
 31
0.0
  0
LINE
  5
117F
330
18
100
AcDbEntity
  8
SK1
100
AcDbLine
 10
96.7122034949239
 20
91.2064822246658
 30
0.0
 11
105.312203494924
 21
91.2064822246658
 31
0.0
  0
LINE
  5
1180
330
18
100
AcDbEntity
  8
SK1
100
AcDbLine
 10
96.7122034949239
 20
85.3064822246658
 30
0.0
 11
105.312203494924
 21
85.3064822246658
 31
0.0
  0
LINE
  5
1181
330
18
100
AcDbEntity
  8
SK1
100
AcDbLine
 10
96.3122034949239
 20
86.1931111964695
 30
0.0
 11
96.5063661139022
 21
85.8704448896618
 31
0.0
  0
LINE
  5
1182
330
18
100
AcDbEntity
  8
SK1
100
AcDbLine
 10
96.5063661139022
 20
85.8704448896618
 30
0.0
 11
96.7122034949239
 21
85.5550936928178
 31
0.0
  0
LINE
  5
1183
330
18
100
AcDbEntity
  8
SK1
100
AcDbLine
 10
96.3122034949239
 20
86.1931111964695
 30
0.0
 11
96.3122034949239
 21
85.3064822246658
 31
0.0
  0
LINE
  5
1184
330
18
100
AcDbEntity
  8
SK1
100
AcDbLine
 10
96.7122034949239
 20
85.5550936928178
 30
0.0
 11
96.7122034949239
 21
85.3064822246658
 31
0.0
  0
LINE
  5
1185
330
18
100
AcDbEntity
  8
SK1
100
AcDbLine
 10
96.3122034949239
 20
90.3198532528621
 30
0.0
 11
96.5063661139022
 21
90.6425195596698
 31
0.0
  0
LINE
  5
1186
330
18
100
AcDbEntity
  8
SK1
100
AcDbLine
 10
96.5063661139022
 20
90.6425195596698
 30
0.0
 11
96.7122034949239
 21
90.9578707565139
 31
0.0
  0
LINE
  5
1187
330
18
100
AcDbEntity
  8
SK1
100
AcDbLine
 10
96.3122034949239
 20
90.3198532528621
 30
0.0
 11
96.3122034949239
 21
86.1931111964695
 31
0.0
  0
LINE
  5
1188
330
18
100
AcDbEntity
  8
SK1
100
AcDbLine
 10
96.7122034949239
 20
85.5550936928178
 30
0.0
 11
105.312203494924
 21
85.5550936928178
 31
0.0
  0
LINE
  5
1189
330
18
100
AcDbEntity
  8
SK1
100
AcDbLine
 10
96.7122034949239
 20
90.9578707565139
 30
0.0
 11
105.312203494924
 21
90.9578707565139
 31
0.0
  0
LINE
  5
118A
330
18
100
AcDbEntity
  8
SK1
100
AcDbLine
 10
117.212203494924
 20
92.2564822246658
 30
0.0
 11
105.312203494924
 21
92.2564822246658
 31
0.0
  0
LINE
  5
118B
330
18
100
AcDbEntity
  8
SK1
100
AcDbLine
 10
105.312203494924
 20
92.2564822246658
 30
0.0
 11
105.312203494924
 21
92.2562623667792
 31
0.0
  0
LINE
  5
118C
330
18
100
AcDbEntity
  8
SK1
100
AcDbLine
 10
105.312203494924
 20
92.2562623667792
 30
0.0
 11
105.312203494924
 21
92.1888614663819
 31
0.0
  0
LINE
  5
118D
330
18
100
AcDbEntity
  8
SK1
100
AcDbLine
 10
105.312203494924
 20
92.1888614663819
 30
0.0
 11
105.312203494924
 21
91.2064822246658
 31
0.0
  0
LINE
  5
118E
330
18
100
AcDbEntity
  8
SK1
100
AcDbLine
 10
105.312203494924
 20
91.2064822246658
 30
0.0
 11
105.312203494924
 21
90.9578707565139
 31
0.0
  0
LINE
  5
118F
330
18
100
AcDbEntity
  8
SK1
100
AcDbLine
 10
105.312203494924
 20
90.9578707565139
 30
0.0
 11
105.312203494924
 21
85.5550936928178
 31
0.0
  0
LINE
  5
1190
330
18
100
AcDbEntity
  8
SK1
100
AcDbLine
 10
105.312203494924
 20
85.5550936928178
 30
0.0
 11
105.312203494924
 21
85.3064822246658
 31
0.0
  0
LINE
  5
1191
330
18
100
AcDbEntity
  8
SK1
100
AcDbLine
 10
105.312203494924
 20
85.3064822246658
 30
0.0
 11
105.312203494924
 21
84.2564822246658
 31
0.0
  0
LINE
  5
1192
330
18
100
AcDbEntity
  8
SK1
100
AcDbLine
 10
117.212203494924
 20
84.2564822246658
 30
0.0
 11
105.312203494924
 21
84.2564822246658
 31
0.0
  0
DIMENSION
  5
1193
330
18
100
AcDbEntity
  8
2
100
AcDbDimension
  2
*D11
 10
191.312203494924
 20
84.3979822246658
 30
0.0
 11
191.312203494924
 21
115.864982224666
 31
0.0
 70
   160
  1
NPT1/16-27
 71
     5
 42
7.716999999999998
  3
V-TYGEN_-160
100
AcDbAlignedDimension
 13
176.312203494924
 23
92.1149822246658
 33
0.0
 14
176.312203494924
 24
84.3979822246658
 34
0.0
 50
90.0
100
AcDbRotatedDimension
  0
DIMENSION
  5
1194
330
18
100
AcDbEntity
  8
2
100
AcDbDimension
  2
*D12
 10
176.312203494924
 20
109.6872889904
 30
0.0
 11
146.762203494924
 21
112.49877880066
 31
0.0
 70
    32
  1
<>
 71
     5
 42
59.1
  3
V-TYGEN_-160
100
AcDbAlignedDimension
 13
117.212203494924
 23
92.2564822246658
 33
0.0
 14
176.312203494924
 24
92.1149822246658
 34
0.0
100
AcDbRotatedDimension
1001
ACAD
1000
DSTYLE
1002
{
1070
   271
1070
     1
1002
}
  0
DIMENSION
  5
1195
330
18
100
AcDbEntity
  8
SK2
100
AcDbDimension
  2
*D13
 10
89.5408707462366
 20
84.2564822246658
 30
0.0
 11
86.6777294953582
 21
88.2564822246658
 31
0.0
 70
    32
  1
%%c<>
 71
     5
 42
8.0
  3
V-TYGEN_-160
100
AcDbAlignedDimension
 13
105.312203494924
 23
92.2564822246658
 33
0.0
 14
105.312203494924
 24
84.2564822246658
 34
0.0
 50
90.00000000029229
100
AcDbRotatedDimension
  0
DIMENSION
  5
1196
330
18
100
AcDbEntity
  8
2
100
AcDbDimension
  2
*D14
 10
176.312203494924
 20
101.051626793604
 30
0.0
 11
169.312203494924
 21
103.812694959451
 31
0.0
 70
    32
  1
<>
 71
     5
 42
14.0
  3
V-TYGEN_-160
100
AcDbAlignedDimension
 13
162.312203494924
 23
92.0564822246658
 33
0.0
 14
176.312203494924
 24
92.1149822246658
 34
0.0
100
AcDbRotatedDimension
  0
DIMENSION
  5
1197
330
18
100
AcDbEntity
  8
SK2
100
AcDbDimension
  2
*D15
 10
176.312203494924
 20
119.595818948071
 30
0.0
 11
136.312203494924
 21
122.407308758331
 31
0.0
 70
    32
  1
<>
 71
     5
 42
79.99999999999999
  3
V-TYGEN_-160
100
AcDbAlignedDimension
 13
96.3122034949239
 23
91.2064822246658
 33
0.0
 14
176.312203494924
 24
92.1149822246658
 34
0.0
100
AcDbRotatedDimension
  0
MTEXT
  5
1198
330
18
100
AcDbEntity
  8
SK6
100
AcDbMText
 10
96.3122034949239
 20
77.635221405952
 30
0.0
 40
3.5
 41
68.170965570807
 71
     1
 72
     5
  1
{\fMonospac821 BT|b0|i0|c0|p49;MTH-1/16-27NPT-XC-V048\P02880750\PBSG:DIN/ANSI}
  7
SIMPLEX
 73
     1
 44
1.0
1001
ACAD
1000
ACAD_MTEXT_COLUMN_INFO_BEGIN
1070
    75
1070
     2
1070
    79
1070
     0
1070
    76
1070
     1
1070
    78
1070
     0
1070
    48
1040
68.170965570807
1070
    49
1040
17.5
1070
    50
1070
     1
1040
0.0
1000
ACAD_MTEXT_COLUMN_INFO_END
1000
MTEXTBEGIN
1070
    73
1070
     1
1070
    44
1040
1.0
1070
    74
1070
     0
1000
MTEXTEND
  0
VIEWPORT
  5
B5D
102
{ACAD_XDICTIONARY
360
B5E
102
}
330
B56
100
AcDbEntity
 67
     1
  8
0
100
AcDbViewport
 10
148.4886727696569
 20
104.9919908472322
 30
0.0
 40
360.5799308901367
 41
215.6936333192457
 68
     1
 69
     1
 12
148.4886727696569
 22
104.9919908472322
 13
0.0
 23
0.0
 14
10.0
 24
10.0
 15
10.0
 25
10.0
 16
0.0
 26
0.0
 36
1.0
 17
0.0
 27
0.0
 37
0.0
 42
50.0
 43
0.0
 44
0.0
 45
215.6936333192457
 50
0.0
 51
0.0
 72
  2000
 90
   819232
  1

281
     0
 71
     1
 74
     0
110
0.0
120
0.0
130
0.0
111
1.0
121
0.0
131
0.0
112
0.0
122
1.0
132
0.0
 79
     0
146
0.0
  0
VIEWPORT
  5
B61
102
{ACAD_XDICTIONARY
360
B62
102
}
330
B56
100
AcDbEntity
 67
     1
  8
1
100
AcDbViewport
 10
148.5
 20
105.0
 30
0.0
 40
297.0
 41
210.0
 68
     2
 69
     2
 12
0.3212157160238718
 22
-0.0519849240370149
 13
0.0
 23
0.0
 14
5.0
 24
5.0
 15
5.0
 25
5.0
 16
0.0
 26
0.0
 36
1.0
 17
0.0
 27
0.0
 37
0.0
 42
50.0
 43
0.0
 44
0.0
 45
210.0000000373879
 50
0.0
 51
0.0
 72
  2000
 90
   819232
  1

281
     0
 71
     1
 74
     0
110
0.0
120
0.0
130
0.0
111
1.0
121
0.0
131
0.0
112
0.0
122
1.0
132
0.0
 79
     0
146
0.0
  0
ENDSEC
  0
SECTION
  2
OBJECTS
  0
DICTIONARY
  5
C
330
0
100
AcDbDictionary
281
     1
  3
ACAD_2007HEADERVARS_RT
350
127B
  3
ACAD_BACKGROUND
350
B0F
  3
ACAD_CIP_PREVIOUS_PRODUCT_INFO
350
CF7
  3
ACAD_COLOR
350
387
  3
ACAD_DETAILVIEWSTYLE
350
CEF
  3
ACAD_FIELDLIST
350
D13
  3
ACAD_GROUP
350
D
  3
ACAD_LAYOUT
350
301
  3
ACAD_MATERIAL
350
386
  3
ACAD_MLEADERSTYLE
350
46F
  3
ACAD_MLINESTYLE
350
E
  3
ACAD_PLOTSETTINGS
350
302
  3
ACAD_PLOTSTYLENAME
350
2FF
  3
ACAD_SCALELIST
350
44D
  3
ACAD_SECTIONVIEWSTYLE
350
CED
  3
ACAD_TABLESTYLE
350
388
  3
ACAD_VISUALSTYLE
350
3F2
  3
ACDB_RECOMPOSE_DATA
350
1279
  3
AcDbVariableDictionary
350
357
  3
AcDsDecomposeData
350
1283
  3
AcmDictionary
350
4D1
  3
AMG
350
478
  3
AMGSNAPSETTINGS
350
51E
  3
DWGPROPS
350
127A
  0
DICTIONARY
  5
A45
330
8
100
AcDbDictionary
280
     1
281
     1
  0
DICTIONARY
  5
43C
330
2
100
AcDbDictionary
280
     1
281
     1
  3
ACAD_LAYERFILTERS
360
B21
  3
ACAD_LAYERSTATES
360
567
  3
ACLYDICTIONARY
360
B20
  0
DICTIONARY
  5
52D
330
F
100
AcDbDictionary
280
     1
281
     1
  3
ADSK_XREC_LAYER_RECONCILED
360
126E
  0
DICTIONARY
  5
52F
330
23
100
AcDbDictionary
280
     1
281
     1
  3
ADSK_XREC_LAYER_RECONCILED
360
126F
  0
DICTIONARY
  5
531
330
24
100
AcDbDictionary
280
     1
281
     1
  3
ADSK_XREC_LAYER_RECONCILED
360
1270
  0
DICTIONARY
  5
533
330
25
100
AcDbDictionary
280
     1
281
     1
  3
ADSK_XREC_LAYER_RECONCILED
360
1271
  0
DICTIONARY
  5
537
330
27
100
AcDbDictionary
280
     1
281
     1
  3
ADSK_XREC_LAYER_RECONCILED
360
1272
  0
DICTIONARY
  5
53D
330
2A
100
AcDbDictionary
280
     1
281
     1
  3
ADSK_XREC_LAYER_RECONCILED
360
1273
  0
DICTIONARY
  5
53F
330
2B
100
AcDbDictionary
280
     1
281
     1
  3
ADSK_XREC_LAYER_RECONCILED
360
1274
  0
DICTIONARY
  5
545
330
2E
100
AcDbDictionary
280
     1
281
     1
  3
ADSK_XREC_LAYER_RECONCILED
360
1275
  0
DICTIONARY
  5
B5E
330
B5D
100
AcDbDictionary
280
     1
281
     1
  3
ACAD_XREC_ROUNDTRIP
360
12B5
  3
ASDK_XREC_ANNOTATION_SCALE_INFO
360
B5F
  0
DICTIONARY
  5
B62
330
B61
100
AcDbDictionary
280
     1
281
     1
  3
ACAD_XREC_ROUNDTRIP
360
12B6
  3
ASDK_XREC_ANNOTATION_SCALE_INFO
360
B63
  0
DICTIONARY
  5
127B
102
{ACAD_REACTORS
330
C
102
}
330
C
100
AcDbDictionary
281
     1
  3
DIMARCSYM
350
127C
  3
DIMJOGANG
350
127D
  0
DICTIONARY
  5
B0F
102
{ACAD_REACTORS
330
C
102
}
330
C
100
AcDbDictionary
281
     1
  0
XRECORD
  5
CF7
102
{ACAD_REACTORS
330
C
102
}
330
C
100
AcDbXrecord
280
     1
300
AMECH_PP
300
2014
300
86138AMECH_PP_2014_0F
  0
DICTIONARY
  5
387
102
{ACAD_REACTORS
330
C
102
}
330
C
100
AcDbDictionary
281
     1
  0
DICTIONARY
  5
CEF
102
{ACAD_REACTORS
330
C
102
}
330
C
100
AcDbDictionary
281
     1
  3
Metric50
350
CF0
  0
FIELDLIST
  5
D13
102
{ACAD_REACTORS
330
C
102
}
330
C
100
AcDbIdSet
 90
        9
330
D9B
330
D9C
330
D9D
330
D11
330
D12
330
D14
330
D1C
330
D1D
330
D1E
100
AcDbFieldList
  0
DICTIONARY
  5
D
102
{ACAD_REACTORS
330
C
102
}
330
C
100
AcDbDictionary
281
     1
  0
DICTIONARY
  5
301
102
{ACAD_REACTORS
330
C
102
}
330
C
100
AcDbDictionary
281
     1
  3
Layout1
350
B57
  3
Model
350
303
  0
DICTIONARY
  5
386
102
{ACAD_REACTORS
330
C
102
}
330
C
100
AcDbDictionary
281
     1
  3
ByBlock
350
3F0
  3
ByLayer
350
3EF
  3
Global
350
3F1
  0
DICTIONARY
  5
46F
102
{ACAD_REACTORS
330
C
102
}
330
C
100
AcDbDictionary
281
     1
  3
Standard
350
470
  0
DICTIONARY
  5
E
102
{ACAD_REACTORS
330
C
102
}
330
C
100
AcDbDictionary
281
     1
  3
STANDARD
350
1B
  0
DICTIONARY
  5
302
102
{ACAD_REACTORS
330
C
102
}
330
C
100
AcDbDictionary
281
     1
  3
DWG To PDF A4 - landscape
350
7EF
  3
DWG To PDF A4 - portrait
350
7F8
  0
ACDBDICTIONARYWDFLT
  5
2FF
102
{ACAD_REACTORS
330
C
102
}
330
C
100
AcDbDictionary
281
     1
  3
Normal
350
300
100
AcDbDictionaryWithDefault
340
300
  0
DICTIONARY
  5
44D
102
{ACAD_REACTORS
330
C
102
}
330
C
100
AcDbDictionary
281
     1
  3
A0
350
BFC
  3
A1
350
BFD
  3
A2
350
BFE
  3
A3
350
BFF
  3
A4
350
C00
  3
A5
350
C01
  3
A6
350
44E
  3
A7
350
C02
  3
A8
350
C03
  3
A9
350
C04
  3
B0
350
C05
  3
B1
350
C06
  3
B2
350
C07
  0
DICTIONARY
  5
CED
102
{ACAD_REACTORS
330
C
102
}
330
C
100
AcDbDictionary
281
     1
  3
Metric50
350
CEE
  0
DICTIONARY
  5
388
102
{ACAD_REACTORS
330
C
102
}
330
C
100
AcDbDictionary
281
     1
  3
Standard
350
389
  0
DICTIONARY
  5
3F2
102
{ACAD_REACTORS
330
C
102
}
330
C
100
AcDbDictionary
281
     1
  3
2dWireframe
350
3F8
  3
3D Hidden
350
3FA
  3
3dWireframe
350
3F9
  3
Basic
350
3F7
  3
Brighten
350
3FE
  3
ColorChange
350
402
  3
Conceptual
350
3FB
  3
Dim
350
3FD
  3
EdgeColorOff
350
BDF
  3
Facepattern
350
401
  3
Flat
350
3F3
  3
FlatWithEdges
350
3F4
  3
Gouraud
350
3F5
  3
GouraudWithEdges
350
3F6
  3
Hidden
350
CE7
  3
JitterOff
350
BDD
  3
Linepattern
350
400
  3
OverhangOff
350
BDE
  3
Realistic
350
3FC
  3
Shaded
350
CEC
  3
Shaded with edges
350
CEB
  3
Shades of Gray
350
CE8
  3
Sketchy
350
CE9
  3
Thicken
350
3FF
  3
Wireframe
350
CE6
  3
X-Ray
350
CEA
  0
XRECORD
  5
1279
102
{ACAD_REACTORS
330
C
102
}
330
C
100
AcDbXrecord
280
     1
 90
        1
330
389
330
1198
  0
DICTIONARY
  5
357
102
{ACAD_REACTORS
330
C
102
}
330
C
100
AcDbDictionary
281
     1
  3
CANNOSCALE
350
57C
  3
CMLEADERSTYLE
350
57A
  3
CTABLESTYLE
350
38E
  3
CVIEWDETAILSTYLE
350
D2C
  3
CVIEWSECTIONSTYLE
350
D2D
  3
DIMASSOC
350
359
  3
HIDETEXT
350
358
  3
INDEXCTL
350
ACC
  3
LAYEREVAL
350
BF1
  3
LAYERNOTIFY
350
BF2
  3
LIGHTINGUNITS
350
57D
  3
MSLTSCALE
350
57B
  3
SOLIDHIST
350
1277
  3
SORTENTS
350
ACB
  3
XCLIPFRAME
350
1276
  0
DICTIONARY
  5
1283
102
{ACAD_REACTORS
330
C
102
}
330
C
100
AcDbDictionary
281
     1
  3
AcDsRecords
350
1285
  3
AcDsSchemas
350
1284
1001
ACAD
1070
     2
  0
DICTIONARY
  5
4D1
102
{ACAD_REACTORS
330
C
102
}
330
C
100
AcDbDictionary
281
     1
  3
AcmStdDictionary
350
4DC
  3
AMDTSECTSYM_ARROWCOLOR
350
4F3
  0
DICTIONARY
  5
478
102
{ACAD_REACTORS
330
C
102
}
330
C
100
AcDbDictionary
281
     1
  0
DICTIONARY
  5
51E
102
{ACAD_REACTORS
330
C
102
}
330
C
100
AcDbDictionary
281
     1
  0
XRECORD
  5
127A
102
{ACAD_REACTORS
330
C
102
}
330
C
100
AcDbXrecord
280
     1
  1
DWGPROPS COOKIE
  2

  3

  4
Philippe Vogel
  6
Secotools DIN Template metric
  7

  8
inpunrajy
  9

300
=
301
=
302
=
303
=
304
=
305
=
306
=
307
=
308
=
309
=
 40
0.000489849537037
 41
2457277.411367431
 42
2457277.411856655
  1
http://www.secotools.com/
 90
        0
  0
DICTIONARY
  5
B21
102
{ACAD_REACTORS
330
43C
102
}
330
43C
100
AcDbDictionary
281
     1
  0
DICTIONARY
  5
567
102
{ACAD_REACTORS
330
43C
102
}
330
43C
100
AcDbDictionary
281
     1
  3
BMG3.0
350
8E9
  0
DICTIONARY
  5
B20
102
{ACAD_REACTORS
330
43C
102
}
330
43C
100
AcDbDictionary
281
     1
1001
ACAD
1000
<All
  0
XRECORD
  5
126E
102
{ACAD_REACTORS
330
52D
102
}
330
52D
100
AcDbXrecord
280
     1
290
     1
  0
XRECORD
  5
126F
102
{ACAD_REACTORS
330
52F
102
}
330
52F
100
AcDbXrecord
280
     1
290
     1
  0
XRECORD
  5
1270
102
{ACAD_REACTORS
330
531
102
}
330
531
100
AcDbXrecord
280
     1
290
     1
  0
XRECORD
  5
1271
102
{ACAD_REACTORS
330
533
102
}
330
533
100
AcDbXrecord
280
     1
290
     1
  0
XRECORD
  5
1272
102
{ACAD_REACTORS
330
537
102
}
330
537
100
AcDbXrecord
280
     1
290
     1
  0
XRECORD
  5
1273
102
{ACAD_REACTORS
330
53D
102
}
330
53D
100
AcDbXrecord
280
     1
290
     1
  0
XRECORD
  5
1274
102
{ACAD_REACTORS
330
53F
102
}
330
53F
100
AcDbXrecord
280
     1
290
     1
  0
XRECORD
  5
1275
102
{ACAD_REACTORS
330
545
102
}
330
545
100
AcDbXrecord
280
     1
290
     1
  0
XRECORD
  5
12B5
102
{ACAD_REACTORS
330
B5E
102
}
330
B5E
100
AcDbXrecord
280
     1
102
SHADEPLOT
 70
     0
  0
XRECORD
  5
B5F
102
{ACAD_REACTORS
330
B5E
102
}
330
B5E
100
AcDbXrecord
280
     1
 90
        1
340
44E
  0
XRECORD
  5
12B6
102
{ACAD_REACTORS
330
B62
102
}
330
B62
100
AcDbXrecord
280
     1
102
SHADEPLOT
 70
     0
  0
XRECORD
  5
B63
102
{ACAD_REACTORS
330
B62
102
}
330
B62
100
AcDbXrecord
280
     1
 90
        1
340
44E
  0
XRECORD
  5
127C
102
{ACAD_REACTORS
330
127B
102
}
330
127B
100
AcDbXrecord
280
     1
 70
     1
  0
XRECORD
  5
127D
102
{ACAD_REACTORS
330
127B
102
}
330
127B
100
AcDbXrecord
280
     1
 40
1.570796326794896
  0
ACDBDETAILVIEWSTYLE
  5
CF0
102
{ACAD_XDICTIONARY
360
D27
102
}
102
{ACAD_REACTORS
330
CEF
330
D05
102
}
330
CEF
100
AcDbModelDocViewStyle
 70
     0
  3
Metric50
290
     0
100
AcDbDetailViewStyle
 70
     0
 71
     0
 90
        3
 71
     1
340
10
 40
5.0
340
0
 40
5.0
300

 40
0.0
280
     1
 71
     2
340
14
 90
       25
 71
     3
340
10
 40
5.0
 90
        0
 40
15.0
 90
        1
300
%<\AcVar ViewDetailId>% (%<\AcVar ViewScale \f "%sn">%)
 71
     4
340
14
 90
       25
340
14
 90
       25
280
     0
  0
LAYOUT
  5
B57
102
{ACAD_XDICTIONARY
360
B74
102
}
102
{ACAD_REACTORS
330
301
102
}
330
301
100
AcDbPlotSettings
  1

  2
DWG To PDF.pc3
  4
UserDefinedMetric (297.00 x 210.00mm)
  6

 40
0.0
 41
0.0
 42
0.0
 43
0.0
 44
297.0
 45
210.0
 46
0.0
 47
0.0
 48
0.0
 49
0.0
140
0.0
141
0.0
142
1.0
143
1.0
 70
   688
 72
     1
 73
     0
 74
     5
  7
monochrome.ctb
 75
    16
147
1.0
148
0.0
149
0.0
100
AcDbLayout
  1
Layout1
 70
     1
 71
     1
 10
0.0
 20
0.0
 11
297.0
 21
210.0
 12
0.0
 22
0.0
 32
0.0
 14
-0.0226558438690745
 24
-0.0160192835437556
 34
-0.000000000000013
 15
297.000001383183
 25
210.0000009780083
 35
0.0000000000000023
146
0.0
 13
0.0
 23
0.0
 33
0.0
 16
1.0
 26
0.0
 36
0.0
 17
0.0
 27
1.0
 37
0.0
 76
     0
330
B56
331
B5D
1001
ACAD_PSEXT
1000
DWG To PDF.pc3
1000
PDF
1000
Datei
1000

1070
     0
  0
LAYOUT
  5
303
102
{ACAD_XDICTIONARY
360
BEF
102
}
102
{ACAD_REACTORS
330
301
102
}
330
301
100
AcDbPlotSettings
  1

  2
Default Windows System Printer.pc3
  4
A4
  6

 40
4.233333110809326
 41
4.995328426361083
 42
4.233322143554687
 43
4.995330810546875
 44
209.9733276367187
 45
296.9683227539062
 46
0.0
 47
97.55556227323859
 48
0.0
 49
0.0
140
0.0
141
0.0
142
1.0
143
6.090554118624327
 70
  3764
 72
     1
 73
     1
 74
     1
  7
monochrome.ctb
 75
     0
147
0.164188673234525
148
197.0402205952446
149
599.0551752795641
100
AcDbLayout
  1
Model
 70
     1
 71
     0
 10
0.0
 20
0.0
 11
12.0
 21
9.0
 12
0.0
 22
0.0
 32
0.0
 14
0.0
 24
0.0
 34
0.0
 15
0.0
 25
0.0
 35
0.0
146
0.0
 13
0.0
 23
0.0
 33
0.0
 16
1.0
 26
0.0
 36
0.0
 17
0.0
 27
1.0
 37
0.0
 76
     0
330
18
331
AD1
1001
ACAD_PSEXT
1000
Default Windows System Printer.pc3
1000
HP LaserJet 5100 PCL 6
1000
HPLaserJet5100Series
1000

1070
     0
  0
MATERIAL
  5
3F0
102
{ACAD_XDICTIONARY
360
128A
102
}
102
{ACAD_REACTORS
330
386
102
}
330
386
100
AcDbMaterial
  1
ByBlock
 73
     1
 78
     1
172
     1
176
     1
270
     1
274
     1
  0
MATERIAL
  5
3EF
102
{ACAD_XDICTIONARY
360
1288
102
}
102
{ACAD_REACTORS
330
386
102
}
330
386
100
AcDbMaterial
  1
ByLayer
 73
     1
 78
     1
172
     1
176
     1
270
     1
274
     1
  0
MATERIAL
  5
3F1
102
{ACAD_XDICTIONARY
360
128C
102
}
102
{ACAD_REACTORS
330
386
102
}
330
386
100
AcDbMaterial
  1
Global
 73
     1
 78
     1
172
     1
176
     1
270
     1
274
     1
  0
MLEADERSTYLE
  5
470
102
{ACAD_XDICTIONARY
360
12AE
102
}
102
{ACAD_REACTORS
330
46F
102
}
330
46F
100
AcDbMLeaderStyle
170
     2
171
     1
172
     0
 90
        2
 40
0.0
 41
0.0
173
     1
 91
-1056964608
340
12
 92
       -2
290
     1
 42
2.0
291
     1
 43
0.36
  3
Standard
 44
5.0
300

342
10
174
     0
178
     6
175
     1
176
     0
 93
-1056964608
 45
3.5
292
     0
297
     0
 46
4.0
 94
-1056964608
 47
1.0
 49
1.0
140
1.0
293
     1
141
0.0
294
     1
177
     0
142
1.0
295
     0
296
     0
143
0.125
1001
ACAD_MLEADERVER
1070
     2
  0
MLINESTYLE
  5
1B
102
{ACAD_REACTORS
330
E
102
}
330
E
100
AcDbMlineStyle
  2
STANDARD
 70
     0
  3

 62
     0
 51
90.0
 52
90.0
 71
     2
 49
0.5
 62
   256
  6
BYLAYER
 49
-0.5
 62
   256
  6
BYLAYER
  0
PLOTSETTINGS
  5
7EF
102
{ACAD_XDICTIONARY
360
12B0
102
}
102
{ACAD_REACTORS
330
302
102
}
330
302
100
AcDbPlotSettings
  1
DWG To PDF A4 - landscape
  2
DWG To PDF.pc3
  4
ISO_expand_A4_(297.00_x_210.00_MM)
  6

 40
5.793749809265136
 41
10.79374980926513
 42
5.79376220703125
 43
10.79374694824219
 44
297.0
 45
210.0
 46
99.7577788938406
 47
0.0
 48
0.0
 49
0.0
140
0.0
141
0.0
142
1.0
143
6.513831472368249
 70
 11956
 72
     1
 73
     0
 74
     1
  7
monochrome.ctb
 75
     0
147
0.153519476861201
148
197.0402205952446
149
599.0551752795641
1001
ACAD_PSEXT
1000
DWG To PDF.pc3
1000
PDF
1000
Datei
1000

1070
     0
  0
PLOTSETTINGS
  5
7F8
102
{ACAD_XDICTIONARY
360
12B2
102
}
102
{ACAD_REACTORS
330
302
102
}
330
302
100
AcDbPlotSettings
  1
DWG To PDF A4 - portrait
  2
DWG To PDF.pc3
  4
ISO_expand_A4_(210.00_x_297.00_MM)
  6

 40
5.793749809265136
 41
10.79374980926513
 42
5.793746948242187
 43
10.79376220703125
 44
210.0
 45
297.0
 46
36.42621619811505
 47
0.0
 48
0.0
 49
0.0
140
0.0
141
0.0
142
1.0
143
4.456178811620383
 70
 11956
 72
     1
 73
     0
 74
     1
  7
monochrome.ctb
 75
     0
147
0.2244075119679441
148
197.0402205952446
149
599.0551752795641
1001
ACAD_PSEXT
1000
DWG To PDF.pc3
1000
PDF
1000
Datei
1000

1070
     0
  0
ACDBPLACEHOLDER
  5
300
102
{ACAD_REACTORS
330
2FF
102
}
330
2FF
  0
SCALE
  5
BFC
102
{ACAD_REACTORS
330
44D
102
}
330
44D
100
AcDbScale
 70
     0
300
100:1
140
100.0
141
1.0
290
     0
  0
SCALE
  5
BFD
102
{ACAD_REACTORS
330
44D
102
}
330
44D
100
AcDbScale
 70
     0
300
50:1
140
50.0
141
1.0
290
     0
  0
SCALE
  5
BFE
102
{ACAD_REACTORS
330
44D
102
}
330
44D
100
AcDbScale
 70
     0
300
20:1
140
20.0
141
1.0
290
     0
  0
SCALE
  5
BFF
102
{ACAD_REACTORS
330
44D
102
}
330
44D
100
AcDbScale
 70
     0
300
10:1
140
10.0
141
1.0
290
     0
  0
SCALE
  5
C00
102
{ACAD_REACTORS
330
44D
102
}
330
44D
100
AcDbScale
 70
     0
300
5:1
140
5.0
141
1.0
290
     0
  0
SCALE
  5
C01
102
{ACAD_REACTORS
330
44D
102
}
330
44D
100
AcDbScale
 70
     0
300
2:1
140
2.0
141
1.0
290
     0
  0
SCALE
  5
44E
102
{ACAD_REACTORS
330
44D
102
}
330
44D
100
AcDbScale
 70
     0
300
1:1
140
1.0
141
1.0
290
     1
  0
SCALE
  5
C02
102
{ACAD_REACTORS
330
44D
102
}
330
44D
100
AcDbScale
 70
     0
300
1:2
140
1.0
141
2.0
290
     0
  0
SCALE
  5
C03
102
{ACAD_REACTORS
330
44D
102
}
330
44D
100
AcDbScale
 70
     0
300
1:5
140
1.0
141
5.0
290
     0
  0
SCALE
  5
C04
102
{ACAD_REACTORS
330
44D
102
}
330
44D
100
AcDbScale
 70
     0
300
1:10
140
1.0
141
10.0
290
     0
  0
SCALE
  5
C05
102
{ACAD_REACTORS
330
44D
102
}
330
44D
100
AcDbScale
 70
     0
300
1:20
140
1.0
141
20.0
290
     0
  0
SCALE
  5
C06
102
{ACAD_REACTORS
330
44D
102
}
330
44D
100
AcDbScale
 70
     0
300
1:50
140
1.0
141
50.0
290
     0
  0
SCALE
  5
C07
102
{ACAD_REACTORS
330
44D
102
}
330
44D
100
AcDbScale
 70
     0
300
1:100
140
1.0
141
100.0
290
     0
  0
ACDBSECTIONVIEWSTYLE
  5
CEE
102
{ACAD_XDICTIONARY
360
D25
102
}
102
{ACAD_REACTORS
330
CED
330
D04
102
}
330
CED
100
AcDbModelDocViewStyle
 70
     0
  3
Metric50
290
     0
100
AcDbSectionViewStyle
 70
     0
 71
     0
 90
      102
 71
     1
340
10
 40
5.0
340
0
340
0
 40
5.0
300
I, O, Q, S, X, Z
 40
10.0
 90
        0
 40
2.5
 90
        0
 71
     2
340
14
 90
       25
340
14
 90
       50
 40
5.0
 40
2.5
 40
5.0
 71
     3
340
10
 40
5.0
 90
        0
 40
15.0
 90
        1
300
%<\AcVar ViewSectionStartId>%-%<\AcVar ViewSectionEndId>% (%<\AcVar ViewScale \f "%sn">%)
 71
     4
300
ANSI31
 40
1.0
 90
        0
290
     0
290
     0
 90
        6
 40
0.0
 40
1.570796326794896
 40
0.2617993877991494
 40
1.308996938995747
 40
-0.2617993877991494
 40
1.832595714594046
  0
TABLESTYLE
  5
389
102
{ACAD_XDICTIONARY
360
577
102
}
102
{ACAD_REACTORS
330
388
102
}
330
388
100
AcDbTableStyle
  3
Standard
 70
     0
 71
     0
 40
1.5
 41
1.5
280
     0
281
     0
  7
STANDARD
140
4.5
170
     2
 62
     0
 63
     7
283
     0
274
    -2
284
     1
 64
     0
275
    -2
285
     1
 65
     0
276
    -2
286
     1
 66
     0
277
    -2
287
     1
 67
     0
278
    -2
288
     1
 68
     0
279
    -2
289
     1
 69
     0
  7
STANDARD 5 mm
140
6.0
170
     5
 62
     0
 63
     7
283
     0
274
    -2
284
     1
 64
     0
275
    -2
285
     1
 65
     0
276
    -2
286
     1
 66
     0
277
    -2
287
     1
 67
     0
278
    -2
288
     1
 68
     0
279
    -2
289
     1
 69
     0
  7
STANDARD
140
4.5
170
     5
 62
     0
 63
     7
283
     0
274
    -2
284
     1
 64
     0
275
    -2
285
     1
 65
     0
276
    -2
286
     1
 66
     0
277
    -2
287
     1
 67
     0
278
    -2
288
     1
 68
     0
279
    -2
289
     1
 69
     0
  0
VISUALSTYLE
  5
3F8
102
{ACAD_XDICTIONARY
360
1298
102
}
102
{ACAD_REACTORS
330
3F2
102
}
330
3F2
100
AcDbVisualStyle
  2
2dWireframe
 70
     4
 71
     0
 72
     2
 73
     0
 90
        0
 40
-0.6
 41
-30.0
 62
     5
 63
     7
 74
     1
 91
        4
 64
     7
 65
   257
 75
     1
175
     1
 42
1.0
 92
        0
 66
   257
 43
1.0
 76
     1
 77
     6
 78
     2
 67
     7
 79
     5
170
     0
171
     0
290
     0
174
     0
 93
        1
 44
0.0
173
     0
291
     0
 45
0.0
1001
ACAD
1000
AcDbSavedByObjectVersion
1070
     0
  0
VISUALSTYLE
  5
3FA
102
{ACAD_XDICTIONARY
360
129C
102
}
102
{ACAD_REACTORS
330
3F2
102
}
330
3F2
100
AcDbVisualStyle
  2
3D Hidden
 70
     6
 71
     1
 72
     2
 73
     2
 90
        0
 40
-0.6
 41
-30.0
 62
     5
 63
     7
 74
     2
 91
        2
 64
     7
 65
   257
 75
     2
175
     1
 42
40.0
 92
        0
 66
   257
 43
1.0
 76
     1
 77
     6
 78
     2
 67
     7
 79
     3
170
     0
171
     0
290
     0
174
     0
 93
        1
 44
0.0
173
     0
291
     0
 45
0.0
1001
ACAD
1000
AcDbSavedByObjectVersion
1070
     0
  0
VISUALSTYLE
  5
3F9
102
{ACAD_XDICTIONARY
360
129A
102
}
102
{ACAD_REACTORS
330
3F2
102
}
330
3F2
100
AcDbVisualStyle
  2
3dWireframe
 70
     5
 71
     0
 72
     2
 73
     0
 90
        0
 40
-0.6
 41
-30.0
 62
     5
 63
     7
 74
     1
 91
        4
 64
     7
 65
   257
 75
     1
175
     1
 42
1.0
 92
        0
 66
   257
 43
1.0
 76
     1
 77
     6
 78
     2
 67
     7
 79
     5
170
     0
171
     0
290
     0
174
     0
 93
        1
 44
0.0
173
     0
291
     0
 45
0.0
1001
ACAD
1000
AcDbSavedByObjectVersion
1070
     0
  0
VISUALSTYLE
  5
3F7
102
{ACAD_XDICTIONARY
360
1296
102
}
102
{ACAD_REACTORS
330
3F2
102
}
330
3F2
100
AcDbVisualStyle
  2
Basic
 70
     7
 71
     1
 72
     0
 73
     1
 90
        0
 40
-0.6
 41
-30.0
 62
     5
 63
     7
 74
     0
 91
        4
 64
     7
 65
   257
 75
     1
175
     1
 42
1.0
 92
        8
 66
     7
 43
1.0
 76
     1
 77
     6
 78
     2
 67
     7
 79
     5
170
     0
171
     0
290
     0
174
     0
 93
        1
 44
0.0
173
     0
291
     1
 45
0.0
1001
ACAD
1000
AcDbSavedByObjectVersion
1070
     0
  0
VISUALSTYLE
  5
3FE
102
{ACAD_XDICTIONARY
360
12A4
102
}
102
{ACAD_REACTORS
330
3F2
102
}
330
3F2
100
AcDbVisualStyle
  2
Brighten
 70
    12
 71
     2
 72
     2
 73
     0
 90
        0
 40
-0.6
 41
-30.0
 62
     5
 63
     7
 74
     1
 91
        4
 64
     7
 65
   257
 75
     1
175
     1
 42
1.0
 92
        8
 66
     7
 43
1.0
 76
     1
 77
     6
 78
     2
 67
     7
 79
     5
170
     0
171
     0
290
     0
174
     0
 93
        1
 44
50.0
173
     0
291
     1
 45
0.0
1001
ACAD
1000
AcDbSavedByObjectVersion
1070
     0
  0
VISUALSTYLE
  5
402
102
{ACAD_XDICTIONARY
360
12AC
102
}
102
{ACAD_REACTORS
330
3F2
102
}
330
3F2
100
AcDbVisualStyle
  2
ColorChange
 70
    16
 71
     2
 72
     2
 73
     3
 90
        0
 40
-0.6
 41
-30.0
 62
     5
 63
     8
 74
     1
 91
        4
 64
     7
 65
   257
 75
     1
175
     1
 42
1.0
 92
        8
 66
     8
 43
1.0
 76
     1
 77
     6
 78
     2
 67
     7
 79
     5
170
     0
171
     0
290
     0
174
     0
 93
        1
 44
0.0
173
     0
291
     1
 45
0.0
1001
ACAD
1000
AcDbSavedByObjectVersion
1070
     0
  0
VISUALSTYLE
  5
3FB
102
{ACAD_XDICTIONARY
360
129E
102
}
102
{ACAD_REACTORS
330
3F2
102
}
330
3F2
100
AcDbVisualStyle
  2
Conceptual
 70
     9
 71
     3
 72
     2
 73
     0
 90
        0
 40
-0.6
 41
-30.0
 62
     5
 63
     7
 74
     2
 91
        2
 64
     7
 65
   257
 75
     1
175
     1
 42
40.0
 92
        8
 66
     7
 43
1.0
 76
     1
 77
     6
 78
     2
 67
     7
 79
     3
170
     0
171
     0
290
     0
174
     0
 93
        1
 44
0.0
173
     0
291
     0
 45
0.0
1001
ACAD
1000
AcDbSavedByObjectVersion
1070
     0
  0
VISUALSTYLE
  5
3FD
102
{ACAD_XDICTIONARY
360
12A2
102
}
102
{ACAD_REACTORS
330
3F2
102
}
330
3F2
100
AcDbVisualStyle
  2
Dim
 70
    11
 71
     2
 72
     2
 73
     0
 90
        0
 40
-0.6
 41
-30.0
 62
     5
 63
     7
 74
     1
 91
        4
 64
     7
 65
   257
 75
     1
175
     1
 42
1.0
 92
        8
 66
     7
 43
1.0
 76
     1
 77
     6
 78
     2
 67
     7
 79
     5
170
     0
171
     0
290
     0
174
     0
 93
        1
 44
-50.0
173
     0
291
     1
 45
0.0
1001
ACAD
1000
AcDbSavedByObjectVersion
1070
     0
  0
VISUALSTYLE
  5
BDF
102
{ACAD_XDICTIONARY
360
12BB
102
}
102
{ACAD_REACTORS
330
3F2
102
}
330
3F2
100
AcDbVisualStyle
  2
EdgeColorOff
 70
    22
 71
     2
 72
     2
 73
     0
 90
        0
 40
-0.6
 41
-30.0
 62
     5
 63
     7
 74
     1
 91
        4
 64
     7
 65
   257
 75
     1
175
     1
 42
1.0
 92
        8
 66
     7
 43
1.0
 76
     1
 77
     6
 78
     2
 67
     7
 79
     5
170
     0
171
     0
290
     0
174
     0
 93
        1
 44
0.0
173
     0
291
     1
 45
0.0
1001
ACAD
1000
AcDbSavedByObjectVersion
1070
     0
  0
VISUALSTYLE
  5
401
102
{ACAD_XDICTIONARY
360
12AA
102
}
102
{ACAD_REACTORS
330
3F2
102
}
330
3F2
100
AcDbVisualStyle
  2
Facepattern
 70
    15
 71
     2
 72
     2
 73
     0
 90
        0
 40
-0.6
 41
-30.0
 62
     5
 63
     7
 74
     1
 91
        4
 64
     7
 65
   257
 75
     1
175
     1
 42
1.0
 92
        8
 66
     7
 43
1.0
 76
     1
 77
     6
 78
     2
 67
     7
 79
     5
170
     0
171
     0
290
     0
174
     0
 93
        1
 44
0.0
173
     0
291
     1
 45
0.0
1001
ACAD
1000
AcDbSavedByObjectVersion
1070
     0
  0
VISUALSTYLE
  5
3F3
102
{ACAD_XDICTIONARY
360
128E
102
}
102
{ACAD_REACTORS
330
3F2
102
}
330
3F2
100
AcDbVisualStyle
  2
Flat
 70
     0
 71
     2
 72
     1
 73
     1
 90
        2
 40
-0.6
 41
30.0
 62
     5
 63
     7
 74
     0
 91
        4
 64
     7
 65
   257
 75
     1
175
     1
 42
1.0
 92
        8
 66
     7
 43
1.0
 76
     1
 77
     6
 78
     2
 67
     7
 79
     5
170
     0
171
     0
290
     0
174
     0
 93
       13
 44
0.0
173
     0
291
     1
 45
0.0
1001
ACAD
1000
AcDbSavedByObjectVersion
1070
     0
  0
VISUALSTYLE
  5
3F4
102
{ACAD_XDICTIONARY
360
1290
102
}
102
{ACAD_REACTORS
330
3F2
102
}
330
3F2
100
AcDbVisualStyle
  2
FlatWithEdges
 70
     1
 71
     2
 72
     1
 73
     1
 90
        2
 40
-0.6
 41
30.0
 62
     5
 63
     7
 74
     1
 91
        4
 64
     7
 65
   257
 75
     1
175
     1
 42
1.0
 92
        0
 66
   257
 43
1.0
 76
     1
 77
     6
 78
     2
 67
     7
 79
     5
170
     0
171
     0
290
     0
174
     0
 93
       13
 44
0.0
173
     0
291
     1
 45
0.0
1001
ACAD
1000
AcDbSavedByObjectVersion
1070
     0
  0
VISUALSTYLE
  5
3F5
102
{ACAD_XDICTIONARY
360
1292
102
}
102
{ACAD_REACTORS
330
3F2
102
}
330
3F2
100
AcDbVisualStyle
  2
Gouraud
 70
     2
 71
     2
 72
     2
 73
     1
 90
        2
 40
-0.6
 41
30.0
 62
     5
 63
     7
 74
     0
 91
        4
 64
     7
 65
   257
 75
     1
175
     1
 42
1.0
 92
        0
 66
     7
 43
1.0
 76
     1
 77
     6
 78
     2
 67
     7
 79
     5
170
     0
171
     0
290
     0
174
     0
 93
       13
 44
0.0
173
     0
291
     1
 45
0.0
1001
ACAD
1000
AcDbSavedByObjectVersion
1070
     0
  0
VISUALSTYLE
  5
3F6
102
{ACAD_XDICTIONARY
360
1294
102
}
102
{ACAD_REACTORS
330
3F2
102
}
330
3F2
100
AcDbVisualStyle
  2
GouraudWithEdges
 70
     3
 71
     2
 72
     2
 73
     1
 90
        2
 40
-0.6
 41
30.0
 62
     5
 63
     7
 74
     1
 91
        4
 64
     7
 65
   257
 75
     1
175
     1
 42
1.0
 92
        0
 66
   257
 43
1.0
 76
     1
 77
     6
 78
     2
 67
     7
 79
     5
170
     0
171
     0
290
     0
174
     0
 93
       13
 44
0.0
173
     0
291
     1
 45
0.0
1001
ACAD
1000
AcDbSavedByObjectVersion
1070
     0
  0
VISUALSTYLE
  5
CE7
102
{ACAD_XDICTIONARY
360
12BF
102
}
102
{ACAD_REACTORS
330
3F2
102
}
330
3F2
100
AcDbVisualStyle
  2
Hidden
 70
     6
 71
     1
 72
     2
 73
     2
 90
        0
 40
-0.6
 41
-30.0
 62
     5
 63
     7
 74
     2
 91
        2
 64
     7
 65
   257
 75
     2
175
     1
 42
40.0
 92
        0
 66
   257
 43
1.0
 76
     1
 77
     6
 78
     2
 67
     7
 79
     3
170
     0
171
     0
290
     0
174
     0
 93
        1
 44
0.0
173
     0
291
     0
 45
0.0
1001
ACAD
1000
AcDbSavedByObjectVersion
1070
     0
  0
VISUALSTYLE
  5
BDD
102
{ACAD_XDICTIONARY
360
12B7
102
}
102
{ACAD_REACTORS
330
3F2
102
}
330
3F2
100
AcDbVisualStyle
  2
JitterOff
 70
    20
 71
     2
 72
     2
 73
     0
 90
        0
 40
-0.6
 41
-30.0
 62
     5
 63
     7
 74
     1
 91
        4
 64
     7
 65
   257
 75
     1
175
     1
 42
1.0
 92
       10
 66
     7
 43
1.0
 76
     1
 77
     6
 78
     2
 67
     7
 79
     5
170
     0
171
     0
290
     0
174
     0
 93
        1
 44
0.0
173
     0
291
     1
 45
0.0
1001
ACAD
1000
AcDbSavedByObjectVersion
1070
     0
  0
VISUALSTYLE
  5
400
102
{ACAD_XDICTIONARY
360
12A8
102
}
102
{ACAD_REACTORS
330
3F2
102
}
330
3F2
100
AcDbVisualStyle
  2
Linepattern
 70
    14
 71
     2
 72
     2
 73
     0
 90
        0
 40
-0.6
 41
-30.0
 62
     5
 63
     7
 74
     1
 91
        4
 64
     7
 65
   257
 75
     7
175
     7
 42
1.0
 92
        8
 66
     7
 43
1.0
 76
     1
 77
     6
 78
     2
 67
     7
 79
     5
170
     0
171
     0
290
     0
174
     0
 93
        1
 44
0.0
173
     0
291
     1
 45
0.0
1001
ACAD
1000
AcDbSavedByObjectVersion
1070
     0
  0
VISUALSTYLE
  5
BDE
102
{ACAD_XDICTIONARY
360
12B9
102
}
102
{ACAD_REACTORS
330
3F2
102
}
330
3F2
100
AcDbVisualStyle
  2
OverhangOff
 70
    21
 71
     2
 72
     2
 73
     0
 90
        0
 40
-0.6
 41
-30.0
 62
     5
 63
     7
 74
     1
 91
        4
 64
     7
 65
   257
 75
     1
175
     1
 42
1.0
 92
        9
 66
     7
 43
1.0
 76
     1
 77
     6
 78
     2
 67
     7
 79
     5
170
     0
171
     0
290
     0
174
     0
 93
        1
 44
0.0
173
     0
291
     1
 45
0.0
1001
ACAD
1000
AcDbSavedByObjectVersion
1070
     0
  0
VISUALSTYLE
  5
3FC
102
{ACAD_XDICTIONARY
360
12A0
102
}
102
{ACAD_REACTORS
330
3F2
102
}
330
3F2
100
AcDbVisualStyle
  2
Realistic
 70
     8
 71
     2
 72
     2
 73
     0
 90
        0
 40
-0.6
 41
-30.0
 62
     5
 63
     7
 74
     1
 91
        0
 64
     7
 65
   257
 75
     1
175
     1
 42
1.0
 92
        8
 66
     8
 43
1.0
 76
     1
 77
     6
 78
     2
 67
     7
 79
     5
170
     0
171
     0
290
     0
174
     0
 93
       13
 44
0.0
173
     0
291
     0
 45
0.0
1001
ACAD
1000
AcDbSavedByObjectVersion
1070
     0
  0
VISUALSTYLE
  5
CEC
102
{ACAD_XDICTIONARY
360
12C9
102
}
102
{ACAD_REACTORS
330
3F2
102
}
330
3F2
100
AcDbVisualStyle
  2
Shaded
 70
    27
 71
     2
 72
     2
 73
     1
 90
        2
 40
-0.6
 41
30.0
 62
     5
 63
     7
 74
     0
 91
        4
 64
     7
 65
   257
 75
     1
175
     1
 42
1.0
 92
        8
 66
   257
 43
1.0
 76
     1
 77
     6
 78
     2
 67
     8
 79
     3
170
     0
171
     0
290
     0
174
     0
 93
        5
 44
0.0
173
     0
291
     0
 45
0.0
1001
ACAD
1000
AcDbSavedByObjectVersion
1070
     0
  0
VISUALSTYLE
  5
CEB
102
{ACAD_XDICTIONARY
360
12C7
102
}
102
{ACAD_REACTORS
330
3F2
102
}
330
3F2
100
AcDbVisualStyle
  2
Shaded with edges
 70
    26
 71
     2
 72
     2
 73
     1
 90
        2
 40
-0.6
 41
30.0
 62
     5
 63
     7
 74
     1
 91
       10
 64
     7
 65
   257
 75
     2
175
     1
 42
1.0
 92
        8
 66
   257
 43
1.0
 76
     1
 77
     6
 78
     2
 67
     7
 79
     3
170
     0
171
     0
290
     0
174
     0
 93
        5
 44
0.0
173
     0
291
     0
 45
0.0
1001
ACAD
1000
AcDbSavedByObjectVersion
1070
     0
  0
VISUALSTYLE
  5
CE8
102
{ACAD_XDICTIONARY
360
12C1
102
}
102
{ACAD_REACTORS
330
3F2
102
}
330
3F2
100
AcDbVisualStyle
  2
Shades of Gray
 70
    23
 71
     2
 72
     2
 73
     3
 90
        0
 40
-0.6
 41
-30.0
 62
     5
 63
     7
 74
     2
 91
        2
 64
     7
 65
     7
 75
     1
175
     1
 42
40.0
 92
        8
 66
     7
 43
1.0
 76
     1
 77
     6
 78
     2
 67
     7
 79
     3
170
     0
171
     0
290
     0
174
     0
 93
        1
 44
0.0
173
     0
291
     0
 45
0.0
1001
ACAD
1000
AcDbSavedByObjectVersion
1070
     0
  0
VISUALSTYLE
  5
CE9
102
{ACAD_XDICTIONARY
360
12C3
102
}
102
{ACAD_REACTORS
330
3F2
102
}
330
3F2
100
AcDbVisualStyle
  2
Sketchy
 70
    24
 71
     1
 72
     2
 73
     2
 90
        0
 40
-0.6
 41
-30.0
 62
     5
 63
     7
 74
     2
 91
        2
 64
     7
 65
     7
 75
     1
175
     1
 42
40.0
 92
       11
 66
     7
 43
1.0
 76
     1
 77
     6
 78
     2
 67
     7
 79
     6
170
     0
171
     0
290
     0
174
     0
 93
        1
 44
0.0
173
     0
291
     0
 45
0.0
1001
ACAD
1000
AcDbSavedByObjectVersion
1070
     0
  0
VISUALSTYLE
  5
3FF
102
{ACAD_XDICTIONARY
360
12A6
102
}
102
{ACAD_REACTORS
330
3F2
102
}
330
3F2
100
AcDbVisualStyle
  2
Thicken
 70
    13
 71
     2
 72
     2
 73
     0
 90
        0
 40
-0.6
 41
-30.0
 62
     5
 63
     7
 74
     1
 91
        4
 64
     7
 65
   257
 75
     1
175
     1
 42
1.0
 92
       12
 66
     7
 43
1.0
 76
     1
 77
     6
 78
     2
 67
     7
 79
     5
170
     0
171
     0
290
     0
174
     0
 93
        1
 44
0.0
173
     0
291
     1
 45
0.0
1001
ACAD
1000
AcDbSavedByObjectVersion
1070
     0
  0
VISUALSTYLE
  5
CE6
102
{ACAD_XDICTIONARY
360
12BD
102
}
102
{ACAD_REACTORS
330
3F2
102
}
330
3F2
100
AcDbVisualStyle
  2
Wireframe
 70
     5
 71
     0
 72
     2
 73
     0
 90
        0
 40
-0.6
 41
-30.0
 62
     5
 63
     7
 74
     1
 91
        4
 64
     7
 65
   257
 75
     1
175
     1
 42
1.0
 92
        0
 66
   257
 43
1.0
 76
     1
 77
     6
 78
     2
 67
     7
 79
     3
170
     0
171
     0
290
     0
174
     0
 93
        1
 44
0.0
173
     0
291
     0
 45
0.0
1001
ACAD
1000
AcDbSavedByObjectVersion
1070
     0
  0
VISUALSTYLE
  5
CEA
102
{ACAD_XDICTIONARY
360
12C5
102
}
102
{ACAD_REACTORS
330
3F2
102
}
330
3F2
100
AcDbVisualStyle
  2
X-Ray
 70
    25
 71
     2
 72
     2
 73
     1
 90
        1
 40
0.5
 41
-30.0
 62
     5
 63
     7
 74
     1
 91
        0
 64
     7
 65
   257
 75
     1
175
     1
 42
1.0
 92
        8
 66
     7
 43
1.0
 76
     1
 77
     6
 78
     2
 67
     7
 79
     3
170
     0
171
     0
290
     0
174
     0
 93
       13
 44
0.0
173
     0
291
     0
 45
0.0
1001
ACAD
1000
AcDbSavedByObjectVersion
1070
     0
  0
DICTIONARYVAR
  5
57C
102
{ACAD_REACTORS
330
357
102
}
330
357
100
DictionaryVariables
280
     0
  1
1:1
  0
DICTIONARYVAR
  5
57A
102
{ACAD_REACTORS
330
357
102
}
330
357
100
DictionaryVariables
280
     0
  1
STANDARD
  0
DICTIONARYVAR
  5
38E
102
{ACAD_REACTORS
330
357
102
}
330
357
100
DictionaryVariables
280
     0
  1
STANDARD
  0
DICTIONARYVAR
  5
D2C
102
{ACAD_REACTORS
330
357
102
}
330
357
100
DictionaryVariables
280
     0
  1
Metric50
  0
DICTIONARYVAR
  5
D2D
102
{ACAD_REACTORS
330
357
102
}
330
357
100
DictionaryVariables
280
     0
  1
Metric50
  0
DICTIONARYVAR
  5
359
102
{ACAD_REACTORS
330
357
102
}
330
357
100
DictionaryVariables
280
     0
  1
2
  0
DICTIONARYVAR
  5
358
102
{ACAD_REACTORS
330
357
102
}
330
357
100
DictionaryVariables
280
     0
  1
1
  0
DICTIONARYVAR
  5
ACC
102
{ACAD_REACTORS
330
357
102
}
330
357
100
DictionaryVariables
280
     0
  1
0
  0
DICTIONARYVAR
  5
BF1
102
{ACAD_REACTORS
330
357
102
}
330
357
100
DictionaryVariables
280
     0
  1
1
  0
DICTIONARYVAR
  5
BF2
102
{ACAD_REACTORS
330
357
102
}
330
357
100
DictionaryVariables
280
     0
  1
15
  0
DICTIONARYVAR
  5
57D
102
{ACAD_REACTORS
330
357
102
}
330
357
100
DictionaryVariables
280
     0
  1
0
  0
DICTIONARYVAR
  5
57B
102
{ACAD_REACTORS
330
357
102
}
330
357
100
DictionaryVariables
280
     0
  1
0
  0
DICTIONARYVAR
  5
1277
102
{ACAD_REACTORS
330
357
102
}
330
357
100
DictionaryVariables
280
     0
  1
1
  0
DICTIONARYVAR
  5
ACB
102
{ACAD_REACTORS
330
357
102
}
330
357
100
DictionaryVariables
280
     0
  1
127
  0
DICTIONARYVAR
  5
1276
102
{ACAD_REACTORS
330
357
102
}
330
357
100
DictionaryVariables
280
     0
  1
0
  0
DICTIONARY
  5
1285
102
{ACAD_REACTORS
330
1283
102
}
330
1283
100
AcDbDictionary
281
     1
  0
DICTIONARY
  5
1284
102
{ACAD_REACTORS
330
1283
102
}
330
1283
100
AcDbDictionary
281
     1
  3
8796087936864
350
127E
  3
8796087936880
350
127F
  3
8796087937024
350
1280
  3
8796087937040
350
1281
  3
8796087937056
350
1282
  0
DICTIONARY
  5
4DC
102
{ACAD_REACTORS
330
4D1
102
}
330
4D1
100
AcDbDictionary
281
     1
  0
XRECORD
  5
4F3
102
{ACAD_REACTORS
330
4D1
102
}
330
4D1
100
AcDbXrecord
280
     1
 90
-1023410169
  0
XRECORD
  5
8E9
102
{ACAD_REACTORS
330
567
102
}
330
567
100
AcDbXrecord
280
     1
 91
     1023
301

290
     0
302
1
  8
200
 90
        8
 62
     2
370
    50
331
14
  1
Color_2
  8
160
 90
        8
 62
     1
370
    35
331
14
  1
Color_1
  8
150
 90
        8
 62
    96
370
    50
331
14
  1
Color_96
 92
-1040154880
  8
140
 90
        8
 62
     5
370
    35
331
14
  1
Color_5
  8
130
 90
        8
 62
     6
370
    35
331
14
  1
Color_6
  8
120
 90
        8
 62
     3
370
    50
331
14
  1
Color_3
  8
110
 90
        8
 62
     7
370
    25
331
14
  1
Color_7
  8
100
 90
        8
 62
     4
370
    50
331
14
  1
Color_4
  8
INFTEXT69
 90
        8
 62
     5
370
    -3
331
14
  1
Color_5
  8
INFTEXT68
 90
        8
 62
     5
370
    -3
331
14
  1
Color_5
  8
INFTEXT67
 90
        8
 62
     5
370
    -3
331
14
  1
Color_5
  8
INFTEXT66
 90
        8
 62
     5
370
    -3
331
14
  1
Color_5
  8
INFTEXT65
 90
        8
 62
     5
370
    -3
331
14
  1
Color_5
  8
INFTEXT64
 90
        8
 62
     5
370
    -3
331
14
  1
Color_5
  8
INFTEXT63
 90
        8
 62
     5
370
    -3
331
14
  1
Color_5
  8
INFTEXT62
 90
        8
 62
     5
370
    -3
331
14
  1
Color_5
  8
RECON69
 90
        8
 62
     5
370
    35
331
14
  1
Color_5
  8
RECON68
 90
        8
 62
     5
370
    35
331
14
  1
Color_5
  8
RECON67
 90
        8
 62
     5
370
    35
331
14
  1
Color_5
  8
RECON66
 90
        8
 62
     5
370
    35
331
14
  1
Color_5
  8
RECON65
 90
        8
 62
     5
370
    35
331
14
  1
Color_5
  8
RECON64
 90
        8
 62
     5
370
    35
331
14
  1
Color_5
  8
RECON63
 90
        8
 62
     5
370
    35
331
14
  1
Color_5
  8
RECON62
 90
        8
 62
     5
370
    35
331
14
  1
Color_5
  8
RECON61
 90
        8
 62
     5
370
    35
331
14
  1
Color_5
  8
SK69
 90
        8
 62
     5
370
    35
331
14
  1
Color_5
  8
SK68
 90
        8
 62
     5
370
    35
331
14
  1
Color_5
  8
SK67
 90
        8
 62
     5
370
    35
331
14
  1
Color_5
  8
SK66
 90
        8
 62
     5
370
    35
331
14
  1
Color_5
  8
SK65
 90
        8
 62
     5
370
    35
331
14
  1
Color_5
  8
SK64
 90
        8
 62
     5
370
    35
331
14
  1
Color_5
  8
SK63
 90
        8
 62
     5
370
    35
331
14
  1
Color_5
  8
SK62
 90
        8
 62
     5
370
    35
331
14
  1
Color_5
  8
SK61
 90
        8
 62
     5
370
    35
331
14
  1
Color_5
  8
SKVIEW69
 90
        8
 62
     5
370
    35
331
14
  1
Color_5
  8
SKVIEW68
 90
        8
 62
     5
370
    35
331
14
  1
Color_5
  8
SKVIEW67
 90
        8
 62
     5
370
    35
331
14
  1
Color_5
  8
SKVIEW66
 90
        8
 62
     5
370
    35
331
14
  1
Color_5
  8
SKVIEW65
 90
        8
 62
     5
370
    35
331
14
  1
Color_5
  8
SKVIEW64
 90
        8
 62
     5
370
    35
331
14
  1
Color_5
  8
SKVIEW63
 90
        8
 62
     5
370
    35
331
14
  1
Color_5
  8
SKVIEW62
 90
        8
 62
     5
370
    35
331
14
  1
Color_5
  8
SKVIEW61
 90
        8
 62
     5
370
    35
331
14
  1
Color_5
  8
69
 90
        8
 62
     5
370
    35
331
14
  1
Color_5
  8
68
 90
        8
 62
     5
370
    35
331
14
  1
Color_5
  8
67
 90
        8
 62
     5
370
    35
331
14
  1
Color_5
  8
66
 90
        8
 62
     5
370
    35
331
14
  1
Color_5
  8
65
 90
        8
 62
     5
370
    35
331
14
  1
Color_5
  8
64
 90
        8
 62
     5
370
    35
331
14
  1
Color_5
  8
63
 90
        8
 62
     5
370
    35
331
14
  1
Color_5
  8
62
 90
        8
 62
     5
370
    35
331
14
  1
Color_5
  8
61
 90
        8
 62
     5
370
    35
331
14
  1
Color_5
  8
59
 90
        8
 62
     5
370
    -3
331
14
  1
Color_5
  8
58
 90
        8
 62
     5
370
    -3
331
14
  1
Color_5
  8
57
 90
        8
 62
     5
370
    -3
331
14
  1
Color_5
  8
56
 90
        8
 62
     5
370
    -3
331
14
  1
Color_5
  8
55
 90
        8
 62
     5
370
    -3
331
14
  1
Color_5
  8
54
 90
        8
 62
     5
370
    -3
331
14
  1
Color_5
  8
53
 90
        8
 62
     5
370
    -3
331
14
  1
Color_5
  8
52
 90
        8
 62
     5
370
    -3
331
14
  1
Color_5
  8
51
 90
        8
 62
     5
370
    -3
331
14
  1
Color_5
  8
FRAME59
 90
        8
 62
     7
370
    -3
331
14
  1
Color_7
  8
FRAME58
 90
        8
 62
     7
370
    -3
331
14
  1
Color_7
  8
FRAME57
 90
        8
 62
     7
370
    -3
331
14
  1
Color_7
  8
FRAME56
 90
        8
 62
     7
370
    -3
331
14
  1
Color_7
  8
FRAME55
 90
        8
 62
     7
370
    -3
331
14
  1
Color_7
  8
FRAME54
 90
        8
 62
     7
370
    -3
331
14
  1
Color_7
  8
FRAME53
 90
        8
 62
     7
370
    -3
331
14
  1
Color_7
  8
FRAME52
 90
        8
 62
     7
370
    -3
331
14
  1
Color_7
  8
RECON7
 90
        8
 62
     5
370
    25
331
14
  1
Color_5
  8
RECON6
 90
        8
 62
     5
370
    35
331
14
  1
Color_5
  8
RECON4
 90
        8
 62
     2
370
    25
331
14
  1
Color_2
  8
RECON3
 90
        8
 62
     1
370
    35
331
14
  1
Color_1
  8
RECON2
 90
        8
 62
     7
370
    25
331
14
  1
Color_7
  8
RECON1
 90
        8
 62
     4
370
    50
331
14
  1
Color_4
  8
SKVIEW7
 90
        8
 62
     5
370
    25
331
14
  1
Color_5
  8
SK7
 90
        8
 62
     5
370
    25
331
14
  1
Color_5
  8
7
 90
        8
 62
     5
370
    25
331
14
  1
Color_5
  8
INFMAINVIEW
 90
        8
 62
     9
370
    18
331
14
  1
Color_9
  8
INFTOTAL
 90
        8
 62
     9
370
    18
331
14
  1
Color_9
  8
INFTEXT61
 90
        8
 62
     5
370
    -3
331
14
  1
Color_5
  8
INFWKP
 90
        8
 62
    30
370
    25
331
14
  1
Color_30
  8
SKVIEW6
 90
        8
 62
     5
370
    35
331
14
  1
Color_5
  8
SKVIEW4
 90
        8
 62
     2
370
    25
331
14
  1
Color_2
  8
SKVIEW3
 90
        8
 62
     1
370
    35
331
14
  1
Color_1
  8
SKVIEW2
 90
        8
 62
     7
370
    25
331
14
  1
Color_7
  8
SKVIEW1
 90
        8
 62
     4
370
    50
331
14
  1
Color_4
  8
NOCUT
 90
        8
 62
     7
370
    25
331
14
  1
Color_7
  8
CUT
 90
        8
 62
     1
370
    25
331
14
  1
Color_1
  8
DEFPOINTS
 90
        0
 62
     7
370
    -3
331
14
  1
Color_7
  8
SK6
 90
        8
 62
     5
370
    35
331
14
  1
Color_5
  8
6
 90
        8
 62
     5
370
    35
331
14
  1
Color_5
  8
FRAME51
 90
        8
 62
     7
370
    -3
331
14
  1
Color_7
  8
SK4
 90
        8
 62
     2
370
    25
331
14
  1
Color_2
  8
4
 90
        8
 62
     2
370
    25
331
14
  1
Color_2
  8
SK3
 90
        8
 62
     1
370
    35
331
14
  1
Color_1
  8
3
 90
        8
 62
     1
370
    35
331
14
  1
Color_1
  8
SK2
 90
        8
 62
     7
370
    25
331
14
  1
Color_7
  8
2
 90
        8
 62
     7
370
    25
331
14
  1
Color_7
  8
SK1
 90
        8
 62
     4
370
    50
331
14
  1
Color_4
  8
1
 90
        8
 62
     4
370
    50
331
14
  1
Color_4
  8
0
 90
        0
 62
     7
370
    -3
331
14
  1
Color_7
  0
DICTIONARY
  5
D27
330
CF0
100
AcDbDictionary
280
     1
281
     1
  3
ACAD_XREC_ROUNDTRIP
360
12CC
  0
DICTIONARY
  5
B74
330
B57
100
AcDbDictionary
280
     1
281
     1
  3
ACAD_XREC_ROUNDTRIP
360
12B4
  0
DICTIONARY
  5
BEF
330
303
100
AcDbDictionary
280
     1
281
     1
  3
ACAD_XREC_ROUNDTRIP
360
1286
  0
DICTIONARY
  5
128A
330
3F0
100
AcDbDictionary
280
     1
281
     1
  3
ACAD_XREC_ROUNDTRIP
360
128B
  0
DICTIONARY
  5
1288
330
3EF
100
AcDbDictionary
280
     1
281
     1
  3
ACAD_XREC_ROUNDTRIP
360
1289
  0
DICTIONARY
  5
128C
330
3F1
100
AcDbDictionary
280
     1
281
     1
  3
ACAD_XREC_ROUNDTRIP
360
128D
  0
DICTIONARY
  5
12AE
330
470
100
AcDbDictionary
280
     1
281
     1
  3
ACAD_XREC_ROUNDTRIP
360
12AF
  0
DICTIONARY
  5
12B0
330
7EF
100
AcDbDictionary
280
     1
281
     1
  3
ACAD_XREC_ROUNDTRIP
360
12B1
  0
DICTIONARY
  5
12B2
330
7F8
100
AcDbDictionary
280
     1
281
     1
  3
ACAD_XREC_ROUNDTRIP
360
12B3
  0
DICTIONARY
  5
D25
330
CEE
100
AcDbDictionary
280
     1
281
     1
  3
ACAD_XREC_ROUNDTRIP
360
12CB
  0
DICTIONARY
  5
577
330
389
100
AcDbDictionary
280
     1
281
     1
  3
ACAD_ROUNDTRIP_2008_TABLESTYLE_CELLSTYLEMAP
360
1278
  3
ACAD_XREC_ROUNDTRIP
360
1287
  0
DICTIONARY
  5
1298
330
3F8
100
AcDbDictionary
280
     1
281
     1
  3
ACAD_XREC_ROUNDTRIP
360
1299
  0
DICTIONARY
  5
129C
330
3FA
100
AcDbDictionary
280
     1
281
     1
  3
ACAD_XREC_ROUNDTRIP
360
129D
  0
DICTIONARY
  5
129A
330
3F9
100
AcDbDictionary
280
     1
281
     1
  3
ACAD_XREC_ROUNDTRIP
360
129B
  0
DICTIONARY
  5
1296
330
3F7
100
AcDbDictionary
280
     1
281
     1
  3
ACAD_XREC_ROUNDTRIP
360
1297
  0
DICTIONARY
  5
12A4
330
3FE
100
AcDbDictionary
280
     1
281
     1
  3
ACAD_XREC_ROUNDTRIP
360
12A5
  0
DICTIONARY
  5
12AC
330
402
100
AcDbDictionary
280
     1
281
     1
  3
ACAD_XREC_ROUNDTRIP
360
12AD
  0
DICTIONARY
  5
129E
330
3FB
100
AcDbDictionary
280
     1
281
     1
  3
ACAD_XREC_ROUNDTRIP
360
129F
  0
DICTIONARY
  5
12A2
330
3FD
100
AcDbDictionary
280
     1
281
     1
  3
ACAD_XREC_ROUNDTRIP
360
12A3
  0
DICTIONARY
  5
12BB
330
BDF
100
AcDbDictionary
280
     1
281
     1
  3
ACAD_XREC_ROUNDTRIP
360
12BC
  0
DICTIONARY
  5
12AA
330
401
100
AcDbDictionary
280
     1
281
     1
  3
ACAD_XREC_ROUNDTRIP
360
12AB
  0
DICTIONARY
  5
128E
330
3F3
100
AcDbDictionary
280
     1
281
     1
  3
ACAD_XREC_ROUNDTRIP
360
128F
  0
DICTIONARY
  5
1290
330
3F4
100
AcDbDictionary
280
     1
281
     1
  3
ACAD_XREC_ROUNDTRIP
360
1291
  0
DICTIONARY
  5
1292
330
3F5
100
AcDbDictionary
280
     1
281
     1
  3
ACAD_XREC_ROUNDTRIP
360
1293
  0
DICTIONARY
  5
1294
330
3F6
100
AcDbDictionary
280
     1
281
     1
  3
ACAD_XREC_ROUNDTRIP
360
1295
  0
DICTIONARY
  5
12BF
330
CE7
100
AcDbDictionary
280
     1
281
     1
  3
ACAD_XREC_ROUNDTRIP
360
12C0
  0
DICTIONARY
  5
12B7
330
BDD
100
AcDbDictionary
280
     1
281
     1
  3
ACAD_XREC_ROUNDTRIP
360
12B8
  0
DICTIONARY
  5
12A8
330
400
100
AcDbDictionary
280
     1
281
     1
  3
ACAD_XREC_ROUNDTRIP
360
12A9
  0
DICTIONARY
  5
12B9
330
BDE
100
AcDbDictionary
280
     1
281
     1
  3
ACAD_XREC_ROUNDTRIP
360
12BA
  0
DICTIONARY
  5
12A0
330
3FC
100
AcDbDictionary
280
     1
281
     1
  3
ACAD_XREC_ROUNDTRIP
360
12A1
  0
DICTIONARY
  5
12C9
330
CEC
100
AcDbDictionary
280
     1
281
     1
  3
ACAD_XREC_ROUNDTRIP
360
12CA
  0
DICTIONARY
  5
12C7
330
CEB
100
AcDbDictionary
280
     1
281
     1
  3
ACAD_XREC_ROUNDTRIP
360
12C8
  0
DICTIONARY
  5
12C1
330
CE8
100
AcDbDictionary
280
     1
281
     1
  3
ACAD_XREC_ROUNDTRIP
360
12C2
  0
DICTIONARY
  5
12C3
330
CE9
100
AcDbDictionary
280
     1
281
     1
  3
ACAD_XREC_ROUNDTRIP
360
12C4
  0
DICTIONARY
  5
12A6
330
3FF
100
AcDbDictionary
280
     1
281
     1
  3
ACAD_XREC_ROUNDTRIP
360
12A7
  0
DICTIONARY
  5
12BD
330
CE6
100
AcDbDictionary
280
     1
281
     1
  3
ACAD_XREC_ROUNDTRIP
360
12BE
  0
DICTIONARY
  5
12C5
330
CEA
100
AcDbDictionary
280
     1
281
     1
  3
ACAD_XREC_ROUNDTRIP
360
12C6
  0
XRECORD
  5
127E
102
{ACAD_REACTORS
330
1284
102
}
330
1284
100
AcDbXrecord
280
     1
  1
AcDb_Thumbnail_Schema
102
{ATTRRECORD
341
127F
  2
AcDbDs::TreatedAsObjectData
280
     1
291
     1
102
ATTRRECORD}
102
{ATTRRECORD
341
1280
  2
AcDbDs::Legacy
280
     1
291
     1
102
ATTRRECORD}
  2
AcDbDs::ID
280
    10
 91
        8
102
{ATTRRECORD
341
1281
  2
AcDs:Indexable
280
     1
291
     1
102
ATTRRECORD}
102
{ATTRRECORD
341
1282
  2
AcDbDs::HandleAttribute
280
     7
282
     1
102
ATTRRECORD}
  2
Thumbnail_Data
280
    15
 91
        0
  0
XRECORD
  5
127F
102
{ACAD_REACTORS
330
1284
102
}
330
1284
100
AcDbXrecord
280
     1
  1
AcDbDs::TreatedAsObjectDataSchema
  2
AcDbDs::TreatedAsObjectData
280
     1
 91
        0
  0
XRECORD
  5
1280
102
{ACAD_REACTORS
330
1284
102
}
330
1284
100
AcDbXrecord
280
     1
  1
AcDbDs::LegacySchema
  2
AcDbDs::Legacy
280
     1
 91
        0
  0
XRECORD
  5
1281
102
{ACAD_REACTORS
330
1284
102
}
330
1284
100
AcDbXrecord
280
     1
  1
AcDbDs::IndexedPropertySchema
  2
AcDs:Indexable
280
     1
 91
        0
  0
XRECORD
  5
1282
102
{ACAD_REACTORS
330
1284
102
}
330
1284
100
AcDbXrecord
280
     1
  1
AcDbDs::HandleAttributeSchema
  2
AcDbDs::HandleAttribute
280
     7
 91
        1
284
     1
  0
XRECORD
  5
12CC
102
{ACAD_REACTORS
330
D27
102
}
330
D27
100
AcDbXrecord
280
     1
102
DISPLAYNAME
  1
Metric50
102
FLAGS
 90
        0
  0
XRECORD
  5
12B4
102
{ACAD_REACTORS
330
B74
102
}
330
B74
100
AcDbXrecord
280
     1
102
SHADEPLOT
 70
     0
102
SHADEPLOTRESLEVEL
 70
     2
102
SHADEPLOTCUSTOMDPI
 70
   300
  0
XRECORD
  5
1286
102
{ACAD_REACTORS
330
BEF
102
}
330
BEF
100
AcDbXrecord
280
     1
102
SHADEPLOT
 70
     0
102
SHADEPLOTRESLEVEL
 70
     2
102
SHADEPLOTCUSTOMDPI
 70
   300
  0
XRECORD
  5
128B
102
{ACAD_REACTORS
330
128A
102
}
330
128A
100
AcDbXrecord
280
     1
102
MATERIAL
148
0.0
149
0.0
149
0.0
 93
        0
 94
       63
282
     0
 72
     1
 77
     1
171
     1
175
     1
179
     1
273
     0
  0
XRECORD
  5
1289
102
{ACAD_REACTORS
330
1288
102
}
330
1288
100
AcDbXrecord
280
     1
102
MATERIAL
148
0.0
149
0.0
149
0.0
 93
        0
 94
       63
282
     0
 72
     1
 77
     1
171
     1
175
     1
179
     1
273
     0
  0
XRECORD
  5
128D
102
{ACAD_REACTORS
330
128C
102
}
330
128C
100
AcDbXrecord
280
     1
102
MATERIAL
148
0.0
149
0.0
149
0.0
 93
        0
 94
       63
282
     0
 72
     1
 77
     1
171
     1
175
     1
179
     1
273
     0
  0
XRECORD
  5
12AF
102
{ACAD_REACTORS
330
12AE
102
}
330
12AE
100
AcDbXrecord
280
     1
102
ACAD_ROUNDTRIP_2012_MLEADER_STYLE
298
     1
  0
XRECORD
  5
12B1
102
{ACAD_REACTORS
330
12B0
102
}
330
12B0
100
AcDbXrecord
280
     1
102
SHADEPLOT
 70
     0
102
SHADEPLOTRESLEVEL
 70
     2
102
SHADEPLOTCUSTOMDPI
 70
   300
  0
XRECORD
  5
12B3
102
{ACAD_REACTORS
330
12B2
102
}
330
12B2
100
AcDbXrecord
280
     1
102
SHADEPLOT
 70
     0
102
SHADEPLOTRESLEVEL
 70
     2
102
SHADEPLOTCUSTOMDPI
 70
   300
  0
XRECORD
  5
12CB
102
{ACAD_REACTORS
330
D25
102
}
330
D25
100
AcDbXrecord
280
     1
102
DISPLAYNAME
  1
Metric50
102
FLAGS
 90
        0
  0
CELLSTYLEMAP
  5
1278
102
{ACAD_REACTORS
330
577
102
}
330
577
100
AcDbCellStyleMap
 90
        3
300
CELLSTYLE
  1
TABLEFORMAT_BEGIN
 90
        5
170
     1
 91
        0
 92
    32768
 62
   257
 93
        1
300
CONTENTFORMAT
  1
CONTENTFORMAT_BEGIN
 90
        0
 91
        0
 92
        4
 93
        0
300

 40
0.0
140
1.0
 94
        5
 62
     0
340
1E
144
6.0
309
CONTENTFORMAT_END
171
     1
301
MARGIN
  1
CELLMARGIN_BEGIN
 40
1.5
 40
1.5
 40
1.5
 40
1.5
 40
0.18
 40
0.18
309
CELLMARGIN_END
 94
        6
 95
        1
302
GRIDFORMAT
  1
GRIDFORMAT_BEGIN
 90
        0
 91
        1
 62
     0
 92
       -2
340
0
 93
        0
 40
0.045
309
GRIDFORMAT_END
 95
        2
302
GRIDFORMAT
  1
GRIDFORMAT_BEGIN
 90
        0
 91
        1
 62
     0
 92
       -2
340
0
 93
        0
 40
0.045
309
GRIDFORMAT_END
 95
        4
302
GRIDFORMAT
  1
GRIDFORMAT_BEGIN
 90
        0
 91
        1
 62
     0
 92
       -2
340
0
 93
        0
 40
0.045
309
GRIDFORMAT_END
 95
        8
302
GRIDFORMAT
  1
GRIDFORMAT_BEGIN
 90
        0
 91
        1
 62
     0
 92
       -2
340
0
 93
        0
 40
0.045
309
GRIDFORMAT_END
 95
       16
302
GRIDFORMAT
  1
GRIDFORMAT_BEGIN
 90
        0
 91
        1
 62
     0
 92
       -2
340
0
 93
        0
 40
0.045
309
GRIDFORMAT_END
 95
       32
302
GRIDFORMAT
  1
GRIDFORMAT_BEGIN
 90
        0
 91
        1
 62
     0
 92
       -2
340
0
 93
        0
 40
0.045
309
GRIDFORMAT_END
309
TABLEFORMAT_END
  1
CELLSTYLE_BEGIN
 90
        1
 91
        1
300
_TITLE
309
CELLSTYLE_END
300
CELLSTYLE
  1
TABLEFORMAT_BEGIN
 90
        5
170
     1
 91
        0
 92
        0
 62
   257
 93
        1
300
CONTENTFORMAT
  1
CONTENTFORMAT_BEGIN
 90
        0
 91
        0
 92
        4
 93
        0
300

 40
0.0
140
1.0
 94
        5
 62
     0
340
10
144
4.5
309
CONTENTFORMAT_END
171
     1
301
MARGIN
  1
CELLMARGIN_BEGIN
 40
1.5
 40
1.5
 40
1.5
 40
1.5
 40
0.18
 40
0.18
309
CELLMARGIN_END
 94
        6
 95
        1
302
GRIDFORMAT
  1
GRIDFORMAT_BEGIN
 90
        0
 91
        1
 62
     0
 92
       -2
340
0
 93
        0
 40
0.045
309
GRIDFORMAT_END
 95
        2
302
GRIDFORMAT
  1
GRIDFORMAT_BEGIN
 90
        0
 91
        1
 62
     0
 92
       -2
340
0
 93
        0
 40
0.045
309
GRIDFORMAT_END
 95
        4
302
GRIDFORMAT
  1
GRIDFORMAT_BEGIN
 90
        0
 91
        1
 62
     0
 92
       -2
340
0
 93
        0
 40
0.045
309
GRIDFORMAT_END
 95
        8
302
GRIDFORMAT
  1
GRIDFORMAT_BEGIN
 90
        0
 91
        1
 62
     0
 92
       -2
340
0
 93
        0
 40
0.045
309
GRIDFORMAT_END
 95
       16
302
GRIDFORMAT
  1
GRIDFORMAT_BEGIN
 90
        0
 91
        1
 62
     0
 92
       -2
340
0
 93
        0
 40
0.045
309
GRIDFORMAT_END
 95
       32
302
GRIDFORMAT
  1
GRIDFORMAT_BEGIN
 90
        0
 91
        1
 62
     0
 92
       -2
340
0
 93
        0
 40
0.045
309
GRIDFORMAT_END
309
TABLEFORMAT_END
  1
CELLSTYLE_BEGIN
 90
        2
 91
        1
300
_HEADER
309
CELLSTYLE_END
300
CELLSTYLE
  1
TABLEFORMAT_BEGIN
 90
        5
170
     1
 91
        0
 92
        0
 62
   257
 93
        1
300
CONTENTFORMAT
  1
CONTENTFORMAT_BEGIN
 90
        0
 91
        0
 92
        4
 93
        0
300

 40
0.0
140
1.0
 94
        2
 62
     0
340
10
144
4.5
309
CONTENTFORMAT_END
171
     1
301
MARGIN
  1
CELLMARGIN_BEGIN
 40
1.5
 40
1.5
 40
1.5
 40
1.5
 40
0.18
 40
0.18
309
CELLMARGIN_END
 94
        6
 95
        1
302
GRIDFORMAT
  1
GRIDFORMAT_BEGIN
 90
        0
 91
        1
 62
     0
 92
       -2
340
0
 93
        0
 40
0.045
309
GRIDFORMAT_END
 95
        2
302
GRIDFORMAT
  1
GRIDFORMAT_BEGIN
 90
        0
 91
        1
 62
     0
 92
       -2
340
0
 93
        0
 40
0.045
309
GRIDFORMAT_END
 95
        4
302
GRIDFORMAT
  1
GRIDFORMAT_BEGIN
 90
        0
 91
        1
 62
     0
 92
       -2
340
0
 93
        0
 40
0.045
309
GRIDFORMAT_END
 95
        8
302
GRIDFORMAT
  1
GRIDFORMAT_BEGIN
 90
        0
 91
        1
 62
     0
 92
       -2
340
0
 93
        0
 40
0.045
309
GRIDFORMAT_END
 95
       16
302
GRIDFORMAT
  1
GRIDFORMAT_BEGIN
 90
        0
 91
        1
 62
     0
 92
       -2
340
0
 93
        0
 40
0.045
309
GRIDFORMAT_END
 95
       32
302
GRIDFORMAT
  1
GRIDFORMAT_BEGIN
 90
        0
 91
        1
 62
     0
 92
       -2
340
0
 93
        0
 40
0.045
309
GRIDFORMAT_END
309
TABLEFORMAT_END
  1
CELLSTYLE_BEGIN
 90
        3
 91
        2
300
_DATA
309
CELLSTYLE_END
  0
XRECORD
  5
1287
102
{ACAD_REACTORS
330
577
102
}
330
577
100
AcDbXrecord
280
     1
102
ACAD_ROUNDTRIP_PRE2007_TABLESTYLE
 90
        4
 91
        0
  1

 92
        4
 93
        0
  2

 94
        4
 95
        0
  3

  0
XRECORD
  5
1299
102
{ACAD_REACTORS
330
1298
102
}
330
1298
100
AcDbXrecord
280
     1
102
RTVSPost2010Prop28
280
     1
102
RTVSPost2010PropOp28
 70
     1
102
RTVSPost2010Prop29
280
     1
102
RTVSPost2010PropOp29
 70
     1
102
RTVSPost2010Prop30
280
     0
102
RTVSPost2010PropOp30
 70
     1
102
RTVSPost2010Prop31
280
     0
102
RTVSPost2010PropOp31
 70
     1
102
RTVSPost2010Prop32
280
     0
102
RTVSPost2010PropOp32
 70
     1
102
RTVSPost2010Prop33
280
     0
102
RTVSPost2010PropOp33
 70
     1
102
RTVSPost2010Prop34
280
     0
102
RTVSPost2010PropOp34
 70
     1
102
RTVSPost2010Prop35
280
     0
102
RTVSPost2010PropOp35
 70
     1
102
RTVSPost2010Prop36
280
     0
102
RTVSPost2010PropOp36
 70
     1
102
RTVSPost2010Prop37
 90
       50
102
RTVSPost2010PropOp37
 70
     1
102
RTVSPost2010Prop38
140
0.0
102
RTVSPost2010PropOp38
 70
     1
102
RTVSPost2010Prop39
140
1.0
102
RTVSPost2010PropOp39
 70
     1
102
RTVSPost2010Prop40
 90
        0
102
RTVSPost2010PropOp40
 70
     1
102
RTVSPost2010Prop41ColorIndex
 90
       18
102
RTVSPost2010Prop41ColorRGB
 90
        0
102
RTVSPost2010PropOp41
 70
     1
102
RTVSPost2010Prop42
 90
       50
102
RTVSPost2010PropOp42
 70
     1
102
RTVSPost2010Prop43
 90
        3
102
RTVSPost2010PropOp43
 70
     1
102
RTVSPost2010Prop44ColorIndex
 90
        5
102
RTVSPost2010Prop44ColorRGB
 90
      255
102
RTVSPost2010PropOp44
 70
     1
102
RTVSPost2010Prop45
280
     0
102
RTVSPost2010PropOp45
 70
     1
102
RTVSPost2010Prop46
 90
       50
102
RTVSPost2010PropOp46
 70
     1
102
RTVSPost2010Prop47
 90
       50
102
RTVSPost2010PropOp47
 70
     1
102
RTVSPost2010Prop48
 90
       50
102
RTVSPost2010PropOp48
 70
     1
102
RTVSPost2010Prop49
280
     0
102
RTVSPost2010PropOp49
 70
     1
102
RTVSPost2010Prop50
 90
       50
102
RTVSPost2010PropOp50
 70
     1
102
RTVSPost2010Prop51ColorIndex
 90
      256
102
RTVSPost2010Prop51ColorRGB
 90
-16777216
102
RTVSPost2010PropOp51
 70
     0
102
RTVSPost2010Prop52
140
1.0
102
RTVSPost2010PropOp52
 70
     0
102
RTVSPost2010Prop53
 90
        2
102
RTVSPost2010PropOp53
 70
     1
102
RTVSPost2010Prop54
  1
strokes_ogs.tif
102
RTVSPost2010PropOp54
 70
     1
102
RTVSPost2010Prop55
280
     0
102
RTVSPost2010PropOp55
 70
     1
102
RTVSPost2010Prop56
140
1.0
102
RTVSPost2010PropOp56
 70
     1
102
RTVSPost2010Prop57
140
1.0
102
RTVSPost2010PropOp57
 70
     1
102
RTVSPropertyOp0
 70
     1
102
RTVSPropertyOp1
 70
     1
102
RTVSPropertyOp2
 70
     1
102
RTVSPropertyOp3
 70
     1
102
RTVSPropertyOp4
 70
     1
102
RTVSPropertyOp5
 70
     1
102
RTVSPropertyOp6
 70
     1
102
RTVSPropertyOp7
 70
     1
102
RTVSPropertyOp8
 70
     1
102
RTVSPropertyOp9
 70
     1
102
RTVSPropertyOp10
 70
     1
102
RTVSPropertyOp11
 70
     1
102
RTVSPropertyOp12
 70
     1
102
RTVSPropertyOp13
 70
     1
102
RTVSPropertyOp14
 70
     1
102
RTVSPropertyOp15
 70
     1
102
RTVSPropertyOp16
 70
     1
102
RTVSPropertyOp17
 70
     1
102
RTVSPropertyOp18
 70
     1
102
RTVSPropertyOp19
 70
     1
102
RTVSPropertyOp20
 70
     1
102
RTVSPropertyOp21
 70
     1
102
RTVSPropertyOp22
 70
     1
102
RTVSPropertyOp23
 70
     1
102
RTVSPropertyOp24
 70
     1
102
RTVSPropertyOp25
 70
     1
102
RTVSPropertyOp26
 70
     1
102
RTVSPropertyOp27
 70
     1
102
RTVSPropertyOp28
 70
     1
102
RTVSPropertyOp29
 70
     1
102
RTVSPropertyOp30
 70
     1
102
RTVSPropertyOp31
 70
     1
102
RTVSPropertyOp32
 70
     1
102
RTVSPropertyOp33
 70
     1
102
RTVSPropertyOp34
 70
     1
102
RTVSPropertyOp35
 70
     1
102
RTVSPropertyOp36
 70
     1
102
RTVSPropertyOp37
 70
     1
102
RTVSPropertyOp38
 70
     1
102
RTVSPropertyOp39
 70
     1
102
RTVSPropertyOp40
 70
     1
102
RTVSPropertyOp41
 70
     1
102
RTVSPropertyOp42
 70
     1
102
RTVSPropertyOp43
 70
     1
102
RTVSPropertyOp44
 70
     1
102
RTVSPropertyOp45
 70
     1
102
RTVSPropertyOp46
 70
     1
102
RTVSPropertyOp47
 70
     1
102
RTVSPropertyOp48
 70
     1
102
RTVSPropertyOp49
 70
     1
102
RTVSPropertyOp50
 70
     1
102
RTVSPropertyOp51
 70
     0
102
RTVSPropertyOp52
 70
     0
102
RTVSPropertyOp53
 70
     1
102
RTVSPropertyOp54
 70
     1
102
RTVSPropertyOp55
 70
     1
102
RTVSPropertyOp56
 70
     1
102
RTVSPropertyOp57
 70
     1
102
RTVSPropertyOp58
 70
     1
102
RTVSPropertyOp59
 70
     1
102
RTVSPropertyOp60
 70
     1
102
RTVSPropertyOp61
 70
     1
102
RTVSPropertyOp62
 70
     1
  0
XRECORD
  5
129D
102
{ACAD_REACTORS
330
129C
102
}
330
129C
100
AcDbXrecord
280
     1
102
RTVSPost2010Prop28
280
     0
102
RTVSPost2010PropOp28
 70
     1
102
RTVSPost2010Prop29
280
     1
102
RTVSPost2010PropOp29
 70
     1
102
RTVSPost2010Prop30
280
     1
102
RTVSPost2010PropOp30
 70
     1
102
RTVSPost2010Prop31
280
     0
102
RTVSPost2010PropOp31
 70
     1
102
RTVSPost2010Prop32
280
     0
102
RTVSPost2010PropOp32
 70
     1
102
RTVSPost2010Prop33
280
     0
102
RTVSPost2010PropOp33
 70
     1
102
RTVSPost2010Prop34
280
     0
102
RTVSPost2010PropOp34
 70
     1
102
RTVSPost2010Prop35
280
     0
102
RTVSPost2010PropOp35
 70
     1
102
RTVSPost2010Prop36
280
     0
102
RTVSPost2010PropOp36
 70
     1
102
RTVSPost2010Prop37
 90
       50
102
RTVSPost2010PropOp37
 70
     1
102
RTVSPost2010Prop38
140
0.0
102
RTVSPost2010PropOp38
 70
     1
102
RTVSPost2010Prop39
140
1.0
102
RTVSPost2010PropOp39
 70
     1
102
RTVSPost2010Prop40
 90
        0
102
RTVSPost2010PropOp40
 70
     1
102
RTVSPost2010Prop41ColorIndex
 90
       18
102
RTVSPost2010Prop41ColorRGB
 90
        0
102
RTVSPost2010PropOp41
 70
     1
102
RTVSPost2010Prop42
 90
       50
102
RTVSPost2010PropOp42
 70
     1
102
RTVSPost2010Prop43
 90
        3
102
RTVSPost2010PropOp43
 70
     1
102
RTVSPost2010Prop44ColorIndex
 90
        5
102
RTVSPost2010Prop44ColorRGB
 90
      255
102
RTVSPost2010PropOp44
 70
     1
102
RTVSPost2010Prop45
280
     0
102
RTVSPost2010PropOp45
 70
     1
102
RTVSPost2010Prop46
 90
       50
102
RTVSPost2010PropOp46
 70
     1
102
RTVSPost2010Prop47
 90
       50
102
RTVSPost2010PropOp47
 70
     1
102
RTVSPost2010Prop48
 90
       50
102
RTVSPost2010PropOp48
 70
     1
102
RTVSPost2010Prop49
280
     0
102
RTVSPost2010PropOp49
 70
     1
102
RTVSPost2010Prop50
 90
       50
102
RTVSPost2010PropOp50
 70
     1
102
RTVSPost2010Prop51ColorIndex
 90
      256
102
RTVSPost2010Prop51ColorRGB
 90
-16777216
102
RTVSPost2010PropOp51
 70
     0
102
RTVSPost2010Prop52
140
1.0
102
RTVSPost2010PropOp52
 70
     0
102
RTVSPost2010Prop53
 90
        2
102
RTVSPost2010PropOp53
 70
     1
102
RTVSPost2010Prop54
  1
strokes_ogs.tif
102
RTVSPost2010PropOp54
 70
     1
102
RTVSPost2010Prop55
280
     0
102
RTVSPost2010PropOp55
 70
     1
102
RTVSPost2010Prop56
140
1.0
102
RTVSPost2010PropOp56
 70
     1
102
RTVSPost2010Prop57
140
1.0
102
RTVSPost2010PropOp57
 70
     1
102
RTVSPropertyOp0
 70
     1
102
RTVSPropertyOp1
 70
     1
102
RTVSPropertyOp2
 70
     1
102
RTVSPropertyOp3
 70
     1
102
RTVSPropertyOp4
 70
     1
102
RTVSPropertyOp5
 70
     1
102
RTVSPropertyOp6
 70
     1
102
RTVSPropertyOp7
 70
     1
102
RTVSPropertyOp8
 70
     1
102
RTVSPropertyOp9
 70
     1
102
RTVSPropertyOp10
 70
     1
102
RTVSPropertyOp11
 70
     1
102
RTVSPropertyOp12
 70
     1
102
RTVSPropertyOp13
 70
     1
102
RTVSPropertyOp14
 70
     1
102
RTVSPropertyOp15
 70
     1
102
RTVSPropertyOp16
 70
     1
102
RTVSPropertyOp17
 70
     1
102
RTVSPropertyOp18
 70
     1
102
RTVSPropertyOp19
 70
     1
102
RTVSPropertyOp20
 70
     1
102
RTVSPropertyOp21
 70
     1
102
RTVSPropertyOp22
 70
     1
102
RTVSPropertyOp23
 70
     1
102
RTVSPropertyOp24
 70
     1
102
RTVSPropertyOp25
 70
     1
102
RTVSPropertyOp26
 70
     1
102
RTVSPropertyOp27
 70
     1
102
RTVSPropertyOp28
 70
     1
102
RTVSPropertyOp29
 70
     1
102
RTVSPropertyOp30
 70
     1
102
RTVSPropertyOp31
 70
     1
102
RTVSPropertyOp32
 70
     1
102
RTVSPropertyOp33
 70
     1
102
RTVSPropertyOp34
 70
     1
102
RTVSPropertyOp35
 70
     1
102
RTVSPropertyOp36
 70
     1
102
RTVSPropertyOp37
 70
     1
102
RTVSPropertyOp38
 70
     1
102
RTVSPropertyOp39
 70
     1
102
RTVSPropertyOp40
 70
     1
102
RTVSPropertyOp41
 70
     1
102
RTVSPropertyOp42
 70
     1
102
RTVSPropertyOp43
 70
     1
102
RTVSPropertyOp44
 70
     1
102
RTVSPropertyOp45
 70
     1
102
RTVSPropertyOp46
 70
     1
102
RTVSPropertyOp47
 70
     1
102
RTVSPropertyOp48
 70
     1
102
RTVSPropertyOp49
 70
     1
102
RTVSPropertyOp50
 70
     1
102
RTVSPropertyOp51
 70
     0
102
RTVSPropertyOp52
 70
     0
102
RTVSPropertyOp53
 70
     1
102
RTVSPropertyOp54
 70
     1
102
RTVSPropertyOp55
 70
     1
102
RTVSPropertyOp56
 70
     1
102
RTVSPropertyOp57
 70
     1
102
RTVSPropertyOp58
 70
     1
102
RTVSPropertyOp59
 70
     1
102
RTVSPropertyOp60
 70
     1
102
RTVSPropertyOp61
 70
     1
102
RTVSPropertyOp62
 70
     1
  0
XRECORD
  5
129B
102
{ACAD_REACTORS
330
129A
102
}
330
129A
100
AcDbXrecord
280
     1
102
RTVSPost2010Prop28
280
     0
102
RTVSPost2010PropOp28
 70
     1
102
RTVSPost2010Prop29
280
     1
102
RTVSPost2010PropOp29
 70
     1
102
RTVSPost2010Prop30
280
     1
102
RTVSPost2010PropOp30
 70
     1
102
RTVSPost2010Prop31
280
     0
102
RTVSPost2010PropOp31
 70
     1
102
RTVSPost2010Prop32
280
     0
102
RTVSPost2010PropOp32
 70
     1
102
RTVSPost2010Prop33
280
     0
102
RTVSPost2010PropOp33
 70
     1
102
RTVSPost2010Prop34
280
     0
102
RTVSPost2010PropOp34
 70
     1
102
RTVSPost2010Prop35
280
     0
102
RTVSPost2010PropOp35
 70
     1
102
RTVSPost2010Prop36
280
     0
102
RTVSPost2010PropOp36
 70
     1
102
RTVSPost2010Prop37
 90
       50
102
RTVSPost2010PropOp37
 70
     1
102
RTVSPost2010Prop38
140
0.0
102
RTVSPost2010PropOp38
 70
     1
102
RTVSPost2010Prop39
140
1.0
102
RTVSPost2010PropOp39
 70
     1
102
RTVSPost2010Prop40
 90
        0
102
RTVSPost2010PropOp40
 70
     1
102
RTVSPost2010Prop41ColorIndex
 90
       18
102
RTVSPost2010Prop41ColorRGB
 90
        0
102
RTVSPost2010PropOp41
 70
     1
102
RTVSPost2010Prop42
 90
       50
102
RTVSPost2010PropOp42
 70
     1
102
RTVSPost2010Prop43
 90
        3
102
RTVSPost2010PropOp43
 70
     1
102
RTVSPost2010Prop44ColorIndex
 90
        5
102
RTVSPost2010Prop44ColorRGB
 90
      255
102
RTVSPost2010PropOp44
 70
     1
102
RTVSPost2010Prop45
280
     0
102
RTVSPost2010PropOp45
 70
     1
102
RTVSPost2010Prop46
 90
       50
102
RTVSPost2010PropOp46
 70
     1
102
RTVSPost2010Prop47
 90
       50
102
RTVSPost2010PropOp47
 70
     1
102
RTVSPost2010Prop48
 90
       50
102
RTVSPost2010PropOp48
 70
     1
102
RTVSPost2010Prop49
280
     0
102
RTVSPost2010PropOp49
 70
     1
102
RTVSPost2010Prop50
 90
       50
102
RTVSPost2010PropOp50
 70
     1
102
RTVSPost2010Prop51ColorIndex
 90
      256
102
RTVSPost2010Prop51ColorRGB
 90
-16777216
102
RTVSPost2010PropOp51
 70
     0
102
RTVSPost2010Prop52
140
1.0
102
RTVSPost2010PropOp52
 70
     0
102
RTVSPost2010Prop53
 90
        2
102
RTVSPost2010PropOp53
 70
     1
102
RTVSPost2010Prop54
  1
strokes_ogs.tif
102
RTVSPost2010PropOp54
 70
     1
102
RTVSPost2010Prop55
280
     0
102
RTVSPost2010PropOp55
 70
     1
102
RTVSPost2010Prop56
140
1.0
102
RTVSPost2010PropOp56
 70
     1
102
RTVSPost2010Prop57
140
1.0
102
RTVSPost2010PropOp57
 70
     1
102
RTVSPropertyOp0
 70
     1
102
RTVSPropertyOp1
 70
     1
102
RTVSPropertyOp2
 70
     1
102
RTVSPropertyOp3
 70
     1
102
RTVSPropertyOp4
 70
     1
102
RTVSPropertyOp5
 70
     1
102
RTVSPropertyOp6
 70
     1
102
RTVSPropertyOp7
 70
     1
102
RTVSPropertyOp8
 70
     1
102
RTVSPropertyOp9
 70
     1
102
RTVSPropertyOp10
 70
     1
102
RTVSPropertyOp11
 70
     1
102
RTVSPropertyOp12
 70
     1
102
RTVSPropertyOp13
 70
     1
102
RTVSPropertyOp14
 70
     1
102
RTVSPropertyOp15
 70
     1
102
RTVSPropertyOp16
 70
     1
102
RTVSPropertyOp17
 70
     1
102
RTVSPropertyOp18
 70
     1
102
RTVSPropertyOp19
 70
     1
102
RTVSPropertyOp20
 70
     1
102
RTVSPropertyOp21
 70
     1
102
RTVSPropertyOp22
 70
     1
102
RTVSPropertyOp23
 70
     1
102
RTVSPropertyOp24
 70
     1
102
RTVSPropertyOp25
 70
     1
102
RTVSPropertyOp26
 70
     1
102
RTVSPropertyOp27
 70
     1
102
RTVSPropertyOp28
 70
     1
102
RTVSPropertyOp29
 70
     1
102
RTVSPropertyOp30
 70
     1
102
RTVSPropertyOp31
 70
     1
102
RTVSPropertyOp32
 70
     1
102
RTVSPropertyOp33
 70
     1
102
RTVSPropertyOp34
 70
     1
102
RTVSPropertyOp35
 70
     1
102
RTVSPropertyOp36
 70
     1
102
RTVSPropertyOp37
 70
     1
102
RTVSPropertyOp38
 70
     1
102
RTVSPropertyOp39
 70
     1
102
RTVSPropertyOp40
 70
     1
102
RTVSPropertyOp41
 70
     1
102
RTVSPropertyOp42
 70
     1
102
RTVSPropertyOp43
 70
     1
102
RTVSPropertyOp44
 70
     1
102
RTVSPropertyOp45
 70
     1
102
RTVSPropertyOp46
 70
     1
102
RTVSPropertyOp47
 70
     1
102
RTVSPropertyOp48
 70
     1
102
RTVSPropertyOp49
 70
     1
102
RTVSPropertyOp50
 70
     1
102
RTVSPropertyOp51
 70
     0
102
RTVSPropertyOp52
 70
     0
102
RTVSPropertyOp53
 70
     1
102
RTVSPropertyOp54
 70
     1
102
RTVSPropertyOp55
 70
     1
102
RTVSPropertyOp56
 70
     1
102
RTVSPropertyOp57
 70
     1
102
RTVSPropertyOp58
 70
     1
102
RTVSPropertyOp59
 70
     1
102
RTVSPropertyOp60
 70
     1
102
RTVSPropertyOp61
 70
     1
102
RTVSPropertyOp62
 70
     1
  0
XRECORD
  5
1297
102
{ACAD_REACTORS
330
1296
102
}
330
1296
100
AcDbXrecord
280
     1
102
RTVSPost2010Prop28
280
     0
102
RTVSPost2010PropOp28
 70
     1
102
RTVSPost2010Prop29
280
     1
102
RTVSPost2010PropOp29
 70
     1
102
RTVSPost2010Prop30
280
     1
102
RTVSPost2010PropOp30
 70
     1
102
RTVSPost2010Prop31
280
     0
102
RTVSPost2010PropOp31
 70
     1
102
RTVSPost2010Prop32
280
     0
102
RTVSPost2010PropOp32
 70
     1
102
RTVSPost2010Prop33
280
     0
102
RTVSPost2010PropOp33
 70
     1
102
RTVSPost2010Prop34
280
     0
102
RTVSPost2010PropOp34
 70
     1
102
RTVSPost2010Prop35
280
     0
102
RTVSPost2010PropOp35
 70
     1
102
RTVSPost2010Prop36
280
     0
102
RTVSPost2010PropOp36
 70
     1
102
RTVSPost2010Prop37
 90
       50
102
RTVSPost2010PropOp37
 70
     1
102
RTVSPost2010Prop38
140
0.0
102
RTVSPost2010PropOp38
 70
     1
102
RTVSPost2010Prop39
140
1.0
102
RTVSPost2010PropOp39
 70
     1
102
RTVSPost2010Prop40
 90
        0
102
RTVSPost2010PropOp40
 70
     1
102
RTVSPost2010Prop41ColorIndex
 90
       18
102
RTVSPost2010Prop41ColorRGB
 90
        0
102
RTVSPost2010PropOp41
 70
     1
102
RTVSPost2010Prop42
 90
       50
102
RTVSPost2010PropOp42
 70
     1
102
RTVSPost2010Prop43
 90
        3
102
RTVSPost2010PropOp43
 70
     1
102
RTVSPost2010Prop44ColorIndex
 90
        5
102
RTVSPost2010Prop44ColorRGB
 90
      255
102
RTVSPost2010PropOp44
 70
     1
102
RTVSPost2010Prop45
280
     0
102
RTVSPost2010PropOp45
 70
     1
102
RTVSPost2010Prop46
 90
       50
102
RTVSPost2010PropOp46
 70
     1
102
RTVSPost2010Prop47
 90
       50
102
RTVSPost2010PropOp47
 70
     1
102
RTVSPost2010Prop48
 90
       50
102
RTVSPost2010PropOp48
 70
     1
102
RTVSPost2010Prop49
280
     0
102
RTVSPost2010PropOp49
 70
     1
102
RTVSPost2010Prop50
 90
       50
102
RTVSPost2010PropOp50
 70
     1
102
RTVSPost2010Prop51ColorIndex
 90
      256
102
RTVSPost2010Prop51ColorRGB
 90
-16777216
102
RTVSPost2010PropOp51
 70
     0
102
RTVSPost2010Prop52
140
1.0
102
RTVSPost2010PropOp52
 70
     0
102
RTVSPost2010Prop53
 90
        2
102
RTVSPost2010PropOp53
 70
     1
102
RTVSPost2010Prop54
  1
strokes_ogs.tif
102
RTVSPost2010PropOp54
 70
     1
102
RTVSPost2010Prop55
280
     0
102
RTVSPost2010PropOp55
 70
     1
102
RTVSPost2010Prop56
140
1.0
102
RTVSPost2010PropOp56
 70
     1
102
RTVSPost2010Prop57
140
1.0
102
RTVSPost2010PropOp57
 70
     1
102
RTVSPropertyOp0
 70
     1
102
RTVSPropertyOp1
 70
     1
102
RTVSPropertyOp2
 70
     1
102
RTVSPropertyOp3
 70
     1
102
RTVSPropertyOp4
 70
     1
102
RTVSPropertyOp5
 70
     1
102
RTVSPropertyOp6
 70
     1
102
RTVSPropertyOp7
 70
     1
102
RTVSPropertyOp8
 70
     1
102
RTVSPropertyOp9
 70
     1
102
RTVSPropertyOp10
 70
     1
102
RTVSPropertyOp11
 70
     1
102
RTVSPropertyOp12
 70
     1
102
RTVSPropertyOp13
 70
     1
102
RTVSPropertyOp14
 70
     1
102
RTVSPropertyOp15
 70
     1
102
RTVSPropertyOp16
 70
     1
102
RTVSPropertyOp17
 70
     1
102
RTVSPropertyOp18
 70
     1
102
RTVSPropertyOp19
 70
     1
102
RTVSPropertyOp20
 70
     1
102
RTVSPropertyOp21
 70
     1
102
RTVSPropertyOp22
 70
     1
102
RTVSPropertyOp23
 70
     1
102
RTVSPropertyOp24
 70
     1
102
RTVSPropertyOp25
 70
     1
102
RTVSPropertyOp26
 70
     1
102
RTVSPropertyOp27
 70
     1
102
RTVSPropertyOp28
 70
     1
102
RTVSPropertyOp29
 70
     1
102
RTVSPropertyOp30
 70
     1
102
RTVSPropertyOp31
 70
     1
102
RTVSPropertyOp32
 70
     1
102
RTVSPropertyOp33
 70
     1
102
RTVSPropertyOp34
 70
     1
102
RTVSPropertyOp35
 70
     1
102
RTVSPropertyOp36
 70
     1
102
RTVSPropertyOp37
 70
     1
102
RTVSPropertyOp38
 70
     1
102
RTVSPropertyOp39
 70
     1
102
RTVSPropertyOp40
 70
     1
102
RTVSPropertyOp41
 70
     1
102
RTVSPropertyOp42
 70
     1
102
RTVSPropertyOp43
 70
     1
102
RTVSPropertyOp44
 70
     1
102
RTVSPropertyOp45
 70
     1
102
RTVSPropertyOp46
 70
     1
102
RTVSPropertyOp47
 70
     1
102
RTVSPropertyOp48
 70
     1
102
RTVSPropertyOp49
 70
     1
102
RTVSPropertyOp50
 70
     1
102
RTVSPropertyOp51
 70
     0
102
RTVSPropertyOp52
 70
     0
102
RTVSPropertyOp53
 70
     1
102
RTVSPropertyOp54
 70
     1
102
RTVSPropertyOp55
 70
     1
102
RTVSPropertyOp56
 70
     1
102
RTVSPropertyOp57
 70
     1
102
RTVSPropertyOp58
 70
     1
102
RTVSPropertyOp59
 70
     1
102
RTVSPropertyOp60
 70
     1
102
RTVSPropertyOp61
 70
     1
102
RTVSPropertyOp62
 70
     1
  0
XRECORD
  5
12A5
102
{ACAD_REACTORS
330
12A4
102
}
330
12A4
100
AcDbXrecord
280
     1
102
RTVSPost2010Prop28
280
     0
102
RTVSPost2010PropOp28
 70
     1
102
RTVSPost2010Prop29
280
     1
102
RTVSPost2010PropOp29
 70
     1
102
RTVSPost2010Prop30
280
     1
102
RTVSPost2010PropOp30
 70
     1
102
RTVSPost2010Prop31
280
     0
102
RTVSPost2010PropOp31
 70
     1
102
RTVSPost2010Prop32
280
     0
102
RTVSPost2010PropOp32
 70
     1
102
RTVSPost2010Prop33
280
     0
102
RTVSPost2010PropOp33
 70
     1
102
RTVSPost2010Prop34
280
     0
102
RTVSPost2010PropOp34
 70
     1
102
RTVSPost2010Prop35
280
     0
102
RTVSPost2010PropOp35
 70
     1
102
RTVSPost2010Prop36
280
     0
102
RTVSPost2010PropOp36
 70
     1
102
RTVSPost2010Prop37
 90
       50
102
RTVSPost2010PropOp37
 70
     1
102
RTVSPost2010Prop38
140
0.0
102
RTVSPost2010PropOp38
 70
     1
102
RTVSPost2010Prop39
140
1.0
102
RTVSPost2010PropOp39
 70
     1
102
RTVSPost2010Prop40
 90
        0
102
RTVSPost2010PropOp40
 70
     1
102
RTVSPost2010Prop41ColorIndex
 90
       18
102
RTVSPost2010Prop41ColorRGB
 90
        0
102
RTVSPost2010PropOp41
 70
     1
102
RTVSPost2010Prop42
 90
       50
102
RTVSPost2010PropOp42
 70
     1
102
RTVSPost2010Prop43
 90
        3
102
RTVSPost2010PropOp43
 70
     1
102
RTVSPost2010Prop44ColorIndex
 90
        5
102
RTVSPost2010Prop44ColorRGB
 90
      255
102
RTVSPost2010PropOp44
 70
     1
102
RTVSPost2010Prop45
280
     0
102
RTVSPost2010PropOp45
 70
     1
102
RTVSPost2010Prop46
 90
       50
102
RTVSPost2010PropOp46
 70
     1
102
RTVSPost2010Prop47
 90
       50
102
RTVSPost2010PropOp47
 70
     1
102
RTVSPost2010Prop48
 90
       50
102
RTVSPost2010PropOp48
 70
     1
102
RTVSPost2010Prop49
280
     0
102
RTVSPost2010PropOp49
 70
     1
102
RTVSPost2010Prop50
 90
       50
102
RTVSPost2010PropOp50
 70
     1
102
RTVSPost2010Prop51ColorIndex
 90
      256
102
RTVSPost2010Prop51ColorRGB
 90
-16777216
102
RTVSPost2010PropOp51
 70
     0
102
RTVSPost2010Prop52
140
1.0
102
RTVSPost2010PropOp52
 70
     0
102
RTVSPost2010Prop53
 90
        2
102
RTVSPost2010PropOp53
 70
     1
102
RTVSPost2010Prop54
  1
strokes_ogs.tif
102
RTVSPost2010PropOp54
 70
     1
102
RTVSPost2010Prop55
280
     0
102
RTVSPost2010PropOp55
 70
     1
102
RTVSPost2010Prop56
140
1.0
102
RTVSPost2010PropOp56
 70
     1
102
RTVSPost2010Prop57
140
1.0
102
RTVSPost2010PropOp57
 70
     1
102
RTVSPropertyOp0
 70
     1
102
RTVSPropertyOp1
 70
     1
102
RTVSPropertyOp2
 70
     1
102
RTVSPropertyOp3
 70
     1
102
RTVSPropertyOp4
 70
     1
102
RTVSPropertyOp5
 70
     1
102
RTVSPropertyOp6
 70
     1
102
RTVSPropertyOp7
 70
     1
102
RTVSPropertyOp8
 70
     1
102
RTVSPropertyOp9
 70
     1
102
RTVSPropertyOp10
 70
     1
102
RTVSPropertyOp11
 70
     1
102
RTVSPropertyOp12
 70
     1
102
RTVSPropertyOp13
 70
     1
102
RTVSPropertyOp14
 70
     1
102
RTVSPropertyOp15
 70
     1
102
RTVSPropertyOp16
 70
     1
102
RTVSPropertyOp17
 70
     1
102
RTVSPropertyOp18
 70
     1
102
RTVSPropertyOp19
 70
     1
102
RTVSPropertyOp20
 70
     1
102
RTVSPropertyOp21
 70
     1
102
RTVSPropertyOp22
 70
     1
102
RTVSPropertyOp23
 70
     1
102
RTVSPropertyOp24
 70
     1
102
RTVSPropertyOp25
 70
     1
102
RTVSPropertyOp26
 70
     1
102
RTVSPropertyOp27
 70
     1
102
RTVSPropertyOp28
 70
     1
102
RTVSPropertyOp29
 70
     1
102
RTVSPropertyOp30
 70
     1
102
RTVSPropertyOp31
 70
     1
102
RTVSPropertyOp32
 70
     1
102
RTVSPropertyOp33
 70
     1
102
RTVSPropertyOp34
 70
     1
102
RTVSPropertyOp35
 70
     1
102
RTVSPropertyOp36
 70
     1
102
RTVSPropertyOp37
 70
     1
102
RTVSPropertyOp38
 70
     1
102
RTVSPropertyOp39
 70
     1
102
RTVSPropertyOp40
 70
     1
102
RTVSPropertyOp41
 70
     1
102
RTVSPropertyOp42
 70
     1
102
RTVSPropertyOp43
 70
     1
102
RTVSPropertyOp44
 70
     1
102
RTVSPropertyOp45
 70
     1
102
RTVSPropertyOp46
 70
     1
102
RTVSPropertyOp47
 70
     1
102
RTVSPropertyOp48
 70
     1
102
RTVSPropertyOp49
 70
     1
102
RTVSPropertyOp50
 70
     1
102
RTVSPropertyOp51
 70
     0
102
RTVSPropertyOp52
 70
     0
102
RTVSPropertyOp53
 70
     1
102
RTVSPropertyOp54
 70
     1
102
RTVSPropertyOp55
 70
     1
102
RTVSPropertyOp56
 70
     1
102
RTVSPropertyOp57
 70
     1
102
RTVSPropertyOp58
 70
     1
102
RTVSPropertyOp59
 70
     1
102
RTVSPropertyOp60
 70
     1
102
RTVSPropertyOp61
 70
     1
102
RTVSPropertyOp62
 70
     1
  0
XRECORD
  5
12AD
102
{ACAD_REACTORS
330
12AC
102
}
330
12AC
100
AcDbXrecord
280
     1
102
RTVSPost2010Prop28
280
     0
102
RTVSPost2010PropOp28
 70
     1
102
RTVSPost2010Prop29
280
     1
102
RTVSPost2010PropOp29
 70
     1
102
RTVSPost2010Prop30
280
     1
102
RTVSPost2010PropOp30
 70
     1
102
RTVSPost2010Prop31
280
     0
102
RTVSPost2010PropOp31
 70
     1
102
RTVSPost2010Prop32
280
     0
102
RTVSPost2010PropOp32
 70
     1
102
RTVSPost2010Prop33
280
     0
102
RTVSPost2010PropOp33
 70
     1
102
RTVSPost2010Prop34
280
     0
102
RTVSPost2010PropOp34
 70
     1
102
RTVSPost2010Prop35
280
     0
102
RTVSPost2010PropOp35
 70
     1
102
RTVSPost2010Prop36
280
     0
102
RTVSPost2010PropOp36
 70
     1
102
RTVSPost2010Prop37
 90
       50
102
RTVSPost2010PropOp37
 70
     1
102
RTVSPost2010Prop38
140
0.0
102
RTVSPost2010PropOp38
 70
     1
102
RTVSPost2010Prop39
140
1.0
102
RTVSPost2010PropOp39
 70
     1
102
RTVSPost2010Prop40
 90
        0
102
RTVSPost2010PropOp40
 70
     1
102
RTVSPost2010Prop41ColorIndex
 90
       18
102
RTVSPost2010Prop41ColorRGB
 90
        0
102
RTVSPost2010PropOp41
 70
     1
102
RTVSPost2010Prop42
 90
       50
102
RTVSPost2010PropOp42
 70
     1
102
RTVSPost2010Prop43
 90
        3
102
RTVSPost2010PropOp43
 70
     1
102
RTVSPost2010Prop44ColorIndex
 90
        5
102
RTVSPost2010Prop44ColorRGB
 90
      255
102
RTVSPost2010PropOp44
 70
     1
102
RTVSPost2010Prop45
280
     0
102
RTVSPost2010PropOp45
 70
     1
102
RTVSPost2010Prop46
 90
       50
102
RTVSPost2010PropOp46
 70
     1
102
RTVSPost2010Prop47
 90
       50
102
RTVSPost2010PropOp47
 70
     1
102
RTVSPost2010Prop48
 90
       50
102
RTVSPost2010PropOp48
 70
     1
102
RTVSPost2010Prop49
280
     0
102
RTVSPost2010PropOp49
 70
     1
102
RTVSPost2010Prop50
 90
       50
102
RTVSPost2010PropOp50
 70
     1
102
RTVSPost2010Prop51ColorIndex
 90
      256
102
RTVSPost2010Prop51ColorRGB
 90
-16777216
102
RTVSPost2010PropOp51
 70
     0
102
RTVSPost2010Prop52
140
1.0
102
RTVSPost2010PropOp52
 70
     0
102
RTVSPost2010Prop53
 90
        2
102
RTVSPost2010PropOp53
 70
     1
102
RTVSPost2010Prop54
  1
strokes_ogs.tif
102
RTVSPost2010PropOp54
 70
     1
102
RTVSPost2010Prop55
280
     0
102
RTVSPost2010PropOp55
 70
     1
102
RTVSPost2010Prop56
140
1.0
102
RTVSPost2010PropOp56
 70
     1
102
RTVSPost2010Prop57
140
1.0
102
RTVSPost2010PropOp57
 70
     1
102
RTVSPropertyOp0
 70
     1
102
RTVSPropertyOp1
 70
     1
102
RTVSPropertyOp2
 70
     1
102
RTVSPropertyOp3
 70
     1
102
RTVSPropertyOp4
 70
     1
102
RTVSPropertyOp5
 70
     1
102
RTVSPropertyOp6
 70
     1
102
RTVSPropertyOp7
 70
     1
102
RTVSPropertyOp8
 70
     1
102
RTVSPropertyOp9
 70
     1
102
RTVSPropertyOp10
 70
     1
102
RTVSPropertyOp11
 70
     1
102
RTVSPropertyOp12
 70
     1
102
RTVSPropertyOp13
 70
     1
102
RTVSPropertyOp14
 70
     1
102
RTVSPropertyOp15
 70
     1
102
RTVSPropertyOp16
 70
     1
102
RTVSPropertyOp17
 70
     1
102
RTVSPropertyOp18
 70
     1
102
RTVSPropertyOp19
 70
     1
102
RTVSPropertyOp20
 70
     1
102
RTVSPropertyOp21
 70
     1
102
RTVSPropertyOp22
 70
     1
102
RTVSPropertyOp23
 70
     1
102
RTVSPropertyOp24
 70
     1
102
RTVSPropertyOp25
 70
     1
102
RTVSPropertyOp26
 70
     1
102
RTVSPropertyOp27
 70
     1
102
RTVSPropertyOp28
 70
     1
102
RTVSPropertyOp29
 70
     1
102
RTVSPropertyOp30
 70
     1
102
RTVSPropertyOp31
 70
     1
102
RTVSPropertyOp32
 70
     1
102
RTVSPropertyOp33
 70
     1
102
RTVSPropertyOp34
 70
     1
102
RTVSPropertyOp35
 70
     1
102
RTVSPropertyOp36
 70
     1
102
RTVSPropertyOp37
 70
     1
102
RTVSPropertyOp38
 70
     1
102
RTVSPropertyOp39
 70
     1
102
RTVSPropertyOp40
 70
     1
102
RTVSPropertyOp41
 70
     1
102
RTVSPropertyOp42
 70
     1
102
RTVSPropertyOp43
 70
     1
102
RTVSPropertyOp44
 70
     1
102
RTVSPropertyOp45
 70
     1
102
RTVSPropertyOp46
 70
     1
102
RTVSPropertyOp47
 70
     1
102
RTVSPropertyOp48
 70
     1
102
RTVSPropertyOp49
 70
     1
102
RTVSPropertyOp50
 70
     1
102
RTVSPropertyOp51
 70
     0
102
RTVSPropertyOp52
 70
     0
102
RTVSPropertyOp53
 70
     1
102
RTVSPropertyOp54
 70
     1
102
RTVSPropertyOp55
 70
     1
102
RTVSPropertyOp56
 70
     1
102
RTVSPropertyOp57
 70
     1
102
RTVSPropertyOp58
 70
     1
102
RTVSPropertyOp59
 70
     1
102
RTVSPropertyOp60
 70
     1
102
RTVSPropertyOp61
 70
     1
102
RTVSPropertyOp62
 70
     1
  0
XRECORD
  5
129F
102
{ACAD_REACTORS
330
129E
102
}
330
129E
100
AcDbXrecord
280
     1
102
RTVSPost2010Prop28
280
     0
102
RTVSPost2010PropOp28
 70
     1
102
RTVSPost2010Prop29
280
     1
102
RTVSPost2010PropOp29
 70
     1
102
RTVSPost2010Prop30
280
     1
102
RTVSPost2010PropOp30
 70
     1
102
RTVSPost2010Prop31
280
     0
102
RTVSPost2010PropOp31
 70
     1
102
RTVSPost2010Prop32
280
     0
102
RTVSPost2010PropOp32
 70
     1
102
RTVSPost2010Prop33
280
     0
102
RTVSPost2010PropOp33
 70
     1
102
RTVSPost2010Prop34
280
     0
102
RTVSPost2010PropOp34
 70
     1
102
RTVSPost2010Prop35
280
     0
102
RTVSPost2010PropOp35
 70
     1
102
RTVSPost2010Prop36
280
     0
102
RTVSPost2010PropOp36
 70
     1
102
RTVSPost2010Prop37
 90
       50
102
RTVSPost2010PropOp37
 70
     1
102
RTVSPost2010Prop38
140
0.0
102
RTVSPost2010PropOp38
 70
     1
102
RTVSPost2010Prop39
140
1.0
102
RTVSPost2010PropOp39
 70
     1
102
RTVSPost2010Prop40
 90
        0
102
RTVSPost2010PropOp40
 70
     1
102
RTVSPost2010Prop41ColorIndex
 90
       18
102
RTVSPost2010Prop41ColorRGB
 90
        0
102
RTVSPost2010PropOp41
 70
     1
102
RTVSPost2010Prop42
 90
       50
102
RTVSPost2010PropOp42
 70
     1
102
RTVSPost2010Prop43
 90
        3
102
RTVSPost2010PropOp43
 70
     1
102
RTVSPost2010Prop44ColorIndex
 90
        5
102
RTVSPost2010Prop44ColorRGB
 90
      255
102
RTVSPost2010PropOp44
 70
     1
102
RTVSPost2010Prop45
280
     0
102
RTVSPost2010PropOp45
 70
     1
102
RTVSPost2010Prop46
 90
       50
102
RTVSPost2010PropOp46
 70
     1
102
RTVSPost2010Prop47
 90
       50
102
RTVSPost2010PropOp47
 70
     1
102
RTVSPost2010Prop48
 90
       50
102
RTVSPost2010PropOp48
 70
     1
102
RTVSPost2010Prop49
280
     0
102
RTVSPost2010PropOp49
 70
     1
102
RTVSPost2010Prop50
 90
       50
102
RTVSPost2010PropOp50
 70
     1
102
RTVSPost2010Prop51ColorIndex
 90
      256
102
RTVSPost2010Prop51ColorRGB
 90
-16777216
102
RTVSPost2010PropOp51
 70
     0
102
RTVSPost2010Prop52
140
1.0
102
RTVSPost2010PropOp52
 70
     0
102
RTVSPost2010Prop53
 90
        2
102
RTVSPost2010PropOp53
 70
     1
102
RTVSPost2010Prop54
  1
strokes_ogs.tif
102
RTVSPost2010PropOp54
 70
     1
102
RTVSPost2010Prop55
280
     0
102
RTVSPost2010PropOp55
 70
     1
102
RTVSPost2010Prop56
140
1.0
102
RTVSPost2010PropOp56
 70
     1
102
RTVSPost2010Prop57
140
1.0
102
RTVSPost2010PropOp57
 70
     1
102
RTVSPropertyOp0
 70
     1
102
RTVSPropertyOp1
 70
     1
102
RTVSPropertyOp2
 70
     1
102
RTVSPropertyOp3
 70
     1
102
RTVSPropertyOp4
 70
     1
102
RTVSPropertyOp5
 70
     1
102
RTVSPropertyOp6
 70
     1
102
RTVSPropertyOp7
 70
     1
102
RTVSPropertyOp8
 70
     1
102
RTVSPropertyOp9
 70
     1
102
RTVSPropertyOp10
 70
     1
102
RTVSPropertyOp11
 70
     1
102
RTVSPropertyOp12
 70
     1
102
RTVSPropertyOp13
 70
     1
102
RTVSPropertyOp14
 70
     1
102
RTVSPropertyOp15
 70
     1
102
RTVSPropertyOp16
 70
     1
102
RTVSPropertyOp17
 70
     1
102
RTVSPropertyOp18
 70
     1
102
RTVSPropertyOp19
 70
     1
102
RTVSPropertyOp20
 70
     1
102
RTVSPropertyOp21
 70
     1
102
RTVSPropertyOp22
 70
     1
102
RTVSPropertyOp23
 70
     1
102
RTVSPropertyOp24
 70
     1
102
RTVSPropertyOp25
 70
     1
102
RTVSPropertyOp26
 70
     1
102
RTVSPropertyOp27
 70
     1
102
RTVSPropertyOp28
 70
     1
102
RTVSPropertyOp29
 70
     1
102
RTVSPropertyOp30
 70
     1
102
RTVSPropertyOp31
 70
     1
102
RTVSPropertyOp32
 70
     1
102
RTVSPropertyOp33
 70
     1
102
RTVSPropertyOp34
 70
     1
102
RTVSPropertyOp35
 70
     1
102
RTVSPropertyOp36
 70
     1
102
RTVSPropertyOp37
 70
     1
102
RTVSPropertyOp38
 70
     1
102
RTVSPropertyOp39
 70
     1
102
RTVSPropertyOp40
 70
     1
102
RTVSPropertyOp41
 70
     1
102
RTVSPropertyOp42
 70
     1
102
RTVSPropertyOp43
 70
     1
102
RTVSPropertyOp44
 70
     1
102
RTVSPropertyOp45
 70
     1
102
RTVSPropertyOp46
 70
     1
102
RTVSPropertyOp47
 70
     1
102
RTVSPropertyOp48
 70
     1
102
RTVSPropertyOp49
 70
     1
102
RTVSPropertyOp50
 70
     1
102
RTVSPropertyOp51
 70
     0
102
RTVSPropertyOp52
 70
     0
102
RTVSPropertyOp53
 70
     1
102
RTVSPropertyOp54
 70
     1
102
RTVSPropertyOp55
 70
     1
102
RTVSPropertyOp56
 70
     1
102
RTVSPropertyOp57
 70
     1
102
RTVSPropertyOp58
 70
     1
102
RTVSPropertyOp59
 70
     1
102
RTVSPropertyOp60
 70
     1
102
RTVSPropertyOp61
 70
     1
102
RTVSPropertyOp62
 70
     1
  0
XRECORD
  5
12A3
102
{ACAD_REACTORS
330
12A2
102
}
330
12A2
100
AcDbXrecord
280
     1
102
RTVSPost2010Prop28
280
     0
102
RTVSPost2010PropOp28
 70
     1
102
RTVSPost2010Prop29
280
     1
102
RTVSPost2010PropOp29
 70
     1
102
RTVSPost2010Prop30
280
     1
102
RTVSPost2010PropOp30
 70
     1
102
RTVSPost2010Prop31
280
     0
102
RTVSPost2010PropOp31
 70
     1
102
RTVSPost2010Prop32
280
     0
102
RTVSPost2010PropOp32
 70
     1
102
RTVSPost2010Prop33
280
     0
102
RTVSPost2010PropOp33
 70
     1
102
RTVSPost2010Prop34
280
     0
102
RTVSPost2010PropOp34
 70
     1
102
RTVSPost2010Prop35
280
     0
102
RTVSPost2010PropOp35
 70
     1
102
RTVSPost2010Prop36
280
     0
102
RTVSPost2010PropOp36
 70
     1
102
RTVSPost2010Prop37
 90
       50
102
RTVSPost2010PropOp37
 70
     1
102
RTVSPost2010Prop38
140
0.0
102
RTVSPost2010PropOp38
 70
     1
102
RTVSPost2010Prop39
140
1.0
102
RTVSPost2010PropOp39
 70
     1
102
RTVSPost2010Prop40
 90
        0
102
RTVSPost2010PropOp40
 70
     1
102
RTVSPost2010Prop41ColorIndex
 90
       18
102
RTVSPost2010Prop41ColorRGB
 90
        0
102
RTVSPost2010PropOp41
 70
     1
102
RTVSPost2010Prop42
 90
       50
102
RTVSPost2010PropOp42
 70
     1
102
RTVSPost2010Prop43
 90
        3
102
RTVSPost2010PropOp43
 70
     1
102
RTVSPost2010Prop44ColorIndex
 90
        5
102
RTVSPost2010Prop44ColorRGB
 90
      255
102
RTVSPost2010PropOp44
 70
     1
102
RTVSPost2010Prop45
280
     0
102
RTVSPost2010PropOp45
 70
     1
102
RTVSPost2010Prop46
 90
       50
102
RTVSPost2010PropOp46
 70
     1
102
RTVSPost2010Prop47
 90
       50
102
RTVSPost2010PropOp47
 70
     1
102
RTVSPost2010Prop48
 90
       50
102
RTVSPost2010PropOp48
 70
     1
102
RTVSPost2010Prop49
280
     0
102
RTVSPost2010PropOp49
 70
     1
102
RTVSPost2010Prop50
 90
       50
102
RTVSPost2010PropOp50
 70
     1
102
RTVSPost2010Prop51ColorIndex
 90
      256
102
RTVSPost2010Prop51ColorRGB
 90
-16777216
102
RTVSPost2010PropOp51
 70
     0
102
RTVSPost2010Prop52
140
1.0
102
RTVSPost2010PropOp52
 70
     0
102
RTVSPost2010Prop53
 90
        2
102
RTVSPost2010PropOp53
 70
     1
102
RTVSPost2010Prop54
  1
strokes_ogs.tif
102
RTVSPost2010PropOp54
 70
     1
102
RTVSPost2010Prop55
280
     0
102
RTVSPost2010PropOp55
 70
     1
102
RTVSPost2010Prop56
140
1.0
102
RTVSPost2010PropOp56
 70
     1
102
RTVSPost2010Prop57
140
1.0
102
RTVSPost2010PropOp57
 70
     1
102
RTVSPropertyOp0
 70
     1
102
RTVSPropertyOp1
 70
     1
102
RTVSPropertyOp2
 70
     1
102
RTVSPropertyOp3
 70
     1
102
RTVSPropertyOp4
 70
     1
102
RTVSPropertyOp5
 70
     1
102
RTVSPropertyOp6
 70
     1
102
RTVSPropertyOp7
 70
     1
102
RTVSPropertyOp8
 70
     1
102
RTVSPropertyOp9
 70
     1
102
RTVSPropertyOp10
 70
     1
102
RTVSPropertyOp11
 70
     1
102
RTVSPropertyOp12
 70
     1
102
RTVSPropertyOp13
 70
     1
102
RTVSPropertyOp14
 70
     1
102
RTVSPropertyOp15
 70
     1
102
RTVSPropertyOp16
 70
     1
102
RTVSPropertyOp17
 70
     1
102
RTVSPropertyOp18
 70
     1
102
RTVSPropertyOp19
 70
     1
102
RTVSPropertyOp20
 70
     1
102
RTVSPropertyOp21
 70
     1
102
RTVSPropertyOp22
 70
     1
102
RTVSPropertyOp23
 70
     1
102
RTVSPropertyOp24
 70
     1
102
RTVSPropertyOp25
 70
     1
102
RTVSPropertyOp26
 70
     1
102
RTVSPropertyOp27
 70
     1
102
RTVSPropertyOp28
 70
     1
102
RTVSPropertyOp29
 70
     1
102
RTVSPropertyOp30
 70
     1
102
RTVSPropertyOp31
 70
     1
102
RTVSPropertyOp32
 70
     1
102
RTVSPropertyOp33
 70
     1
102
RTVSPropertyOp34
 70
     1
102
RTVSPropertyOp35
 70
     1
102
RTVSPropertyOp36
 70
     1
102
RTVSPropertyOp37
 70
     1
102
RTVSPropertyOp38
 70
     1
102
RTVSPropertyOp39
 70
     1
102
RTVSPropertyOp40
 70
     1
102
RTVSPropertyOp41
 70
     1
102
RTVSPropertyOp42
 70
     1
102
RTVSPropertyOp43
 70
     1
102
RTVSPropertyOp44
 70
     1
102
RTVSPropertyOp45
 70
     1
102
RTVSPropertyOp46
 70
     1
102
RTVSPropertyOp47
 70
     1
102
RTVSPropertyOp48
 70
     1
102
RTVSPropertyOp49
 70
     1
102
RTVSPropertyOp50
 70
     1
102
RTVSPropertyOp51
 70
     0
102
RTVSPropertyOp52
 70
     0
102
RTVSPropertyOp53
 70
     1
102
RTVSPropertyOp54
 70
     1
102
RTVSPropertyOp55
 70
     1
102
RTVSPropertyOp56
 70
     1
102
RTVSPropertyOp57
 70
     1
102
RTVSPropertyOp58
 70
     1
102
RTVSPropertyOp59
 70
     1
102
RTVSPropertyOp60
 70
     1
102
RTVSPropertyOp61
 70
     1
102
RTVSPropertyOp62
 70
     1
  0
XRECORD
  5
12BC
102
{ACAD_REACTORS
330
12BB
102
}
330
12BB
100
AcDbXrecord
280
     1
102
RTVSPost2010Prop28
280
     0
102
RTVSPost2010PropOp28
 70
     1
102
RTVSPost2010Prop29
280
     1
102
RTVSPost2010PropOp29
 70
     1
102
RTVSPost2010Prop30
280
     1
102
RTVSPost2010PropOp30
 70
     1
102
RTVSPost2010Prop31
280
     0
102
RTVSPost2010PropOp31
 70
     1
102
RTVSPost2010Prop32
280
     0
102
RTVSPost2010PropOp32
 70
     1
102
RTVSPost2010Prop33
280
     0
102
RTVSPost2010PropOp33
 70
     1
102
RTVSPost2010Prop34
280
     0
102
RTVSPost2010PropOp34
 70
     1
102
RTVSPost2010Prop35
280
     0
102
RTVSPost2010PropOp35
 70
     1
102
RTVSPost2010Prop36
280
     0
102
RTVSPost2010PropOp36
 70
     1
102
RTVSPost2010Prop37
 90
       50
102
RTVSPost2010PropOp37
 70
     1
102
RTVSPost2010Prop38
140
0.0
102
RTVSPost2010PropOp38
 70
     1
102
RTVSPost2010Prop39
140
1.0
102
RTVSPost2010PropOp39
 70
     1
102
RTVSPost2010Prop40
 90
        0
102
RTVSPost2010PropOp40
 70
     1
102
RTVSPost2010Prop41ColorIndex
 90
       18
102
RTVSPost2010Prop41ColorRGB
 90
        0
102
RTVSPost2010PropOp41
 70
     1
102
RTVSPost2010Prop42
 90
       50
102
RTVSPost2010PropOp42
 70
     1
102
RTVSPost2010Prop43
 90
        3
102
RTVSPost2010PropOp43
 70
     1
102
RTVSPost2010Prop44ColorIndex
 90
        5
102
RTVSPost2010Prop44ColorRGB
 90
      255
102
RTVSPost2010PropOp44
 70
     1
102
RTVSPost2010Prop45
280
     0
102
RTVSPost2010PropOp45
 70
     1
102
RTVSPost2010Prop46
 90
       50
102
RTVSPost2010PropOp46
 70
     1
102
RTVSPost2010Prop47
 90
       50
102
RTVSPost2010PropOp47
 70
     1
102
RTVSPost2010Prop48
 90
       50
102
RTVSPost2010PropOp48
 70
     1
102
RTVSPost2010Prop49
280
     0
102
RTVSPost2010PropOp49
 70
     1
102
RTVSPost2010Prop50
 90
       50
102
RTVSPost2010PropOp50
 70
     1
102
RTVSPost2010Prop51ColorIndex
 90
      256
102
RTVSPost2010Prop51ColorRGB
 90
-16777216
102
RTVSPost2010PropOp51
 70
     0
102
RTVSPost2010Prop52
140
1.0
102
RTVSPost2010PropOp52
 70
     0
102
RTVSPost2010Prop53
 90
        2
102
RTVSPost2010PropOp53
 70
     1
102
RTVSPost2010Prop54
  1
strokes_ogs.tif
102
RTVSPost2010PropOp54
 70
     1
102
RTVSPost2010Prop55
280
     0
102
RTVSPost2010PropOp55
 70
     1
102
RTVSPost2010Prop56
140
1.0
102
RTVSPost2010PropOp56
 70
     1
102
RTVSPost2010Prop57
140
1.0
102
RTVSPost2010PropOp57
 70
     1
102
RTVSPropertyOp0
 70
     0
102
RTVSPropertyOp1
 70
     0
102
RTVSPropertyOp2
 70
     0
102
RTVSPropertyOp3
 70
     0
102
RTVSPropertyOp4
 70
     0
102
RTVSPropertyOp5
 70
     0
102
RTVSPropertyOp6
 70
     0
102
RTVSPropertyOp7
 70
     0
102
RTVSPropertyOp8
 70
     0
102
RTVSPropertyOp9
 70
     0
102
RTVSPropertyOp10
 70
     0
102
RTVSPropertyOp11
 70
     0
102
RTVSPropertyOp12
 70
     0
102
RTVSPropertyOp13
 70
     0
102
RTVSPropertyOp14
 70
     2
102
RTVSPropertyOp15
 70
     0
102
RTVSPropertyOp16
 70
     0
102
RTVSPropertyOp17
 70
     0
102
RTVSPropertyOp18
 70
     0
102
RTVSPropertyOp19
 70
     0
102
RTVSPropertyOp20
 70
     0
102
RTVSPropertyOp21
 70
     0
102
RTVSPropertyOp22
 70
     0
102
RTVSPropertyOp23
 70
     0
102
RTVSPropertyOp24
 70
     0
102
RTVSPropertyOp25
 70
     0
102
RTVSPropertyOp26
 70
     0
102
RTVSPropertyOp27
 70
     0
102
RTVSPropertyOp28
 70
     1
102
RTVSPropertyOp29
 70
     1
102
RTVSPropertyOp30
 70
     1
102
RTVSPropertyOp31
 70
     1
102
RTVSPropertyOp32
 70
     1
102
RTVSPropertyOp33
 70
     1
102
RTVSPropertyOp34
 70
     1
102
RTVSPropertyOp35
 70
     1
102
RTVSPropertyOp36
 70
     1
102
RTVSPropertyOp37
 70
     1
102
RTVSPropertyOp38
 70
     1
102
RTVSPropertyOp39
 70
     1
102
RTVSPropertyOp40
 70
     1
102
RTVSPropertyOp41
 70
     1
102
RTVSPropertyOp42
 70
     1
102
RTVSPropertyOp43
 70
     1
102
RTVSPropertyOp44
 70
     1
102
RTVSPropertyOp45
 70
     1
102
RTVSPropertyOp46
 70
     1
102
RTVSPropertyOp47
 70
     1
102
RTVSPropertyOp48
 70
     1
102
RTVSPropertyOp49
 70
     1
102
RTVSPropertyOp50
 70
     1
102
RTVSPropertyOp51
 70
     0
102
RTVSPropertyOp52
 70
     0
102
RTVSPropertyOp53
 70
     1
102
RTVSPropertyOp54
 70
     1
102
RTVSPropertyOp55
 70
     1
102
RTVSPropertyOp56
 70
     1
102
RTVSPropertyOp57
 70
     1
102
RTVSPropertyOp58
 70
     1
102
RTVSPropertyOp59
 70
     1
102
RTVSPropertyOp60
 70
     1
102
RTVSPropertyOp61
 70
     1
102
RTVSPropertyOp62
 70
     1
  0
XRECORD
  5
12AB
102
{ACAD_REACTORS
330
12AA
102
}
330
12AA
100
AcDbXrecord
280
     1
102
RTVSPost2010Prop28
280
     0
102
RTVSPost2010PropOp28
 70
     1
102
RTVSPost2010Prop29
280
     1
102
RTVSPost2010PropOp29
 70
     1
102
RTVSPost2010Prop30
280
     1
102
RTVSPost2010PropOp30
 70
     1
102
RTVSPost2010Prop31
280
     0
102
RTVSPost2010PropOp31
 70
     1
102
RTVSPost2010Prop32
280
     0
102
RTVSPost2010PropOp32
 70
     1
102
RTVSPost2010Prop33
280
     0
102
RTVSPost2010PropOp33
 70
     1
102
RTVSPost2010Prop34
280
     0
102
RTVSPost2010PropOp34
 70
     1
102
RTVSPost2010Prop35
280
     0
102
RTVSPost2010PropOp35
 70
     1
102
RTVSPost2010Prop36
280
     0
102
RTVSPost2010PropOp36
 70
     1
102
RTVSPost2010Prop37
 90
       50
102
RTVSPost2010PropOp37
 70
     1
102
RTVSPost2010Prop38
140
0.0
102
RTVSPost2010PropOp38
 70
     1
102
RTVSPost2010Prop39
140
1.0
102
RTVSPost2010PropOp39
 70
     1
102
RTVSPost2010Prop40
 90
        0
102
RTVSPost2010PropOp40
 70
     1
102
RTVSPost2010Prop41ColorIndex
 90
       18
102
RTVSPost2010Prop41ColorRGB
 90
        0
102
RTVSPost2010PropOp41
 70
     1
102
RTVSPost2010Prop42
 90
       50
102
RTVSPost2010PropOp42
 70
     1
102
RTVSPost2010Prop43
 90
        3
102
RTVSPost2010PropOp43
 70
     1
102
RTVSPost2010Prop44ColorIndex
 90
        5
102
RTVSPost2010Prop44ColorRGB
 90
      255
102
RTVSPost2010PropOp44
 70
     1
102
RTVSPost2010Prop45
280
     0
102
RTVSPost2010PropOp45
 70
     1
102
RTVSPost2010Prop46
 90
       50
102
RTVSPost2010PropOp46
 70
     1
102
RTVSPost2010Prop47
 90
       50
102
RTVSPost2010PropOp47
 70
     1
102
RTVSPost2010Prop48
 90
       50
102
RTVSPost2010PropOp48
 70
     1
102
RTVSPost2010Prop49
280
     0
102
RTVSPost2010PropOp49
 70
     1
102
RTVSPost2010Prop50
 90
       50
102
RTVSPost2010PropOp50
 70
     1
102
RTVSPost2010Prop51ColorIndex
 90
      256
102
RTVSPost2010Prop51ColorRGB
 90
-16777216
102
RTVSPost2010PropOp51
 70
     0
102
RTVSPost2010Prop52
140
1.0
102
RTVSPost2010PropOp52
 70
     0
102
RTVSPost2010Prop53
 90
        2
102
RTVSPost2010PropOp53
 70
     1
102
RTVSPost2010Prop54
  1
strokes_ogs.tif
102
RTVSPost2010PropOp54
 70
     1
102
RTVSPost2010Prop55
280
     0
102
RTVSPost2010PropOp55
 70
     1
102
RTVSPost2010Prop56
140
1.0
102
RTVSPost2010PropOp56
 70
     1
102
RTVSPost2010Prop57
140
1.0
102
RTVSPost2010PropOp57
 70
     1
102
RTVSPropertyOp0
 70
     1
102
RTVSPropertyOp1
 70
     1
102
RTVSPropertyOp2
 70
     1
102
RTVSPropertyOp3
 70
     1
102
RTVSPropertyOp4
 70
     1
102
RTVSPropertyOp5
 70
     1
102
RTVSPropertyOp6
 70
     1
102
RTVSPropertyOp7
 70
     1
102
RTVSPropertyOp8
 70
     1
102
RTVSPropertyOp9
 70
     1
102
RTVSPropertyOp10
 70
     1
102
RTVSPropertyOp11
 70
     1
102
RTVSPropertyOp12
 70
     1
102
RTVSPropertyOp13
 70
     1
102
RTVSPropertyOp14
 70
     1
102
RTVSPropertyOp15
 70
     1
102
RTVSPropertyOp16
 70
     1
102
RTVSPropertyOp17
 70
     1
102
RTVSPropertyOp18
 70
     1
102
RTVSPropertyOp19
 70
     1
102
RTVSPropertyOp20
 70
     1
102
RTVSPropertyOp21
 70
     1
102
RTVSPropertyOp22
 70
     1
102
RTVSPropertyOp23
 70
     1
102
RTVSPropertyOp24
 70
     1
102
RTVSPropertyOp25
 70
     1
102
RTVSPropertyOp26
 70
     1
102
RTVSPropertyOp27
 70
     1
102
RTVSPropertyOp28
 70
     1
102
RTVSPropertyOp29
 70
     1
102
RTVSPropertyOp30
 70
     1
102
RTVSPropertyOp31
 70
     1
102
RTVSPropertyOp32
 70
     1
102
RTVSPropertyOp33
 70
     1
102
RTVSPropertyOp34
 70
     1
102
RTVSPropertyOp35
 70
     1
102
RTVSPropertyOp36
 70
     1
102
RTVSPropertyOp37
 70
     1
102
RTVSPropertyOp38
 70
     1
102
RTVSPropertyOp39
 70
     1
102
RTVSPropertyOp40
 70
     1
102
RTVSPropertyOp41
 70
     1
102
RTVSPropertyOp42
 70
     1
102
RTVSPropertyOp43
 70
     1
102
RTVSPropertyOp44
 70
     1
102
RTVSPropertyOp45
 70
     1
102
RTVSPropertyOp46
 70
     1
102
RTVSPropertyOp47
 70
     1
102
RTVSPropertyOp48
 70
     1
102
RTVSPropertyOp49
 70
     1
102
RTVSPropertyOp50
 70
     1
102
RTVSPropertyOp51
 70
     0
102
RTVSPropertyOp52
 70
     0
102
RTVSPropertyOp53
 70
     1
102
RTVSPropertyOp54
 70
     1
102
RTVSPropertyOp55
 70
     1
102
RTVSPropertyOp56
 70
     1
102
RTVSPropertyOp57
 70
     1
102
RTVSPropertyOp58
 70
     1
102
RTVSPropertyOp59
 70
     1
102
RTVSPropertyOp60
 70
     1
102
RTVSPropertyOp61
 70
     1
102
RTVSPropertyOp62
 70
     1
  0
XRECORD
  5
128F
102
{ACAD_REACTORS
330
128E
102
}
330
128E
100
AcDbXrecord
280
     1
102
RTVSPost2010Prop28
280
     0
102
RTVSPost2010PropOp28
 70
     1
102
RTVSPost2010Prop29
280
     1
102
RTVSPost2010PropOp29
 70
     1
102
RTVSPost2010Prop30
280
     1
102
RTVSPost2010PropOp30
 70
     1
102
RTVSPost2010Prop31
280
     0
102
RTVSPost2010PropOp31
 70
     1
102
RTVSPost2010Prop32
280
     0
102
RTVSPost2010PropOp32
 70
     1
102
RTVSPost2010Prop33
280
     0
102
RTVSPost2010PropOp33
 70
     1
102
RTVSPost2010Prop34
280
     0
102
RTVSPost2010PropOp34
 70
     1
102
RTVSPost2010Prop35
280
     0
102
RTVSPost2010PropOp35
 70
     1
102
RTVSPost2010Prop36
280
     0
102
RTVSPost2010PropOp36
 70
     1
102
RTVSPost2010Prop37
 90
       50
102
RTVSPost2010PropOp37
 70
     1
102
RTVSPost2010Prop38
140
0.0
102
RTVSPost2010PropOp38
 70
     1
102
RTVSPost2010Prop39
140
1.0
102
RTVSPost2010PropOp39
 70
     1
102
RTVSPost2010Prop40
 90
        0
102
RTVSPost2010PropOp40
 70
     1
102
RTVSPost2010Prop41ColorIndex
 90
       18
102
RTVSPost2010Prop41ColorRGB
 90
        0
102
RTVSPost2010PropOp41
 70
     1
102
RTVSPost2010Prop42
 90
       50
102
RTVSPost2010PropOp42
 70
     1
102
RTVSPost2010Prop43
 90
        3
102
RTVSPost2010PropOp43
 70
     1
102
RTVSPost2010Prop44ColorIndex
 90
        5
102
RTVSPost2010Prop44ColorRGB
 90
      255
102
RTVSPost2010PropOp44
 70
     1
102
RTVSPost2010Prop45
280
     0
102
RTVSPost2010PropOp45
 70
     1
102
RTVSPost2010Prop46
 90
       50
102
RTVSPost2010PropOp46
 70
     1
102
RTVSPost2010Prop47
 90
       50
102
RTVSPost2010PropOp47
 70
     1
102
RTVSPost2010Prop48
 90
       50
102
RTVSPost2010PropOp48
 70
     1
102
RTVSPost2010Prop49
280
     0
102
RTVSPost2010PropOp49
 70
     1
102
RTVSPost2010Prop50
 90
       50
102
RTVSPost2010PropOp50
 70
     1
102
RTVSPost2010Prop51ColorIndex
 90
      256
102
RTVSPost2010Prop51ColorRGB
 90
-16777216
102
RTVSPost2010PropOp51
 70
     0
102
RTVSPost2010Prop52
140
1.0
102
RTVSPost2010PropOp52
 70
     0
102
RTVSPost2010Prop53
 90
        2
102
RTVSPost2010PropOp53
 70
     1
102
RTVSPost2010Prop54
  1
strokes_ogs.tif
102
RTVSPost2010PropOp54
 70
     1
102
RTVSPost2010Prop55
280
     0
102
RTVSPost2010PropOp55
 70
     1
102
RTVSPost2010Prop56
140
1.0
102
RTVSPost2010PropOp56
 70
     1
102
RTVSPost2010Prop57
140
1.0
102
RTVSPost2010PropOp57
 70
     1
102
RTVSPropertyOp0
 70
     1
102
RTVSPropertyOp1
 70
     1
102
RTVSPropertyOp2
 70
     1
102
RTVSPropertyOp3
 70
     1
102
RTVSPropertyOp4
 70
     1
102
RTVSPropertyOp5
 70
     1
102
RTVSPropertyOp6
 70
     1
102
RTVSPropertyOp7
 70
     1
102
RTVSPropertyOp8
 70
     1
102
RTVSPropertyOp9
 70
     1
102
RTVSPropertyOp10
 70
     1
102
RTVSPropertyOp11
 70
     1
102
RTVSPropertyOp12
 70
     1
102
RTVSPropertyOp13
 70
     1
102
RTVSPropertyOp14
 70
     1
102
RTVSPropertyOp15
 70
     1
102
RTVSPropertyOp16
 70
     1
102
RTVSPropertyOp17
 70
     1
102
RTVSPropertyOp18
 70
     1
102
RTVSPropertyOp19
 70
     1
102
RTVSPropertyOp20
 70
     1
102
RTVSPropertyOp21
 70
     1
102
RTVSPropertyOp22
 70
     1
102
RTVSPropertyOp23
 70
     1
102
RTVSPropertyOp24
 70
     1
102
RTVSPropertyOp25
 70
     1
102
RTVSPropertyOp26
 70
     1
102
RTVSPropertyOp27
 70
     1
102
RTVSPropertyOp28
 70
     1
102
RTVSPropertyOp29
 70
     1
102
RTVSPropertyOp30
 70
     1
102
RTVSPropertyOp31
 70
     1
102
RTVSPropertyOp32
 70
     1
102
RTVSPropertyOp33
 70
     1
102
RTVSPropertyOp34
 70
     1
102
RTVSPropertyOp35
 70
     1
102
RTVSPropertyOp36
 70
     1
102
RTVSPropertyOp37
 70
     1
102
RTVSPropertyOp38
 70
     1
102
RTVSPropertyOp39
 70
     1
102
RTVSPropertyOp40
 70
     1
102
RTVSPropertyOp41
 70
     1
102
RTVSPropertyOp42
 70
     1
102
RTVSPropertyOp43
 70
     1
102
RTVSPropertyOp44
 70
     1
102
RTVSPropertyOp45
 70
     1
102
RTVSPropertyOp46
 70
     1
102
RTVSPropertyOp47
 70
     1
102
RTVSPropertyOp48
 70
     1
102
RTVSPropertyOp49
 70
     1
102
RTVSPropertyOp50
 70
     1
102
RTVSPropertyOp51
 70
     0
102
RTVSPropertyOp52
 70
     0
102
RTVSPropertyOp53
 70
     1
102
RTVSPropertyOp54
 70
     1
102
RTVSPropertyOp55
 70
     1
102
RTVSPropertyOp56
 70
     1
102
RTVSPropertyOp57
 70
     1
102
RTVSPropertyOp58
 70
     1
102
RTVSPropertyOp59
 70
     1
102
RTVSPropertyOp60
 70
     1
102
RTVSPropertyOp61
 70
     1
102
RTVSPropertyOp62
 70
     1
  0
XRECORD
  5
1291
102
{ACAD_REACTORS
330
1290
102
}
330
1290
100
AcDbXrecord
280
     1
102
RTVSPost2010Prop28
280
     0
102
RTVSPost2010PropOp28
 70
     1
102
RTVSPost2010Prop29
280
     1
102
RTVSPost2010PropOp29
 70
     1
102
RTVSPost2010Prop30
280
     1
102
RTVSPost2010PropOp30
 70
     1
102
RTVSPost2010Prop31
280
     0
102
RTVSPost2010PropOp31
 70
     1
102
RTVSPost2010Prop32
280
     0
102
RTVSPost2010PropOp32
 70
     1
102
RTVSPost2010Prop33
280
     0
102
RTVSPost2010PropOp33
 70
     1
102
RTVSPost2010Prop34
280
     0
102
RTVSPost2010PropOp34
 70
     1
102
RTVSPost2010Prop35
280
     0
102
RTVSPost2010PropOp35
 70
     1
102
RTVSPost2010Prop36
280
     0
102
RTVSPost2010PropOp36
 70
     1
102
RTVSPost2010Prop37
 90
       50
102
RTVSPost2010PropOp37
 70
     1
102
RTVSPost2010Prop38
140
0.0
102
RTVSPost2010PropOp38
 70
     1
102
RTVSPost2010Prop39
140
1.0
102
RTVSPost2010PropOp39
 70
     1
102
RTVSPost2010Prop40
 90
        0
102
RTVSPost2010PropOp40
 70
     1
102
RTVSPost2010Prop41ColorIndex
 90
       18
102
RTVSPost2010Prop41ColorRGB
 90
        0
102
RTVSPost2010PropOp41
 70
     1
102
RTVSPost2010Prop42
 90
       50
102
RTVSPost2010PropOp42
 70
     1
102
RTVSPost2010Prop43
 90
        3
102
RTVSPost2010PropOp43
 70
     1
102
RTVSPost2010Prop44ColorIndex
 90
        5
102
RTVSPost2010Prop44ColorRGB
 90
      255
102
RTVSPost2010PropOp44
 70
     1
102
RTVSPost2010Prop45
280
     0
102
RTVSPost2010PropOp45
 70
     1
102
RTVSPost2010Prop46
 90
       50
102
RTVSPost2010PropOp46
 70
     1
102
RTVSPost2010Prop47
 90
       50
102
RTVSPost2010PropOp47
 70
     1
102
RTVSPost2010Prop48
 90
       50
102
RTVSPost2010PropOp48
 70
     1
102
RTVSPost2010Prop49
280
     0
102
RTVSPost2010PropOp49
 70
     1
102
RTVSPost2010Prop50
 90
       50
102
RTVSPost2010PropOp50
 70
     1
102
RTVSPost2010Prop51ColorIndex
 90
      256
102
RTVSPost2010Prop51ColorRGB
 90
-16777216
102
RTVSPost2010PropOp51
 70
     0
102
RTVSPost2010Prop52
140
1.0
102
RTVSPost2010PropOp52
 70
     0
102
RTVSPost2010Prop53
 90
        2
102
RTVSPost2010PropOp53
 70
     1
102
RTVSPost2010Prop54
  1
strokes_ogs.tif
102
RTVSPost2010PropOp54
 70
     1
102
RTVSPost2010Prop55
280
     0
102
RTVSPost2010PropOp55
 70
     1
102
RTVSPost2010Prop56
140
1.0
102
RTVSPost2010PropOp56
 70
     1
102
RTVSPost2010Prop57
140
1.0
102
RTVSPost2010PropOp57
 70
     1
102
RTVSPropertyOp0
 70
     1
102
RTVSPropertyOp1
 70
     1
102
RTVSPropertyOp2
 70
     1
102
RTVSPropertyOp3
 70
     1
102
RTVSPropertyOp4
 70
     1
102
RTVSPropertyOp5
 70
     1
102
RTVSPropertyOp6
 70
     1
102
RTVSPropertyOp7
 70
     1
102
RTVSPropertyOp8
 70
     1
102
RTVSPropertyOp9
 70
     1
102
RTVSPropertyOp10
 70
     1
102
RTVSPropertyOp11
 70
     1
102
RTVSPropertyOp12
 70
     1
102
RTVSPropertyOp13
 70
     1
102
RTVSPropertyOp14
 70
     1
102
RTVSPropertyOp15
 70
     1
102
RTVSPropertyOp16
 70
     1
102
RTVSPropertyOp17
 70
     1
102
RTVSPropertyOp18
 70
     1
102
RTVSPropertyOp19
 70
     1
102
RTVSPropertyOp20
 70
     1
102
RTVSPropertyOp21
 70
     1
102
RTVSPropertyOp22
 70
     1
102
RTVSPropertyOp23
 70
     1
102
RTVSPropertyOp24
 70
     1
102
RTVSPropertyOp25
 70
     1
102
RTVSPropertyOp26
 70
     1
102
RTVSPropertyOp27
 70
     1
102
RTVSPropertyOp28
 70
     1
102
RTVSPropertyOp29
 70
     1
102
RTVSPropertyOp30
 70
     1
102
RTVSPropertyOp31
 70
     1
102
RTVSPropertyOp32
 70
     1
102
RTVSPropertyOp33
 70
     1
102
RTVSPropertyOp34
 70
     1
102
RTVSPropertyOp35
 70
     1
102
RTVSPropertyOp36
 70
     1
102
RTVSPropertyOp37
 70
     1
102
RTVSPropertyOp38
 70
     1
102
RTVSPropertyOp39
 70
     1
102
RTVSPropertyOp40
 70
     1
102
RTVSPropertyOp41
 70
     1
102
RTVSPropertyOp42
 70
     1
102
RTVSPropertyOp43
 70
     1
102
RTVSPropertyOp44
 70
     1
102
RTVSPropertyOp45
 70
     1
102
RTVSPropertyOp46
 70
     1
102
RTVSPropertyOp47
 70
     1
102
RTVSPropertyOp48
 70
     1
102
RTVSPropertyOp49
 70
     1
102
RTVSPropertyOp50
 70
     1
102
RTVSPropertyOp51
 70
     0
102
RTVSPropertyOp52
 70
     0
102
RTVSPropertyOp53
 70
     1
102
RTVSPropertyOp54
 70
     1
102
RTVSPropertyOp55
 70
     1
102
RTVSPropertyOp56
 70
     1
102
RTVSPropertyOp57
 70
     1
102
RTVSPropertyOp58
 70
     1
102
RTVSPropertyOp59
 70
     1
102
RTVSPropertyOp60
 70
     1
102
RTVSPropertyOp61
 70
     1
102
RTVSPropertyOp62
 70
     1
  0
XRECORD
  5
1293
102
{ACAD_REACTORS
330
1292
102
}
330
1292
100
AcDbXrecord
280
     1
102
RTVSPost2010Prop28
280
     0
102
RTVSPost2010PropOp28
 70
     1
102
RTVSPost2010Prop29
280
     1
102
RTVSPost2010PropOp29
 70
     1
102
RTVSPost2010Prop30
280
     1
102
RTVSPost2010PropOp30
 70
     1
102
RTVSPost2010Prop31
280
     0
102
RTVSPost2010PropOp31
 70
     1
102
RTVSPost2010Prop32
280
     0
102
RTVSPost2010PropOp32
 70
     1
102
RTVSPost2010Prop33
280
     0
102
RTVSPost2010PropOp33
 70
     1
102
RTVSPost2010Prop34
280
     0
102
RTVSPost2010PropOp34
 70
     1
102
RTVSPost2010Prop35
280
     0
102
RTVSPost2010PropOp35
 70
     1
102
RTVSPost2010Prop36
280
     0
102
RTVSPost2010PropOp36
 70
     1
102
RTVSPost2010Prop37
 90
       50
102
RTVSPost2010PropOp37
 70
     1
102
RTVSPost2010Prop38
140
0.0
102
RTVSPost2010PropOp38
 70
     1
102
RTVSPost2010Prop39
140
1.0
102
RTVSPost2010PropOp39
 70
     1
102
RTVSPost2010Prop40
 90
        0
102
RTVSPost2010PropOp40
 70
     1
102
RTVSPost2010Prop41ColorIndex
 90
       18
102
RTVSPost2010Prop41ColorRGB
 90
        0
102
RTVSPost2010PropOp41
 70
     1
102
RTVSPost2010Prop42
 90
       50
102
RTVSPost2010PropOp42
 70
     1
102
RTVSPost2010Prop43
 90
        3
102
RTVSPost2010PropOp43
 70
     1
102
RTVSPost2010Prop44ColorIndex
 90
        5
102
RTVSPost2010Prop44ColorRGB
 90
      255
102
RTVSPost2010PropOp44
 70
     1
102
RTVSPost2010Prop45
280
     0
102
RTVSPost2010PropOp45
 70
     1
102
RTVSPost2010Prop46
 90
       50
102
RTVSPost2010PropOp46
 70
     1
102
RTVSPost2010Prop47
 90
       50
102
RTVSPost2010PropOp47
 70
     1
102
RTVSPost2010Prop48
 90
       50
102
RTVSPost2010PropOp48
 70
     1
102
RTVSPost2010Prop49
280
     0
102
RTVSPost2010PropOp49
 70
     1
102
RTVSPost2010Prop50
 90
       50
102
RTVSPost2010PropOp50
 70
     1
102
RTVSPost2010Prop51ColorIndex
 90
      256
102
RTVSPost2010Prop51ColorRGB
 90
-16777216
102
RTVSPost2010PropOp51
 70
     0
102
RTVSPost2010Prop52
140
1.0
102
RTVSPost2010PropOp52
 70
     0
102
RTVSPost2010Prop53
 90
        2
102
RTVSPost2010PropOp53
 70
     1
102
RTVSPost2010Prop54
  1
strokes_ogs.tif
102
RTVSPost2010PropOp54
 70
     1
102
RTVSPost2010Prop55
280
     0
102
RTVSPost2010PropOp55
 70
     1
102
RTVSPost2010Prop56
140
1.0
102
RTVSPost2010PropOp56
 70
     1
102
RTVSPost2010Prop57
140
1.0
102
RTVSPost2010PropOp57
 70
     1
102
RTVSPropertyOp0
 70
     1
102
RTVSPropertyOp1
 70
     1
102
RTVSPropertyOp2
 70
     1
102
RTVSPropertyOp3
 70
     1
102
RTVSPropertyOp4
 70
     1
102
RTVSPropertyOp5
 70
     1
102
RTVSPropertyOp6
 70
     1
102
RTVSPropertyOp7
 70
     1
102
RTVSPropertyOp8
 70
     1
102
RTVSPropertyOp9
 70
     1
102
RTVSPropertyOp10
 70
     1
102
RTVSPropertyOp11
 70
     1
102
RTVSPropertyOp12
 70
     1
102
RTVSPropertyOp13
 70
     1
102
RTVSPropertyOp14
 70
     1
102
RTVSPropertyOp15
 70
     1
102
RTVSPropertyOp16
 70
     1
102
RTVSPropertyOp17
 70
     1
102
RTVSPropertyOp18
 70
     1
102
RTVSPropertyOp19
 70
     1
102
RTVSPropertyOp20
 70
     1
102
RTVSPropertyOp21
 70
     1
102
RTVSPropertyOp22
 70
     1
102
RTVSPropertyOp23
 70
     1
102
RTVSPropertyOp24
 70
     1
102
RTVSPropertyOp25
 70
     1
102
RTVSPropertyOp26
 70
     1
102
RTVSPropertyOp27
 70
     1
102
RTVSPropertyOp28
 70
     1
102
RTVSPropertyOp29
 70
     1
102
RTVSPropertyOp30
 70
     1
102
RTVSPropertyOp31
 70
     1
102
RTVSPropertyOp32
 70
     1
102
RTVSPropertyOp33
 70
     1
102
RTVSPropertyOp34
 70
     1
102
RTVSPropertyOp35
 70
     1
102
RTVSPropertyOp36
 70
     1
102
RTVSPropertyOp37
 70
     1
102
RTVSPropertyOp38
 70
     1
102
RTVSPropertyOp39
 70
     1
102
RTVSPropertyOp40
 70
     1
102
RTVSPropertyOp41
 70
     1
102
RTVSPropertyOp42
 70
     1
102
RTVSPropertyOp43
 70
     1
102
RTVSPropertyOp44
 70
     1
102
RTVSPropertyOp45
 70
     1
102
RTVSPropertyOp46
 70
     1
102
RTVSPropertyOp47
 70
     1
102
RTVSPropertyOp48
 70
     1
102
RTVSPropertyOp49
 70
     1
102
RTVSPropertyOp50
 70
     1
102
RTVSPropertyOp51
 70
     0
102
RTVSPropertyOp52
 70
     0
102
RTVSPropertyOp53
 70
     1
102
RTVSPropertyOp54
 70
     1
102
RTVSPropertyOp55
 70
     1
102
RTVSPropertyOp56
 70
     1
102
RTVSPropertyOp57
 70
     1
102
RTVSPropertyOp58
 70
     1
102
RTVSPropertyOp59
 70
     1
102
RTVSPropertyOp60
 70
     1
102
RTVSPropertyOp61
 70
     1
102
RTVSPropertyOp62
 70
     1
  0
XRECORD
  5
1295
102
{ACAD_REACTORS
330
1294
102
}
330
1294
100
AcDbXrecord
280
     1
102
RTVSPost2010Prop28
280
     0
102
RTVSPost2010PropOp28
 70
     1
102
RTVSPost2010Prop29
280
     1
102
RTVSPost2010PropOp29
 70
     1
102
RTVSPost2010Prop30
280
     1
102
RTVSPost2010PropOp30
 70
     1
102
RTVSPost2010Prop31
280
     0
102
RTVSPost2010PropOp31
 70
     1
102
RTVSPost2010Prop32
280
     0
102
RTVSPost2010PropOp32
 70
     1
102
RTVSPost2010Prop33
280
     0
102
RTVSPost2010PropOp33
 70
     1
102
RTVSPost2010Prop34
280
     0
102
RTVSPost2010PropOp34
 70
     1
102
RTVSPost2010Prop35
280
     0
102
RTVSPost2010PropOp35
 70
     1
102
RTVSPost2010Prop36
280
     0
102
RTVSPost2010PropOp36
 70
     1
102
RTVSPost2010Prop37
 90
       50
102
RTVSPost2010PropOp37
 70
     1
102
RTVSPost2010Prop38
140
0.0
102
RTVSPost2010PropOp38
 70
     1
102
RTVSPost2010Prop39
140
1.0
102
RTVSPost2010PropOp39
 70
     1
102
RTVSPost2010Prop40
 90
        0
102
RTVSPost2010PropOp40
 70
     1
102
RTVSPost2010Prop41ColorIndex
 90
       18
102
RTVSPost2010Prop41ColorRGB
 90
        0
102
RTVSPost2010PropOp41
 70
     1
102
RTVSPost2010Prop42
 90
       50
102
RTVSPost2010PropOp42
 70
     1
102
RTVSPost2010Prop43
 90
        3
102
RTVSPost2010PropOp43
 70
     1
102
RTVSPost2010Prop44ColorIndex
 90
        5
102
RTVSPost2010Prop44ColorRGB
 90
      255
102
RTVSPost2010PropOp44
 70
     1
102
RTVSPost2010Prop45
280
     0
102
RTVSPost2010PropOp45
 70
     1
102
RTVSPost2010Prop46
 90
       50
102
RTVSPost2010PropOp46
 70
     1
102
RTVSPost2010Prop47
 90
       50
102
RTVSPost2010PropOp47
 70
     1
102
RTVSPost2010Prop48
 90
       50
102
RTVSPost2010PropOp48
 70
     1
102
RTVSPost2010Prop49
280
     0
102
RTVSPost2010PropOp49
 70
     1
102
RTVSPost2010Prop50
 90
       50
102
RTVSPost2010PropOp50
 70
     1
102
RTVSPost2010Prop51ColorIndex
 90
      256
102
RTVSPost2010Prop51ColorRGB
 90
-16777216
102
RTVSPost2010PropOp51
 70
     0
102
RTVSPost2010Prop52
140
1.0
102
RTVSPost2010PropOp52
 70
     0
102
RTVSPost2010Prop53
 90
        2
102
RTVSPost2010PropOp53
 70
     1
102
RTVSPost2010Prop54
  1
strokes_ogs.tif
102
RTVSPost2010PropOp54
 70
     1
102
RTVSPost2010Prop55
280
     0
102
RTVSPost2010PropOp55
 70
     1
102
RTVSPost2010Prop56
140
1.0
102
RTVSPost2010PropOp56
 70
     1
102
RTVSPost2010Prop57
140
1.0
102
RTVSPost2010PropOp57
 70
     1
102
RTVSPropertyOp0
 70
     1
102
RTVSPropertyOp1
 70
     1
102
RTVSPropertyOp2
 70
     1
102
RTVSPropertyOp3
 70
     1
102
RTVSPropertyOp4
 70
     1
102
RTVSPropertyOp5
 70
     1
102
RTVSPropertyOp6
 70
     1
102
RTVSPropertyOp7
 70
     1
102
RTVSPropertyOp8
 70
     1
102
RTVSPropertyOp9
 70
     1
102
RTVSPropertyOp10
 70
     1
102
RTVSPropertyOp11
 70
     1
102
RTVSPropertyOp12
 70
     1
102
RTVSPropertyOp13
 70
     1
102
RTVSPropertyOp14
 70
     1
102
RTVSPropertyOp15
 70
     1
102
RTVSPropertyOp16
 70
     1
102
RTVSPropertyOp17
 70
     1
102
RTVSPropertyOp18
 70
     1
102
RTVSPropertyOp19
 70
     1
102
RTVSPropertyOp20
 70
     1
102
RTVSPropertyOp21
 70
     1
102
RTVSPropertyOp22
 70
     1
102
RTVSPropertyOp23
 70
     1
102
RTVSPropertyOp24
 70
     1
102
RTVSPropertyOp25
 70
     1
102
RTVSPropertyOp26
 70
     1
102
RTVSPropertyOp27
 70
     1
102
RTVSPropertyOp28
 70
     1
102
RTVSPropertyOp29
 70
     1
102
RTVSPropertyOp30
 70
     1
102
RTVSPropertyOp31
 70
     1
102
RTVSPropertyOp32
 70
     1
102
RTVSPropertyOp33
 70
     1
102
RTVSPropertyOp34
 70
     1
102
RTVSPropertyOp35
 70
     1
102
RTVSPropertyOp36
 70
     1
102
RTVSPropertyOp37
 70
     1
102
RTVSPropertyOp38
 70
     1
102
RTVSPropertyOp39
 70
     1
102
RTVSPropertyOp40
 70
     1
102
RTVSPropertyOp41
 70
     1
102
RTVSPropertyOp42
 70
     1
102
RTVSPropertyOp43
 70
     1
102
RTVSPropertyOp44
 70
     1
102
RTVSPropertyOp45
 70
     1
102
RTVSPropertyOp46
 70
     1
102
RTVSPropertyOp47
 70
     1
102
RTVSPropertyOp48
 70
     1
102
RTVSPropertyOp49
 70
     1
102
RTVSPropertyOp50
 70
     1
102
RTVSPropertyOp51
 70
     0
102
RTVSPropertyOp52
 70
     0
102
RTVSPropertyOp53
 70
     1
102
RTVSPropertyOp54
 70
     1
102
RTVSPropertyOp55
 70
     1
102
RTVSPropertyOp56
 70
     1
102
RTVSPropertyOp57
 70
     1
102
RTVSPropertyOp58
 70
     1
102
RTVSPropertyOp59
 70
     1
102
RTVSPropertyOp60
 70
     1
102
RTVSPropertyOp61
 70
     1
102
RTVSPropertyOp62
 70
     1
  0
XRECORD
  5
12C0
102
{ACAD_REACTORS
330
12BF
102
}
330
12BF
100
AcDbXrecord
280
     1
102
RTVSPost2010Prop28
280
     0
102
RTVSPost2010PropOp28
 70
     1
102
RTVSPost2010Prop29
280
     1
102
RTVSPost2010PropOp29
 70
     1
102
RTVSPost2010Prop30
280
     1
102
RTVSPost2010PropOp30
 70
     1
102
RTVSPost2010Prop31
280
     0
102
RTVSPost2010PropOp31
 70
     1
102
RTVSPost2010Prop32
280
     0
102
RTVSPost2010PropOp32
 70
     1
102
RTVSPost2010Prop33
280
     0
102
RTVSPost2010PropOp33
 70
     1
102
RTVSPost2010Prop34
280
     0
102
RTVSPost2010PropOp34
 70
     1
102
RTVSPost2010Prop35
280
     0
102
RTVSPost2010PropOp35
 70
     1
102
RTVSPost2010Prop36
280
     0
102
RTVSPost2010PropOp36
 70
     1
102
RTVSPost2010Prop37
 90
       50
102
RTVSPost2010PropOp37
 70
     1
102
RTVSPost2010Prop38
140
0.0
102
RTVSPost2010PropOp38
 70
     1
102
RTVSPost2010Prop39
140
1.0
102
RTVSPost2010PropOp39
 70
     1
102
RTVSPost2010Prop40
 90
        0
102
RTVSPost2010PropOp40
 70
     1
102
RTVSPost2010Prop41ColorIndex
 90
       18
102
RTVSPost2010Prop41ColorRGB
 90
        0
102
RTVSPost2010PropOp41
 70
     1
102
RTVSPost2010Prop42
 90
       50
102
RTVSPost2010PropOp42
 70
     1
102
RTVSPost2010Prop43
 90
        3
102
RTVSPost2010PropOp43
 70
     1
102
RTVSPost2010Prop44ColorIndex
 90
        5
102
RTVSPost2010Prop44ColorRGB
 90
      255
102
RTVSPost2010PropOp44
 70
     1
102
RTVSPost2010Prop45
280
     0
102
RTVSPost2010PropOp45
 70
     1
102
RTVSPost2010Prop46
 90
       50
102
RTVSPost2010PropOp46
 70
     1
102
RTVSPost2010Prop47
 90
       50
102
RTVSPost2010PropOp47
 70
     1
102
RTVSPost2010Prop48
 90
       50
102
RTVSPost2010PropOp48
 70
     1
102
RTVSPost2010Prop49
280
     0
102
RTVSPost2010PropOp49
 70
     1
102
RTVSPost2010Prop50
 90
       50
102
RTVSPost2010PropOp50
 70
     1
102
RTVSPost2010Prop51ColorIndex
 90
      256
102
RTVSPost2010Prop51ColorRGB
 90
-16777216
102
RTVSPost2010PropOp51
 70
     0
102
RTVSPost2010Prop52
140
1.0
102
RTVSPost2010PropOp52
 70
     0
102
RTVSPost2010Prop53
 90
        2
102
RTVSPost2010PropOp53
 70
     1
102
RTVSPost2010Prop54
  1
strokes_ogs.tif
102
RTVSPost2010PropOp54
 70
     1
102
RTVSPost2010Prop55
280
     0
102
RTVSPost2010PropOp55
 70
     1
102
RTVSPost2010Prop56
140
1.0
102
RTVSPost2010PropOp56
 70
     1
102
RTVSPost2010Prop57
140
1.0
102
RTVSPost2010PropOp57
 70
     1
102
RTVSPropertyOp0
 70
     1
102
RTVSPropertyOp1
 70
     1
102
RTVSPropertyOp2
 70
     1
102
RTVSPropertyOp3
 70
     1
102
RTVSPropertyOp4
 70
     1
102
RTVSPropertyOp5
 70
     1
102
RTVSPropertyOp6
 70
     1
102
RTVSPropertyOp7
 70
     1
102
RTVSPropertyOp8
 70
     1
102
RTVSPropertyOp9
 70
     1
102
RTVSPropertyOp10
 70
     1
102
RTVSPropertyOp11
 70
     1
102
RTVSPropertyOp12
 70
     1
102
RTVSPropertyOp13
 70
     1
102
RTVSPropertyOp14
 70
     1
102
RTVSPropertyOp15
 70
     1
102
RTVSPropertyOp16
 70
     1
102
RTVSPropertyOp17
 70
     1
102
RTVSPropertyOp18
 70
     1
102
RTVSPropertyOp19
 70
     1
102
RTVSPropertyOp20
 70
     1
102
RTVSPropertyOp21
 70
     1
102
RTVSPropertyOp22
 70
     1
102
RTVSPropertyOp23
 70
     1
102
RTVSPropertyOp24
 70
     1
102
RTVSPropertyOp25
 70
     1
102
RTVSPropertyOp26
 70
     1
102
RTVSPropertyOp27
 70
     1
102
RTVSPropertyOp28
 70
     1
102
RTVSPropertyOp29
 70
     1
102
RTVSPropertyOp30
 70
     1
102
RTVSPropertyOp31
 70
     1
102
RTVSPropertyOp32
 70
     1
102
RTVSPropertyOp33
 70
     1
102
RTVSPropertyOp34
 70
     1
102
RTVSPropertyOp35
 70
     1
102
RTVSPropertyOp36
 70
     1
102
RTVSPropertyOp37
 70
     1
102
RTVSPropertyOp38
 70
     1
102
RTVSPropertyOp39
 70
     1
102
RTVSPropertyOp40
 70
     1
102
RTVSPropertyOp41
 70
     1
102
RTVSPropertyOp42
 70
     1
102
RTVSPropertyOp43
 70
     1
102
RTVSPropertyOp44
 70
     1
102
RTVSPropertyOp45
 70
     1
102
RTVSPropertyOp46
 70
     1
102
RTVSPropertyOp47
 70
     1
102
RTVSPropertyOp48
 70
     1
102
RTVSPropertyOp49
 70
     1
102
RTVSPropertyOp50
 70
     1
102
RTVSPropertyOp51
 70
     0
102
RTVSPropertyOp52
 70
     0
102
RTVSPropertyOp53
 70
     1
102
RTVSPropertyOp54
 70
     1
102
RTVSPropertyOp55
 70
     1
102
RTVSPropertyOp56
 70
     1
102
RTVSPropertyOp57
 70
     1
102
RTVSPropertyOp58
 70
     1
102
RTVSPropertyOp59
 70
     1
102
RTVSPropertyOp60
 70
     1
102
RTVSPropertyOp61
 70
     1
102
RTVSPropertyOp62
 70
     1
  0
XRECORD
  5
12B8
102
{ACAD_REACTORS
330
12B7
102
}
330
12B7
100
AcDbXrecord
280
     1
102
RTVSPost2010Prop28
280
     0
102
RTVSPost2010PropOp28
 70
     1
102
RTVSPost2010Prop29
280
     1
102
RTVSPost2010PropOp29
 70
     1
102
RTVSPost2010Prop30
280
     1
102
RTVSPost2010PropOp30
 70
     1
102
RTVSPost2010Prop31
280
     0
102
RTVSPost2010PropOp31
 70
     1
102
RTVSPost2010Prop32
280
     0
102
RTVSPost2010PropOp32
 70
     1
102
RTVSPost2010Prop33
280
     0
102
RTVSPost2010PropOp33
 70
     1
102
RTVSPost2010Prop34
280
     0
102
RTVSPost2010PropOp34
 70
     1
102
RTVSPost2010Prop35
280
     0
102
RTVSPost2010PropOp35
 70
     1
102
RTVSPost2010Prop36
280
     0
102
RTVSPost2010PropOp36
 70
     1
102
RTVSPost2010Prop37
 90
       50
102
RTVSPost2010PropOp37
 70
     1
102
RTVSPost2010Prop38
140
0.0
102
RTVSPost2010PropOp38
 70
     1
102
RTVSPost2010Prop39
140
1.0
102
RTVSPost2010PropOp39
 70
     1
102
RTVSPost2010Prop40
 90
        0
102
RTVSPost2010PropOp40
 70
     1
102
RTVSPost2010Prop41ColorIndex
 90
       18
102
RTVSPost2010Prop41ColorRGB
 90
        0
102
RTVSPost2010PropOp41
 70
     1
102
RTVSPost2010Prop42
 90
       50
102
RTVSPost2010PropOp42
 70
     1
102
RTVSPost2010Prop43
 90
        3
102
RTVSPost2010PropOp43
 70
     1
102
RTVSPost2010Prop44ColorIndex
 90
        5
102
RTVSPost2010Prop44ColorRGB
 90
      255
102
RTVSPost2010PropOp44
 70
     1
102
RTVSPost2010Prop45
280
     0
102
RTVSPost2010PropOp45
 70
     1
102
RTVSPost2010Prop46
 90
       50
102
RTVSPost2010PropOp46
 70
     1
102
RTVSPost2010Prop47
 90
       50
102
RTVSPost2010PropOp47
 70
     1
102
RTVSPost2010Prop48
 90
       50
102
RTVSPost2010PropOp48
 70
     1
102
RTVSPost2010Prop49
280
     0
102
RTVSPost2010PropOp49
 70
     1
102
RTVSPost2010Prop50
 90
       50
102
RTVSPost2010PropOp50
 70
     1
102
RTVSPost2010Prop51ColorIndex
 90
      256
102
RTVSPost2010Prop51ColorRGB
 90
-16777216
102
RTVSPost2010PropOp51
 70
     0
102
RTVSPost2010Prop52
140
1.0
102
RTVSPost2010PropOp52
 70
     0
102
RTVSPost2010Prop53
 90
        2
102
RTVSPost2010PropOp53
 70
     1
102
RTVSPost2010Prop54
  1
strokes_ogs.tif
102
RTVSPost2010PropOp54
 70
     1
102
RTVSPost2010Prop55
280
     0
102
RTVSPost2010PropOp55
 70
     1
102
RTVSPost2010Prop56
140
1.0
102
RTVSPost2010PropOp56
 70
     1
102
RTVSPost2010Prop57
140
1.0
102
RTVSPost2010PropOp57
 70
     1
102
RTVSPropertyOp0
 70
     0
102
RTVSPropertyOp1
 70
     0
102
RTVSPropertyOp2
 70
     0
102
RTVSPropertyOp3
 70
     0
102
RTVSPropertyOp4
 70
     0
102
RTVSPropertyOp5
 70
     0
102
RTVSPropertyOp6
 70
     0
102
RTVSPropertyOp7
 70
     0
102
RTVSPropertyOp8
 70
     0
102
RTVSPropertyOp9
 70
     0
102
RTVSPropertyOp10
 70
     0
102
RTVSPropertyOp11
 70
     0
102
RTVSPropertyOp12
 70
     0
102
RTVSPropertyOp13
 70
     0
102
RTVSPropertyOp14
 70
     2
102
RTVSPropertyOp15
 70
     0
102
RTVSPropertyOp16
 70
     0
102
RTVSPropertyOp17
 70
     0
102
RTVSPropertyOp18
 70
     0
102
RTVSPropertyOp19
 70
     0
102
RTVSPropertyOp20
 70
     0
102
RTVSPropertyOp21
 70
     0
102
RTVSPropertyOp22
 70
     0
102
RTVSPropertyOp23
 70
     0
102
RTVSPropertyOp24
 70
     0
102
RTVSPropertyOp25
 70
     0
102
RTVSPropertyOp26
 70
     0
102
RTVSPropertyOp27
 70
     0
102
RTVSPropertyOp28
 70
     1
102
RTVSPropertyOp29
 70
     1
102
RTVSPropertyOp30
 70
     1
102
RTVSPropertyOp31
 70
     1
102
RTVSPropertyOp32
 70
     1
102
RTVSPropertyOp33
 70
     1
102
RTVSPropertyOp34
 70
     1
102
RTVSPropertyOp35
 70
     1
102
RTVSPropertyOp36
 70
     1
102
RTVSPropertyOp37
 70
     1
102
RTVSPropertyOp38
 70
     1
102
RTVSPropertyOp39
 70
     1
102
RTVSPropertyOp40
 70
     1
102
RTVSPropertyOp41
 70
     1
102
RTVSPropertyOp42
 70
     1
102
RTVSPropertyOp43
 70
     1
102
RTVSPropertyOp44
 70
     1
102
RTVSPropertyOp45
 70
     1
102
RTVSPropertyOp46
 70
     1
102
RTVSPropertyOp47
 70
     1
102
RTVSPropertyOp48
 70
     1
102
RTVSPropertyOp49
 70
     1
102
RTVSPropertyOp50
 70
     1
102
RTVSPropertyOp51
 70
     0
102
RTVSPropertyOp52
 70
     0
102
RTVSPropertyOp53
 70
     1
102
RTVSPropertyOp54
 70
     1
102
RTVSPropertyOp55
 70
     1
102
RTVSPropertyOp56
 70
     1
102
RTVSPropertyOp57
 70
     1
102
RTVSPropertyOp58
 70
     1
102
RTVSPropertyOp59
 70
     1
102
RTVSPropertyOp60
 70
     1
102
RTVSPropertyOp61
 70
     1
102
RTVSPropertyOp62
 70
     1
  0
XRECORD
  5
12A9
102
{ACAD_REACTORS
330
12A8
102
}
330
12A8
100
AcDbXrecord
280
     1
102
RTVSPost2010Prop28
280
     0
102
RTVSPost2010PropOp28
 70
     1
102
RTVSPost2010Prop29
280
     1
102
RTVSPost2010PropOp29
 70
     1
102
RTVSPost2010Prop30
280
     1
102
RTVSPost2010PropOp30
 70
     1
102
RTVSPost2010Prop31
280
     0
102
RTVSPost2010PropOp31
 70
     1
102
RTVSPost2010Prop32
280
     0
102
RTVSPost2010PropOp32
 70
     1
102
RTVSPost2010Prop33
280
     0
102
RTVSPost2010PropOp33
 70
     1
102
RTVSPost2010Prop34
280
     0
102
RTVSPost2010PropOp34
 70
     1
102
RTVSPost2010Prop35
280
     0
102
RTVSPost2010PropOp35
 70
     1
102
RTVSPost2010Prop36
280
     0
102
RTVSPost2010PropOp36
 70
     1
102
RTVSPost2010Prop37
 90
       50
102
RTVSPost2010PropOp37
 70
     1
102
RTVSPost2010Prop38
140
0.0
102
RTVSPost2010PropOp38
 70
     1
102
RTVSPost2010Prop39
140
1.0
102
RTVSPost2010PropOp39
 70
     1
102
RTVSPost2010Prop40
 90
        0
102
RTVSPost2010PropOp40
 70
     1
102
RTVSPost2010Prop41ColorIndex
 90
       18
102
RTVSPost2010Prop41ColorRGB
 90
        0
102
RTVSPost2010PropOp41
 70
     1
102
RTVSPost2010Prop42
 90
       50
102
RTVSPost2010PropOp42
 70
     1
102
RTVSPost2010Prop43
 90
        3
102
RTVSPost2010PropOp43
 70
     1
102
RTVSPost2010Prop44ColorIndex
 90
        5
102
RTVSPost2010Prop44ColorRGB
 90
      255
102
RTVSPost2010PropOp44
 70
     1
102
RTVSPost2010Prop45
280
     0
102
RTVSPost2010PropOp45
 70
     1
102
RTVSPost2010Prop46
 90
       50
102
RTVSPost2010PropOp46
 70
     1
102
RTVSPost2010Prop47
 90
       50
102
RTVSPost2010PropOp47
 70
     1
102
RTVSPost2010Prop48
 90
       50
102
RTVSPost2010PropOp48
 70
     1
102
RTVSPost2010Prop49
280
     0
102
RTVSPost2010PropOp49
 70
     1
102
RTVSPost2010Prop50
 90
       50
102
RTVSPost2010PropOp50
 70
     1
102
RTVSPost2010Prop51ColorIndex
 90
      256
102
RTVSPost2010Prop51ColorRGB
 90
-16777216
102
RTVSPost2010PropOp51
 70
     0
102
RTVSPost2010Prop52
140
1.0
102
RTVSPost2010PropOp52
 70
     0
102
RTVSPost2010Prop53
 90
        2
102
RTVSPost2010PropOp53
 70
     1
102
RTVSPost2010Prop54
  1
strokes_ogs.tif
102
RTVSPost2010PropOp54
 70
     1
102
RTVSPost2010Prop55
280
     0
102
RTVSPost2010PropOp55
 70
     1
102
RTVSPost2010Prop56
140
1.0
102
RTVSPost2010PropOp56
 70
     1
102
RTVSPost2010Prop57
140
1.0
102
RTVSPost2010PropOp57
 70
     1
102
RTVSPropertyOp0
 70
     1
102
RTVSPropertyOp1
 70
     1
102
RTVSPropertyOp2
 70
     1
102
RTVSPropertyOp3
 70
     1
102
RTVSPropertyOp4
 70
     1
102
RTVSPropertyOp5
 70
     1
102
RTVSPropertyOp6
 70
     1
102
RTVSPropertyOp7
 70
     1
102
RTVSPropertyOp8
 70
     1
102
RTVSPropertyOp9
 70
     1
102
RTVSPropertyOp10
 70
     1
102
RTVSPropertyOp11
 70
     1
102
RTVSPropertyOp12
 70
     1
102
RTVSPropertyOp13
 70
     1
102
RTVSPropertyOp14
 70
     1
102
RTVSPropertyOp15
 70
     1
102
RTVSPropertyOp16
 70
     1
102
RTVSPropertyOp17
 70
     1
102
RTVSPropertyOp18
 70
     1
102
RTVSPropertyOp19
 70
     1
102
RTVSPropertyOp20
 70
     1
102
RTVSPropertyOp21
 70
     1
102
RTVSPropertyOp22
 70
     1
102
RTVSPropertyOp23
 70
     1
102
RTVSPropertyOp24
 70
     1
102
RTVSPropertyOp25
 70
     1
102
RTVSPropertyOp26
 70
     1
102
RTVSPropertyOp27
 70
     1
102
RTVSPropertyOp28
 70
     1
102
RTVSPropertyOp29
 70
     1
102
RTVSPropertyOp30
 70
     1
102
RTVSPropertyOp31
 70
     1
102
RTVSPropertyOp32
 70
     1
102
RTVSPropertyOp33
 70
     1
102
RTVSPropertyOp34
 70
     1
102
RTVSPropertyOp35
 70
     1
102
RTVSPropertyOp36
 70
     1
102
RTVSPropertyOp37
 70
     1
102
RTVSPropertyOp38
 70
     1
102
RTVSPropertyOp39
 70
     1
102
RTVSPropertyOp40
 70
     1
102
RTVSPropertyOp41
 70
     1
102
RTVSPropertyOp42
 70
     1
102
RTVSPropertyOp43
 70
     1
102
RTVSPropertyOp44
 70
     1
102
RTVSPropertyOp45
 70
     1
102
RTVSPropertyOp46
 70
     1
102
RTVSPropertyOp47
 70
     1
102
RTVSPropertyOp48
 70
     1
102
RTVSPropertyOp49
 70
     1
102
RTVSPropertyOp50
 70
     1
102
RTVSPropertyOp51
 70
     0
102
RTVSPropertyOp52
 70
     0
102
RTVSPropertyOp53
 70
     1
102
RTVSPropertyOp54
 70
     1
102
RTVSPropertyOp55
 70
     1
102
RTVSPropertyOp56
 70
     1
102
RTVSPropertyOp57
 70
     1
102
RTVSPropertyOp58
 70
     1
102
RTVSPropertyOp59
 70
     1
102
RTVSPropertyOp60
 70
     1
102
RTVSPropertyOp61
 70
     1
102
RTVSPropertyOp62
 70
     1
  0
XRECORD
  5
12BA
102
{ACAD_REACTORS
330
12B9
102
}
330
12B9
100
AcDbXrecord
280
     1
102
RTVSPost2010Prop28
280
     0
102
RTVSPost2010PropOp28
 70
     1
102
RTVSPost2010Prop29
280
     1
102
RTVSPost2010PropOp29
 70
     1
102
RTVSPost2010Prop30
280
     1
102
RTVSPost2010PropOp30
 70
     1
102
RTVSPost2010Prop31
280
     0
102
RTVSPost2010PropOp31
 70
     1
102
RTVSPost2010Prop32
280
     0
102
RTVSPost2010PropOp32
 70
     1
102
RTVSPost2010Prop33
280
     0
102
RTVSPost2010PropOp33
 70
     1
102
RTVSPost2010Prop34
280
     0
102
RTVSPost2010PropOp34
 70
     1
102
RTVSPost2010Prop35
280
     0
102
RTVSPost2010PropOp35
 70
     1
102
RTVSPost2010Prop36
280
     0
102
RTVSPost2010PropOp36
 70
     1
102
RTVSPost2010Prop37
 90
       50
102
RTVSPost2010PropOp37
 70
     1
102
RTVSPost2010Prop38
140
0.0
102
RTVSPost2010PropOp38
 70
     1
102
RTVSPost2010Prop39
140
1.0
102
RTVSPost2010PropOp39
 70
     1
102
RTVSPost2010Prop40
 90
        0
102
RTVSPost2010PropOp40
 70
     1
102
RTVSPost2010Prop41ColorIndex
 90
       18
102
RTVSPost2010Prop41ColorRGB
 90
        0
102
RTVSPost2010PropOp41
 70
     1
102
RTVSPost2010Prop42
 90
       50
102
RTVSPost2010PropOp42
 70
     1
102
RTVSPost2010Prop43
 90
        3
102
RTVSPost2010PropOp43
 70
     1
102
RTVSPost2010Prop44ColorIndex
 90
        5
102
RTVSPost2010Prop44ColorRGB
 90
      255
102
RTVSPost2010PropOp44
 70
     1
102
RTVSPost2010Prop45
280
     0
102
RTVSPost2010PropOp45
 70
     1
102
RTVSPost2010Prop46
 90
       50
102
RTVSPost2010PropOp46
 70
     1
102
RTVSPost2010Prop47
 90
       50
102
RTVSPost2010PropOp47
 70
     1
102
RTVSPost2010Prop48
 90
       50
102
RTVSPost2010PropOp48
 70
     1
102
RTVSPost2010Prop49
280
     0
102
RTVSPost2010PropOp49
 70
     1
102
RTVSPost2010Prop50
 90
       50
102
RTVSPost2010PropOp50
 70
     1
102
RTVSPost2010Prop51ColorIndex
 90
      256
102
RTVSPost2010Prop51ColorRGB
 90
-16777216
102
RTVSPost2010PropOp51
 70
     0
102
RTVSPost2010Prop52
140
1.0
102
RTVSPost2010PropOp52
 70
     0
102
RTVSPost2010Prop53
 90
        2
102
RTVSPost2010PropOp53
 70
     1
102
RTVSPost2010Prop54
  1
strokes_ogs.tif
102
RTVSPost2010PropOp54
 70
     1
102
RTVSPost2010Prop55
280
     0
102
RTVSPost2010PropOp55
 70
     1
102
RTVSPost2010Prop56
140
1.0
102
RTVSPost2010PropOp56
 70
     1
102
RTVSPost2010Prop57
140
1.0
102
RTVSPost2010PropOp57
 70
     1
102
RTVSPropertyOp0
 70
     0
102
RTVSPropertyOp1
 70
     0
102
RTVSPropertyOp2
 70
     0
102
RTVSPropertyOp3
 70
     0
102
RTVSPropertyOp4
 70
     0
102
RTVSPropertyOp5
 70
     0
102
RTVSPropertyOp6
 70
     0
102
RTVSPropertyOp7
 70
     0
102
RTVSPropertyOp8
 70
     0
102
RTVSPropertyOp9
 70
     0
102
RTVSPropertyOp10
 70
     0
102
RTVSPropertyOp11
 70
     0
102
RTVSPropertyOp12
 70
     0
102
RTVSPropertyOp13
 70
     0
102
RTVSPropertyOp14
 70
     2
102
RTVSPropertyOp15
 70
     0
102
RTVSPropertyOp16
 70
     0
102
RTVSPropertyOp17
 70
     0
102
RTVSPropertyOp18
 70
     0
102
RTVSPropertyOp19
 70
     0
102
RTVSPropertyOp20
 70
     0
102
RTVSPropertyOp21
 70
     0
102
RTVSPropertyOp22
 70
     0
102
RTVSPropertyOp23
 70
     0
102
RTVSPropertyOp24
 70
     0
102
RTVSPropertyOp25
 70
     0
102
RTVSPropertyOp26
 70
     0
102
RTVSPropertyOp27
 70
     0
102
RTVSPropertyOp28
 70
     1
102
RTVSPropertyOp29
 70
     1
102
RTVSPropertyOp30
 70
     1
102
RTVSPropertyOp31
 70
     1
102
RTVSPropertyOp32
 70
     1
102
RTVSPropertyOp33
 70
     1
102
RTVSPropertyOp34
 70
     1
102
RTVSPropertyOp35
 70
     1
102
RTVSPropertyOp36
 70
     1
102
RTVSPropertyOp37
 70
     1
102
RTVSPropertyOp38
 70
     1
102
RTVSPropertyOp39
 70
     1
102
RTVSPropertyOp40
 70
     1
102
RTVSPropertyOp41
 70
     1
102
RTVSPropertyOp42
 70
     1
102
RTVSPropertyOp43
 70
     1
102
RTVSPropertyOp44
 70
     1
102
RTVSPropertyOp45
 70
     1
102
RTVSPropertyOp46
 70
     1
102
RTVSPropertyOp47
 70
     1
102
RTVSPropertyOp48
 70
     1
102
RTVSPropertyOp49
 70
     1
102
RTVSPropertyOp50
 70
     1
102
RTVSPropertyOp51
 70
     0
102
RTVSPropertyOp52
 70
     0
102
RTVSPropertyOp53
 70
     1
102
RTVSPropertyOp54
 70
     1
102
RTVSPropertyOp55
 70
     1
102
RTVSPropertyOp56
 70
     1
102
RTVSPropertyOp57
 70
     1
102
RTVSPropertyOp58
 70
     1
102
RTVSPropertyOp59
 70
     1
102
RTVSPropertyOp60
 70
     1
102
RTVSPropertyOp61
 70
     1
102
RTVSPropertyOp62
 70
     1
  0
XRECORD
  5
12A1
102
{ACAD_REACTORS
330
12A0
102
}
330
12A0
100
AcDbXrecord
280
     1
102
RTVSPost2010Prop28
280
     0
102
RTVSPost2010PropOp28
 70
     1
102
RTVSPost2010Prop29
280
     1
102
RTVSPost2010PropOp29
 70
     1
102
RTVSPost2010Prop30
280
     1
102
RTVSPost2010PropOp30
 70
     1
102
RTVSPost2010Prop31
280
     0
102
RTVSPost2010PropOp31
 70
     1
102
RTVSPost2010Prop32
280
     0
102
RTVSPost2010PropOp32
 70
     1
102
RTVSPost2010Prop33
280
     0
102
RTVSPost2010PropOp33
 70
     1
102
RTVSPost2010Prop34
280
     0
102
RTVSPost2010PropOp34
 70
     1
102
RTVSPost2010Prop35
280
     0
102
RTVSPost2010PropOp35
 70
     1
102
RTVSPost2010Prop36
280
     0
102
RTVSPost2010PropOp36
 70
     1
102
RTVSPost2010Prop37
 90
       50
102
RTVSPost2010PropOp37
 70
     1
102
RTVSPost2010Prop38
140
0.0
102
RTVSPost2010PropOp38
 70
     1
102
RTVSPost2010Prop39
140
1.0
102
RTVSPost2010PropOp39
 70
     1
102
RTVSPost2010Prop40
 90
        0
102
RTVSPost2010PropOp40
 70
     1
102
RTVSPost2010Prop41ColorIndex
 90
       18
102
RTVSPost2010Prop41ColorRGB
 90
        0
102
RTVSPost2010PropOp41
 70
     1
102
RTVSPost2010Prop42
 90
       50
102
RTVSPost2010PropOp42
 70
     1
102
RTVSPost2010Prop43
 90
        3
102
RTVSPost2010PropOp43
 70
     1
102
RTVSPost2010Prop44ColorIndex
 90
        5
102
RTVSPost2010Prop44ColorRGB
 90
      255
102
RTVSPost2010PropOp44
 70
     1
102
RTVSPost2010Prop45
280
     0
102
RTVSPost2010PropOp45
 70
     1
102
RTVSPost2010Prop46
 90
       50
102
RTVSPost2010PropOp46
 70
     1
102
RTVSPost2010Prop47
 90
       50
102
RTVSPost2010PropOp47
 70
     1
102
RTVSPost2010Prop48
 90
       50
102
RTVSPost2010PropOp48
 70
     1
102
RTVSPost2010Prop49
280
     0
102
RTVSPost2010PropOp49
 70
     1
102
RTVSPost2010Prop50
 90
       50
102
RTVSPost2010PropOp50
 70
     1
102
RTVSPost2010Prop51ColorIndex
 90
      256
102
RTVSPost2010Prop51ColorRGB
 90
-16777216
102
RTVSPost2010PropOp51
 70
     0
102
RTVSPost2010Prop52
140
1.0
102
RTVSPost2010PropOp52
 70
     0
102
RTVSPost2010Prop53
 90
        2
102
RTVSPost2010PropOp53
 70
     1
102
RTVSPost2010Prop54
  1
strokes_ogs.tif
102
RTVSPost2010PropOp54
 70
     1
102
RTVSPost2010Prop55
280
     0
102
RTVSPost2010PropOp55
 70
     1
102
RTVSPost2010Prop56
140
1.0
102
RTVSPost2010PropOp56
 70
     1
102
RTVSPost2010Prop57
140
1.0
102
RTVSPost2010PropOp57
 70
     1
102
RTVSPropertyOp0
 70
     1
102
RTVSPropertyOp1
 70
     1
102
RTVSPropertyOp2
 70
     1
102
RTVSPropertyOp3
 70
     1
102
RTVSPropertyOp4
 70
     1
102
RTVSPropertyOp5
 70
     1
102
RTVSPropertyOp6
 70
     1
102
RTVSPropertyOp7
 70
     1
102
RTVSPropertyOp8
 70
     1
102
RTVSPropertyOp9
 70
     1
102
RTVSPropertyOp10
 70
     1
102
RTVSPropertyOp11
 70
     1
102
RTVSPropertyOp12
 70
     1
102
RTVSPropertyOp13
 70
     1
102
RTVSPropertyOp14
 70
     1
102
RTVSPropertyOp15
 70
     1
102
RTVSPropertyOp16
 70
     1
102
RTVSPropertyOp17
 70
     1
102
RTVSPropertyOp18
 70
     1
102
RTVSPropertyOp19
 70
     1
102
RTVSPropertyOp20
 70
     1
102
RTVSPropertyOp21
 70
     1
102
RTVSPropertyOp22
 70
     1
102
RTVSPropertyOp23
 70
     1
102
RTVSPropertyOp24
 70
     1
102
RTVSPropertyOp25
 70
     1
102
RTVSPropertyOp26
 70
     1
102
RTVSPropertyOp27
 70
     1
102
RTVSPropertyOp28
 70
     1
102
RTVSPropertyOp29
 70
     1
102
RTVSPropertyOp30
 70
     1
102
RTVSPropertyOp31
 70
     1
102
RTVSPropertyOp32
 70
     1
102
RTVSPropertyOp33
 70
     1
102
RTVSPropertyOp34
 70
     1
102
RTVSPropertyOp35
 70
     1
102
RTVSPropertyOp36
 70
     1
102
RTVSPropertyOp37
 70
     1
102
RTVSPropertyOp38
 70
     1
102
RTVSPropertyOp39
 70
     1
102
RTVSPropertyOp40
 70
     1
102
RTVSPropertyOp41
 70
     1
102
RTVSPropertyOp42
 70
     1
102
RTVSPropertyOp43
 70
     1
102
RTVSPropertyOp44
 70
     1
102
RTVSPropertyOp45
 70
     1
102
RTVSPropertyOp46
 70
     1
102
RTVSPropertyOp47
 70
     1
102
RTVSPropertyOp48
 70
     1
102
RTVSPropertyOp49
 70
     1
102
RTVSPropertyOp50
 70
     1
102
RTVSPropertyOp51
 70
     0
102
RTVSPropertyOp52
 70
     0
102
RTVSPropertyOp53
 70
     1
102
RTVSPropertyOp54
 70
     1
102
RTVSPropertyOp55
 70
     1
102
RTVSPropertyOp56
 70
     1
102
RTVSPropertyOp57
 70
     1
102
RTVSPropertyOp58
 70
     1
102
RTVSPropertyOp59
 70
     1
102
RTVSPropertyOp60
 70
     1
102
RTVSPropertyOp61
 70
     1
102
RTVSPropertyOp62
 70
     1
  0
XRECORD
  5
12CA
102
{ACAD_REACTORS
330
12C9
102
}
330
12C9
100
AcDbXrecord
280
     1
102
RTVSPost2010Prop28
280
     0
102
RTVSPost2010PropOp28
 70
     1
102
RTVSPost2010Prop29
280
     1
102
RTVSPost2010PropOp29
 70
     1
102
RTVSPost2010Prop30
280
     1
102
RTVSPost2010PropOp30
 70
     1
102
RTVSPost2010Prop31
280
     0
102
RTVSPost2010PropOp31
 70
     1
102
RTVSPost2010Prop32
280
     0
102
RTVSPost2010PropOp32
 70
     1
102
RTVSPost2010Prop33
280
     0
102
RTVSPost2010PropOp33
 70
     1
102
RTVSPost2010Prop34
280
     0
102
RTVSPost2010PropOp34
 70
     1
102
RTVSPost2010Prop35
280
     0
102
RTVSPost2010PropOp35
 70
     1
102
RTVSPost2010Prop36
280
     0
102
RTVSPost2010PropOp36
 70
     1
102
RTVSPost2010Prop37
 90
       50
102
RTVSPost2010PropOp37
 70
     1
102
RTVSPost2010Prop38
140
0.0
102
RTVSPost2010PropOp38
 70
     1
102
RTVSPost2010Prop39
140
1.0
102
RTVSPost2010PropOp39
 70
     1
102
RTVSPost2010Prop40
 90
        0
102
RTVSPost2010PropOp40
 70
     1
102
RTVSPost2010Prop41ColorIndex
 90
       18
102
RTVSPost2010Prop41ColorRGB
 90
        0
102
RTVSPost2010PropOp41
 70
     1
102
RTVSPost2010Prop42
 90
       50
102
RTVSPost2010PropOp42
 70
     1
102
RTVSPost2010Prop43
 90
        3
102
RTVSPost2010PropOp43
 70
     1
102
RTVSPost2010Prop44ColorIndex
 90
        5
102
RTVSPost2010Prop44ColorRGB
 90
      255
102
RTVSPost2010PropOp44
 70
     1
102
RTVSPost2010Prop45
280
     0
102
RTVSPost2010PropOp45
 70
     1
102
RTVSPost2010Prop46
 90
       50
102
RTVSPost2010PropOp46
 70
     1
102
RTVSPost2010Prop47
 90
       50
102
RTVSPost2010PropOp47
 70
     1
102
RTVSPost2010Prop48
 90
       50
102
RTVSPost2010PropOp48
 70
     1
102
RTVSPost2010Prop49
280
     0
102
RTVSPost2010PropOp49
 70
     1
102
RTVSPost2010Prop50
 90
       50
102
RTVSPost2010PropOp50
 70
     1
102
RTVSPost2010Prop51ColorIndex
 90
      256
102
RTVSPost2010Prop51ColorRGB
 90
-16777216
102
RTVSPost2010PropOp51
 70
     0
102
RTVSPost2010Prop52
140
1.0
102
RTVSPost2010PropOp52
 70
     0
102
RTVSPost2010Prop53
 90
        2
102
RTVSPost2010PropOp53
 70
     1
102
RTVSPost2010Prop54
  1
strokes_ogs.tif
102
RTVSPost2010PropOp54
 70
     1
102
RTVSPost2010Prop55
280
     0
102
RTVSPost2010PropOp55
 70
     1
102
RTVSPost2010Prop56
140
1.0
102
RTVSPost2010PropOp56
 70
     1
102
RTVSPost2010Prop57
140
1.0
102
RTVSPost2010PropOp57
 70
     1
102
RTVSPropertyOp0
 70
     1
102
RTVSPropertyOp1
 70
     1
102
RTVSPropertyOp2
 70
     1
102
RTVSPropertyOp3
 70
     1
102
RTVSPropertyOp4
 70
     1
102
RTVSPropertyOp5
 70
     1
102
RTVSPropertyOp6
 70
     1
102
RTVSPropertyOp7
 70
     1
102
RTVSPropertyOp8
 70
     1
102
RTVSPropertyOp9
 70
     1
102
RTVSPropertyOp10
 70
     1
102
RTVSPropertyOp11
 70
     1
102
RTVSPropertyOp12
 70
     1
102
RTVSPropertyOp13
 70
     1
102
RTVSPropertyOp14
 70
     1
102
RTVSPropertyOp15
 70
     1
102
RTVSPropertyOp16
 70
     1
102
RTVSPropertyOp17
 70
     1
102
RTVSPropertyOp18
 70
     1
102
RTVSPropertyOp19
 70
     1
102
RTVSPropertyOp20
 70
     1
102
RTVSPropertyOp21
 70
     1
102
RTVSPropertyOp22
 70
     1
102
RTVSPropertyOp23
 70
     1
102
RTVSPropertyOp24
 70
     1
102
RTVSPropertyOp25
 70
     1
102
RTVSPropertyOp26
 70
     1
102
RTVSPropertyOp27
 70
     1
102
RTVSPropertyOp28
 70
     1
102
RTVSPropertyOp29
 70
     1
102
RTVSPropertyOp30
 70
     1
102
RTVSPropertyOp31
 70
     1
102
RTVSPropertyOp32
 70
     1
102
RTVSPropertyOp33
 70
     1
102
RTVSPropertyOp34
 70
     1
102
RTVSPropertyOp35
 70
     1
102
RTVSPropertyOp36
 70
     1
102
RTVSPropertyOp37
 70
     1
102
RTVSPropertyOp38
 70
     1
102
RTVSPropertyOp39
 70
     1
102
RTVSPropertyOp40
 70
     1
102
RTVSPropertyOp41
 70
     1
102
RTVSPropertyOp42
 70
     1
102
RTVSPropertyOp43
 70
     1
102
RTVSPropertyOp44
 70
     1
102
RTVSPropertyOp45
 70
     1
102
RTVSPropertyOp46
 70
     1
102
RTVSPropertyOp47
 70
     1
102
RTVSPropertyOp48
 70
     1
102
RTVSPropertyOp49
 70
     1
102
RTVSPropertyOp50
 70
     1
102
RTVSPropertyOp51
 70
     0
102
RTVSPropertyOp52
 70
     0
102
RTVSPropertyOp53
 70
     1
102
RTVSPropertyOp54
 70
     1
102
RTVSPropertyOp55
 70
     1
102
RTVSPropertyOp56
 70
     1
102
RTVSPropertyOp57
 70
     1
102
RTVSPropertyOp58
 70
     1
102
RTVSPropertyOp59
 70
     1
102
RTVSPropertyOp60
 70
     1
102
RTVSPropertyOp61
 70
     1
102
RTVSPropertyOp62
 70
     1
  0
XRECORD
  5
12C8
102
{ACAD_REACTORS
330
12C7
102
}
330
12C7
100
AcDbXrecord
280
     1
102
RTVSPost2010Prop28
280
     0
102
RTVSPost2010PropOp28
 70
     1
102
RTVSPost2010Prop29
280
     1
102
RTVSPost2010PropOp29
 70
     1
102
RTVSPost2010Prop30
280
     1
102
RTVSPost2010PropOp30
 70
     1
102
RTVSPost2010Prop31
280
     0
102
RTVSPost2010PropOp31
 70
     1
102
RTVSPost2010Prop32
280
     0
102
RTVSPost2010PropOp32
 70
     1
102
RTVSPost2010Prop33
280
     0
102
RTVSPost2010PropOp33
 70
     1
102
RTVSPost2010Prop34
280
     0
102
RTVSPost2010PropOp34
 70
     1
102
RTVSPost2010Prop35
280
     0
102
RTVSPost2010PropOp35
 70
     1
102
RTVSPost2010Prop36
280
     0
102
RTVSPost2010PropOp36
 70
     1
102
RTVSPost2010Prop37
 90
       50
102
RTVSPost2010PropOp37
 70
     1
102
RTVSPost2010Prop38
140
0.0
102
RTVSPost2010PropOp38
 70
     1
102
RTVSPost2010Prop39
140
1.0
102
RTVSPost2010PropOp39
 70
     1
102
RTVSPost2010Prop40
 90
        0
102
RTVSPost2010PropOp40
 70
     1
102
RTVSPost2010Prop41ColorIndex
 90
       18
102
RTVSPost2010Prop41ColorRGB
 90
        0
102
RTVSPost2010PropOp41
 70
     1
102
RTVSPost2010Prop42
 90
       50
102
RTVSPost2010PropOp42
 70
     1
102
RTVSPost2010Prop43
 90
        3
102
RTVSPost2010PropOp43
 70
     1
102
RTVSPost2010Prop44ColorIndex
 90
        5
102
RTVSPost2010Prop44ColorRGB
 90
      255
102
RTVSPost2010PropOp44
 70
     1
102
RTVSPost2010Prop45
280
     0
102
RTVSPost2010PropOp45
 70
     1
102
RTVSPost2010Prop46
 90
       50
102
RTVSPost2010PropOp46
 70
     1
102
RTVSPost2010Prop47
 90
       50
102
RTVSPost2010PropOp47
 70
     1
102
RTVSPost2010Prop48
 90
       50
102
RTVSPost2010PropOp48
 70
     1
102
RTVSPost2010Prop49
280
     0
102
RTVSPost2010PropOp49
 70
     1
102
RTVSPost2010Prop50
 90
       50
102
RTVSPost2010PropOp50
 70
     1
102
RTVSPost2010Prop51ColorIndex
 90
      256
102
RTVSPost2010Prop51ColorRGB
 90
-16777216
102
RTVSPost2010PropOp51
 70
     0
102
RTVSPost2010Prop52
140
1.0
102
RTVSPost2010PropOp52
 70
     0
102
RTVSPost2010Prop53
 90
        2
102
RTVSPost2010PropOp53
 70
     1
102
RTVSPost2010Prop54
  1
strokes_ogs.tif
102
RTVSPost2010PropOp54
 70
     1
102
RTVSPost2010Prop55
280
     0
102
RTVSPost2010PropOp55
 70
     1
102
RTVSPost2010Prop56
140
1.0
102
RTVSPost2010PropOp56
 70
     1
102
RTVSPost2010Prop57
140
1.0
102
RTVSPost2010PropOp57
 70
     1
102
RTVSPropertyOp0
 70
     1
102
RTVSPropertyOp1
 70
     1
102
RTVSPropertyOp2
 70
     1
102
RTVSPropertyOp3
 70
     1
102
RTVSPropertyOp4
 70
     1
102
RTVSPropertyOp5
 70
     1
102
RTVSPropertyOp6
 70
     1
102
RTVSPropertyOp7
 70
     1
102
RTVSPropertyOp8
 70
     1
102
RTVSPropertyOp9
 70
     1
102
RTVSPropertyOp10
 70
     1
102
RTVSPropertyOp11
 70
     1
102
RTVSPropertyOp12
 70
     1
102
RTVSPropertyOp13
 70
     1
102
RTVSPropertyOp14
 70
     1
102
RTVSPropertyOp15
 70
     1
102
RTVSPropertyOp16
 70
     1
102
RTVSPropertyOp17
 70
     1
102
RTVSPropertyOp18
 70
     1
102
RTVSPropertyOp19
 70
     1
102
RTVSPropertyOp20
 70
     1
102
RTVSPropertyOp21
 70
     1
102
RTVSPropertyOp22
 70
     1
102
RTVSPropertyOp23
 70
     1
102
RTVSPropertyOp24
 70
     1
102
RTVSPropertyOp25
 70
     1
102
RTVSPropertyOp26
 70
     1
102
RTVSPropertyOp27
 70
     1
102
RTVSPropertyOp28
 70
     1
102
RTVSPropertyOp29
 70
     1
102
RTVSPropertyOp30
 70
     1
102
RTVSPropertyOp31
 70
     1
102
RTVSPropertyOp32
 70
     1
102
RTVSPropertyOp33
 70
     1
102
RTVSPropertyOp34
 70
     1
102
RTVSPropertyOp35
 70
     1
102
RTVSPropertyOp36
 70
     1
102
RTVSPropertyOp37
 70
     1
102
RTVSPropertyOp38
 70
     1
102
RTVSPropertyOp39
 70
     1
102
RTVSPropertyOp40
 70
     1
102
RTVSPropertyOp41
 70
     1
102
RTVSPropertyOp42
 70
     1
102
RTVSPropertyOp43
 70
     1
102
RTVSPropertyOp44
 70
     1
102
RTVSPropertyOp45
 70
     1
102
RTVSPropertyOp46
 70
     1
102
RTVSPropertyOp47
 70
     1
102
RTVSPropertyOp48
 70
     1
102
RTVSPropertyOp49
 70
     1
102
RTVSPropertyOp50
 70
     1
102
RTVSPropertyOp51
 70
     0
102
RTVSPropertyOp52
 70
     0
102
RTVSPropertyOp53
 70
     1
102
RTVSPropertyOp54
 70
     1
102
RTVSPropertyOp55
 70
     1
102
RTVSPropertyOp56
 70
     1
102
RTVSPropertyOp57
 70
     1
102
RTVSPropertyOp58
 70
     1
102
RTVSPropertyOp59
 70
     1
102
RTVSPropertyOp60
 70
     1
102
RTVSPropertyOp61
 70
     1
102
RTVSPropertyOp62
 70
     1
  0
XRECORD
  5
12C2
102
{ACAD_REACTORS
330
12C1
102
}
330
12C1
100
AcDbXrecord
280
     1
102
RTVSPost2010Prop28
280
     0
102
RTVSPost2010PropOp28
 70
     1
102
RTVSPost2010Prop29
280
     1
102
RTVSPost2010PropOp29
 70
     1
102
RTVSPost2010Prop30
280
     1
102
RTVSPost2010PropOp30
 70
     1
102
RTVSPost2010Prop31
280
     0
102
RTVSPost2010PropOp31
 70
     1
102
RTVSPost2010Prop32
280
     0
102
RTVSPost2010PropOp32
 70
     1
102
RTVSPost2010Prop33
280
     0
102
RTVSPost2010PropOp33
 70
     1
102
RTVSPost2010Prop34
280
     0
102
RTVSPost2010PropOp34
 70
     1
102
RTVSPost2010Prop35
280
     0
102
RTVSPost2010PropOp35
 70
     1
102
RTVSPost2010Prop36
280
     0
102
RTVSPost2010PropOp36
 70
     1
102
RTVSPost2010Prop37
 90
       50
102
RTVSPost2010PropOp37
 70
     1
102
RTVSPost2010Prop38
140
0.0
102
RTVSPost2010PropOp38
 70
     1
102
RTVSPost2010Prop39
140
1.0
102
RTVSPost2010PropOp39
 70
     1
102
RTVSPost2010Prop40
 90
        0
102
RTVSPost2010PropOp40
 70
     1
102
RTVSPost2010Prop41ColorIndex
 90
       18
102
RTVSPost2010Prop41ColorRGB
 90
        0
102
RTVSPost2010PropOp41
 70
     1
102
RTVSPost2010Prop42
 90
       50
102
RTVSPost2010PropOp42
 70
     1
102
RTVSPost2010Prop43
 90
        3
102
RTVSPost2010PropOp43
 70
     1
102
RTVSPost2010Prop44ColorIndex
 90
        5
102
RTVSPost2010Prop44ColorRGB
 90
      255
102
RTVSPost2010PropOp44
 70
     1
102
RTVSPost2010Prop45
280
     0
102
RTVSPost2010PropOp45
 70
     1
102
RTVSPost2010Prop46
 90
       50
102
RTVSPost2010PropOp46
 70
     1
102
RTVSPost2010Prop47
 90
       50
102
RTVSPost2010PropOp47
 70
     1
102
RTVSPost2010Prop48
 90
       50
102
RTVSPost2010PropOp48
 70
     1
102
RTVSPost2010Prop49
280
     0
102
RTVSPost2010PropOp49
 70
     1
102
RTVSPost2010Prop50
 90
       50
102
RTVSPost2010PropOp50
 70
     1
102
RTVSPost2010Prop51ColorIndex
 90
      256
102
RTVSPost2010Prop51ColorRGB
 90
-16777216
102
RTVSPost2010PropOp51
 70
     0
102
RTVSPost2010Prop52
140
1.0
102
RTVSPost2010PropOp52
 70
     0
102
RTVSPost2010Prop53
 90
        2
102
RTVSPost2010PropOp53
 70
     1
102
RTVSPost2010Prop54
  1
strokes_ogs.tif
102
RTVSPost2010PropOp54
 70
     1
102
RTVSPost2010Prop55
280
     0
102
RTVSPost2010PropOp55
 70
     1
102
RTVSPost2010Prop56
140
1.0
102
RTVSPost2010PropOp56
 70
     1
102
RTVSPost2010Prop57
140
1.0
102
RTVSPost2010PropOp57
 70
     1
102
RTVSPropertyOp0
 70
     1
102
RTVSPropertyOp1
 70
     1
102
RTVSPropertyOp2
 70
     1
102
RTVSPropertyOp3
 70
     1
102
RTVSPropertyOp4
 70
     1
102
RTVSPropertyOp5
 70
     1
102
RTVSPropertyOp6
 70
     1
102
RTVSPropertyOp7
 70
     1
102
RTVSPropertyOp8
 70
     1
102
RTVSPropertyOp9
 70
     1
102
RTVSPropertyOp10
 70
     1
102
RTVSPropertyOp11
 70
     1
102
RTVSPropertyOp12
 70
     1
102
RTVSPropertyOp13
 70
     1
102
RTVSPropertyOp14
 70
     1
102
RTVSPropertyOp15
 70
     1
102
RTVSPropertyOp16
 70
     1
102
RTVSPropertyOp17
 70
     1
102
RTVSPropertyOp18
 70
     1
102
RTVSPropertyOp19
 70
     1
102
RTVSPropertyOp20
 70
     1
102
RTVSPropertyOp21
 70
     1
102
RTVSPropertyOp22
 70
     1
102
RTVSPropertyOp23
 70
     1
102
RTVSPropertyOp24
 70
     1
102
RTVSPropertyOp25
 70
     1
102
RTVSPropertyOp26
 70
     1
102
RTVSPropertyOp27
 70
     1
102
RTVSPropertyOp28
 70
     1
102
RTVSPropertyOp29
 70
     1
102
RTVSPropertyOp30
 70
     1
102
RTVSPropertyOp31
 70
     1
102
RTVSPropertyOp32
 70
     1
102
RTVSPropertyOp33
 70
     1
102
RTVSPropertyOp34
 70
     1
102
RTVSPropertyOp35
 70
     1
102
RTVSPropertyOp36
 70
     1
102
RTVSPropertyOp37
 70
     1
102
RTVSPropertyOp38
 70
     1
102
RTVSPropertyOp39
 70
     1
102
RTVSPropertyOp40
 70
     1
102
RTVSPropertyOp41
 70
     1
102
RTVSPropertyOp42
 70
     1
102
RTVSPropertyOp43
 70
     1
102
RTVSPropertyOp44
 70
     1
102
RTVSPropertyOp45
 70
     1
102
RTVSPropertyOp46
 70
     1
102
RTVSPropertyOp47
 70
     1
102
RTVSPropertyOp48
 70
     1
102
RTVSPropertyOp49
 70
     1
102
RTVSPropertyOp50
 70
     1
102
RTVSPropertyOp51
 70
     0
102
RTVSPropertyOp52
 70
     0
102
RTVSPropertyOp53
 70
     1
102
RTVSPropertyOp54
 70
     1
102
RTVSPropertyOp55
 70
     1
102
RTVSPropertyOp56
 70
     1
102
RTVSPropertyOp57
 70
     1
102
RTVSPropertyOp58
 70
     1
102
RTVSPropertyOp59
 70
     1
102
RTVSPropertyOp60
 70
     1
102
RTVSPropertyOp61
 70
     1
102
RTVSPropertyOp62
 70
     1
  0
XRECORD
  5
12C4
102
{ACAD_REACTORS
330
12C3
102
}
330
12C3
100
AcDbXrecord
280
     1
102
RTVSPost2010Prop28
280
     0
102
RTVSPost2010PropOp28
 70
     1
102
RTVSPost2010Prop29
280
     1
102
RTVSPost2010PropOp29
 70
     1
102
RTVSPost2010Prop30
280
     1
102
RTVSPost2010PropOp30
 70
     1
102
RTVSPost2010Prop31
280
     0
102
RTVSPost2010PropOp31
 70
     1
102
RTVSPost2010Prop32
280
     0
102
RTVSPost2010PropOp32
 70
     1
102
RTVSPost2010Prop33
280
     0
102
RTVSPost2010PropOp33
 70
     1
102
RTVSPost2010Prop34
280
     0
102
RTVSPost2010PropOp34
 70
     1
102
RTVSPost2010Prop35
280
     0
102
RTVSPost2010PropOp35
 70
     1
102
RTVSPost2010Prop36
280
     0
102
RTVSPost2010PropOp36
 70
     1
102
RTVSPost2010Prop37
 90
       50
102
RTVSPost2010PropOp37
 70
     1
102
RTVSPost2010Prop38
140
0.0
102
RTVSPost2010PropOp38
 70
     1
102
RTVSPost2010Prop39
140
1.0
102
RTVSPost2010PropOp39
 70
     1
102
RTVSPost2010Prop40
 90
        0
102
RTVSPost2010PropOp40
 70
     1
102
RTVSPost2010Prop41ColorIndex
 90
       18
102
RTVSPost2010Prop41ColorRGB
 90
        0
102
RTVSPost2010PropOp41
 70
     1
102
RTVSPost2010Prop42
 90
       50
102
RTVSPost2010PropOp42
 70
     1
102
RTVSPost2010Prop43
 90
        3
102
RTVSPost2010PropOp43
 70
     1
102
RTVSPost2010Prop44ColorIndex
 90
        5
102
RTVSPost2010Prop44ColorRGB
 90
      255
102
RTVSPost2010PropOp44
 70
     1
102
RTVSPost2010Prop45
280
     0
102
RTVSPost2010PropOp45
 70
     1
102
RTVSPost2010Prop46
 90
       50
102
RTVSPost2010PropOp46
 70
     1
102
RTVSPost2010Prop47
 90
       50
102
RTVSPost2010PropOp47
 70
     1
102
RTVSPost2010Prop48
 90
       50
102
RTVSPost2010PropOp48
 70
     1
102
RTVSPost2010Prop49
280
     0
102
RTVSPost2010PropOp49
 70
     1
102
RTVSPost2010Prop50
 90
       50
102
RTVSPost2010PropOp50
 70
     1
102
RTVSPost2010Prop51ColorIndex
 90
      256
102
RTVSPost2010Prop51ColorRGB
 90
-16777216
102
RTVSPost2010PropOp51
 70
     0
102
RTVSPost2010Prop52
140
1.0
102
RTVSPost2010PropOp52
 70
     0
102
RTVSPost2010Prop53
 90
        2
102
RTVSPost2010PropOp53
 70
     1
102
RTVSPost2010Prop54
  1
strokes_ogs.tif
102
RTVSPost2010PropOp54
 70
     1
102
RTVSPost2010Prop55
280
     0
102
RTVSPost2010PropOp55
 70
     1
102
RTVSPost2010Prop56
140
1.0
102
RTVSPost2010PropOp56
 70
     1
102
RTVSPost2010Prop57
140
1.0
102
RTVSPost2010PropOp57
 70
     1
102
RTVSPropertyOp0
 70
     1
102
RTVSPropertyOp1
 70
     1
102
RTVSPropertyOp2
 70
     1
102
RTVSPropertyOp3
 70
     1
102
RTVSPropertyOp4
 70
     1
102
RTVSPropertyOp5
 70
     1
102
RTVSPropertyOp6
 70
     1
102
RTVSPropertyOp7
 70
     1
102
RTVSPropertyOp8
 70
     1
102
RTVSPropertyOp9
 70
     1
102
RTVSPropertyOp10
 70
     1
102
RTVSPropertyOp11
 70
     1
102
RTVSPropertyOp12
 70
     1
102
RTVSPropertyOp13
 70
     1
102
RTVSPropertyOp14
 70
     1
102
RTVSPropertyOp15
 70
     1
102
RTVSPropertyOp16
 70
     1
102
RTVSPropertyOp17
 70
     1
102
RTVSPropertyOp18
 70
     1
102
RTVSPropertyOp19
 70
     1
102
RTVSPropertyOp20
 70
     1
102
RTVSPropertyOp21
 70
     1
102
RTVSPropertyOp22
 70
     1
102
RTVSPropertyOp23
 70
     1
102
RTVSPropertyOp24
 70
     1
102
RTVSPropertyOp25
 70
     1
102
RTVSPropertyOp26
 70
     1
102
RTVSPropertyOp27
 70
     1
102
RTVSPropertyOp28
 70
     1
102
RTVSPropertyOp29
 70
     1
102
RTVSPropertyOp30
 70
     1
102
RTVSPropertyOp31
 70
     1
102
RTVSPropertyOp32
 70
     1
102
RTVSPropertyOp33
 70
     1
102
RTVSPropertyOp34
 70
     1
102
RTVSPropertyOp35
 70
     1
102
RTVSPropertyOp36
 70
     1
102
RTVSPropertyOp37
 70
     1
102
RTVSPropertyOp38
 70
     1
102
RTVSPropertyOp39
 70
     1
102
RTVSPropertyOp40
 70
     1
102
RTVSPropertyOp41
 70
     1
102
RTVSPropertyOp42
 70
     1
102
RTVSPropertyOp43
 70
     1
102
RTVSPropertyOp44
 70
     1
102
RTVSPropertyOp45
 70
     1
102
RTVSPropertyOp46
 70
     1
102
RTVSPropertyOp47
 70
     1
102
RTVSPropertyOp48
 70
     1
102
RTVSPropertyOp49
 70
     1
102
RTVSPropertyOp50
 70
     1
102
RTVSPropertyOp51
 70
     0
102
RTVSPropertyOp52
 70
     0
102
RTVSPropertyOp53
 70
     1
102
RTVSPropertyOp54
 70
     1
102
RTVSPropertyOp55
 70
     1
102
RTVSPropertyOp56
 70
     1
102
RTVSPropertyOp57
 70
     1
102
RTVSPropertyOp58
 70
     1
102
RTVSPropertyOp59
 70
     1
102
RTVSPropertyOp60
 70
     1
102
RTVSPropertyOp61
 70
     1
102
RTVSPropertyOp62
 70
     1
  0
XRECORD
  5
12A7
102
{ACAD_REACTORS
330
12A6
102
}
330
12A6
100
AcDbXrecord
280
     1
102
RTVSPost2010Prop28
280
     0
102
RTVSPost2010PropOp28
 70
     1
102
RTVSPost2010Prop29
280
     1
102
RTVSPost2010PropOp29
 70
     1
102
RTVSPost2010Prop30
280
     1
102
RTVSPost2010PropOp30
 70
     1
102
RTVSPost2010Prop31
280
     0
102
RTVSPost2010PropOp31
 70
     1
102
RTVSPost2010Prop32
280
     0
102
RTVSPost2010PropOp32
 70
     1
102
RTVSPost2010Prop33
280
     0
102
RTVSPost2010PropOp33
 70
     1
102
RTVSPost2010Prop34
280
     0
102
RTVSPost2010PropOp34
 70
     1
102
RTVSPost2010Prop35
280
     0
102
RTVSPost2010PropOp35
 70
     1
102
RTVSPost2010Prop36
280
     0
102
RTVSPost2010PropOp36
 70
     1
102
RTVSPost2010Prop37
 90
       50
102
RTVSPost2010PropOp37
 70
     1
102
RTVSPost2010Prop38
140
0.0
102
RTVSPost2010PropOp38
 70
     1
102
RTVSPost2010Prop39
140
1.0
102
RTVSPost2010PropOp39
 70
     1
102
RTVSPost2010Prop40
 90
        0
102
RTVSPost2010PropOp40
 70
     1
102
RTVSPost2010Prop41ColorIndex
 90
       18
102
RTVSPost2010Prop41ColorRGB
 90
        0
102
RTVSPost2010PropOp41
 70
     1
102
RTVSPost2010Prop42
 90
       50
102
RTVSPost2010PropOp42
 70
     1
102
RTVSPost2010Prop43
 90
        3
102
RTVSPost2010PropOp43
 70
     1
102
RTVSPost2010Prop44ColorIndex
 90
        5
102
RTVSPost2010Prop44ColorRGB
 90
      255
102
RTVSPost2010PropOp44
 70
     1
102
RTVSPost2010Prop45
280
     0
102
RTVSPost2010PropOp45
 70
     1
102
RTVSPost2010Prop46
 90
       50
102
RTVSPost2010PropOp46
 70
     1
102
RTVSPost2010Prop47
 90
       50
102
RTVSPost2010PropOp47
 70
     1
102
RTVSPost2010Prop48
 90
       50
102
RTVSPost2010PropOp48
 70
     1
102
RTVSPost2010Prop49
280
     0
102
RTVSPost2010PropOp49
 70
     1
102
RTVSPost2010Prop50
 90
       50
102
RTVSPost2010PropOp50
 70
     1
102
RTVSPost2010Prop51ColorIndex
 90
      256
102
RTVSPost2010Prop51ColorRGB
 90
-16777216
102
RTVSPost2010PropOp51
 70
     0
102
RTVSPost2010Prop52
140
1.0
102
RTVSPost2010PropOp52
 70
     0
102
RTVSPost2010Prop53
 90
        2
102
RTVSPost2010PropOp53
 70
     1
102
RTVSPost2010Prop54
  1
strokes_ogs.tif
102
RTVSPost2010PropOp54
 70
     1
102
RTVSPost2010Prop55
280
     0
102
RTVSPost2010PropOp55
 70
     1
102
RTVSPost2010Prop56
140
1.0
102
RTVSPost2010PropOp56
 70
     1
102
RTVSPost2010Prop57
140
1.0
102
RTVSPost2010PropOp57
 70
     1
102
RTVSPropertyOp0
 70
     1
102
RTVSPropertyOp1
 70
     1
102
RTVSPropertyOp2
 70
     1
102
RTVSPropertyOp3
 70
     1
102
RTVSPropertyOp4
 70
     1
102
RTVSPropertyOp5
 70
     1
102
RTVSPropertyOp6
 70
     1
102
RTVSPropertyOp7
 70
     1
102
RTVSPropertyOp8
 70
     1
102
RTVSPropertyOp9
 70
     1
102
RTVSPropertyOp10
 70
     1
102
RTVSPropertyOp11
 70
     1
102
RTVSPropertyOp12
 70
     1
102
RTVSPropertyOp13
 70
     1
102
RTVSPropertyOp14
 70
     1
102
RTVSPropertyOp15
 70
     1
102
RTVSPropertyOp16
 70
     1
102
RTVSPropertyOp17
 70
     1
102
RTVSPropertyOp18
 70
     1
102
RTVSPropertyOp19
 70
     1
102
RTVSPropertyOp20
 70
     1
102
RTVSPropertyOp21
 70
     1
102
RTVSPropertyOp22
 70
     1
102
RTVSPropertyOp23
 70
     1
102
RTVSPropertyOp24
 70
     1
102
RTVSPropertyOp25
 70
     1
102
RTVSPropertyOp26
 70
     1
102
RTVSPropertyOp27
 70
     1
102
RTVSPropertyOp28
 70
     1
102
RTVSPropertyOp29
 70
     1
102
RTVSPropertyOp30
 70
     1
102
RTVSPropertyOp31
 70
     1
102
RTVSPropertyOp32
 70
     1
102
RTVSPropertyOp33
 70
     1
102
RTVSPropertyOp34
 70
     1
102
RTVSPropertyOp35
 70
     1
102
RTVSPropertyOp36
 70
     1
102
RTVSPropertyOp37
 70
     1
102
RTVSPropertyOp38
 70
     1
102
RTVSPropertyOp39
 70
     1
102
RTVSPropertyOp40
 70
     1
102
RTVSPropertyOp41
 70
     1
102
RTVSPropertyOp42
 70
     1
102
RTVSPropertyOp43
 70
     1
102
RTVSPropertyOp44
 70
     1
102
RTVSPropertyOp45
 70
     1
102
RTVSPropertyOp46
 70
     1
102
RTVSPropertyOp47
 70
     1
102
RTVSPropertyOp48
 70
     1
102
RTVSPropertyOp49
 70
     1
102
RTVSPropertyOp50
 70
     1
102
RTVSPropertyOp51
 70
     0
102
RTVSPropertyOp52
 70
     0
102
RTVSPropertyOp53
 70
     1
102
RTVSPropertyOp54
 70
     1
102
RTVSPropertyOp55
 70
     1
102
RTVSPropertyOp56
 70
     1
102
RTVSPropertyOp57
 70
     1
102
RTVSPropertyOp58
 70
     1
102
RTVSPropertyOp59
 70
     1
102
RTVSPropertyOp60
 70
     1
102
RTVSPropertyOp61
 70
     1
102
RTVSPropertyOp62
 70
     1
  0
XRECORD
  5
12BE
102
{ACAD_REACTORS
330
12BD
102
}
330
12BD
100
AcDbXrecord
280
     1
102
RTVSPost2010Prop28
280
     0
102
RTVSPost2010PropOp28
 70
     1
102
RTVSPost2010Prop29
280
     1
102
RTVSPost2010PropOp29
 70
     1
102
RTVSPost2010Prop30
280
     1
102
RTVSPost2010PropOp30
 70
     1
102
RTVSPost2010Prop31
280
     0
102
RTVSPost2010PropOp31
 70
     1
102
RTVSPost2010Prop32
280
     0
102
RTVSPost2010PropOp32
 70
     1
102
RTVSPost2010Prop33
280
     0
102
RTVSPost2010PropOp33
 70
     1
102
RTVSPost2010Prop34
280
     0
102
RTVSPost2010PropOp34
 70
     1
102
RTVSPost2010Prop35
280
     0
102
RTVSPost2010PropOp35
 70
     1
102
RTVSPost2010Prop36
280
     0
102
RTVSPost2010PropOp36
 70
     1
102
RTVSPost2010Prop37
 90
       50
102
RTVSPost2010PropOp37
 70
     1
102
RTVSPost2010Prop38
140
0.0
102
RTVSPost2010PropOp38
 70
     1
102
RTVSPost2010Prop39
140
1.0
102
RTVSPost2010PropOp39
 70
     1
102
RTVSPost2010Prop40
 90
        0
102
RTVSPost2010PropOp40
 70
     1
102
RTVSPost2010Prop41ColorIndex
 90
       18
102
RTVSPost2010Prop41ColorRGB
 90
        0
102
RTVSPost2010PropOp41
 70
     1
102
RTVSPost2010Prop42
 90
       50
102
RTVSPost2010PropOp42
 70
     1
102
RTVSPost2010Prop43
 90
        3
102
RTVSPost2010PropOp43
 70
     1
102
RTVSPost2010Prop44ColorIndex
 90
        5
102
RTVSPost2010Prop44ColorRGB
 90
      255
102
RTVSPost2010PropOp44
 70
     1
102
RTVSPost2010Prop45
280
     0
102
RTVSPost2010PropOp45
 70
     1
102
RTVSPost2010Prop46
 90
       50
102
RTVSPost2010PropOp46
 70
     1
102
RTVSPost2010Prop47
 90
       50
102
RTVSPost2010PropOp47
 70
     1
102
RTVSPost2010Prop48
 90
       50
102
RTVSPost2010PropOp48
 70
     1
102
RTVSPost2010Prop49
280
     0
102
RTVSPost2010PropOp49
 70
     1
102
RTVSPost2010Prop50
 90
       50
102
RTVSPost2010PropOp50
 70
     1
102
RTVSPost2010Prop51ColorIndex
 90
      256
102
RTVSPost2010Prop51ColorRGB
 90
-16777216
102
RTVSPost2010PropOp51
 70
     0
102
RTVSPost2010Prop52
140
1.0
102
RTVSPost2010PropOp52
 70
     0
102
RTVSPost2010Prop53
 90
        2
102
RTVSPost2010PropOp53
 70
     1
102
RTVSPost2010Prop54
  1
strokes_ogs.tif
102
RTVSPost2010PropOp54
 70
     1
102
RTVSPost2010Prop55
280
     0
102
RTVSPost2010PropOp55
 70
     1
102
RTVSPost2010Prop56
140
1.0
102
RTVSPost2010PropOp56
 70
     1
102
RTVSPost2010Prop57
140
1.0
102
RTVSPost2010PropOp57
 70
     1
102
RTVSPropertyOp0
 70
     1
102
RTVSPropertyOp1
 70
     1
102
RTVSPropertyOp2
 70
     1
102
RTVSPropertyOp3
 70
     1
102
RTVSPropertyOp4
 70
     1
102
RTVSPropertyOp5
 70
     1
102
RTVSPropertyOp6
 70
     1
102
RTVSPropertyOp7
 70
     1
102
RTVSPropertyOp8
 70
     1
102
RTVSPropertyOp9
 70
     1
102
RTVSPropertyOp10
 70
     1
102
RTVSPropertyOp11
 70
     1
102
RTVSPropertyOp12
 70
     1
102
RTVSPropertyOp13
 70
     1
102
RTVSPropertyOp14
 70
     1
102
RTVSPropertyOp15
 70
     1
102
RTVSPropertyOp16
 70
     1
102
RTVSPropertyOp17
 70
     1
102
RTVSPropertyOp18
 70
     1
102
RTVSPropertyOp19
 70
     1
102
RTVSPropertyOp20
 70
     1
102
RTVSPropertyOp21
 70
     1
102
RTVSPropertyOp22
 70
     1
102
RTVSPropertyOp23
 70
     1
102
RTVSPropertyOp24
 70
     1
102
RTVSPropertyOp25
 70
     1
102
RTVSPropertyOp26
 70
     1
102
RTVSPropertyOp27
 70
     1
102
RTVSPropertyOp28
 70
     1
102
RTVSPropertyOp29
 70
     1
102
RTVSPropertyOp30
 70
     1
102
RTVSPropertyOp31
 70
     1
102
RTVSPropertyOp32
 70
     1
102
RTVSPropertyOp33
 70
     1
102
RTVSPropertyOp34
 70
     1
102
RTVSPropertyOp35
 70
     1
102
RTVSPropertyOp36
 70
     1
102
RTVSPropertyOp37
 70
     1
102
RTVSPropertyOp38
 70
     1
102
RTVSPropertyOp39
 70
     1
102
RTVSPropertyOp40
 70
     1
102
RTVSPropertyOp41
 70
     1
102
RTVSPropertyOp42
 70
     1
102
RTVSPropertyOp43
 70
     1
102
RTVSPropertyOp44
 70
     1
102
RTVSPropertyOp45
 70
     1
102
RTVSPropertyOp46
 70
     1
102
RTVSPropertyOp47
 70
     1
102
RTVSPropertyOp48
 70
     1
102
RTVSPropertyOp49
 70
     1
102
RTVSPropertyOp50
 70
     1
102
RTVSPropertyOp51
 70
     0
102
RTVSPropertyOp52
 70
     0
102
RTVSPropertyOp53
 70
     1
102
RTVSPropertyOp54
 70
     1
102
RTVSPropertyOp55
 70
     1
102
RTVSPropertyOp56
 70
     1
102
RTVSPropertyOp57
 70
     1
102
RTVSPropertyOp58
 70
     1
102
RTVSPropertyOp59
 70
     1
102
RTVSPropertyOp60
 70
     1
102
RTVSPropertyOp61
 70
     1
102
RTVSPropertyOp62
 70
     1
  0
XRECORD
  5
12C6
102
{ACAD_REACTORS
330
12C5
102
}
330
12C5
100
AcDbXrecord
280
     1
102
RTVSPost2010Prop28
280
     0
102
RTVSPost2010PropOp28
 70
     1
102
RTVSPost2010Prop29
280
     1
102
RTVSPost2010PropOp29
 70
     1
102
RTVSPost2010Prop30
280
     1
102
RTVSPost2010PropOp30
 70
     1
102
RTVSPost2010Prop31
280
     0
102
RTVSPost2010PropOp31
 70
     1
102
RTVSPost2010Prop32
280
     0
102
RTVSPost2010PropOp32
 70
     1
102
RTVSPost2010Prop33
280
     0
102
RTVSPost2010PropOp33
 70
     1
102
RTVSPost2010Prop34
280
     0
102
RTVSPost2010PropOp34
 70
     1
102
RTVSPost2010Prop35
280
     0
102
RTVSPost2010PropOp35
 70
     1
102
RTVSPost2010Prop36
280
     0
102
RTVSPost2010PropOp36
 70
     1
102
RTVSPost2010Prop37
 90
       50
102
RTVSPost2010PropOp37
 70
     1
102
RTVSPost2010Prop38
140
0.0
102
RTVSPost2010PropOp38
 70
     1
102
RTVSPost2010Prop39
140
1.0
102
RTVSPost2010PropOp39
 70
     1
102
RTVSPost2010Prop40
 90
        0
102
RTVSPost2010PropOp40
 70
     1
102
RTVSPost2010Prop41ColorIndex
 90
       18
102
RTVSPost2010Prop41ColorRGB
 90
        0
102
RTVSPost2010PropOp41
 70
     1
102
RTVSPost2010Prop42
 90
       50
102
RTVSPost2010PropOp42
 70
     1
102
RTVSPost2010Prop43
 90
        3
102
RTVSPost2010PropOp43
 70
     1
102
RTVSPost2010Prop44ColorIndex
 90
        5
102
RTVSPost2010Prop44ColorRGB
 90
      255
102
RTVSPost2010PropOp44
 70
     1
102
RTVSPost2010Prop45
280
     0
102
RTVSPost2010PropOp45
 70
     1
102
RTVSPost2010Prop46
 90
       50
102
RTVSPost2010PropOp46
 70
     1
102
RTVSPost2010Prop47
 90
       50
102
RTVSPost2010PropOp47
 70
     1
102
RTVSPost2010Prop48
 90
       50
102
RTVSPost2010PropOp48
 70
     1
102
RTVSPost2010Prop49
280
     0
102
RTVSPost2010PropOp49
 70
     1
102
RTVSPost2010Prop50
 90
       50
102
RTVSPost2010PropOp50
 70
     1
102
RTVSPost2010Prop51ColorIndex
 90
      256
102
RTVSPost2010Prop51ColorRGB
 90
-16777216
102
RTVSPost2010PropOp51
 70
     0
102
RTVSPost2010Prop52
140
1.0
102
RTVSPost2010PropOp52
 70
     0
102
RTVSPost2010Prop53
 90
        2
102
RTVSPost2010PropOp53
 70
     1
102
RTVSPost2010Prop54
  1
strokes_ogs.tif
102
RTVSPost2010PropOp54
 70
     1
102
RTVSPost2010Prop55
280
     0
102
RTVSPost2010PropOp55
 70
     1
102
RTVSPost2010Prop56
140
1.0
102
RTVSPost2010PropOp56
 70
     1
102
RTVSPost2010Prop57
140
1.0
102
RTVSPost2010PropOp57
 70
     1
102
RTVSPropertyOp0
 70
     1
102
RTVSPropertyOp1
 70
     1
102
RTVSPropertyOp2
 70
     1
102
RTVSPropertyOp3
 70
     1
102
RTVSPropertyOp4
 70
     1
102
RTVSPropertyOp5
 70
     1
102
RTVSPropertyOp6
 70
     1
102
RTVSPropertyOp7
 70
     1
102
RTVSPropertyOp8
 70
     1
102
RTVSPropertyOp9
 70
     1
102
RTVSPropertyOp10
 70
     1
102
RTVSPropertyOp11
 70
     1
102
RTVSPropertyOp12
 70
     1
102
RTVSPropertyOp13
 70
     1
102
RTVSPropertyOp14
 70
     1
102
RTVSPropertyOp15
 70
     1
102
RTVSPropertyOp16
 70
     1
102
RTVSPropertyOp17
 70
     1
102
RTVSPropertyOp18
 70
     1
102
RTVSPropertyOp19
 70
     1
102
RTVSPropertyOp20
 70
     1
102
RTVSPropertyOp21
 70
     1
102
RTVSPropertyOp22
 70
     1
102
RTVSPropertyOp23
 70
     1
102
RTVSPropertyOp24
 70
     1
102
RTVSPropertyOp25
 70
     1
102
RTVSPropertyOp26
 70
     1
102
RTVSPropertyOp27
 70
     1
102
RTVSPropertyOp28
 70
     1
102
RTVSPropertyOp29
 70
     1
102
RTVSPropertyOp30
 70
     1
102
RTVSPropertyOp31
 70
     1
102
RTVSPropertyOp32
 70
     1
102
RTVSPropertyOp33
 70
     1
102
RTVSPropertyOp34
 70
     1
102
RTVSPropertyOp35
 70
     1
102
RTVSPropertyOp36
 70
     1
102
RTVSPropertyOp37
 70
     1
102
RTVSPropertyOp38
 70
     1
102
RTVSPropertyOp39
 70
     1
102
RTVSPropertyOp40
 70
     1
102
RTVSPropertyOp41
 70
     1
102
RTVSPropertyOp42
 70
     1
102
RTVSPropertyOp43
 70
     1
102
RTVSPropertyOp44
 70
     1
102
RTVSPropertyOp45
 70
     1
102
RTVSPropertyOp46
 70
     1
102
RTVSPropertyOp47
 70
     1
102
RTVSPropertyOp48
 70
     1
102
RTVSPropertyOp49
 70
     1
102
RTVSPropertyOp50
 70
     1
102
RTVSPropertyOp51
 70
     0
102
RTVSPropertyOp52
 70
     0
102
RTVSPropertyOp53
 70
     1
102
RTVSPropertyOp54
 70
     1
102
RTVSPropertyOp55
 70
     1
102
RTVSPropertyOp56
 70
     1
102
RTVSPropertyOp57
 70
     1
102
RTVSPropertyOp58
 70
     1
102
RTVSPropertyOp59
 70
     1
102
RTVSPropertyOp60
 70
     1
102
RTVSPropertyOp61
 70
     1
102
RTVSPropertyOp62
 70
     1
  0
ENDSEC
  0
EOF
