  0
SECTION
  2
HEADER
  9
$ACADVER
  1
AC1015
  9
$ACADMAINTVER
 70
    20
  9
$DWGCODEPAGE
  3
ANSI_1252
  9
$INSBASE
 10
0.0
 20
0.0
 30
0.0
  9
$EXTMIN
 10
-32.4733606158034
 20
-25.1057341281607
 30
-0.0015258207003583
  9
$EXTMAX
 10
71.6609313058623
 20
47.8228848409189
 30
0.0000000349246037
  9
$LIMMIN
 10
-170.0
 20
-170.0
  9
$LIMMAX
 10
519.0
 20
260.0
  9
$ORTHOMODE
 70
     1
  9
$REGENMODE
 70
     1
  9
$FILLMODE
 70
     1
  9
$QTEXTMODE
 70
     0
  9
$MIRRTEXT
 70
     1
  9
$LTSCALE
 40
10.0
  9
$ATTMODE
 70
     1
  9
$TEXTSIZE
 40
3.5
  9
$TRACEWID
 40
0.05
  9
$TEXTSTYLE
  7
SIMPLEX
  9
$CLAYER
  8
SK6
  9
$CELTYPE
  6
BYLAYER
  9
$CECOLOR
 62
   256
  9
$CELTSCALE
 40
1.0
  9
$DISPSILH
 70
     0
  9
$DIMSCALE
 40
1.0
  9
$DIMASZ
 40
3.5
  9
$DIMEXO
 40
1.0
  9
$DIMDLI
 40
0.5
  9
$DIMRND
 40
0.0
  9
$DIMDLE
 40
0.0
  9
$DIMEXE
 40
1.0
  9
$DIMTP
 40
0.0
  9
$DIMTM
 40
0.0
  9
$DIMTXT
 40
3.5
  9
$DIMCEN
 40
0.0
  9
$DIMTSZ
 40
0.0
  9
$DIMTOL
 70
     0
  9
$DIMLIM
 70
     0
  9
$DIMTIH
 70
     0
  9
$DIMTOH
 70
     0
  9
$DIMSE1
 70
     0
  9
$DIMSE2
 70
     0
  9
$DIMTAD
 70
     1
  9
$DIMZIN
 70
     0
  9
$DIMBLK
  1

  9
$DIMASO
 70
     1
  9
$DIMSHO
 70
     1
  9
$DIMPOST
  1

  9
$DIMAPOST
  1

  9
$DIMALT
 70
     0
  9
$DIMALTD
 70
     2
  9
$DIMALTF
 40
25.4
  9
$DIMLFAC
 40
1.0
  9
$DIMTOFL
 70
     1
  9
$DIMTVP
 40
0.0
  9
$DIMTIX
 70
     0
  9
$DIMSOXD
 70
     0
  9
$DIMSAH
 70
     0
  9
$DIMBLK1
  1

  9
$DIMBLK2
  1

  9
$DIMSTYLE
  2
V-TYGEN_-160
  9
$DIMCLRD
 70
     0
  9
$DIMCLRE
 70
     0
  9
$DIMCLRT
 70
     0
  9
$DIMTFAC
 40
1.0
  9
$DIMGAP
 40
1.0
  9
$DIMJUST
 70
     0
  9
$DIMSD1
 70
     0
  9
$DIMSD2
 70
     0
  9
$DIMTOLJ
 70
     1
  9
$DIMTZIN
 70
     0
  9
$DIMALTZ
 70
     0
  9
$DIMALTTZ
 70
     0
  9
$DIMUPT
 70
     0
  9
$DIMDEC
 70
     0
  9
$DIMTDEC
 70
     0
  9
$DIMALTU
 70
     2
  9
$DIMALTTD
 70
     2
  9
$DIMTXSTY
  7
STANDARD
  9
$DIMAUNIT
 70
     0
  9
$DIMADEC
 70
     0
  9
$DIMALTRND
 40
0.0
  9
$DIMAZIN
 70
     0
  9
$DIMDSEP
 70
    46
  9
$DIMATFIT
 70
     3
  9
$DIMFRAC
 70
     0
  9
$DIMLDRBLK
  1

  9
$DIMLUNIT
 70
     2
  9
$DIMLWD
 70
    -1
  9
$DIMLWE
 70
    -2
  9
$DIMTMOVE
 70
     0
  9
$LUNITS
 70
     2
  9
$LUPREC
 70
     2
  9
$SKETCHINC
 40
0.1
  9
$FILLETRAD
 40
0.0
  9
$AUNITS
 70
     0
  9
$AUPREC
 70
     0
  9
$MENU
  1
TDMWIN
  9
$ELEVATION
 40
0.0
  9
$PELEVATION
 40
0.0
  9
$THICKNESS
 40
0.0
  9
$LIMCHECK
 70
     0
  9
$CHAMFERA
 40
0.0
  9
$CHAMFERB
 40
0.0
  9
$CHAMFERC
 40
0.0
  9
$CHAMFERD
 40
0.0
  9
$SKPOLY
 70
     0
  9
$TDCREATE
 40
2456345.561120127
  9
$TDUCREATE
 40
2456345.331953461
  9
$TDUPDATE
 40
2456345.562527176
  9
$TDUUPDATE
 40
2456345.333360510
  9
$TDINDWG
 40
0.0014075810
  9
$TDUSRTIMER
 40
0.0014074074
  9
$USRTIMER
 70
     1
  9
$ANGBASE
 50
0.0
  9
$ANGDIR
 70
     0
  9
$PDMODE
 70
     2
  9
$PDSIZE
 40
0.0
  9
$PLINEWID
 40
0.0
  9
$SPLFRAME
 70
     0
  9
$SPLINETYPE
 70
     6
  9
$SPLINESEGS
 70
     8
  9
$HANDSEED
  5
18CB
  9
$SURFTAB1
 70
     6
  9
$SURFTAB2
 70
     6
  9
$SURFTYPE
 70
     6
  9
$SURFU
 70
     6
  9
$SURFV
 70
     6
  9
$UCSBASE
  2

  9
$UCSNAME
  2

  9
$UCSORG
 10
0.0
 20
0.0
 30
0.0
  9
$UCSXDIR
 10
1.0
 20
0.0
 30
0.0
  9
$UCSYDIR
 10
0.0
 20
1.0
 30
0.0
  9
$UCSORTHOREF
  2

  9
$UCSORTHOVIEW
 70
     0
  9
$UCSORGTOP
 10
0.0
 20
0.0
 30
0.0
  9
$UCSORGBOTTOM
 10
0.0
 20
0.0
 30
0.0
  9
$UCSORGLEFT
 10
0.0
 20
0.0
 30
0.0
  9
$UCSORGRIGHT
 10
0.0
 20
0.0
 30
0.0
  9
$UCSORGFRONT
 10
0.0
 20
0.0
 30
0.0
  9
$UCSORGBACK
 10
0.0
 20
0.0
 30
0.0
  9
$PUCSBASE
  2

  9
$PUCSNAME
  2

  9
$PUCSORG
 10
0.0
 20
0.0
 30
0.0
  9
$PUCSXDIR
 10
1.0
 20
0.0
 30
0.0
  9
$PUCSYDIR
 10
0.0
 20
1.0
 30
0.0
  9
$PUCSORTHOREF
  2

  9
$PUCSORTHOVIEW
 70
     0
  9
$PUCSORGTOP
 10
0.0
 20
0.0
 30
0.0
  9
$PUCSORGBOTTOM
 10
0.0
 20
0.0
 30
0.0
  9
$PUCSORGLEFT
 10
0.0
 20
0.0
 30
0.0
  9
$PUCSORGRIGHT
 10
0.0
 20
0.0
 30
0.0
  9
$PUCSORGFRONT
 10
0.0
 20
0.0
 30
0.0
  9
$PUCSORGBACK
 10
0.0
 20
0.0
 30
0.0
  9
$USERI1
 70
     0
  9
$USERI2
 70
     0
  9
$USERI3
 70
     0
  9
$USERI4
 70
     0
  9
$USERI5
 70
     0
  9
$USERR1
 40
0.0
  9
$USERR2
 40
0.0
  9
$USERR3
 40
0.0
  9
$USERR4
 40
0.0
  9
$USERR5
 40
0.0
  9
$WORLDVIEW
 70
     1
  9
$SHADEDGE
 70
     3
  9
$SHADEDIF
 70
    70
  9
$TILEMODE
 70
     1
  9
$MAXACTVP
 70
    16
  9
$PINSBASE
 10
0.0
 20
0.0
 30
0.0
  9
$PLIMCHECK
 70
     0
  9
$PEXTMIN
 10
1.000000000000000E+20
 20
1.000000000000000E+20
 30
1.000000000000000E+20
  9
$PEXTMAX
 10
-1.000000000000000E+20
 20
-1.000000000000000E+20
 30
-1.000000000000000E+20
  9
$PLIMMIN
 10
0.0
 20
0.0
  9
$PLIMMAX
 10
12.0
 20
9.0
  9
$UNITMODE
 70
     0
  9
$VISRETAIN
 70
     0
  9
$PLINEGEN
 70
     0
  9
$PSLTSCALE
 70
     0
  9
$TREEDEPTH
 70
  3020
  9
$CMLSTYLE
  2
STANDARD
  9
$CMLJUST
 70
     0
  9
$CMLSCALE
 40
1.0
  9
$PROXYGRAPHICS
 70
     1
  9
$MEASUREMENT
 70
     1
  9
$CELWEIGHT
370
    -1
  9
$ENDCAPS
280
     0
  9
$JOINSTYLE
280
     0
  9
$LWDISPLAY
290
     0
  9
$INSUNITS
 70
     0
  9
$HYPERLINKBASE
  1

  9
$STYLESHEET
  1

  9
$XEDIT
290
     1
  9
$CEPSNTYPE
380
     0
  9
$PSTYLEMODE
290
     1
  9
$FINGERPRINTGUID
  2
{A4B91182-D59F-41CB-965D-F400FA69B84B}
  9
$VERSIONGUID
  2
{C861D61B-60FF-4493-9694-9BF93B5E1455}
  9
$EXTNAMES
290
     1
  9
$PSVPSCALE
 40
0.0
  9
$OLESTARTUP
290
     0
  0
ENDSEC
  0
SECTION
  2
CLASSES
  0
CLASS
  1
ACDBDICTIONARYWDFLT
  2
AcDbDictionaryWithDefault
  3
ObjectDBX Classes
 90
        0
280
     0
281
     0
  0
CLASS
  1
ACDBPLACEHOLDER
  2
AcDbPlaceHolder
  3
ObjectDBX Classes
 90
        0
280
     0
281
     0
  0
CLASS
  1
LAYOUT
  2
AcDbLayout
  3
ObjectDBX Classes
 90
        0
280
     0
281
     0
  0
CLASS
  1
MATERIAL
  2
AcDbMaterial
  3
ObjectDBX Classes
 90
     1153
280
     0
281
     0
  0
CLASS
  1
VISUALSTYLE
  2
AcDbVisualStyle
  3
ObjectDBX Classes
 90
     4095
280
     0
281
     0
  0
CLASS
  1
TABLESTYLE
  2
AcDbTableStyle
  3
ObjectDBX Classes
 90
     4095
280
     0
281
     0
  0
CLASS
  1
SCALE
  2
AcDbScale
  3
ObjectDBX Classes
 90
     1153
280
     0
281
     0
  0
CLASS
  1
MLEADERSTYLE
  2
AcDbMLeaderStyle
  3
ACDB_MLEADERSTYLE_CLASS
 90
     4095
280
     0
281
     0
  0
CLASS
  1
DICTIONARYVAR
  2
AcDbDictionaryVar
  3
ObjectDBX Classes
 90
        0
280
     0
281
     0
  0
CLASS
  1
CELLSTYLEMAP
  2
AcDbCellStyleMap
  3
ObjectDBX Classes
 90
     1152
280
     0
281
     0
  0
ENDSEC
  0
SECTION
  2
TABLES
  0
TABLE
  2
VPORT
  5
8
330
0
100
AcDbSymbolTable
 70
     1
  0
VPORT
  5
1288
330
8
100
AcDbSymbolTableRecord
100
AcDbViewportTableRecord
  2
*Active
 70
     0
 10
0.0
 20
0.0
 11
1.0
 21
1.0
 12
19.5937853450294
 22
11.3585753563791
 13
0.0
 23
0.0
 14
5.0
 24
5.0
 15
5.0
 25
5.0
 16
0.0
 26
0.0
 36
1.0
 17
0.0
 27
0.0
 37
0.0
 40
73.38873643891616
 41
1.731578947368421
 42
50.0
 43
0.0
 44
0.0
 50
0.0
 51
0.0
 71
     0
 72
   100
 73
     1
 74
     3
 75
     0
 76
     0
 77
     0
 78
     0
281
     0
 65
     1
110
0.0
120
0.0
130
0.0
111
1.0
121
0.0
131
0.0
112
0.0
122
1.0
132
0.0
 79
     0
146
0.0
  0
ENDTAB
  0
TABLE
  2
LTYPE
  5
5
330
0
100
AcDbSymbolTable
 70
     5
  0
LTYPE
  5
13
330
5
100
AcDbSymbolTableRecord
100
AcDbLinetypeTableRecord
  2
BYBLOCK
 70
     0
  3

 72
    65
 73
     0
 40
0.0
  0
LTYPE
  5
14
330
5
100
AcDbSymbolTableRecord
100
AcDbLinetypeTableRecord
  2
BYLAYER
 70
     0
  3

 72
    65
 73
     0
 40
0.0
  0
LTYPE
  5
15
330
5
100
AcDbSymbolTableRecord
100
AcDbLinetypeTableRecord
  2
CONTINUOUS
 70
     0
  3
Solid line
 72
    65
 73
     0
 40
0.0
  0
LTYPE
  5
20
330
5
100
AcDbSymbolTableRecord
100
AcDbLinetypeTableRecord
  2
CENTER
 70
     0
  3
____ . ____ . ____
 72
    65
 73
     4
 40
1.5
 49
1.0
 74
     0
 49
-0.25
 74
     0
 49
0.0
 74
     0
 49
-0.25
 74
     0
  0
LTYPE
  5
21
330
5
100
AcDbSymbolTableRecord
100
AcDbLinetypeTableRecord
  2
HIDDEN
 70
     0
  3
_ _ _ _ _ _ _ _ _ _ _ _ _ _ _ _ _ _ _ _ _ _ _
 72
    65
 73
     2
 40
0.375
 49
0.25
 74
     0
 49
-0.125
 74
     0
  0
ENDTAB
  0
TABLE
  2
LAYER
  5
2
330
0
100
AcDbSymbolTable
 70
    16
  0
LAYER
  5
F
102
{ACAD_XDICTIONARY
360
17EE
102
}
330
2
100
AcDbSymbolTableRecord
100
AcDbLayerTableRecord
  2
0
 70
     0
 62
     7
  6
CONTINUOUS
370
    -3
390
E94
  0
LAYER
  5
1E
102
{ACAD_XDICTIONARY
360
17F0
102
}
330
2
100
AcDbSymbolTableRecord
100
AcDbLayerTableRecord
  2
1
 70
     0
 62
     4
  6
CONTINUOUS
370
    -3
390
E94
  0
LAYER
  5
22
102
{ACAD_XDICTIONARY
360
17F2
102
}
330
2
100
AcDbSymbolTableRecord
100
AcDbLayerTableRecord
  2
SK1
 70
     0
 62
     4
  6
CONTINUOUS
370
    -3
390
E94
  0
LAYER
  5
23
102
{ACAD_XDICTIONARY
360
17F4
102
}
330
2
100
AcDbSymbolTableRecord
100
AcDbLayerTableRecord
  2
2
 70
     0
 62
     7
  6
CONTINUOUS
370
    -3
390
E94
  0
LAYER
  5
24
102
{ACAD_XDICTIONARY
360
17F6
102
}
330
2
100
AcDbSymbolTableRecord
100
AcDbLayerTableRecord
  2
2L
 70
     0
 62
     7
  6
CONTINUOUS
370
    -3
390
E94
  0
LAYER
  5
25
102
{ACAD_XDICTIONARY
360
17F8
102
}
330
2
100
AcDbSymbolTableRecord
100
AcDbLayerTableRecord
  2
SK2
 70
     0
 62
     7
  6
CONTINUOUS
370
    -3
390
E94
  0
LAYER
  5
26
102
{ACAD_XDICTIONARY
360
17FA
102
}
330
2
100
AcDbSymbolTableRecord
100
AcDbLayerTableRecord
  2
3
 70
     0
 62
     1
  6
HIDDEN
370
    -3
390
E94
  0
LAYER
  5
27
102
{ACAD_XDICTIONARY
360
17FC
102
}
330
2
100
AcDbSymbolTableRecord
100
AcDbLayerTableRecord
  2
SK3
 70
     0
 62
     1
  6
HIDDEN
370
    -3
390
E94
  0
LAYER
  5
28
102
{ACAD_XDICTIONARY
360
17FE
102
}
330
2
100
AcDbSymbolTableRecord
100
AcDbLayerTableRecord
  2
4
 70
     0
 62
     2
  6
CENTER
370
    -3
390
E94
  0
LAYER
  5
29
102
{ACAD_XDICTIONARY
360
1800
102
}
330
2
100
AcDbSymbolTableRecord
100
AcDbLayerTableRecord
  2
SK4
 70
     0
 62
     2
  6
CENTER
370
    -3
390
E94
  0
LAYER
  5
2A
102
{ACAD_XDICTIONARY
360
1802
102
}
330
2
100
AcDbSymbolTableRecord
100
AcDbLayerTableRecord
  2
5
 70
     0
 62
     7
  6
CONTINUOUS
370
    -3
390
E94
  0
LAYER
  5
2B
102
{ACAD_XDICTIONARY
360
1804
102
}
330
2
100
AcDbSymbolTableRecord
100
AcDbLayerTableRecord
  2
6
 70
     0
 62
     5
  6
CONTINUOUS
370
    -3
390
E94
  0
LAYER
  5
2C
102
{ACAD_XDICTIONARY
360
1806
102
}
330
2
100
AcDbSymbolTableRecord
100
AcDbLayerTableRecord
  2
SK6
 70
     0
 62
     5
  6
CONTINUOUS
370
    -3
390
E94
  0
LAYER
  5
2D
102
{ACAD_XDICTIONARY
360
1808
102
}
330
2
100
AcDbSymbolTableRecord
100
AcDbLayerTableRecord
  2
243
 70
     0
 62
     7
  6
CONTINUOUS
370
    -3
390
E94
  0
LAYER
  5
2E
330
2
100
AcDbSymbolTableRecord
100
AcDbLayerTableRecord
  2
DEFPOINTS
 70
     0
 62
     7
  6
CONTINUOUS
290
     0
370
    -3
390
E94
  0
LAYER
  5
C07
102
{ACAD_XDICTIONARY
360
180A
102
}
330
2
100
AcDbSymbolTableRecord
100
AcDbLayerTableRecord
  2
FRONT
 70
     0
 62
     7
  6
CONTINUOUS
370
    -3
390
E94
  0
ENDTAB
  0
TABLE
  2
STYLE
  5
3
330
0
100
AcDbSymbolTable
 70
     4
  0
STYLE
  5
10
330
3
100
AcDbSymbolTableRecord
100
AcDbTextStyleTableRecord
  2
STANDARD
 70
     0
 40
0.0
 41
1.0
 50
0.0
 71
     0
 42
5.0
  3
txt
  4

  0
STYLE
  5
1F
330
3
100
AcDbSymbolTableRecord
100
AcDbTextStyleTableRecord
  2
SIMPLEX
 70
     0
 40
0.0
 41
1.0
 50
0.0
 71
     0
 42
3.5
  3
simplex
  4

  0
STYLE
  5
2F
330
3
100
AcDbSymbolTableRecord
100
AcDbTextStyleTableRecord
  2
TXT
 70
     0
 40
8.0
 41
1.0
 50
0.0
 71
     0
 42
8.0
  3
txt
  4

  0
STYLE
  5
C08
330
3
100
AcDbSymbolTableRecord
100
AcDbTextStyleTableRecord
  2
UGMTXT
 70
     0
 40
0.0
 41
1.0
 50
0.0
 71
     0
 42
0.2
  3
ugmtxt
  4
bigfont
  0
ENDTAB
  0
TABLE
  2
VIEW
  5
6
330
0
100
AcDbSymbolTable
 70
     0
  0
ENDTAB
  0
TABLE
  2
UCS
  5
7
330
0
100
AcDbSymbolTable
 70
     0
  0
ENDTAB
  0
TABLE
  2
APPID
  5
9
330
0
100
AcDbSymbolTable
 70
     6
  0
APPID
  5
11
330
9
100
AcDbSymbolTableRecord
100
AcDbRegAppTableRecord
  2
ACAD
 70
     0
  0
APPID
  5
E8F
330
9
100
AcDbSymbolTableRecord
100
AcDbRegAppTableRecord
  2
CONTENTBLOCKICON
 70
     0
  0
APPID
  5
1725
330
9
100
AcDbSymbolTableRecord
100
AcDbRegAppTableRecord
  2
ACAD_DSTYLE_DIMJAG
 70
     0
  0
APPID
  5
1726
330
9
100
AcDbSymbolTableRecord
100
AcDbRegAppTableRecord
  2
ACAD_DSTYLE_DIMTALN
 70
     0
  0
APPID
  5
17C6
330
9
100
AcDbSymbolTableRecord
100
AcDbRegAppTableRecord
  2
ACAD_EXEMPT_FROM_CAD_STANDARDS
 70
     0
  0
APPID
  5
18CA
330
9
100
AcDbSymbolTableRecord
100
AcDbRegAppTableRecord
  2
ACAD_MLEADERVER
 70
     0
  0
ENDTAB
  0
TABLE
  2
DIMSTYLE
  5
A
330
0
100
AcDbSymbolTable
 70
     6
100
AcDbDimStyleTable
 71
     5
340
D91
340
1273
340
D93
340
D92
340
980
  0
DIMSTYLE
105
980
330
A
100
AcDbSymbolTableRecord
100
AcDbDimStyleTableRecord
  2
STANDARD
 70
     0
340
10
  0
DIMSTYLE
105
D91
102
{ACAD_REACTORS
330
16B1
330
16B0
330
16AE
330
16AD
330
16AF
102
}
330
A
100
AcDbSymbolTableRecord
100
AcDbDimStyleTableRecord
  2
V-TYGEN_-160
 70
     0
 41
3.5
 42
1.0
 43
0.5
 44
1.0
 73
     0
 74
     0
 77
     1
140
3.5
141
0.0
147
1.0
172
     1
271
     0
272
     0
340
10
371
    -1
1001
ACAD_DSTYLE_DIMJAG
1070
   388
1040
1.5
1001
ACAD_DSTYLE_DIMTALN
1070
   392
1070
     0
  0
DIMSTYLE
105
D92
330
A
100
AcDbSymbolTableRecord
100
AcDbDimStyleTableRecord
  2
V-TYG_160-300
 70
     0
 41
5.0
 42
1.0
 43
0.5
 44
1.0
 73
     0
 74
     0
 77
     1
140
5.0
141
0.0
147
1.0
271
     0
272
     0
340
10
  0
DIMSTYLE
105
D93
330
A
100
AcDbSymbolTableRecord
100
AcDbDimStyleTableRecord
  2
V-TYG_300-
 70
     0
 41
8.0
 42
1.0
 43
0.5
 44
1.0
 73
     0
 74
     0
 77
     1
140
8.0
141
0.0
147
1.0
271
     0
272
     0
340
10
  0
DIMSTYLE
105
1273
330
A
100
AcDbSymbolTableRecord
100
AcDbDimStyleTableRecord
  2
Inserts
 70
     0
 41
0.5
 42
1.0
 43
0.5
 44
1.0
 73
     0
 74
     0
 77
     1
140
0.8
141
0.0
147
1.0
271
     0
272
     0
340
10
371
    -1
  0
ENDTAB
  0
TABLE
  2
BLOCK_RECORD
  5
1
330
0
100
AcDbSymbolTable
 70
    15
  0
BLOCK_RECORD
  5
19
102
{ACAD_XDICTIONARY
360
E8D
102
}
330
1
100
AcDbSymbolTableRecord
100
AcDbBlockTableRecord
  2
*MODEL_SPACE
340
E95
  0
BLOCK_RECORD
  5
16
102
{ACAD_XDICTIONARY
360
E8B
102
}
330
1
100
AcDbSymbolTableRecord
100
AcDbBlockTableRecord
  2
*PAPER_SPACE
340
E96
  0
BLOCK_RECORD
  5
A8B
330
1
100
AcDbSymbolTableRecord
100
AcDbBlockTableRecord
  2
2D00035417
340
0
310
2800000020000000200000000100080000000000000400000000000000000000000000000000000000000000000080000080000000808000800000008000800080800000C0C0C000C0DCC000F0CAA6000020400000206000002080000020A0000020C0000020E00000400000004020000040400000406000004080000040A0
310
000040C0000040E00000600000006020000060400000606000006080000060A0000060C0000060E00000800000008020000080400000806000008080000080A0000080C0000080E00000A0000000A0200000A0400000A0600000A0800000A0A00000A0C00000A0E00000C0000000C0200000C0400000C0600000C0800000C0
310
A00000C0C00000C0E00000E0000000E0200000E0400000E0600000E0800000E0A00000E0C00000E0E00040000000400020004000400040006000400080004000A0004000C0004000E00040200000402020004020400040206000402080004020A0004020C0004020E000404000004040200040404000404060004040800040
310
40A0004040C0004040E00040600000406020004060400040606000406080004060A0004060C0004060E00040800000408020004080400040806000408080004080A0004080C0004080E00040A0000040A0200040A0400040A0600040A0800040A0A00040A0C00040A0E00040C0000040C0200040C0400040C0600040C08000
310
40C0A00040C0C00040C0E00040E0000040E0200040E0400040E0600040E0800040E0A00040E0C00040E0E00080000000800020008000400080006000800080008000A0008000C0008000E00080200000802020008020400080206000802080008020A0008020C0008020E00080400000804020008040400080406000804080
310
008040A0008040C0008040E00080600000806020008060400080606000806080008060A0008060C0008060E00080800000808020008080400080806000808080008080A0008080C0008080E00080A0000080A0200080A0400080A0600080A0800080A0A00080A0C00080A0E00080C0000080C0200080C0400080C0600080C0
310
800080C0A00080C0C00080C0E00080E0000080E0200080E0400080E0600080E0800080E0A00080E0C00080E0E000C0000000C0002000C0004000C0006000C0008000C000A000C000C000C000E000C0200000C0202000C0204000C0206000C0208000C020A000C020C000C020E000C0400000C0402000C0404000C0406000C0
310
408000C040A000C040C000C040E000C0600000C0602000C0604000C0606000C0608000C060A000C060C000C060E000C0800000C0802000C0804000C0806000C0808000C080A000C080C000C080E000C0A00000C0A02000C0A04000C0A06000C0A08000C0A0A000C0A0C000C0A0E000C0C00000C0C02000C0C04000C0C06000
310
C0C08000C0C0A000F0FBFF00A4A0A000808080000000FF0000FF000000FFFF00FF000000FF00FF00FFFF0000FFFFFF0000000000000000000000000000000000000000000000000000000000000000000000000000000000000000000000000000000000000000000000000000000000000000000000000000000000000000
310
00000000000000000000000000000000000000000000000000000000000000000000000000000000000000000000000000000000000000000000000000000000000000000000000000000000000000000000000000000000000000000000000000000000000000000000000000000000000000000000000000000000000000
310
00000000000000000000000000000000000000000000000000000000000000000000000000000000000000000000000000000000000000000000000000000000000000000000000000000000000000000000000000000000000000000000000000000000000000000000000000000000000000000000000000000000000000
310
00000000000000000000000000000000000000000000000000000000000000000000000000000000000000000000000000000000000000000000000000000000000000000000000000000000000000000000000000FEFEFEFEFEFEFEFEFEFEFEFEFEFEFEFEFEFEFEFEFEFE000000FEFEFEFE0000FEFE000000000000000000
310
0000000000000000000000FEFEFEFEFEFEFEFE0000FEFE0000000000000000000000000000000000000000FEFE0000FEFEFE000000FEFE0000000000000000000000000000000000000000FEFE0000FEFEFE000000FEFE0000000000000000000000000000000000000000FEFEFEFEFEFEFEFE000000FEFEFEFEFEFEFEFEFE
310
FEFEFEFEFEFEFEFEFEFEFEFEFE000000FEFEFEFE0000000000000000000000000000000000000000000000000000000000000000000000000000000000000000000000000000000000000000000000000000000000000000000000000000000000000000000000000000000000000000000000000000000000000000000000
310
00000000000000000000000000000000000000000000000000000000000000000000000000000000000000000000000000000000000000000000000000000000000000000000000000000000000000000000000000000000000000000000000000000000000000000000000000000000000000000000000000000000000000
310
00000000000000000000000000000000000000000000000000000000000000000000000000000000000000000000000000000000000000000000000000000000000000000000000000000000000000000000000000000000000000000000000000000000000000000000000000000000000000000000000000000000000000
310
0000000000000000000000000000000000000000000000000000000000000000000000000000000000000000000000000000000000000000
102
{BLKREFS
331
C04
102
}
  0
BLOCK_RECORD
  5
C03
330
1
100
AcDbSymbolTableRecord
100
AcDbBlockTableRecord
  2
ROFFE
340
0
310
2800000020000000200000000100080000000000000400000000000000000000000000000000000000000000000080000080000000808000800000008000800080800000C0C0C000C0DCC000F0CAA6000020400000206000002080000020A0000020C0000020E00000400000004020000040400000406000004080000040A0
310
000040C0000040E00000600000006020000060400000606000006080000060A0000060C0000060E00000800000008020000080400000806000008080000080A0000080C0000080E00000A0000000A0200000A0400000A0600000A0800000A0A00000A0C00000A0E00000C0000000C0200000C0400000C0600000C0800000C0
310
A00000C0C00000C0E00000E0000000E0200000E0400000E0600000E0800000E0A00000E0C00000E0E00040000000400020004000400040006000400080004000A0004000C0004000E00040200000402020004020400040206000402080004020A0004020C0004020E000404000004040200040404000404060004040800040
310
40A0004040C0004040E00040600000406020004060400040606000406080004060A0004060C0004060E00040800000408020004080400040806000408080004080A0004080C0004080E00040A0000040A0200040A0400040A0600040A0800040A0A00040A0C00040A0E00040C0000040C0200040C0400040C0600040C08000
310
40C0A00040C0C00040C0E00040E0000040E0200040E0400040E0600040E0800040E0A00040E0C00040E0E00080000000800020008000400080006000800080008000A0008000C0008000E00080200000802020008020400080206000802080008020A0008020C0008020E00080400000804020008040400080406000804080
310
008040A0008040C0008040E00080600000806020008060400080606000806080008060A0008060C0008060E00080800000808020008080400080806000808080008080A0008080C0008080E00080A0000080A0200080A0400080A0600080A0800080A0A00080A0C00080A0E00080C0000080C0200080C0400080C0600080C0
310
800080C0A00080C0C00080C0E00080E0000080E0200080E0400080E0600080E0800080E0A00080E0C00080E0E000C0000000C0002000C0004000C0006000C0008000C000A000C000C000C000E000C0200000C0202000C0204000C0206000C0208000C020A000C020C000C020E000C0400000C0402000C0404000C0406000C0
310
408000C040A000C040C000C040E000C0600000C0602000C0604000C0606000C0608000C060A000C060C000C060E000C0800000C0802000C0804000C0806000C0808000C080A000C080C000C080E000C0A00000C0A02000C0A04000C0A06000C0A08000C0A0A000C0A0C000C0A0E000C0C00000C0C02000C0C04000C0C06000
310
C0C08000C0C0A000F0FBFF00A4A0A000808080000000FF0000FF000000FFFF00FF000000FF00FF00FFFF0000FFFFFF0000000000000000000000000000000000000000000000000000000000000000000000000000000000000000000000000000000000000000000000000000000000000000000000000000000000000000
310
00000000000000000000000000000000000000000000000000000000000000000000000000000000000000000000000000000000000000000000000000000000000000000000000000000000000000000000000000000000000000000000000000000000000000000000000000000000000000000000000000000000000000
310
00000000000000000000000000000000000000000000000000000000000000000000000000000000000000000000000000000000000000000000000000000000000000000000000000000000000000000000000000000000000000000000000000000000000000000000000000000000000000000000000000000000000000
310
00000000000000000000000000000000000000000000000000000000000000000000000000000000000000000000000000000000000000000000000000000000000000000000000000000000000000000000000000FEFEFEFEFEFEFEFEFEFEFEFEFEFEFEFEFEFEFEFEFEFE000000FEFEFEFE0000FEFE000000000000000000
310
0000000000000000000000FEFEFEFEFEFEFEFE0000FEFE0000000000000000000000000000000000000000FEFE0000FEFEFE000000FEFE0000000000000000000000000000000000000000FEFE0000FEFEFE000000FEFE0000000000000000000000000000000000000000FEFEFEFEFEFEFEFE000000FEFEFEFEFEFEFEFEFE
310
FEFEFEFEFEFEFEFEFEFEFEFEFE000000FEFEFEFE0000000000000000000000000000000000000000000000000000000000000000000000000000000000000000000000000000000000000000000000000000000000000000000000000000000000000000000000000000000000000000000000000000000000000000000000
310
00000000000000000000000000000000000000000000000000000000000000000000000000000000000000000000000000000000000000000000000000000000000000000000000000000000000000000000000000000000000000000000000000000000000000000000000000000000000000000000000000000000000000
310
00000000000000000000000000000000000000000000000000000000000000000000000000000000000000000000000000000000000000000000000000000000000000000000000000000000000000000000000000000000000000000000000000000000000000000000000000000000000000000000000000000000000000
310
0000000000000000000000000000000000000000000000000000000000000000000000000000000000000000000000000000000000000000
  0
BLOCK_RECORD
  5
12D7
330
1
100
AcDbSymbolTableRecord
100
AcDbBlockTableRecord
  2
*D2
340
0
  0
BLOCK_RECORD
  5
12E4
330
1
100
AcDbSymbolTableRecord
100
AcDbBlockTableRecord
  2
*D3
340
0
  0
BLOCK_RECORD
  5
12F0
330
1
100
AcDbSymbolTableRecord
100
AcDbBlockTableRecord
  2
*D4
340
0
  0
BLOCK_RECORD
  5
12FC
330
1
100
AcDbSymbolTableRecord
100
AcDbBlockTableRecord
  2
*D5
340
0
  0
BLOCK_RECORD
  5
1308
330
1
100
AcDbSymbolTableRecord
100
AcDbBlockTableRecord
  2
*D6
340
0
  0
BLOCK_RECORD
  5
16B2
330
1
100
AcDbSymbolTableRecord
100
AcDbBlockTableRecord
  2
*D8
340
0
  0
BLOCK_RECORD
  5
16BF
330
1
100
AcDbSymbolTableRecord
100
AcDbBlockTableRecord
  2
*D9
340
0
  0
BLOCK_RECORD
  5
16CC
330
1
100
AcDbSymbolTableRecord
100
AcDbBlockTableRecord
  2
*D10
340
0
  0
BLOCK_RECORD
  5
16D9
330
1
100
AcDbSymbolTableRecord
100
AcDbBlockTableRecord
  2
*D11
340
0
  0
BLOCK_RECORD
  5
16E6
330
1
100
AcDbSymbolTableRecord
100
AcDbBlockTableRecord
  2
*D12
340
0
  0
BLOCK_RECORD
  5
1728
330
1
100
AcDbSymbolTableRecord
100
AcDbBlockTableRecord
  2
*D13
340
0
  0
ENDTAB
  0
ENDSEC
  0
SECTION
  2
BLOCKS
  0
BLOCK
  5
1A
330
19
100
AcDbEntity
  8
0
100
AcDbBlockBegin
  2
*MODEL_SPACE
 70
     0
 10
0.0
 20
0.0
 30
0.0
  3
*MODEL_SPACE
  1

  0
ENDBLK
  5
1B
330
19
100
AcDbEntity
  8
0
100
AcDbBlockEnd
  0
BLOCK
  5
17
330
16
100
AcDbEntity
 67
     1
  8
0
100
AcDbBlockBegin
  2
*PAPER_SPACE
 70
     0
 10
0.0
 20
0.0
 30
0.0
  3
*PAPER_SPACE
  1

  0
ENDBLK
  5
18
330
16
100
AcDbEntity
 67
     1
  8
0
100
AcDbBlockEnd
  0
BLOCK
  5
C01
330
A8B
100
AcDbEntity
  8
0
100
AcDbBlockBegin
  2
2D00035417
 70
     0
 10
0.0
 20
0.0
 30
0.0
  3
2D00035417
  1

  0
LINE
  5
A8C
330
A8B
100
AcDbEntity
  8
FRONT
  6
Continuous
 62
     4
100
AcDbLine
 10
12.3065882078928
 20
-50.6958232540574
 30
0.0
 11
11.4405628041084
 21
-50.1958232540574
 31
0.0
  0
LINE
  5
A8D
330
A8B
100
AcDbEntity
  8
FRONT
  6
Continuous
 62
     4
100
AcDbLine
 10
11.4405628041084
 20
-62.1958232540574
 30
0.0
 11
12.3065882078928
 21
-61.6958232540574
 31
0.0
  0
LINE
  5
A8E
330
A8B
100
AcDbEntity
  8
FRONT
  6
Continuous
 62
     4
100
AcDbLine
 10
-50.5594371958916
 20
-50.6958232540574
 30
0.0
 11
-50.5594371958916
 21
-61.6958232540574
 31
0.0
  0
LINE
  5
A8F
330
A8B
100
AcDbEntity
  8
FRONT
  6
Continuous
 62
     4
100
AcDbLine
 10
-50.0594371958916
 20
-50.1958232540574
 30
0.0
 11
-50.0594371958916
 21
-62.1958232540574
 31
0.0
  0
LINE
  5
A90
330
A8B
100
AcDbEntity
  8
FRONT
  6
Continuous
 62
     4
100
AcDbLine
 10
11.4405628041084
 20
-50.1958232540574
 30
0.0
 11
11.4405628041084
 21
-62.1958232540574
 31
0.0
  0
LINE
  5
A91
330
A8B
100
AcDbEntity
  8
FRONT
  6
Continuous
 62
     4
100
AcDbLine
 10
-50.0594371958916
 20
-62.1958232540574
 30
0.0
 11
11.4405628041084
 21
-62.1958232540574
 31
0.0
  0
LINE
  5
A92
330
A8B
100
AcDbEntity
  8
FRONT
  6
Continuous
 62
     4
100
AcDbLine
 10
-50.5594371958916
 20
-61.6958232540574
 30
0.0
 11
-50.0594371958916
 21
-62.1958232540574
 31
0.0
  0
LINE
  5
A93
330
A8B
100
AcDbEntity
  8
FRONT
  6
Continuous
 62
     4
100
AcDbLine
 10
11.4405628041084
 20
-50.1958232540574
 30
0.0
 11
-50.0594371958916
 21
-50.1958232540574
 31
0.0
  0
LINE
  5
A94
330
A8B
100
AcDbEntity
  8
FRONT
  6
Continuous
 62
     4
100
AcDbLine
 10
-50.0594371958916
 20
-50.1958232540574
 30
0.0
 11
-50.5594371958916
 21
-50.6958232540574
 31
0.0
  0
LINE
  5
A95
330
A8B
100
AcDbEntity
  8
FRONT
  6
Continuous
 62
     4
100
AcDbLine
 10
28.7380150721504
 20
-52.6861439083989
 30
0.0
 11
28.7380150721504
 21
-61.2135659784579
 31
0.0
  0
LINE
  5
A96
330
A8B
100
AcDbEntity
  8
FRONT
  6
Continuous
 62
     4
100
AcDbLine
 10
22.6327674250355
 20
-52.777831826208
 30
0.0
 11
22.6327674250355
 21
-61.4645277448224
 31
0.0
  0
LINE
  5
A97
330
A8B
100
AcDbEntity
  8
FRONT
  6
Continuous
 62
     4
100
AcDbLine
 10
23.8385880619188
 20
-52.6519834944156
 30
0.0
 11
23.8385880619188
 21
-60.9111587683514
 31
0.0
  0
LINE
  5
A98
330
A8B
100
AcDbEntity
  8
FRONT
  6
Continuous
 62
     4
100
AcDbLine
 10
12.3065882078928
 20
-50.6958232540574
 30
0.0
 11
12.3065882078928
 21
-61.6958232540574
 31
0.0
  0
LINE
  5
A99
330
A8B
100
AcDbEntity
  8
FRONT
  6
Continuous
 62
     4
100
AcDbLine
 10
25.1889484853903
 20
-52.602617600885
 30
0.0
 11
25.1889484853903
 21
-61.2278880467207
 31
0.0
  0
LINE
  5
A9A
330
A8B
100
AcDbEntity
  8
FRONT
  6
Continuous
 62
     4
100
AcDbLine
 10
28.9293621995107
 20
-61.0122034821646
 30
0.0
 11
28.9293621995107
 21
-52.716544982433
 31
0.0
  0
LINE
  5
A9B
330
A8B
100
AcDbEntity
  8
FRONT
  6
Continuous
 62
     4
100
AcDbLine
 10
23.9646752558521
 20
-61.3446348190678
 30
0.0
 11
23.7105224923347
 21
-61.6706424158248
 31
0.0
  0
ELLIPSE
  5
A9C
330
A8B
100
AcDbEntity
  8
FRONT
  6
Continuous
 62
     4
100
AcDbEllipse
 10
24.0353993376247
 20
-61.032244656112
 30
0.0
 11
-0.1764278460445979
 21
0.0941977448772153
 31
0.0
210
0.0
220
0.0
230
1.0
 40
0.9833059182774052
 41
0.6405173247906966
 42
2.071687311428429
  0
ELLIPSE
  5
A9D
330
A8B
100
AcDbEntity
  8
FRONT
  6
Continuous
 62
     4
100
AcDbEllipse
 10
24.0268292229807
 20
-61.0482960686908
 30
0.0
 11
-0.264641769065345
 21
0.1412966173186371
 31
0.0
210
0.0
220
0.0
230
1.0
 40
0.9833059182774
 41
0.6405173248015057
 42
2.071687311439271
  0
ELLIPSE
  5
A9E
330
A8B
100
AcDbEntity
  8
FRONT
  6
Continuous
 62
     4
100
AcDbEllipse
 10
23.9754758008023
 20
-61.109559085987
 30
0.0
 11
-0.1776346087653321
 21
-0.1633261946229406
 31
0.0
210
0.0
220
0.0
230
1.0
 40
0.9518042298991375
 41
5.720439864303834
 42
7.08930315248491
  0
SPLINE
  5
A9F
330
A8B
100
AcDbEntity
  8
FRONT
  6
Continuous
 62
     4
100
AcDbSpline
210
0.0
220
0.0
230
1.0
 70
     8
 71
     2
 72
     6
 73
     3
 74
     0
 42
0.0000000001
 43
0.0000000001
 40
0.0
 40
0.0
 40
0.0
 40
1.0
 40
1.0
 40
1.0
 10
26.0630146635465
 20
-62.0729646136356
 30
0.0
 10
24.7792519409064
 20
-62.029140973921
 30
0.0
 10
23.4954861407223
 20
-61.9572635166003
 30
0.0
  0
SPLINE
  5
AA0
330
A8B
100
AcDbEntity
  8
FRONT
  6
Continuous
 62
     4
100
AcDbSpline
210
0.0
220
0.0
230
1.0
 70
     8
 71
     2
 72
     6
 73
     3
 74
     0
 42
0.0000000001
 43
0.0000000001
 40
0.0
 40
0.0
 40
0.0
 40
1.0
 40
1.0
 40
1.0
 10
23.4777191493243
 20
-62.0263161557958
 30
0.0
 10
24.4333997701193
 20
-62.0740777337634
 30
0.0
 10
25.3890587258809
 20
-62.1061974918634
 30
0.0
  0
SPLINE
  5
AA1
330
A8B
100
AcDbEntity
  8
FRONT
  6
Continuous
 62
     4
100
AcDbSpline
210
0.0
220
0.0
230
1.0
 70
     8
 71
     3
 72
    10
 73
     6
 74
     0
 42
0.0000000001
 43
0.0000000001
 40
0.0
 40
0.0
 40
0.0
 40
0.0
 40
0.413998097170399
 40
0.8317102975705793
 40
1.0
 40
1.0
 40
1.0
 40
1.0
 10
25.0930788282159
 20
-61.8475109807827
 30
0.0
 10
24.8928477205574
 20
-61.8334617634368
 30
0.0
 10
24.4991805953949
 20
-61.7962248891956
 30
0.0
 10
24.0369879710446
 20
-61.7348428121493
 30
0.0
 10
23.7826210984591
 20
-61.6856438852566
 30
0.0
 10
23.7105224923347
 20
-61.6706424158248
 30
0.0
  0
SPLINE
  5
AA2
330
A8B
100
AcDbEntity
  8
FRONT
  6
Continuous
 62
     4
100
AcDbSpline
210
0.0
220
0.0
230
1.0
 70
     8
 71
     2
 72
     6
 73
     3
 74
     0
 42
0.0000000001
 43
0.0000000001
 40
0.0
 40
0.0
 40
0.0
 40
1.0
 40
1.0
 40
1.0
 10
25.0548590388758
 20
-61.8629455012852
 30
0.0
 10
24.3284632779887
 20
-61.8236852174445
 30
0.0
 10
23.6020910460601
 20
-61.7756694574051
 30
0.0
  0
SPLINE
  5
AA3
330
A8B
100
AcDbEntity
  8
FRONT
  6
Continuous
 62
     4
100
AcDbSpline
210
0.0
220
0.0
230
1.0
 70
     8
 71
     2
 72
     6
 73
     3
 74
     0
 42
0.0000000001
 43
0.0000000001
 40
0.0
 40
0.0
 40
0.0
 40
1.0
 40
1.0
 40
1.0
 10
28.9269466855029
 20
-62.1099451957644
 30
0.0
 10
26.2186273606803
 20
-62.0778684782821
 30
0.0
 10
23.5100742158355
 20
-61.9203383202631
 30
0.0
  0
SPLINE
  5
AA4
330
A8B
100
AcDbEntity
  8
FRONT
  6
Continuous
 62
     4
100
AcDbSpline
210
0.0
220
0.0
230
1.0
 70
     8
 71
     3
 72
    13
 73
     9
 74
     0
 42
0.0000000001
 43
0.0000000001
 40
0.0
 40
0.0
 40
0.0
 40
0.0
 40
0.1221948788939986
 40
0.3409322576720923
 40
0.5593089850044601
 40
0.7634079375909129
 40
0.9483404453246466
 40
1.0
 40
1.0
 40
1.0
 40
1.0
 10
24.6582227511118
 20
-61.2048220951256
 30
0.0
 10
24.6506526619253
 20
-61.1827356176833
 30
0.0
 10
24.6187971385918
 20
-61.1226650305111
 30
0.0
 10
24.5141747168813
 20
-61.0256143915137
 30
0.0
 10
24.3294093996471
 20
-60.9376428479236
 30
0.0
 10
24.1111253711361
 20
-60.8928606389742
 30
0.0
 10
23.9424332591312
 20
-60.8955082864579
 30
0.0
 10
23.8571409183564
 20
-60.9079156827605
 30
0.0
 10
23.8385880619187
 20
-60.9111587683513
 30
0.0
  0
ELLIPSE
  5
AA5
330
A8B
100
AcDbEntity
  8
FRONT
  6
Continuous
 62
     4
100
AcDbEllipse
 10
17.1025826422705
 20
-56.1958232540909
 30
0.0
 11
-30.04133316929991
 21
2.588839177181584
 31
0.0
210
0.0
220
0.0
230
1.0
 40
0.1615314150625295
 41
1.478397138584063
 42
1.76983915316551
  0
SPLINE
  5
AA6
330
A8B
100
AcDbEntity
  8
FRONT
  6
Continuous
 62
     4
100
AcDbSpline
210
0.0
220
0.0
230
1.0
 70
     8
 71
     3
 72
    13
 73
     9
 74
     0
 42
0.0000000001
 43
0.0000000001
 40
0.0
 40
0.0
 40
0.0
 40
0.0
 40
0.111195031304195
 40
0.2657804119641697
 40
0.4822058427557557
 40
0.6989752890855822
 40
0.9172035917595028
 40
1.0
 40
1.0
 40
1.0
 40
1.0
 10
12.7858881768903
 20
-61.6958225811732
 30
0.0
 10
12.839074343788
 20
-61.6951340226401
 30
0.0
 10
12.9795465374878
 20
-61.6833908390968
 30
0.0
 10
13.2951468178711
 20
-61.6140130595419
 30
0.0
 10
13.7699339940485
 20
-61.4674708336952
 30
0.0
 10
14.3812626766959
 20
-61.2554166907764
 30
0.0
 10
14.9208300575817
 20
-61.0692719215413
 30
0.0
 10
15.248685926473
 20
-60.9582595668775
 30
0.0
 10
15.3401699560096
 20
-60.9273781888441
 30
0.0
  0
LINE
  5
AA7
330
A8B
100
AcDbEntity
  8
FRONT
  6
Continuous
 62
     4
100
AcDbLine
 10
12.3065882078928
 20
-61.6958232540574
 30
0.0
 11
12.7933095299885
 21
-61.6958232540574
 31
0.0
  0
ELLIPSE
  5
AA8
330
A8B
100
AcDbEntity
  8
FRONT
  6
Continuous
 62
     4
100
AcDbEllipse
 10
23.4405717952698
 20
-72.2641521607225
 30
0.0
 11
-14.85880604145566
 21
5.934210405159881
 31
0.0
210
0.0
220
0.0
230
0.9999999999999998
 40
0.8742329960678898
 41
5.792900081455464
 42
5.811533204192437
  0
SPLINE
  5
AA9
330
A8B
100
AcDbEntity
  8
FRONT
  6
Continuous
 62
     4
100
AcDbSpline
210
0.0
220
0.0
230
1.0
 70
     8
 71
     3
 72
    13
 73
     9
 74
     0
 42
0.0000000001
 43
0.0000000001
 40
0.0
 40
0.0
 40
0.0
 40
0.0
 40
0.0708887435082171
 40
0.2571724611284706
 40
0.5329963062952721
 40
0.7291217371113851
 40
0.9254339909461146
 40
1.0
 40
1.0
 40
1.0
 40
1.0
 10
12.6361253067409
 20
-60.9864487435185
 30
0.0
 10
12.6544756658342
 20
-60.9726180280177
 30
0.0
 10
12.7263255280873
 20
-60.9249361164942
 30
0.0
 10
12.9289096479463
 20
-60.8441291425414
 30
0.0
 10
13.2242932697926
 20
-60.788188635997
 30
0.0
 10
13.535816373694
 20
-60.7687762572425
 30
0.0
 10
13.7549718302426
 20
-60.7747476937159
 30
0.0
 10
13.8799977967317
 20
-60.78538373118
 30
0.0
 10
13.914340933109
 20
-60.7888757524625
 30
0.0
  0
SPLINE
  5
AAA
330
A8B
100
AcDbEntity
  8
FRONT
  6
Continuous
 62
     4
100
AcDbSpline
210
0.0
220
0.0
230
1.0
 70
     8
 71
     2
 72
     6
 73
     3
 74
     0
 42
0.0000000001
 43
0.0000000001
 40
0.0
 40
0.0
 40
0.0
 40
1.0
 40
1.0
 40
1.0
 10
12.5612263814598
 20
-61.0757004453305
 30
0.0
 10
12.5810260006367
 20
-61.02880792469
 30
0.0
 10
12.6361253067409
 20
-60.9864487435185
 30
0.0
  0
SPLINE
  5
AAB
330
A8B
100
AcDbEntity
  8
FRONT
  6
Continuous
 62
     4
100
AcDbSpline
210
0.0
220
0.0
230
1.0
 70
     8
 71
     3
 72
    12
 73
     8
 74
     0
 42
0.0000000001
 43
0.0000000001
 40
0.0
 40
0.0
 40
0.0
 40
0.0
 40
0.2338452144524324
 40
0.4675970184665896
 40
0.701762765663897
 40
0.9359711320872667
 40
1.0
 40
1.0
 40
1.0
 40
1.0
 10
12.5612263814598
 20
-61.0757004453305
 30
0.0
 10
12.522354731615
 20
-61.17128621085
 30
0.0
 10
12.4706744059785
 20
-61.3407097544775
 30
0.0
 10
12.4679056745253
 20
-61.5340435248792
 30
0.0
 10
12.5501572699846
 20
-61.6538048190159
 30
0.0
 10
12.6742272082037
 20
-61.6923320036246
 30
0.0
 10
12.7653262093294
 20
-61.695899796718
 30
0.0
 10
12.7858881768903
 20
-61.6958225811732
 30
0.0
  0
LINE
  5
AAC
330
A8B
100
AcDbEntity
  8
FRONT
  6
Continuous
 62
     4
100
AcDbLine
 10
23.7048702963851
 20
-60.9228831200211
 30
0.0
 11
23.7316123094219
 21
-61.0905187544545
 31
0.0
  0
LINE
  5
AAD
330
A8B
100
AcDbEntity
  8
FRONT
  6
Continuous
 62
     4
100
AcDbLine
 10
23.4925216366413
 20
-61.4778895310325
 30
0.0
 11
23.5119926757827
 21
-61.4529135811785
 31
0.0
  0
LINE
  5
AAE
330
A8B
100
AcDbEntity
  8
FRONT
  6
Continuous
 62
     4
100
AcDbLine
 10
23.1791924416154
 20
-61.6575107958552
 30
0.0
 11
23.1952297414384
 21
-61.7425827926823
 31
0.0
  0
LINE
  5
AAF
330
A8B
100
AcDbEntity
  8
FRONT
  6
Continuous
 62
     4
100
AcDbLine
 10
23.8153203877709
 20
-60.9145368042582
 30
0.0
 11
23.8385880619188
 21
-61.0603931132878
 31
0.0
  0
LINE
  5
AB0
330
A8B
100
AcDbEntity
  8
FRONT
  6
Continuous
 62
     4
100
AcDbLine
 10
23.7316123094219
 20
-61.0905187544545
 30
0.0
 11
23.742296981466
 21
-61.1574969499387
 31
0.0
  0
LINE
  5
AB1
330
A8B
100
AcDbEntity
  8
FRONT
  6
Continuous
 62
     4
100
AcDbLine
 10
23.5560148338942
 20
-61.396445346203
 30
0.0
 11
23.742296981466
 21
-61.1574969499387
 31
0.0
  0
ELLIPSE
  5
AB2
330
A8B
100
AcDbEntity
  8
FRONT
  6
Continuous
 62
     4
100
AcDbEllipse
 10
23.600663460382
 20
-61.5599332808262
 30
0.0
 11
-0.1629665045002963
 21
0.162301935942986
 31
0.0
210
0.0
220
0.0
230
1.0
 40
0.885395213116765
 41
0.9406572002840926
 42
2.300026522294225
  0
ELLIPSE
  5
AB3
330
A8B
100
AcDbEntity
  8
FRONT
  6
Continuous
 62
     4
100
AcDbEllipse
 10
22.1733489579253
 20
-62.4333451295402
 30
0.0
 11
-0.1862107868856989
 21
2.621605320212951
 31
0.0
210
0.0
220
0.0
230
0.9999999999999998
 40
0.4178728177031461
 41
4.983018135371414
 42
5.015339106062617
  0
ELLIPSE
  5
AB4
330
A8B
100
AcDbEntity
  8
FRONT
  6
Continuous
 62
     4
100
AcDbEllipse
 10
22.3147763387804
 20
-56.2910405074422
 30
0.0
 11
-0.6453609818231091
 21
5.423953475707063
 31
0.0
210
0.0
220
0.0
230
1.0
 40
0.4002139493379774
 41
3.301152841311651
 42
3.433631365786768
  0
ELLIPSE
  5
AB5
330
A8B
100
AcDbEntity
  8
FRONT
  6
Continuous
 62
     4
100
AcDbEllipse
 10
23.4917075342138
 20
-61.7410052916599
 30
0.0
 11
-0.2141351294070844
 21
0.0839413268520247
 31
0.0
210
0.0
220
0.0
230
0.9999999999999998
 40
0.7465216560962231
 41
0.5997695972309498
 42
1.937897467873524
  0
ELLIPSE
  5
AB6
330
A8B
100
AcDbEntity
  8
FRONT
  6
Continuous
 62
     4
100
AcDbEllipse
 10
23.4911680711303
 20
-61.7419516494684
 30
0.0
 11
-0.1654325527084979
 21
0.1597875793175752
 31
0.0
210
0.0
220
0.0
230
1.0
 40
0.882922871075139
 41
0.9271183505009291
 42
2.296772776618916
  0
ELLIPSE
  5
AB7
330
A8B
100
AcDbEntity
  8
FRONT
  6
Continuous
 62
     4
100
AcDbEllipse
 10
23.7401824240655
 20
-61.0744673418759
 30
0.0
 11
-0.0987513760092463
 21
-0.0157532770020267
 31
0.0
210
0.0
220
0.0
230
1.0
 40
0.1458931740710974
 41
1.460656485145534
 42
3.031452811938669
  0
ELLIPSE
  5
AB8
330
A8B
100
AcDbEntity
  8
FRONT
  6
Continuous
 62
     4
100
AcDbEllipse
 10
346.659643977614
 20
-83.8493527801411
 30
0.0
 11
-342.1452092599433
 21
28.7644353191734
 31
0.0
210
0.0
220
0.0
230
1.0
 40
0.0434239235819959
 41
0.3305623080092169
 42
0.336553522992711
  0
ELLIPSE
  5
AB9
330
A8B
100
AcDbEntity
  8
FRONT
  6
Continuous
 62
     4
100
AcDbEllipse
 10
24.0533083711084
 20
-63.283578680504
 30
0.0
 11
-0.6874421685867658
 21
4.776216476972511
 31
0.0
210
0.0
220
0.0
230
1.0
 40
0.0505508379540167
 41
1.059760007862942
 42
1.160653432741368
  0
SPLINE
  5
ABA
330
A8B
100
AcDbEntity
  8
FRONT
  6
Continuous
 62
     4
100
AcDbSpline
210
0.0
220
0.0
230
1.0
 70
    24
 71
     1
 72
     4
 73
     2
 74
     0
 42
0.0000000001
 43
0.0000000001
 40
0.0
 40
0.0
 40
1.0
 40
1.0
 10
23.2790360199665
 20
-61.7628923396871
 30
0.0
 10
23.2795754830508
 20
-61.7619459818832
 30
0.0
  0
SPLINE
  5
ABB
330
A8B
100
AcDbEntity
  8
FRONT
  6
Continuous
 62
     4
100
AcDbSpline
210
0.0
220
0.0
230
1.0
 70
     8
 71
     3
 72
    12
 73
     8
 74
     0
 42
0.0000000001
 43
0.0000000001
 40
0.0
 40
0.0
 40
0.0
 40
0.0
 40
0.0007970805857311
 40
0.2615790368690925
 40
0.5223632910078863
 40
0.9992029194147567
 40
1.0
 40
1.0
 40
1.0
 40
1.0
 10
23.5100742158354
 20
-61.9203383202631
 30
0.0
 10
23.5100459511254
 20
-61.9204342426597
 30
0.0
 10
23.5088642019018
 20
-61.9244447665049
 30
0.0
 10
23.5064081847837
 20
-61.9322014737153
 30
0.0
 10
23.5015786688418
 20
-61.9452955210888
 30
0.0
 10
23.4978896333273
 20
-61.953089308312
 30
0.0
 10
23.495536039648
 20
-61.9571768557833
 30
0.0
 10
23.4954861407223
 20
-61.9572635166003
 30
0.0
  0
SPLINE
  5
ABC
330
A8B
100
AcDbEntity
  8
FRONT
  6
Continuous
 62
     4
100
AcDbSpline
210
0.0
220
0.0
230
1.0
 70
    24
 71
     1
 72
     4
 73
     2
 74
     0
 42
0.0000000001
 43
0.0000000001
 40
0.0
 40
0.0
 40
1.0
 40
1.0
 10
23.2114075289082
 20
-61.8335247446205
 30
0.0
 10
23.2790360199665
 20
-61.7628923396871
 30
0.0
  0
SPLINE
  5
ABD
330
A8B
100
AcDbEntity
  8
FRONT
  6
Continuous
 62
     4
100
AcDbSpline
210
0.0
220
0.0
230
1.0
 70
     8
 71
     2
 72
     6
 73
     3
 74
     0
 42
0.0000000001
 43
0.0000000001
 40
0.0
 40
0.0
 40
0.0
 40
1.0
 40
1.0
 40
1.0
 10
23.7066899438856
 20
-61.6700127167247
 30
0.0
 10
23.6542547874938
 20
-61.7222252334409
 30
0.0
 10
23.6020910460601
 20
-61.7756694574051
 30
0.0
  0
SPLINE
  5
ABE
330
A8B
100
AcDbEntity
  8
FRONT
  6
Continuous
 62
     4
100
AcDbSpline
210
0.0
220
0.0
230
1.0
 70
    24
 71
     1
 72
     4
 73
     2
 74
     0
 42
0.0000000001
 43
0.0000000001
 40
0.0
 40
0.0
 40
1.0
 40
1.0
 10
23.7105224923347
 20
-61.6706424158248
 30
0.0
 10
23.7066899438857
 20
-61.6700127167247
 30
0.0
  0
SPLINE
  5
ABF
330
A8B
100
AcDbEntity
  8
FRONT
  6
Continuous
 62
     4
100
AcDbSpline
210
0.0
220
0.0
230
1.0
 70
    24
 71
     1
 72
     4
 73
     2
 74
     0
 42
0.0000000001
 43
0.0000000001
 40
0.0
 40
0.0
 40
1.0
 40
1.0
 10
23.1952297414384
 20
-61.7425827926823
 30
0.0
 10
23.2114075289082
 20
-61.8335247446206
 30
0.0
  0
SPLINE
  5
AC0
330
A8B
100
AcDbEntity
  8
FRONT
  6
Continuous
 62
     4
100
AcDbSpline
210
0.0
220
0.0
230
1.0
 70
     8
 71
     3
 72
    12
 73
     8
 74
     0
 42
0.0000000001
 43
0.0000000001
 40
0.0
 40
0.0
 40
0.0
 40
0.0
 40
0.0001979715625893
 40
0.3804243462904076
 40
0.6884015213626393
 40
0.9998020284374039
 40
1.0
 40
1.0
 40
1.0
 40
1.0
 10
23.6020910460601
 20
-61.7756694574051
 30
0.0
 10
23.6020177525663
 20
-61.7757374872792
 30
0.0
 10
23.5885630117535
 20
-61.7882259663927
 30
0.0
 10
23.5651718783442
 20
-61.8151422160124
 30
0.0
 10
23.5346940609835
 20
-61.8646389110174
 30
0.0
 10
23.5179226984727
 20
-61.9008457347849
 30
0.0
 10
23.5101115658756
 20
-61.9202455572613
 30
0.0
 10
23.5100742158354
 20
-61.9203383202631
 30
0.0
  0
SPLINE
  5
AC1
330
A8B
100
AcDbEntity
  8
FRONT
  6
Continuous
 62
     4
100
AcDbSpline
210
0.0
220
0.0
230
1.0
 70
     8
 71
     3
 72
    11
 73
     7
 74
     0
 42
0.0000000001
 43
0.0000000001
 40
0.0
 40
0.0
 40
0.0
 40
0.0
 40
0.0003046676542752
 40
0.2859486271382446
 40
0.5715925864685599
 40
1.0
 40
1.0
 40
1.0
 40
1.0
 10
23.4954861407223
 20
-61.9572635166003
 30
0.0
 10
23.4954173935969
 20
-61.9573361377595
 30
0.0
 10
23.4894678867744
 20
-61.9636209108092
 30
0.0
 10
23.4774560961788
 20
-61.9763399001699
 30
0.0
 10
23.4564671397865
 20
-61.9986704545981
 30
0.0
 10
23.4414925767455
 20
-62.0146966053953
 30
0.0
 10
23.4325145184454
 20
-62.0243391935408
 30
0.0
  0
SPLINE
  5
AC2
330
A8B
100
AcDbEntity
  8
FRONT
  6
Continuous
 62
     4
100
AcDbSpline
210
0.0
220
0.0
230
1.0
 70
     8
 71
     3
 72
    10
 73
     6
 74
     0
 42
0.0000000001
 43
0.0000000001
 40
0.0
 40
0.0
 40
0.0
 40
0.0
 40
0.3783609825527917
 40
0.8357001481048397
 40
1.0
 40
1.0
 40
1.0
 40
1.0
 10
23.3660373444039
 20
-61.1721878998028
 30
0.0
 10
23.3669657001711
 20
-61.2045364936019
 30
0.0
 10
23.3881332583113
 20
-61.2738534745966
 30
0.0
 10
23.468295183415
 20
-61.3547937321815
 30
0.0
 10
23.5378515318701
 20
-61.3994343058528
 30
0.0
 10
23.5577799255297
 20
-61.4109770133812
 30
0.0
  0
SPLINE
  5
AC3
330
A8B
100
AcDbEntity
  8
FRONT
  6
Continuous
 62
     4
100
AcDbSpline
210
0.0
220
0.0
230
1.0
 70
    24
 71
     1
 72
     4
 73
     2
 74
     0
 42
0.0000000001
 43
0.0000000001
 40
0.0
 40
0.0
 40
1.0
 40
1.0
 10
23.4325145184454
 20
-62.0243391935408
 30
0.0
 10
23.4777191584358
 20
-62.0263169311577
 30
0.0
  0
SPLINE
  5
AC4
330
A8B
100
AcDbEntity
  8
FRONT
  6
Continuous
 62
     4
100
AcDbSpline
210
0.0
220
0.0
230
1.0
 70
    24
 71
     1
 72
     4
 73
     2
 74
     0
 42
0.0000000001
 43
0.0000000001
 40
0.0
 40
0.0
 40
1.0
 40
1.0
 10
23.2795754830499
 20
-61.7619459818788
 30
0.0
 10
23.3885314092181
 20
-61.580873971045
 30
0.0
  0
SPLINE
  5
AC5
330
A8B
100
AcDbEntity
  8
FRONT
  6
Continuous
 62
     4
100
AcDbSpline
210
0.0
220
0.0
230
1.0
 70
    24
 71
     1
 72
     4
 73
     2
 74
     0
 42
0.0000000001
 43
0.0000000001
 40
0.0
 40
0.0
 40
1.0
 40
1.0
 10
23.3885314092181
 20
-61.580873971045
 30
0.0
 10
23.4925216366413
 20
-61.4778895310325
 30
0.0
  0
SPLINE
  5
AC6
330
A8B
100
AcDbEntity
  8
FRONT
  6
Continuous
 62
     4
100
AcDbSpline
210
0.0
220
0.0
230
1.0
 70
     8
 71
     3
 72
    12
 73
     8
 74
     0
 42
0.0000000001
 43
0.0000000001
 40
0.0
 40
0.0
 40
0.0
 40
0.0
 40
0.2440298709825522
 40
0.488120310074948
 40
0.7306421972591243
 40
0.9701993202335991
 40
1.0
 40
1.0
 40
1.0
 40
1.0
 10
23.4325145184455
 20
-62.0243391935408
 30
0.0
 10
23.4061845687997
 20
-62.0230905213824
 30
0.0
 10
23.3567085257479
 20
-62.0129762966398
 30
0.0
 10
23.2885458793376
 20
-61.9731788538718
 30
0.0
 10
23.2375103255157
 20
-61.9147024835676
 30
0.0
 10
23.2171275066069
 20
-61.8640433353521
 30
0.0
 10
23.2119213449287
 20
-61.8365839297193
 30
0.0
 10
23.2114075289082
 20
-61.8335247446205
 30
0.0
  0
SPLINE
  5
AC7
330
A8B
100
AcDbEntity
  8
FRONT
  6
Continuous
 62
     4
100
AcDbSpline
210
0.0
220
0.0
230
1.0
 70
     8
 71
     3
 72
    12
 73
     8
 74
     0
 42
0.0000000001
 43
0.0000000001
 40
0.0
 40
0.0
 40
0.0
 40
0.0
 40
0.2494158432111992
 40
0.4988262431130359
 40
0.7483784991253286
 40
0.9306372409059042
 40
1.0
 40
1.0
 40
1.0
 40
1.0
 10
23.7066899438856
 20
-61.6700127167247
 30
0.0
 10
23.6813067032664
 20
-61.6667290162647
 30
0.0
 10
23.6335700650626
 20
-61.6531659680085
 30
0.0
 10
23.5675313686755
 20
-61.6098133601055
 30
0.0
 10
23.5220864860353
 20
-61.5549052018296
 30
0.0
 10
23.5007545087575
 20
-61.5084790035184
 30
0.0
 10
23.4940729491844
 20
-61.4845647874103
 30
0.0
 10
23.4925216366413
 20
-61.4778895310325
 30
0.0
  0
SPLINE
  5
AC8
330
A8B
100
AcDbEntity
  8
FRONT
  6
Continuous
 62
     4
100
AcDbSpline
210
0.0
220
0.0
230
1.0
 70
     8
 71
     3
 72
    12
 73
     8
 74
     0
 42
0.0000000001
 43
0.0000000001
 40
0.0
 40
0.0
 40
0.0
 40
0.0
 40
0.2310224464948759
 40
0.4620128681126269
 40
0.700559328220569
 40
0.9585437245442095
 40
1.0
 40
1.0
 40
1.0
 40
1.0
 10
23.8385880619188
 20
-60.9111587683514
 30
0.0
 10
23.772272336377
 20
-60.9106880346823
 30
0.0
 10
23.6521140300945
 20
-60.9207800928206
 30
0.0
 10
23.500828777583
 20
-60.9741783232239
 30
0.0
 10
23.398140365523
 20
-61.05515440847
 30
0.0
 10
23.3674145039108
 20
-61.1264206683329
 30
0.0
 10
23.3659451882616
 20
-61.1665878642045
 30
0.0
 10
23.3660373444039
 20
-61.1721878998028
 30
0.0
  0
LINE
  5
AC9
330
A8B
100
AcDbEntity
  8
FRONT
  6
Continuous
 62
     4
100
AcDbLine
 10
27.2827991714313
 20
-59.9885366827702
 30
0.0
 11
27.282806587169
 21
-59.3707355010572
 31
0.0
  0
LINE
  5
ACA
330
A8B
100
AcDbEntity
  8
FRONT
  6
Continuous
 62
     4
100
AcDbLine
 10
29.3388378410402
 20
-60.501672448857
 30
0.0
 11
29.0314224652881
 21
-59.1289518067577
 31
0.0
  0
ELLIPSE
  5
ACB
330
A8B
100
AcDbEntity
  8
FRONT
  6
Continuous
 62
     4
100
AcDbEllipse
 10
26.9813052002059
 20
-56.1992077909771
 30
0.0
 11
-0.0787240753221909
 21
-5.634958844023342
 31
0.0
210
0.0
220
0.0
230
0.9999999999999998
 40
0.0848761530590921
 41
0.8344445634990043
 42
0.9971121243690364
  0
ELLIPSE
  5
ACC
330
A8B
100
AcDbEntity
  8
FRONT
  6
Continuous
 62
     4
100
AcDbEllipse
 10
26.2864856984193
 20
-59.3569167237601
 30
0.0
 11
-0.7939253072066414
 21
0.4238898519389809
 31
0.0
210
0.0
220
0.0
230
1.0
 40
0.9833059182791441
 41
3.141592653589792
 42
6.283185307179584
  0
ELLIPSE
  5
ACD
330
A8B
100
AcDbEntity
  8
FRONT
  6
Continuous
 62
     4
100
AcDbEllipse
 10
26.2611426361783
 20
-59.404383060553
 30
0.0
 11
-0.6124566485468032
 21
0.3270007338409036
 31
0.0
210
0.0
220
0.0
230
1.0
 40
0.9833059182791558
 41
0.0
 42
6.283185307179584
  0
ELLIPSE
  5
ACE
330
A8B
100
AcDbEntity
  8
FRONT
  6
Continuous
 62
     4
100
AcDbEllipse
 10
24.9738919546015
 20
-56.1992600290227
 30
0.0
 11
-0.0799385486845723
 21
-5.721889020223127
 31
0.0
210
0.0
220
0.0
230
0.9999999999999998
 40
0.0848761529690107
 41
0.8609885795557556
 42
1.010813097306145
  0
ELLIPSE
  5
ACF
330
A8B
100
AcDbEntity
  8
FRONT
  6
Continuous
 62
     4
100
AcDbEllipse
 10
26.2864856984227
 20
-59.3569167237596
 30
0.0
 11
-0.793925307234311
 21
0.42388985189299
 31
0.0
210
0.0
220
0.0
230
1.0
 40
0.9833059182785405
 41
0.0
 42
1.217655899238259
  0
ELLIPSE
  5
AD0
330
A8B
100
AcDbEntity
  8
FRONT
  6
Continuous
 62
     4
100
AcDbEllipse
 10
26.2435126865439
 20
-59.4374031083687
 30
0.0
 11
-0.7939252851528728
 21
0.4238898401648104
 31
0.0
210
0.0
220
0.0
230
1.0
 40
0.9833059182791334
 41
3.193165641446312
 42
5.213279965006496
  0
LINE
  5
AD1
330
A8B
100
AcDbEntity
  8
FRONT
  6
Continuous
 62
     4
100
AcDbLine
 10
24.0320421286602
 20
-61.3444043668513
 30
0.0
 11
28.114179408338
 21
-61.3304399724099
 31
0.0
  0
ELLIPSE
  5
AD2
330
A8B
100
AcDbEntity
  8
FRONT
  6
Continuous
 62
     4
100
AcDbEllipse
 10
26.2864856998355
 20
-59.3569167247717
 30
0.0
 11
-0.7939253088795834
 21
0.4238898451415228
 31
0.0
210
0.0
220
0.0
230
0.9999999999999998
 40
0.9833059192021876
 41
2.862822081785346
 42
3.141592646178711
  0
ELLIPSE
  5
AD3
330
A8B
100
AcDbEntity
  8
FRONT
  6
Continuous
 62
     4
100
AcDbEllipse
 10
37.4720149301358
 20
-55.7756976080108
 30
0.0
 11
-60.22774572573949
 21
0.8391642046853387
 31
0.0
210
0.0
220
0.0
230
1.0
 40
0.0733360947234748
 41
1.395961454238489
 42
1.401822529636017
  0
ELLIPSE
  5
AD4
330
A8B
100
AcDbEntity
  8
FRONT
  6
Continuous
 62
     4
100
AcDbEllipse
 10
9.33831979628044
 20
-55.6768107146148
 30
0.0
 11
-74.39203540301211
 21
1.036502535843046
 31
0.0
210
0.0
220
0.0
230
1.0
 40
0.0733366707427299
 41
1.786532921110053
 42
1.835644438831914
  0
SPLINE
  5
AD5
330
A8B
100
AcDbEntity
  8
FRONT
  6
Continuous
 62
     4
100
AcDbSpline
210
0.0
220
0.0
230
1.0
 70
    24
 71
     1
 72
     4
 73
     2
 74
     0
 42
0.0000000001
 43
0.0000000001
 40
0.0
 40
0.0
 40
1.0
 40
1.0
 10
29.0354615242503
 20
-62.1710873961102
 30
0.0
 10
26.0466999264091
 20
-62.1264252002728
 30
0.0
  0
SPLINE
  5
AD6
330
A8B
100
AcDbEntity
  8
FRONT
  6
Continuous
 62
     4
100
AcDbSpline
210
0.0
220
0.0
230
1.0
 70
     8
 71
     2
 72
     6
 73
     3
 74
     0
 42
0.0000000001
 43
0.0000000001
 40
0.0
 40
0.0
 40
0.0
 40
1.0
 40
1.0
 40
1.0
 10
28.9743924034865
 20
-62.1356679469327
 30
0.0
 10
27.5187948673727
 20
-62.1226440097657
 30
0.0
 10
26.0630146635465
 20
-62.0729646136356
 30
0.0
  0
SPLINE
  5
AD7
330
A8B
100
AcDbEntity
  8
FRONT
  6
Continuous
 62
     4
100
AcDbSpline
210
0.0
220
0.0
230
1.0
 70
    24
 71
     1
 72
     4
 73
     2
 74
     0
 42
0.0000000001
 43
0.0000000001
 40
0.0
 40
0.0
 40
1.0
 40
1.0
 10
26.5792457509561
 20
-61.9072774775343
 30
0.0
 10
28.6907322281934
 20
-61.9479932962993
 30
0.0
  0
SPLINE
  5
AD8
330
A8B
100
AcDbEntity
  8
FRONT
  6
Continuous
 62
     4
100
AcDbSpline
210
0.0
220
0.0
230
1.0
 70
     8
 71
     2
 72
     6
 73
     3
 74
     0
 42
0.0000000001
 43
0.0000000001
 40
0.0
 40
0.0
 40
0.0
 40
1.0
 40
1.0
 40
1.0
 10
28.735946882787
 20
-61.9842060616027
 30
0.0
 10
27.6468320091415
 20
-61.9711533711443
 30
0.0
 10
26.5654979515337
 20
-61.9350099963397
 30
0.0
  0
SPLINE
  5
AD9
330
A8B
100
AcDbEntity
  8
FRONT
  6
Continuous
 62
     4
100
AcDbSpline
210
0.0
220
0.0
230
1.0
 70
     8
 71
     2
 72
     6
 73
     3
 74
     0
 42
0.0000000001
 43
0.0000000001
 40
0.0
 40
0.0
 40
0.0
 40
1.0
 40
1.0
 40
1.0
 10
28.7534588655823
 20
-62.0051688307124
 30
0.0
 10
27.6595069268204
 20
-61.9802659511302
 30
0.0
 10
26.5654979515338
 20
-61.9350099963397
 30
0.0
  0
LINE
  5
ADA
330
A8B
100
AcDbEntity
  8
FRONT
  6
Continuous
 62
     4
100
AcDbLine
 10
24.6556238218115
 20
-61.2275403793856
 30
0.0
 11
25.1422518474422
 21
-61.2258756961007
 31
0.0
  0
LINE
  5
ADB
330
A8B
100
AcDbEntity
  8
FRONT
  6
Continuous
 62
     4
100
AcDbLine
 10
24.0388746080776
 20
-61.229650188219
 30
0.0
 11
24.6556238218115
 21
-61.2275403793856
 31
0.0
  0
LINE
  5
ADC
330
A8B
100
AcDbEntity
  8
FRONT
  6
Continuous
 62
     4
100
AcDbLine
 10
23.9646752558521
 20
-61.3446348190678
 30
0.0
 11
24.0320421286602
 21
-61.3444043668513
 31
0.0
  0
LINE
  5
ADD
330
A8B
100
AcDbEntity
  8
FRONT
  6
Continuous
 62
     4
100
AcDbLine
 10
25.170957704119
 20
-61.8402884830728
 30
0.0
 11
25.0930788282159
 21
-61.8475109807827
 31
0.0
  0
ELLIPSE
  5
ADE
330
A8B
100
AcDbEntity
  8
FRONT
  6
Continuous
 62
     4
100
AcDbEllipse
 10
25.6307534564356
 20
-61.4133693235977
 30
0.0
 11
-0.0261303380478747
 21
-0.4993167493651739
 31
0.0
210
0.0
220
0.0
230
1.0
 40
0.207227326156888
 41
0.293361878369899
 42
0.4309508045600884
  0
ELLIPSE
  5
ADF
330
A8B
100
AcDbEntity
  8
FRONT
  6
Continuous
 62
     4
100
AcDbEllipse
 10
46.7911034375346
 20
-56.1956713537805
 30
0.0
 11
-66.41326335410838
 21
0.9269833922146549
 31
0.0
210
0.0
220
0.0
230
1.0
 40
0.0848785527739216
 41
1.232222219062653
 42
1.240685434065807
  0
ELLIPSE
  5
AE0
330
A8B
100
AcDbEntity
  8
FRONT
  6
Continuous
 62
     4
100
AcDbEllipse
 10
26.5597630731693
 20
-61.4513517933132
 30
0.0
 11
-0.0157629108455211
 21
-0.4997514551771808
 31
0.0
210
0.0
220
0.0
230
0.9999999999999998
 40
0.1634163455934212
 41
0.2596728804504972
 42
0.4271027027017509
  0
ELLIPSE
  5
AE1
330
A8B
100
AcDbEntity
  8
FRONT
  6
Continuous
 62
     4
100
AcDbEllipse
 10
37.4716268659851
 20
-55.7758211039661
 30
0.0
 11
-60.22680518323547
 21
0.8391789498204172
 31
0.0
210
0.0
220
0.0
230
1.0
 40
0.073335099090449
 41
1.368153266464279
 42
1.373756158617132
  0
ELLIPSE
  5
AE2
330
A8B
100
AcDbEntity
  8
FRONT
  6
Continuous
 62
     4
100
AcDbEllipse
 10
24.0406122433045
 20
-61.3283529542778
 30
0.0
 11
-0.000342083369458
 21
0.0999994148984049
 31
0.0
210
0.0
220
0.0
230
0.9999999999999998
 40
0.0873785520673491
 41
0.1609135457003019
 42
1.731709872424159
  0
SPLINE
  5
AE3
330
A8B
100
AcDbEntity
  8
FRONT
  6
Continuous
 62
     4
100
AcDbSpline
210
0.0
220
0.0
230
1.0
 70
     8
 71
     3
 72
    10
 73
     6
 74
     0
 42
0.0000000001
 43
0.0000000001
 40
0.0
 40
0.0
 40
0.0
 40
0.0
 40
0.2568958804124872
 40
0.5137917608271178
 40
1.0
 40
1.0
 40
1.0
 40
1.0
 10
26.046699925997
 20
-62.1264250790234
 30
0.0
 10
26.0480965766793
 20
-62.121832514616
 30
0.0
 10
26.050890089925
 20
-62.1126549072122
 30
0.0
 10
26.0563279688114
 20
-62.0948216754248
 30
0.0
 10
26.0603697639404
 20
-62.0816012068174
 30
0.0
 10
26.0630146635465
 20
-62.0729646136356
 30
0.0
  0
SPLINE
  5
AE4
330
A8B
100
AcDbEntity
  8
FRONT
  6
Continuous
 62
     4
100
AcDbSpline
210
0.0
220
0.0
230
1.0
 70
    24
 71
     1
 72
     4
 73
     2
 74
     0
 42
0.0000000001
 43
0.0000000001
 40
0.0
 40
0.0
 40
1.0
 40
1.0
 10
25.0930788282159
 20
-61.8475109807827
 30
0.0
 10
25.0179775577666
 20
-61.850945385159
 30
0.0
  0
SPLINE
  5
AE5
330
A8B
100
AcDbEntity
  8
FRONT
  6
Continuous
 62
     4
100
AcDbSpline
210
0.0
220
0.0
230
1.0
 70
     8
 71
     3
 72
    15
 73
    11
 74
     0
 42
0.0000000001
 43
0.0000000001
 40
0.0
 40
0.0
 40
0.0
 40
0.0
 40
0.140976339028535
 40
0.2892431856819297
 40
0.4121436114845082
 40
0.5144916745071848
 40
0.6168092444520747
 40
0.7567233522043856
 40
0.9739203035115163
 40
1.0
 40
1.0
 40
1.0
 40
1.0
 10
26.9350649389019
 20
-59.9792624806598
 30
0.0
 10
26.8903827897293
 20
-60.0306080088468
 30
0.0
 10
26.7864252103002
 20
-60.1255412106326
 30
0.0
 10
26.6046775894311
 20
-60.2379873428854
 30
0.0
 10
26.4056599368702
 20
-60.3014017325499
 30
0.0
 10
26.2164445188179
 20
-60.3127883978872
 30
0.0
 10
26.0270862898756
 20
-60.2770635119636
 30
0.0
 10
25.8159065980838
 20
-60.1716686674072
 30
0.0
 10
25.6903645327179
 20
-60.0428081247102
 30
0.0
 10
25.6273523932598
 20
-59.9526275917651
 30
0.0
 10
25.6208173319164
 20
-59.9428132364984
 30
0.0
  0
SPLINE
  5
AE6
330
A8B
100
AcDbEntity
  8
FRONT
  6
Continuous
 62
     4
100
AcDbSpline
210
0.0
220
0.0
230
1.0
 70
    24
 71
     1
 72
     4
 73
     2
 74
     0
 42
0.0000000001
 43
0.0000000001
 40
0.0
 40
0.0
 40
1.0
 40
1.0
 10
25.1326728904912
 20
-61.8599116260295
 30
0.0
 10
25.0179775577666
 20
-61.850945385159
 30
0.0
  0
SPLINE
  5
AE7
330
A8B
100
AcDbEntity
  8
FRONT
  6
Continuous
 62
     4
100
AcDbSpline
210
0.0
220
0.0
230
1.0
 70
    24
 71
     1
 72
     4
 73
     2
 74
     0
 42
0.0000000001
 43
0.0000000001
 40
0.0
 40
0.0
 40
1.0
 40
1.0
 10
25.6356607189752
 20
-61.8929196700115
 30
0.0
 10
25.1129671306628
 20
-61.8660713970116
 30
0.0
  0
SPLINE
  5
AE8
330
A8B
100
AcDbEntity
  8
FRONT
  6
Continuous
 62
     4
100
AcDbSpline
210
0.0
220
0.0
230
1.0
 70
    24
 71
     1
 72
     4
 73
     2
 74
     0
 42
0.0000000001
 43
0.0000000001
 40
0.0
 40
0.0
 40
1.0
 40
1.0
 10
26.0466999264099
 20
-62.1264252002728
 30
0.0
 10
25.3890587209343
 20
-62.1061974916973
 30
0.0
  0
SPLINE
  5
AE9
330
A8B
100
AcDbEntity
  8
FRONT
  6
Continuous
 62
     4
100
AcDbSpline
210
0.0
220
0.0
230
1.0
 70
    24
 71
     1
 72
     4
 73
     2
 74
     0
 42
0.0000000001
 43
0.0000000001
 40
0.0
 40
0.0
 40
1.0
 40
1.0
 10
25.170957704119
 20
-61.8402884830728
 30
0.0
 10
25.6502361349337
 20
-61.8692950322704
 30
0.0
  0
SPLINE
  5
AEA
330
A8B
100
AcDbEntity
  8
FRONT
  6
Continuous
 62
     4
100
AcDbSpline
210
0.0
220
0.0
230
1.0
 70
    24
 71
     1
 72
     4
 73
     2
 74
     0
 42
0.0000000001
 43
0.0000000001
 40
0.0
 40
0.0
 40
1.0
 40
1.0
 10
25.6356607189752
 20
-61.8929196700115
 30
0.0
 10
25.1326728904912
 20
-61.8599116260295
 30
0.0
  0
SPLINE
  5
AEB
330
A8B
100
AcDbEntity
  8
FRONT
  6
Continuous
 62
     4
100
AcDbSpline
210
0.0
220
0.0
230
1.0
 70
     8
 71
     3
 72
    11
 73
     7
 74
     0
 42
0.0000000001
 43
0.0000000001
 40
0.0
 40
0.0
 40
0.0
 40
0.0
 40
0.000063183656549
 40
0.6610072159485929
 40
0.9999368181050073
 40
1.0
 40
1.0
 40
1.0
 40
1.0
 10
26.5654979515337
 20
-61.9350099963397
 30
0.0
 10
26.5653980223751
 20
-61.9350062329282
 30
0.0
 10
26.3600228433758
 20
-61.9272716405518
 30
0.0
 10
26.0496317044808
 20
-61.914300666885
 30
0.0
 10
25.7403669404514
 20
-61.8985965539299
 30
0.0
 10
25.635760572314
 20
-61.8929250837854
 30
0.0
 10
25.6356607189663
 20
-61.892919670011
 30
0.0
  0
SPLINE
  5
AEC
330
A8B
100
AcDbEntity
  8
FRONT
  6
Continuous
 62
     4
100
AcDbSpline
210
0.0
220
0.0
230
1.0
 70
    24
 71
     1
 72
     4
 73
     2
 74
     0
 42
0.0000000001
 43
0.0000000001
 40
0.0
 40
0.0
 40
1.0
 40
1.0
 10
25.6502361369763
 20
-61.8692950323649
 30
0.0
 10
26.5792457509561
 20
-61.9072774775343
 30
0.0
  0
SPLINE
  5
AED
330
A8B
100
AcDbEntity
  8
FRONT
  6
Continuous
 62
     4
100
AcDbSpline
210
0.0
220
0.0
230
1.0
 70
    24
 71
     1
 72
     4
 73
     2
 74
     0
 42
0.0000000001
 43
0.0000000001
 40
0.0
 40
0.0
 40
1.0
 40
1.0
 10
25.1129671306628
 20
-61.8660713970116
 30
0.0
 10
25.0548590388758
 20
-61.8629455012852
 30
0.0
  0
LINE
  5
AEE
330
A8B
100
AcDbEntity
  8
FRONT
  6
Continuous
 62
     4
100
AcDbLine
 10
29.380706536811
 20
-60.8922041712368
 30
0.0
 11
29.3807091834502
 21
-60.892957837064
 31
0.0
  0
LINE
  5
AEF
330
A8B
100
AcDbEntity
  8
FRONT
  6
Continuous
 62
     4
100
AcDbLine
 10
29.3701832357593
 20
-60.8866506696894
 30
0.0
 11
29.3731005315971
 21
-61.7173895855814
 31
0.0
  0
LINE
  5
AF0
330
A8B
100
AcDbEntity
  8
FRONT
  6
Continuous
 62
     4
100
AcDbLine
 10
29.4360980615203
 20
-60.8997552161313
 30
0.0
 11
29.4391654471337
 21
-61.773234198298
 31
0.0
  0
LINE
  5
AF1
330
A8B
100
AcDbEntity
  8
FRONT
  6
Continuous
 62
     4
100
AcDbLine
 10
29.0300010803359
 20
-61.0678802169328
 30
0.0
 11
29.0301347769259
 21
-61.1059521048723
 31
0.0
  0
LINE
  5
AF2
330
A8B
100
AcDbEntity
  8
FRONT
  6
Continuous
 62
     4
100
AcDbLine
 10
29.0300010803359
 20
-61.0678802169328
 30
0.0
 11
29.3082385728417
 21
-60.9006727341364
 31
0.0
  0
LINE
  5
AF3
330
A8B
100
AcDbEntity
  8
FRONT
  6
Continuous
 62
     4
100
AcDbLine
 10
29.3176494518725
 20
-60.8824391765052
 30
0.0
 11
29.3204060258911
 21
-61.6674104098302
 31
0.0
  0
LINE
  5
AF4
330
A8B
100
AcDbEntity
  8
FRONT
  6
Continuous
 62
     4
100
AcDbLine
 10
29.3807091834502
 20
-60.892957837064
 30
0.0
 11
29.3836372687821
 21
-61.7267692053574
 31
0.0
  0
LINE
  5
AF5
330
A8B
100
AcDbEntity
  8
FRONT
  6
Continuous
 62
     4
100
AcDbLine
 10
29.3458335416102
 20
-60.5330421388091
 30
0.0
 11
29.2607676925138
 21
-60.6005533736449
 31
0.0
  0
LINE
  5
AF6
330
A8B
100
AcDbEntity
  8
FRONT
  6
Continuous
 62
     4
100
AcDbLine
 10
29.2607676925138
 20
-60.6005533736449
 30
0.0
 11
29.3082385728417
 21
-60.9006727341364
 31
0.0
  0
LINE
  5
AF7
330
A8B
100
AcDbEntity
  8
FRONT
  6
Continuous
 62
     4
100
AcDbLine
 10
29.017578966586
 20
-60.9900106520425
 30
0.0
 11
28.9293621995107
 21
-60.4370128767452
 31
0.0
  0
LINE
  5
AF8
330
A8B
100
AcDbEntity
  8
FRONT
  6
Continuous
 62
     4
100
AcDbLine
 10
29.0300010803359
 20
-61.0678802169328
 30
0.0
 11
29.017578966586
 21
-60.9900106520425
 31
0.0
  0
ELLIPSE
  5
AF9
330
A8B
100
AcDbEntity
  8
FRONT
  6
Continuous
 62
     4
100
AcDbEllipse
 10
28.7223620530264
 20
-61.0322333378068
 30
0.0
 11
-0.2646417690684293
 21
0.1412966173143831
 31
0.0
210
0.0
220
0.0
230
1.0
 40
0.9833059182785888
 41
2.071687311421135
 42
3.782109978374953
  0
ELLIPSE
  5
AFA
330
A8B
100
AcDbEntity
  8
FRONT
  6
Continuous
 62
     4
100
AcDbEllipse
 10
30.2303258219087
 20
-60.4210195189053
 30
0.0
 11
-0.9665041965168652
 21
0.3765818908141549
 31
0.0
210
0.0
220
0.0
230
0.9999999999999998
 40
0.8498862410049405
 41
0.6298734289431917
 42
0.7760221204517431
  0
ELLIPSE
  5
AFB
330
A8B
100
AcDbEntity
  8
FRONT
  6
Continuous
 62
     4
100
AcDbEllipse
 10
28.7309321678826
 20
-61.0161819252828
 30
0.0
 11
-0.1764278450464169
 21
0.094197746298221
 31
0.0
210
0.0
220
0.0
230
1.0
 40
0.9833059187880415
 41
3.524855636639208
 42
3.716574258287971
  0
ELLIPSE
  5
AFC
330
A8B
100
AcDbEntity
  8
FRONT
  6
Continuous
 62
     4
100
AcDbEllipse
 10
28.8780906575902
 20
-60.1905586633254
 30
0.0
 11
-0.6378505702784448
 21
2.576726862152773
 31
0.0
210
0.0
220
0.0
230
1.0
 40
0.1420514033894129
 41
4.544013824159174
 42
4.556279548729346
  0
ELLIPSE
  5
AFD
330
A8B
100
AcDbEntity
  8
FRONT
  6
Continuous
 62
     4
100
AcDbEllipse
 10
28.7361450733494
 20
-61.3122902233904
 30
0.0
 11
-0.0003420833691217
 21
0.0999994148939525
 31
0.0
210
0.0
220
0.0
230
1.0
 40
0.0873785520668444
 41
0.1609135456945704
 42
1.732484486224235
  0
ELLIPSE
  5
AFE
330
A8B
100
AcDbEntity
  8
FRONT
  6
Continuous
 62
     4
100
AcDbEllipse
 10
29.3530731740061
 20
-54.2740555644301
 30
0.0
 11
-0.2231549673139982
 21
7.545048101838847
 31
0.0
210
0.0
220
0.0
230
1.0
 40
0.1565419392169584
 41
2.98028837913766
 42
3.026543021602508
  0
ELLIPSE
  5
AFF
330
A8B
100
AcDbEntity
  8
FRONT
  6
Continuous
 62
     4
100
AcDbEllipse
 10
29.1832169581909
 20
-60.8979567268721
 30
0.0
 11
-0.1999999433238031
 21
-0.0001525554653821
 31
0.0
210
0.0
220
0.0
230
1.0
 40
0.1775485647405439
 41
3.300064853530633
 42
3.503329043719288
  0
ELLIPSE
  5
B00
330
A8B
100
AcDbEntity
  8
FRONT
  6
Continuous
 62
     4
100
AcDbEllipse
 10
29.0261490812306
 20
-60.9739592394637
 30
0.0
 11
-0.0987513760100169
 21
-0.0157532770022912
 31
0.0
210
0.0
220
0.0
230
1.0
 40
0.1458931740712325
 41
0.1778612733484125
 42
1.460656485136271
  0
ELLIPSE
  5
B01
330
A8B
100
AcDbEntity
  8
FRONT
  6
Continuous
 62
     4
100
AcDbEllipse
 10
79.0840657178999
 20
-21.6455873713804
 30
0.0
 11
-52.91333538115097
 21
-41.25130454679958
 31
0.0
210
0.0
220
0.0
230
1.0
 40
0.0120306976498371
 41
0.3393916290940456
 42
0.3422858615911428
  0
ELLIPSE
  5
B02
330
A8B
100
AcDbEntity
  8
FRONT
  6
Continuous
 62
     4
100
AcDbEllipse
 10
28.7309321676758
 20
-61.0161819252507
 30
0.0
 11
-0.1764278461941974
 21
0.0941977445624821
 31
0.0
210
0.0
220
0.0
230
0.9999999999999998
 40
0.9833059182720552
 41
2.071687309673813
 42
2.454396003569158
  0
ELLIPSE
  5
B03
330
A8B
100
AcDbEntity
  8
FRONT
  6
Continuous
 62
     4
100
AcDbEllipse
 10
28.7309321676729
 20
-61.0161819252301
 30
0.0
 11
-0.1764278460477521
 21
0.0941977448654515
 31
0.0
210
0.0
220
0.0
230
1.0
 40
0.9833059182873423
 41
2.454396005236844
 42
3.524855627886243
  0
ELLIPSE
  5
B04
330
A8B
100
AcDbEntity
  8
FRONT
  6
Continuous
 62
     4
100
AcDbEllipse
 10
29.2481009790805
 20
-54.2112185550637
 30
0.0
 11
-0.0579833643088966
 21
6.690109145654452
 31
0.0
210
0.0
220
0.0
230
1.0
 40
0.0234081852915922
 41
3.155384266539653
 42
3.216552275148325
  0
ELLIPSE
  5
B05
330
A8B
100
AcDbEntity
  8
FRONT
  6
Continuous
 62
     4
100
AcDbEllipse
 10
80.7516936194395
 20
-20.6353938988702
 30
0.0
 11
-54.58145203794352
 21
-42.26950703433849
 31
0.0
210
0.0
220
0.0
230
1.0
 40
0.0166389419643796
 41
0.3320360213461808
 42
0.3350067550538322
  0
ELLIPSE
  5
B06
330
A8B
100
AcDbEntity
  8
FRONT
  6
Continuous
 62
     4
100
AcDbEllipse
 10
29.1832185765162
 20
-60.8987111135135
 30
0.0
 11
-0.1999987668190257
 21
-0.0007023332506881
 31
0.0
210
0.0
220
0.0
230
1.0
 40
0.1608116416752289
 41
3.299567109250761
 42
3.504047308224818
  0
SPLINE
  5
B07
330
A8B
100
AcDbEntity
  8
FRONT
  6
Continuous
 62
     4
100
AcDbSpline
210
0.0
220
0.0
230
1.0
 70
     8
 71
     2
 72
     6
 73
     3
 74
     0
 42
0.0000000001
 43
0.0000000001
 40
0.0
 40
0.0
 40
0.0
 40
1.0
 40
1.0
 40
1.0
 10
29.3807075666281
 20
-60.8922034503516
 30
0.0
 10
29.3787727140638
 20
-60.8206679312699
 30
0.0
 10
29.3542657868278
 20
-60.7557382228012
 30
0.0
  0
SPLINE
  5
B08
330
A8B
100
AcDbEntity
  8
FRONT
  6
Continuous
 62
     4
100
AcDbSpline
210
0.0
220
0.0
230
1.0
 70
     8
 71
     3
 72
    11
 73
     7
 74
     0
 42
0.0000000001
 43
0.0000000001
 40
0.0
 40
0.0
 40
0.0
 40
0.0
 40
0.2797385983135209
 40
0.5594467342961888
 40
0.7797158294879042
 40
1.0
 40
1.0
 40
1.0
 40
1.0
 10
29.0354615231527
 20
-62.1710873961081
 30
0.0
 10
29.0980184373046
 20
-62.1703070559771
 30
0.0
 10
29.2109230045561
 20
-62.1467111744203
 30
0.0
 10
29.3462418870798
 20
-62.0462244257718
 30
0.0
 10
29.4233946071309
 20
-61.9129022270656
 30
0.0
 10
29.4388657734079
 20
-61.822039046941
 30
0.0
 10
29.4391654471337
 20
-61.773234198298
 30
0.0
  0
SPLINE
  5
B09
330
A8B
100
AcDbEntity
  8
FRONT
  6
Continuous
 62
     4
100
AcDbSpline
210
0.0
220
0.0
230
1.0
 70
    24
 71
     1
 72
     4
 73
     2
 74
     0
 42
0.0000000001
 43
0.0000000001
 40
0.0
 40
0.0
 40
1.0
 40
1.0
 10
29.3731005315971
 20
-61.7173895855814
 30
0.0
 10
29.3204060258911
 20
-61.6674104098301
 30
0.0
  0
SPLINE
  5
B0A
330
A8B
100
AcDbEntity
  8
FRONT
  6
Continuous
 62
     4
100
AcDbSpline
210
0.0
220
0.0
230
1.0
 70
     8
 71
     2
 72
     6
 73
     3
 74
     0
 42
0.0000000001
 43
0.0000000001
 40
0.0
 40
0.0
 40
0.0
 40
1.0
 40
1.0
 40
1.0
 10
28.9743924034865
 20
-62.1356679469327
 30
0.0
 10
28.9883976445925
 20
-62.1447023669559
 30
0.0
 10
29.0036714470733
 20
-62.1535560109606
 30
0.0
  0
SPLINE
  5
B0B
330
A8B
100
AcDbEntity
  8
FRONT
  6
Continuous
 62
     4
100
AcDbSpline
210
0.0
220
0.0
230
1.0
 70
    24
 71
     1
 72
     4
 73
     2
 74
     0
 42
0.0000000001
 43
0.0000000001
 40
0.0
 40
0.0
 40
1.0
 40
1.0
 10
29.3793413294711
 20
-61.7227996921365
 30
0.0
 10
29.3731005315971
 20
-61.7173895855814
 30
0.0
  0
SPLINE
  5
B0C
330
A8B
100
AcDbEntity
  8
FRONT
  6
Continuous
 62
     4
100
AcDbSpline
210
0.0
220
0.0
230
1.0
 70
     8
 71
     2
 72
     6
 73
     3
 74
     0
 42
0.0000000001
 43
0.0000000001
 40
0.0
 40
0.0
 40
0.0
 40
1.0
 40
1.0
 40
1.0
 10
29.0036714287092
 20
-62.1535559233315
 30
0.0
 10
29.0189605794249
 20
-62.1624182092187
 30
0.0
 10
29.0354596339819
 20
-62.1710865691426
 30
0.0
  0
SPLINE
  5
B0D
330
A8B
100
AcDbEntity
  8
FRONT
  6
Continuous
 62
     4
100
AcDbSpline
210
0.0
220
0.0
230
1.0
 70
     8
 71
     2
 72
     6
 73
     3
 74
     0
 42
0.0000000001
 43
0.0000000001
 40
0.0
 40
0.0
 40
0.0
 40
1.0
 40
1.0
 40
1.0
 10
29.3702640649979
 20
-60.8852472035777
 30
0.0
 10
29.3738177874386
 20
-60.8174883542936
 30
0.0
 10
29.3542648514163
 20
-60.7557367294791
 30
0.0
  0
SPLINE
  5
B0E
330
A8B
100
AcDbEntity
  8
FRONT
  6
Continuous
 62
     4
100
AcDbSpline
210
0.0
220
0.0
230
1.0
 70
     8
 71
     2
 72
     6
 73
     3
 74
     0
 42
0.0000000001
 43
0.0000000001
 40
0.0
 40
0.0
 40
0.0
 40
1.0
 40
1.0
 40
1.0
 10
28.92810195139
 20
-61.0384434126586
 30
0.0
 10
28.9312568042901
 20
-61.0091771774875
 30
0.0
 10
28.9264566395888
 20
-60.9802867641213
 30
0.0
  0
SPLINE
  5
B0F
330
A8B
100
AcDbEntity
  8
FRONT
  6
Continuous
 62
     4
100
AcDbSpline
210
0.0
220
0.0
230
1.0
 70
     8
 71
     2
 72
     6
 73
     3
 74
     0
 42
0.0000000001
 43
0.0000000001
 40
0.0
 40
0.0
 40
0.0
 40
1.0
 40
1.0
 40
1.0
 10
29.3701832357593
 20
-60.8866506696894
 30
0.0
 10
29.3486751692856
 20
-60.8505641484293
 30
0.0
 10
29.3333124280639
 20
-60.8394063669305
 30
0.0
  0
SPLINE
  5
B10
330
A8B
100
AcDbEntity
  8
FRONT
  6
Continuous
 62
     4
100
AcDbSpline
210
0.0
220
0.0
230
1.0
 70
    24
 71
     1
 72
     4
 73
     2
 74
     0
 42
0.0000000001
 43
0.0000000001
 40
0.0
 40
0.0
 40
1.0
 40
1.0
 10
28.7301879999101
 20
-61.977514753608
 30
0.0
 10
28.7361771739966
 20
-61.9839314008057
 30
0.0
  0
SPLINE
  5
B11
330
A8B
100
AcDbEntity
  8
FRONT
  6
Continuous
 62
     4
100
AcDbSpline
210
0.0
220
0.0
230
1.0
 70
    24
 71
     1
 72
     4
 73
     2
 74
     0
 42
0.0000000001
 43
0.0000000001
 40
0.0
 40
0.0
 40
1.0
 40
1.0
 10
29.4360980615203
 20
-60.8997552161313
 30
0.0
 10
29.4357631967933
 20
-60.8536448434985
 30
0.0
  0
SPLINE
  5
B12
330
A8B
100
AcDbEntity
  8
FRONT
  6
Continuous
 62
     4
100
AcDbSpline
210
0.0
220
0.0
230
1.0
 70
     8
 71
     3
 72
    14
 73
    10
 74
     0
 42
0.0000000001
 43
0.0000000001
 40
0.0
 40
0.0
 40
0.0
 40
0.0
 40
0.1248883957440875
 40
0.2497714879519448
 40
0.3746545211303977
 40
0.4995231745160237
 40
0.6243751603251047
 40
0.7494560896066159
 40
1.0
 40
1.0
 40
1.0
 40
1.0
 10
29.3204060258911
 20
-61.6674104098301
 30
0.0
 10
29.3204354933687
 20
-61.7007158364413
 30
0.0
 10
29.3123329273485
 20
-61.7642644440242
 30
0.0
 10
29.2747061502317
 20
-61.8534268145582
 30
0.0
 10
29.21457769257
 20
-61.9273584925913
 30
0.0
 10
29.1360256192577
 20
-61.9810069852111
 30
0.0
 10
29.0442380996951
 20
-62.0110874628143
 30
0.0
 10
28.9144730269529
 20
-62.0093547348882
 30
0.0
 10
28.8182011621033
 20
-62.0096709633142
 30
0.0
 10
28.7534588655823
 20
-62.0051688307124
 30
0.0
  0
SPLINE
  5
B13
330
A8B
100
AcDbEntity
  8
FRONT
  6
Continuous
 62
     4
100
AcDbSpline
210
0.0
220
0.0
230
1.0
 70
     8
 71
     2
 72
     6
 73
     3
 74
     0
 42
0.0000000001
 43
0.0000000001
 40
0.0
 40
0.0
 40
0.0
 40
1.0
 40
1.0
 40
1.0
 10
29.4068110177053
 20
-60.7175634749664
 30
0.0
 10
29.4350684872596
 20
-60.7832129125308
 30
0.0
 10
29.4357631967933
 20
-60.8536448434996
 30
0.0
  0
SPLINE
  5
B14
330
A8B
100
AcDbEntity
  8
FRONT
  6
Continuous
 62
     4
100
AcDbSpline
210
0.0
220
0.0
230
1.0
 70
    24
 71
     1
 72
     4
 73
     2
 74
     0
 42
0.0000000001
 43
0.0000000001
 40
0.0
 40
0.0
 40
1.0
 40
1.0
 10
29.3333124280639
 20
-60.8394063669305
 30
0.0
 10
29.3176494518725
 20
-60.8824391765052
 30
0.0
  0
SPLINE
  5
B15
330
A8B
100
AcDbEntity
  8
FRONT
  6
Continuous
 62
     4
100
AcDbSpline
210
0.0
220
0.0
230
1.0
 70
     8
 71
     2
 72
     6
 73
     3
 74
     0
 42
0.0000000001
 43
0.0000000001
 40
0.0
 40
0.0
 40
0.0
 40
1.0
 40
1.0
 40
1.0
 10
29.3163475337762
 20
-60.7276102961896
 30
0.0
 10
29.332316744874
 20
-60.7341356635744
 30
0.0
 10
29.3542648514174
 20
-60.7557367294816
 30
0.0
  0
SPLINE
  5
B16
330
A8B
100
AcDbEntity
  8
FRONT
  6
Continuous
 62
     4
100
AcDbSpline
210
0.0
220
0.0
230
1.0
 70
    24
 71
     1
 72
     4
 73
     2
 74
     0
 42
0.0000000001
 43
0.0000000001
 40
0.0
 40
0.0
 40
1.0
 40
1.0
 10
29.3701832357593
 20
-60.8866506696894
 30
0.0
 10
29.3702640649986
 20
-60.8852472035793
 30
0.0
  0
SPLINE
  5
B17
330
A8B
100
AcDbEntity
  8
FRONT
  6
Continuous
 62
     4
100
AcDbSpline
210
0.0
220
0.0
230
1.0
 70
     8
 71
     2
 72
     6
 73
     3
 74
     0
 42
0.0000000001
 43
0.0000000001
 40
0.0
 40
0.0
 40
0.0
 40
1.0
 40
1.0
 40
1.0
 10
29.3204060258911
 20
-61.6674104098301
 30
0.0
 10
29.1730111161847
 20
-61.4942619670904
 30
0.0
 10
29.0301347769259
 20
-61.1059521048722
 30
0.0
  0
SPLINE
  5
B18
330
A8B
100
AcDbEntity
  8
FRONT
  6
Continuous
 62
     4
100
AcDbSpline
210
0.0
220
0.0
230
1.0
 70
    24
 71
     1
 72
     4
 73
     2
 74
     0
 42
0.0000000001
 43
0.0000000001
 40
0.0
 40
0.0
 40
1.0
 40
1.0
 10
28.7273339804121
 20
-61.3284404880121
 30
0.0
 10
28.114179408338
 20
-61.3304399724099
 30
0.0
  0
SPLINE
  5
B19
330
A8B
100
AcDbEntity
  8
FRONT
  6
Continuous
 62
     4
100
AcDbSpline
210
0.0
220
0.0
230
1.0
 70
    24
 71
     1
 72
     4
 73
     2
 74
     0
 42
0.0000000001
 43
0.0000000001
 40
0.0
 40
0.0
 40
1.0
 40
1.0
 10
29.3823842191701
 20
-60.657089909133
 30
0.0
 10
29.3458335416102
 20
-60.5330421388091
 30
0.0
  0
SPLINE
  5
B1A
330
A8B
100
AcDbEntity
  8
FRONT
  6
Continuous
 62
     4
100
AcDbSpline
210
0.0
220
0.0
230
1.0
 70
     8
 71
     2
 72
     6
 73
     3
 74
     0
 42
0.0000000001
 43
0.0000000001
 40
0.0
 40
0.0
 40
0.0
 40
1.0
 40
1.0
 40
1.0
 10
28.9269466855029
 20
-62.1099451957644
 30
0.0
 10
28.9429771493135
 20
-62.1181397161846
 30
0.0
 10
28.955523789309
 20
-62.1248944785433
 30
0.0
  0
SPLINE
  5
B1B
330
A8B
100
AcDbEntity
  8
FRONT
  6
Continuous
 62
     4
100
AcDbSpline
210
0.0
220
0.0
230
1.0
 70
     8
 71
     3
 72
    10
 73
     6
 74
     0
 42
0.0000000001
 43
0.0000000001
 40
0.0
 40
0.0
 40
0.0
 40
0.0
 40
0.2802834343870607
 40
0.561500176492782
 40
1.0
 40
1.0
 40
1.0
 40
1.0
 10
29.3731005315971
 20
-61.7173895855814
 30
0.0
 10
29.3705444712088
 20
-61.7833042823358
 30
0.0
 10
29.3417556031044
 20
-61.8998240123343
 30
0.0
 10
29.1790939316351
 20
-62.0660325886131
 30
0.0
 10
29.03375726236
 20
-62.108574241401
 30
0.0
 10
28.9269466855029
 20
-62.1099451957644
 30
0.0
  0
SPLINE
  5
B1C
330
A8B
100
AcDbEntity
  8
FRONT
  6
Continuous
 62
     4
100
AcDbSpline
210
0.0
220
0.0
230
1.0
 70
     8
 71
     2
 72
     6
 73
     3
 74
     0
 42
0.0000000001
 43
0.0000000001
 40
0.0
 40
0.0
 40
0.0
 40
1.0
 40
1.0
 40
1.0
 10
28.7380150721504
 20
-61.2135659784579
 30
0.0
 10
28.7753734403754
 20
-61.2131668530757
 30
0.0
 10
28.8088601366273
 20
-61.199552025608
 30
0.0
  0
SPLINE
  5
B1D
330
A8B
100
AcDbEntity
  8
FRONT
  6
Continuous
 62
     4
100
AcDbSpline
210
0.0
220
0.0
230
1.0
 70
    24
 71
     1
 72
     4
 73
     2
 74
     0
 42
0.0000000001
 43
0.0000000001
 40
0.0
 40
0.0
 40
1.0
 40
1.0
 10
28.6909580884509
 20
-61.9480998940187
 30
0.0
 10
28.6963921873422
 20
-61.9518146789981
 30
0.0
  0
SPLINE
  5
B1E
330
A8B
100
AcDbEntity
  8
FRONT
  6
Continuous
 62
     4
100
AcDbSpline
210
0.0
220
0.0
230
1.0
 70
     8
 71
     2
 72
     6
 73
     3
 74
     0
 42
0.0000000001
 43
0.0000000001
 40
0.0
 40
0.0
 40
0.0
 40
1.0
 40
1.0
 40
1.0
 10
28.7534588655823
 20
-62.0051688307124
 30
0.0
 10
28.797619575558
 20
-62.0449661071773
 30
0.0
 10
28.9269466855028
 20
-62.1099451957644
 30
0.0
  0
SPLINE
  5
B1F
330
A8B
100
AcDbEntity
  8
FRONT
  6
Continuous
 62
     4
100
AcDbSpline
210
0.0
220
0.0
230
1.0
 70
    24
 71
     1
 72
     4
 73
     2
 74
     0
 42
0.0000000001
 43
0.0000000001
 40
0.0
 40
0.0
 40
1.0
 40
1.0
 10
28.7361771739966
 20
-61.9839314008057
 30
0.0
 10
28.7534588655823
 20
-62.0051688307124
 30
0.0
  0
SPLINE
  5
B20
330
A8B
100
AcDbEntity
  8
FRONT
  6
Continuous
 62
     4
100
AcDbSpline
210
0.0
220
0.0
230
1.0
 70
    24
 71
     1
 72
     4
 73
     2
 74
     0
 42
0.0000000001
 43
0.0000000001
 40
0.0
 40
0.0
 40
1.0
 40
1.0
 10
29.4068110177053
 20
-60.7175634749664
 30
0.0
 10
29.3823842191701
 20
-60.657089909133
 30
0.0
  0
SPLINE
  5
B21
330
A8B
100
AcDbEntity
  8
FRONT
  6
Continuous
 62
     4
100
AcDbSpline
210
0.0
220
0.0
230
1.0
 70
     8
 71
     3
 72
    11
 73
     7
 74
     0
 42
0.0000000001
 43
0.0000000001
 40
0.0
 40
0.0
 40
0.0
 40
0.0
 40
0.2627757061120019
 40
0.5667558013116807
 40
0.8797139751218168
 40
1.0
 40
1.0
 40
1.0
 40
1.0
 10
28.8088601366273
 20
-61.199552025608
 30
0.0
 10
28.8264399492201
 20
-61.192228048482
 30
0.0
 10
28.8604724980676
 20
-61.1722626847527
 30
0.0
 10
28.9021436485196
 20
-61.1251568123345
 30
0.0
 10
28.9220620810161
 20
-61.0766210315255
 30
0.0
 10
28.9271769801319
 20
-61.046877056783
 30
0.0
 10
28.92810195139
 20
-61.0384434126586
 30
0.0
  0
SPLINE
  5
B22
330
A8B
100
AcDbEntity
  8
FRONT
  6
Continuous
 62
     4
100
AcDbSpline
210
0.0
220
0.0
230
1.0
 70
     8
 71
     3
 72
    11
 73
     7
 74
     0
 42
0.0000000001
 43
0.0000000001
 40
0.0
 40
0.0
 40
0.0
 40
0.0
 40
0.2793522346033047
 40
0.5593335184216813
 40
0.7797559679565327
 40
1.0
 40
1.0
 40
1.0
 40
1.0
 10
29.3836372687821
 20
-61.7267692053574
 30
0.0
 10
29.3823658787324
 20
-61.7903248311763
 30
0.0
 10
29.3572383121025
 20
-61.9050839643232
 30
0.0
 10
29.2511472574184
 20
-62.0418991626065
 30
0.0
 10
29.1142420725458
 20
-62.1201633349724
 30
0.0
 10
29.0229945232968
 20
-62.1355471707769
 30
0.0
 10
28.9743924034865
 20
-62.1356679469327
 30
0.0
  0
SPLINE
  5
B23
330
A8B
100
AcDbEntity
  8
FRONT
  6
Continuous
 62
     4
100
AcDbSpline
210
0.0
220
0.0
230
1.0
 70
     8
 71
     3
 72
    14
 73
    10
 74
     0
 42
0.0000000001
 43
0.0000000001
 40
0.0
 40
0.0
 40
0.0
 40
0.0
 40
0.1951062385720619
 40
0.3339125582488692
 40
0.4501474463006513
 40
0.566328053941413
 40
0.7231136318596933
 40
0.9477057072569012
 40
1.0
 40
1.0
 40
1.0
 40
1.0
 10
29.3333124280568
 20
-60.8394063669258
 30
0.0
 10
29.3353079463383
 20
-60.835571948822
 30
0.0
 10
29.33780595321
 20
-60.8270678728977
 30
0.0
 10
29.3398125193806
 20
-60.8115249833542
 30
0.0
 10
29.3389900936763
 20
-60.7952773922403
 30
0.0
 10
29.3357089061302
 20
-60.7770420945606
 30
0.0
 10
29.3290098083267
 20
-60.7547914773452
 30
0.0
 10
29.321820878861
 20
-60.738284726157
 30
0.0
 10
29.3172255389173
 20
-60.7292629401413
 30
0.0
 10
29.3163475337762
 20
-60.7276102961896
 30
0.0
  0
SPLINE
  5
B24
330
A8B
100
AcDbEntity
  8
FRONT
  6
Continuous
 62
     4
100
AcDbSpline
210
0.0
220
0.0
230
1.0
 70
     8
 71
     2
 72
     6
 73
     3
 74
     0
 42
0.0000000001
 43
0.0000000001
 40
0.0
 40
0.0
 40
0.0
 40
1.0
 40
1.0
 40
1.0
 10
28.9555237749881
 20
-62.1248944648992
 30
0.0
 10
28.9679064630876
 20
-62.1315375327553
 30
0.0
 10
28.9743924034865
 20
-62.1356679469327
 30
0.0
  0
SPLINE
  5
B25
330
A8B
100
AcDbEntity
  8
FRONT
  6
Continuous
 62
     4
100
AcDbSpline
210
0.0
220
0.0
230
1.0
 70
     8
 71
     2
 72
     6
 73
     3
 74
     0
 42
0.0000000001
 43
0.0000000001
 40
0.0
 40
0.0
 40
0.0
 40
1.0
 40
1.0
 40
1.0
 10
28.114179408338
 20
-61.3304399724099
 30
0.0
 10
28.2571730952472
 20
-61.6661582536706
 30
0.0
 10
28.6907322281934
 20
-61.9479932962993
 30
0.0
  0
SPLINE
  5
B26
330
A8B
100
AcDbEntity
  8
FRONT
  6
Continuous
 62
     4
100
AcDbSpline
210
0.0
220
0.0
230
1.0
 70
    24
 71
     1
 72
     4
 73
     2
 74
     0
 42
0.0000000001
 43
0.0000000001
 40
0.0
 40
0.0
 40
1.0
 40
1.0
 10
28.6963921873422
 20
-61.9518146789981
 30
0.0
 10
28.7301879999101
 20
-61.977514753608
 30
0.0
  0
SPLINE
  5
B27
330
A8B
100
AcDbEntity
  8
FRONT
  6
Continuous
 62
     4
100
AcDbSpline
210
0.0
220
0.0
230
1.0
 70
    24
 71
     1
 72
     4
 73
     2
 74
     0
 42
0.0000000001
 43
0.0000000001
 40
0.0
 40
0.0
 40
1.0
 40
1.0
 10
29.3836372687821
 20
-61.7267692053574
 30
0.0
 10
29.3793413294711
 20
-61.7227996921365
 30
0.0
  0
SPLINE
  5
B28
330
A8B
100
AcDbEntity
  8
FRONT
  6
Continuous
 62
     4
100
AcDbSpline
210
0.0
220
0.0
230
1.0
 70
     8
 71
     3
 72
    14
 73
    10
 74
     0
 42
0.0000000001
 43
0.0000000001
 40
0.0
 40
0.0
 40
0.0
 40
0.0
 40
0.142151055421
 40
0.2416441906233231
 40
0.337512840946061
 40
0.5226088307748542
 40
0.7069349958419002
 40
0.7832535482434971
 40
1.0
 40
1.0
 40
1.0
 40
1.0
 10
29.0301347769259
 20
-61.1059521048722
 30
0.0
 10
29.0302494986818
 20
-61.1267569762123
 30
0.0
 10
29.0258356062871
 20
-61.1607637552356
 30
0.0
 10
29.0080077842439
 20
-61.2057993440907
 30
0.0
 10
28.9795318179586
 20
-61.2519290258269
 30
0.0
 10
28.9301537626261
 20
-61.2985559455339
 30
0.0
 10
28.8690151542676
 20
-61.3216669693322
 30
0.0
 10
28.8009429138754
 20
-61.3307432821954
 30
0.0
 10
28.7588264370062
 20
-61.331339039517
 30
0.0
 10
28.7273332873581
 20
-61.3283973493244
 30
0.0
  0
ELLIPSE
  5
B29
330
A8B
100
AcDbEntity
  8
FRONT
  6
Continuous
 62
     4
100
AcDbEllipse
 10
26.2864856984193
 20
-59.35691672376
 30
0.0
 11
-0.8821392302302177
 21
0.4709887243754463
 31
0.0
210
0.0
220
0.0
230
1.0
 40
0.9833059182791327
 41
3.625030345689558
 42
6.283185307179584
  0
SPLINE
  5
B2A
330
A8B
100
AcDbEntity
  8
FRONT
  6
Continuous
 62
     4
100
AcDbSpline
210
0.0
220
0.0
230
1.0
 70
     8
 71
     3
 72
    16
 73
    12
 74
     0
 42
0.0000000001
 43
0.0000000001
 40
0.0
 40
0.0
 40
0.0
 40
0.0
 40
0.129148378034396
 40
0.2674644537203973
 40
0.3841582685837871
 40
0.5013560291580168
 40
0.6062428686698798
 40
0.7064204883265523
 40
0.8086161864158006
 40
0.91809676777724
 40
1.0
 40
1.0
 40
1.0
 40
1.0
 10
27.3402847159153
 20
-59.2630817301215
 30
0.0
 10
27.349654021372
 20
-59.1547372084152
 30
0.0
 10
27.3343841441004
 20
-58.9348813774609
 30
0.0
 10
27.2172711436058
 20
-58.6135200175026
 30
0.0
 10
26.9943104624341
 20
-58.348599574599
 30
0.0
 10
26.708347754071
 20
-58.1856275961828
 30
0.0
 10
26.393903124098
 20
-58.134909106249
 30
0.0
 10
26.0936748547032
 20
-58.1852620621044
 30
0.0
 10
25.8211434143053
 20
-58.3235235078862
 30
0.0
 10
25.6178233793989
 20
-58.5186865345571
 30
0.0
 10
25.522132590349
 20
-58.6634974104584
 30
0.0
 10
25.487566150272
 20
-58.7300715603128
 30
0.0
  0
ELLIPSE
  5
B2B
330
A8B
100
AcDbEntity
  8
FRONT
  6
Continuous
 62
     4
100
AcDbEllipse
 10
26.2435126865419
 20
-59.4374031083651
 30
0.0
 11
-0.7939252851790806
 21
0.4238898401086228
 31
0.0
210
0.0
220
0.0
230
1.0
 40
0.9833059182800139
 41
5.213279964936608
 42
6.231612357172
  0
SPLINE
  5
B2C
330
A8B
100
AcDbEntity
  8
FRONT
  6
Continuous
 62
     4
100
AcDbSpline
210
0.0
220
0.0
230
1.0
 70
     8
 71
     3
 72
    10
 73
     6
 74
     0
 42
0.0000000001
 43
0.0000000001
 40
0.0
 40
0.0
 40
0.0
 40
0.0
 40
0.1975215270407752
 40
0.8880294744614507
 40
1.0
 40
1.0
 40
1.0
 40
1.0
 10
25.487566150272
 20
-58.7300715603128
 30
0.0
 10
25.4703627572077
 20
-58.7629047512501
 30
0.0
 10
25.39971592183
 20
-58.9110832967826
 30
0.0
 10
25.3565240452861
 20
-59.0877623887158
 30
0.0
 10
25.3441605633594
 20
-59.2251307331053
 30
0.0
 10
25.3429062409227
 20
-59.2443157821373
 30
0.0
  0
LINE
  5
B2D
330
A8B
100
AcDbEntity
  8
FRONT
  6
Continuous
 62
     4
100
AcDbLine
 10
27.3402847159153
 20
-59.2630817301215
 30
0.0
 11
27.282806587169
 21
-59.3707355010572
 31
0.0
  0
ELLIPSE
  5
B2E
330
A8B
100
AcDbEntity
  8
FRONT
  6
Continuous
 62
     4
100
AcDbEllipse
 10
29.4200759600987
 20
-58.5870357476007
 30
0.0
 11
-0.4845839650356391
 21
2.565417656625252
 31
0.0
210
0.0
220
0.0
230
0.9999999999999998
 40
0.1877462969956187
 41
1.545777644991644
 42
1.748054161917929
  0
ELLIPSE
  5
B2F
330
A8B
100
AcDbEntity
  8
FRONT
  6
Continuous
 62
     4
100
AcDbEllipse
 10
23.9056542338978
 20
-51.79044586033
 30
0.0
 11
-0.7820027716041942
 21
-0.3331240993350395
 31
0.0
210
0.0
220
0.0
230
1.0
 40
0.3528380920404428
 41
1.238775038219452
 42
1.609788972500551
  0
ELLIPSE
  5
B30
330
A8B
100
AcDbEntity
  8
FRONT
  6
Continuous
 62
     4
100
AcDbEllipse
 10
23.7449419157356
 20
-50.871090554525
 30
0.0
 11
-0.1775236042668109
 21
0.8312552970357225
 31
0.0
210
0.0
220
0.0
230
1.0
 40
0.1700246401022982
 41
4.325383915281284
 42
4.740398743479548
  0
SPLINE
  5
B31
330
A8B
100
AcDbEntity
  8
FRONT
  6
Continuous
 62
     4
100
AcDbSpline
210
0.0
220
0.0
230
1.0
 70
    24
 71
     1
 72
     4
 73
     2
 74
     0
 42
0.0000000001
 43
0.0000000001
 40
0.0
 40
0.0
 40
1.0
 40
1.0
 10
23.8812486166016
 20
-50.8176387873735
 30
0.0
 10
24.1511495153833
 20
-50.7224202486634
 30
0.0
  0
SPLINE
  5
B32
330
A8B
100
AcDbEntity
  8
FRONT
  6
Continuous
 62
     4
100
AcDbSpline
210
0.0
220
0.0
230
1.0
 70
    24
 71
     1
 72
     4
 73
     2
 74
     0
 42
0.0000000001
 43
0.0000000001
 40
0.0
 40
0.0
 40
1.0
 40
1.0
 10
23.8859597194226
 20
-51.4020605222493
 30
0.0
 10
23.9997050230337
 20
-51.9409184189626
 30
0.0
  0
SPLINE
  5
B33
330
A8B
100
AcDbEntity
  8
FRONT
  6
Continuous
 62
     4
100
AcDbSpline
210
0.0
220
0.0
230
1.0
 70
    24
 71
     1
 72
     4
 73
     2
 74
     0
 42
0.0000000001
 43
0.0000000001
 40
0.0
 40
0.0
 40
1.0
 40
1.0
 10
23.8385880619188
 20
-52.6519834944156
 30
0.0
 10
24.6534823595407
 20
-52.5942833619145
 30
0.0
  0
SPLINE
  5
B34
330
A8B
100
AcDbEntity
  8
FRONT
  6
Continuous
 62
     4
100
AcDbSpline
210
0.0
220
0.0
230
1.0
 70
    24
 71
     1
 72
     4
 73
     2
 74
     0
 42
0.0000000001
 43
0.0000000001
 40
0.0
 40
0.0
 40
1.0
 40
1.0
 10
24.1790528812672
 20
-52.5281044115353
 30
0.0
 10
23.8832429044494
 20
-52.5888513880183
 30
0.0
  0
SPLINE
  5
B35
330
A8B
100
AcDbEntity
  8
FRONT
  6
Continuous
 62
     4
100
AcDbSpline
210
0.0
220
0.0
230
1.0
 70
    24
 71
     1
 72
     4
 73
     2
 74
     0
 42
0.0000000001
 43
0.0000000001
 40
0.0
 40
0.0
 40
1.0
 40
1.0
 10
23.9997191018073
 20
-51.9409879303064
 30
0.0
 10
23.7085776168783
 20
-52.0045204859921
 30
0.0
  0
SPLINE
  5
B36
330
A8B
100
AcDbEntity
  8
FRONT
  6
Continuous
 62
     4
100
AcDbSpline
210
0.0
220
0.0
230
1.0
 70
     8
 71
     3
 72
    12
 73
     8
 74
     0
 42
0.0000000001
 43
0.0000000001
 40
0.0
 40
0.0
 40
0.0
 40
0.0
 40
0.2744697384182955
 40
0.551325202075647
 40
0.7557784030006751
 40
0.9601016673759271
 40
1.0
 40
1.0
 40
1.0
 40
1.0
 10
23.9428236140524
 20
-51.1568690313547
 30
0.0
 10
23.9339295875231
 20
-51.158897966848
 30
0.0
 10
23.9173125077451
 20
-51.165113794424
 30
0.0
 10
23.8959987824708
 20
-51.178909689955
 30
0.0
 10
23.8824950126666
 20
-51.1970682989769
 30
0.0
 10
23.8781625186678
 20
-51.210804744895
 30
0.0
 10
23.8771166631449
 20
-51.2182872209807
 30
0.0
 10
23.8769826826023
 20
-51.2195170365258
 30
0.0
  0
SPLINE
  5
B37
330
A8B
100
AcDbEntity
  8
FRONT
  6
Continuous
 62
     4
100
AcDbSpline
210
0.0
220
0.0
230
1.0
 70
     8
 71
     2
 72
     6
 73
     3
 74
     0
 42
0.0000000001
 43
0.0000000001
 40
0.0
 40
0.0
 40
0.0
 40
1.0
 40
1.0
 40
1.0
 10
23.4777191493243
 20
-50.3653303523189
 30
0.0
 10
24.4333997701193
 20
-50.3175687743513
 30
0.0
 10
25.3890587258809
 20
-50.2854490162513
 30
0.0
  0
ELLIPSE
  5
B38
330
A8B
100
AcDbEntity
  8
FRONT
  6
Continuous
 62
     4
100
AcDbEllipse
 10
17.1025826422255
 20
-56.1958232540907
 30
0.0
 11
-30.04133316949641
 21
-2.588839177206942
 31
0.0
210
0.0
220
0.0
230
1.0
 40
0.161531415063552
 41
4.513346154013638
 42
4.756988358425918
  0
SPLINE
  5
B39
330
A8B
100
AcDbEntity
  8
FRONT
  6
Continuous
 62
     4
100
AcDbSpline
210
0.0
220
0.0
230
1.0
 70
     8
 71
     3
 72
    19
 73
    15
 74
     0
 42
0.0000000001
 43
0.0000000001
 40
0.0
 40
0.0
 40
0.0
 40
0.0
 40
0.0378701787910131
 40
0.0905179988905895
 40
0.1642269556926017
 40
0.2380530753730911
 40
0.3123760441477659
 40
0.3869895302976412
 40
0.46147450164389
 40
0.5851496942702218
 40
0.7092835185565466
 40
0.833157903598639
 40
0.9165781401482579
 40
1.0
 40
1.0
 40
1.0
 40
1.0
 10
12.7858881768903
 20
-50.6958239269415
 30
0.0
 10
12.839074343788
 20
-50.6965124854747
 30
0.0
 10
12.9795451895852
 20
-50.7082565635831
 30
0.0
 10
13.2951547150336
 20
-50.7776282074474
 30
0.0
 10
13.7698919131244
 20
-50.9242036023497
 30
0.0
 10
14.3814185517348
 20
-51.1361263674427
 30
0.0
 10
15.062259233018
 20
-51.3717576812455
 30
0.0
 10
15.7935114922049
 20
-51.6145944849458
 30
0.0
 10
16.7306492506318
 20
-51.9034400011941
 30
0.0
 10
17.8917575631605
 20
-52.2084326558979
 30
0.0
 10
19.2790492250787
 20
-52.4906493934833
 30
0.0
 10
20.5436519303841
 20
-52.665955233629
 30
0.0
 10
21.6642081791306
 20
-52.7540600199762
 30
0.0
 10
22.3093896696317
 20
-52.7748960566786
 30
0.0
 10
22.6327674250355
 20
-52.777831826208
 30
0.0
  0
LINE
  5
B3A
330
A8B
100
AcDbEntity
  8
FRONT
  6
Continuous
 62
     4
100
AcDbLine
 10
12.7933095299885
 20
-50.6958232540574
 30
0.0
 11
12.3065882078928
 21
-50.6958232540574
 31
0.0
  0
LINE
  5
B3B
330
A8B
100
AcDbEntity
  8
FRONT
  6
Continuous
 62
     4
100
AcDbLine
 10
22.6283842139445
 20
-52.5730432366398
 30
0.0
 11
23.021288421382
 21
-51.3604390650056
 31
0.0
  0
LINE
  5
B3C
330
A8B
100
AcDbEntity
  8
FRONT
  6
Continuous
 62
     4
100
AcDbLine
 10
22.6283842139445
 20
-52.5730432366398
 30
0.0
 11
23.7618763776503
 21
-52.1598802823704
 31
0.0
  0
LINE
  5
B3D
330
A8B
100
AcDbEntity
  8
FRONT
  6
Continuous
 62
     4
100
AcDbLine
 10
23.5692919618127
 20
-51.4744962155353
 30
0.0
 11
23.021288421382
 21
-51.3604390650056
 31
0.0
  0
LINE
  5
B3E
330
A8B
100
AcDbEntity
  8
FRONT
  6
Continuous
 62
     4
100
AcDbLine
 10
23.1791924416154
 20
-50.7341357122596
 30
0.0
 11
23.2696485430647
 21
-50.7529625343841
 31
0.0
  0
LINE
  5
B3F
330
A8B
100
AcDbEntity
  8
FRONT
  6
Continuous
 62
     4
100
AcDbLine
 10
23.1791924416154
 20
-50.7341357122596
 30
0.0
 11
23.1952297414384
 21
-50.6490637154324
 31
0.0
  0
ELLIPSE
  5
B40
330
A8B
100
AcDbEntity
  8
FRONT
  6
Continuous
 62
     4
100
AcDbEllipse
 10
23.3959691287141
 20
-50.5621007020992
 30
0.0
 11
-0.806489772482009
 21
-0.5912480410211467
 31
0.0
210
0.0
220
0.0
230
1.0
 40
0.0811337619020885
 41
1.354388177432271
 42
1.745711778396149
  0
ELLIPSE
  5
B41
330
A8B
100
AcDbEntity
  8
FRONT
  6
Continuous
 62
     4
100
AcDbEllipse
 10
346.610448793074
 20
-28.5456865724737
 30
0.0
 11
-342.0959389744786
 21
-28.76099667904112
 31
0.0
210
0.0
220
0.0
230
1.0
 40
0.0434265181053538
 41
5.947803486633389
 42
5.952599622232146
  0
ELLIPSE
  5
B42
330
A8B
100
AcDbEntity
  8
FRONT
  6
Continuous
 62
     4
100
AcDbEllipse
 10
16.5432401458575
 20
-55.5370506502317
 30
0.0
 11
-7.307339427366882
 21
-3.063816270399228
 31
0.0
210
0.0
220
0.0
230
1.0
 40
0.2481866287351503
 41
3.052623486450511
 42
3.080913953302548
  0
ELLIPSE
  5
B43
330
A8B
100
AcDbEntity
  8
FRONT
  6
Continuous
 62
     4
100
AcDbEllipse
 10
23.713069818065
 20
-51.1050617935795
 30
0.0
 11
-0.8217836972268276
 21
-0.2171901358713434
 31
0.0
210
0.0
220
0.0
230
0.9999999999999998
 40
0.3920499365775708
 41
1.292632269327997
 42
1.678371035082333
  0
ELLIPSE
  5
B44
330
A8B
100
AcDbEntity
  8
FRONT
  6
Continuous
 62
     4
100
AcDbEllipse
 10
16.8446622238982
 20
-55.4271811564949
 30
0.0
 11
-5.980729945729562
 21
-2.409864499793021
 31
0.0
210
0.0
220
0.0
230
0.9999999999999998
 40
0.3085337035018759
 41
3.290405811667822
 42
3.332639300504348
  0
ELLIPSE
  5
B45
330
A8B
100
AcDbEntity
  8
FRONT
  6
Continuous
 62
     4
100
AcDbEllipse
 10
23.48645628474
 20
-53.0062469450549
 30
0.0
 11
-0.6673421078069362
 21
-2.286566163010705
 31
0.0
210
0.0
220
0.0
230
0.9999999999999998
 40
0.3978450525441507
 41
4.63866320637629
 42
4.650929689634258
  0
ELLIPSE
  5
B46
330
A8B
100
AcDbEntity
  8
FRONT
  6
Continuous
 62
     4
100
AcDbEllipse
 10
22.1733479089989
 20
-49.9583005105587
 30
0.0
 11
-0.1862105098576039
 21
-2.621606840087076
 31
0.0
210
0.0
220
0.0
230
0.9999999999999998
 40
0.4178730016605411
 41
1.036429758151679
 42
1.300166956177833
  0
ELLIPSE
  5
B47
330
A8B
100
AcDbEntity
  8
FRONT
  6
Continuous
 62
     4
100
AcDbEllipse
 10
23.6922887241598
 20
-50.9271180138742
 30
0.0
 11
-0.8496785632609061
 21
0.0233738973287866
 31
0.0
210
0.0
220
0.0
230
0.9999999999999998
 40
0.3469230430269695
 41
1.426511375320845
 42
1.799447862846502
  0
ELLIPSE
  5
B48
330
A8B
100
AcDbEntity
  8
FRONT
  6
Continuous
 62
     4
100
AcDbEllipse
 10
23.2241281952611
 20
-53.3934388383156
 30
0.0
 11
-1.329462075118444
 21
-0.5309569405100488
 31
0.0
210
0.0
220
0.0
230
0.9999999999999998
 40
0.8742324331760295
 41
4.730475183920662
 42
5.327454682651223
  0
SPLINE
  5
B49
330
A8B
100
AcDbEntity
  8
FRONT
  6
Continuous
 62
     4
100
AcDbSpline
210
0.0
220
0.0
230
1.0
 70
    24
 71
     1
 72
     4
 73
     2
 74
     0
 42
0.0000000001
 43
0.0000000001
 40
0.0
 40
0.0
 40
1.0
 40
1.0
 10
23.8832429044494
 20
-52.5888513880183
 30
0.0
 10
23.7618763776503
 20
-52.1598802823704
 30
0.0
  0
SPLINE
  5
B4A
330
A8B
100
AcDbEntity
  8
FRONT
  6
Continuous
 62
     4
100
AcDbSpline
210
0.0
220
0.0
230
1.0
 70
    24
 71
     1
 72
     4
 73
     2
 74
     0
 42
0.0000000001
 43
0.0000000001
 40
0.0
 40
0.0
 40
1.0
 40
1.0
 10
22.6327674250355
 20
-52.777831826208
 30
0.0
 10
23.8385880619188
 20
-52.6519834944156
 30
0.0
  0
SPLINE
  5
B4B
330
A8B
100
AcDbEntity
  8
FRONT
  6
Continuous
 62
     4
100
AcDbSpline
210
0.0
220
0.0
230
1.0
 70
    24
 71
     1
 72
     4
 73
     2
 74
     0
 42
0.0000000001
 43
0.0000000001
 40
0.0
 40
0.0
 40
1.0
 40
1.0
 10
22.5753936143989
 20
-52.7107721243902
 30
0.0
 10
22.619463343833
 20
-52.6008071766248
 30
0.0
  0
SPLINE
  5
B4C
330
A8B
100
AcDbEntity
  8
FRONT
  6
Continuous
 62
     4
100
AcDbSpline
210
0.0
220
0.0
230
1.0
 70
    24
 71
     1
 72
     4
 73
     2
 74
     0
 42
0.0000000001
 43
0.0000000001
 40
0.0
 40
0.0
 40
1.0
 40
1.0
 10
23.2696485430647
 20
-50.7529625343841
 30
0.0
 10
23.1952297414384
 20
-50.6490637154324
 30
0.0
  0
SPLINE
  5
B4D
330
A8B
100
AcDbEntity
  8
FRONT
  6
Continuous
 62
     4
100
AcDbSpline
210
0.0
220
0.0
230
1.0
 70
    24
 71
     1
 72
     4
 73
     2
 74
     0
 42
0.0000000001
 43
0.0000000001
 40
0.0
 40
0.0
 40
1.0
 40
1.0
 10
23.4325145184454
 20
-50.3673073145739
 30
0.0
 10
23.4777191584358
 20
-50.3653295769571
 30
0.0
  0
SPLINE
  5
B4E
330
A8B
100
AcDbEntity
  8
FRONT
  6
Continuous
 62
     4
100
AcDbSpline
210
0.0
220
0.0
230
1.0
 70
     8
 71
     2
 72
     6
 73
     3
 74
     0
 42
0.0000000001
 43
0.0000000001
 40
0.0
 40
0.0
 40
0.0
 40
1.0
 40
1.0
 40
1.0
 10
23.5620931376715
 20
-51.2154672791044
 30
0.0
 10
23.6978183839091
 20
-51.0071807793926
 30
0.0
 10
23.8812486166012
 20
-50.8176387873723
 30
0.0
  0
SPLINE
  5
B4F
330
A8B
100
AcDbEntity
  8
FRONT
  6
Continuous
 62
     4
100
AcDbSpline
210
0.0
220
0.0
230
1.0
 70
    24
 71
     1
 72
     4
 73
     2
 74
     0
 42
0.0000000001
 43
0.0000000001
 40
0.0
 40
0.0
 40
1.0
 40
1.0
 10
23.5835566276469
 20
-50.5236439481558
 30
0.0
 10
23.8812486165995
 20
-50.8176387873742
 30
0.0
  0
SPLINE
  5
B50
330
A8B
100
AcDbEntity
  8
FRONT
  6
Continuous
 62
     4
100
AcDbSpline
210
0.0
220
0.0
230
1.0
 70
    24
 71
     1
 72
     4
 73
     2
 74
     0
 42
0.0000000001
 43
0.0000000001
 40
0.0
 40
0.0
 40
1.0
 40
1.0
 10
23.8769826826019
 20
-51.2195170365257
 30
0.0
 10
23.8859597194225
 20
-51.4020605222493
 30
0.0
  0
SPLINE
  5
B51
330
A8B
100
AcDbEntity
  8
FRONT
  6
Continuous
 62
     4
100
AcDbSpline
210
0.0
220
0.0
230
1.0
 70
    24
 71
     1
 72
     4
 73
     2
 74
     0
 42
0.0000000001
 43
0.0000000001
 40
0.0
 40
0.0
 40
1.0
 40
1.0
 10
23.5692919618127
 20
-51.4744962155353
 30
0.0
 10
23.5620931376848
 20
-51.2154672791124
 30
0.0
  0
SPLINE
  5
B52
330
A8B
100
AcDbEntity
  8
FRONT
  6
Continuous
 62
     4
100
AcDbSpline
210
0.0
220
0.0
230
1.0
 70
    24
 71
     1
 72
     4
 73
     2
 74
     0
 42
0.0000000001
 43
0.0000000001
 40
0.0
 40
0.0
 40
1.0
 40
1.0
 10
23.1952297414384
 20
-50.6490637154324
 30
0.0
 10
23.2114075289082
 20
-50.5581217634942
 30
0.0
  0
SPLINE
  5
B53
330
A8B
100
AcDbEntity
  8
FRONT
  6
Continuous
 62
     4
100
AcDbSpline
210
0.0
220
0.0
230
1.0
 70
    24
 71
     1
 72
     4
 73
     2
 74
     0
 42
0.0000000001
 43
0.0000000001
 40
0.0
 40
0.0
 40
1.0
 40
1.0
 10
23.7085776168818
 20
-52.0045204860021
 30
0.0
 10
23.5692919618128
 20
-51.4744962155353
 30
0.0
  0
SPLINE
  5
B54
330
A8B
100
AcDbEntity
  8
FRONT
  6
Continuous
 62
     4
100
AcDbSpline
210
0.0
220
0.0
230
1.0
 70
    24
 71
     1
 72
     4
 73
     2
 74
     0
 42
0.0000000001
 43
0.0000000001
 40
0.0
 40
0.0
 40
1.0
 40
1.0
 10
23.7618763776503
 20
-52.1598802823704
 30
0.0
 10
23.7085832398278
 20
-52.0045196766599
 30
0.0
  0
SPLINE
  5
B55
330
A8B
100
AcDbEntity
  8
FRONT
  6
Continuous
 62
     4
100
AcDbSpline
210
0.0
220
0.0
230
1.0
 70
     8
 71
     3
 72
    12
 73
     8
 74
     0
 42
0.0000000001
 43
0.0000000001
 40
0.0
 40
0.0
 40
0.0
 40
0.0
 40
0.2440298709825523
 40
0.488120310074948
 40
0.7306421972591242
 40
0.9701993202335991
 40
1.0
 40
1.0
 40
1.0
 40
1.0
 10
23.4325145184455
 20
-50.3673073145739
 30
0.0
 10
23.4061845687997
 20
-50.3685559867323
 30
0.0
 10
23.3567085257478
 20
-50.3786702114749
 30
0.0
 10
23.2885458793376
 20
-50.418467654243
 30
0.0
 10
23.2375103255157
 20
-50.4769440245472
 30
0.0
 10
23.2171275066069
 20
-50.5276031727626
 30
0.0
 10
23.2119213449287
 20
-50.5550625783955
 30
0.0
 10
23.2114075289082
 20
-50.5581217634943
 30
0.0
  0
SPLINE
  5
B56
330
A8B
100
AcDbEntity
  8
FRONT
  6
Continuous
 62
     4
100
AcDbSpline
210
0.0
220
0.0
230
1.0
 70
    24
 71
     1
 72
     4
 73
     2
 74
     0
 42
0.0000000001
 43
0.0000000001
 40
0.0
 40
0.0
 40
1.0
 40
1.0
 10
22.5475568843803
 20
-52.764859052544
 30
0.0
 10
22.5753936143989
 20
-52.7107721243902
 30
0.0
  0
SPLINE
  5
B57
330
A8B
100
AcDbEntity
  8
FRONT
  6
Continuous
 62
     4
100
AcDbSpline
210
0.0
220
0.0
230
1.0
 70
     8
 71
     2
 72
     6
 73
     3
 74
     0
 42
0.0000000001
 43
0.0000000001
 40
0.0
 40
0.0
 40
0.0
 40
1.0
 40
1.0
 40
1.0
 10
23.4777191493243
 20
-50.3653303523189
 30
0.0
 10
23.5293936899675
 20
-50.4452709955417
 30
0.0
 10
23.5835566276469
 20
-50.5236439481558
 30
0.0
  0
SPLINE
  5
B58
330
A8B
100
AcDbEntity
  8
FRONT
  6
Continuous
 62
     4
100
AcDbSpline
210
0.0
220
0.0
230
1.0
 70
     8
 71
     2
 72
     6
 73
     3
 74
     0
 42
0.0000000001
 43
0.0000000001
 40
0.0
 40
0.0
 40
0.0
 40
1.0
 40
1.0
 40
1.0
 10
23.5620931376853
 20
-51.215467279099
 30
0.0
 10
23.3810864177645
 20
-51.0075989027915
 30
0.0
 10
23.2696485430647
 20
-50.7529625343841
 30
0.0
  0
LINE
  5
B59
330
A8B
100
AcDbEntity
  8
FRONT
  6
Continuous
 62
     4
100
AcDbLine
 10
29.3388378410402
 20
-51.8899740592577
 30
0.0
 11
29.0314224652881
 21
-53.262694701357
 31
0.0
  0
LINE
  5
B5A
330
A8B
100
AcDbEntity
  8
FRONT
  6
Continuous
 62
     4
100
AcDbLine
 10
28.9293621995107
 20
-53.2476898700197
 30
0.0
 11
29.0314224652881
 21
-53.262694701357
 31
0.0
  0
ELLIPSE
  5
B5B
330
A8B
100
AcDbEntity
  8
FRONT
  6
Continuous
 62
     4
100
AcDbEllipse
 10
29.4200759596652
 20
-53.8046107603276
 30
0.0
 11
-0.4845839648273406
 21
-2.565417655414864
 31
0.0
210
0.0
220
0.0
230
1.0
 40
0.1877462969075319
 41
4.535131145218768
 42
4.737407662240475
  0
ELLIPSE
  5
B5C
330
A8B
100
AcDbEntity
  8
FRONT
  6
Continuous
 62
     4
100
AcDbEllipse
 10
25.9561707113414
 20
-52.416065698882
 30
0.0
 11
-1.088811819638892
 21
-0.5813346379390692
 31
0.0
210
0.0
220
0.0
230
1.0
 40
0.9833059182791359
 41
3.141592653589792
 42
5.933643914404618
  0
ELLIPSE
  5
B5D
330
A8B
100
AcDbEntity
  8
FRONT
  6
Continuous
 62
     4
100
AcDbEllipse
 10
26.0364263473266
 20
-52.3304292020333
 30
0.0
 11
-1.19524239155921
 21
-0.6381596805011488
 31
0.0
210
0.0
220
0.0
230
0.9999999999999998
 40
0.9833059182791515
 41
2.398313761510258
 42
5.985009272386527
  0
ELLIPSE
  5
B5E
330
A8B
100
AcDbEntity
  8
FRONT
  6
Continuous
 62
     4
100
AcDbEllipse
 10
26.0231426696292
 20
-52.3055495125364
 30
0.0
 11
-1.274184406475827
 21
-0.6803081278529028
 31
0.0
210
0.0
220
0.0
230
1.0
 40
0.9833059182793167
 41
2.393939591548555
 42
4.152487722051174
  0
ELLIPSE
  5
B5F
330
A8B
100
AcDbEntity
  8
FRONT
  6
Continuous
 62
     4
100
AcDbEllipse
 10
26.0650006252344
 20
-52.3839474503761
 30
0.0
 11
-1.09830870118782
 21
-0.5864051800623212
 31
0.0
210
0.0
220
0.0
230
0.9999999999999998
 40
0.9833059182791778
 41
2.421430119237939
 42
4.646060335807838
  0
ELLIPSE
  5
B60
330
A8B
100
AcDbEntity
  8
FRONT
  6
Continuous
 62
     4
100
AcDbEllipse
 10
26.0364263473266
 20
-52.3304292020334
 30
0.0
 11
-1.151135430047241
 21
-0.6146102442832692
 31
0.0
210
0.0
220
0.0
230
1.0
 40
0.9833059182791597
 41
2.854453356631227
 42
5.726113818514622
  0
ELLIPSE
  5
B61
330
A8B
100
AcDbEntity
  8
FRONT
  6
Continuous
 62
     4
100
AcDbEllipse
 10
26.054657387574
 20
-52.3645750636581
 30
0.0
 11
-1.141300807152083
 21
-0.6093593764552427
 31
0.0
210
0.0
220
0.0
230
1.0
 40
0.9833059182793387
 41
2.854453356640041
 42
4.211497995772412
  0
ELLIPSE
  5
B62
330
A8B
100
AcDbEntity
  8
FRONT
  6
Continuous
 62
     4
100
AcDbEllipse
 10
26.0222856581645
 20
-52.3039443712788
 30
0.0
 11
-1.289463506136375
 21
-0.6884658918589805
 31
0.0
210
0.0
220
0.0
230
0.9999999999999998
 40
0.9833059182791195
 41
2.395557650275635
 42
4.152487722049663
  0
SPLINE
  5
B63
330
A8B
100
AcDbEntity
  8
FRONT
  6
Continuous
 62
     4
100
AcDbSpline
210
0.0
220
0.0
230
1.0
 70
    24
 71
     1
 72
     4
 73
     2
 74
     0
 42
0.0000000001
 43
0.0000000001
 40
0.0
 40
0.0
 40
1.0
 40
1.0
 10
28.7380150721504
 20
-52.6861439083989
 30
0.0
 10
25.1889484853904
 20
-52.602617600885
 30
0.0
  0
SPLINE
  5
B64
330
A8B
100
AcDbEntity
  8
FRONT
  6
Continuous
 62
     4
100
AcDbSpline
210
0.0
220
0.0
230
1.0
 70
    24
 71
     1
 72
     4
 73
     2
 74
     0
 42
0.0000000001
 43
0.0000000001
 40
0.0
 40
0.0
 40
1.0
 40
1.0
 10
27.5594983816922
 20
-51.2003724667254
 30
0.0
 10
26.5655515082301
 20
-50.9457510644262
 30
0.0
  0
SPLINE
  5
B65
330
A8B
100
AcDbEntity
  8
FRONT
  6
Continuous
 62
     4
100
AcDbSpline
210
0.0
220
0.0
230
1.0
 70
    24
 71
     1
 72
     4
 73
     2
 74
     0
 42
0.0000000001
 43
0.0000000001
 40
0.0
 40
0.0
 40
1.0
 40
1.0
 10
29.0354615242503
 20
-50.2205591120045
 30
0.0
 10
26.0466999264091
 20
-50.265221307842
 30
0.0
  0
SPLINE
  5
B66
330
A8B
100
AcDbEntity
  8
FRONT
  6
Continuous
 62
     4
100
AcDbSpline
210
0.0
220
0.0
230
1.0
 70
    24
 71
     1
 72
     4
 73
     2
 74
     0
 42
0.0000000001
 43
0.0000000001
 40
0.0
 40
0.0
 40
1.0
 40
1.0
 10
26.36406598429
 20
-50.5593064770145
 30
0.0
 10
27.6372525423022
 20
-50.8604888454756
 30
0.0
  0
LINE
  5
B67
330
A8B
100
AcDbEntity
  8
FRONT
  6
Continuous
 62
     4
100
AcDbLine
 10
26.5428695120161
 20
-52.0125099521258
 30
0.0
 11
26.4850506788111
 21
-51.904218058124
 31
0.0
  0
LINE
  5
B68
330
A8B
100
AcDbEntity
  8
FRONT
  6
Continuous
 62
     4
100
AcDbLine
 10
26.6382124406489
 20
-52.5839637406093
 30
0.0
 11
26.6667413685523
 21
-52.637397050575
 31
0.0
  0
LINE
  5
B69
330
A8B
100
AcDbEntity
  8
FRONT
  6
Continuous
 62
     4
100
AcDbLine
 10
25.2450268565736
 20
-52.6039373899512
 30
0.0
 11
25.2443562903072
 21
-52.6026814515826
 31
0.0
  0
LINE
  5
B6A
330
A8B
100
AcDbEntity
  8
FRONT
  6
Continuous
 62
     4
100
AcDbLine
 10
26.2781295513737
 20
-50.8644603975123
 30
0.0
 11
26.1335190082292
 21
-50.8639657059999
 31
0.0
  0
LINE
  5
B6B
330
A8B
100
AcDbEntity
  8
FRONT
  6
Continuous
 62
     4
100
AcDbLine
 10
25.4942727114877
 20
-52.0089228558747
 30
0.0
 11
25.4364538782827
 21
-51.9006309618728
 31
0.0
  0
LINE
  5
B6C
330
A8B
100
AcDbEntity
  8
FRONT
  6
Continuous
 62
     4
100
AcDbLine
 10
25.8828399826281
 20
-51.734209312249
 30
0.0
 11
25.8423138673272
 21
-51.812989023157
 31
0.0
  0
LINE
  5
B6D
330
A8B
100
AcDbEntity
  8
FRONT
  6
Continuous
 62
     4
100
AcDbLine
 10
25.8071451311125
 20
-51.6458347035379
 30
0.0
 11
25.8211351589073
 21
-51.618639144894
 31
0.0
  0
LINE
  5
B6E
330
A8B
100
AcDbEntity
  8
FRONT
  6
Continuous
 62
     4
100
AcDbLine
 10
25.8423138673272
 20
-51.812989023157
 30
0.0
 11
25.7844950341222
 21
-51.7046971291551
 31
0.0
  0
LINE
  5
B6F
330
A8B
100
AcDbEntity
  8
FRONT
  6
Continuous
 62
     4
100
AcDbLine
 10
25.3746588289414
 20
-51.8893079174396
 30
0.0
 11
25.3441287313014
 21
-51.8871754832658
 31
0.0
  0
LINE
  5
B70
330
A8B
100
AcDbEntity
  8
FRONT
  6
Continuous
 62
     4
100
AcDbLine
 10
25.2159021228977
 20
-52.1532420172238
 30
0.0
 11
25.1992906527507
 21
-52.1279697705084
 31
0.0
  0
LINE
  5
B71
330
A8B
100
AcDbEntity
  8
FRONT
  6
Continuous
 62
     4
100
AcDbLine
 10
25.4058335550221
 20
-52.0027456506208
 30
0.0
 11
25.4942727114877
 21
-52.0089228558747
 31
0.0
  0
LINE
  5
B72
330
A8B
100
AcDbEntity
  8
FRONT
  6
Continuous
 62
     4
100
AcDbLine
 10
25.4058335550221
 20
-52.0027456506208
 30
0.0
 11
25.3441287313014
 21
-51.8871754832658
 31
0.0
  0
LINE
  5
B73
330
A8B
100
AcDbEntity
  8
FRONT
  6
Continuous
 62
     4
100
AcDbLine
 10
26.6886543479334
 20
-52.1582800871308
 30
0.0
 11
26.7061535858204
 21
-52.1331245281574
 31
0.0
  0
LINE
  5
B74
330
A8B
100
AcDbEntity
  8
FRONT
  6
Continuous
 62
     4
100
AcDbLine
 10
26.6315154998697
 20
-52.0069385292442
 30
0.0
 11
26.5428695120161
 21
-52.0125099521258
 31
0.0
  0
LINE
  5
B75
330
A8B
100
AcDbEntity
  8
FRONT
  6
Continuous
 62
     4
100
AcDbLine
 10
26.1518438563413
 20
-51.7214542354078
 30
0.0
 11
26.2087924150954
 21
-51.8281161472158
 31
0.0
  0
LINE
  5
B76
330
A8B
100
AcDbEntity
  8
FRONT
  6
Continuous
 62
     4
100
AcDbLine
 10
26.5392091782071
 20
-51.8932916738176
 30
0.0
 11
26.569810676149
 21
-51.8913683618892
 31
0.0
  0
LINE
  5
B77
330
A8B
100
AcDbEntity
  8
FRONT
  6
Continuous
 62
     4
100
AcDbLine
 10
26.6315154998697
 20
-52.0069385292442
 30
0.0
 11
26.569810676149
 21
-51.8913683618892
 31
0.0
  0
LINE
  5
B78
330
A8B
100
AcDbEntity
  8
FRONT
  6
Continuous
 62
     4
100
AcDbLine
 10
25.3252429886419
 20
-52.3439017333854
 30
0.0
 11
25.2693564305066
 21
-52.239228897663
 31
0.0
  0
LINE
  5
B79
330
A8B
100
AcDbEntity
  8
FRONT
  6
Continuous
 62
     4
100
AcDbLine
 10
25.8828399826281
 20
-51.734209312249
 30
0.0
 11
25.8211351589073
 21
-51.618639144894
 31
0.0
  0
LINE
  5
B7A
330
A8B
100
AcDbEntity
  8
FRONT
  6
Continuous
 62
     4
100
AcDbLine
 10
26.1153470068824
 20
-51.6468890170668
 30
0.0
 11
26.1023161471294
 21
-51.6196010239197
 31
0.0
  0
LINE
  5
B7B
330
A8B
100
AcDbEntity
  8
FRONT
  6
Continuous
 62
     4
100
AcDbLine
 10
26.6683920431187
 20
-52.6374358987477
 30
0.0
 11
26.6524078051971
 21
-52.6074981898255
 31
0.0
  0
ELLIPSE
  5
B7C
330
A8B
100
AcDbEntity
  8
FRONT
  6
Continuous
 62
     4
100
AcDbEllipse
 10
26.0148130642152
 20
-52.5259000056125
 30
0.0
 11
-0.5697208004759025
 21
-0.3041833576987884
 31
0.0
210
0.0
220
0.0
230
1.0
 40
0.9833059182803454
 41
3.141592653589792
 42
4.211497995854738
  0
ELLIPSE
  5
B7D
330
A8B
100
AcDbEntity
  8
FRONT
  6
Continuous
 62
     4
100
AcDbEllipse
 10
26.1352330311604
 20
-50.8671759885071
 30
0.0
 11
-0.0012380506136597
 21
-0.0199616439988246
 31
0.0
210
0.0
220
0.0
230
1.0
 40
0.0966394604989199
 41
4.556861561911704
 42
5.60405911256103
  0
ELLIPSE
  5
B7E
330
A8B
100
AcDbEntity
  8
FRONT
  6
Continuous
 62
     4
100
AcDbEllipse
 10
26.5775498815565
 20
-52.0462674854995
 30
0.0
 11
-0.1387163939545198
 21
-0.0740629769062388
 31
0.0
210
0.0
220
0.0
230
1.0
 40
0.983305918279537
 41
3.141592653589792
 42
4.278357181632673
  0
ELLIPSE
  5
B7F
330
A8B
100
AcDbEntity
  8
FRONT
  6
Continuous
 62
     4
100
AcDbEllipse
 10
26.0096706718648
 20
-52.5162691045059
 30
0.0
 11
-0.5697232499858903
 21
-0.3041793370702448
 31
0.0
210
0.0
220
0.0
230
1.0
 40
0.9833058533003276
 41
2.4521226627569
 42
2.51349782037308
  0
ELLIPSE
  5
B80
330
A8B
100
AcDbEntity
  8
FRONT
  6
Continuous
 62
     4
100
AcDbEllipse
 10
26.5775498815578
 20
-52.0462674854996
 30
0.0
 11
-0.1387163939436924
 21
-0.0740629769240791
 31
0.0
210
0.0
220
0.0
230
1.0
 40
0.9833059182820004
 41
2.05024370739385
 42
3.141592653473066
  0
ELLIPSE
  5
B81
330
A8B
100
AcDbEntity
  8
FRONT
  6
Continuous
 62
     4
100
AcDbEllipse
 10
25.392641696659
 20
-52.1575731721242
 30
0.0
 11
-0.138716393954182
 21
-0.0740629769072034
 31
0.0
210
0.0
220
0.0
230
1.0
 40
0.9833059182793643
 41
4.144638809916375
 42
6.033222504441043
  0
ELLIPSE
  5
B82
330
A8B
100
AcDbEntity
  8
FRONT
  6
Continuous
 62
     4
100
AcDbEllipse
 10
25.9479661699987
 20
-52.4006989874921
 30
0.0
 11
-0.6878480648487471
 21
-0.3672534576645039
 31
0.0
210
0.0
220
0.0
230
1.0
 40
0.9833059182825293
 41
3.364014017275521
 42
4.011784423528292
  0
ELLIPSE
  5
B83
330
A8B
100
AcDbEntity
  8
FRONT
  6
Continuous
 62
     4
100
AcDbEllipse
 10
26.6392547052761
 20
-52.1618376528579
 30
0.0
 11
-0.1387163939305158
 21
-0.0740629769569428
 31
0.0
210
0.0
220
0.0
230
0.9999999999999998
 40
0.9833059182794855
 41
3.579055150075236
 42
4.278357181272085
  0
ELLIPSE
  5
B84
330
A8B
100
AcDbEntity
  8
FRONT
  6
Continuous
 62
     4
100
AcDbEllipse
 10
26.0148130642137
 20
-52.5259000056163
 30
0.0
 11
-0.5697208004536415
 21
-0.3041833577478669
 31
0.0
210
0.0
220
0.0
230
0.9999999999999998
 40
0.9833059182795919
 41
4.211497995770305
 42
5.916687780929657
  0
ELLIPSE
  5
B85
330
A8B
100
AcDbEntity
  8
FRONT
  6
Continuous
 62
     4
100
AcDbEllipse
 10
25.9605185847553
 20
-51.6875725141899
 30
0.0
 11
-0.1387190760836097
 21
-0.074062710247625
 31
0.0
210
0.0
220
0.0
230
0.9999999999999998
 40
0.9832989179835243
 41
3.097450943316431
 42
3.141602023580455
  0
ELLIPSE
  5
B86
330
A8B
100
AcDbEntity
  8
FRONT
  6
Continuous
 62
     4
100
AcDbEllipse
 10
25.9605205845023
 20
-51.6875715027652
 30
0.0
 11
-0.1387163939537963
 21
-0.0740629769078515
 31
0.0
210
0.0
220
0.0
230
1.0
 40
0.9833059182791126
 41
3.141592653589792
 42
5.325554732817813
  0
ELLIPSE
  5
B87
330
A8B
100
AcDbEntity
  8
FRONT
  6
Continuous
 62
     4
100
AcDbEllipse
 10
26.0448598861535
 20
-52.5821762581177
 30
0.0
 11
-0.3532268962687824
 21
-0.1885936818296914
 31
0.0
210
0.0
220
0.0
230
1.0
 40
0.9833059182785307
 41
3.188548543609073
 42
4.2114979956971
  0
ELLIPSE
  5
B88
330
A8B
100
AcDbEntity
  8
FRONT
  6
Continuous
 62
     4
100
AcDbEllipse
 10
25.5243644100249
 20
-51.6557487257438
 30
0.0
 11
-0.3164233418824987
 21
-0.1689436554341971
 31
0.0
210
0.0
220
0.0
230
1.0
 40
0.9833059182770933
 41
1.003046156315968
 42
2.183962079224544
  0
ELLIPSE
  5
B89
330
A8B
100
AcDbEntity
  8
FRONT
  6
Continuous
 62
     4
100
AcDbEllipse
 10
25.9479661699828
 20
-52.4006989874849
 30
0.0
 11
-0.6878480647677431
 21
-0.3672534578178684
 31
0.0
210
0.0
220
0.0
230
1.0
 40
0.9833059182652659
 41
4.411211568248791
 42
5.058981974505009
  0
ELLIPSE
  5
B8A
330
A8B
100
AcDbEntity
  8
FRONT
  6
Continuous
 62
     4
100
AcDbEllipse
 10
26.0222856580782
 20
-52.3039443712703
 30
0.0
 11
-1.289463505490719
 21
-0.6884658929129687
 31
0.0
210
0.0
220
0.0
230
1.0
 40
0.9833059182902299
 41
5.42507150311212
 42
5.993725673721996
  0
ELLIPSE
  5
B8B
330
A8B
100
AcDbEntity
  8
FRONT
  6
Continuous
 62
     4
100
AcDbEllipse
 10
25.4110116616433
 20
-50.579817691853
 30
0.0
 11
-0.0211384512596285
 21
-0.8497371156793303
 31
0.0
210
0.0
220
0.0
230
0.9999999999999998
 40
0.1896634436923256
 41
1.168100390367426
 42
1.749625419812159
  0
ELLIPSE
  5
B8C
330
A8B
100
AcDbEntity
  8
FRONT
  6
Continuous
 62
     4
100
AcDbEllipse
 10
26.022225408223
 20
-51.8031416701202
 30
0.0
 11
-0.138716393954067
 21
-0.0740629769073293
 31
0.0
210
0.0
220
0.0
230
1.0
 40
0.9833059182794162
 41
3.353232323526823
 42
5.325554732821572
  0
ELLIPSE
  5
B8D
330
A8B
100
AcDbEntity
  8
FRONT
  6
Continuous
 62
     4
100
AcDbEllipse
 10
25.3309369784348
 20
-52.0420029425126
 30
0.0
 11
-0.1387164275215775
 21
-0.0740631738835355
 31
0.0
210
0.0
220
0.0
230
1.0
 40
0.9833055364643515
 41
6.283184319510271
 42
6.372751261455347
  0
ELLIPSE
  5
B8E
330
A8B
100
AcDbEntity
  8
FRONT
  6
Continuous
 62
     4
100
AcDbEllipse
 10
25.9479661699704
 20
-52.4006989875007
 30
0.0
 11
-0.6878480646011706
 21
-0.3672534581129616
 31
0.0
210
0.0
220
0.0
230
1.0
 40
0.9833059182837756
 41
5.458409119012037
 42
6.053253327806824
  0
ELLIPSE
  5
B8F
330
A8B
100
AcDbEntity
  8
FRONT
  6
Continuous
 62
     4
100
AcDbEllipse
 10
26.0226360816457
 20
-52.3046006976129
 30
0.0
 11
-1.314616796581824
 21
-0.7018956497286183
 31
0.0
210
0.0
220
0.0
230
0.9999999999999998
 40
0.9833059182747907
 41
4.552187304562112
 42
5.292715336509727
  0
ELLIPSE
  5
B90
330
A8B
100
AcDbEntity
  8
FRONT
  6
Continuous
 62
     4
100
AcDbEllipse
 10
26.0274507894407
 20
-52.5495698571961
 30
0.0
 11
-0.3532268962957501
 21
-0.1885936817720534
 31
0.0
210
0.0
220
0.0
230
1.0
 40
0.9833059182800568
 41
3.141592653589792
 42
4.211497995858031
  0
ELLIPSE
  5
B91
330
A8B
100
AcDbEntity
  8
FRONT
  6
Continuous
 62
     4
100
AcDbEllipse
 10
16.6160840659662
 20
-55.6734884742963
 30
0.0
 11
-7.504621568768301
 21
-3.321134731786813
 31
0.0
210
0.0
220
0.0
230
1.0
 40
0.3415132900699109
 41
3.041715105904696
 42
3.07577658346799
  0
ELLIPSE
  5
B92
330
A8B
100
AcDbEntity
  8
FRONT
  6
Continuous
 62
     4
100
AcDbEllipse
 10
26.0274507894652
 20
-52.5495698571949
 30
0.0
 11
-0.3532268961353468
 21
-0.1885936820254782
 31
0.0
210
0.0
220
0.0
230
1.0
 40
0.9833059183033368
 41
2.433542523355816
 42
3.141592652947553
  0
ELLIPSE
  5
B93
330
A8B
100
AcDbEntity
  8
FRONT
  6
Continuous
 62
     4
100
AcDbEllipse
 10
26.0448598861542
 20
-52.5821762581161
 30
0.0
 11
-0.3532268962799985
 21
-0.1885936818057033
 31
0.0
210
0.0
220
0.0
230
0.9999999999999998
 40
0.9833059182790311
 41
4.211497995764053
 42
5.866656694161925
  0
ELLIPSE
  5
B94
330
A8B
100
AcDbEntity
  8
FRONT
  6
Continuous
 62
     4
100
AcDbEllipse
 10
26.0546573875719
 20
-52.364575063656
 30
0.0
 11
-1.141300807144346
 21
-0.6093593764680998
 31
0.0
210
0.0
220
0.0
230
1.0
 40
0.9833059182778084
 41
4.211497995759971
 42
5.305260955205678
  0
ELLIPSE
  5
B95
330
A8B
100
AcDbEntity
  8
FRONT
  6
Continuous
 62
     4
100
AcDbEllipse
 10
26.0222889394041
 20
-52.3039505168827
 30
0.0
 11
-1.2898928947353
 21
-0.6886951495342341
 31
0.0
210
0.0
220
0.0
230
1.0
 40
0.9833059182785364
 41
4.211497995763918
 42
5.292715336570157
  0
ELLIPSE
  5
B96
330
A8B
100
AcDbEntity
  8
FRONT
  6
Continuous
 62
     4
100
AcDbEllipse
 10
26.0096709937131
 20
-52.5162691548584
 30
0.0
 11
-0.5697208004516448
 21
-0.3041833577510329
 31
0.0
210
0.0
220
0.0
230
1.0
 40
0.9833059182790732
 41
4.211497995764176
 42
5.932188545061793
  0
ELLIPSE
  5
B97
330
A8B
100
AcDbEntity
  8
FRONT
  6
Continuous
 62
     4
100
AcDbEllipse
 10
24.0107165351602
 20
-50.7951468222633
 30
0.0
 11
-0.2869743301033756
 21
0.8000910781621206
 31
0.0
210
0.0
220
0.0
230
1.0
 40
0.1844576932552187
 41
4.318012958595913
 42
4.737148911237754
  0
ELLIPSE
  5
B98
330
A8B
100
AcDbEntity
  8
FRONT
  6
Continuous
 62
     4
100
AcDbEllipse
 10
25.9479661699923
 20
-52.4006989875035
 30
0.0
 11
-0.8808790105358404
 21
-0.4703158722400647
 31
0.0
210
0.0
220
0.0
230
1.0
 40
0.9833059182791467
 41
2.390668816843747
 42
5.988551940869403
  0
ELLIPSE
  5
B99
330
A8B
100
AcDbEntity
  8
FRONT
  6
Continuous
 62
     4
100
AcDbEllipse
 10
26.2052835770553
 20
-50.7280233905708
 30
0.0
 11
-0.2364016993902184
 21
-0.8164644729534451
 31
0.0
210
0.0
220
0.0
230
0.9999999999999998
 40
0.1280545533618557
 41
1.440078277354396
 42
1.815854610802254
  0
ELLIPSE
  5
B9A
330
A8B
100
AcDbEntity
  8
FRONT
  6
Continuous
 62
     4
100
AcDbEllipse
 10
26.0231426696339
 20
-52.3055495125371
 30
0.0
 11
-1.274184406513254
 21
-0.6803081277927215
 31
0.0
210
0.0
220
0.0
230
0.9999999999999998
 40
0.9833059182784806
 41
5.425071504014952
 42
5.994214383758207
  0
ELLIPSE
  5
B9B
330
A8B
100
AcDbEntity
  8
FRONT
  6
Continuous
 62
     4
100
AcDbEllipse
 10
25.2234879207174
 20
-50.5793232584462
 30
0.0
 11
-0.0163260565688646
 21
0.8498431972198538
 31
0.0
210
0.0
220
0.0
230
1.0
 40
0.1967958030989425
 41
4.311714536223275
 42
4.876679898782334
  0
ELLIPSE
  5
B9C
330
A8B
100
AcDbEntity
  8
FRONT
  6
Continuous
 62
     4
100
AcDbEllipse
 10
25.9479661699807
 20
-52.4006989875047
 30
0.0
 11
-0.6878480648432717
 21
-0.3672534577212541
 31
0.0
210
0.0
220
0.0
230
1.0
 40
0.9833059182736951
 41
2.316816466017689
 42
2.964586872260165
  0
ELLIPSE
  5
B9D
330
A8B
100
AcDbEntity
  8
FRONT
  6
Continuous
 62
     4
100
AcDbEllipse
 10
26.009670993712
 20
-52.5162691548604
 30
0.0
 11
-0.5697208004383743
 21
-0.3041833577798674
 31
0.0
210
0.0
220
0.0
230
0.9999999999999998
 40
0.9833059182783683
 41
3.141592653589792
 42
4.211497995714275
  0
ELLIPSE
  5
B9E
330
A8B
100
AcDbEntity
  8
FRONT
  6
Continuous
 62
     4
100
AcDbEllipse
 10
26.0579228536608
 20
-50.8829274750816
 30
0.0
 11
-0.0004109759370388
 21
-0.119983668084697
 31
0.0
210
0.0
220
0.0
230
0.9999999999999998
 40
0.0873685432136738
 41
4.487162694202337
 42
4.526241732837313
  0
ELLIPSE
  5
B9F
330
A8B
100
AcDbEntity
  8
FRONT
  6
Continuous
 62
     4
100
AcDbEllipse
 10
26.0096709953839
 20
-52.5162691541967
 30
0.0
 11
-0.5697207959968914
 21
-0.3041833623035364
 31
0.0
210
0.0
220
0.0
230
1.0
 40
0.9833059196149559
 41
2.938742608956589
 42
3.141592644282478
  0
ELLIPSE
  5
BA0
330
A8B
100
AcDbEntity
  8
FRONT
  6
Continuous
 62
     4
100
AcDbEllipse
 10
26.5252157569793
 20
-51.6591724917813
 30
0.0
 11
-0.3164233418788596
 21
-0.1689436554438716
 31
0.0
210
0.0
220
0.0
230
0.9999999999999998
 40
0.9833059182783118
 41
0.0
 42
1.136764527997376
  0
ELLIPSE
  5
BA1
330
A8B
100
AcDbEntity
  8
FRONT
  6
Continuous
 62
     4
100
AcDbEllipse
 10
26.0231454039938
 20
-52.305554633871
 30
0.0
 11
-1.274168156721289
 21
-0.6802994518514309
 31
0.0
210
0.0
220
0.0
230
1.0
 40
0.9833059182777518
 41
4.211497995758451
 42
5.292715337516466
  0
ELLIPSE
  5
BA2
330
A8B
100
AcDbEntity
  8
FRONT
  6
Continuous
 62
     4
100
AcDbEllipse
 10
25.3309368729383
 20
-52.0420030047693
 30
0.0
 11
-0.1387163939551331
 21
-0.0740629769055295
 31
0.0
210
0.0
220
0.0
230
0.9999999999999998
 40
0.9833059182795551
 41
4.144638809929066
 42
6.283185307179584
  0
ELLIPSE
  5
BA3
330
A8B
100
AcDbEntity
  8
FRONT
  6
Continuous
 62
     4
100
AcDbEllipse
 10
25.0088196467355
 20
-52.5128453888212
 30
0.0
 11
-0.3164233420262994
 21
-0.1689436552114316
 31
0.0
210
0.0
220
0.0
230
0.9999999999999998
 40
0.983305918256555
 41
2.372365793430126
 42
3.141592654310951
  0
ELLIPSE
  5
BA4
330
A8B
100
AcDbEntity
  8
FRONT
  6
Continuous
 62
     4
100
AcDbEllipse
 10
26.0274507894396
 20
-52.5495698571982
 30
0.0
 11
-0.3532268962794111
 21
-0.1885936818066905
 31
0.0
210
0.0
220
0.0
230
1.0
 40
0.9833059182788758
 41
4.211497995761056
 42
5.951301366806
  0
SPLINE
  5
BA5
330
A8B
100
AcDbEntity
  8
FRONT
  6
Continuous
 62
     4
100
AcDbSpline
210
0.0
220
0.0
230
1.0
 70
    24
 71
     1
 72
     4
 73
     2
 74
     0
 42
0.0000000001
 43
0.0000000001
 40
0.0
 40
0.0
 40
1.0
 40
1.0
 10
26.1330579944581
 20
-50.8826334298217
 30
0.0
 10
26.0482439303673
 20
-50.879884884965
 30
0.0
  0
SPLINE
  5
BA6
330
A8B
100
AcDbEntity
  8
FRONT
  6
Continuous
 62
     4
100
AcDbSpline
210
0.0
220
0.0
230
1.0
 70
    24
 71
     1
 72
     4
 73
     2
 74
     0
 42
0.0000000001
 43
0.0000000001
 40
0.0
 40
0.0
 40
1.0
 40
1.0
 10
26.2781295513737
 20
-50.8644603975123
 30
0.0
 10
26.1304872061887
 20
-50.8589854033818
 30
0.0
  0
SPLINE
  5
BA7
330
A8B
100
AcDbEntity
  8
FRONT
  6
Continuous
 62
     4
100
AcDbSpline
210
0.0
220
0.0
230
1.0
 70
    24
 71
     1
 72
     4
 73
     2
 74
     0
 42
0.0000000001
 43
0.0000000001
 40
0.0
 40
0.0
 40
1.0
 40
1.0
 10
24.2572352788492
 20
-51.0536963889304
 30
0.0
 10
23.9428236140524
 20
-51.1568690313547
 30
0.0
  0
SPLINE
  5
BA8
330
A8B
100
AcDbEntity
  8
FRONT
  6
Continuous
 62
     4
100
AcDbSpline
210
0.0
220
0.0
230
1.0
 70
     8
 71
     2
 72
     6
 73
     3
 74
     0
 42
0.0000000001
 43
0.0000000001
 40
0.0
 40
0.0
 40
0.0
 40
1.0
 40
1.0
 40
1.0
 10
25.3838551416186
 20
-50.9078372056171
 30
0.0
 10
24.8096108104371
 20
-50.8876453051075
 30
0.0
 10
24.2572352788492
 20
-51.0536963889303
 30
0.0
  0
SPLINE
  5
BA9
330
A8B
100
AcDbEntity
  8
FRONT
  6
Continuous
 62
     4
100
AcDbSpline
210
0.0
220
0.0
230
1.0
 70
     8
 71
     3
 72
    11
 73
     7
 74
     0
 42
0.0000000001
 43
0.0000000001
 40
0.0
 40
0.0
 40
0.0
 40
0.0
 40
0.2500000000004002
 40
0.5000000000000384
 40
0.7500000000002445
 40
1.0
 40
1.0
 40
1.0
 40
1.0
 10
24.6838617138018
 20
-51.8024123991109
 30
0.0
 10
24.6828962178439
 20
-51.8018519026292
 30
0.0
 10
24.6807075900977
 20
-51.800676852409
 30
0.0
 10
24.6765374273852
 20
-51.7986955897984
 30
0.0
 10
24.6718229843835
 20
-51.7966651864385
 30
0.0
 10
24.6686000473366
 20
-51.7953967528366
 30
0.0
 10
24.666945011845
 20
-51.7947740007671
 30
0.0
  0
SPLINE
  5
BAA
330
A8B
100
AcDbEntity
  8
FRONT
  6
Continuous
 62
     4
100
AcDbSpline
210
0.0
220
0.0
230
1.0
 70
    24
 71
     1
 72
     4
 73
     2
 74
     0
 42
0.0000000001
 43
0.0000000001
 40
0.0
 40
0.0
 40
1.0
 40
1.0
 10
25.5733656427329
 20
-50.432613866225
 30
0.0
 10
26.0496562087108
 20
-50.4847091263383
 30
0.0
  0
SPLINE
  5
BAB
330
A8B
100
AcDbEntity
  8
FRONT
  6
Continuous
 62
     4
100
AcDbSpline
210
0.0
220
0.0
230
1.0
 70
    24
 71
     1
 72
     4
 73
     2
 74
     0
 42
0.0000000001
 43
0.0000000001
 40
0.0
 40
0.0
 40
1.0
 40
1.0
 10
26.0496493092178
 20
-50.4841977553706
 30
0.0
 10
26.36406598429
 20
-50.5593064770145
 30
0.0
  0
SPLINE
  5
BAC
330
A8B
100
AcDbEntity
  8
FRONT
  6
Continuous
 62
     4
100
AcDbSpline
210
0.0
220
0.0
230
1.0
 70
    24
 71
     1
 72
     4
 73
     2
 74
     0
 42
0.0000000001
 43
0.0000000001
 40
0.0
 40
0.0
 40
1.0
 40
1.0
 10
26.1439497484836
 20
-51.7059267711469
 30
0.0
 10
26.1515406617261
 20
-51.7208842770691
 30
0.0
  0
SPLINE
  5
BAD
330
A8B
100
AcDbEntity
  8
FRONT
  6
Continuous
 62
     4
100
AcDbSpline
210
0.0
220
0.0
230
1.0
 70
    24
 71
     1
 72
     4
 73
     2
 74
     0
 42
0.0000000001
 43
0.0000000001
 40
0.0
 40
0.0
 40
1.0
 40
1.0
 10
25.3858115134891
 20
-50.4371593503816
 30
0.0
 10
25.3890587209531
 20
-50.2854490155365
 30
0.0
  0
SPLINE
  5
BAE
330
A8B
100
AcDbEntity
  8
FRONT
  6
Continuous
 62
     4
100
AcDbSpline
210
0.0
220
0.0
230
1.0
 70
     8
 71
     3
 72
    27
 73
    23
 74
     0
 42
0.0000000001
 43
0.0000000001
 40
0.0
 40
0.0
 40
0.0
 40
0.0
 40
0.2366252197469015
 40
0.5011857703755036
 40
0.6170954909511118
 40
0.6813809129738626
 40
0.7150700700809978
 40
0.7322963567034382
 40
0.7410042896839962
 40
0.7453818723743754
 40
0.7475765575058172
 40
0.7486753722519263
 40
0.7492251475017373
 40
0.7495001270756441
 40
0.7496376398473227
 40
0.7497064019790262
 40
0.7497407844813076
 40
0.7497751679411861
 40
0.7516543580812576
 40
0.7684406215659994
 40
0.8166950275236356
 40
1.0
 40
1.0
 40
1.0
 40
1.0
 10
26.0496561951248
 20
-50.4847091296439
 30
0.0
 10
26.0500506210907
 20
-50.5137914903981
 30
0.0
 10
26.0506136332855
 20
-50.5756023382308
 30
0.0
 10
26.0505759207364
 20
-50.6527271985327
 30
0.0
 10
26.0501813337434
 20
-50.7081354260729
 30
0.0
 10
26.0499022426439
 20
-50.7347189390002
 30
0.0
 10
26.0497266150838
 20
-50.7490089034403
 30
0.0
 10
26.0496290279116
 20
-50.7563964095142
 30
0.0
 10
26.0495777072147
 20
-50.7601497911741
 30
0.0
 10
26.0495514045842
 20
-50.7620412633647
 30
0.0
 10
26.0495332631034
 20
-50.7633298344975
 30
0.0
 10
26.0495318609975
 20
-50.7634298246675
 30
0.0
 10
26.0495304588917
 20
-50.7635298148375
 30
0.0
 10
26.0495290567858
 20
-50.7636298050076
 30
0.0
 10
26.04952765468
 20
-50.7637297951776
 30
0.0
 10
26.0495262525741
 20
-50.7638297853476
 30
0.0
 10
26.0495248504683
 20
-50.7639297755176
 30
0.0
 10
26.0495214416056
 20
-50.7641708252285
 30
0.0
 10
26.0494896242753
 20
-50.7664847245588
 30
0.0
 10
26.0493730089232
 20
-50.7747612607463
 30
0.0
 10
26.048896785504
 20
-50.8054261199958
 30
0.0
 10
26.0483276251245
 20
-50.83378570698
 30
0.0
 10
26.047796595155
 20
-50.8560968902716
 30
0.0
  0
SPLINE
  5
BAF
330
A8B
100
AcDbEntity
  8
FRONT
  6
Continuous
 62
     4
100
AcDbSpline
210
0.0
220
0.0
230
1.0
 70
    24
 71
     1
 72
     4
 73
     2
 74
     0
 42
0.0000000001
 43
0.0000000001
 40
0.0
 40
0.0
 40
1.0
 40
1.0
 10
25.2159021228977
 20
-52.1532420172238
 30
0.0
 10
25.2512965158191
 20
-52.2084563318879
 30
0.0
  0
SPLINE
  5
BB0
330
A8B
100
AcDbEntity
  8
FRONT
  6
Continuous
 62
     4
100
AcDbSpline
210
0.0
220
0.0
230
1.0
 70
    24
 71
     1
 72
     4
 73
     2
 74
     0
 42
0.0000000001
 43
0.0000000001
 40
0.0
 40
0.0
 40
1.0
 40
1.0
 10
26.6886543479334
 20
-52.1582800871308
 30
0.0
 10
26.659348030709
 20
-52.2132730701307
 30
0.0
  0
SPLINE
  5
BB1
330
A8B
100
AcDbEntity
  8
FRONT
  6
Continuous
 62
     4
100
AcDbSpline
210
0.0
220
0.0
230
1.0
 70
     8
 71
     3
 72
    13
 73
     9
 74
     0
 42
0.0000000001
 43
0.0000000001
 40
0.0
 40
0.0
 40
0.0
 40
0.0
 40
0.2195179240467221
 40
0.3900257003637577
 40
0.5330606690638802
 40
0.6760211201067881
 40
0.8783846008238288
 40
1.0
 40
1.0
 40
1.0
 40
1.0
 10
25.4364538782827
 20
-51.9006309618728
 30
0.0
 10
25.4656027106163
 20
-51.9068047398365
 30
0.0
 10
25.518698254514
 20
-51.9092001944358
 30
0.0
 10
25.5972819181503
 20
-51.8943450102696
 30
0.0
 10
25.662281252167
 20
-51.8630527836969
 30
0.0
 10
25.7208973813051
 20
-51.8148780922032
 30
0.0
 10
25.7601355787737
 20
-51.7595375790586
 30
0.0
 10
25.7788163929136
 20
-51.7199759976095
 30
0.0
 10
25.7844950341222
 20
-51.7046971291551
 30
0.0
  0
SPLINE
  5
BB2
330
A8B
100
AcDbEntity
  8
FRONT
  6
Continuous
 62
     4
100
AcDbSpline
210
0.0
220
0.0
230
1.0
 70
    24
 71
     1
 72
     4
 73
     2
 74
     0
 42
0.0000000001
 43
0.0000000001
 40
0.0
 40
0.0
 40
1.0
 40
1.0
 10
26.1153470068824
 20
-51.6468890170668
 30
0.0
 10
26.1439497484836
 20
-51.7059267711469
 30
0.0
  0
SPLINE
  5
BB3
330
A8B
100
AcDbEntity
  8
FRONT
  6
Continuous
 62
     4
100
AcDbSpline
210
0.0
220
0.0
230
1.0
 70
     8
 71
     3
 72
    11
 73
     7
 74
     0
 42
0.0000000001
 43
0.0000000001
 40
0.0
 40
0.0
 40
0.0
 40
0.0
 40
0.2500000000000269
 40
0.5000000000000613
 40
0.7499999999997869
 40
1.0
 40
1.0
 40
1.0
 40
1.0
 10
24.7650972363582
 20
-51.6307832286329
 30
0.0
 10
24.7641588264252
 20
-51.6300989295915
 30
0.0
 10
24.7620324868102
 20
-51.6286367608962
 30
0.0
 10
24.7579777965472
 20
-51.6260873293145
 30
0.0
 10
24.7534077902238
 20
-51.6234081192968
 30
0.0
 10
24.7503046106702
 20
-51.6216999408822
 30
0.0
 10
24.7487149741114
 20
-51.6208516353613
 30
0.0
  0
SPLINE
  5
BB4
330
A8B
100
AcDbEntity
  8
FRONT
  6
Continuous
 62
     4
100
AcDbSpline
210
0.0
220
0.0
230
1.0
 70
     8
 71
     2
 72
     6
 73
     3
 74
     0
 42
0.0000000001
 43
0.0000000001
 40
0.0
 40
0.0
 40
0.0
 40
1.0
 40
1.0
 40
1.0
 10
24.666945011845
 20
-51.7947740007671
 30
0.0
 10
24.7019417390799
 20
-51.7049143259014
 30
0.0
 10
24.7487149741114
 20
-51.6208516353613
 30
0.0
  0
SPLINE
  5
BB5
330
A8B
100
AcDbEntity
  8
FRONT
  6
Continuous
 62
     4
100
AcDbSpline
210
0.0
220
0.0
230
1.0
 70
    24
 71
     1
 72
     4
 73
     2
 74
     0
 42
0.0000000001
 43
0.0000000001
 40
0.0
 40
0.0
 40
1.0
 40
1.0
 10
25.2432372801409
 20
-52.6039086240403
 30
0.0
 10
25.2443562903072
 20
-52.6026814515826
 30
0.0
  0
SPLINE
  5
BB6
330
A8B
100
AcDbEntity
  8
FRONT
  6
Continuous
 62
     4
100
AcDbSpline
210
0.0
220
0.0
230
1.0
 70
    24
 71
     1
 72
     4
 73
     2
 74
     0
 42
0.0000000001
 43
0.0000000001
 40
0.0
 40
0.0
 40
1.0
 40
1.0
 10
26.0496561951247
 20
-50.4847091296443
 30
0.0
 10
26.0496493092178
 20
-50.4841977553706
 30
0.0
  0
SPLINE
  5
BB7
330
A8B
100
AcDbEntity
  8
FRONT
  6
Continuous
 62
     4
100
AcDbSpline
210
0.0
220
0.0
230
1.0
 70
    24
 71
     1
 72
     4
 73
     2
 74
     0
 42
0.0000000001
 43
0.0000000001
 40
0.0
 40
0.0
 40
1.0
 40
1.0
 10
26.0476972111969
 20
-50.8606863216123
 30
0.0
 10
26.1335190082292
 20
-50.8639657059999
 30
0.0
  0
SPLINE
  5
BB8
330
A8B
100
AcDbEntity
  8
FRONT
  6
Continuous
 62
     4
100
AcDbSpline
210
0.0
220
0.0
230
1.0
 70
     8
 71
     3
 72
    13
 73
     9
 74
     0
 42
0.0000000001
 43
0.0000000001
 40
0.0
 40
0.0
 40
0.0
 40
0.0
 40
0.1870906036410149
 40
0.3646813612908705
 40
0.5136542261935185
 40
0.6625496942781221
 40
0.8732997954630318
 40
1.0
 40
1.0
 40
1.0
 40
1.0
 10
26.1515406617261
 20
-51.7208842770691
 30
0.0
 10
26.1631522648019
 20
-51.7437059172542
 30
0.0
 10
26.1908020990554
 20
-51.785643338667
 30
0.0
 10
26.2436531117259
 20
-51.8410984242255
 30
0.0
 10
26.3037611395363
 20
-51.8808820109548
 30
0.0
 10
26.3714823765034
 20
-51.9064289527809
 30
0.0
 10
26.432636273737
 20
-51.9115943603725
 30
0.0
 10
26.4710865675369
 20
-51.9072273320764
 30
0.0
 10
26.4850506788111
 20
-51.904218058124
 30
0.0
  0
SPLINE
  5
BB9
330
A8B
100
AcDbEntity
  8
FRONT
  6
Continuous
 62
     4
100
AcDbSpline
210
0.0
220
0.0
230
1.0
 70
    24
 71
     1
 72
     4
 73
     2
 74
     0
 42
0.0000000001
 43
0.0000000001
 40
0.0
 40
0.0
 40
1.0
 40
1.0
 10
25.8071451311125
 20
-51.6458347035379
 30
0.0
 10
25.7844950341222
 20
-51.7046971291551
 30
0.0
  0
SPLINE
  5
BBA
330
A8B
100
AcDbEntity
  8
FRONT
  6
Continuous
 62
     4
100
AcDbSpline
210
0.0
220
0.0
230
1.0
 70
    24
 71
     1
 72
     4
 73
     2
 74
     0
 42
0.0000000001
 43
0.0000000001
 40
0.0
 40
0.0
 40
1.0
 40
1.0
 10
24.2572352788492
 20
-51.0536963889304
 30
0.0
 10
24.7246510060436
 20
-51.6084085819396
 30
0.0
  0
SPLINE
  5
BBB
330
A8B
100
AcDbEntity
  8
FRONT
  6
Continuous
 62
     4
100
AcDbSpline
210
0.0
220
0.0
230
1.0
 70
    24
 71
     1
 72
     4
 73
     2
 74
     0
 42
0.0000000001
 43
0.0000000001
 40
0.0
 40
0.0
 40
1.0
 40
1.0
 10
26.1304872061887
 20
-50.8589854033818
 30
0.0
 10
26.0477965951548
 20
-50.8560968902655
 30
0.0
  0
SPLINE
  5
BBC
330
A8B
100
AcDbEntity
  8
FRONT
  6
Continuous
 62
     4
100
AcDbSpline
210
0.0
220
0.0
230
1.0
 70
    24
 71
     1
 72
     4
 73
     2
 74
     0
 42
0.0000000001
 43
0.0000000001
 40
0.0
 40
0.0
 40
1.0
 40
1.0
 10
25.3746588289414
 20
-51.8893079174396
 30
0.0
 10
25.4364538782827
 20
-51.9006309618728
 30
0.0
  0
SPLINE
  5
BBD
330
A8B
100
AcDbEntity
  8
FRONT
  6
Continuous
 62
     4
100
AcDbSpline
210
0.0
220
0.0
230
1.0
 70
    24
 71
     1
 72
     4
 73
     2
 74
     0
 42
0.0000000001
 43
0.0000000001
 40
0.0
 40
0.0
 40
1.0
 40
1.0
 10
25.2692644033182
 20
-52.2390567649114
 30
0.0
 10
25.2512965158191
 20
-52.2084563318879
 30
0.0
  0
SPLINE
  5
BBE
330
A8B
100
AcDbEntity
  8
FRONT
  6
Continuous
 62
     4
100
AcDbSpline
210
0.0
220
0.0
230
1.0
 70
    24
 71
     1
 72
     4
 73
     2
 74
     0
 42
0.0000000001
 43
0.0000000001
 40
0.0
 40
0.0
 40
1.0
 40
1.0
 10
26.5655515082301
 20
-50.9457510644262
 30
0.0
 10
26.2781295513737
 20
-50.8644603975123
 30
0.0
  0
SPLINE
  5
BBF
330
A8B
100
AcDbEntity
  8
FRONT
  6
Continuous
 62
     4
100
AcDbSpline
210
0.0
220
0.0
230
1.0
 70
    24
 71
     1
 72
     4
 73
     2
 74
     0
 42
0.0000000001
 43
0.0000000001
 40
0.0
 40
0.0
 40
1.0
 40
1.0
 10
26.0466999264099
 20
-50.2652213078419
 30
0.0
 10
25.3890587209343
 20
-50.2854490164175
 30
0.0
  0
SPLINE
  5
BC0
330
A8B
100
AcDbEntity
  8
FRONT
  6
Continuous
 62
     4
100
AcDbSpline
210
0.0
220
0.0
230
1.0
 70
     8
 71
     3
 72
    13
 73
     9
 74
     0
 42
0.0000000001
 43
0.0000000001
 40
0.0
 40
0.0
 40
0.0
 40
0.0
 40
0.2347537562056165
 40
0.4839866866904262
 40
0.5952214255276555
 40
0.7119727950652918
 40
0.96740910102467
 40
1.0
 40
1.0
 40
1.0
 40
1.0
 10
24.7246510060249
 20
-51.6084085819206
 30
0.0
 10
24.6906884651483
 20
-51.6685954756528
 30
0.0
 10
24.6073226620438
 20
-51.7764956374964
 30
0.0
 10
24.4615571247181
 20
-51.8710885722001
 30
0.0
 10
24.3353841899615
 20
-51.9190208368531
 30
0.0
 10
24.2023231550556
 20
-51.9488034739189
 30
0.0
 10
24.0879918213725
 20
-51.9504896887182
 30
0.0
 10
24.0087514912717
 20
-51.9420287118052
 30
0.0
 10
23.9997899568164
 20
-51.9409287292737
 30
0.0
  0
SPLINE
  5
BC1
330
A8B
100
AcDbEntity
  8
FRONT
  6
Continuous
 62
     4
100
AcDbSpline
210
0.0
220
0.0
230
1.0
 70
    24
 71
     1
 72
     4
 73
     2
 74
     0
 42
0.0000000001
 43
0.0000000001
 40
0.0
 40
0.0
 40
1.0
 40
1.0
 10
26.6383786756514
 20
-52.5842748610279
 30
0.0
 10
26.6524078051971
 20
-52.6074981898255
 30
0.0
  0
SPLINE
  5
BC2
330
A8B
100
AcDbEntity
  8
FRONT
  6
Continuous
 62
     4
100
AcDbSpline
210
0.0
220
0.0
230
1.0
 70
     8
 71
     3
 72
    13
 73
     9
 74
     0
 42
0.0000000001
 43
0.0000000001
 40
0.0
 40
0.0
 40
0.0
 40
0.0
 40
0.2396506614303369
 40
0.4258576417570409
 40
0.5820550163389703
 40
0.7381714217428096
 40
0.9591299429654435
 40
1.0
 40
1.0
 40
1.0
 40
1.0
 10
25.2443562903072
 20
-52.6026814515826
 30
0.0
 10
25.2624869909009
 20
-52.5841481257643
 30
0.0
 10
25.2886139502269
 20
-52.5447552003019
 30
0.0
 10
25.3127979431357
 20
-52.4749517087504
 30
0.0
 10
25.318176235157
 20
-52.4047936768452
 30
0.0
 10
25.3076662353373
 20
-52.3284877204188
 30
0.0
 10
25.2873446339005
 20
-52.2742535263017
 30
0.0
 10
25.2717885753982
 20
-52.2437459826163
 30
0.0
 10
25.2692644033182
 20
-52.2390567649114
 30
0.0
  0
SPLINE
  5
BC3
330
A8B
100
AcDbEntity
  8
FRONT
  6
Continuous
 62
     4
100
AcDbSpline
210
0.0
220
0.0
230
1.0
 70
    24
 71
     1
 72
     4
 73
     2
 74
     0
 42
0.0000000001
 43
0.0000000001
 40
0.0
 40
0.0
 40
1.0
 40
1.0
 10
24.7650972363582
 20
-51.6307832286329
 30
0.0
 10
24.6838617138018
 20
-51.8024123991109
 30
0.0
  0
SPLINE
  5
BC4
330
A8B
100
AcDbEntity
  8
FRONT
  6
Continuous
 62
     4
100
AcDbSpline
210
0.0
220
0.0
230
1.0
 70
    24
 71
     1
 72
     4
 73
     2
 74
     0
 42
0.0000000001
 43
0.0000000001
 40
0.0
 40
0.0
 40
1.0
 40
1.0
 10
25.5509997010501
 20
-50.9165181940175
 30
0.0
 10
25.3838551415027
 20
-50.9078372065764
 30
0.0
  0
SPLINE
  5
BC5
330
A8B
100
AcDbEntity
  8
FRONT
  6
Continuous
 62
     4
100
AcDbSpline
210
0.0
220
0.0
230
1.0
 70
     8
 71
     3
 72
    11
 73
     7
 74
     0
 42
0.0000000001
 43
0.0000000001
 40
0.0
 40
0.0
 40
0.0
 40
0.0
 40
0.1281905622924043
 40
0.421624799894869
 40
0.7263899413642454
 40
1.0
 40
1.0
 40
1.0
 40
1.0
 10
24.179098903463
 20
-52.5280623118869
 30
0.0
 10
24.2072850394382
 20
-52.5023740870457
 30
0.0
 10
24.2967409402841
 20
-52.4151346864885
 30
0.0
 10
24.4336904498914
 20
-52.2475799610689
 30
0.0
 10
24.5636526868483
 20
-52.0240485871203
 30
0.0
 10
24.6362823427244
 20
-51.8697554170413
 30
0.0
 10
24.6669449788853
 20
-51.7947740735282
 30
0.0
  0
SPLINE
  5
BC6
330
A8B
100
AcDbEntity
  8
FRONT
  6
Continuous
 62
     4
100
AcDbSpline
210
0.0
220
0.0
230
1.0
 70
    24
 71
     1
 72
     4
 73
     2
 74
     0
 42
0.0000000001
 43
0.0000000001
 40
0.0
 40
0.0
 40
1.0
 40
1.0
 10
26.6728712468038
 20
-52.6376243740272
 30
0.0
 10
26.6524078051971
 20
-52.6074981898255
 30
0.0
  0
SPLINE
  5
BC7
330
A8B
100
AcDbEntity
  8
FRONT
  6
Continuous
 62
     4
100
AcDbSpline
210
0.0
220
0.0
230
1.0
 70
     8
 71
     2
 72
     6
 73
     3
 74
     0
 42
0.0000000001
 43
0.0000000001
 40
0.0
 40
0.0
 40
0.0
 40
1.0
 40
1.0
 40
1.0
 10
26.047796595155
 20
-50.8560968902716
 30
0.0
 10
25.7951422295114
 20
-50.8469982072528
 30
0.0
 10
25.5509997010501
 20
-50.9165181940175
 30
0.0
  0
SPLINE
  5
BC8
330
A8B
100
AcDbEntity
  8
FRONT
  6
Continuous
 62
     4
100
AcDbSpline
210
0.0
220
0.0
230
1.0
 70
    24
 71
     1
 72
     4
 73
     2
 74
     0
 42
0.0000000001
 43
0.0000000001
 40
0.0
 40
0.0
 40
1.0
 40
1.0
 10
25.3858112889451
 20
-50.4371593381001
 30
0.0
 10
25.5733656427329
 20
-50.432613866225
 30
0.0
  0
SPLINE
  5
BC9
330
A8B
100
AcDbEntity
  8
FRONT
  6
Continuous
 62
     4
100
AcDbSpline
210
0.0
220
0.0
230
1.0
 70
    24
 71
     1
 72
     4
 73
     2
 74
     0
 42
0.0000000001
 43
0.0000000001
 40
0.0
 40
0.0
 40
1.0
 40
1.0
 10
24.7513516953053
 20
-51.6222614913077
 30
0.0
 10
24.7246510060249
 20
-51.6084085819206
 30
0.0
  0
SPLINE
  5
BCA
330
A8B
100
AcDbEntity
  8
FRONT
  6
Continuous
 62
     4
100
AcDbSpline
210
0.0
220
0.0
230
1.0
 70
     8
 71
     3
 72
    10
 73
     6
 74
     0
 42
0.0000000001
 43
0.0000000001
 40
0.0
 40
0.0
 40
0.0
 40
0.0
 40
0.4926947242044152
 40
0.9999538112423723
 40
1.0
 40
1.0
 40
1.0
 40
1.0
 10
24.1511495153833
 20
-50.7224202486634
 30
0.0
 10
24.3460422348738
 20
-50.6400344285164
 30
0.0
 10
24.7485327631643
 20
-50.5093153806173
 30
0.0
 10
25.1708199752878
 20
-50.4468493954942
 30
0.0
 10
25.3857115718718
 20
-50.4371660912902
 30
0.0
 10
25.3858114704999
 20
-50.4371615897237
 30
0.0
  0
SPLINE
  5
BCB
330
A8B
100
AcDbEntity
  8
FRONT
  6
Continuous
 62
     4
100
AcDbSpline
210
0.0
220
0.0
230
1.0
 70
     8
 71
     2
 72
     6
 73
     3
 74
     0
 42
0.0000000001
 43
0.0000000001
 40
0.0
 40
0.0
 40
0.0
 40
1.0
 40
1.0
 40
1.0
 10
23.9998745339154
 20
-51.9409433028118
 30
0.0
 10
24.0239310877526
 20
-51.997634317796
 30
0.0
 10
24.0535883929411
 20
-52.0531703958414
 30
0.0
  0
SPLINE
  5
BCC
330
A8B
100
AcDbEntity
  8
FRONT
  6
Continuous
 62
     4
100
AcDbSpline
210
0.0
220
0.0
230
1.0
 70
     8
 71
     3
 72
    11
 73
     7
 74
     0
 42
0.0000000001
 43
0.0000000001
 40
0.0
 40
0.0
 40
0.0
 40
0.0
 40
0.3213498426608201
 40
0.6577811939102644
 40
0.9998827329771151
 40
1.0
 40
1.0
 40
1.0
 40
1.0
 10
24.0535883929418
 20
-52.0531703958387
 30
0.0
 10
24.0771751633398
 20
-52.0992281766215
 30
0.0
 10
24.1186867263331
 20
-52.1967557443232
 30
0.0
 10
24.1578754622826
 20
-52.3579364192265
 30
0.0
 10
24.1736302000995
 20
-52.4705596678983
 30
0.0
 10
24.1789878971945
 20
-52.5277628955641
 30
0.0
 10
24.178997222457
 20
-52.5278624598121
 30
0.0
  0
SPLINE
  5
BCD
330
A8B
100
AcDbEntity
  8
FRONT
  6
Continuous
 62
     4
100
AcDbSpline
210
0.0
220
0.0
230
1.0
 70
    24
 71
     1
 72
     4
 73
     2
 74
     0
 42
0.0000000001
 43
0.0000000001
 40
0.0
 40
0.0
 40
1.0
 40
1.0
 10
26.5392091782071
 20
-51.8932916738176
 30
0.0
 10
26.4850506788111
 20
-51.904218058124
 30
0.0
  0
SPLINE
  5
BCE
330
A8B
100
AcDbEntity
  8
FRONT
  6
Continuous
 62
     4
100
AcDbSpline
210
0.0
220
0.0
230
1.0
 70
     8
 71
     3
 72
    13
 73
     9
 74
     0
 42
0.0000000001
 43
0.0000000001
 40
0.0
 40
0.0
 40
0.0
 40
0.0
 40
0.2396506614303343
 40
0.4258576417570496
 40
0.5820550163389778
 40
0.7381714217428188
 40
0.9591299429654512
 40
1.0
 40
1.0
 40
1.0
 40
1.0
 10
26.6593480307091
 20
-52.2132730701307
 30
0.0
 10
26.6450246635174
 20
-52.2389373483108
 30
0.0
 10
26.6243898186017
 20
-52.2886167399403
 30
0.0
 10
26.6055537040833
 20
-52.3684365505297
 30
0.0
 10
26.6011542454684
 20
-52.4404278903315
 30
0.0
 10
26.6088725186364
 20
-52.5115050769974
 30
0.0
 10
26.6243536349952
 20
-52.5566732753495
 30
0.0
 10
26.6364184058241
 20
-52.5806418051234
 30
0.0
 10
26.6383786756514
 20
-52.5842748610279
 30
0.0
  0
LINE
  5
BCF
330
A8B
100
AcDbEntity
  8
FRONT
  6
Continuous
 62
     4
100
AcDbLine
 10
29.3388378410402
 20
-51.8899740592577
 30
0.0
 11
28.281373807709
 21
-52.4455340454162
 31
0.0
  0
LINE
  5
BD0
330
A8B
100
AcDbEntity
  8
FRONT
  6
Continuous
 62
     4
100
AcDbLine
 10
29.4360980615203
 20
-51.4918912919834
 30
0.0
 11
29.4391654471337
 21
-50.6184123098167
 31
0.0
  0
LINE
  5
BD1
330
A8B
100
AcDbEntity
  8
FRONT
  6
Continuous
 62
     4
100
AcDbLine
 10
28.1514134608994
 20
-51.5819287178842
 30
0.0
 11
28.1505853377892
 21
-51.8177478233307
 31
0.0
  0
LINE
  5
BD2
330
A8B
100
AcDbEntity
  8
FRONT
  6
Continuous
 62
     4
100
AcDbLine
 10
27.8386475024819
 20
-51.8309857693593
 30
0.0
 11
27.8394754546662
 21
-51.5952153373502
 31
0.0
  0
LINE
  5
BD3
330
A8B
100
AcDbEntity
  8
FRONT
  6
Continuous
 62
     4
100
AcDbLine
 10
29.1042335773994
 20
-51.3167295512209
 30
0.0
 11
29.1058270814623
 21
-50.8629580068511
 31
0.0
  0
LINE
  5
BD4
330
A8B
100
AcDbEntity
  8
FRONT
  6
Continuous
 62
     4
100
AcDbLine
 10
27.0810977238909
 20
-51.9023730804329
 30
0.0
 11
27.0449825309802
 21
-51.8347310609428
 31
0.0
  0
LINE
  5
BD5
330
A8B
100
AcDbEntity
  8
FRONT
  6
Continuous
 62
     4
100
AcDbLine
 10
28.1505853377892
 20
-51.8177478233307
 30
0.0
 11
29.1042335773994
 21
-51.3167295512209
 31
0.0
  0
LINE
  5
BD6
330
A8B
100
AcDbEntity
  8
FRONT
  6
Continuous
 62
     4
100
AcDbLine
 10
29.2679235007374
 20
-50.7438524040163
 30
0.0
 11
29.2659465345
 21
-51.3068199170231
 31
0.0
  0
ELLIPSE
  5
BD7
330
A8B
100
AcDbEntity
  8
FRONT
  6
Continuous
 62
     4
100
AcDbEllipse
 10
26.0364263472569
 20
-52.3304292020315
 30
0.0
 11
-1.151135430529534
 21
-0.6146102435097502
 31
0.0
210
0.0
220
0.0
230
0.9999999999999998
 40
0.9833059182658811
 41
2.387532948130643
 42
2.854453357321848
  0
ELLIPSE
  5
BD8
330
A8B
100
AcDbEntity
  8
FRONT
  6
Continuous
 62
     4
100
AcDbEllipse
 10
34.7834598073273
 20
-48.7908516106949
 30
0.0
 11
-5.502211667105154
 21
-2.588827676295629
 31
0.0
210
0.0
220
0.0
230
1.0
 40
0.1586239430231971
 41
6.208012116159168
 42
6.457681703334741
  0
ELLIPSE
  5
BD9
330
A8B
100
AcDbEntity
  8
FRONT
  6
Continuous
 62
     4
100
AcDbEllipse
 10
35.4284872033041
 20
-48.9344002888785
 30
0.0
 11
-7.504621521697405
 21
-3.321134711197779
 31
0.0
210
0.0
220
0.0
230
1.0
 40
0.3415132911448714
 41
6.131781412421299
 42
6.217369236841816
  0
ELLIPSE
  5
BDA
330
A8B
100
AcDbEntity
  8
FRONT
  6
Continuous
 62
     4
100
AcDbEllipse
 10
27.765801528015
 20
-51.6945487624449
 30
0.0
 11
-0.8499947589592117
 21
0.0029849163490714
 31
0.0
210
0.0
220
0.0
230
1.0
 40
0.1608116416914428
 41
1.657167966400878
 42
2.041140401843712
  0
ELLIPSE
  5
BDB
330
A8B
100
AcDbEntity
  8
FRONT
  6
Continuous
 62
     4
100
AcDbEllipse
 10
35.3556411238151
 20
-48.7979633272235
 30
0.0
 11
-7.163008401427503
 21
-3.337131822624029
 31
0.0
210
0.0
220
0.0
230
1.0
 40
0.2488347320293084
 41
6.1272315578895
 42
6.212819382930589
  0
ELLIPSE
  5
BDC
330
A8B
100
AcDbEntity
  8
FRONT
  6
Continuous
 62
     4
100
AcDbEllipse
 10
29.5569204109338
 20
-51.4616696222523
 30
0.0
 11
-0.9999938318006432
 21
0.0035116660557411
 31
0.0
210
0.0
220
0.0
230
1.0
 40
0.1608116414610818
 41
5.008200129322958
 42
5.18273305487219
  0
ELLIPSE
  5
BDD
330
A8B
100
AcDbEntity
  8
FRONT
  6
Continuous
 62
     4
100
AcDbEllipse
 10
28.0028188413803
 20
-52.5625374202235
 30
0.0
 11
-0.7801070765252688
 21
-0.3375395473105581
 31
0.0
210
0.0
220
0.0
230
1.0
 40
0.0040693916708658
 41
1.563153189442481
 42
1.934167124601573
  0
ELLIPSE
  5
BDE
330
A8B
100
AcDbEntity
  8
FRONT
  6
Continuous
 62
     4
100
AcDbEllipse
 10
25.9561707113749
 20
-52.4160656988785
 30
0.0
 11
-1.088811819437994
 21
-0.5813346382489481
 31
0.0
210
0.0
220
0.0
230
1.0
 40
0.983305918289052
 41
2.448217296598584
 42
3.141592653297247
  0
ELLIPSE
  5
BDF
330
A8B
100
AcDbEntity
  8
FRONT
  6
Continuous
 62
     4
100
AcDbEllipse
 10
35.0744336863591
 20
-48.9457013160341
 30
0.0
 11
-5.931785057190547
 21
-2.503957966687563
 31
0.0
210
0.0
220
0.0
230
0.9999999999999998
 40
0.3000603614080196
 41
6.212003631040982
 42
6.468355228140294
  0
ELLIPSE
  5
BE0
330
A8B
100
AcDbEntity
  8
FRONT
  6
Continuous
 62
     4
100
AcDbEllipse
 10
25.9922859043044
 20
-52.4837077183627
 30
0.0
 11
-1.088811819366767
 21
-0.5813346383414362
 31
0.0
210
0.0
220
0.0
230
1.0
 40
0.9833059182967726
 41
2.505541426623854
 42
3.141592653205357
  0
ELLIPSE
  5
BE1
330
A8B
100
AcDbEntity
  8
FRONT
  6
Continuous
 62
     4
100
AcDbEllipse
 10
28.8780942339521
 20
-52.2010853022317
 30
0.0
 11
-0.6378475908704978
 21
-2.576716806991784
 31
0.0
210
0.0
220
0.0
230
1.0
 40
0.1420508862706076
 41
1.726905085211521
 42
1.739170856938258
  0
SPLINE
  5
BE2
330
A8B
100
AcDbEntity
  8
FRONT
  6
Continuous
 62
     4
100
AcDbSpline
210
0.0
220
0.0
230
1.0
 70
    24
 71
     1
 72
     4
 73
     2
 74
     0
 42
0.0000000001
 43
0.0000000001
 40
0.0
 40
0.0
 40
1.0
 40
1.0
 10
27.9365178334275
 20
-50.7201234148665
 30
0.0
 10
29.0354615231527
 20
-50.2205591120067
 30
0.0
  0
SPLINE
  5
BE3
330
A8B
100
AcDbEntity
  8
FRONT
  6
Continuous
 62
     4
100
AcDbSpline
210
0.0
220
0.0
230
1.0
 70
    24
 71
     1
 72
     4
 73
     2
 74
     0
 42
0.0000000001
 43
0.0000000001
 40
0.0
 40
0.0
 40
1.0
 40
1.0
 10
29.1175822923248
 20
-50.8542960657358
 30
0.0
 10
29.2136798636388
 20
-50.7836485087862
 30
0.0
  0
SPLINE
  5
BE4
330
A8B
100
AcDbEntity
  8
FRONT
  6
Continuous
 62
     4
100
AcDbSpline
210
0.0
220
0.0
230
1.0
 70
    24
 71
     1
 72
     4
 73
     2
 74
     0
 42
0.0000000001
 43
0.0000000001
 40
0.0
 40
0.0
 40
1.0
 40
1.0
 10
28.3407629922955
 20
-52.6123009126981
 30
0.0
 10
28.358993988537
 20
-52.6772643679444
 30
0.0
  0
SPLINE
  5
BE5
330
A8B
100
AcDbEntity
  8
FRONT
  6
Continuous
 62
     4
100
AcDbSpline
210
0.0
220
0.0
230
1.0
 70
    24
 71
     1
 72
     4
 73
     2
 74
     0
 42
0.0000000001
 43
0.0000000001
 40
0.0
 40
0.0
 40
1.0
 40
1.0
 10
28.0479451632093
 20
-52.6695997809302
 30
0.0
 10
27.9982299743987
 20
-52.5682917247423
 30
0.0
  0
SPLINE
  5
BE6
330
A8B
100
AcDbEntity
  8
FRONT
  6
Continuous
 62
     4
100
AcDbSpline
210
0.0
220
0.0
230
1.0
 70
     8
 71
     2
 72
     6
 73
     3
 74
     0
 42
0.0000000001
 43
0.0000000001
 40
0.0
 40
0.0
 40
0.0
 40
1.0
 40
1.0
 40
1.0
 10
29.4068110177053
 20
-51.6740830331483
 30
0.0
 10
29.4350684872595
 20
-51.608433595584
 30
0.0
 10
29.4357631967933
 20
-51.5380016646152
 30
0.0
  0
SPLINE
  5
BE7
330
A8B
100
AcDbEntity
  8
FRONT
  6
Continuous
 62
     4
100
AcDbSpline
210
0.0
220
0.0
230
1.0
 70
    24
 71
     1
 72
     4
 73
     2
 74
     0
 42
0.0000000001
 43
0.0000000001
 40
0.0
 40
0.0
 40
1.0
 40
1.0
 10
28.1519754797117
 20
-52.0015197623848
 30
0.0
 10
28.281373807709
 20
-52.4455340454162
 30
0.0
  0
SPLINE
  5
BE8
330
A8B
100
AcDbEntity
  8
FRONT
  6
Continuous
 62
     4
100
AcDbSpline
210
0.0
220
0.0
230
1.0
 70
    24
 71
     1
 72
     4
 73
     2
 74
     0
 42
0.0000000001
 43
0.0000000001
 40
0.0
 40
0.0
 40
1.0
 40
1.0
 10
27.8655184350618
 20
-52.0797843310223
 30
0.0
 10
28.1519754797117
 20
-52.0015197623848
 30
0.0
  0
SPLINE
  5
BE9
330
A8B
100
AcDbEntity
  8
FRONT
  6
Continuous
 62
     4
100
AcDbSpline
210
0.0
220
0.0
230
1.0
 70
    24
 71
     1
 72
     4
 73
     2
 74
     0
 42
0.0000000001
 43
0.0000000001
 40
0.0
 40
0.0
 40
1.0
 40
1.0
 10
27.9337078215532
 20
-50.7214484271668
 30
0.0
 10
27.9353076573692
 20
-50.7207029488231
 30
0.0
  0
SPLINE
  5
BEA
330
A8B
100
AcDbEntity
  8
FRONT
  6
Continuous
 62
     4
100
AcDbSpline
210
0.0
220
0.0
230
1.0
 70
    24
 71
     1
 72
     4
 73
     2
 74
     0
 42
0.0000000001
 43
0.0000000001
 40
0.0
 40
0.0
 40
1.0
 40
1.0
 10
28.281373807709
 20
-52.4455340454162
 30
0.0
 10
28.3407576779211
 20
-52.6123022999803
 30
0.0
  0
SPLINE
  5
BEB
330
A8B
100
AcDbEntity
  8
FRONT
  6
Continuous
 62
     4
100
AcDbSpline
210
0.0
220
0.0
230
1.0
 70
     8
 71
     3
 72
    12
 73
     8
 74
     0
 42
0.0000000001
 43
0.0000000001
 40
0.0
 40
0.0
 40
0.0
 40
0.0
 40
0.1495624586559048
 40
0.3981305669337531
 40
0.6362518309539893
 40
0.8431419366934655
 40
1.0
 40
1.0
 40
1.0
 40
1.0
 10
28.9264566395901
 20
-52.7324533185954
 30
0.0
 10
28.9291654790462
 20
-52.7295431284791
 30
0.0
 10
28.9313464751674
 20
-52.7218335146647
 30
0.0
 10
28.9136582253671
 20
-52.7090461241783
 30
0.0
 10
28.8653849196286
 20
-52.6966515783319
 30
0.0
 10
28.8014146163829
 20
-52.6888185638866
 30
0.0
 10
28.7580228802968
 20
-52.6866678186048
 30
0.0
 10
28.7380150721504
 20
-52.6861439083989
 30
0.0
  0
SPLINE
  5
BEC
330
A8B
100
AcDbEntity
  8
FRONT
  6
Continuous
 62
     4
100
AcDbSpline
210
0.0
220
0.0
230
1.0
 70
    24
 71
     1
 72
     4
 73
     2
 74
     0
 42
0.0000000001
 43
0.0000000001
 40
0.0
 40
0.0
 40
1.0
 40
1.0
 10
27.8394183946196
 20
-51.5952159311485
 30
0.0
 10
28.1513411927589
 20
-51.5819827258131
 30
0.0
  0
SPLINE
  5
BED
330
A8B
100
AcDbEntity
  8
FRONT
  6
Continuous
 62
     4
100
AcDbSpline
210
0.0
220
0.0
230
1.0
 70
     8
 71
     3
 72
    11
 73
     7
 74
     0
 42
0.0000000001
 43
0.0000000001
 40
0.0
 40
0.0
 40
0.0
 40
0.0
 40
0.0001349180935091
 40
0.1930788600656165
 40
0.9998650818819635
 40
1.0
 40
1.0
 40
1.0
 40
1.0
 10
27.6372412526305
 20
-50.8604800260523
 30
0.0
 10
27.6372878067899
 20
-50.8605685286525
 30
0.0
 10
27.6504544999557
 20
-50.8855993068064
 30
0.0
 10
27.7642423078193
 20
-50.9873555120212
 30
0.0
 10
27.8757907271244
 20
-51.0816973927866
 30
0.0
 10
27.946793002177
 20
-51.1750894930829
 30
0.0
 10
27.9468535236212
 20
-51.1751690993313
 30
0.0
  0
SPLINE
  5
BEE
330
A8B
100
AcDbEntity
  8
FRONT
  6
Continuous
 62
     4
100
AcDbSpline
210
0.0
220
0.0
230
1.0
 70
    24
 71
     1
 72
     4
 73
     2
 74
     0
 42
0.0000000001
 43
0.0000000001
 40
0.0
 40
0.0
 40
1.0
 40
1.0
 10
28.8994003463711
 20
-51.0157876428062
 30
0.0
 10
29.1058270814623
 20
-50.8629580068511
 30
0.0
  0
SPLINE
  5
BEF
330
A8B
100
AcDbEntity
  8
FRONT
  6
Continuous
 62
     4
100
AcDbSpline
210
0.0
220
0.0
230
1.0
 70
     8
 71
     3
 72
    11
 73
     7
 74
     0
 42
0.0000000001
 43
0.0000000001
 40
0.0
 40
0.0
 40
0.0
 40
0.0
 40
0.0001278625790222
 40
0.8000466519499596
 40
0.9998721041576972
 40
1.0
 40
1.0
 40
1.0
 40
1.0
 10
27.9468535236212
 20
-51.1751690993313
 30
0.0
 10
27.9469158124302
 20
-51.1752473304266
 30
0.0
 10
28.0232553737542
 20
-51.2711253467071
 30
0.0
 10
28.0970789303459
 20
-51.4097425617943
 30
0.0
 10
28.142450435769
 20
-51.5534461150949
 30
0.0
 10
28.1513017654047
 20
-51.5818841346895
 30
0.0
 10
28.1513314841395
 20
-51.5819796166082
 30
0.0
  0
SPLINE
  5
BF0
330
A8B
100
AcDbEntity
  8
FRONT
  6
Continuous
 62
     4
100
AcDbSpline
210
0.0
220
0.0
230
1.0
 70
    24
 71
     1
 72
     4
 73
     2
 74
     0
 42
0.0000000001
 43
0.0000000001
 40
0.0
 40
0.0
 40
1.0
 40
1.0
 10
28.3866791684394
 20
-51.4016193687527
 30
0.0
 10
28.8994003463711
 20
-51.0157876428062
 30
0.0
  0
SPLINE
  5
BF1
330
A8B
100
AcDbEntity
  8
FRONT
  6
Continuous
 62
     4
100
AcDbSpline
210
0.0
220
0.0
230
1.0
 70
    24
 71
     1
 72
     4
 73
     2
 74
     0
 42
0.0000000001
 43
0.0000000001
 40
0.0
 40
0.0
 40
1.0
 40
1.0
 10
29.4360980615203
 20
-51.4918912919834
 30
0.0
 10
29.4357631967933
 20
-51.5380016646162
 30
0.0
  0
SPLINE
  5
BF2
330
A8B
100
AcDbEntity
  8
FRONT
  6
Continuous
 62
     4
100
AcDbSpline
210
0.0
220
0.0
230
1.0
 70
    24
 71
     1
 72
     4
 73
     2
 74
     0
 42
0.0000000001
 43
0.0000000001
 40
0.0
 40
0.0
 40
1.0
 40
1.0
 10
29.1058270814623
 20
-50.8629580068511
 30
0.0
 10
29.1175519655045
 20
-50.8543184053092
 30
0.0
  0
SPLINE
  5
BF3
330
A8B
100
AcDbEntity
  8
FRONT
  6
Continuous
 62
     4
100
AcDbSpline
210
0.0
220
0.0
230
1.0
 70
     8
 71
     2
 72
     6
 73
     3
 74
     0
 42
0.0000000001
 43
0.0000000001
 40
0.0
 40
0.0
 40
0.0
 40
1.0
 40
1.0
 40
1.0
 10
28.8994003330553
 20
-51.0157876515239
 30
0.0
 10
29.0081752216986
 20
-50.934889174791
 30
0.0
 10
29.1175518824639
 20
-50.8543184638578
 30
0.0
  0
SPLINE
  5
BF4
330
A8B
100
AcDbEntity
  8
FRONT
  6
Continuous
 62
     4
100
AcDbSpline
210
0.0
220
0.0
230
1.0
 70
    24
 71
     1
 72
     4
 73
     2
 74
     0
 42
0.0000000001
 43
0.0000000001
 40
0.0
 40
0.0
 40
1.0
 40
1.0
 10
27.637241252508
 20
-50.8604800261101
 30
0.0
 10
27.9337030496781
 20
-50.7214349839855
 30
0.0
  0
SPLINE
  5
BF5
330
A8B
100
AcDbEntity
  8
FRONT
  6
Continuous
 62
     4
100
AcDbSpline
210
0.0
220
0.0
230
1.0
 70
     8
 71
     3
 72
    11
 73
     7
 74
     0
 42
0.0000000001
 43
0.0000000001
 40
0.0
 40
0.0
 40
0.0
 40
0.0
 40
0.1632580369825384
 40
0.5369633765782555
 40
0.9250992724447831
 40
1.0
 40
1.0
 40
1.0
 40
1.0
 10
27.865472412866
 20
-52.0798264306707
 30
0.0
 10
27.8372862768908
 20
-52.1055146555119
 30
0.0
 10
27.7477830498942
 20
-52.1927304466025
 30
0.0
 10
27.6112883510186
 20
-52.3605120622001
 30
0.0
 10
27.5119301974544
 20
-52.5282628987195
 30
0.0
 10
27.4645076613553
 20
-52.6245557607924
 30
0.0
 10
27.45704093172
 20
-52.640245556381
 30
0.0
  0
SPLINE
  5
BF6
330
A8B
100
AcDbEntity
  8
FRONT
  6
Continuous
 62
     4
100
AcDbSpline
210
0.0
220
0.0
230
1.0
 70
    24
 71
     1
 72
     4
 73
     2
 74
     0
 42
0.0000000001
 43
0.0000000001
 40
0.0
 40
0.0
 40
1.0
 40
1.0
 10
29.4068110177053
 20
-51.6740830331483
 30
0.0
 10
29.3823842191701
 20
-51.7345565989818
 30
0.0
  0
SPLINE
  5
BF7
330
A8B
100
AcDbEntity
  8
FRONT
  6
Continuous
 62
     4
100
AcDbSpline
210
0.0
220
0.0
230
1.0
 70
    24
 71
     1
 72
     4
 73
     2
 74
     0
 42
0.0000000001
 43
0.0000000001
 40
0.0
 40
0.0
 40
1.0
 40
1.0
 10
28.1228629765686
 20
-52.6708365194607
 30
0.0
 10
28.3407629922988
 20
-52.6123009127091
 30
0.0
  0
SPLINE
  5
BF8
330
A8B
100
AcDbEntity
  8
FRONT
  6
Continuous
 62
     4
100
AcDbSpline
210
0.0
220
0.0
230
1.0
 70
    24
 71
     1
 72
     4
 73
     2
 74
     0
 42
0.0000000001
 43
0.0000000001
 40
0.0
 40
0.0
 40
1.0
 40
1.0
 10
29.3823842191701
 20
-51.7345565989818
 30
0.0
 10
29.3458335416102
 20
-51.8586043693056
 30
0.0
  0
SPLINE
  5
BF9
330
A8B
100
AcDbEntity
  8
FRONT
  6
Continuous
 62
     4
100
AcDbSpline
210
0.0
220
0.0
230
1.0
 70
     8
 71
     3
 72
    11
 73
     7
 74
     0
 42
0.0000000001
 43
0.0000000001
 40
0.0
 40
0.0
 40
0.0
 40
0.0
 40
0.3061272518132776
 40
0.6075448394179293
 40
0.8160124276962045
 40
1.0
 40
1.0
 40
1.0
 40
1.0
 10
27.8394183947849
 20
-51.5952159314582
 30
0.0
 10
27.8357690997655
 20
-51.5410715730302
 30
0.0
 10
27.8130861709337
 20
-51.4407891844073
 30
0.0
 10
27.7436050947803
 20
-51.3160175472877
 30
0.0
 10
27.6520690743111
 20
-51.2368013497035
 30
0.0
 10
27.5907157514402
 20
-51.2096613011927
 30
0.0
 10
27.5595001651975
 20
-51.200365511928
 30
0.0
  0
SPLINE
  5
BFA
330
A8B
100
AcDbEntity
  8
FRONT
  6
Continuous
 62
     4
100
AcDbSpline
210
0.0
220
0.0
230
1.0
 70
     8
 71
     3
 72
    11
 73
     7
 74
     0
 42
0.0000000001
 43
0.0000000001
 40
0.0
 40
0.0
 40
0.0
 40
0.0
 40
0.3213498426608153
 40
0.6577811939102688
 40
0.999882732977116
 40
1.0
 40
1.0
 40
1.0
 40
1.0
 10
27.9982299743987
 20
-52.5682917247423
 30
0.0
 10
27.9729644631921
 20
-52.519089743158
 30
0.0
 10
27.9286186538326
 20
-52.4162537683223
 30
0.0
 10
27.8871316158889
 20
-52.2507684842805
 30
0.0
 10
27.8709411953998
 20
-52.1373292229968
 30
0.0
 10
27.865583419247
 20
-52.0801258469829
 30
0.0
 10
27.865574093872
 20
-52.0800262827455
 30
0.0
  0
SPLINE
  5
BFB
330
A8B
100
AcDbEntity
  8
FRONT
  6
Continuous
 62
     4
100
AcDbSpline
210
0.0
220
0.0
230
1.0
 70
     8
 71
     2
 72
     6
 73
     3
 74
     0
 42
0.0000000001
 43
0.0000000001
 40
0.0
 40
0.0
 40
0.0
 40
1.0
 40
1.0
 40
1.0
 10
29.2142636576426
 20
-50.7832199820905
 30
0.0
 10
29.3262096287908
 20
-50.7010688769027
 30
0.0
 10
29.4391654471337
 20
-50.6184123098167
 30
0.0
  0
SPLINE
  5
BFC
330
A8B
100
AcDbEntity
  8
FRONT
  6
Continuous
 62
     4
100
AcDbSpline
210
0.0
220
0.0
230
1.0
 70
    24
 71
     1
 72
     4
 73
     2
 74
     0
 42
0.0000000001
 43
0.0000000001
 40
0.0
 40
0.0
 40
1.0
 40
1.0
 10
27.9353076573692
 20
-50.7207029488231
 30
0.0
 10
27.9365225994763
 20
-50.7201368550157
 30
0.0
  0
SPLINE
  5
BFD
330
A8B
100
AcDbEntity
  8
FRONT
  6
Continuous
 62
     4
100
AcDbSpline
210
0.0
220
0.0
230
1.0
 70
    24
 71
     1
 72
     4
 73
     2
 74
     0
 42
0.0000000001
 43
0.0000000001
 40
0.0
 40
0.0
 40
1.0
 40
1.0
 10
28.1513776762741
 20
-51.581956312013
 30
0.0
 10
28.3866791684394
 20
-51.4016193687527
 30
0.0
  0
SPLINE
  5
BFE
330
A8B
100
AcDbEntity
  8
FRONT
  6
Continuous
 62
     4
100
AcDbSpline
210
0.0
220
0.0
230
1.0
 70
     8
 71
     2
 72
     6
 73
     3
 74
     0
 42
0.0000000001
 43
0.0000000001
 40
0.0
 40
0.0
 40
0.0
 40
1.0
 40
1.0
 40
1.0
 10
27.5594965981868
 20
-51.2003794215228
 30
0.0
 10
27.603252560728
 20
-51.0289711250625
 30
0.0
 10
27.6372525423022
 20
-50.8604888454756
 30
0.0
  0
SPLINE
  5
BFF
330
A8B
100
AcDbEntity
  8
FRONT
  6
Continuous
 62
     4
100
AcDbSpline
210
0.0
220
0.0
230
1.0
 70
     8
 71
     3
 72
    11
 73
     7
 74
     0
 42
0.0000000001
 43
0.0000000001
 40
0.0
 40
0.0
 40
0.0
 40
0.0
 40
0.2797385983135212
 40
0.5594467342961896
 40
0.779715829487904
 40
1.0
 40
1.0
 40
1.0
 40
1.0
 10
29.0354615231527
 20
-50.2205591120067
 30
0.0
 10
29.0980184373046
 20
-50.2213394521376
 30
0.0
 10
29.2109230045561
 20
-50.2449353336944
 30
0.0
 10
29.3462418870798
 20
-50.3454220823429
 30
0.0
 10
29.4233946071309
 20
-50.4787442810492
 30
0.0
 10
29.4388657734079
 20
-50.5696074611738
 30
0.0
 10
29.4391654471337
 20
-50.6184123098167
 30
0.0
  0
ELLIPSE
  5
C00
330
A8B
100
AcDbEntity
  8
FRONT
  6
Continuous
 62
     4
100
AcDbEllipse
 10
188.501159224631
 20
-56.1958232540574
 30
-0.000000000000001
 11
328.7085881680908
 21
-5.639364115381655
 31
0.9119127835859078
210
-0.0173763522628257
220
-0.9870276605374339
230
0.1596072044615736
 40
0.0173763522628256
 41
2.090738282879778
 42
2.09261634979419
  0
ENDBLK
  5
C02
330
A8B
100
AcDbEntity
  8
0
100
AcDbBlockEnd
  0
BLOCK
  5
C05
330
C03
100
AcDbEntity
  8
0
100
AcDbBlockBegin
  2
ROFFE
 70
     0
 10
0.0
 20
0.0
 30
0.0
  3
ROFFE
  1

  0
INSERT
  5
C04
330
C03
100
AcDbEntity
  8
0
  6
Continuous
100
AcDbBlockReference
  2
2D00035417
 10
0.0
 20
0.0
 30
0.0
  0
ENDBLK
  5
C06
330
C03
100
AcDbEntity
  8
0
100
AcDbBlockEnd
  0
BLOCK
  5
12D8
330
12D7
100
AcDbEntity
  8
0
100
AcDbBlockBegin
  2
*D2
 70
     1
 10
0.0
 20
0.0
 30
0.0
  3
*D2
  1

  0
LINE
  5
12D9
330
12D7
100
AcDbEntity
  8
2
 62
     0
370
    -2
100
AcDbLine
 10
70.5405628041084
 20
-52.3783232540574
 30
0.0
 11
86.7905628041084
 21
-52.3783232540573
 31
0.0
  0
LINE
  5
12DA
330
12D7
100
AcDbEntity
  8
2
 62
     0
370
    -2
100
AcDbLine
 10
70.5405628041084
 20
-60.0133232540574
 30
0.0
 11
86.7905628041084
 21
-60.0133232540573
 31
0.0
  0
LINE
  5
12DB
330
12D7
100
AcDbEntity
  8
2
 62
     0
370
    -2
100
AcDbLine
 10
85.5405628041084
 20
-60.0133232540573
 30
0.0
 11
85.5405628041085
 21
-98.6373232540573
 31
0.0
  0
LINE
  5
12DC
330
12D7
100
AcDbEntity
  8
2
 62
     0
370
    -2
100
AcDbLine
 10
85.5405628041084
 20
-54.8783232540573
 30
0.0
 11
85.5405628041084
 21
-57.5133232540573
 31
0.0
  0
SOLID
  5
12DD
330
12D7
100
AcDbEntity
  8
2
 62
     0
100
AcDbTrace
 10
85.957229470775
 20
-54.8783232540573
 30
0.0
 11
85.1238961374417
 21
-54.8783232540573
 31
0.0
 12
85.5405628041084
 22
-52.3783232540573
 32
0.0
 13
85.5405628041084
 23
-52.3783232540573
 33
0.0
  0
SOLID
  5
12DE
330
12D7
100
AcDbEntity
  8
2
 62
     0
100
AcDbTrace
 10
85.1238961374417
 20
-57.5133232540573
 30
0.0
 11
85.957229470775
 21
-57.5133232540573
 31
0.0
 12
85.5405628041084
 22
-60.0133232540573
 32
0.0
 13
85.5405628041084
 23
-60.0133232540573
 33
0.0
  0
MTEXT
  5
12DF
330
12D7
100
AcDbEntity
  8
2
 62
     0
100
AcDbMText
 10
82.3413128041085
 20
-80.5753232540573
 30
0.0
 40
3.5
 41
0.0
 71
     5
 72
     1
  1
NPTF1/16-27
  7
SIMPLEX
 11
-0.0000000000000037
 21
1.0
 31
0.0
 73
     1
 44
1.0
1001
ACAD
1000
MTEXTBEGIN
1070
    73
1070
     1
1070
    44
1040
1.0
1070
    74
1070
     0
1000
MTEXTEND
  0
POINT
  5
12E0
330
12D7
100
AcDbEntity
  8
DEFPOINTS
 62
     0
100
AcDbPoint
 10
70.5405628041084
 20
-52.3783232540574
 30
0.0
  0
POINT
  5
12E1
330
12D7
100
AcDbEntity
  8
DEFPOINTS
 62
     0
100
AcDbPoint
 10
70.5405628041084
 20
-60.0133232540574
 30
0.0
  0
POINT
  5
12E2
330
12D7
100
AcDbEntity
  8
DEFPOINTS
 62
     0
100
AcDbPoint
 10
85.5405628041084
 20
-60.0133232540573
 30
0.0
  0
ENDBLK
  5
12E3
330
12D7
100
AcDbEntity
  8
0
100
AcDbBlockEnd
  0
BLOCK
  5
12E5
330
12E4
100
AcDbEntity
  8
0
100
AcDbBlockBegin
  2
*D3
 70
     1
 10
0.0
 20
0.0
 30
0.0
  3
*D3
  1

  0
LINE
  5
12E6
330
12E4
100
AcDbEntity
  8
2
 62
     0
370
    -2
100
AcDbLine
 10
11.4405628041084
 20
-52.3958232540574
 30
0.0
 11
11.4405628041084
 21
20.0541767459426
 31
0.0
  0
LINE
  5
12E7
330
12E4
100
AcDbEntity
  8
2
 62
     0
370
    -2
100
AcDbLine
 10
70.5405628041084
 20
-52.3783232540574
 30
0.0
 11
70.5405628041084
 21
20.0541767459426
 31
0.0
  0
LINE
  5
12E8
330
12E4
100
AcDbEntity
  8
2
 62
     0
370
    -2
100
AcDbLine
 10
13.9405628041084
 20
18.8041767459426
 30
0.0
 11
68.0405628041084
 21
18.8041767459426
 31
0.0
  0
SOLID
  5
12E9
330
12E4
100
AcDbEntity
  8
2
 62
     0
100
AcDbTrace
 10
13.9405628041084
 20
19.2208434126093
 30
0.0
 11
13.9405628041084
 21
18.387510079276
 31
0.0
 12
11.4405628041084
 22
18.8041767459426
 32
0.0
 13
11.4405628041084
 23
18.8041767459426
 33
0.0
  0
SOLID
  5
12EA
330
12E4
100
AcDbEntity
  8
2
 62
     0
100
AcDbTrace
 10
68.0405628041084
 20
18.387510079276
 30
0.0
 11
68.0405628041084
 21
19.2208434126093
 31
0.0
 12
70.5405628041084
 22
18.8041767459426
 32
0.0
 13
70.5405628041084
 23
18.8041767459426
 33
0.0
  0
MTEXT
  5
12EB
330
12E4
100
AcDbEntity
  8
2
 62
     0
100
AcDbMText
 10
40.9905628041084
 20
21.2019267459426
 30
0.0
 40
3.5
 41
0.0
 71
     5
 72
     1
  1
59.1
  7
SIMPLEX
 73
     1
 44
1.0
1001
ACAD
1000
MTEXTBEGIN
1070
    73
1070
     1
1070
    44
1040
1.0
1070
    74
1070
     0
1000
MTEXTEND
  0
POINT
  5
12EC
330
12E4
100
AcDbEntity
  8
DEFPOINTS
 62
     0
100
AcDbPoint
 10
11.4405628041084
 20
-52.3958232540574
 30
0.0
  0
POINT
  5
12ED
330
12E4
100
AcDbEntity
  8
DEFPOINTS
 62
     0
100
AcDbPoint
 10
70.5405628041084
 20
-52.3783232540574
 30
0.0
  0
POINT
  5
12EE
330
12E4
100
AcDbEntity
  8
DEFPOINTS
 62
     0
100
AcDbPoint
 10
70.5405628041084
 20
18.8041767459426
 30
0.0
  0
ENDBLK
  5
12EF
330
12E4
100
AcDbEntity
  8
0
100
AcDbBlockEnd
  0
BLOCK
  5
12F1
330
12F0
100
AcDbEntity
  8
0
100
AcDbBlockBegin
  2
*D4
 70
     1
 10
0.0
 20
0.0
 30
0.0
  3
*D4
  1

  0
LINE
  5
12F2
330
12F0
100
AcDbEntity
  8
SK2
 62
     0
370
    -2
100
AcDbLine
 10
-0.45943719589164
 20
-52.1958232540574
 30
0.0
 11
-25.7094371959121
 21
-52.1958232541862
 31
0.0
  0
LINE
  5
12F3
330
12F0
100
AcDbEntity
  8
SK2
 62
     0
370
    -2
100
AcDbLine
 10
-0.45943719589164
 20
-60.1958232540574
 30
0.0
 11
-25.7094371958712
 21
-60.1958232541862
 31
0.0
  0
LINE
  5
12F4
330
12F0
100
AcDbEntity
  8
SK2
 62
     0
370
    -2
100
AcDbLine
 10
-24.4594371958993
 20
-54.6958232541798
 30
0.0
 11
-24.459437195884
 21
-57.6958232541798
 31
0.0
  0
SOLID
  5
12F5
330
12F0
100
AcDbEntity
  8
SK2
 62
     0
100
AcDbTrace
 10
-24.0427705292326
 20
-54.6958232541777
 30
0.0
 11
-24.8761038625659
 21
-54.695823254182
 31
0.0
 12
-24.4594371959121
 22
-52.1958232541798
 32
0.0
 13
-24.4594371959121
 23
-52.1958232541798
 33
0.0
  0
SOLID
  5
12F6
330
12F0
100
AcDbEntity
  8
SK2
 62
     0
100
AcDbTrace
 10
-24.8761038625507
 20
-57.695823254182
 30
0.0
 11
-24.0427705292173
 21
-57.6958232541777
 31
0.0
 12
-24.4594371958712
 22
-60.1958232541798
 32
0.0
 13
-24.4594371958712
 23
-60.1958232541798
 33
0.0
  0
MTEXT
  5
12F7
330
12F0
100
AcDbEntity
  8
SK2
 62
     0
100
AcDbMText
 10
-26.8501871958916
 20
-56.195823254192
 30
0.0
 40
3.5
 41
0.0
 71
     5
 72
     1
  1
%%c8
  7
SIMPLEX
 11
-0.0000000000051035
 21
1.0
 31
0.0
 73
     1
 44
1.0
1001
ACAD
1000
MTEXTBEGIN
1070
    73
1070
     1
1070
    44
1040
1.0
1070
    74
1070
     0
1000
MTEXTEND
  0
POINT
  5
12F8
330
12F0
100
AcDbEntity
  8
DEFPOINTS
 62
     0
100
AcDbPoint
 10
-0.45943719589164
 20
-52.1958232540574
 30
0.0
  0
POINT
  5
12F9
330
12F0
100
AcDbEntity
  8
DEFPOINTS
 62
     0
100
AcDbPoint
 10
-0.45943719589164
 20
-60.1958232540574
 30
0.0
  0
POINT
  5
12FA
330
12F0
100
AcDbEntity
  8
DEFPOINTS
 62
     0
100
AcDbPoint
 10
-24.4594371958712
 20
-60.1958232541798
 30
0.0
  0
ENDBLK
  5
12FB
330
12F0
100
AcDbEntity
  8
0
100
AcDbBlockEnd
  0
BLOCK
  5
12FD
330
12FC
100
AcDbEntity
  8
0
100
AcDbBlockBegin
  2
*D5
 70
     1
 10
0.0
 20
0.0
 30
0.0
  3
*D5
  1

  0
LINE
  5
12FE
330
12FC
100
AcDbEntity
  8
2
 62
     0
370
    -2
100
AcDbLine
 10
56.5405628041084
 20
-52.3958232540574
 30
0.0
 11
56.5405628041084
 21
5.05417674594264
 31
0.0
  0
LINE
  5
12FF
330
12FC
100
AcDbEntity
  8
2
 62
     0
370
    -2
100
AcDbLine
 10
70.5405628041084
 20
-52.3783232540574
 30
0.0
 11
70.5405628041084
 21
5.05417674594264
 31
0.0
  0
LINE
  5
1300
330
12FC
100
AcDbEntity
  8
2
 62
     0
370
    -2
100
AcDbLine
 10
59.0405628041084
 20
3.80417674594264
 30
0.0
 11
68.0405628041084
 21
3.80417674594264
 31
0.0
  0
SOLID
  5
1301
330
12FC
100
AcDbEntity
  8
2
 62
     0
100
AcDbTrace
 10
59.0405628041084
 20
4.2208434126093
 30
0.0
 11
59.0405628041084
 21
3.38751007927598
 31
0.0
 12
56.5405628041084
 22
3.80417674594264
 32
0.0
 13
56.5405628041084
 23
3.80417674594264
 33
0.0
  0
SOLID
  5
1302
330
12FC
100
AcDbEntity
  8
2
 62
     0
100
AcDbTrace
 10
68.0405628041084
 20
3.38751007927598
 30
0.0
 11
68.0405628041084
 21
4.2208434126093
 31
0.0
 12
70.5405628041084
 22
3.80417674594264
 32
0.0
 13
70.5405628041084
 23
3.80417674594264
 33
0.0
  0
MTEXT
  5
1303
330
12FC
100
AcDbEntity
  8
2
 62
     0
100
AcDbMText
 10
63.5405628041084
 20
6.21942674594264
 30
0.0
 40
3.5
 41
0.0
 71
     5
 72
     1
  1
14
  7
SIMPLEX
 73
     1
 44
1.0
1001
ACAD
1000
MTEXTBEGIN
1070
    73
1070
     1
1070
    44
1040
1.0
1070
    74
1070
     0
1000
MTEXTEND
  0
POINT
  5
1304
330
12FC
100
AcDbEntity
  8
DEFPOINTS
 62
     0
100
AcDbPoint
 10
56.5405628041084
 20
-52.3958232540574
 30
0.0
  0
POINT
  5
1305
330
12FC
100
AcDbEntity
  8
DEFPOINTS
 62
     0
100
AcDbPoint
 10
70.5405628041084
 20
-52.3783232540574
 30
0.0
  0
POINT
  5
1306
330
12FC
100
AcDbEntity
  8
DEFPOINTS
 62
     0
100
AcDbPoint
 10
70.5405628041084
 20
3.80417674594264
 30
0.0
  0
ENDBLK
  5
1307
330
12FC
100
AcDbEntity
  8
0
100
AcDbBlockEnd
  0
BLOCK
  5
1309
330
1308
100
AcDbEntity
  8
0
100
AcDbBlockBegin
  2
*D6
 70
     1
 10
0.0
 20
0.0
 30
0.0
  3
*D6
  1

  0
LINE
  5
130A
330
1308
100
AcDbEntity
  8
SK2
 62
     0
370
    -2
100
AcDbLine
 10
-9.45943719589164
 20
-52.3783232540574
 30
0.0
 11
-9.45943719589164
 21
35.0541767459426
 31
0.0
  0
LINE
  5
130B
330
1308
100
AcDbEntity
  8
SK2
 62
     0
370
    -2
100
AcDbLine
 10
70.5405628041084
 20
-52.3783232540574
 30
0.0
 11
70.5405628041084
 21
35.0541767459426
 31
0.0
  0
LINE
  5
130C
330
1308
100
AcDbEntity
  8
SK2
 62
     0
370
    -2
100
AcDbLine
 10
-6.95943719589164
 20
33.8041767459426
 30
0.0
 11
68.0405628041084
 21
33.8041767459426
 31
0.0
  0
SOLID
  5
130D
330
1308
100
AcDbEntity
  8
SK2
 62
     0
100
AcDbTrace
 10
-6.95943719589164
 20
34.2208434126093
 30
0.0
 11
-6.95943719589164
 21
33.387510079276
 31
0.0
 12
-9.45943719589164
 22
33.8041767459426
 32
0.0
 13
-9.45943719589164
 23
33.8041767459426
 33
0.0
  0
SOLID
  5
130E
330
1308
100
AcDbEntity
  8
SK2
 62
     0
100
AcDbTrace
 10
68.0405628041084
 20
33.387510079276
 30
0.0
 11
68.0405628041084
 21
34.2208434126093
 31
0.0
 12
70.5405628041084
 22
33.8041767459426
 32
0.0
 13
70.5405628041084
 23
33.8041767459426
 33
0.0
  0
MTEXT
  5
130F
330
1308
100
AcDbEntity
  8
SK2
 62
     0
100
AcDbMText
 10
30.5405628041084
 20
36.1949267459426
 30
0.0
 40
3.5
 41
0.0
 71
     5
 72
     1
  1
80
  7
SIMPLEX
 73
     1
 44
1.0
1001
ACAD
1000
MTEXTBEGIN
1070
    73
1070
     1
1070
    44
1040
1.0
1070
    74
1070
     0
1000
MTEXTEND
  0
POINT
  5
1310
330
1308
100
AcDbEntity
  8
DEFPOINTS
 62
     0
100
AcDbPoint
 10
-9.45943719589164
 20
-52.3783232540574
 30
0.0
  0
POINT
  5
1311
330
1308
100
AcDbEntity
  8
DEFPOINTS
 62
     0
100
AcDbPoint
 10
70.5405628041084
 20
-52.3783232540574
 30
0.0
  0
POINT
  5
1312
330
1308
100
AcDbEntity
  8
DEFPOINTS
 62
     0
100
AcDbPoint
 10
70.5405628041084
 20
33.8041767459426
 30
0.0
  0
ENDBLK
  5
1313
330
1308
100
AcDbEntity
  8
0
100
AcDbBlockEnd
  0
BLOCK
  5
16B3
330
16B2
100
AcDbEntity
  8
0
100
AcDbBlockBegin
  2
*D8
 70
     1
 10
0.0
 20
0.0
 30
0.0
  3
*D8
  1

  0
LINE
  5
17A6
330
16B2
100
AcDbEntity
  8
2
 62
     0
370
    -2
100
AcDbLine
 10
60.1
 20
3.81749999999999
 30
0.0
 11
71.654773168763
 21
3.81749999999999
 31
0.0
  0
LINE
  5
17A7
330
16B2
100
AcDbEntity
  8
2
 62
     0
370
    -2
100
AcDbLine
 10
60.1
 20
-3.81750000000001
 30
0.0
 11
71.654773168763
 21
-3.81750000000001
 31
0.0
  0
LINE
  5
17A8
330
16B2
100
AcDbEntity
  8
2
 62
     0
100
AcDbLine
 10
70.654773168763
 20
-7.31750000000001
 30
0.0
 11
70.654773168763
 21
-10.8175
 31
0.0
  0
LINE
  5
17A9
330
16B2
100
AcDbEntity
  8
2
 62
     0
100
AcDbLine
 10
70.654773168763
 20
7.31749999999999
 30
0.0
 11
70.654773168763
 21
47.8174999999999
 31
0.0
  0
LINE
  5
17AA
330
16B2
100
AcDbEntity
  8
2
 62
     0
100
AcDbLine
 10
70.654773168763
 20
-3.81750000000001
 30
0.0
 11
70.654773168763
 21
3.81749999999999
 31
0.0
  0
SOLID
  5
17AB
330
16B2
100
AcDbEntity
  8
2
 62
     0
100
AcDbTrace
 10
70.0714398354296
 20
-7.31750000000001
 30
0.0
 11
71.2381065020963
 21
-7.31750000000001
 31
0.0
 12
70.654773168763
 22
-3.81750000000001
 32
0.0
 13
70.654773168763
 23
-3.81750000000001
 33
0.0
  0
SOLID
  5
17AC
330
16B2
100
AcDbEntity
  8
2
 62
     0
100
AcDbTrace
 10
70.0714398354296
 20
7.31749999999999
 30
0.0
 11
71.2381065020963
 21
7.31749999999999
 31
0.0
 12
70.654773168763
 22
3.81749999999999
 32
0.0
 13
70.654773168763
 23
3.81749999999999
 33
0.0
  0
MTEXT
  5
17AD
330
16B2
100
AcDbEntity
  8
2
 62
     0
100
AcDbMText
 10
67.904773168763
 20
29.3175
 30
0.0
 40
3.5
 41
0.0
 71
     5
 72
     1
  1
\A1;NPTF1/16-27
 11
0.0000000000000001
 21
1.0
 31
0.0
 73
     1
 44
1.0
1001
ACAD
1000
MTEXTBEGIN
1070
    73
1070
     1
1070
    44
1040
1.0
1070
    74
1070
     0
1000
MTEXTEND
  0
POINT
  5
17AE
330
16B2
100
AcDbEntity
  8
DEFPOINTS
 62
     0
100
AcDbPoint
 10
59.1
 20
3.8175
 30
0.0
  0
POINT
  5
17AF
330
16B2
100
AcDbEntity
  8
DEFPOINTS
 62
     0
100
AcDbPoint
 10
59.1
 20
-3.8175
 30
0.0
  0
POINT
  5
17B0
330
16B2
100
AcDbEntity
  8
DEFPOINTS
 62
     0
100
AcDbPoint
 10
70.654773168763
 20
-3.81750000000001
 30
0.0
  0
ENDBLK
  5
16B4
330
16B2
100
AcDbEntity
  8
0
100
AcDbBlockEnd
  0
BLOCK
  5
16C0
330
16BF
100
AcDbEntity
  8
0
100
AcDbBlockBegin
  2
*D9
 70
     1
 10
0.0
 20
0.0
 30
0.0
  3
*D9
  1

  0
LINE
  5
17E1
330
16BF
100
AcDbEntity
  8
2
 62
     0
370
    -2
100
AcDbLine
 10
0
 20
4.99999999999999
 30
0.0
 11
0
 21
20.8324410429527
 31
0.0
  0
LINE
  5
17E2
330
16BF
100
AcDbEntity
  8
2
 62
     0
370
    -2
100
AcDbLine
 10
59.1
 20
4.8175
 30
0.0
 11
59.1
 21
20.8324410429527
 31
0.0
  0
LINE
  5
17E3
330
16BF
100
AcDbEntity
  8
2
 62
     0
100
AcDbLine
 10
3.5
 20
19.8324410429527
 30
0.0
 11
55.6
 21
19.8324410429527
 31
0.0
  0
SOLID
  5
17E4
330
16BF
100
AcDbEntity
  8
2
 62
     0
100
AcDbTrace
 10
3.5
 20
20.4157743762861
 30
0.0
 11
3.5
 21
19.2491077096194
 31
0.0
 12
0
 22
19.8324410429527
 32
0.0
 13
0
 23
19.8324410429527
 33
0.0
  0
SOLID
  5
17E5
330
16BF
100
AcDbEntity
  8
2
 62
     0
100
AcDbTrace
 10
55.6
 20
20.4157743762861
 30
0.0
 11
55.6
 21
19.2491077096194
 31
0.0
 12
59.1
 22
19.8324410429527
 32
0.0
 13
59.1
 23
19.8324410429527
 33
0.0
  0
MTEXT
  5
17E6
330
16BF
100
AcDbEntity
  8
2
 62
     0
100
AcDbMText
 10
29.55
 20
22.5824410429527
 30
0.0
 40
3.5
 41
0.0
 71
     5
 72
     1
  1
\A1;59.1
 73
     1
 44
1.0
1001
ACAD
1000
MTEXTBEGIN
1070
    73
1070
     1
1070
    44
1040
1.0
1070
    74
1070
     0
1000
MTEXTEND
  0
POINT
  5
17E7
330
16BF
100
AcDbEntity
  8
DEFPOINTS
 62
     0
100
AcDbPoint
 10
0
 20
3.99999999999999
 30
0.0
  0
POINT
  5
17E8
330
16BF
100
AcDbEntity
  8
DEFPOINTS
 62
     0
100
AcDbPoint
 10
59.1
 20
3.8175
 30
0.0
  0
POINT
  5
17E9
330
16BF
100
AcDbEntity
  8
DEFPOINTS
 62
     0
100
AcDbPoint
 10
59.1
 20
19.8324410429527
 30
0.0
  0
ENDBLK
  5
16C1
330
16BF
100
AcDbEntity
  8
0
100
AcDbBlockEnd
  0
BLOCK
  5
16CD
330
16CC
100
AcDbEntity
  8
0
100
AcDbBlockBegin
  2
*D10
 70
     1
 10
0.0
 20
0.0
 30
0.0
  3
*D10
  1

  0
LINE
  5
17D6
330
16CC
100
AcDbEntity
  8
SK2
 62
     0
370
    -2
100
AcDbLine
 10
-12.9
 20
3.99999999999999
 30
0.0
 11
-28.9494762765698
 21
3.99999999999999
 31
0.0
  0
LINE
  5
17D7
330
16CC
100
AcDbEntity
  8
SK2
 62
     0
370
    -2
100
AcDbLine
 10
-12.9
 20
-4
 30
0.0
 11
-28.9494762765698
 21
-4
 31
0.0
  0
LINE
  5
17D8
330
16CC
100
AcDbEntity
  8
SK2
 62
     0
100
AcDbLine
 10
-27.9494762765698
 20
7.5
 30
0.0
 11
-27.9494762765698
 21
11
 31
0.0
  0
LINE
  5
17D9
330
16CC
100
AcDbEntity
  8
SK2
 62
     0
100
AcDbLine
 10
-27.9494762765698
 20
-7.5
 30
0.0
 11
-27.9494762765698
 21
-11
 31
0.0
  0
LINE
  5
17DA
330
16CC
100
AcDbEntity
  8
SK2
 62
     0
100
AcDbLine
 10
-27.9494762765698
 20
3.99999999999999
 30
0.0
 11
-27.9494762765698
 21
-4
 31
0.0
  0
SOLID
  5
17DB
330
16CC
100
AcDbEntity
  8
SK2
 62
     0
100
AcDbTrace
 10
-28.5328096099031
 20
7.5
 30
0.0
 11
-27.3661429432365
 21
7.5
 31
0.0
 12
-27.9494762765698
 22
3.99999999999999
 32
0.0
 13
-27.9494762765698
 23
3.99999999999999
 33
0.0
  0
SOLID
  5
17DC
330
16CC
100
AcDbEntity
  8
SK2
 62
     0
100
AcDbTrace
 10
-28.5328096099031
 20
-7.5
 30
0.0
 11
-27.3661429432365
 21
-7.5
 31
0.0
 12
-27.9494762765698
 22
-4
 32
0.0
 13
-27.9494762765698
 23
-4
 33
0.0
  0
MTEXT
  5
17DD
330
16CC
100
AcDbEntity
  8
SK2
 62
     0
100
AcDbMText
 10
-30.6994762765698
 20
-7.105427357601E-15
 30
0.0
 40
3.5
 41
0.0
 71
     5
 72
     1
  1
\A1;%%c8
 11
0.0000000000000001
 21
1.0
 31
0.0
 73
     1
 44
1.0
1001
ACAD
1000
MTEXTBEGIN
1070
    73
1070
     1
1070
    44
1040
1.0
1070
    74
1070
     0
1000
MTEXTEND
  0
POINT
  5
17DE
330
16CC
100
AcDbEntity
  8
DEFPOINTS
 62
     0
100
AcDbPoint
 10
-11.9
 20
3.99999999999999
 30
0.0
  0
POINT
  5
17DF
330
16CC
100
AcDbEntity
  8
DEFPOINTS
 62
     0
100
AcDbPoint
 10
-11.9
 20
-4
 30
0.0
  0
POINT
  5
17E0
330
16CC
100
AcDbEntity
  8
DEFPOINTS
 62
     0
100
AcDbPoint
 10
-27.9494762765698
 20
-4
 30
0.0
  0
ENDBLK
  5
16CE
330
16CC
100
AcDbEntity
  8
0
100
AcDbBlockEnd
  0
BLOCK
  5
16DA
330
16D9
100
AcDbEntity
  8
0
100
AcDbBlockBegin
  2
*D11
 70
     1
 10
0.0
 20
0.0
 30
0.0
  3
*D11
  1

  0
LINE
  5
176E
330
16D9
100
AcDbEntity
  8
2
 62
     0
370
    -2
100
AcDbLine
 10
45.1
 20
4.79999999999999
 30
0.0
 11
45.1
 21
12.2560612300933
 31
0.0
  0
LINE
  5
176F
330
16D9
100
AcDbEntity
  8
2
 62
     0
370
    -2
100
AcDbLine
 10
59.1
 20
4.8175
 30
0.0
 11
59.1
 21
12.2560612300933
 31
0.0
  0
LINE
  5
1770
330
16D9
100
AcDbEntity
  8
2
 62
     0
100
AcDbLine
 10
48.6
 20
11.2560612300933
 30
0.0
 11
55.6
 21
11.2560612300933
 31
0.0
  0
SOLID
  5
1771
330
16D9
100
AcDbEntity
  8
2
 62
     0
100
AcDbTrace
 10
48.6
 20
11.8393945634267
 30
0.0
 11
48.6
 21
10.67272789676
 31
0.0
 12
45.1
 22
11.2560612300933
 32
0.0
 13
45.1
 23
11.2560612300933
 33
0.0
  0
SOLID
  5
1772
330
16D9
100
AcDbEntity
  8
2
 62
     0
100
AcDbTrace
 10
55.6
 20
11.8393945634267
 30
0.0
 11
55.6
 21
10.67272789676
 31
0.0
 12
59.1
 22
11.2560612300933
 32
0.0
 13
59.1
 23
11.2560612300933
 33
0.0
  0
MTEXT
  5
1773
330
16D9
100
AcDbEntity
  8
2
 62
     0
100
AcDbMText
 10
52.1
 20
14.0060612300933
 30
0.0
 40
3.5
 41
0.0
 71
     5
 72
     1
  1
\A1;14
 73
     1
 44
1.0
1001
ACAD
1000
MTEXTBEGIN
1070
    73
1070
     1
1070
    44
1040
1.0
1070
    74
1070
     0
1000
MTEXTEND
  0
POINT
  5
1774
330
16D9
100
AcDbEntity
  8
DEFPOINTS
 62
     0
100
AcDbPoint
 10
45.1
 20
3.8
 30
0.0
  0
POINT
  5
1775
330
16D9
100
AcDbEntity
  8
DEFPOINTS
 62
     0
100
AcDbPoint
 10
59.1
 20
3.8175
 30
0.0
  0
POINT
  5
1776
330
16D9
100
AcDbEntity
  8
DEFPOINTS
 62
     0
100
AcDbPoint
 10
59.1
 20
11.2560612300933
 30
0.0
  0
ENDBLK
  5
16DB
330
16D9
100
AcDbEntity
  8
0
100
AcDbBlockEnd
  0
BLOCK
  5
16E7
330
16E6
100
AcDbEntity
  8
0
100
AcDbBlockBegin
  2
*D12
 70
     1
 10
0.0
 20
0.0
 30
0.0
  3
*D12
  1

  0
LINE
  5
17CD
330
16E6
100
AcDbEntity
  8
SK2
 62
     0
370
    -2
100
AcDbLine
 10
-20.9
 20
4.8175
 30
0.0
 11
-20.9
 21
29.78668110239
 31
0.0
  0
LINE
  5
17CE
330
16E6
100
AcDbEntity
  8
SK2
 62
     0
370
    -2
100
AcDbLine
 10
59.1
 20
4.8175
 30
0.0
 11
59.1
 21
29.78668110239
 31
0.0
  0
LINE
  5
17CF
330
16E6
100
AcDbEntity
  8
SK2
 62
     0
100
AcDbLine
 10
-17.4
 20
28.78668110239
 30
0.0
 11
55.6
 21
28.78668110239
 31
0.0
  0
SOLID
  5
17D0
330
16E6
100
AcDbEntity
  8
SK2
 62
     0
100
AcDbTrace
 10
-17.4
 20
29.3700144357234
 30
0.0
 11
-17.4
 21
28.2033477690567
 31
0.0
 12
-20.9
 22
28.78668110239
 32
0.0
 13
-20.9
 23
28.78668110239
 33
0.0
  0
SOLID
  5
17D1
330
16E6
100
AcDbEntity
  8
SK2
 62
     0
100
AcDbTrace
 10
55.6
 20
29.3700144357234
 30
0.0
 11
55.6
 21
28.2033477690567
 31
0.0
 12
59.1
 22
28.78668110239
 32
0.0
 13
59.1
 23
28.78668110239
 33
0.0
  0
MTEXT
  5
17D2
330
16E6
100
AcDbEntity
  8
SK2
 62
     0
100
AcDbMText
 10
19.1
 20
31.53668110239
 30
0.0
 40
3.5
 41
0.0
 71
     5
 72
     1
  1
\A1;80
 73
     1
 44
1.0
1001
ACAD
1000
MTEXTBEGIN
1070
    73
1070
     1
1070
    44
1040
1.0
1070
    74
1070
     0
1000
MTEXTEND
  0
POINT
  5
17D3
330
16E6
100
AcDbEntity
  8
DEFPOINTS
 62
     0
100
AcDbPoint
 10
-20.9
 20
3.8175
 30
0.0
  0
POINT
  5
17D4
330
16E6
100
AcDbEntity
  8
DEFPOINTS
 62
     0
100
AcDbPoint
 10
59.1
 20
3.8175
 30
0.0
  0
POINT
  5
17D5
330
16E6
100
AcDbEntity
  8
DEFPOINTS
 62
     0
100
AcDbPoint
 10
59.1
 20
28.78668110239
 30
0.0
  0
ENDBLK
  5
16E8
330
16E6
100
AcDbEntity
  8
0
100
AcDbBlockEnd
  0
BLOCK
  5
1729
330
1728
100
AcDbEntity
  8
0
100
AcDbBlockBegin
  2
*D13
 70
     1
 10
0.0
 20
0.0
 30
0.0
  3
*D13
  1

  0
LINE
  5
172B
330
1728
100
AcDbEntity
  8
2
 62
     0
370
    -2
100
AcDbLine
 10
-115.100567328695
 20
54.7457747109685
 30
0.0
 11
-115.100567328695
 21
65.845411695119
 31
0.0
  0
LINE
  5
172C
330
1728
100
AcDbEntity
  8
2
 62
     0
370
    -2
100
AcDbLine
 10
-88.4023442818953
 20
54.7457747109685
 30
0.0
 11
-88.4023442818953
 21
65.845411695119
 31
0.0
  0
LINE
  5
172D
330
1728
100
AcDbEntity
  8
2
 62
     0
100
AcDbLine
 10
-111.600567328695
 20
64.845411695119
 30
0.0
 11
-91.9023442818952
 21
64.845411695119
 31
0.0
  0
SOLID
  5
172E
330
1728
100
AcDbEntity
  8
2
 62
     0
100
AcDbTrace
 10
-111.600567328695
 20
65.4287450284524
 30
0.0
 11
-111.600567328695
 21
64.2620783617857
 31
0.0
 12
-115.100567328695
 22
64.845411695119
 32
0.0
 13
-115.100567328695
 23
64.845411695119
 33
0.0
  0
SOLID
  5
172F
330
1728
100
AcDbEntity
  8
2
 62
     0
100
AcDbTrace
 10
-91.9023442818952
 20
65.4287450284524
 30
0.0
 11
-91.9023442818952
 21
64.2620783617857
 31
0.0
 12
-88.4023442818953
 22
64.845411695119
 32
0.0
 13
-88.4023442818953
 23
64.845411695119
 33
0.0
  0
MTEXT
  5
1730
330
1728
100
AcDbEntity
  8
2
 62
     0
100
AcDbMText
 10
-101.751455805295
 20
67.595411695119
 30
0.0
 40
3.5
 41
0.0
 71
     5
 72
     1
  1
\A1;27
 73
     1
 44
1.0
1001
ACAD
1000
MTEXTBEGIN
1070
    73
1070
     1
1070
    44
1040
1.0
1070
    74
1070
     0
1000
MTEXTEND
  0
POINT
  5
1731
330
1728
100
AcDbEntity
  8
DEFPOINTS
 62
     0
100
AcDbPoint
 10
-115.100567328695
 20
53.7457747109685
 30
0.0
  0
POINT
  5
1732
330
1728
100
AcDbEntity
  8
DEFPOINTS
 62
     0
100
AcDbPoint
 10
-88.4023442818953
 20
53.7457747109685
 30
0.0
  0
POINT
  5
1733
330
1728
100
AcDbEntity
  8
DEFPOINTS
 62
     0
100
AcDbPoint
 10
-88.4023442818953
 20
64.845411695119
 30
0.0
  0
ENDBLK
  5
172A
330
1728
100
AcDbEntity
  8
0
100
AcDbBlockEnd
  0
ENDSEC
  0
SECTION
  2
ENTITIES
  0
LINE
  5
14E5
330
19
100
AcDbEntity
  8
SK4
100
AcDbLine
 10
-22.9
 20
0
 30
0.0
 11
61.1
 21
0
 31
0.0
  0
LINE
  5
14E6
330
19
100
AcDbEntity
  8
4
100
AcDbLine
 10
0
 20
0
 30
0.0
 11
61.1
 21
0
 31
0.0
  0
LINE
  5
14E8
330
19
100
AcDbEntity
  8
1
100
AcDbLine
 10
45.07409028
 20
2.41950145566947
 30
0.0
 11
40.5870442728354
 21
3.20179485291843
 31
0.0
  0
LINE
  5
14E9
330
19
100
AcDbEntity
  8
1
100
AcDbLine
 10
40.5870442728354
 20
3.20179485291843
 30
0.0
 11
38.3435142266178
 21
3.48075575360561
 31
0.0
  0
LINE
  5
14EA
330
19
100
AcDbEntity
  8
1
100
AcDbLine
 10
38.3435142266178
 20
3.48075575360561
 30
0.0
 11
36.1
 21
3.67527422136598
 31
0.0
  0
LINE
  5
14EB
330
19
100
AcDbEntity
  8
1
100
AcDbLine
 10
45.07409028
 20
-0.123849978711988
 30
0.0
 11
39.8779494266225
 21
1.22599311236754
 31
0.0
  0
LINE
  5
14EC
330
19
100
AcDbEntity
  8
1
100
AcDbLine
 10
39.8779494266225
 20
1.22599311236754
 30
0.0
 11
39.8779312377531
 21
1.22599765881114
 31
0.0
  0
LINE
  5
14ED
330
19
100
AcDbEntity
  8
1
100
AcDbLine
 10
45.07409028
 20
2.41950145566947
 30
0.0
 11
45.07409028
 21
-0.123849978711988
 31
0.0
  0
LINE
  5
14EE
330
19
100
AcDbEntity
  8
1
100
AcDbLine
 10
45.082839204006
 20
-0.147755743705659
 30
0.0
 11
45.0740902800001
 21
-0.123849978711988
 31
0.0
  0
LINE
  5
14EF
330
19
100
AcDbEntity
  8
1
100
AcDbLine
 10
45.0828392040061
 20
-0.147755743705659
 30
0.0
 11
45.1000000000001
 21
-0.196301674545857
 31
0.0
  0
LINE
  5
14F0
330
19
100
AcDbEntity
  8
1
100
AcDbLine
 10
45.1
 20
-3.91659982483374
 30
0.0
 11
45.1
 21
-2.18860142770519
 31
0.0
  0
LINE
  5
14F1
330
19
100
AcDbEntity
  8
1
100
AcDbLine
 10
45.1
 20
-2.18860142770518
 30
0.0
 11
39.6
 21
-1.77510372248908
 31
0.0
  0
LINE
  5
14F2
330
19
100
AcDbEntity
  8
1
100
AcDbLine
 10
39.6
 20
-1.77510372248908
 30
0.0
 11
34.1
 21
-1.10541901720346
 31
0.0
  0
LINE
  5
14F3
330
19
100
AcDbEntity
  8
1
100
AcDbLine
 10
45.07409028
 20
-3.74736959786033
 30
0.0
 11
42.8305648450084
 21
-3.60404599648344
 31
0.0
  0
LINE
  5
14F4
330
19
100
AcDbEntity
  8
1
100
AcDbLine
 10
42.8305648450084
 20
-3.60404599648344
 30
0.0
 11
40.5870442921478
 21
-3.3732916972627
 31
0.0
  0
LINE
  5
14F5
330
19
100
AcDbEntity
  8
1
100
AcDbLine
 10
40.5870442921478
 20
-3.3732916972627
 30
0.0
 11
36.1
 21
-2.67386049490641
 31
0.0
  0
LINE
  5
14F6
330
19
100
AcDbEntity
  8
1
100
AcDbLine
 10
45.1
 20
-3.91659982483374
 30
0.0
 11
45.07409028
 21
-3.74736959786033
 31
0.0
  0
LINE
  5
14F7
330
19
100
AcDbEntity
  8
1
100
AcDbLine
 10
36.1
 20
2.1174984622168
 30
0.0
 11
36.1
 21
2.13208447299512
 31
0.0
  0
LINE
  5
14F8
330
19
100
AcDbEntity
  8
1
100
AcDbLine
 10
36.1
 20
2.13208447299512
 30
0.0
 11
34.1
 21
2.5566001700439
 31
0.0
  0
LINE
  5
14F9
330
19
100
AcDbEntity
  8
1
100
AcDbLine
 10
36.1
 20
2.13208447299512
 30
0.0
 11
36.1
 21
2.16804005411999
 31
0.0
  0
LINE
  5
14FA
330
19
100
AcDbEntity
  8
1
100
AcDbLine
 10
34.1
 20
2.6128428018588
 30
0.0
 11
36.1
 21
2.16804005412004
 31
0.0
  0
LINE
  5
14FB
330
19
100
AcDbEntity
  8
1
100
AcDbLine
 10
45.0828392040058
 20
3.4105374510121
 30
0.0
 11
45.07409028
 21
3.35107319019459
 31
0.0
  0
LINE
  5
14FC
330
19
100
AcDbEntity
  8
1
100
AcDbLine
 10
45.0828392040058
 20
3.4105374510121
 30
0.0
 11
45.1
 21
3.52762616626651
 31
0.0
  0
LINE
  5
14FD
330
19
100
AcDbEntity
  8
1
100
AcDbLine
 10
45.07409028
 20
3.35107319019459
 30
0.0
 11
42.271216105397
 21
2.9409018091909
 31
0.0
  0
ARC
  5
14FE
330
19
100
AcDbEntity
  8
1
100
AcDbCircle
 10
32.2134395656099
 20
-48.9662871898063
 30
0.0
 40
52.96703245540554
100
AcDbArc
 50
85.79202901128194
 51
87.95882795134453
  0
LINE
  5
14FF
330
19
100
AcDbEntity
  8
1
100
AcDbLine
 10
45.1000000000001
 20
2.49251536692204
 30
0.0
 11
45.0740902800001
 21
2.41950145566947
 31
0.0
  0
LINE
  5
1500
330
19
100
AcDbEntity
  8
1
100
AcDbLine
 10
45.1
 20
3.41267987604486
 30
0.0
 11
45.1
 21
3.52762616626651
 31
0.0
  0
LINE
  5
1501
330
19
100
AcDbEntity
  8
1
100
AcDbLine
 10
45.1
 20
3.41267987604486
 30
0.0
 11
45.0828392040058
 21
3.4105374510121
 31
0.0
  0
LINE
  5
1502
330
19
100
AcDbEntity
  8
1
100
AcDbLine
 10
34.1
 20
-3.92935665929569
 30
0.0
 11
34.1
 21
-4
 31
0.0
  0
ARC
  5
1503
330
19
100
AcDbEntity
  8
1
100
AcDbCircle
 10
36.8198247776023
 20
48.3032424319353
 30
0.0
 40
52.30336147348989
100
AcDbArc
 50
267.0192204226575
 51
269.2114420255345
  0
LINE
  5
1504
330
19
100
AcDbEntity
  8
1
100
AcDbLine
 10
36.1
 20
-2.84385878454817
 30
0.0
 11
36.1
 21
-3.9951541261352
 31
0.0
  0
LINE
  5
1505
330
19
100
AcDbEntity
  8
1
100
AcDbLine
 10
34.1
 20
-2.42672559565482
 30
0.0
 11
36.1
 21
-2.84385878454817
 31
0.0
  0
LINE
  5
1506
330
19
100
AcDbEntity
  8
1
100
AcDbLine
 10
34.1
 20
2.6128428018588
 30
0.0
 11
34.1
 21
-2.4267255956548
 31
0.0
  0
LINE
  5
1507
330
19
100
AcDbEntity
  8
1
100
AcDbLine
 10
36.1
 20
3.8579816105488
 30
0.0
 11
36.1
 21
2.16804005412048
 31
0.0
  0
LINE
  5
1508
330
19
100
AcDbEntity
  8
1
100
AcDbLine
 10
34.1
 20
3.99999999999999
 30
0.0
 11
34.1
 21
3.96713333339229
 31
0.0
  0
LINE
  5
1509
330
19
100
AcDbEntity
  8
1
100
AcDbLine
 10
34.1
 20
3.99999999999999
 30
0.0
 11
0
 21
3.99999999999999
 31
0.0
  0
LINE
  5
150A
330
19
100
AcDbEntity
  8
1
100
AcDbLine
 10
36.1
 20
-2.67386049490639
 30
0.0
 11
36.1
 21
-2.84385878454817
 31
0.0
  0
LINE
  5
150B
330
19
100
AcDbEntity
  8
1
100
AcDbLine
 10
45.07409028
 20
-3.74736959786033
 30
0.0
 11
45.07409028
 21
-3.79999999253172
 31
0.0
  0
LINE
  5
150C
330
19
100
AcDbEntity
  8
1
100
AcDbLine
 10
45.1
 20
2.49251536692206
 30
0.0
 11
45.1
 21
-0.196301674546262
 31
0.0
  0
LINE
  5
150D
330
19
100
AcDbEntity
  8
1
100
AcDbLine
 10
45.1
 20
-2.18860142770519
 30
0.0
 11
45.1
 21
-0.196301674546262
 31
0.0
  0
LINE
  5
150E
330
19
100
AcDbEntity
  8
1
100
AcDbLine
 10
45.1
 20
-3.91659982483374
 30
0.0
 11
45.1
 21
-3.96487945050001
 31
0.0
  0
LINE
  5
150F
330
19
100
AcDbEntity
  8
1
100
AcDbLine
 10
39.8779312377531
 20
1.22599765881114
 30
0.0
 11
36.1
 21
2.1174984622168
 31
0.0
  0
LINE
  5
1510
330
19
100
AcDbEntity
  8
1
100
AcDbLine
 10
39.8779494410677
 20
1.22599317016715
 30
0.0
 11
39.8779312522008
 21
1.22599771661198
 31
0.0
  0
LINE
  5
1511
330
19
100
AcDbEntity
  8
1
100
AcDbLine
 10
45.1
 20
2.49251536692202
 30
0.0
 11
45.1
 21
3.41267987604486
 31
0.0
  0
LINE
  5
1512
330
19
100
AcDbEntity
  8
1
100
AcDbLine
 10
34.1
 20
-4
 30
0.0
 11
0
 21
-4
 31
0.0
  0
LINE
  5
1513
330
19
100
AcDbEntity
  8
1
100
AcDbLine
 10
45.07409028
 20
-3.8
 30
0.0
 11
45.1
 21
-3.96487945050001
 31
0.0
  0
LINE
  5
1514
330
19
100
AcDbEntity
  8
1
100
AcDbLine
 10
37.0706548074858
 20
-3.79999999999963
 30
0.0
 11
36.1
 21
-3.79135791090178
 31
0.0
  0
LINE
  5
1515
330
19
100
AcDbEntity
  8
1
100
AcDbLine
 10
37.0706548074858
 20
-3.80000000000001
 30
0.0
 11
45.07409028
 21
-3.80000000000001
 31
0.0
  0
LINE
  5
1516
330
19
100
AcDbEntity
  8
1
 62
     1
100
AcDbLine
 10
58.3100607223893
 20
3.28399067421434
 30
0.0
 11
59.0810528567116
 21
3.05561239953264
 31
0.0
  0
LINE
  5
1517
330
19
100
AcDbEntity
  8
1
 62
     1
100
AcDbLine
 10
59.0810528567116
 20
-0.70377260155103
 30
0.0
 11
58.3100607223893
 21
-0.642526937814729
 31
0.0
  0
LINE
  5
1518
330
19
100
AcDbEntity
  8
1
 62
     1
100
AcDbLine
 10
58.3100607223893
 20
-2.60939304318635
 30
0.0
 11
58.3100607223893
 21
-0.642526937814729
 31
0.0
  0
LINE
  5
1519
330
19
100
AcDbEntity
  8
1
 62
     1
100
AcDbLine
 10
57.9462370233894
 20
-0.604922338518968
 30
0.0
 11
57.5067084932228
 21
-0.552024846602706
 31
0.0
  0
LINE
  5
151A
330
19
100
AcDbEntity
  8
1
 62
     1
100
AcDbLine
 10
57.5067084932228
 20
-2.70338823245852
 30
0.0
 11
57.5067084932228
 21
-0.552024846602706
 31
0.0
  0
LINE
  5
151B
330
19
100
AcDbEntity
  8
1
 62
     1
100
AcDbLine
 10
57.9462370233894
 20
-2.65264335573141
 30
0.0
 11
57.9462370233894
 21
-0.604922338518968
 31
0.0
  0
LINE
  5
151C
330
19
100
AcDbEntity
  8
1
 62
     1
100
AcDbLine
 10
56.8114211900671
 20
-0.45163602969663
 30
0.0
 11
56.7033562640563
 21
-0.434194536026048
 31
0.0
  0
LINE
  5
151D
330
19
100
AcDbEntity
  8
1
 62
     1
100
AcDbLine
 10
56.7033562640563
 20
-2.79287081243081
 30
0.0
 11
56.7033562640563
 21
-0.434194536026062
 31
0.0
  0
LINE
  5
151E
330
19
100
AcDbEntity
  8
1
 62
     1
100
AcDbLine
 10
56.8114211900671
 20
-2.78102398321734
 30
0.0
 11
56.8114211900671
 21
-0.45163602969663
 31
0.0
  0
LINE
  5
151F
330
19
100
AcDbEntity
  8
1
 62
     1
100
AcDbLine
 10
56.8114211900395
 20
-2.97886477929011
 30
0.0
 11
57.2185185185185
 21
-2.45360274644876
 31
0.0
  0
LINE
  5
1520
330
19
100
AcDbEntity
  8
1
 62
     1
100
AcDbLine
 10
45.1
 20
2.49251536692206
 30
0.0
 11
45.1
 21
-0.196301674546262
 31
0.0
  0
LINE
  5
1521
330
19
100
AcDbEntity
  8
1
 62
     1
100
AcDbLine
 10
45.4592592592592
 20
-0.293120743805531
 30
0.0
 11
45.1
 21
-0.196301674545857
 31
0.0
  0
LINE
  5
1522
330
19
100
AcDbEntity
  8
1
 62
     1
100
AcDbLine
 10
55.8137695675952
 20
-0.220131076647711
 30
0.0
 11
55.8011394443975
 21
-0.216820709322889
 31
0.0
  0
LINE
  5
1523
330
19
100
AcDbEntity
  8
1
 62
     1
100
AcDbLine
 10
55.8011394444009
 20
-2.69253670379677
 30
0.0
 11
55.8011394444009
 21
-0.216820709429349
 31
0.0
  0
LINE
  5
1524
330
19
100
AcDbEntity
  8
1
 62
     1
100
AcDbLine
 10
55.8011394444412
 20
-2.69253670338361
 30
0.0
 11
55.8137695675952
 21
-2.69476662367171
 31
0.0
  0
LINE
  5
1525
330
19
100
AcDbEntity
  8
1
 62
     1
100
AcDbLine
 10
55.8137695675951
 20
-2.69476662367171
 30
0.0
 11
55.8137695675951
 21
-0.220131076647696
 31
0.0
  0
ARC
  5
1526
330
19
100
AcDbEntity
  8
1
 62
     1
100
AcDbCircle
 10
67.8769913782045
 20
7.69739352751155
 30
0.0
 40
16.26607040539935
100
AcDbArc
 50
219.5627971564743
 51
222.0640905277766
  0
ARC
  5
1527
330
19
100
AcDbEntity
  8
1
 62
     1
100
AcDbCircle
 10
69.7834645014427
 20
9.08915728302738
 30
0.0
 40
19.41507755843356
100
AcDbArc
 50
217.5767685427441
 51
219.797590345912
  0
ARC
  5
1528
330
19
100
AcDbEntity
  8
1
 62
     1
100
AcDbCircle
 10
66.4191829278135
 20
6.52425851781047
 30
0.0
 40
13.61760240150798
100
AcDbArc
 50
221.8643000029392
 51
224.4815296401299
  0
LINE
  5
1529
330
19
100
AcDbEntity
  8
1
 62
     1
100
AcDbLine
 10
55.8137695675732
 20
-3.1982755925257
 30
0.0
 11
56.2777777777778
 21
-2.56370425928705
 31
0.0
  0
LINE
  5
152A
330
19
100
AcDbEntity
  8
1
 62
     1
100
AcDbLine
 10
51.1037037037037
 20
-3.7139640639845
 30
0.0
 11
51.5740740740741
 21
-2.94217089437809
 31
0.0
  0
LINE
  5
152B
330
19
100
AcDbEntity
  8
1
 62
     1
100
AcDbLine
 10
52.5148148148148
 20
-2.8905801860141
 30
0.0
 11
52.9851851851852
 21
-3.55633258733785
 31
0.0
  0
LINE
  5
152C
330
19
100
AcDbEntity
  8
1
 62
     1
100
AcDbLine
 10
48.7518518518519
 20
-3.02090649813154
 30
0.0
 11
49.2222222222222
 21
-3.80819069062805
 31
0.0
  0
LINE
  5
152D
330
19
100
AcDbEntity
  8
1
 62
     1
100
AcDbLine
 10
45.4592592592592
 20
-3.80110456804938
 30
0.0
 11
45.9296296296296
 21
-2.98380945560822
 31
0.0
  0
LINE
  5
152E
330
19
100
AcDbEntity
  8
1
 62
     1
100
AcDbLine
 10
45.9296296296296
 20
-3.022795
 30
0.0
 11
45.4592592592592
 21
-3.8375
 31
0.0
  0
LINE
  5
152F
330
19
100
AcDbEntity
  8
1
 62
     1
100
AcDbLine
 10
45.4592592592592
 20
2.41266667418423
 30
0.0
 11
45.4592592592592
 21
-0.293120743805531
 31
0.0
  0
LINE
  5
1530
330
19
100
AcDbEntity
  8
1
 62
     1
100
AcDbLine
 10
45.9296296296296
 20
-3.022795
 30
0.0
 11
45.9296296296296
 21
-3.02278601994495
 31
0.0
  0
LINE
  5
1531
330
19
100
AcDbEntity
  8
1
 62
     1
100
AcDbLine
 10
45.9296296296296
 20
-3.02278601994495
 30
0.0
 11
45.9296296296296
 21
-3.02015847214206
 31
0.0
  0
LINE
  5
1532
330
19
100
AcDbEntity
  8
1
 62
     1
100
AcDbLine
 10
45.9296296296296
 20
-3.02015847214206
 30
0.0
 11
45.9296296296296
 21
-2.98380945560823
 31
0.0
  0
LINE
  5
1533
330
19
100
AcDbEntity
  8
1
 62
     1
100
AcDbLine
 10
46.4
 20
-3.8375
 30
0.0
 11
45.9296296296296
 21
-3.022795
 31
0.0
  0
LINE
  5
1534
330
19
100
AcDbEntity
  8
1
 62
     1
100
AcDbLine
 10
46.4
 20
-3.8375
 30
0.0
 11
46.4
 21
-3.82743067577092
 31
0.0
  0
LINE
  5
1535
330
19
100
AcDbEntity
  8
1
 62
     1
100
AcDbLine
 10
46.8703703703704
 20
-3.022795
 30
0.0
 11
46.4
 21
-3.8375
 31
0.0
  0
LINE
  5
1536
330
19
100
AcDbEntity
  8
1
 62
     1
100
AcDbLine
 10
46.8703703703704
 20
-3.022795
 30
0.0
 11
46.8703703703704
 21
-3.00904911911224
 31
0.0
  0
LINE
  5
1537
330
19
100
AcDbEntity
  8
1
 62
     1
100
AcDbLine
 10
47.3407407407407
 20
-3.8375
 30
0.0
 11
46.8703703703704
 21
-3.022795
 31
0.0
  0
LINE
  5
1538
330
19
100
AcDbEntity
  8
1
 62
     1
100
AcDbLine
 10
47.3407407407407
 20
-3.83740378202643
 30
0.0
 11
47.8111111111111
 21
-3.02143246176907
 31
0.0
  0
LINE
  5
1539
330
19
100
AcDbEntity
  8
1
 62
     1
100
AcDbLine
 10
47.3407407407407
 20
-3.83749999999426
 30
0.0
 11
47.3407407407407
 21
-3.83749999834786
 31
0.0
  0
LINE
  5
153A
330
19
100
AcDbEntity
  8
1
 62
     1
100
AcDbLine
 10
47.3407407407407
 20
-3.83749999834786
 30
0.0
 11
47.3407407407407
 21
-3.83749957393893
 31
0.0
  0
LINE
  5
153B
330
19
100
AcDbEntity
  8
1
 62
     1
100
AcDbLine
 10
47.3407407407407
 20
-3.83749957393893
 30
0.0
 11
47.3407407407407
 21
-3.83740378202643
 31
0.0
  0
LINE
  5
153C
330
19
100
AcDbEntity
  8
1
 62
     1
100
AcDbLine
 10
47.8111111111111
 20
-3.022795
 30
0.0
 11
47.3407407407407
 21
-3.8375
 31
0.0
  0
LINE
  5
153D
330
19
100
AcDbEntity
  8
1
 62
     1
100
AcDbLine
 10
47.8111111111111
 20
-3.022795
 30
0.0
 11
47.8111111111111
 21
-3.02279467131085
 31
0.0
  0
LINE
  5
153E
330
19
100
AcDbEntity
  8
1
 62
     1
100
AcDbLine
 10
47.8111111111111
 20
-3.02279467131085
 30
0.0
 11
47.8111111111111
 21
-3.02269971606478
 31
0.0
  0
LINE
  5
153F
330
19
100
AcDbEntity
  8
1
 62
     1
100
AcDbLine
 10
47.8111111111111
 20
-3.02269971606478
 30
0.0
 11
47.8111111111111
 21
-3.02143246176907
 31
0.0
  0
LINE
  5
1540
330
19
100
AcDbEntity
  8
1
 62
     1
100
AcDbLine
 10
47.9549119121192
 20
-3.2718651773861
 30
0.0
 11
48.2814814814814
 21
-3.83098132010686
 31
0.0
  0
LINE
  5
1541
330
19
100
AcDbEntity
  8
1
 62
     1
100
AcDbLine
 10
47.9549119121192
 20
-3.2718651773861
 30
0.0
 11
47.8111111111111
 21
-3.022795
 31
0.0
  0
LINE
  5
1542
330
19
100
AcDbEntity
  8
1
 62
     1
100
AcDbLine
 10
59.0810528567116
 20
2.76173144802657
 30
0.0
 11
58.3100607223893
 21
3.03147010862567
 31
0.0
  0
LINE
  5
1543
330
19
100
AcDbEntity
  8
1
 62
     1
100
AcDbLine
 10
57.9462370233894
 20
3.15679707409584
 30
0.0
 11
57.5067084932228
 21
3.30665994369833
 31
0.0
  0
LINE
  5
1544
330
19
100
AcDbEntity
  8
1
 62
     1
100
AcDbLine
 10
57.9462370233894
 20
3.15679707409584
 30
0.0
 11
57.9462370233894
 21
3.39176016363841
 31
0.0
  0
LINE
  5
1545
330
19
100
AcDbEntity
  8
1
 62
     1
100
AcDbLine
 10
57.5067084932228
 20
3.52195444568651
 30
0.0
 11
57.9462370233894
 21
3.39176016363841
 31
0.0
  0
LINE
  5
1546
330
19
100
AcDbEntity
  8
1
 62
     1
100
AcDbLine
 10
56.8114211900671
 20
3.54048928029823
 30
0.0
 11
56.7033562640563
 21
3.57649118958321
 31
0.0
  0
LINE
  5
1547
330
19
100
AcDbEntity
  8
1
 62
     1
100
AcDbLine
 10
56.8114211900671
 20
3.54048928029823
 30
0.0
 11
56.8114211900672
 21
3.72790792774418
 31
0.0
  0
LINE
  5
1548
330
19
100
AcDbEntity
  8
1
 62
     1
100
AcDbLine
 10
56.7033562640563
 20
3.75991821715869
 30
0.0
 11
56.8114211900672
 21
3.72790792774418
 31
0.0
  0
LINE
  5
1549
330
19
100
AcDbEntity
  8
1
 62
     1
100
AcDbLine
 10
59.0810528566823
 20
-0.703772601569497
 30
0.0
 11
59.1
 21
-0.691754380955167
 31
0.0
  0
LINE
  5
154A
330
19
100
AcDbEntity
  8
1
 62
     1
100
AcDbLine
 10
59.0810528567116
 20
-2.51321059589156
 30
0.0
 11
59.0810528567116
 21
-0.703772601551016
 31
0.0
  0
ARC
  5
154B
330
19
100
AcDbEntity
  8
1
 62
     1
100
AcDbCircle
 10
63.495646141072
 20
-6.61941703522784
 30
0.0
 40
6.821376872974949
100
AcDbArc
 50
141.4721733428164
 51
144.4424324683193
  0
LINE
  5
154C
330
19
100
AcDbEntity
  8
1
 62
     1
100
AcDbLine
 10
58.1592592592593
 20
-2.3704300829213
 30
0.0
 11
58.1592592592593
 21
-0.498041638872316
 31
0.0
  0
LINE
  5
154D
330
19
100
AcDbEntity
  8
1
 62
     1
100
AcDbLine
 10
57.2185185185185
 20
-2.24282498134207
 30
0.0
 11
57.3640945028543
 21
-2.4651822271429
 31
0.0
  0
LINE
  5
154E
330
19
100
AcDbEntity
  8
1
 62
     1
100
AcDbLine
 10
57.3640945028543
 20
-2.4651822271429
 30
0.0
 11
57.5067084932402
 21
-2.70338823248882
 31
0.0
  0
LINE
  5
154F
330
19
100
AcDbEntity
  8
1
 62
     1
100
AcDbLine
 10
56.8114211900395
 20
-2.78102398325816
 30
0.0
 11
57.0146489823052
 21
-2.49677326292669
 31
0.0
  0
LINE
  5
1550
330
19
100
AcDbEntity
  8
1
 62
     1
100
AcDbLine
 10
57.0146489823052
 20
-2.49677326292669
 30
0.0
 11
57.2185185185185
 21
-2.24282498134207
 31
0.0
  0
LINE
  5
1551
330
19
100
AcDbEntity
  8
1
 62
     1
100
AcDbLine
 10
57.2185185185185
 20
-2.24282498134207
 30
0.0
 11
57.2185185185185
 21
-0.302199078372389
 31
0.0
  0
LINE
  5
1552
330
19
100
AcDbEntity
  8
1
 62
     1
100
AcDbLine
 10
45.4592592592592
 20
3.56682021973445
 30
0.0
 11
45.1
 21
3.52762616626651
 31
0.0
  0
LINE
  5
1553
330
19
100
AcDbEntity
  8
1
 62
     1
100
AcDbLine
 10
55.8011394444411
 20
3.70106884409916
 30
0.0
 11
55.8137695675952
 21
3.70007091094579
 31
0.0
  0
LINE
  5
1554
330
19
100
AcDbEntity
  8
1
 62
     1
100
AcDbLine
 10
55.8011394444009
 20
3.82664357467449
 30
0.0
 11
55.8137695675951
 21
3.82648042044678
 31
0.0
  0
LINE
  5
1555
330
19
100
AcDbEntity
  8
1
 62
     1
100
AcDbLine
 10
52.5148148148148
 20
-1.47334337837155
 30
0.0
 11
52.5148148148148
 21
0.67953761982433
 31
0.0
  0
LINE
  5
1556
330
19
100
AcDbEntity
  8
1
 62
     1
100
AcDbLine
 10
52.5148148148148
 20
-1.47334337837156
 30
0.0
 11
52.575505784914
 21
-1.54037871712844
 31
0.0
  0
LINE
  5
1557
330
19
100
AcDbEntity
  8
1
 62
     1
100
AcDbLine
 10
52.575505784914
 20
-1.54037871712844
 30
0.0
 11
52.6955852086344
 21
-1.68749769814322
 31
0.0
  0
LINE
  5
1558
330
19
100
AcDbEntity
  8
1
 62
     1
100
AcDbLine
 10
52.6955852086344
 20
-1.68749769814322
 30
0.0
 11
52.8134606130772
 21
-1.85062350182705
 31
0.0
  0
LINE
  5
1559
330
19
100
AcDbEntity
  8
1
 62
     1
100
AcDbLine
 10
52.8134606130772
 20
-1.85062350182705
 30
0.0
 11
52.9851851851852
 21
-2.12162658311867
 31
0.0
  0
LINE
  5
155A
330
19
100
AcDbEntity
  8
1
 62
     1
100
AcDbLine
 10
52.0444444444444
 20
0.776670278096162
 30
0.0
 11
52.0656362688726
 21
0.771134824453618
 31
0.0
  0
LINE
  5
155B
330
19
100
AcDbEntity
  8
1
 62
     1
100
AcDbLine
 10
52.0444444444444
 20
-1.90819037871381
 30
0.0
 11
52.0444444444444
 21
0.776670278096162
 31
0.0
  0
LINE
  5
155C
330
19
100
AcDbEntity
  8
1
 62
     1
100
AcDbLine
 10
52.0444444444444
 20
-1.90819037871381
 30
0.0
 11
52.1613027535776
 21
-1.77935470225247
 31
0.0
  0
LINE
  5
155D
330
19
100
AcDbEntity
  8
1
 62
     1
100
AcDbLine
 10
52.1613027535776
 20
-1.77935470225247
 30
0.0
 11
52.2789571683729
 21
-1.66396094840446
 31
0.0
  0
LINE
  5
155E
330
19
100
AcDbEntity
  8
1
 62
     1
100
AcDbLine
 10
52.2789571683729
 20
-1.66396094840446
 30
0.0
 11
52.3969566147284
 21
-1.56197718009158
 31
0.0
  0
LINE
  5
155F
330
19
100
AcDbEntity
  8
1
 62
     1
100
AcDbLine
 10
52.3969566147284
 20
-1.56197718009158
 30
0.0
 11
52.4559380621692
 21
-1.5159942143266
 31
0.0
  0
LINE
  5
1560
330
19
100
AcDbEntity
  8
1
 62
     1
100
AcDbLine
 10
52.4559380621692
 20
-1.5159942143266
 30
0.0
 11
52.5148148148148
 21
-1.47334337837156
 31
0.0
  0
LINE
  5
1561
330
19
100
AcDbEntity
  8
1
 62
     1
100
AcDbLine
 10
51.5740740740741
 20
-1.29776243510166
 30
0.0
 11
51.5740740740741
 21
0.870510697283073
 31
0.0
  0
LINE
  5
1562
330
19
100
AcDbEntity
  8
1
 62
     1
100
AcDbLine
 10
51.1037037037037
 20
-1.68660139956469
 30
0.0
 11
51.1037037037037
 21
1.02052648262108
 31
0.0
  0
LINE
  5
1563
330
19
100
AcDbEntity
  8
1
 62
     1
100
AcDbLine
 10
51.1037037037037
 20
-1.68660139956469
 30
0.0
 11
51.2205620041619
 21
-1.56846857081769
 31
0.0
  0
LINE
  5
1564
330
19
100
AcDbEntity
  8
1
 62
     1
100
AcDbLine
 10
51.2205620041619
 20
-1.56846857081769
 30
0.0
 11
51.3382164195409
 21
-1.46436027489858
 31
0.0
  0
LINE
  5
1565
330
19
100
AcDbEntity
  8
1
 62
     1
100
AcDbLine
 10
51.3382164195409
 20
-1.46436027489858
 30
0.0
 11
51.3972020156872
 21
-1.41753275240508
 31
0.0
  0
LINE
  5
1566
330
19
100
AcDbEntity
  8
1
 62
     1
100
AcDbLine
 10
51.3972020156872
 20
-1.41753275240508
 30
0.0
 11
51.4562158704123
 21
-1.37416761130273
 31
0.0
  0
LINE
  5
1567
330
19
100
AcDbEntity
  8
1
 62
     1
100
AcDbLine
 10
51.4562158704123
 20
-1.37416761130273
 30
0.0
 11
51.5151973200067
 21
-1.33424840681026
 31
0.0
  0
LINE
  5
1568
330
19
100
AcDbEntity
  8
1
 62
     1
100
AcDbLine
 10
51.5151973200067
 20
-1.33424840681026
 30
0.0
 11
51.5740740740741
 21
-1.29776243510167
 31
0.0
  0
LINE
  5
1569
330
19
100
AcDbEntity
  8
1
 62
     1
100
AcDbLine
 10
50.6333333333333
 20
-1.1166367416463
 30
0.0
 11
50.6333333333333
 21
1.05776393774479
 31
0.0
  0
LINE
  5
156A
330
19
100
AcDbEntity
  8
1
 62
     1
100
AcDbLine
 10
49.6925925925926
 20
-0.930740218375469
 30
0.0
 11
49.6925925925926
 21
1.24049807643851
 31
0.0
  0
LINE
  5
156B
330
19
100
AcDbEntity
  8
1
 62
     1
100
AcDbLine
 10
49.6925925925926
 20
-0.930740218375469
 30
0.0
 11
49.7532835650354
 21
-0.980333490393157
 31
0.0
  0
LINE
  5
156C
330
19
100
AcDbEntity
  8
1
 62
     1
100
AcDbLine
 10
49.7532835650354
 20
-0.980333490393157
 30
0.0
 11
49.8135620807723
 21
-1.03493216512856
 31
0.0
  0
LINE
  5
156D
330
19
100
AcDbEntity
  8
1
 62
     1
100
AcDbLine
 10
49.8135620807723
 20
-1.03493216512856
 30
0.0
 11
49.8733629973152
 21
-1.09437425133214
 31
0.0
  0
LINE
  5
156E
330
19
100
AcDbEntity
  8
1
 62
     1
100
AcDbLine
 10
49.8733629973152
 20
-1.09437425133214
 30
0.0
 11
49.9326060370933
 21
-1.1584706679617
 31
0.0
  0
LINE
  5
156F
330
19
100
AcDbEntity
  8
1
 62
     1
100
AcDbLine
 10
49.9326060370933
 20
-1.1584706679617
 30
0.0
 11
49.991238410193
 21
-1.22704646576636
 31
0.0
  0
LINE
  5
1570
330
19
100
AcDbEntity
  8
1
 62
     1
100
AcDbLine
 10
49.991238410193
 20
-1.22704646576636
 30
0.0
 11
50.0492102414006
 21
-1.29992435509379
 31
0.0
  0
LINE
  5
1571
330
19
100
AcDbEntity
  8
1
 62
     1
100
AcDbLine
 10
50.0492102414006
 20
-1.29992435509379
 30
0.0
 11
50.162962962963
 21
-1.45780571703152
 31
0.0
  0
LINE
  5
1572
330
19
100
AcDbEntity
  8
1
 62
     1
100
AcDbLine
 10
49.2222222222222
 20
-1.22278234581017
 30
0.0
 11
49.2222222222222
 21
1.49413506021285
 31
0.0
  0
LINE
  5
1573
330
19
100
AcDbEntity
  8
1
 62
     1
100
AcDbLine
 10
49.2222222222222
 20
-1.22278234581009
 30
0.0
 11
49.2805144279511
 21
-1.17326919235248
 31
0.0
  0
LINE
  5
1574
330
19
100
AcDbEntity
  8
1
 62
     1
100
AcDbLine
 10
49.2805144279511
 20
-1.17326919235248
 30
0.0
 11
49.3390805249991
 21
-1.12752188781124
 31
0.0
  0
LINE
  5
1575
330
19
100
AcDbEntity
  8
1
 62
     1
100
AcDbLine
 10
49.3390805249991
 20
-1.12752188781124
 30
0.0
 11
49.3978333973272
 21
-1.08553709239568
 31
0.0
  0
LINE
  5
1576
330
19
100
AcDbEntity
  8
1
 62
     1
100
AcDbLine
 10
49.3978333973272
 20
-1.08553709239568
 30
0.0
 11
49.456734939371
 21
-1.0472689924461
 31
0.0
  0
LINE
  5
1577
330
19
100
AcDbEntity
  8
1
 62
     1
100
AcDbLine
 10
49.456734939371
 20
-1.0472689924461
 30
0.0
 11
49.5157205349412
 21
-1.01268945034548
 31
0.0
  0
LINE
  5
1578
330
19
100
AcDbEntity
  8
1
 62
     1
100
AcDbLine
 10
49.5157205349412
 20
-1.01268945034548
 30
0.0
 11
49.5747343889949
 21
-0.981762568016009
 31
0.0
  0
LINE
  5
1579
330
19
100
AcDbEntity
  8
1
 62
     1
100
AcDbLine
 10
49.5747343889949
 20
-0.981762568016009
 30
0.0
 11
49.6337158385369
 21
-0.954455869287749
 31
0.0
  0
LINE
  5
157A
330
19
100
AcDbEntity
  8
1
 62
     1
100
AcDbLine
 10
49.6337158385369
 20
-0.954455869287749
 30
0.0
 11
49.6925925925926
 21
-0.930740218375469
 31
0.0
  0
LINE
  5
157B
330
19
100
AcDbEntity
  8
1
 62
     1
100
AcDbLine
 10
56.2777777777778
 20
-2.10563733723383
 30
0.0
 11
56.2777777777778
 21
-0.105062634213226
 31
0.0
  0
LINE
  5
157C
330
19
100
AcDbEntity
  8
1
 62
     1
100
AcDbLine
 10
56.2777777777778
 20
-2.10563733723383
 30
0.0
 11
56.3868210935327
 21
-2.26335563062313
 31
0.0
  0
LINE
  5
157D
330
19
100
AcDbEntity
  8
1
 62
     1
100
AcDbLine
 10
56.3868210935327
 20
-2.26335563062313
 30
0.0
 11
56.4943452702066
 21
-2.43140173228847
 31
0.0
  0
LINE
  5
157E
330
19
100
AcDbEntity
  8
1
 62
     1
100
AcDbLine
 10
56.4943452702066
 20
-2.43140173228847
 30
0.0
 11
56.7033562640837
 21
-2.79287081248107
 31
0.0
  0
LINE
  5
157F
330
19
100
AcDbEntity
  8
1
 62
     1
100
AcDbLine
 10
52.9851851851852
 20
-2.12162658311867
 30
0.0
 11
52.9851851851852
 21
0.529495566984281
 31
0.0
  0
ARC
  5
1580
330
19
100
AcDbEntity
  8
1
 62
     1
100
AcDbCircle
 10
54.079151611161
 20
4.28487296989168
 30
0.0
 40
4.007742432723439
100
AcDbArc
 50
267.8089110241975
 51
274.5387457426457
  0
LINE
  5
1581
330
19
100
AcDbEntity
  8
1
 62
     1
100
AcDbLine
 10
53.9259259259259
 20
-2.32599832833276
 30
0.0
 11
53.9259259259259
 21
0.280058417906204
 31
0.0
  0
LINE
  5
1582
330
19
100
AcDbEntity
  8
1
 62
     1
100
AcDbLine
 10
53.9259259259259
 20
-2.32599832833275
 30
0.0
 11
54.0427636870803
 21
-2.17747568396951
 31
0.0
  0
LINE
  5
1583
330
19
100
AcDbEntity
  8
1
 62
     1
100
AcDbLine
 10
54.0427636870803
 20
-2.17747568396951
 30
0.0
 11
54.1604234765786
 21
-2.04102849020262
 31
0.0
  0
LINE
  5
1584
330
19
100
AcDbEntity
  8
1
 62
     1
100
AcDbLine
 10
54.1604234765786
 20
-2.04102849020262
 30
0.0
 11
54.2784328836453
 21
-1.91680662590508
 31
0.0
  0
LINE
  5
1585
330
19
100
AcDbEntity
  8
1
 62
     1
100
AcDbLine
 10
54.2784328836453
 20
-1.91680662590508
 30
0.0
 11
54.3962962962963
 21
-1.80489693378761
 31
0.0
  0
LINE
  5
1586
330
19
100
AcDbEntity
  8
1
 62
     1
100
AcDbLine
 10
54.3962962962963
 20
-1.80489693378761
 30
0.0
 11
54.3962962962963
 21
0.28971039091244
 31
0.0
  0
LINE
  5
1587
330
19
100
AcDbEntity
  8
1
 62
     1
100
AcDbLine
 10
54.3962962962963
 20
-1.80489693378761
 30
0.0
 11
54.5172657793869
 21
-1.96336585868075
 31
0.0
  0
LINE
  5
1588
330
19
100
AcDbEntity
  8
1
 62
     1
100
AcDbLine
 10
54.5172657793869
 20
-1.96336585868075
 30
0.0
 11
54.6363097301018
 21
-2.13665852118459
 31
0.0
  0
LINE
  5
1589
330
19
100
AcDbEntity
  8
1
 62
     1
100
AcDbLine
 10
54.6363097301018
 20
-2.13665852118459
 30
0.0
 11
54.7529139317544
 21
-2.3229582977172
 31
0.0
  0
LINE
  5
158A
330
19
100
AcDbEntity
  8
1
 62
     1
100
AcDbLine
 10
54.7529139317544
 20
-2.3229582977172
 30
0.0
 11
54.8666666666667
 21
-2.52043139770605
 31
0.0
  0
LINE
  5
158B
330
19
100
AcDbEntity
  8
1
 62
     1
100
AcDbLine
 10
54.8666666666667
 20
-2.52043139770605
 30
0.0
 11
54.8666666666667
 21
0.0294250859187528
 31
0.0
  0
LINE
  5
158C
330
19
100
AcDbEntity
  8
1
 62
     1
100
AcDbLine
 10
54.8666666666667
 20
-2.52043139770605
 30
0.0
 11
54.9835044331562
 21
-2.36298645113546
 31
0.0
  0
LINE
  5
158D
330
19
100
AcDbEntity
  8
1
 62
     1
100
AcDbLine
 10
54.9835044331562
 20
-2.36298645113546
 30
0.0
 11
55.101164225973
 21
-2.21686863772495
 31
0.0
  0
LINE
  5
158E
330
19
100
AcDbEntity
  8
1
 62
     1
100
AcDbLine
 10
55.101164225973
 20
-2.21686863772495
 30
0.0
 11
55.2191736307481
 21
-2.08230565687066
 31
0.0
  0
LINE
  5
158F
330
19
100
AcDbEntity
  8
1
 62
     1
100
AcDbLine
 10
55.2191736307481
 20
-2.08230565687066
 30
0.0
 11
55.337037037037
 21
-1.95945313133201
 31
0.0
  0
LINE
  5
1590
330
19
100
AcDbEntity
  8
1
 62
     1
100
AcDbLine
 10
55.337037037037
 20
-1.95945313133201
 30
0.0
 11
55.337037037037
 21
0.0925214856870298
 31
0.0
  0
LINE
  5
1591
330
19
100
AcDbEntity
  8
1
 62
     1
100
AcDbLine
 10
53.4555555555555
 20
-1.64262921139946
 30
0.0
 11
53.4555555555555
 21
0.48566175526458
 31
0.0
  0
LINE
  5
1592
330
19
100
AcDbEntity
  8
1
 62
     1
100
AcDbLine
 10
53.4555555555555
 20
-1.64262921139907
 30
0.0
 11
53.5765250618539
 21
-1.79142364464088
 31
0.0
  0
LINE
  5
1593
330
19
100
AcDbEntity
  8
1
 62
     1
100
AcDbLine
 10
53.5765250618539
 20
-1.79142364464088
 30
0.0
 11
53.6955690205402
 21
-1.95609016652703
 31
0.0
  0
LINE
  5
1594
330
19
100
AcDbEntity
  8
1
 62
     1
100
AcDbLine
 10
53.6955690205402
 20
-1.95609016652703
 30
0.0
 11
53.8121732120234
 21
-2.13487480535224
 31
0.0
  0
LINE
  5
1595
330
19
100
AcDbEntity
  8
1
 62
     1
100
AcDbLine
 10
53.8121732120234
 20
-2.13487480535224
 30
0.0
 11
53.9259259259259
 21
-2.32599832833275
 31
0.0
  0
ARC
  5
1596
330
19
100
AcDbEntity
  8
1
 62
     1
100
AcDbCircle
 10
52.5857912652275
 20
6.24493281918893
 30
0.0
 40
5.542501759827667
100
AcDbArc
 50
244.0787414903278
 51
249.3735892963912
  0
LINE
  5
1597
330
19
100
AcDbEntity
  8
1
 62
     1
100
AcDbLine
 10
50.162962962963
 20
-1.45780571703212
 30
0.0
 11
50.1629629629629
 21
1.26002281837565
 31
0.0
  0
LINE
  5
1598
330
19
100
AcDbEntity
  8
1
 62
     1
100
AcDbLine
 10
47.8111111111111
 20
-0.547828328025489
 30
0.0
 11
47.8718020806853
 21
-0.584692590729176
 31
0.0
  0
LINE
  5
1599
330
19
100
AcDbEntity
  8
1
 62
     1
100
AcDbLine
 10
47.8718020806853
 20
-0.584692590729176
 30
0.0
 11
47.9320805925803
 21
-0.62685132173597
 31
0.0
  0
LINE
  5
159A
330
19
100
AcDbEntity
  8
1
 62
     1
100
AcDbLine
 10
47.9320805925803
 20
-0.62685132173597
 30
0.0
 11
47.9918815050383
 21
-0.674166257916887
 31
0.0
  0
LINE
  5
159B
330
19
100
AcDbEntity
  8
1
 62
     1
100
AcDbLine
 10
47.9918815050383
 20
-0.674166257916887
 30
0.0
 11
48.0511245408113
 21
-0.726476245871837
 31
0.0
  0
LINE
  5
159C
330
19
100
AcDbEntity
  8
1
 62
     1
100
AcDbLine
 10
48.0511245408113
 20
-0.726476245871837
 30
0.0
 11
48.109756912228
 21
-0.783629320151952
 31
0.0
  0
LINE
  5
159D
330
19
100
AcDbEntity
  8
1
 62
     1
100
AcDbLine
 10
48.109756912228
 20
-0.783629320151952
 30
0.0
 11
48.1677287446608
 21
-0.845471107543077
 31
0.0
  0
LINE
  5
159E
330
19
100
AcDbEntity
  8
1
 62
     1
100
AcDbLine
 10
48.1677287446608
 20
-0.845471107543077
 30
0.0
 11
48.224981357119
 21
-0.911824836675478
 31
0.0
  0
LINE
  5
159F
330
19
100
AcDbEntity
  8
1
 62
     1
100
AcDbLine
 10
48.224981357119
 20
-0.911824836675478
 30
0.0
 11
48.2814814814815
 21
-0.982533655438019
 31
0.0
  0
ARC
  5
15A0
330
19
100
AcDbEntity
  8
1
 62
     1
100
AcDbCircle
 10
53.1464732587806
 20
9.18887260553893
 30
0.0
 40
9.285480258223911
100
AcDbArc
 50
231.2996064069248
 51
234.9287835253645
  0
LINE
  5
15A1
330
19
100
AcDbEntity
  8
1
 62
     1
100
AcDbLine
 10
47.3407407407407
 20
-0.738087661581318
 30
0.0
 11
47.3407407407407
 21
1.94223586150128
 31
0.0
  0
LINE
  5
15A2
330
19
100
AcDbEntity
  8
1
 62
     1
100
AcDbLine
 10
47.8111111111111
 20
-0.547828328025489
 30
0.0
 11
47.8111111111111
 21
1.58930769508268
 31
0.0
  0
LINE
  5
15A3
330
19
100
AcDbEntity
  8
1
 62
     1
100
AcDbLine
 10
46.8703703703704
 20
-0.352448995615639
 30
0.0
 11
46.8703703703704
 21
1.75389327871741
 31
0.0
  0
LINE
  5
15A4
330
19
100
AcDbEntity
  8
1
 62
     1
100
AcDbLine
 10
46.8703703703704
 20
-0.352448995615632
 30
0.0
 11
46.9007591804894
 21
-0.366888463407186
 31
0.0
  0
LINE
  5
15A5
330
19
100
AcDbEntity
  8
1
 62
     1
100
AcDbLine
 10
46.9007591804894
 20
-0.366888463407186
 30
0.0
 11
46.9310613518956
 21
-0.382698630518021
 31
0.0
  0
LINE
  5
15A6
330
19
100
AcDbEntity
  8
1
 62
     1
100
AcDbLine
 10
46.9310613518956
 20
-0.382698630518021
 30
0.0
 11
46.9612584225394
 21
-0.399859020951446
 31
0.0
  0
LINE
  5
15A7
330
19
100
AcDbEntity
  8
1
 62
     1
100
AcDbLine
 10
46.9612584225394
 20
-0.399859020951446
 30
0.0
 11
47.0213058499694
 21
-0.438170813123612
 31
0.0
  0
LINE
  5
15A8
330
19
100
AcDbEntity
  8
1
 62
     1
100
AcDbLine
 10
47.0213058499694
 20
-0.438170813123612
 30
0.0
 11
47.0808324982225
 21
-0.481687312170891
 31
0.0
  0
LINE
  5
15A9
330
19
100
AcDbEntity
  8
1
 62
     1
100
AcDbLine
 10
47.0808324982225
 20
-0.481687312170891
 30
0.0
 11
47.1397827137648
 21
-0.530275828136681
 31
0.0
  0
LINE
  5
15AA
330
19
100
AcDbEntity
  8
1
 62
     1
100
AcDbLine
 10
47.1397827137648
 20
-0.530275828136681
 30
0.0
 11
47.1980873514404
 21
-0.583780607179001
 31
0.0
  0
LINE
  5
15AB
330
19
100
AcDbEntity
  8
1
 62
     1
100
AcDbLine
 10
47.1980873514404
 20
-0.583780607179001
 30
0.0
 11
47.2557055183546
 21
-0.642059478020016
 31
0.0
  0
LINE
  5
15AC
330
19
100
AcDbEntity
  8
1
 62
     1
100
AcDbLine
 10
47.2557055183546
 20
-0.642059478020016
 30
0.0
 11
47.3407407407407
 21
-0.738087661581318
 31
0.0
  0
LINE
  5
15AD
330
19
100
AcDbEntity
  8
1
 62
     1
100
AcDbLine
 10
46.4
 20
-0.49048796863898
 30
0.0
 11
46.4
 21
2.15430940291164
 31
0.0
  0
LINE
  5
15AE
330
19
100
AcDbEntity
  8
1
 62
     1
100
AcDbLine
 10
46.4
 20
-0.490487968638739
 30
0.0
 11
46.458292203485
 21
-0.459446946073811
 31
0.0
  0
LINE
  5
15AF
330
19
100
AcDbEntity
  8
1
 62
     1
100
AcDbLine
 10
46.458292203485
 20
-0.459446946073811
 30
0.0
 11
46.5168582995341
 21
-0.432455435580529
 31
0.0
  0
LINE
  5
15B0
330
19
100
AcDbEntity
  8
1
 62
     1
100
AcDbLine
 10
46.5168582995341
 20
-0.432455435580529
 30
0.0
 11
46.5756111721261
 21
-0.409469495982428
 31
0.0
  0
LINE
  5
15B1
330
19
100
AcDbEntity
  8
1
 62
     1
100
AcDbLine
 10
46.5756111721261
 20
-0.409469495982428
 30
0.0
 11
46.6345127150961
 21
-0.390420687878596
 31
0.0
  0
LINE
  5
15B2
330
19
100
AcDbEntity
  8
1
 62
     1
100
AcDbLine
 10
46.6345127150961
 20
-0.390420687878596
 30
0.0
 11
46.6934983118822
 21
-0.375251850099879
 31
0.0
  0
LINE
  5
15B3
330
19
100
AcDbEntity
  8
1
 62
     1
100
AcDbLine
 10
46.6934983118822
 20
-0.375251850099879
 30
0.0
 11
46.7525121664759
 21
-0.363903456203261
 31
0.0
  0
LINE
  5
15B4
330
19
100
AcDbEntity
  8
1
 62
     1
100
AcDbLine
 10
46.7525121664759
 20
-0.363903456203261
 30
0.0
 11
46.8114936164984
 21
-0.356320096924406
 31
0.0
  0
LINE
  5
15B5
330
19
100
AcDbEntity
  8
1
 62
     1
100
AcDbLine
 10
46.8114936164984
 20
-0.356320096924406
 30
0.0
 11
46.8703703703704
 21
-0.352448995615632
 31
0.0
  0
LINE
  5
15B6
330
19
100
AcDbEntity
  8
1
 62
     1
100
AcDbLine
 10
45.9296296296296
 20
-0.15556386477806
 30
0.0
 11
45.9296296296296
 21
1.91098474222376
 31
0.0
  0
ARC
  5
15B7
330
19
100
AcDbEntity
  8
1
 62
     1
100
AcDbCircle
 10
55.1145527450881
 20
12.0637629315277
 30
0.0
 40
13.69095844800353
100
AcDbArc
 50
225.1517793494387
 51
227.8652720954811
  0
LINE
  5
15B8
330
19
100
AcDbEntity
  8
1
 62
     1
100
AcDbLine
 10
45.4592592592592
 20
-0.240792233277922
 30
0.0
 11
45.5175514690609
 21
-0.216209779733369
 31
0.0
  0
LINE
  5
15B9
330
19
100
AcDbEntity
  8
1
 62
     1
100
AcDbLine
 10
45.5175514690609
 20
-0.216209779733369
 30
0.0
 11
45.5761175683125
 21
-0.195737232022132
 31
0.0
  0
LINE
  5
15BA
330
19
100
AcDbEntity
  8
1
 62
     1
100
AcDbLine
 10
45.5761175683125
 20
-0.195737232022132
 30
0.0
 11
45.6348704417845
 21
-0.179317408828297
 31
0.0
  0
LINE
  5
15BB
330
19
100
AcDbEntity
  8
1
 62
     1
100
AcDbLine
 10
45.6348704417845
 20
-0.179317408828297
 30
0.0
 11
45.6937719836179
 21
-0.166874870298898
 31
0.0
  0
LINE
  5
15BC
330
19
100
AcDbEntity
  8
1
 62
     1
100
AcDbLine
 10
45.6937719836179
 20
-0.166874870298898
 30
0.0
 11
45.7527575782042
 21
-0.158343216131279
 31
0.0
  0
LINE
  5
15BD
330
19
100
AcDbEntity
  8
1
 62
     1
100
AcDbLine
 10
45.7527575782042
 20
-0.158343216131279
 30
0.0
 11
45.8117714300046
 21
-0.153655512429665
 31
0.0
  0
LINE
  5
15BE
330
19
100
AcDbEntity
  8
1
 62
     1
100
AcDbLine
 10
45.8117714300046
 20
-0.153655512429665
 30
0.0
 11
45.8707528776287
 21
-0.152749142539179
 31
0.0
  0
LINE
  5
15BF
330
19
100
AcDbEntity
  8
1
 62
     1
100
AcDbLine
 10
45.8707528776287
 20
-0.152749142539179
 30
0.0
 11
45.9296296296296
 21
-0.155563864777839
 31
0.0
  0
LINE
  5
15C0
330
19
100
AcDbEntity
  8
1
 62
     1
100
AcDbLine
 10
48.2814814814815
 20
-0.982533655438019
 30
0.0
 11
48.2814814814815
 21
1.72186400578234
 31
0.0
  0
LINE
  5
15C1
330
19
100
AcDbEntity
  8
1
 62
     1
100
AcDbLine
 10
48.2814814814815
 20
-0.982533655438019
 30
0.0
 11
48.3397736865755
 21
-0.93900068341852
 31
0.0
  0
LINE
  5
15C2
330
19
100
AcDbEntity
  8
1
 62
     1
100
AcDbLine
 10
48.3397736865755
 20
-0.93900068341852
 30
0.0
 11
48.398339784618
 21
-0.899344832716771
 31
0.0
  0
LINE
  5
15C3
330
19
100
AcDbEntity
  8
1
 62
     1
100
AcDbLine
 10
48.398339784618
 20
-0.899344832716771
 30
0.0
 11
48.4570926583963
 21
-0.863549133683172
 31
0.0
  0
LINE
  5
15C4
330
19
100
AcDbEntity
  8
1
 62
     1
100
AcDbLine
 10
48.4570926583963
 20
-0.863549133683172
 30
0.0
 11
48.5159942015948
 21
-0.831559983652753
 31
0.0
  0
LINE
  5
15C5
330
19
100
AcDbEntity
  8
1
 62
     1
100
AcDbLine
 10
48.5159942015948
 20
-0.831559983652753
 30
0.0
 11
48.5749797974606
 21
-0.803339384639877
 31
0.0
  0
LINE
  5
15C6
330
19
100
AcDbEntity
  8
1
 62
     1
100
AcDbLine
 10
48.5749797974606
 20
-0.803339384639877
 30
0.0
 11
48.6339936507902
 21
-0.778843356306908
 31
0.0
  0
LINE
  5
15C7
330
19
100
AcDbEntity
  8
1
 62
     1
100
AcDbLine
 10
48.6339936507902
 20
-0.778843356306908
 30
0.0
 11
48.6929750990931
 21
-0.758031590459112
 31
0.0
  0
LINE
  5
15C8
330
19
100
AcDbEntity
  8
1
 62
     1
100
AcDbLine
 10
48.6929750990931
 20
-0.758031590459112
 30
0.0
 11
48.7518518518519
 21
-0.740866899503509
 31
0.0
  0
LINE
  5
15C9
330
19
100
AcDbEntity
  8
1
 62
     1
100
AcDbLine
 10
45.4592592592592
 20
3.45641146916543
 30
0.0
 11
45.4592592592592
 21
3.56682021973445
 31
0.0
  0
LINE
  5
15CA
330
19
100
AcDbEntity
  8
1
 62
     1
100
AcDbLine
 10
45.4592592592592
 20
3.43721974980416
 30
0.0
 11
45.4592592592592
 21
3.45641146916543
 31
0.0
  0
ARC
  5
15CB
330
19
100
AcDbEntity
  8
1
 62
     1
100
AcDbCircle
 10
49.6293058333324
 20
-2.50795916179723
 30
0.0
 40
4.022752364088598
100
AcDbArc
 50
95.8080160574657
 51
102.5987949783142
  0
LINE
  5
15CC
330
19
100
AcDbEntity
  8
1
 62
     1
100
AcDbLine
 10
48.7518518518519
 20
-0.740866899503509
 30
0.0
 11
48.7518518518519
 21
1.41793213699465
 31
0.0
  0
ARC
  5
15CD
330
19
100
AcDbEntity
  8
1
 62
     1
100
AcDbCircle
 10
40.0414732725242
 20
-7.19506074755804
 30
0.0
 40
19.91190216461898
100
AcDbArc
 50
30.38468763989113
 51
32.625988845221
  0
LINE
  5
15CE
330
19
100
AcDbEntity
  8
1
 62
     1
100
AcDbLine
 10
57.2185185185185
 20
2.87648208653317
 30
0.0
 11
57.2185185185185
 21
3.022795
 31
0.0
  0
LINE
  5
15CF
330
19
100
AcDbEntity
  8
1
 62
     1
100
AcDbLine
 10
57.2185185185185
 20
2.8764820865332
 30
0.0
 11
57.5067084932402
 21
3.30665994372283
 31
0.0
  0
LINE
  5
15D0
330
19
100
AcDbEntity
  8
1
 62
     1
100
AcDbLine
 10
57.5067084932228
 20
3.30665994369833
 30
0.0
 11
57.5067084932228
 21
3.52195444568651
 31
0.0
  0
LINE
  5
15D1
330
19
100
AcDbEntity
  8
1
 62
     1
100
AcDbLine
 10
57.9462370233763
 20
3.15679707411665
 30
0.0
 11
58.1592592592592
 21
2.80964205598147
 31
0.0
  0
LINE
  5
15D2
330
19
100
AcDbEntity
  8
1
 62
     1
100
AcDbLine
 10
58.1592592592593
 20
2.80964205598147
 30
0.0
 11
58.1592592592593
 21
3.022795
 31
0.0
  0
LINE
  5
15D3
330
19
100
AcDbEntity
  8
1
 62
     1
100
AcDbLine
 10
58.3100607223893
 20
3.03147010862567
 30
0.0
 11
58.3100607223893
 21
3.28399067421434
 31
0.0
  0
LINE
  5
15D4
330
19
100
AcDbEntity
  8
1
 62
     1
100
AcDbLine
 10
59.1
 20
-2.4879066958833
 30
0.0
 11
59.1
 21
-0.691754380955167
 31
0.0
  0
LINE
  5
15D5
330
19
100
AcDbEntity
  8
1
 62
     1
100
AcDbLine
 10
59.0810528567116
 20
2.76173144802658
 30
0.0
 11
59.0810528567116
 21
3.05561239953264
 31
0.0
  0
LINE
  5
15D6
330
19
100
AcDbEntity
  8
1
 62
     1
100
AcDbLine
 10
59.0810528566823
 20
2.76173144807419
 30
0.0
 11
59.1
 21
2.7307981325285
 31
0.0
  0
LINE
  5
15D7
330
19
100
AcDbEntity
  8
1
 62
     1
100
AcDbLine
 10
59.1
 20
2.73079813252847
 30
0.0
 11
59.1
 21
3.022795
 31
0.0
  0
LINE
  5
15D8
330
19
100
AcDbEntity
  8
1
 62
     1
100
AcDbLine
 10
53.4555555555555
 20
3.01888011425952
 30
0.0
 11
53.4555555555555
 21
3.0218260449269
 31
0.0
  0
LINE
  5
15D9
330
19
100
AcDbEntity
  8
1
 62
     1
100
AcDbLine
 10
53.4555555555555
 20
3.0218260449269
 30
0.0
 11
53.4555555555555
 21
3.02255399761667
 31
0.0
  0
LINE
  5
15DA
330
19
100
AcDbEntity
  8
1
 62
     1
100
AcDbLine
 10
53.4555555555555
 20
3.02255399761667
 30
0.0
 11
53.4555555555555
 21
3.02273490487172
 31
0.0
  0
LINE
  5
15DB
330
19
100
AcDbEntity
  8
1
 62
     1
100
AcDbLine
 10
53.4555555555555
 20
3.02273490487172
 30
0.0
 11
53.4555555555555
 21
3.02277999570713
 31
0.0
  0
LINE
  5
15DC
330
19
100
AcDbEntity
  8
1
 62
     1
100
AcDbLine
 10
53.4555555555555
 20
3.02277999570713
 30
0.0
 11
53.4555555555555
 21
3.02279125136637
 31
0.0
  0
LINE
  5
15DD
330
19
100
AcDbEntity
  8
1
 62
     1
100
AcDbLine
 10
53.4555555555555
 20
3.02279125136637
 30
0.0
 11
53.4555555555555
 21
3.02279406314676
 31
0.0
  0
LINE
  5
15DE
330
19
100
AcDbEntity
  8
1
 62
     1
100
AcDbLine
 10
53.4555555555555
 20
3.02279406314676
 30
0.0
 11
53.4555555555555
 21
3.02279476582485
 31
0.0
  0
LINE
  5
15DF
330
19
100
AcDbEntity
  8
1
 62
     1
100
AcDbLine
 10
53.4555555555555
 20
3.02279476582485
 30
0.0
 11
53.4555555555555
 21
3.02279494146098
 31
0.0
  0
LINE
  5
15E0
330
19
100
AcDbEntity
  8
1
 62
     1
100
AcDbLine
 10
53.4555555555555
 20
3.02279494146098
 30
0.0
 11
53.4555555555555
 21
3.02279498536584
 31
0.0
  0
LINE
  5
15E1
330
19
100
AcDbEntity
  8
1
 62
     1
100
AcDbLine
 10
53.4555555555555
 20
3.02279498536584
 30
0.0
 11
53.4555555555555
 21
3.02279499634154
 31
0.0
  0
LINE
  5
15E2
330
19
100
AcDbEntity
  8
1
 62
     1
100
AcDbLine
 10
53.4555555555555
 20
3.02279499634154
 30
0.0
 11
53.4555555555555
 21
3.02279499908539
 31
0.0
  0
LINE
  5
15E3
330
19
100
AcDbEntity
  8
1
 62
     1
100
AcDbLine
 10
53.4555555555555
 20
3.02279499908539
 30
0.0
 11
53.4555555555555
 21
3.02279499977135
 31
0.0
  0
LINE
  5
15E4
330
19
100
AcDbEntity
  8
1
 62
     1
100
AcDbLine
 10
53.4555555555555
 20
3.02279499977135
 30
0.0
 11
53.4555555555555
 21
3.02279499994284
 31
0.0
  0
LINE
  5
15E5
330
19
100
AcDbEntity
  8
1
 62
     1
100
AcDbLine
 10
53.4555555555555
 20
3.02279499994284
 30
0.0
 11
53.4555555555555
 21
3.02279499998571
 31
0.0
  0
LINE
  5
15E6
330
19
100
AcDbEntity
  8
1
 62
     1
100
AcDbLine
 10
53.4555555555555
 20
3.02279499998571
 30
0.0
 11
53.4555555555555
 21
3.02279499999643
 31
0.0
  0
LINE
  5
15E7
330
19
100
AcDbEntity
  8
1
 62
     1
100
AcDbLine
 10
53.4555555555555
 20
3.02279499999643
 30
0.0
 11
53.4555555555555
 21
3.0227949999991
 31
0.0
  0
LINE
  5
15E8
330
19
100
AcDbEntity
  8
1
 62
     1
100
AcDbLine
 10
53.4555555555555
 20
3.0227949999991
 30
0.0
 11
53.4555555555555
 21
3.02279499999989
 31
0.0
  0
LINE
  5
15E9
330
19
100
AcDbEntity
  8
1
 62
     1
100
AcDbLine
 10
53.4555555555555
 20
3.02279499999989
 30
0.0
 11
53.4555555555555
 21
3.022795
 31
0.0
  0
LINE
  5
15EA
330
19
100
AcDbEntity
  8
1
 62
     1
100
AcDbLine
 10
53.9259259259259
 20
3.80631214600276
 30
0.0
 11
53.9259259259259
 21
3.8375
 31
0.0
  0
LINE
  5
15EB
330
19
100
AcDbEntity
  8
1
 62
     1
100
AcDbLine
 10
55.8011394444009
 20
3.70106884445153
 30
0.0
 11
55.8011394444009
 21
3.82664357467449
 31
0.0
  0
LINE
  5
15EC
330
19
100
AcDbEntity
  8
1
 62
     1
100
AcDbLine
 10
55.337037037037
 20
2.97305914669799
 30
0.0
 11
55.337037037037
 21
3.022795
 31
0.0
  0
LINE
  5
15ED
330
19
100
AcDbEntity
  8
1
 62
     1
100
AcDbLine
 10
54.3962962962963
 20
3.002383585611
 30
0.0
 11
54.3962962962963
 21
3.022795
 31
0.0
  0
LINE
  5
15EE
330
19
100
AcDbEntity
  8
1
 62
     1
100
AcDbLine
 10
54.3962962962963
 20
3.002383585611
 30
0.0
 11
54.8666666666667
 21
3.76628310907828
 31
0.0
  0
LINE
  5
15EF
330
19
100
AcDbEntity
  8
1
 62
     1
100
AcDbLine
 10
54.8666666666667
 20
3.76628310907828
 30
0.0
 11
54.8666666666667
 21
3.8375
 31
0.0
  0
LINE
  5
15F0
330
19
100
AcDbEntity
  8
1
 62
     1
100
AcDbLine
 10
52.0444444444444
 20
3.83748066418299
 30
0.0
 11
52.5148148148148
 21
3.02247825932142
 31
0.0
  0
LINE
  5
15F1
330
19
100
AcDbEntity
  8
1
 62
     1
100
AcDbLine
 10
52.9851851851852
 20
3.83007856755822
 30
0.0
 11
52.9851851851852
 21
3.8375
 31
0.0
  0
LINE
  5
15F2
330
19
100
AcDbEntity
  8
1
 62
     1
100
AcDbLine
 10
49.6925925925926
 20
2.95600440459172
 30
0.0
 11
50.1629629629629
 21
3.80313553611885
 31
0.0
  0
LINE
  5
15F3
330
19
100
AcDbEntity
  8
1
 62
     1
100
AcDbLine
 10
49.2222222222222
 20
3.76153516780136
 30
0.0
 11
49.6925925925926
 21
2.95600440459172
 31
0.0
  0
LINE
  5
15F4
330
19
100
AcDbEntity
  8
1
 62
     1
100
AcDbLine
 10
55.8137695675951
 20
3.70007091094579
 30
0.0
 11
55.8137695675951
 21
3.82648042044678
 31
0.0
  0
LINE
  5
15F5
330
19
100
AcDbEntity
  8
1
 62
     1
100
AcDbLine
 10
55.8137695675732
 20
3.70007091098069
 30
0.0
 11
56.2777777777778
 21
2.9310321181625
 31
0.0
  0
LINE
  5
15F6
330
19
100
AcDbEntity
  8
1
 62
     1
100
AcDbLine
 10
56.2777777777778
 20
2.93103211816248
 30
0.0
 11
56.2777777777778
 21
3.02279499860226
 31
0.0
  0
LINE
  5
15F7
330
19
100
AcDbEntity
  8
1
 62
     1
100
AcDbLine
 10
56.2777777777778
 20
2.9310321181625
 30
0.0
 11
56.7033562640837
 21
3.57649118962133
 31
0.0
  0
LINE
  5
15F8
330
19
100
AcDbEntity
  8
1
 62
     1
100
AcDbLine
 10
56.7033562640563
 20
3.57649118958321
 30
0.0
 11
56.7033562640563
 21
3.75991821715869
 31
0.0
  0
LINE
  5
15F9
330
19
100
AcDbEntity
  8
1
 62
     1
100
AcDbLine
 10
45.4592592592592
 20
-3.80110456804938
 30
0.0
 11
45.4592592592592
 21
-3.92605701680428
 31
0.0
  0
LINE
  5
15FA
330
19
100
AcDbEntity
  8
1
 62
     1
100
AcDbLine
 10
45.4592592592592
 20
-3.92605701680428
 30
0.0
 11
45.4592592592592
 21
-3.96023858785074
 31
0.0
  0
ARC
  5
15FB
330
19
100
AcDbEntity
  8
1
 62
     1
100
AcDbCircle
 10
69.9236826119572
 20
15.9637758868683
 30
0.0
 40
24.8734813212375
100
AcDbArc
 50
209.5307633533494
 51
211.6595896772718
  0
LINE
  5
15FC
330
19
100
AcDbEntity
  8
1
 62
     1
100
AcDbLine
 10
46.8703703703704
 20
2.77618641832434
 30
0.0
 11
47.3407407407407
 21
3.63036636012842
 31
0.0
  0
LINE
  5
15FD
330
19
100
AcDbEntity
  8
1
 62
     1
100
AcDbLine
 10
59.1
 20
-0.333463305306466
 30
0.0
 11
59.1
 21
2.73079813252848
 31
0.0
  0
LINE
  5
15FE
330
19
100
AcDbEntity
  8
1
 62
     1
100
AcDbLine
 10
58.1592592592592
 20
2.80964205598147
 30
0.0
 11
58.3100607224128
 21
3.03147010865918
 31
0.0
  0
LINE
  5
15FF
330
19
100
AcDbEntity
  8
1
 62
     1
100
AcDbLine
 10
55.337037037037
 20
2.97305914669799
 30
0.0
 11
55.8011394444228
 21
3.70106884448344
 31
0.0
  0
LINE
  5
1600
330
19
100
AcDbEntity
  8
1
 62
     1
100
AcDbLine
 10
54.8666666666667
 20
3.76628310907828
 30
0.0
 11
55.337037037037
 21
2.97305914669799
 31
0.0
  0
LINE
  5
1601
330
19
100
AcDbEntity
  8
1
 62
     1
100
AcDbLine
 10
53.9259259259259
 20
3.80631214600279
 30
0.0
 11
54.3962962962963
 21
3.002383585611
 31
0.0
  0
LINE
  5
1602
330
19
100
AcDbEntity
  8
1
 62
     1
100
AcDbLine
 10
53.4555555555555
 20
3.01888011425954
 30
0.0
 11
53.9259259259259
 21
3.80631214600279
 31
0.0
  0
LINE
  5
1603
330
19
100
AcDbEntity
  8
1
 62
     1
100
AcDbLine
 10
52.9851851851852
 20
3.83007856755822
 30
0.0
 11
53.4555555555555
 21
3.01888011425954
 31
0.0
  0
LINE
  5
1604
330
19
100
AcDbEntity
  8
1
 62
     1
100
AcDbLine
 10
52.5148148148148
 20
3.02247825932142
 30
0.0
 11
52.647578815637
 21
3.25274891933953
 31
0.0
  0
LINE
  5
1605
330
19
100
AcDbEntity
  8
1
 62
     1
100
AcDbLine
 10
51.5740740740741
 20
3.01316265290239
 30
0.0
 11
52.0444444444444
 21
3.83748066418299
 31
0.0
  0
LINE
  5
1606
330
19
100
AcDbEntity
  8
1
 62
     1
100
AcDbLine
 10
51.1037037037037
 20
3.82848687098504
 30
0.0
 11
51.5740740740741
 21
3.01316265290238
 31
0.0
  0
LINE
  5
1607
330
19
100
AcDbEntity
  8
1
 62
     1
100
AcDbLine
 10
50.6333333333333
 20
2.9909730934303
 30
0.0
 11
51.1037037037037
 21
3.82848687098504
 31
0.0
  0
LINE
  5
1608
330
19
100
AcDbEntity
  8
1
 62
     1
100
AcDbLine
 10
50.1629629629629
 20
3.80313553611885
 30
0.0
 11
50.6333333333333
 21
2.9909730934303
 31
0.0
  0
LINE
  5
1609
330
19
100
AcDbEntity
  8
1
 62
     1
100
AcDbLine
 10
48.7518518518519
 20
2.90840594505854
 30
0.0
 11
49.2222222222222
 21
3.76153516780136
 31
0.0
  0
LINE
  5
160A
330
19
100
AcDbEntity
  8
1
 62
     1
100
AcDbLine
 10
47.8111111111111
 20
2.84838115764042
 30
0.0
 11
48.2814814814815
 21
3.70386319194666
 31
0.0
  0
ARC
  5
160B
330
19
100
AcDbEntity
  8
1
 62
     1
100
AcDbCircle
 10
64.2583228462364
 20
13.2728923934642
 30
0.0
 40
19.47261110781729
100
AcDbArc
 50
209.6818728653586
 51
212.3671900593147
  0
ARC
  5
160C
330
19
100
AcDbEntity
  8
1
 62
     1
100
AcDbCircle
 10
60.0136228025657
 20
11.3814203132709
 30
0.0
 40
15.70977155224609
100
AcDbArc
 50
209.9375657016901
 51
213.2138262345723
  0
LINE
  5
160D
330
19
100
AcDbEntity
  8
1
 62
     1
100
AcDbLine
 10
45.9296296296296
 20
2.69213024927408
 30
0.0
 11
46.4
 21
3.54135849264057
 31
0.0
  0
LINE
  5
160E
330
19
100
AcDbEntity
  8
1
 62
     1
100
AcDbLine
 10
45.4592592592593
 20
3.43721974969434
 30
0.0
 11
45.9296296296296
 21
2.69213024927408
 31
0.0
  0
LINE
  5
160F
330
19
100
AcDbEntity
  8
1
 62
     1
100
AcDbLine
 10
45.4592592592592
 20
2.41266667418423
 30
0.0
 11
45.1
 21
2.49251536692204
 31
0.0
  0
ARC
  5
1610
330
19
100
AcDbEntity
  8
1
 62
     1
100
AcDbCircle
 10
48.7381586684885
 20
-2.94089993535181
 30
0.0
 40
5.606116871682016
100
AcDbArc
 50
114.6500846449886
 51
120.0645422585003
  0
ARC
  5
1611
330
19
100
AcDbEntity
  8
1
 62
     1
100
AcDbCircle
 10
53.9274481003918
 20
10.5193577175656
 30
0.0
 40
11.25328294603086
100
AcDbArc
 50
228.0169329362045
 51
231.1624494207079
  0
ARC
  5
1612
330
19
100
AcDbEntity
  8
1
 62
     1
100
AcDbCircle
 10
48.9122970920117
 20
-2.66318024364263
 30
0.0
 40
4.866204650807285
100
AcDbArc
 50
108.8417402927495
 51
114.8101776672263
  0
ARC
  5
1613
330
19
100
AcDbEntity
  8
1
 62
     1
100
AcDbCircle
 10
49.2230495357867
 20
-2.51924069869943
 30
0.0
 40
4.344387823058915
100
AcDbArc
 50
102.5172250951029
 51
108.9657296882939
  0
ARC
  5
1614
330
19
100
AcDbEntity
  8
1
 62
     1
100
AcDbCircle
 10
52.7017973430582
 20
8.04562292678649
 30
0.0
 40
7.715503536108681
100
AcDbArc
 50
235.046400433464
 51
239.2060671778098
  0
ARC
  5
1615
330
19
100
AcDbEntity
  8
1
 62
     1
100
AcDbCircle
 10
52.5327351820841
 20
7.06913799603131
 30
0.0
 40
6.483829132620571
100
AcDbArc
 50
239.2975803109044
 51
244.0212464122832
  0
ARC
  5
1616
330
19
100
AcDbEntity
  8
1
 62
     1
100
AcDbCircle
 10
50.0887453023586
 20
-2.62970047464022
 30
0.0
 40
3.890422420426378
100
AcDbArc
 50
88.90690353335287
 51
95.84442894117689
  0
ARC
  5
1617
330
19
100
AcDbEntity
  8
1
 62
     1
100
AcDbCircle
 10
50.5575120817775
 20
-2.88617525408781
 30
0.0
 40
3.944672689888876
100
AcDbArc
 50
82.04112935801868
 51
88.89863853833517
  0
ARC
  5
1618
330
19
100
AcDbEntity
  8
1
 62
     1
100
AcDbCircle
 10
52.8116165210742
 20
5.56153919352076
 30
0.0
 40
4.851564838691841
100
AcDbArc
 50
249.3883003194746
 51
255.2214744274587
  0
ARC
  5
1619
330
19
100
AcDbEntity
  8
1
 62
     1
100
AcDbCircle
 10
50.9901181231528
 20
-3.28022254564219
 30
0.0
 40
4.191616938508421
100
AcDbArc
 50
75.43194612085122
 51
81.99176412542646
  0
ARC
  5
161A
330
19
100
AcDbEntity
  8
1
 62
     1
100
AcDbCircle
 10
51.3391223748075
 20
-3.8166838667314
 30
0.0
 40
4.647401932606553
100
AcDbArc
 50
69.25642473485969
 51
75.34614020939779
  0
ARC
  5
161B
330
19
100
AcDbEntity
  8
1
 62
     1
100
AcDbCircle
 10
53.6007677859505
 20
4.58670031845789
 30
0.0
 40
4.103634023320471
100
AcDbArc
 50
261.3725542650847
 51
267.9720811516677
  0
ARC
  5
161C
330
19
100
AcDbEntity
  8
1
 62
     1
100
AcDbCircle
 10
51.5548767503599
 20
-4.50184496990704
 30
0.0
 40
5.337406512784683
100
AcDbArc
 50
63.6260405426934
 51
69.13875821274448
  0
ARC
  5
161D
330
19
100
AcDbEntity
  8
1
 62
     1
100
AcDbCircle
 10
51.5848247719317
 20
-5.34463974804121
 30
0.0
 40
6.296856062750377
100
AcDbArc
 50
58.58836028812611
 51
63.48136714739851
  0
ARC
  5
161E
330
19
100
AcDbEntity
  8
1
 62
     1
100
AcDbCircle
 10
54.5596328412529
 20
4.10293519481434
 30
0.0
 40
4.085065200779933
100
AcDbArc
 50
274.3104205767313
 51
280.970519179627
  0
ARC
  5
161F
330
19
100
AcDbEntity
  8
1
 62
     1
100
AcDbCircle
 10
51.3761828425245
 20
-6.35135540526691
 30
0.0
 40
7.563864502486352
100
AcDbArc
 50
54.19637126824687
 51
58.42222845201592
  0
ARC
  5
1620
330
19
100
AcDbEntity
  8
1
 62
     1
100
AcDbCircle
 10
55.0032895970137
 20
4.04055386953868
 30
0.0
 40
4.337088534980383
100
AcDbArc
 50
280.7702944466281
 51
287.0890150525172
  0
ARC
  5
1621
330
19
100
AcDbEntity
  8
1
 62
     1
100
AcDbCircle
 10
50.8897921252398
 20
-7.51057739673846
 30
0.0
 40
9.158173633150056
100
AcDbArc
 50
50.59536997546451
 51
53.96171428441646
  0
ARC
  5
1622
330
19
100
AcDbEntity
  8
1
 62
     1
100
AcDbCircle
 10
55.3659796734266
 20
4.11471682651261
 30
0.0
 40
4.789666652538181
100
AcDbArc
 50
287.5647558378042
 51
292.7541069806589
  0
LINE
  5
1623
330
19
100
AcDbEntity
  8
1
 62
     1
100
AcDbLine
 10
57.2185185185185
 20
-0.302199078372389
 30
0.0
 11
57.5067084932402
 21
-0.55202484661833
 31
0.0
  0
ARC
  5
1624
330
19
100
AcDbEntity
  8
1
 62
     1
100
AcDbCircle
 10
55.5794948302059
 20
4.37778472049305
 30
0.0
 40
5.516234486833747
100
AcDbArc
 50
295.4073084867234
 51
297.8829928722678
  0
LINE
  5
1625
330
19
100
AcDbEntity
  8
1
 62
     1
100
AcDbLine
 10
58.1592592592593
 20
-0.498041638872316
 30
0.0
 11
58.3100607224128
 21
-0.642526937837637
 31
0.0
  0
LINE
  5
1626
330
19
100
AcDbEntity
  8
1
 62
     1
100
AcDbLine
 10
59.1
 20
-0.333463305306466
 30
0.0
 11
59.1
 21
-0.691754380955167
 31
0.0
  0
LINE
  5
1627
330
19
100
AcDbEntity
  8
1
 62
     1
100
AcDbLine
 10
59.1
 20
-0.333463305306466
 30
0.0
 11
52.0656362673242
 21
0.771134818503633
 31
0.0
  0
LINE
  5
1628
330
19
100
AcDbEntity
  8
1
 62
     1
100
AcDbLine
 10
59.0810528566824
 20
-2.51321059593079
 30
0.0
 11
59.1
 21
-2.4879066958833
 31
0.0
  0
LINE
  5
1629
330
19
100
AcDbEntity
  8
1
 62
     1
100
AcDbLine
 10
59.0810528567116
 20
-2.51321059589156
 30
0.0
 11
58.3100607223893
 21
-2.60939304318635
 31
0.0
  0
ARC
  5
162A
330
19
100
AcDbEntity
  8
1
 62
     1
100
AcDbCircle
 10
52.2921492785952
 20
-6.23934199369056
 30
0.0
 40
7.02790947148981
100
AcDbArc
 50
31.09799425379907
 51
33.40180822903386
  0
LINE
  5
162B
330
19
100
AcDbEntity
  8
1
 62
     1
100
AcDbLine
 10
57.9462370233894
 20
-2.65264335573141
 30
0.0
 11
57.5067084932228
 21
-2.70338823245852
 31
0.0
  0
LINE
  5
162C
330
19
100
AcDbEntity
  8
1
 62
     1
100
AcDbLine
 10
56.8114211900671
 20
-2.78102398321734
 30
0.0
 11
56.7033562640563
 21
-2.79287081243081
 31
0.0
  0
LINE
  5
162D
330
19
100
AcDbEntity
  8
1
 62
     1
100
AcDbLine
 10
55.8137695675732
 20
-2.69476662370388
 30
0.0
 11
56.0451301719518
 21
-2.37914440897963
 31
0.0
  0
LINE
  5
162E
330
19
100
AcDbEntity
  8
1
 62
     1
100
AcDbLine
 10
56.0451301719518
 20
-2.37914440897963
 30
0.0
 11
56.161528428002
 21
-2.23701030917972
 31
0.0
  0
LINE
  5
162F
330
19
100
AcDbEntity
  8
1
 62
     1
100
AcDbLine
 10
56.161528428002
 20
-2.23701030917972
 30
0.0
 11
56.2777777777778
 21
-2.10563733723383
 31
0.0
  0
LINE
  5
1630
330
19
100
AcDbEntity
  8
1
 62
     1
100
AcDbLine
 10
55.337037037037
 20
-1.95945313133201
 30
0.0
 11
55.4563310871013
 21
-2.12448495445327
 31
0.0
  0
LINE
  5
1631
330
19
100
AcDbEntity
  8
1
 62
     1
100
AcDbLine
 10
55.4563310871013
 20
-2.12448495445327
 30
0.0
 11
55.5737602262112
 21
-2.3028740630047
 31
0.0
  0
LINE
  5
1632
330
19
100
AcDbEntity
  8
1
 62
     1
100
AcDbLine
 10
55.5737602262112
 20
-2.3028740630047
 30
0.0
 11
55.8011394444228
 21
-2.69253670383719
 31
0.0
  0
LINE
  5
1633
330
19
100
AcDbEntity
  8
1
 62
     1
100
AcDbLine
 10
52.9851851851852
 20
-2.12162658311867
 30
0.0
 11
53.1020434878421
 21
-1.98263824837682
 31
0.0
  0
LINE
  5
1634
330
19
100
AcDbEntity
  8
1
 62
     1
100
AcDbLine
 10
53.1020434878421
 20
-1.98263824837682
 30
0.0
 11
53.2196979044625
 21
-1.85645196194926
 31
0.0
  0
LINE
  5
1635
330
19
100
AcDbEntity
  8
1
 62
     1
100
AcDbLine
 10
53.2196979044625
 20
-1.85645196194926
 30
0.0
 11
53.3376973538834
 21
-1.74311285578372
 31
0.0
  0
LINE
  5
1636
330
19
100
AcDbEntity
  8
1
 62
     1
100
AcDbLine
 10
53.3376973538834
 20
-1.74311285578372
 30
0.0
 11
53.4555555555555
 21
-1.64262921139907
 31
0.0
  0
LINE
  5
1637
330
19
100
AcDbEntity
  8
1
 62
     1
100
AcDbLine
 10
51.5740740740741
 20
-1.29776243510167
 30
0.0
 11
51.6347650542436
 21
-1.35923808227822
 31
0.0
  0
LINE
  5
1638
330
19
100
AcDbEntity
  8
1
 62
     1
100
AcDbLine
 10
51.6347650542436
 20
-1.35923808227822
 30
0.0
 11
51.6950435763495
 21
-1.42534463259081
 31
0.0
  0
LINE
  5
1639
330
19
100
AcDbEntity
  8
1
 62
     1
100
AcDbLine
 10
51.6950435763495
 20
-1.42534463259081
 30
0.0
 11
51.8140875372261
 21
-1.57068778721338
 31
0.0
  0
LINE
  5
163A
330
19
100
AcDbEntity
  8
1
 62
     1
100
AcDbLine
 10
51.8140875372261
 20
-1.57068778721338
 30
0.0
 11
51.9306917331724
 21
-1.73218552020752
 31
0.0
  0
LINE
  5
163B
330
19
100
AcDbEntity
  8
1
 62
     1
100
AcDbLine
 10
51.9306917331724
 20
-1.73218552020752
 30
0.0
 11
52.0444444444445
 21
-1.90819037871381
 31
0.0
  0
LINE
  5
163C
330
19
100
AcDbEntity
  8
1
 62
     1
100
AcDbLine
 10
50.6333333333333
 20
-1.1166367416463
 30
0.0
 11
50.6940243096231
 21
-1.17229014606056
 31
0.0
  0
LINE
  5
163D
330
19
100
AcDbEntity
  8
1
 62
     1
100
AcDbLine
 10
50.6940243096231
 20
-1.17229014606056
 30
0.0
 11
50.7543028263818
 21
-1.23277202825387
 31
0.0
  0
LINE
  5
163E
330
19
100
AcDbEntity
  8
1
 62
     1
100
AcDbLine
 10
50.7543028263818
 20
-1.23277202825387
 30
0.0
 11
50.8141037410837
 21
-1.29790953789395
 31
0.0
  0
LINE
  5
163F
330
19
100
AcDbEntity
  8
1
 62
     1
100
AcDbLine
 10
50.8141037410837
 20
-1.29790953789395
 30
0.0
 11
50.8733467770055
 21
-1.36750080256073
 31
0.0
  0
LINE
  5
1640
330
19
100
AcDbEntity
  8
1
 62
     1
100
AcDbLine
 10
50.8733467770055
 20
-1.36750080256073
 30
0.0
 11
50.9899509732467
 21
-1.51930088406925
 31
0.0
  0
LINE
  5
1641
330
19
100
AcDbEntity
  8
1
 62
     1
100
AcDbLine
 10
50.9899509732467
 20
-1.51930088406925
 30
0.0
 11
51.1037037037037
 21
-1.68660139956469
 31
0.0
  0
LINE
  5
1642
330
19
100
AcDbEntity
  8
1
 62
     1
100
AcDbLine
 10
50.1629629629629
 20
-1.45780571703152
 30
0.0
 11
50.2212551723984
 21
-1.40252401729264
 31
0.0
  0
LINE
  5
1643
330
19
100
AcDbEntity
  8
1
 62
     1
100
AcDbLine
 10
50.2212551723984
 20
-1.40252401729264
 30
0.0
 11
50.2798212725702
 21
-1.35088083201169
 31
0.0
  0
LINE
  5
1644
330
19
100
AcDbEntity
  8
1
 62
     1
100
AcDbLine
 10
50.2798212725702
 20
-1.35088083201169
 30
0.0
 11
50.3385741464541
 21
-1.30288645304201
 31
0.0
  0
LINE
  5
1645
330
19
100
AcDbEntity
  8
1
 62
     1
100
AcDbLine
 10
50.3385741464541
 20
-1.30288645304201
 30
0.0
 11
50.397475688416
 21
-1.25850303724207
 31
0.0
  0
LINE
  5
1646
330
19
100
AcDbEntity
  8
1
 62
     1
100
AcDbLine
 10
50.397475688416
 20
-1.25850303724207
 30
0.0
 11
50.4564612825172
 21
-1.21771241228836
 31
0.0
  0
LINE
  5
1647
330
19
100
AcDbEntity
  8
1
 62
     1
100
AcDbLine
 10
50.4564612825172
 20
-1.21771241228836
 30
0.0
 11
50.5154751344072
 21
-1.1804869046645
 31
0.0
  0
LINE
  5
1648
330
19
100
AcDbEntity
  8
1
 62
     1
100
AcDbLine
 10
50.5154751344072
 20
-1.1804869046645
 30
0.0
 11
50.5744565813589
 21
-1.14680200184586
 31
0.0
  0
LINE
  5
1649
330
19
100
AcDbEntity
  8
1
 62
     1
100
AcDbLine
 10
50.5744565813589
 20
-1.14680200184586
 30
0.0
 11
50.6333333333333
 21
-1.1166367416463
 31
0.0
  0
LINE
  5
164A
330
19
100
AcDbEntity
  8
1
 62
     1
100
AcDbLine
 10
48.7518518518519
 20
-0.740866899503509
 30
0.0
 11
48.8125428332753
 21
-0.784188216200178
 31
0.0
  0
LINE
  5
164B
330
19
100
AcDbEntity
  8
1
 62
     1
100
AcDbLine
 10
48.8125428332753
 20
-0.784188216200178
 30
0.0
 11
48.8728213548498
 21
-0.832670520288062
 31
0.0
  0
LINE
  5
164C
330
19
100
AcDbEntity
  8
1
 62
     1
100
AcDbLine
 10
48.8728213548498
 20
-0.832670520288062
 30
0.0
 11
48.9326222736913
 21
-0.886163361445661
 31
0.0
  0
LINE
  5
164D
330
19
100
AcDbEntity
  8
1
 62
     1
100
AcDbLine
 10
48.9326222736913
 20
-0.886163361445661
 30
0.0
 11
48.9918653118641
 21
-0.944491243211559
 31
0.0
  0
LINE
  5
164E
330
19
100
AcDbEntity
  8
1
 62
     1
100
AcDbLine
 10
48.9918653118641
 20
-0.944491243211559
 30
0.0
 11
49.0504976808986
 21
-1.00749035210318
 31
0.0
  0
LINE
  5
164F
330
19
100
AcDbEntity
  8
1
 62
     1
100
AcDbLine
 10
49.0504976808986
 20
-1.00749035210318
 30
0.0
 11
49.1084695067809
 21
-1.0749944939058
 31
0.0
  0
LINE
  5
1650
330
19
100
AcDbEntity
  8
1
 62
     1
100
AcDbLine
 10
49.1084695067809
 20
-1.0749944939058
 30
0.0
 11
49.1657221094547
 21
-1.14681418445892
 31
0.0
  0
LINE
  5
1651
330
19
100
AcDbEntity
  8
1
 62
     1
100
AcDbLine
 10
49.1657221094547
 20
-1.14681418445892
 30
0.0
 11
49.2222222222222
 21
-1.22278234581009
 31
0.0
  0
LINE
  5
1652
330
19
100
AcDbEntity
  8
1
 62
     1
100
AcDbLine
 10
47.3407407407407
 20
-0.738087661581318
 30
0.0
 11
47.3990329493588
 21
-0.700720905149389
 31
0.0
  0
LINE
  5
1653
330
19
100
AcDbEntity
  8
1
 62
     1
100
AcDbLine
 10
47.3990329493588
 20
-0.700720905149389
 30
0.0
 11
47.4575990476426
 21
-0.667325922502378
 31
0.0
  0
LINE
  5
1654
330
19
100
AcDbEntity
  8
1
 62
     1
100
AcDbLine
 10
47.4575990476426
 20
-0.667325922502378
 30
0.0
 11
47.5163519203629
 21
-0.637872193915797
 31
0.0
  0
LINE
  5
1655
330
19
100
AcDbEntity
  8
1
 62
     1
100
AcDbLine
 10
47.5163519203629
 20
-0.637872193915797
 30
0.0
 11
47.5752534619741
 21
-0.612298572183299
 31
0.0
  0
LINE
  5
1656
330
19
100
AcDbEntity
  8
1
 62
     1
100
AcDbLine
 10
47.5752534619741
 20
-0.612298572183299
 30
0.0
 11
47.6342390567479
 21
-0.590557382725152
 31
0.0
  0
LINE
  5
1657
330
19
100
AcDbEntity
  8
1
 62
     1
100
AcDbLine
 10
47.6342390567479
 20
-0.590557382725152
 30
0.0
 11
47.6932529094757
 21
-0.572596768270856
 31
0.0
  0
LINE
  5
1658
330
19
100
AcDbEntity
  8
1
 62
     1
100
AcDbLine
 10
47.6932529094757
 20
-0.572596768270856
 30
0.0
 11
47.7522343580108
 21
-0.558368774126897
 31
0.0
  0
LINE
  5
1659
330
19
100
AcDbEntity
  8
1
 62
     1
100
AcDbLine
 10
47.7522343580108
 20
-0.558368774126897
 30
0.0
 11
47.8111111111111
 21
-0.547828328025489
 31
0.0
  0
LINE
  5
165A
330
19
100
AcDbEntity
  8
1
 62
     1
100
AcDbLine
 10
45.9296296296296
 20
-0.155563864777839
 30
0.0
 11
45.9600184363734
 21
-0.166621745451707
 31
0.0
  0
LINE
  5
165B
330
19
100
AcDbEntity
  8
1
 62
     1
100
AcDbLine
 10
45.9600184363734
 20
-0.166621745451707
 30
0.0
 11
45.9903206041364
 21
-0.17906974915735
 31
0.0
  0
LINE
  5
165C
330
19
100
AcDbEntity
  8
1
 62
     1
100
AcDbLine
 10
45.9903206041364
 20
-0.17906974915735
 30
0.0
 11
46.0205176710207
 21
-0.192890137205218
 31
0.0
  0
LINE
  5
165D
330
19
100
AcDbEntity
  8
1
 62
     1
100
AcDbLine
 10
46.0205176710207
 20
-0.192890137205218
 30
0.0
 11
46.0505991194721
 21
-0.2080687912405
 31
0.0
  0
LINE
  5
165E
330
19
100
AcDbEntity
  8
1
 62
     1
100
AcDbLine
 10
46.0505991194721
 20
-0.2080687912405
 30
0.0
 11
46.0805650910083
 21
-0.224594832711439
 31
0.0
  0
LINE
  5
165F
330
19
100
AcDbEntity
  8
1
 62
     1
100
AcDbLine
 10
46.0805650910083
 20
-0.224594832711439
 30
0.0
 11
46.1400917333649
 21
-0.261613427685369
 31
0.0
  0
LINE
  5
1660
330
19
100
AcDbEntity
  8
1
 62
     1
100
AcDbLine
 10
46.1400917333649
 20
-0.261613427685369
 30
0.0
 11
46.1990419459326
 21
-0.303826419784556
 31
0.0
  0
LINE
  5
1661
330
19
100
AcDbEntity
  8
1
 62
     1
100
AcDbLine
 10
46.1990419459326
 20
-0.303826419784556
 30
0.0
 11
46.2573465846187
 21
-0.351093087893098
 31
0.0
  0
LINE
  5
1662
330
19
100
AcDbEntity
  8
1
 62
     1
100
AcDbLine
 10
46.2573465846187
 20
-0.351093087893098
 30
0.0
 11
46.3149647586397
 21
-0.4032834496889
 31
0.0
  0
LINE
  5
1663
330
19
100
AcDbEntity
  8
1
 62
     1
100
AcDbLine
 10
46.3149647586397
 20
-0.4032834496889
 30
0.0
 11
46.3576983904527
 21
-0.44557252477307
 31
0.0
  0
LINE
  5
1664
330
19
100
AcDbEntity
  8
1
 62
     1
100
AcDbLine
 10
46.3576983904527
 20
-0.44557252477307
 30
0.0
 11
46.4
 21
-0.490487968638739
 31
0.0
  0
LINE
  5
1665
330
19
100
AcDbEntity
  8
1
 62
     1
100
AcDbLine
 10
45.4592592592592
 20
-3.92605701680428
 30
0.0
 11
45.1
 21
-3.91659982483374
 31
0.0
  0
LINE
  5
1666
330
19
100
AcDbEntity
  8
1
 62
     1
100
AcDbLine
 10
45.9296296296296
 20
-2.98380945560822
 30
0.0
 11
46.4
 21
-3.82743067577092
 31
0.0
  0
LINE
  5
1667
330
19
100
AcDbEntity
  8
1
 62
     1
100
AcDbLine
 10
46.4
 20
-3.82743067577092
 30
0.0
 11
46.8703703703704
 21
-3.00904911911224
 31
0.0
  0
LINE
  5
1668
330
19
100
AcDbEntity
  8
1
 62
     1
100
AcDbLine
 10
46.8703703703704
 20
-3.00904911911224
 30
0.0
 11
47.3407407407407
 21
-3.83740378202644
 31
0.0
  0
LINE
  5
1669
330
19
100
AcDbEntity
  8
1
 62
     1
100
AcDbLine
 10
47.8111111111111
 20
-3.02143246176907
 30
0.0
 11
47.9549119121192
 21
-3.2718651773861
 31
0.0
  0
LINE
  5
166A
330
19
100
AcDbEntity
  8
1
 62
     1
100
AcDbLine
 10
48.2814814814814
 20
-3.83098132010686
 30
0.0
 11
48.7518518518519
 21
-3.02090649813154
 31
0.0
  0
LINE
  5
166B
330
19
100
AcDbEntity
  8
1
 62
     1
100
AcDbLine
 10
49.2222222222222
 20
-3.80819069062805
 30
0.0
 11
49.6925925925926
 21
-3.00747349368694
 31
0.0
  0
LINE
  5
166C
330
19
100
AcDbEntity
  8
1
 62
     1
100
AcDbLine
 10
49.6925925925926
 20
-3.00747349368694
 30
0.0
 11
50.1629629629629
 21
-3.76912936816604
 31
0.0
  0
LINE
  5
166D
330
19
100
AcDbEntity
  8
1
 62
     1
100
AcDbLine
 10
50.1629629629629
 20
-3.76912936816604
 30
0.0
 11
50.6333333333333
 21
-2.98119083971712
 31
0.0
  0
LINE
  5
166E
330
19
100
AcDbEntity
  8
1
 62
     1
100
AcDbLine
 10
50.6333333333333
 20
-2.98119083971712
 30
0.0
 11
51.1037037037037
 21
-3.7139640639845
 31
0.0
  0
LINE
  5
166F
330
19
100
AcDbEntity
  8
1
 62
     1
100
AcDbLine
 10
51.5740740740741
 20
-2.94217089437809
 30
0.0
 11
52.0444444444444
 21
-3.64293068179092
 31
0.0
  0
LINE
  5
1670
330
19
100
AcDbEntity
  8
1
 62
     1
100
AcDbLine
 10
52.0444444444444
 20
-3.64293068179092
 30
0.0
 11
52.5148148148148
 21
-2.8905801860141
 31
0.0
  0
LINE
  5
1671
330
19
100
AcDbEntity
  8
1
 62
     1
100
AcDbLine
 10
52.9851851851852
 20
-3.55633258733785
 30
0.0
 11
53.4555555555555
 21
-2.82663944322374
 31
0.0
  0
LINE
  5
1672
330
19
100
AcDbEntity
  8
1
 62
     1
100
AcDbLine
 10
53.4555555555555
 20
-2.82663944322374
 30
0.0
 11
53.9259259259259
 21
-3.45453975342568
 31
0.0
  0
LINE
  5
1673
330
19
100
AcDbEntity
  8
1
 62
     1
100
AcDbLine
 10
53.9259259259259
 20
-3.45453975342568
 30
0.0
 11
54.3962962962963
 21
-2.75062151768597
 31
0.0
  0
LINE
  5
1674
330
19
100
AcDbEntity
  8
1
 62
     1
100
AcDbLine
 10
54.8666666666667
 20
-3.33798733008412
 30
0.0
 11
55.337037037037
 21
-2.66285147125969
 31
0.0
  0
LINE
  5
1675
330
19
100
AcDbEntity
  8
1
 62
     1
100
AcDbLine
 10
55.8137695675951
 20
-3.19827559249496
 30
0.0
 11
55.8011394444222
 21
-3.20023625133823
 31
0.0
  0
LINE
  5
1676
330
19
100
AcDbEntity
  8
1
 62
     1
100
AcDbLine
 10
56.8114211900672
 20
-2.97886477925367
 30
0.0
 11
56.7033562640563
 21
-3.01730299763982
 31
0.0
  0
ARC
  5
1677
330
19
100
AcDbEntity
  8
1
 62
     1
100
AcDbCircle
 10
65.3908829199458
 20
5.58639522215538
 30
0.0
 40
11.46425261387625
100
AcDbArc
 50
224.5322168807272
 51
226.5502268984233
  0
LINE
  5
1678
330
19
100
AcDbEntity
  8
1
 62
     1
100
AcDbLine
 10
57.6523069206043
 20
-2.68674406210593
 30
0.0
 11
57.5067084932228
 21
-2.73639089708392
 31
0.0
  0
LINE
  5
1679
330
19
100
AcDbEntity
  8
1
 62
     1
100
AcDbLine
 10
55.4383991080396
 20
-2.09862995917982
 30
0.0
 11
55.1901893258779
 21
-2.1142688530841
 31
0.0
  0
LINE
  5
167A
330
19
100
AcDbEntity
  8
1
 62
     1
100
AcDbLine
 10
54.6427558575919
 20
-2.14653045724608
 30
0.0
 11
54.0420397792456
 21
-2.1783552568576
 31
0.0
  0
LINE
  5
167B
330
19
100
AcDbEntity
  8
1
 62
     1
100
AcDbLine
 10
53.8447867533757
 20
-2.18798039510733
 30
0.0
 11
49.4723933766878
 21
-2.29335107382595
 31
0.0
  0
LINE
  5
167C
330
19
100
AcDbEntity
  8
1
 62
     1
100
AcDbLine
 10
49.4723933766878
 20
-2.29335107382595
 30
0.0
 11
45.1
 21
-2.18860142770518
 31
0.0
  0
LINE
  5
167D
330
19
100
AcDbEntity
  8
1
 62
     1
100
AcDbLine
 10
45.4592592592592
 20
3.45641146916543
 30
0.0
 11
45.1
 21
3.41267987604486
 31
0.0
  0
LINE
  5
167E
330
19
100
AcDbEntity
  8
1
 62
     1
100
AcDbLine
 10
45.1
 20
-3.91659982483374
 30
0.0
 11
45.1
 21
-3.96487945050001
 31
0.0
  0
LINE
  5
167F
330
19
100
AcDbEntity
  8
1
 62
     1
100
AcDbLine
 10
45.1
 20
-3.91659982483374
 30
0.0
 11
45.1
 21
-2.18860142770519
 31
0.0
  0
LINE
  5
1680
330
19
100
AcDbEntity
  8
1
 62
     1
100
AcDbLine
 10
45.1
 20
-2.18860142770519
 30
0.0
 11
45.1
 21
-0.196301674546262
 31
0.0
  0
LINE
  5
1681
330
19
100
AcDbEntity
  8
1
 62
     1
100
AcDbLine
 10
45.1
 20
3.41267987604486
 30
0.0
 11
45.1
 21
3.52762616626735
 31
0.0
  0
LINE
  5
1682
330
19
100
AcDbEntity
  8
1
 62
     1
100
AcDbLine
 10
57.2185185185185
 20
3.022795
 30
0.0
 11
56.8114211900395
 21
3.727907927792
 31
0.0
  0
LINE
  5
1683
330
19
100
AcDbEntity
  8
1
 62
     1
100
AcDbLine
 10
57.5067084932402
 20
3.52195444571668
 30
0.0
 11
57.2185185185185
 21
3.022795
 31
0.0
  0
LINE
  5
1684
330
19
100
AcDbEntity
  8
1
 62
     1
100
AcDbLine
 10
58.1592592592593
 20
3.022795
 30
0.0
 11
57.9462370233763
 21
3.39176016366112
 31
0.0
  0
LINE
  5
1685
330
19
100
AcDbEntity
  8
1
 62
     1
100
AcDbLine
 10
58.3100607224128
 20
3.28399067425513
 30
0.0
 11
58.1592592592593
 21
3.022795
 31
0.0
  0
LINE
  5
1686
330
19
100
AcDbEntity
  8
1
 62
     1
100
AcDbLine
 10
59.1
 20
3.022795
 30
0.0
 11
59.0810528566823
 21
3.0556123995833
 31
0.0
  0
LINE
  5
1687
330
19
100
AcDbEntity
  8
1
 62
     1
100
AcDbLine
 10
45.1
 20
-3.96487945050001
 30
0.0
 11
45.4592592592592
 21
-3.96023858785074
 31
0.0
  0
LINE
  5
1688
330
19
100
AcDbEntity
  8
1
 62
     1
100
AcDbLine
 10
53.9259259259259
 20
3.8375
 30
0.0
 11
53.4555555555555
 21
3.022795
 31
0.0
  0
LINE
  5
1689
330
19
100
AcDbEntity
  8
1
 62
     1
100
AcDbLine
 10
55.8011394444228
 20
3.82664357471252
 30
0.0
 11
55.337037037037
 21
3.022795
 31
0.0
  0
LINE
  5
168A
330
19
100
AcDbEntity
  8
1
 62
     1
100
AcDbLine
 10
55.337037037037
 20
3.022795
 30
0.0
 11
54.8666666666667
 21
3.8375
 31
0.0
  0
LINE
  5
168B
330
19
100
AcDbEntity
  8
1
 62
     1
100
AcDbLine
 10
54.8666666666667
 20
3.8375
 30
0.0
 11
54.3962962962963
 21
3.022795
 31
0.0
  0
LINE
  5
168C
330
19
100
AcDbEntity
  8
1
 62
     1
100
AcDbLine
 10
54.3962962962963
 20
3.022795
 30
0.0
 11
53.9259259259259
 21
3.8375
 31
0.0
  0
LINE
  5
168D
330
19
100
AcDbEntity
  8
1
 62
     1
100
AcDbLine
 10
52.647578815637
 20
3.25274891933953
 30
0.0
 11
52.6475807977088
 21
3.25275235238594
 31
0.0
  0
LINE
  5
168E
330
19
100
AcDbEntity
  8
1
 62
     1
100
AcDbLine
 10
52.6475807977088
 20
3.25275235238594
 30
0.0
 11
52.9851851851852
 21
3.83007856755822
 31
0.0
  0
LINE
  5
168F
330
19
100
AcDbEntity
  8
1
 62
     1
100
AcDbLine
 10
52.9851851851852
 20
3.8375
 30
0.0
 11
52.6475788293702
 21
3.25274891141068
 31
0.0
  0
LINE
  5
1690
330
19
100
AcDbEntity
  8
1
 62
     1
100
AcDbLine
 10
56.2777777777778
 20
3.022795
 30
0.0
 11
55.8137695675732
 21
3.82648042048486
 31
0.0
  0
LINE
  5
1691
330
19
100
AcDbEntity
  8
1
 62
     1
100
AcDbLine
 10
56.7033562640837
 20
3.75991821720607
 30
0.0
 11
56.2777777777778
 21
3.022795
 31
0.0
  0
LINE
  5
1692
330
19
100
AcDbEntity
  8
1
 62
     1
100
AcDbLine
 10
53.4555555555555
 20
3.022795
 30
0.0
 11
52.9851851851852
 21
3.8375
 31
0.0
  0
LINE
  5
1693
330
19
100
AcDbEntity
  8
1
 62
     1
100
AcDbLine
 10
45.1
 20
2.49251536692202
 30
0.0
 11
45.1
 21
3.41267987604486
 31
0.0
  0
ARC
  5
1694
330
19
100
AcDbEntity
  8
1
 62
     1
100
AcDbCircle
 10
53.1624761296396
 20
5.00091729203614
 30
0.0
 40
4.369675525256484
100
AcDbArc
 50
255.4626308331639
 51
261.4763097404943
  0
LINE
  5
1695
330
19
100
AcDbEntity
  8
SK1
100
AcDbLine
 10
-20.9
 20
-2.95000000000001
 30
0.0
 11
-20.5
 21
-2.95000000000001
 31
0.0
  0
LINE
  5
1696
330
19
100
AcDbEntity
  8
SK1
100
AcDbLine
 10
-20.5
 20
2.95
 30
0.0
 11
-20.5
 21
2.70138853184803
 31
0.0
  0
LINE
  5
1697
330
19
100
AcDbEntity
  8
SK1
100
AcDbLine
 10
-20.9
 20
2.95
 30
0.0
 11
-20.5
 21
2.95
 31
0.0
  0
LINE
  5
1698
330
19
100
AcDbEntity
  8
SK1
100
AcDbLine
 10
-20.9
 20
2.95
 30
0.0
 11
-20.9
 21
2.06337102819633
 31
0.0
  0
LINE
  5
1699
330
19
100
AcDbEntity
  8
SK1
100
AcDbLine
 10
-20.5
 20
2.95
 30
0.0
 11
-11.9
 21
2.95
 31
0.0
  0
LINE
  5
169A
330
19
100
AcDbEntity
  8
SK1
100
AcDbLine
 10
-20.5
 20
-2.95000000000001
 30
0.0
 11
-11.9
 21
-2.95000000000001
 31
0.0
  0
LINE
  5
169B
330
19
100
AcDbEntity
  8
SK1
100
AcDbLine
 10
-20.9
 20
-2.06337102819634
 30
0.0
 11
-20.7058373810217
 21
-2.38603733500399
 31
0.0
  0
LINE
  5
169C
330
19
100
AcDbEntity
  8
SK1
100
AcDbLine
 10
-20.7058373810217
 20
-2.38603733500399
 30
0.0
 11
-20.5
 21
-2.70138853184802
 31
0.0
  0
LINE
  5
169D
330
19
100
AcDbEntity
  8
SK1
100
AcDbLine
 10
-20.9
 20
-2.06337102819634
 30
0.0
 11
-20.9
 21
-2.95000000000001
 31
0.0
  0
LINE
  5
169E
330
19
100
AcDbEntity
  8
SK1
100
AcDbLine
 10
-20.5
 20
-2.70138853184802
 30
0.0
 11
-20.5
 21
-2.95000000000001
 31
0.0
  0
LINE
  5
169F
330
19
100
AcDbEntity
  8
SK1
100
AcDbLine
 10
-20.9
 20
2.06337102819633
 30
0.0
 11
-20.7058373810217
 21
2.38603733500398
 31
0.0
  0
LINE
  5
16A0
330
19
100
AcDbEntity
  8
SK1
100
AcDbLine
 10
-20.7058373810217
 20
2.38603733500398
 30
0.0
 11
-20.5
 21
2.70138853184801
 31
0.0
  0
LINE
  5
16A1
330
19
100
AcDbEntity
  8
SK1
100
AcDbLine
 10
-20.9
 20
2.06337102819633
 30
0.0
 11
-20.9
 21
-2.06337102819634
 31
0.0
  0
LINE
  5
16A2
330
19
100
AcDbEntity
  8
SK1
100
AcDbLine
 10
-20.5
 20
-2.70138853184802
 30
0.0
 11
-11.9
 21
-2.70138853184802
 31
0.0
  0
LINE
  5
16A3
330
19
100
AcDbEntity
  8
SK1
100
AcDbLine
 10
-20.5
 20
2.70138853184802
 30
0.0
 11
-11.9
 21
2.70138853184802
 31
0.0
  0
LINE
  5
16A4
330
19
100
AcDbEntity
  8
SK1
100
AcDbLine
 10
0
 20
3.99999999999999
 30
0.0
 11
-11.9
 21
3.99999999999999
 31
0.0
  0
LINE
  5
16A5
330
19
100
AcDbEntity
  8
SK1
100
AcDbLine
 10
-11.9
 20
3.99999999999999
 30
0.0
 11
-11.9
 21
3.99978014211337
 31
0.0
  0
LINE
  5
16A6
330
19
100
AcDbEntity
  8
SK1
100
AcDbLine
 10
-11.9
 20
3.99978014211337
 30
0.0
 11
-11.9
 21
3.9323792417161
 31
0.0
  0
LINE
  5
16A7
330
19
100
AcDbEntity
  8
SK1
100
AcDbLine
 10
-11.9
 20
3.9323792417161
 30
0.0
 11
-11.9
 21
2.95
 31
0.0
  0
LINE
  5
16A8
330
19
100
AcDbEntity
  8
SK1
100
AcDbLine
 10
-11.9
 20
2.95
 30
0.0
 11
-11.9
 21
2.70138853184802
 31
0.0
  0
LINE
  5
16A9
330
19
100
AcDbEntity
  8
SK1
100
AcDbLine
 10
-11.9
 20
2.70138853184802
 30
0.0
 11
-11.9
 21
-2.70138853184802
 31
0.0
  0
LINE
  5
16AA
330
19
100
AcDbEntity
  8
SK1
100
AcDbLine
 10
-11.9
 20
-2.70138853184802
 30
0.0
 11
-11.9
 21
-2.95000000000001
 31
0.0
  0
LINE
  5
16AB
330
19
100
AcDbEntity
  8
SK1
100
AcDbLine
 10
-11.9
 20
-2.95000000000001
 30
0.0
 11
-11.9
 21
-4
 31
0.0
  0
LINE
  5
16AC
330
19
100
AcDbEntity
  8
SK1
100
AcDbLine
 10
0
 20
-4
 30
0.0
 11
-11.9
 21
-4
 31
0.0
  0
DIMENSION
  5
16AD
330
19
100
AcDbEntity
  8
2
100
AcDbDimension
  2
*D8
 10
70.654773168763
 20
-3.81750000000001
 30
0.0
 11
70.654773168763
 21
29.3175
 31
0.0
 70
   160
  1
NPTF1/16-27
 71
     5
 42
7.635000000000005
  3
V-TYGEN_-160
100
AcDbAlignedDimension
 13
59.1
 23
3.8175
 33
0.0
 14
59.1
 24
-3.8175
 34
0.0
 50
90.0000000000004
100
AcDbRotatedDimension
  0
DIMENSION
  5
16AE
330
19
100
AcDbEntity
  8
2
100
AcDbDimension
  2
*D9
 10
59.1
 20
19.8324410429527
 30
0.0
 11
29.55
 21
22.5824410429527
 31
0.0
 70
    32
  1
<>
 71
     5
 42
59.1
  3
V-TYGEN_-160
100
AcDbAlignedDimension
 13
0
 23
3.99999999999999
 33
0.0
 14
59.1
 24
3.8175
 34
0.0
100
AcDbRotatedDimension
1001
ACAD
1000
DSTYLE
1002
{
1070
   271
1070
     1
1002
}
  0
DIMENSION
  5
16AF
330
19
100
AcDbEntity
  8
SK2
100
AcDbDimension
  2
*D10
 10
-27.9494762765698
 20
-4
 30
0.0
 11
-30.6994762765698
 21
-7.105427357601E-15
 31
0.0
 70
    32
  1
%%c<>
 71
     5
 42
8.0
  3
V-TYGEN_-160
100
AcDbAlignedDimension
 13
-11.9
 23
3.99999999999999
 33
0.0
 14
-11.9
 24
-4
 34
0.0
 50
90.00000000029229
100
AcDbRotatedDimension
  0
DIMENSION
  5
16B0
330
19
100
AcDbEntity
  8
2
100
AcDbDimension
  2
*D11
 10
59.1
 20
11.2560612300933
 30
0.0
 11
52.1
 21
14.0060612300933
 31
0.0
 70
    32
  1
<>
 71
     5
 42
14.0
  3
V-TYGEN_-160
100
AcDbAlignedDimension
 13
45.1
 23
3.8
 33
0.0
 14
59.1
 24
3.8175
 34
0.0
100
AcDbRotatedDimension
  0
DIMENSION
  5
16B1
330
19
100
AcDbEntity
  8
SK2
100
AcDbDimension
  2
*D12
 10
59.1
 20
28.78668110239
 30
0.0
 11
19.1
 21
31.53668110239
 31
0.0
 70
    32
  1
<>
 71
     5
 42
80.0
  3
V-TYGEN_-160
100
AcDbAlignedDimension
 13
-20.9
 23
3.8175
 33
0.0
 14
59.1
 24
3.8175
 34
0.0
100
AcDbRotatedDimension
  0
MTEXT
  5
17ED
330
19
100
AcDbEntity
  8
SK6
100
AcDbMText
 10
-20.9
 20
-8.51753909775494
 30
0.0
 40
3.5
 41
62.40419671326108
 71
     1
 72
     5
  1
{\fMonospac821 BT|b0|i0|c0|p49;MTH-1/16-27NPTF-XC-V050\P02880757\PBSG:DIN/ANSI}
  7
SIMPLEX
 73
     1
 44
1.0
1001
ACAD
1000
ACAD_MTEXT_COLUMN_INFO_BEGIN
1070
    75
1070
     2
1070
    79
1070
     0
1070
    76
1070
     1
1070
    78
1070
     0
1070
    48
1040
62.40419671326108
1070
    49
1040
17.5
1070
    50
1070
     1
1040
0.0
1000
ACAD_MTEXT_COLUMN_INFO_END
1000
MTEXTBEGIN
1070
    73
1070
     1
1070
    44
1040
1.0
1070
    74
1070
     0
1000
MTEXTEND
  0
ENDSEC
  0
SECTION
  2
OBJECTS
  0
DICTIONARY
  5
C
330
0
100
AcDbDictionary
281
     1
  3
ACAD_COLOR
350
12BC
  3
ACAD_GROUP
350
D
  3
ACAD_LAYOUT
350
A85
  3
ACAD_MATERIAL
350
128A
  3
ACAD_MLEADERSTYLE
350
12D2
  3
ACAD_MLINESTYLE
350
E
  3
ACAD_PLOTSETTINGS
350
A86
  3
ACAD_PLOTSTYLENAME
350
E93
  3
ACAD_SCALELIST
350
12BF
  3
ACAD_TABLESTYLE
350
12BD
  3
ACAD_VISUALSTYLE
350
12A3
  3
ACDB_RECOMPOSE_DATA
350
1890
  3
AcDbVariableDictionary
350
180C
  3
DWGPROPS
350
1891
  0
DICTIONARY
  5
17EE
330
F
100
AcDbDictionary
280
     1
281
     1
  3
ADSK_XREC_LAYER_RECONCILED
360
17EF
  0
DICTIONARY
  5
17F0
330
1E
100
AcDbDictionary
280
     1
281
     1
  3
ADSK_XREC_LAYER_RECONCILED
360
17F1
  0
DICTIONARY
  5
17F2
330
22
100
AcDbDictionary
280
     1
281
     1
  3
ADSK_XREC_LAYER_RECONCILED
360
17F3
  0
DICTIONARY
  5
17F4
330
23
100
AcDbDictionary
280
     1
281
     1
  3
ADSK_XREC_LAYER_RECONCILED
360
17F5
  0
DICTIONARY
  5
17F6
330
24
100
AcDbDictionary
280
     1
281
     1
  3
ADSK_XREC_LAYER_RECONCILED
360
17F7
  0
DICTIONARY
  5
17F8
330
25
100
AcDbDictionary
280
     1
281
     1
  3
ADSK_XREC_LAYER_RECONCILED
360
17F9
  0
DICTIONARY
  5
17FA
330
26
100
AcDbDictionary
280
     1
281
     1
  3
ADSK_XREC_LAYER_RECONCILED
360
17FB
  0
DICTIONARY
  5
17FC
330
27
100
AcDbDictionary
280
     1
281
     1
  3
ADSK_XREC_LAYER_RECONCILED
360
17FD
  0
DICTIONARY
  5
17FE
330
28
100
AcDbDictionary
280
     1
281
     1
  3
ADSK_XREC_LAYER_RECONCILED
360
17FF
  0
DICTIONARY
  5
1800
330
29
100
AcDbDictionary
280
     1
281
     1
  3
ADSK_XREC_LAYER_RECONCILED
360
1801
  0
DICTIONARY
  5
1802
330
2A
100
AcDbDictionary
280
     1
281
     1
  3
ADSK_XREC_LAYER_RECONCILED
360
1803
  0
DICTIONARY
  5
1804
330
2B
100
AcDbDictionary
280
     1
281
     1
  3
ADSK_XREC_LAYER_RECONCILED
360
1805
  0
DICTIONARY
  5
1806
330
2C
100
AcDbDictionary
280
     1
281
     1
  3
ADSK_XREC_LAYER_RECONCILED
360
1807
  0
DICTIONARY
  5
1808
330
2D
100
AcDbDictionary
280
     1
281
     1
  3
ADSK_XREC_LAYER_RECONCILED
360
1809
  0
DICTIONARY
  5
180A
330
C07
100
AcDbDictionary
280
     1
281
     1
  3
ADSK_XREC_LAYER_RECONCILED
360
180B
  0
DICTIONARY
  5
E8D
330
19
100
AcDbDictionary
280
     1
281
     1
  0
DICTIONARY
  5
E8B
330
16
100
AcDbDictionary
280
     1
281
     1
  0
DICTIONARY
  5
12BC
102
{ACAD_REACTORS
330
C
102
}
330
C
100
AcDbDictionary
281
     1
  0
DICTIONARY
  5
D
102
{ACAD_REACTORS
330
C
102
}
330
C
100
AcDbDictionary
281
     1
  0
DICTIONARY
  5
A85
102
{ACAD_REACTORS
330
C
102
}
330
C
100
AcDbDictionary
281
     1
  3
Layout1
350
E96
  3
Model
350
E95
  0
DICTIONARY
  5
128A
102
{ACAD_REACTORS
330
C
102
}
330
C
100
AcDbDictionary
281
     1
  3
ByBlock
350
1293
  3
ByLayer
350
128B
  3
Global
350
129B
  0
DICTIONARY
  5
12D2
102
{ACAD_REACTORS
330
C
102
}
330
C
100
AcDbDictionary
281
     1
  3
Standard
350
12D3
  0
DICTIONARY
  5
E
102
{ACAD_REACTORS
330
C
102
}
330
C
100
AcDbDictionary
281
     1
  3
STANDARD
350
1C
  0
DICTIONARY
  5
A86
102
{ACAD_REACTORS
330
C
102
}
330
C
100
AcDbDictionary
281
     1
  0
ACDBDICTIONARYWDFLT
  5
E93
102
{ACAD_REACTORS
330
C
102
}
330
C
100
AcDbDictionary
281
     1
  3
Normal
350
E94
100
AcDbDictionaryWithDefault
340
E94
  0
DICTIONARY
  5
12BF
102
{ACAD_REACTORS
330
C
102
}
330
C
100
AcDbDictionary
281
     1
  3
A0
350
12C0
  3
A1
350
12C1
  3
A2
350
12C2
  3
A3
350
12C3
  3
A4
350
12C4
  3
A5
350
12C5
  3
A6
350
12C6
  3
A7
350
12C7
  3
A8
350
12C8
  3
A9
350
12C9
  3
B0
350
12CA
  3
B1
350
12CB
  3
B2
350
12CC
  3
B3
350
12CD
  3
B4
350
12CE
  3
B5
350
12CF
  3
B6
350
12D0
  3
B7
350
12D1
  0
DICTIONARY
  5
12BD
102
{ACAD_REACTORS
330
C
102
}
330
C
100
AcDbDictionary
281
     1
  3
Standard
350
12BE
  0
DICTIONARY
  5
12A3
102
{ACAD_REACTORS
330
C
102
}
330
C
100
AcDbDictionary
281
     1
  3
2dWireframe
350
12A9
  3
Basic
350
12A8
  3
Brighten
350
12AF
  3
ColorChange
350
12B3
  3
Conceptual
350
12AC
  3
Dim
350
12AE
  3
EdgeColorOff
350
12BB
  3
Facepattern
350
12B2
  3
Flat
350
12A4
  3
FlatWithEdges
350
12A5
  3
Gouraud
350
12A6
  3
GouraudWithEdges
350
12A7
  3
Hidden
350
12AB
  3
JitterOff
350
12B9
  3
Linepattern
350
12B1
  3
OverhangOff
350
12BA
  3
Realistic
350
12AD
  3
Shaded
350
12B8
  3
Shaded with edges
350
12B7
  3
Shades of Gray
350
12B4
  3
Sketchy
350
12B5
  3
Thicken
350
12B0
  3
Wireframe
350
12AA
  3
X-Ray
350
12B6
  0
XRECORD
  5
1890
102
{ACAD_REACTORS
330
C
102
}
330
C
100
AcDbXrecord
280
     1
 90
        1
330
12BE
330
17ED
  0
DICTIONARY
  5
180C
102
{ACAD_REACTORS
330
C
102
}
330
C
100
AcDbDictionary
281
     1
  3
CANNOSCALE
350
180F
  3
CMLEADERSTYLE
350
180E
  3
CTABLESTYLE
350
180D
  3
DIMASSOC
350
1812
  3
INDEXCTL
350
1811
  3
SORTENTS
350
1810
  3
XCLIPFRAME
350
1813
  0
XRECORD
  5
1891
102
{ACAD_REACTORS
330
C
102
}
330
C
100
AcDbXrecord
280
     1
  1
DWGPROPS COOKIE
  2

  3

  4

  6

  7

  8
inpunbhak
  9

300
=
301
=
302
=
303
=
304
=
305
=
306
=
307
=
308
=
309
=
 40
0.0014074074074074
 41
2456345.561120127
 42
2456345.562527176
  1

 90
        0
  0
XRECORD
  5
17EF
102
{ACAD_REACTORS
330
17EE
102
}
330
17EE
100
AcDbXrecord
280
     1
290
     1
  0
XRECORD
  5
17F1
102
{ACAD_REACTORS
330
17F0
102
}
330
17F0
100
AcDbXrecord
280
     1
290
     1
  0
XRECORD
  5
17F3
102
{ACAD_REACTORS
330
17F2
102
}
330
17F2
100
AcDbXrecord
280
     1
290
     1
  0
XRECORD
  5
17F5
102
{ACAD_REACTORS
330
17F4
102
}
330
17F4
100
AcDbXrecord
280
     1
290
     1
  0
XRECORD
  5
17F7
102
{ACAD_REACTORS
330
17F6
102
}
330
17F6
100
AcDbXrecord
280
     1
290
     1
  0
XRECORD
  5
17F9
102
{ACAD_REACTORS
330
17F8
102
}
330
17F8
100
AcDbXrecord
280
     1
290
     1
  0
XRECORD
  5
17FB
102
{ACAD_REACTORS
330
17FA
102
}
330
17FA
100
AcDbXrecord
280
     1
290
     1
  0
XRECORD
  5
17FD
102
{ACAD_REACTORS
330
17FC
102
}
330
17FC
100
AcDbXrecord
280
     1
290
     1
  0
XRECORD
  5
17FF
102
{ACAD_REACTORS
330
17FE
102
}
330
17FE
100
AcDbXrecord
280
     1
290
     1
  0
XRECORD
  5
1801
102
{ACAD_REACTORS
330
1800
102
}
330
1800
100
AcDbXrecord
280
     1
290
     1
  0
XRECORD
  5
1803
102
{ACAD_REACTORS
330
1802
102
}
330
1802
100
AcDbXrecord
280
     1
290
     1
  0
XRECORD
  5
1805
102
{ACAD_REACTORS
330
1804
102
}
330
1804
100
AcDbXrecord
280
     1
290
     1
  0
XRECORD
  5
1807
102
{ACAD_REACTORS
330
1806
102
}
330
1806
100
AcDbXrecord
280
     1
290
     1
  0
XRECORD
  5
1809
102
{ACAD_REACTORS
330
1808
102
}
330
1808
100
AcDbXrecord
280
     1
290
     1
  0
XRECORD
  5
180B
102
{ACAD_REACTORS
330
180A
102
}
330
180A
100
AcDbXrecord
280
     1
290
     1
  0
LAYOUT
  5
E96
102
{ACAD_XDICTIONARY
360
1894
102
}
102
{ACAD_REACTORS
330
A85
102
}
330
A85
100
AcDbPlotSettings
  1

  2
\\SECO_TOOLS\Q_HP8100_WMM.LANDSKAP.PL1.HUS_A.FAGERSTA.SE.SECO_TOOLS
  4

  6

 40
0.0
 41
0.0
 42
0.0
 43
0.0
 44
0.0
 45
0.0
 46
0.0
 47
0.0
 48
0.0
 49
0.0
140
0.0
141
0.0
142
1.0
143
1.0
 70
   688
 72
     0
 73
     0
 74
     5
  7

 75
    16
147
1.0
148
0.0
149
0.0
100
AcDbLayout
  1
Layout1
 70
     0
 71
     1
 10
0.0
 20
0.0
 11
12.0
 21
9.0
 12
0.0
 22
0.0
 32
0.0
 14
1.000000000000000E+20
 24
1.000000000000000E+20
 34
1.000000000000000E+20
 15
-1.000000000000000E+20
 25
-1.000000000000000E+20
 35
-1.000000000000000E+20
146
0.0
 13
0.0
 23
0.0
 33
0.0
 16
1.0
 26
0.0
 36
0.0
 17
0.0
 27
1.0
 37
0.0
 76
     0
330
16
  0
LAYOUT
  5
E95
102
{ACAD_XDICTIONARY
360
1892
102
}
102
{ACAD_REACTORS
330
A85
102
}
330
A85
100
AcDbPlotSettings
  1

  2
\\SECO_TOOLS\Q_HP8100_WMM.LANDSKAP.PL1.HUS_A.FAGERSTA.SE.SECO_TOOLS
  4

  6

 40
0.0
 41
0.0
 42
0.0
 43
0.0
 44
0.0
 45
0.0
 46
0.0
 47
0.0
 48
0.0
 49
0.0
140
0.0
141
0.0
142
1.0
143
1.0
 70
  1712
 72
     0
 73
     0
 74
     0
  7

 75
     0
147
1.0
148
0.0
149
0.0
100
AcDbLayout
  1
Model
 70
     1
 71
     0
 10
0.0
 20
0.0
 11
12.0
 21
9.0
 12
0.0
 22
0.0
 32
0.0
 14
0.0
 24
0.0
 34
0.0
 15
0.0
 25
0.0
 35
0.0
146
0.0
 13
0.0
 23
0.0
 33
0.0
 16
1.0
 26
0.0
 36
0.0
 17
0.0
 27
1.0
 37
0.0
 76
     0
330
19
331
1288
  0
MATERIAL
  5
1293
102
{ACAD_XDICTIONARY
360
1294
102
}
102
{ACAD_REACTORS
330
128A
102
}
330
128A
100
AcDbMaterial
  1
ByBlock
 72
     0
 43
0.0208333333333333
 43
0.0
 43
0.0
 43
0.0
 43
0.0
 43
0.0208333333333333
 43
0.0
 43
0.0
 43
0.0
 43
0.0
 43
1.0
 43
0.0
 43
0.0
 43
0.0
 43
0.0
 43
1.0
 77
     0
 47
0.0208333333333333
 47
0.0
 47
0.0
 47
0.0
 47
0.0
 47
0.0208333333333333
 47
0.0
 47
0.0
 47
0.0
 47
0.0
 47
1.0
 47
0.0
 47
0.0
 47
0.0
 47
0.0
 47
1.0
171
     0
 49
0.0208333333333333
 49
0.0
 49
0.0
 49
0.0
 49
0.0
 49
0.0208333333333333
 49
0.0
 49
0.0
 49
0.0
 49
0.0
 49
1.0
 49
0.0
 49
0.0
 49
0.0
 49
0.0
 49
1.0
175
     0
142
0.0208333333333333
142
0.0
142
0.0
142
0.0
142
0.0
142
0.0208333333333333
142
0.0
142
0.0
142
0.0
142
0.0
142
1.0
142
0.0
142
0.0
142
0.0
142
0.0
142
1.0
179
     0
144
0.0208333333333333
144
0.0
144
0.0
144
0.0
144
0.0
144
0.0208333333333333
144
0.0
144
0.0
144
0.0
144
0.0
144
1.0
144
0.0
144
0.0
144
0.0
144
0.0
144
1.0
147
0.0208333333333333
147
0.0
147
0.0
147
0.0
147
0.0
147
0.0208333333333333
147
0.0
147
0.0
147
0.0
147
0.0
147
1.0
147
0.0
147
0.0
147
0.0
147
0.0
147
1.0
  0
MATERIAL
  5
128B
102
{ACAD_XDICTIONARY
360
128C
102
}
102
{ACAD_REACTORS
330
128A
102
}
330
128A
100
AcDbMaterial
  1
ByLayer
 72
     0
 43
0.0208333333333333
 43
0.0
 43
0.0
 43
0.0
 43
0.0
 43
0.0208333333333333
 43
0.0
 43
0.0
 43
0.0
 43
0.0
 43
1.0
 43
0.0
 43
0.0
 43
0.0
 43
0.0
 43
1.0
 77
     0
 47
0.0208333333333333
 47
0.0
 47
0.0
 47
0.0
 47
0.0
 47
0.0208333333333333
 47
0.0
 47
0.0
 47
0.0
 47
0.0
 47
1.0
 47
0.0
 47
0.0
 47
0.0
 47
0.0
 47
1.0
171
     0
 49
0.0208333333333333
 49
0.0
 49
0.0
 49
0.0
 49
0.0
 49
0.0208333333333333
 49
0.0
 49
0.0
 49
0.0
 49
0.0
 49
1.0
 49
0.0
 49
0.0
 49
0.0
 49
0.0
 49
1.0
175
     0
142
0.0208333333333333
142
0.0
142
0.0
142
0.0
142
0.0
142
0.0208333333333333
142
0.0
142
0.0
142
0.0
142
0.0
142
1.0
142
0.0
142
0.0
142
0.0
142
0.0
142
1.0
179
     0
144
0.0208333333333333
144
0.0
144
0.0
144
0.0
144
0.0
144
0.0208333333333333
144
0.0
144
0.0
144
0.0
144
0.0
144
1.0
144
0.0
144
0.0
144
0.0
144
0.0
144
1.0
147
0.0208333333333333
147
0.0
147
0.0
147
0.0
147
0.0
147
0.0208333333333333
147
0.0
147
0.0
147
0.0
147
0.0
147
1.0
147
0.0
147
0.0
147
0.0
147
0.0
147
1.0
  0
MATERIAL
  5
129B
102
{ACAD_XDICTIONARY
360
129C
102
}
102
{ACAD_REACTORS
330
128A
102
}
330
128A
100
AcDbMaterial
  1
Global
 72
     0
 43
0.0208333333333333
 43
0.0
 43
0.0
 43
0.0
 43
0.0
 43
0.0208333333333333
 43
0.0
 43
0.0
 43
0.0
 43
0.0
 43
1.0
 43
0.0
 43
0.0
 43
0.0
 43
0.0
 43
1.0
 77
     0
 47
0.0208333333333333
 47
0.0
 47
0.0
 47
0.0
 47
0.0
 47
0.0208333333333333
 47
0.0
 47
0.0
 47
0.0
 47
0.0
 47
1.0
 47
0.0
 47
0.0
 47
0.0
 47
0.0
 47
1.0
171
     0
 49
0.0208333333333333
 49
0.0
 49
0.0
 49
0.0
 49
0.0
 49
0.0208333333333333
 49
0.0
 49
0.0
 49
0.0
 49
0.0
 49
1.0
 49
0.0
 49
0.0
 49
0.0
 49
0.0
 49
1.0
175
     0
142
0.0208333333333333
142
0.0
142
0.0
142
0.0
142
0.0
142
0.0208333333333333
142
0.0
142
0.0
142
0.0
142
0.0
142
1.0
142
0.0
142
0.0
142
0.0
142
0.0
142
1.0
179
     0
144
0.0208333333333333
144
0.0
144
0.0
144
0.0
144
0.0
144
0.0208333333333333
144
0.0
144
0.0
144
0.0
144
0.0
144
1.0
144
0.0
144
0.0
144
0.0
144
0.0
144
1.0
147
0.0208333333333333
147
0.0
147
0.0
147
0.0
147
0.0
147
0.0208333333333333
147
0.0
147
0.0
147
0.0
147
0.0
147
1.0
147
0.0
147
0.0
147
0.0
147
0.0
147
1.0
  0
MLEADERSTYLE
  5
12D3
102
{ACAD_REACTORS
330
12D2
102
}
330
12D2
100
AcDbMLeaderStyle
170
     2
171
     1
172
     0
 90
        2
 40
0.0
 41
0.0
173
     1
 91
-1056964608
340
13
 92
       -2
290
     1
 42
2.0
291
     1
 43
0.36
  3
Standard
 44
4.0
300

342
10
174
     1
178
     6
175
     1
176
     0
 93
-1056964608
 45
4.0
292
     0
297
     0
 46
4.0
 94
-1056964608
 47
1.0
 49
1.0
140
1.0
293
     1
141
0.0
294
     1
177
     0
142
1.0
295
     0
296
     0
143
0.125
1001
ACAD_MLEADERVER
1070
     2
  0
MLINESTYLE
  5
1C
102
{ACAD_REACTORS
330
E
102
}
330
E
100
AcDbMlineStyle
  2
STANDARD
 70
     0
  3

 62
     0
 51
90.0
 52
90.0
 71
     2
 49
0.5
 62
   256
  6
BYLAYER
 49
-0.5
 62
   256
  6
BYLAYER
  0
ACDBPLACEHOLDER
  5
E94
102
{ACAD_REACTORS
330
E93
102
}
330
E93
  0
SCALE
  5
12C0
102
{ACAD_REACTORS
330
12BF
102
}
330
12BF
100
AcDbScale
 70
     0
300
1:1
140
1.0
141
1.0
290
     1
  0
SCALE
  5
12C1
102
{ACAD_REACTORS
330
12BF
102
}
330
12BF
100
AcDbScale
 70
     0
300
1:25.4
140
25.4
141
1.0
290
     0
  0
SCALE
  5
12C2
102
{ACAD_REACTORS
330
12BF
102
}
330
12BF
100
AcDbScale
 70
     0
300
1:2
140
1.0
141
2.0
290
     0
  0
SCALE
  5
12C3
102
{ACAD_REACTORS
330
12BF
102
}
330
12BF
100
AcDbScale
 70
     0
300
1:4
140
1.0
141
4.0
290
     0
  0
SCALE
  5
12C4
102
{ACAD_REACTORS
330
12BF
102
}
330
12BF
100
AcDbScale
 70
     0
300
1:5
140
1.0
141
5.0
290
     0
  0
SCALE
  5
12C5
102
{ACAD_REACTORS
330
12BF
102
}
330
12BF
100
AcDbScale
 70
     0
300
1:8
140
1.0
141
8.0
290
     0
  0
SCALE
  5
12C6
102
{ACAD_REACTORS
330
12BF
102
}
330
12BF
100
AcDbScale
 70
     0
300
1:10
140
1.0
141
10.0
290
     0
  0
SCALE
  5
12C7
102
{ACAD_REACTORS
330
12BF
102
}
330
12BF
100
AcDbScale
 70
     0
300
1:16
140
1.0
141
16.0
290
     0
  0
SCALE
  5
12C8
102
{ACAD_REACTORS
330
12BF
102
}
330
12BF
100
AcDbScale
 70
     0
300
1:20
140
1.0
141
20.0
290
     0
  0
SCALE
  5
12C9
102
{ACAD_REACTORS
330
12BF
102
}
330
12BF
100
AcDbScale
 70
     0
300
1:30
140
1.0
141
30.0
290
     0
  0
SCALE
  5
12CA
102
{ACAD_REACTORS
330
12BF
102
}
330
12BF
100
AcDbScale
 70
     0
300
1:40
140
1.0
141
40.0
290
     0
  0
SCALE
  5
12CB
102
{ACAD_REACTORS
330
12BF
102
}
330
12BF
100
AcDbScale
 70
     0
300
1:50
140
1.0
141
50.0
290
     0
  0
SCALE
  5
12CC
102
{ACAD_REACTORS
330
12BF
102
}
330
12BF
100
AcDbScale
 70
     0
300
1:100
140
1.0
141
100.0
290
     0
  0
SCALE
  5
12CD
102
{ACAD_REACTORS
330
12BF
102
}
330
12BF
100
AcDbScale
 70
     0
300
2:1
140
2.0
141
1.0
290
     0
  0
SCALE
  5
12CE
102
{ACAD_REACTORS
330
12BF
102
}
330
12BF
100
AcDbScale
 70
     0
300
4:1
140
4.0
141
1.0
290
     0
  0
SCALE
  5
12CF
102
{ACAD_REACTORS
330
12BF
102
}
330
12BF
100
AcDbScale
 70
     0
300
8:1
140
8.0
141
1.0
290
     0
  0
SCALE
  5
12D0
102
{ACAD_REACTORS
330
12BF
102
}
330
12BF
100
AcDbScale
 70
     0
300
10:1
140
10.0
141
1.0
290
     0
  0
SCALE
  5
12D1
102
{ACAD_REACTORS
330
12BF
102
}
330
12BF
100
AcDbScale
 70
     0
300
100:1
140
100.0
141
1.0
290
     0
  0
TABLESTYLE
  5
12BE
102
{ACAD_XDICTIONARY
360
188E
102
}
102
{ACAD_REACTORS
330
12BD
102
}
330
12BD
100
AcDbTableStyle
  3
Standard
 70
     0
 71
     0
 40
1.5
 41
1.5
280
     0
281
     0
  7
STANDARD
140
4.5
170
     2
 62
     0
 63
     7
283
     0
274
    -2
284
     1
 64
     0
275
    -2
285
     1
 65
     0
276
    -2
286
     1
 66
     0
277
    -2
287
     1
 67
     0
278
    -2
288
     1
 68
     0
279
    -2
289
     1
 69
     0
  7
STANDARD
140
6.0
170
     5
 62
     0
 63
     7
283
     0
274
    -2
284
     1
 64
     0
275
    -2
285
     1
 65
     0
276
    -2
286
     1
 66
     0
277
    -2
287
     1
 67
     0
278
    -2
288
     1
 68
     0
279
    -2
289
     1
 69
     0
  7
STANDARD
140
4.5
170
     5
 62
     0
 63
     7
283
     0
274
    -2
284
     1
 64
     0
275
    -2
285
     1
 65
     0
276
    -2
286
     1
 66
     0
277
    -2
287
     1
 67
     0
278
    -2
288
     1
 68
     0
279
    -2
289
     1
 69
     0
  0
VISUALSTYLE
  5
12A9
102
{ACAD_XDICTIONARY
360
18A3
102
}
102
{ACAD_REACTORS
330
12A3
102
}
330
12A3
100
AcDbVisualStyle
  2
2dWireframe
 70
     4
 71
     0
 72
     2
 73
     0
 90
        0
 40
-0.6
 41
-30.0
 62
     5
 63
     7
 74
     1
 91
        4
 64
     7
 65
   257
 75
     1
175
     1
 42
1.0
 92
        0
 66
   257
 43
1.0
 76
     1
 77
     6
 78
     2
 67
     7
 79
     5
170
     0
171
     0
290
     0
174
     0
 93
        1
 44
0.0
173
     0
291
     0
 45
0.0
1001
ACAD
1000
AcDbSavedByObjectVersion
1070
     0
  0
VISUALSTYLE
  5
12A8
102
{ACAD_XDICTIONARY
360
18A1
102
}
102
{ACAD_REACTORS
330
12A3
102
}
330
12A3
100
AcDbVisualStyle
  2
Basic
 70
     7
 71
     1
 72
     0
 73
     1
 90
        0
 40
-0.6
 41
-30.0
 62
     5
 63
     7
 74
     0
 91
        4
 64
     7
 65
   257
 75
     1
175
     1
 42
1.0
 92
        8
 66
     7
 43
1.0
 76
     1
 77
     6
 78
     2
 67
     7
 79
     5
170
     0
171
     0
290
     0
174
     0
 93
        1
 44
0.0
173
     0
291
     1
 45
0.0
1001
ACAD
1000
AcDbSavedByObjectVersion
1070
     0
  0
VISUALSTYLE
  5
12AF
102
{ACAD_XDICTIONARY
360
18AF
102
}
102
{ACAD_REACTORS
330
12A3
102
}
330
12A3
100
AcDbVisualStyle
  2
Brighten
 70
    12
 71
     2
 72
     2
 73
     0
 90
        0
 40
-0.6
 41
-30.0
 62
     5
 63
     7
 74
     1
 91
        4
 64
     7
 65
   257
 75
     1
175
     1
 42
1.0
 92
        8
 66
     7
 43
1.0
 76
     1
 77
     6
 78
     2
 67
     7
 79
     5
170
     0
171
     0
290
     0
174
     0
 93
        1
 44
50.0
173
     0
291
     1
 45
0.0
1001
ACAD
1000
AcDbSavedByObjectVersion
1070
     0
  0
VISUALSTYLE
  5
12B3
102
{ACAD_XDICTIONARY
360
18B7
102
}
102
{ACAD_REACTORS
330
12A3
102
}
330
12A3
100
AcDbVisualStyle
  2
ColorChange
 70
    16
 71
     2
 72
     2
 73
     3
 90
        0
 40
-0.6
 41
-30.0
 62
     5
 63
     8
 74
     1
 91
        4
 64
     7
 65
   257
 75
     1
175
     1
 42
1.0
 92
        8
 66
     8
 43
1.0
 76
     1
 77
     6
 78
     2
 67
     7
 79
     5
170
     0
171
     0
290
     0
174
     0
 93
        1
 44
0.0
173
     0
291
     1
 45
0.0
1001
ACAD
1000
AcDbSavedByObjectVersion
1070
     0
  0
VISUALSTYLE
  5
12AC
102
{ACAD_XDICTIONARY
360
18A9
102
}
102
{ACAD_REACTORS
330
12A3
102
}
330
12A3
100
AcDbVisualStyle
  2
Conceptual
 70
     9
 71
     3
 72
     2
 73
     0
 90
        0
 40
-0.6
 41
-30.0
 62
     5
 63
     7
 74
     2
 91
        2
 64
     7
 65
   257
 75
     1
175
     1
 42
179.0
 92
        8
 66
     7
 43
1.0
 76
     1
 77
     6
 78
     2
 67
     7
 79
     3
170
     0
171
     0
290
     0
174
     0
 93
        1
 44
0.0
173
     0
291
     0
 45
0.0
1001
ACAD
1000
AcDbSavedByObjectVersion
1070
     0
  0
VISUALSTYLE
  5
12AE
102
{ACAD_XDICTIONARY
360
18AD
102
}
102
{ACAD_REACTORS
330
12A3
102
}
330
12A3
100
AcDbVisualStyle
  2
Dim
 70
    11
 71
     2
 72
     2
 73
     0
 90
        0
 40
-0.6
 41
-30.0
 62
     5
 63
     7
 74
     1
 91
        4
 64
     7
 65
   257
 75
     1
175
     1
 42
1.0
 92
        8
 66
     7
 43
1.0
 76
     1
 77
     6
 78
     2
 67
     7
 79
     5
170
     0
171
     0
290
     0
174
     0
 93
        1
 44
-50.0
173
     0
291
     1
 45
0.0
1001
ACAD
1000
AcDbSavedByObjectVersion
1070
     0
  0
VISUALSTYLE
  5
12BB
102
{ACAD_XDICTIONARY
360
18C7
102
}
102
{ACAD_REACTORS
330
12A3
102
}
330
12A3
100
AcDbVisualStyle
  2
EdgeColorOff
 70
    22
 71
     2
 72
     2
 73
     0
 90
        0
 40
-0.6
 41
-30.0
 62
     5
 63
     7
 74
     1
 91
        4
 64
     7
 65
   257
 75
     1
175
     1
 42
1.0
 92
        8
 66
     7
 43
1.0
 76
     1
 77
     6
 78
     2
 67
     7
 79
     5
170
     0
171
     0
290
     0
174
     0
 93
        1
 44
0.0
173
     0
291
     1
 45
0.0
1001
ACAD
1000
AcDbSavedByObjectVersion
1070
     0
  0
VISUALSTYLE
  5
12B2
102
{ACAD_XDICTIONARY
360
18B5
102
}
102
{ACAD_REACTORS
330
12A3
102
}
330
12A3
100
AcDbVisualStyle
  2
Facepattern
 70
    15
 71
     2
 72
     2
 73
     0
 90
        0
 40
-0.6
 41
-30.0
 62
     5
 63
     7
 74
     1
 91
        4
 64
     7
 65
   257
 75
     1
175
     1
 42
1.0
 92
        8
 66
     7
 43
1.0
 76
     1
 77
     6
 78
     2
 67
     7
 79
     5
170
     0
171
     0
290
     0
174
     0
 93
        1
 44
0.0
173
     0
291
     1
 45
0.0
1001
ACAD
1000
AcDbSavedByObjectVersion
1070
     0
  0
VISUALSTYLE
  5
12A4
102
{ACAD_XDICTIONARY
360
1899
102
}
102
{ACAD_REACTORS
330
12A3
102
}
330
12A3
100
AcDbVisualStyle
  2
Flat
 70
     0
 71
     2
 72
     1
 73
     1
 90
        2
 40
-0.6
 41
30.0
 62
     5
 63
     7
 74
     0
 91
        0
 64
     7
 65
   257
 75
     1
175
     1
 42
1.0
 92
        8
 66
     7
 43
1.0
 76
     1
 77
     6
 78
     2
 67
     7
 79
     5
170
     0
171
     0
290
     0
174
     0
 93
       13
 44
0.0
173
     0
291
     1
 45
0.0
1001
ACAD
1000
AcDbSavedByObjectVersion
1070
     0
  0
VISUALSTYLE
  5
12A5
102
{ACAD_XDICTIONARY
360
189B
102
}
102
{ACAD_REACTORS
330
12A3
102
}
330
12A3
100
AcDbVisualStyle
  2
FlatWithEdges
 70
     1
 71
     2
 72
     1
 73
     1
 90
        2
 40
-0.6
 41
30.0
 62
     5
 63
     7
 74
     1
 91
        0
 64
     7
 65
   257
 75
     1
175
     1
 42
1.0
 92
        0
 66
   257
 43
1.0
 76
     1
 77
     6
 78
     2
 67
     7
 79
     5
170
     0
171
     0
290
     0
174
     0
 93
       13
 44
0.0
173
     0
291
     1
 45
0.0
1001
ACAD
1000
AcDbSavedByObjectVersion
1070
     0
  0
VISUALSTYLE
  5
12A6
102
{ACAD_XDICTIONARY
360
189D
102
}
102
{ACAD_REACTORS
330
12A3
102
}
330
12A3
100
AcDbVisualStyle
  2
Gouraud
 70
     2
 71
     2
 72
     2
 73
     1
 90
        2
 40
-0.6
 41
30.0
 62
     5
 63
     7
 74
     0
 91
        0
 64
     7
 65
   257
 75
     1
175
     1
 42
1.0
 92
        0
 66
     7
 43
1.0
 76
     1
 77
     6
 78
     2
 67
     7
 79
     5
170
     0
171
     0
290
     0
174
     0
 93
       13
 44
0.0
173
     0
291
     1
 45
0.0
1001
ACAD
1000
AcDbSavedByObjectVersion
1070
     0
  0
VISUALSTYLE
  5
12A7
102
{ACAD_XDICTIONARY
360
189F
102
}
102
{ACAD_REACTORS
330
12A3
102
}
330
12A3
100
AcDbVisualStyle
  2
GouraudWithEdges
 70
     3
 71
     2
 72
     2
 73
     1
 90
        2
 40
-0.6
 41
30.0
 62
     5
 63
     7
 74
     1
 91
        0
 64
     7
 65
   257
 75
     1
175
     1
 42
1.0
 92
        0
 66
   257
 43
1.0
 76
     1
 77
     6
 78
     2
 67
     7
 79
     5
170
     0
171
     0
290
     0
174
     0
 93
       13
 44
0.0
173
     0
291
     1
 45
0.0
1001
ACAD
1000
AcDbSavedByObjectVersion
1070
     0
  0
VISUALSTYLE
  5
12AB
102
{ACAD_XDICTIONARY
360
18A7
102
}
102
{ACAD_REACTORS
330
12A3
102
}
330
12A3
100
AcDbVisualStyle
  2
Hidden
 70
     6
 71
     1
 72
     2
 73
     2
 90
        0
 40
-0.6
 41
-30.0
 62
     5
 63
     7
 74
     2
 91
        2
 64
     7
 65
   257
 75
     2
175
     1
 42
40.0
 92
        0
 66
   257
 43
1.0
 76
     1
 77
     6
 78
     2
 67
     7
 79
     3
170
     0
171
     0
290
     0
174
     0
 93
        1
 44
0.0
173
     0
291
     0
 45
0.0
1001
ACAD
1000
AcDbSavedByObjectVersion
1070
     0
  0
VISUALSTYLE
  5
12B9
102
{ACAD_XDICTIONARY
360
18C3
102
}
102
{ACAD_REACTORS
330
12A3
102
}
330
12A3
100
AcDbVisualStyle
  2
JitterOff
 70
    20
 71
     2
 72
     2
 73
     0
 90
        0
 40
-0.6
 41
-30.0
 62
     5
 63
     7
 74
     1
 91
        4
 64
     7
 65
   257
 75
     1
175
     1
 42
1.0
 92
       10
 66
     7
 43
1.0
 76
     1
 77
     6
 78
     2
 67
     7
 79
     5
170
     0
171
     0
290
     0
174
     0
 93
        1
 44
0.0
173
     0
291
     1
 45
0.0
1001
ACAD
1000
AcDbSavedByObjectVersion
1070
     0
  0
VISUALSTYLE
  5
12B1
102
{ACAD_XDICTIONARY
360
18B3
102
}
102
{ACAD_REACTORS
330
12A3
102
}
330
12A3
100
AcDbVisualStyle
  2
Linepattern
 70
    14
 71
     2
 72
     2
 73
     0
 90
        0
 40
-0.6
 41
-30.0
 62
     5
 63
     7
 74
     1
 91
        4
 64
     7
 65
   257
 75
     7
175
     7
 42
1.0
 92
        8
 66
     7
 43
1.0
 76
     1
 77
     6
 78
     2
 67
     7
 79
     5
170
     0
171
     0
290
     0
174
     0
 93
        1
 44
0.0
173
     0
291
     1
 45
0.0
1001
ACAD
1000
AcDbSavedByObjectVersion
1070
     0
  0
VISUALSTYLE
  5
12BA
102
{ACAD_XDICTIONARY
360
18C5
102
}
102
{ACAD_REACTORS
330
12A3
102
}
330
12A3
100
AcDbVisualStyle
  2
OverhangOff
 70
    21
 71
     2
 72
     2
 73
     0
 90
        0
 40
-0.6
 41
-30.0
 62
     5
 63
     7
 74
     1
 91
        4
 64
     7
 65
   257
 75
     1
175
     1
 42
1.0
 92
        9
 66
     7
 43
1.0
 76
     1
 77
     6
 78
     2
 67
     7
 79
     5
170
     0
171
     0
290
     0
174
     0
 93
        1
 44
0.0
173
     0
291
     1
 45
0.0
1001
ACAD
1000
AcDbSavedByObjectVersion
1070
     0
  0
VISUALSTYLE
  5
12AD
102
{ACAD_XDICTIONARY
360
18AB
102
}
102
{ACAD_REACTORS
330
12A3
102
}
330
12A3
100
AcDbVisualStyle
  2
Realistic
 70
     8
 71
     2
 72
     3
 73
     0
 90
        2
 40
-0.6
 41
30.0
 62
     5
 63
     7
 74
     0
 91
        0
 64
     7
 65
   257
 75
     1
175
     1
 42
1.0
 92
        8
 66
   257
 43
1.0
 76
     1
 77
     6
 78
     2
 67
     7
 79
     3
170
     0
171
     0
290
     0
174
     0
 93
       13
 44
0.0
173
     0
291
     0
 45
0.0
1001
ACAD
1000
AcDbSavedByObjectVersion
1070
     0
  0
VISUALSTYLE
  5
12B8
102
{ACAD_XDICTIONARY
360
18C1
102
}
102
{ACAD_REACTORS
330
12A3
102
}
330
12A3
100
AcDbVisualStyle
  2
Shaded
 70
    27
 71
     2
 72
     2
 73
     1
 90
        2
 40
-0.6
 41
30.0
 62
     5
 63
     7
 74
     0
 91
        4
 64
     7
 65
   257
 75
     1
175
     1
 42
1.0
 92
        8
 66
   257
 43
1.0
 76
     1
 77
     6
 78
     2
 67
     8
 79
     3
170
     0
171
     0
290
     0
174
     0
 93
        5
 44
0.0
173
     0
291
     0
 45
0.0
1001
ACAD
1000
AcDbSavedByObjectVersion
1070
     0
  0
VISUALSTYLE
  5
12B7
102
{ACAD_XDICTIONARY
360
18BF
102
}
102
{ACAD_REACTORS
330
12A3
102
}
330
12A3
100
AcDbVisualStyle
  2
Shaded with edges
 70
    26
 71
     2
 72
     2
 73
     1
 90
        2
 40
-0.6
 41
30.0
 62
     5
 63
     7
 74
     1
 91
       10
 64
     7
 65
   257
 75
     2
175
     1
 42
1.0
 92
        8
 66
   257
 43
1.0
 76
     1
 77
     6
 78
     2
 67
     7
 79
     3
170
     0
171
     0
290
     0
174
     0
 93
        5
 44
0.0
173
     0
291
     0
 45
0.0
1001
ACAD
1000
AcDbSavedByObjectVersion
1070
     0
  0
VISUALSTYLE
  5
12B4
102
{ACAD_XDICTIONARY
360
18B9
102
}
102
{ACAD_REACTORS
330
12A3
102
}
330
12A3
100
AcDbVisualStyle
  2
Shades of Gray
 70
    23
 71
     2
 72
     2
 73
     3
 90
        0
 40
-0.6
 41
-30.0
 62
     5
 63
     7
 74
     2
 91
        2
 64
     7
 65
     7
 75
     1
175
     1
 42
40.0
 92
        8
 66
     7
 43
1.0
 76
     1
 77
     6
 78
     2
 67
     7
 79
     3
170
     0
171
     0
290
     0
174
     0
 93
        1
 44
0.0
173
     0
291
     0
 45
0.0
1001
ACAD
1000
AcDbSavedByObjectVersion
1070
     0
  0
VISUALSTYLE
  5
12B5
102
{ACAD_XDICTIONARY
360
18BB
102
}
102
{ACAD_REACTORS
330
12A3
102
}
330
12A3
100
AcDbVisualStyle
  2
Sketchy
 70
    24
 71
     1
 72
     2
 73
     2
 90
        0
 40
-0.6
 41
-30.0
 62
     5
 63
     7
 74
     2
 91
        2
 64
     7
 65
     7
 75
     1
175
     1
 42
40.0
 92
       11
 66
     7
 43
1.0
 76
     1
 77
     6
 78
     2
 67
     7
 79
     6
170
     0
171
     0
290
     0
174
     0
 93
        1
 44
0.0
173
     0
291
     0
 45
0.0
1001
ACAD
1000
AcDbSavedByObjectVersion
1070
     0
  0
VISUALSTYLE
  5
12B0
102
{ACAD_XDICTIONARY
360
18B1
102
}
102
{ACAD_REACTORS
330
12A3
102
}
330
12A3
100
AcDbVisualStyle
  2
Thicken
 70
    13
 71
     2
 72
     2
 73
     0
 90
        0
 40
-0.6
 41
-30.0
 62
     5
 63
     7
 74
     1
 91
        4
 64
     7
 65
   257
 75
     1
175
     1
 42
1.0
 92
       12
 66
     7
 43
1.0
 76
     1
 77
     6
 78
     2
 67
     7
 79
     5
170
     0
171
     0
290
     0
174
     0
 93
        1
 44
0.0
173
     0
291
     1
 45
0.0
1001
ACAD
1000
AcDbSavedByObjectVersion
1070
     0
  0
VISUALSTYLE
  5
12AA
102
{ACAD_XDICTIONARY
360
18A5
102
}
102
{ACAD_REACTORS
330
12A3
102
}
330
12A3
100
AcDbVisualStyle
  2
Wireframe
 70
     5
 71
     0
 72
     2
 73
     0
 90
        0
 40
-0.6
 41
-30.0
 62
     5
 63
     7
 74
     1
 91
        4
 64
     7
 65
   257
 75
     1
175
     1
 42
1.0
 92
        0
 66
   257
 43
1.0
 76
     1
 77
     6
 78
     2
 67
     7
 79
     3
170
     0
171
     0
290
     0
174
     0
 93
        1
 44
0.0
173
     0
291
     0
 45
0.0
1001
ACAD
1000
AcDbSavedByObjectVersion
1070
     0
  0
VISUALSTYLE
  5
12B6
102
{ACAD_XDICTIONARY
360
18BD
102
}
102
{ACAD_REACTORS
330
12A3
102
}
330
12A3
100
AcDbVisualStyle
  2
X-Ray
 70
    25
 71
     2
 72
     2
 73
     1
 90
        1
 40
0.5
 41
-30.0
 62
     5
 63
     7
 74
     1
 91
        0
 64
     7
 65
   257
 75
     1
175
     1
 42
1.0
 92
        8
 66
     7
 43
1.0
 76
     1
 77
     6
 78
     2
 67
     7
 79
     3
170
     0
171
     0
290
     0
174
     0
 93
       13
 44
0.0
173
     0
291
     0
 45
0.0
1001
ACAD
1000
AcDbSavedByObjectVersion
1070
     0
  0
DICTIONARYVAR
  5
180F
102
{ACAD_REACTORS
330
180C
102
}
330
180C
100
DictionaryVariables
280
     0
  1
1:1
  0
DICTIONARYVAR
  5
180E
102
{ACAD_REACTORS
330
180C
102
}
330
180C
100
DictionaryVariables
280
     0
  1
STANDARD
  0
DICTIONARYVAR
  5
180D
102
{ACAD_REACTORS
330
180C
102
}
330
180C
100
DictionaryVariables
280
     0
  1
STANDARD
  0
DICTIONARYVAR
  5
1812
102
{ACAD_REACTORS
330
180C
102
}
330
180C
100
DictionaryVariables
280
     0
  1
1
  0
DICTIONARYVAR
  5
1811
102
{ACAD_REACTORS
330
180C
102
}
330
180C
100
DictionaryVariables
280
     0
  1
0
  0
DICTIONARYVAR
  5
1810
102
{ACAD_REACTORS
330
180C
102
}
330
180C
100
DictionaryVariables
280
     0
  1
127
  0
DICTIONARYVAR
  5
1813
102
{ACAD_REACTORS
330
180C
102
}
330
180C
100
DictionaryVariables
280
     0
  1
2
  0
DICTIONARY
  5
1894
330
E96
100
AcDbDictionary
280
     1
281
     1
  3
ACAD_XREC_ROUNDTRIP
360
1895
  0
DICTIONARY
  5
1892
330
E95
100
AcDbDictionary
280
     1
281
     1
  3
ACAD_XREC_ROUNDTRIP
360
1893
  0
DICTIONARY
  5
1294
330
1293
100
AcDbDictionary
280
     1
281
     1
  3
ACAD_XREC_ROUNDTRIP
360
1897
  3
BUMPTILE
360
1296
  3
DIFFUSETILE
360
1295
  3
OPACITYTILE
360
1299
  3
REFLECTIONTILE
360
1298
  3
REFRACTIONTILE
360
129A
  3
SPECULARTILE
360
1297
  0
DICTIONARY
  5
128C
330
128B
100
AcDbDictionary
280
     1
281
     1
  3
ACAD_XREC_ROUNDTRIP
360
1896
  3
BUMPTILE
360
128E
  3
DIFFUSETILE
360
128D
  3
OPACITYTILE
360
1291
  3
REFLECTIONTILE
360
1290
  3
REFRACTIONTILE
360
1292
  3
SPECULARTILE
360
128F
  0
DICTIONARY
  5
129C
330
129B
100
AcDbDictionary
280
     1
281
     1
  3
ACAD_XREC_ROUNDTRIP
360
1898
  3
BUMPTILE
360
129E
  3
DIFFUSETILE
360
129D
  3
OPACITYTILE
360
12A1
  3
REFLECTIONTILE
360
12A0
  3
REFRACTIONTILE
360
12A2
  3
SPECULARTILE
360
129F
  0
DICTIONARY
  5
188E
330
12BE
100
AcDbDictionary
280
     1
281
     1
  3
ACAD_ROUNDTRIP_2008_TABLESTYLE_CELLSTYLEMAP
360
188F
  3
ACAD_XREC_ROUNDTRIP
360
18C9
  0
DICTIONARY
  5
18A3
330
12A9
100
AcDbDictionary
280
     1
281
     1
  3
ACAD_XREC_ROUNDTRIP
360
18A4
  0
DICTIONARY
  5
18A1
330
12A8
100
AcDbDictionary
280
     1
281
     1
  3
ACAD_XREC_ROUNDTRIP
360
18A2
  0
DICTIONARY
  5
18AF
330
12AF
100
AcDbDictionary
280
     1
281
     1
  3
ACAD_XREC_ROUNDTRIP
360
18B0
  0
DICTIONARY
  5
18B7
330
12B3
100
AcDbDictionary
280
     1
281
     1
  3
ACAD_XREC_ROUNDTRIP
360
18B8
  0
DICTIONARY
  5
18A9
330
12AC
100
AcDbDictionary
280
     1
281
     1
  3
ACAD_XREC_ROUNDTRIP
360
18AA
  0
DICTIONARY
  5
18AD
330
12AE
100
AcDbDictionary
280
     1
281
     1
  3
ACAD_XREC_ROUNDTRIP
360
18AE
  0
DICTIONARY
  5
18C7
330
12BB
100
AcDbDictionary
280
     1
281
     1
  3
ACAD_XREC_ROUNDTRIP
360
18C8
  0
DICTIONARY
  5
18B5
330
12B2
100
AcDbDictionary
280
     1
281
     1
  3
ACAD_XREC_ROUNDTRIP
360
18B6
  0
DICTIONARY
  5
1899
330
12A4
100
AcDbDictionary
280
     1
281
     1
  3
ACAD_XREC_ROUNDTRIP
360
189A
  0
DICTIONARY
  5
189B
330
12A5
100
AcDbDictionary
280
     1
281
     1
  3
ACAD_XREC_ROUNDTRIP
360
189C
  0
DICTIONARY
  5
189D
330
12A6
100
AcDbDictionary
280
     1
281
     1
  3
ACAD_XREC_ROUNDTRIP
360
189E
  0
DICTIONARY
  5
189F
330
12A7
100
AcDbDictionary
280
     1
281
     1
  3
ACAD_XREC_ROUNDTRIP
360
18A0
  0
DICTIONARY
  5
18A7
330
12AB
100
AcDbDictionary
280
     1
281
     1
  3
ACAD_XREC_ROUNDTRIP
360
18A8
  0
DICTIONARY
  5
18C3
330
12B9
100
AcDbDictionary
280
     1
281
     1
  3
ACAD_XREC_ROUNDTRIP
360
18C4
  0
DICTIONARY
  5
18B3
330
12B1
100
AcDbDictionary
280
     1
281
     1
  3
ACAD_XREC_ROUNDTRIP
360
18B4
  0
DICTIONARY
  5
18C5
330
12BA
100
AcDbDictionary
280
     1
281
     1
  3
ACAD_XREC_ROUNDTRIP
360
18C6
  0
DICTIONARY
  5
18AB
330
12AD
100
AcDbDictionary
280
     1
281
     1
  3
ACAD_XREC_ROUNDTRIP
360
18AC
  0
DICTIONARY
  5
18C1
330
12B8
100
AcDbDictionary
280
     1
281
     1
  3
ACAD_XREC_ROUNDTRIP
360
18C2
  0
DICTIONARY
  5
18BF
330
12B7
100
AcDbDictionary
280
     1
281
     1
  3
ACAD_XREC_ROUNDTRIP
360
18C0
  0
DICTIONARY
  5
18B9
330
12B4
100
AcDbDictionary
280
     1
281
     1
  3
ACAD_XREC_ROUNDTRIP
360
18BA
  0
DICTIONARY
  5
18BB
330
12B5
100
AcDbDictionary
280
     1
281
     1
  3
ACAD_XREC_ROUNDTRIP
360
18BC
  0
DICTIONARY
  5
18B1
330
12B0
100
AcDbDictionary
280
     1
281
     1
  3
ACAD_XREC_ROUNDTRIP
360
18B2
  0
DICTIONARY
  5
18A5
330
12AA
100
AcDbDictionary
280
     1
281
     1
  3
ACAD_XREC_ROUNDTRIP
360
18A6
  0
DICTIONARY
  5
18BD
330
12B6
100
AcDbDictionary
280
     1
281
     1
  3
ACAD_XREC_ROUNDTRIP
360
18BE
  0
XRECORD
  5
1895
102
{ACAD_REACTORS
330
1894
102
}
330
1894
100
AcDbXrecord
280
     1
102
SHADEPLOT
 70
     0
102
SHADEPLOTRESLEVEL
 70
     2
102
SHADEPLOTCUSTOMDPI
 70
   300
  0
XRECORD
  5
1893
102
{ACAD_REACTORS
330
1892
102
}
330
1892
100
AcDbXrecord
280
     1
102
SHADEPLOT
 70
     0
102
SHADEPLOTRESLEVEL
 70
     2
102
SHADEPLOTCUSTOMDPI
 70
   300
  0
XRECORD
  5
1897
102
{ACAD_REACTORS
330
1294
102
}
330
1294
100
AcDbXrecord
280
     1
102
MATERIAL
148
0.0
149
0.0
149
0.0
 93
        0
 94
      127
282
     0
 72
     0
 77
     0
171
     0
175
     0
179
     0
273
     0
  0
XRECORD
  5
1296
102
{ACAD_REACTORS
330
1294
102
}
330
1294
100
AcDbXrecord
280
     1
270
     1
271
     1
  0
XRECORD
  5
1295
102
{ACAD_REACTORS
330
1294
102
}
330
1294
100
AcDbXrecord
280
     1
270
     1
271
     1
  0
XRECORD
  5
1299
102
{ACAD_REACTORS
330
1294
102
}
330
1294
100
AcDbXrecord
280
     1
270
     1
271
     1
  0
XRECORD
  5
1298
102
{ACAD_REACTORS
330
1294
102
}
330
1294
100
AcDbXrecord
280
     1
270
     1
271
     1
  0
XRECORD
  5
129A
102
{ACAD_REACTORS
330
1294
102
}
330
1294
100
AcDbXrecord
280
     1
270
     1
271
     1
  0
XRECORD
  5
1297
102
{ACAD_REACTORS
330
1294
102
}
330
1294
100
AcDbXrecord
280
     1
270
     1
271
     1
  0
XRECORD
  5
1896
102
{ACAD_REACTORS
330
128C
102
}
330
128C
100
AcDbXrecord
280
     1
102
MATERIAL
148
0.0
149
0.0
149
0.0
 93
        0
 94
      127
282
     0
 72
     0
 77
     0
171
     0
175
     0
179
     0
273
     0
  0
XRECORD
  5
128E
102
{ACAD_REACTORS
330
128C
102
}
330
128C
100
AcDbXrecord
280
     1
270
     1
271
     1
  0
XRECORD
  5
128D
102
{ACAD_REACTORS
330
128C
102
}
330
128C
100
AcDbXrecord
280
     1
270
     1
271
     1
  0
XRECORD
  5
1291
102
{ACAD_REACTORS
330
128C
102
}
330
128C
100
AcDbXrecord
280
     1
270
     1
271
     1
  0
XRECORD
  5
1290
102
{ACAD_REACTORS
330
128C
102
}
330
128C
100
AcDbXrecord
280
     1
270
     1
271
     1
  0
XRECORD
  5
1292
102
{ACAD_REACTORS
330
128C
102
}
330
128C
100
AcDbXrecord
280
     1
270
     1
271
     1
  0
XRECORD
  5
128F
102
{ACAD_REACTORS
330
128C
102
}
330
128C
100
AcDbXrecord
280
     1
270
     1
271
     1
  0
XRECORD
  5
1898
102
{ACAD_REACTORS
330
129C
102
}
330
129C
100
AcDbXrecord
280
     1
102
MATERIAL
148
0.0
149
0.0
149
0.0
 93
        0
 94
      127
282
     0
 72
     0
 77
     0
171
     0
175
     0
179
     0
273
     0
  0
XRECORD
  5
129E
102
{ACAD_REACTORS
330
129C
102
}
330
129C
100
AcDbXrecord
280
     1
270
     1
271
     1
  0
XRECORD
  5
129D
102
{ACAD_REACTORS
330
129C
102
}
330
129C
100
AcDbXrecord
280
     1
270
     1
271
     1
  0
XRECORD
  5
12A1
102
{ACAD_REACTORS
330
129C
102
}
330
129C
100
AcDbXrecord
280
     1
270
     1
271
     1
  0
XRECORD
  5
12A0
102
{ACAD_REACTORS
330
129C
102
}
330
129C
100
AcDbXrecord
280
     1
270
     1
271
     1
  0
XRECORD
  5
12A2
102
{ACAD_REACTORS
330
129C
102
}
330
129C
100
AcDbXrecord
280
     1
270
     1
271
     1
  0
XRECORD
  5
129F
102
{ACAD_REACTORS
330
129C
102
}
330
129C
100
AcDbXrecord
280
     1
270
     1
271
     1
  0
CELLSTYLEMAP
  5
188F
102
{ACAD_REACTORS
330
188E
102
}
330
188E
100
AcDbCellStyleMap
 90
        3
300
CELLSTYLE
  1
TABLEFORMAT_BEGIN
 90
        5
170
     1
 91
        0
 92
    32768
 62
   257
 93
        1
300
CONTENTFORMAT
  1
CONTENTFORMAT_BEGIN
 90
        0
 91
        0
 92
      512
 93
        0
300

 40
0.0
140
1.0
 94
        5
 62
     0
340
10
144
6.0
309
CONTENTFORMAT_END
171
     1
301
MARGIN
  1
CELLMARGIN_BEGIN
 40
1.5
 40
1.5
 40
1.5
 40
1.5
 40
4.5
 40
4.5
309
CELLMARGIN_END
 94
        6
 95
        1
302
GRIDFORMAT
  1
GRIDFORMAT_BEGIN
 90
        0
 91
        1
 62
     0
 92
       -2
340
0
 93
        0
 40
1.125
309
GRIDFORMAT_END
 95
        2
302
GRIDFORMAT
  1
GRIDFORMAT_BEGIN
 90
        0
 91
        1
 62
     0
 92
       -2
340
0
 93
        0
 40
1.125
309
GRIDFORMAT_END
 95
        4
302
GRIDFORMAT
  1
GRIDFORMAT_BEGIN
 90
        0
 91
        1
 62
     0
 92
       -2
340
0
 93
        0
 40
1.125
309
GRIDFORMAT_END
 95
        8
302
GRIDFORMAT
  1
GRIDFORMAT_BEGIN
 90
        0
 91
        1
 62
     0
 92
       -2
340
0
 93
        0
 40
1.125
309
GRIDFORMAT_END
 95
       16
302
GRIDFORMAT
  1
GRIDFORMAT_BEGIN
 90
        0
 91
        1
 62
     0
 92
       -2
340
0
 93
        0
 40
1.125
309
GRIDFORMAT_END
 95
       32
302
GRIDFORMAT
  1
GRIDFORMAT_BEGIN
 90
        0
 91
        1
 62
     0
 92
       -2
340
0
 93
        0
 40
1.125
309
GRIDFORMAT_END
309
TABLEFORMAT_END
  1
CELLSTYLE_BEGIN
 90
        1
 91
        1
300
_TITLE
309
CELLSTYLE_END
300
CELLSTYLE
  1
TABLEFORMAT_BEGIN
 90
        5
170
     1
 91
        0
 92
        0
 62
   257
 93
        1
300
CONTENTFORMAT
  1
CONTENTFORMAT_BEGIN
 90
        0
 91
        0
 92
      512
 93
        0
300

 40
0.0
140
1.0
 94
        5
 62
     0
340
10
144
4.5
309
CONTENTFORMAT_END
171
     1
301
MARGIN
  1
CELLMARGIN_BEGIN
 40
1.5
 40
1.5
 40
1.5
 40
1.5
 40
4.5
 40
4.5
309
CELLMARGIN_END
 94
        6
 95
        1
302
GRIDFORMAT
  1
GRIDFORMAT_BEGIN
 90
        0
 91
        1
 62
     0
 92
       -2
340
0
 93
        0
 40
1.125
309
GRIDFORMAT_END
 95
        2
302
GRIDFORMAT
  1
GRIDFORMAT_BEGIN
 90
        0
 91
        1
 62
     0
 92
       -2
340
0
 93
        0
 40
1.125
309
GRIDFORMAT_END
 95
        4
302
GRIDFORMAT
  1
GRIDFORMAT_BEGIN
 90
        0
 91
        1
 62
     0
 92
       -2
340
0
 93
        0
 40
1.125
309
GRIDFORMAT_END
 95
        8
302
GRIDFORMAT
  1
GRIDFORMAT_BEGIN
 90
        0
 91
        1
 62
     0
 92
       -2
340
0
 93
        0
 40
1.125
309
GRIDFORMAT_END
 95
       16
302
GRIDFORMAT
  1
GRIDFORMAT_BEGIN
 90
        0
 91
        1
 62
     0
 92
       -2
340
0
 93
        0
 40
1.125
309
GRIDFORMAT_END
 95
       32
302
GRIDFORMAT
  1
GRIDFORMAT_BEGIN
 90
        0
 91
        1
 62
     0
 92
       -2
340
0
 93
        0
 40
1.125
309
GRIDFORMAT_END
309
TABLEFORMAT_END
  1
CELLSTYLE_BEGIN
 90
        2
 91
        1
300
_HEADER
309
CELLSTYLE_END
300
CELLSTYLE
  1
TABLEFORMAT_BEGIN
 90
        5
170
     1
 91
        0
 92
        0
 62
   257
 93
        1
300
CONTENTFORMAT
  1
CONTENTFORMAT_BEGIN
 90
        0
 91
        0
 92
      512
 93
        0
300

 40
0.0
140
1.0
 94
        2
 62
     0
340
10
144
4.5
309
CONTENTFORMAT_END
171
     1
301
MARGIN
  1
CELLMARGIN_BEGIN
 40
1.5
 40
1.5
 40
1.5
 40
1.5
 40
4.5
 40
4.5
309
CELLMARGIN_END
 94
        6
 95
        1
302
GRIDFORMAT
  1
GRIDFORMAT_BEGIN
 90
        0
 91
        1
 62
     0
 92
       -2
340
0
 93
        0
 40
1.125
309
GRIDFORMAT_END
 95
        2
302
GRIDFORMAT
  1
GRIDFORMAT_BEGIN
 90
        0
 91
        1
 62
     0
 92
       -2
340
0
 93
        0
 40
1.125
309
GRIDFORMAT_END
 95
        4
302
GRIDFORMAT
  1
GRIDFORMAT_BEGIN
 90
        0
 91
        1
 62
     0
 92
       -2
340
0
 93
        0
 40
1.125
309
GRIDFORMAT_END
 95
        8
302
GRIDFORMAT
  1
GRIDFORMAT_BEGIN
 90
        0
 91
        1
 62
     0
 92
       -2
340
0
 93
        0
 40
1.125
309
GRIDFORMAT_END
 95
       16
302
GRIDFORMAT
  1
GRIDFORMAT_BEGIN
 90
        0
 91
        1
 62
     0
 92
       -2
340
0
 93
        0
 40
1.125
309
GRIDFORMAT_END
 95
       32
302
GRIDFORMAT
  1
GRIDFORMAT_BEGIN
 90
        0
 91
        1
 62
     0
 92
       -2
340
0
 93
        0
 40
1.125
309
GRIDFORMAT_END
309
TABLEFORMAT_END
  1
CELLSTYLE_BEGIN
 90
        3
 91
        2
300
_DATA
309
CELLSTYLE_END
  0
XRECORD
  5
18C9
102
{ACAD_REACTORS
330
188E
102
}
330
188E
100
AcDbXrecord
280
     1
102
ACAD_ROUNDTRIP_PRE2007_TABLESTYLE
 90
      512
 91
        0
  1

 92
      512
 93
        0
  2

 94
      512
 95
        0
  3

  0
XRECORD
  5
18A4
102
{ACAD_REACTORS
330
18A3
102
}
330
18A3
100
AcDbXrecord
280
     1
102
RTVSPropertyOp0
 70
     1
102
RTVSPropertyOp1
 70
     1
102
RTVSPropertyOp2
 70
     1
102
RTVSPropertyOp3
 70
     1
102
RTVSPropertyOp4
 70
     1
102
RTVSPropertyOp5
 70
     1
102
RTVSPropertyOp6
 70
     1
102
RTVSPropertyOp7
 70
     1
102
RTVSPropertyOp8
 70
     1
102
RTVSPropertyOp9
 70
     1
102
RTVSPropertyOp10
 70
     1
102
RTVSPropertyOp11
 70
     1
102
RTVSPropertyOp12
 70
     1
102
RTVSPropertyOp13
 70
     1
102
RTVSPropertyOp14
 70
     1
102
RTVSPropertyOp15
 70
     1
102
RTVSPropertyOp16
 70
     1
102
RTVSPropertyOp17
 70
     1
102
RTVSPropertyOp18
 70
     1
102
RTVSPropertyOp19
 70
     1
102
RTVSPropertyOp20
 70
     1
102
RTVSPropertyOp21
 70
     1
102
RTVSPropertyOp22
 70
     1
102
RTVSPropertyOp23
 70
     1
102
RTVSPropertyOp24
 70
     1
102
RTVSPropertyOp25
 70
     1
102
RTVSPropertyOp26
 70
     1
102
RTVSPropertyOp27
 70
     1
102
RTVSPropertyOp28
 70
     1
102
RTVSPropertyOp29
 70
     1
102
RTVSPropertyOp30
 70
     1
102
RTVSPropertyOp31
 70
     1
102
RTVSPropertyOp32
 70
     1
  0
XRECORD
  5
18A2
102
{ACAD_REACTORS
330
18A1
102
}
330
18A1
100
AcDbXrecord
280
     1
102
RTVSPropertyOp0
 70
     1
102
RTVSPropertyOp1
 70
     1
102
RTVSPropertyOp2
 70
     1
102
RTVSPropertyOp3
 70
     1
102
RTVSPropertyOp4
 70
     1
102
RTVSPropertyOp5
 70
     1
102
RTVSPropertyOp6
 70
     1
102
RTVSPropertyOp7
 70
     1
102
RTVSPropertyOp8
 70
     1
102
RTVSPropertyOp9
 70
     1
102
RTVSPropertyOp10
 70
     1
102
RTVSPropertyOp11
 70
     1
102
RTVSPropertyOp12
 70
     1
102
RTVSPropertyOp13
 70
     1
102
RTVSPropertyOp14
 70
     1
102
RTVSPropertyOp15
 70
     1
102
RTVSPropertyOp16
 70
     1
102
RTVSPropertyOp17
 70
     1
102
RTVSPropertyOp18
 70
     1
102
RTVSPropertyOp19
 70
     1
102
RTVSPropertyOp20
 70
     1
102
RTVSPropertyOp21
 70
     1
102
RTVSPropertyOp22
 70
     1
102
RTVSPropertyOp23
 70
     1
102
RTVSPropertyOp24
 70
     1
102
RTVSPropertyOp25
 70
     1
102
RTVSPropertyOp26
 70
     1
102
RTVSPropertyOp27
 70
     1
102
RTVSPropertyOp28
 70
     1
102
RTVSPropertyOp29
 70
     1
102
RTVSPropertyOp30
 70
     1
102
RTVSPropertyOp31
 70
     1
102
RTVSPropertyOp32
 70
     1
  0
XRECORD
  5
18B0
102
{ACAD_REACTORS
330
18AF
102
}
330
18AF
100
AcDbXrecord
280
     1
102
RTVSPropertyOp0
 70
     1
102
RTVSPropertyOp1
 70
     1
102
RTVSPropertyOp2
 70
     1
102
RTVSPropertyOp3
 70
     1
102
RTVSPropertyOp4
 70
     1
102
RTVSPropertyOp5
 70
     1
102
RTVSPropertyOp6
 70
     1
102
RTVSPropertyOp7
 70
     1
102
RTVSPropertyOp8
 70
     1
102
RTVSPropertyOp9
 70
     1
102
RTVSPropertyOp10
 70
     1
102
RTVSPropertyOp11
 70
     1
102
RTVSPropertyOp12
 70
     1
102
RTVSPropertyOp13
 70
     1
102
RTVSPropertyOp14
 70
     1
102
RTVSPropertyOp15
 70
     1
102
RTVSPropertyOp16
 70
     1
102
RTVSPropertyOp17
 70
     1
102
RTVSPropertyOp18
 70
     1
102
RTVSPropertyOp19
 70
     1
102
RTVSPropertyOp20
 70
     1
102
RTVSPropertyOp21
 70
     1
102
RTVSPropertyOp22
 70
     1
102
RTVSPropertyOp23
 70
     1
102
RTVSPropertyOp24
 70
     1
102
RTVSPropertyOp25
 70
     1
102
RTVSPropertyOp26
 70
     1
102
RTVSPropertyOp27
 70
     1
102
RTVSPropertyOp28
 70
     1
102
RTVSPropertyOp29
 70
     1
102
RTVSPropertyOp30
 70
     1
102
RTVSPropertyOp31
 70
     1
102
RTVSPropertyOp32
 70
     1
  0
XRECORD
  5
18B8
102
{ACAD_REACTORS
330
18B7
102
}
330
18B7
100
AcDbXrecord
280
     1
102
RTVSPropertyOp0
 70
     1
102
RTVSPropertyOp1
 70
     1
102
RTVSPropertyOp2
 70
     1
102
RTVSPropertyOp3
 70
     1
102
RTVSPropertyOp4
 70
     1
102
RTVSPropertyOp5
 70
     1
102
RTVSPropertyOp6
 70
     1
102
RTVSPropertyOp7
 70
     1
102
RTVSPropertyOp8
 70
     1
102
RTVSPropertyOp9
 70
     1
102
RTVSPropertyOp10
 70
     1
102
RTVSPropertyOp11
 70
     1
102
RTVSPropertyOp12
 70
     1
102
RTVSPropertyOp13
 70
     1
102
RTVSPropertyOp14
 70
     1
102
RTVSPropertyOp15
 70
     1
102
RTVSPropertyOp16
 70
     1
102
RTVSPropertyOp17
 70
     1
102
RTVSPropertyOp18
 70
     1
102
RTVSPropertyOp19
 70
     1
102
RTVSPropertyOp20
 70
     1
102
RTVSPropertyOp21
 70
     1
102
RTVSPropertyOp22
 70
     1
102
RTVSPropertyOp23
 70
     1
102
RTVSPropertyOp24
 70
     1
102
RTVSPropertyOp25
 70
     1
102
RTVSPropertyOp26
 70
     1
102
RTVSPropertyOp27
 70
     1
102
RTVSPropertyOp28
 70
     1
102
RTVSPropertyOp29
 70
     1
102
RTVSPropertyOp30
 70
     1
102
RTVSPropertyOp31
 70
     1
102
RTVSPropertyOp32
 70
     1
  0
XRECORD
  5
18AA
102
{ACAD_REACTORS
330
18A9
102
}
330
18A9
100
AcDbXrecord
280
     1
102
RTVSPropertyOp0
 70
     1
102
RTVSPropertyOp1
 70
     1
102
RTVSPropertyOp2
 70
     1
102
RTVSPropertyOp3
 70
     1
102
RTVSPropertyOp4
 70
     1
102
RTVSPropertyOp5
 70
     1
102
RTVSPropertyOp6
 70
     1
102
RTVSPropertyOp7
 70
     1
102
RTVSPropertyOp8
 70
     1
102
RTVSPropertyOp9
 70
     1
102
RTVSPropertyOp10
 70
     1
102
RTVSPropertyOp11
 70
     1
102
RTVSPropertyOp12
 70
     1
102
RTVSPropertyOp13
 70
     1
102
RTVSPropertyOp14
 70
     1
102
RTVSPropertyOp15
 70
     1
102
RTVSPropertyOp16
 70
     1
102
RTVSPropertyOp17
 70
     1
102
RTVSPropertyOp18
 70
     1
102
RTVSPropertyOp19
 70
     1
102
RTVSPropertyOp20
 70
     1
102
RTVSPropertyOp21
 70
     1
102
RTVSPropertyOp22
 70
     1
102
RTVSPropertyOp23
 70
     1
102
RTVSPropertyOp24
 70
     1
102
RTVSPropertyOp25
 70
     1
102
RTVSPropertyOp26
 70
     1
102
RTVSPropertyOp27
 70
     1
102
RTVSPropertyOp28
 70
     1
102
RTVSPropertyOp29
 70
     1
102
RTVSPropertyOp30
 70
     1
102
RTVSPropertyOp31
 70
     1
102
RTVSPropertyOp32
 70
     1
  0
XRECORD
  5
18AE
102
{ACAD_REACTORS
330
18AD
102
}
330
18AD
100
AcDbXrecord
280
     1
102
RTVSPropertyOp0
 70
     1
102
RTVSPropertyOp1
 70
     1
102
RTVSPropertyOp2
 70
     1
102
RTVSPropertyOp3
 70
     1
102
RTVSPropertyOp4
 70
     1
102
RTVSPropertyOp5
 70
     1
102
RTVSPropertyOp6
 70
     1
102
RTVSPropertyOp7
 70
     1
102
RTVSPropertyOp8
 70
     1
102
RTVSPropertyOp9
 70
     1
102
RTVSPropertyOp10
 70
     1
102
RTVSPropertyOp11
 70
     1
102
RTVSPropertyOp12
 70
     1
102
RTVSPropertyOp13
 70
     1
102
RTVSPropertyOp14
 70
     1
102
RTVSPropertyOp15
 70
     1
102
RTVSPropertyOp16
 70
     1
102
RTVSPropertyOp17
 70
     1
102
RTVSPropertyOp18
 70
     1
102
RTVSPropertyOp19
 70
     1
102
RTVSPropertyOp20
 70
     1
102
RTVSPropertyOp21
 70
     1
102
RTVSPropertyOp22
 70
     1
102
RTVSPropertyOp23
 70
     1
102
RTVSPropertyOp24
 70
     1
102
RTVSPropertyOp25
 70
     1
102
RTVSPropertyOp26
 70
     1
102
RTVSPropertyOp27
 70
     1
102
RTVSPropertyOp28
 70
     1
102
RTVSPropertyOp29
 70
     1
102
RTVSPropertyOp30
 70
     1
102
RTVSPropertyOp31
 70
     1
102
RTVSPropertyOp32
 70
     1
  0
XRECORD
  5
18C8
102
{ACAD_REACTORS
330
18C7
102
}
330
18C7
100
AcDbXrecord
280
     1
102
RTVSPropertyOp0
 70
     0
102
RTVSPropertyOp1
 70
     0
102
RTVSPropertyOp2
 70
     0
102
RTVSPropertyOp3
 70
     0
102
RTVSPropertyOp4
 70
     0
102
RTVSPropertyOp5
 70
     0
102
RTVSPropertyOp6
 70
     0
102
RTVSPropertyOp7
 70
     0
102
RTVSPropertyOp8
 70
     0
102
RTVSPropertyOp9
 70
     0
102
RTVSPropertyOp10
 70
     0
102
RTVSPropertyOp11
 70
     0
102
RTVSPropertyOp12
 70
     0
102
RTVSPropertyOp13
 70
     0
102
RTVSPropertyOp14
 70
     2
102
RTVSPropertyOp15
 70
     0
102
RTVSPropertyOp16
 70
     0
102
RTVSPropertyOp17
 70
     0
102
RTVSPropertyOp18
 70
     0
102
RTVSPropertyOp19
 70
     0
102
RTVSPropertyOp20
 70
     0
102
RTVSPropertyOp21
 70
     0
102
RTVSPropertyOp22
 70
     0
102
RTVSPropertyOp23
 70
     0
102
RTVSPropertyOp24
 70
     0
102
RTVSPropertyOp25
 70
     0
102
RTVSPropertyOp26
 70
     0
102
RTVSPropertyOp27
 70
     0
102
RTVSPropertyOp28
 70
     0
102
RTVSPropertyOp29
 70
     0
102
RTVSPropertyOp30
 70
     0
102
RTVSPropertyOp31
 70
     0
102
RTVSPropertyOp32
 70
     0
  0
XRECORD
  5
18B6
102
{ACAD_REACTORS
330
18B5
102
}
330
18B5
100
AcDbXrecord
280
     1
102
RTVSPropertyOp0
 70
     1
102
RTVSPropertyOp1
 70
     1
102
RTVSPropertyOp2
 70
     1
102
RTVSPropertyOp3
 70
     1
102
RTVSPropertyOp4
 70
     1
102
RTVSPropertyOp5
 70
     1
102
RTVSPropertyOp6
 70
     1
102
RTVSPropertyOp7
 70
     1
102
RTVSPropertyOp8
 70
     1
102
RTVSPropertyOp9
 70
     1
102
RTVSPropertyOp10
 70
     1
102
RTVSPropertyOp11
 70
     1
102
RTVSPropertyOp12
 70
     1
102
RTVSPropertyOp13
 70
     1
102
RTVSPropertyOp14
 70
     1
102
RTVSPropertyOp15
 70
     1
102
RTVSPropertyOp16
 70
     1
102
RTVSPropertyOp17
 70
     1
102
RTVSPropertyOp18
 70
     1
102
RTVSPropertyOp19
 70
     1
102
RTVSPropertyOp20
 70
     1
102
RTVSPropertyOp21
 70
     1
102
RTVSPropertyOp22
 70
     1
102
RTVSPropertyOp23
 70
     1
102
RTVSPropertyOp24
 70
     1
102
RTVSPropertyOp25
 70
     1
102
RTVSPropertyOp26
 70
     1
102
RTVSPropertyOp27
 70
     1
102
RTVSPropertyOp28
 70
     1
102
RTVSPropertyOp29
 70
     1
102
RTVSPropertyOp30
 70
     1
102
RTVSPropertyOp31
 70
     1
102
RTVSPropertyOp32
 70
     1
  0
XRECORD
  5
189A
102
{ACAD_REACTORS
330
1899
102
}
330
1899
100
AcDbXrecord
280
     1
102
RTVSPropertyOp0
 70
     1
102
RTVSPropertyOp1
 70
     1
102
RTVSPropertyOp2
 70
     1
102
RTVSPropertyOp3
 70
     1
102
RTVSPropertyOp4
 70
     1
102
RTVSPropertyOp5
 70
     1
102
RTVSPropertyOp6
 70
     1
102
RTVSPropertyOp7
 70
     1
102
RTVSPropertyOp8
 70
     1
102
RTVSPropertyOp9
 70
     1
102
RTVSPropertyOp10
 70
     1
102
RTVSPropertyOp11
 70
     1
102
RTVSPropertyOp12
 70
     1
102
RTVSPropertyOp13
 70
     1
102
RTVSPropertyOp14
 70
     1
102
RTVSPropertyOp15
 70
     1
102
RTVSPropertyOp16
 70
     1
102
RTVSPropertyOp17
 70
     1
102
RTVSPropertyOp18
 70
     1
102
RTVSPropertyOp19
 70
     1
102
RTVSPropertyOp20
 70
     1
102
RTVSPropertyOp21
 70
     1
102
RTVSPropertyOp22
 70
     1
102
RTVSPropertyOp23
 70
     1
102
RTVSPropertyOp24
 70
     1
102
RTVSPropertyOp25
 70
     1
102
RTVSPropertyOp26
 70
     1
102
RTVSPropertyOp27
 70
     1
102
RTVSPropertyOp28
 70
     1
102
RTVSPropertyOp29
 70
     1
102
RTVSPropertyOp30
 70
     1
102
RTVSPropertyOp31
 70
     1
102
RTVSPropertyOp32
 70
     1
  0
XRECORD
  5
189C
102
{ACAD_REACTORS
330
189B
102
}
330
189B
100
AcDbXrecord
280
     1
102
RTVSPropertyOp0
 70
     1
102
RTVSPropertyOp1
 70
     1
102
RTVSPropertyOp2
 70
     1
102
RTVSPropertyOp3
 70
     1
102
RTVSPropertyOp4
 70
     1
102
RTVSPropertyOp5
 70
     1
102
RTVSPropertyOp6
 70
     1
102
RTVSPropertyOp7
 70
     1
102
RTVSPropertyOp8
 70
     1
102
RTVSPropertyOp9
 70
     1
102
RTVSPropertyOp10
 70
     1
102
RTVSPropertyOp11
 70
     1
102
RTVSPropertyOp12
 70
     1
102
RTVSPropertyOp13
 70
     1
102
RTVSPropertyOp14
 70
     1
102
RTVSPropertyOp15
 70
     1
102
RTVSPropertyOp16
 70
     1
102
RTVSPropertyOp17
 70
     1
102
RTVSPropertyOp18
 70
     1
102
RTVSPropertyOp19
 70
     1
102
RTVSPropertyOp20
 70
     1
102
RTVSPropertyOp21
 70
     1
102
RTVSPropertyOp22
 70
     1
102
RTVSPropertyOp23
 70
     1
102
RTVSPropertyOp24
 70
     1
102
RTVSPropertyOp25
 70
     1
102
RTVSPropertyOp26
 70
     1
102
RTVSPropertyOp27
 70
     1
102
RTVSPropertyOp28
 70
     1
102
RTVSPropertyOp29
 70
     1
102
RTVSPropertyOp30
 70
     1
102
RTVSPropertyOp31
 70
     1
102
RTVSPropertyOp32
 70
     1
  0
XRECORD
  5
189E
102
{ACAD_REACTORS
330
189D
102
}
330
189D
100
AcDbXrecord
280
     1
102
RTVSPropertyOp0
 70
     1
102
RTVSPropertyOp1
 70
     1
102
RTVSPropertyOp2
 70
     1
102
RTVSPropertyOp3
 70
     1
102
RTVSPropertyOp4
 70
     1
102
RTVSPropertyOp5
 70
     1
102
RTVSPropertyOp6
 70
     1
102
RTVSPropertyOp7
 70
     1
102
RTVSPropertyOp8
 70
     1
102
RTVSPropertyOp9
 70
     1
102
RTVSPropertyOp10
 70
     1
102
RTVSPropertyOp11
 70
     1
102
RTVSPropertyOp12
 70
     1
102
RTVSPropertyOp13
 70
     1
102
RTVSPropertyOp14
 70
     1
102
RTVSPropertyOp15
 70
     1
102
RTVSPropertyOp16
 70
     1
102
RTVSPropertyOp17
 70
     1
102
RTVSPropertyOp18
 70
     1
102
RTVSPropertyOp19
 70
     1
102
RTVSPropertyOp20
 70
     1
102
RTVSPropertyOp21
 70
     1
102
RTVSPropertyOp22
 70
     1
102
RTVSPropertyOp23
 70
     1
102
RTVSPropertyOp24
 70
     1
102
RTVSPropertyOp25
 70
     1
102
RTVSPropertyOp26
 70
     1
102
RTVSPropertyOp27
 70
     1
102
RTVSPropertyOp28
 70
     1
102
RTVSPropertyOp29
 70
     1
102
RTVSPropertyOp30
 70
     1
102
RTVSPropertyOp31
 70
     1
102
RTVSPropertyOp32
 70
     1
  0
XRECORD
  5
18A0
102
{ACAD_REACTORS
330
189F
102
}
330
189F
100
AcDbXrecord
280
     1
102
RTVSPropertyOp0
 70
     1
102
RTVSPropertyOp1
 70
     1
102
RTVSPropertyOp2
 70
     1
102
RTVSPropertyOp3
 70
     1
102
RTVSPropertyOp4
 70
     1
102
RTVSPropertyOp5
 70
     1
102
RTVSPropertyOp6
 70
     1
102
RTVSPropertyOp7
 70
     1
102
RTVSPropertyOp8
 70
     1
102
RTVSPropertyOp9
 70
     1
102
RTVSPropertyOp10
 70
     1
102
RTVSPropertyOp11
 70
     1
102
RTVSPropertyOp12
 70
     1
102
RTVSPropertyOp13
 70
     1
102
RTVSPropertyOp14
 70
     1
102
RTVSPropertyOp15
 70
     1
102
RTVSPropertyOp16
 70
     1
102
RTVSPropertyOp17
 70
     1
102
RTVSPropertyOp18
 70
     1
102
RTVSPropertyOp19
 70
     1
102
RTVSPropertyOp20
 70
     1
102
RTVSPropertyOp21
 70
     1
102
RTVSPropertyOp22
 70
     1
102
RTVSPropertyOp23
 70
     1
102
RTVSPropertyOp24
 70
     1
102
RTVSPropertyOp25
 70
     1
102
RTVSPropertyOp26
 70
     1
102
RTVSPropertyOp27
 70
     1
102
RTVSPropertyOp28
 70
     1
102
RTVSPropertyOp29
 70
     1
102
RTVSPropertyOp30
 70
     1
102
RTVSPropertyOp31
 70
     1
102
RTVSPropertyOp32
 70
     1
  0
XRECORD
  5
18A8
102
{ACAD_REACTORS
330
18A7
102
}
330
18A7
100
AcDbXrecord
280
     1
102
RTVSPropertyOp0
 70
     1
102
RTVSPropertyOp1
 70
     1
102
RTVSPropertyOp2
 70
     1
102
RTVSPropertyOp3
 70
     1
102
RTVSPropertyOp4
 70
     1
102
RTVSPropertyOp5
 70
     1
102
RTVSPropertyOp6
 70
     1
102
RTVSPropertyOp7
 70
     1
102
RTVSPropertyOp8
 70
     1
102
RTVSPropertyOp9
 70
     1
102
RTVSPropertyOp10
 70
     1
102
RTVSPropertyOp11
 70
     1
102
RTVSPropertyOp12
 70
     1
102
RTVSPropertyOp13
 70
     1
102
RTVSPropertyOp14
 70
     1
102
RTVSPropertyOp15
 70
     1
102
RTVSPropertyOp16
 70
     1
102
RTVSPropertyOp17
 70
     1
102
RTVSPropertyOp18
 70
     1
102
RTVSPropertyOp19
 70
     1
102
RTVSPropertyOp20
 70
     1
102
RTVSPropertyOp21
 70
     1
102
RTVSPropertyOp22
 70
     1
102
RTVSPropertyOp23
 70
     1
102
RTVSPropertyOp24
 70
     1
102
RTVSPropertyOp25
 70
     1
102
RTVSPropertyOp26
 70
     1
102
RTVSPropertyOp27
 70
     1
102
RTVSPropertyOp28
 70
     1
102
RTVSPropertyOp29
 70
     1
102
RTVSPropertyOp30
 70
     1
102
RTVSPropertyOp31
 70
     1
102
RTVSPropertyOp32
 70
     1
  0
XRECORD
  5
18C4
102
{ACAD_REACTORS
330
18C3
102
}
330
18C3
100
AcDbXrecord
280
     1
102
RTVSPropertyOp0
 70
     0
102
RTVSPropertyOp1
 70
     0
102
RTVSPropertyOp2
 70
     0
102
RTVSPropertyOp3
 70
     0
102
RTVSPropertyOp4
 70
     0
102
RTVSPropertyOp5
 70
     0
102
RTVSPropertyOp6
 70
     0
102
RTVSPropertyOp7
 70
     0
102
RTVSPropertyOp8
 70
     0
102
RTVSPropertyOp9
 70
     0
102
RTVSPropertyOp10
 70
     0
102
RTVSPropertyOp11
 70
     0
102
RTVSPropertyOp12
 70
     0
102
RTVSPropertyOp13
 70
     0
102
RTVSPropertyOp14
 70
     2
102
RTVSPropertyOp15
 70
     0
102
RTVSPropertyOp16
 70
     0
102
RTVSPropertyOp17
 70
     0
102
RTVSPropertyOp18
 70
     0
102
RTVSPropertyOp19
 70
     0
102
RTVSPropertyOp20
 70
     0
102
RTVSPropertyOp21
 70
     0
102
RTVSPropertyOp22
 70
     0
102
RTVSPropertyOp23
 70
     0
102
RTVSPropertyOp24
 70
     0
102
RTVSPropertyOp25
 70
     0
102
RTVSPropertyOp26
 70
     0
102
RTVSPropertyOp27
 70
     0
102
RTVSPropertyOp28
 70
     0
102
RTVSPropertyOp29
 70
     0
102
RTVSPropertyOp30
 70
     0
102
RTVSPropertyOp31
 70
     0
102
RTVSPropertyOp32
 70
     0
  0
XRECORD
  5
18B4
102
{ACAD_REACTORS
330
18B3
102
}
330
18B3
100
AcDbXrecord
280
     1
102
RTVSPropertyOp0
 70
     1
102
RTVSPropertyOp1
 70
     1
102
RTVSPropertyOp2
 70
     1
102
RTVSPropertyOp3
 70
     1
102
RTVSPropertyOp4
 70
     1
102
RTVSPropertyOp5
 70
     1
102
RTVSPropertyOp6
 70
     1
102
RTVSPropertyOp7
 70
     1
102
RTVSPropertyOp8
 70
     1
102
RTVSPropertyOp9
 70
     1
102
RTVSPropertyOp10
 70
     1
102
RTVSPropertyOp11
 70
     1
102
RTVSPropertyOp12
 70
     1
102
RTVSPropertyOp13
 70
     1
102
RTVSPropertyOp14
 70
     1
102
RTVSPropertyOp15
 70
     1
102
RTVSPropertyOp16
 70
     1
102
RTVSPropertyOp17
 70
     1
102
RTVSPropertyOp18
 70
     1
102
RTVSPropertyOp19
 70
     1
102
RTVSPropertyOp20
 70
     1
102
RTVSPropertyOp21
 70
     1
102
RTVSPropertyOp22
 70
     1
102
RTVSPropertyOp23
 70
     1
102
RTVSPropertyOp24
 70
     1
102
RTVSPropertyOp25
 70
     1
102
RTVSPropertyOp26
 70
     1
102
RTVSPropertyOp27
 70
     1
102
RTVSPropertyOp28
 70
     1
102
RTVSPropertyOp29
 70
     1
102
RTVSPropertyOp30
 70
     1
102
RTVSPropertyOp31
 70
     1
102
RTVSPropertyOp32
 70
     1
  0
XRECORD
  5
18C6
102
{ACAD_REACTORS
330
18C5
102
}
330
18C5
100
AcDbXrecord
280
     1
102
RTVSPropertyOp0
 70
     0
102
RTVSPropertyOp1
 70
     0
102
RTVSPropertyOp2
 70
     0
102
RTVSPropertyOp3
 70
     0
102
RTVSPropertyOp4
 70
     0
102
RTVSPropertyOp5
 70
     0
102
RTVSPropertyOp6
 70
     0
102
RTVSPropertyOp7
 70
     0
102
RTVSPropertyOp8
 70
     0
102
RTVSPropertyOp9
 70
     0
102
RTVSPropertyOp10
 70
     0
102
RTVSPropertyOp11
 70
     0
102
RTVSPropertyOp12
 70
     0
102
RTVSPropertyOp13
 70
     0
102
RTVSPropertyOp14
 70
     2
102
RTVSPropertyOp15
 70
     0
102
RTVSPropertyOp16
 70
     0
102
RTVSPropertyOp17
 70
     0
102
RTVSPropertyOp18
 70
     0
102
RTVSPropertyOp19
 70
     0
102
RTVSPropertyOp20
 70
     0
102
RTVSPropertyOp21
 70
     0
102
RTVSPropertyOp22
 70
     0
102
RTVSPropertyOp23
 70
     0
102
RTVSPropertyOp24
 70
     0
102
RTVSPropertyOp25
 70
     0
102
RTVSPropertyOp26
 70
     0
102
RTVSPropertyOp27
 70
     0
102
RTVSPropertyOp28
 70
     0
102
RTVSPropertyOp29
 70
     0
102
RTVSPropertyOp30
 70
     0
102
RTVSPropertyOp31
 70
     0
102
RTVSPropertyOp32
 70
     0
  0
XRECORD
  5
18AC
102
{ACAD_REACTORS
330
18AB
102
}
330
18AB
100
AcDbXrecord
280
     1
102
RTVSPropertyOp0
 70
     1
102
RTVSPropertyOp1
 70
     1
102
RTVSPropertyOp2
 70
     1
102
RTVSPropertyOp3
 70
     1
102
RTVSPropertyOp4
 70
     1
102
RTVSPropertyOp5
 70
     1
102
RTVSPropertyOp6
 70
     1
102
RTVSPropertyOp7
 70
     1
102
RTVSPropertyOp8
 70
     1
102
RTVSPropertyOp9
 70
     1
102
RTVSPropertyOp10
 70
     1
102
RTVSPropertyOp11
 70
     1
102
RTVSPropertyOp12
 70
     1
102
RTVSPropertyOp13
 70
     1
102
RTVSPropertyOp14
 70
     1
102
RTVSPropertyOp15
 70
     1
102
RTVSPropertyOp16
 70
     1
102
RTVSPropertyOp17
 70
     1
102
RTVSPropertyOp18
 70
     1
102
RTVSPropertyOp19
 70
     1
102
RTVSPropertyOp20
 70
     1
102
RTVSPropertyOp21
 70
     1
102
RTVSPropertyOp22
 70
     1
102
RTVSPropertyOp23
 70
     1
102
RTVSPropertyOp24
 70
     1
102
RTVSPropertyOp25
 70
     1
102
RTVSPropertyOp26
 70
     1
102
RTVSPropertyOp27
 70
     1
102
RTVSPropertyOp28
 70
     1
102
RTVSPropertyOp29
 70
     1
102
RTVSPropertyOp30
 70
     1
102
RTVSPropertyOp31
 70
     1
102
RTVSPropertyOp32
 70
     1
  0
XRECORD
  5
18C2
102
{ACAD_REACTORS
330
18C1
102
}
330
18C1
100
AcDbXrecord
280
     1
102
RTVSPropertyOp0
 70
     1
102
RTVSPropertyOp1
 70
     1
102
RTVSPropertyOp2
 70
     1
102
RTVSPropertyOp3
 70
     1
102
RTVSPropertyOp4
 70
     1
102
RTVSPropertyOp5
 70
     1
102
RTVSPropertyOp6
 70
     1
102
RTVSPropertyOp7
 70
     1
102
RTVSPropertyOp8
 70
     1
102
RTVSPropertyOp9
 70
     1
102
RTVSPropertyOp10
 70
     1
102
RTVSPropertyOp11
 70
     1
102
RTVSPropertyOp12
 70
     1
102
RTVSPropertyOp13
 70
     1
102
RTVSPropertyOp14
 70
     1
102
RTVSPropertyOp15
 70
     1
102
RTVSPropertyOp16
 70
     1
102
RTVSPropertyOp17
 70
     1
102
RTVSPropertyOp18
 70
     1
102
RTVSPropertyOp19
 70
     1
102
RTVSPropertyOp20
 70
     1
102
RTVSPropertyOp21
 70
     1
102
RTVSPropertyOp22
 70
     1
102
RTVSPropertyOp23
 70
     1
102
RTVSPropertyOp24
 70
     1
102
RTVSPropertyOp25
 70
     1
102
RTVSPropertyOp26
 70
     1
102
RTVSPropertyOp27
 70
     1
102
RTVSPropertyOp28
 70
     1
102
RTVSPropertyOp29
 70
     1
102
RTVSPropertyOp30
 70
     1
102
RTVSPropertyOp31
 70
     1
102
RTVSPropertyOp32
 70
     1
  0
XRECORD
  5
18C0
102
{ACAD_REACTORS
330
18BF
102
}
330
18BF
100
AcDbXrecord
280
     1
102
RTVSPropertyOp0
 70
     1
102
RTVSPropertyOp1
 70
     1
102
RTVSPropertyOp2
 70
     1
102
RTVSPropertyOp3
 70
     1
102
RTVSPropertyOp4
 70
     1
102
RTVSPropertyOp5
 70
     1
102
RTVSPropertyOp6
 70
     1
102
RTVSPropertyOp7
 70
     1
102
RTVSPropertyOp8
 70
     1
102
RTVSPropertyOp9
 70
     1
102
RTVSPropertyOp10
 70
     1
102
RTVSPropertyOp11
 70
     1
102
RTVSPropertyOp12
 70
     1
102
RTVSPropertyOp13
 70
     1
102
RTVSPropertyOp14
 70
     1
102
RTVSPropertyOp15
 70
     1
102
RTVSPropertyOp16
 70
     1
102
RTVSPropertyOp17
 70
     1
102
RTVSPropertyOp18
 70
     1
102
RTVSPropertyOp19
 70
     1
102
RTVSPropertyOp20
 70
     1
102
RTVSPropertyOp21
 70
     1
102
RTVSPropertyOp22
 70
     1
102
RTVSPropertyOp23
 70
     1
102
RTVSPropertyOp24
 70
     1
102
RTVSPropertyOp25
 70
     1
102
RTVSPropertyOp26
 70
     1
102
RTVSPropertyOp27
 70
     1
102
RTVSPropertyOp28
 70
     1
102
RTVSPropertyOp29
 70
     1
102
RTVSPropertyOp30
 70
     1
102
RTVSPropertyOp31
 70
     1
102
RTVSPropertyOp32
 70
     1
  0
XRECORD
  5
18BA
102
{ACAD_REACTORS
330
18B9
102
}
330
18B9
100
AcDbXrecord
280
     1
102
RTVSPropertyOp0
 70
     1
102
RTVSPropertyOp1
 70
     1
102
RTVSPropertyOp2
 70
     1
102
RTVSPropertyOp3
 70
     1
102
RTVSPropertyOp4
 70
     1
102
RTVSPropertyOp5
 70
     1
102
RTVSPropertyOp6
 70
     1
102
RTVSPropertyOp7
 70
     1
102
RTVSPropertyOp8
 70
     1
102
RTVSPropertyOp9
 70
     1
102
RTVSPropertyOp10
 70
     1
102
RTVSPropertyOp11
 70
     1
102
RTVSPropertyOp12
 70
     1
102
RTVSPropertyOp13
 70
     1
102
RTVSPropertyOp14
 70
     1
102
RTVSPropertyOp15
 70
     1
102
RTVSPropertyOp16
 70
     1
102
RTVSPropertyOp17
 70
     1
102
RTVSPropertyOp18
 70
     1
102
RTVSPropertyOp19
 70
     1
102
RTVSPropertyOp20
 70
     1
102
RTVSPropertyOp21
 70
     1
102
RTVSPropertyOp22
 70
     1
102
RTVSPropertyOp23
 70
     1
102
RTVSPropertyOp24
 70
     1
102
RTVSPropertyOp25
 70
     1
102
RTVSPropertyOp26
 70
     1
102
RTVSPropertyOp27
 70
     1
102
RTVSPropertyOp28
 70
     1
102
RTVSPropertyOp29
 70
     1
102
RTVSPropertyOp30
 70
     1
102
RTVSPropertyOp31
 70
     1
102
RTVSPropertyOp32
 70
     1
  0
XRECORD
  5
18BC
102
{ACAD_REACTORS
330
18BB
102
}
330
18BB
100
AcDbXrecord
280
     1
102
RTVSPropertyOp0
 70
     1
102
RTVSPropertyOp1
 70
     1
102
RTVSPropertyOp2
 70
     1
102
RTVSPropertyOp3
 70
     1
102
RTVSPropertyOp4
 70
     1
102
RTVSPropertyOp5
 70
     1
102
RTVSPropertyOp6
 70
     1
102
RTVSPropertyOp7
 70
     1
102
RTVSPropertyOp8
 70
     1
102
RTVSPropertyOp9
 70
     1
102
RTVSPropertyOp10
 70
     1
102
RTVSPropertyOp11
 70
     1
102
RTVSPropertyOp12
 70
     1
102
RTVSPropertyOp13
 70
     1
102
RTVSPropertyOp14
 70
     1
102
RTVSPropertyOp15
 70
     1
102
RTVSPropertyOp16
 70
     1
102
RTVSPropertyOp17
 70
     1
102
RTVSPropertyOp18
 70
     1
102
RTVSPropertyOp19
 70
     1
102
RTVSPropertyOp20
 70
     1
102
RTVSPropertyOp21
 70
     1
102
RTVSPropertyOp22
 70
     1
102
RTVSPropertyOp23
 70
     1
102
RTVSPropertyOp24
 70
     1
102
RTVSPropertyOp25
 70
     1
102
RTVSPropertyOp26
 70
     1
102
RTVSPropertyOp27
 70
     1
102
RTVSPropertyOp28
 70
     1
102
RTVSPropertyOp29
 70
     1
102
RTVSPropertyOp30
 70
     1
102
RTVSPropertyOp31
 70
     1
102
RTVSPropertyOp32
 70
     1
  0
XRECORD
  5
18B2
102
{ACAD_REACTORS
330
18B1
102
}
330
18B1
100
AcDbXrecord
280
     1
102
RTVSPropertyOp0
 70
     1
102
RTVSPropertyOp1
 70
     1
102
RTVSPropertyOp2
 70
     1
102
RTVSPropertyOp3
 70
     1
102
RTVSPropertyOp4
 70
     1
102
RTVSPropertyOp5
 70
     1
102
RTVSPropertyOp6
 70
     1
102
RTVSPropertyOp7
 70
     1
102
RTVSPropertyOp8
 70
     1
102
RTVSPropertyOp9
 70
     1
102
RTVSPropertyOp10
 70
     1
102
RTVSPropertyOp11
 70
     1
102
RTVSPropertyOp12
 70
     1
102
RTVSPropertyOp13
 70
     1
102
RTVSPropertyOp14
 70
     1
102
RTVSPropertyOp15
 70
     1
102
RTVSPropertyOp16
 70
     1
102
RTVSPropertyOp17
 70
     1
102
RTVSPropertyOp18
 70
     1
102
RTVSPropertyOp19
 70
     1
102
RTVSPropertyOp20
 70
     1
102
RTVSPropertyOp21
 70
     1
102
RTVSPropertyOp22
 70
     1
102
RTVSPropertyOp23
 70
     1
102
RTVSPropertyOp24
 70
     1
102
RTVSPropertyOp25
 70
     1
102
RTVSPropertyOp26
 70
     1
102
RTVSPropertyOp27
 70
     1
102
RTVSPropertyOp28
 70
     1
102
RTVSPropertyOp29
 70
     1
102
RTVSPropertyOp30
 70
     1
102
RTVSPropertyOp31
 70
     1
102
RTVSPropertyOp32
 70
     1
  0
XRECORD
  5
18A6
102
{ACAD_REACTORS
330
18A5
102
}
330
18A5
100
AcDbXrecord
280
     1
102
RTVSPropertyOp0
 70
     1
102
RTVSPropertyOp1
 70
     1
102
RTVSPropertyOp2
 70
     1
102
RTVSPropertyOp3
 70
     1
102
RTVSPropertyOp4
 70
     1
102
RTVSPropertyOp5
 70
     1
102
RTVSPropertyOp6
 70
     1
102
RTVSPropertyOp7
 70
     1
102
RTVSPropertyOp8
 70
     1
102
RTVSPropertyOp9
 70
     1
102
RTVSPropertyOp10
 70
     1
102
RTVSPropertyOp11
 70
     1
102
RTVSPropertyOp12
 70
     1
102
RTVSPropertyOp13
 70
     1
102
RTVSPropertyOp14
 70
     1
102
RTVSPropertyOp15
 70
     1
102
RTVSPropertyOp16
 70
     1
102
RTVSPropertyOp17
 70
     1
102
RTVSPropertyOp18
 70
     1
102
RTVSPropertyOp19
 70
     1
102
RTVSPropertyOp20
 70
     1
102
RTVSPropertyOp21
 70
     1
102
RTVSPropertyOp22
 70
     1
102
RTVSPropertyOp23
 70
     1
102
RTVSPropertyOp24
 70
     1
102
RTVSPropertyOp25
 70
     1
102
RTVSPropertyOp26
 70
     1
102
RTVSPropertyOp27
 70
     1
102
RTVSPropertyOp28
 70
     1
102
RTVSPropertyOp29
 70
     1
102
RTVSPropertyOp30
 70
     1
102
RTVSPropertyOp31
 70
     1
102
RTVSPropertyOp32
 70
     1
  0
XRECORD
  5
18BE
102
{ACAD_REACTORS
330
18BD
102
}
330
18BD
100
AcDbXrecord
280
     1
102
RTVSPropertyOp0
 70
     1
102
RTVSPropertyOp1
 70
     1
102
RTVSPropertyOp2
 70
     1
102
RTVSPropertyOp3
 70
     1
102
RTVSPropertyOp4
 70
     1
102
RTVSPropertyOp5
 70
     1
102
RTVSPropertyOp6
 70
     1
102
RTVSPropertyOp7
 70
     1
102
RTVSPropertyOp8
 70
     1
102
RTVSPropertyOp9
 70
     1
102
RTVSPropertyOp10
 70
     1
102
RTVSPropertyOp11
 70
     1
102
RTVSPropertyOp12
 70
     1
102
RTVSPropertyOp13
 70
     1
102
RTVSPropertyOp14
 70
     1
102
RTVSPropertyOp15
 70
     1
102
RTVSPropertyOp16
 70
     1
102
RTVSPropertyOp17
 70
     1
102
RTVSPropertyOp18
 70
     1
102
RTVSPropertyOp19
 70
     1
102
RTVSPropertyOp20
 70
     1
102
RTVSPropertyOp21
 70
     1
102
RTVSPropertyOp22
 70
     1
102
RTVSPropertyOp23
 70
     1
102
RTVSPropertyOp24
 70
     1
102
RTVSPropertyOp25
 70
     1
102
RTVSPropertyOp26
 70
     1
102
RTVSPropertyOp27
 70
     1
102
RTVSPropertyOp28
 70
     1
102
RTVSPropertyOp29
 70
     1
102
RTVSPropertyOp30
 70
     1
102
RTVSPropertyOp31
 70
     1
102
RTVSPropertyOp32
 70
     1
  0
ENDSEC
  0
EOF
