  0
SECTION
  2
HEADER
  9
$ACADVER
  1
AC1015
  9
$ACADMAINTVER
 70
    20
  9
$DWGCODEPAGE
  3
ANSI_1252
  9
$INSBASE
 10
0.0
 20
0.0
 30
0.0
  9
$EXTMIN
 10
-34.13654914095128
 20
-29.27368047562618
 30
-0.0000000349181948
  9
$EXTMAX
 10
68.8412791563212
 20
24.13513256252645
 30
0.0000000814935747
  9
$LIMMIN
 10
-170.0
 20
-170.0
  9
$LIMMAX
 10
519.0
 20
260.0
  9
$ORTHOMODE
 70
     0
  9
$REGENMODE
 70
     1
  9
$FILLMODE
 70
     1
  9
$QTEXTMODE
 70
     0
  9
$MIRRTEXT
 70
     0
  9
$LTSCALE
 40
1.0
  9
$ATTMODE
 70
     1
  9
$TEXTSIZE
 40
3.5
  9
$TRACEWID
 40
1.0
  9
$TEXTSTYLE
  7
SIMPLEX
  9
$CLAYER
  8
1
  9
$CELTYPE
  6
BYLAYER
  9
$CECOLOR
 62
   256
  9
$CELTSCALE
 40
1.0
  9
$DISPSILH
 70
     0
  9
$DIMSCALE
 40
1.0
  9
$DIMASZ
 40
2.5
  9
$DIMEXO
 40
0.0
  9
$DIMDLI
 40
3.75
  9
$DIMRND
 40
0.0
  9
$DIMDLE
 40
0.0
  9
$DIMEXE
 40
1.25
  9
$DIMTP
 40
0.0
  9
$DIMTM
 40
0.0
  9
$DIMTXT
 40
3.5
  9
$DIMCEN
 40
0.0
  9
$DIMTSZ
 40
0.0
  9
$DIMTOL
 70
     0
  9
$DIMLIM
 70
     0
  9
$DIMTIH
 70
     0
  9
$DIMTOH
 70
     0
  9
$DIMSE1
 70
     0
  9
$DIMSE2
 70
     0
  9
$DIMTAD
 70
     1
  9
$DIMZIN
 70
     8
  9
$DIMBLK
  1

  9
$DIMASO
 70
     1
  9
$DIMSHO
 70
     1
  9
$DIMPOST
  1

  9
$DIMAPOST
  1

  9
$DIMALT
 70
     0
  9
$DIMALTD
 70
     3
  9
$DIMALTF
 40
0.039370078
  9
$DIMLFAC
 40
1.0
  9
$DIMTOFL
 70
     0
  9
$DIMTVP
 40
0.0
  9
$DIMTIX
 70
     0
  9
$DIMSOXD
 70
     0
  9
$DIMSAH
 70
     0
  9
$DIMBLK1
  1

  9
$DIMBLK2
  1

  9
$DIMSTYLE
  2
STANDARD
  9
$DIMCLRD
 70
     0
  9
$DIMCLRE
 70
     0
  9
$DIMCLRT
 70
     0
  9
$DIMTFAC
 40
1.0
  9
$DIMGAP
 40
0.625
  9
$DIMJUST
 70
     0
  9
$DIMSD1
 70
     0
  9
$DIMSD2
 70
     0
  9
$DIMTOLJ
 70
     0
  9
$DIMTZIN
 70
     8
  9
$DIMALTZ
 70
     0
  9
$DIMALTTZ
 70
     0
  9
$DIMUPT
 70
     0
  9
$DIMDEC
 70
     2
  9
$DIMTDEC
 70
     2
  9
$DIMALTU
 70
     2
  9
$DIMALTTD
 70
     3
  9
$DIMTXSTY
  7
SIMPLEX
  9
$DIMAUNIT
 70
     0
  9
$DIMADEC
 70
     2
  9
$DIMALTRND
 40
0.0
  9
$DIMAZIN
 70
     2
  9
$DIMDSEP
 70
    46
  9
$DIMATFIT
 70
     3
  9
$DIMFRAC
 70
     0
  9
$DIMLDRBLK
  1

  9
$DIMLUNIT
 70
     2
  9
$DIMLWD
 70
    -2
  9
$DIMLWE
 70
    -2
  9
$DIMTMOVE
 70
     0
  9
$LUNITS
 70
     2
  9
$LUPREC
 70
     4
  9
$SKETCHINC
 40
1.0
  9
$FILLETRAD
 40
0.0
  9
$AUNITS
 70
     0
  9
$AUPREC
 70
     0
  9
$MENU
  1
c:\tdm21\cad\caduti13\tdm13
  9
$ELEVATION
 40
0.0
  9
$PELEVATION
 40
0.0
  9
$THICKNESS
 40
0.0
  9
$LIMCHECK
 70
     0
  9
$CHAMFERA
 40
0.0
  9
$CHAMFERB
 40
0.0
  9
$CHAMFERC
 40
0.0
  9
$CHAMFERD
 40
0.0
  9
$SKPOLY
 70
     0
  9
$TDCREATE
 40
2454621.447648530
  9
$TDUCREATE
 40
2454621.364315197
  9
$TDUPDATE
 40
2454622.658394340
  9
$TDUUPDATE
 40
2454622.575061007
  9
$TDINDWG
 40
0.0116484722
  9
$TDUSRTIMER
 40
0.0116481134
  9
$USRTIMER
 70
     1
  9
$ANGBASE
 50
0.0
  9
$ANGDIR
 70
     0
  9
$PDMODE
 70
     1
  9
$PDSIZE
 40
0.0
  9
$PLINEWID
 40
0.0
  9
$SPLFRAME
 70
     0
  9
$SPLINETYPE
 70
     6
  9
$SPLINESEGS
 70
     8
  9
$HANDSEED
  5
60E
  9
$SURFTAB1
 70
     6
  9
$SURFTAB2
 70
     6
  9
$SURFTYPE
 70
     6
  9
$SURFU
 70
     6
  9
$SURFV
 70
     6
  9
$UCSBASE
  2

  9
$UCSNAME
  2

  9
$UCSORG
 10
0.0
 20
0.0
 30
0.0
  9
$UCSXDIR
 10
1.0
 20
0.0
 30
0.0
  9
$UCSYDIR
 10
0.0
 20
1.0
 30
0.0
  9
$UCSORTHOREF
  2

  9
$UCSORTHOVIEW
 70
     0
  9
$UCSORGTOP
 10
0.0
 20
0.0
 30
0.0
  9
$UCSORGBOTTOM
 10
0.0
 20
0.0
 30
0.0
  9
$UCSORGLEFT
 10
0.0
 20
0.0
 30
0.0
  9
$UCSORGRIGHT
 10
0.0
 20
0.0
 30
0.0
  9
$UCSORGFRONT
 10
0.0
 20
0.0
 30
0.0
  9
$UCSORGBACK
 10
0.0
 20
0.0
 30
0.0
  9
$PUCSBASE
  2

  9
$PUCSNAME
  2

  9
$PUCSORG
 10
0.0
 20
0.0
 30
0.0
  9
$PUCSXDIR
 10
1.0
 20
0.0
 30
0.0
  9
$PUCSYDIR
 10
0.0
 20
1.0
 30
0.0
  9
$PUCSORTHOREF
  2

  9
$PUCSORTHOVIEW
 70
     0
  9
$PUCSORGTOP
 10
0.0
 20
0.0
 30
0.0
  9
$PUCSORGBOTTOM
 10
0.0
 20
0.0
 30
0.0
  9
$PUCSORGLEFT
 10
0.0
 20
0.0
 30
0.0
  9
$PUCSORGRIGHT
 10
0.0
 20
0.0
 30
0.0
  9
$PUCSORGFRONT
 10
0.0
 20
0.0
 30
0.0
  9
$PUCSORGBACK
 10
0.0
 20
0.0
 30
0.0
  9
$USERI1
 70
     0
  9
$USERI2
 70
     0
  9
$USERI3
 70
     0
  9
$USERI4
 70
     0
  9
$USERI5
 70
     0
  9
$USERR1
 40
0.0
  9
$USERR2
 40
0.0
  9
$USERR3
 40
0.0
  9
$USERR4
 40
0.0
  9
$USERR5
 40
0.0
  9
$WORLDVIEW
 70
     1
  9
$SHADEDGE
 70
     3
  9
$SHADEDIF
 70
    70
  9
$TILEMODE
 70
     1
  9
$MAXACTVP
 70
    64
  9
$PINSBASE
 10
0.0
 20
0.0
 30
0.0
  9
$PLIMCHECK
 70
     0
  9
$PEXTMIN
 10
0.0
 20
0.0
 30
0.0
  9
$PEXTMAX
 10
0.0
 20
0.0
 30
0.0
  9
$PLIMMIN
 10
0.0
 20
0.0
  9
$PLIMMAX
 10
12.0
 20
9.0
  9
$UNITMODE
 70
     0
  9
$VISRETAIN
 70
     0
  9
$PLINEGEN
 70
     0
  9
$PSLTSCALE
 70
     1
  9
$TREEDEPTH
 70
  3020
  9
$CMLSTYLE
  2
STANDARD
  9
$CMLJUST
 70
     0
  9
$CMLSCALE
 40
20.0
  9
$PROXYGRAPHICS
 70
     1
  9
$MEASUREMENT
 70
     1
  9
$CELWEIGHT
370
    -1
  9
$ENDCAPS
280
     0
  9
$JOINSTYLE
280
     0
  9
$LWDISPLAY
290
     0
  9
$INSUNITS
 70
     4
  9
$HYPERLINKBASE
  1

  9
$STYLESHEET
  1
MONOCHROME.CTB
  9
$XEDIT
290
     1
  9
$CEPSNTYPE
380
     0
  9
$PSTYLEMODE
290
     1
  9
$FINGERPRINTGUID
  2
{2B1E0032-6319-415A-97F8-287A2F2BDDD2}
  9
$VERSIONGUID
  2
{CF8E16F2-081F-4EC4-AB16-FBCC6B56E7F9}
  9
$EXTNAMES
290
     1
  9
$PSVPSCALE
 40
0.0
  9
$OLESTARTUP
290
     0
  0
ENDSEC
  0
SECTION
  2
CLASSES
  0
CLASS
  1
ACDBDICTIONARYWDFLT
  2
AcDbDictionaryWithDefault
  3
ObjectDBX Classes
 90
        0
280
     0
281
     0
  0
CLASS
  1
ACDBPLACEHOLDER
  2
AcDbPlaceHolder
  3
ObjectDBX Classes
 90
        0
280
     0
281
     0
  0
CLASS
  1
LAYOUT
  2
AcDbLayout
  3
ObjectDBX Classes
 90
        0
280
     0
281
     0
  0
CLASS
  1
DICTIONARYVAR
  2
AcDbDictionaryVar
  3
ObjectDBX Classes
 90
        0
280
     0
281
     0
  0
CLASS
  1
TABLESTYLE
  2
AcDbTableStyle
  3
ObjectDBX Classes
 90
     4095
280
     0
281
     0
  0
CLASS
  1
MATERIAL
  2
AcDbMaterial
  3
ObjectDBX Classes
 90
     1024
280
     0
281
     0
  0
CLASS
  1
VISUALSTYLE
  2
AcDbVisualStyle
  3
ObjectDBX Classes
 90
     4095
280
     0
281
     0
  0
CLASS
  1
DIMASSOC
  2
AcDbDimAssoc
  3
"AcDbDimAssoc|Product Desc:     AcDim ARX App For Dimension|Company:          Autodesk, Inc.|WEB Address:      www.autodesk.com"
 90
        0
280
     0
281
     0
  0
ENDSEC
  0
SECTION
  2
TABLES
  0
TABLE
  2
VPORT
  5
8
330
0
100
AcDbSymbolTable
 70
     1
  0
VPORT
  5
3ED
330
8
100
AcDbSymbolTableRecord
100
AcDbViewportTableRecord
  2
*Active
 70
     0
 10
0.0
 20
0.0
 11
1.0
 21
1.0
 12
17.35236500768496
 22
-2.569273956549864
 13
0.0
 23
0.0
 14
5.0
 24
5.0
 15
5.0
 25
5.0
 16
0.0
 26
0.0
 36
1.0
 17
0.0
 27
0.0
 37
0.0
 40
53.74123303631541
 41
1.934579439252336
 42
50.0
 43
0.0
 44
0.0
 50
0.0
 51
0.0
 71
     0
 72
  2000
 73
     1
 74
     1
 75
     0
 76
     0
 77
     0
 78
     0
281
     0
 65
     1
110
0.0
120
0.0
130
0.0
111
1.0
121
0.0
131
0.0
112
0.0
122
1.0
132
0.0
 79
     0
146
0.0
  0
ENDTAB
  0
TABLE
  2
LTYPE
  5
5
330
0
100
AcDbSymbolTable
 70
     2
  0
LTYPE
  5
12
330
5
100
AcDbSymbolTableRecord
100
AcDbLinetypeTableRecord
  2
BYBLOCK
 70
     0
  3

 72
    65
 73
     0
 40
0.0
  0
LTYPE
  5
13
330
5
100
AcDbSymbolTableRecord
100
AcDbLinetypeTableRecord
  2
BYLAYER
 70
     0
  3

 72
    65
 73
     0
 40
0.0
  0
LTYPE
  5
14
330
5
100
AcDbSymbolTableRecord
100
AcDbLinetypeTableRecord
  2
CONTINUOUS
 70
     0
  3
Solid line
 72
    65
 73
     0
 40
0.0
  0
LTYPE
  5
351
330
5
100
AcDbSymbolTableRecord
100
AcDbLinetypeTableRecord
  2
CENTER
 70
     0
  3
Dash dot __ . __ . __ . __ . __ . __ . __ . __
 72
    65
 73
     4
 40
25.4
 49
12.7
 74
     0
 49
-6.349999999999997
 74
     0
 49
0.0
 74
     0
 49
-6.349999999999997
 74
     0
  0
ENDTAB
  0
TABLE
  2
LAYER
  5
2
330
0
100
AcDbSymbolTable
 70
     6
  0
LAYER
  5
F
330
2
100
AcDbSymbolTableRecord
100
AcDbLayerTableRecord
  2
0
 70
     0
 62
     7
  6
CONTINUOUS
370
    -3
390
300
  0
LAYER
  5
23
330
2
100
AcDbSymbolTableRecord
100
AcDbLayerTableRecord
  2
1
 70
     0
 62
     4
  6
CONTINUOUS
370
    -3
390
300
  0
LAYER
  5
25
330
2
100
AcDbSymbolTableRecord
100
AcDbLayerTableRecord
  2
2
 70
     0
 62
     7
  6
CONTINUOUS
370
    -3
390
300
  0
LAYER
  5
2A
330
2
100
AcDbSymbolTableRecord
100
AcDbLayerTableRecord
  2
4
 70
     0
 62
     2
  6
CENTER
370
    -3
390
300
  0
LAYER
  5
2E
330
2
100
AcDbSymbolTableRecord
100
AcDbLayerTableRecord
  2
SK6
 70
     0
 62
     5
  6
CONTINUOUS
370
    -3
390
300
  0
LAYER
  5
2F
330
2
100
AcDbSymbolTableRecord
100
AcDbLayerTableRecord
  2
DEFPOINTS
 70
     0
 62
     7
  6
CONTINUOUS
290
     0
370
    -3
390
300
  0
ENDTAB
  0
TABLE
  2
STYLE
  5
3
330
0
100
AcDbSymbolTable
 70
     2
  0
STYLE
  5
10
330
3
100
AcDbSymbolTableRecord
100
AcDbTextStyleTableRecord
  2
STANDARD
 70
     0
 40
0.0
 41
1.0
 50
0.0
 71
     0
 42
5.0
  3
txt
  4

  0
STYLE
  5
1E
330
3
100
AcDbSymbolTableRecord
100
AcDbTextStyleTableRecord
  2
SIMPLEX
 70
     0
 40
0.0
 41
1.0
 50
0.0
 71
     0
 42
3.5
  3
simplex
  4

  0
ENDTAB
  0
TABLE
  2
VIEW
  5
6
330
0
100
AcDbSymbolTable
 70
     0
  0
ENDTAB
  0
TABLE
  2
UCS
  5
7
330
0
100
AcDbSymbolTable
 70
     0
  0
ENDTAB
  0
TABLE
  2
APPID
  5
9
330
0
100
AcDbSymbolTable
 70
     3
  0
APPID
  5
11
330
9
100
AcDbSymbolTableRecord
100
AcDbRegAppTableRecord
  2
ACAD
 70
     0
  0
APPID
  5
3A6
330
9
100
AcDbSymbolTableRecord
100
AcDbRegAppTableRecord
  2
ACAD_PSEXT
 70
     0
  0
APPID
  5
3A8
330
9
100
AcDbSymbolTableRecord
100
AcDbRegAppTableRecord
  2
ACAD_EXEMPT_FROM_CAD_STANDARDS
 70
     0
  0
ENDTAB
  0
TABLE
  2
DIMSTYLE
  5
A
330
0
100
AcDbSymbolTable
 70
     1
100
AcDbDimStyleTable
 71
     1
340
3F
  0
DIMSTYLE
105
3F
102
{ACAD_REACTORS
330
4B9
330
4BD
330
4C1
330
4C9
330
5D1
102
}
330
A
100
AcDbSymbolTableRecord
100
AcDbDimStyleTableRecord
  2
STANDARD
 70
     0
 41
2.5
 42
0.0
 43
3.75
 44
1.25
 73
     0
 74
     0
 77
     1
 78
     8
 79
     2
140
3.5
141
0.0
143
0.039370078
147
0.625
171
     3
179
     2
271
     2
272
     2
274
     3
283
     0
284
     8
340
1E
  0
ENDTAB
  0
TABLE
  2
BLOCK_RECORD
  5
1
330
0
100
AcDbSymbolTable
 70
     6
  0
BLOCK_RECORD
  5
18
330
1
100
AcDbSymbolTableRecord
100
AcDbBlockTableRecord
  2
*MODEL_SPACE
340
303
  0
BLOCK_RECORD
  5
338
330
1
100
AcDbSymbolTableRecord
100
AcDbBlockTableRecord
  2
*Paper_Space
340
33B
  0
BLOCK_RECORD
  5
4CD
330
1
100
AcDbSymbolTableRecord
100
AcDbBlockTableRecord
  2
*D0
340
0
  0
BLOCK_RECORD
  5
4DA
330
1
100
AcDbSymbolTableRecord
100
AcDbBlockTableRecord
  2
*D1
340
0
  0
BLOCK_RECORD
  5
4EB
330
1
100
AcDbSymbolTableRecord
100
AcDbBlockTableRecord
  2
*D2
340
0
  0
BLOCK_RECORD
  5
4F8
330
1
100
AcDbSymbolTableRecord
100
AcDbBlockTableRecord
  2
*D3
340
0
  0
BLOCK_RECORD
  5
500
330
1
100
AcDbSymbolTableRecord
100
AcDbBlockTableRecord
  2
*D4
340
0
  0
BLOCK_RECORD
  5
5D2
330
1
100
AcDbSymbolTableRecord
100
AcDbBlockTableRecord
  2
*D5
340
0
  0
ENDTAB
  0
ENDSEC
  0
SECTION
  2
BLOCKS
  0
BLOCK
  5
32
330
18
100
AcDbEntity
  8
0
100
AcDbBlockBegin
  2
*MODEL_SPACE
 70
     0
 10
0.0
 20
0.0
 30
0.0
  3
*MODEL_SPACE
  1

  0
ENDBLK
  5
33
330
18
100
AcDbEntity
  8
0
100
AcDbBlockEnd
  0
BLOCK
  5
339
330
338
100
AcDbEntity
 67
     1
  8
0
100
AcDbBlockBegin
  2
*Paper_Space
 70
     0
 10
0.0
 20
0.0
 30
0.0
  3
*Paper_Space
  1

  0
ENDBLK
  5
33A
330
338
100
AcDbEntity
 67
     1
  8
0
100
AcDbBlockEnd
  0
BLOCK
  5
4D8
330
4CD
100
AcDbEntity
  8
0
100
AcDbBlockBegin
  2
*D0
 70
     1
 10
0.0
 20
0.0
 30
0.0
  3
*D0
  1

  0
LINE
  5
58C
330
4CD
100
AcDbEntity
  8
2
 62
     0
370
    -2
100
AcDbLine
 10
48.031
 20
5.25
 30
0.0
 11
48.031
 21
21.2449870745013
 31
0.0
  0
LINE
  5
58D
330
4CD
100
AcDbEntity
  8
2
 62
     0
370
    -2
100
AcDbLine
 10
54.381
 20
6.349999999999994
 30
0.0
 11
54.381
 21
21.2449870745013
 31
0.0
  0
LINE
  5
58E
330
4CD
100
AcDbEntity
  8
2
 62
     0
370
    -2
100
AcDbLine
 10
50.531
 20
19.99498707450129
 30
0.0
 11
51.881
 21
19.99498707450129
 31
0.0
  0
LINE
  5
58F
330
4CD
100
AcDbEntity
  8
2
 62
     0
370
    -2
100
AcDbLine
 10
54.381
 20
19.99498707450129
 30
0.0
 11
68.79766666666667
 21
19.99498707450129
 31
0.0
  0
SOLID
  5
590
330
4CD
100
AcDbEntity
  8
2
 62
     0
100
AcDbTrace
 10
50.531
 20
20.41165374116796
 30
0.0
 11
50.531
 21
19.57832040783463
 31
0.0
 12
48.031
 22
19.99498707450129
 32
0.0
 13
48.031
 23
19.99498707450129
 33
0.0
  0
SOLID
  5
591
330
4CD
100
AcDbEntity
  8
2
 62
     0
100
AcDbTrace
 10
51.881
 20
20.41165374116796
 30
0.0
 11
51.881
 21
19.57832040783463
 31
0.0
 12
54.381
 22
19.99498707450129
 32
0.0
 13
54.381
 23
19.99498707450129
 33
0.0
  0
MTEXT
  5
592
330
4CD
100
AcDbEntity
  8
2
 62
     0
100
AcDbMText
 10
62.83933333333333
 20
22.3699870745013
 30
0.0
 40
3.5
 41
0.0
 71
     5
 72
     1
  1
6.35
  7
SIMPLEX
 73
     1
 44
1.0
1001
ACAD
1000
MTEXTBEGIN
1070
    73
1070
     1
1070
    44
1040
1.0
1070
    74
1070
     0
1000
MTEXTEND
  0
POINT
  5
593
330
4CD
100
AcDbEntity
  8
DEFPOINTS
 62
     0
100
AcDbPoint
 10
48.031
 20
5.25
 30
0.0
  0
POINT
  5
594
330
4CD
100
AcDbEntity
  8
DEFPOINTS
 62
     0
100
AcDbPoint
 10
54.381
 20
6.349999999999994
 30
0.0
  0
POINT
  5
595
330
4CD
100
AcDbEntity
  8
DEFPOINTS
 62
     0
100
AcDbPoint
 10
54.381
 20
19.99498707450129
 30
0.0
  0
ENDBLK
  5
4D9
330
4CD
100
AcDbEntity
  8
0
100
AcDbBlockEnd
  0
BLOCK
  5
4E9
330
4DA
100
AcDbEntity
  8
0
100
AcDbBlockBegin
  2
*D1
 70
     1
 10
0.0
 20
0.0
 30
0.0
  3
*D1
  1

  0
LINE
  5
57D
330
4DA
100
AcDbEntity
  8
2
 62
     0
370
    -2
100
AcDbLine
 10
49.58100000000001
 20
-5.761000000000024
 30
0.0
 11
34.89045532695416
 21
-3.958347747411763
 31
0.0
  0
LINE
  5
57E
330
4DA
100
AcDbEntity
  8
2
 62
     0
370
    -2
100
AcDbLine
 10
48.381
 20
-6.349999999999994
 30
0.0
 11
34.74426574632874
 21
-6.349999999999991
 31
0.0
  0
ARC
  5
57F
330
4DA
100
AcDbEntity
  8
2
 62
     0
370
    -2
100
AcDbCircle
 10
54.381
 20
-6.349999999999994
 30
0.0
 40
18.38673425367126
100
AcDbArc
 50
157.3751530581708
 51
173.004302690709
  0
LINE
  5
580
330
4DA
100
AcDbEntity
  8
2
 62
     0
370
    -2
100
AcDbLine
 10
37.40924489419516
 20
0.7232966248924995
 30
0.0
 11
39.4288970395059
 21
5.569274876178996
 31
0.0
  0
ARC
  5
581
330
4DA
100
AcDbEntity
  8
2
 62
     0
370
    -2
100
AcDbCircle
 10
54.381
 20
-6.349999999999994
 30
0.0
 40
18.38673425367126
100
AcDbArc
 50
157.4115373649455
 51
165.2079200278271
  0
ARC
  5
582
330
4DA
100
AcDbEntity
  8
2
 62
     0
370
    -2
100
AcDbCircle
 10
54.381
 20
-6.349999999999994
 30
0.0
 40
18.38673425367126
100
AcDbArc
 50
187.7963826628818
 51
195.5927653257635
  0
ARC
  5
583
330
4DA
100
AcDbEntity
  8
2
 62
     0
370
    -2
100
AcDbCircle
 10
54.381
 20
-6.349999999999994
 30
0.0
 40
18.38673425367126
100
AcDbArc
 50
173.004302690709
 51
180.0
  0
SOLID
  5
584
330
4DA
100
AcDbEntity
  8
2
 62
     0
100
AcDbTrace
 10
37.01278407547031
 20
-1.734390190343178
 30
0.0
 11
36.19446834491846
 21
-1.576897937912018
 31
0.0
 12
36.13114945290089
 22
-4.110591255783141
 32
0.0
 13
36.13114945290089
 23
-4.110591255783141
 33
0.0
  0
SOLID
  5
585
330
4DA
100
AcDbEntity
  8
2
 62
     0
100
AcDbTrace
 10
35.748522560359
 20
-8.872542645360137
 30
0.0
 11
36.57992791485255
 21
-8.815889481601125
 31
0.0
 12
35.99426574632874
 22
-6.349999999999994
 32
0.0
 13
35.99426574632874
 23
-6.349999999999994
 33
0.0
  0
MTEXT
  5
586
330
4DA
100
AcDbEntity
  8
2
 62
     0
100
AcDbMText
 10
36.22684271031616
 20
4.059937911509647
 30
0.0
 40
3.5
 41
0.0
 71
     5
 72
     1
  1
7°
  7
SIMPLEX
 11
0.3846956467258549
 21
0.9230434764355232
 31
0.0
 73
     1
 44
1.0
1001
ACAD
1000
MTEXTBEGIN
1070
    73
1070
     1
1070
    44
1040
1.0
1070
    74
1070
     0
1000
MTEXTEND
  0
POINT
  5
587
330
4DA
100
AcDbEntity
  8
DEFPOINTS
 62
     0
100
AcDbPoint
 10
36.00949185413025
 20
-5.601879046297393
 30
0.0
  0
POINT
  5
588
330
4DA
100
AcDbEntity
  8
DEFPOINTS
 62
     0
100
AcDbPoint
 10
49.58100000000001
 20
-5.761000000000024
 30
0.0
  0
POINT
  5
589
330
4DA
100
AcDbEntity
  8
DEFPOINTS
 62
     0
100
AcDbPoint
 10
54.381
 20
-6.349999999999994
 30
0.0
  0
POINT
  5
58A
330
4DA
100
AcDbEntity
  8
DEFPOINTS
 62
     0
100
AcDbPoint
 10
48.381
 20
-6.349999999999994
 30
0.0
  0
POINT
  5
58B
330
4DA
100
AcDbEntity
  8
DEFPOINTS
 62
     0
100
AcDbPoint
 10
54.381
 20
-6.349999999999994
 30
0.0
  0
ENDBLK
  5
4EA
330
4DA
100
AcDbEntity
  8
0
100
AcDbBlockEnd
  0
BLOCK
  5
4F6
330
4EB
100
AcDbEntity
  8
0
100
AcDbBlockBegin
  2
*D2
 70
     1
 10
0.0
 20
0.0
 30
0.0
  3
*D2
  1

  0
LINE
  5
5E1
330
4EB
100
AcDbEntity
  8
2
 62
     0
370
    -2
100
AcDbLine
 10
-0.0000000000000167
 20
-6.350212909816504
 30
0.0
 11
-31.2121422266015
 21
-6.350212909816496
 31
0.0
  0
LINE
  5
5E2
330
4EB
100
AcDbEntity
  8
2
 62
     0
370
    -2
100
AcDbLine
 10
-0.000000000000016
 20
6.35021290981646
 30
0.0
 11
-31.2121422266015
 21
6.35021290981647
 31
0.0
  0
LINE
  5
5E3
330
4EB
100
AcDbEntity
  8
2
 62
     0
370
    -2
100
AcDbLine
 10
-29.9621422266015
 20
3.850212909816468
 30
0.0
 11
-29.9621422266015
 21
-3.850212909816496
 31
0.0
  0
LINE
  5
5E4
330
4EB
100
AcDbEntity
  8
2
 62
     0
370
    -2
100
AcDbLine
 10
-29.9621422266015
 20
-6.350212909816497
 30
0.0
 11
-29.9621422266015
 21
-29.26687957648315
 31
0.0
  0
SOLID
  5
5E5
330
4EB
100
AcDbEntity
  8
2
 62
     0
100
AcDbTrace
 10
-30.37880889326816
 20
3.850212909816468
 30
0.0
 11
-29.54547555993483
 21
3.850212909816468
 31
0.0
 12
-29.9621422266015
 22
6.350212909816469
 32
0.0
 13
-29.9621422266015
 23
6.350212909816469
 33
0.0
  0
SOLID
  5
5E6
330
4EB
100
AcDbEntity
  8
2
 62
     0
100
AcDbTrace
 10
-30.37880889326816
 20
-3.850212909816496
 30
0.0
 11
-29.54547555993483
 21
-3.850212909816496
 31
0.0
 12
-29.9621422266015
 22
-6.350212909816497
 32
0.0
 13
-29.9621422266015
 23
-6.350212909816497
 33
0.0
  0
MTEXT
  5
5E7
330
4EB
100
AcDbEntity
  8
2
 62
     0
100
AcDbMText
 10
-32.3371422266015
 20
-19.05854624314983
 30
0.0
 40
3.5
 41
0.0
 71
     5
 72
     1
  1
IC=12.7
  7
SIMPLEX
 11
0.0000000000000001
 21
1.0
 31
0.0
 73
     1
 44
1.0
1001
ACAD
1000
MTEXTBEGIN
1070
    73
1070
     1
1070
    44
1040
1.0
1070
    74
1070
     0
1000
MTEXTEND
  0
POINT
  5
5E8
330
4EB
100
AcDbEntity
  8
DEFPOINTS
 62
     0
100
AcDbPoint
 10
-0.0000000000000167
 20
-6.350212909816504
 30
0.0
  0
POINT
  5
5E9
330
4EB
100
AcDbEntity
  8
DEFPOINTS
 62
     0
100
AcDbPoint
 10
-0.000000000000016
 20
6.35021290981646
 30
0.0
  0
POINT
  5
5EA
330
4EB
100
AcDbEntity
  8
DEFPOINTS
 62
     0
100
AcDbPoint
 10
-29.9621422266015
 20
6.350212909816469
 30
0.0
  0
ENDBLK
  5
4F7
330
4EB
100
AcDbEntity
  8
0
100
AcDbBlockEnd
  0
BLOCK
  5
4FE
330
4F8
100
AcDbEntity
  8
0
100
AcDbBlockBegin
  2
*D3
 70
     1
 10
0.0
 20
0.0
 30
0.0
  3
*D3
  1

  0
LINE
  5
56E
330
4F8
100
AcDbEntity
  8
2
 62
     0
370
    -2
100
AcDbLine
 10
-20.53796246265763
 20
-16.05726487375382
 30
0.0
 11
-9.609524755638595
 21
-7.440835195812062
 31
0.0
  0
MTEXT
  5
56F
330
4F8
100
AcDbEntity
  8
2
 62
     0
100
AcDbMText
 10
-17.5258083482297
 20
-10.65794806184332
 30
0.0
 40
3.5
 41
0.0
 71
     5
 72
     1
  1
R1.2
  7
SIMPLEX
 11
0.7852769609834041
 21
0.6191446475167735
 31
0.0
 73
     1
 44
1.0
1001
ACAD
1000
MTEXTBEGIN
1070
    73
1070
     1
1070
    44
1040
1.0
1070
    74
1070
     0
1000
MTEXTEND
  0
SOLID
  5
570
330
4F8
100
AcDbEntity
  8
2
 62
     0
100
AcDbTrace
 10
-9.867501692103918
 20
-7.113636462068977
 30
0.0
 11
-9.351547819173273
 21
-7.768033929555147
 31
0.0
 12
-7.646332353180085
 22
-5.892973577020128
 32
0.0
 13
-7.646332353180085
 23
-5.892973577020128
 33
0.0
  0
POINT
  5
571
330
4F8
100
AcDbEntity
  8
DEFPOINTS
 62
     0
100
AcDbPoint
 10
-7.646332353180085
 20
-5.892973577020128
 30
0.0
  0
POINT
  5
572
330
4F8
100
AcDbEntity
  8
DEFPOINTS
 62
     0
100
AcDbPoint
 10
-6.704000000000008
 20
-5.150000000000003
 30
0.0
  0
ENDBLK
  5
4FF
330
4F8
100
AcDbEntity
  8
0
100
AcDbBlockEnd
  0
BLOCK
  5
50C
330
500
100
AcDbEntity
  8
0
100
AcDbBlockBegin
  2
*D4
 70
     1
 10
0.0
 20
0.0
 30
0.0
  3
*D4
  1

  0
LINE
  5
563
330
500
100
AcDbEntity
  8
2
 62
     0
370
    -2
100
AcDbLine
 10
9.703999999999997
 20
6.350000000000107
 30
0.0
 11
18.71935762291617
 21
6.350000000000409
 31
0.0
  0
LINE
  5
564
330
500
100
AcDbEntity
  8
2
 62
     0
370
    -2
100
AcDbLine
 10
8.159586707996304
 20
7.646814095769535
 30
0.0
 11
8.812424880544819
 21
16.9745434579848
 31
0.0
  0
ARC
  5
565
330
500
100
AcDbEntity
  8
2
 62
     0
370
    -2
100
AcDbCircle
 10
8.068824024867144
 20
6.350000000000052
 30
0.0
 40
9.400533598049028
100
AcDbArc
 50
15.28263820043936
 51
70.71381773769854
  0
SOLID
  5
566
330
500
100
AcDbEntity
  8
2
 62
     0
100
AcDbTrace
 10
17.54989631211083
 20
8.883204419437127
 30
0.0
 11
16.72396305774244
 21
8.772395106773947
 31
0.0
 12
17.46935762291617
 22
6.350000000000367
 32
0.0
 13
17.46935762291617
 23
6.350000000000367
 33
0.0
  0
SOLID
  5
567
330
500
100
AcDbEntity
  8
2
 62
     0
100
AcDbTrace
 10
11.08959388386036
 20
14.81489097335119
 30
0.0
 11
11.25779794764063
 21
15.63107222612061
 31
0.0
 12
8.725152157442256
 22
15.72759379107669
 32
0.0
 13
8.725152157442256
 23
15.72759379107669
 33
0.0
  0
MTEXT
  5
568
330
500
100
AcDbEntity
  8
2
 62
     0
100
AcDbMText
 10
16.68115248391717
 20
14.38062824642128
 30
0.0
 40
3.5
 41
0.0
 71
     5
 72
     1
  1
86°
  7
SIMPLEX
 11
0.6819757405941878
 21
-0.7313747939606678
 31
0.0
 73
     1
 44
1.0
1001
ACAD
1000
MTEXTBEGIN
1070
    73
1070
     1
1070
    44
1040
1.0
1070
    74
1070
     0
1000
MTEXTEND
  0
POINT
  5
569
330
500
100
AcDbEntity
  8
DEFPOINTS
 62
     0
100
AcDbPoint
 10
16.3171839367873
 20
10.85938917055043
 30
0.0
  0
POINT
  5
56A
330
500
100
AcDbEntity
  8
DEFPOINTS
 62
     0
100
AcDbPoint
 10
7.769786843813355
 20
2.077367039184364
 30
0.0
  0
POINT
  5
56B
330
500
100
AcDbEntity
  8
DEFPOINTS
 62
     0
100
AcDbPoint
 10
6.350212909816477
 20
6.349999999999995
 30
0.0
  0
POINT
  5
56C
330
500
100
AcDbEntity
  8
DEFPOINTS
 62
     0
100
AcDbPoint
 10
9.703999999999997
 20
6.350000000000107
 30
0.0
  0
POINT
  5
56D
330
500
100
AcDbEntity
  8
DEFPOINTS
 62
     0
100
AcDbPoint
 10
8.159586707996304
 20
7.646814095769535
 30
0.0
  0
ENDBLK
  5
50D
330
500
100
AcDbEntity
  8
0
100
AcDbBlockEnd
  0
BLOCK
  5
5D8
330
5D2
100
AcDbEntity
  8
0
100
AcDbBlockBegin
  2
*D5
 70
     1
 10
0.0
 20
0.0
 30
0.0
  3
*D5
  1

  0
LINE
  5
5F0
330
5D2
100
AcDbEntity
  8
2
 62
     0
370
    -2
100
AcDbLine
 10
-16.1917816335721
 20
-19.99348153628711
 30
0.0
 11
-8.696703427297084
 21
-8.267552413486981
 31
0.0
  0
MTEXT
  5
5F1
330
5D2
100
AcDbEntity
  8
2
 62
     0
100
AcDbMText
 10
-15.11858476452998
 20
-13.90464396867845
 30
0.0
 40
3.5
 41
0.0
 71
     5
 72
     1
  1
R1.2
  7
SIMPLEX
 11
0.5385684938640734
 21
0.84258173337486
 31
0.0
 73
     1
 44
1.0
1001
ACAD
1000
MTEXTBEGIN
1070
    73
1070
     1
1070
    44
1040
1.0
1070
    74
1070
     0
1000
MTEXTEND
  0
SOLID
  5
5F2
330
5D2
100
AcDbEntity
  8
2
 62
     0
100
AcDbTrace
 10
-9.047779149536607
 20
-8.043148874376953
 30
0.0
 11
-8.345627705057559
 21
-8.491955952597011
 31
0.0
 12
-7.3502821926369
 22
-6.161098080049834
 32
0.0
 13
-7.3502821926369
 23
-6.161098080049834
 33
0.0
  0
POINT
  5
5F3
330
5D2
100
AcDbEntity
  8
DEFPOINTS
 62
     0
100
AcDbPoint
 10
-7.3502821926369
 20
-6.161098080049834
 30
0.0
  0
POINT
  5
5F4
330
5D2
100
AcDbEntity
  8
DEFPOINTS
 62
     0
100
AcDbPoint
 10
-6.704000000000012
 20
-5.149999999999998
 30
0.0
  0
ENDBLK
  5
5D9
330
5D2
100
AcDbEntity
  8
0
100
AcDbBlockEnd
  0
ENDSEC
  0
SECTION
  2
ENTITIES
  0
LINE
  5
425
330
18
100
AcDbEntity
  8
DEFPOINTS
100
AcDbLine
 10
0.0
 20
0.0
 30
0.0
 11
0.0
 21
0.0
 31
0.0
  0
LINE
  5
49F
330
18
100
AcDbEntity
  8
DEFPOINTS
100
AcDbLine
 10
0.0
 20
-0.0000000000000142
 30
0.0
 11
0.0
 21
-0.0000000000000142
 31
0.0
  0
CIRCLE
  5
4A0
330
18
100
AcDbEntity
  8
1
 62
     4
370
    50
100
AcDbCircle
 10
0.0
 20
0.0
 30
0.0
 40
3.950000000000001
  0
ARC
  5
4A1
330
18
100
AcDbEntity
  8
1
 62
     4
370
    50
100
AcDbCircle
 10
6.703999999999991
 20
5.150000000000003
 30
0.0
 40
1.200000000000003
100
AcDbArc
 50
0.0
 51
90.0
  0
LINE
  5
4A2
330
18
100
AcDbEntity
  8
1
 62
     4
370
    50
100
AcDbLine
 10
-7.904000000000007
 20
-3.995000000000004
 30
0.0
 11
-7.904000000000007
 21
-5.150000000000003
 31
0.0
  0
LINE
  5
4A3
330
18
100
AcDbEntity
  8
1
 62
     4
370
    50
100
AcDbLine
 10
7.903999999999996
 20
3.995000000000004
 30
0.0
 11
7.205999999999972
 21
-5.978000000000037
 31
0.0
  0
LINE
  5
4A4
330
18
100
AcDbEntity
  8
1
 62
     4
370
    50
100
AcDbLine
 10
-7.207000000000008
 20
5.977999999999981
 30
0.0
 11
-7.904000000000007
 21
-3.995000000000004
 31
0.0
  0
LINE
  5
4A5
330
18
100
AcDbEntity
  8
1
 62
     4
370
    50
100
AcDbLine
 10
7.903999999999996
 20
3.995000000000004
 30
0.0
 11
7.903999999999996
 21
5.150000000000003
 31
0.0
  0
ARC
  5
4A6
102
{ACAD_REACTORS
330
5E0
102
}
330
18
100
AcDbEntity
  8
1
 62
     4
370
    50
100
AcDbCircle
 10
-6.704000000000008
 20
-5.150000000000003
 30
0.0
 40
1.200000000000003
100
AcDbArc
 50
180.0
 51
270.0
  0
ARC
  5
4A7
330
18
100
AcDbEntity
  8
1
 62
     4
370
    50
100
AcDbCircle
 10
6.806999999999987
 20
-5.950000000000017
 30
0.0
 40
0.4000000000000057
100
AcDbArc
 50
270.0
 51
355.9999999999998
  0
ARC
  5
4A8
330
18
100
AcDbEntity
  8
1
 62
     4
370
    50
100
AcDbCircle
 10
-6.808000000000021
 20
5.949999999999986
 30
0.0
 40
0.4000000000000057
100
AcDbArc
 50
90.0
 51
176.0000000000002
  0
LINE
  5
4A9
330
18
100
AcDbEntity
  8
1
 62
     4
370
    50
100
AcDbLine
 10
6.703999999999991
 20
6.349999999999994
 30
0.0
 11
-6.808000000000021
 21
6.349999999999994
 31
0.0
  0
LINE
  5
4AA
330
18
100
AcDbEntity
  8
1
 62
     4
370
    50
100
AcDbLine
 10
-6.704000000000008
 20
-6.349999999999994
 30
0.0
 11
6.806999999999987
 21
-6.349999999999994
 31
0.0
  0
CIRCLE
  5
4AB
330
18
100
AcDbEntity
  8
1
 62
     4
370
    50
100
AcDbCircle
 10
0.0
 20
0.0
 30
0.0
 40
3.313643710744017
  0
LINE
  5
4AC
330
18
100
AcDbEntity
  8
1
 62
     4
370
    50
100
AcDbLine
 10
48.031
 20
5.25
 30
0.0
 11
48.031
 21
-5.25
 31
0.0
  0
LINE
  5
4AD
330
18
100
AcDbEntity
  8
1
 62
     4
370
    50
100
AcDbLine
 10
54.381
 20
6.349999999999994
 30
0.0
 11
54.381
 21
-6.349999999999994
 31
0.0
  0
LINE
  5
4AE
102
{ACAD_REACTORS
330
4BF
102
}
330
18
100
AcDbEntity
  8
1
 62
     4
370
    50
100
AcDbLine
 10
49.581
 20
-5.761000000000024
 30
0.0
 11
54.381
 21
-6.349999999999994
 31
0.0
  0
LINE
  5
4AF
102
{ACAD_REACTORS
330
4BB
102
}
330
18
100
AcDbEntity
  8
1
 62
     4
370
    50
100
AcDbLine
 10
49.581
 20
5.75999999999999
 30
0.0
 11
54.381
 21
6.349999999999994
 31
0.0
  0
LINE
  5
4B0
330
18
100
AcDbEntity
  8
1
 62
     4
370
    50
100
AcDbLine
 10
49.581
 20
5.75999999999999
 30
0.0
 11
49.581
 21
5.25
 31
0.0
  0
LINE
  5
4B1
102
{ACAD_REACTORS
330
4BB
102
}
330
18
100
AcDbEntity
  8
1
 62
     4
370
    50
100
AcDbLine
 10
48.031
 20
5.25
 30
0.0
 11
49.581
 21
5.25
 31
0.0
  0
LINE
  5
4B2
330
18
100
AcDbEntity
  8
1
 62
     4
370
    50
100
AcDbLine
 10
48.031
 20
-5.25
 30
0.0
 11
49.581
 21
-5.25
 31
0.0
  0
LINE
  5
4B3
330
18
100
AcDbEntity
  8
1
 62
     4
370
    50
100
AcDbLine
 10
49.581
 20
-5.25
 30
0.0
 11
49.581
 21
-5.761000000000024
 31
0.0
  0
LINE
  5
4B4
330
18
100
AcDbEntity
  8
4
  6
CENTER
 62
     2
370
    25
100
AcDbLine
 10
45.39142982830083
 20
0.0
 30
0.0
 11
55.6953805956702
 21
0.0
 31
0.0
  0
LINE
  5
4B5
330
18
100
AcDbEntity
  8
4
  6
CENTER
 62
     2
370
    25
100
AcDbLine
 10
9.950000000000002
 20
0.0
 30
0.0
 11
-9.950000000000015
 21
0.0
 31
0.0
  0
LINE
  5
4B6
330
18
100
AcDbEntity
  8
4
  6
CENTER
 62
     2
370
    25
100
AcDbLine
 10
0.0
 20
6.949999999999986
 30
0.0
 11
0.0
 21
-6.950000000000017
 31
0.0
  0
LINE
  5
4B7
330
18
100
AcDbEntity
  8
2
100
AcDbLine
 10
6.703999999999991
 20
6.349999999999994
 30
0.0
 11
6.703999999999991
 21
6.349999999999994
 31
0.0
  0
LINE
  5
4B8
330
18
100
AcDbEntity
  8
2
100
AcDbLine
 10
-6.163696347346784
 20
-6.349999999999994
 30
0.0
 11
-6.163696347346784
 21
-6.349999999999994
 31
0.0
  0
DIMENSION
  5
4B9
102
{ACAD_XDICTIONARY
360
4BA
102
}
102
{ACAD_REACTORS
330
4BB
102
}
330
18
100
AcDbEntity
  8
2
100
AcDbDimension
  2
*D0
 10
54.381
 20
19.99498707450129
 30
0.0
 11
62.83933333333333
 21
22.3699870745013
 31
0.0
 70
    32
 71
     5
 42
6.349999999999994
  3
STANDARD
100
AcDbAlignedDimension
 13
48.031
 23
5.25
 33
0.0
 14
54.381
 24
6.349999999999994
 34
0.0
100
AcDbRotatedDimension
1001
ACAD
1000
DSTYLE
1002
{
1070
   340
1005
1E
1002
}
  0
LINE
  5
4BC
102
{ACAD_REACTORS
330
4BF
102
}
330
18
100
AcDbEntity
  8
2
100
AcDbLine
 10
54.381
 20
-6.349999999999994
 30
0.0
 11
48.381
 21
-6.349999999999994
 31
0.0
  0
DIMENSION
  5
4BD
102
{ACAD_XDICTIONARY
360
4BE
102
}
102
{ACAD_REACTORS
330
4BF
102
}
330
18
100
AcDbEntity
  8
2
100
AcDbDimension
  2
*D1
 10
54.381
 20
-6.349999999999994
 30
0.0
 11
36.22684271031617
 21
4.059937911509653
 31
0.0
 70
    34
 71
     5
 42
0.1220979515200353
  3
STANDARD
100
AcDb2LineAngularDimension
 13
54.381
 23
-6.349999999999994
 33
0.0
 14
48.381
 24
-6.349999999999994
 34
0.0
 15
49.581
 25
-5.761000000000024
 35
0.0
 16
36.00949185413025
 26
-5.601879046297393
 36
0.0
1001
ACAD
1000
DSTYLE
1002
{
1070
   340
1005
1E
1070
   172
1070
     1
1002
}
  0
CIRCLE
  5
4C0
330
18
100
AcDbEntity
  8
2
100
AcDbCircle
 10
-1.259092041044011
 20
0.0
 30
0.0
 40
6.35021290981648
  0
DIMENSION
  5
4C1
330
18
100
AcDbEntity
  8
2
100
AcDbDimension
  2
*D2
 10
-29.9621422266015
 20
6.350212909816469
 30
0.0
 11
-29.9621422266015
 21
-19.05854624314983
 31
0.0
 70
   160
  1
IC=12.7
 71
     5
 42
12.70042581963297
  3
STANDARD
100
AcDbAlignedDimension
 13
-0.0000000000000167
 23
-6.350212909816504
 33
0.0
 14
-0.000000000000016
 24
6.35021290981646
 34
0.0
 50
90.0
100
AcDbRotatedDimension
1001
ACAD
1000
DSTYLE
1002
{
1070
   340
1005
1E
1070
   172
1070
     1
1002
}
  0
LINE
  5
4C7
102
{ACAD_REACTORS
330
4CB
102
}
330
18
100
AcDbEntity
  8
2
100
AcDbLine
 10
6.350212909816477
 20
6.349999999999994
 30
0.0
 11
9.703999999999991
 21
6.350000000000107
 31
0.0
  0
LINE
  5
4C8
102
{ACAD_REACTORS
330
4CB
102
}
330
18
100
AcDbEntity
  8
2
100
AcDbLine
 10
7.769786843813355
 20
2.077367039184364
 30
0.0
 11
8.159586707996304
 21
7.646814095769535
 31
0.0
  0
DIMENSION
  5
4C9
102
{ACAD_XDICTIONARY
360
4CA
102
}
102
{ACAD_REACTORS
330
4CB
102
}
330
18
100
AcDbEntity
  8
2
100
AcDbDimension
  2
*D4
 10
8.159586707996304
 20
7.646814095769535
 30
0.0
 11
16.68115248391717
 21
14.38062824642128
 31
0.0
 70
    34
 71
     5
 42
1.500921301166668
  3
STANDARD
100
AcDb2LineAngularDimension
 13
6.350212909816477
 23
6.349999999999994
 33
0.0
 14
9.703999999999991
 24
6.350000000000107
 34
0.0
 15
7.769786843813355
 25
2.077367039184364
 35
0.0
 16
16.3171839367873
 26
10.85938917055043
 36
0.0
1001
ACAD
1000
DSTYLE
1002
{
1070
   340
1005
1E
1002
}
  0
MTEXT
  5
4CC
330
18
100
AcDbEntity
  8
SK6
100
AcDbMText
 10
-7.904000000000007
 20
-17.37456801709329
 30
0.0
 40
3.5
 41
30.89622306941421
 71
     1
 72
     5
  1
ACET150612
  7
SIMPLEX
 73
     1
 44
1.0
1001
ACAD
1000
MTEXTBEGIN
1070
    73
1070
     1
1070
    44
1040
1.0
1070
    74
1070
     0
1000
MTEXTEND
  0
DIMENSION
  5
5D1
102
{ACAD_XDICTIONARY
360
5DA
102
}
102
{ACAD_REACTORS
330
5E0
102
}
330
18
100
AcDbEntity
  8
2
100
AcDbDimension
  2
*D5
 10
-6.704000000000012
 20
-5.149999999999998
 30
0.0
 11
-15.11858476452998
 21
-13.90464396867845
 31
0.0
 70
    36
 71
     5
 42
1.200000000000004
  3
STANDARD
100
AcDbRadialDimension
 15
-7.3502821926369
 25
-6.161098080049834
 35
0.0
 40
0.0
1001
ACAD
1000
DSTYLE
1002
{
1070
   288
1070
     1
1002
}
  0
ENDSEC
  0
SECTION
  2
OBJECTS
  0
DICTIONARY
  5
C
330
0
100
AcDbDictionary
281
     1
  3
ACAD_COLOR
350
387
  3
ACAD_GROUP
350
D
  3
ACAD_LAYOUT
350
301
  3
ACAD_MATERIAL
350
386
  3
ACAD_MLINESTYLE
350
E
  3
ACAD_PLOTSETTINGS
350
302
  3
ACAD_PLOTSTYLENAME
350
2FF
  3
ACAD_TABLESTYLE
350
388
  3
ACAD_VISUALSTYLE
350
3F2
  3
AcDbVariableDictionary
350
357
  3
DWGPROPS
350
607
  0
DICTIONARY
  5
4BA
330
4B9
100
AcDbDictionary
280
     1
281
     1
  3
ACAD_DIMASSOC
360
4BB
  0
DICTIONARY
  5
4BE
330
4BD
100
AcDbDictionary
280
     1
281
     1
  3
ACAD_DIMASSOC
360
4BF
  0
DICTIONARY
  5
4CA
330
4C9
100
AcDbDictionary
280
     1
281
     1
  3
ACAD_DIMASSOC
360
4CB
  0
DICTIONARY
  5
5DA
330
5D1
100
AcDbDictionary
280
     1
281
     1
  3
ACAD_DIMASSOC
360
5E0
  0
DICTIONARY
  5
387
102
{ACAD_REACTORS
330
C
102
}
330
C
100
AcDbDictionary
281
     1
  0
DICTIONARY
  5
D
102
{ACAD_REACTORS
330
C
102
}
330
C
100
AcDbDictionary
281
     1
  0
DICTIONARY
  5
301
102
{ACAD_REACTORS
330
C
102
}
330
C
100
AcDbDictionary
281
     1
  3
Layout1
350
33B
  3
Model
350
303
  0
DICTIONARY
  5
386
102
{ACAD_REACTORS
330
C
102
}
330
C
100
AcDbDictionary
281
     1
  3
ByBlock
350
3F0
  3
ByLayer
350
3EF
  3
Global
350
3F1
  0
DICTIONARY
  5
E
102
{ACAD_REACTORS
330
C
102
}
330
C
100
AcDbDictionary
281
     1
  3
STANDARD
350
1B
  0
DICTIONARY
  5
302
102
{ACAD_REACTORS
330
C
102
}
330
C
100
AcDbDictionary
281
     1
  0
ACDBDICTIONARYWDFLT
  5
2FF
102
{ACAD_REACTORS
330
C
102
}
330
C
100
AcDbDictionary
281
     1
  3
Normal
350
300
100
AcDbDictionaryWithDefault
340
300
  0
DICTIONARY
  5
388
102
{ACAD_REACTORS
330
C
102
}
330
C
100
AcDbDictionary
281
     1
  3
Standard
350
389
  0
DICTIONARY
  5
3F2
102
{ACAD_REACTORS
330
C
102
}
330
C
100
AcDbDictionary
281
     1
  3
2dWireframe
350
3F8
  3
3D Hidden
350
3FA
  3
3dWireframe
350
3F9
  3
Basic
350
3F7
  3
Brighten
350
3FE
  3
ColorChange
350
402
  3
Conceptual
350
3FB
  3
Dim
350
3FD
  3
Facepattern
350
401
  3
Flat
350
3F3
  3
FlatWithEdges
350
3F4
  3
Gouraud
350
3F5
  3
GouraudWithEdges
350
3F6
  3
Linepattern
350
400
  3
Realistic
350
3FC
  3
Thicken
350
3FF
  0
DICTIONARY
  5
357
102
{ACAD_REACTORS
330
C
102
}
330
C
100
AcDbDictionary
281
     1
  3
CTABLESTYLE
350
38E
  3
DIMASSOC
350
359
  3
HIDETEXT
350
358
  3
INDEXCTL
350
597
  3
SORTENTS
350
596
  0
XRECORD
  5
607
102
{ACAD_REACTORS
330
C
102
}
330
C
100
AcDbXrecord
280
     1
  1
DWGPROPS COOKIE
  2

  3

  4

  6

  7

  8
deerkarmo
  9

300
=
301
=
302
=
303
=
304
=
305
=
306
=
307
=
308
=
309
=
 40
0.0116482870370371
 41
2454621.44764853
 42
2454622.65839434
  1

 90
        0
  0
DIMASSOC
  5
4BB
102
{ACAD_REACTORS
330
4BA
102
}
330
4BA
100
AcDbDimAssoc
330
4B9
 90
        3
 70
     0
 71
     0
  1
AcDbOsnapPointRef
 72
    13
331
4B1
 73
     2
 91
        0
 40
0.0
 10
0.0
 20
0.0
 30
2.000000000000000E+50
 75
     0
  1
AcDbOsnapPointRef
 72
     1
331
4AF
 73
     2
 91
        0
 40
0.9999999999999998
 10
0.0
 20
0.0
 30
2.000000000000000E+50
 75
     0
  0
DIMASSOC
  5
4BF
102
{ACAD_REACTORS
330
4BE
102
}
330
4BE
100
AcDbDimAssoc
330
4BD
 90
       15
 70
     0
 71
     0
  1
AcDbOsnapPointRef
 72
    13
331
4BC
 73
     2
 91
        0
 40
0.0
 10
0.0
 20
0.0
 30
2.000000000000000E+50
 75
     0
  1
AcDbOsnapPointRef
 72
     1
331
4BC
 73
     2
 91
        0
 40
1.0
 10
0.0
 20
0.0
 30
2.000000000000000E+50
 75
     0
  1
AcDbOsnapPointRef
 72
    13
331
4AE
 73
     2
 91
        0
 40
0.0
 10
0.0
 20
0.0
 30
2.000000000000000E+50
 75
     0
  1
AcDbOsnapPointRef
 72
     1
331
4AE
 73
     2
 91
        0
 40
1.0
 10
0.0
 20
0.0
 30
2.000000000000000E+50
 75
     0
  0
DIMASSOC
  5
4CB
102
{ACAD_REACTORS
330
4CA
102
}
330
4CA
100
AcDbDimAssoc
330
4C9
 90
       15
 70
     0
 71
     0
  1
AcDbOsnapPointRef
 72
    13
331
4C7
 73
     2
 91
        0
 40
0.0
 10
0.0
 20
0.0
 30
2.000000000000000E+50
 75
     0
  1
AcDbOsnapPointRef
 72
     1
331
4C7
 73
     2
 91
        0
 40
1.0
 10
0.0
 20
0.0
 30
2.000000000000000E+50
 75
     0
  1
AcDbOsnapPointRef
 72
    13
331
4C8
 73
     2
 91
        0
 40
0.0
 10
0.0
 20
0.0
 30
2.000000000000000E+50
 75
     0
  1
AcDbOsnapPointRef
 72
     1
331
4C8
 73
     2
 91
        0
 40
1.0
 10
0.0
 20
0.0
 30
2.000000000000000E+50
 75
     0
  0
DIMASSOC
  5
5E0
102
{ACAD_REACTORS
330
5DA
102
}
330
5DA
100
AcDbDimAssoc
330
5D1
 90
        2
 70
     0
 71
     0
  1
AcDbOsnapPointRef
 72
     3
331
4A6
 73
     2
 91
        0
 40
0.0
 10
0.0
 20
0.0
 30
0.0
 75
     0
  0
LAYOUT
  5
33B
102
{ACAD_XDICTIONARY
360
60A
102
}
102
{ACAD_REACTORS
330
301
102
}
330
301
100
AcDbPlotSettings
  1

  2
Lexmark Optra PS2
  4

  6

 40
0.0
 41
0.0
 42
0.0
 43
0.0
 44
0.0
 45
0.0
 46
0.0
 47
0.0
 48
0.0
 49
0.0
140
0.0
141
0.0
142
1.0
143
1.0
 70
   688
 72
     0
 73
     0
 74
     5
  7
monochrome.ctb
 75
    16
147
1.0
148
0.0
149
0.0
100
AcDbLayout
  1
Layout1
 70
     1
 71
     1
 10
0.0
 20
0.0
 11
12.0
 21
9.0
 12
0.0
 22
0.0
 32
0.0
 14
0.0
 24
0.0
 34
0.0
 15
0.0
 25
0.0
 35
0.0
146
0.0
 13
0.0
 23
0.0
 33
0.0
 16
1.0
 26
0.0
 36
0.0
 17
0.0
 27
1.0
 37
0.0
 76
     0
330
338
  0
LAYOUT
  5
303
102
{ACAD_XDICTIONARY
360
608
102
}
102
{ACAD_REACTORS
330
301
102
}
330
301
100
AcDbPlotSettings
  1

  2
Default Windows System Printer.pc3
  4
A4
  6

 40
6.805083274841307
 41
5.535083293914794
 42
6.974411010742187
 43
7.14373779296875
 44
209.9733276367186
 45
296.9259948730469
 46
67.83299579489725
 47
0.0
 48
0.0
 49
0.0
140
0.0
141
0.0
142
1.0
143
0.3604333568168785
 70
  3764
 72
     1
 73
     1
 74
     1
  7
monochrome.ctb
 75
     0
147
2.774437995504559
148
-82.35087775247029
149
-53.69369632994493
100
AcDbLayout
  1
Model
 70
     1
 71
     0
 10
0.0
 20
0.0
 11
12.0
 21
9.0
 12
0.0
 22
0.0
 32
0.0
 14
0.0
 24
0.0
 34
0.0
 15
0.0
 25
0.0
 35
0.0
146
0.0
 13
0.0
 23
0.0
 33
0.0
 16
1.0
 26
0.0
 36
0.0
 17
0.0
 27
1.0
 37
0.0
 76
     0
330
18
331
3ED
1001
ACAD_PSEXT
1000
Default Windows System Printer.pc3
1000
Lexmark Optra Rx
1000
Lexmark Rx
1000
Erstellt von Lexmark Benutzerdefinierte Installation,Nov 13,2005,10:03
1070
     0
  0
MATERIAL
  5
3F0
102
{ACAD_XDICTIONARY
360
5A1
102
}
102
{ACAD_REACTORS
330
386
102
}
330
386
100
AcDbMaterial
  1
ByBlock
  0
MATERIAL
  5
3EF
102
{ACAD_XDICTIONARY
360
59F
102
}
102
{ACAD_REACTORS
330
386
102
}
330
386
100
AcDbMaterial
  1
ByLayer
  0
MATERIAL
  5
3F1
102
{ACAD_XDICTIONARY
360
5A3
102
}
102
{ACAD_REACTORS
330
386
102
}
330
386
100
AcDbMaterial
  1
Global
  0
MLINESTYLE
  5
1B
102
{ACAD_REACTORS
330
E
102
}
330
E
100
AcDbMlineStyle
  2
STANDARD
 70
     0
  3

 62
     0
 51
90.0
 52
90.0
 71
     2
 49
0.5
 62
   256
  6
BYLAYER
 49
-0.5
 62
   256
  6
BYLAYER
  0
ACDBPLACEHOLDER
  5
300
102
{ACAD_REACTORS
330
2FF
102
}
330
2FF
  0
TABLESTYLE
  5
389
102
{ACAD_XDICTIONARY
360
60C
102
}
102
{ACAD_REACTORS
330
388
102
}
330
388
100
AcDbTableStyle
  3
Standard
 70
     0
 71
     0
 40
1.5
 41
1.5
280
     0
281
     0
  7
STANDARD
140
4.5
170
     2
 62
     0
 63
     7
283
     0
274
    -2
284
     1
 64
     0
275
    -2
285
     1
 65
     0
276
    -2
286
     1
 66
     0
277
    -2
287
     1
 67
     0
278
    -2
288
     1
 68
     0
279
    -2
289
     1
 69
     0
  7
STANDARD
140
6.0
170
     5
 62
     0
 63
     7
283
     0
274
    -2
284
     1
 64
     0
275
    -2
285
     1
 65
     0
276
    -2
286
     1
 66
     0
277
    -2
287
     1
 67
     0
278
    -2
288
     1
 68
     0
279
    -2
289
     1
 69
     0
  7
STANDARD
140
4.5
170
     5
 62
     0
 63
     7
283
     0
274
    -2
284
     1
 64
     0
275
    -2
285
     1
 65
     0
276
    -2
286
     1
 66
     0
277
    -2
287
     1
 67
     0
278
    -2
288
     1
 68
     0
279
    -2
289
     1
 69
     0
  0
VISUALSTYLE
  5
3F8
102
{ACAD_REACTORS
330
3F2
102
}
330
3F2
100
AcDbVisualStyle
  2
2dWireframe
 70
     4
 71
     0
 72
     2
 73
     0
 90
        0
 40
-0.6
 41
-30.0
 62
     5
 63
     7
 74
     1
 91
        4
 64
     7
 65
   257
 75
     1
175
     1
 42
1.0
 92
        0
 66
   257
 43
1.0
 76
     1
 77
     6
 78
     2
 67
     7
 79
     5
170
     0
171
     0
290
     0
174
     0
 93
        1
 44
0.0
173
     0
291
     0
 45
0.0
1001
ACAD
1000
AcDbSavedByObjectVersion
1070
     0
1000
AcDbSavedByObjectVersion
1070
     0
1000
AcDbSavedByObjectVersion
1070
     0
  0
VISUALSTYLE
  5
3FA
102
{ACAD_REACTORS
330
3F2
102
}
330
3F2
100
AcDbVisualStyle
  2
3D Hidden
 70
     6
 71
     1
 72
     2
 73
     2
 90
        0
 40
-0.6
 41
-30.0
 62
     5
 63
     7
 74
     2
 91
        2
 64
     7
 65
   257
 75
     2
175
     1
 42
40.0
 92
        0
 66
   257
 43
1.0
 76
     1
 77
     6
 78
     2
 67
     7
 79
     3
170
     0
171
     0
290
     0
174
     0
 93
        1
 44
0.0
173
     0
291
     0
 45
0.0
1001
ACAD
1000
AcDbSavedByObjectVersion
1070
     0
1000
AcDbSavedByObjectVersion
1070
     0
1000
AcDbSavedByObjectVersion
1070
     0
  0
VISUALSTYLE
  5
3F9
102
{ACAD_REACTORS
330
3F2
102
}
330
3F2
100
AcDbVisualStyle
  2
3dWireframe
 70
     5
 71
     0
 72
     2
 73
     0
 90
        0
 40
-0.6
 41
-30.0
 62
     5
 63
     7
 74
     1
 91
        4
 64
     7
 65
   257
 75
     1
175
     1
 42
1.0
 92
        0
 66
   257
 43
1.0
 76
     1
 77
     6
 78
     2
 67
     7
 79
     5
170
     0
171
     0
290
     0
174
     0
 93
        1
 44
0.0
173
     0
291
     0
 45
0.0
1001
ACAD
1000
AcDbSavedByObjectVersion
1070
     0
1000
AcDbSavedByObjectVersion
1070
     0
1000
AcDbSavedByObjectVersion
1070
     0
  0
VISUALSTYLE
  5
3F7
102
{ACAD_REACTORS
330
3F2
102
}
330
3F2
100
AcDbVisualStyle
  2
Basic
 70
     7
 71
     1
 72
     0
 73
     1
 90
        0
 40
-0.6
 41
-30.0
 62
     5
 63
     7
 74
     0
 91
        4
 64
     7
 65
   257
 75
     1
175
     1
 42
1.0
 92
        8
 66
     7
 43
1.0
 76
     1
 77
     6
 78
     2
 67
     7
 79
     5
170
     0
171
     0
290
     0
174
     0
 93
        1
 44
0.0
173
     0
291
     1
 45
0.0
1001
ACAD
1000
AcDbSavedByObjectVersion
1070
     0
1000
AcDbSavedByObjectVersion
1070
     0
1000
AcDbSavedByObjectVersion
1070
     0
  0
VISUALSTYLE
  5
3FE
102
{ACAD_REACTORS
330
3F2
102
}
330
3F2
100
AcDbVisualStyle
  2
Brighten
 70
    12
 71
     2
 72
     2
 73
     0
 90
        0
 40
-0.6
 41
-30.0
 62
     5
 63
     7
 74
     1
 91
        4
 64
     7
 65
   257
 75
     1
175
     1
 42
1.0
 92
        8
 66
     7
 43
1.0
 76
     1
 77
     6
 78
     2
 67
     7
 79
     5
170
     0
171
     0
290
     0
174
     0
 93
        1
 44
50.0
173
     0
291
     1
 45
0.0
1001
ACAD
1000
AcDbSavedByObjectVersion
1070
     0
1000
AcDbSavedByObjectVersion
1070
     0
1000
AcDbSavedByObjectVersion
1070
     0
  0
VISUALSTYLE
  5
402
102
{ACAD_REACTORS
330
3F2
102
}
330
3F2
100
AcDbVisualStyle
  2
ColorChange
 70
    16
 71
     2
 72
     2
 73
     3
 90
        0
 40
-0.6
 41
-30.0
 62
     5
 63
     8
 74
     1
 91
        4
 64
     7
 65
   257
 75
     1
175
     1
 42
1.0
 92
        8
 66
     8
 43
1.0
 76
     1
 77
     6
 78
     2
 67
     7
 79
     5
170
     0
171
     0
290
     0
174
     0
 93
        1
 44
0.0
173
     0
291
     1
 45
0.0
1001
ACAD
1000
AcDbSavedByObjectVersion
1070
     0
1000
AcDbSavedByObjectVersion
1070
     0
1000
AcDbSavedByObjectVersion
1070
     0
  0
VISUALSTYLE
  5
3FB
102
{ACAD_REACTORS
330
3F2
102
}
330
3F2
100
AcDbVisualStyle
  2
Conceptual
 70
     9
 71
     3
 72
     2
 73
     0
 90
        0
 40
-0.6
 41
-30.0
 62
     5
 63
     7
 74
     2
 91
        2
 64
     7
 65
   257
 75
     1
175
     1
 42
40.0
 92
        8
 66
     7
 43
1.0
 76
     1
 77
     6
 78
     2
 67
     7
 79
     3
170
     0
171
     0
290
     0
174
     0
 93
        1
 44
0.0
173
     0
291
     0
 45
0.0
1001
ACAD
1000
AcDbSavedByObjectVersion
1070
     0
1000
AcDbSavedByObjectVersion
1070
     0
1000
AcDbSavedByObjectVersion
1070
     0
  0
VISUALSTYLE
  5
3FD
102
{ACAD_REACTORS
330
3F2
102
}
330
3F2
100
AcDbVisualStyle
  2
Dim
 70
    11
 71
     2
 72
     2
 73
     0
 90
        0
 40
-0.6
 41
-30.0
 62
     5
 63
     7
 74
     1
 91
        4
 64
     7
 65
   257
 75
     1
175
     1
 42
1.0
 92
        8
 66
     7
 43
1.0
 76
     1
 77
     6
 78
     2
 67
     7
 79
     5
170
     0
171
     0
290
     0
174
     0
 93
        1
 44
-50.0
173
     0
291
     1
 45
0.0
1001
ACAD
1000
AcDbSavedByObjectVersion
1070
     0
1000
AcDbSavedByObjectVersion
1070
     0
1000
AcDbSavedByObjectVersion
1070
     0
  0
VISUALSTYLE
  5
401
102
{ACAD_REACTORS
330
3F2
102
}
330
3F2
100
AcDbVisualStyle
  2
Facepattern
 70
    15
 71
     2
 72
     2
 73
     0
 90
        0
 40
-0.6
 41
-30.0
 62
     5
 63
     7
 74
     1
 91
        4
 64
     7
 65
   257
 75
     1
175
     1
 42
1.0
 92
        8
 66
     7
 43
1.0
 76
     1
 77
     6
 78
     2
 67
     7
 79
     5
170
     0
171
     0
290
     0
174
     0
 93
        1
 44
0.0
173
     0
291
     1
 45
0.0
1001
ACAD
1000
AcDbSavedByObjectVersion
1070
     0
1000
AcDbSavedByObjectVersion
1070
     0
1000
AcDbSavedByObjectVersion
1070
     0
  0
VISUALSTYLE
  5
3F3
102
{ACAD_REACTORS
330
3F2
102
}
330
3F2
100
AcDbVisualStyle
  2
Flat
 70
     0
 71
     2
 72
     1
 73
     1
 90
        2
 40
-0.6
 41
30.0
 62
     5
 63
     7
 74
     0
 91
        4
 64
     7
 65
   257
 75
     1
175
     1
 42
1.0
 92
        8
 66
     7
 43
1.0
 76
     1
 77
     6
 78
     2
 67
     7
 79
     5
170
     0
171
     0
290
     0
174
     0
 93
       13
 44
0.0
173
     0
291
     1
 45
0.0
1001
ACAD
1000
AcDbSavedByObjectVersion
1070
     0
1000
AcDbSavedByObjectVersion
1070
     0
1000
AcDbSavedByObjectVersion
1070
     0
  0
VISUALSTYLE
  5
3F4
102
{ACAD_REACTORS
330
3F2
102
}
330
3F2
100
AcDbVisualStyle
  2
FlatWithEdges
 70
     1
 71
     2
 72
     1
 73
     1
 90
        2
 40
-0.6
 41
30.0
 62
     5
 63
     7
 74
     1
 91
        4
 64
     7
 65
   257
 75
     1
175
     1
 42
1.0
 92
        0
 66
   257
 43
1.0
 76
     1
 77
     6
 78
     2
 67
     7
 79
     5
170
     0
171
     0
290
     0
174
     0
 93
       13
 44
0.0
173
     0
291
     1
 45
0.0
1001
ACAD
1000
AcDbSavedByObjectVersion
1070
     0
1000
AcDbSavedByObjectVersion
1070
     0
1000
AcDbSavedByObjectVersion
1070
     0
  0
VISUALSTYLE
  5
3F5
102
{ACAD_REACTORS
330
3F2
102
}
330
3F2
100
AcDbVisualStyle
  2
Gouraud
 70
     2
 71
     2
 72
     2
 73
     1
 90
        2
 40
-0.6
 41
30.0
 62
     5
 63
     7
 74
     0
 91
        4
 64
     7
 65
   257
 75
     1
175
     1
 42
1.0
 92
        0
 66
     7
 43
1.0
 76
     1
 77
     6
 78
     2
 67
     7
 79
     5
170
     0
171
     0
290
     0
174
     0
 93
       13
 44
0.0
173
     0
291
     1
 45
0.0
1001
ACAD
1000
AcDbSavedByObjectVersion
1070
     0
1000
AcDbSavedByObjectVersion
1070
     0
1000
AcDbSavedByObjectVersion
1070
     0
  0
VISUALSTYLE
  5
3F6
102
{ACAD_REACTORS
330
3F2
102
}
330
3F2
100
AcDbVisualStyle
  2
GouraudWithEdges
 70
     3
 71
     2
 72
     2
 73
     1
 90
        2
 40
-0.6
 41
30.0
 62
     5
 63
     7
 74
     1
 91
        4
 64
     7
 65
   257
 75
     1
175
     1
 42
1.0
 92
        0
 66
   257
 43
1.0
 76
     1
 77
     6
 78
     2
 67
     7
 79
     5
170
     0
171
     0
290
     0
174
     0
 93
       13
 44
0.0
173
     0
291
     1
 45
0.0
1001
ACAD
1000
AcDbSavedByObjectVersion
1070
     0
1000
AcDbSavedByObjectVersion
1070
     0
1000
AcDbSavedByObjectVersion
1070
     0
  0
VISUALSTYLE
  5
400
102
{ACAD_REACTORS
330
3F2
102
}
330
3F2
100
AcDbVisualStyle
  2
Linepattern
 70
    14
 71
     2
 72
     2
 73
     0
 90
        0
 40
-0.6
 41
-30.0
 62
     5
 63
     7
 74
     1
 91
        4
 64
     7
 65
   257
 75
     7
175
     7
 42
1.0
 92
        8
 66
     7
 43
1.0
 76
     1
 77
     6
 78
     2
 67
     7
 79
     5
170
     0
171
     0
290
     0
174
     0
 93
        1
 44
0.0
173
     0
291
     1
 45
0.0
1001
ACAD
1000
AcDbSavedByObjectVersion
1070
     0
1000
AcDbSavedByObjectVersion
1070
     0
1000
AcDbSavedByObjectVersion
1070
     0
  0
VISUALSTYLE
  5
3FC
102
{ACAD_REACTORS
330
3F2
102
}
330
3F2
100
AcDbVisualStyle
  2
Realistic
 70
     8
 71
     2
 72
     2
 73
     0
 90
        0
 40
-0.6
 41
-30.0
 62
     5
 63
     7
 74
     1
 91
        0
 64
     7
 65
   257
 75
     1
175
     1
 42
1.0
 92
        8
 66
     8
 43
1.0
 76
     1
 77
     6
 78
     2
 67
     7
 79
     5
170
     0
171
     0
290
     0
174
     0
 93
       13
 44
0.0
173
     0
291
     0
 45
0.0
1001
ACAD
1000
AcDbSavedByObjectVersion
1070
     0
1000
AcDbSavedByObjectVersion
1070
     0
1000
AcDbSavedByObjectVersion
1070
     0
  0
VISUALSTYLE
  5
3FF
102
{ACAD_REACTORS
330
3F2
102
}
330
3F2
100
AcDbVisualStyle
  2
Thicken
 70
    13
 71
     2
 72
     2
 73
     0
 90
        0
 40
-0.6
 41
-30.0
 62
     5
 63
     7
 74
     1
 91
        4
 64
     7
 65
   257
 75
     1
175
     1
 42
1.0
 92
       12
 66
     7
 43
1.0
 76
     1
 77
     6
 78
     2
 67
     7
 79
     5
170
     0
171
     0
290
     0
174
     0
 93
        1
 44
0.0
173
     0
291
     1
 45
0.0
1001
ACAD
1000
AcDbSavedByObjectVersion
1070
     0
1000
AcDbSavedByObjectVersion
1070
     0
1000
AcDbSavedByObjectVersion
1070
     0
  0
DICTIONARYVAR
  5
38E
102
{ACAD_REACTORS
330
357
102
}
330
357
100
DictionaryVariables
280
     0
  1
STANDARD
  0
DICTIONARYVAR
  5
359
102
{ACAD_REACTORS
330
357
102
}
330
357
100
DictionaryVariables
280
     0
  1
2
  0
DICTIONARYVAR
  5
358
102
{ACAD_REACTORS
330
357
102
}
330
357
100
DictionaryVariables
280
     0
  1
1
  0
DICTIONARYVAR
  5
597
102
{ACAD_REACTORS
330
357
102
}
330
357
100
DictionaryVariables
280
     0
  1
0
  0
DICTIONARYVAR
  5
596
102
{ACAD_REACTORS
330
357
102
}
330
357
100
DictionaryVariables
280
     0
  1
127
  0
DICTIONARY
  5
60A
330
33B
100
AcDbDictionary
280
     1
281
     1
  3
ACAD_XREC_ROUNDTRIP
360
60B
  0
DICTIONARY
  5
608
330
303
100
AcDbDictionary
280
     1
281
     1
  3
ACAD_XREC_ROUNDTRIP
360
609
  0
DICTIONARY
  5
5A1
330
3F0
100
AcDbDictionary
280
     1
281
     1
  3
ACAD_XREC_ROUNDTRIP
360
5A2
  0
DICTIONARY
  5
59F
330
3EF
100
AcDbDictionary
280
     1
281
     1
  3
ACAD_XREC_ROUNDTRIP
360
5A0
  0
DICTIONARY
  5
5A3
330
3F1
100
AcDbDictionary
280
     1
281
     1
  3
ACAD_XREC_ROUNDTRIP
360
5A4
  0
DICTIONARY
  5
60C
330
389
100
AcDbDictionary
280
     1
281
     1
  3
ACAD_XREC_ROUNDTRIP
360
60D
  0
XRECORD
  5
60B
102
{ACAD_REACTORS
330
60A
102
}
330
60A
100
AcDbXrecord
280
     1
102
SHADEPLOT
 70
     0
102
SHADEPLOTRESLEVEL
 70
     2
102
SHADEPLOTCUSTOMDPI
 70
   300
  0
XRECORD
  5
609
102
{ACAD_REACTORS
330
608
102
}
330
608
100
AcDbXrecord
280
     1
102
SHADEPLOT
 70
     1
102
SHADEPLOTRESLEVEL
 70
     2
102
SHADEPLOTCUSTOMDPI
 70
   300
  0
XRECORD
  5
5A2
102
{ACAD_REACTORS
330
5A1
102
}
330
5A1
100
AcDbXrecord
280
     1
102
MATERIAL
148
0.0
149
0.0
149
0.0
 93
        0
 94
       63
282
     0
 72
     1
 77
     1
171
     1
175
     1
179
     1
273
     0
  0
XRECORD
  5
5A0
102
{ACAD_REACTORS
330
59F
102
}
330
59F
100
AcDbXrecord
280
     1
102
MATERIAL
148
0.0
149
0.0
149
0.0
 93
        0
 94
       63
282
     0
 72
     1
 77
     1
171
     1
175
     1
179
     1
273
     0
  0
XRECORD
  5
5A4
102
{ACAD_REACTORS
330
5A3
102
}
330
5A3
100
AcDbXrecord
280
     1
102
MATERIAL
148
0.0
149
0.0
149
0.0
 93
        0
 94
       63
282
     0
 72
     1
 77
     1
171
     1
175
     1
179
     1
273
     0
  0
XRECORD
  5
60D
102
{ACAD_REACTORS
330
60C
102
}
330
60C
100
AcDbXrecord
280
     1
102
ACAD_ROUNDTRIP_PRE2007_TABLESTYLE
 90
        4
 91
        0
  1

 92
        4
 93
        0
  2

 94
        4
 95
        0
  3

  0
ENDSEC
  0
EOF
