  0
SECTION
  2
HEADER
  9
$ACADVER
  1
AC1015
  9
$ACADMAINTVER
 70
    20
  9
$DWGCODEPAGE
  3
ANSI_1252
  9
$INSBASE
 10
0.0
 20
0.0
 30
0.0
  9
$EXTMIN
 10
-10.74444401118035
 20
-9.557036165563658
 30
-0.0000000349181948
  9
$EXTMAX
 10
17.06324870053595
 20
9.995575661300335
 30
0.0000000814935747
  9
$LIMMIN
 10
-170.0
 20
-170.0
  9
$LIMMAX
 10
519.0
 20
260.0
  9
$ORTHOMODE
 70
     0
  9
$REGENMODE
 70
     1
  9
$FILLMODE
 70
     1
  9
$QTEXTMODE
 70
     0
  9
$MIRRTEXT
 70
     1
  9
$LTSCALE
 40
10.0
  9
$ATTMODE
 70
     1
  9
$TEXTSIZE
 40
0.8
  9
$TRACEWID
 40
0.05
  9
$TEXTSTYLE
  7
SIMPLEX
  9
$CLAYER
  8
1
  9
$CELTYPE
  6
BYLAYER
  9
$CECOLOR
 62
   256
  9
$CELTSCALE
 40
1.0
  9
$DISPSILH
 70
     0
  9
$DIMSCALE
 40
1.0
  9
$DIMASZ
 40
0.5
  9
$DIMEXO
 40
1.0
  9
$DIMDLI
 40
0.5
  9
$DIMRND
 40
0.0
  9
$DIMDLE
 40
0.0
  9
$DIMEXE
 40
1.0
  9
$DIMTP
 40
0.0
  9
$DIMTM
 40
0.0
  9
$DIMTXT
 40
0.8
  9
$DIMCEN
 40
0.0
  9
$DIMTSZ
 40
0.0
  9
$DIMTOL
 70
     0
  9
$DIMLIM
 70
     0
  9
$DIMTIH
 70
     0
  9
$DIMTOH
 70
     0
  9
$DIMSE1
 70
     0
  9
$DIMSE2
 70
     0
  9
$DIMTAD
 70
     1
  9
$DIMZIN
 70
     0
  9
$DIMBLK
  1

  9
$DIMASO
 70
     1
  9
$DIMSHO
 70
     1
  9
$DIMPOST
  1

  9
$DIMAPOST
  1

  9
$DIMALT
 70
     0
  9
$DIMALTD
 70
     2
  9
$DIMALTF
 40
25.4
  9
$DIMLFAC
 40
1.0
  9
$DIMTOFL
 70
     0
  9
$DIMTVP
 40
0.0
  9
$DIMTIX
 70
     0
  9
$DIMSOXD
 70
     0
  9
$DIMSAH
 70
     0
  9
$DIMBLK1
  1

  9
$DIMBLK2
  1

  9
$DIMSTYLE
  2
Inserts
  9
$DIMCLRD
 70
     0
  9
$DIMCLRE
 70
     0
  9
$DIMCLRT
 70
     0
  9
$DIMTFAC
 40
1.0
  9
$DIMGAP
 40
1.0
  9
$DIMJUST
 70
     0
  9
$DIMSD1
 70
     0
  9
$DIMSD2
 70
     0
  9
$DIMTOLJ
 70
     1
  9
$DIMTZIN
 70
     0
  9
$DIMALTZ
 70
     0
  9
$DIMALTTZ
 70
     0
  9
$DIMUPT
 70
     0
  9
$DIMDEC
 70
     2
  9
$DIMTDEC
 70
     2
  9
$DIMALTU
 70
     2
  9
$DIMALTTD
 70
     2
  9
$DIMTXSTY
  7
STANDARD
  9
$DIMAUNIT
 70
     0
  9
$DIMADEC
 70
     0
  9
$DIMALTRND
 40
0.0
  9
$DIMAZIN
 70
     0
  9
$DIMDSEP
 70
    46
  9
$DIMATFIT
 70
     3
  9
$DIMFRAC
 70
     0
  9
$DIMLDRBLK
  1

  9
$DIMLUNIT
 70
     2
  9
$DIMLWD
 70
    -1
  9
$DIMLWE
 70
    -2
  9
$DIMTMOVE
 70
     0
  9
$LUNITS
 70
     2
  9
$LUPREC
 70
     2
  9
$SKETCHINC
 40
0.1
  9
$FILLETRAD
 40
0.0
  9
$AUNITS
 70
     0
  9
$AUPREC
 70
     0
  9
$MENU
  1
TDMWIN
  9
$ELEVATION
 40
0.0
  9
$PELEVATION
 40
0.0
  9
$THICKNESS
 40
0.0
  9
$LIMCHECK
 70
     0
  9
$CHAMFERA
 40
0.0
  9
$CHAMFERB
 40
0.0
  9
$CHAMFERC
 40
0.0
  9
$CHAMFERD
 40
0.0
  9
$SKPOLY
 70
     0
  9
$TDCREATE
 40
2454644.605584514
  9
$TDUCREATE
 40
2454644.522251181
  9
$TDUPDATE
 40
2454648.438197037
  9
$TDUUPDATE
 40
2454648.354863704
  9
$TDINDWG
 40
0.0267335185
  9
$TDUSRTIMER
 40
0.0267333333
  9
$USRTIMER
 70
     1
  9
$ANGBASE
 50
0.0
  9
$ANGDIR
 70
     0
  9
$PDMODE
 70
     2
  9
$PDSIZE
 40
0.0
  9
$PLINEWID
 40
0.0
  9
$SPLFRAME
 70
     0
  9
$SPLINETYPE
 70
     6
  9
$SPLINESEGS
 70
     8
  9
$HANDSEED
  5
193D
  9
$SURFTAB1
 70
     6
  9
$SURFTAB2
 70
     6
  9
$SURFTYPE
 70
     6
  9
$SURFU
 70
     6
  9
$SURFV
 70
     6
  9
$UCSBASE
  2

  9
$UCSNAME
  2

  9
$UCSORG
 10
0.0
 20
0.0
 30
0.0
  9
$UCSXDIR
 10
1.0
 20
0.0
 30
0.0
  9
$UCSYDIR
 10
0.0
 20
1.0
 30
0.0
  9
$UCSORTHOREF
  2

  9
$UCSORTHOVIEW
 70
     0
  9
$UCSORGTOP
 10
0.0
 20
0.0
 30
0.0
  9
$UCSORGBOTTOM
 10
0.0
 20
0.0
 30
0.0
  9
$UCSORGLEFT
 10
0.0
 20
0.0
 30
0.0
  9
$UCSORGRIGHT
 10
0.0
 20
0.0
 30
0.0
  9
$UCSORGFRONT
 10
0.0
 20
0.0
 30
0.0
  9
$UCSORGBACK
 10
0.0
 20
0.0
 30
0.0
  9
$PUCSBASE
  2

  9
$PUCSNAME
  2

  9
$PUCSORG
 10
0.0
 20
0.0
 30
0.0
  9
$PUCSXDIR
 10
1.0
 20
0.0
 30
0.0
  9
$PUCSYDIR
 10
0.0
 20
1.0
 30
0.0
  9
$PUCSORTHOREF
  2

  9
$PUCSORTHOVIEW
 70
     0
  9
$PUCSORGTOP
 10
0.0
 20
0.0
 30
0.0
  9
$PUCSORGBOTTOM
 10
0.0
 20
0.0
 30
0.0
  9
$PUCSORGLEFT
 10
0.0
 20
0.0
 30
0.0
  9
$PUCSORGRIGHT
 10
0.0
 20
0.0
 30
0.0
  9
$PUCSORGFRONT
 10
0.0
 20
0.0
 30
0.0
  9
$PUCSORGBACK
 10
0.0
 20
0.0
 30
0.0
  9
$USERI1
 70
     0
  9
$USERI2
 70
     0
  9
$USERI3
 70
     0
  9
$USERI4
 70
     0
  9
$USERI5
 70
     0
  9
$USERR1
 40
0.0
  9
$USERR2
 40
0.0
  9
$USERR3
 40
0.0
  9
$USERR4
 40
0.0
  9
$USERR5
 40
0.0
  9
$WORLDVIEW
 70
     1
  9
$SHADEDGE
 70
     3
  9
$SHADEDIF
 70
    70
  9
$TILEMODE
 70
     1
  9
$MAXACTVP
 70
    16
  9
$PINSBASE
 10
0.0
 20
0.0
 30
0.0
  9
$PLIMCHECK
 70
     0
  9
$PEXTMIN
 10
1.000000000000000E+20
 20
1.000000000000000E+20
 30
1.000000000000000E+20
  9
$PEXTMAX
 10
-1.000000000000000E+20
 20
-1.000000000000000E+20
 30
-1.000000000000000E+20
  9
$PLIMMIN
 10
0.0
 20
0.0
  9
$PLIMMAX
 10
12.0
 20
9.0
  9
$UNITMODE
 70
     0
  9
$VISRETAIN
 70
     0
  9
$PLINEGEN
 70
     0
  9
$PSLTSCALE
 70
     0
  9
$TREEDEPTH
 70
  3020
  9
$CMLSTYLE
  2
STANDARD
  9
$CMLJUST
 70
     0
  9
$CMLSCALE
 40
1.0
  9
$PROXYGRAPHICS
 70
     1
  9
$MEASUREMENT
 70
     1
  9
$CELWEIGHT
370
    -1
  9
$ENDCAPS
280
     0
  9
$JOINSTYLE
280
     0
  9
$LWDISPLAY
290
     0
  9
$INSUNITS
 70
     0
  9
$HYPERLINKBASE
  1

  9
$STYLESHEET
  1

  9
$XEDIT
290
     1
  9
$CEPSNTYPE
380
     0
  9
$PSTYLEMODE
290
     1
  9
$FINGERPRINTGUID
  2
{99C86A69-93B5-4D90-8F5A-0286F11616C8}
  9
$VERSIONGUID
  2
{D1D76F11-8C6A-4D4F-B59D-34D7A6E3ACC1}
  9
$EXTNAMES
290
     1
  9
$PSVPSCALE
 40
0.0
  9
$OLESTARTUP
290
     0
  0
ENDSEC
  0
SECTION
  2
CLASSES
  0
CLASS
  1
ACDBDICTIONARYWDFLT
  2
AcDbDictionaryWithDefault
  3
ObjectDBX Classes
 90
        0
280
     0
281
     0
  0
CLASS
  1
ACDBPLACEHOLDER
  2
AcDbPlaceHolder
  3
ObjectDBX Classes
 90
        0
280
     0
281
     0
  0
CLASS
  1
LAYOUT
  2
AcDbLayout
  3
ObjectDBX Classes
 90
        0
280
     0
281
     0
  0
CLASS
  1
MATERIAL
  2
AcDbMaterial
  3
ObjectDBX Classes
 90
     1153
280
     0
281
     0
  0
CLASS
  1
VISUALSTYLE
  2
AcDbVisualStyle
  3
ObjectDBX Classes
 90
     4095
280
     0
281
     0
  0
CLASS
  1
TABLESTYLE
  2
AcDbTableStyle
  3
ObjectDBX Classes
 90
     4095
280
     0
281
     0
  0
CLASS
  1
SCALE
  2
AcDbScale
  3
ObjectDBX Classes
 90
     1153
280
     0
281
     0
  0
CLASS
  1
MLEADERSTYLE
  2
AcDbMLeaderStyle
  3
ACDB_MLEADERSTYLE_CLASS
 90
     4095
280
     0
281
     0
  0
CLASS
  1
CELLSTYLEMAP
  2
AcDbCellStyleMap
  3
ObjectDBX Classes
 90
     1152
280
     0
281
     0
  0
CLASS
  1
DICTIONARYVAR
  2
AcDbDictionaryVar
  3
ObjectDBX Classes
 90
        0
280
     0
281
     0
  0
ENDSEC
  0
SECTION
  2
TABLES
  0
TABLE
  2
VPORT
  5
8
330
0
100
AcDbSymbolTable
 70
     1
  0
VPORT
  5
1288
330
8
100
AcDbSymbolTableRecord
100
AcDbViewportTableRecord
  2
*Active
 70
     0
 10
0.0
 20
0.0
 11
1.0
 21
1.0
 12
3.159402305762689
 22
0.2192697262021461
 13
0.0
 23
0.0
 14
5.0
 24
5.0
 15
5.0
 25
5.0
 16
0.0
 26
0.0
 36
1.0
 17
0.0
 27
0.0
 37
0.0
 40
25.50350074068525
 41
1.250306748466257
 42
50.0
 43
0.0
 44
0.0
 50
0.0
 51
0.0
 71
     0
 72
   100
 73
     1
 74
     1
 75
     0
 76
     0
 77
     0
 78
     0
281
     0
 65
     1
110
0.0
120
0.0
130
0.0
111
1.0
121
0.0
131
0.0
112
0.0
122
1.0
132
0.0
 79
     0
146
0.0
  0
ENDTAB
  0
TABLE
  2
LTYPE
  5
5
330
0
100
AcDbSymbolTable
 70
     3
  0
LTYPE
  5
13
330
5
100
AcDbSymbolTableRecord
100
AcDbLinetypeTableRecord
  2
BYBLOCK
 70
     0
  3

 72
    65
 73
     0
 40
0.0
  0
LTYPE
  5
14
330
5
100
AcDbSymbolTableRecord
100
AcDbLinetypeTableRecord
  2
BYLAYER
 70
     0
  3

 72
    65
 73
     0
 40
0.0
  0
LTYPE
  5
15
330
5
100
AcDbSymbolTableRecord
100
AcDbLinetypeTableRecord
  2
CONTINUOUS
 70
     0
  3
Solid line
 72
    65
 73
     0
 40
0.0
  0
LTYPE
  5
20
330
5
100
AcDbSymbolTableRecord
100
AcDbLinetypeTableRecord
  2
CENTER
 70
     0
  3
____ . ____ . ____
 72
    65
 73
     4
 40
1.5
 49
1.0
 74
     0
 49
-0.25
 74
     0
 49
0.0
 74
     0
 49
-0.25
 74
     0
  0
LTYPE
  5
21
330
5
100
AcDbSymbolTableRecord
100
AcDbLinetypeTableRecord
  2
HIDDEN
 70
     0
  3
_ _ _ _ _ _ _ _ _ _ _ _ _ _ _ _ _ _ _ _ _ _ _
 72
    65
 73
     2
 40
0.375
 49
0.25
 74
     0
 49
-0.125
 74
     0
  0
ENDTAB
  0
TABLE
  2
LAYER
  5
2
330
0
100
AcDbSymbolTable
 70
    18
  0
LAYER
  5
F
102
{ACAD_XDICTIONARY
360
18AB
102
}
330
2
100
AcDbSymbolTableRecord
100
AcDbLayerTableRecord
  2
0
 70
     0
 62
     7
  6
CONTINUOUS
370
    -3
390
E94
  0
LAYER
  5
1E
102
{ACAD_XDICTIONARY
360
18AD
102
}
330
2
100
AcDbSymbolTableRecord
100
AcDbLayerTableRecord
  2
1
 70
     0
 62
     4
  6
CONTINUOUS
370
    -3
390
E94
  0
LAYER
  5
22
102
{ACAD_XDICTIONARY
360
18AF
102
}
330
2
100
AcDbSymbolTableRecord
100
AcDbLayerTableRecord
  2
SK1
 70
     0
 62
     4
  6
CONTINUOUS
370
    -3
390
E94
  0
LAYER
  5
23
102
{ACAD_XDICTIONARY
360
18B1
102
}
330
2
100
AcDbSymbolTableRecord
100
AcDbLayerTableRecord
  2
2
 70
     0
 62
     7
  6
CONTINUOUS
370
    -3
390
E94
  0
LAYER
  5
24
102
{ACAD_XDICTIONARY
360
18B3
102
}
330
2
100
AcDbSymbolTableRecord
100
AcDbLayerTableRecord
  2
2L
 70
     0
 62
     7
  6
CONTINUOUS
370
    -3
390
E94
  0
LAYER
  5
25
102
{ACAD_XDICTIONARY
360
18B5
102
}
330
2
100
AcDbSymbolTableRecord
100
AcDbLayerTableRecord
  2
SK2
 70
     0
 62
     7
  6
CONTINUOUS
370
    -3
390
E94
  0
LAYER
  5
26
102
{ACAD_XDICTIONARY
360
18B7
102
}
330
2
100
AcDbSymbolTableRecord
100
AcDbLayerTableRecord
  2
3
 70
     0
 62
     1
  6
HIDDEN
370
    -3
390
E94
  0
LAYER
  5
27
102
{ACAD_XDICTIONARY
360
18B9
102
}
330
2
100
AcDbSymbolTableRecord
100
AcDbLayerTableRecord
  2
SK3
 70
     0
 62
     1
  6
HIDDEN
370
    -3
390
E94
  0
LAYER
  5
28
102
{ACAD_XDICTIONARY
360
18BB
102
}
330
2
100
AcDbSymbolTableRecord
100
AcDbLayerTableRecord
  2
4
 70
     0
 62
     2
  6
CENTER
370
    -3
390
E94
  0
LAYER
  5
29
102
{ACAD_XDICTIONARY
360
18BD
102
}
330
2
100
AcDbSymbolTableRecord
100
AcDbLayerTableRecord
  2
SK4
 70
     0
 62
     2
  6
CENTER
370
    -3
390
E94
  0
LAYER
  5
2A
102
{ACAD_XDICTIONARY
360
18BF
102
}
330
2
100
AcDbSymbolTableRecord
100
AcDbLayerTableRecord
  2
5
 70
     0
 62
     7
  6
CONTINUOUS
370
    -3
390
E94
  0
LAYER
  5
2B
102
{ACAD_XDICTIONARY
360
18C1
102
}
330
2
100
AcDbSymbolTableRecord
100
AcDbLayerTableRecord
  2
6
 70
     0
 62
     5
  6
CONTINUOUS
370
    -3
390
E94
  0
LAYER
  5
2C
102
{ACAD_XDICTIONARY
360
18C3
102
}
330
2
100
AcDbSymbolTableRecord
100
AcDbLayerTableRecord
  2
SK6
 70
     0
 62
     5
  6
CONTINUOUS
370
    -3
390
E94
  0
LAYER
  5
2D
102
{ACAD_XDICTIONARY
360
18C5
102
}
330
2
100
AcDbSymbolTableRecord
100
AcDbLayerTableRecord
  2
243
 70
     0
 62
     7
  6
CONTINUOUS
370
    -3
390
E94
  0
LAYER
  5
2E
330
2
100
AcDbSymbolTableRecord
100
AcDbLayerTableRecord
  2
DEFPOINTS
 70
     0
 62
     7
  6
CONTINUOUS
290
     0
370
    -3
390
E94
  0
LAYER
  5
C07
102
{ACAD_XDICTIONARY
360
18C7
102
}
330
2
100
AcDbSymbolTableRecord
100
AcDbLayerTableRecord
  2
FRONT
 70
     0
 62
     7
  6
CONTINUOUS
370
    -3
390
E94
  0
LAYER
  5
12DF
102
{ACAD_XDICTIONARY
360
12E0
102
}
330
2
100
AcDbSymbolTableRecord
100
AcDbLayerTableRecord
  2
H
 70
     0
 62
     7
  6
CONTINUOUS
370
   100
390
E94
  0
LAYER
  5
12E1
102
{ACAD_XDICTIONARY
360
12E2
102
}
330
2
100
AcDbSymbolTableRecord
100
AcDbLayerTableRecord
  2
P
 70
     0
 62
   250
  6
CONTINUOUS
370
   100
390
E94
  0
ENDTAB
  0
TABLE
  2
STYLE
  5
3
330
0
100
AcDbSymbolTable
 70
     5
  0
STYLE
  5
10
330
3
100
AcDbSymbolTableRecord
100
AcDbTextStyleTableRecord
  2
STANDARD
 70
     0
 40
0.0
 41
1.0
 50
0.0
 71
     0
 42
5.0
  3
txt
  4

  0
STYLE
  5
1F
330
3
100
AcDbSymbolTableRecord
100
AcDbTextStyleTableRecord
  2
SIMPLEX
 70
     0
 40
0.0
 41
1.0
 50
0.0
 71
     0
 42
0.8
  3
simplex
  4

  0
STYLE
  5
2F
330
3
100
AcDbSymbolTableRecord
100
AcDbTextStyleTableRecord
  2
TXT
 70
     0
 40
8.0
 41
1.0
 50
0.0
 71
     0
 42
8.0
  3
txt
  4

  0
STYLE
  5
C08
330
3
100
AcDbSymbolTableRecord
100
AcDbTextStyleTableRecord
  2
UGMTXT
 70
     0
 40
0.0
 41
1.0
 50
0.0
 71
     0
 42
0.2
  3
ugmtxt
  4
bigfont
  0
STYLE
  5
12E3
330
3
100
AcDbSymbolTableRecord
100
AcDbTextStyleTableRecord
  2
Roman
 70
     0
 40
0.0
 41
1.0
 50
0.0
 71
     0
 42
0.2
  3

  4

  0
ENDTAB
  0
TABLE
  2
VIEW
  5
6
330
0
100
AcDbSymbolTable
 70
     2
  0
ENDTAB
  0
TABLE
  2
UCS
  5
7
330
0
100
AcDbSymbolTable
 70
     0
  0
ENDTAB
  0
TABLE
  2
APPID
  5
9
330
0
100
AcDbSymbolTable
 70
     7
  0
APPID
  5
11
330
9
100
AcDbSymbolTableRecord
100
AcDbRegAppTableRecord
  2
ACAD
 70
     0
  0
APPID
  5
E8F
330
9
100
AcDbSymbolTableRecord
100
AcDbRegAppTableRecord
  2
CONTENTBLOCKICON
 70
     0
  0
APPID
  5
12DB
330
9
100
AcDbSymbolTableRecord
100
AcDbRegAppTableRecord
  2
ACAD_MLEADERVER
 70
     0
  0
APPID
  5
16ED
330
9
100
AcDbSymbolTableRecord
100
AcDbRegAppTableRecord
  2
ACAD_DSTYLE_DIMJAG
 70
     0
  0
APPID
  5
16EE
330
9
100
AcDbSymbolTableRecord
100
AcDbRegAppTableRecord
  2
ACAD_DSTYLE_DIMTALN
 70
     0
  0
APPID
  5
1758
330
9
100
AcDbSymbolTableRecord
100
AcDbRegAppTableRecord
  2
ACAD_EXEMPT_FROM_CAD_STANDARDS
 70
     0
  0
APPID
  5
175F
330
9
100
AcDbSymbolTableRecord
100
AcDbRegAppTableRecord
  2
ACAD_DSTYLE_DIMRADIAL_EXTENSION
 70
     0
  0
ENDTAB
  0
TABLE
  2
DIMSTYLE
  5
A
330
0
100
AcDbSymbolTable
 70
     5
100
AcDbDimStyleTable
 71
     5
340
1273
340
D91
340
D93
340
D92
340
980
  0
DIMSTYLE
105
980
330
A
100
AcDbSymbolTableRecord
100
AcDbDimStyleTableRecord
  2
STANDARD
 70
     0
340
10
  0
DIMSTYLE
105
D91
330
A
100
AcDbSymbolTableRecord
100
AcDbDimStyleTableRecord
  2
V-TYGEN_-160
 70
     0
 41
3.5
 42
1.0
 43
0.5
 44
1.0
 73
     0
 74
     0
 77
     1
140
3.5
141
0.0
147
1.0
271
     0
272
     0
340
10
371
    -1
  0
DIMSTYLE
105
D92
330
A
100
AcDbSymbolTableRecord
100
AcDbDimStyleTableRecord
  2
V-TYG_160-300
 70
     0
 41
5.0
 42
1.0
 43
0.5
 44
1.0
 73
     0
 74
     0
 77
     1
140
5.0
141
0.0
147
1.0
271
     0
272
     0
340
10
  0
DIMSTYLE
105
D93
330
A
100
AcDbSymbolTableRecord
100
AcDbDimStyleTableRecord
  2
V-TYG_300-
 70
     0
 41
8.0
 42
1.0
 43
0.5
 44
1.0
 73
     0
 74
     0
 77
     1
140
8.0
141
0.0
147
1.0
271
     0
272
     0
340
10
  0
DIMSTYLE
105
1273
102
{ACAD_REACTORS
330
16E0
330
1701
330
17F2
330
1856
330
1912
102
}
330
A
100
AcDbSymbolTableRecord
100
AcDbDimStyleTableRecord
  2
Inserts
 70
     0
 41
0.5
 42
1.0
 43
0.5
 44
1.0
 73
     0
 74
     0
 77
     1
140
0.8
141
0.0
147
1.0
271
     2
272
     2
340
10
371
    -1
1001
ACAD_DSTYLE_DIMJAG
1070
   388
1040
1.5
1001
ACAD_DSTYLE_DIMTALN
1070
   392
1070
     0
  0
ENDTAB
  0
TABLE
  2
BLOCK_RECORD
  5
1
330
0
100
AcDbSymbolTable
 70
     8
  0
BLOCK_RECORD
  5
19
102
{ACAD_XDICTIONARY
360
E8D
102
}
330
1
100
AcDbSymbolTableRecord
100
AcDbBlockTableRecord
  2
*MODEL_SPACE
340
E95
  0
BLOCK_RECORD
  5
16
102
{ACAD_XDICTIONARY
360
E8B
102
}
330
1
100
AcDbSymbolTableRecord
100
AcDbBlockTableRecord
  2
*PAPER_SPACE
340
E96
  0
BLOCK_RECORD
  5
A8B
330
1
100
AcDbSymbolTableRecord
100
AcDbBlockTableRecord
  2
2D00035417
340
0
310
2800000020000000200000000100080000000000000400000000000000000000000000000000000000000000000080000080000000808000800000008000800080800000C0C0C000C0DCC000F0CAA6000020400000206000002080000020A0000020C0000020E00000400000004020000040400000406000004080000040A0
310
000040C0000040E00000600000006020000060400000606000006080000060A0000060C0000060E00000800000008020000080400000806000008080000080A0000080C0000080E00000A0000000A0200000A0400000A0600000A0800000A0A00000A0C00000A0E00000C0000000C0200000C0400000C0600000C0800000C0
310
A00000C0C00000C0E00000E0000000E0200000E0400000E0600000E0800000E0A00000E0C00000E0E00040000000400020004000400040006000400080004000A0004000C0004000E00040200000402020004020400040206000402080004020A0004020C0004020E000404000004040200040404000404060004040800040
310
40A0004040C0004040E00040600000406020004060400040606000406080004060A0004060C0004060E00040800000408020004080400040806000408080004080A0004080C0004080E00040A0000040A0200040A0400040A0600040A0800040A0A00040A0C00040A0E00040C0000040C0200040C0400040C0600040C08000
310
40C0A00040C0C00040C0E00040E0000040E0200040E0400040E0600040E0800040E0A00040E0C00040E0E00080000000800020008000400080006000800080008000A0008000C0008000E00080200000802020008020400080206000802080008020A0008020C0008020E00080400000804020008040400080406000804080
310
008040A0008040C0008040E00080600000806020008060400080606000806080008060A0008060C0008060E00080800000808020008080400080806000808080008080A0008080C0008080E00080A0000080A0200080A0400080A0600080A0800080A0A00080A0C00080A0E00080C0000080C0200080C0400080C0600080C0
310
800080C0A00080C0C00080C0E00080E0000080E0200080E0400080E0600080E0800080E0A00080E0C00080E0E000C0000000C0002000C0004000C0006000C0008000C000A000C000C000C000E000C0200000C0202000C0204000C0206000C0208000C020A000C020C000C020E000C0400000C0402000C0404000C0406000C0
310
408000C040A000C040C000C040E000C0600000C0602000C0604000C0606000C0608000C060A000C060C000C060E000C0800000C0802000C0804000C0806000C0808000C080A000C080C000C080E000C0A00000C0A02000C0A04000C0A06000C0A08000C0A0A000C0A0C000C0A0E000C0C00000C0C02000C0C04000C0C06000
310
C0C08000C0C0A000F0FBFF00A4A0A000808080000000FF0000FF000000FFFF00FF000000FF00FF00FFFF0000FFFFFF0000000000000000000000000000000000000000000000000000000000000000000000000000000000000000000000000000000000000000000000000000000000000000000000000000000000000000
310
00000000000000000000000000000000000000000000000000000000000000000000000000000000000000000000000000000000000000000000000000000000000000000000000000000000000000000000000000000000000000000000000000000000000000000000000000000000000000000000000000000000000000
310
00000000000000000000000000000000000000000000000000000000000000000000000000000000000000000000000000000000000000000000000000000000000000000000000000000000000000000000000000000000000000000000000000000000000000000000000000000000000000000000000000000000000000
310
00000000000000000000000000000000000000000000000000000000000000000000000000000000000000000000000000000000000000000000000000000000000000000000000000000000000000000000000000FEFEFEFEFEFEFEFEFEFEFEFEFEFEFEFEFEFEFEFEFEFE000000FEFEFEFE0000FEFE000000000000000000
310
0000000000000000000000FEFEFEFEFEFEFEFE0000FEFE0000000000000000000000000000000000000000FEFE0000FEFEFE000000FEFE0000000000000000000000000000000000000000FEFE0000FEFEFE000000FEFE0000000000000000000000000000000000000000FEFEFEFEFEFEFEFE000000FEFEFEFEFEFEFEFEFE
310
FEFEFEFEFEFEFEFEFEFEFEFEFE000000FEFEFEFE0000000000000000000000000000000000000000000000000000000000000000000000000000000000000000000000000000000000000000000000000000000000000000000000000000000000000000000000000000000000000000000000000000000000000000000000
310
00000000000000000000000000000000000000000000000000000000000000000000000000000000000000000000000000000000000000000000000000000000000000000000000000000000000000000000000000000000000000000000000000000000000000000000000000000000000000000000000000000000000000
310
00000000000000000000000000000000000000000000000000000000000000000000000000000000000000000000000000000000000000000000000000000000000000000000000000000000000000000000000000000000000000000000000000000000000000000000000000000000000000000000000000000000000000
310
0000000000000000000000000000000000000000000000000000000000000000000000000000000000000000000000000000000000000000
102
{BLKREFS
331
C04
102
}
  0
BLOCK_RECORD
  5
C03
330
1
100
AcDbSymbolTableRecord
100
AcDbBlockTableRecord
  2
ROFFE
340
0
310
2800000020000000200000000100080000000000000400000000000000000000000000000000000000000000000080000080000000808000800000008000800080800000C0C0C000C0DCC000F0CAA6000020400000206000002080000020A0000020C0000020E00000400000004020000040400000406000004080000040A0
310
000040C0000040E00000600000006020000060400000606000006080000060A0000060C0000060E00000800000008020000080400000806000008080000080A0000080C0000080E00000A0000000A0200000A0400000A0600000A0800000A0A00000A0C00000A0E00000C0000000C0200000C0400000C0600000C0800000C0
310
A00000C0C00000C0E00000E0000000E0200000E0400000E0600000E0800000E0A00000E0C00000E0E00040000000400020004000400040006000400080004000A0004000C0004000E00040200000402020004020400040206000402080004020A0004020C0004020E000404000004040200040404000404060004040800040
310
40A0004040C0004040E00040600000406020004060400040606000406080004060A0004060C0004060E00040800000408020004080400040806000408080004080A0004080C0004080E00040A0000040A0200040A0400040A0600040A0800040A0A00040A0C00040A0E00040C0000040C0200040C0400040C0600040C08000
310
40C0A00040C0C00040C0E00040E0000040E0200040E0400040E0600040E0800040E0A00040E0C00040E0E00080000000800020008000400080006000800080008000A0008000C0008000E00080200000802020008020400080206000802080008020A0008020C0008020E00080400000804020008040400080406000804080
310
008040A0008040C0008040E00080600000806020008060400080606000806080008060A0008060C0008060E00080800000808020008080400080806000808080008080A0008080C0008080E00080A0000080A0200080A0400080A0600080A0800080A0A00080A0C00080A0E00080C0000080C0200080C0400080C0600080C0
310
800080C0A00080C0C00080C0E00080E0000080E0200080E0400080E0600080E0800080E0A00080E0C00080E0E000C0000000C0002000C0004000C0006000C0008000C000A000C000C000C000E000C0200000C0202000C0204000C0206000C0208000C020A000C020C000C020E000C0400000C0402000C0404000C0406000C0
310
408000C040A000C040C000C040E000C0600000C0602000C0604000C0606000C0608000C060A000C060C000C060E000C0800000C0802000C0804000C0806000C0808000C080A000C080C000C080E000C0A00000C0A02000C0A04000C0A06000C0A08000C0A0A000C0A0C000C0A0E000C0C00000C0C02000C0C04000C0C06000
310
C0C08000C0C0A000F0FBFF00A4A0A000808080000000FF0000FF000000FFFF00FF000000FF00FF00FFFF0000FFFFFF0000000000000000000000000000000000000000000000000000000000000000000000000000000000000000000000000000000000000000000000000000000000000000000000000000000000000000
310
00000000000000000000000000000000000000000000000000000000000000000000000000000000000000000000000000000000000000000000000000000000000000000000000000000000000000000000000000000000000000000000000000000000000000000000000000000000000000000000000000000000000000
310
00000000000000000000000000000000000000000000000000000000000000000000000000000000000000000000000000000000000000000000000000000000000000000000000000000000000000000000000000000000000000000000000000000000000000000000000000000000000000000000000000000000000000
310
00000000000000000000000000000000000000000000000000000000000000000000000000000000000000000000000000000000000000000000000000000000000000000000000000000000000000000000000000FEFEFEFEFEFEFEFEFEFEFEFEFEFEFEFEFEFEFEFEFEFE000000FEFEFEFE0000FEFE000000000000000000
310
0000000000000000000000FEFEFEFEFEFEFEFE0000FEFE0000000000000000000000000000000000000000FEFE0000FEFEFE000000FEFE0000000000000000000000000000000000000000FEFE0000FEFEFE000000FEFE0000000000000000000000000000000000000000FEFEFEFEFEFEFEFE000000FEFEFEFEFEFEFEFEFE
310
FEFEFEFEFEFEFEFEFEFEFEFEFE000000FEFEFEFE0000000000000000000000000000000000000000000000000000000000000000000000000000000000000000000000000000000000000000000000000000000000000000000000000000000000000000000000000000000000000000000000000000000000000000000000
310
00000000000000000000000000000000000000000000000000000000000000000000000000000000000000000000000000000000000000000000000000000000000000000000000000000000000000000000000000000000000000000000000000000000000000000000000000000000000000000000000000000000000000
310
00000000000000000000000000000000000000000000000000000000000000000000000000000000000000000000000000000000000000000000000000000000000000000000000000000000000000000000000000000000000000000000000000000000000000000000000000000000000000000000000000000000000000
310
0000000000000000000000000000000000000000000000000000000000000000000000000000000000000000000000000000000000000000
  0
BLOCK_RECORD
  5
16E1
330
1
100
AcDbSymbolTableRecord
100
AcDbBlockTableRecord
  2
*D2
340
0
  0
BLOCK_RECORD
  5
1702
330
1
100
AcDbSymbolTableRecord
100
AcDbBlockTableRecord
  2
*D3
340
0
  0
BLOCK_RECORD
  5
1761
330
1
100
AcDbSymbolTableRecord
100
AcDbBlockTableRecord
  2
*D4
340
0
  0
BLOCK_RECORD
  5
17F3
330
1
100
AcDbSymbolTableRecord
100
AcDbBlockTableRecord
  2
*D5
340
0
  0
BLOCK_RECORD
  5
1857
330
1
100
AcDbSymbolTableRecord
100
AcDbBlockTableRecord
  2
*D6
340
0
  0
BLOCK_RECORD
  5
1913
330
1
100
AcDbSymbolTableRecord
100
AcDbBlockTableRecord
  2
*D7
340
0
  0
ENDTAB
  0
ENDSEC
  0
SECTION
  2
BLOCKS
  0
BLOCK
  5
1A
330
19
100
AcDbEntity
  8
0
100
AcDbBlockBegin
  2
*MODEL_SPACE
 70
     0
 10
0.0
 20
0.0
 30
0.0
  3
*MODEL_SPACE
  1

  0
ENDBLK
  5
1B
330
19
100
AcDbEntity
  8
0
100
AcDbBlockEnd
  0
BLOCK
  5
17
330
16
100
AcDbEntity
 67
     1
  8
0
100
AcDbBlockBegin
  2
*PAPER_SPACE
 70
     0
 10
0.0
 20
0.0
 30
0.0
  3
*PAPER_SPACE
  1

  0
ENDBLK
  5
18
330
16
100
AcDbEntity
 67
     1
  8
0
100
AcDbBlockEnd
  0
BLOCK
  5
C01
330
A8B
100
AcDbEntity
  8
0
100
AcDbBlockBegin
  2
2D00035417
 70
     0
 10
0.0
 20
0.0
 30
0.0
  3
2D00035417
  1

  0
LINE
  5
A8C
330
A8B
100
AcDbEntity
  8
FRONT
  6
Continuous
 62
     4
100
AcDbLine
 10
0.8660254037844552
 20
5.5
 30
0.0
 11
0.0
 21
6.000000000000002
 31
0.0
  0
LINE
  5
A8D
330
A8B
100
AcDbEntity
  8
FRONT
  6
Continuous
 62
     4
100
AcDbLine
 10
0.0
 20
-6.000000000000002
 30
0.0
 11
0.8660254037844552
 21
-5.5
 31
0.0
  0
LINE
  5
A8E
330
A8B
100
AcDbEntity
  8
FRONT
  6
Continuous
 62
     4
100
AcDbLine
 10
-62.0
 20
5.5
 30
0.0
 11
-62.0
 21
-5.499999999999992
 31
0.0
  0
LINE
  5
A8F
330
A8B
100
AcDbEntity
  8
FRONT
  6
Continuous
 62
     4
100
AcDbLine
 10
-61.5
 20
6.0
 30
0.0
 11
-61.5
 21
-5.999999999999992
 31
0.0
  0
LINE
  5
A90
330
A8B
100
AcDbEntity
  8
FRONT
  6
Continuous
 62
     4
100
AcDbLine
 10
0.0
 20
6.000000000000007
 30
0.0
 11
0.0
 21
-6.000000000000007
 31
0.0
  0
LINE
  5
A91
330
A8B
100
AcDbEntity
  8
FRONT
  6
Continuous
 62
     4
100
AcDbLine
 10
-61.5
 20
-6.0
 30
0.0
 11
0.0
 21
-6.0
 31
0.0
  0
LINE
  5
A92
330
A8B
100
AcDbEntity
  8
FRONT
  6
Continuous
 62
     4
100
AcDbLine
 10
-62.0
 20
-5.499999999999992
 30
0.0
 11
-61.5
 21
-5.999999999999992
 31
0.0
  0
LINE
  5
A93
330
A8B
100
AcDbEntity
  8
FRONT
  6
Continuous
 62
     4
100
AcDbLine
 10
0.0
 20
6.0
 30
0.0
 11
-61.5
 21
6.000000000000007
 31
0.0
  0
LINE
  5
A94
330
A8B
100
AcDbEntity
  8
FRONT
  6
Continuous
 62
     4
100
AcDbLine
 10
-61.5
 20
6.0
 30
0.0
 11
-62.0
 21
5.5
 31
0.0
  0
LINE
  5
A95
330
A8B
100
AcDbEntity
  8
FRONT
  6
Continuous
 62
     4
100
AcDbLine
 10
17.29745226804206
 20
3.509679345658438
 30
0.0
 11
17.29745226804206
 21
-5.017742724400552
 31
0.0
  0
LINE
  5
A96
330
A8B
100
AcDbEntity
  8
FRONT
  6
Continuous
 62
     4
100
AcDbLine
 10
11.19220462092714
 20
3.417991427849383
 30
0.0
 11
11.19220462092714
 21
-5.268704490765056
 31
0.0
  0
LINE
  5
A97
330
A8B
100
AcDbEntity
  8
FRONT
  6
Continuous
 62
     4
100
AcDbLine
 10
12.3980252578104
 20
3.543839759641738
 30
0.0
 11
12.3980252578104
 21
-4.715335514294036
 31
0.0
  0
LINE
  5
A98
330
A8B
100
AcDbEntity
  8
FRONT
  6
Continuous
 62
     4
100
AcDbLine
 10
0.8660254037844552
 20
5.5
 30
0.0
 11
0.8660254037844552
 21
-5.5
 31
0.0
  0
LINE
  5
A99
330
A8B
100
AcDbEntity
  8
FRONT
  6
Continuous
 62
     4
100
AcDbLine
 10
13.74838568128198
 20
3.593205653172365
 30
0.0
 11
13.74838568128198
 21
-5.032064792663311
 31
0.0
  0
LINE
  5
A9A
330
A8B
100
AcDbEntity
  8
FRONT
  6
Continuous
 62
     4
100
AcDbLine
 10
17.48879939540238
 20
-4.816380228107217
 30
0.0
 11
17.48879939540238
 21
3.479278271624338
 31
0.0
  0
LINE
  5
A9B
330
A8B
100
AcDbEntity
  8
FRONT
  6
Continuous
 62
     4
100
AcDbLine
 10
12.52411245174376
 20
-5.148811565010388
 30
0.0
 11
12.2699596882263
 21
-5.474819161767424
 31
0.0
  0
ELLIPSE
  5
A9C
330
A8B
100
AcDbEntity
  8
FRONT
  6
Continuous
 62
     4
100
AcDbEllipse
 10
12.59483653351634
 20
-4.836421402054659
 30
0.0
 11
-0.1764278460445979
 21
0.0941977448772153
 31
0.0
210
0.0
220
0.0
230
1.0
 40
0.9833059182774052
 41
0.6405173247906966
 42
2.071687311428429
  0
ELLIPSE
  5
A9D
330
A8B
100
AcDbEntity
  8
FRONT
  6
Continuous
 62
     4
100
AcDbEllipse
 10
12.58626641887234
 20
-4.852472814633401
 30
0.0
 11
-0.264641769065345
 21
0.1412966173186371
 31
0.0
210
0.0
220
0.0
230
1.0
 40
0.9833059182774
 41
0.6405173248015057
 42
2.071687311439271
  0
ELLIPSE
  5
A9E
330
A8B
100
AcDbEntity
  8
FRONT
  6
Continuous
 62
     4
100
AcDbEllipse
 10
12.53491299669396
 20
-4.91373583192963
 30
0.0
 11
-0.1776346087653321
 21
-0.1633261946229406
 31
0.0
210
0.0
220
0.0
230
0.9999999999999998
 40
0.9518042298991375
 41
5.720439864303834
 42
7.08930315248491
  0
SPLINE
  5
A9F
330
A8B
100
AcDbEntity
  8
FRONT
  6
Continuous
 62
     4
100
AcDbSpline
210
0.0
220
0.0
230
1.0
 70
     8
 71
     2
 72
     6
 73
     3
 74
     0
 42
0.0000000001
 43
0.0000000001
 40
0.0
 40
0.0
 40
0.0
 40
1.0
 40
1.0
 40
1.0
 10
14.62245185943817
 20
-5.87714135957826
 30
0.0
 10
13.33868913679801
 20
-5.833317719863607
 30
0.0
 10
12.05492333661389
 20
-5.761440262542944
 30
0.0
  0
SPLINE
  5
AA0
330
A8B
100
AcDbEntity
  8
FRONT
  6
Continuous
 62
     4
100
AcDbSpline
210
0.0
220
0.0
230
1.0
 70
     8
 71
     2
 72
     6
 73
     3
 74
     0
 42
0.0000000001
 43
0.0000000001
 40
0.0
 40
0.0
 40
0.0
 40
1.0
 40
1.0
 40
1.0
 10
12.03715634521592
 20
-5.830492901738484
 30
0.0
 10
12.99283696601092
 20
-5.878254479706018
 30
0.0
 10
13.94849592177253
 20
-5.91037423780608
 30
0.0
  0
SPLINE
  5
AA1
330
A8B
100
AcDbEntity
  8
FRONT
  6
Continuous
 62
     4
100
AcDbSpline
210
0.0
220
0.0
230
1.0
 70
     8
 71
     3
 72
    10
 73
     6
 74
     0
 42
0.0000000001
 43
0.0000000001
 40
0.0
 40
0.0
 40
0.0
 40
0.0
 40
0.413998097170399
 40
0.8317102975705793
 40
1.0
 40
1.0
 40
1.0
 40
1.0
 10
13.65251602410751
 20
-5.651687726725348
 30
0.0
 10
13.45228491644905
 20
-5.637638509379486
 30
0.0
 10
13.05861779128649
 20
-5.600401635138268
 30
0.0
 10
12.59642516693621
 20
-5.539019558091951
 30
0.0
 10
12.34205829435077
 20
-5.489820631199273
 30
0.0
 10
12.2699596882263
 20
-5.474819161767424
 30
0.0
  0
SPLINE
  5
AA2
330
A8B
100
AcDbEntity
  8
FRONT
  6
Continuous
 62
     4
100
AcDbSpline
210
0.0
220
0.0
230
1.0
 70
     8
 71
     2
 72
     6
 73
     3
 74
     0
 42
0.0000000001
 43
0.0000000001
 40
0.0
 40
0.0
 40
0.0
 40
1.0
 40
1.0
 40
1.0
 10
13.61429623476742
 20
-5.667122247227887
 30
0.0
 10
12.88790047388035
 20
-5.627861963387118
 30
0.0
 10
12.16152824195172
 20
-5.579846203347781
 30
0.0
  0
SPLINE
  5
AA3
330
A8B
100
AcDbEntity
  8
FRONT
  6
Continuous
 62
     4
100
AcDbSpline
210
0.0
220
0.0
230
1.0
 70
     8
 71
     2
 72
     6
 73
     3
 74
     0
 42
0.0000000001
 43
0.0000000001
 40
0.0
 40
0.0
 40
0.0
 40
1.0
 40
1.0
 40
1.0
 10
17.4863838813945
 20
-5.914121941707048
 30
0.0
 10
14.77806455657193
 20
-5.88204522422477
 30
0.0
 10
12.06951141172709
 20
-5.72451506620573
 30
0.0
  0
SPLINE
  5
AA4
330
A8B
100
AcDbEntity
  8
FRONT
  6
Continuous
 62
     4
100
AcDbSpline
210
0.0
220
0.0
230
1.0
 70
     8
 71
     3
 72
    13
 73
     9
 74
     0
 42
0.0000000001
 43
0.0000000001
 40
0.0
 40
0.0
 40
0.0
 40
0.0
 40
0.1221948788939986
 40
0.3409322576720923
 40
0.5593089850044601
 40
0.7634079375909129
 40
0.9483404453246466
 40
1.0
 40
1.0
 40
1.0
 40
1.0
 10
13.21765994700341
 20
-5.008998841068255
 30
0.0
 10
13.21008985781698
 20
-4.986912363625971
 30
0.0
 10
13.17823433448347
 20
-4.926841776453724
 30
0.0
 10
13.07361191277297
 20
-4.829791137456386
 30
0.0
 10
12.88884659553877
 20
-4.74181959386623
 30
0.0
 10
12.67056256702776
 20
-4.697037384916851
 30
0.0
 10
12.50187045502288
 20
-4.699685032400541
 30
0.0
 10
12.41657811424804
 20
-4.712092428703162
 30
0.0
 10
12.39802525781035
 20
-4.715335514293908
 30
0.0
  0
ELLIPSE
  5
AA5
330
A8B
100
AcDbEntity
  8
FRONT
  6
Continuous
 62
     4
100
AcDbEllipse
 10
5.66201983816218
 20
-0.0000000000335509
 30
0.0
 11
-30.04133316929991
 21
2.588839177181582
 31
0.0
210
0.0
220
0.0
230
1.0
 40
0.1615314150625295
 41
1.478397138584063
 42
1.769839153165509
  0
SPLINE
  5
AA6
330
A8B
100
AcDbEntity
  8
FRONT
  6
Continuous
 62
     4
100
AcDbSpline
210
0.0
220
0.0
230
1.0
 70
     8
 71
     3
 72
    13
 73
     9
 74
     0
 42
0.0000000001
 43
0.0000000001
 40
0.0
 40
0.0
 40
0.0
 40
0.0
 40
0.111195031304195
 40
0.2657804119641697
 40
0.4822058427557557
 40
0.6989752890855822
 40
0.9172035917595028
 40
1.0
 40
1.0
 40
1.0
 40
1.0
 10
1.345325372781968
 20
-5.499999327115823
 30
0.0
 10
1.398511539679659
 20
-5.499310768582706
 30
0.0
 10
1.538983733379424
 20
-5.487567585039426
 30
0.0
 10
1.854584013762764
 20
-5.418189805484521
 30
0.0
 10
2.329371189940173
 20
-5.271647579637816
 30
0.0
 10
2.940699872587572
 20
-5.059593436719063
 30
0.0
 10
3.480267253473383
 20
-4.873448667483954
 30
0.0
 10
3.808123122364646
 20
-4.762436312820168
 30
0.0
 10
3.899607151901193
 20
-4.731554934786731
 30
0.0
  0
LINE
  5
AA7
330
A8B
100
AcDbEntity
  8
FRONT
  6
Continuous
 62
     4
100
AcDbLine
 10
0.8660254037844552
 20
-5.5
 30
0.0
 11
1.352746725880145
 21
-5.5
 31
0.0
  0
ELLIPSE
  5
AA8
330
A8B
100
AcDbEntity
  8
FRONT
  6
Continuous
 62
     4
100
AcDbEllipse
 10
12.00000899116139
 20
-16.06832890666516
 30
0.0
 11
-14.85880604145566
 21
5.93421040515988
 31
0.0
210
0.0
220
0.0
230
1.0
 40
0.8742329960678898
 41
5.792900081455464
 42
5.811533204192437
  0
SPLINE
  5
AA9
330
A8B
100
AcDbEntity
  8
FRONT
  6
Continuous
 62
     4
100
AcDbSpline
210
0.0
220
0.0
230
1.0
 70
     8
 71
     3
 72
    13
 73
     9
 74
     0
 42
0.0000000001
 43
0.0000000001
 40
0.0
 40
0.0
 40
0.0
 40
0.0
 40
0.0708887435082171
 40
0.2571724611284706
 40
0.5329963062952721
 40
0.7291217371113851
 40
0.9254339909461146
 40
1.0
 40
1.0
 40
1.0
 40
1.0
 10
1.195562502632583
 20
-4.790625489461174
 30
0.0
 10
1.213912861725795
 20
-4.776794773960335
 30
0.0
 10
1.285762723978912
 20
-4.729112862436839
 30
0.0
 10
1.488346843837938
 20
-4.648305888484085
 30
0.0
 10
1.783730465684264
 20
-4.592365381939607
 30
0.0
 10
2.095253569585678
 20
-4.572953003185091
 30
0.0
 10
2.314409026134284
 20
-4.578924439658588
 30
0.0
 10
2.439434992623304
 20
-4.589560477122677
 30
0.0
 10
2.473778129000645
 20
-4.593052498405127
 30
0.0
  0
SPLINE
  5
AAA
330
A8B
100
AcDbEntity
  8
FRONT
  6
Continuous
 62
     4
100
AcDbSpline
210
0.0
220
0.0
230
1.0
 70
     8
 71
     2
 72
     6
 73
     3
 74
     0
 42
0.0000000001
 43
0.0000000001
 40
0.0
 40
0.0
 40
0.0
 40
1.0
 40
1.0
 40
1.0
 10
1.120663577351435
 20
-4.879877191273159
 30
0.0
 10
1.140463196528336
 20
-4.83298467063259
 30
0.0
 10
1.195562502632583
 20
-4.790625489461174
 30
0.0
  0
SPLINE
  5
AAB
330
A8B
100
AcDbEntity
  8
FRONT
  6
Continuous
 62
     4
100
AcDbSpline
210
0.0
220
0.0
230
1.0
 70
     8
 71
     3
 72
    12
 73
     8
 74
     0
 42
0.0000000001
 43
0.0000000001
 40
0.0
 40
0.0
 40
0.0
 40
0.0
 40
0.2338452144524324
 40
0.4675970184665896
 40
0.701762765663897
 40
0.9359711320872667
 40
1.0
 40
1.0
 40
1.0
 40
1.0
 10
1.120663577351435
 20
-4.879877191273159
 30
0.0
 10
1.081791927506593
 20
-4.975462956792688
 30
0.0
 10
1.030111601870139
 20
-5.144886500420123
 30
0.0
 10
1.027342870416914
 20
-5.338220270821794
 30
0.0
 10
1.109594465876227
 20
-5.457981564958576
 30
0.0
 10
1.233664404095364
 20
-5.496508749567235
 30
0.0
 10
1.324763405221041
 20
-5.50007654266059
 30
0.0
 10
1.345325372781968
 20
-5.499999327115823
 30
0.0
  0
LINE
  5
AAC
330
A8B
100
AcDbEntity
  8
FRONT
  6
Continuous
 62
     4
100
AcDbLine
 10
12.26430749227676
 20
-4.727059865963761
 30
0.0
 11
12.29104950531358
 21
-4.894695500397101
 31
0.0
  0
LINE
  5
AAD
330
A8B
100
AcDbEntity
  8
FRONT
  6
Continuous
 62
     4
100
AcDbLine
 10
12.05195883253294
 20
-5.282066276975115
 30
0.0
 11
12.07142987167434
 21
-5.257090327121177
 31
0.0
  0
LINE
  5
AAE
330
A8B
100
AcDbEntity
  8
FRONT
  6
Continuous
 62
     4
100
AcDbLine
 10
11.73862963750702
 20
-5.461687541797807
 30
0.0
 11
11.75466693733003
 21
-5.546759538624929
 31
0.0
  0
LINE
  5
AAF
330
A8B
100
AcDbEntity
  8
FRONT
  6
Continuous
 62
     4
100
AcDbLine
 10
12.37475758366253
 20
-4.718713550200846
 30
0.0
 11
12.3980252578104
 21
-4.864569859230441
 31
0.0
  0
LINE
  5
AB0
330
A8B
100
AcDbEntity
  8
FRONT
  6
Continuous
 62
     4
100
AcDbLine
 10
12.29104950531358
 20
-4.894695500397101
 30
0.0
 11
12.30173417735763
 21
-4.961673695881327
 31
0.0
  0
LINE
  5
AB1
330
A8B
100
AcDbEntity
  8
FRONT
  6
Continuous
 62
     4
100
AcDbLine
 10
12.1154520297858
 20
-5.200622092145676
 30
0.0
 11
12.30173417735763
 21
-4.961673695881327
 31
0.0
  0
ELLIPSE
  5
AB2
330
A8B
100
AcDbEntity
  8
FRONT
  6
Continuous
 62
     4
100
AcDbEllipse
 10
12.16010065627367
 20
-5.364110026768818
 30
0.0
 11
-0.1629665045002963
 21
0.162301935942986
 31
0.0
210
0.0
220
0.0
230
1.0
 40
0.885395213116765
 41
0.9406572002840926
 42
2.300026522294225
  0
ELLIPSE
  5
AB3
330
A8B
100
AcDbEntity
  8
FRONT
  6
Continuous
 62
     4
100
AcDbEllipse
 10
10.7327861538169
 20
-6.237521875482824
 30
0.0
 11
-0.1862107868856989
 21
2.621605320212951
 31
0.0
210
0.0
220
0.0
230
0.9999999999999998
 40
0.4178728177031461
 41
4.983018135371414
 42
5.015339106062617
  0
ELLIPSE
  5
AB4
330
A8B
100
AcDbEntity
  8
FRONT
  6
Continuous
 62
     4
100
AcDbEllipse
 10
10.87421353467201
 20
-0.0952172533848828
 30
0.0
 11
-0.6453609818231091
 21
5.423953475707063
 31
0.0
210
0.0
220
0.0
230
1.0
 40
0.4002139493379774
 41
3.301152841311651
 42
3.433631365786768
  0
ELLIPSE
  5
AB5
330
A8B
100
AcDbEntity
  8
FRONT
  6
Continuous
 62
     4
100
AcDbEllipse
 10
12.05114473010541
 20
-5.545182037602573
 30
0.0
 11
-0.2141351294070844
 21
0.0839413268520247
 31
0.0
210
0.0
220
0.0
230
1.0
 40
0.7465216560962231
 41
0.5997695972309498
 42
1.937897467873524
  0
ELLIPSE
  5
AB6
330
A8B
100
AcDbEntity
  8
FRONT
  6
Continuous
 62
     4
100
AcDbEllipse
 10
12.05060526702193
 20
-5.546128395411039
 30
0.0
 11
-0.1654325527084979
 21
0.1597875793175752
 31
0.0
210
0.0
220
0.0
230
1.0
 40
0.882922871075139
 41
0.9271183505009291
 42
2.296772776618916
  0
ELLIPSE
  5
AB7
330
A8B
100
AcDbEntity
  8
FRONT
  6
Continuous
 62
     4
100
AcDbEllipse
 10
12.29961961995718
 20
-4.878644087818582
 30
0.0
 11
-0.0987513760092463
 21
-0.0157532770020267
 31
0.0
210
0.0
220
0.0
230
1.0
 40
0.1458931740710974
 41
1.460656485145534
 42
3.031452811938669
  0
ELLIPSE
  5
AB8
330
A8B
100
AcDbEntity
  8
FRONT
  6
Continuous
 62
     4
100
AcDbEllipse
 10
335.219081173506
 20
-27.65352952608379
 30
0.0
 11
-342.1452092599433
 21
28.7644353191734
 31
0.0
210
0.0
220
0.0
230
1.0
 40
0.0434239235819959
 41
0.3305623080092169
 42
0.336553522992711
  0
ELLIPSE
  5
AB9
330
A8B
100
AcDbEntity
  8
FRONT
  6
Continuous
 62
     4
100
AcDbEllipse
 10
12.61274556700008
 20
-7.087755426446605
 30
0.0
 11
-0.6874421685867658
 21
4.776216476972511
 31
0.0
210
0.0
220
0.0
230
1.0
 40
0.0505508379540167
 41
1.059760007862942
 42
1.160653432741368
  0
SPLINE
  5
ABA
330
A8B
100
AcDbEntity
  8
FRONT
  6
Continuous
 62
     4
100
AcDbSpline
210
0.0
220
0.0
230
1.0
 70
    24
 71
     1
 72
     4
 73
     2
 74
     0
 42
0.0000000001
 43
0.0000000001
 40
0.0
 40
0.0
 40
1.0
 40
1.0
 10
11.83847321585812
 20
-5.567069085629718
 30
0.0
 10
11.83901267894247
 20
-5.566122727825887
 30
0.0
  0
SPLINE
  5
ABB
330
A8B
100
AcDbEntity
  8
FRONT
  6
Continuous
 62
     4
100
AcDbSpline
210
0.0
220
0.0
230
1.0
 70
     8
 71
     3
 72
    12
 73
     8
 74
     0
 42
0.0000000001
 43
0.0000000001
 40
0.0
 40
0.0
 40
0.0
 40
0.0
 40
0.0007970805857311
 40
0.2615790368690925
 40
0.5223632910078863
 40
0.9992029194147567
 40
1.0
 40
1.0
 40
1.0
 40
1.0
 10
12.06951141172706
 20
-5.72451506620573
 30
0.0
 10
12.06948314701705
 20
-5.724610988602324
 30
0.0
 10
12.06830139779342
 20
-5.728621512447585
 30
0.0
 10
12.06584538067532
 20
-5.73637821965794
 30
0.0
 10
12.0610158647334
 20
-5.749472267031435
 30
0.0
 10
12.05732682921892
 20
-5.75726605425465
 30
0.0
 10
12.05497323553964
 20
-5.761353601725923
 30
0.0
 10
12.05492333661389
 20
-5.761440262542944
 30
0.0
  0
SPLINE
  5
ABC
330
A8B
100
AcDbEntity
  8
FRONT
  6
Continuous
 62
     4
100
AcDbSpline
210
0.0
220
0.0
230
1.0
 70
    24
 71
     1
 72
     4
 73
     2
 74
     0
 42
0.0000000001
 43
0.0000000001
 40
0.0
 40
0.0
 40
1.0
 40
1.0
 10
11.77084472479986
 20
-5.637701490563106
 30
0.0
 10
11.83847321585812
 20
-5.567069085629722
 30
0.0
  0
SPLINE
  5
ABD
330
A8B
100
AcDbEntity
  8
FRONT
  6
Continuous
 62
     4
100
AcDbSpline
210
0.0
220
0.0
230
1.0
 70
     8
 71
     2
 72
     6
 73
     3
 74
     0
 42
0.0000000001
 43
0.0000000001
 40
0.0
 40
0.0
 40
0.0
 40
1.0
 40
1.0
 40
1.0
 10
12.26612713977722
 20
-5.47418946266737
 30
0.0
 10
12.21369198338541
 20
-5.526401979383564
 30
0.0
 10
12.16152824195172
 20
-5.579846203347781
 30
0.0
  0
SPLINE
  5
ABE
330
A8B
100
AcDbEntity
  8
FRONT
  6
Continuous
 62
     4
100
AcDbSpline
210
0.0
220
0.0
230
1.0
 70
    24
 71
     1
 72
     4
 73
     2
 74
     0
 42
0.0000000001
 43
0.0000000001
 40
0.0
 40
0.0
 40
1.0
 40
1.0
 10
12.2699596882263
 20
-5.474819161767427
 30
0.0
 10
12.26612713977731
 20
-5.47418946266733
 30
0.0
  0
SPLINE
  5
ABF
330
A8B
100
AcDbEntity
  8
FRONT
  6
Continuous
 62
     4
100
AcDbSpline
210
0.0
220
0.0
230
1.0
 70
    24
 71
     1
 72
     4
 73
     2
 74
     0
 42
0.0000000001
 43
0.0000000001
 40
0.0
 40
0.0
 40
1.0
 40
1.0
 10
11.75466693733006
 20
-5.546759538624929
 30
0.0
 10
11.77084472479986
 20
-5.637701490563197
 30
0.0
  0
SPLINE
  5
AC0
330
A8B
100
AcDbEntity
  8
FRONT
  6
Continuous
 62
     4
100
AcDbSpline
210
0.0
220
0.0
230
1.0
 70
     8
 71
     3
 72
    12
 73
     8
 74
     0
 42
0.0000000001
 43
0.0000000001
 40
0.0
 40
0.0
 40
0.0
 40
0.0
 40
0.0001979715625893
 40
0.3804243462904076
 40
0.6884015213626393
 40
0.9998020284374039
 40
1.0
 40
1.0
 40
1.0
 40
1.0
 10
12.16152824195172
 20
-5.579846203347781
 30
0.0
 10
12.16145494845797
 20
-5.579914233221867
 30
0.0
 10
12.14800020764509
 20
-5.592402712335362
 30
0.0
 10
12.12460907423586
 20
-5.619318961954996
 30
0.0
 10
12.09413125687514
 20
-5.668815656959997
 30
0.0
 10
12.07735989436437
 20
-5.705022480727572
 30
0.0
 10
12.06954876176722
 20
-5.72442230320394
 30
0.0
 10
12.06951141172706
 20
-5.72451506620573
 30
0.0
  0
SPLINE
  5
AC1
330
A8B
100
AcDbEntity
  8
FRONT
  6
Continuous
 62
     4
100
AcDbSpline
210
0.0
220
0.0
230
1.0
 70
     8
 71
     3
 72
    11
 73
     7
 74
     0
 42
0.0000000001
 43
0.0000000001
 40
0.0
 40
0.0
 40
0.0
 40
0.0
 40
0.0003046676542752
 40
0.2859486271382446
 40
0.5715925864685599
 40
1.0
 40
1.0
 40
1.0
 40
1.0
 10
12.05492333661392
 20
-5.761440262542944
 30
0.0
 10
12.05485458948857
 20
-5.761512883702093
 30
0.0
 10
12.04890508266609
 20
-5.767797656751879
 30
0.0
 10
12.0368932920704
 20
-5.780516646112557
 30
0.0
 10
12.01590433567814
 20
-5.802847200540763
 30
0.0
 10
12.00092977263713
 20
-5.818873351337892
 30
0.0
 10
11.99195171433706
 20
-5.82851593948345
 30
0.0
  0
SPLINE
  5
AC2
330
A8B
100
AcDbEntity
  8
FRONT
  6
Continuous
 62
     4
100
AcDbSpline
210
0.0
220
0.0
230
1.0
 70
     8
 71
     3
 72
    10
 73
     6
 74
     0
 42
0.0000000001
 43
0.0000000001
 40
0.0
 40
0.0
 40
0.0
 40
0.0
 40
0.3783609825527917
 40
0.8357001481048397
 40
1.0
 40
1.0
 40
1.0
 40
1.0
 10
11.92547454029552
 20
-4.97636464574548
 30
0.0
 10
11.92640289606277
 20
-5.008713239544544
 30
0.0
 10
11.9475704542029
 20
-5.078030220539246
 30
0.0
 10
12.02773237930664
 20
-5.158970478124096
 30
0.0
 10
12.09728872776178
 20
-5.203611051795411
 30
0.0
 10
12.11721712142133
 20
-5.215153759323888
 30
0.0
  0
SPLINE
  5
AC3
330
A8B
100
AcDbEntity
  8
FRONT
  6
Continuous
 62
     4
100
AcDbSpline
210
0.0
220
0.0
230
1.0
 70
    24
 71
     1
 72
     4
 73
     2
 74
     0
 42
0.0000000001
 43
0.0000000001
 40
0.0
 40
0.0
 40
1.0
 40
1.0
 10
11.99195171433702
 20
-5.828515939483446
 30
0.0
 10
12.03715635432748
 20
-5.830493677100303
 30
0.0
  0
SPLINE
  5
AC4
330
A8B
100
AcDbEntity
  8
FRONT
  6
Continuous
 62
     4
100
AcDbSpline
210
0.0
220
0.0
230
1.0
 70
    24
 71
     1
 72
     4
 73
     2
 74
     0
 42
0.0000000001
 43
0.0000000001
 40
0.0
 40
0.0
 40
1.0
 40
1.0
 10
11.83901267894153
 20
-5.566122727821471
 30
0.0
 10
11.9479686051097
 20
-5.385050716987656
 30
0.0
  0
SPLINE
  5
AC5
330
A8B
100
AcDbEntity
  8
FRONT
  6
Continuous
 62
     4
100
AcDbSpline
210
0.0
220
0.0
230
1.0
 70
    24
 71
     1
 72
     4
 73
     2
 74
     0
 42
0.0000000001
 43
0.0000000001
 40
0.0
 40
0.0
 40
1.0
 40
1.0
 10
11.9479686051097
 20
-5.385050716987656
 30
0.0
 10
12.05195883253294
 20
-5.282066276975115
 30
0.0
  0
SPLINE
  5
AC6
330
A8B
100
AcDbEntity
  8
FRONT
  6
Continuous
 62
     4
100
AcDbSpline
210
0.0
220
0.0
230
1.0
 70
     8
 71
     3
 72
    12
 73
     8
 74
     0
 42
0.0000000001
 43
0.0000000001
 40
0.0
 40
0.0
 40
0.0
 40
0.0
 40
0.2440298709825522
 40
0.488120310074948
 40
0.7306421972591243
 40
0.9701993202335991
 40
1.0
 40
1.0
 40
1.0
 40
1.0
 10
11.99195171433709
 20
-5.82851593948345
 30
0.0
 10
11.96562176469131
 20
-5.827267267325022
 30
0.0
 10
11.91614572163951
 20
-5.817153042582487
 30
0.0
 10
11.84798307522928
 20
-5.777355599814407
 30
0.0
 10
11.79694752140735
 20
-5.718879229510209
 30
0.0
 10
11.77656470249855
 20
-5.668220081294727
 30
0.0
 10
11.77135854082036
 20
-5.640760675661914
 30
0.0
 10
11.77084472479986
 20
-5.637701490563109
 30
0.0
  0
SPLINE
  5
AC7
330
A8B
100
AcDbEntity
  8
FRONT
  6
Continuous
 62
     4
100
AcDbSpline
210
0.0
220
0.0
230
1.0
 70
     8
 71
     3
 72
    12
 73
     8
 74
     0
 42
0.0000000001
 43
0.0000000001
 40
0.0
 40
0.0
 40
0.0
 40
0.0
 40
0.2494158432111992
 40
0.4988262431130359
 40
0.7483784991253286
 40
0.9306372409059042
 40
1.0
 40
1.0
 40
1.0
 40
1.0
 10
12.26612713977725
 20
-5.474189462667368
 30
0.0
 10
12.24074389915803
 20
-5.470905762207362
 30
0.0
 10
12.19300726095426
 20
-5.45734271395117
 30
0.0
 10
12.12696856456717
 20
-5.413990106048153
 30
0.0
 10
12.08152368192698
 20
-5.359081947772208
 30
0.0
 10
12.0601917046491
 20
-5.312655749461065
 30
0.0
 10
12.05351014507608
 20
-5.288741533352951
 30
0.0
 10
12.05195883253294
 20
-5.282066276975186
 30
0.0
  0
SPLINE
  5
AC8
330
A8B
100
AcDbEntity
  8
FRONT
  6
Continuous
 62
     4
100
AcDbSpline
210
0.0
220
0.0
230
1.0
 70
     8
 71
     3
 72
    12
 73
     8
 74
     0
 42
0.0000000001
 43
0.0000000001
 40
0.0
 40
0.0
 40
0.0
 40
0.0
 40
0.2310224464948759
 40
0.4620128681126269
 40
0.700559328220569
 40
0.9585437245442095
 40
1.0
 40
1.0
 40
1.0
 40
1.0
 10
12.39802525781044
 20
-4.715335514294038
 30
0.0
 10
12.33170953226865
 20
-4.714864780624963
 30
0.0
 10
12.21155122598614
 20
-4.724956838763255
 30
0.0
 10
12.06026597347468
 20
-4.778355069166565
 30
0.0
 10
11.95757756141464
 20
-4.859331154412664
 30
0.0
 10
11.92685169980244
 20
-4.930597414275522
 30
0.0
 10
11.92538238415322
 20
-4.970764610147099
 30
0.0
 10
11.92547454029552
 20
-4.97636464574548
 30
0.0
  0
LINE
  5
AC9
330
A8B
100
AcDbEntity
  8
FRONT
  6
Continuous
 62
     4
100
AcDbLine
 10
15.84223636732298
 20
-3.792713428712794
 30
0.0
 11
15.84224378306065
 21
-3.174912246999863
 31
0.0
  0
LINE
  5
ACA
330
A8B
100
AcDbEntity
  8
FRONT
  6
Continuous
 62
     4
100
AcDbLine
 10
17.89827503693186
 20
-4.305849194799658
 30
0.0
 11
17.5908596611797
 21
-2.933128552700321
 31
0.0
  0
ELLIPSE
  5
ACB
330
A8B
100
AcDbEntity
  8
FRONT
  6
Continuous
 62
     4
100
AcDbEllipse
 10
15.54074239609756
 20
-0.0033845369197216
 30
0.0
 11
-0.0787240753221909
 21
-5.634958844023342
 31
0.0
210
0.0
220
0.0
230
0.9999999999999998
 40
0.0848761530590921
 41
0.8344445634990043
 42
0.9971121243690364
  0
ELLIPSE
  5
ACC
330
A8B
100
AcDbEntity
  8
FRONT
  6
Continuous
 62
     4
100
AcDbEllipse
 10
14.84592289431094
 20
-3.161093469702696
 30
0.0
 11
-0.7939253072066414
 21
0.4238898519389809
 31
0.0
210
0.0
220
0.0
230
1.0
 40
0.9833059182791441
 41
3.141592653589792
 42
6.283185307179584
  0
ELLIPSE
  5
ACD
330
A8B
100
AcDbEntity
  8
FRONT
  6
Continuous
 62
     4
100
AcDbEllipse
 10
14.82057983206995
 20
-3.208559806495621
 30
0.0
 11
-0.6124566485468032
 21
0.3270007338409036
 31
0.0
210
0.0
220
0.0
230
1.0
 40
0.9833059182791558
 41
0.0
 42
6.283185307179584
  0
ELLIPSE
  5
ACE
330
A8B
100
AcDbEntity
  8
FRONT
  6
Continuous
 62
     4
100
AcDbEllipse
 10
13.53332915049316
 20
-0.0034367749653255
 30
0.0
 11
-0.0799385486845723
 21
-5.721889020223127
 31
0.0
210
0.0
220
0.0
230
0.9999999999999998
 40
0.0848761529690107
 41
0.8609885795557556
 42
1.010813097306143
  0
ELLIPSE
  5
ACF
330
A8B
100
AcDbEntity
  8
FRONT
  6
Continuous
 62
     4
100
AcDbEllipse
 10
14.84592289431431
 20
-3.161093469702228
 30
0.0
 11
-0.793925307234311
 21
0.42388985189299
 31
0.0
210
0.0
220
0.0
230
1.0
 40
0.9833059182785405
 41
0.0
 42
1.217655899238259
  0
ELLIPSE
  5
AD0
330
A8B
100
AcDbEntity
  8
FRONT
  6
Continuous
 62
     4
100
AcDbEllipse
 10
14.80294988243549
 20
-3.241579854311311
 30
0.0
 11
-0.7939252851528728
 21
0.4238898401648104
 31
0.0
210
0.0
220
0.0
230
1.0
 40
0.9833059182791334
 41
3.193165641446312
 42
5.213279965006496
  0
LINE
  5
AD1
330
A8B
100
AcDbEntity
  8
FRONT
  6
Continuous
 62
     4
100
AcDbLine
 10
12.59147932455181
 20
-5.148581112793888
 30
0.0
 11
16.67361660422962
 21
-5.134616718352519
 31
0.0
  0
ELLIPSE
  5
AD2
330
A8B
100
AcDbEntity
  8
FRONT
  6
Continuous
 62
     4
100
AcDbEllipse
 10
14.84592289572717
 20
-3.161093470714305
 30
0.0
 11
-0.7939253088795834
 21
0.4238898451415228
 31
0.0
210
0.0
220
0.0
230
0.9999999999999998
 40
0.9833059192021876
 41
2.862822081785346
 42
3.141592646178711
  0
ELLIPSE
  5
AD3
330
A8B
100
AcDbEntity
  8
FRONT
  6
Continuous
 62
     4
100
AcDbEllipse
 10
26.03145212602744
 20
0.4201256460465415
 30
0.0
 11
-60.22774572573949
 21
0.8391642046853387
 31
0.0
210
0.0
220
0.0
230
1.0
 40
0.0733360947234748
 41
1.395961454238489
 42
1.401822529636017
  0
ELLIPSE
  5
AD4
330
A8B
100
AcDbEntity
  8
FRONT
  6
Continuous
 62
     4
100
AcDbEllipse
 10
-2.102243007827921
 20
0.5190125394426035
 30
0.0
 11
-74.39203540301211
 21
1.036502535843046
 31
0.0
210
0.0
220
0.0
230
1.0
 40
0.0733366707427299
 41
1.786532921110053
 42
1.835644438831914
  0
SPLINE
  5
AD5
330
A8B
100
AcDbEntity
  8
FRONT
  6
Continuous
 62
     4
100
AcDbSpline
210
0.0
220
0.0
230
1.0
 70
    24
 71
     1
 72
     4
 73
     2
 74
     0
 42
0.0000000001
 43
0.0000000001
 40
0.0
 40
0.0
 40
1.0
 40
1.0
 10
17.59489872014192
 20
-5.975264142052814
 30
0.0
 10
14.60613712230076
 20
-5.930601946215396
 30
0.0
  0
SPLINE
  5
AD6
330
A8B
100
AcDbEntity
  8
FRONT
  6
Continuous
 62
     4
100
AcDbSpline
210
0.0
220
0.0
230
1.0
 70
     8
 71
     2
 72
     6
 73
     3
 74
     0
 42
0.0000000001
 43
0.0000000001
 40
0.0
 40
0.0
 40
0.0
 40
1.0
 40
1.0
 40
1.0
 10
17.53382959937809
 20
-5.939844692875301
 30
0.0
 10
16.07823206326433
 20
-5.926820755708295
 30
0.0
 10
14.62245185943817
 20
-5.87714135957826
 30
0.0
  0
SPLINE
  5
AD7
330
A8B
100
AcDbEntity
  8
FRONT
  6
Continuous
 62
     4
100
AcDbSpline
210
0.0
220
0.0
230
1.0
 70
    24
 71
     1
 72
     4
 73
     2
 74
     0
 42
0.0000000001
 43
0.0000000001
 40
0.0
 40
0.0
 40
1.0
 40
1.0
 10
15.13868294684773
 20
-5.711454223476931
 30
0.0
 10
17.25016942408504
 20
-5.752170042241942
 30
0.0
  0
SPLINE
  5
AD8
330
A8B
100
AcDbEntity
  8
FRONT
  6
Continuous
 62
     4
100
AcDbSpline
210
0.0
220
0.0
230
1.0
 70
     8
 71
     2
 72
     6
 73
     3
 74
     0
 42
0.0000000001
 43
0.0000000001
 40
0.0
 40
0.0
 40
0.0
 40
1.0
 40
1.0
 40
1.0
 10
17.29538407867861
 20
-5.788382807545392
 30
0.0
 10
16.20626920503309
 20
-5.775330117086896
 30
0.0
 10
15.12493514742535
 20
-5.739186742282312
 30
0.0
  0
SPLINE
  5
AD9
330
A8B
100
AcDbEntity
  8
FRONT
  6
Continuous
 62
     4
100
AcDbSpline
210
0.0
220
0.0
230
1.0
 70
     8
 71
     2
 72
     6
 73
     3
 74
     0
 42
0.0000000001
 43
0.0000000001
 40
0.0
 40
0.0
 40
0.0
 40
1.0
 40
1.0
 40
1.0
 10
17.31289606147389
 20
-5.809345576655007
 30
0.0
 10
16.21894412271205
 20
-5.784442697072787
 30
0.0
 10
15.12493514742539
 20
-5.739186742282306
 30
0.0
  0
LINE
  5
ADA
330
A8B
100
AcDbEntity
  8
FRONT
  6
Continuous
 62
     4
100
AcDbLine
 10
13.21506101770313
 20
-5.031717125328196
 30
0.0
 11
13.70168904333385
 21
-5.030052442043299
 31
0.0
  0
LINE
  5
ADB
330
A8B
100
AcDbEntity
  8
FRONT
  6
Continuous
 62
     4
100
AcDbLine
 10
12.59831180396925
 20
-5.033826934161636
 30
0.0
 11
13.21506101770313
 21
-5.031717125328196
 31
0.0
  0
LINE
  5
ADC
330
A8B
100
AcDbEntity
  8
FRONT
  6
Continuous
 62
     4
100
AcDbLine
 10
12.52411245174376
 20
-5.148811565010388
 30
0.0
 11
12.59147932455181
 21
-5.148581112793888
 31
0.0
  0
LINE
  5
ADD
330
A8B
100
AcDbEntity
  8
FRONT
  6
Continuous
 62
     4
100
AcDbLine
 10
13.73039490001062
 20
-5.644465229015402
 30
0.0
 11
13.65251602410751
 21
-5.651687726725348
 31
0.0
  0
ELLIPSE
  5
ADE
330
A8B
100
AcDbEntity
  8
FRONT
  6
Continuous
 62
     4
100
AcDbEllipse
 10
14.19019065232725
 20
-5.217546069540356
 30
0.0
 11
-0.0261303380478747
 21
-0.4993167493651739
 31
0.0
210
0.0
220
0.0
230
1.0
 40
0.207227326156888
 41
0.293361878369899
 42
0.4309508045600884
  0
ELLIPSE
  5
ADF
330
A8B
100
AcDbEntity
  8
FRONT
  6
Continuous
 62
     4
100
AcDbEllipse
 10
35.35054063342625
 20
0.000151900276844
 30
0.0
 11
-66.41326335410838
 21
0.9269833922146547
 31
0.0
210
0.0
220
0.0
230
1.0
 40
0.0848785527739216
 41
1.232222219062653
 42
1.240685434065807
  0
ELLIPSE
  5
AE0
330
A8B
100
AcDbEntity
  8
FRONT
  6
Continuous
 62
     4
100
AcDbEllipse
 10
15.11920026906091
 20
-5.25552853925582
 30
0.0
 11
-0.0157629108455211
 21
-0.4997514551771808
 31
0.0
210
0.0
220
0.0
230
0.9999999999999996
 40
0.1634163455934212
 41
0.2596728804504972
 42
0.4271027027017509
  0
ELLIPSE
  5
AE1
330
A8B
100
AcDbEntity
  8
FRONT
  6
Continuous
 62
     4
100
AcDbEllipse
 10
26.03106406187677
 20
0.4200021500912944
 30
0.0
 11
-60.22680518323547
 21
0.8391789498204172
 31
0.0
210
0.0
220
0.0
230
1.0
 40
0.073335099090449
 41
1.368153266464279
 42
1.373756158617132
  0
ELLIPSE
  5
AE2
330
A8B
100
AcDbEntity
  8
FRONT
  6
Continuous
 62
     4
100
AcDbEllipse
 10
12.60004943919611
 20
-5.132529700220393
 30
0.0
 11
-0.000342083369458
 21
0.0999994148984049
 31
0.0
210
0.0
220
0.0
230
0.9999999999999998
 40
0.0873785520673491
 41
0.1609135457003019
 42
1.731709872424159
  0
SPLINE
  5
AE3
330
A8B
100
AcDbEntity
  8
FRONT
  6
Continuous
 62
     4
100
AcDbSpline
210
0.0
220
0.0
230
1.0
 70
     8
 71
     3
 72
    10
 73
     6
 74
     0
 42
0.0000000001
 43
0.0000000001
 40
0.0
 40
0.0
 40
0.0
 40
0.0
 40
0.2568958804124872
 40
0.5137917608271178
 40
1.0
 40
1.0
 40
1.0
 40
1.0
 10
14.6061371218886
 20
-5.930601824966093
 30
0.0
 10
14.60753377257093
 20
-5.926009260558598
 30
0.0
 10
14.61032728581661
 20
-5.916831653154844
 30
0.0
 10
14.61576516470299
 20
-5.898998421367481
 30
0.0
 10
14.61980695983203
 20
-5.885777952760061
 30
0.0
 10
14.62245185943814
 20
-5.87714135957826
 30
0.0
  0
SPLINE
  5
AE4
330
A8B
100
AcDbEntity
  8
FRONT
  6
Continuous
 62
     4
100
AcDbSpline
210
0.0
220
0.0
230
1.0
 70
    24
 71
     1
 72
     4
 73
     2
 74
     0
 42
0.0000000001
 43
0.0000000001
 40
0.0
 40
0.0
 40
1.0
 40
1.0
 10
13.65251602410751
 20
-5.651687726725348
 30
0.0
 10
13.57741475365825
 20
-5.65512213110166
 30
0.0
  0
SPLINE
  5
AE5
330
A8B
100
AcDbEntity
  8
FRONT
  6
Continuous
 62
     4
100
AcDbSpline
210
0.0
220
0.0
230
1.0
 70
     8
 71
     3
 72
    15
 73
    11
 74
     0
 42
0.0000000001
 43
0.0000000001
 40
0.0
 40
0.0
 40
0.0
 40
0.0
 40
0.140976339028535
 40
0.2892431856819297
 40
0.4121436114845082
 40
0.5144916745071848
 40
0.6168092444520747
 40
0.7567233522043856
 40
0.9739203035115163
 40
1.0
 40
1.0
 40
1.0
 40
1.0
 10
15.49450213479355
 20
-3.783439226602423
 30
0.0
 10
15.44981998562096
 20
-3.834784754789421
 30
0.0
 10
15.34586240619185
 20
-3.929717956575207
 30
0.0
 10
15.16411478532275
 20
-4.042164088828029
 30
0.0
 10
14.96509713276188
 20
-4.105578478492557
 30
0.0
 10
14.77588171470955
 20
-4.116965143829848
 30
0.0
 10
14.5865234857672
 20
-4.081240257906233
 30
0.0
 10
14.37534379397539
 20
-3.975845413349876
 30
0.0
 10
14.24980172860958
 20
-3.846984870652867
 30
0.0
 10
14.1867895891514
 20
-3.756804337707721
 30
0.0
 10
14.18025452780808
 20
-3.746989982441069
 30
0.0
  0
SPLINE
  5
AE6
330
A8B
100
AcDbEntity
  8
FRONT
  6
Continuous
 62
     4
100
AcDbSpline
210
0.0
220
0.0
230
1.0
 70
    24
 71
     1
 72
     4
 73
     2
 74
     0
 42
0.0000000001
 43
0.0000000001
 40
0.0
 40
0.0
 40
1.0
 40
1.0
 10
13.69211008638281
 20
-5.664088371972116
 30
0.0
 10
13.57741475365825
 20
-5.65512213110166
 30
0.0
  0
SPLINE
  5
AE7
330
A8B
100
AcDbEntity
  8
FRONT
  6
Continuous
 62
     4
100
AcDbSpline
210
0.0
220
0.0
230
1.0
 70
    24
 71
     1
 72
     4
 73
     2
 74
     0
 42
0.0000000001
 43
0.0000000001
 40
0.0
 40
0.0
 40
1.0
 40
1.0
 10
14.19509791486686
 20
-5.697096415954096
 30
0.0
 10
13.67240432655448
 20
-5.670248142954241
 30
0.0
  0
SPLINE
  5
AE8
330
A8B
100
AcDbEntity
  8
FRONT
  6
Continuous
 62
     4
100
AcDbSpline
210
0.0
220
0.0
230
1.0
 70
    24
 71
     1
 72
     4
 73
     2
 74
     0
 42
0.0000000001
 43
0.0000000001
 40
0.0
 40
0.0
 40
1.0
 40
1.0
 10
14.60613712230153
 20
-5.930601946215417
 30
0.0
 10
13.9484959168259
 20
-5.910374237639902
 30
0.0
  0
SPLINE
  5
AE9
330
A8B
100
AcDbEntity
  8
FRONT
  6
Continuous
 62
     4
100
AcDbSpline
210
0.0
220
0.0
230
1.0
 70
    24
 71
     1
 72
     4
 73
     2
 74
     0
 42
0.0000000001
 43
0.0000000001
 40
0.0
 40
0.0
 40
1.0
 40
1.0
 10
13.73039490001062
 20
-5.644465229015402
 30
0.0
 10
14.20967333082538
 20
-5.673471778213071
 30
0.0
  0
SPLINE
  5
AEA
330
A8B
100
AcDbEntity
  8
FRONT
  6
Continuous
 62
     4
100
AcDbSpline
210
0.0
220
0.0
230
1.0
 70
    24
 71
     1
 72
     4
 73
     2
 74
     0
 42
0.0000000001
 43
0.0000000001
 40
0.0
 40
0.0
 40
1.0
 40
1.0
 10
14.19509791486686
 20
-5.697096415954096
 30
0.0
 10
13.69211008638281
 20
-5.664088371972116
 30
0.0
  0
SPLINE
  5
AEB
330
A8B
100
AcDbEntity
  8
FRONT
  6
Continuous
 62
     4
100
AcDbSpline
210
0.0
220
0.0
230
1.0
 70
     8
 71
     3
 72
    11
 73
     7
 74
     0
 42
0.0000000001
 43
0.0000000001
 40
0.0
 40
0.0
 40
0.0
 40
0.0
 40
0.000063183656549
 40
0.6610072159485929
 40
0.9999368181050073
 40
1.0
 40
1.0
 40
1.0
 40
1.0
 10
15.12493514742537
 20
-5.739186742282305
 30
0.0
 10
15.12483521826678
 20
-5.739182978870811
 30
0.0
 10
14.91946003926739
 20
-5.731448386494392
 30
0.0
 10
14.60906890037243
 20
-5.718477412827605
 30
0.0
 10
14.29980413634301
 20
-5.702773299872545
 30
0.0
 10
14.1951977682056
 20
-5.697101829728066
 30
0.0
 10
14.19509791485794
 20
-5.697096415953659
 30
0.0
  0
SPLINE
  5
AEC
330
A8B
100
AcDbEntity
  8
FRONT
  6
Continuous
 62
     4
100
AcDbSpline
210
0.0
220
0.0
230
1.0
 70
    24
 71
     1
 72
     4
 73
     2
 74
     0
 42
0.0000000001
 43
0.0000000001
 40
0.0
 40
0.0
 40
1.0
 40
1.0
 10
14.20967333286792
 20
-5.673471778307494
 30
0.0
 10
15.13868294684773
 20
-5.711454223476938
 30
0.0
  0
SPLINE
  5
AED
330
A8B
100
AcDbEntity
  8
FRONT
  6
Continuous
 62
     4
100
AcDbSpline
210
0.0
220
0.0
230
1.0
 70
    24
 71
     1
 72
     4
 73
     2
 74
     0
 42
0.0000000001
 43
0.0000000001
 40
0.0
 40
0.0
 40
1.0
 40
1.0
 10
13.67240432655448
 20
-5.670248142954241
 30
0.0
 10
13.61429623476742
 20
-5.667122247227887
 30
0.0
  0
LINE
  5
AEE
330
A8B
100
AcDbEntity
  8
FRONT
  6
Continuous
 62
     4
100
AcDbLine
 10
17.94014373270267
 20
-4.696380917179419
 30
0.0
 11
17.94014637934187
 21
-4.697134583006601
 31
0.0
  0
LINE
  5
AEF
330
A8B
100
AcDbEntity
  8
FRONT
  6
Continuous
 62
     4
100
AcDbLine
 10
17.9296204316509
 20
-4.690827415632082
 30
0.0
 11
17.93253772748869
 21
-5.521566331524031
 31
0.0
  0
LINE
  5
AF0
330
A8B
100
AcDbEntity
  8
FRONT
  6
Continuous
 62
     4
100
AcDbLine
 10
17.9955352574119
 20
-4.703931962073951
 30
0.0
 11
17.99860264302532
 21
-5.577410944240646
 31
0.0
  0
LINE
  5
AF1
330
A8B
100
AcDbEntity
  8
FRONT
  6
Continuous
 62
     4
100
AcDbLine
 10
17.58943827622755
 20
-4.872056962875418
 30
0.0
 11
17.58957197281752
 21
-4.91012885081491
 31
0.0
  0
LINE
  5
AF2
330
A8B
100
AcDbEntity
  8
FRONT
  6
Continuous
 62
     4
100
AcDbLine
 10
17.58943827622755
 20
-4.872056962875418
 30
0.0
 11
17.86767576873332
 21
-4.704849480079047
 31
0.0
  0
LINE
  5
AF3
330
A8B
100
AcDbEntity
  8
FRONT
  6
Continuous
 62
     4
100
AcDbLine
 10
17.87708664776414
 20
-4.686615922447828
 30
0.0
 11
17.87984322178274
 21
-5.471587155772794
 31
0.0
  0
LINE
  5
AF4
330
A8B
100
AcDbEntity
  8
FRONT
  6
Continuous
 62
     4
100
AcDbLine
 10
17.94014637934187
 20
-4.697134583006601
 30
0.0
 11
17.94307446467377
 21
-5.53094595129999
 31
0.0
  0
LINE
  5
AF5
330
A8B
100
AcDbEntity
  8
FRONT
  6
Continuous
 62
     4
100
AcDbLine
 10
17.90527073750188
 20
-4.337218884751766
 30
0.0
 11
17.82020488840544
 21
-4.404730119587552
 31
0.0
  0
LINE
  5
AF6
330
A8B
100
AcDbEntity
  8
FRONT
  6
Continuous
 62
     4
100
AcDbLine
 10
17.82020488840544
 20
-4.404730119587552
 30
0.0
 11
17.86767576873332
 21
-4.704849480079047
 31
0.0
  0
LINE
  5
AF7
330
A8B
100
AcDbEntity
  8
FRONT
  6
Continuous
 62
     4
100
AcDbLine
 10
17.57701616247765
 20
-4.794187397985162
 30
0.0
 11
17.48879939540238
 21
-4.241189622687848
 31
0.0
  0
LINE
  5
AF8
330
A8B
100
AcDbEntity
  8
FRONT
  6
Continuous
 62
     4
100
AcDbLine
 10
17.58943827622755
 20
-4.872056962875418
 30
0.0
 11
17.57701616247765
 21
-4.794187397985162
 31
0.0
  0
ELLIPSE
  5
AF9
330
A8B
100
AcDbEntity
  8
FRONT
  6
Continuous
 62
     4
100
AcDbEllipse
 10
17.28179924891806
 20
-4.836410083749438
 30
0.0
 11
-0.2646417690684293
 21
0.1412966173143831
 31
0.0
210
0.0
220
0.0
230
1.0
 40
0.9833059182785888
 41
2.071687311421134
 42
3.782109978374953
  0
ELLIPSE
  5
AFA
330
A8B
100
AcDbEntity
  8
FRONT
  6
Continuous
 62
     4
100
AcDbEllipse
 10
18.78976301780029
 20
-4.225196264847973
 30
0.0
 11
-0.9665041965168652
 21
0.3765818908141549
 31
0.0
210
0.0
220
0.0
230
0.9999999999999998
 40
0.8498862410049405
 41
0.6298734289431917
 42
0.7760221204517431
  0
ELLIPSE
  5
AFB
330
A8B
100
AcDbEntity
  8
FRONT
  6
Continuous
 62
     4
100
AcDbEllipse
 10
17.29036936377426
 20
-4.820358671225433
 30
0.0
 11
-0.1764278450464169
 21
0.094197746298221
 31
0.0
210
0.0
220
0.0
230
1.0
 40
0.9833059187880415
 41
3.524855636639208
 42
3.716574258287971
  0
ELLIPSE
  5
AFC
330
A8B
100
AcDbEntity
  8
FRONT
  6
Continuous
 62
     4
100
AcDbEllipse
 10
17.43752785348189
 20
-3.994735409268031
 30
0.0
 11
-0.6378505702784448
 21
2.576726862152773
 31
0.0
210
0.0
220
0.0
230
1.0
 40
0.1420514033894129
 41
4.544013824159174
 42
4.556279548729346
  0
ELLIPSE
  5
AFD
330
A8B
100
AcDbEntity
  8
FRONT
  6
Continuous
 62
     4
100
AcDbEllipse
 10
17.29558226924102
 20
-5.116466969333043
 30
0.0
 11
-0.0003420833691217
 21
0.0999994148939525
 31
0.0
210
0.0
220
0.0
230
1.0
 40
0.0873785520668444
 41
0.1609135456945704
 42
1.732484486224235
  0
ELLIPSE
  5
AFE
330
A8B
100
AcDbEntity
  8
FRONT
  6
Continuous
 62
     4
100
AcDbEllipse
 10
17.91251036989776
 20
1.921767689627283
 30
0.0
 11
-0.2231549673139982
 21
7.545048101838847
 31
0.0
210
0.0
220
0.0
230
1.0
 40
0.1565419392169584
 41
2.98028837913766
 42
3.026543021602508
  0
ELLIPSE
  5
AFF
330
A8B
100
AcDbEntity
  8
FRONT
  6
Continuous
 62
     4
100
AcDbEllipse
 10
17.74265415408251
 20
-4.702133472814753
 30
0.0
 11
-0.1999999433238031
 21
-0.0001525554653821
 31
0.0
210
0.0
220
0.0
230
1.0
 40
0.1775485647405439
 41
3.300064853530633
 42
3.503329043719288
  0
ELLIPSE
  5
B00
330
A8B
100
AcDbEntity
  8
FRONT
  6
Continuous
 62
     4
100
AcDbEllipse
 10
17.58558627712221
 20
-4.778135985406353
 30
0.0
 11
-0.0987513760100169
 21
-0.0157532770022912
 31
0.0
210
0.0
220
0.0
230
1.0
 40
0.1458931740712325
 41
0.1778612733484125
 42
1.460656485136271
  0
ELLIPSE
  5
B01
330
A8B
100
AcDbEntity
  8
FRONT
  6
Continuous
 62
     4
100
AcDbEllipse
 10
67.64350291379154
 20
34.55023588267693
 30
0.0
 11
-52.91333538115097
 21
-41.25130454679958
 31
0.0
210
0.0
220
0.0
230
1.0
 40
0.0120306976498371
 41
0.3393916290940456
 42
0.3422858615911428
  0
ELLIPSE
  5
B02
330
A8B
100
AcDbEntity
  8
FRONT
  6
Continuous
 62
     4
100
AcDbEllipse
 10
17.29036936356746
 20
-4.820358671193344
 30
0.0
 11
-0.1764278461941974
 21
0.0941977445624821
 31
0.0
210
0.0
220
0.0
230
1.0
 40
0.9833059182720552
 41
2.071687309673813
 42
2.454396003569158
  0
ELLIPSE
  5
B03
330
A8B
100
AcDbEntity
  8
FRONT
  6
Continuous
 62
     4
100
AcDbEllipse
 10
17.29036936356451
 20
-4.820358671172773
 30
0.0
 11
-0.1764278460477521
 21
0.0941977448654515
 31
0.0
210
0.0
220
0.0
230
1.0
 40
0.9833059182873423
 41
2.454396005236844
 42
3.524855627886243
  0
ELLIPSE
  5
B04
330
A8B
100
AcDbEntity
  8
FRONT
  6
Continuous
 62
     4
100
AcDbEllipse
 10
17.80753817497214
 20
1.984604698993624
 30
0.0
 11
-0.0579833643088966
 21
6.690109145654452
 31
0.0
210
0.0
220
0.0
230
1.0
 40
0.0234081852915922
 41
3.155384266539653
 42
3.216552275148325
  0
ELLIPSE
  5
B05
330
A8B
100
AcDbEntity
  8
FRONT
  6
Continuous
 62
     4
100
AcDbEllipse
 10
69.31113081533111
 20
35.56042935518711
 30
0.0
 11
-54.58145203794352
 21
-42.26950703433849
 31
0.0
210
0.0
220
0.0
230
1.0
 40
0.0166389419643796
 41
0.3320360213461808
 42
0.3350067550538322
  0
ELLIPSE
  5
B06
330
A8B
100
AcDbEntity
  8
FRONT
  6
Continuous
 62
     4
100
AcDbEllipse
 10
17.74265577240787
 20
-4.702887859456103
 30
0.0
 11
-0.1999987668190257
 21
-0.0007023332506881
 31
0.0
210
0.0
220
0.0
230
1.0
 40
0.1608116416752289
 41
3.299567109250761
 42
3.504047308224818
  0
SPLINE
  5
B07
330
A8B
100
AcDbEntity
  8
FRONT
  6
Continuous
 62
     4
100
AcDbSpline
210
0.0
220
0.0
230
1.0
 70
     8
 71
     2
 72
     6
 73
     3
 74
     0
 42
0.0000000001
 43
0.0000000001
 40
0.0
 40
0.0
 40
0.0
 40
1.0
 40
1.0
 40
1.0
 10
17.94014476251969
 20
-4.696380196294287
 30
0.0
 10
17.93820990995539
 20
-4.62484467721253
 30
0.0
 10
17.91370298271945
 20
-4.559914968743824
 30
0.0
  0
SPLINE
  5
B08
330
A8B
100
AcDbEntity
  8
FRONT
  6
Continuous
 62
     4
100
AcDbSpline
210
0.0
220
0.0
230
1.0
 70
     8
 71
     3
 72
    11
 73
     7
 74
     0
 42
0.0000000001
 43
0.0000000001
 40
0.0
 40
0.0
 40
0.0
 40
0.0
 40
0.2797385983135209
 40
0.5594467342961888
 40
0.7797158294879042
 40
1.0
 40
1.0
 40
1.0
 40
1.0
 10
17.5948987190443
 20
-5.975264142050702
 30
0.0
 10
17.65745563319629
 20
-5.974483801919768
 30
0.0
 10
17.77036020044778
 20
-5.950887920362924
 30
0.0
 10
17.90567908297141
 20
-5.850401171714425
 30
0.0
 10
17.98283180302257
 20
-5.717078973008215
 30
0.0
 10
17.99830296929953
 20
-5.626215792883595
 30
0.0
 10
17.99860264302532
 20
-5.577410944240646
 30
0.0
  0
SPLINE
  5
B09
330
A8B
100
AcDbEntity
  8
FRONT
  6
Continuous
 62
     4
100
AcDbSpline
210
0.0
220
0.0
230
1.0
 70
    24
 71
     1
 72
     4
 73
     2
 74
     0
 42
0.0000000001
 43
0.0000000001
 40
0.0
 40
0.0
 40
1.0
 40
1.0
 10
17.93253772748869
 20
-5.521566331524028
 30
0.0
 10
17.87984322178274
 20
-5.471587155772788
 30
0.0
  0
SPLINE
  5
B0A
330
A8B
100
AcDbEntity
  8
FRONT
  6
Continuous
 62
     4
100
AcDbSpline
210
0.0
220
0.0
230
1.0
 70
     8
 71
     2
 72
     6
 73
     3
 74
     0
 42
0.0000000001
 43
0.0000000001
 40
0.0
 40
0.0
 40
0.0
 40
1.0
 40
1.0
 40
1.0
 10
17.53382959937809
 20
-5.939844692875301
 30
0.0
 10
17.5478348404841
 20
-5.948879112898527
 30
0.0
 10
17.56310864296497
 20
-5.957732756903237
 30
0.0
  0
SPLINE
  5
B0B
330
A8B
100
AcDbEntity
  8
FRONT
  6
Continuous
 62
     4
100
AcDbSpline
210
0.0
220
0.0
230
1.0
 70
    24
 71
     1
 72
     4
 73
     2
 74
     0
 42
0.0000000001
 43
0.0000000001
 40
0.0
 40
0.0
 40
1.0
 40
1.0
 10
17.9387785253627
 20
-5.526976438079115
 30
0.0
 10
17.93253772748869
 20
-5.521566331524034
 30
0.0
  0
SPLINE
  5
B0C
330
A8B
100
AcDbEntity
  8
FRONT
  6
Continuous
 62
     4
100
AcDbSpline
210
0.0
220
0.0
230
1.0
 70
     8
 71
     2
 72
     6
 73
     3
 74
     0
 42
0.0000000001
 43
0.0000000001
 40
0.0
 40
0.0
 40
0.0
 40
1.0
 40
1.0
 40
1.0
 10
17.56310862460081
 20
-5.957732669274165
 30
0.0
 10
17.57839777531656
 20
-5.966594955161369
 30
0.0
 10
17.59489682987357
 20
-5.975263315085282
 30
0.0
  0
SPLINE
  5
B0D
330
A8B
100
AcDbEntity
  8
FRONT
  6
Continuous
 62
     4
100
AcDbSpline
210
0.0
220
0.0
230
1.0
 70
     8
 71
     2
 72
     6
 73
     3
 74
     0
 42
0.0000000001
 43
0.0000000001
 40
0.0
 40
0.0
 40
0.0
 40
1.0
 40
1.0
 40
1.0
 10
17.92970126088954
 20
-4.689423949520302
 30
0.0
 10
17.93325498333023
 20
-4.621665100236254
 30
0.0
 10
17.91370204730798
 20
-4.559913475421749
 30
0.0
  0
SPLINE
  5
B0E
330
A8B
100
AcDbEntity
  8
FRONT
  6
Continuous
 62
     4
100
AcDbSpline
210
0.0
220
0.0
230
1.0
 70
     8
 71
     2
 72
     6
 73
     3
 74
     0
 42
0.0000000001
 43
0.0000000001
 40
0.0
 40
0.0
 40
0.0
 40
1.0
 40
1.0
 40
1.0
 10
17.48753914728162
 20
-4.842620158601206
 30
0.0
 10
17.49069400018172
 20
-4.813353923430181
 30
0.0
 10
17.48589383548049
 20
-4.784463510063917
 30
0.0
  0
SPLINE
  5
B0F
330
A8B
100
AcDbEntity
  8
FRONT
  6
Continuous
 62
     4
100
AcDbSpline
210
0.0
220
0.0
230
1.0
 70
     8
 71
     2
 72
     6
 73
     3
 74
     0
 42
0.0000000001
 43
0.0000000001
 40
0.0
 40
0.0
 40
0.0
 40
1.0
 40
1.0
 40
1.0
 10
17.9296204316509
 20
-4.690827415632075
 30
0.0
 10
17.90811236517729
 20
-4.654740894371965
 30
0.0
 10
17.89274962395551
 20
-4.643583112873108
 30
0.0
  0
SPLINE
  5
B10
330
A8B
100
AcDbEntity
  8
FRONT
  6
Continuous
 62
     4
100
AcDbSpline
210
0.0
220
0.0
230
1.0
 70
    24
 71
     1
 72
     4
 73
     2
 74
     0
 42
0.0000000001
 43
0.0000000001
 40
0.0
 40
0.0
 40
1.0
 40
1.0
 10
17.28962519580169
 20
-5.781691499550616
 30
0.0
 10
17.29561436988828
 20
-5.788108146748303
 30
0.0
  0
SPLINE
  5
B11
330
A8B
100
AcDbEntity
  8
FRONT
  6
Continuous
 62
     4
100
AcDbSpline
210
0.0
220
0.0
230
1.0
 70
    24
 71
     1
 72
     4
 73
     2
 74
     0
 42
0.0000000001
 43
0.0000000001
 40
0.0
 40
0.0
 40
1.0
 40
1.0
 10
17.9955352574119
 20
-4.703931962073951
 30
0.0
 10
17.99520039268492
 20
-4.657821589441176
 30
0.0
  0
SPLINE
  5
B12
330
A8B
100
AcDbEntity
  8
FRONT
  6
Continuous
 62
     4
100
AcDbSpline
210
0.0
220
0.0
230
1.0
 70
     8
 71
     3
 72
    14
 73
    10
 74
     0
 42
0.0000000001
 43
0.0000000001
 40
0.0
 40
0.0
 40
0.0
 40
0.0
 40
0.1248883957440875
 40
0.2497714879519448
 40
0.3746545211303977
 40
0.4995231745160237
 40
0.6243751603251047
 40
0.7494560896066159
 40
1.0
 40
1.0
 40
1.0
 40
1.0
 10
17.87984322178273
 20
-5.471587155772788
 30
0.0
 10
17.87987268926037
 20
-5.50489258238397
 30
0.0
 10
17.87177012324012
 20
-5.568441189966804
 30
0.0
 10
17.83414334612334
 20
-5.657603560500879
 30
0.0
 10
17.77401488846159
 20
-5.731535238533902
 30
0.0
 10
17.6954628151493
 20
-5.785183731153777
 30
0.0
 10
17.60367529558672
 20
-5.815264208756982
 30
0.0
 10
17.47391022284451
 20
-5.813531480830889
 30
0.0
 10
17.37763835799498
 20
-5.813847709256805
 30
0.0
 10
17.31289606147389
 20
-5.809345576655006
 30
0.0
  0
SPLINE
  5
B13
330
A8B
100
AcDbEntity
  8
FRONT
  6
Continuous
 62
     4
100
AcDbSpline
210
0.0
220
0.0
230
1.0
 70
     8
 71
     2
 72
     6
 73
     3
 74
     0
 42
0.0000000001
 43
0.0000000001
 40
0.0
 40
0.0
 40
0.0
 40
1.0
 40
1.0
 40
1.0
 10
17.96624821359698
 20
-4.521740220909061
 30
0.0
 10
17.9945056831512
 20
-4.587389658473393
 30
0.0
 10
17.99520039268492
 20
-4.657821589442201
 30
0.0
  0
SPLINE
  5
B14
330
A8B
100
AcDbEntity
  8
FRONT
  6
Continuous
 62
     4
100
AcDbSpline
210
0.0
220
0.0
230
1.0
 70
    24
 71
     1
 72
     4
 73
     2
 74
     0
 42
0.0000000001
 43
0.0000000001
 40
0.0
 40
0.0
 40
1.0
 40
1.0
 10
17.89274962395551
 20
-4.643583112873108
 30
0.0
 10
17.87708664776414
 20
-4.686615922447828
 30
0.0
  0
SPLINE
  5
B15
330
A8B
100
AcDbEntity
  8
FRONT
  6
Continuous
 62
     4
100
AcDbSpline
210
0.0
220
0.0
230
1.0
 70
     8
 71
     2
 72
     6
 73
     3
 74
     0
 42
0.0000000001
 43
0.0000000001
 40
0.0
 40
0.0
 40
0.0
 40
1.0
 40
1.0
 40
1.0
 10
17.87578472966787
 20
-4.531787042132242
 30
0.0
 10
17.89175394076562
 20
-4.538312409517048
 30
0.0
 10
17.91370204730901
 20
-4.559913475424244
 30
0.0
  0
SPLINE
  5
B16
330
A8B
100
AcDbEntity
  8
FRONT
  6
Continuous
 62
     4
100
AcDbSpline
210
0.0
220
0.0
230
1.0
 70
    24
 71
     1
 72
     4
 73
     2
 74
     0
 42
0.0000000001
 43
0.0000000001
 40
0.0
 40
0.0
 40
1.0
 40
1.0
 10
17.9296204316509
 20
-4.690827415632075
 30
0.0
 10
17.92970126089028
 20
-4.689423949521914
 30
0.0
  0
SPLINE
  5
B17
330
A8B
100
AcDbEntity
  8
FRONT
  6
Continuous
 62
     4
100
AcDbSpline
210
0.0
220
0.0
230
1.0
 70
     8
 71
     2
 72
     6
 73
     3
 74
     0
 42
0.0000000001
 43
0.0000000001
 40
0.0
 40
0.0
 40
0.0
 40
1.0
 40
1.0
 40
1.0
 10
17.87984322178273
 20
-5.471587155772788
 30
0.0
 10
17.73244831207634
 20
-5.298438713033085
 30
0.0
 10
17.58957197281752
 20
-4.910128850814881
 30
0.0
  0
SPLINE
  5
B18
330
A8B
100
AcDbEntity
  8
FRONT
  6
Continuous
 62
     4
100
AcDbSpline
210
0.0
220
0.0
230
1.0
 70
    24
 71
     1
 72
     4
 73
     2
 74
     0
 42
0.0000000001
 43
0.0000000001
 40
0.0
 40
0.0
 40
1.0
 40
1.0
 10
17.28677117630373
 20
-5.132617233954769
 30
0.0
 10
16.67361660422959
 20
-5.134616718352519
 30
0.0
  0
SPLINE
  5
B19
330
A8B
100
AcDbEntity
  8
FRONT
  6
Continuous
 62
     4
100
AcDbSpline
210
0.0
220
0.0
230
1.0
 70
    24
 71
     1
 72
     4
 73
     2
 74
     0
 42
0.0000000001
 43
0.0000000001
 40
0.0
 40
0.0
 40
1.0
 40
1.0
 10
17.94182141506172
 20
-4.461266655075608
 30
0.0
 10
17.90527073750188
 20
-4.337218884751766
 30
0.0
  0
SPLINE
  5
B1A
330
A8B
100
AcDbEntity
  8
FRONT
  6
Continuous
 62
     4
100
AcDbSpline
210
0.0
220
0.0
230
1.0
 70
     8
 71
     2
 72
     6
 73
     3
 74
     0
 42
0.0000000001
 43
0.0000000001
 40
0.0
 40
0.0
 40
0.0
 40
1.0
 40
1.0
 40
1.0
 10
17.4863838813945
 20
-5.914121941707048
 30
0.0
 10
17.50241434520515
 20
-5.922316462127195
 30
0.0
 10
17.5149609852006
 20
-5.929071224485984
 30
0.0
  0
SPLINE
  5
B1B
330
A8B
100
AcDbEntity
  8
FRONT
  6
Continuous
 62
     4
100
AcDbSpline
210
0.0
220
0.0
230
1.0
 70
     8
 71
     3
 72
    10
 73
     6
 74
     0
 42
0.0000000001
 43
0.0000000001
 40
0.0
 40
0.0
 40
0.0
 40
0.0
 40
0.2802834343870607
 40
0.561500176492782
 40
1.0
 40
1.0
 40
1.0
 40
1.0
 10
17.93253772748871
 20
-5.521566331524031
 30
0.0
 10
17.92998166710049
 20
-5.58748102827846
 30
0.0
 10
17.90119279899605
 20
-5.70400075827699
 30
0.0
 10
17.73853112752677
 20
-5.870209334555772
 30
0.0
 10
17.59319445825168
 20
-5.912750987343615
 30
0.0
 10
17.4863838813945
 20
-5.914121941707048
 30
0.0
  0
SPLINE
  5
B1C
330
A8B
100
AcDbEntity
  8
FRONT
  6
Continuous
 62
     4
100
AcDbSpline
210
0.0
220
0.0
230
1.0
 70
     8
 71
     2
 72
     6
 73
     3
 74
     0
 42
0.0000000001
 43
0.0000000001
 40
0.0
 40
0.0
 40
0.0
 40
1.0
 40
1.0
 40
1.0
 10
17.29745226804206
 20
-5.017742724400552
 30
0.0
 10
17.334810636267
 20
-5.017343599018348
 30
0.0
 10
17.36829733251894
 20
-5.003728771550662
 30
0.0
  0
SPLINE
  5
B1D
330
A8B
100
AcDbEntity
  8
FRONT
  6
Continuous
 62
     4
100
AcDbSpline
210
0.0
220
0.0
230
1.0
 70
    24
 71
     1
 72
     4
 73
     2
 74
     0
 42
0.0000000001
 43
0.0000000001
 40
0.0
 40
0.0
 40
1.0
 40
1.0
 10
17.25039528434257
 20
-5.752276639961346
 30
0.0
 10
17.25582938323384
 20
-5.75599142494071
 30
0.0
  0
SPLINE
  5
B1E
330
A8B
100
AcDbEntity
  8
FRONT
  6
Continuous
 62
     4
100
AcDbSpline
210
0.0
220
0.0
230
1.0
 70
     8
 71
     2
 72
     6
 73
     3
 74
     0
 42
0.0000000001
 43
0.0000000001
 40
0.0
 40
0.0
 40
0.0
 40
1.0
 40
1.0
 40
1.0
 10
17.31289606147389
 20
-5.809345576655006
 30
0.0
 10
17.35705677144961
 20
-5.849142853119974
 30
0.0
 10
17.48638388139446
 20
-5.914121941707048
 30
0.0
  0
SPLINE
  5
B1F
330
A8B
100
AcDbEntity
  8
FRONT
  6
Continuous
 62
     4
100
AcDbSpline
210
0.0
220
0.0
230
1.0
 70
    24
 71
     1
 72
     4
 73
     2
 74
     0
 42
0.0000000001
 43
0.0000000001
 40
0.0
 40
0.0
 40
1.0
 40
1.0
 10
17.29561436988828
 20
-5.788108146748303
 30
0.0
 10
17.31289606147389
 20
-5.809345576655006
 30
0.0
  0
SPLINE
  5
B20
330
A8B
100
AcDbEntity
  8
FRONT
  6
Continuous
 62
     4
100
AcDbSpline
210
0.0
220
0.0
230
1.0
 70
    24
 71
     1
 72
     4
 73
     2
 74
     0
 42
0.0000000001
 43
0.0000000001
 40
0.0
 40
0.0
 40
1.0
 40
1.0
 10
17.96624821359698
 20
-4.521740220909061
 30
0.0
 10
17.94182141506172
 20
-4.461266655075608
 30
0.0
  0
SPLINE
  5
B21
330
A8B
100
AcDbEntity
  8
FRONT
  6
Continuous
 62
     4
100
AcDbSpline
210
0.0
220
0.0
230
1.0
 70
     8
 71
     3
 72
    11
 73
     7
 74
     0
 42
0.0000000001
 43
0.0000000001
 40
0.0
 40
0.0
 40
0.0
 40
0.0
 40
0.2627757061120019
 40
0.5667558013116807
 40
0.8797139751218168
 40
1.0
 40
1.0
 40
1.0
 40
1.0
 10
17.36829733251894
 20
-5.003728771550662
 30
0.0
 10
17.38587714511173
 20
-4.996404794424628
 30
0.0
 10
17.41990969395924
 20
-4.976439430695343
 30
0.0
 10
17.46158084441127
 20
-4.929333558277144
 30
0.0
 10
17.48149927690769
 20
-4.880797777468139
 30
0.0
 10
17.4866141760235
 20
-4.851053802725655
 30
0.0
 10
17.48753914728162
 20
-4.842620158601206
 30
0.0
  0
SPLINE
  5
B22
330
A8B
100
AcDbEntity
  8
FRONT
  6
Continuous
 62
     4
100
AcDbSpline
210
0.0
220
0.0
230
1.0
 70
     8
 71
     3
 72
    11
 73
     7
 74
     0
 42
0.0000000001
 43
0.0000000001
 40
0.0
 40
0.0
 40
0.0
 40
0.0
 40
0.2793522346033047
 40
0.5593335184216813
 40
0.7797559679565327
 40
1.0
 40
1.0
 40
1.0
 40
1.0
 10
17.94307446467377
 20
-5.530945951299988
 30
0.0
 10
17.94180307462405
 20
-5.594501577118919
 30
0.0
 10
17.91667550799417
 20
-5.709260710265843
 30
0.0
 10
17.81058445331001
 20
-5.846075908549162
 30
0.0
 10
17.67367926843748
 20
-5.924340080915007
 30
0.0
 10
17.58243171918843
 20
-5.939723916719522
 30
0.0
 10
17.53382959937809
 20
-5.939844692875301
 30
0.0
  0
SPLINE
  5
B23
330
A8B
100
AcDbEntity
  8
FRONT
  6
Continuous
 62
     4
100
AcDbSpline
210
0.0
220
0.0
230
1.0
 70
     8
 71
     3
 72
    14
 73
    10
 74
     0
 42
0.0000000001
 43
0.0000000001
 40
0.0
 40
0.0
 40
0.0
 40
0.0
 40
0.1951062385720619
 40
0.3339125582488692
 40
0.4501474463006513
 40
0.566328053941413
 40
0.7231136318596933
 40
0.9477057072569012
 40
1.0
 40
1.0
 40
1.0
 40
1.0
 10
17.89274962394844
 20
-4.643583112868443
 30
0.0
 10
17.89474514222996
 20
-4.639748694764659
 30
0.0
 10
17.89724314910162
 20
-4.631244618840346
 30
0.0
 10
17.89924971527219
 20
-4.615701729296858
 30
0.0
 10
17.89842728956798
 20
-4.599454138182963
 30
0.0
 10
17.8951461020218
 20
-4.581218840503261
 30
0.0
 10
17.88844700421837
 20
-4.558968223287878
 30
0.0
 10
17.8812580747526
 20
-4.542461472099691
 30
0.0
 10
17.8766627348089
 20
-4.533439686083934
 30
0.0
 10
17.87578472966787
 20
-4.531787042132242
 30
0.0
  0
SPLINE
  5
B24
330
A8B
100
AcDbEntity
  8
FRONT
  6
Continuous
 62
     4
100
AcDbSpline
210
0.0
220
0.0
230
1.0
 70
     8
 71
     2
 72
     6
 73
     3
 74
     0
 42
0.0000000001
 43
0.0000000001
 40
0.0
 40
0.0
 40
0.0
 40
1.0
 40
1.0
 40
1.0
 10
17.51496097087978
 20
-5.929071210841827
 30
0.0
 10
17.52734365897923
 20
-5.93571427869794
 30
0.0
 10
17.53382959937809
 20
-5.939844692875301
 30
0.0
  0
SPLINE
  5
B25
330
A8B
100
AcDbEntity
  8
FRONT
  6
Continuous
 62
     4
100
AcDbSpline
210
0.0
220
0.0
230
1.0
 70
     8
 71
     2
 72
     6
 73
     3
 74
     0
 42
0.0000000001
 43
0.0000000001
 40
0.0
 40
0.0
 40
0.0
 40
1.0
 40
1.0
 40
1.0
 10
16.67361660422962
 20
-5.134616718352519
 30
0.0
 10
16.8166102911388
 20
-5.470334999613283
 30
0.0
 10
17.25016942408499
 20
-5.752170042241946
 30
0.0
  0
SPLINE
  5
B26
330
A8B
100
AcDbEntity
  8
FRONT
  6
Continuous
 62
     4
100
AcDbSpline
210
0.0
220
0.0
230
1.0
 70
    24
 71
     1
 72
     4
 73
     2
 74
     0
 42
0.0000000001
 43
0.0000000001
 40
0.0
 40
0.0
 40
1.0
 40
1.0
 10
17.25582938323384
 20
-5.75599142494071
 30
0.0
 10
17.28962519580169
 20
-5.781691499550616
 30
0.0
  0
SPLINE
  5
B27
330
A8B
100
AcDbEntity
  8
FRONT
  6
Continuous
 62
     4
100
AcDbSpline
210
0.0
220
0.0
230
1.0
 70
    24
 71
     1
 72
     4
 73
     2
 74
     0
 42
0.0000000001
 43
0.0000000001
 40
0.0
 40
0.0
 40
1.0
 40
1.0
 10
17.94307446467377
 20
-5.530945951299988
 30
0.0
 10
17.9387785253627
 20
-5.526976438079117
 30
0.0
  0
SPLINE
  5
B28
330
A8B
100
AcDbEntity
  8
FRONT
  6
Continuous
 62
     4
100
AcDbSpline
210
0.0
220
0.0
230
1.0
 70
     8
 71
     3
 72
    14
 73
    10
 74
     0
 42
0.0000000001
 43
0.0000000001
 40
0.0
 40
0.0
 40
0.0
 40
0.0
 40
0.142151055421
 40
0.2416441906233231
 40
0.337512840946061
 40
0.5226088307748542
 40
0.7069349958419002
 40
0.7832535482434971
 40
1.0
 40
1.0
 40
1.0
 40
1.0
 10
17.58957197281758
 20
-4.910128850814881
 30
0.0
 10
17.58968669457347
 20
-4.930933722154952
 30
0.0
 10
17.58527280217872
 20
-4.96494050117826
 30
0.0
 10
17.56744498013549
 20
-5.00997609003333
 30
0.0
 10
17.53896901385022
 20
-5.056105771769582
 30
0.0
 10
17.48959095851773
 20
-5.102732691476536
 30
0.0
 10
17.42845235015919
 20
-5.125843715274846
 30
0.0
 10
17.36038010976709
 20
-5.134920028137988
 30
0.0
 10
17.31826363289789
 20
-5.135515785459636
 30
0.0
 10
17.28677048324978
 20
-5.132574095267016
 30
0.0
  0
ELLIPSE
  5
B29
330
A8B
100
AcDbEntity
  8
FRONT
  6
Continuous
 62
     4
100
AcDbEllipse
 10
14.84592289431094
 20
-3.161093469702648
 30
0.0
 11
-0.8821392302302177
 21
0.4709887243754463
 31
0.0
210
0.0
220
0.0
230
1.0
 40
0.9833059182791327
 41
3.625030345689558
 42
6.283185307179584
  0
SPLINE
  5
B2A
330
A8B
100
AcDbEntity
  8
FRONT
  6
Continuous
 62
     4
100
AcDbSpline
210
0.0
220
0.0
230
1.0
 70
     8
 71
     3
 72
    16
 73
    12
 74
     0
 42
0.0000000001
 43
0.0000000001
 40
0.0
 40
0.0
 40
0.0
 40
0.0
 40
0.129148378034396
 40
0.2674644537203973
 40
0.3841582685837871
 40
0.5013560291580168
 40
0.6062428686698798
 40
0.7064204883265523
 40
0.8086161864158006
 40
0.91809676777724
 40
1.0
 40
1.0
 40
1.0
 40
1.0
 10
15.89972191180696
 20
-3.067258476064095
 30
0.0
 10
15.90909121726365
 20
-2.958913954357801
 30
0.0
 10
15.89382133999201
 20
-2.73905812340351
 30
0.0
 10
15.7767083394974
 20
-2.417696763445265
 30
0.0
 10
15.55374765832576
 20
-2.152776320541678
 30
0.0
 10
15.26778494996267
 20
-1.989804342125394
 30
0.0
 10
14.95334031998964
 20
-1.939085852191666
 30
0.0
 10
14.65311205059481
 20
-1.989438808047074
 30
0.0
 10
14.38058061019693
 20
-2.127700253828793
 30
0.0
 10
14.17726057529053
 20
-2.322863280499757
 30
0.0
 10
14.08156978624059
 20
-2.467674156401074
 30
0.0
 10
14.04700334616364
 20
-2.534248306255423
 30
0.0
  0
ELLIPSE
  5
B2B
330
A8B
100
AcDbEntity
  8
FRONT
  6
Continuous
 62
     4
100
AcDbEllipse
 10
14.80294988243358
 20
-3.241579854307761
 30
0.0
 11
-0.7939252851790806
 21
0.4238898401086228
 31
0.0
210
0.0
220
0.0
230
1.0
 40
0.9833059182800139
 41
5.213279964936608
 42
6.231612357172
  0
SPLINE
  5
B2C
330
A8B
100
AcDbEntity
  8
FRONT
  6
Continuous
 62
     4
100
AcDbSpline
210
0.0
220
0.0
230
1.0
 70
     8
 71
     3
 72
    10
 73
     6
 74
     0
 42
0.0000000001
 43
0.0000000001
 40
0.0
 40
0.0
 40
0.0
 40
0.0
 40
0.1975215270407752
 40
0.8880294744614507
 40
1.0
 40
1.0
 40
1.0
 40
1.0
 10
14.04700334616364
 20
-2.534248306255423
 30
0.0
 10
14.02979995309934
 20
-2.56708149719274
 30
0.0
 10
13.95915311772168
 20
-2.715260042725278
 30
0.0
 10
13.91596124117772
 20
-2.891939134658461
 30
0.0
 10
13.90359775925108
 20
-3.029307479047951
 30
0.0
 10
13.90234343681433
 20
-3.048492528079988
 30
0.0
  0
LINE
  5
B2D
330
A8B
100
AcDbEntity
  8
FRONT
  6
Continuous
 62
     4
100
AcDbLine
 10
15.89972191180696
 20
-3.067258476064095
 30
0.0
 11
15.84224378306065
 21
-3.174912246999863
 31
0.0
  0
ELLIPSE
  5
B2E
330
A8B
100
AcDbEntity
  8
FRONT
  6
Continuous
 62
     4
100
AcDbEllipse
 10
17.97951315599034
 20
-2.391212493543383
 30
0.0
 11
-0.4845839650356391
 21
2.565417656625252
 31
0.0
210
0.0
220
0.0
230
0.9999999999999998
 40
0.1877462969956187
 41
1.545777644991644
 42
1.748054161917929
  0
ELLIPSE
  5
B2F
330
A8B
100
AcDbEntity
  8
FRONT
  6
Continuous
 62
     4
100
AcDbEllipse
 10
12.46509142978946
 20
4.4053773937274
 30
0.0
 11
-0.7820027716041942
 21
-0.3331240993350395
 31
0.0
210
0.0
220
0.0
230
1.0
 40
0.3528380920404428
 41
1.238775038219452
 42
1.609788972500551
  0
ELLIPSE
  5
B30
330
A8B
100
AcDbEntity
  8
FRONT
  6
Continuous
 62
     4
100
AcDbEllipse
 10
12.30437911162724
 20
5.324732699532396
 30
0.0
 11
-0.1775236042668109
 21
0.8312552970357225
 31
0.0
210
0.0
220
0.0
230
1.0
 40
0.1700246401022982
 41
4.325383915281284
 42
4.740398743479548
  0
SPLINE
  5
B31
330
A8B
100
AcDbEntity
  8
FRONT
  6
Continuous
 62
     4
100
AcDbSpline
210
0.0
220
0.0
230
1.0
 70
    24
 71
     1
 72
     4
 73
     2
 74
     0
 42
0.0000000001
 43
0.0000000001
 40
0.0
 40
0.0
 40
1.0
 40
1.0
 10
12.44068581249327
 20
5.378184466683816
 30
0.0
 10
12.71058671127498
 20
5.473403005394003
 30
0.0
  0
SPLINE
  5
B32
330
A8B
100
AcDbEntity
  8
FRONT
  6
Continuous
 62
     4
100
AcDbSpline
210
0.0
220
0.0
230
1.0
 70
    24
 71
     1
 72
     4
 73
     2
 74
     0
 42
0.0000000001
 43
0.0000000001
 40
0.0
 40
0.0
 40
1.0
 40
1.0
 10
12.4453969153142
 20
4.793762731808075
 30
0.0
 10
12.55914221892536
 20
4.254904835094778
 30
0.0
  0
SPLINE
  5
B33
330
A8B
100
AcDbEntity
  8
FRONT
  6
Continuous
 62
     4
100
AcDbSpline
210
0.0
220
0.0
230
1.0
 70
    24
 71
     1
 72
     4
 73
     2
 74
     0
 42
0.0000000001
 43
0.0000000001
 40
0.0
 40
0.0
 40
1.0
 40
1.0
 10
12.3980252578104
 20
3.54383975964174
 30
0.0
 10
13.21291955543235
 20
3.601539892142866
 30
0.0
  0
SPLINE
  5
B34
330
A8B
100
AcDbEntity
  8
FRONT
  6
Continuous
 62
     4
100
AcDbSpline
210
0.0
220
0.0
230
1.0
 70
    24
 71
     1
 72
     4
 73
     2
 74
     0
 42
0.0000000001
 43
0.0000000001
 40
0.0
 40
0.0
 40
1.0
 40
1.0
 10
12.73849007715883
 20
3.667718842522095
 30
0.0
 10
12.44268010034102
 20
3.606971866039024
 30
0.0
  0
SPLINE
  5
B35
330
A8B
100
AcDbEntity
  8
FRONT
  6
Continuous
 62
     4
100
AcDbSpline
210
0.0
220
0.0
230
1.0
 70
    24
 71
     1
 72
     4
 73
     2
 74
     0
 42
0.0000000001
 43
0.0000000001
 40
0.0
 40
0.0
 40
1.0
 40
1.0
 10
12.55915629769893
 20
4.254835323750993
 30
0.0
 10
12.26801481276993
 20
4.191302768065273
 30
0.0
  0
SPLINE
  5
B36
330
A8B
100
AcDbEntity
  8
FRONT
  6
Continuous
 62
     4
100
AcDbSpline
210
0.0
220
0.0
230
1.0
 70
     8
 71
     3
 72
    12
 73
     8
 74
     0
 42
0.0000000001
 43
0.0000000001
 40
0.0
 40
0.0
 40
0.0
 40
0.0
 40
0.2744697384182955
 40
0.551325202075647
 40
0.7557784030006751
 40
0.9601016673759271
 40
1.0
 40
1.0
 40
1.0
 40
1.0
 10
12.50226080994402
 20
5.038954222702709
 30
0.0
 10
12.49336678341477
 20
5.036925287209339
 30
0.0
 10
12.47674970363677
 20
5.030709459633406
 30
0.0
 10
12.45543597836243
 20
5.016913564102337
 30
0.0
 10
12.44193220855824
 20
4.998754955080447
 30
0.0
 10
12.43759971455943
 20
4.985018509162411
 30
0.0
 10
12.43655385903655
 20
4.977536033076629
 30
0.0
 10
12.43641987849389
 20
4.976306217531559
 30
0.0
  0
SPLINE
  5
B37
330
A8B
100
AcDbEntity
  8
FRONT
  6
Continuous
 62
     4
100
AcDbSpline
210
0.0
220
0.0
230
1.0
 70
     8
 71
     2
 72
     6
 73
     3
 74
     0
 42
0.0000000001
 43
0.0000000001
 40
0.0
 40
0.0
 40
0.0
 40
1.0
 40
1.0
 40
1.0
 10
12.03715634521592
 20
5.830492901738478
 30
0.0
 10
12.99283696601092
 20
5.878254479706012
 30
0.0
 10
13.94849592177253
 20
5.910374237806076
 30
0.0
  0
ELLIPSE
  5
B38
330
A8B
100
AcDbEntity
  8
FRONT
  6
Continuous
 62
     4
100
AcDbEllipse
 10
5.662019838117116
 20
-0.0000000000333795
 30
0.0
 11
-30.04133316949641
 21
-2.58883917720694
 31
0.0
210
0.0
220
0.0
230
0.9999999999999998
 40
0.161531415063552
 41
4.513346154013636
 42
4.756988358425918
  0
SPLINE
  5
B39
330
A8B
100
AcDbEntity
  8
FRONT
  6
Continuous
 62
     4
100
AcDbSpline
210
0.0
220
0.0
230
1.0
 70
     8
 71
     3
 72
    19
 73
    15
 74
     0
 42
0.0000000001
 43
0.0000000001
 40
0.0
 40
0.0
 40
0.0
 40
0.0
 40
0.0378701787910131
 40
0.0905179988905895
 40
0.1642269556926017
 40
0.2380530753730911
 40
0.3123760441477659
 40
0.3869895302976412
 40
0.4614745016438901
 40
0.5851496942702218
 40
0.7092835185565466
 40
0.833157903598639
 40
0.9165781401482579
 40
1.0
 40
1.0
 40
1.0
 40
1.0
 10
1.345325372781964
 20
5.49999932711582
 30
0.0
 10
1.398511539679653
 20
5.499310768582701
 30
0.0
 10
1.538982385476854
 20
5.487566690474291
 30
0.0
 10
1.854591910925284
 20
5.418195046609993
 30
0.0
 10
2.329329109016069
 20
5.271619651707619
 30
0.0
 10
2.940855747626413
 20
5.059696886614688
 30
0.0
 10
3.6216964289096
 20
4.824065572811823
 30
0.0
 10
4.352948688096573
 20
4.581228769111548
 30
0.0
 10
5.29008644652346
 20
4.292383252863228
 30
0.0
 10
6.451194759052143
 20
3.98739059815945
 30
0.0
 10
7.838486420970312
 20
3.705173860574058
 30
0.0
 10
9.103089126275692
 20
3.529868020428326
 30
0.0
 10
10.22364537502219
 20
3.441763234081208
 30
0.0
 10
10.86882686552338
 20
3.420927197378751
 30
0.0
 10
11.19220462092714
 20
3.417991427849379
 30
0.0
  0
LINE
  5
B3A
330
A8B
100
AcDbEntity
  8
FRONT
  6
Continuous
 62
     4
100
AcDbLine
 10
1.352746725880145
 20
5.5
 30
0.0
 11
0.8660254037844552
 21
5.5
 31
0.0
  0
LINE
  5
B3B
330
A8B
100
AcDbEntity
  8
FRONT
  6
Continuous
 62
     4
100
AcDbLine
 10
11.18782140983618
 20
3.622780017417606
 30
0.0
 11
11.58072561727361
 21
4.835384189051726
 31
0.0
  0
LINE
  5
B3C
330
A8B
100
AcDbEntity
  8
FRONT
  6
Continuous
 62
     4
100
AcDbLine
 10
11.18782140983618
 20
3.622780017417606
 30
0.0
 11
12.32131357354198
 21
4.035942971686977
 31
0.0
  0
LINE
  5
B3D
330
A8B
100
AcDbEntity
  8
FRONT
  6
Continuous
 62
     4
100
AcDbLine
 10
12.1287291577043
 20
4.721327038522023
 30
0.0
 11
11.58072561727361
 21
4.835384189051726
 31
0.0
  0
LINE
  5
B3E
330
A8B
100
AcDbEntity
  8
FRONT
  6
Continuous
 62
     4
100
AcDbLine
 10
11.73862963750702
 20
5.461687541797799
 30
0.0
 11
11.82908573895635
 21
5.442860719673216
 31
0.0
  0
LINE
  5
B3F
330
A8B
100
AcDbEntity
  8
FRONT
  6
Continuous
 62
     4
100
AcDbLine
 10
11.73862963750702
 20
5.461687541797799
 30
0.0
 11
11.75466693733003
 21
5.546759538624923
 31
0.0
  0
ELLIPSE
  5
B40
330
A8B
100
AcDbEntity
  8
FRONT
  6
Continuous
 62
     4
100
AcDbEllipse
 10
11.95540632460577
 20
5.633722551958136
 30
0.0
 11
-0.806489772482009
 21
-0.5912480410211467
 31
0.0
210
0.0
220
0.0
230
1.0
 40
0.0811337619020885
 41
1.354388177432271
 42
1.745711778396149
  0
ELLIPSE
  5
B41
330
A8B
100
AcDbEntity
  8
FRONT
  6
Continuous
 62
     4
100
AcDbEllipse
 10
335.1698859889653
 20
27.65013668158367
 30
0.0
 11
-342.0959389744786
 21
-28.76099667904112
 31
0.0
210
0.0
220
0.0
230
1.0
 40
0.0434265181053538
 41
5.947803486633389
 42
5.952599622232146
  0
ELLIPSE
  5
B42
330
A8B
100
AcDbEntity
  8
FRONT
  6
Continuous
 62
     4
100
AcDbEllipse
 10
5.102677341749099
 20
0.6587726038256668
 30
0.0
 11
-7.307339427366883
 21
-3.063816270399227
 31
0.0
210
0.0
220
0.0
230
1.0
 40
0.2481866287351503
 41
3.052623486450511
 42
3.080913953302548
  0
ELLIPSE
  5
B43
330
A8B
100
AcDbEntity
  8
FRONT
  6
Continuous
 62
     4
100
AcDbEllipse
 10
12.27250701395665
 20
5.090761460477818
 30
0.0
 11
-0.8217836972268276
 21
-0.2171901358713434
 31
0.0
210
0.0
220
0.0
230
0.9999999999999998
 40
0.3920499365775708
 41
1.292632269327997
 42
1.678371035082333
  0
ELLIPSE
  5
B44
330
A8B
100
AcDbEntity
  8
FRONT
  6
Continuous
 62
     4
100
AcDbEllipse
 10
5.404099419789868
 20
0.7686420975624931
 30
0.0
 11
-5.980729945729562
 21
-2.40986449979302
 31
0.0
210
0.0
220
0.0
230
1.0
 40
0.3085337035018759
 41
3.290405811667822
 42
3.332639300504348
  0
ELLIPSE
  5
B45
330
A8B
100
AcDbEntity
  8
FRONT
  6
Continuous
 62
     4
100
AcDbEllipse
 10
12.04589348063163
 20
3.189576309002418
 30
0.0
 11
-0.6673421078069362
 21
-2.286566163010705
 31
0.0
210
0.0
220
0.0
230
0.9999999999999998
 40
0.3978450525441507
 41
4.63866320637629
 42
4.650929689634256
  0
ELLIPSE
  5
B46
330
A8B
100
AcDbEntity
  8
FRONT
  6
Continuous
 62
     4
100
AcDbEllipse
 10
10.73278510489058
 20
6.237522743498638
 30
0.0
 11
-0.1862105098576039
 21
-2.621606840087076
 31
0.0
210
0.0
220
0.0
230
0.9999999999999998
 40
0.4178730016605411
 41
1.036429758151679
 42
1.300166956177833
  0
ELLIPSE
  5
B47
330
A8B
100
AcDbEntity
  8
FRONT
  6
Continuous
 62
     4
100
AcDbEllipse
 10
12.25172592005139
 20
5.268705240183141
 30
0.0
 11
-0.8496785632609061
 21
0.0233738973287866
 31
0.0
210
0.0
220
0.0
230
0.9999999999999998
 40
0.3469230430269695
 41
1.426511375320844
 42
1.799447862846502
  0
ELLIPSE
  5
B48
330
A8B
100
AcDbEntity
  8
FRONT
  6
Continuous
 62
     4
100
AcDbEllipse
 10
11.78356539115273
 20
2.802384415741716
 30
0.0
 11
-1.329462075118444
 21
-0.5309569405100488
 31
0.0
210
0.0
220
0.0
230
0.9999999999999998
 40
0.8742324331760295
 41
4.730475183920662
 42
5.327454682651223
  0
SPLINE
  5
B49
330
A8B
100
AcDbEntity
  8
FRONT
  6
Continuous
 62
     4
100
AcDbSpline
210
0.0
220
0.0
230
1.0
 70
    24
 71
     1
 72
     4
 73
     2
 74
     0
 42
0.0000000001
 43
0.0000000001
 40
0.0
 40
0.0
 40
1.0
 40
1.0
 10
12.44268010034102
 20
3.606971866039025
 30
0.0
 10
12.32131357354198
 20
4.03594297168698
 30
0.0
  0
SPLINE
  5
B4A
330
A8B
100
AcDbEntity
  8
FRONT
  6
Continuous
 62
     4
100
AcDbSpline
210
0.0
220
0.0
230
1.0
 70
    24
 71
     1
 72
     4
 73
     2
 74
     0
 42
0.0000000001
 43
0.0000000001
 40
0.0
 40
0.0
 40
1.0
 40
1.0
 10
11.19220462092714
 20
3.417991427849379
 30
0.0
 10
12.3980252578104
 20
3.543839759641738
 30
0.0
  0
SPLINE
  5
B4B
330
A8B
100
AcDbEntity
  8
FRONT
  6
Continuous
 62
     4
100
AcDbSpline
210
0.0
220
0.0
230
1.0
 70
    24
 71
     1
 72
     4
 73
     2
 74
     0
 42
0.0000000001
 43
0.0000000001
 40
0.0
 40
0.0
 40
1.0
 40
1.0
 10
11.13483081029059
 20
3.485051129667143
 30
0.0
 10
11.17890053972468
 20
3.595016077432556
 30
0.0
  0
SPLINE
  5
B4C
330
A8B
100
AcDbEntity
  8
FRONT
  6
Continuous
 62
     4
100
AcDbSpline
210
0.0
220
0.0
230
1.0
 70
    24
 71
     1
 72
     4
 73
     2
 74
     0
 42
0.0000000001
 43
0.0000000001
 40
0.0
 40
0.0
 40
1.0
 40
1.0
 10
11.82908573895635
 20
5.442860719673213
 30
0.0
 10
11.75466693733006
 20
5.546759538624923
 30
0.0
  0
SPLINE
  5
B4D
330
A8B
100
AcDbEntity
  8
FRONT
  6
Continuous
 62
     4
100
AcDbSpline
210
0.0
220
0.0
230
1.0
 70
    24
 71
     1
 72
     4
 73
     2
 74
     0
 42
0.0000000001
 43
0.0000000001
 40
0.0
 40
0.0
 40
1.0
 40
1.0
 10
11.99195171433702
 20
5.828515939483442
 30
0.0
 10
12.03715635432748
 20
5.830493677100296
 30
0.0
  0
SPLINE
  5
B4E
330
A8B
100
AcDbEntity
  8
FRONT
  6
Continuous
 62
     4
100
AcDbSpline
210
0.0
220
0.0
230
1.0
 70
     8
 71
     2
 72
     6
 73
     3
 74
     0
 42
0.0000000001
 43
0.0000000001
 40
0.0
 40
0.0
 40
0.0
 40
1.0
 40
1.0
 40
1.0
 10
12.12153033356313
 20
4.980355974952971
 30
0.0
 10
12.25725557980072
 20
5.188642474664766
 30
0.0
 10
12.44068581249289
 20
5.378184466685091
 30
0.0
  0
SPLINE
  5
B4F
330
A8B
100
AcDbEntity
  8
FRONT
  6
Continuous
 62
     4
100
AcDbSpline
210
0.0
220
0.0
230
1.0
 70
    24
 71
     1
 72
     4
 73
     2
 74
     0
 42
0.0000000001
 43
0.0000000001
 40
0.0
 40
0.0
 40
1.0
 40
1.0
 10
12.14299382353853
 20
5.672179305901577
 30
0.0
 10
12.44068581249117
 20
5.378184466683152
 30
0.0
  0
SPLINE
  5
B50
330
A8B
100
AcDbEntity
  8
FRONT
  6
Continuous
 62
     4
100
AcDbSpline
210
0.0
220
0.0
230
1.0
 70
    24
 71
     1
 72
     4
 73
     2
 74
     0
 42
0.0000000001
 43
0.0000000001
 40
0.0
 40
0.0
 40
1.0
 40
1.0
 10
12.43641987849358
 20
4.976306217531615
 30
0.0
 10
12.44539691531411
 20
4.793762731808084
 30
0.0
  0
SPLINE
  5
B51
330
A8B
100
AcDbEntity
  8
FRONT
  6
Continuous
 62
     4
100
AcDbSpline
210
0.0
220
0.0
230
1.0
 70
    24
 71
     1
 72
     4
 73
     2
 74
     0
 42
0.0000000001
 43
0.0000000001
 40
0.0
 40
0.0
 40
1.0
 40
1.0
 10
12.1287291577043
 20
4.721327038522023
 30
0.0
 10
12.12153033357644
 20
4.980355974944933
 30
0.0
  0
SPLINE
  5
B52
330
A8B
100
AcDbEntity
  8
FRONT
  6
Continuous
 62
     4
100
AcDbSpline
210
0.0
220
0.0
230
1.0
 70
    24
 71
     1
 72
     4
 73
     2
 74
     0
 42
0.0000000001
 43
0.0000000001
 40
0.0
 40
0.0
 40
1.0
 40
1.0
 10
11.75466693733006
 20
5.546759538624923
 30
0.0
 10
11.77084472479986
 20
5.637701490563192
 30
0.0
  0
SPLINE
  5
B53
330
A8B
100
AcDbEntity
  8
FRONT
  6
Continuous
 62
     4
100
AcDbSpline
210
0.0
220
0.0
230
1.0
 70
    24
 71
     1
 72
     4
 73
     2
 74
     0
 42
0.0000000001
 43
0.0000000001
 40
0.0
 40
0.0
 40
1.0
 40
1.0
 10
12.26801481277344
 20
4.191302768055223
 30
0.0
 10
12.12872915770442
 20
4.721327038522042
 30
0.0
  0
SPLINE
  5
B54
330
A8B
100
AcDbEntity
  8
FRONT
  6
Continuous
 62
     4
100
AcDbSpline
210
0.0
220
0.0
230
1.0
 70
    24
 71
     1
 72
     4
 73
     2
 74
     0
 42
0.0000000001
 43
0.0000000001
 40
0.0
 40
0.0
 40
1.0
 40
1.0
 10
12.32131357354198
 20
4.035942971686977
 30
0.0
 10
12.26802043571945
 20
4.191303577397426
 30
0.0
  0
SPLINE
  5
B55
330
A8B
100
AcDbEntity
  8
FRONT
  6
Continuous
 62
     4
100
AcDbSpline
210
0.0
220
0.0
230
1.0
 70
     8
 71
     3
 72
    12
 73
     8
 74
     0
 42
0.0000000001
 43
0.0000000001
 40
0.0
 40
0.0
 40
0.0
 40
0.0
 40
0.2440298709825523
 40
0.488120310074948
 40
0.7306421972591242
 40
0.9701993202335991
 40
1.0
 40
1.0
 40
1.0
 40
1.0
 10
11.99195171433709
 20
5.828515939483442
 30
0.0
 10
11.96562176469131
 20
5.827267267325016
 30
0.0
 10
11.91614572163948
 20
5.81715304258248
 30
0.0
 10
11.84798307522928
 20
5.777355599814397
 30
0.0
 10
11.79694752140736
 20
5.718879229510207
 30
0.0
 10
11.77656470249855
 20
5.668220081294717
 30
0.0
 10
11.77135854082036
 20
5.640760675661909
 30
0.0
 10
11.77084472479986
 20
5.637701490563106
 30
0.0
  0
SPLINE
  5
B56
330
A8B
100
AcDbEntity
  8
FRONT
  6
Continuous
 62
     4
100
AcDbSpline
210
0.0
220
0.0
230
1.0
 70
    24
 71
     1
 72
     4
 73
     2
 74
     0
 42
0.0000000001
 43
0.0000000001
 40
0.0
 40
0.0
 40
1.0
 40
1.0
 10
11.10699408027199
 20
3.430964201513403
 30
0.0
 10
11.13483081029059
 20
3.485051129667143
 30
0.0
  0
SPLINE
  5
B57
330
A8B
100
AcDbEntity
  8
FRONT
  6
Continuous
 62
     4
100
AcDbSpline
210
0.0
220
0.0
230
1.0
 70
     8
 71
     2
 72
     6
 73
     3
 74
     0
 42
0.0000000001
 43
0.0000000001
 40
0.0
 40
0.0
 40
0.0
 40
1.0
 40
1.0
 40
1.0
 10
12.03715634521592
 20
5.830492901738478
 30
0.0
 10
12.08883088585918
 20
5.750552258515644
 30
0.0
 10
12.14299382353853
 20
5.672179305901581
 30
0.0
  0
SPLINE
  5
B58
330
A8B
100
AcDbEntity
  8
FRONT
  6
Continuous
 62
     4
100
AcDbSpline
210
0.0
220
0.0
230
1.0
 70
     8
 71
     2
 72
     6
 73
     3
 74
     0
 42
0.0000000001
 43
0.0000000001
 40
0.0
 40
0.0
 40
0.0
 40
1.0
 40
1.0
 40
1.0
 10
12.12153033357693
 20
4.98035597495837
 30
0.0
 10
11.94052361365615
 20
5.188224351265906
 30
0.0
 10
11.82908573895635
 20
5.442860719673213
 30
0.0
  0
LINE
  5
B59
330
A8B
100
AcDbEntity
  8
FRONT
  6
Continuous
 62
     4
100
AcDbLine
 10
17.89827503693186
 20
4.305849194799654
 30
0.0
 11
17.5908596611797
 21
2.933128552700317
 31
0.0
  0
LINE
  5
B5A
330
A8B
100
AcDbEntity
  8
FRONT
  6
Continuous
 62
     4
100
AcDbLine
 10
17.48879939540238
 20
2.948133384037639
 30
0.0
 11
17.5908596611797
 21
2.933128552700317
 31
0.0
  0
ELLIPSE
  5
B5B
330
A8B
100
AcDbEntity
  8
FRONT
  6
Continuous
 62
     4
100
AcDbEllipse
 10
17.97951315555683
 20
2.391212493729724
 30
0.0
 11
-0.4845839648273406
 21
-2.565417655414864
 31
0.0
210
0.0
220
0.0
230
1.0
 40
0.1877462969075319
 41
4.535131145218768
 42
4.737407662240475
  0
ELLIPSE
  5
B5C
330
A8B
100
AcDbEntity
  8
FRONT
  6
Continuous
 62
     4
100
AcDbEllipse
 10
14.515607907233
 20
3.779757555175363
 30
0.0
 11
-1.088811819638892
 21
-0.5813346379390692
 31
0.0
210
0.0
220
0.0
230
1.0
 40
0.9833059182791359
 41
3.141592653589792
 42
5.933643914404617
  0
ELLIPSE
  5
B5D
330
A8B
100
AcDbEntity
  8
FRONT
  6
Continuous
 62
     4
100
AcDbEllipse
 10
14.59586354321826
 20
3.865394052024021
 30
0.0
 11
-1.19524239155921
 21
-0.6381596805011488
 31
0.0
210
0.0
220
0.0
230
0.9999999999999998
 40
0.9833059182791515
 41
2.398313761510258
 42
5.985009272386527
  0
ELLIPSE
  5
B5E
330
A8B
100
AcDbEntity
  8
FRONT
  6
Continuous
 62
     4
100
AcDbEllipse
 10
14.58257986552084
 20
3.890273741521
 30
0.0
 11
-1.274184406475825
 21
-0.6803081278529028
 31
0.0
210
0.0
220
0.0
230
1.0
 40
0.9833059182793167
 41
2.393939591548555
 42
4.152487722051174
  0
ELLIPSE
  5
B5F
330
A8B
100
AcDbEntity
  8
FRONT
  6
Continuous
 62
     4
100
AcDbEllipse
 10
14.624437821126
 20
3.811875803681258
 30
0.0
 11
-1.09830870118782
 21
-0.5864051800623212
 31
0.0
210
0.0
220
0.0
230
0.9999999999999998
 40
0.9833059182791778
 41
2.421430119237937
 42
4.646060335807836
  0
ELLIPSE
  5
B60
330
A8B
100
AcDbEntity
  8
FRONT
  6
Continuous
 62
     4
100
AcDbEllipse
 10
14.59586354321826
 20
3.865394052023983
 30
0.0
 11
-1.15113543004724
 21
-0.6146102442832692
 31
0.0
210
0.0
220
0.0
230
1.0
 40
0.9833059182791595
 41
2.854453356631227
 42
5.726113818514622
  0
ELLIPSE
  5
B61
330
A8B
100
AcDbEntity
  8
FRONT
  6
Continuous
 62
     4
100
AcDbEllipse
 10
14.61409458346563
 20
3.831248190399238
 30
0.0
 11
-1.141300807152083
 21
-0.6093593764552427
 31
0.0
210
0.0
220
0.0
230
1.0
 40
0.9833059182793387
 41
2.854453356640041
 42
4.21149799577241
  0
ELLIPSE
  5
B62
330
A8B
100
AcDbEntity
  8
FRONT
  6
Continuous
 62
     4
100
AcDbEllipse
 10
14.58172285405612
 20
3.891878882778576
 30
0.0
 11
-1.289463506136375
 21
-0.6884658918589805
 31
0.0
210
0.0
220
0.0
230
0.9999999999999998
 40
0.9833059182791195
 41
2.395557650275634
 42
4.152487722049663
  0
SPLINE
  5
B63
330
A8B
100
AcDbEntity
  8
FRONT
  6
Continuous
 62
     4
100
AcDbSpline
210
0.0
220
0.0
230
1.0
 70
    24
 71
     1
 72
     4
 73
     2
 74
     0
 42
0.0000000001
 43
0.0000000001
 40
0.0
 40
0.0
 40
1.0
 40
1.0
 10
17.29745226804206
 20
3.509679345658438
 30
0.0
 10
13.748385681282
 20
3.593205653172363
 30
0.0
  0
SPLINE
  5
B64
330
A8B
100
AcDbEntity
  8
FRONT
  6
Continuous
 62
     4
100
AcDbSpline
210
0.0
220
0.0
230
1.0
 70
    24
 71
     1
 72
     4
 73
     2
 74
     0
 42
0.0000000001
 43
0.0000000001
 40
0.0
 40
0.0
 40
1.0
 40
1.0
 10
16.11893557758381
 20
4.995450787331964
 30
0.0
 10
15.12498870412169
 20
5.250072189631183
 30
0.0
  0
SPLINE
  5
B65
330
A8B
100
AcDbEntity
  8
FRONT
  6
Continuous
 62
     4
100
AcDbSpline
210
0.0
220
0.0
230
1.0
 70
    24
 71
     1
 72
     4
 73
     2
 74
     0
 42
0.0000000001
 43
0.0000000001
 40
0.0
 40
0.0
 40
1.0
 40
1.0
 10
17.59489872014192
 20
5.975264142052812
 30
0.0
 10
14.60613712230076
 20
5.930601946215392
 30
0.0
  0
SPLINE
  5
B66
330
A8B
100
AcDbEntity
  8
FRONT
  6
Continuous
 62
     4
100
AcDbSpline
210
0.0
220
0.0
230
1.0
 70
    24
 71
     1
 72
     4
 73
     2
 74
     0
 42
0.0000000001
 43
0.0000000001
 40
0.0
 40
0.0
 40
1.0
 40
1.0
 10
14.92350318018168
 20
5.636516777042869
 30
0.0
 10
16.19668973819389
 20
5.335334408581799
 30
0.0
  0
LINE
  5
B67
330
A8B
100
AcDbEntity
  8
FRONT
  6
Continuous
 62
     4
100
AcDbLine
 10
15.10230670790777
 20
4.183313301931558
 30
0.0
 11
15.04448787470278
 21
4.291605195933396
 31
0.0
  0
LINE
  5
B68
330
A8B
100
AcDbEntity
  8
FRONT
  6
Continuous
 62
     4
100
AcDbLine
 10
15.1976496365405
 20
3.611859513448073
 30
0.0
 11
15.22617856444389
 21
3.558426203482308
 31
0.0
  0
LINE
  5
B69
330
A8B
100
AcDbEntity
  8
FRONT
  6
Continuous
 62
     4
100
AcDbLine
 10
13.80446405246526
 20
3.591885864106183
 30
0.0
 11
13.80379348619884
 21
3.593141802474725
 31
0.0
  0
LINE
  5
B6A
330
A8B
100
AcDbEntity
  8
FRONT
  6
Continuous
 62
     4
100
AcDbLine
 10
14.83756674726533
 20
5.331362856545027
 30
0.0
 11
14.69295620412083
 21
5.331857548057461
 31
0.0
  0
LINE
  5
B6B
330
A8B
100
AcDbEntity
  8
FRONT
  6
Continuous
 62
     4
100
AcDbLine
 10
14.05370990737933
 20
4.186900398182689
 30
0.0
 11
13.99589107417434
 21
4.295192292184527
 31
0.0
  0
LINE
  5
B6C
330
A8B
100
AcDbEntity
  8
FRONT
  6
Continuous
 62
     4
100
AcDbLine
 10
14.44227717851973
 20
4.461613941808328
 30
0.0
 11
14.40175106321881
 21
4.382834230900383
 31
0.0
  0
LINE
  5
B6D
330
A8B
100
AcDbEntity
  8
FRONT
  6
Continuous
 62
     4
100
AcDbLine
 10
14.36658232700411
 20
4.549988550519461
 30
0.0
 11
14.38057235479898
 21
4.577184109163312
 31
0.0
  0
LINE
  5
B6E
330
A8B
100
AcDbEntity
  8
FRONT
  6
Continuous
 62
     4
100
AcDbLine
 10
14.40175106321881
 20
4.382834230900383
 30
0.0
 11
14.3439322300138
 21
4.491126124902223
 31
0.0
  0
LINE
  5
B6F
330
A8B
100
AcDbEntity
  8
FRONT
  6
Continuous
 62
     4
100
AcDbLine
 10
13.934096024833
 20
4.306515336617805
 30
0.0
 11
13.903565927193
 21
4.308647770791533
 31
0.0
  0
LINE
  5
B70
330
A8B
100
AcDbEntity
  8
FRONT
  6
Continuous
 62
     4
100
AcDbLine
 10
13.77533931878937
 20
4.042581236833521
 30
0.0
 11
13.75872784864233
 21
4.067853483548937
 31
0.0
  0
LINE
  5
B71
330
A8B
100
AcDbEntity
  8
FRONT
  6
Continuous
 62
     4
100
AcDbLine
 10
13.96527075091378
 20
4.193077603436552
 30
0.0
 11
14.05370990737933
 21
4.186900398182689
 31
0.0
  0
LINE
  5
B72
330
A8B
100
AcDbEntity
  8
FRONT
  6
Continuous
 62
     4
100
AcDbLine
 10
13.96527075091378
 20
4.193077603436552
 30
0.0
 11
13.903565927193
 21
4.308647770791533
 31
0.0
  0
LINE
  5
B73
330
A8B
100
AcDbEntity
  8
FRONT
  6
Continuous
 62
     4
100
AcDbLine
 10
15.248091543825
 20
4.037543166926568
 30
0.0
 11
15.26559078171205
 21
4.062698725899988
 31
0.0
  0
LINE
  5
B74
330
A8B
100
AcDbEntity
  8
FRONT
  6
Continuous
 62
     4
100
AcDbLine
 10
15.19095269576139
 20
4.18888472481321
 30
0.0
 11
15.10230670790777
 21
4.183313301931558
 31
0.0
  0
LINE
  5
B75
330
A8B
100
AcDbEntity
  8
FRONT
  6
Continuous
 62
     4
100
AcDbLine
 10
14.71128105223291
 20
4.474369018649596
 30
0.0
 11
14.76822961098702
 21
4.367707106841534
 31
0.0
  0
LINE
  5
B76
330
A8B
100
AcDbEntity
  8
FRONT
  6
Continuous
 62
     4
100
AcDbLine
 10
15.09864637409872
 20
4.302531580239758
 30
0.0
 11
15.12924787204065
 21
4.304454892168187
 31
0.0
  0
LINE
  5
B77
330
A8B
100
AcDbEntity
  8
FRONT
  6
Continuous
 62
     4
100
AcDbLine
 10
15.19095269576139
 20
4.18888472481321
 30
0.0
 11
15.12924787204065
 21
4.304454892168187
 31
0.0
  0
LINE
  5
B78
330
A8B
100
AcDbEntity
  8
FRONT
  6
Continuous
 62
     4
100
AcDbLine
 10
13.88468018453357
 20
3.851921520671986
 30
0.0
 11
13.82879362639822
 21
3.956594356394368
 31
0.0
  0
LINE
  5
B79
330
A8B
100
AcDbEntity
  8
FRONT
  6
Continuous
 62
     4
100
AcDbLine
 10
14.44227717851973
 20
4.461613941808328
 30
0.0
 11
14.38057235479898
 21
4.577184109163312
 31
0.0
  0
LINE
  5
B7A
330
A8B
100
AcDbEntity
  8
FRONT
  6
Continuous
 62
     4
100
AcDbLine
 10
14.67478420277406
 20
4.548934236990556
 30
0.0
 11
14.66175334302106
 21
4.576222230137708
 31
0.0
  0
LINE
  5
B7B
330
A8B
100
AcDbEntity
  8
FRONT
  6
Continuous
 62
     4
100
AcDbLine
 10
15.22782923901037
 20
3.55838735530968
 30
0.0
 11
15.21184500108873
 21
3.588325064231844
 31
0.0
  0
ELLIPSE
  5
B7C
330
A8B
100
AcDbEntity
  8
FRONT
  6
Continuous
 62
     4
100
AcDbEllipse
 10
14.57425026010683
 20
3.669923248444872
 30
0.0
 11
-0.5697208004759025
 21
-0.3041833576987884
 31
0.0
210
0.0
220
0.0
230
1.0
 40
0.9833059182803454
 41
3.141592653589792
 42
4.211497995854738
  0
ELLIPSE
  5
B7D
330
A8B
100
AcDbEntity
  8
FRONT
  6
Continuous
 62
     4
100
AcDbEllipse
 10
14.69467022705201
 20
5.328647265550291
 30
0.0
 11
-0.0012380506136597
 21
-0.0199616439988246
 31
0.0
210
0.0
220
0.0
230
1.0
 40
0.0966394604989199
 41
4.556861561911704
 42
5.60405911256103
  0
ELLIPSE
  5
B7E
330
A8B
100
AcDbEntity
  8
FRONT
  6
Continuous
 62
     4
100
AcDbEllipse
 10
15.13698707744814
 20
4.149555768557871
 30
0.0
 11
-0.1387163939545198
 21
-0.0740629769062388
 31
0.0
210
0.0
220
0.0
230
1.0
 40
0.983305918279537
 41
3.141592653589792
 42
4.278357181632673
  0
ELLIPSE
  5
B7F
330
A8B
100
AcDbEntity
  8
FRONT
  6
Continuous
 62
     4
100
AcDbEllipse
 10
14.56910786775645
 20
3.679554149551463
 30
0.0
 11
-0.5697232499858903
 21
-0.3041793370702448
 31
0.0
210
0.0
220
0.0
230
1.0
 40
0.9833058533003276
 41
2.452122662756898
 42
2.51349782037308
  0
ELLIPSE
  5
B80
330
A8B
100
AcDbEntity
  8
FRONT
  6
Continuous
 62
     4
100
AcDbEllipse
 10
15.13698707744945
 20
4.149555768557799
 30
0.0
 11
-0.1387163939436924
 21
-0.0740629769240791
 31
0.0
210
0.0
220
0.0
230
1.0
 40
0.9833059182820004
 41
2.05024370739385
 42
3.141592653473066
  0
ELLIPSE
  5
B81
330
A8B
100
AcDbEntity
  8
FRONT
  6
Continuous
 62
     4
100
AcDbEllipse
 10
13.95207889255067
 20
4.038250081933183
 30
0.0
 11
-0.138716393954182
 21
-0.0740629769072034
 31
0.0
210
0.0
220
0.0
230
1.0
 40
0.9833059182793643
 41
4.144638809916375
 42
6.033222504441043
  0
ELLIPSE
  5
B82
330
A8B
100
AcDbEntity
  8
FRONT
  6
Continuous
 62
     4
100
AcDbEllipse
 10
14.50740336589031
 20
3.795124266565245
 30
0.0
 11
-0.6878480648487471
 21
-0.3672534576645039
 31
0.0
210
0.0
220
0.0
230
1.0
 40
0.9833059182825293
 41
3.364014017275521
 42
4.011784423528292
  0
ELLIPSE
  5
B83
330
A8B
100
AcDbEntity
  8
FRONT
  6
Continuous
 62
     4
100
AcDbEllipse
 10
15.19869190116777
 20
4.03398560119947
 30
0.0
 11
-0.1387163939305158
 21
-0.0740629769569428
 31
0.0
210
0.0
220
0.0
230
0.9999999999999998
 40
0.9833059182794855
 41
3.579055150075236
 42
4.278357181272085
  0
ELLIPSE
  5
B84
330
A8B
100
AcDbEntity
  8
FRONT
  6
Continuous
 62
     4
100
AcDbEllipse
 10
14.57425026010534
 20
3.669923248441066
 30
0.0
 11
-0.5697208004536415
 21
-0.3041833577478669
 31
0.0
210
0.0
220
0.0
230
0.9999999999999998
 40
0.9833059182795919
 41
4.211497995770305
 42
5.916687780929657
  0
ELLIPSE
  5
B85
330
A8B
100
AcDbEntity
  8
FRONT
  6
Continuous
 62
     4
100
AcDbEllipse
 10
14.51995578064691
 20
4.508250739867492
 30
0.0
 11
-0.1387190760836097
 21
-0.074062710247625
 31
0.0
210
0.0
220
0.0
230
0.9999999999999998
 40
0.9832989179835243
 41
3.097450943316431
 42
3.141602023580455
  0
ELLIPSE
  5
B86
330
A8B
100
AcDbEntity
  8
FRONT
  6
Continuous
 62
     4
100
AcDbEllipse
 10
14.51995778039392
 20
4.508251751292131
 30
0.0
 11
-0.1387163939537963
 21
-0.0740629769078515
 31
0.0
210
0.0
220
0.0
230
0.9999999999999998
 40
0.9833059182791126
 41
3.141592653589792
 42
5.325554732817813
  0
ELLIPSE
  5
B87
330
A8B
100
AcDbEntity
  8
FRONT
  6
Continuous
 62
     4
100
AcDbEllipse
 10
14.60429708204515
 20
3.613646995939661
 30
0.0
 11
-0.3532268962687824
 21
-0.1885936818296914
 31
0.0
210
0.0
220
0.0
230
1.0
 40
0.9833059182785307
 41
3.188548543609073
 42
4.2114979956971
  0
ELLIPSE
  5
B88
330
A8B
100
AcDbEntity
  8
FRONT
  6
Continuous
 62
     4
100
AcDbEllipse
 10
14.08380160591652
 20
4.540074528313537
 30
0.0
 11
-0.3164233418824987
 21
-0.1689436554341971
 31
0.0
210
0.0
220
0.0
230
1.0
 40
0.9833059182770933
 41
1.003046156315968
 42
2.183962079224543
  0
ELLIPSE
  5
B89
330
A8B
100
AcDbEntity
  8
FRONT
  6
Continuous
 62
     4
100
AcDbEllipse
 10
14.50740336587441
 20
3.795124266572471
 30
0.0
 11
-0.6878480647677431
 21
-0.3672534578178684
 31
0.0
210
0.0
220
0.0
230
1.0
 40
0.9833059182652659
 41
4.41121156824879
 42
5.058981974505009
  0
ELLIPSE
  5
B8A
330
A8B
100
AcDbEntity
  8
FRONT
  6
Continuous
 62
     4
100
AcDbEllipse
 10
14.58172285396982
 20
3.891878882787051
 30
0.0
 11
-1.289463505490717
 21
-0.6884658929129689
 31
0.0
210
0.0
220
0.0
230
0.9999999999999998
 40
0.9833059182902299
 41
5.42507150311212
 42
5.993725673721996
  0
ELLIPSE
  5
B8B
330
A8B
100
AcDbEntity
  8
FRONT
  6
Continuous
 62
     4
100
AcDbEllipse
 10
13.97044885753497
 20
5.616005562204333
 30
0.0
 11
-0.0211384512596285
 21
-0.8497371156793303
 31
0.0
210
0.0
220
0.0
230
0.9999999999999998
 40
0.1896634436923256
 41
1.168100390367426
 42
1.749625419812159
  0
ELLIPSE
  5
B8C
330
A8B
100
AcDbEntity
  8
FRONT
  6
Continuous
 62
     4
100
AcDbEllipse
 10
14.58166260411466
 20
4.392681583937155
 30
0.0
 11
-0.138716393954067
 21
-0.0740629769073293
 31
0.0
210
0.0
220
0.0
230
1.0
 40
0.9833059182794162
 41
3.353232323526823
 42
5.325554732821572
  0
ELLIPSE
  5
B8D
330
A8B
100
AcDbEntity
  8
FRONT
  6
Continuous
 62
     4
100
AcDbEllipse
 10
13.89037417432644
 20
4.153820311544767
 30
0.0
 11
-0.1387164275215775
 21
-0.0740631738835355
 31
0.0
210
0.0
220
0.0
230
1.0
 40
0.9833055364643515
 41
6.283184319510271
 42
6.372751261455347
  0
ELLIPSE
  5
B8E
330
A8B
100
AcDbEntity
  8
FRONT
  6
Continuous
 62
     4
100
AcDbEllipse
 10
14.50740336586205
 20
3.795124266556618
 30
0.0
 11
-0.6878480646011706
 21
-0.3672534581129616
 31
0.0
210
0.0
220
0.0
230
0.9999999999999998
 40
0.9833059182837756
 41
5.458409119012037
 42
6.053253327806824
  0
ELLIPSE
  5
B8F
330
A8B
100
AcDbEntity
  8
FRONT
  6
Continuous
 62
     4
100
AcDbEllipse
 10
14.58207327753735
 20
3.891222556444417
 30
0.0
 11
-1.314616796581824
 21
-0.7018956497286183
 31
0.0
210
0.0
220
0.0
230
0.9999999999999998
 40
0.9833059182747907
 41
4.552187304562112
 42
5.292715336509727
  0
ELLIPSE
  5
B90
330
A8B
100
AcDbEntity
  8
FRONT
  6
Continuous
 62
     4
100
AcDbEllipse
 10
14.58688798533232
 20
3.646253396861238
 30
0.0
 11
-0.3532268962957501
 21
-0.1885936817720534
 31
0.0
210
0.0
220
0.0
230
1.0
 40
0.9833059182800568
 41
3.141592653589792
 42
4.211497995858031
  0
ELLIPSE
  5
B91
330
A8B
100
AcDbEntity
  8
FRONT
  6
Continuous
 62
     4
100
AcDbEllipse
 10
5.175521261857809
 20
0.522334779761014
 30
0.0
 11
-7.504621568768301
 21
-3.321134731786813
 31
0.0
210
0.0
220
0.0
230
1.0
 40
0.3415132900699109
 41
3.041715105904696
 42
3.07577658346799
  0
ELLIPSE
  5
B92
330
A8B
100
AcDbEntity
  8
FRONT
  6
Continuous
 62
     4
100
AcDbEllipse
 10
14.58688798535681
 20
3.646253396862427
 30
0.0
 11
-0.3532268961353468
 21
-0.1885936820254782
 31
0.0
210
0.0
220
0.0
230
1.0
 40
0.9833059183033368
 41
2.433542523355816
 42
3.141592652947553
  0
ELLIPSE
  5
B93
330
A8B
100
AcDbEntity
  8
FRONT
  6
Continuous
 62
     4
100
AcDbEllipse
 10
14.60429708204586
 20
3.613646995941261
 30
0.0
 11
-0.3532268962799985
 21
-0.1885936818057033
 31
0.0
210
0.0
220
0.0
230
1.0
 40
0.9833059182790311
 41
4.211497995764053
 42
5.866656694161925
  0
ELLIPSE
  5
B94
330
A8B
100
AcDbEntity
  8
FRONT
  6
Continuous
 62
     4
100
AcDbEllipse
 10
14.61409458346357
 20
3.831248190401323
 30
0.0
 11
-1.141300807144346
 21
-0.6093593764680999
 31
0.0
210
0.0
220
0.0
230
1.0
 40
0.9833059182778084
 41
4.21149799575997
 42
5.305260955205676
  0
ELLIPSE
  5
B95
330
A8B
100
AcDbEntity
  8
FRONT
  6
Continuous
 62
     4
100
AcDbEllipse
 10
14.58172613529574
 20
3.891872737174622
 30
0.0
 11
-1.2898928947353
 21
-0.6886951495342341
 31
0.0
210
0.0
220
0.0
230
0.9999999999999998
 40
0.9833059182785364
 41
4.211497995763918
 42
5.292715336570157
  0
ELLIPSE
  5
B96
330
A8B
100
AcDbEntity
  8
FRONT
  6
Continuous
 62
     4
100
AcDbEllipse
 10
14.56910818960469
 20
3.679554099198936
 30
0.0
 11
-0.5697208004516448
 21
-0.3041833577510329
 31
0.0
210
0.0
220
0.0
230
1.0
 40
0.9833059182790732
 41
4.211497995764176
 42
5.932188545061793
  0
ELLIPSE
  5
B97
330
A8B
100
AcDbEntity
  8
FRONT
  6
Continuous
 62
     4
100
AcDbEllipse
 10
12.57015373105181
 20
5.400676431794027
 30
0.0
 11
-0.2869743301033756
 21
0.8000910781621206
 31
0.0
210
0.0
220
0.0
230
1.0
 40
0.1844576932552187
 41
4.318012958595913
 42
4.737148911237754
  0
ELLIPSE
  5
B98
330
A8B
100
AcDbEntity
  8
FRONT
  6
Continuous
 62
     4
100
AcDbEllipse
 10
14.50740336588399
 20
3.79512426655381
 30
0.0
 11
-0.8808790105358404
 21
-0.4703158722400647
 31
0.0
210
0.0
220
0.0
230
1.0
 40
0.9833059182791467
 41
2.390668816843747
 42
5.988551940869403
  0
ELLIPSE
  5
B99
330
A8B
100
AcDbEntity
  8
FRONT
  6
Continuous
 62
     4
100
AcDbEllipse
 10
14.76472077294693
 20
5.467799863486597
 30
0.0
 11
-0.2364016993902184
 21
-0.8164644729534451
 31
0.0
210
0.0
220
0.0
230
0.9999999999999998
 40
0.1280545533618557
 41
1.440078277354396
 42
1.815854610802254
  0
ELLIPSE
  5
B9A
330
A8B
100
AcDbEntity
  8
FRONT
  6
Continuous
 62
     4
100
AcDbEllipse
 10
14.58257986552555
 20
3.890273741520238
 30
0.0
 11
-1.274184406513254
 21
-0.6803081277927215
 31
0.0
210
0.0
220
0.0
230
0.9999999999999998
 40
0.9833059182784806
 41
5.425071504014952
 42
5.994214383758207
  0
ELLIPSE
  5
B9B
330
A8B
100
AcDbEntity
  8
FRONT
  6
Continuous
 62
     4
100
AcDbEllipse
 10
13.78292511660905
 20
5.616499995611142
 30
0.0
 11
-0.0163260565688646
 21
0.8498431972198538
 31
0.0
210
0.0
220
0.0
230
1.0
 40
0.1967958030989425
 41
4.311714536223274
 42
4.876679898782334
  0
ELLIPSE
  5
B9C
330
A8B
100
AcDbEntity
  8
FRONT
  6
Continuous
 62
     4
100
AcDbEllipse
 10
14.50740336587235
 20
3.795124266552682
 30
0.0
 11
-0.6878480648432717
 21
-0.3672534577212541
 31
0.0
210
0.0
220
0.0
230
1.0
 40
0.9833059182736951
 41
2.316816466017689
 42
2.964586872260165
  0
ELLIPSE
  5
B9D
330
A8B
100
AcDbEntity
  8
FRONT
  6
Continuous
 62
     4
100
AcDbEllipse
 10
14.56910818960365
 20
3.679554099196997
 30
0.0
 11
-0.5697208004383743
 21
-0.3041833577798674
 31
0.0
210
0.0
220
0.0
230
0.9999999999999998
 40
0.9833059182783683
 41
3.141592653589792
 42
4.211497995714275
  0
ELLIPSE
  5
B9E
330
A8B
100
AcDbEntity
  8
FRONT
  6
Continuous
 62
     4
100
AcDbEllipse
 10
14.61736004955248
 20
5.312895778975766
 30
0.0
 11
-0.0004109759370388
 21
-0.119983668084697
 31
0.0
210
0.0
220
0.0
230
0.9999999999999998
 40
0.0873685432136738
 41
4.487162694202337
 42
4.526241732837313
  0
ELLIPSE
  5
B9F
330
A8B
100
AcDbEntity
  8
FRONT
  6
Continuous
 62
     4
100
AcDbEllipse
 10
14.56910819127553
 20
3.679554099860636
 30
0.0
 11
-0.5697207959968914
 21
-0.3041833623035364
 31
0.0
210
0.0
220
0.0
230
1.0
 40
0.9833059196149559
 41
2.938742608956589
 42
3.141592644282478
  0
ELLIPSE
  5
BA0
330
A8B
100
AcDbEntity
  8
FRONT
  6
Continuous
 62
     4
100
AcDbEllipse
 10
15.08465295287089
 20
4.536650762276023
 30
0.0
 11
-0.3164233418788596
 21
-0.1689436554438716
 31
0.0
210
0.0
220
0.0
230
0.9999999999999998
 40
0.9833059182783118
 41
0.0
 42
1.136764527997375
  0
ELLIPSE
  5
BA1
330
A8B
100
AcDbEntity
  8
FRONT
  6
Continuous
 62
     4
100
AcDbEllipse
 10
14.58258259988541
 20
3.890268620186363
 30
0.0
 11
-1.274168156721289
 21
-0.6802994518514309
 31
0.0
210
0.0
220
0.0
230
1.0
 40
0.9833059182777518
 41
4.211497995758451
 42
5.292715337516464
  0
ELLIPSE
  5
BA2
330
A8B
100
AcDbEntity
  8
FRONT
  6
Continuous
 62
     4
100
AcDbEllipse
 10
13.89037406882998
 20
4.153820249288088
 30
0.0
 11
-0.1387163939551331
 21
-0.0740629769055295
 31
0.0
210
0.0
220
0.0
230
0.9999999999999998
 40
0.9833059182795551
 41
4.144638809929066
 42
6.283185307179584
  0
ELLIPSE
  5
BA3
330
A8B
100
AcDbEntity
  8
FRONT
  6
Continuous
 62
     4
100
AcDbEllipse
 10
13.56825684262709
 20
3.682977865236207
 30
0.0
 11
-0.3164233420262994
 21
-0.1689436552114316
 31
0.0
210
0.0
220
0.0
230
0.9999999999999998
 40
0.983305918256555
 41
2.372365793430124
 42
3.141592654310951
  0
ELLIPSE
  5
BA4
330
A8B
100
AcDbEntity
  8
FRONT
  6
Continuous
 62
     4
100
AcDbEllipse
 10
14.5868879853312
 20
3.646253396859196
 30
0.0
 11
-0.3532268962794111
 21
-0.1885936818066905
 31
0.0
210
0.0
220
0.0
230
1.0
 40
0.9833059182788758
 41
4.211497995761056
 42
5.951301366806
  0
SPLINE
  5
BA5
330
A8B
100
AcDbEntity
  8
FRONT
  6
Continuous
 62
     4
100
AcDbSpline
210
0.0
220
0.0
230
1.0
 70
    24
 71
     1
 72
     4
 73
     2
 74
     0
 42
0.0000000001
 43
0.0000000001
 40
0.0
 40
0.0
 40
1.0
 40
1.0
 10
14.69249519034973
 20
5.313189824235679
 30
0.0
 10
14.60768112625891
 20
5.315938369092338
 30
0.0
  0
SPLINE
  5
BA6
330
A8B
100
AcDbEntity
  8
FRONT
  6
Continuous
 62
     4
100
AcDbSpline
210
0.0
220
0.0
230
1.0
 70
    24
 71
     1
 72
     4
 73
     2
 74
     0
 42
0.0000000001
 43
0.0000000001
 40
0.0
 40
0.0
 40
1.0
 40
1.0
 10
14.83756674726533
 20
5.331362856545028
 30
0.0
 10
14.68992440208029
 20
5.336837850675596
 30
0.0
  0
SPLINE
  5
BA7
330
A8B
100
AcDbEntity
  8
FRONT
  6
Continuous
 62
     4
100
AcDbSpline
210
0.0
220
0.0
230
1.0
 70
    24
 71
     1
 72
     4
 73
     2
 74
     0
 42
0.0000000001
 43
0.0000000001
 40
0.0
 40
0.0
 40
1.0
 40
1.0
 10
12.81667247474081
 20
5.142126865126981
 30
0.0
 10
12.502260809944
 20
5.038954222702708
 30
0.0
  0
SPLINE
  5
BA8
330
A8B
100
AcDbEntity
  8
FRONT
  6
Continuous
 62
     4
100
AcDbSpline
210
0.0
220
0.0
230
1.0
 70
     8
 71
     2
 72
     6
 73
     3
 74
     0
 42
0.0000000001
 43
0.0000000001
 40
0.0
 40
0.0
 40
0.0
 40
1.0
 40
1.0
 40
1.0
 10
13.94329233751025
 20
5.287986048440243
 30
0.0
 10
13.36904800632871
 20
5.308177948949881
 30
0.0
 10
12.81667247474081
 20
5.142126865127038
 30
0.0
  0
SPLINE
  5
BA9
330
A8B
100
AcDbEntity
  8
FRONT
  6
Continuous
 62
     4
100
AcDbSpline
210
0.0
220
0.0
230
1.0
 70
     8
 71
     3
 72
    11
 73
     7
 74
     0
 42
0.0000000001
 43
0.0000000001
 40
0.0
 40
0.0
 40
0.0
 40
0.0
 40
0.2500000000004002
 40
0.5000000000000384
 40
0.7500000000002445
 40
1.0
 40
1.0
 40
1.0
 40
1.0
 10
13.24329890969342
 20
4.393410854946448
 30
0.0
 10
13.24233341373558
 20
4.393971351428181
 30
0.0
 10
13.24014478598936
 20
4.395146401648325
 30
0.0
 10
13.23597462327683
 20
4.397127664258944
 30
0.0
 10
13.23126018027509
 20
4.399158067618833
 30
0.0
 10
13.22803724322823
 20
4.400426501220721
 30
0.0
 10
13.22638220773661
 20
4.401049253290286
 30
0.0
  0
SPLINE
  5
BAA
330
A8B
100
AcDbEntity
  8
FRONT
  6
Continuous
 62
     4
100
AcDbSpline
210
0.0
220
0.0
230
1.0
 70
    24
 71
     1
 72
     4
 73
     2
 74
     0
 42
0.0000000001
 43
0.0000000001
 40
0.0
 40
0.0
 40
1.0
 40
1.0
 10
14.13280283862451
 20
5.763209387832385
 30
0.0
 10
14.60909340460244
 20
5.711114127719043
 30
0.0
  0
SPLINE
  5
BAB
330
A8B
100
AcDbEntity
  8
FRONT
  6
Continuous
 62
     4
100
AcDbSpline
210
0.0
220
0.0
230
1.0
 70
    24
 71
     1
 72
     4
 73
     2
 74
     0
 42
0.0000000001
 43
0.0000000001
 40
0.0
 40
0.0
 40
1.0
 40
1.0
 10
14.6090865051094
 20
5.711625498686736
 30
0.0
 10
14.92350318018168
 20
5.636516777042869
 30
0.0
  0
SPLINE
  5
BAC
330
A8B
100
AcDbEntity
  8
FRONT
  6
Continuous
 62
     4
100
AcDbSpline
210
0.0
220
0.0
230
1.0
 70
    24
 71
     1
 72
     4
 73
     2
 74
     0
 42
0.0000000001
 43
0.0000000001
 40
0.0
 40
0.0
 40
1.0
 40
1.0
 10
14.70338694437526
 20
4.489896482910467
 30
0.0
 10
14.71097785761778
 20
4.474938976988299
 30
0.0
  0
SPLINE
  5
BAD
330
A8B
100
AcDbEntity
  8
FRONT
  6
Continuous
 62
     4
100
AcDbSpline
210
0.0
220
0.0
230
1.0
 70
    24
 71
     1
 72
     4
 73
     2
 74
     0
 42
0.0000000001
 43
0.0000000001
 40
0.0
 40
0.0
 40
1.0
 40
1.0
 10
13.94524870938069
 20
5.758663903675718
 30
0.0
 10
13.94849591684476
 20
5.910374238520851
 30
0.0
  0
SPLINE
  5
BAE
330
A8B
100
AcDbEntity
  8
FRONT
  6
Continuous
 62
     4
100
AcDbSpline
210
0.0
220
0.0
230
1.0
 70
     8
 71
     3
 72
    27
 73
    23
 74
     0
 42
0.0000000001
 43
0.0000000001
 40
0.0
 40
0.0
 40
0.0
 40
0.0
 40
0.2366252197469015
 40
0.5011857703755036
 40
0.6170954909511118
 40
0.6813809129738626
 40
0.7150700700809978
 40
0.7322963567034382
 40
0.7410042896839962
 40
0.7453818723743754
 40
0.7475765575058172
 40
0.7486753722519263
 40
0.7492251475017373
 40
0.7495001270756441
 40
0.7496376398473227
 40
0.7497064019790262
 40
0.7497407844813077
 40
0.7497751679411861
 40
0.7516543580812576
 40
0.7684406215659994
 40
0.8166950275236356
 40
1.0
 40
1.0
 40
1.0
 40
1.0
 10
14.60909339101644
 20
5.711114124413491
 30
0.0
 10
14.60948781698238
 20
5.682031763659281
 30
0.0
 10
14.61005082917718
 20
5.620220915826541
 30
0.0
 10
14.61001311662804
 20
5.543096055524626
 30
0.0
 10
14.60961852963504
 20
5.487687827984436
 30
0.0
 10
14.60933943853557
 20
5.461104315057176
 30
0.0
 10
14.60916381097548
 20
5.446814350617032
 30
0.0
 10
14.60906622380328
 20
5.439426844543143
 30
0.0
 10
14.60901490310633
 20
5.435673462883298
 30
0.0
 10
14.60898860047587
 20
5.4337819906927
 30
0.0
 10
14.60897045899501
 20
5.432493419559841
 30
0.0
 10
14.60896905688914
 20
5.432393429389828
 30
0.0
 10
14.60896765478331
 20
5.432293439219815
 30
0.0
 10
14.60896625267744
 20
5.432193449049803
 30
0.0
 10
14.6089648505716
 20
5.43209345887979
 30
0.0
 10
14.60896344846577
 20
5.431993468709777
 30
0.0
 10
14.60896204635992
 20
5.431893478539761
 30
0.0
 10
14.60895863749725
 20
5.431652428828829
 30
0.0
 10
14.60892682016698
 20
5.429338529498513
 30
0.0
 10
14.60881020481483
 20
5.421061993311028
 30
0.0
 10
14.6083339813956
 20
5.390397134061578
 30
0.0
 10
14.60776482101609
 20
5.362037547077322
 30
0.0
 10
14.60723379104669
 20
5.339726363785728
 30
0.0
  0
SPLINE
  5
BAF
330
A8B
100
AcDbEntity
  8
FRONT
  6
Continuous
 62
     4
100
AcDbSpline
210
0.0
220
0.0
230
1.0
 70
    24
 71
     1
 72
     4
 73
     2
 74
     0
 42
0.0000000001
 43
0.0000000001
 40
0.0
 40
0.0
 40
1.0
 40
1.0
 10
13.77533931878937
 20
4.042581236833521
 30
0.0
 10
13.81073371171078
 20
3.987366922169501
 30
0.0
  0
SPLINE
  5
BB0
330
A8B
100
AcDbEntity
  8
FRONT
  6
Continuous
 62
     4
100
AcDbSpline
210
0.0
220
0.0
230
1.0
 70
    24
 71
     1
 72
     4
 73
     2
 74
     0
 42
0.0000000001
 43
0.0000000001
 40
0.0
 40
0.0
 40
1.0
 40
1.0
 10
15.248091543825
 20
4.037543166926567
 30
0.0
 10
15.21878522660067
 20
3.982550183926618
 30
0.0
  0
SPLINE
  5
BB1
330
A8B
100
AcDbEntity
  8
FRONT
  6
Continuous
 62
     4
100
AcDbSpline
210
0.0
220
0.0
230
1.0
 70
     8
 71
     3
 72
    13
 73
     9
 74
     0
 42
0.0000000001
 43
0.0000000001
 40
0.0
 40
0.0
 40
0.0
 40
0.0
 40
0.2195179240467221
 40
0.3900257003637577
 40
0.5330606690638802
 40
0.6760211201067881
 40
0.8783846008238288
 40
1.0
 40
1.0
 40
1.0
 40
1.0
 10
13.99589107417438
 20
4.295192292184528
 30
0.0
 10
14.02503990650797
 20
4.289018514220859
 30
0.0
 10
14.07813545040565
 20
4.286623059621509
 30
0.0
 10
14.15671911404191
 20
4.301478243787753
 30
0.0
 10
14.22171844805865
 20
4.332770470360475
 30
0.0
 10
14.28033457719675
 20
4.380945161854135
 30
0.0
 10
14.3195727746653
 20
4.436285674998737
 30
0.0
 10
14.33825358880528
 20
4.475847256447877
 30
0.0
 10
14.3439322300138
 20
4.491126124902221
 30
0.0
  0
SPLINE
  5
BB2
330
A8B
100
AcDbEntity
  8
FRONT
  6
Continuous
 62
     4
100
AcDbSpline
210
0.0
220
0.0
230
1.0
 70
    24
 71
     1
 72
     4
 73
     2
 74
     0
 42
0.0000000001
 43
0.0000000001
 40
0.0
 40
0.0
 40
1.0
 40
1.0
 10
14.67478420277406
 20
4.548934236990556
 30
0.0
 10
14.70338694437526
 20
4.489896482910471
 30
0.0
  0
SPLINE
  5
BB3
330
A8B
100
AcDbEntity
  8
FRONT
  6
Continuous
 62
     4
100
AcDbSpline
210
0.0
220
0.0
230
1.0
 70
     8
 71
     3
 72
    11
 73
     7
 74
     0
 42
0.0000000001
 43
0.0000000001
 40
0.0
 40
0.0
 40
0.0
 40
0.0
 40
0.2500000000000269
 40
0.5000000000000613
 40
0.749999999999787
 40
1.0
 40
1.0
 40
1.0
 40
1.0
 10
13.32453443224985
 20
4.565040025424456
 30
0.0
 10
13.32359602231685
 20
4.565724324465811
 30
0.0
 10
13.3214696827018
 20
4.567186493161131
 30
0.0
 10
13.31741499243888
 20
4.569735924742813
 30
0.0
 10
13.31284498611547
 20
4.572415134760538
 30
0.0
 10
13.30974180656181
 20
4.574123313175141
 30
0.0
 10
13.30815217000305
 20
4.574971618696021
 30
0.0
  0
SPLINE
  5
BB4
330
A8B
100
AcDbEntity
  8
FRONT
  6
Continuous
 62
     4
100
AcDbSpline
210
0.0
220
0.0
230
1.0
 70
     8
 71
     2
 72
     6
 73
     3
 74
     0
 42
0.0000000001
 43
0.0000000001
 40
0.0
 40
0.0
 40
0.0
 40
1.0
 40
1.0
 40
1.0
 10
13.22638220773663
 20
4.401049253290271
 30
0.0
 10
13.2613789349715
 20
4.490908928155922
 30
0.0
 10
13.308152170003
 20
4.574971618696058
 30
0.0
  0
SPLINE
  5
BB5
330
A8B
100
AcDbEntity
  8
FRONT
  6
Continuous
 62
     4
100
AcDbSpline
210
0.0
220
0.0
230
1.0
 70
    24
 71
     1
 72
     4
 73
     2
 74
     0
 42
0.0000000001
 43
0.0000000001
 40
0.0
 40
0.0
 40
1.0
 40
1.0
 10
13.80267447603256
 20
3.591914630017021
 30
0.0
 10
13.80379348619884
 20
3.593141802474727
 30
0.0
  0
SPLINE
  5
BB6
330
A8B
100
AcDbEntity
  8
FRONT
  6
Continuous
 62
     4
100
AcDbSpline
210
0.0
220
0.0
230
1.0
 70
    24
 71
     1
 72
     4
 73
     2
 74
     0
 42
0.0000000001
 43
0.0000000001
 40
0.0
 40
0.0
 40
1.0
 40
1.0
 10
14.60909339101634
 20
5.711114124413048
 30
0.0
 10
14.6090865051094
 20
5.711625498686736
 30
0.0
  0
SPLINE
  5
BB7
330
A8B
100
AcDbEntity
  8
FRONT
  6
Continuous
 62
     4
100
AcDbSpline
210
0.0
220
0.0
230
1.0
 70
    24
 71
     1
 72
     4
 73
     2
 74
     0
 42
0.0000000001
 43
0.0000000001
 40
0.0
 40
0.0
 40
1.0
 40
1.0
 10
14.60713440708852
 20
5.335136932445034
 30
0.0
 10
14.69295620412083
 20
5.331857548057461
 30
0.0
  0
SPLINE
  5
BB8
330
A8B
100
AcDbEntity
  8
FRONT
  6
Continuous
 62
     4
100
AcDbSpline
210
0.0
220
0.0
230
1.0
 70
     8
 71
     3
 72
    13
 73
     9
 74
     0
 42
0.0000000001
 43
0.0000000001
 40
0.0
 40
0.0
 40
0.0
 40
0.0
 40
0.1870906036410149
 40
0.3646813612908705
 40
0.5136542261935185
 40
0.6625496942781221
 40
0.8732997954630318
 40
1.0
 40
1.0
 40
1.0
 40
1.0
 10
14.71097785761778
 20
4.474938976988299
 30
0.0
 10
14.72258946069355
 20
4.452117336803171
 30
0.0
 10
14.75023929494702
 20
4.410179915390369
 30
0.0
 10
14.80309030761751
 20
4.354724829831821
 30
0.0
 10
14.86319833542792
 20
4.314941243102536
 30
0.0
 10
14.93091957239508
 20
4.289394301276414
 30
0.0
 10
14.99207346962869
 20
4.284228893684812
 30
0.0
 10
15.03052376342849
 20
4.28859592198095
 30
0.0
 10
15.04448787470278
 20
4.291605195933395
 30
0.0
  0
SPLINE
  5
BB9
330
A8B
100
AcDbEntity
  8
FRONT
  6
Continuous
 62
     4
100
AcDbSpline
210
0.0
220
0.0
230
1.0
 70
    24
 71
     1
 72
     4
 73
     2
 74
     0
 42
0.0000000001
 43
0.0000000001
 40
0.0
 40
0.0
 40
1.0
 40
1.0
 10
14.36658232700411
 20
4.549988550519461
 30
0.0
 10
14.3439322300138
 20
4.491126124902221
 30
0.0
  0
SPLINE
  5
BBA
330
A8B
100
AcDbEntity
  8
FRONT
  6
Continuous
 62
     4
100
AcDbSpline
210
0.0
220
0.0
230
1.0
 70
    24
 71
     1
 72
     4
 73
     2
 74
     0
 42
0.0000000001
 43
0.0000000001
 40
0.0
 40
0.0
 40
1.0
 40
1.0
 10
12.81667247474081
 20
5.142126865126981
 30
0.0
 10
13.28408820193523
 20
4.587414672117768
 30
0.0
  0
SPLINE
  5
BBB
330
A8B
100
AcDbEntity
  8
FRONT
  6
Continuous
 62
     4
100
AcDbSpline
210
0.0
220
0.0
230
1.0
 70
    24
 71
     1
 72
     4
 73
     2
 74
     0
 42
0.0000000001
 43
0.0000000001
 40
0.0
 40
0.0
 40
1.0
 40
1.0
 10
14.68992440208029
 20
5.336837850675596
 30
0.0
 10
14.60723379104648
 20
5.339726363791863
 30
0.0
  0
SPLINE
  5
BBC
330
A8B
100
AcDbEntity
  8
FRONT
  6
Continuous
 62
     4
100
AcDbSpline
210
0.0
220
0.0
230
1.0
 70
    24
 71
     1
 72
     4
 73
     2
 74
     0
 42
0.0000000001
 43
0.0000000001
 40
0.0
 40
0.0
 40
1.0
 40
1.0
 10
13.934096024833
 20
4.306515336617805
 30
0.0
 10
13.99589107417434
 20
4.295192292184527
 30
0.0
  0
SPLINE
  5
BBD
330
A8B
100
AcDbEntity
  8
FRONT
  6
Continuous
 62
     4
100
AcDbSpline
210
0.0
220
0.0
230
1.0
 70
    24
 71
     1
 72
     4
 73
     2
 74
     0
 42
0.0000000001
 43
0.0000000001
 40
0.0
 40
0.0
 40
1.0
 40
1.0
 10
13.82870159920979
 20
3.956766489145926
 30
0.0
 10
13.81073371171078
 20
3.987366922169501
 30
0.0
  0
SPLINE
  5
BBE
330
A8B
100
AcDbEntity
  8
FRONT
  6
Continuous
 62
     4
100
AcDbSpline
210
0.0
220
0.0
230
1.0
 70
    24
 71
     1
 72
     4
 73
     2
 74
     0
 42
0.0000000001
 43
0.0000000001
 40
0.0
 40
0.0
 40
1.0
 40
1.0
 10
15.12498870412169
 20
5.250072189631183
 30
0.0
 10
14.83756674726533
 20
5.331362856545028
 30
0.0
  0
SPLINE
  5
BBF
330
A8B
100
AcDbEntity
  8
FRONT
  6
Continuous
 62
     4
100
AcDbSpline
210
0.0
220
0.0
230
1.0
 70
    24
 71
     1
 72
     4
 73
     2
 74
     0
 42
0.0000000001
 43
0.0000000001
 40
0.0
 40
0.0
 40
1.0
 40
1.0
 10
14.60613712230153
 20
5.930601946215412
 30
0.0
 10
13.9484959168259
 20
5.910374237639897
 30
0.0
  0
SPLINE
  5
BC0
330
A8B
100
AcDbEntity
  8
FRONT
  6
Continuous
 62
     4
100
AcDbSpline
210
0.0
220
0.0
230
1.0
 70
     8
 71
     3
 72
    13
 73
     9
 74
     0
 42
0.0000000001
 43
0.0000000001
 40
0.0
 40
0.0
 40
0.0
 40
0.0
 40
0.2347537562056165
 40
0.4839866866904262
 40
0.5952214255276555
 40
0.7119727950652918
 40
0.96740910102467
 40
1.0
 40
1.0
 40
1.0
 40
1.0
 10
13.28408820191653
 20
4.587414672136794
 30
0.0
 10
13.25012566103997
 20
4.527227778404608
 30
0.0
 10
13.16675985793541
 20
4.419327616560915
 30
0.0
 10
13.02099432060977
 20
4.324734681857226
 30
0.0
 10
12.89482138585317
 20
4.276802417204223
 30
0.0
 10
12.76176035094723
 20
4.247019780138493
 30
0.0
 10
12.64742901726418
 20
4.245333565339181
 30
0.0
 10
12.56818868716331
 20
4.25379454225212
 30
0.0
 10
12.55922715270803
 20
4.25489452478367
 30
0.0
  0
SPLINE
  5
BC1
330
A8B
100
AcDbEntity
  8
FRONT
  6
Continuous
 62
     4
100
AcDbSpline
210
0.0
220
0.0
230
1.0
 70
    24
 71
     1
 72
     4
 73
     2
 74
     0
 42
0.0000000001
 43
0.0000000001
 40
0.0
 40
0.0
 40
1.0
 40
1.0
 10
15.19781587154303
 20
3.611548393029448
 30
0.0
 10
15.21184500108873
 20
3.588325064231846
 30
0.0
  0
SPLINE
  5
BC2
330
A8B
100
AcDbEntity
  8
FRONT
  6
Continuous
 62
     4
100
AcDbSpline
210
0.0
220
0.0
230
1.0
 70
     8
 71
     3
 72
    13
 73
     9
 74
     0
 42
0.0000000001
 43
0.0000000001
 40
0.0
 40
0.0
 40
0.0
 40
0.0
 40
0.2396506614303369
 40
0.4258576417570409
 40
0.5820550163389703
 40
0.7381714217428096
 40
0.9591299429654435
 40
1.0
 40
1.0
 40
1.0
 40
1.0
 10
13.80379348619884
 20
3.593141802474731
 30
0.0
 10
13.82192418679251
 20
3.611675128293107
 30
0.0
 10
13.84805114611859
 20
3.651068053755462
 30
0.0
 10
13.87223513902732
 20
3.72087154530691
 30
0.0
 10
13.87761343104861
 20
3.791029577212136
 30
0.0
 10
13.86710343122898
 20
3.867335533638517
 30
0.0
 10
13.84678182979217
 20
3.921569727755633
 30
0.0
 10
13.83122577128982
 20
3.952077271441022
 30
0.0
 10
13.82870159920979
 20
3.956766489145926
 30
0.0
  0
SPLINE
  5
BC3
330
A8B
100
AcDbEntity
  8
FRONT
  6
Continuous
 62
     4
100
AcDbSpline
210
0.0
220
0.0
230
1.0
 70
    24
 71
     1
 72
     4
 73
     2
 74
     0
 42
0.0000000001
 43
0.0000000001
 40
0.0
 40
0.0
 40
1.0
 40
1.0
 10
13.32453443224985
 20
4.565040025424456
 30
0.0
 10
13.24329890969339
 20
4.393410854946447
 30
0.0
  0
SPLINE
  5
BC4
330
A8B
100
AcDbEntity
  8
FRONT
  6
Continuous
 62
     4
100
AcDbSpline
210
0.0
220
0.0
230
1.0
 70
    24
 71
     1
 72
     4
 73
     2
 74
     0
 42
0.0000000001
 43
0.0000000001
 40
0.0
 40
0.0
 40
1.0
 40
1.0
 10
14.11043689694178
 20
5.279305060039821
 30
0.0
 10
13.94329233739435
 20
5.287986047480941
 30
0.0
  0
SPLINE
  5
BC5
330
A8B
100
AcDbEntity
  8
FRONT
  6
Continuous
 62
     4
100
AcDbSpline
210
0.0
220
0.0
230
1.0
 70
     8
 71
     3
 72
    11
 73
     7
 74
     0
 42
0.0000000001
 43
0.0000000001
 40
0.0
 40
0.0
 40
0.0
 40
0.0
 40
0.1281905622924043
 40
0.421624799894869
 40
0.7263899413642454
 40
1.0
 40
1.0
 40
1.0
 40
1.0
 10
12.73853609935463
 20
3.667760942170496
 30
0.0
 10
12.76672223532988
 20
3.693449167011665
 30
0.0
 10
12.85617813617569
 20
3.780688567568847
 30
0.0
 10
12.99312764578302
 20
3.948243292988441
 30
0.0
 10
13.12308988273993
 20
4.171774666937092
 30
0.0
 10
13.19571953861603
 20
4.326067837016096
 30
0.0
 10
13.2263821747769
 20
4.401049180529136
 30
0.0
  0
SPLINE
  5
BC6
330
A8B
100
AcDbEntity
  8
FRONT
  6
Continuous
 62
     4
100
AcDbSpline
210
0.0
220
0.0
230
1.0
 70
    24
 71
     1
 72
     4
 73
     2
 74
     0
 42
0.0000000001
 43
0.0000000001
 40
0.0
 40
0.0
 40
1.0
 40
1.0
 10
15.23230844269541
 20
3.558198880030201
 30
0.0
 10
15.21184500108873
 20
3.588325064231844
 30
0.0
  0
SPLINE
  5
BC7
330
A8B
100
AcDbEntity
  8
FRONT
  6
Continuous
 62
     4
100
AcDbSpline
210
0.0
220
0.0
230
1.0
 70
     8
 71
     2
 72
     6
 73
     3
 74
     0
 42
0.0000000001
 43
0.0000000001
 40
0.0
 40
0.0
 40
0.0
 40
1.0
 40
1.0
 40
1.0
 10
14.60723379104669
 20
5.339726363785726
 30
0.0
 10
14.35457942540308
 20
5.348825046804551
 30
0.0
 10
14.11043689694178
 20
5.279305060039821
 30
0.0
  0
SPLINE
  5
BC8
330
A8B
100
AcDbEntity
  8
FRONT
  6
Continuous
 62
     4
100
AcDbSpline
210
0.0
220
0.0
230
1.0
 70
    24
 71
     1
 72
     4
 73
     2
 74
     0
 42
0.0000000001
 43
0.0000000001
 40
0.0
 40
0.0
 40
1.0
 40
1.0
 10
13.94524848483674
 20
5.758663915957267
 30
0.0
 10
14.13280283862451
 20
5.763209387832385
 30
0.0
  0
SPLINE
  5
BC9
330
A8B
100
AcDbEntity
  8
FRONT
  6
Continuous
 62
     4
100
AcDbSpline
210
0.0
220
0.0
230
1.0
 70
    24
 71
     1
 72
     4
 73
     2
 74
     0
 42
0.0000000001
 43
0.0000000001
 40
0.0
 40
0.0
 40
1.0
 40
1.0
 10
13.31078889119694
 20
4.573561762749701
 30
0.0
 10
13.28408820191651
 20
4.587414672136792
 30
0.0
  0
SPLINE
  5
BCA
330
A8B
100
AcDbEntity
  8
FRONT
  6
Continuous
 62
     4
100
AcDbSpline
210
0.0
220
0.0
230
1.0
 70
     8
 71
     3
 72
    10
 73
     6
 74
     0
 42
0.0000000001
 43
0.0000000001
 40
0.0
 40
0.0
 40
0.0
 40
0.0
 40
0.4926947242044152
 40
0.9999538112423723
 40
1.0
 40
1.0
 40
1.0
 40
1.0
 10
12.71058671127498
 20
5.473403005394001
 30
0.0
 10
12.90547943076539
 20
5.555788825541005
 30
0.0
 10
13.30796995905596
 20
5.686507873440067
 30
0.0
 10
13.73025717117942
 20
5.748973858563186
 30
0.0
 10
13.94514876776342
 20
5.758657162767132
 30
0.0
 10
13.94524866639153
 20
5.758661664333676
 30
0.0
  0
SPLINE
  5
BCB
330
A8B
100
AcDbEntity
  8
FRONT
  6
Continuous
 62
     4
100
AcDbSpline
210
0.0
220
0.0
230
1.0
 70
     8
 71
     2
 72
     6
 73
     3
 74
     0
 42
0.0000000001
 43
0.0000000001
 40
0.0
 40
0.0
 40
0.0
 40
1.0
 40
1.0
 40
1.0
 10
12.55931172980702
 20
4.254879951245562
 30
0.0
 10
12.58336828364422
 20
4.198188936261384
 30
0.0
 10
12.61302558883277
 20
4.142652858215962
 30
0.0
  0
SPLINE
  5
BCC
330
A8B
100
AcDbEntity
  8
FRONT
  6
Continuous
 62
     4
100
AcDbSpline
210
0.0
220
0.0
230
1.0
 70
     8
 71
     3
 72
    11
 73
     7
 74
     0
 42
0.0000000001
 43
0.0000000001
 40
0.0
 40
0.0
 40
0.0
 40
0.0
 40
0.3213498426608201
 40
0.6577811939102644
 40
0.9998827329771151
 40
1.0
 40
1.0
 40
1.0
 40
1.0
 10
12.61302558883341
 20
4.142652858218689
 30
0.0
 10
12.63661235923142
 20
4.096595077435821
 30
0.0
 10
12.67812392222471
 20
3.999067509734118
 30
0.0
 10
12.71731265817428
 20
3.837886834830852
 30
0.0
 10
12.73306739599114
 20
3.725263586159053
 30
0.0
 10
12.7384250930861
 20
3.668060358493228
 30
0.0
 10
12.73843441834863
 20
3.667960794245231
 30
0.0
  0
SPLINE
  5
BCD
330
A8B
100
AcDbEntity
  8
FRONT
  6
Continuous
 62
     4
100
AcDbSpline
210
0.0
220
0.0
230
1.0
 70
    24
 71
     1
 72
     4
 73
     2
 74
     0
 42
0.0000000001
 43
0.0000000001
 40
0.0
 40
0.0
 40
1.0
 40
1.0
 10
15.09864637409872
 20
4.302531580239758
 30
0.0
 10
15.04448787470278
 20
4.291605195933395
 30
0.0
  0
SPLINE
  5
BCE
330
A8B
100
AcDbEntity
  8
FRONT
  6
Continuous
 62
     4
100
AcDbSpline
210
0.0
220
0.0
230
1.0
 70
     8
 71
     3
 72
    13
 73
     9
 74
     0
 42
0.0000000001
 43
0.0000000001
 40
0.0
 40
0.0
 40
0.0
 40
0.0
 40
0.2396506614303343
 40
0.4258576417570496
 40
0.5820550163389778
 40
0.7381714217428188
 40
0.9591299429654512
 40
1.0
 40
1.0
 40
1.0
 40
1.0
 10
15.21878522660069
 20
3.982550183926613
 30
0.0
 10
15.20446185940899
 20
3.956885905746576
 30
0.0
 10
15.18382701449337
 20
3.907206514117078
 30
0.0
 10
15.16499089997498
 20
3.827386703527638
 30
0.0
 10
15.16059144136004
 20
3.755395363725888
 30
0.0
 10
15.16830971452799
 20
3.684318177059933
 30
0.0
 10
15.18379083088686
 20
3.63914997870789
 30
0.0
 10
15.19585560171569
 20
3.615181448933922
 30
0.0
 10
15.19781587154303
 20
3.611548393029448
 30
0.0
  0
LINE
  5
BCF
330
A8B
100
AcDbEntity
  8
FRONT
  6
Continuous
 62
     4
100
AcDbLine
 10
17.89827503693186
 20
4.305849194799654
 30
0.0
 11
16.84081100360065
 21
3.750289208641194
 31
0.0
  0
LINE
  5
BD0
330
A8B
100
AcDbEntity
  8
FRONT
  6
Continuous
 62
     4
100
AcDbLine
 10
17.9955352574119
 20
4.703931962073951
 30
0.0
 11
17.99860264302532
 21
5.577410944240638
 31
0.0
  0
LINE
  5
BD1
330
A8B
100
AcDbEntity
  8
FRONT
  6
Continuous
 62
     4
100
AcDbLine
 10
16.71085065679104
 20
4.613894536173183
 30
0.0
 11
16.71002253368082
 21
4.378075430726663
 31
0.0
  0
LINE
  5
BD2
330
A8B
100
AcDbEntity
  8
FRONT
  6
Continuous
 62
     4
100
AcDbLine
 10
16.39808469837355
 20
4.364837484698021
 30
0.0
 11
16.39891265055782
 21
4.600607916707208
 31
0.0
  0
LINE
  5
BD3
330
A8B
100
AcDbEntity
  8
FRONT
  6
Continuous
 62
     4
100
AcDbLine
 10
17.66367077329101
 20
4.879093702836494
 30
0.0
 11
17.66526427735394
 21
5.332865247206257
 31
0.0
  0
LINE
  5
BD4
330
A8B
100
AcDbEntity
  8
FRONT
  6
Continuous
 62
     4
100
AcDbLine
 10
15.64053491978258
 20
4.293450173624481
 30
0.0
 11
15.60441972687181
 21
4.361092193114611
 31
0.0
  0
LINE
  5
BD5
330
A8B
100
AcDbEntity
  8
FRONT
  6
Continuous
 62
     4
100
AcDbLine
 10
16.71002253368082
 20
4.378075430726663
 30
0.0
 11
17.66367077329101
 21
4.879093702836494
 31
0.0
  0
LINE
  5
BD6
330
A8B
100
AcDbEntity
  8
FRONT
  6
Continuous
 62
     4
100
AcDbLine
 10
17.82736069662903
 20
5.451970850041035
 30
0.0
 11
17.82538373039164
 21
4.889003337034266
 31
0.0
  0
ELLIPSE
  5
BD7
330
A8B
100
AcDbEntity
  8
FRONT
  6
Continuous
 62
     4
100
AcDbEllipse
 10
14.59586354314858
 20
3.865394052025882
 30
0.0
 11
-1.151135430529534
 21
-0.6146102435097502
 31
0.0
210
0.0
220
0.0
230
1.0
 40
0.9833059182658811
 41
2.387532948130643
 42
2.854453357321848
  0
ELLIPSE
  5
BD8
330
A8B
100
AcDbEntity
  8
FRONT
  6
Continuous
 62
     4
100
AcDbEllipse
 10
23.34289700321895
 20
7.404971643362473
 30
0.0
 11
-5.502211667105154
 21
-2.588827676295629
 31
0.0
210
0.0
220
0.0
230
1.0
 40
0.1586239430231971
 41
6.208012116159168
 42
6.457681703334741
  0
ELLIPSE
  5
BD9
330
A8B
100
AcDbEntity
  8
FRONT
  6
Continuous
 62
     4
100
AcDbEllipse
 10
23.98792439919572
 20
7.261422965178862
 30
0.0
 11
-7.504621521697405
 21
-3.321134711197778
 31
0.0
210
0.0
220
0.0
230
1.0
 40
0.3415132911448714
 41
6.131781412421299
 42
6.217369236841816
  0
ELLIPSE
  5
BDA
330
A8B
100
AcDbEntity
  8
FRONT
  6
Continuous
 62
     4
100
AcDbEllipse
 10
16.32523872390661
 20
4.501274491612504
 30
0.0
 11
-0.8499947589592117
 21
0.0029849163490714
 31
0.0
210
0.0
220
0.0
230
1.0
 40
0.1608116416914428
 41
1.657167966400878
 42
2.041140401843712
  0
ELLIPSE
  5
BDB
330
A8B
100
AcDbEntity
  8
FRONT
  6
Continuous
 62
     4
100
AcDbEllipse
 10
23.91507831970675
 20
7.397859926833847
 30
0.0
 11
-7.163008401427503
 21
-3.337131822624029
 31
0.0
210
0.0
220
0.0
230
1.0
 40
0.2488347320293084
 41
6.1272315578895
 42
6.212819382930589
  0
ELLIPSE
  5
BDC
330
A8B
100
AcDbEntity
  8
FRONT
  6
Continuous
 62
     4
100
AcDbEllipse
 10
18.11635760682543
 20
4.734153631805039
 30
0.0
 11
-0.9999938318006432
 21
0.0035116660557411
 31
0.0
210
0.0
220
0.0
230
1.0
 40
0.1608116414610818
 41
5.008200129322958
 42
5.18273305487219
  0
ELLIPSE
  5
BDD
330
A8B
100
AcDbEntity
  8
FRONT
  6
Continuous
 62
     4
100
AcDbEllipse
 10
16.56225603727189
 20
3.633285833833903
 30
0.0
 11
-0.7801070765252688
 21
-0.3375395473105581
 31
0.0
210
0.0
220
0.0
230
1.0
 40
0.0040693916708658
 41
1.563153189442481
 42
1.934167124601573
  0
ELLIPSE
  5
BDE
330
A8B
100
AcDbEntity
  8
FRONT
  6
Continuous
 62
     4
100
AcDbEllipse
 10
14.51560790726658
 20
3.779757555178877
 30
0.0
 11
-1.088811819437994
 21
-0.5813346382489481
 31
0.0
210
0.0
220
0.0
230
1.0
 40
0.983305918289052
 41
2.448217296598584
 42
3.141592653297247
  0
ELLIPSE
  5
BDF
330
A8B
100
AcDbEntity
  8
FRONT
  6
Continuous
 62
     4
100
AcDbEllipse
 10
23.63387088225076
 20
7.250121938023302
 30
0.0
 11
-5.931785057190547
 21
-2.503957966687563
 31
0.0
210
0.0
220
0.0
230
0.9999999999999998
 40
0.3000603614080196
 41
6.212003631040982
 42
6.468355228140293
  0
ELLIPSE
  5
BE0
330
A8B
100
AcDbEntity
  8
FRONT
  6
Continuous
 62
     4
100
AcDbEllipse
 10
14.55172310019603
 20
3.712115535694636
 30
0.0
 11
-1.088811819366767
 21
-0.5813346383414362
 31
0.0
210
0.0
220
0.0
230
1.0
 40
0.9833059182967726
 41
2.505541426623854
 42
3.141592653205357
  0
ELLIPSE
  5
BE1
330
A8B
100
AcDbEntity
  8
FRONT
  6
Continuous
 62
     4
100
AcDbEllipse
 10
17.43753142984373
 20
3.994737951825666
 30
0.0
 11
-0.6378475908704978
 21
-2.576716806991784
 31
0.0
210
0.0
220
0.0
230
1.0
 40
0.1420508862706076
 41
1.726905085211521
 42
1.739170856938256
  0
SPLINE
  5
BE2
330
A8B
100
AcDbEntity
  8
FRONT
  6
Continuous
 62
     4
100
AcDbSpline
210
0.0
220
0.0
230
1.0
 70
    24
 71
     1
 72
     4
 73
     2
 74
     0
 42
0.0000000001
 43
0.0000000001
 40
0.0
 40
0.0
 40
1.0
 40
1.0
 10
16.49595502931909
 20
5.475699839190808
 30
0.0
 10
17.5948987190443
 20
5.975264142050702
 30
0.0
  0
SPLINE
  5
BE3
330
A8B
100
AcDbEntity
  8
FRONT
  6
Continuous
 62
     4
100
AcDbSpline
210
0.0
220
0.0
230
1.0
 70
    24
 71
     1
 72
     4
 73
     2
 74
     0
 42
0.0000000001
 43
0.0000000001
 40
0.0
 40
0.0
 40
1.0
 40
1.0
 10
17.67701948821644
 20
5.341527188321591
 30
0.0
 10
17.77311705953044
 20
5.412174745271188
 30
0.0
  0
SPLINE
  5
BE4
330
A8B
100
AcDbEntity
  8
FRONT
  6
Continuous
 62
     4
100
AcDbSpline
210
0.0
220
0.0
230
1.0
 70
    24
 71
     1
 72
     4
 73
     2
 74
     0
 42
0.0000000001
 43
0.0000000001
 40
0.0
 40
0.0
 40
1.0
 40
1.0
 10
16.90020018818717
 20
3.583522341359216
 30
0.0
 10
16.91843118442867
 20
3.518558886112968
 30
0.0
  0
SPLINE
  5
BE5
330
A8B
100
AcDbEntity
  8
FRONT
  6
Continuous
 62
     4
100
AcDbSpline
210
0.0
220
0.0
230
1.0
 70
    24
 71
     1
 72
     4
 73
     2
 74
     0
 42
0.0000000001
 43
0.0000000001
 40
0.0
 40
0.0
 40
1.0
 40
1.0
 10
16.60738235910093
 20
3.52622347312716
 30
0.0
 10
16.55766717029034
 20
3.62753152931504
 30
0.0
  0
SPLINE
  5
BE6
330
A8B
100
AcDbEntity
  8
FRONT
  6
Continuous
 62
     4
100
AcDbSpline
210
0.0
220
0.0
230
1.0
 70
     8
 71
     2
 72
     6
 73
     3
 74
     0
 42
0.0000000001
 43
0.0000000001
 40
0.0
 40
0.0
 40
0.0
 40
1.0
 40
1.0
 40
1.0
 10
17.96624821359698
 20
4.521740220909058
 30
0.0
 10
17.99450568315117
 20
4.587389658473391
 30
0.0
 10
17.99520039268492
 20
4.657821589442201
 30
0.0
  0
SPLINE
  5
BE7
330
A8B
100
AcDbEntity
  8
FRONT
  6
Continuous
 62
     4
100
AcDbSpline
210
0.0
220
0.0
230
1.0
 70
    24
 71
     1
 72
     4
 73
     2
 74
     0
 42
0.0000000001
 43
0.0000000001
 40
0.0
 40
0.0
 40
1.0
 40
1.0
 10
16.71141267560334
 20
4.194303491672545
 30
0.0
 10
16.84081100360065
 20
3.750289208641194
 30
0.0
  0
SPLINE
  5
BE8
330
A8B
100
AcDbEntity
  8
FRONT
  6
Continuous
 62
     4
100
AcDbSpline
210
0.0
220
0.0
230
1.0
 70
    24
 71
     1
 72
     4
 73
     2
 74
     0
 42
0.0000000001
 43
0.0000000001
 40
0.0
 40
0.0
 40
1.0
 40
1.0
 10
16.42495563095343
 20
4.116038923035028
 30
0.0
 10
16.71141267560334
 20
4.194303491672546
 30
0.0
  0
SPLINE
  5
BE9
330
A8B
100
AcDbEntity
  8
FRONT
  6
Continuous
 62
     4
100
AcDbSpline
210
0.0
220
0.0
230
1.0
 70
    24
 71
     1
 72
     4
 73
     2
 74
     0
 42
0.0000000001
 43
0.0000000001
 40
0.0
 40
0.0
 40
1.0
 40
1.0
 10
16.49314501744483
 20
5.474374826890542
 30
0.0
 10
16.49474485326082
 20
5.475120305234273
 30
0.0
  0
SPLINE
  5
BEA
330
A8B
100
AcDbEntity
  8
FRONT
  6
Continuous
 62
     4
100
AcDbSpline
210
0.0
220
0.0
230
1.0
 70
    24
 71
     1
 72
     4
 73
     2
 74
     0
 42
0.0000000001
 43
0.0000000001
 40
0.0
 40
0.0
 40
1.0
 40
1.0
 10
16.84081100360065
 20
3.750289208641194
 30
0.0
 10
16.90019487381277
 20
3.583520954077106
 30
0.0
  0
SPLINE
  5
BEB
330
A8B
100
AcDbEntity
  8
FRONT
  6
Continuous
 62
     4
100
AcDbSpline
210
0.0
220
0.0
230
1.0
 70
     8
 71
     3
 72
    12
 73
     8
 74
     0
 42
0.0000000001
 43
0.0000000001
 40
0.0
 40
0.0
 40
0.0
 40
0.0
 40
0.1495624586559048
 40
0.3981305669337531
 40
0.6362518309539893
 40
0.8431419366934655
 40
1.0
 40
1.0
 40
1.0
 40
1.0
 10
17.48589383548178
 20
3.463369935461981
 30
0.0
 10
17.4886026749378
 20
3.466280125578256
 30
0.0
 10
17.49078367105906
 20
3.47398973939262
 30
0.0
 10
17.47309542125874
 20
3.486777129879093
 30
0.0
 10
17.42482211552024
 20
3.49917167572542
 30
0.0
 10
17.36085181227452
 20
3.507004690170802
 30
0.0
 10
17.31746007618845
 20
3.509155435452544
 30
0.0
 10
17.29745226804206
 20
3.509679345658438
 30
0.0
  0
SPLINE
  5
BEC
330
A8B
100
AcDbEntity
  8
FRONT
  6
Continuous
 62
     4
100
AcDbSpline
210
0.0
220
0.0
230
1.0
 70
    24
 71
     1
 72
     4
 73
     2
 74
     0
 42
0.0000000001
 43
0.0000000001
 40
0.0
 40
0.0
 40
1.0
 40
1.0
 10
16.39885559051127
 20
4.600607322908822
 30
0.0
 10
16.71077838865055
 20
4.613840528244288
 30
0.0
  0
SPLINE
  5
BED
330
A8B
100
AcDbEntity
  8
FRONT
  6
Continuous
 62
     4
100
AcDbSpline
210
0.0
220
0.0
230
1.0
 70
     8
 71
     3
 72
    11
 73
     7
 74
     0
 42
0.0000000001
 43
0.0000000001
 40
0.0
 40
0.0
 40
0.0
 40
0.0
 40
0.0001349180935091
 40
0.1930788600656165
 40
0.9998650818819635
 40
1.0
 40
1.0
 40
1.0
 40
1.0
 10
16.19667844852219
 20
5.335343228005076
 30
0.0
 10
16.19672500268154
 20
5.335254725404841
 30
0.0
 10
16.20989169584736
 20
5.310223947250959
 30
0.0
 10
16.32367950371092
 20
5.208467742036122
 30
0.0
 10
16.43522792301602
 20
5.114125861270784
 30
0.0
 10
16.50623019806864
 20
5.020733760974486
 30
0.0
 10
16.50629071951281
 20
5.020654154726011
 30
0.0
  0
SPLINE
  5
BEE
330
A8B
100
AcDbEntity
  8
FRONT
  6
Continuous
 62
     4
100
AcDbSpline
210
0.0
220
0.0
230
1.0
 70
    24
 71
     1
 72
     4
 73
     2
 74
     0
 42
0.0000000001
 43
0.0000000001
 40
0.0
 40
0.0
 40
1.0
 40
1.0
 10
17.45883754226277
 20
5.180035611251119
 30
0.0
 10
17.66526427735394
 20
5.332865247206231
 30
0.0
  0
SPLINE
  5
BEF
330
A8B
100
AcDbEntity
  8
FRONT
  6
Continuous
 62
     4
100
AcDbSpline
210
0.0
220
0.0
230
1.0
 70
     8
 71
     3
 72
    11
 73
     7
 74
     0
 42
0.0000000001
 43
0.0000000001
 40
0.0
 40
0.0
 40
0.0
 40
0.0
 40
0.0001278625790222
 40
0.8000466519499596
 40
0.9998721041576972
 40
1.0
 40
1.0
 40
1.0
 40
1.0
 10
16.50629071951281
 20
5.020654154726011
 30
0.0
 10
16.50635300832185
 20
5.020575923630723
 30
0.0
 10
16.58269256964586
 20
4.924697907350288
 30
0.0
 10
16.65651612623752
 20
4.786080692263082
 30
0.0
 10
16.70188763166069
 20
4.642377138962474
 30
0.0
 10
16.71073896129634
 20
4.613939119367898
 30
0.0
 10
16.71076868003114
 20
4.613843637449183
 30
0.0
  0
SPLINE
  5
BF0
330
A8B
100
AcDbEntity
  8
FRONT
  6
Continuous
 62
     4
100
AcDbSpline
210
0.0
220
0.0
230
1.0
 70
    24
 71
     1
 72
     4
 73
     2
 74
     0
 42
0.0000000001
 43
0.0000000001
 40
0.0
 40
0.0
 40
1.0
 40
1.0
 10
16.94611636433103
 20
4.794203885304683
 30
0.0
 10
17.45883754226277
 20
5.180035611251119
 30
0.0
  0
SPLINE
  5
BF1
330
A8B
100
AcDbEntity
  8
FRONT
  6
Continuous
 62
     4
100
AcDbSpline
210
0.0
220
0.0
230
1.0
 70
    24
 71
     1
 72
     4
 73
     2
 74
     0
 42
0.0000000001
 43
0.0000000001
 40
0.0
 40
0.0
 40
1.0
 40
1.0
 10
17.9955352574119
 20
4.70393196207395
 30
0.0
 10
17.99520039268492
 20
4.657821589441173
 30
0.0
  0
SPLINE
  5
BF2
330
A8B
100
AcDbEntity
  8
FRONT
  6
Continuous
 62
     4
100
AcDbSpline
210
0.0
220
0.0
230
1.0
 70
    24
 71
     1
 72
     4
 73
     2
 74
     0
 42
0.0000000001
 43
0.0000000001
 40
0.0
 40
0.0
 40
1.0
 40
1.0
 10
17.66526427735397
 20
5.332865247206211
 30
0.0
 10
17.67698916139616
 20
5.341504848748127
 30
0.0
  0
SPLINE
  5
BF3
330
A8B
100
AcDbEntity
  8
FRONT
  6
Continuous
 62
     4
100
AcDbSpline
210
0.0
220
0.0
230
1.0
 70
     8
 71
     2
 72
     6
 73
     3
 74
     0
 42
0.0000000001
 43
0.0000000001
 40
0.0
 40
0.0
 40
0.0
 40
1.0
 40
1.0
 40
1.0
 10
17.45883752894693
 20
5.180035602533471
 30
0.0
 10
17.56761241759019
 20
5.260934079266407
 30
0.0
 10
17.67698907835551
 20
5.341504790199523
 30
0.0
  0
SPLINE
  5
BF4
330
A8B
100
AcDbEntity
  8
FRONT
  6
Continuous
 62
     4
100
AcDbSpline
210
0.0
220
0.0
230
1.0
 70
    24
 71
     1
 72
     4
 73
     2
 74
     0
 42
0.0000000001
 43
0.0000000001
 40
0.0
 40
0.0
 40
1.0
 40
1.0
 10
16.19667844839965
 20
5.335343227947221
 30
0.0
 10
16.49314024556977
 20
5.474388270071903
 30
0.0
  0
SPLINE
  5
BF5
330
A8B
100
AcDbEntity
  8
FRONT
  6
Continuous
 62
     4
100
AcDbSpline
210
0.0
220
0.0
230
1.0
 70
     8
 71
     3
 72
    11
 73
     7
 74
     0
 42
0.0000000001
 43
0.0000000001
 40
0.0
 40
0.0
 40
0.0
 40
0.0
 40
0.1632580369825384
 40
0.5369633765782556
 40
0.9250992724447831
 40
1.0
 40
1.0
 40
1.0
 40
1.0
 10
16.42490960875768
 20
4.115996823386628
 30
0.0
 10
16.39672347278242
 20
4.090308598545457
 30
0.0
 10
16.30722024578586
 20
4.003092807454835
 30
0.0
 10
16.17072554691022
 20
3.835311191857298
 30
0.0
 10
16.07136739334606
 20
3.667560355337826
 30
0.0
 10
16.0239448572469
 20
3.571267493264961
 30
0.0
 10
16.01647812761165
 20
3.555577697676341
 30
0.0
  0
SPLINE
  5
BF6
330
A8B
100
AcDbEntity
  8
FRONT
  6
Continuous
 62
     4
100
AcDbSpline
210
0.0
220
0.0
230
1.0
 70
    24
 71
     1
 72
     4
 73
     2
 74
     0
 42
0.0000000001
 43
0.0000000001
 40
0.0
 40
0.0
 40
1.0
 40
1.0
 10
17.96624821359698
 20
4.521740220909058
 30
0.0
 10
17.94182141506172
 20
4.461266655075603
 30
0.0
  0
SPLINE
  5
BF7
330
A8B
100
AcDbEntity
  8
FRONT
  6
Continuous
 62
     4
100
AcDbSpline
210
0.0
220
0.0
230
1.0
 70
    24
 71
     1
 72
     4
 73
     2
 74
     0
 42
0.0000000001
 43
0.0000000001
 40
0.0
 40
0.0
 40
1.0
 40
1.0
 10
16.68230017246027
 20
3.52498673459668
 30
0.0
 10
16.90020018819045
 20
3.583522341348273
 30
0.0
  0
SPLINE
  5
BF8
330
A8B
100
AcDbEntity
  8
FRONT
  6
Continuous
 62
     4
100
AcDbSpline
210
0.0
220
0.0
230
1.0
 70
    24
 71
     1
 72
     4
 73
     2
 74
     0
 42
0.0000000001
 43
0.0000000001
 40
0.0
 40
0.0
 40
1.0
 40
1.0
 10
17.94182141506172
 20
4.461266655075603
 30
0.0
 10
17.90527073750188
 20
4.337218884751766
 30
0.0
  0
SPLINE
  5
BF9
330
A8B
100
AcDbEntity
  8
FRONT
  6
Continuous
 62
     4
100
AcDbSpline
210
0.0
220
0.0
230
1.0
 70
     8
 71
     3
 72
    11
 73
     7
 74
     0
 42
0.0000000001
 43
0.0000000001
 40
0.0
 40
0.0
 40
0.0
 40
0.0
 40
0.3061272518132776
 40
0.6075448394179293
 40
0.8160124276962045
 40
1.0
 40
1.0
 40
1.0
 40
1.0
 10
16.39885559067653
 20
4.600607322599127
 30
0.0
 10
16.39520629565713
 20
4.65475168102716
 30
0.0
 10
16.37252336682536
 20
4.755034069650046
 30
0.0
 10
16.30304229067195
 20
4.879805706769667
 30
0.0
 10
16.21150627020276
 20
4.959021904353886
 30
0.0
 10
16.15015294733186
 20
4.986161952864643
 30
0.0
 10
16.11893736108915
 20
4.995457742129388
 30
0.0
  0
SPLINE
  5
BFA
330
A8B
100
AcDbEntity
  8
FRONT
  6
Continuous
 62
     4
100
AcDbSpline
210
0.0
220
0.0
230
1.0
 70
     8
 71
     3
 72
    11
 73
     7
 74
     0
 42
0.0000000001
 43
0.0000000001
 40
0.0
 40
0.0
 40
0.0
 40
0.0
 40
0.3213498426608153
 40
0.6577811939102688
 40
0.999882732977116
 40
1.0
 40
1.0
 40
1.0
 40
1.0
 10
16.55766717029036
 20
3.62753152931504
 30
0.0
 10
16.53240165908376
 20
3.676733510899357
 30
0.0
 10
16.48805584972428
 20
3.779569485735088
 30
0.0
 10
16.44656881178055
 20
3.945054769776882
 30
0.0
 10
16.43037839129144
 20
4.058494031060566
 30
0.0
 10
16.42502061513865
 20
4.11569740707443
 30
0.0
 10
16.42501128976365
 20
4.115796971311895
 30
0.0
  0
SPLINE
  5
BFB
330
A8B
100
AcDbEntity
  8
FRONT
  6
Continuous
 62
     4
100
AcDbSpline
210
0.0
220
0.0
230
1.0
 70
     8
 71
     2
 72
     6
 73
     3
 74
     0
 42
0.0000000001
 43
0.0000000001
 40
0.0
 40
0.0
 40
0.0
 40
1.0
 40
1.0
 40
1.0
 10
17.77370085353426
 20
5.412603271966885
 30
0.0
 10
17.88564682468245
 20
5.494754377154666
 30
0.0
 10
17.9986026430253
 20
5.57741094424067
 30
0.0
  0
SPLINE
  5
BFC
330
A8B
100
AcDbEntity
  8
FRONT
  6
Continuous
 62
     4
100
AcDbSpline
210
0.0
220
0.0
230
1.0
 70
    24
 71
     1
 72
     4
 73
     2
 74
     0
 42
0.0000000001
 43
0.0000000001
 40
0.0
 40
0.0
 40
1.0
 40
1.0
 10
16.49474485326082
 20
5.475120305234273
 30
0.0
 10
16.49595979536792
 20
5.475686399041637
 30
0.0
  0
SPLINE
  5
BFD
330
A8B
100
AcDbEntity
  8
FRONT
  6
Continuous
 62
     4
100
AcDbSpline
210
0.0
220
0.0
230
1.0
 70
    24
 71
     1
 72
     4
 73
     2
 74
     0
 42
0.0000000001
 43
0.0000000001
 40
0.0
 40
0.0
 40
1.0
 40
1.0
 10
16.71081487216573
 20
4.613866942044376
 30
0.0
 10
16.946116364331
 20
4.794203885304683
 30
0.0
  0
SPLINE
  5
BFE
330
A8B
100
AcDbEntity
  8
FRONT
  6
Continuous
 62
     4
100
AcDbSpline
210
0.0
220
0.0
230
1.0
 70
     8
 71
     2
 72
     6
 73
     3
 74
     0
 42
0.0000000001
 43
0.0000000001
 40
0.0
 40
0.0
 40
0.0
 40
1.0
 40
1.0
 40
1.0
 10
16.11893379407845
 20
4.995443832534546
 30
0.0
 10
16.16268975661965
 20
5.166852128994873
 30
0.0
 10
16.19668973819385
 20
5.335334408581799
 30
0.0
  0
SPLINE
  5
BFF
330
A8B
100
AcDbEntity
  8
FRONT
  6
Continuous
 62
     4
100
AcDbSpline
210
0.0
220
0.0
230
1.0
 70
     8
 71
     3
 72
    11
 73
     7
 74
     0
 42
0.0000000001
 43
0.0000000001
 40
0.0
 40
0.0
 40
0.0
 40
0.0
 40
0.2797385983135212
 40
0.5594467342961896
 40
0.779715829487904
 40
1.0
 40
1.0
 40
1.0
 40
1.0
 10
17.5948987190443
 20
5.975264142050701
 30
0.0
 10
17.65745563319629
 20
5.974483801919762
 30
0.0
 10
17.77036020044778
 20
5.950887920362918
 30
0.0
 10
17.90567908297141
 20
5.85040117171442
 30
0.0
 10
17.98283180302257
 20
5.717078973008209
 30
0.0
 10
17.99830296929956
 20
5.626215792883588
 30
0.0
 10
17.99860264302532
 20
5.577410944240644
 30
0.0
  0
ELLIPSE
  5
C00
330
A8B
100
AcDbEntity
  8
FRONT
  6
Continuous
 62
     4
100
AcDbEllipse
 10
177.0605964205228
 20
-0.0000000000000062
 30
-0.000000000000001
 11
328.7085881680908
 21
-5.639364115381655
 31
0.9119127835859078
210
-0.0173763522628257
220
-0.9870276605374339
230
0.1596072044615736
 40
0.0173763522628256
 41
2.090738282879778
 42
2.09261634979419
  0
ENDBLK
  5
C02
330
A8B
100
AcDbEntity
  8
0
100
AcDbBlockEnd
  0
BLOCK
  5
C05
330
C03
100
AcDbEntity
  8
0
100
AcDbBlockBegin
  2
ROFFE
 70
     0
 10
0.0
 20
0.0
 30
0.0
  3
ROFFE
  1

  0
INSERT
  5
C04
330
C03
100
AcDbEntity
  8
0
  6
Continuous
100
AcDbBlockReference
  2
2D00035417
 10
0.0
 20
0.0
 30
0.0
  0
ENDBLK
  5
C06
330
C03
100
AcDbEntity
  8
0
100
AcDbBlockEnd
  0
BLOCK
  5
16E2
330
16E1
100
AcDbEntity
  8
0
100
AcDbBlockBegin
  2
*D2
 70
     1
 10
0.0
 20
0.0
 30
0.0
  3
*D2
  1

  0
LINE
  5
1886
330
16E1
100
AcDbEntity
  8
2
 62
     0
370
    -2
100
AcDbLine
 10
17.04959504947006
 20
-4.849638035252108
 30
0.0
 11
17.04959504947006
 21
-7.281145826835199
 31
0.0
  0
LINE
  5
1887
330
16E1
100
AcDbEntity
  8
2
 62
     0
370
    -2
100
AcDbLine
 10
13.07480823773673
 20
-3.939820556168773
 30
0.0
 11
13.07480823773673
 21
-7.281145826835199
 31
0.0
  0
LINE
  5
1888
330
16E1
100
AcDbEntity
  8
2
 62
     0
100
AcDbLine
 10
16.54959504947006
 20
-6.281145826835199
 30
0.0
 11
13.57480823773673
 21
-6.281145826835199
 31
0.0
  0
SOLID
  5
1889
330
16E1
100
AcDbEntity
  8
2
 62
     0
100
AcDbTrace
 10
16.54959504947006
 20
-6.197812493501865
 30
0.0
 11
16.54959504947006
 21
-6.364479160168531
 31
0.0
 12
17.04959504947006
 22
-6.281145826835199
 32
0.0
 13
17.04959504947006
 23
-6.281145826835199
 33
0.0
  0
SOLID
  5
188A
330
16E1
100
AcDbEntity
  8
2
 62
     0
100
AcDbTrace
 10
13.57480823773673
 20
-6.197812493501865
 30
0.0
 11
13.57480823773673
 21
-6.364479160168531
 31
0.0
 12
13.07480823773673
 22
-6.281145826835199
 32
0.0
 13
13.07480823773673
 23
-6.281145826835199
 33
0.0
  0
MTEXT
  5
188B
330
16E1
100
AcDbEntity
  8
2
 62
     0
100
AcDbMText
 10
15.32167247270377
 20
-4.881145826835198
 30
0.0
 40
0.8
 41
0.0
 71
     5
 72
     1
  1
\A1;3.97
 73
     1
 44
1.0
1001
ACAD
1000
MTEXTBEGIN
1070
    73
1070
     1
1070
    44
1040
1.0
1070
    74
1070
     0
1000
MTEXTEND
  0
POINT
  5
188C
330
16E1
100
AcDbEntity
  8
DEFPOINTS
 62
     0
100
AcDbPoint
 10
17.04959504947006
 20
-3.849638035252109
 30
0.0
  0
POINT
  5
188D
330
16E1
100
AcDbEntity
  8
DEFPOINTS
 62
     0
100
AcDbPoint
 10
13.07480823773673
 20
-2.939820556168773
 30
0.0
  0
POINT
  5
188E
330
16E1
100
AcDbEntity
  8
DEFPOINTS
 62
     0
100
AcDbPoint
 10
13.07480823773673
 20
-6.281145826835199
 30
0.0
  0
ENDBLK
  5
16E3
330
16E1
100
AcDbEntity
  8
0
100
AcDbBlockEnd
  0
BLOCK
  5
1703
330
1702
100
AcDbEntity
  8
0
100
AcDbBlockBegin
  2
*D3
 70
     1
 10
0.0
 20
0.0
 30
0.0
  3
*D3
  1

  0
LINE
  5
1873
330
1702
100
AcDbEntity
  8
2
 62
     0
370
    -2
100
AcDbLine
 10
-4.05749749165
 20
1.04540288386914
 30
0.0
 11
-4.057497491649997
 21
9.169377781832736
 31
0.0
  0
LINE
  5
1874
330
1702
100
AcDbEntity
  8
2
 62
     0
370
    -2
100
AcDbLine
 10
4.842171667383329
 20
1.115046149743682
 30
0.0
 11
4.842171667383329
 21
9.169377781832736
 31
0.0
  0
LINE
  5
1875
330
1702
100
AcDbEntity
  8
2
 62
     0
100
AcDbLine
 10
-3.557497491649997
 20
8.169377781832736
 30
0.0
 11
4.342171667383328
 21
8.169377781832736
 31
0.0
  0
SOLID
  5
1876
330
1702
100
AcDbEntity
  8
2
 62
     0
100
AcDbTrace
 10
-3.557497491649997
 20
8.25271111516607
 30
0.0
 11
-3.557497491649997
 21
8.086044448499402
 31
0.0
 12
-4.057497491649997
 22
8.169377781832736
 32
0.0
 13
-4.057497491649997
 23
8.169377781832736
 33
0.0
  0
SOLID
  5
1877
330
1702
100
AcDbEntity
  8
2
 62
     0
100
AcDbTrace
 10
4.342171667383328
 20
8.25271111516607
 30
0.0
 11
4.342171667383328
 21
8.086044448499402
 31
0.0
 12
4.842171667383329
 22
8.169377781832736
 32
0.0
 13
4.842171667383329
 23
8.169377781832736
 33
0.0
  0
MTEXT
  5
1878
330
1702
100
AcDbEntity
  8
2
 62
     0
100
AcDbMText
 10
0.3923370878666655
 20
9.569377781832736
 30
0.0
 40
0.8
 41
0.0
 71
     5
 72
     1
  1
\A1;8.90
 73
     1
 44
1.0
1001
ACAD
1000
MTEXTBEGIN
1070
    73
1070
     1
1070
    44
1040
1.0
1070
    74
1070
     0
1000
MTEXTEND
  0
POINT
  5
1879
330
1702
100
AcDbEntity
  8
DEFPOINTS
 62
     0
100
AcDbPoint
 10
-4.05749749165
 20
0.0454028838691406
 30
0.0
  0
POINT
  5
187A
330
1702
100
AcDbEntity
  8
DEFPOINTS
 62
     0
100
AcDbPoint
 10
4.842171667383329
 20
0.1150461497436829
 30
0.0
  0
POINT
  5
187B
330
1702
100
AcDbEntity
  8
DEFPOINTS
 62
     0
100
AcDbPoint
 10
4.842171667383329
 20
8.169377781832736
 30
0.0
  0
ENDBLK
  5
1704
330
1702
100
AcDbEntity
  8
0
100
AcDbBlockEnd
  0
BLOCK
  5
1762
330
1761
100
AcDbEntity
  8
0
100
AcDbBlockBegin
  2
*D4
 70
     1
 10
0.0
 20
0.0
 30
0.0
  3
*D4
  1

  0
LINE
  5
17EB
330
1761
100
AcDbEntity
  8
1
 62
     0
100
AcDbLine
 10
19.80023781319266
 20
13.02455789184944
 30
0.0
 11
14.6230323022326
 21
9.798640487871953
 31
0.0
  0
MTEXT
  5
17EC
330
1761
100
AcDbEntity
  8
1
 62
     0
100
AcDbMText
 10
16.68344112528174
 20
12.73202002040798
 30
0.0
 40
0.8
 41
0.0
 71
     5
 72
     1
  1
\A1;R12.50
 11
0.8487222149114845
 21
0.5288389186848335
 31
0.0
 73
     1
 44
1.0
1001
ACAD
1000
MTEXTBEGIN
1070
    73
1070
     1
1070
    44
1040
1.0
1070
    74
1070
     0
1000
MTEXTEND
  0
SOLID
  5
17ED
330
1761
100
AcDbEntity
  8
1
 62
     0
100
AcDbTrace
 10
14.5789623923422
 20
9.869367339114576
 30
0.0
 11
14.66710221212301
 21
9.727913636629327
 31
0.0
 12
14.19867119477686
 22
9.534221028529536
 32
0.0
 13
14.19867119477686
 23
9.534221028529536
 33
0.0
  0
POINT
  5
17EE
330
1761
100
AcDbEntity
  8
DEFPOINTS
 62
     0
100
AcDbPoint
 10
14.19867119477686
 20
9.534221028529536
 30
0.0
  0
POINT
  5
17EF
330
1761
100
AcDbEntity
  8
DEFPOINTS
 62
     0
100
AcDbPoint
 10
3.589643508383328
 20
2.92373454496914
 30
0.0
  0
ENDBLK
  5
1763
330
1761
100
AcDbEntity
  8
0
100
AcDbBlockEnd
  0
BLOCK
  5
17F4
330
17F3
100
AcDbEntity
  8
0
100
AcDbBlockBegin
  2
*D5
 70
     1
 10
0.0
 20
0.0
 30
0.0
  3
*D5
  1

  0
LINE
  5
18F0
330
17F3
100
AcDbEntity
  8
2
 62
     0
100
AcDbLine
 10
9.498854562315726
 20
4.768694053407695
 30
0.0
 11
4.447249524550951
 21
2.768094729819726
 31
0.0
  0
MTEXT
  5
18F1
330
17F3
100
AcDbEntity
  8
2
 62
     0
100
AcDbMText
 10
6.689996007804757
 20
5.162087069607761
 30
0.0
 40
0.8
 41
0.0
 71
     5
 72
     1
  1
\A1;R12.5
 11
0.929743258484315
 21
0.368208464464043
 31
0.0
 73
     1
 44
1.0
1001
ACAD
1000
MTEXTBEGIN
1070
    73
1070
     1
1070
    44
1040
1.0
1070
    74
1070
     0
1000
MTEXTEND
  0
SOLID
  5
18F2
330
17F3
100
AcDbEntity
  8
2
 62
     0
100
AcDbTrace
 10
4.416565485845613
 20
2.845573334693419
 30
0.0
 11
4.477933563256287
 21
2.690616124946035
 31
0.0
 12
3.982377895308793
 22
2.583990497587706
 32
0.0
 13
3.982377895308793
 23
2.583990497587706
 33
0.0
  0
POINT
  5
18F3
330
17F3
100
AcDbEntity
  8
DEFPOINTS
 62
     0
100
AcDbPoint
 10
3.982377895308793
 20
2.583990497587706
 30
0.0
  0
POINT
  5
18F4
330
17F3
100
AcDbEntity
  8
DEFPOINTS
 62
     0
100
AcDbPoint
 10
-7.639412835745146
 20
-2.018615308212825
 30
0.0
  0
ENDBLK
  5
17F5
330
17F3
100
AcDbEntity
  8
0
100
AcDbBlockEnd
  0
BLOCK
  5
1858
330
1857
100
AcDbEntity
  8
0
100
AcDbBlockBegin
  2
*D6
 70
     1
 10
0.0
 20
0.0
 30
0.0
  3
*D6
  1

  0
LINE
  5
18EB
330
1857
100
AcDbEntity
  8
2
 62
     0
100
AcDbLine
 10
-10.71345772386316
 20
-3.529364513193071
 30
0.0
 11
-6.129902223684918
 21
-2.852019140016616
 31
0.0
  0
MTEXT
  5
18EC
330
1857
100
AcDbEntity
  8
2
 62
     0
100
AcDbMText
 10
-8.873659627908917
 20
-1.842280022945399
 30
0.0
 40
0.8
 41
0.0
 71
     5
 72
     1
  1
\A1;R1.2
 11
0.9892565827722828
 21
0.1461896488870046
 31
0.0
 73
     1
 44
1.0
1001
ACAD
1000
MTEXTBEGIN
1070
    73
1070
     1
1070
    44
1040
1.0
1070
    74
1070
     0
1000
MTEXTEND
  0
SOLID
  5
18ED
330
1857
100
AcDbEntity
  8
2
 62
     0
100
AcDbTrace
 10
-6.142084694425503
 20
-2.76958109145226
 30
0.0
 11
-6.117719752944334
 21
-2.934457188580973
 31
0.0
 12
-5.635273932298777
 22
-2.778924315573115
 32
0.0
 13
-5.635273932298777
 23
-2.778924315573115
 33
0.0
  0
POINT
  5
18EE
330
1857
100
AcDbEntity
  8
DEFPOINTS
 62
     0
100
AcDbPoint
 10
-5.635273932298777
 20
-2.778924315573115
 30
0.0
  0
POINT
  5
18EF
330
1857
100
AcDbEntity
  8
DEFPOINTS
 62
     0
100
AcDbPoint
 10
-4.44816603297204
 20
-2.603496736908708
 30
0.0
  0
ENDBLK
  5
1859
330
1857
100
AcDbEntity
  8
0
100
AcDbBlockEnd
  0
BLOCK
  5
1914
330
1913
100
AcDbEntity
  8
0
100
AcDbBlockBegin
  2
*D7
 70
     1
 10
0.0
 20
0.0
 30
0.0
  3
*D7
  1

  0
LINE
  5
1923
330
1913
100
AcDbEntity
  8
2
 62
     0
370
    -2
100
AcDbLine
 10
13.12710200801242
 20
-3.111651212014924
 30
0.0
 11
9.972950046575192
 21
-2.438765460241646
 31
0.0
  0
LINE
  5
1924
330
1913
100
AcDbEntity
  8
2
 62
     0
370
    -2
100
AcDbLine
 10
15.58641524193673
 20
-3.84963803525211
 30
0.0
 11
9.824131359018544
 21
-3.849638035252113
 31
0.0
  0
ARC
  5
1925
330
1913
100
AcDbEntity
  8
2
 62
     0
100
AcDbCircle
 10
16.58641524193673
 20
-3.849638035252109
 30
0.0
 40
5.762283882918187
100
AcDbArc
 50
162.9842431605404
 51
167.957424857115
  0
LINE
  5
1926
330
1913
100
AcDbEntity
  8
2
 62
     0
100
AcDbLine
 10
11.07637928298038
 20
-2.16339390157908
 30
0.0
 11
12.12986415192589
 21
1.279013632531728
 31
0.0
  0
ARC
  5
1927
330
1913
100
AcDbEntity
  8
2
 62
     0
100
AcDbCircle
 10
16.58641524193673
 20
-3.849638035252109
 30
0.0
 40
5.762283882918187
100
AcDbArc
 50
172.9306065536895
 51
175.0268183034255
  0
SOLID
  5
1928
330
1913
100
AcDbEntity
  8
2
 62
     0
100
AcDbTrace
 10
10.78576027622623
 20
-3.126631592799846
 30
0.0
 11
10.95011425306403
 21
-3.154300132251302
 31
0.0
 12
10.9509428829995
 22
-2.647403932012166
 32
0.0
 13
10.9509428829995
 23
-2.647403932012166
 33
0.0
  0
SOLID
  5
1929
330
1913
100
AcDbEntity
  8
2
 62
     0
100
AcDbTrace
 10
10.92907901344178
 20
-3.353724298524136
 30
0.0
 11
10.76256927966929
 21
-3.346493369345138
 31
0.0
 12
10.82413135901854
 22
-3.849638035252112
 32
0.0
 13
10.82413135901854
 23
-3.849638035252112
 33
0.0
  0
MTEXT
  5
192A
330
1913
100
AcDbEntity
  8
2
 62
     0
100
AcDbMText
 10
10.26440767641005
 20
-0.0325015743781998
 30
0.0
 40
0.8
 41
0.0
 71
     5
 72
     1
  1
\A1;12\U+00B0
 11
0.2926346858181972
 21
0.9562243150307804
 31
0.0
 73
     1
 44
1.0
1001
ACAD
1000
MTEXTBEGIN
1070
    73
1070
     1
1070
    44
1040
1.0
1070
    74
1070
     0
1000
MTEXTEND
  0
POINT
  5
192B
330
1913
100
AcDbEntity
  8
DEFPOINTS
 62
     0
100
AcDbPoint
 10
10.83826773076834
 20
-3.446257647544177
 30
0.0
  0
POINT
  5
192C
330
1913
100
AcDbEntity
  8
DEFPOINTS
 62
     0
100
AcDbPoint
 10
16.58641524193673
 20
-3.849638035252109
 30
0.0
  0
POINT
  5
192D
330
1913
100
AcDbEntity
  8
DEFPOINTS
 62
     0
100
AcDbPoint
 10
16.58641524193673
 20
-3.849638035252109
 30
0.0
  0
POINT
  5
192E
330
1913
100
AcDbEntity
  8
DEFPOINTS
 62
     0
100
AcDbPoint
 10
17.04959504947005
 20
-3.849638035252109
 30
0.0
  0
POINT
  5
192F
330
1913
100
AcDbEntity
  8
DEFPOINTS
 62
     0
100
AcDbPoint
 10
14.10509484443673
 20
-3.320289683785444
 30
0.0
  0
ENDBLK
  5
1915
330
1913
100
AcDbEntity
  8
0
100
AcDbBlockEnd
  0
ENDSEC
  0
SECTION
  2
ENTITIES
  0
LWPOLYLINE
  5
14E4
330
19
100
AcDbEntity
  8
3
100
AcDbPolyline
 90
        2
 70
     0
 43
0.0
 10
0.1323370878666648
 20
-4.404431695647523
 10
0.5955168954
 20
-4.387889559664189
  0
LWPOLYLINE
  5
14E5
330
19
100
AcDbEntity
  8
3
100
AcDbPolyline
 90
        2
 70
     0
 43
0.0
 10
0.5955168954
 20
-4.387889559664189
 10
0.9759860230166648
 20
-4.321721015730859
  0
LWPOLYLINE
  5
14E6
330
19
100
AcDbEntity
  8
3
100
AcDbPolyline
 90
        2
 70
     0
 43
0.0
 10
0.9759860230166648
 20
-4.321721015730859
 10
1.356455150633329
 20
-4.239010335814188
  0
LWPOLYLINE
  5
14E7
330
19
100
AcDbEntity
  8
3
100
AcDbPolyline
 90
        2
 70
     0
 43
0.0
 10
1.356455150633329
 20
-4.239010335814188
 10
1.736924278249998
 20
-4.123215383930857
  0
LWPOLYLINE
  5
14E8
330
19
100
AcDbEntity
  8
3
100
AcDbPolyline
 90
        2
 70
     0
 43
0.0
 10
1.736924278249998
 20
-4.123215383930857
 10
2.084309133899998
 20
-3.957794024097529
  0
LWPOLYLINE
  5
14E9
330
19
100
AcDbEntity
  8
3
100
AcDbPolyline
 90
        2
 70
     0
 43
0.0
 10
2.084309133899998
 20
-3.957794024097529
 10
2.431693989549998
 20
-3.775830528280859
  0
LWPOLYLINE
  5
14EA
330
19
100
AcDbEntity
  8
3
100
AcDbPolyline
 90
        2
 70
     0
 43
0.0
 10
2.431693989549998
 20
-3.775830528280859
 10
2.745994573233327
 20
-3.560782760497524
  0
LWPOLYLINE
  5
14EB
330
19
100
AcDbEntity
  8
3
100
AcDbPolyline
 90
        2
 70
     0
 43
0.0
 10
2.745994573233327
 20
-3.560782760497524
 10
2.845247389133328
 20
-3.478072080580859
  0
LWPOLYLINE
  5
14EC
330
19
100
AcDbEntity
  8
3
100
AcDbPolyline
 90
        2
 70
     0
 43
0.0
 10
3.258800788716663
 20
-3.130687224930857
 10
3.341511468633328
 20
-3.047976545014187
  0
LWPOLYLINE
  5
14ED
330
19
100
AcDbEntity
  8
3
100
AcDbPolyline
 90
        2
 70
     0
 43
0.0
 10
3.341511468633328
 20
-3.047976545014187
 10
3.506932828466663
 20
-2.866013049197523
  0
LWPOLYLINE
  5
14EE
330
19
100
AcDbEntity
  8
3
100
AcDbPolyline
 90
        2
 70
     0
 43
0.0
 10
3.821233412149998
 20
-2.435917513630859
 10
4.019739043949991
 20
-2.121616929947524
  0
LWPOLYLINE
  5
14EF
330
19
100
AcDbEntity
  8
3
100
AcDbPolyline
 90
        2
 70
     0
 43
0.0
 10
4.019739043949991
 20
-2.121616929947524
 10
4.201702539766665
 20
-1.774232074297529
  0
LWPOLYLINE
  5
14F0
330
19
100
AcDbEntity
  8
3
100
AcDbPolyline
 90
        2
 70
     0
 43
0.0
 10
4.201702539766665
 20
-1.774232074297529
 10
4.334039627633328
 20
-1.410305082664188
  0
LWPOLYLINE
  5
14F1
330
19
100
AcDbEntity
  8
3
100
AcDbPolyline
 90
        2
 70
     0
 43
0.0
 10
4.334039627633328
 20
-1.410305082664188
 10
4.449834579516664
 20
-1.029835955047524
  0
LWPOLYLINE
  5
14F2
330
19
100
AcDbEntity
  8
3
100
AcDbPolyline
 90
        2
 70
     0
 43
0.0
 10
4.449834579516664
 20
-1.029835955047524
 10
4.532545259433327
 20
-0.6493668274308595
  0
LWPOLYLINE
  5
14F3
330
19
100
AcDbEntity
  8
3
100
AcDbPolyline
 90
        2
 70
     0
 43
0.0
 10
4.532545259433327
 20
-0.6493668274308595
 10
4.549087395416663
 20
-0.4508611956308596
  0
LWPOLYLINE
  5
14F4
330
19
100
AcDbEntity
  8
1
100
AcDbPolyline
 90
        2
 70
     0
 43
0.0
 10
4.582171667383329
 20
0.0950292918191406
 10
4.582171667383329
 20
0.1115714278024757
  0
LWPOLYLINE
  5
14F5
330
19
100
AcDbEntity
  8
3
100
AcDbPolyline
 90
        2
 70
     0
 43
0.0
 10
4.582171667383329
 20
0.1115714278024757
 10
4.565629531399999
 20
0.4424141474691405
  0
LWPOLYLINE
  5
14F6
330
19
100
AcDbEntity
  8
3
100
AcDbPolyline
 90
        2
 70
     0
 43
0.0
 10
4.482918851483328
 20
0.9717624989358107
 10
4.41675030755
 20
1.269520946635811
  0
LWPOLYLINE
  5
14F7
330
19
100
AcDbEntity
  8
3
100
AcDbPolyline
 90
        2
 70
     0
 43
0.0
 10
4.41675030755
 20
1.269520946635811
 10
4.284413219683329
 20
1.633447938269139
  0
LWPOLYLINE
  5
14F8
330
19
100
AcDbEntity
  8
3
100
AcDbPolyline
 90
        2
 70
     0
 43
0.0
 10
4.284413219683329
 20
1.633447938269139
 10
4.135533995833328
 20
1.997374929902475
  0
LWPOLYLINE
  5
14F9
330
19
100
AcDbEntity
  8
3
100
AcDbPolyline
 90
        2
 70
     0
 43
0.0
 10
4.135533995833328
 20
1.997374929902475
 10
3.953570500016663
 20
2.32821764956914
  0
LWPOLYLINE
  5
14FA
330
19
100
AcDbEntity
  8
3
100
AcDbPolyline
 90
        2
 70
     0
 43
0.0
 10
3.953570500016663
 20
2.32821764956914
 10
3.738522732233328
 20
2.659060369235805
  0
LWPOLYLINE
  5
14FB
330
19
100
AcDbEntity
  8
3
100
AcDbPolyline
 90
        2
 70
     0
 43
0.0
 10
3.738522732233328
 20
2.659060369235805
 10
3.556559236416662
 20
2.87410813701914
  0
LWPOLYLINE
  5
14FC
330
19
100
AcDbEntity
  8
3
100
AcDbPolyline
 90
        2
 70
     0
 43
0.0
 10
3.192632244783327
 20
3.27111940061914
 10
2.927958069049998
 20
3.502709304385805
  0
LWPOLYLINE
  5
14FD
330
19
100
AcDbEntity
  8
1
100
AcDbPolyline
 90
        2
 70
     0
 43
0.0
 10
2.927958069049998
 20
3.502709304385805
 10
2.927958069049998
 20
3.502709304385805
  0
LWPOLYLINE
  5
14FE
330
19
100
AcDbEntity
  8
3
100
AcDbPolyline
 90
        2
 70
     0
 43
0.0
 10
2.481320397499997
 20
3.81700988806914
 10
2.299356901683327
 20
3.932804839952473
  0
LWPOLYLINE
  5
14FF
330
19
100
AcDbEntity
  8
3
100
AcDbPolyline
 90
        2
 70
     0
 43
0.0
 10
2.299356901683327
 20
3.932804839952473
 10
1.951972046033328
 20
4.098226199785805
  0
LWPOLYLINE
  5
1500
330
19
100
AcDbEntity
  8
3
100
AcDbPolyline
 90
        2
 70
     0
 43
0.0
 10
1.951972046033328
 20
4.098226199785805
 10
1.5880450544
 20
4.247105423635805
  0
LWPOLYLINE
  5
1501
330
19
100
AcDbEntity
  8
3
100
AcDbPolyline
 90
        2
 70
     0
 43
0.0
 10
1.5880450544
 20
4.247105423635805
 10
1.207575926783329
 20
4.36290037551914
  0
LWPOLYLINE
  5
1502
330
19
100
AcDbEntity
  8
3
100
AcDbPolyline
 90
        2
 70
     0
 43
0.0
 10
1.207575926783329
 20
4.36290037551914
 10
0.8271067991666647
 20
4.429068919452475
  0
LWPOLYLINE
  5
1503
330
19
100
AcDbEntity
  8
3
100
AcDbPolyline
 90
        2
 70
     0
 43
0.0
 10
0.8271067991666647
 20
4.429068919452475
 10
0.4631798075333295
 20
4.478695327402475
  0
LWPOLYLINE
  5
1504
330
19
100
AcDbEntity
  8
3
100
AcDbPolyline
 90
        2
 70
     0
 43
0.0
 10
-0.0661685439333352
 20
4.478695327402475
 10
-0.3308427196666704
 20
4.462153191419139
  0
LWPOLYLINE
  5
1505
330
19
100
AcDbEntity
  8
3
100
AcDbPolyline
 90
        2
 70
     0
 43
0.0
 10
-0.3308427196666704
 20
4.462153191419139
 10
-0.4300955355666705
 20
4.445611055435803
  0
LWPOLYLINE
  5
1506
330
19
100
AcDbEntity
  8
3
100
AcDbPolyline
 90
        2
 70
     0
 43
0.0
 10
-0.9594438870333352
 20
4.346358239535804
 10
-1.0917809749
 20
4.31327396756914
  0
LWPOLYLINE
  5
1507
330
19
100
AcDbEntity
  8
3
100
AcDbPolyline
 90
        2
 70
     0
 43
0.0
 10
-1.0917809749
 20
4.31327396756914
 10
-1.455707966533333
 20
4.197479015685805
  0
LWPOLYLINE
  5
1508
330
19
100
AcDbEntity
  8
3
100
AcDbPolyline
 90
        2
 70
     0
 43
0.0
 10
-1.455707966533333
 20
4.197479015685805
 10
-1.81963495816667
 20
4.032057655852475
  0
LWPOLYLINE
  5
1509
330
19
100
AcDbEntity
  8
3
100
AcDbPolyline
 90
        2
 70
     0
 43
0.0
 10
-1.81963495816667
 20
4.032057655852475
 10
-2.150477677833335
 20
3.850094160035805
  0
LWPOLYLINE
  5
150A
330
19
100
AcDbEntity
  8
3
100
AcDbPolyline
 90
        2
 70
     0
 43
0.0
 10
-2.150477677833335
 20
3.850094160035805
 10
-2.481320397499997
 20
3.635046392252473
  0
LWPOLYLINE
  5
150B
330
19
100
AcDbEntity
  8
3
100
AcDbPolyline
 90
        2
 70
     0
 43
0.0
 10
-2.481320397499997
 20
3.635046392252473
 10
-2.779078845199999
 20
3.403456488485805
  0
LWPOLYLINE
  5
150C
330
19
100
AcDbEntity
  8
3
100
AcDbPolyline
 90
        2
 70
     0
 43
0.0
 10
-2.779078845199999
 20
3.403456488485805
 10
-2.828705253149998
 20
3.353830080535805
  0
LWPOLYLINE
  5
150D
330
19
100
AcDbEntity
  8
3
100
AcDbPolyline
 90
        2
 70
     0
 43
0.0
 10
-3.20917438076667
 20
2.97336095291914
 10
-3.324969332649998
 20
2.841023865052475
  0
LWPOLYLINE
  5
150E
330
19
100
AcDbEntity
  8
3
100
AcDbPolyline
 90
        2
 70
     0
 43
0.0
 10
-3.324969332649998
 20
2.841023865052475
 10
-3.42422214855
 20
2.692144641202474
  0
LWPOLYLINE
  5
150F
330
19
100
AcDbEntity
  8
3
100
AcDbPolyline
 90
        2
 70
     0
 43
0.0
 10
-3.721980596249998
 20
2.245506969652474
 10
-3.75506486821667
 20
2.195880561702475
  0
LWPOLYLINE
  5
1510
330
19
100
AcDbEntity
  8
3
100
AcDbPolyline
 90
        2
 70
     0
 43
0.0
 10
-3.75506486821667
 20
2.195880561702475
 10
-3.937028364033334
 20
1.848495706052474
  0
LWPOLYLINE
  5
1511
330
19
100
AcDbEntity
  8
3
100
AcDbPolyline
 90
        2
 70
     0
 43
0.0
 10
-3.937028364033334
 20
1.848495706052474
 10
-4.069365451899997
 20
1.48456871441914
  0
LWPOLYLINE
  5
1512
330
19
100
AcDbEntity
  8
3
100
AcDbPolyline
 90
        2
 70
     0
 43
0.0
 10
-4.069365451899997
 20
1.48456871441914
 10
-4.185160403783335
 20
1.12064172278581
  0
LWPOLYLINE
  5
1513
330
19
100
AcDbEntity
  8
3
100
AcDbPolyline
 90
        2
 70
     0
 43
0.0
 10
-4.185160403783335
 20
1.12064172278581
 10
-4.2678710837
 20
0.7401725951691406
  0
LWPOLYLINE
  5
1514
330
19
100
AcDbEntity
  8
3
100
AcDbPolyline
 90
        2
 70
     0
 43
0.0
 10
-4.2678710837
 20
0.7401725951691406
 10
-4.30095535566667
 20
0.3431613315691405
  0
LWPOLYLINE
  5
1515
330
19
100
AcDbEntity
  8
3
100
AcDbPolyline
 90
        2
 70
     0
 43
0.0
 10
-4.30095535566667
 20
0.3431613315691405
 10
-4.30095535566667
 20
0.2108242437024757
  0
LWPOLYLINE
  5
1516
330
19
100
AcDbEntity
  8
3
100
AcDbPolyline
 90
        2
 70
     0
 43
0.0
 10
-4.30095535566667
 20
-0.3185241077641891
 10
-4.284413219683334
 20
-0.4343190596475301
  0
LWPOLYLINE
  5
1517
330
19
100
AcDbEntity
  8
3
100
AcDbPolyline
 90
        2
 70
     0
 43
0.0
 10
-4.284413219683334
 20
-0.4343190596475301
 10
-4.25132894771667
 20
-0.6824510993975244
  0
LWPOLYLINE
  5
1518
330
19
100
AcDbEntity
  8
3
100
AcDbPolyline
 90
        2
 70
     0
 43
0.0
 10
-4.135533995833333
 20
-1.195257314880859
 10
-4.019739043949997
 20
-1.559184306514189
  0
LWPOLYLINE
  5
1519
330
19
100
AcDbEntity
  8
3
100
AcDbPolyline
 90
        2
 70
     0
 43
0.0
 10
-4.019739043949997
 20
-1.559184306514189
 10
-3.870859820099998
 20
-1.906569162164188
  0
LWPOLYLINE
  5
151A
330
19
100
AcDbEntity
  8
3
100
AcDbPolyline
 90
        2
 70
     0
 43
0.0
 10
-3.870859820099998
 20
-1.906569162164188
 10
-3.688896324283335
 20
-2.253954017814189
  0
LWPOLYLINE
  5
151B
330
19
100
AcDbEntity
  8
3
100
AcDbPolyline
 90
        2
 70
     0
 43
0.0
 10
-3.688896324283335
 20
-2.253954017814189
 10
-3.473848556499998
 20
-2.584796737480858
  0
LWPOLYLINE
  5
151C
330
19
100
AcDbEntity
  8
3
100
AcDbPolyline
 90
        2
 70
     0
 43
0.0
 10
-3.473848556499998
 20
-2.584796737480858
 10
-3.225716516749998
 20
-2.882555185180859
  0
LWPOLYLINE
  5
151D
330
19
100
AcDbEntity
  8
3
100
AcDbPolyline
 90
        2
 70
     0
 43
0.0
 10
-3.225716516749998
 20
-2.882555185180859
 10
-3.0768372929
 20
-3.031434409030857
  0
LWPOLYLINE
  5
151E
330
19
100
AcDbEntity
  8
1
100
AcDbPolyline
 90
        2
 70
     0
 43
0.0
 10
-2.6798260293
 20
-3.411903536647522
 10
-2.66328389331667
 20
-3.411903536647522
  0
LWPOLYLINE
  5
151F
330
19
100
AcDbEntity
  8
3
100
AcDbPolyline
 90
        2
 70
     0
 43
0.0
 10
-2.66328389331667
 20
-3.411903536647522
 10
-2.398609717583333
 20
-3.610409168447523
  0
LWPOLYLINE
  5
1520
330
19
100
AcDbEntity
  8
3
100
AcDbPolyline
 90
        2
 70
     0
 43
0.0
 10
-1.935429910049998
 20
-3.891625480164188
 10
-1.670755734316668
 20
-4.023962568030857
  0
LWPOLYLINE
  5
1521
330
19
100
AcDbEntity
  8
3
100
AcDbPolyline
 90
        2
 70
     0
 43
0.0
 10
-1.670755734316668
 20
-4.023962568030857
 10
-1.306828742683334
 20
-4.172841791880859
  0
LWPOLYLINE
  5
1522
330
19
100
AcDbEntity
  8
3
100
AcDbPolyline
 90
        2
 70
     0
 43
0.0
 10
-1.306828742683334
 20
-4.172841791880859
 10
-0.9429017510499999
 20
-4.272094607780857
  0
LWPOLYLINE
  5
1523
330
19
100
AcDbEntity
  8
3
100
AcDbPolyline
 90
        2
 70
     0
 43
0.0
 10
-0.9429017510499999
 20
-4.272094607780857
 10
-0.5624326234333355
 20
-4.354805287697528
  0
LWPOLYLINE
  5
1524
330
19
100
AcDbEntity
  8
3
100
AcDbPolyline
 90
        2
 70
     0
 43
0.0
 10
-0.5624326234333355
 20
-4.354805287697528
 10
-0.1819634958166704
 20
-4.404431695647523
  0
LWPOLYLINE
  5
1525
330
19
100
AcDbEntity
  8
3
100
AcDbPolyline
 90
        2
 70
     0
 43
0.0
 10
-0.1819634958166704
 20
-4.404431695647523
 10
0.1157949518833296
 20
-4.404431695647523
  0
LWPOLYLINE
  5
153F
330
19
100
AcDbEntity
  8
1
100
AcDbPolyline
 90
        2
 70
     0
 43
0.0
 10
-5.045351474916668
 20
1.352231626552475
 10
-5.045351474916668
 20
1.352231626552475
  0
LWPOLYLINE
  5
15B6
330
19
100
AcDbEntity
  8
1
100
AcDbPolyline
 90
        2
 70
     0
 43
0.0
 10
-0.3143005836833352
 20
-0.0869342039975243
 10
-0.3143005836833352
 20
-0.0869342039975243
  0
LWPOLYLINE
  5
15BF
330
19
100
AcDbEntity
  8
1
100
AcDbPolyline
 90
        2
 70
     0
 43
0.0
 10
0.5789747594166648
 20
0.1611978357524757
 10
0.5789747594166648
 20
0.1611978357524757
  0
LWPOLYLINE
  5
15C4
330
19
100
AcDbEntity
  8
1
100
AcDbPolyline
 90
      258
 70
     0
 43
0.0
 10
2.216646221766664
 20
0.0454028838691406
 10
2.216646221766664
 20
0.0454028838691406
 10
2.216646221766664
 20
0.0950292918191406
 10
2.216646221766664
 20
0.1446556997691405
 10
2.200104085783328
 20
0.1942821077191405
 10
2.200104085783328
 20
0.2439085156691406
 10
2.200104085783328
 20
0.3100770596024757
 10
2.1835619498
 20
0.3597034675524757
 10
2.1835619498
 20
0.4093298755024759
 10
2.167019813816664
 20
0.4589562834524758
 10
2.167019813816664
 20
0.5085826914024758
 10
2.150477677833328
 20
0.5582090993524758
 10
2.13393554185
 20
0.6078355073024757
 10
2.117393405866664
 20
0.6574619152524758
 10
2.100851269883329
 20
0.7070883232024757
 10
2.084309133899998
 20
0.756714731152476
 10
2.067766997916664
 20
0.8063411391024757
 10
2.051224861933329
 20
0.8559675470524757
 10
2.034682725949997
 20
0.8890518190191405
 10
2.001598453983329
 20
0.9386782269691403
 10
1.985056317999998
 20
0.9883046349191404
 10
1.968514182016664
 20
1.037931042869139
 10
1.935429910049998
 20
1.071015314835811
 10
1.918887774066662
 20
1.12064172278581
 10
1.885803502099997
 20
1.153725994752474
 10
1.852719230133329
 20
1.203352402702475
 10
1.836177094149999
 20
1.236436674669139
 10
1.803092822183329
 20
1.286063082619139
 10
1.770008550216664
 20
1.319147354585811
 10
1.736924278249998
 20
1.36877376253581
 10
1.703840006283329
 20
1.401858034502474
 10
1.670755734316664
 20
1.434942306469139
 10
1.637671462349999
 20
1.468026578435804
 10
1.604587190383329
 20
1.517652986385805
 10
1.571502918416664
 20
1.550737258352475
 10
1.53841864644999
 20
1.583821530319139
 10
1.488792238499998
 20
1.616905802285803
 10
1.455707966533329
 20
1.649990074252475
 10
1.422623694566664
 20
1.683074346219139
 10
1.372997286616663
 20
1.699616482202475
 10
1.33991301465
 20
1.732700754169139
 10
1.2902866067
 20
1.765785026135804
 10
1.257202334733329
 20
1.798869298102475
 10
1.207575926783329
 20
1.815411434085803
 10
1.174491654816663
 20
1.848495706052474
 10
1.124865246866664
 20
1.865037842035803
 10
1.075238838916664
 20
1.898122114002475
 10
1.042154566949998
 20
1.914664249985803
 10
0.992528159
 20
1.931206385969139
 10
0.9429017510499999
 20
1.964290657935805
 10
0.8932753431
 20
1.980832793919139
 10
0.8436489351499998
 20
1.997374929902475
 10
0.7940225272000001
 20
2.013917065885804
 10
0.7443961192500002
 20
2.03045920186914
 10
0.6947697113000002
 20
2.047001337852475
 10
0.6451433033500003
 20
2.047001337852475
 10
0.5955168954
 20
2.063543473835804
 10
0.54589048745
 20
2.08008560981914
 10
0.4962640795000003
 20
2.08008560981914
 10
0.44663767155
 20
2.096627745802475
 10
0.3970112635999916
 20
2.096627745802475
 10
0.34738485565
 20
2.113169881785809
 10
0.2977584476999915
 20
2.113169881785809
 10
0.2315899037666647
 20
2.113169881785809
 10
0.1819634958166648
 20
2.113169881785809
 10
0.1323370878666648
 20
2.113169881785809
 10
0.0827106799166648
 20
2.113169881785809
 10
0.0330842719666648
 20
2.113169881785809
 10
-0.0330842719666704
 20
2.113169881785809
 10
-0.0827106799166704
 20
2.113169881785809
 10
-0.1323370878666704
 20
2.096627745802475
 10
-0.1819634958166704
 20
2.096627745802475
 10
-0.2315899037666704
 20
2.08008560981914
 10
-0.2812163117166704
 20
2.08008560981914
 10
-0.3308427196666704
 20
2.063543473835804
 10
-0.3804691276166704
 20
2.047001337852475
 10
-0.4300955355666705
 20
2.047001337852475
 10
-0.4797219435166706
 20
2.03045920186914
 10
-0.5293483514666705
 20
2.013917065885804
 10
-0.5789747594166707
 20
1.997374929902475
 10
-0.6286011673666704
 20
1.980832793919139
 10
-0.6782275753166706
 20
1.964290657935805
 10
-0.7278539832666704
 20
1.931206385969139
 10
-0.7774803912166705
 20
1.914664249985803
 10
-0.8105646631833348
 20
1.898122114002475
 10
-0.8601910711333353
 20
1.865037842035803
 10
-0.9098174790833352
 20
1.848495706052474
 10
-0.9429017510499999
 20
1.815411434085803
 10
-0.992528159
 20
1.798869298102475
 10
-1.02561243096667
 20
1.765785026135804
 10
-1.07523883891667
 20
1.732700754169139
 10
-1.108323110883335
 20
1.699616482202475
 10
-1.157949518833333
 20
1.683074346219139
 10
-1.191033790799999
 20
1.649990074252475
 10
-1.224118062766669
 20
1.616905802285803
 10
-1.273744470716668
 20
1.583821530319139
 10
-1.306828742683334
 20
1.550737258352475
 10
-1.33991301465
 20
1.517652986385805
 10
-1.372997286616669
 20
1.468026578435804
 10
-1.406081558583335
 20
1.434942306469139
 10
-1.439165830549997
 20
1.401858034502474
 10
-1.472250102516668
 20
1.36877376253581
 10
-1.505334374483334
 20
1.319147354585811
 10
-1.53841864645
 20
1.286063082619139
 10
-1.57150291841667
 20
1.236436674669139
 10
-1.5880450544
 20
1.203352402702475
 10
-1.621129326366668
 20
1.153725994752474
 10
-1.654213598333335
 20
1.12064172278581
 10
-1.670755734316668
 20
1.071015314835811
 10
-1.703840006283335
 20
1.037931042869139
 10
-1.720382142266668
 20
0.9883046349191404
 10
-1.736924278249998
 20
0.9386782269691403
 10
-1.77000855021667
 20
0.8890518190191405
 10
-1.7865506862
 20
0.8559675470524757
 10
-1.803092822183334
 20
0.8063411391024757
 10
-1.81963495816667
 20
0.756714731152476
 10
-1.836177094149999
 20
0.7070883232024757
 10
-1.852719230133335
 20
0.6574619152524758
 10
-1.869261366116668
 20
0.6078355073024757
 10
-1.885803502099997
 20
0.5582090993524758
 10
-1.902345638083333
 20
0.5085826914024758
 10
-1.902345638083333
 20
0.4589562834524758
 10
-1.918887774066669
 20
0.4093298755024759
 10
-1.918887774066669
 20
0.3597034675524757
 10
-1.935429910049998
 20
0.3100770596024757
 10
-1.935429910049998
 20
0.2439085156691406
 10
-1.935429910049998
 20
0.1942821077191405
 10
-1.951972046033333
 20
0.1446556997691405
 10
-1.951972046033333
 20
0.0950292918191406
 10
-1.951972046033333
 20
0.0454028838691406
 10
-1.951972046033333
 20
-0.020765660064189
 10
-1.951972046033333
 20
-0.0703920680141891
 10
-1.935429910049998
 20
-0.120018475964189
 10
-1.935429910049998
 20
-0.169644883914189
 10
-1.935429910049998
 20
-0.219271291864189
 10
-1.918887774066669
 20
-0.2854398357975242
 10
-1.918887774066669
 20
-0.3350662437475299
 10
-1.902345638083333
 20
-0.3846926516975242
 10
-1.902345638083333
 20
-0.4343190596475301
 10
-1.885803502099997
 20
-0.4839454675975244
 10
-1.869261366116668
 20
-0.53357187554753
 10
-1.852719230133335
 20
-0.5831982834975245
 10
-1.836177094149999
 20
-0.6328246914475299
 10
-1.81963495816667
 20
-0.6824510993975244
 10
-1.803092822183334
 20
-0.7155353713641892
 10
-1.7865506862
 20
-0.7651617793141891
 10
-1.77000855021667
 20
-0.8147881872641889
 10
-1.736924278249998
 20
-0.8644145952141892
 10
-1.720382142266668
 20
-0.9140410031641891
 10
-1.703840006283335
 20
-0.9471252751308592
 10
-1.670755734316668
 20
-0.9967516830808595
 10
-1.654213598333335
 20
-1.046378091030859
 10
-1.621129326366668
 20
-1.079462362997522
 10
-1.5880450544
 20
-1.129088770947524
 10
-1.57150291841667
 20
-1.162173042914188
 10
-1.53841864645
 20
-1.211799450864186
 10
-1.505334374483334
 20
-1.244883722830859
 10
-1.472250102516668
 20
-1.277967994797527
 10
-1.439165830549997
 20
-1.327594402747524
 10
-1.406081558583335
 20
-1.360678674714187
 10
-1.372997286616669
 20
-1.393762946680857
 10
-1.33991301465
 20
-1.426847218647524
 10
-1.306828742683334
 20
-1.459931490614188
 10
-1.273744470716668
 20
-1.493015762580859
 10
-1.224118062766669
 20
-1.526100034547524
 10
-1.191033790799999
 20
-1.559184306514189
 10
-1.157949518833333
 20
-1.592268578480859
 10
-1.108323110883335
 20
-1.625352850447524
 10
-1.07523883891667
 20
-1.658437122414188
 10
-1.02561243096667
 20
-1.691521394380859
 10
-0.992528159
 20
-1.708063530364188
 10
-0.9429017510499999
 20
-1.741147802330859
 10
-0.9098174790833352
 20
-1.774232074297529
 10
-0.8601910711333353
 20
-1.790774210280859
 10
-0.8105646631833348
 20
-1.807316346264188
 10
-0.7774803912166705
 20
-1.840400618230859
 10
-0.7278539832666704
 20
-1.856942754214188
 10
-0.6782275753166706
 20
-1.873484890197529
 10
-0.6286011673666704
 20
-1.890027026180859
 10
-0.5789747594166707
 20
-1.923111298147524
 10
-0.5293483514666705
 20
-1.939653434130859
 10
-0.4797219435166706
 20
-1.956195570114189
 10
-0.4300955355666705
 20
-1.956195570114189
 10
-0.3804691276166704
 20
-1.97273770609753
 10
-0.3308427196666704
 20
-1.989279842080859
 10
-0.2812163117166704
 20
-2.005821978064188
 10
-0.2315899037666704
 20
-2.005821978064188
 10
-0.1819634958166704
 20
-2.022364114047523
 10
-0.1323370878666704
 20
-2.022364114047523
 10
-0.0827106799166704
 20
-2.038906250030859
 10
-0.0330842719666704
 20
-2.038906250030859
 10
0.0330842719666648
 20
-2.038906250030859
 10
0.0827106799166648
 20
-2.038906250030859
 10
0.1323370878666648
 20
-2.038906250030859
 10
0.1819634958166648
 20
-2.038906250030859
 10
0.2315899037666647
 20
-2.038906250030859
 10
0.2977584476999915
 20
-2.038906250030859
 10
0.34738485565
 20
-2.038906250030859
 10
0.3970112635999916
 20
-2.022364114047523
 10
0.44663767155
 20
-2.022364114047523
 10
0.4962640795000003
 20
-2.005821978064188
 10
0.54589048745
 20
-2.005821978064188
 10
0.5955168954
 20
-1.989279842080859
 10
0.6451433033500003
 20
-1.97273770609753
 10
0.6947697113000002
 20
-1.956195570114189
 10
0.7443961192500002
 20
-1.956195570114189
 10
0.7940225272000001
 20
-1.939653434130859
 10
0.8436489351499998
 20
-1.923111298147524
 10
0.8932753431
 20
-1.890027026180859
 10
0.9429017510499999
 20
-1.873484890197529
 10
0.992528159
 20
-1.856942754214188
 10
1.042154566949998
 20
-1.840400618230859
 10
1.075238838916664
 20
-1.807316346264188
 10
1.124865246866664
 20
-1.790774210280859
 10
1.174491654816663
 20
-1.774232074297529
 10
1.207575926783329
 20
-1.741147802330859
 10
1.257202334733329
 20
-1.708063530364188
 10
1.2902866067
 20
-1.691521394380859
 10
1.33991301465
 20
-1.658437122414188
 10
1.372997286616663
 20
-1.625352850447524
 10
1.422623694566664
 20
-1.592268578480859
 10
1.455707966533329
 20
-1.559184306514189
 10
1.488792238499998
 20
-1.526100034547524
 10
1.53841864644999
 20
-1.493015762580859
 10
1.571502918416664
 20
-1.459931490614188
 10
1.604587190383329
 20
-1.426847218647524
 10
1.637671462349999
 20
-1.393762946680857
 10
1.670755734316664
 20
-1.360678674714187
 10
1.703840006283329
 20
-1.327594402747524
 10
1.736924278249998
 20
-1.277967994797527
 10
1.770008550216664
 20
-1.244883722830859
 10
1.803092822183329
 20
-1.211799450864186
 10
1.836177094149999
 20
-1.162173042914188
 10
1.852719230133329
 20
-1.129088770947524
 10
1.885803502099997
 20
-1.079462362997522
 10
1.918887774066662
 20
-1.046378091030859
 10
1.935429910049998
 20
-0.9967516830808595
 10
1.968514182016664
 20
-0.9471252751308592
 10
1.985056317999998
 20
-0.9140410031641891
 10
2.001598453983329
 20
-0.8644145952141892
 10
2.034682725949997
 20
-0.8147881872641889
 10
2.051224861933329
 20
-0.7651617793141891
 10
2.067766997916664
 20
-0.7155353713641892
 10
2.084309133899998
 20
-0.6824510993975244
 10
2.100851269883329
 20
-0.6328246914475299
 10
2.117393405866664
 20
-0.5831982834975245
 10
2.13393554185
 20
-0.53357187554753
 10
2.150477677833328
 20
-0.4839454675975244
 10
2.167019813816664
 20
-0.4343190596475301
 10
2.167019813816664
 20
-0.3846926516975242
 10
2.1835619498
 20
-0.3350662437475299
 10
2.1835619498
 20
-0.2854398357975242
 10
2.200104085783328
 20
-0.219271291864189
 10
2.200104085783328
 20
-0.169644883914189
 10
2.200104085783328
 20
-0.120018475964189
 10
2.216646221766664
 20
-0.0703920680141891
 10
2.216646221766664
 20
-0.020765660064189
 10
2.216646221766664
 20
0.0454028838691406
  0
LWPOLYLINE
  5
15C5
330
19
100
AcDbEntity
  8
1
100
AcDbPolyline
 90
       20
 70
     0
 43
0.0
 10
4.962640794999997
 20
-3.461529944597528
 10
4.962640794999997
 20
-3.461529944597528
 10
5.028809338933329
 20
-3.428445672630857
 10
5.094977882866664
 20
-3.378819264680859
 10
5.144604290816665
 20
-3.345734992714187
 10
5.21077283475
 20
-3.296108584764186
 10
5.2603992427
 20
-3.246482176814187
 10
5.31002565065
 20
-3.196855768864188
 10
5.359652058599992
 20
-3.147229360914189
 10
5.409278466549998
 20
-3.081060816980857
 10
5.442362738516664
 20
-3.01489227304753
 10
5.475447010483329
 20
-2.948723729114189
 10
5.508531282449999
 20
-2.882555185180859
 10
5.541615554416663
 20
-2.816386641247524
 10
5.558157690399999
 20
-2.750218097314188
 10
5.574699826383329
 20
-2.667507417397522
 10
5.574699826383329
 20
-2.601338873464187
 10
5.574699826383329
 20
-2.51862819354753
 10
5.574699826383329
 20
-2.452459649614187
 10
5.574699826383329
 20
-2.386291105680857
  0
LWPOLYLINE
  5
15C6
330
19
100
AcDbEntity
  8
1
100
AcDbPolyline
 90
       66
 70
     0
 43
0.0
 10
5.574699826383329
 20
-2.386291105680857
 10
5.574699826383329
 20
-2.386291105680857
 10
5.541615554416663
 20
-2.237411881830857
 10
5.525073418433327
 20
-2.088532657980859
 10
5.491989146466663
 20
-1.923111298147524
 10
5.475447010483329
 20
-1.774232074297529
 10
5.442362738516664
 20
-1.625352850447524
 10
5.409278466549998
 20
-1.459931490614188
 10
5.376194194583328
 20
-1.311052266764189
 10
5.343109922616664
 20
-1.162173042914188
 10
5.31002565065
 20
-1.013293819064189
 10
5.276941378683329
 20
-0.8644145952141892
 10
5.227314970733329
 20
-0.7155353713641892
 10
5.194230698766665
 20
-0.566656147514189
 10
5.144604290816665
 20
-0.4177769236641893
 10
5.094977882866664
 20
-0.268897699814189
 10
5.045351474916663
 20
-0.120018475964189
 10
4.995725066966664
 20
0.028860747885811
 10
4.946098659016664
 20
0.177739971735811
 10
4.896472251066663
 20
0.3100770596024757
 10
4.846845843116664
 20
0.4589562834524758
 10
4.797219435166662
 20
0.6078355073024757
 10
4.731050891233329
 20
0.7401725951691406
 10
4.681424483283328
 20
0.8890518190191405
 10
4.615255939349999
 20
1.037931042869139
 10
4.549087395416663
 20
1.17026813073581
 10
4.482918851483328
 20
1.319147354585811
 10
4.41675030755
 20
1.451484442452475
 10
4.350581763616665
 20
1.583821530319139
 10
4.284413219683329
 20
1.732700754169139
 10
4.21824467575
 20
1.865037842035803
 10
4.135533995833328
 20
1.997374929902475
 10
4.069365451899997
 20
2.129712017769139
 10
3.986654771983328
 20
2.262049105635805
 10
3.903944092066662
 20
2.394386193502473
 10
3.837775548133327
 20
2.52672328136914
 10
3.755064868216662
 20
2.659060369235805
 10
3.672354188299998
 20
2.791397457102475
 10
3.589643508383328
 20
2.92373454496914
 10
3.490390692483328
 20
3.039529496852473
 10
3.407680012566662
 20
3.171866584719138
 10
3.324969332649998
 20
3.304203672585805
 10
3.225716516749998
 20
3.41999862446914
 10
3.143005836833328
 20
3.552335712335805
 10
3.043753020933329
 20
3.66813066421914
 10
2.944500205033327
 20
3.783925616102473
 10
2.861789525116662
 20
3.91626270396914
 10
2.762536709216663
 20
4.032057655852475
 10
2.663283893316664
 20
4.147852607735805
 10
2.564031077416664
 20
4.26364755961914
 10
2.448236125533329
 20
4.379442511502475
 10
2.348983309633329
 20
4.495237463385803
 10
2.249730493733329
 20
4.611032415269138
 10
2.13393554185
 20
4.726827367152473
 10
2.034682725949997
 20
4.826080183052473
 10
1.918887774066662
 20
4.941875134935803
 10
1.803092822183329
 20
5.041127950835805
 10
1.703840006283329
 20
5.156922902719139
 10
1.5880450544
 20
5.25617571861914
 10
1.472250102516662
 20
5.371970670502473
 10
1.356455150633329
 20
5.471223486402473
 10
1.240660198749998
 20
5.570476302302473
 10
1.108323110883329
 20
5.669729118202472
 10
0.992528159
 20
5.768981934102472
 10
0.8767332071166647
 20
5.868234750002473
 10
0.7443961192500002
 20
5.967487565902475
  0
LWPOLYLINE
  5
15C7
330
19
100
AcDbEntity
  8
1
100
AcDbPolyline
 90
       18
 70
     0
 43
0.0
 10
0.7443961192500002
 20
5.967487565902475
 10
0.7443961192500002
 20
5.967487565902475
 10
0.6782275753166648
 20
6.017113973852477
 10
0.6120590313833297
 20
6.050198245819138
 10
0.5293483514666649
 20
6.083282517785804
 10
0.4631798075333295
 20
6.116366789752476
 10
0.3804691276166648
 20
6.132908925735804
 10
0.2977584476999915
 20
6.14945106171914
 10
0.2150477677833296
 20
6.165993197702476
 10
0.1323370878666648
 20
6.165993197702476
 10
0.04962640795
 20
6.165993197702476
 10
-0.0330842719666704
 20
6.14945106171914
 10
-0.1157949518833352
 20
6.132908925735804
 10
-0.1985056318
 20
6.116366789752476
 10
-0.2646741757333352
 20
6.083282517785804
 10
-0.34738485565
 20
6.050198245819138
 10
-0.4135533995833355
 20
6.017113973852477
 10
-0.4797219435166706
 20
5.967487565902475
  0
LWPOLYLINE
  5
15C8
330
19
100
AcDbEntity
  8
1
100
AcDbPolyline
 90
       20
 70
     0
 43
0.0
 10
-5.31002565065
 20
-2.386291105680857
 10
-5.31002565065
 20
-2.386291105680857
 10
-5.31002565065
 20
-2.452459649614187
 10
-5.31002565065
 20
-2.51862819354753
 10
-5.31002565065
 20
-2.601338873464187
 10
-5.29348351466667
 20
-2.667507417397522
 10
-5.29348351466667
 20
-2.750218097314188
 10
-5.2603992427
 20
-2.816386641247524
 10
-5.243857106716669
 20
-2.882555185180859
 10
-5.21077283475
 20
-2.948723729114189
 10
-5.177688562783334
 20
-3.01489227304753
 10
-5.14460429081667
 20
-3.081060816980857
 10
-5.094977882866668
 20
-3.147229360914189
 10
-5.045351474916668
 20
-3.196855768864188
 10
-4.995725066966668
 20
-3.246482176814187
 10
-4.946098659016668
 20
-3.296108584764186
 10
-4.879930115083332
 20
-3.345734992714187
 10
-4.830303707133333
 20
-3.378819264680859
 10
-4.764135163199997
 20
-3.428445672630857
 10
-4.681424483283334
 20
-3.461529944597528
  0
LWPOLYLINE
  5
15C9
330
19
100
AcDbEntity
  8
1
100
AcDbPolyline
 90
       66
 70
     0
 43
0.0
 10
-0.4797219435166706
 20
5.967487565902475
 10
-0.4797219435166706
 20
5.967487565902475
 10
-0.6120590313833353
 20
5.868234750002473
 10
-0.7278539832666704
 20
5.768981934102472
 10
-0.8436489351499998
 20
5.669729118202472
 10
-0.9759860230166703
 20
5.570476302302473
 10
-1.0917809749
 20
5.471223486402473
 10
-1.207575926783333
 20
5.371970670502473
 10
-1.323370878666668
 20
5.25617571861914
 10
-1.439165830549997
 20
5.156922902719139
 10
-1.53841864645
 20
5.041127950835805
 10
-1.654213598333335
 20
4.941875134935803
 10
-1.77000855021667
 20
4.826080183052473
 10
-1.869261366116668
 20
4.726827367152473
 10
-1.985056317999998
 20
4.611032415269138
 10
-2.084309133899998
 20
4.495237463385803
 10
-2.1835619498
 20
4.379442511502475
 10
-2.299356901683335
 20
4.26364755961914
 10
-2.398609717583333
 20
4.147852607735805
 10
-2.497862533483333
 20
4.032057655852475
 10
-2.597115349383333
 20
3.91626270396914
 10
-2.696368165283334
 20
3.783925616102473
 10
-2.779078845199999
 20
3.66813066421914
 10
-2.878331661099997
 20
3.552335712335805
 10
-2.961042341016668
 20
3.41999862446914
 10
-3.06029515691667
 20
3.304203672585805
 10
-3.143005836833335
 20
3.171866584719138
 10
-3.242258652733335
 20
3.039529496852473
 10
-3.324969332649998
 20
2.92373454496914
 10
-3.407680012566669
 20
2.791397457102475
 10
-3.490390692483335
 20
2.659060369235805
 10
-3.5731013724
 20
2.52672328136914
 10
-3.639269916333335
 20
2.394386193502473
 10
-3.721980596249998
 20
2.262049105635805
 10
-3.804691276166669
 20
2.129712017769139
 10
-3.870859820099998
 20
1.997374929902475
 10
-3.953570500016668
 20
1.865037842035803
 10
-4.019739043949997
 20
1.716158618185803
 10
-4.085907587883333
 20
1.583821530319139
 10
-4.152076131816668
 20
1.451484442452475
 10
-4.21824467575
 20
1.302605218602475
 10
-4.284413219683334
 20
1.17026813073581
 10
-4.350581763616669
 20
1.021388906885809
 10
-4.41675030755
 20
0.8890518190191405
 10
-4.4663767155
 20
0.7401725951691406
 10
-4.532545259433335
 20
0.6078355073024757
 10
-4.582171667383335
 20
0.4589562834524758
 10
-4.631798075333334
 20
0.3100770596024757
 10
-4.69796661926667
 20
0.1611978357524757
 10
-4.747593027216669
 20
0.028860747885811
 10
-4.797219435166669
 20
-0.120018475964189
 10
-4.830303707133333
 20
-0.268897699814189
 10
-4.879930115083332
 20
-0.4177769236641893
 10
-4.929556523033335
 20
-0.566656147514189
 10
-4.962640794999997
 20
-0.7155353713641892
 10
-5.01226720295
 20
-0.8644145952141892
 10
-5.045351474916668
 20
-1.013293819064189
 10
-5.078435746883335
 20
-1.162173042914188
 10
-5.11152001885
 20
-1.327594402747524
 10
-5.14460429081667
 20
-1.476473626597529
 10
-5.177688562783334
 20
-1.625352850447524
 10
-5.21077283475
 20
-1.774232074297529
 10
-5.227314970733335
 20
-1.939653434130859
 10
-5.2603992427
 20
-2.088532657980859
 10
-5.276941378683335
 20
-2.237411881830857
 10
-5.31002565065
 20
-2.402833241664187
  0
LWPOLYLINE
  5
15CA
330
19
100
AcDbEntity
  8
1
100
AcDbPolyline
 90
      130
 70
     0
 43
0.0
 10
-4.69796661926667
 20
-3.444987808614189
 10
-4.69796661926667
 20
-3.444987808614189
 10
-4.631798075333334
 20
-3.478072080580859
 10
-4.54908739541667
 20
-3.511156352547522
 10
-4.482918851483335
 20
-3.544240624514188
 10
-4.41675030755
 20
-3.560782760497524
 10
-4.334039627633335
 20
-3.593867032464189
 10
-4.2678710837
 20
-3.626951304430859
 10
-4.185160403783335
 20
-3.643493440414188
 10
-4.11899185985
 20
-3.676577712380857
 10
-4.052823315916668
 20
-3.693119848364188
 10
-3.970112635999997
 20
-3.726204120330857
 10
-3.903944092066669
 20
-3.759288392297528
 10
-3.821233412149998
 20
-3.775830528280859
 10
-3.75506486821667
 20
-3.792372664264187
 10
-3.672354188299998
 20
-3.825456936230859
 10
-3.606185644366668
 20
-3.841999072214186
 10
-3.52347496445
 20
-3.875083344180858
 10
-3.457306420516669
 20
-3.891625480164188
 10
-3.374595740599998
 20
-3.908167616147524
 10
-3.30842719666667
 20
-3.941251888114187
 10
-3.225716516749998
 20
-3.957794024097529
 10
-3.159547972816668
 20
-3.974336160080857
 10
-3.0768372929
 20
-3.990878296064189
 10
-3.010668748966669
 20
-4.007420432047522
 10
-2.927958069049998
 20
-4.040504704014186
 10
-2.86178952511667
 20
-4.057046839997522
 10
-2.779078845199999
 20
-4.073588975980857
 10
-2.712910301266668
 20
-4.090131111964188
 10
-2.63019962135
 20
-4.106673247947524
 10
-2.564031077416669
 20
-4.123215383930857
 10
-2.481320397499997
 20
-4.139757519914189
 10
-2.398609717583333
 20
-4.156299655897528
 10
-2.332441173649999
 20
-4.172841791880859
 10
-2.249730493733333
 20
-4.189383927864189
 10
-2.1835619498
 20
-4.205926063847522
 10
-2.100851269883333
 20
-4.205926063847522
 10
-2.01814058996667
 20
-4.222468199830857
 10
-1.951972046033333
 20
-4.239010335814188
 10
-1.869261366116668
 20
-4.255552471797527
 10
-1.803092822183334
 20
-4.272094607780857
 10
-1.720382142266668
 20
-4.272094607780857
 10
-1.637671462349999
 20
-4.288636743764189
 10
-1.57150291841667
 20
-4.305178879747523
 10
-1.488792238499998
 20
-4.305178879747523
 10
-1.406081558583335
 20
-4.321721015730859
 10
-1.33991301465
 20
-4.321721015730859
 10
-1.257202334733334
 20
-4.338263151714189
 10
-1.174491654816668
 20
-4.338263151714189
 10
-1.108323110883335
 20
-4.354805287697528
 10
-1.02561243096667
 20
-4.354805287697528
 10
-0.9594438870333352
 20
-4.371347423680857
 10
-0.8767332071166704
 20
-4.371347423680857
 10
-0.7940225272000001
 20
-4.371347423680857
 10
-0.7113118472833352
 20
-4.387889559664189
 10
-0.6451433033500003
 20
-4.387889559664189
 10
-0.5624326234333355
 20
-4.387889559664189
 10
-0.4797219435166706
 20
-4.404431695647523
 10
-0.4135533995833355
 20
-4.404431695647523
 10
-0.3308427196666704
 20
-4.404431695647523
 10
-0.24813203975
 20
-4.404431695647523
 10
-0.1819634958166704
 20
-4.404431695647523
 10
-0.0992528159
 20
-4.404431695647523
 10
-0.0165421359833352
 20
-4.404431695647523
 10
0.04962640795
 20
-4.420973831630858
 10
0.1323370878666648
 20
-4.420973831630858
 10
0.2150477677833296
 20
-4.420973831630858
 10
0.2812163117166648
 20
-4.404431695647523
 10
0.3639269916333296
 20
-4.404431695647523
 10
0.44663767155
 20
-4.404431695647523
 10
0.5128062154833298
 20
-4.404431695647523
 10
0.5955168954
 20
-4.404431695647523
 10
0.6782275753166648
 20
-4.404431695647523
 10
0.7609382552333296
 20
-4.404431695647523
 10
0.8271067991666647
 20
-4.387889559664189
 10
0.9098174790833295
 20
-4.387889559664189
 10
0.992528159
 20
-4.387889559664189
 10
1.058696702933328
 20
-4.371347423680857
 10
1.141407382849999
 20
-4.371347423680857
 10
1.224118062766664
 20
-4.371347423680857
 10
1.2902866067
 20
-4.354805287697528
 10
1.372997286616663
 20
-4.354805287697528
 10
1.439165830549997
 20
-4.338263151714189
 10
1.521876510466664
 20
-4.338263151714189
 10
1.604587190383329
 20
-4.321721015730859
 10
1.670755734316664
 20
-4.321721015730859
 10
1.753466414233328
 20
-4.305178879747523
 10
1.836177094149999
 20
-4.305178879747523
 10
1.902345638083329
 20
-4.288636743764189
 10
1.985056317999998
 20
-4.272094607780857
 10
2.067766997916664
 20
-4.272094607780857
 10
2.13393554185
 20
-4.255552471797527
 10
2.216646221766664
 20
-4.239010335814188
 10
2.282814765699999
 20
-4.222468199830857
 10
2.365525445616663
 20
-4.205926063847522
 10
2.448236125533329
 20
-4.205926063847522
 10
2.514404669466664
 20
-4.189383927864189
 10
2.597115349383328
 20
-4.172841791880859
 10
2.663283893316664
 20
-4.156299655897528
 10
2.745994573233327
 20
-4.139757519914189
 10
2.812163117166663
 20
-4.123215383930857
 10
2.894873797083328
 20
-4.106673247947524
 10
2.961042341016663
 20
-4.090131111964188
 10
3.043753020933329
 20
-4.073588975980857
 10
3.126463700849998
 20
-4.057046839997522
 10
3.192632244783327
 20
-4.040504704014186
 10
3.275342924699998
 20
-4.023962568030857
 10
3.341511468633328
 20
-3.990878296064189
 10
3.42422214855
 20
-3.974336160080857
 10
3.490390692483328
 20
-3.957794024097529
 10
3.5731013724
 20
-3.941251888114187
 10
3.639269916333327
 20
-3.908167616147524
 10
3.721980596249998
 20
-3.891625480164188
 10
3.788149140183328
 20
-3.875083344180858
 10
3.870859820099998
 20
-3.841999072214186
 10
3.937028364033329
 20
-3.825456936230859
 10
4.003196907966663
 20
-3.808914800247523
 10
4.085907587883328
 20
-3.775830528280859
 10
4.152076131816663
 20
-3.759288392297528
 10
4.234786811733328
 20
-3.726204120330857
 10
4.300955355666665
 20
-3.709661984347524
 10
4.383666035583329
 20
-3.676577712380857
 10
4.449834579516664
 20
-3.643493440414188
 10
4.516003123449994
 20
-3.626951304430859
 10
4.598713803366663
 20
-3.593867032464189
 10
4.664882347299998
 20
-3.577324896480857
 10
4.747593027216663
 20
-3.544240624514188
 10
4.813761571149997
 20
-3.511156352547522
 10
4.879930115083329
 20
-3.478072080580859
 10
4.962640794999997
 20
-3.461529944597528
  0
LWPOLYLINE
  5
15CB
330
19
100
AcDbEntity
  8
1
100
AcDbPolyline
 90
      258
 70
     0
 43
0.0
 10
2.497862533483329
 20
0.0454028838691406
 10
2.497862533483329
 20
0.0454028838691406
 10
2.497862533483329
 20
0.0950292918191406
 10
2.497862533483329
 20
0.1611978357524757
 10
2.497862533483329
 20
0.227366379685811
 10
2.481320397499997
 20
0.276992787635811
 10
2.481320397499997
 20
0.3431613315691405
 10
2.464778261516664
 20
0.3927877395191405
 10
2.464778261516664
 20
0.4589562834524758
 10
2.448236125533329
 20
0.5085826914024758
 10
2.431693989549998
 20
0.574751235335811
 10
2.415151853566664
 20
0.6243776432858109
 10
2.398609717583329
 20
0.6905461872191406
 10
2.382067581599998
 20
0.7401725951691406
 10
2.365525445616663
 20
0.7897990031191405
 10
2.348983309633329
 20
0.8559675470524757
 10
2.332441173649999
 20
0.9055939550024756
 10
2.315899037666663
 20
0.9552203629524756
 10
2.282814765699999
 20
1.004846770902473
 10
2.266272629716663
 20
1.071015314835811
 10
2.23318835775
 20
1.12064172278581
 10
2.216646221766664
 20
1.17026813073581
 10
2.1835619498
 20
1.21989453868581
 10
2.150477677833328
 20
1.269520946635811
 10
2.117393405866664
 20
1.319147354585811
 10
2.100851269883329
 20
1.36877376253581
 10
2.067766997916664
 20
1.401858034502474
 10
2.034682725949997
 20
1.451484442452475
 10
1.985056317999998
 20
1.501110850402475
 10
1.951972046033328
 20
1.550737258352475
 10
1.918887774066662
 20
1.583821530319139
 10
1.885803502099997
 20
1.633447938269139
 10
1.836177094149999
 20
1.666532210235804
 10
1.803092822183329
 20
1.716158618185803
 10
1.770008550216664
 20
1.749242890152475
 10
1.720382142266664
 20
1.78232716211914
 10
1.687297870299999
 20
1.831953570069139
 10
1.637671462349999
 20
1.865037842035803
 10
1.5880450544
 20
1.898122114002475
 10
1.53841864644999
 20
1.931206385969139
 10
1.505334374483329
 20
1.964290657935805
 10
1.455707966533329
 20
1.997374929902475
 10
1.406081558583329
 20
2.03045920186914
 10
1.356455150633329
 20
2.063543473835804
 10
1.306828742683329
 20
2.096627745802475
 10
1.257202334733329
 20
2.113169881785809
 10
1.207575926783329
 20
2.146254153752475
 10
1.157949518833329
 20
2.162796289735803
 10
1.108323110883329
 20
2.195880561702475
 10
1.058696702933328
 20
2.212422697685811
 10
0.992528159
 20
2.245506969652474
 10
0.9429017510499999
 20
2.262049105635805
 10
0.8932753431
 20
2.27859124161914
 10
0.8271067991666647
 20
2.295133377602474
 10
0.7774803912166651
 20
2.311675513585805
 10
0.7278539832666647
 20
2.32821764956914
 10
0.6616854393333296
 20
2.344759785552475
 10
0.6120590313833297
 20
2.361301921535805
 10
0.54589048745
 20
2.361301921535805
 10
0.4962640795000003
 20
2.37784405751914
 10
0.4300955355666649
 20
2.37784405751914
 10
0.3804691276166648
 20
2.394386193502473
 10
0.3143005836833296
 20
2.394386193502473
 10
0.24813203975
 20
2.394386193502473
 10
0.1985056318
 20
2.410928329485805
 10
0.1323370878666648
 20
2.410928329485805
 10
0.0661685439333296
 20
2.410928329485805
 10
0.0165421359833296
 20
2.394386193502473
 10
-0.04962640795
 20
2.394386193502473
 10
-0.1157949518833352
 20
2.394386193502473
 10
-0.1654213598333352
 20
2.37784405751914
 10
-0.2315899037666704
 20
2.37784405751914
 10
-0.2812163117166704
 20
2.361301921535805
 10
-0.34738485565
 20
2.361301921535805
 10
-0.3970112636
 20
2.344759785552475
 10
-0.4631798075333352
 20
2.32821764956914
 10
-0.5128062154833352
 20
2.311675513585805
 10
-0.5624326234333355
 20
2.295133377602474
 10
-0.6286011673666704
 20
2.27859124161914
 10
-0.6782275753166706
 20
2.262049105635805
 10
-0.7278539832666704
 20
2.245506969652474
 10
-0.7940225272000001
 20
2.212422697685811
 10
-0.8436489351499998
 20
2.195880561702475
 10
-0.8932753431
 20
2.162796289735803
 10
-0.9429017510499999
 20
2.146254153752475
 10
-0.992528159
 20
2.113169881785809
 10
-1.042154566949998
 20
2.096627745802475
 10
-1.0917809749
 20
2.063543473835804
 10
-1.141407382849999
 20
2.03045920186914
 10
-1.191033790799999
 20
1.997374929902475
 10
-1.240660198749998
 20
1.964290657935805
 10
-1.273744470716668
 20
1.931206385969139
 10
-1.323370878666668
 20
1.898122114002475
 10
-1.372997286616669
 20
1.865037842035803
 10
-1.42262369456667
 20
1.831953570069139
 10
-1.455707966533333
 20
1.78232716211914
 10
-1.505334374483334
 20
1.749242890152475
 10
-1.53841864645
 20
1.716158618185803
 10
-1.57150291841667
 20
1.666532210235804
 10
-1.621129326366668
 20
1.633447938269139
 10
-1.654213598333335
 20
1.583821530319139
 10
-1.687297870299999
 20
1.550737258352475
 10
-1.720382142266668
 20
1.501110850402475
 10
-1.77000855021667
 20
1.451484442452475
 10
-1.803092822183334
 20
1.401858034502474
 10
-1.836177094149999
 20
1.36877376253581
 10
-1.852719230133335
 20
1.319147354585811
 10
-1.885803502099997
 20
1.269520946635811
 10
-1.918887774066669
 20
1.21989453868581
 10
-1.951972046033333
 20
1.17026813073581
 10
-1.968514182016668
 20
1.12064172278581
 10
-2.001598453983334
 20
1.071015314835811
 10
-2.01814058996667
 20
1.004846770902473
 10
-2.051224861933333
 20
0.9552203629524756
 10
-2.067766997916669
 20
0.9055939550024756
 10
-2.084309133899998
 20
0.8559675470524757
 10
-2.100851269883333
 20
0.7897990031191405
 10
-2.117393405866669
 20
0.7401725951691406
 10
-2.13393554185
 20
0.6905461872191406
 10
-2.150477677833335
 20
0.6243776432858109
 10
-2.167019813816668
 20
0.574751235335811
 10
-2.1835619498
 20
0.5085826914024758
 10
-2.200104085783335
 20
0.4589562834524758
 10
-2.200104085783335
 20
0.3927877395191405
 10
-2.21664622176667
 20
0.3431613315691405
 10
-2.21664622176667
 20
0.276992787635811
 10
-2.23318835775
 20
0.227366379685811
 10
-2.23318835775
 20
0.1611978357524757
 10
-2.23318835775
 20
0.0950292918191406
 10
-2.23318835775
 20
0.0454028838691406
 10
-2.23318835775
 20
-0.020765660064189
 10
-2.23318835775
 20
-0.0869342039975243
 10
-2.23318835775
 20
-0.1365606119475299
 10
-2.21664622176667
 20
-0.2027291558808594
 10
-2.21664622176667
 20
-0.268897699814189
 10
-2.200104085783335
 20
-0.3185241077641891
 10
-2.200104085783335
 20
-0.3846926516975242
 10
-2.1835619498
 20
-0.4343190596475301
 10
-2.167019813816668
 20
-0.5004876035808597
 10
-2.150477677833335
 20
-0.5501140115308595
 10
-2.13393554185
 20
-0.5997404194808597
 10
-2.117393405866669
 20
-0.6659089634141892
 10
-2.100851269883333
 20
-0.7155353713641892
 10
-2.084309133899998
 20
-0.7651617793141891
 10
-2.067766997916669
 20
-0.8313303232475242
 10
-2.051224861933333
 20
-0.8809567311975243
 10
-2.01814058996667
 20
-0.9305831391475242
 10
-2.001598453983334
 20
-0.98020954709753
 10
-1.968514182016668
 20
-1.029835955047524
 10
-1.951972046033333
 20
-1.079462362997522
 10
-1.918887774066669
 20
-1.129088770947524
 10
-1.885803502099997
 20
-1.178715178897524
 10
-1.852719230133335
 20
-1.228341586847524
 10
-1.836177094149999
 20
-1.277967994797527
 10
-1.803092822183334
 20
-1.327594402747524
 10
-1.77000855021667
 20
-1.377220810697528
 10
-1.720382142266668
 20
-1.426847218647524
 10
-1.687297870299999
 20
-1.459931490614188
 10
-1.654213598333335
 20
-1.509557898564189
 10
-1.621129326366668
 20
-1.542642170530859
 10
-1.57150291841667
 20
-1.592268578480859
 10
-1.53841864645
 20
-1.625352850447524
 10
-1.505334374483334
 20
-1.674979258397529
 10
-1.455707966533333
 20
-1.708063530364188
 10
-1.42262369456667
 20
-1.741147802330859
 10
-1.372997286616669
 20
-1.790774210280859
 10
-1.323370878666668
 20
-1.823858482247524
 10
-1.273744470716668
 20
-1.856942754214188
 10
-1.240660198749998
 20
-1.890027026180859
 10
-1.191033790799999
 20
-1.923111298147524
 10
-1.141407382849999
 20
-1.956195570114189
 10
-1.0917809749
 20
-1.989279842080859
 10
-1.042154566949998
 20
-2.005821978064188
 10
-0.992528159
 20
-2.038906250030859
 10
-0.9429017510499999
 20
-2.071990521997524
 10
-0.8932753431
 20
-2.088532657980859
 10
-0.8436489351499998
 20
-2.121616929947524
 10
-0.7940225272000001
 20
-2.138159065930859
 10
-0.7278539832666704
 20
-2.154701201914188
 10
-0.6782275753166706
 20
-2.187785473880857
 10
-0.6286011673666704
 20
-2.204327609864189
 10
-0.5624326234333355
 20
-2.220869745847529
 10
-0.5128062154833352
 20
-2.237411881830857
 10
-0.4631798075333352
 20
-2.253954017814189
 10
-0.3970112636
 20
-2.270496153797524
 10
-0.34738485565
 20
-2.270496153797524
 10
-0.2812163117166704
 20
-2.287038289780857
 10
-0.2315899037666704
 20
-2.303580425764188
 10
-0.1654213598333352
 20
-2.303580425764188
 10
-0.1157949518833352
 20
-2.320122561747522
 10
-0.04962640795
 20
-2.320122561747522
 10
0.0165421359833296
 20
-2.320122561747522
 10
0.0661685439333296
 20
-2.320122561747522
 10
0.1323370878666648
 20
-2.320122561747522
 10
0.1985056318
 20
-2.320122561747522
 10
0.24813203975
 20
-2.320122561747522
 10
0.3143005836833296
 20
-2.320122561747522
 10
0.3804691276166648
 20
-2.320122561747522
 10
0.4300955355666649
 20
-2.303580425764188
 10
0.4962640795000003
 20
-2.303580425764188
 10
0.54589048745
 20
-2.287038289780857
 10
0.6120590313833297
 20
-2.270496153797524
 10
0.6616854393333296
 20
-2.270496153797524
 10
0.7278539832666647
 20
-2.253954017814189
 10
0.7774803912166651
 20
-2.237411881830857
 10
0.8271067991666647
 20
-2.220869745847529
 10
0.8932753431
 20
-2.204327609864189
 10
0.9429017510499999
 20
-2.187785473880857
 10
0.992528159
 20
-2.154701201914188
 10
1.058696702933328
 20
-2.138159065930859
 10
1.108323110883329
 20
-2.121616929947524
 10
1.157949518833329
 20
-2.088532657980859
 10
1.207575926783329
 20
-2.071990521997524
 10
1.257202334733329
 20
-2.038906250030859
 10
1.306828742683329
 20
-2.005821978064188
 10
1.356455150633329
 20
-1.989279842080859
 10
1.406081558583329
 20
-1.956195570114189
 10
1.455707966533329
 20
-1.923111298147524
 10
1.505334374483329
 20
-1.890027026180859
 10
1.53841864644999
 20
-1.856942754214188
 10
1.5880450544
 20
-1.823858482247524
 10
1.637671462349999
 20
-1.790774210280859
 10
1.687297870299999
 20
-1.741147802330859
 10
1.720382142266664
 20
-1.708063530364188
 10
1.770008550216664
 20
-1.674979258397529
 10
1.803092822183329
 20
-1.625352850447524
 10
1.836177094149999
 20
-1.592268578480859
 10
1.885803502099997
 20
-1.542642170530859
 10
1.918887774066662
 20
-1.509557898564189
 10
1.951972046033328
 20
-1.459931490614188
 10
1.985056317999998
 20
-1.426847218647524
 10
2.034682725949997
 20
-1.377220810697528
 10
2.067766997916664
 20
-1.327594402747524
 10
2.100851269883329
 20
-1.277967994797527
 10
2.117393405866664
 20
-1.228341586847524
 10
2.150477677833328
 20
-1.178715178897524
 10
2.1835619498
 20
-1.129088770947524
 10
2.216646221766664
 20
-1.079462362997522
 10
2.23318835775
 20
-1.029835955047524
 10
2.266272629716663
 20
-0.98020954709753
 10
2.282814765699999
 20
-0.9305831391475242
 10
2.315899037666663
 20
-0.8809567311975243
 10
2.332441173649999
 20
-0.8313303232475242
 10
2.348983309633329
 20
-0.7651617793141891
 10
2.365525445616663
 20
-0.7155353713641892
 10
2.382067581599998
 20
-0.6659089634141892
 10
2.398609717583329
 20
-0.5997404194808597
 10
2.415151853566664
 20
-0.5501140115308595
 10
2.431693989549998
 20
-0.5004876035808597
 10
2.448236125533329
 20
-0.4343190596475301
 10
2.464778261516664
 20
-0.3846926516975242
 10
2.464778261516664
 20
-0.3185241077641891
 10
2.481320397499997
 20
-0.268897699814189
 10
2.481320397499997
 20
-0.2027291558808594
 10
2.497862533483329
 20
-0.1365606119475299
 10
2.497862533483329
 20
-0.0869342039975243
 10
2.497862533483329
 20
-0.020765660064189
 10
2.497862533483329
 20
0.0454028838691406
  0
LWPOLYLINE
  5
15CC
330
19
100
AcDbEntity
  8
1
100
AcDbPolyline
 90
      258
 70
     0
 43
0.0
 10
2.6798260293
 20
0.0454028838691406
 10
2.6798260293
 20
0.0454028838691406
 10
2.6798260293
 20
0.1115714278024757
 10
2.6798260293
 20
0.177739971735811
 10
2.6798260293
 20
0.2439085156691406
 10
2.6798260293
 20
0.2935349236191405
 10
2.663283893316664
 20
0.3597034675524757
 10
2.663283893316664
 20
0.4258720114858109
 10
2.646741757333328
 20
0.4920405554191408
 10
2.63019962135
 20
0.5582090993524758
 10
2.613657485366664
 20
0.6078355073024757
 10
2.613657485366664
 20
0.6740040512358111
 10
2.597115349383328
 20
0.7401725951691406
 10
2.564031077416664
 20
0.8063411391024757
 10
2.547488941433329
 20
0.8559675470524757
 10
2.530946805449998
 20
0.9221360909858107
 10
2.514404669466664
 20
0.9717624989358107
 10
2.481320397499997
 20
1.037931042869139
 10
2.464778261516664
 20
1.08755745081914
 10
2.431693989549998
 20
1.153725994752474
 10
2.398609717583329
 20
1.203352402702475
 10
2.382067581599998
 20
1.252978810652475
 10
2.348983309633329
 20
1.302605218602475
 10
2.315899037666663
 20
1.36877376253581
 10
2.282814765699999
 20
1.41840017048581
 10
2.249730493733329
 20
1.468026578435804
 10
2.216646221766664
 20
1.517652986385805
 10
2.1835619498
 20
1.567279394335803
 10
2.13393554185
 20
1.616905802285803
 10
2.100851269883329
 20
1.666532210235804
 10
2.067766997916664
 20
1.716158618185803
 10
2.018140589966664
 20
1.749242890152475
 10
1.985056317999998
 20
1.798869298102475
 10
1.935429910049998
 20
1.848495706052474
 10
1.885803502099997
 20
1.881579978019139
 10
1.852719230133329
 20
1.931206385969139
 10
1.803092822183329
 20
1.964290657935805
 10
1.753466414233328
 20
2.013917065885804
 10
1.703840006283329
 20
2.047001337852475
 10
1.654213598333329
 20
2.08008560981914
 10
1.604587190383329
 20
2.129712017769139
 10
1.554960782433329
 20
2.162796289735803
 10
1.505334374483329
 20
2.195880561702475
 10
1.455707966533329
 20
2.228964833669139
 10
1.406081558583329
 20
2.262049105635805
 10
1.356455150633329
 20
2.27859124161914
 10
1.2902866067
 20
2.311675513585805
 10
1.240660198749998
 20
2.344759785552475
 10
1.191033790799999
 20
2.361301921535805
 10
1.124865246866664
 20
2.394386193502473
 10
1.075238838916664
 20
2.410928329485805
 10
1.009070294983329
 20
2.444012601452475
 10
0.9429017510499999
 20
2.460554737435804
 10
0.8932753431
 20
2.47709687341914
 10
0.8271067991666647
 20
2.493639009402475
 10
0.7774803912166651
 20
2.510181145385804
 10
0.7113118472833298
 20
2.52672328136914
 10
0.6451433033500003
 20
2.543265417352475
 10
0.5789747594166648
 20
2.559807553335805
 10
0.5293483514666649
 20
2.559807553335805
 10
0.4631798075333295
 20
2.576349689319139
 10
0.3970112635999916
 20
2.576349689319139
 10
0.3308427196666648
 20
2.592891825302475
 10
0.2646741757333296
 20
2.592891825302475
 10
0.1985056318
 20
2.592891825302475
 10
0.1323370878666648
 20
2.592891825302475
 10
0.0661685439333296
 20
2.592891825302475
 10
0.0
 20
2.592891825302475
 10
-0.0661685439333352
 20
2.592891825302475
 10
-0.1323370878666704
 20
2.576349689319139
 10
-0.1985056318
 20
2.576349689319139
 10
-0.2646741757333352
 20
2.559807553335805
 10
-0.3143005836833352
 20
2.559807553335805
 10
-0.3804691276166704
 20
2.543265417352475
 10
-0.44663767155
 20
2.52672328136914
 10
-0.5128062154833352
 20
2.510181145385804
 10
-0.5624326234333355
 20
2.493639009402475
 10
-0.6286011673666704
 20
2.47709687341914
 10
-0.6782275753166706
 20
2.460554737435804
 10
-0.7443961192500002
 20
2.444012601452475
 10
-0.8105646631833348
 20
2.410928329485805
 10
-0.8601910711333353
 20
2.394386193502473
 10
-0.9263596150666703
 20
2.361301921535805
 10
-0.9759860230166703
 20
2.344759785552475
 10
-1.02561243096667
 20
2.311675513585805
 10
-1.0917809749
 20
2.27859124161914
 10
-1.141407382849999
 20
2.262049105635805
 10
-1.191033790799999
 20
2.228964833669139
 10
-1.240660198749998
 20
2.195880561702475
 10
-1.2902866067
 20
2.162796289735803
 10
-1.33991301465
 20
2.129712017769139
 10
-1.389539422599999
 20
2.08008560981914
 10
-1.439165830549997
 20
2.047001337852475
 10
-1.488792238499998
 20
2.013917065885804
 10
-1.53841864645
 20
1.964290657935805
 10
-1.5880450544
 20
1.931206385969139
 10
-1.621129326366668
 20
1.881579978019139
 10
-1.670755734316668
 20
1.848495706052474
 10
-1.720382142266668
 20
1.798869298102475
 10
-1.753466414233334
 20
1.749242890152475
 10
-1.803092822183334
 20
1.716158618185803
 10
-1.836177094149999
 20
1.666532210235804
 10
-1.869261366116668
 20
1.616905802285803
 10
-1.918887774066669
 20
1.567279394335803
 10
-1.951972046033333
 20
1.517652986385805
 10
-1.985056317999998
 20
1.468026578435804
 10
-2.01814058996667
 20
1.41840017048581
 10
-2.051224861933333
 20
1.36877376253581
 10
-2.084309133899998
 20
1.302605218602475
 10
-2.117393405866669
 20
1.252978810652475
 10
-2.13393554185
 20
1.203352402702475
 10
-2.167019813816668
 20
1.153725994752474
 10
-2.200104085783335
 20
1.08755745081914
 10
-2.21664622176667
 20
1.037931042869139
 10
-2.249730493733333
 20
0.9717624989358107
 10
-2.266272629716668
 20
0.9221360909858107
 10
-2.282814765699999
 20
0.8559675470524757
 10
-2.299356901683335
 20
0.8063411391024757
 10
-2.332441173649999
 20
0.7401725951691406
 10
-2.348983309633335
 20
0.6740040512358111
 10
-2.348983309633335
 20
0.6078355073024757
 10
-2.36552544561667
 20
0.5582090993524758
 10
-2.382067581599998
 20
0.4920405554191408
 10
-2.398609717583333
 20
0.4258720114858109
 10
-2.398609717583333
 20
0.3597034675524757
 10
-2.415151853566668
 20
0.2935349236191405
 10
-2.415151853566668
 20
0.2439085156691406
 10
-2.415151853566668
 20
0.177739971735811
 10
-2.415151853566668
 20
0.1115714278024757
 10
-2.415151853566668
 20
0.0454028838691406
 10
-2.415151853566668
 20
-0.020765660064189
 10
-2.415151853566668
 20
-0.0869342039975243
 10
-2.415151853566668
 20
-0.1531027479308594
 10
-2.415151853566668
 20
-0.219271291864189
 10
-2.398609717583333
 20
-0.2854398357975242
 10
-2.398609717583333
 20
-0.3516083797308594
 10
-2.382067581599998
 20
-0.4177769236641893
 10
-2.36552544561667
 20
-0.467403331614189
 10
-2.348983309633335
 20
-0.53357187554753
 10
-2.348983309633335
 20
-0.5997404194808597
 10
-2.332441173649999
 20
-0.6659089634141892
 10
-2.299356901683335
 20
-0.7155353713641892
 10
-2.282814765699999
 20
-0.7817039152975243
 10
-2.266272629716668
 20
-0.8313303232475242
 10
-2.249730493733333
 20
-0.8974988671808594
 10
-2.21664622176667
 20
-0.9471252751308592
 10
-2.200104085783335
 20
-1.013293819064189
 10
-2.167019813816668
 20
-1.062920227014189
 10
-2.13393554185
 20
-1.129088770947524
 10
-2.117393405866669
 20
-1.178715178897524
 10
-2.084309133899998
 20
-1.228341586847524
 10
-2.051224861933333
 20
-1.277967994797527
 10
-2.01814058996667
 20
-1.344136538730859
 10
-1.985056317999998
 20
-1.393762946680857
 10
-1.951972046033333
 20
-1.443389354630859
 10
-1.918887774066669
 20
-1.493015762580859
 10
-1.869261366116668
 20
-1.542642170530859
 10
-1.836177094149999
 20
-1.592268578480859
 10
-1.803092822183334
 20
-1.625352850447524
 10
-1.753466414233334
 20
-1.674979258397529
 10
-1.720382142266668
 20
-1.724605666347524
 10
-1.670755734316668
 20
-1.774232074297529
 10
-1.621129326366668
 20
-1.807316346264188
 10
-1.5880450544
 20
-1.856942754214188
 10
-1.53841864645
 20
-1.890027026180859
 10
-1.488792238499998
 20
-1.923111298147524
 10
-1.439165830549997
 20
-1.97273770609753
 10
-1.389539422599999
 20
-2.005821978064188
 10
-1.33991301465
 20
-2.038906250030859
 10
-1.2902866067
 20
-2.071990521997524
 10
-1.240660198749998
 20
-2.105074793964189
 10
-1.191033790799999
 20
-2.138159065930859
 10
-1.141407382849999
 20
-2.171243337897524
 10
-1.0917809749
 20
-2.204327609864189
 10
-1.02561243096667
 20
-2.237411881830857
 10
-0.9759860230166703
 20
-2.270496153797524
 10
-0.9263596150666703
 20
-2.287038289780857
 10
-0.8601910711333353
 20
-2.320122561747522
 10
-0.8105646631833348
 20
-2.336664697730857
 10
-0.7443961192500002
 20
-2.353206833714188
 10
-0.6782275753166706
 20
-2.386291105680857
 10
-0.6286011673666704
 20
-2.402833241664187
 10
-0.5624326234333355
 20
-2.419375377647523
 10
-0.5128062154833352
 20
-2.435917513630859
 10
-0.44663767155
 20
-2.452459649614187
 10
-0.3804691276166704
 20
-2.469001785597523
 10
-0.3143005836833352
 20
-2.469001785597523
 10
-0.2646741757333352
 20
-2.485543921580859
 10
-0.1985056318
 20
-2.485543921580859
 10
-0.1323370878666704
 20
-2.502086057564187
 10
-0.0661685439333352
 20
-2.502086057564187
 10
0.0
 20
-2.51862819354753
 10
0.0661685439333296
 20
-2.51862819354753
 10
0.1323370878666648
 20
-2.51862819354753
 10
0.1985056318
 20
-2.51862819354753
 10
0.2646741757333296
 20
-2.51862819354753
 10
0.3308427196666648
 20
-2.502086057564187
 10
0.3970112635999916
 20
-2.502086057564187
 10
0.4631798075333295
 20
-2.485543921580859
 10
0.5293483514666649
 20
-2.485543921580859
 10
0.5789747594166648
 20
-2.469001785597523
 10
0.6451433033500003
 20
-2.469001785597523
 10
0.7113118472833298
 20
-2.452459649614187
 10
0.7774803912166651
 20
-2.435917513630859
 10
0.8271067991666647
 20
-2.419375377647523
 10
0.8932753431
 20
-2.402833241664187
 10
0.9429017510499999
 20
-2.386291105680857
 10
1.009070294983329
 20
-2.353206833714188
 10
1.075238838916664
 20
-2.336664697730857
 10
1.124865246866664
 20
-2.320122561747522
 10
1.191033790799999
 20
-2.287038289780857
 10
1.240660198749998
 20
-2.270496153797524
 10
1.2902866067
 20
-2.237411881830857
 10
1.356455150633329
 20
-2.204327609864189
 10
1.406081558583329
 20
-2.171243337897524
 10
1.455707966533329
 20
-2.138159065930859
 10
1.505334374483329
 20
-2.105074793964189
 10
1.554960782433329
 20
-2.071990521997524
 10
1.604587190383329
 20
-2.038906250030859
 10
1.654213598333329
 20
-2.005821978064188
 10
1.703840006283329
 20
-1.97273770609753
 10
1.753466414233328
 20
-1.923111298147524
 10
1.803092822183329
 20
-1.890027026180859
 10
1.852719230133329
 20
-1.856942754214188
 10
1.885803502099997
 20
-1.807316346264188
 10
1.935429910049998
 20
-1.774232074297529
 10
1.985056317999998
 20
-1.724605666347524
 10
2.018140589966664
 20
-1.674979258397529
 10
2.067766997916664
 20
-1.625352850447524
 10
2.100851269883329
 20
-1.592268578480859
 10
2.13393554185
 20
-1.542642170530859
 10
2.1835619498
 20
-1.493015762580859
 10
2.216646221766664
 20
-1.443389354630859
 10
2.249730493733329
 20
-1.393762946680857
 10
2.282814765699999
 20
-1.344136538730859
 10
2.315899037666663
 20
-1.277967994797527
 10
2.348983309633329
 20
-1.228341586847524
 10
2.382067581599998
 20
-1.178715178897524
 10
2.398609717583329
 20
-1.129088770947524
 10
2.431693989549998
 20
-1.062920227014189
 10
2.464778261516664
 20
-1.013293819064189
 10
2.481320397499997
 20
-0.9471252751308592
 10
2.514404669466664
 20
-0.8974988671808594
 10
2.530946805449998
 20
-0.8313303232475242
 10
2.547488941433329
 20
-0.7817039152975243
 10
2.564031077416664
 20
-0.7155353713641892
 10
2.597115349383328
 20
-0.6659089634141892
 10
2.613657485366664
 20
-0.5997404194808597
 10
2.613657485366664
 20
-0.53357187554753
 10
2.63019962135
 20
-0.467403331614189
 10
2.646741757333328
 20
-0.4177769236641893
 10
2.663283893316664
 20
-0.3516083797308594
 10
2.663283893316664
 20
-0.2854398357975242
 10
2.6798260293
 20
-0.219271291864189
 10
2.6798260293
 20
-0.1531027479308594
 10
2.6798260293
 20
-0.0869342039975243
 10
2.6798260293
 20
-0.020765660064189
 10
2.6798260293
 20
0.0454028838691406
  0
LWPOLYLINE
  5
15CD
330
19
100
AcDbEntity
  8
1
100
AcDbPolyline
 90
       66
 70
     0
 43
0.0
 10
-1.174491654816668
 20
5.25617571861914
 10
-1.174491654816668
 20
5.25617571861914
 10
-1.273744470716668
 20
5.173465038702476
 10
-1.356455150633333
 20
5.074212222802473
 10
-1.455707966533333
 20
4.991501542885805
 10
-1.53841864645
 20
4.908790862969138
 10
-1.621129326366668
 20
4.826080183052473
 10
-1.720382142266668
 20
4.743369503135803
 10
-1.803092822183334
 20
4.644116687235803
 10
-1.885803502099997
 20
4.561406007319138
 10
-1.968514182016668
 20
4.478695327402475
 10
-2.051224861933333
 20
4.379442511502475
 10
-2.13393554185
 20
4.296731831585803
 10
-2.21664622176667
 20
4.197479015685805
 10
-2.299356901683335
 20
4.11476833576914
 10
-2.382067581599998
 20
4.01551551986914
 10
-2.448236125533334
 20
3.91626270396914
 10
-2.530946805449998
 20
3.833552024052475
 10
-2.613657485366668
 20
3.734299208152475
 10
-2.6798260293
 20
3.635046392252473
 10
-2.762536709216669
 20
3.535793576352475
 10
-2.828705253149998
 20
3.436540760452475
 10
-2.894873797083333
 20
3.337287944552475
 10
-2.977584476999998
 20
3.238035128652473
 10
-3.043753020933334
 20
3.138782312752473
 10
-3.109921564866669
 20
3.039529496852473
 10
-3.176090108799998
 20
2.940276680952475
 10
-3.242258652733335
 20
2.841023865052475
 10
-3.30842719666667
 20
2.741771049152474
 10
-3.374595740599998
 20
2.642518233252475
 10
-3.440764284533333
 20
2.52672328136914
 10
-3.506932828466668
 20
2.42747046546914
 10
-3.5731013724
 20
2.32821764956914
 10
-3.639269916333335
 20
2.212422697685811
 10
-3.688896324283335
 20
2.113169881785809
 10
-3.75506486821667
 20
2.013917065885804
 10
-3.804691276166669
 20
1.898122114002475
 10
-3.870859820099998
 20
1.798869298102475
 10
-3.92048622805
 20
1.683074346219139
 10
-3.986654771983335
 20
1.567279394335803
 10
-4.036281179933335
 20
1.468026578435804
 10
-4.085907587883333
 20
1.352231626552475
 10
-4.135533995833333
 20
1.252978810652475
 10
-4.185160403783335
 20
1.137183858769139
 10
-4.234786811733335
 20
1.021388906885809
 10
-4.284413219683334
 20
0.9055939550024756
 10
-4.334039627633335
 20
0.8063411391024757
 10
-4.383666035583335
 20
0.6905461872191406
 10
-4.433292443533334
 20
0.574751235335811
 10
-4.4663767155
 20
0.4589562834524758
 10
-4.516003123449999
 20
0.3431613315691405
 10
-4.565629531399999
 20
0.227366379685811
 10
-4.59871380336667
 20
0.1115714278024757
 10
-4.64834021131667
 20
-0.0042235240808595
 10
-4.681424483283334
 20
-0.120018475964189
 10
-4.714508755249998
 20
-0.2358134278475299
 10
-4.747593027216669
 20
-0.3516083797308594
 10
-4.797219435166669
 20
-0.467403331614189
 10
-4.830303707133333
 20
-0.5831982834975245
 10
-4.863387979099997
 20
-0.6989932353808595
 10
-4.896472251066668
 20
-0.8147881872641889
 10
-4.929556523033335
 20
-0.9471252751308592
 10
-4.946098659016668
 20
-1.062920227014189
 10
-4.979182930983333
 20
-1.178715178897524
 10
-5.01226720295
 20
-1.294510130780859
 10
-5.028809338933333
 20
-1.426847218647524
  0
LWPOLYLINE
  5
15CE
330
19
100
AcDbEntity
  8
1
100
AcDbPolyline
 90
       38
 70
     0
 43
0.0
 10
4.2678710837
 20
-3.610409168447523
 10
4.2678710837
 20
-3.610409168447523
 10
4.334039627633328
 20
-3.593867032464189
 10
4.383666035583329
 20
-3.560782760497524
 10
4.449834579516664
 20
-3.527698488530857
 10
4.516003123449994
 20
-3.511156352547522
 10
4.565629531399999
 20
-3.478072080580859
 10
4.615255939349999
 20
-3.444987808614189
 10
4.681424483283328
 20
-3.395361400664188
 10
4.731050891233329
 20
-3.362277128697523
 10
4.780677299183329
 20
-3.329192856730858
 10
4.830303707133328
 20
-3.279566448780859
 10
4.879930115083329
 20
-3.246482176814187
 10
4.913014387049999
 20
-3.196855768864188
 10
4.962640794999997
 20
-3.147229360914189
 10
4.995725066966664
 20
-3.097602952964189
 10
5.045351474916663
 20
-3.047976545014187
 10
5.078435746883329
 20
-2.998350137064188
 10
5.11152001885
 20
-2.948723729114189
 10
5.144604290816665
 20
-2.899097321164187
 10
5.177688562783329
 20
-2.832928777230858
 10
5.21077283475
 20
-2.783302369280857
 10
5.243857106716665
 20
-2.717133825347529
 10
5.2603992427
 20
-2.667507417397522
 10
5.293483514666665
 20
-2.601338873464187
 10
5.31002565065
 20
-2.535170329530857
 10
5.326567786633328
 20
-2.485543921580859
 10
5.343109922616664
 20
-2.419375377647523
 10
5.359652058599992
 20
-2.353206833714188
 10
5.376194194583328
 20
-2.287038289780857
 10
5.376194194583328
 20
-2.220869745847529
 10
5.376194194583328
 20
-2.154701201914188
 10
5.392736330566664
 20
-2.088532657980859
 10
5.392736330566664
 20
-2.022364114047523
 10
5.392736330566664
 20
-1.956195570114189
 10
5.376194194583328
 20
-1.873484890197529
 10
5.376194194583328
 20
-1.790774210280859
 10
5.359652058599992
 20
-1.724605666347524
  0
LWPOLYLINE
  5
15CF
330
19
100
AcDbEntity
  8
1
100
AcDbPolyline
 90
       34
 70
     0
 43
0.0
 10
1.224118062766664
 20
5.438139214435803
 10
1.224118062766664
 20
5.438139214435803
 10
1.174491654816663
 20
5.487765622385803
 10
1.108323110883329
 20
5.537392030335804
 10
1.042154566949998
 20
5.570476302302473
 10
0.9759860230166648
 20
5.620102710252472
 10
0.9263596150666646
 20
5.653186982219137
 10
0.8601910711333296
 20
5.686271254185804
 10
0.7774803912166651
 20
5.719355526152473
 10
0.7113118472833298
 20
5.735897662135805
 10
0.6451433033500003
 20
5.768981934102472
 10
0.5789747594166648
 20
5.785524070085803
 10
0.4962640795000003
 20
5.802066206069139
 10
0.4300955355666649
 20
5.818608342052472
 10
0.3639269916333296
 20
5.835150478035805
 10
0.2812163117166648
 20
5.835150478035805
 10
0.2150477677833296
 20
5.85169261401914
 10
0.1323370878666648
 20
5.85169261401914
 10
0.0661685439333296
 20
5.85169261401914
 10
-0.0165421359833352
 20
5.835150478035805
 10
-0.0827106799166704
 20
5.835150478035805
 10
-0.1654213598333352
 20
5.818608342052472
 10
-0.2315899037666704
 20
5.802066206069139
 10
-0.3143005836833352
 20
5.785524070085803
 10
-0.3804691276166704
 20
5.768981934102472
 10
-0.44663767155
 20
5.735897662135805
 10
-0.5128062154833352
 20
5.719355526152473
 10
-0.5789747594166707
 20
5.686271254185804
 10
-0.6451433033500003
 20
5.653186982219137
 10
-0.7113118472833352
 20
5.620102710252472
 10
-0.7774803912166705
 20
5.570476302302473
 10
-0.8436489351499998
 20
5.537392030335804
 10
-0.8932753431
 20
5.487765622385803
 10
-0.9594438870333352
 20
5.438139214435803
  0
LWPOLYLINE
  5
15D0
330
19
100
AcDbEntity
  8
1
100
AcDbPolyline
 90
       38
 70
     0
 43
0.0
 10
-5.094977882866668
 20
-1.724605666347524
 10
-5.094977882866668
 20
-1.724605666347524
 10
-5.11152001885
 20
-1.790774210280859
 10
-5.11152001885
 20
-1.873484890197529
 10
-5.128062154833334
 20
-1.956195570114189
 10
-5.128062154833334
 20
-2.022364114047523
 10
-5.128062154833334
 20
-2.088532657980859
 10
-5.11152001885
 20
-2.154701201914188
 10
-5.11152001885
 20
-2.220869745847529
 10
-5.094977882866668
 20
-2.287038289780857
 10
-5.094977882866668
 20
-2.353206833714188
 10
-5.078435746883335
 20
-2.419375377647523
 10
-5.061893610899999
 20
-2.485543921580859
 10
-5.045351474916668
 20
-2.535170329530857
 10
-5.028809338933333
 20
-2.601338873464187
 10
-4.995725066966668
 20
-2.667507417397522
 10
-4.979182930983333
 20
-2.717133825347529
 10
-4.946098659016668
 20
-2.783302369280857
 10
-4.913014387049999
 20
-2.832928777230858
 10
-4.879930115083332
 20
-2.882555185180859
 10
-4.846845843116668
 20
-2.948723729114189
 10
-4.813761571149997
 20
-2.998350137064188
 10
-4.780677299183333
 20
-3.047976545014187
 10
-4.731050891233333
 20
-3.097602952964189
 10
-4.69796661926667
 20
-3.147229360914189
 10
-4.64834021131667
 20
-3.196855768864188
 10
-4.59871380336667
 20
-3.246482176814187
 10
-4.565629531399999
 20
-3.279566448780859
 10
-4.516003123449999
 20
-3.329192856730858
 10
-4.4663767155
 20
-3.362277128697523
 10
-4.40020817156667
 20
-3.395361400664188
 10
-4.350581763616669
 20
-3.444987808614189
 10
-4.30095535566667
 20
-3.478072080580859
 10
-4.234786811733335
 20
-3.511156352547522
 10
-4.185160403783335
 20
-3.527698488530857
 10
-4.11899185985
 20
-3.560782760497524
 10
-4.069365451899997
 20
-3.593867032464189
 10
-4.003196907966668
 20
-3.610409168447523
  0
LWPOLYLINE
  5
15D1
330
19
100
AcDbEntity
  8
1
100
AcDbPolyline
 90
       66
 70
     0
 43
0.0
 10
-0.9594438870333352
 20
5.438139214435803
 10
-0.9594438870333352
 20
5.438139214435803
 10
-1.058696702933334
 20
5.355428534519139
 10
-1.157949518833333
 20
5.272717854602473
 10
-1.240660198749998
 20
5.190007174685804
 10
-1.33991301465
 20
5.10729649476914
 10
-1.439165830549997
 20
5.008043678869139
 10
-1.521876510466668
 20
4.925332998952473
 10
-1.621129326366668
 20
4.842622319035805
 10
-1.703840006283335
 20
4.743369503135803
 10
-1.7865506862
 20
4.660658823219138
 10
-1.885803502099997
 20
4.561406007319138
 10
-1.968514182016668
 20
4.462153191419139
 10
-2.051224861933333
 20
4.379442511502475
 10
-2.13393554185
 20
4.280189695602476
 10
-2.21664622176667
 20
4.180936879702475
 10
-2.299356901683335
 20
4.098226199785805
 10
-2.382067581599998
 20
3.998973383885804
 10
-2.46477826151667
 20
3.899720567985805
 10
-2.547488941433333
 20
3.800467752085803
 10
-2.63019962135
 20
3.701214936185805
 10
-2.712910301266668
 20
3.601962120285805
 10
-2.779078845199999
 20
3.502709304385805
 10
-2.86178952511667
 20
3.403456488485805
 10
-2.927958069049998
 20
3.287661536602473
 10
-3.010668748966669
 20
3.188408720702475
 10
-3.0768372929
 20
3.089155904802475
 10
-3.159547972816668
 20
2.989903088902475
 10
-3.225716516749998
 20
2.87410813701914
 10
-3.291885060683334
 20
2.77485532111914
 10
-3.35805360461667
 20
2.659060369235805
 10
-3.42422214855
 20
2.559807553335805
 10
-3.490390692483335
 20
2.444012601452475
 10
-3.55655923641667
 20
2.344759785552475
 10
-3.622727780349997
 20
2.228964833669139
 10
-3.688896324283335
 20
2.129712017769139
 10
-3.75506486821667
 20
2.013917065885804
 10
-3.804691276166669
 20
1.898122114002475
 10
-3.870859820099998
 20
1.78232716211914
 10
-3.92048622805
 20
1.683074346219139
 10
-3.986654771983335
 20
1.567279394335803
 10
-4.036281179933335
 20
1.451484442452475
 10
-4.102449723866668
 20
1.335689490569139
 10
-4.152076131816668
 20
1.21989453868581
 10
-4.201702539766668
 20
1.104099586802475
 10
-4.25132894771667
 20
0.9883046349191404
 10
-4.30095535566667
 20
0.8725096830358108
 10
-4.350581763616669
 20
0.756714731152476
 10
-4.40020817156667
 20
0.6409197792691406
 10
-4.44983457951667
 20
0.525124827385811
 10
-4.499460987466669
 20
0.4093298755024759
 10
-4.532545259433335
 20
0.2935349236191405
 10
-4.582171667383335
 20
0.1611978357524757
 10
-4.631798075333334
 20
0.0454028838691406
 10
-4.664882347299998
 20
-0.0703920680141891
 10
-4.69796661926667
 20
-0.1861870198975243
 10
-4.747593027216669
 20
-0.3185241077641891
 10
-4.780677299183333
 20
-0.4343190596475301
 10
-4.813761571149997
 20
-0.566656147514189
 10
-4.846845843116668
 20
-0.6824510993975244
 10
-4.879930115083332
 20
-0.7982460512808595
 10
-4.913014387049999
 20
-0.9305831391475242
 10
-4.946098659016668
 20
-1.046378091030859
 10
-4.979182930983333
 20
-1.178715178897524
 10
-5.01226720295
 20
-1.294510130780859
 10
-5.028809338933333
 20
-1.426847218647524
  0
LWPOLYLINE
  5
15D2
330
19
100
AcDbEntity
  8
1
100
AcDbPolyline
 90
       66
 70
     0
 43
0.0
 10
-1.174491654816668
 20
5.25617571861914
 10
-1.174491654816668
 20
5.25617571861914
 10
-1.273744470716668
 20
5.156922902719139
 10
-1.372997286616669
 20
5.074212222802473
 10
-1.455707966533333
 20
4.991501542885805
 10
-1.554960782433334
 20
4.892248726985803
 10
-1.637671462349999
 20
4.809538047069138
 10
-1.736924278249998
 20
4.710285231169138
 10
-1.81963495816667
 20
4.627574551252473
 10
-1.918887774066669
 20
4.528321735352474
 10
-2.001598453983334
 20
4.445611055435803
 10
-2.084309133899998
 20
4.346358239535804
 10
-2.167019813816668
 20
4.247105423635805
 10
-2.249730493733333
 20
4.147852607735805
 10
-2.332441173649999
 20
4.06514192781914
 10
-2.415151853566668
 20
3.96588911191914
 10
-2.497862533483333
 20
3.866636296019138
 10
-2.5805732134
 20
3.76738348011914
 10
-2.66328389331667
 20
3.66813066421914
 10
-2.729452437249999
 20
3.568877848319139
 10
-2.81216311716667
 20
3.453082896435803
 10
-2.894873797083333
 20
3.353830080535805
 10
-2.961042341016668
 20
3.254577264635805
 10
-3.043753020933334
 20
3.155324448735805
 10
-3.109921564866669
 20
3.056071632835805
 10
-3.176090108799998
 20
2.940276680952475
 10
-3.258800788716669
 20
2.841023865052475
 10
-3.324969332649998
 20
2.72522891316914
 10
-3.391137876583333
 20
2.62597609726914
 10
-3.457306420516669
 20
2.510181145385804
 10
-3.52347496445
 20
2.410928329485805
 10
-3.589643508383334
 20
2.295133377602474
 10
-3.655812052316669
 20
2.195880561702475
 10
-3.70543846026667
 20
2.08008560981914
 10
-3.771607004199997
 20
1.964290657935805
 10
-3.837775548133335
 20
1.865037842035803
 10
-3.887401956083333
 20
1.749242890152475
 10
-3.953570500016668
 20
1.633447938269139
 10
-4.003196907966668
 20
1.517652986385805
 10
-4.069365451899997
 20
1.401858034502474
 10
-4.11899185985
 20
1.286063082619139
 10
-4.168618267799998
 20
1.17026813073581
 10
-4.21824467575
 20
1.054473178852475
 10
-4.2678710837
 20
0.9386782269691403
 10
-4.31749749165
 20
0.8228832750858108
 10
-4.3671238996
 20
0.7070883232024757
 10
-4.41675030755
 20
0.5912933713191407
 10
-4.4663767155
 20
0.4754984194358112
 10
-4.516003123449999
 20
0.3597034675524757
 10
-4.565629531399999
 20
0.2439085156691406
 10
-4.59871380336667
 20
0.1115714278024757
 10
-4.64834021131667
 20
-0.0042235240808595
 10
-4.681424483283334
 20
-0.120018475964189
 10
-4.714508755249998
 20
-0.2523555638308594
 10
-4.764135163199997
 20
-0.3681505157141891
 10
-4.797219435166669
 20
-0.4839454675975244
 10
-4.830303707133333
 20
-0.6162825554641893
 10
-4.863387979099997
 20
-0.7320775073475243
 10
-4.896472251066668
 20
-0.8644145952141892
 10
-4.929556523033335
 20
-0.98020954709753
 10
-4.962640794999997
 20
-1.112546634964189
 10
-4.995725066966668
 20
-1.228341586847524
 10
-5.01226720295
 20
-1.360678674714187
 10
-5.045351474916668
 20
-1.476473626597529
 10
-5.078435746883335
 20
-1.608810714464189
 10
-5.094977882866668
 20
-1.741147802330859
  0
LWPOLYLINE
  5
15D3
330
19
100
AcDbEntity
  8
1
100
AcDbPolyline
 90
      130
 70
     0
 43
0.0
 10
-4.003196907966668
 20
-3.610409168447523
 10
-4.003196907966668
 20
-3.610409168447523
 10
-3.937028364033334
 20
-3.626951304430859
 10
-3.870859820099998
 20
-3.660035576397524
 10
-3.821233412149998
 20
-3.676577712380857
 10
-3.75506486821667
 20
-3.693119848364188
 10
-3.688896324283335
 20
-3.709661984347524
 10
-3.622727780349997
 20
-3.726204120330857
 10
-3.55655923641667
 20
-3.759288392297528
 10
-3.506932828466668
 20
-3.775830528280859
 10
-3.440764284533333
 20
-3.792372664264187
 10
-3.374595740599998
 20
-3.808914800247523
 10
-3.30842719666667
 20
-3.825456936230859
 10
-3.242258652733335
 20
-3.841999072214186
 10
-3.176090108799998
 20
-3.858541208197528
 10
-3.126463700849998
 20
-3.875083344180858
 10
-3.06029515691667
 20
-3.891625480164188
 10
-2.994126612983335
 20
-3.908167616147524
 10
-2.927958069049998
 20
-3.924709752130857
 10
-2.86178952511667
 20
-3.941251888114187
 10
-2.795620981183335
 20
-3.957794024097529
 10
-2.729452437249999
 20
-3.974336160080857
 10
-2.6798260293
 20
-3.990878296064189
 10
-2.613657485366668
 20
-4.007420432047522
 10
-2.547488941433333
 20
-4.023962568030857
 10
-2.481320397499997
 20
-4.040504704014186
 10
-2.415151853566668
 20
-4.057046839997522
 10
-2.348983309633335
 20
-4.057046839997522
 10
-2.282814765699999
 20
-4.073588975980857
 10
-2.21664622176667
 20
-4.090131111964188
 10
-2.150477677833335
 20
-4.106673247947524
 10
-2.100851269883333
 20
-4.106673247947524
 10
-2.034682725949997
 20
-4.123215383930857
 10
-1.968514182016668
 20
-4.139757519914189
 10
-1.902345638083333
 20
-4.139757519914189
 10
-1.836177094149999
 20
-4.156299655897528
 10
-1.77000855021667
 20
-4.172841791880859
 10
-1.703840006283335
 20
-4.172841791880859
 10
-1.637671462349999
 20
-4.189383927864189
 10
-1.57150291841667
 20
-4.189383927864189
 10
-1.505334374483334
 20
-4.205926063847522
 10
-1.439165830549997
 20
-4.205926063847522
 10
-1.372997286616669
 20
-4.222468199830857
 10
-1.306828742683334
 20
-4.222468199830857
 10
-1.240660198749998
 20
-4.239010335814188
 10
-1.174491654816668
 20
-4.239010335814188
 10
-1.124865246866668
 20
-4.255552471797527
 10
-1.058696702933334
 20
-4.255552471797527
 10
-0.992528159
 20
-4.255552471797527
 10
-0.9263596150666703
 20
-4.272094607780857
 10
-0.8601910711333353
 20
-4.272094607780857
 10
-0.7940225272000001
 20
-4.272094607780857
 10
-0.7278539832666704
 20
-4.288636743764189
 10
-0.6616854393333354
 20
-4.288636743764189
 10
-0.5955168954
 20
-4.288636743764189
 10
-0.5293483514666705
 20
-4.288636743764189
 10
-0.4631798075333352
 20
-4.305178879747523
 10
-0.3970112636
 20
-4.305178879747523
 10
-0.3308427196666704
 20
-4.305178879747523
 10
-0.2646741757333352
 20
-4.305178879747523
 10
-0.1985056318
 20
-4.305178879747523
 10
-0.1323370878666704
 20
-4.305178879747523
 10
-0.0661685439333352
 20
-4.305178879747523
 10
0.0
 20
-4.305178879747523
 10
0.0661685439333296
 20
-4.305178879747523
 10
0.1323370878666648
 20
-4.305178879747523
 10
0.1985056318
 20
-4.305178879747523
 10
0.2646741757333296
 20
-4.305178879747523
 10
0.3308427196666648
 20
-4.305178879747523
 10
0.3970112635999916
 20
-4.305178879747523
 10
0.4631798075333295
 20
-4.305178879747523
 10
0.5293483514666649
 20
-4.305178879747523
 10
0.5955168954
 20
-4.305178879747523
 10
0.6616854393333296
 20
-4.305178879747523
 10
0.7278539832666647
 20
-4.305178879747523
 10
0.7940225272000001
 20
-4.288636743764189
 10
0.8601910711333296
 20
-4.288636743764189
 10
0.9263596150666646
 20
-4.288636743764189
 10
0.992528159
 20
-4.288636743764189
 10
1.058696702933328
 20
-4.272094607780857
 10
1.124865246866664
 20
-4.272094607780857
 10
1.191033790799999
 20
-4.272094607780857
 10
1.257202334733329
 20
-4.255552471797527
 10
1.323370878666664
 20
-4.255552471797527
 10
1.389539422599999
 20
-4.255552471797527
 10
1.455707966533329
 20
-4.239010335814188
 10
1.521876510466664
 20
-4.239010335814188
 10
1.5880450544
 20
-4.222468199830857
 10
1.654213598333329
 20
-4.222468199830857
 10
1.720382142266664
 20
-4.205926063847522
 10
1.7865506862
 20
-4.205926063847522
 10
1.852719230133329
 20
-4.189383927864189
 10
1.918887774066662
 20
-4.189383927864189
 10
1.968514182016664
 20
-4.172841791880859
 10
2.034682725949997
 20
-4.172841791880859
 10
2.100851269883329
 20
-4.156299655897528
 10
2.167019813816664
 20
-4.139757519914189
 10
2.23318835775
 20
-4.139757519914189
 10
2.299356901683327
 20
-4.123215383930857
 10
2.365525445616663
 20
-4.106673247947524
 10
2.431693989549998
 20
-4.106673247947524
 10
2.497862533483329
 20
-4.090131111964188
 10
2.564031077416664
 20
-4.073588975980857
 10
2.63019962135
 20
-4.057046839997522
 10
2.696368165283328
 20
-4.040504704014186
 10
2.762536709216663
 20
-4.040504704014186
 10
2.812163117166663
 20
-4.023962568030857
 10
2.878331661099997
 20
-4.007420432047522
 10
2.944500205033327
 20
-3.990878296064189
 10
3.010668748966662
 20
-3.974336160080857
 10
3.0768372929
 20
-3.957794024097529
 10
3.143005836833328
 20
-3.941251888114187
 10
3.209174380766663
 20
-3.924709752130857
 10
3.275342924699998
 20
-3.908167616147524
 10
3.341511468633328
 20
-3.891625480164188
 10
3.391137876583328
 20
-3.875083344180858
 10
3.457306420516663
 20
-3.858541208197528
 10
3.52347496445
 20
-3.841999072214186
 10
3.589643508383328
 20
-3.825456936230859
 10
3.655812052316663
 20
-3.808914800247523
 10
3.721980596249998
 20
-3.792372664264187
 10
3.771607004199997
 20
-3.775830528280859
 10
3.837775548133327
 20
-3.742746256314188
 10
3.903944092066662
 20
-3.726204120330857
 10
3.970112635999997
 20
-3.709661984347524
 10
4.036281179933328
 20
-3.693119848364188
 10
4.085907587883328
 20
-3.660035576397524
 10
4.152076131816663
 20
-3.643493440414188
 10
4.21824467575
 20
-3.626951304430859
 10
4.284413219683329
 20
-3.610409168447523
  0
LWPOLYLINE
  5
15D4
330
19
100
AcDbEntity
  8
1
100
AcDbPolyline
 90
       66
 70
     0
 43
0.0
 10
5.359652058599992
 20
-1.724605666347524
 10
5.359652058599992
 20
-1.708063530364188
 10
5.326567786633328
 20
-1.592268578480859
 10
5.31002565065
 20
-1.459931490614188
 10
5.276941378683329
 20
-1.327594402747524
 10
5.243857106716665
 20
-1.195257314880859
 10
5.21077283475
 20
-1.062920227014189
 10
5.177688562783329
 20
-0.9305831391475242
 10
5.144604290816665
 20
-0.8147881872641889
 10
5.11152001885
 20
-0.6824510993975244
 10
5.078435746883329
 20
-0.5501140115308595
 10
5.045351474916663
 20
-0.4343190596475301
 10
5.01226720295
 20
-0.3019819717808594
 10
4.962640794999997
 20
-0.169644883914189
 10
4.929556523033329
 20
-0.0538499320308595
 10
4.879930115083329
 20
0.078487155835811
 10
4.830303707133328
 20
0.1942821077191405
 10
4.797219435166662
 20
0.326619195585811
 10
4.747593027216663
 20
0.4424141474691405
 10
4.697966619266662
 20
0.574751235335811
 10
4.648340211316662
 20
0.6905461872191406
 10
4.598713803366663
 20
0.8063411391024757
 10
4.549087395416663
 20
0.9386782269691403
 10
4.499460987466664
 20
1.054473178852475
 10
4.433292443533328
 20
1.17026813073581
 10
4.383666035583329
 20
1.286063082619139
 10
4.334039627633328
 20
1.41840017048581
 10
4.2678710837
 20
1.534195122369139
 10
4.201702539766665
 20
1.649990074252475
 10
4.152076131816663
 20
1.765785026135804
 10
4.085907587883328
 20
1.881579978019139
 10
4.019739043949991
 20
1.997374929902475
 10
3.953570500016663
 20
2.113169881785809
 10
3.903944092066662
 20
2.228964833669139
 10
3.837775548133327
 20
2.32821764956914
 10
3.755064868216662
 20
2.444012601452475
 10
3.688896324283327
 20
2.559807553335805
 10
3.622727780349997
 20
2.675602505219139
 10
3.556559236416662
 20
2.77485532111914
 10
3.473848556499998
 20
2.890650273002473
 10
3.407680012566662
 20
3.006445224885805
 10
3.324969332649998
 20
3.105698040785803
 10
3.258800788716663
 20
3.22149299266914
 10
3.176090108799998
 20
3.32074580856914
 10
3.109921564866663
 20
3.436540760452475
 10
3.02721088495
 20
3.535793576352475
 10
2.944500205033327
 20
3.635046392252473
 10
2.861789525116662
 20
3.734299208152475
 10
2.779078845199991
 20
3.850094160035805
 10
2.696368165283328
 20
3.949346975935805
 10
2.613657485366664
 20
4.048599791835805
 10
2.530946805449998
 20
4.147852607735805
 10
2.431693989549998
 20
4.247105423635805
 10
2.348983309633329
 20
4.346358239535804
 10
2.266272629716663
 20
4.445611055435803
 10
2.167019813816664
 20
4.544863871335803
 10
2.084309133899998
 20
4.627574551252473
 10
1.985056317999998
 20
4.726827367152473
 10
1.902345638083329
 20
4.826080183052473
 10
1.803092822183329
 20
4.908790862969138
 10
1.703840006283329
 20
5.008043678869139
 10
1.604587190383329
 20
5.10729649476914
 10
1.505334374483329
 20
5.190007174685804
 10
1.406081558583329
 20
5.272717854602473
 10
1.306828742683329
 20
5.371970670502473
 10
1.207575926783329
 20
5.454681350419138
  0
LWPOLYLINE
  5
15D5
330
19
100
AcDbEntity
  8
1
100
AcDbPolyline
 90
       34
 70
     0
 43
0.0
 10
0.8767332071166647
 20
3.850094160035805
 10
0.8767332071166647
 20
3.850094160035805
 10
0.8271067991666647
 20
3.883178432002475
 10
0.7940225272000001
 20
3.91626270396914
 10
0.7443961192500002
 20
3.949346975935805
 10
0.7113118472833298
 20
3.982431247902475
 10
0.6616854393333296
 20
3.998973383885804
 10
0.6286011673666648
 20
4.032057655852475
 10
0.5789747594166648
 20
4.048599791835805
 10
0.5293483514666649
 20
4.06514192781914
 10
0.4797219435166648
 20
4.081684063802475
 10
0.4300955355666649
 20
4.098226199785805
 10
0.3804691276166648
 20
4.11476833576914
 10
0.3308427196666648
 20
4.131310471752475
 10
0.2812163117166648
 20
4.131310471752475
 10
0.2315899037666647
 20
4.147852607735805
 10
0.1819634958166648
 20
4.147852607735805
 10
0.1323370878666648
 20
4.147852607735805
 10
0.0827106799166648
 20
4.147852607735805
 10
0.0330842719666648
 20
4.147852607735805
 10
-0.0165421359833352
 20
4.131310471752475
 10
-0.0661685439333352
 20
4.131310471752475
 10
-0.1157949518833352
 20
4.11476833576914
 10
-0.1654213598333352
 20
4.098226199785805
 10
-0.2150477677833352
 20
4.081684063802475
 10
-0.2646741757333352
 20
4.06514192781914
 10
-0.3143005836833352
 20
4.048599791835805
 10
-0.3639269916333352
 20
4.032057655852475
 10
-0.3970112636
 20
3.998973383885804
 10
-0.44663767155
 20
3.982431247902475
 10
-0.4797219435166706
 20
3.949346975935805
 10
-0.5293483514666705
 20
3.91626270396914
 10
-0.5624326234333355
 20
3.883178432002475
 10
-0.5955168954
 20
3.850094160035805
  0
LWPOLYLINE
  5
15D6
330
19
100
AcDbEntity
  8
1
100
AcDbPolyline
 90
       66
 70
     0
 43
0.0
 10
3.804691276166663
 20
-1.228341586847524
 10
3.804691276166663
 20
-1.228341586847524
 10
3.771607004199997
 20
-1.129088770947524
 10
3.755064868216662
 20
-1.046378091030859
 10
3.721980596249998
 20
-0.9636674111141891
 10
3.705438460266663
 20
-0.8644145952141892
 10
3.672354188299998
 20
-0.7817039152975243
 10
3.639269916333327
 20
-0.6989932353808595
 10
3.622727780349997
 20
-0.5997404194808597
 10
3.589643508383328
 20
-0.5170297395641891
 10
3.556559236416662
 20
-0.4343190596475301
 10
3.52347496445
 20
-0.3350662437475299
 10
3.490390692483328
 20
-0.2523555638308594
 10
3.457306420516663
 20
-0.169644883914189
 10
3.42422214855
 20
-0.0703920680141891
 10
3.391137876583328
 20
0.0123186119024758
 10
3.358053604616662
 20
0.0950292918191406
 10
3.324969332649998
 20
0.177739971735811
 10
3.291885060683327
 20
0.2604506516524758
 10
3.258800788716663
 20
0.3431613315691405
 10
3.225716516749998
 20
0.4424141474691405
 10
3.176090108799998
 20
0.525124827385811
 10
3.143005836833328
 20
0.6078355073024757
 10
3.109921564866663
 20
0.6905461872191406
 10
3.060295156916663
 20
0.773256867135811
 10
3.02721088495
 20
0.8559675470524757
 10
2.977584476999998
 20
0.9386782269691403
 10
2.944500205033327
 20
1.021388906885809
 10
2.894873797083328
 20
1.104099586802475
 10
2.861789525116662
 20
1.18681026671914
 10
2.812163117166663
 20
1.269520946635811
 10
2.762536709216663
 20
1.352231626552475
 10
2.729452437249999
 20
1.434942306469139
 10
2.6798260293
 20
1.501110850402475
 10
2.63019962135
 20
1.583821530319139
 10
2.5805732134
 20
1.666532210235804
 10
2.530946805449998
 20
1.749242890152475
 10
2.481320397499997
 20
1.831953570069139
 10
2.431693989549998
 20
1.898122114002475
 10
2.382067581599998
 20
1.980832793919139
 10
2.332441173649999
 20
2.063543473835804
 10
2.282814765699999
 20
2.129712017769139
 10
2.23318835775
 20
2.212422697685811
 10
2.1835619498
 20
2.295133377602474
 10
2.13393554185
 20
2.361301921535805
 10
2.067766997916664
 20
2.444012601452475
 10
2.018140589966664
 20
2.510181145385804
 10
1.968514182016664
 20
2.592891825302475
 10
1.902345638083329
 20
2.659060369235805
 10
1.852719230133329
 20
2.741771049152474
 10
1.803092822183329
 20
2.807939593085805
 10
1.736924278249998
 20
2.87410813701914
 10
1.687297870299999
 20
2.956818816935804
 10
1.621129326366664
 20
3.022987360869138
 10
1.554960782433329
 20
3.089155904802475
 10
1.505334374483329
 20
3.171866584719138
 10
1.439165830549997
 20
3.238035128652473
 10
1.372997286616663
 20
3.304203672585805
 10
1.323370878666664
 20
3.37037221651914
 10
1.257202334733329
 20
3.436540760452475
 10
1.191033790799999
 20
3.519251440369138
 10
1.124865246866664
 20
3.585419984302473
 10
1.058696702933328
 20
3.651588528235805
 10
1.009070294983329
 20
3.71775707216914
 10
0.9429017510499999
 20
3.783925616102473
 10
0.8767332071166647
 20
3.850094160035805
  0
LWPOLYLINE
  5
15D7
330
19
100
AcDbEntity
  8
1
100
AcDbPolyline
 90
       22
 70
     0
 43
0.0
 10
3.060295156916663
 20
-2.502086057564187
 10
3.060295156916663
 20
-2.502086057564187
 10
3.143005836833328
 20
-2.469001785597523
 10
3.225716516749998
 20
-2.435917513630859
 10
3.308427196666663
 20
-2.402833241664187
 10
3.374595740599998
 20
-2.353206833714188
 10
3.440764284533328
 20
-2.303580425764188
 10
3.506932828466663
 20
-2.253954017814189
 10
3.5731013724
 20
-2.187785473880857
 10
3.622727780349997
 20
-2.121616929947524
 10
3.672354188299998
 20
-2.055448386014188
 10
3.705438460266663
 20
-1.989279842080859
 10
3.738522732233328
 20
-1.906569162164188
 10
3.771607004199997
 20
-1.840400618230859
 10
3.804691276166663
 20
-1.757689938314189
 10
3.821233412149998
 20
-1.674979258397529
 10
3.837775548133327
 20
-1.575726442497523
 10
3.837775548133327
 20
-1.493015762580859
 10
3.837775548133327
 20
-1.426847218647524
 10
3.821233412149998
 20
-1.360678674714187
 10
3.821233412149998
 20
-1.294510130780859
 10
3.804691276166663
 20
-1.228341586847524
  0
LWPOLYLINE
  5
15D8
330
19
100
AcDbEntity
  8
1
100
AcDbPolyline
 90
       66
 70
     0
 43
0.0
 10
-0.5955168954
 20
3.850094160035805
 10
-0.6120590313833353
 20
3.850094160035805
 10
-0.6782275753166706
 20
3.783925616102473
 10
-0.7278539832666704
 20
3.71775707216914
 10
-0.7940225272000001
 20
3.651588528235805
 10
-0.8601910711333353
 20
3.585419984302473
 10
-0.9263596150666703
 20
3.519251440369138
 10
-0.992528159
 20
3.436540760452475
 10
-1.058696702933334
 20
3.37037221651914
 10
-1.108323110883335
 20
3.304203672585805
 10
-1.174491654816668
 20
3.238035128652473
 10
-1.240660198749998
 20
3.171866584719138
 10
-1.2902866067
 20
3.089155904802475
 10
-1.356455150633333
 20
3.022987360869138
 10
-1.42262369456667
 20
2.956818816935804
 10
-1.472250102516668
 20
2.87410813701914
 10
-1.53841864645
 20
2.807939593085805
 10
-1.5880450544
 20
2.741771049152474
 10
-1.637671462349999
 20
2.659060369235805
 10
-1.703840006283335
 20
2.592891825302475
 10
-1.753466414233334
 20
2.510181145385804
 10
-1.803092822183334
 20
2.444012601452475
 10
-1.869261366116668
 20
2.361301921535805
 10
-1.918887774066669
 20
2.295133377602474
 10
-1.968514182016668
 20
2.212422697685811
 10
-2.01814058996667
 20
2.129712017769139
 10
-2.067766997916669
 20
2.063543473835804
 10
-2.117393405866669
 20
1.980832793919139
 10
-2.167019813816668
 20
1.898122114002475
 10
-2.21664622176667
 20
1.831953570069139
 10
-2.266272629716668
 20
1.749242890152475
 10
-2.315899037666668
 20
1.666532210235804
 10
-2.36552544561667
 20
1.583821530319139
 10
-2.415151853566668
 20
1.501110850402475
 10
-2.448236125533334
 20
1.434942306469139
 10
-2.497862533483333
 20
1.352231626552475
 10
-2.547488941433333
 20
1.269520946635811
 10
-2.597115349383333
 20
1.18681026671914
 10
-2.63019962135
 20
1.104099586802475
 10
-2.6798260293
 20
1.021388906885809
 10
-2.712910301266668
 20
0.9386782269691403
 10
-2.762536709216669
 20
0.8559675470524757
 10
-2.795620981183335
 20
0.773256867135811
 10
-2.845247389133334
 20
0.6905461872191406
 10
-2.878331661099997
 20
0.6078355073024757
 10
-2.911415933066669
 20
0.525124827385811
 10
-2.961042341016668
 20
0.4424141474691405
 10
-2.994126612983335
 20
0.3431613315691405
 10
-3.02721088495
 20
0.2604506516524758
 10
-3.06029515691667
 20
0.177739971735811
 10
-3.093379428883335
 20
0.0950292918191406
 10
-3.126463700849998
 20
0.0123186119024758
 10
-3.159547972816668
 20
-0.0703920680141891
 10
-3.192632244783334
 20
-0.169644883914189
 10
-3.225716516749998
 20
-0.2523555638308594
 10
-3.258800788716669
 20
-0.3350662437475299
 10
-3.291885060683334
 20
-0.4343190596475301
 10
-3.324969332649998
 20
-0.5170297395641891
 10
-3.35805360461667
 20
-0.5997404194808597
 10
-3.374595740599998
 20
-0.6989932353808595
 10
-3.407680012566669
 20
-0.7817039152975243
 10
-3.440764284533333
 20
-0.8644145952141892
 10
-3.457306420516669
 20
-0.9636674111141891
 10
-3.490390692483335
 20
-1.046378091030859
 10
-3.506932828466668
 20
-1.129088770947524
 10
-3.540017100433334
 20
-1.228341586847524
  0
LWPOLYLINE
  5
15D9
330
19
100
AcDbEntity
  8
1
100
AcDbPolyline
 90
       22
 70
     0
 43
0.0
 10
-3.540017100433334
 20
-1.228341586847524
 10
-3.540017100433334
 20
-1.228341586847524
 10
-3.55655923641667
 20
-1.294510130780859
 10
-3.55655923641667
 20
-1.360678674714187
 10
-3.5731013724
 20
-1.426847218647524
 10
-3.5731013724
 20
-1.493015762580859
 10
-3.55655923641667
 20
-1.575726442497523
 10
-3.55655923641667
 20
-1.674979258397529
 10
-3.540017100433334
 20
-1.757689938314189
 10
-3.506932828466668
 20
-1.840400618230859
 10
-3.473848556499998
 20
-1.906569162164188
 10
-3.440764284533333
 20
-1.989279842080859
 10
-3.407680012566669
 20
-2.055448386014188
 10
-3.35805360461667
 20
-2.121616929947524
 10
-3.291885060683334
 20
-2.187785473880857
 10
-3.242258652733335
 20
-2.253954017814189
 10
-3.176090108799998
 20
-2.303580425764188
 10
-3.109921564866669
 20
-2.353206833714188
 10
-3.043753020933334
 20
-2.402833241664187
 10
-2.961042341016668
 20
-2.435917513630859
 10
-2.878331661099997
 20
-2.469001785597523
 10
-2.795620981183335
 20
-2.502086057564187
  0
LWPOLYLINE
  5
15DA
330
19
100
AcDbEntity
  8
1
100
AcDbPolyline
 90
       66
 70
     0
 43
0.0
 10
-2.795620981183335
 20
-2.502086057564187
 10
-2.795620981183335
 20
-2.502086057564187
 10
-2.712910301266668
 20
-2.51862819354753
 10
-2.613657485366668
 20
-2.551712465514189
 10
-2.530946805449998
 20
-2.568254601497522
 10
-2.431693989549998
 20
-2.601338873464187
 10
-2.348983309633335
 20
-2.617881009447529
 10
-2.249730493733333
 20
-2.634423145430857
 10
-2.167019813816668
 20
-2.650965281414189
 10
-2.067766997916669
 20
-2.667507417397522
 10
-1.985056317999998
 20
-2.700591689364189
 10
-1.902345638083333
 20
-2.717133825347529
 10
-1.803092822183334
 20
-2.733675961330859
 10
-1.703840006283335
 20
-2.750218097314188
 10
-1.621129326366668
 20
-2.750218097314188
 10
-1.521876510466668
 20
-2.766760233297524
 10
-1.439165830549997
 20
-2.783302369280857
 10
-1.33991301465
 20
-2.799844505264188
 10
-1.257202334733334
 20
-2.816386641247524
 10
-1.157949518833333
 20
-2.816386641247524
 10
-1.07523883891667
 20
-2.832928777230858
 10
-0.9759860230166703
 20
-2.832928777230858
 10
-0.8932753431
 20
-2.849470913214188
 10
-0.7940225272000001
 20
-2.866013049197523
 10
-0.6947697113000002
 20
-2.866013049197523
 10
-0.6120590313833353
 20
-2.866013049197523
 10
-0.5128062154833352
 20
-2.882555185180859
 10
-0.4300955355666705
 20
-2.882555185180859
 10
-0.3308427196666704
 20
-2.882555185180859
 10
-0.2315899037666704
 20
-2.882555185180859
 10
-0.14887922385
 20
-2.899097321164187
 10
-0.04962640795
 20
-2.899097321164187
 10
0.0330842719666648
 20
-2.899097321164187
 10
0.1323370878666648
 20
-2.899097321164187
 10
0.2315899037666647
 20
-2.899097321164187
 10
0.3143005836833296
 20
-2.899097321164187
 10
0.4135533995833296
 20
-2.899097321164187
 10
0.4962640795000003
 20
-2.882555185180859
 10
0.5955168954
 20
-2.882555185180859
 10
0.6947697113000002
 20
-2.882555185180859
 10
0.7774803912166651
 20
-2.882555185180859
 10
0.8767332071166647
 20
-2.866013049197523
 10
0.9594438870333295
 20
-2.866013049197523
 10
1.058696702933328
 20
-2.866013049197523
 10
1.157949518833329
 20
-2.849470913214188
 10
1.240660198749998
 20
-2.832928777230858
 10
1.33991301465
 20
-2.832928777230858
 10
1.422623694566664
 20
-2.816386641247524
 10
1.521876510466664
 20
-2.816386641247524
 10
1.604587190383329
 20
-2.799844505264188
 10
1.703840006283329
 20
-2.783302369280857
 10
1.7865506862
 20
-2.766760233297524
 10
1.885803502099997
 20
-2.750218097314188
 10
1.968514182016664
 20
-2.750218097314188
 10
2.067766997916664
 20
-2.733675961330859
 10
2.167019813816664
 20
-2.717133825347529
 10
2.249730493733329
 20
-2.700591689364189
 10
2.332441173649999
 20
-2.667507417397522
 10
2.431693989549998
 20
-2.650965281414189
 10
2.514404669466664
 20
-2.634423145430857
 10
2.613657485366664
 20
-2.617881009447529
 10
2.696368165283328
 20
-2.601338873464187
 10
2.795620981183329
 20
-2.568254601497522
 10
2.878331661099997
 20
-2.551712465514189
 10
2.977584476999998
 20
-2.51862819354753
 10
3.060295156916663
 20
-2.502086057564187
  0
LWPOLYLINE
  5
161F
330
19
100
AcDbEntity
  8
1
100
AcDbPolyline
 90
        7
 70
     0
 43
0.0
 10
16.63604164988672
 20
-1.765328901352108
 10
16.63604164988672
 20
-1.765328901352108
 10
16.70221019382007
 20
-1.781871037335444
 10
16.7683787377534
 20
-1.831497445285443
 10
16.80146300972007
 20
-1.897665989218774
 10
16.8180051457034
 20
-1.963834533152109
 10
16.8180051457034
 20
-1.980376669135445
  0
LWPOLYLINE
  5
1620
330
19
100
AcDbEntity
  8
1
100
AcDbPolyline
 90
        2
 70
     0
 43
0.0
 10
16.63604164988672
 20
-1.765328901352108
 10
16.13977757038673
 20
-1.699160357418774
  0
LWPOLYLINE
  5
1621
330
19
100
AcDbEntity
  8
1
100
AcDbPolyline
 90
       18
 70
     0
 43
0.0
 10
14.8329488277034
 20
-1.351775501768774
 10
14.8329488277034
 20
-1.351775501768774
 10
14.89911737163673
 20
-1.36831763775211
 10
14.9818280515534
 20
-1.36831763775211
 10
15.04799659548673
 20
-1.384859773735444
 10
15.1307072754034
 20
-1.384859773735444
 10
15.19687581933673
 20
-1.401401909718774
 10
15.2795864992534
 20
-1.417944045702109
 10
15.34575504318673
 20
-1.434486181685445
 10
15.4284657231034
 20
-1.451028317668773
 10
15.49463426703673
 20
-1.467570453652109
 10
15.56080281097007
 20
-1.500654725618774
 10
15.64351349088673
 20
-1.517196861602108
 10
15.70968203482007
 20
-1.533738997585444
 10
15.7758505787534
 20
-1.566823269552109
 10
15.84201912268673
 20
-1.599907541518773
 10
15.90818766662007
 20
-1.616449677502108
 10
15.9743562105534
 20
-1.649533949468773
  0
LWPOLYLINE
  5
1622
330
19
100
AcDbEntity
  8
1
100
AcDbPolyline
 90
        2
 70
     0
 43
0.0
 10
14.86603309967007
 20
-1.351775501768774
 10
14.3366847482034
 20
-1.318691229802109
  0
LWPOLYLINE
  5
1623
330
19
100
AcDbEntity
  8
1
100
AcDbPolyline
 90
        2
 70
     0
 43
0.0
 10
16.8180051457034
 20
-1.980376669135445
 10
16.85108941767007
 20
-1.980376669135445
  0
LWPOLYLINE
  5
1624
330
19
100
AcDbEntity
  8
1
100
AcDbPolyline
 90
        2
 70
     0
 43
0.0
 10
15.9743562105534
 20
-1.649533949468773
 10
16.13977757038673
 20
-1.699160357418774
  0
LWPOLYLINE
  5
1625
330
19
100
AcDbEntity
  8
1
100
AcDbPolyline
 90
        2
 70
     0
 43
0.0
 10
16.10669329842007
 20
-1.699160357418774
 10
16.10669329842007
 20
0.6167386802478898
  0
LWPOLYLINE
  5
1626
330
19
100
AcDbEntity
  8
3
100
AcDbPolyline
 90
        2
 70
     0
 43
0.0
 10
14.6344431959034
 20
-3.436084635668772
 10
16.35482533817006
 20
-1.715702493402108
  0
LWPOLYLINE
  5
1627
330
19
100
AcDbEntity
  8
3
100
AcDbPolyline
 90
        2
 70
     0
 43
0.0
 10
15.21341795532007
 20
-3.551879587552108
 10
16.78492087373674
 20
-1.980376669135445
  0
LWPOLYLINE
  5
1628
330
19
100
AcDbEntity
  8
1
100
AcDbPolyline
 90
        7
 70
     0
 43
0.0
 10
16.63604164988672
 20
2.982264125864555
 10
16.63604164988672
 20
2.982264125864555
 10
16.70221019382007
 20
3.015348397831225
 10
16.7683787377534
 20
3.04843266979789
 10
16.80146300972007
 20
3.114601213731225
 10
16.8180051457034
 20
3.197311893647889
 10
16.8180051457034
 20
3.213854029631225
  0
LWPOLYLINE
  5
1629
330
19
100
AcDbEntity
  8
1
100
AcDbPolyline
 90
        2
 70
     0
 43
0.0
 10
16.63604164988672
 20
2.982264125864555
 10
16.13977757038673
 20
2.916095581931223
  0
LWPOLYLINE
  5
162A
330
19
100
AcDbEntity
  8
1
100
AcDbPolyline
 90
       18
 70
     0
 43
0.0
 10
14.8329488277034
 20
2.585252862264554
 10
14.8329488277034
 20
2.585252862264554
 10
14.89911737163673
 20
2.585252862264554
 10
14.9818280515534
 20
2.601794998247889
 10
15.04799659548673
 20
2.601794998247889
 10
15.1307072754034
 20
2.618337134231225
 10
15.19687581933673
 20
2.634879270214554
 10
15.2795864992534
 20
2.65142140619789
 10
15.34575504318673
 20
2.667963542181224
 10
15.4284657231034
 20
2.684505678164555
 10
15.49463426703673
 20
2.701047814147889
 10
15.56080281097007
 20
2.717589950131225
 10
15.64351349088673
 20
2.734132086114554
 10
15.70968203482007
 20
2.767216358081226
 10
15.7758505787534
 20
2.800300630047891
 10
15.84201912268673
 20
2.816842766031225
 10
15.90818766662007
 20
2.84992703799789
 10
15.9743562105534
 20
2.883011309964555
  0
LWPOLYLINE
  5
162B
330
19
100
AcDbEntity
  8
1
100
AcDbPolyline
 90
        2
 70
     0
 43
0.0
 10
14.86603309967007
 20
2.585252862264554
 10
14.3366847482034
 20
2.55216859029789
  0
LWPOLYLINE
  5
162C
330
19
100
AcDbEntity
  8
1
100
AcDbPolyline
 90
        2
 70
     0
 43
0.0
 10
16.8180051457034
 20
3.213854029631225
 10
16.85108941767007
 20
3.213854029631225
  0
LWPOLYLINE
  5
162D
330
19
100
AcDbEntity
  8
1
100
AcDbPolyline
 90
        2
 70
     0
 43
0.0
 10
15.9743562105534
 20
2.883011309964555
 10
16.13977757038673
 20
2.916095581931223
  0
LWPOLYLINE
  5
162E
330
19
100
AcDbEntity
  8
1
100
AcDbPolyline
 90
        2
 70
     0
 43
0.0
 10
16.10669329842007
 20
2.916095581931223
 10
16.10669329842007
 20
0.6167386802478898
  0
LWPOLYLINE
  5
162F
330
19
100
AcDbEntity
  8
3
100
AcDbPolyline
 90
        2
 70
     0
 43
0.0
 10
16.83454728168673
 20
3.313106845531223
 10
16.50370456202007
 20
2.965721989881225
  0
LWPOLYLINE
  5
1630
330
19
100
AcDbEntity
  8
1
100
AcDbPolyline
 90
        2
 70
     0
 43
0.0
 10
16.58641524193673
 20
-3.849638035252109
 10
17.04959504947006
 20
-3.849638035252109
  0
LWPOLYLINE
  5
1631
330
19
100
AcDbEntity
  8
1
100
AcDbPolyline
 90
       18
 70
     0
 43
0.0
 10
16.85108941767007
 20
-2.261592980852107
 10
16.85108941767007
 20
-2.261592980852107
 10
16.85108941767007
 20
-2.311219388802107
 10
16.85108941767007
 20
-2.377387932735445
 10
16.85108941767007
 20
-2.427014340685444
 10
16.85108941767007
 20
-2.493182884618772
 10
16.85108941767007
 20
-2.542809292568772
 10
16.85108941767007
 20
-2.608977836502107
 10
16.8676315536534
 20
-2.65860424445211
 10
16.8676315536534
 20
-2.724772788385443
 10
16.8676315536534
 20
-2.774399196335443
 10
16.88417368963673
 20
-2.824025604285444
 10
16.88417368963673
 20
-2.890194148218774
 10
16.88417368963673
 20
-2.939820556168773
 10
16.90071582562007
 20
-3.005989100102107
 10
16.90071582562007
 20
-3.055615508052107
 10
16.9172579616034
 20
-3.121784051985445
 10
16.93380009758673
 20
-3.171410459935443
  0
LWPOLYLINE
  5
1632
330
19
100
AcDbEntity
  8
1
100
AcDbPolyline
 90
        2
 70
     0
 43
0.0
 10
16.93380009758673
 20
-3.171410459935443
 10
17.04959504947006
 20
-3.849638035252109
  0
LWPOLYLINE
  5
1633
330
19
100
AcDbEntity
  8
1
100
AcDbPolyline
 90
        2
 70
     0
 43
0.0
 10
16.58641524193673
 20
6.737328994081224
 10
17.04959504947006
 20
6.737328994081224
  0
LWPOLYLINE
  5
1634
330
19
100
AcDbEntity
  8
1
100
AcDbPolyline
 90
        2
 70
     0
 43
0.0
 10
16.85108941767007
 20
-2.261592980852107
 10
16.85108941767007
 20
4.818441220014554
  0
LWPOLYLINE
  5
1635
330
19
100
AcDbEntity
  8
1
100
AcDbPolyline
 90
       18
 70
     0
 43
0.0
 10
16.9172579616034
 20
5.844053650981225
 10
16.9172579616034
 20
5.844053650981225
 10
16.9172579616034
 20
5.777885107047889
 10
16.90071582562007
 20
5.711716563114555
 10
16.90071582562007
 20
5.645548019181227
 10
16.88417368963673
 20
5.579379475247888
 10
16.88417368963673
 20
5.513210931314553
 10
16.88417368963673
 20
5.447042387381227
 10
16.8676315536534
 20
5.397415979431226
 10
16.8676315536534
 20
5.331247435497887
 10
16.8676315536534
 20
5.265078891564556
 10
16.85108941767007
 20
5.198910347631226
 10
16.85108941767007
 20
5.132741803697888
 10
16.85108941767007
 20
5.066573259764556
 10
16.85108941767007
 20
5.000404715831226
 10
16.85108941767007
 20
4.950778307881225
 10
16.85108941767007
 20
4.88460976394789
 10
16.85108941767007
 20
4.818441220014554
  0
LWPOLYLINE
  5
1636
330
19
100
AcDbEntity
  8
1
100
AcDbPolyline
 90
        2
 70
     0
 43
0.0
 10
16.9172579616034
 20
5.844053650981225
 10
17.04959504947006
 20
6.737328994081224
  0
LWPOLYLINE
  5
1637
330
19
100
AcDbEntity
  8
1
100
AcDbPolyline
 90
        2
 70
     0
 43
0.0
 10
13.07480823773673
 20
-1.715702493402108
 10
13.27331386953673
 20
-1.533738997585444
  0
LWPOLYLINE
  5
1638
330
19
100
AcDbEntity
  8
1
100
AcDbPolyline
 90
        2
 70
     0
 43
0.0
 10
14.3863111561534
 20
2.55216859029789
 10
13.27331386953673
 20
2.55216859029789
  0
LWPOLYLINE
  5
1639
330
19
100
AcDbEntity
  8
1
100
AcDbPolyline
 90
        2
 70
     0
 43
0.0
 10
14.3863111561534
 20
-1.318691229802109
 10
13.27331386953673
 20
-1.318691229802109
  0
LWPOLYLINE
  5
163A
330
19
100
AcDbEntity
  8
1
100
AcDbPolyline
 90
        6
 70
     0
 43
0.0
 10
14.02238416452007
 20
5.976390738847887
 10
14.02238416452007
 20
5.976390738847887
 10
13.9892998925534
 20
5.926764330897889
 10
13.95621562058673
 20
5.877137922947891
 10
13.8900470766534
 20
5.844053650981225
 10
13.82387853272007
 20
5.844053650981225
  0
LWPOLYLINE
  5
163B
330
19
100
AcDbEntity
  8
1
100
AcDbPolyline
 90
        2
 70
     0
 43
0.0
 10
14.02238416452007
 20
5.976390738847887
 10
14.10509484443673
 20
6.22452277859789
  0
LWPOLYLINE
  5
163C
330
19
100
AcDbEntity
  8
1
100
AcDbPolyline
 90
        2
 70
     0
 43
0.0
 10
16.58641524193673
 20
6.737328994081224
 10
14.10509484443673
 20
6.22452277859789
  0
LWPOLYLINE
  5
163D
330
19
100
AcDbEntity
  8
1
100
AcDbPolyline
 90
        2
 70
     0
 43
0.0
 10
13.07480823773673
 20
5.844053650981225
 10
13.82387853272007
 20
5.844053650981225
  0
LWPOLYLINE
  5
163E
330
19
100
AcDbEntity
  8
1
100
AcDbPolyline
 90
        6
 70
     0
 43
0.0
 10
14.02238416452007
 20
-3.088699780018773
 10
14.02238416452007
 20
-3.088699780018773
 10
13.9892998925534
 20
-3.022531236085443
 10
13.95621562058673
 20
-2.989446964118775
 10
13.8900470766534
 20
-2.956362692152109
 10
13.82387853272007
 20
-2.939820556168773
  0
LWPOLYLINE
  5
163F
330
19
100
AcDbEntity
  8
1
100
AcDbPolyline
 90
        2
 70
     0
 43
0.0
 10
14.02238416452007
 20
-3.088699780018773
 10
14.10509484443673
 20
-3.320289683785444
  0
LWPOLYLINE
  5
1640
330
19
100
AcDbEntity
  8
1
100
AcDbPolyline
 90
        2
 70
     0
 43
0.0
 10
13.07480823773673
 20
-2.939820556168773
 10
13.07480823773673
 20
5.844053650981225
  0
LWPOLYLINE
  5
1641
330
19
100
AcDbEntity
  8
1
100
AcDbPolyline
 90
        2
 70
     0
 43
0.0
 10
16.58641524193673
 20
-3.849638035252109
 10
14.10509484443673
 20
-3.320289683785444
  0
LWPOLYLINE
  5
1642
330
19
100
AcDbEntity
  8
3
100
AcDbPolyline
 90
        2
 70
     0
 43
0.0
 10
14.10509484443673
 20
-3.287205411818773
 10
15.80893485072007
 20
-1.583365405535444
  0
LWPOLYLINE
  5
1643
330
19
100
AcDbEntity
  8
3
100
AcDbPolyline
 90
        2
 70
     0
 43
0.0
 10
13.7411678528034
 20
-2.939820556168773
 10
15.2795864992534
 20
-1.417944045702109
  0
LWPOLYLINE
  5
1644
330
19
100
AcDbEntity
  8
3
100
AcDbPolyline
 90
        2
 70
     0
 43
0.0
 10
14.65098533188674
 20
-1.351775501768774
 10
13.07480823773673
 20
-2.911703347525471
  0
LWPOLYLINE
  5
1645
330
19
100
AcDbEntity
  8
3
100
AcDbPolyline
 90
        2
 70
     0
 43
0.0
 10
13.97275775657007
 20
-1.318691229802109
 10
13.07480823773673
 20
-2.216640748635443
  0
LWPOLYLINE
  5
1646
330
19
100
AcDbEntity
  8
1
100
AcDbPolyline
 90
        2
 70
     0
 43
0.0
 10
13.07480823773673
 20
-2.939820556168773
 10
13.82387853272007
 20
-2.939820556168773
  0
LWPOLYLINE
  5
1647
330
19
100
AcDbEntity
  8
1
100
AcDbPolyline
 90
        2
 70
     0
 43
0.0
 10
13.27798804527007
 20
-1.318691229802109
 10
13.07480823773673
 20
-1.521871037335442
  0
LWPOLYLINE
  5
1648
330
19
100
AcDbEntity
  8
3
100
AcDbPolyline
 90
        2
 70
     0
 43
0.0
 10
15.79239271473673
 20
-3.684216675418772
 10
16.85108941767007
 20
-2.608977836502107
  0
LWPOLYLINE
  5
1649
330
19
100
AcDbEntity
  8
3
100
AcDbPolyline
 90
        2
 70
     0
 43
0.0
 10
16.35482533817006
 20
-3.800011627302107
 10
16.93380009758673
 20
-3.221036867885443
  0
LWPOLYLINE
  5
164A
330
19
100
AcDbEntity
  8
3
100
AcDbPolyline
 90
        2
 70
     0
 43
0.0
 10
15.54426067498673
 20
2.717589950131225
 10
16.85108941767007
 20
4.007876556831226
  0
LWPOLYLINE
  5
164B
330
19
100
AcDbEntity
  8
3
100
AcDbPolyline
 90
        2
 70
     0
 43
0.0
 10
14.71715387582007
 20
2.568710726281224
 10
16.85108941767007
 20
4.702646268131223
  0
LWPOLYLINE
  5
164C
330
19
100
AcDbEntity
  8
3
100
AcDbPolyline
 90
        2
 70
     0
 43
0.0
 10
13.9892998925534
 20
2.55216859029789
 10
16.8676315536534
 20
5.430500251397891
  0
LWPOLYLINE
  5
164D
330
19
100
AcDbEntity
  8
3
100
AcDbPolyline
 90
        2
 70
     0
 43
0.0
 10
13.2945301812534
 20
2.55216859029789
 10
16.9668843695534
 20
6.22452277859789
  0
LWPOLYLINE
  5
164F
330
19
100
AcDbEntity
  8
3
100
AcDbPolyline
 90
        2
 70
     0
 43
0.0
 10
13.07480823773673
 20
5.123734294631222
 10
13.80733639673674
 20
5.844053650981225
  0
LWPOLYLINE
  5
1650
330
19
100
AcDbEntity
  8
3
100
AcDbPolyline
 90
        2
 70
     0
 43
0.0
 10
13.07480823773673
 20
4.414871722710209
 10
15.09762300343673
 20
6.423028410397888
  0
LWPOLYLINE
  5
1651
330
19
100
AcDbEntity
  8
1
100
AcDbPolyline
 90
        2
 70
     0
 43
0.0
 10
13.07480823773673
 20
3.958250148881225
 10
13.27331386953673
 20
3.776286653064553
  0
LWPOLYLINE
  5
1652
330
19
100
AcDbEntity
  8
1
100
AcDbPolyline
 90
        2
 70
     0
 43
0.0
 10
13.27331386953673
 20
-1.533738997585444
 10
13.27331386953673
 20
3.776286653064553
  0
LWPOLYLINE
  5
1653
330
19
100
AcDbEntity
  8
3
100
AcDbPolyline
 90
        2
 70
     0
 43
0.0
 10
13.20670713277152
 20
3.837342828432673
 10
15.99089834653673
 20
6.621534042197889
  0
LWPOLYLINE
  5
1654
330
19
100
AcDbEntity
  8
3
100
AcDbPolyline
 90
        2
 70
     0
 43
0.0
 10
13.27331386953673
 20
3.209179853897889
 10
16.80146300972007
 20
6.737328994081224
  0
DIMENSION
  5
16E0
330
19
100
AcDbEntity
  8
2
100
AcDbDimension
  2
*D2
 10
13.07480823773673
 20
-6.281145826835199
 30
0.0
 11
15.32167247270377
 21
-6.281145826835199
 31
0.0
 70
   160
 71
     5
 42
3.974786811733331
  3
Inserts
100
AcDbAlignedDimension
 13
17.04959504947006
 23
-3.849638035252109
 33
0.0
 14
13.07480823773673
 24
-2.939820556168773
 34
0.0
100
AcDbRotatedDimension
  0
DIMENSION
  5
1701
330
19
100
AcDbEntity
  8
2
100
AcDbDimension
  2
*D3
 10
4.842171667383329
 20
8.169377781832736
 30
0.0
 11
0.3923370878666655
 21
9.569377781832736
 31
0.0
 70
    32
 71
     5
 42
8.899669159033328
  3
Inserts
100
AcDbAlignedDimension
 13
-4.05749749165
 23
0.0454028838691406
 33
0.0
 14
4.842171667383329
 24
0.1150461497436829
 34
0.0
100
AcDbRotatedDimension
  0
DIMENSION
  5
17F2
330
19
100
AcDbEntity
  8
2
100
AcDbDimension
  2
*D5
 10
-7.639412835745146
 20
-2.018615308212825
 30
0.0
 11
6.689996007804757
 21
5.162087069607761
 31
0.0
 70
    36
 71
     5
 42
12.5
  3
Inserts
100
AcDbRadialDimension
 15
3.982377895308793
 25
2.583990497587706
 35
0.0
 40
0.0
1001
ACAD_DSTYLE_DIMRADIAL_EXTENSION
1070
   387
1070
     1
1070
   388
1040
0.0
1070
   390
1040
0.0
1001
ACAD
1000
DSTYLE
1002
{
1070
   271
1070
     1
1070
   288
1070
     1
1002
}
  0
DIMENSION
  5
1856
330
19
100
AcDbEntity
  8
2
100
AcDbDimension
  2
*D6
 10
-4.44816603297204
 20
-2.603496736908708
 30
0.0
 11
-8.873659627908917
 21
-1.842280022945399
 31
0.0
 70
    36
 71
     5
 42
1.199999999999995
  3
Inserts
100
AcDbRadialDimension
 15
-5.635273932298777
 25
-2.778924315573115
 35
0.0
 40
0.0
1001
ACAD_DSTYLE_DIMRADIAL_EXTENSION
1070
   387
1070
     1
1070
   388
1040
0.0
1070
   390
1040
0.0
1001
ACAD
1000
DSTYLE
1002
{
1070
   271
1070
     1
1070
   288
1070
     1
1002
}
  0
TEXT
  5
1869
330
19
100
AcDbEntity
  8
SK6
100
AcDbText
 10
0.5077163621388081
 20
-9.529531622391914
 30
0.0
 40
0.8
  1
218.19-125T-T3-M06
  7
SIMPLEX
100
AcDbText
  0
DIMENSION
  5
1912
330
19
100
AcDbEntity
  8
2
100
AcDbDimension
  2
*D7
 10
14.10509484443673
 20
-3.320289683785444
 30
0.0
 11
10.26440767641005
 21
-0.0325015743781996
 31
0.0
 70
    34
 71
     5
 42
0.2101825866621703
  3
Inserts
100
AcDb2LineAngularDimension
 13
16.58641524193673
 23
-3.849638035252109
 33
0.0
 14
17.04959504947006
 24
-3.849638035252109
 34
0.0
 15
16.58641524193673
 25
-3.849638035252109
 35
0.0
 16
10.83826773076834
 26
-3.446257647544177
 36
0.0
  0
ENDSEC
  0
SECTION
  2
OBJECTS
  0
DICTIONARY
  5
C
330
0
100
AcDbDictionary
281
     1
  3
ACAD_COLOR
350
12B4
  3
ACAD_GROUP
350
D
  3
ACAD_LAYOUT
350
A85
  3
ACAD_MATERIAL
350
128A
  3
ACAD_MLEADERSTYLE
350
12D9
  3
ACAD_MLINESTYLE
350
E
  3
ACAD_PLOTSETTINGS
350
A86
  3
ACAD_PLOTSTYLENAME
350
E93
  3
ACAD_SCALELIST
350
12B7
  3
ACAD_TABLESTYLE
350
12B5
  3
ACAD_VISUALSTYLE
350
12A3
  3
ACDB_RECOMPOSE_DATA
350
18D9
  3
AcDbVariableDictionary
350
1898
  3
DWGPROPS
350
1937
1001
ACAD
1000
TREAT_AS_HARD
1070
     0
  0
DICTIONARY
  5
18AB
330
F
100
AcDbDictionary
280
     1
281
     1
  3
ADSK_XREC_LAYER_RECONCILED
360
18AC
  0
DICTIONARY
  5
18AD
330
1E
100
AcDbDictionary
280
     1
281
     1
  3
ADSK_XREC_LAYER_RECONCILED
360
18AE
  0
DICTIONARY
  5
18AF
330
22
100
AcDbDictionary
280
     1
281
     1
  3
ADSK_XREC_LAYER_RECONCILED
360
18B0
  0
DICTIONARY
  5
18B1
330
23
100
AcDbDictionary
280
     1
281
     1
  3
ADSK_XREC_LAYER_RECONCILED
360
18B2
  0
DICTIONARY
  5
18B3
330
24
100
AcDbDictionary
280
     1
281
     1
  3
ADSK_XREC_LAYER_RECONCILED
360
18B4
  0
DICTIONARY
  5
18B5
330
25
100
AcDbDictionary
280
     1
281
     1
  3
ADSK_XREC_LAYER_RECONCILED
360
18B6
  0
DICTIONARY
  5
18B7
330
26
100
AcDbDictionary
280
     1
281
     1
  3
ADSK_XREC_LAYER_RECONCILED
360
18B8
  0
DICTIONARY
  5
18B9
330
27
100
AcDbDictionary
280
     1
281
     1
  3
ADSK_XREC_LAYER_RECONCILED
360
18BA
  0
DICTIONARY
  5
18BB
330
28
100
AcDbDictionary
280
     1
281
     1
  3
ADSK_XREC_LAYER_RECONCILED
360
18BC
  0
DICTIONARY
  5
18BD
330
29
100
AcDbDictionary
280
     1
281
     1
  3
ADSK_XREC_LAYER_RECONCILED
360
18BE
  0
DICTIONARY
  5
18BF
330
2A
100
AcDbDictionary
280
     1
281
     1
  3
ADSK_XREC_LAYER_RECONCILED
360
18C0
  0
DICTIONARY
  5
18C1
330
2B
100
AcDbDictionary
280
     1
281
     1
  3
ADSK_XREC_LAYER_RECONCILED
360
18C2
  0
DICTIONARY
  5
18C3
330
2C
100
AcDbDictionary
280
     1
281
     1
  3
ADSK_XREC_LAYER_RECONCILED
360
18C4
  0
DICTIONARY
  5
18C5
330
2D
100
AcDbDictionary
280
     1
281
     1
  3
ADSK_XREC_LAYER_RECONCILED
360
18C6
  0
DICTIONARY
  5
18C7
330
C07
100
AcDbDictionary
280
     1
281
     1
  3
ADSK_XREC_LAYER_RECONCILED
360
18C8
  0
DICTIONARY
  5
12E0
330
12DF
100
AcDbDictionary
280
     1
281
     1
  3
ADSK_XREC_LAYER_RECONCILED
360
18C9
  0
DICTIONARY
  5
12E2
330
12E1
100
AcDbDictionary
280
     1
281
     1
  3
ADSK_XREC_LAYER_RECONCILED
360
18CA
  0
DICTIONARY
  5
E8D
330
19
100
AcDbDictionary
280
     1
281
     1
  0
DICTIONARY
  5
E8B
330
16
100
AcDbDictionary
280
     1
281
     1
  0
DICTIONARY
  5
12B4
102
{ACAD_REACTORS
330
C
102
}
330
C
100
AcDbDictionary
281
     1
  0
DICTIONARY
  5
D
102
{ACAD_REACTORS
330
C
102
}
330
C
100
AcDbDictionary
281
     1
1001
ACAD
1000
TREAT_AS_HARD
1070
     0
  0
DICTIONARY
  5
A85
102
{ACAD_REACTORS
330
C
102
}
330
C
100
AcDbDictionary
281
     1
  3
Layout1
350
E96
  3
Model
350
E95
1001
ACAD
1000
TREAT_AS_HARD
1070
     0
  0
DICTIONARY
  5
128A
102
{ACAD_REACTORS
330
C
102
}
330
C
100
AcDbDictionary
281
     1
  3
ByBlock
350
1293
  3
ByLayer
350
128B
  3
Global
350
129B
  0
DICTIONARY
  5
12D9
102
{ACAD_REACTORS
330
C
102
}
330
C
100
AcDbDictionary
281
     1
  3
Standard
350
12DA
  0
DICTIONARY
  5
E
102
{ACAD_REACTORS
330
C
102
}
330
C
100
AcDbDictionary
281
     1
  3
STANDARD
350
1C
1001
ACAD
1000
TREAT_AS_HARD
1070
     0
  0
DICTIONARY
  5
A86
102
{ACAD_REACTORS
330
C
102
}
330
C
100
AcDbDictionary
281
     1
1001
ACAD
1000
TREAT_AS_HARD
1070
     0
  0
ACDBDICTIONARYWDFLT
  5
E93
102
{ACAD_REACTORS
330
C
102
}
330
C
100
AcDbDictionary
281
     1
  3
Normal
350
E94
100
AcDbDictionaryWithDefault
340
E94
  0
DICTIONARY
  5
12B7
102
{ACAD_REACTORS
330
C
102
}
330
C
100
AcDbDictionary
281
     1
  3
A0
350
12B8
  3
A1
350
12B9
  3
A2
350
12BA
  3
A3
350
12BB
  3
A4
350
12BC
  3
A5
350
12BD
  3
A6
350
12BE
  3
A7
350
12BF
  3
A8
350
12C0
  3
A9
350
12C1
  3
B0
350
12C2
  3
B1
350
12C3
  3
B2
350
12C4
  3
B3
350
12C5
  3
B4
350
12C6
  3
B5
350
12C7
  3
B6
350
12C8
  3
B7
350
12C9
  3
B8
350
12CA
  3
B9
350
12CB
  3
C0
350
12CC
  3
C1
350
12CD
  3
C2
350
12CE
  3
C3
350
12CF
  3
C4
350
12D0
  3
C5
350
12D1
  3
C6
350
12D2
  3
C7
350
12D3
  3
C8
350
12D4
  3
C9
350
12D5
  3
D0
350
12D6
  3
D1
350
12D7
  3
D2
350
12D8
  0
DICTIONARY
  5
12B5
102
{ACAD_REACTORS
330
C
102
}
330
C
100
AcDbDictionary
281
     1
  3
Standard
350
12B6
  0
DICTIONARY
  5
12A3
102
{ACAD_REACTORS
330
C
102
}
330
C
100
AcDbDictionary
281
     1
  3
2dWireframe
350
12A9
  3
3D Hidden
350
12AB
  3
3dWireframe
350
12AA
  3
Basic
350
12A8
  3
Brighten
350
12AF
  3
ColorChange
350
12B3
  3
Conceptual
350
12AC
  3
Dim
350
12AE
  3
Facepattern
350
12B2
  3
Flat
350
12A4
  3
FlatWithEdges
350
12A5
  3
Gouraud
350
12A6
  3
GouraudWithEdges
350
12A7
  3
Linepattern
350
12B1
  3
Realistic
350
12AD
  3
Thicken
350
12B0
  0
XRECORD
  5
18D9
102
{ACAD_REACTORS
330
C
102
}
330
C
100
AcDbXrecord
280
     1
 90
        1
330
12B6
  0
DICTIONARY
  5
1898
102
{ACAD_REACTORS
330
C
102
}
330
C
100
AcDbDictionary
281
     1
  3
CANNOSCALE
350
189B
  3
CMLEADERSTYLE
350
189A
  3
CTABLESTYLE
350
1899
  3
DIMASSOC
350
189E
  3
INDEXCTL
350
189D
  3
SORTENTS
350
189C
  0
XRECORD
  5
1937
102
{ACAD_REACTORS
330
C
102
}
330
C
100
AcDbXrecord
280
     1
  1
DWGPROPS COOKIE
  2

  3

  4

  6

  7

  8
sefagings
  9

300
=
301
=
302
=
303
=
304
=
305
=
306
=
307
=
308
=
309
=
 40
0.0267335185185185
 41
2454644.605584514
 42
2454648.438197037
  1

 90
        0
  0
XRECORD
  5
18AC
102
{ACAD_REACTORS
330
18AB
102
}
330
18AB
100
AcDbXrecord
280
     1
290
     1
  0
XRECORD
  5
18AE
102
{ACAD_REACTORS
330
18AD
102
}
330
18AD
100
AcDbXrecord
280
     1
290
     1
  0
XRECORD
  5
18B0
102
{ACAD_REACTORS
330
18AF
102
}
330
18AF
100
AcDbXrecord
280
     1
290
     1
  0
XRECORD
  5
18B2
102
{ACAD_REACTORS
330
18B1
102
}
330
18B1
100
AcDbXrecord
280
     1
290
     1
  0
XRECORD
  5
18B4
102
{ACAD_REACTORS
330
18B3
102
}
330
18B3
100
AcDbXrecord
280
     1
290
     1
  0
XRECORD
  5
18B6
102
{ACAD_REACTORS
330
18B5
102
}
330
18B5
100
AcDbXrecord
280
     1
290
     1
  0
XRECORD
  5
18B8
102
{ACAD_REACTORS
330
18B7
102
}
330
18B7
100
AcDbXrecord
280
     1
290
     1
  0
XRECORD
  5
18BA
102
{ACAD_REACTORS
330
18B9
102
}
330
18B9
100
AcDbXrecord
280
     1
290
     1
  0
XRECORD
  5
18BC
102
{ACAD_REACTORS
330
18BB
102
}
330
18BB
100
AcDbXrecord
280
     1
290
     1
  0
XRECORD
  5
18BE
102
{ACAD_REACTORS
330
18BD
102
}
330
18BD
100
AcDbXrecord
280
     1
290
     1
  0
XRECORD
  5
18C0
102
{ACAD_REACTORS
330
18BF
102
}
330
18BF
100
AcDbXrecord
280
     1
290
     1
  0
XRECORD
  5
18C2
102
{ACAD_REACTORS
330
18C1
102
}
330
18C1
100
AcDbXrecord
280
     1
290
     1
  0
XRECORD
  5
18C4
102
{ACAD_REACTORS
330
18C3
102
}
330
18C3
100
AcDbXrecord
280
     1
290
     1
  0
XRECORD
  5
18C6
102
{ACAD_REACTORS
330
18C5
102
}
330
18C5
100
AcDbXrecord
280
     1
290
     1
  0
XRECORD
  5
18C8
102
{ACAD_REACTORS
330
18C7
102
}
330
18C7
100
AcDbXrecord
280
     1
290
     1
  0
XRECORD
  5
18C9
102
{ACAD_REACTORS
330
12E0
102
}
330
12E0
100
AcDbXrecord
280
     1
290
     1
  0
XRECORD
  5
18CA
102
{ACAD_REACTORS
330
12E2
102
}
330
12E2
100
AcDbXrecord
280
     1
290
     1
  0
LAYOUT
  5
E96
102
{ACAD_XDICTIONARY
360
193A
102
}
102
{ACAD_REACTORS
330
A85
102
}
330
A85
100
AcDbPlotSettings
  1

  2
\\SECO_TOOLS\Q_HP8100_WMM.LANDSKAP.PL1.HUS_A.FAGERSTA.SE.SECO_TOOLS
  4

  6

 40
0.0
 41
0.0
 42
0.0
 43
0.0
 44
0.0
 45
0.0
 46
0.0
 47
0.0
 48
0.0
 49
0.0
140
0.0
141
0.0
142
1.0
143
1.0
 70
   688
 72
     0
 73
     0
 74
     5
  7

 75
    16
147
1.0
148
0.0
149
0.0
100
AcDbLayout
  1
Layout1
 70
     0
 71
     1
 10
0.0
 20
0.0
 11
12.0
 21
9.0
 12
0.0
 22
0.0
 32
0.0
 14
1.000000000000000E+20
 24
1.000000000000000E+20
 34
1.000000000000000E+20
 15
-1.000000000000000E+20
 25
-1.000000000000000E+20
 35
-1.000000000000000E+20
146
0.0
 13
0.0
 23
0.0
 33
0.0
 16
1.0
 26
0.0
 36
0.0
 17
0.0
 27
1.0
 37
0.0
 76
     0
330
16
  0
LAYOUT
  5
E95
102
{ACAD_XDICTIONARY
360
1938
102
}
102
{ACAD_REACTORS
330
A85
102
}
330
A85
100
AcDbPlotSettings
  1

  2
\\SECO_TOOLS\Q_HP8100_WMM.LANDSKAP.PL1.HUS_A.FAGERSTA.SE.SECO_TOOLS
  4

  6

 40
0.0
 41
0.0
 42
0.0
 43
0.0
 44
0.0
 45
0.0
 46
0.0
 47
0.0
 48
0.0
 49
0.0
140
0.0
141
0.0
142
1.0
143
1.0
 70
  1712
 72
     0
 73
     0
 74
     0
  7

 75
     0
147
1.0
148
0.0
149
0.0
100
AcDbLayout
  1
Model
 70
     1
 71
     0
 10
0.0
 20
0.0
 11
12.0
 21
9.0
 12
0.0
 22
0.0
 32
0.0
 14
0.0
 24
0.0
 34
0.0
 15
0.0
 25
0.0
 35
0.0
146
0.0
 13
0.0
 23
0.0
 33
0.0
 16
1.0
 26
0.0
 36
0.0
 17
0.0
 27
1.0
 37
0.0
 76
     0
330
19
331
1288
  0
MATERIAL
  5
1293
102
{ACAD_XDICTIONARY
360
1294
102
}
102
{ACAD_REACTORS
330
128A
102
}
330
128A
100
AcDbMaterial
  1
ByBlock
 72
     0
 43
0.0208333333333333
 43
0.0
 43
0.0
 43
0.0
 43
0.0
 43
0.0208333333333333
 43
0.0
 43
0.0
 43
0.0
 43
0.0
 43
1.0
 43
0.0
 43
0.0
 43
0.0
 43
0.0
 43
1.0
 77
     0
 47
0.0208333333333333
 47
0.0
 47
0.0
 47
0.0
 47
0.0
 47
0.0208333333333333
 47
0.0
 47
0.0
 47
0.0
 47
0.0
 47
1.0
 47
0.0
 47
0.0
 47
0.0
 47
0.0
 47
1.0
171
     0
 49
0.0208333333333333
 49
0.0
 49
0.0
 49
0.0
 49
0.0
 49
0.0208333333333333
 49
0.0
 49
0.0
 49
0.0
 49
0.0
 49
1.0
 49
0.0
 49
0.0
 49
0.0
 49
0.0
 49
1.0
175
     0
142
0.0208333333333333
142
0.0
142
0.0
142
0.0
142
0.0
142
0.0208333333333333
142
0.0
142
0.0
142
0.0
142
0.0
142
1.0
142
0.0
142
0.0
142
0.0
142
0.0
142
1.0
179
     0
144
0.0208333333333333
144
0.0
144
0.0
144
0.0
144
0.0
144
0.0208333333333333
144
0.0
144
0.0
144
0.0
144
0.0
144
1.0
144
0.0
144
0.0
144
0.0
144
0.0
144
1.0
147
0.0208333333333333
147
0.0
147
0.0
147
0.0
147
0.0
147
0.0208333333333333
147
0.0
147
0.0
147
0.0
147
0.0
147
1.0
147
0.0
147
0.0
147
0.0
147
0.0
147
1.0
  0
MATERIAL
  5
128B
102
{ACAD_XDICTIONARY
360
128C
102
}
102
{ACAD_REACTORS
330
128A
102
}
330
128A
100
AcDbMaterial
  1
ByLayer
 72
     0
 43
0.0208333333333333
 43
0.0
 43
0.0
 43
0.0
 43
0.0
 43
0.0208333333333333
 43
0.0
 43
0.0
 43
0.0
 43
0.0
 43
1.0
 43
0.0
 43
0.0
 43
0.0
 43
0.0
 43
1.0
 77
     0
 47
0.0208333333333333
 47
0.0
 47
0.0
 47
0.0
 47
0.0
 47
0.0208333333333333
 47
0.0
 47
0.0
 47
0.0
 47
0.0
 47
1.0
 47
0.0
 47
0.0
 47
0.0
 47
0.0
 47
1.0
171
     0
 49
0.0208333333333333
 49
0.0
 49
0.0
 49
0.0
 49
0.0
 49
0.0208333333333333
 49
0.0
 49
0.0
 49
0.0
 49
0.0
 49
1.0
 49
0.0
 49
0.0
 49
0.0
 49
0.0
 49
1.0
175
     0
142
0.0208333333333333
142
0.0
142
0.0
142
0.0
142
0.0
142
0.0208333333333333
142
0.0
142
0.0
142
0.0
142
0.0
142
1.0
142
0.0
142
0.0
142
0.0
142
0.0
142
1.0
179
     0
144
0.0208333333333333
144
0.0
144
0.0
144
0.0
144
0.0
144
0.0208333333333333
144
0.0
144
0.0
144
0.0
144
0.0
144
1.0
144
0.0
144
0.0
144
0.0
144
0.0
144
1.0
147
0.0208333333333333
147
0.0
147
0.0
147
0.0
147
0.0
147
0.0208333333333333
147
0.0
147
0.0
147
0.0
147
0.0
147
1.0
147
0.0
147
0.0
147
0.0
147
0.0
147
1.0
  0
MATERIAL
  5
129B
102
{ACAD_XDICTIONARY
360
129C
102
}
102
{ACAD_REACTORS
330
128A
102
}
330
128A
100
AcDbMaterial
  1
Global
 72
     0
 43
0.0208333333333333
 43
0.0
 43
0.0
 43
0.0
 43
0.0
 43
0.0208333333333333
 43
0.0
 43
0.0
 43
0.0
 43
0.0
 43
1.0
 43
0.0
 43
0.0
 43
0.0
 43
0.0
 43
1.0
 77
     0
 47
0.0208333333333333
 47
0.0
 47
0.0
 47
0.0
 47
0.0
 47
0.0208333333333333
 47
0.0
 47
0.0
 47
0.0
 47
0.0
 47
1.0
 47
0.0
 47
0.0
 47
0.0
 47
0.0
 47
1.0
171
     0
 49
0.0208333333333333
 49
0.0
 49
0.0
 49
0.0
 49
0.0
 49
0.0208333333333333
 49
0.0
 49
0.0
 49
0.0
 49
0.0
 49
1.0
 49
0.0
 49
0.0
 49
0.0
 49
0.0
 49
1.0
175
     0
142
0.0208333333333333
142
0.0
142
0.0
142
0.0
142
0.0
142
0.0208333333333333
142
0.0
142
0.0
142
0.0
142
0.0
142
1.0
142
0.0
142
0.0
142
0.0
142
0.0
142
1.0
179
     0
144
0.0208333333333333
144
0.0
144
0.0
144
0.0
144
0.0
144
0.0208333333333333
144
0.0
144
0.0
144
0.0
144
0.0
144
1.0
144
0.0
144
0.0
144
0.0
144
0.0
144
1.0
147
0.0208333333333333
147
0.0
147
0.0
147
0.0
147
0.0
147
0.0208333333333333
147
0.0
147
0.0
147
0.0
147
0.0
147
1.0
147
0.0
147
0.0
147
0.0
147
0.0
147
1.0
  0
MLEADERSTYLE
  5
12DA
102
{ACAD_REACTORS
330
12D9
102
}
330
12D9
100
AcDbMLeaderStyle
170
     2
171
     1
172
     0
 90
        2
 40
0.0
 41
0.0
173
     1
 91
-1056964608
340
13
 92
       -2
290
     1
 42
2.0
291
     1
 43
0.36
  3
Standard
 44
4.0
300

342
10
174
     1
178
     6
175
     1
176
     0
 93
-1056964608
 45
4.0
292
     0
297
     0
 46
4.0
 94
-1056964608
 47
1.0
 49
1.0
140
1.0
293
     1
141
0.0
294
     1
177
     0
142
1.0
295
     0
296
     0
143
0.125
1001
ACAD_MLEADERVER
1070
     2
  0
MLINESTYLE
  5
1C
102
{ACAD_REACTORS
330
E
102
}
330
E
100
AcDbMlineStyle
  2
STANDARD
 70
     0
  3

 62
     0
 51
90.0
 52
90.0
 71
     2
 49
0.5
 62
   256
  6
BYLAYER
 49
-0.5
 62
   256
  6
BYLAYER
  0
ACDBPLACEHOLDER
  5
E94
102
{ACAD_REACTORS
330
E93
102
}
330
E93
  0
SCALE
  5
12B8
102
{ACAD_REACTORS
330
12B7
102
}
330
12B7
100
AcDbScale
 70
     0
300
1:1
140
1.0
141
1.0
290
     1
  0
SCALE
  5
12B9
102
{ACAD_REACTORS
330
12B7
102
}
330
12B7
100
AcDbScale
 70
     0
300
1:2
140
1.0
141
2.0
290
     0
  0
SCALE
  5
12BA
102
{ACAD_REACTORS
330
12B7
102
}
330
12B7
100
AcDbScale
 70
     0
300
1:4
140
1.0
141
4.0
290
     0
  0
SCALE
  5
12BB
102
{ACAD_REACTORS
330
12B7
102
}
330
12B7
100
AcDbScale
 70
     0
300
1:5
140
1.0
141
5.0
290
     0
  0
SCALE
  5
12BC
102
{ACAD_REACTORS
330
12B7
102
}
330
12B7
100
AcDbScale
 70
     0
300
1:8
140
1.0
141
8.0
290
     0
  0
SCALE
  5
12BD
102
{ACAD_REACTORS
330
12B7
102
}
330
12B7
100
AcDbScale
 70
     0
300
1:10
140
1.0
141
10.0
290
     0
  0
SCALE
  5
12BE
102
{ACAD_REACTORS
330
12B7
102
}
330
12B7
100
AcDbScale
 70
     0
300
1:16
140
1.0
141
16.0
290
     0
  0
SCALE
  5
12BF
102
{ACAD_REACTORS
330
12B7
102
}
330
12B7
100
AcDbScale
 70
     0
300
1:20
140
1.0
141
20.0
290
     0
  0
SCALE
  5
12C0
102
{ACAD_REACTORS
330
12B7
102
}
330
12B7
100
AcDbScale
 70
     0
300
1:30
140
1.0
141
30.0
290
     0
  0
SCALE
  5
12C1
102
{ACAD_REACTORS
330
12B7
102
}
330
12B7
100
AcDbScale
 70
     0
300
1:40
140
1.0
141
40.0
290
     0
  0
SCALE
  5
12C2
102
{ACAD_REACTORS
330
12B7
102
}
330
12B7
100
AcDbScale
 70
     0
300
1:50
140
1.0
141
50.0
290
     0
  0
SCALE
  5
12C3
102
{ACAD_REACTORS
330
12B7
102
}
330
12B7
100
AcDbScale
 70
     0
300
1:100
140
1.0
141
100.0
290
     0
  0
SCALE
  5
12C4
102
{ACAD_REACTORS
330
12B7
102
}
330
12B7
100
AcDbScale
 70
     0
300
2:1
140
2.0
141
1.0
290
     0
  0
SCALE
  5
12C5
102
{ACAD_REACTORS
330
12B7
102
}
330
12B7
100
AcDbScale
 70
     0
300
4:1
140
4.0
141
1.0
290
     0
  0
SCALE
  5
12C6
102
{ACAD_REACTORS
330
12B7
102
}
330
12B7
100
AcDbScale
 70
     0
300
8:1
140
8.0
141
1.0
290
     0
  0
SCALE
  5
12C7
102
{ACAD_REACTORS
330
12B7
102
}
330
12B7
100
AcDbScale
 70
     0
300
10:1
140
10.0
141
1.0
290
     0
  0
SCALE
  5
12C8
102
{ACAD_REACTORS
330
12B7
102
}
330
12B7
100
AcDbScale
 70
     0
300
100:1
140
100.0
141
1.0
290
     0
  0
SCALE
  5
12C9
102
{ACAD_REACTORS
330
12B7
102
}
330
12B7
100
AcDbScale
 70
     0
300
1/128" = 1'-0"
140
0.0078125
141
12.0
290
     0
  0
SCALE
  5
12CA
102
{ACAD_REACTORS
330
12B7
102
}
330
12B7
100
AcDbScale
 70
     0
300
1/64" = 1'-0"
140
0.015625
141
12.0
290
     0
  0
SCALE
  5
12CB
102
{ACAD_REACTORS
330
12B7
102
}
330
12B7
100
AcDbScale
 70
     0
300
1/32" = 1'-0"
140
0.03125
141
12.0
290
     0
  0
SCALE
  5
12CC
102
{ACAD_REACTORS
330
12B7
102
}
330
12B7
100
AcDbScale
 70
     0
300
1/16" = 1'-0"
140
0.0625
141
12.0
290
     0
  0
SCALE
  5
12CD
102
{ACAD_REACTORS
330
12B7
102
}
330
12B7
100
AcDbScale
 70
     0
300
3/32" = 1'-0"
140
0.09375
141
12.0
290
     0
  0
SCALE
  5
12CE
102
{ACAD_REACTORS
330
12B7
102
}
330
12B7
100
AcDbScale
 70
     0
300
1/8" = 1'-0"
140
0.125
141
12.0
290
     0
  0
SCALE
  5
12CF
102
{ACAD_REACTORS
330
12B7
102
}
330
12B7
100
AcDbScale
 70
     0
300
3/16" = 1'-0"
140
0.1875
141
12.0
290
     0
  0
SCALE
  5
12D0
102
{ACAD_REACTORS
330
12B7
102
}
330
12B7
100
AcDbScale
 70
     0
300
1/4" = 1'-0"
140
0.25
141
12.0
290
     0
  0
SCALE
  5
12D1
102
{ACAD_REACTORS
330
12B7
102
}
330
12B7
100
AcDbScale
 70
     0
300
3/8" = 1'-0"
140
0.375
141
12.0
290
     0
  0
SCALE
  5
12D2
102
{ACAD_REACTORS
330
12B7
102
}
330
12B7
100
AcDbScale
 70
     0
300
1/2" = 1'-0"
140
0.5
141
12.0
290
     0
  0
SCALE
  5
12D3
102
{ACAD_REACTORS
330
12B7
102
}
330
12B7
100
AcDbScale
 70
     0
300
3/4" = 1'-0"
140
0.75
141
12.0
290
     0
  0
SCALE
  5
12D4
102
{ACAD_REACTORS
330
12B7
102
}
330
12B7
100
AcDbScale
 70
     0
300
1" = 1'-0"
140
1.0
141
12.0
290
     0
  0
SCALE
  5
12D5
102
{ACAD_REACTORS
330
12B7
102
}
330
12B7
100
AcDbScale
 70
     0
300
1-1/2" = 1'-0"
140
1.5
141
12.0
290
     0
  0
SCALE
  5
12D6
102
{ACAD_REACTORS
330
12B7
102
}
330
12B7
100
AcDbScale
 70
     0
300
3" = 1'-0"
140
3.0
141
12.0
290
     0
  0
SCALE
  5
12D7
102
{ACAD_REACTORS
330
12B7
102
}
330
12B7
100
AcDbScale
 70
     0
300
6" = 1'-0"
140
6.0
141
12.0
290
     0
  0
SCALE
  5
12D8
102
{ACAD_REACTORS
330
12B7
102
}
330
12B7
100
AcDbScale
 70
     0
300
1'-0" = 1'-0"
140
12.0
141
12.0
290
     0
  0
TABLESTYLE
  5
12B6
102
{ACAD_XDICTIONARY
360
18D7
102
}
102
{ACAD_REACTORS
330
12B5
102
}
330
12B5
100
AcDbTableStyle
  3
Standard
 70
     0
 71
     0
 40
1.5
 41
1.5
280
     0
281
     0
  7
STANDARD
140
4.5
170
     2
 62
     0
 63
     7
283
     0
274
    -2
284
     1
 64
     0
275
    -2
285
     1
 65
     0
276
    -2
286
     1
 66
     0
277
    -2
287
     1
 67
     0
278
    -2
288
     1
 68
     0
279
    -2
289
     1
 69
     0
  7
STANDARD
140
6.0
170
     5
 62
     0
 63
     7
283
     0
274
    -2
284
     1
 64
     0
275
    -2
285
     1
 65
     0
276
    -2
286
     1
 66
     0
277
    -2
287
     1
 67
     0
278
    -2
288
     1
 68
     0
279
    -2
289
     1
 69
     0
  7
STANDARD
140
4.5
170
     5
 62
     0
 63
     7
283
     0
274
    -2
284
     1
 64
     0
275
    -2
285
     1
 65
     0
276
    -2
286
     1
 66
     0
277
    -2
287
     1
 67
     0
278
    -2
288
     1
 68
     0
279
    -2
289
     1
 69
     0
  0
VISUALSTYLE
  5
12A9
102
{ACAD_REACTORS
330
12A3
102
}
330
12A3
100
AcDbVisualStyle
  2
2dWireframe
 70
     4
 71
     0
 72
     2
 73
     0
 90
        0
 40
-0.6
 41
-30.0
 62
     5
 63
     7
 74
     1
 91
        4
 64
     7
 65
   257
 75
     1
175
     1
 42
1.0
 92
        0
 66
   257
 43
1.0
 76
     1
 77
     6
 78
     2
 67
     7
 79
     5
170
     0
171
     0
290
     0
174
     0
 93
        1
 44
0.0
173
     0
291
     0
 45
0.0
1001
ACAD
1000
AcDbSavedByObjectVersion
1070
     0
1000
AcDbSavedByObjectVersion
1070
     0
1000
AcDbSavedByObjectVersion
1070
     0
  0
VISUALSTYLE
  5
12AB
102
{ACAD_REACTORS
330
12A3
102
}
330
12A3
100
AcDbVisualStyle
  2
3D Hidden
 70
     6
 71
     1
 72
     2
 73
     2
 90
        0
 40
-0.6
 41
-30.0
 62
     5
 63
     7
 74
     2
 91
        2
 64
     7
 65
   257
 75
     2
175
     1
 42
40.0
 92
        0
 66
   257
 43
1.0
 76
     1
 77
     6
 78
     2
 67
     7
 79
     3
170
     0
171
     0
290
     0
174
     0
 93
        1
 44
0.0
173
     0
291
     0
 45
0.0
1001
ACAD
1000
AcDbSavedByObjectVersion
1070
     0
1000
AcDbSavedByObjectVersion
1070
     0
1000
AcDbSavedByObjectVersion
1070
     0
  0
VISUALSTYLE
  5
12AA
102
{ACAD_REACTORS
330
12A3
102
}
330
12A3
100
AcDbVisualStyle
  2
3dWireframe
 70
     5
 71
     0
 72
     2
 73
     0
 90
        0
 40
-0.6
 41
-30.0
 62
     5
 63
     7
 74
     1
 91
        4
 64
     7
 65
   257
 75
     1
175
     1
 42
1.0
 92
        0
 66
   257
 43
1.0
 76
     1
 77
     6
 78
     2
 67
     7
 79
     5
170
     0
171
     0
290
     0
174
     0
 93
        1
 44
0.0
173
     0
291
     0
 45
0.0
1001
ACAD
1000
AcDbSavedByObjectVersion
1070
     0
1000
AcDbSavedByObjectVersion
1070
     0
1000
AcDbSavedByObjectVersion
1070
     0
  0
VISUALSTYLE
  5
12A8
102
{ACAD_REACTORS
330
12A3
102
}
330
12A3
100
AcDbVisualStyle
  2
Basic
 70
     7
 71
     1
 72
     0
 73
     1
 90
        0
 40
-0.6
 41
-30.0
 62
     5
 63
     7
 74
     0
 91
        4
 64
     7
 65
   257
 75
     1
175
     1
 42
1.0
 92
        8
 66
     7
 43
1.0
 76
     1
 77
     6
 78
     2
 67
     7
 79
     5
170
     0
171
     0
290
     0
174
     0
 93
        1
 44
0.0
173
     0
291
     1
 45
0.0
1001
ACAD
1000
AcDbSavedByObjectVersion
1070
     0
1000
AcDbSavedByObjectVersion
1070
     0
1000
AcDbSavedByObjectVersion
1070
     0
  0
VISUALSTYLE
  5
12AF
102
{ACAD_REACTORS
330
12A3
102
}
330
12A3
100
AcDbVisualStyle
  2
Brighten
 70
    12
 71
     2
 72
     2
 73
     0
 90
        0
 40
-0.6
 41
-30.0
 62
     5
 63
     7
 74
     1
 91
        4
 64
     7
 65
   257
 75
     1
175
     1
 42
1.0
 92
        8
 66
     7
 43
1.0
 76
     1
 77
     6
 78
     2
 67
     7
 79
     5
170
     0
171
     0
290
     0
174
     0
 93
        1
 44
50.0
173
     0
291
     1
 45
0.0
1001
ACAD
1000
AcDbSavedByObjectVersion
1070
     0
1000
AcDbSavedByObjectVersion
1070
     0
1000
AcDbSavedByObjectVersion
1070
     0
  0
VISUALSTYLE
  5
12B3
102
{ACAD_REACTORS
330
12A3
102
}
330
12A3
100
AcDbVisualStyle
  2
ColorChange
 70
    16
 71
     2
 72
     2
 73
     3
 90
        0
 40
-0.6
 41
-30.0
 62
     5
 63
     8
 74
     1
 91
        4
 64
     7
 65
   257
 75
     1
175
     1
 42
1.0
 92
        8
 66
     8
 43
1.0
 76
     1
 77
     6
 78
     2
 67
     7
 79
     5
170
     0
171
     0
290
     0
174
     0
 93
        1
 44
0.0
173
     0
291
     1
 45
0.0
1001
ACAD
1000
AcDbSavedByObjectVersion
1070
     0
1000
AcDbSavedByObjectVersion
1070
     0
1000
AcDbSavedByObjectVersion
1070
     0
  0
VISUALSTYLE
  5
12AC
102
{ACAD_REACTORS
330
12A3
102
}
330
12A3
100
AcDbVisualStyle
  2
Conceptual
 70
     9
 71
     3
 72
     2
 73
     0
 90
        0
 40
-0.6
 41
-30.0
 62
     5
 63
     7
 74
     2
 91
        2
 64
     7
 65
   257
 75
     1
175
     1
 42
40.0
 92
        8
 66
     7
 43
1.0
 76
     1
 77
     6
 78
     2
 67
     7
 79
     3
170
     0
171
     0
290
     0
174
     0
 93
        1
 44
0.0
173
     0
291
     0
 45
0.0
1001
ACAD
1000
AcDbSavedByObjectVersion
1070
     0
1000
AcDbSavedByObjectVersion
1070
     0
1000
AcDbSavedByObjectVersion
1070
     0
  0
VISUALSTYLE
  5
12AE
102
{ACAD_REACTORS
330
12A3
102
}
330
12A3
100
AcDbVisualStyle
  2
Dim
 70
    11
 71
     2
 72
     2
 73
     0
 90
        0
 40
-0.6
 41
-30.0
 62
     5
 63
     7
 74
     1
 91
        4
 64
     7
 65
   257
 75
     1
175
     1
 42
1.0
 92
        8
 66
     7
 43
1.0
 76
     1
 77
     6
 78
     2
 67
     7
 79
     5
170
     0
171
     0
290
     0
174
     0
 93
        1
 44
-50.0
173
     0
291
     1
 45
0.0
1001
ACAD
1000
AcDbSavedByObjectVersion
1070
     0
1000
AcDbSavedByObjectVersion
1070
     0
1000
AcDbSavedByObjectVersion
1070
     0
  0
VISUALSTYLE
  5
12B2
102
{ACAD_REACTORS
330
12A3
102
}
330
12A3
100
AcDbVisualStyle
  2
Facepattern
 70
    15
 71
     2
 72
     2
 73
     0
 90
        0
 40
-0.6
 41
-30.0
 62
     5
 63
     7
 74
     1
 91
        4
 64
     7
 65
   257
 75
     1
175
     1
 42
1.0
 92
        8
 66
     7
 43
1.0
 76
     1
 77
     6
 78
     2
 67
     7
 79
     5
170
     0
171
     0
290
     0
174
     0
 93
        1
 44
0.0
173
     0
291
     1
 45
0.0
1001
ACAD
1000
AcDbSavedByObjectVersion
1070
     0
1000
AcDbSavedByObjectVersion
1070
     0
1000
AcDbSavedByObjectVersion
1070
     0
  0
VISUALSTYLE
  5
12A4
102
{ACAD_REACTORS
330
12A3
102
}
330
12A3
100
AcDbVisualStyle
  2
Flat
 70
     0
 71
     2
 72
     1
 73
     1
 90
        2
 40
-0.6
 41
30.0
 62
     5
 63
     7
 74
     0
 91
        4
 64
     7
 65
   257
 75
     1
175
     1
 42
1.0
 92
        8
 66
     7
 43
1.0
 76
     1
 77
     6
 78
     2
 67
     7
 79
     5
170
     0
171
     0
290
     0
174
     0
 93
       13
 44
0.0
173
     0
291
     1
 45
0.0
1001
ACAD
1000
AcDbSavedByObjectVersion
1070
     0
1000
AcDbSavedByObjectVersion
1070
     0
1000
AcDbSavedByObjectVersion
1070
     0
  0
VISUALSTYLE
  5
12A5
102
{ACAD_REACTORS
330
12A3
102
}
330
12A3
100
AcDbVisualStyle
  2
FlatWithEdges
 70
     1
 71
     2
 72
     1
 73
     1
 90
        2
 40
-0.6
 41
30.0
 62
     5
 63
     7
 74
     1
 91
        4
 64
     7
 65
   257
 75
     1
175
     1
 42
1.0
 92
        0
 66
   257
 43
1.0
 76
     1
 77
     6
 78
     2
 67
     7
 79
     5
170
     0
171
     0
290
     0
174
     0
 93
       13
 44
0.0
173
     0
291
     1
 45
0.0
1001
ACAD
1000
AcDbSavedByObjectVersion
1070
     0
1000
AcDbSavedByObjectVersion
1070
     0
1000
AcDbSavedByObjectVersion
1070
     0
  0
VISUALSTYLE
  5
12A6
102
{ACAD_REACTORS
330
12A3
102
}
330
12A3
100
AcDbVisualStyle
  2
Gouraud
 70
     2
 71
     2
 72
     2
 73
     1
 90
        2
 40
-0.6
 41
30.0
 62
     5
 63
     7
 74
     0
 91
        4
 64
     7
 65
   257
 75
     1
175
     1
 42
1.0
 92
        0
 66
     7
 43
1.0
 76
     1
 77
     6
 78
     2
 67
     7
 79
     5
170
     0
171
     0
290
     0
174
     0
 93
       13
 44
0.0
173
     0
291
     1
 45
0.0
1001
ACAD
1000
AcDbSavedByObjectVersion
1070
     0
1000
AcDbSavedByObjectVersion
1070
     0
1000
AcDbSavedByObjectVersion
1070
     0
  0
VISUALSTYLE
  5
12A7
102
{ACAD_REACTORS
330
12A3
102
}
330
12A3
100
AcDbVisualStyle
  2
GouraudWithEdges
 70
     3
 71
     2
 72
     2
 73
     1
 90
        2
 40
-0.6
 41
30.0
 62
     5
 63
     7
 74
     1
 91
        4
 64
     7
 65
   257
 75
     1
175
     1
 42
1.0
 92
        0
 66
   257
 43
1.0
 76
     1
 77
     6
 78
     2
 67
     7
 79
     5
170
     0
171
     0
290
     0
174
     0
 93
       13
 44
0.0
173
     0
291
     1
 45
0.0
1001
ACAD
1000
AcDbSavedByObjectVersion
1070
     0
1000
AcDbSavedByObjectVersion
1070
     0
1000
AcDbSavedByObjectVersion
1070
     0
  0
VISUALSTYLE
  5
12B1
102
{ACAD_REACTORS
330
12A3
102
}
330
12A3
100
AcDbVisualStyle
  2
Linepattern
 70
    14
 71
     2
 72
     2
 73
     0
 90
        0
 40
-0.6
 41
-30.0
 62
     5
 63
     7
 74
     1
 91
        4
 64
     7
 65
   257
 75
     7
175
     7
 42
1.0
 92
        8
 66
     7
 43
1.0
 76
     1
 77
     6
 78
     2
 67
     7
 79
     5
170
     0
171
     0
290
     0
174
     0
 93
        1
 44
0.0
173
     0
291
     1
 45
0.0
1001
ACAD
1000
AcDbSavedByObjectVersion
1070
     0
1000
AcDbSavedByObjectVersion
1070
     0
1000
AcDbSavedByObjectVersion
1070
     0
  0
VISUALSTYLE
  5
12AD
102
{ACAD_REACTORS
330
12A3
102
}
330
12A3
100
AcDbVisualStyle
  2
Realistic
 70
     8
 71
     2
 72
     2
 73
     0
 90
        0
 40
-0.6
 41
-30.0
 62
     5
 63
     7
 74
     1
 91
        0
 64
     7
 65
   257
 75
     1
175
     1
 42
1.0
 92
        8
 66
     8
 43
1.0
 76
     1
 77
     6
 78
     2
 67
     7
 79
     5
170
     0
171
     0
290
     0
174
     0
 93
       13
 44
0.0
173
     0
291
     0
 45
0.0
1001
ACAD
1000
AcDbSavedByObjectVersion
1070
     0
1000
AcDbSavedByObjectVersion
1070
     0
1000
AcDbSavedByObjectVersion
1070
     0
  0
VISUALSTYLE
  5
12B0
102
{ACAD_REACTORS
330
12A3
102
}
330
12A3
100
AcDbVisualStyle
  2
Thicken
 70
    13
 71
     2
 72
     2
 73
     0
 90
        0
 40
-0.6
 41
-30.0
 62
     5
 63
     7
 74
     1
 91
        4
 64
     7
 65
   257
 75
     1
175
     1
 42
1.0
 92
       12
 66
     7
 43
1.0
 76
     1
 77
     6
 78
     2
 67
     7
 79
     5
170
     0
171
     0
290
     0
174
     0
 93
        1
 44
0.0
173
     0
291
     1
 45
0.0
1001
ACAD
1000
AcDbSavedByObjectVersion
1070
     0
1000
AcDbSavedByObjectVersion
1070
     0
1000
AcDbSavedByObjectVersion
1070
     0
  0
DICTIONARYVAR
  5
189B
102
{ACAD_REACTORS
330
1898
102
}
330
1898
100
DictionaryVariables
280
     0
  1
1:1
  0
DICTIONARYVAR
  5
189A
102
{ACAD_REACTORS
330
1898
102
}
330
1898
100
DictionaryVariables
280
     0
  1
STANDARD
  0
DICTIONARYVAR
  5
1899
102
{ACAD_REACTORS
330
1898
102
}
330
1898
100
DictionaryVariables
280
     0
  1
STANDARD
  0
DICTIONARYVAR
  5
189E
102
{ACAD_REACTORS
330
1898
102
}
330
1898
100
DictionaryVariables
280
     0
  1
1
  0
DICTIONARYVAR
  5
189D
102
{ACAD_REACTORS
330
1898
102
}
330
1898
100
DictionaryVariables
280
     0
  1
0
  0
DICTIONARYVAR
  5
189C
102
{ACAD_REACTORS
330
1898
102
}
330
1898
100
DictionaryVariables
280
     0
  1
127
  0
DICTIONARY
  5
193A
330
E96
100
AcDbDictionary
280
     1
281
     1
  3
ACAD_XREC_ROUNDTRIP
360
193B
  0
DICTIONARY
  5
1938
330
E95
100
AcDbDictionary
280
     1
281
     1
  3
ACAD_XREC_ROUNDTRIP
360
1939
  0
DICTIONARY
  5
1294
330
1293
100
AcDbDictionary
280
     1
281
     1
  3
ACAD_XREC_ROUNDTRIP
360
18E0
  3
BUMPTILE
360
1296
  3
DIFFUSETILE
360
1295
  3
OPACITYTILE
360
1299
  3
REFLECTIONTILE
360
1298
  3
REFRACTIONTILE
360
129A
  3
SPECULARTILE
360
1297
  0
DICTIONARY
  5
128C
330
128B
100
AcDbDictionary
280
     1
281
     1
  3
ACAD_XREC_ROUNDTRIP
360
18DF
  3
BUMPTILE
360
128E
  3
DIFFUSETILE
360
128D
  3
OPACITYTILE
360
1291
  3
REFLECTIONTILE
360
1290
  3
REFRACTIONTILE
360
1292
  3
SPECULARTILE
360
128F
  0
DICTIONARY
  5
129C
330
129B
100
AcDbDictionary
280
     1
281
     1
  3
ACAD_XREC_ROUNDTRIP
360
18E1
  3
BUMPTILE
360
129E
  3
DIFFUSETILE
360
129D
  3
OPACITYTILE
360
12A1
  3
REFLECTIONTILE
360
12A0
  3
REFRACTIONTILE
360
12A2
  3
SPECULARTILE
360
129F
  0
DICTIONARY
  5
18D7
330
12B6
100
AcDbDictionary
280
     1
281
     1
  3
ACAD_ROUNDTRIP_2008_TABLESTYLE_CELLSTYLEMAP
360
1936
  3
ACAD_XREC_ROUNDTRIP
360
193C
  0
XRECORD
  5
193B
102
{ACAD_REACTORS
330
193A
102
}
330
193A
100
AcDbXrecord
280
     1
102
SHADEPLOT
 70
     0
102
SHADEPLOTRESLEVEL
 70
     2
102
SHADEPLOTCUSTOMDPI
 70
   300
  0
XRECORD
  5
1939
102
{ACAD_REACTORS
330
1938
102
}
330
1938
100
AcDbXrecord
280
     1
102
SHADEPLOT
 70
     0
102
SHADEPLOTRESLEVEL
 70
     2
102
SHADEPLOTCUSTOMDPI
 70
   300
  0
XRECORD
  5
18E0
102
{ACAD_REACTORS
330
1294
102
}
330
1294
100
AcDbXrecord
280
     1
102
MATERIAL
148
0.0
149
0.0
149
0.0
 93
        0
 94
      127
282
     0
 72
     0
 77
     0
171
     0
175
     0
179
     0
273
     0
  0
XRECORD
  5
1296
102
{ACAD_REACTORS
330
1294
102
}
330
1294
100
AcDbXrecord
280
     1
270
     1
271
     1
  0
XRECORD
  5
1295
102
{ACAD_REACTORS
330
1294
102
}
330
1294
100
AcDbXrecord
280
     1
270
     1
271
     1
  0
XRECORD
  5
1299
102
{ACAD_REACTORS
330
1294
102
}
330
1294
100
AcDbXrecord
280
     1
270
     1
271
     1
  0
XRECORD
  5
1298
102
{ACAD_REACTORS
330
1294
102
}
330
1294
100
AcDbXrecord
280
     1
270
     1
271
     1
  0
XRECORD
  5
129A
102
{ACAD_REACTORS
330
1294
102
}
330
1294
100
AcDbXrecord
280
     1
270
     1
271
     1
  0
XRECORD
  5
1297
102
{ACAD_REACTORS
330
1294
102
}
330
1294
100
AcDbXrecord
280
     1
270
     1
271
     1
  0
XRECORD
  5
18DF
102
{ACAD_REACTORS
330
128C
102
}
330
128C
100
AcDbXrecord
280
     1
102
MATERIAL
148
0.0
149
0.0
149
0.0
 93
        0
 94
      127
282
     0
 72
     0
 77
     0
171
     0
175
     0
179
     0
273
     0
  0
XRECORD
  5
128E
102
{ACAD_REACTORS
330
128C
102
}
330
128C
100
AcDbXrecord
280
     1
270
     1
271
     1
  0
XRECORD
  5
128D
102
{ACAD_REACTORS
330
128C
102
}
330
128C
100
AcDbXrecord
280
     1
270
     1
271
     1
  0
XRECORD
  5
1291
102
{ACAD_REACTORS
330
128C
102
}
330
128C
100
AcDbXrecord
280
     1
270
     1
271
     1
  0
XRECORD
  5
1290
102
{ACAD_REACTORS
330
128C
102
}
330
128C
100
AcDbXrecord
280
     1
270
     1
271
     1
  0
XRECORD
  5
1292
102
{ACAD_REACTORS
330
128C
102
}
330
128C
100
AcDbXrecord
280
     1
270
     1
271
     1
  0
XRECORD
  5
128F
102
{ACAD_REACTORS
330
128C
102
}
330
128C
100
AcDbXrecord
280
     1
270
     1
271
     1
  0
XRECORD
  5
18E1
102
{ACAD_REACTORS
330
129C
102
}
330
129C
100
AcDbXrecord
280
     1
102
MATERIAL
148
0.0
149
0.0
149
0.0
 93
        0
 94
      127
282
     0
 72
     0
 77
     0
171
     0
175
     0
179
     0
273
     0
  0
XRECORD
  5
129E
102
{ACAD_REACTORS
330
129C
102
}
330
129C
100
AcDbXrecord
280
     1
270
     1
271
     1
  0
XRECORD
  5
129D
102
{ACAD_REACTORS
330
129C
102
}
330
129C
100
AcDbXrecord
280
     1
270
     1
271
     1
  0
XRECORD
  5
12A1
102
{ACAD_REACTORS
330
129C
102
}
330
129C
100
AcDbXrecord
280
     1
270
     1
271
     1
  0
XRECORD
  5
12A0
102
{ACAD_REACTORS
330
129C
102
}
330
129C
100
AcDbXrecord
280
     1
270
     1
271
     1
  0
XRECORD
  5
12A2
102
{ACAD_REACTORS
330
129C
102
}
330
129C
100
AcDbXrecord
280
     1
270
     1
271
     1
  0
XRECORD
  5
129F
102
{ACAD_REACTORS
330
129C
102
}
330
129C
100
AcDbXrecord
280
     1
270
     1
271
     1
  0
CELLSTYLEMAP
  5
1936
102
{ACAD_REACTORS
330
18D7
102
}
330
18D7
100
AcDbCellStyleMap
 90
        3
300
CELLSTYLE
  1
TABLEFORMAT_BEGIN
 90
        5
170
     1
 91
        0
 92
    32768
 62
   257
 93
        1
300
CONTENTFORMAT
  1
CONTENTFORMAT_BEGIN
 90
        0
 91
        0
 92
      512
 93
        0
300

 40
0.0
140
1.0
 94
        5
 62
     0
340
10
144
6.0
309
CONTENTFORMAT_END
171
     1
301
MARGIN
  1
CELLMARGIN_BEGIN
 40
1.5
 40
1.5
 40
1.5
 40
1.5
 40
0.18
 40
0.18
309
CELLMARGIN_END
 94
        6
 95
        1
302
GRIDFORMAT
  1
GRIDFORMAT_BEGIN
 90
        0
 91
        1
 62
     0
 92
       -2
340
0
 93
        0
 40
1.125
309
GRIDFORMAT_END
 95
        2
302
GRIDFORMAT
  1
GRIDFORMAT_BEGIN
 90
        0
 91
        1
 62
     0
 92
       -2
340
0
 93
        0
 40
1.125
309
GRIDFORMAT_END
 95
        4
302
GRIDFORMAT
  1
GRIDFORMAT_BEGIN
 90
        0
 91
        1
 62
     0
 92
       -2
340
0
 93
        0
 40
1.125
309
GRIDFORMAT_END
 95
        8
302
GRIDFORMAT
  1
GRIDFORMAT_BEGIN
 90
        0
 91
        1
 62
     0
 92
       -2
340
0
 93
        0
 40
1.125
309
GRIDFORMAT_END
 95
       16
302
GRIDFORMAT
  1
GRIDFORMAT_BEGIN
 90
        0
 91
        1
 62
     0
 92
       -2
340
0
 93
        0
 40
1.125
309
GRIDFORMAT_END
 95
       32
302
GRIDFORMAT
  1
GRIDFORMAT_BEGIN
 90
        0
 91
        1
 62
     0
 92
       -2
340
0
 93
        0
 40
1.125
309
GRIDFORMAT_END
309
TABLEFORMAT_END
  1
CELLSTYLE_BEGIN
 90
        1
 91
        1
300
_TITLE
309
CELLSTYLE_END
300
CELLSTYLE
  1
TABLEFORMAT_BEGIN
 90
        5
170
     1
 91
        0
 92
        0
 62
   257
 93
        1
300
CONTENTFORMAT
  1
CONTENTFORMAT_BEGIN
 90
        0
 91
        0
 92
      512
 93
        0
300

 40
0.0
140
1.0
 94
        5
 62
     0
340
10
144
4.5
309
CONTENTFORMAT_END
171
     1
301
MARGIN
  1
CELLMARGIN_BEGIN
 40
1.5
 40
1.5
 40
1.5
 40
1.5
 40
0.18
 40
0.18
309
CELLMARGIN_END
 94
        6
 95
        1
302
GRIDFORMAT
  1
GRIDFORMAT_BEGIN
 90
        0
 91
        1
 62
     0
 92
       -2
340
0
 93
        0
 40
1.125
309
GRIDFORMAT_END
 95
        2
302
GRIDFORMAT
  1
GRIDFORMAT_BEGIN
 90
        0
 91
        1
 62
     0
 92
       -2
340
0
 93
        0
 40
1.125
309
GRIDFORMAT_END
 95
        4
302
GRIDFORMAT
  1
GRIDFORMAT_BEGIN
 90
        0
 91
        1
 62
     0
 92
       -2
340
0
 93
        0
 40
1.125
309
GRIDFORMAT_END
 95
        8
302
GRIDFORMAT
  1
GRIDFORMAT_BEGIN
 90
        0
 91
        1
 62
     0
 92
       -2
340
0
 93
        0
 40
1.125
309
GRIDFORMAT_END
 95
       16
302
GRIDFORMAT
  1
GRIDFORMAT_BEGIN
 90
        0
 91
        1
 62
     0
 92
       -2
340
0
 93
        0
 40
1.125
309
GRIDFORMAT_END
 95
       32
302
GRIDFORMAT
  1
GRIDFORMAT_BEGIN
 90
        0
 91
        1
 62
     0
 92
       -2
340
0
 93
        0
 40
1.125
309
GRIDFORMAT_END
309
TABLEFORMAT_END
  1
CELLSTYLE_BEGIN
 90
        2
 91
        1
300
_HEADER
309
CELLSTYLE_END
300
CELLSTYLE
  1
TABLEFORMAT_BEGIN
 90
        5
170
     1
 91
        0
 92
        0
 62
   257
 93
        1
300
CONTENTFORMAT
  1
CONTENTFORMAT_BEGIN
 90
        0
 91
        0
 92
      512
 93
        0
300

 40
0.0
140
1.0
 94
        2
 62
     0
340
10
144
4.5
309
CONTENTFORMAT_END
171
     1
301
MARGIN
  1
CELLMARGIN_BEGIN
 40
1.5
 40
1.5
 40
1.5
 40
1.5
 40
0.18
 40
0.18
309
CELLMARGIN_END
 94
        6
 95
        1
302
GRIDFORMAT
  1
GRIDFORMAT_BEGIN
 90
        0
 91
        1
 62
     0
 92
       -2
340
0
 93
        0
 40
1.125
309
GRIDFORMAT_END
 95
        2
302
GRIDFORMAT
  1
GRIDFORMAT_BEGIN
 90
        0
 91
        1
 62
     0
 92
       -2
340
0
 93
        0
 40
1.125
309
GRIDFORMAT_END
 95
        4
302
GRIDFORMAT
  1
GRIDFORMAT_BEGIN
 90
        0
 91
        1
 62
     0
 92
       -2
340
0
 93
        0
 40
1.125
309
GRIDFORMAT_END
 95
        8
302
GRIDFORMAT
  1
GRIDFORMAT_BEGIN
 90
        0
 91
        1
 62
     0
 92
       -2
340
0
 93
        0
 40
1.125
309
GRIDFORMAT_END
 95
       16
302
GRIDFORMAT
  1
GRIDFORMAT_BEGIN
 90
        0
 91
        1
 62
     0
 92
       -2
340
0
 93
        0
 40
1.125
309
GRIDFORMAT_END
 95
       32
302
GRIDFORMAT
  1
GRIDFORMAT_BEGIN
 90
        0
 91
        1
 62
     0
 92
       -2
340
0
 93
        0
 40
1.125
309
GRIDFORMAT_END
309
TABLEFORMAT_END
  1
CELLSTYLE_BEGIN
 90
        3
 91
        2
300
_DATA
309
CELLSTYLE_END
  0
XRECORD
  5
193C
102
{ACAD_REACTORS
330
18D7
102
}
330
18D7
100
AcDbXrecord
280
     1
102
ACAD_ROUNDTRIP_PRE2007_TABLESTYLE
 90
      512
 91
        0
  1

 92
      512
 93
        0
  2

 94
      512
 95
        0
  3

  0
ENDSEC
  0
EOF
