  0
SECTION
  2
HEADER
  9
$ACADVER
  1
AC1012
  9
$DWGCODEPAGE
  3
ANSI_1252
  9
$INSBASE
 10
0.0
 20
0.0
 30
0.0
  9
$EXTMIN
 10
-11.03652351558691
 20
-19.80446822023095
 30
0.0
  9
$EXTMAX
 10
16.06539145017076
 20
5.002301495994203
 30
0.0
  9
$LIMMIN
 10
-170.0
 20
-170.0
  9
$LIMMAX
 10
519.0
 20
260.0
  9
$ORTHOMODE
 70
     1
  9
$REGENMODE
 70
     1
  9
$FILLMODE
 70
     1
  9
$QTEXTMODE
 70
     0
  9
$MIRRTEXT
 70
     1
  9
$DRAGMODE
 70
     2
  9
$LTSCALE
 40
10.0
  9
$OSMODE
 70
    37
  9
$ATTMODE
 70
     1
  9
$TEXTSIZE
 40
0.8
  9
$TRACEWID
 40
0.05
  9
$TEXTSTYLE
  7
SIMPLEX
  9
$CLAYER
  8
SK6
  9
$CELTYPE
  6
BYLAYER
  9
$CECOLOR
 62
   256
  9
$CELTSCALE
 40
1.0
  9
$DELOBJ
 70
     1
  9
$DISPSILH
 70
     0
  9
$DIMSCALE
 40
1.0
  9
$DIMASZ
 40
0.5
  9
$DIMEXO
 40
1.0
  9
$DIMDLI
 40
0.5
  9
$DIMRND
 40
0.0
  9
$DIMDLE
 40
0.0
  9
$DIMEXE
 40
1.0
  9
$DIMTP
 40
0.0
  9
$DIMTM
 40
0.0
  9
$DIMTXT
 40
0.8
  9
$DIMCEN
 40
0.0
  9
$DIMTSZ
 40
0.0
  9
$DIMTOL
 70
     0
  9
$DIMLIM
 70
     0
  9
$DIMTIH
 70
     0
  9
$DIMTOH
 70
     0
  9
$DIMSE1
 70
     0
  9
$DIMSE2
 70
     0
  9
$DIMTAD
 70
     1
  9
$DIMZIN
 70
     0
  9
$DIMBLK
  1

  9
$DIMASO
 70
     1
  9
$DIMSHO
 70
     1
  9
$DIMPOST
  1

  9
$DIMAPOST
  1

  9
$DIMALT
 70
     0
  9
$DIMALTD
 70
     2
  9
$DIMALTF
 40
25.4
  9
$DIMLFAC
 40
1.0
  9
$DIMTOFL
 70
     0
  9
$DIMTVP
 40
0.0
  9
$DIMTIX
 70
     0
  9
$DIMSOXD
 70
     0
  9
$DIMSAH
 70
     0
  9
$DIMBLK1
  1

  9
$DIMBLK2
  1

  9
$DIMSTYLE
  2
INSERTS
  9
$DIMCLRD
 70
     0
  9
$DIMCLRE
 70
     0
  9
$DIMCLRT
 70
     0
  9
$DIMTFAC
 40
1.0
  9
$DIMGAP
 40
1.0
  9
$DIMJUST
 70
     0
  9
$DIMSD1
 70
     0
  9
$DIMSD2
 70
     0
  9
$DIMTOLJ
 70
     1
  9
$DIMTZIN
 70
     0
  9
$DIMALTZ
 70
     0
  9
$DIMALTTZ
 70
     0
  9
$DIMFIT
 70
     3
  9
$DIMUPT
 70
     0
  9
$DIMUNIT
 70
     2
  9
$DIMDEC
 70
     0
  9
$DIMTDEC
 70
     0
  9
$DIMALTU
 70
     2
  9
$DIMALTTD
 70
     2
  9
$DIMTXSTY
  7
STANDARD
  9
$DIMAUNIT
 70
     0
  9
$LUNITS
 70
     2
  9
$LUPREC
 70
     2
  9
$SKETCHINC
 40
0.1
  9
$FILLETRAD
 40
0.0
  9
$AUNITS
 70
     0
  9
$AUPREC
 70
     0
  9
$MENU
  1
TDMWIN
  9
$ELEVATION
 40
0.0
  9
$PELEVATION
 40
0.0
  9
$THICKNESS
 40
0.0
  9
$LIMCHECK
 70
     0
  9
$BLIPMODE
 70
     0
  9
$CHAMFERA
 40
0.0
  9
$CHAMFERB
 40
0.0
  9
$CHAMFERC
 40
0.0
  9
$CHAMFERD
 40
0.0
  9
$SKPOLY
 70
     0
  9
$TDCREATE
 40
2454552.467564433
  9
$TDUPDATE
 40
2454553.393208021
  9
$TDINDWG
 40
0.0114494444
  9
$TDUSRTIMER
 40
0.0114494444
  9
$USRTIMER
 70
     1
  9
$ANGBASE
 50
0.0
  9
$ANGDIR
 70
     0
  9
$PDMODE
 70
     2
  9
$PDSIZE
 40
0.0
  9
$PLINEWID
 40
0.0
  9
$COORDS
 70
     0
  9
$SPLFRAME
 70
     0
  9
$SPLINETYPE
 70
     6
  9
$SPLINESEGS
 70
     8
  9
$ATTDIA
 70
     0
  9
$ATTREQ
 70
     1
  9
$HANDLING
 70
-16383
  9
$HANDSEED
  5
23B0
  9
$SURFTAB1
 70
     6
  9
$SURFTAB2
 70
     6
  9
$SURFTYPE
 70
     6
  9
$SURFU
 70
     6
  9
$SURFV
 70
     6
  9
$UCSNAME
  2

  9
$UCSORG
 10
0.0
 20
0.0
 30
0.0
  9
$UCSXDIR
 10
1.0
 20
0.0
 30
0.0
  9
$UCSYDIR
 10
0.0
 20
1.0
 30
0.0
  9
$PUCSNAME
  2

  9
$PUCSORG
 10
0.0
 20
0.0
 30
0.0
  9
$PUCSXDIR
 10
1.0
 20
0.0
 30
0.0
  9
$PUCSYDIR
 10
0.0
 20
1.0
 30
0.0
  9
$USERI1
 70
     0
  9
$USERI2
 70
     0
  9
$USERI3
 70
     0
  9
$USERI4
 70
     0
  9
$USERI5
 70
     0
  9
$USERR1
 40
0.0
  9
$USERR2
 40
0.0
  9
$USERR3
 40
0.0
  9
$USERR4
 40
0.0
  9
$USERR5
 40
0.0
  9
$WORLDVIEW
 70
     1
  9
$SHADEDGE
 70
     3
  9
$SHADEDIF
 70
    70
  9
$TILEMODE
 70
     1
  9
$MAXACTVP
 70
    16
  9
$PINSBASE
 10
0.0
 20
0.0
 30
0.0
  9
$PLIMCHECK
 70
     0
  9
$PEXTMIN
 10
1.000000000000000E+20
 20
1.000000000000000E+20
 30
1.000000000000000E+20
  9
$PEXTMAX
 10
-1.000000000000000E+20
 20
-1.000000000000000E+20
 30
-1.000000000000000E+20
  9
$PLIMMIN
 10
0.0
 20
0.0
  9
$PLIMMAX
 10
12.0
 20
9.0
  9
$UNITMODE
 70
     0
  9
$VISRETAIN
 70
     0
  9
$PLINEGEN
 70
     0
  9
$PSLTSCALE
 70
     0
  9
$TREEDEPTH
 70
  3020
  9
$PICKSTYLE
 70
     1
  9
$CMLSTYLE
  2
STANDARD
  9
$CMLJUST
 70
     0
  9
$CMLSCALE
 40
1.0
  9
$SAVEIMAGES
 70
     1
  0
ENDSEC
  0
SECTION
  2
CLASSES
  0
CLASS
  1
ACDBDICTIONARYWDFLT
  2
AcDbDictionaryWithDefault
  3
AutoCAD 2000
 90
    32768
280
     0
281
     0
  0
CLASS
  1
ACDBPLACEHOLDER
  2
AcDbPlaceHolder
  3
AutoCAD 2000
 90
    32768
280
     0
281
     0
  0
CLASS
  1
LAYOUT
  2
AcDbLayout
  3
AutoCAD 2000
 90
    32768
280
     0
281
     0
  0
CLASS
  1
LONG_TRANSACTION
  2
AcDbLongTransaction
  3
AutoCAD 2000
 90
    32768
280
     0
281
     0
  0
CLASS
  1
LWPOLYLINE
  2
AcDbPolyline
  3
AutoCAD 2000
 90
    32768
280
     0
281
     1
  0
CLASS
  1
HATCH
  2
AcDbHatch
  3
AutoCAD 2000
 90
    32768
280
     0
281
     1
  0
CLASS
  1
XRECORD
  2
AcDbXrecord
  3
AutoCAD 2000
 90
    32768
280
     0
281
     0
  0
CLASS
  1
LONG_TRANSACTION
  2
AcDbLongTransaction
  3
AutoCAD 2000
 90
    32768
280
     0
281
     0
  0
CLASS
  1
LWPOLYLINE
  2
AcDbPolyline
  3
AutoCAD 2000
 90
    32768
280
     0
281
     1
  0
CLASS
  1
HATCH
  2
AcDbHatch
  3
AutoCAD 2000
 90
    32768
280
     0
281
     1
  0
CLASS
  1
XRECORD
  2
AcDbXrecord
  3
AutoCAD 2000
 90
    32768
280
     0
281
     0
  0
CLASS
  1
LONG_TRANSACTION
  2
AcDbLongTransaction
  3
AutoCAD 2000
 90
    32768
280
     0
281
     0
  0
CLASS
  1
LWPOLYLINE
  2
AcDbPolyline
  3
AutoCAD 2000
 90
    32768
280
     0
281
     1
  0
CLASS
  1
HATCH
  2
AcDbHatch
  3
AutoCAD 2000
 90
    32768
280
     0
281
     1
  0
CLASS
  1
XRECORD
  2
AcDbXrecord
  3
AutoCAD 2000
 90
    32768
280
     0
281
     0
  0
ENDSEC
  0
SECTION
  2
TABLES
  0
TABLE
  2
VPORT
  5
8
330
0
100
AcDbSymbolTable
 70
     2
  0
VPORT
  5
23AB
330
8
100
AcDbSymbolTableRecord
100
AcDbViewportTableRecord
  2
*ACTIVE
 70
     0
 10
0.0
 20
0.0
 11
1.0
 21
1.0
 12
-1.883732371726601
 22
-8.871930304476766
 13
0.0
 23
0.0
 14
5.0
 24
5.0
 15
5.0
 25
5.0
 16
0.0
 26
0.0
 36
1.0
 17
0.0
 27
0.0
 37
0.0
 40
33.04701975959062
 41
1.375314861460957
 42
50.0
 43
0.0
 44
0.0
 50
0.0
 51
0.0
 71
     0
 72
   100
 73
     1
 74
     3
 75
     0
 76
     0
 77
     0
 78
     0
  0
ENDTAB
  0
TABLE
  2
LTYPE
  5
5
330
0
100
AcDbSymbolTable
 70
     3
  0
LTYPE
  5
13
330
5
100
AcDbSymbolTableRecord
100
AcDbLinetypeTableRecord
  2
BYBLOCK
 70
     0
  3

 72
    65
 73
     0
 40
0.0
  0
LTYPE
  5
14
330
5
100
AcDbSymbolTableRecord
100
AcDbLinetypeTableRecord
  2
BYLAYER
 70
     0
  3

 72
    65
 73
     0
 40
0.0
  0
LTYPE
  5
15
330
5
100
AcDbSymbolTableRecord
100
AcDbLinetypeTableRecord
  2
CONTINUOUS
 70
     0
  3
Solid line
 72
    65
 73
     0
 40
0.0
  0
LTYPE
  5
20
330
5
100
AcDbSymbolTableRecord
100
AcDbLinetypeTableRecord
  2
CENTER
 70
     0
  3
____ . ____ . ____
 72
    65
 73
     4
 40
1.5
 49
1.0
 74
     0
 49
-0.25
 74
     0
 49
0.0
 74
     0
 49
-0.25
 74
     0
  0
LTYPE
  5
21
330
5
100
AcDbSymbolTableRecord
100
AcDbLinetypeTableRecord
  2
HIDDEN
 70
     0
  3
_ _ _ _ _ _ _ _ _ _ _ _ _ _ _ _ _ _ _ _ _ _ _
 72
    65
 73
     2
 40
0.375
 49
0.25
 74
     0
 49
-0.125
 74
     0
  0
ENDTAB
  0
TABLE
  2
LAYER
  5
2
330
0
100
AcDbSymbolTable
 70
    17
  0
LAYER
  5
F
330
2
100
AcDbSymbolTableRecord
100
AcDbLayerTableRecord
  2
0
 70
     0
 62
     7
  6
CONTINUOUS
  0
LAYER
  5
1E
330
2
100
AcDbSymbolTableRecord
100
AcDbLayerTableRecord
  2
1
 70
     0
 62
     4
  6
CONTINUOUS
  0
LAYER
  5
22
330
2
100
AcDbSymbolTableRecord
100
AcDbLayerTableRecord
  2
SK1
 70
     0
 62
     4
  6
CONTINUOUS
  0
LAYER
  5
23
330
2
100
AcDbSymbolTableRecord
100
AcDbLayerTableRecord
  2
2
 70
     0
 62
     7
  6
CONTINUOUS
  0
LAYER
  5
24
330
2
100
AcDbSymbolTableRecord
100
AcDbLayerTableRecord
  2
2L
 70
     0
 62
     7
  6
CONTINUOUS
  0
LAYER
  5
25
330
2
100
AcDbSymbolTableRecord
100
AcDbLayerTableRecord
  2
SK2
 70
     0
 62
     7
  6
CONTINUOUS
  0
LAYER
  5
26
330
2
100
AcDbSymbolTableRecord
100
AcDbLayerTableRecord
  2
3
 70
     0
 62
     1
  6
HIDDEN
  0
LAYER
  5
27
330
2
100
AcDbSymbolTableRecord
100
AcDbLayerTableRecord
  2
SK3
 70
     0
 62
     1
  6
HIDDEN
  0
LAYER
  5
28
330
2
100
AcDbSymbolTableRecord
100
AcDbLayerTableRecord
  2
4
 70
     0
 62
     2
  6
CENTER
  0
LAYER
  5
29
330
2
100
AcDbSymbolTableRecord
100
AcDbLayerTableRecord
  2
SK4
 70
     0
 62
     2
  6
CENTER
  0
LAYER
  5
2A
330
2
100
AcDbSymbolTableRecord
100
AcDbLayerTableRecord
  2
5
 70
     0
 62
     7
  6
CONTINUOUS
  0
LAYER
  5
2B
330
2
100
AcDbSymbolTableRecord
100
AcDbLayerTableRecord
  2
6
 70
     0
 62
     5
  6
CONTINUOUS
  0
LAYER
  5
2C
330
2
100
AcDbSymbolTableRecord
100
AcDbLayerTableRecord
  2
SK6
 70
     0
 62
     5
  6
CONTINUOUS
  0
LAYER
  5
2D
330
2
100
AcDbSymbolTableRecord
100
AcDbLayerTableRecord
  2
243
 70
     0
 62
     7
  6
CONTINUOUS
  0
LAYER
  5
2E
330
2
100
AcDbSymbolTableRecord
100
AcDbLayerTableRecord
  2
DEFPOINTS
 70
     0
 62
     7
  6
CONTINUOUS
  0
LAYER
  5
C07
330
2
100
AcDbSymbolTableRecord
100
AcDbLayerTableRecord
  2
FRONT
 70
     0
 62
     7
  6
CONTINUOUS
  0
LAYER
  5
1289
330
2
100
AcDbSymbolTableRecord
100
AcDbLayerTableRecord
  2
TFR-TRI
 70
     0
 62
     7
  6
CONTINUOUS
  0
ENDTAB
  0
TABLE
  2
STYLE
  5
3
330
0
100
AcDbSymbolTable
 70
     5
  0
STYLE
  5
10
330
3
100
AcDbSymbolTableRecord
100
AcDbTextStyleTableRecord
  2
STANDARD
 70
     0
 40
0.0
 41
1.0
 50
0.0
 71
     0
 42
5.0
  3
txt
  4

  0
STYLE
  5
1F
330
3
100
AcDbSymbolTableRecord
100
AcDbTextStyleTableRecord
  2
SIMPLEX
 70
     0
 40
0.0
 41
1.0
 50
0.0
 71
     0
 42
0.8
  3
simplex
  4

  0
STYLE
  5
2F
330
3
100
AcDbSymbolTableRecord
100
AcDbTextStyleTableRecord
  2
TXT
 70
     0
 40
8.0
 41
1.0
 50
0.0
 71
     0
 42
8.0
  3
txt
  4

  0
STYLE
  5
C08
330
3
100
AcDbSymbolTableRecord
100
AcDbTextStyleTableRecord
  2
UGMTXT
 70
     0
 40
0.0
 41
1.0
 50
0.0
 71
     0
 42
0.2
  3
ugmtxt
  4
bigfont
  0
STYLE
  5
188F
330
3
100
AcDbSymbolTableRecord
100
AcDbTextStyleTableRecord
  2
DEFAULT
 70
     0
 40
0.0
 41
1.0
 50
0.0
 71
     0
 42
0.2
  3
simplex.shx
  4
bigfont
  0
ENDTAB
  0
TABLE
  2
VIEW
  5
6
330
0
100
AcDbSymbolTable
 70
     0
  0
ENDTAB
  0
TABLE
  2
UCS
  5
7
330
0
100
AcDbSymbolTable
 70
     0
  0
ENDTAB
  0
TABLE
  2
APPID
  5
9
330
0
100
AcDbSymbolTable
 70
     2
  0
APPID
  5
11
330
9
100
AcDbSymbolTableRecord
100
AcDbRegAppTableRecord
  2
ACAD
 70
     0
  0
APPID
  5
E8F
330
9
100
AcDbSymbolTableRecord
100
AcDbRegAppTableRecord
  2
CONTENTBLOCKICON
 70
     0
  0
ENDTAB
  0
TABLE
  2
DIMSTYLE
  5
A
330
0
100
AcDbSymbolTable
 70
     5
  0
DIMSTYLE
105
980
330
A
100
AcDbSymbolTableRecord
100
AcDbDimStyleTableRecord
  2
STANDARD
 70
     0
  3

  4

  5

  6

  7

 40
1.0
 41
0.18
 42
0.0625
 43
0.38
 44
0.18
 45
0.0
 46
0.0
 47
0.0
 48
0.0
140
0.18
141
0.09
142
0.0
143
25.4
144
1.0
145
0.0
146
1.0
147
0.09
 71
     0
 72
     0
 73
     1
 74
     1
 75
     0
 76
     0
 77
     0
 78
     0
170
     0
171
     2
172
     0
173
     0
174
     0
175
     0
176
     0
177
     0
178
     0
270
     2
271
     4
272
     4
273
     2
274
     2
340
10
275
     0
280
     0
281
     0
282
     0
283
     1
284
     0
285
     0
286
     0
287
     3
288
     0
  0
DIMSTYLE
105
D91
330
A
100
AcDbSymbolTableRecord
100
AcDbDimStyleTableRecord
  2
V-TYGEN_-160
 70
     0
  3

  4

  5

  6

  7

 40
1.0
 41
3.5
 42
1.0
 43
0.5
 44
1.0
 45
0.0
 46
0.0
 47
0.0
 48
0.0
140
3.5
141
0.0
142
0.0
143
25.4
144
1.0
145
0.0
146
1.0
147
1.0
 71
     0
 72
     0
 73
     0
 74
     0
 75
     0
 76
     0
 77
     1
 78
     0
170
     0
171
     2
172
     0
173
     0
174
     0
175
     0
176
     0
177
     0
178
     0
270
     2
271
     0
272
     0
273
     2
274
     2
340
10
275
     0
280
     0
281
     0
282
     0
283
     1
284
     0
285
     0
286
     0
287
     3
288
     0
  0
DIMSTYLE
105
D92
330
A
100
AcDbSymbolTableRecord
100
AcDbDimStyleTableRecord
  2
V-TYG_160-300
 70
     0
  3

  4

  5

  6

  7

 40
1.0
 41
5.0
 42
1.0
 43
0.5
 44
1.0
 45
0.0
 46
0.0
 47
0.0
 48
0.0
140
5.0
141
0.0
142
0.0
143
25.4
144
1.0
145
0.0
146
1.0
147
1.0
 71
     0
 72
     0
 73
     0
 74
     0
 75
     0
 76
     0
 77
     1
 78
     0
170
     0
171
     2
172
     0
173
     0
174
     0
175
     0
176
     0
177
     0
178
     0
270
     2
271
     0
272
     0
273
     2
274
     2
340
10
275
     0
280
     0
281
     0
282
     0
283
     1
284
     0
285
     0
286
     0
287
     3
288
     0
  0
DIMSTYLE
105
D93
330
A
100
AcDbSymbolTableRecord
100
AcDbDimStyleTableRecord
  2
V-TYG_300-
 70
     0
  3

  4

  5

  6

  7

 40
1.0
 41
8.0
 42
1.0
 43
0.5
 44
1.0
 45
0.0
 46
0.0
 47
0.0
 48
0.0
140
8.0
141
0.0
142
0.0
143
25.4
144
1.0
145
0.0
146
1.0
147
1.0
 71
     0
 72
     0
 73
     0
 74
     0
 75
     0
 76
     0
 77
     1
 78
     0
170
     0
171
     2
172
     0
173
     0
174
     0
175
     0
176
     0
177
     0
178
     0
270
     2
271
     0
272
     0
273
     2
274
     2
340
10
275
     0
280
     0
281
     0
282
     0
283
     1
284
     0
285
     0
286
     0
287
     3
288
     0
  0
DIMSTYLE
105
1273
102
{ACAD_REACTORS
330
2369
330
238B
102
}
330
A
100
AcDbSymbolTableRecord
100
AcDbDimStyleTableRecord
  2
INSERTS
 70
     0
  3

  4

  5

  6

  7

 40
1.0
 41
0.5
 42
1.0
 43
0.5
 44
1.0
 45
0.0
 46
0.0
 47
0.0
 48
0.0
140
0.8
141
0.0
142
0.0
143
25.4
144
1.0
145
0.0
146
1.0
147
1.0
 71
     0
 72
     0
 73
     0
 74
     0
 75
     0
 76
     0
 77
     1
 78
     0
170
     0
171
     2
172
     0
173
     0
174
     0
175
     0
176
     0
177
     0
178
     0
270
     2
271
     0
272
     0
273
     2
274
     2
340
10
275
     0
280
     0
281
     0
282
     0
283
     1
284
     0
285
     0
286
     0
287
     3
288
     0
  0
ENDTAB
  0
TABLE
  2
BLOCK_RECORD
  5
1
330
0
100
AcDbSymbolTable
 70
     5
  0
BLOCK_RECORD
  5
19
102
{ACAD_XDICTIONARY
360
E8D
102
}
330
1
100
AcDbSymbolTableRecord
100
AcDbBlockTableRecord
  2
*MODEL_SPACE
  0
BLOCK_RECORD
  5
16
102
{ACAD_XDICTIONARY
360
E8B
102
}
330
1
100
AcDbSymbolTableRecord
100
AcDbBlockTableRecord
  2
*PAPER_SPACE
  0
BLOCK_RECORD
  5
A8B
330
1
100
AcDbSymbolTableRecord
100
AcDbBlockTableRecord
  2
2D00035417
1001
CONTENTBLOCKICON
1071
        0
1004
2800000020000000200000000100080000000000000400000000000000000000000000000000000000000000000080000080000000808000800000008000800080800000C0C0C000C0DCC000F0CAA6000020400000206000002080000020A0000020C0000020E00000400000004020000040400000406000004080000040A0
1004
000040C0000040E00000600000006020000060400000606000006080000060A0000060C0000060E00000800000008020000080400000806000008080000080A0000080C0000080E00000A0000000A0200000A0400000A0600000A0800000A0A00000A0C00000A0E00000C0000000C0200000C0400000C0600000C0800000C0
1004
A00000C0C00000C0E00000E0000000E0200000E0400000E0600000E0800000E0A00000E0C00000E0E00040000000400020004000400040006000400080004000A0004000C0004000E00040200000402020004020400040206000402080004020A0004020C0004020E000404000004040200040404000404060004040800040
1004
40A0004040C0004040E00040600000406020004060400040606000406080004060A0004060C0004060E00040800000408020004080400040806000408080004080A0004080C0004080E00040A0000040A0200040A0400040A0600040A0800040A0A00040A0C00040A0E00040C0000040C0200040C0400040C0600040C08000
1004
40C0A00040C0C00040C0E00040E0000040E0200040E0400040E0600040E0800040E0A00040E0C00040E0E00080000000800020008000400080006000800080008000A0008000C0008000E00080200000802020008020400080206000802080008020A0008020C0008020E00080400000804020008040400080406000804080
1004
008040A0008040C0008040E00080600000806020008060400080606000806080008060A0008060C0008060E00080800000808020008080400080806000808080008080A0008080C0008080E00080A0000080A0200080A0400080A0600080A0800080A0A00080A0C00080A0E00080C0000080C0200080C0400080C0600080C0
1004
800080C0A00080C0C00080C0E00080E0000080E0200080E0400080E0600080E0800080E0A00080E0C00080E0E000C0000000C0002000C0004000C0006000C0008000C000A000C000C000C000E000C0200000C0202000C0204000C0206000C0208000C020A000C020C000C020E000C0400000C0402000C0404000C0406000C0
1004
408000C040A000C040C000C040E000C0600000C0602000C0604000C0606000C0608000C060A000C060C000C060E000C0800000C0802000C0804000C0806000C0808000C080A000C080C000C080E000C0A00000C0A02000C0A04000C0A06000C0A08000C0A0A000C0A0C000C0A0E000C0C00000C0C02000C0C04000C0C06000
1004
C0C08000C0C0A000F0FBFF00A4A0A000808080000000FF0000FF000000FFFF00FF000000FF00FF00FFFF0000FFFFFF0000000000000000000000000000000000000000000000000000000000000000000000000000000000000000000000000000000000000000000000000000000000000000000000000000000000000000
1004
00000000000000000000000000000000000000000000000000000000000000000000000000000000000000000000000000000000000000000000000000000000000000000000000000000000000000000000000000000000000000000000000000000000000000000000000000000000000000000000000000000000000000
1004
00000000000000000000000000000000000000000000000000000000000000000000000000000000000000000000000000000000000000000000000000000000000000000000000000000000000000000000000000000000000000000000000000000000000000000000000000000000000000000000000000000000000000
1004
00000000000000000000000000000000000000000000000000000000000000000000000000000000000000000000000000000000000000000000000000000000000000000000000000000000000000000000000000FEFEFEFEFEFEFEFEFEFEFEFEFEFEFEFEFEFEFEFEFEFE000000FEFEFEFE0000FEFE000000000000000000
1004
0000000000000000000000FEFEFEFEFEFEFEFE0000FEFE0000000000000000000000000000000000000000FEFE0000FEFEFE000000FEFE0000000000000000000000000000000000000000FEFE0000FEFEFE000000FEFE0000000000000000000000000000000000000000FEFEFEFEFEFEFEFE000000FEFEFEFEFEFEFEFEFE
1004
FEFEFEFEFEFEFEFEFEFEFEFEFE000000FEFEFEFE0000000000000000000000000000000000000000000000000000000000000000000000000000000000000000000000000000000000000000000000000000000000000000000000000000000000000000000000000000000000000000000000000000000000000000000000
1004
00000000000000000000000000000000000000000000000000000000000000000000000000000000000000000000000000000000000000000000000000000000000000000000000000000000000000000000000000000000000000000000000000000000000000000000000000000000000000000000000000000000000000
1004
00000000000000000000000000000000000000000000000000000000000000000000000000000000000000000000000000000000000000000000000000000000000000000000000000000000000000000000000000000000000000000000000000000000000000000000000000000000000000000000000000000000000000
1004
0000000000000000000000000000000000000000000000000000000000000000000000000000000000000000000000000000000000000000
  0
BLOCK_RECORD
  5
C03
330
1
100
AcDbSymbolTableRecord
100
AcDbBlockTableRecord
  2
ROFFE
1001
CONTENTBLOCKICON
1071
        0
1004
2800000020000000200000000100080000000000000400000000000000000000000000000000000000000000000080000080000000808000800000008000800080800000C0C0C000C0DCC000F0CAA6000020400000206000002080000020A0000020C0000020E00000400000004020000040400000406000004080000040A0
1004
000040C0000040E00000600000006020000060400000606000006080000060A0000060C0000060E00000800000008020000080400000806000008080000080A0000080C0000080E00000A0000000A0200000A0400000A0600000A0800000A0A00000A0C00000A0E00000C0000000C0200000C0400000C0600000C0800000C0
1004
A00000C0C00000C0E00000E0000000E0200000E0400000E0600000E0800000E0A00000E0C00000E0E00040000000400020004000400040006000400080004000A0004000C0004000E00040200000402020004020400040206000402080004020A0004020C0004020E000404000004040200040404000404060004040800040
1004
40A0004040C0004040E00040600000406020004060400040606000406080004060A0004060C0004060E00040800000408020004080400040806000408080004080A0004080C0004080E00040A0000040A0200040A0400040A0600040A0800040A0A00040A0C00040A0E00040C0000040C0200040C0400040C0600040C08000
1004
40C0A00040C0C00040C0E00040E0000040E0200040E0400040E0600040E0800040E0A00040E0C00040E0E00080000000800020008000400080006000800080008000A0008000C0008000E00080200000802020008020400080206000802080008020A0008020C0008020E00080400000804020008040400080406000804080
1004
008040A0008040C0008040E00080600000806020008060400080606000806080008060A0008060C0008060E00080800000808020008080400080806000808080008080A0008080C0008080E00080A0000080A0200080A0400080A0600080A0800080A0A00080A0C00080A0E00080C0000080C0200080C0400080C0600080C0
1004
800080C0A00080C0C00080C0E00080E0000080E0200080E0400080E0600080E0800080E0A00080E0C00080E0E000C0000000C0002000C0004000C0006000C0008000C000A000C000C000C000E000C0200000C0202000C0204000C0206000C0208000C020A000C020C000C020E000C0400000C0402000C0404000C0406000C0
1004
408000C040A000C040C000C040E000C0600000C0602000C0604000C0606000C0608000C060A000C060C000C060E000C0800000C0802000C0804000C0806000C0808000C080A000C080C000C080E000C0A00000C0A02000C0A04000C0A06000C0A08000C0A0A000C0A0C000C0A0E000C0C00000C0C02000C0C04000C0C06000
1004
C0C08000C0C0A000F0FBFF00A4A0A000808080000000FF0000FF000000FFFF00FF000000FF00FF00FFFF0000FFFFFF0000000000000000000000000000000000000000000000000000000000000000000000000000000000000000000000000000000000000000000000000000000000000000000000000000000000000000
1004
00000000000000000000000000000000000000000000000000000000000000000000000000000000000000000000000000000000000000000000000000000000000000000000000000000000000000000000000000000000000000000000000000000000000000000000000000000000000000000000000000000000000000
1004
00000000000000000000000000000000000000000000000000000000000000000000000000000000000000000000000000000000000000000000000000000000000000000000000000000000000000000000000000000000000000000000000000000000000000000000000000000000000000000000000000000000000000
1004
00000000000000000000000000000000000000000000000000000000000000000000000000000000000000000000000000000000000000000000000000000000000000000000000000000000000000000000000000FEFEFEFEFEFEFEFEFEFEFEFEFEFEFEFEFEFEFEFEFEFE000000FEFEFEFE0000FEFE000000000000000000
1004
0000000000000000000000FEFEFEFEFEFEFEFE0000FEFE0000000000000000000000000000000000000000FEFE0000FEFEFE000000FEFE0000000000000000000000000000000000000000FEFE0000FEFEFE000000FEFE0000000000000000000000000000000000000000FEFEFEFEFEFEFEFE000000FEFEFEFEFEFEFEFEFE
1004
FEFEFEFEFEFEFEFEFEFEFEFEFE000000FEFEFEFE0000000000000000000000000000000000000000000000000000000000000000000000000000000000000000000000000000000000000000000000000000000000000000000000000000000000000000000000000000000000000000000000000000000000000000000000
1004
00000000000000000000000000000000000000000000000000000000000000000000000000000000000000000000000000000000000000000000000000000000000000000000000000000000000000000000000000000000000000000000000000000000000000000000000000000000000000000000000000000000000000
1004
00000000000000000000000000000000000000000000000000000000000000000000000000000000000000000000000000000000000000000000000000000000000000000000000000000000000000000000000000000000000000000000000000000000000000000000000000000000000000000000000000000000000000
1004
0000000000000000000000000000000000000000000000000000000000000000000000000000000000000000000000000000000000000000
  0
BLOCK_RECORD
  5
235B
330
1
100
AcDbSymbolTableRecord
100
AcDbBlockTableRecord
  2
*D2
  0
BLOCK_RECORD
  5
236A
330
1
100
AcDbSymbolTableRecord
100
AcDbBlockTableRecord
  2
*D3
  0
BLOCK_RECORD
  5
238C
330
1
100
AcDbSymbolTableRecord
100
AcDbBlockTableRecord
  2
*D4
  0
ENDTAB
  0
ENDSEC
  0
SECTION
  2
BLOCKS
  0
BLOCK
  5
1A
330
19
100
AcDbEntity
  8
0
100
AcDbBlockBegin
  2
*MODEL_SPACE
 70
     0
 10
0.0
 20
0.0
 30
0.0
  3
*MODEL_SPACE
  1

  0
ENDBLK
  5
1B
330
19
100
AcDbEntity
  8
0
100
AcDbBlockEnd
  0
BLOCK
  5
17
330
16
100
AcDbEntity
 67
     1
  8
0
100
AcDbBlockBegin
  2
*PAPER_SPACE
 70
     0
 10
0.0
 20
0.0
 30
0.0
  3
*PAPER_SPACE
  1

  0
ENDBLK
  5
18
330
16
100
AcDbEntity
 67
     1
  8
0
100
AcDbBlockEnd
  0
BLOCK
  5
C01
330
A8B
100
AcDbEntity
  8
0
100
AcDbBlockBegin
  2
2D00035417
 70
     0
 10
0.0
 20
0.0
 30
0.0
  3
2D00035417
  1

  0
LINE
  5
A8C
330
A8B
100
AcDbEntity
  8
FRONT
  6
CONTINUOUS
 62
     4
100
AcDbLine
 10
0.8660254037844552
 20
5.5
 30
0.0
 11
0.0
 21
6.000000000000002
 31
0.0
  0
LINE
  5
A8D
330
A8B
100
AcDbEntity
  8
FRONT
  6
CONTINUOUS
 62
     4
100
AcDbLine
 10
0.0
 20
-6.000000000000002
 30
0.0
 11
0.8660254037844552
 21
-5.5
 31
0.0
  0
LINE
  5
A8E
330
A8B
100
AcDbEntity
  8
FRONT
  6
CONTINUOUS
 62
     4
100
AcDbLine
 10
-62.0
 20
5.5
 30
0.0
 11
-62.0
 21
-5.499999999999992
 31
0.0
  0
LINE
  5
A8F
330
A8B
100
AcDbEntity
  8
FRONT
  6
CONTINUOUS
 62
     4
100
AcDbLine
 10
-61.5
 20
6.0
 30
0.0
 11
-61.5
 21
-5.999999999999992
 31
0.0
  0
LINE
  5
A90
330
A8B
100
AcDbEntity
  8
FRONT
  6
CONTINUOUS
 62
     4
100
AcDbLine
 10
0.0
 20
6.000000000000007
 30
0.0
 11
0.0
 21
-6.000000000000007
 31
0.0
  0
LINE
  5
A91
330
A8B
100
AcDbEntity
  8
FRONT
  6
CONTINUOUS
 62
     4
100
AcDbLine
 10
-61.5
 20
-6.0
 30
0.0
 11
0.0
 21
-6.0
 31
0.0
  0
LINE
  5
A92
330
A8B
100
AcDbEntity
  8
FRONT
  6
CONTINUOUS
 62
     4
100
AcDbLine
 10
-62.0
 20
-5.499999999999992
 30
0.0
 11
-61.5
 21
-5.999999999999992
 31
0.0
  0
LINE
  5
A93
330
A8B
100
AcDbEntity
  8
FRONT
  6
CONTINUOUS
 62
     4
100
AcDbLine
 10
0.0
 20
6.0
 30
0.0
 11
-61.5
 21
6.000000000000007
 31
0.0
  0
LINE
  5
A94
330
A8B
100
AcDbEntity
  8
FRONT
  6
CONTINUOUS
 62
     4
100
AcDbLine
 10
-61.5
 20
6.0
 30
0.0
 11
-62.0
 21
5.5
 31
0.0
  0
LINE
  5
A95
330
A8B
100
AcDbEntity
  8
FRONT
  6
CONTINUOUS
 62
     4
100
AcDbLine
 10
17.29745226804206
 20
3.509679345658438
 30
0.0
 11
17.29745226804206
 21
-5.017742724400552
 31
0.0
  0
LINE
  5
A96
330
A8B
100
AcDbEntity
  8
FRONT
  6
CONTINUOUS
 62
     4
100
AcDbLine
 10
11.19220462092714
 20
3.417991427849383
 30
0.0
 11
11.19220462092714
 21
-5.268704490765056
 31
0.0
  0
LINE
  5
A97
330
A8B
100
AcDbEntity
  8
FRONT
  6
CONTINUOUS
 62
     4
100
AcDbLine
 10
12.3980252578104
 20
3.543839759641738
 30
0.0
 11
12.3980252578104
 21
-4.715335514294036
 31
0.0
  0
LINE
  5
A98
330
A8B
100
AcDbEntity
  8
FRONT
  6
CONTINUOUS
 62
     4
100
AcDbLine
 10
0.8660254037844552
 20
5.5
 30
0.0
 11
0.8660254037844552
 21
-5.5
 31
0.0
  0
LINE
  5
A99
330
A8B
100
AcDbEntity
  8
FRONT
  6
CONTINUOUS
 62
     4
100
AcDbLine
 10
13.74838568128198
 20
3.593205653172365
 30
0.0
 11
13.74838568128198
 21
-5.032064792663311
 31
0.0
  0
LINE
  5
A9A
330
A8B
100
AcDbEntity
  8
FRONT
  6
CONTINUOUS
 62
     4
100
AcDbLine
 10
17.48879939540238
 20
-4.816380228107217
 30
0.0
 11
17.48879939540238
 21
3.479278271624338
 31
0.0
  0
LINE
  5
A9B
330
A8B
100
AcDbEntity
  8
FRONT
  6
CONTINUOUS
 62
     4
100
AcDbLine
 10
12.52411245174376
 20
-5.148811565010388
 30
0.0
 11
12.2699596882263
 21
-5.474819161767424
 31
0.0
  0
ELLIPSE
  5
A9C
330
A8B
100
AcDbEntity
  8
FRONT
  6
CONTINUOUS
 62
     4
100
AcDbEllipse
 10
12.59483653351634
 20
-4.836421402054659
 30
0.0
 11
-0.1764278460445979
 21
0.0941977448772153
 31
0.0
210
0.0
220
0.0
230
1.0
 40
0.9833059182774052
 41
0.6405173247906966
 42
2.071687311428429
  0
ELLIPSE
  5
A9D
330
A8B
100
AcDbEntity
  8
FRONT
  6
CONTINUOUS
 62
     4
100
AcDbEllipse
 10
12.58626641887234
 20
-4.852472814633401
 30
0.0
 11
-0.264641769065345
 21
0.1412966173186371
 31
0.0
210
0.0
220
0.0
230
1.0
 40
0.9833059182774
 41
0.6405173248015057
 42
2.071687311439271
  0
ELLIPSE
  5
A9E
330
A8B
100
AcDbEntity
  8
FRONT
  6
CONTINUOUS
 62
     4
100
AcDbEllipse
 10
12.53491299669396
 20
-4.91373583192963
 30
0.0
 11
-0.1776346087653321
 21
-0.1633261946229406
 31
0.0
210
0.0
220
0.0
230
0.9999999999999998
 40
0.9518042298991375
 41
5.720439864303834
 42
7.08930315248491
  0
SPLINE
  5
A9F
330
A8B
100
AcDbEntity
  8
FRONT
  6
CONTINUOUS
 62
     4
100
AcDbSpline
210
0.0
220
0.0
230
1.0
 70
     8
 71
     2
 72
     6
 73
     3
 74
     0
 42
0.0000000001
 43
0.0000000001
 40
0.0
 40
0.0
 40
0.0
 40
1.0
 40
1.0
 40
1.0
 10
14.62245185943817
 20
-5.87714135957826
 30
0.0
 10
13.338689136798
 20
-5.833317719863607
 30
0.0
 10
12.05492333661389
 20
-5.761440262542944
 30
0.0
  0
SPLINE
  5
AA0
330
A8B
100
AcDbEntity
  8
FRONT
  6
CONTINUOUS
 62
     4
100
AcDbSpline
210
0.0
220
0.0
230
1.0
 70
     8
 71
     2
 72
     6
 73
     3
 74
     0
 42
0.0000000001
 43
0.0000000001
 40
0.0
 40
0.0
 40
0.0
 40
1.0
 40
1.0
 40
1.0
 10
12.03715634521592
 20
-5.830492901738484
 30
0.0
 10
12.99283696601092
 20
-5.878254479706018
 30
0.0
 10
13.94849592177253
 20
-5.91037423780608
 30
0.0
  0
SPLINE
  5
AA1
330
A8B
100
AcDbEntity
  8
FRONT
  6
CONTINUOUS
 62
     4
100
AcDbSpline
210
0.0
220
0.0
230
1.0
 70
     8
 71
     3
 72
    10
 73
     6
 74
     0
 42
0.0000000001
 43
0.0000000001
 40
0.0
 40
0.0
 40
0.0
 40
0.0
 40
0.413998097170399
 40
0.8317102975705793
 40
1.0
 40
1.0
 40
1.0
 40
1.0
 10
13.65251602410751
 20
-5.651687726725348
 30
0.0
 10
13.45228491644905
 20
-5.637638509379486
 30
0.0
 10
13.05861779128649
 20
-5.600401635138268
 30
0.0
 10
12.59642516693621
 20
-5.539019558091951
 30
0.0
 10
12.34205829435077
 20
-5.489820631199273
 30
0.0
 10
12.2699596882263
 20
-5.474819161767424
 30
0.0
  0
SPLINE
  5
AA2
330
A8B
100
AcDbEntity
  8
FRONT
  6
CONTINUOUS
 62
     4
100
AcDbSpline
210
0.0
220
0.0
230
1.0
 70
     8
 71
     2
 72
     6
 73
     3
 74
     0
 42
0.0000000001
 43
0.0000000001
 40
0.0
 40
0.0
 40
0.0
 40
1.0
 40
1.0
 40
1.0
 10
13.61429623476742
 20
-5.667122247227887
 30
0.0
 10
12.88790047388035
 20
-5.627861963387118
 30
0.0
 10
12.16152824195172
 20
-5.579846203347781
 30
0.0
  0
SPLINE
  5
AA3
330
A8B
100
AcDbEntity
  8
FRONT
  6
CONTINUOUS
 62
     4
100
AcDbSpline
210
0.0
220
0.0
230
1.0
 70
     8
 71
     2
 72
     6
 73
     3
 74
     0
 42
0.0000000001
 43
0.0000000001
 40
0.0
 40
0.0
 40
0.0
 40
1.0
 40
1.0
 40
1.0
 10
17.4863838813945
 20
-5.914121941707048
 30
0.0
 10
14.77806455657193
 20
-5.88204522422477
 30
0.0
 10
12.06951141172709
 20
-5.72451506620573
 30
0.0
  0
SPLINE
  5
AA4
330
A8B
100
AcDbEntity
  8
FRONT
  6
CONTINUOUS
 62
     4
100
AcDbSpline
210
0.0
220
0.0
230
1.0
 70
     8
 71
     3
 72
    13
 73
     9
 74
     0
 42
0.0000000001
 43
0.0000000001
 40
0.0
 40
0.0
 40
0.0
 40
0.0
 40
0.1221948788939986
 40
0.3409322576720923
 40
0.5593089850044601
 40
0.7634079375909129
 40
0.9483404453246466
 40
1.0
 40
1.0
 40
1.0
 40
1.0
 10
13.21765994700341
 20
-5.008998841068255
 30
0.0
 10
13.21008985781698
 20
-4.986912363625971
 30
0.0
 10
13.17823433448347
 20
-4.926841776453724
 30
0.0
 10
13.07361191277297
 20
-4.829791137456386
 30
0.0
 10
12.88884659553875
 20
-4.74181959386623
 30
0.0
 10
12.67056256702776
 20
-4.697037384916851
 30
0.0
 10
12.50187045502288
 20
-4.699685032400541
 30
0.0
 10
12.41657811424804
 20
-4.712092428703162
 30
0.0
 10
12.39802525781035
 20
-4.715335514293908
 30
0.0
  0
ELLIPSE
  5
AA5
330
A8B
100
AcDbEntity
  8
FRONT
  6
CONTINUOUS
 62
     4
100
AcDbEllipse
 10
5.66201983816218
 20
-0.0000000000335509
 30
0.0
 11
-30.04133316929991
 21
2.588839177181583
 31
0.0
210
0.0
220
0.0
230
1.0
 40
0.1615314150625295
 41
1.478397138584063
 42
1.769839153165509
  0
SPLINE
  5
AA6
330
A8B
100
AcDbEntity
  8
FRONT
  6
CONTINUOUS
 62
     4
100
AcDbSpline
210
0.0
220
0.0
230
1.0
 70
     8
 71
     3
 72
    13
 73
     9
 74
     0
 42
0.0000000001
 43
0.0000000001
 40
0.0
 40
0.0
 40
0.0
 40
0.0
 40
0.111195031304195
 40
0.2657804119641697
 40
0.4822058427557557
 40
0.6989752890855822
 40
0.9172035917595028
 40
1.0
 40
1.0
 40
1.0
 40
1.0
 10
1.345325372781968
 20
-5.499999327115823
 30
0.0
 10
1.398511539679659
 20
-5.499310768582706
 30
0.0
 10
1.538983733379424
 20
-5.487567585039426
 30
0.0
 10
1.854584013762764
 20
-5.418189805484521
 30
0.0
 10
2.329371189940173
 20
-5.271647579637816
 30
0.0
 10
2.940699872587572
 20
-5.059593436719063
 30
0.0
 10
3.480267253473383
 20
-4.873448667483954
 30
0.0
 10
3.808123122364646
 20
-4.762436312820168
 30
0.0
 10
3.899607151901193
 20
-4.731554934786731
 30
0.0
  0
LINE
  5
AA7
330
A8B
100
AcDbEntity
  8
FRONT
  6
CONTINUOUS
 62
     4
100
AcDbLine
 10
0.8660254037844552
 20
-5.5
 30
0.0
 11
1.352746725880145
 21
-5.5
 31
0.0
  0
ELLIPSE
  5
AA8
330
A8B
100
AcDbEntity
  8
FRONT
  6
CONTINUOUS
 62
     4
100
AcDbEllipse
 10
12.00000899116139
 20
-16.06832890666516
 30
0.0
 11
-14.85880604145566
 21
5.93421040515988
 31
0.0
210
0.0
220
0.0
230
1.0
 40
0.8742329960678898
 41
5.792900081455464
 42
5.811533204192437
  0
SPLINE
  5
AA9
330
A8B
100
AcDbEntity
  8
FRONT
  6
CONTINUOUS
 62
     4
100
AcDbSpline
210
0.0
220
0.0
230
1.0
 70
     8
 71
     3
 72
    13
 73
     9
 74
     0
 42
0.0000000001
 43
0.0000000001
 40
0.0
 40
0.0
 40
0.0
 40
0.0
 40
0.0708887435082171
 40
0.2571724611284706
 40
0.5329963062952721
 40
0.7291217371113851
 40
0.9254339909461146
 40
1.0
 40
1.0
 40
1.0
 40
1.0
 10
1.195562502632583
 20
-4.790625489461174
 30
0.0
 10
1.213912861725795
 20
-4.776794773960335
 30
0.0
 10
1.285762723978912
 20
-4.729112862436839
 30
0.0
 10
1.488346843837938
 20
-4.648305888484085
 30
0.0
 10
1.783730465684264
 20
-4.592365381939607
 30
0.0
 10
2.095253569585678
 20
-4.572953003185091
 30
0.0
 10
2.314409026134284
 20
-4.578924439658588
 30
0.0
 10
2.439434992623304
 20
-4.589560477122677
 30
0.0
 10
2.473778129000646
 20
-4.593052498405127
 30
0.0
  0
SPLINE
  5
AAA
330
A8B
100
AcDbEntity
  8
FRONT
  6
CONTINUOUS
 62
     4
100
AcDbSpline
210
0.0
220
0.0
230
1.0
 70
     8
 71
     2
 72
     6
 73
     3
 74
     0
 42
0.0000000001
 43
0.0000000001
 40
0.0
 40
0.0
 40
0.0
 40
1.0
 40
1.0
 40
1.0
 10
1.120663577351435
 20
-4.879877191273159
 30
0.0
 10
1.140463196528336
 20
-4.832984670632591
 30
0.0
 10
1.195562502632583
 20
-4.790625489461174
 30
0.0
  0
SPLINE
  5
AAB
330
A8B
100
AcDbEntity
  8
FRONT
  6
CONTINUOUS
 62
     4
100
AcDbSpline
210
0.0
220
0.0
230
1.0
 70
     8
 71
     3
 72
    12
 73
     8
 74
     0
 42
0.0000000001
 43
0.0000000001
 40
0.0
 40
0.0
 40
0.0
 40
0.0
 40
0.2338452144524324
 40
0.4675970184665896
 40
0.701762765663897
 40
0.9359711320872667
 40
1.0
 40
1.0
 40
1.0
 40
1.0
 10
1.120663577351435
 20
-4.879877191273159
 30
0.0
 10
1.081791927506593
 20
-4.975462956792688
 30
0.0
 10
1.030111601870139
 20
-5.144886500420123
 30
0.0
 10
1.027342870416914
 20
-5.338220270821794
 30
0.0
 10
1.109594465876227
 20
-5.457981564958576
 30
0.0
 10
1.233664404095364
 20
-5.496508749567235
 30
0.0
 10
1.324763405221041
 20
-5.50007654266059
 30
0.0
 10
1.345325372781968
 20
-5.499999327115823
 30
0.0
  0
LINE
  5
AAC
330
A8B
100
AcDbEntity
  8
FRONT
  6
CONTINUOUS
 62
     4
100
AcDbLine
 10
12.26430749227676
 20
-4.727059865963761
 30
0.0
 11
12.29104950531358
 21
-4.894695500397101
 31
0.0
  0
LINE
  5
AAD
330
A8B
100
AcDbEntity
  8
FRONT
  6
CONTINUOUS
 62
     4
100
AcDbLine
 10
12.05195883253294
 20
-5.282066276975115
 30
0.0
 11
12.07142987167434
 21
-5.257090327121177
 31
0.0
  0
LINE
  5
AAE
330
A8B
100
AcDbEntity
  8
FRONT
  6
CONTINUOUS
 62
     4
100
AcDbLine
 10
11.73862963750701
 20
-5.461687541797807
 30
0.0
 11
11.75466693733002
 21
-5.546759538624929
 31
0.0
  0
LINE
  5
AAF
330
A8B
100
AcDbEntity
  8
FRONT
  6
CONTINUOUS
 62
     4
100
AcDbLine
 10
12.37475758366253
 20
-4.718713550200846
 30
0.0
 11
12.3980252578104
 21
-4.864569859230441
 31
0.0
  0
LINE
  5
AB0
330
A8B
100
AcDbEntity
  8
FRONT
  6
CONTINUOUS
 62
     4
100
AcDbLine
 10
12.29104950531358
 20
-4.894695500397101
 30
0.0
 11
12.30173417735763
 21
-4.961673695881327
 31
0.0
  0
LINE
  5
AB1
330
A8B
100
AcDbEntity
  8
FRONT
  6
CONTINUOUS
 62
     4
100
AcDbLine
 10
12.1154520297858
 20
-5.200622092145676
 30
0.0
 11
12.30173417735763
 21
-4.961673695881327
 31
0.0
  0
ELLIPSE
  5
AB2
330
A8B
100
AcDbEntity
  8
FRONT
  6
CONTINUOUS
 62
     4
100
AcDbEllipse
 10
12.16010065627367
 20
-5.364110026768818
 30
0.0
 11
-0.1629665045002963
 21
0.162301935942986
 31
0.0
210
0.0
220
0.0
230
1.0
 40
0.885395213116765
 41
0.9406572002840926
 42
2.300026522294225
  0
ELLIPSE
  5
AB3
330
A8B
100
AcDbEntity
  8
FRONT
  6
CONTINUOUS
 62
     4
100
AcDbEllipse
 10
10.7327861538169
 20
-6.237521875482824
 30
0.0
 11
-0.1862107868856989
 21
2.621605320212951
 31
0.0
210
0.0
220
0.0
230
0.9999999999999998
 40
0.4178728177031461
 41
4.983018135371414
 42
5.015339106062617
  0
ELLIPSE
  5
AB4
330
A8B
100
AcDbEntity
  8
FRONT
  6
CONTINUOUS
 62
     4
100
AcDbEllipse
 10
10.87421353467201
 20
-0.0952172533848828
 30
0.0
 11
-0.6453609818231091
 21
5.423953475707063
 31
0.0
210
0.0
220
0.0
230
1.0
 40
0.4002139493379774
 41
3.301152841311651
 42
3.433631365786768
  0
ELLIPSE
  5
AB5
330
A8B
100
AcDbEntity
  8
FRONT
  6
CONTINUOUS
 62
     4
100
AcDbEllipse
 10
12.0511447301054
 20
-5.545182037602573
 30
0.0
 11
-0.2141351294070844
 21
0.0839413268520247
 31
0.0
210
0.0
220
0.0
230
1.0
 40
0.7465216560962231
 41
0.5997695972309498
 42
1.937897467873524
  0
ELLIPSE
  5
AB6
330
A8B
100
AcDbEntity
  8
FRONT
  6
CONTINUOUS
 62
     4
100
AcDbEllipse
 10
12.05060526702193
 20
-5.546128395411039
 30
0.0
 11
-0.1654325527084979
 21
0.1597875793175752
 31
0.0
210
0.0
220
0.0
230
0.9999999999999998
 40
0.882922871075139
 41
0.9271183505009291
 42
2.296772776618916
  0
ELLIPSE
  5
AB7
330
A8B
100
AcDbEntity
  8
FRONT
  6
CONTINUOUS
 62
     4
100
AcDbEllipse
 10
12.29961961995718
 20
-4.878644087818582
 30
0.0
 11
-0.0987513760092463
 21
-0.0157532770020267
 31
0.0
210
0.0
220
0.0
230
1.0
 40
0.1458931740710974
 41
1.460656485145534
 42
3.031452811938669
  0
ELLIPSE
  5
AB8
330
A8B
100
AcDbEntity
  8
FRONT
  6
CONTINUOUS
 62
     4
100
AcDbEllipse
 10
335.219081173506
 20
-27.65352952608379
 30
0.0
 11
-342.1452092599433
 21
28.76443531917338
 31
0.0
210
0.0
220
0.0
230
1.0
 40
0.0434239235819959
 41
0.3305623080092169
 42
0.336553522992711
  0
ELLIPSE
  5
AB9
330
A8B
100
AcDbEntity
  8
FRONT
  6
CONTINUOUS
 62
     4
100
AcDbEllipse
 10
12.61274556700008
 20
-7.087755426446605
 30
0.0
 11
-0.6874421685867658
 21
4.776216476972511
 31
0.0
210
0.0
220
0.0
230
1.0
 40
0.0505508379540167
 41
1.059760007862942
 42
1.160653432741368
  0
SPLINE
  5
ABA
330
A8B
100
AcDbEntity
  8
FRONT
  6
CONTINUOUS
 62
     4
100
AcDbSpline
210
0.0
220
0.0
230
1.0
 70
    24
 71
     1
 72
     4
 73
     2
 74
     0
 42
0.0000000001
 43
0.0000000001
 40
0.0
 40
0.0
 40
1.0
 40
1.0
 10
11.83847321585812
 20
-5.567069085629718
 30
0.0
 10
11.83901267894247
 20
-5.566122727825887
 30
0.0
  0
SPLINE
  5
ABB
330
A8B
100
AcDbEntity
  8
FRONT
  6
CONTINUOUS
 62
     4
100
AcDbSpline
210
0.0
220
0.0
230
1.0
 70
     8
 71
     3
 72
    12
 73
     8
 74
     0
 42
0.0000000001
 43
0.0000000001
 40
0.0
 40
0.0
 40
0.0
 40
0.0
 40
0.0007970805857311
 40
0.2615790368690925
 40
0.5223632910078863
 40
0.9992029194147567
 40
1.0
 40
1.0
 40
1.0
 40
1.0
 10
12.06951141172706
 20
-5.72451506620573
 30
0.0
 10
12.06948314701705
 20
-5.724610988602324
 30
0.0
 10
12.06830139779341
 20
-5.728621512447585
 30
0.0
 10
12.06584538067532
 20
-5.73637821965794
 30
0.0
 10
12.0610158647334
 20
-5.749472267031435
 30
0.0
 10
12.05732682921891
 20
-5.75726605425465
 30
0.0
 10
12.05497323553964
 20
-5.761353601725923
 30
0.0
 10
12.05492333661389
 20
-5.761440262542944
 30
0.0
  0
SPLINE
  5
ABC
330
A8B
100
AcDbEntity
  8
FRONT
  6
CONTINUOUS
 62
     4
100
AcDbSpline
210
0.0
220
0.0
230
1.0
 70
    24
 71
     1
 72
     4
 73
     2
 74
     0
 42
0.0000000001
 43
0.0000000001
 40
0.0
 40
0.0
 40
1.0
 40
1.0
 10
11.77084472479986
 20
-5.637701490563106
 30
0.0
 10
11.83847321585812
 20
-5.567069085629722
 30
0.0
  0
SPLINE
  5
ABD
330
A8B
100
AcDbEntity
  8
FRONT
  6
CONTINUOUS
 62
     4
100
AcDbSpline
210
0.0
220
0.0
230
1.0
 70
     8
 71
     2
 72
     6
 73
     3
 74
     0
 42
0.0000000001
 43
0.0000000001
 40
0.0
 40
0.0
 40
0.0
 40
1.0
 40
1.0
 40
1.0
 10
12.26612713977722
 20
-5.47418946266737
 30
0.0
 10
12.21369198338541
 20
-5.526401979383564
 30
0.0
 10
12.16152824195172
 20
-5.579846203347781
 30
0.0
  0
SPLINE
  5
ABE
330
A8B
100
AcDbEntity
  8
FRONT
  6
CONTINUOUS
 62
     4
100
AcDbSpline
210
0.0
220
0.0
230
1.0
 70
    24
 71
     1
 72
     4
 73
     2
 74
     0
 42
0.0000000001
 43
0.0000000001
 40
0.0
 40
0.0
 40
1.0
 40
1.0
 10
12.2699596882263
 20
-5.474819161767427
 30
0.0
 10
12.26612713977731
 20
-5.474189462667331
 30
0.0
  0
SPLINE
  5
ABF
330
A8B
100
AcDbEntity
  8
FRONT
  6
CONTINUOUS
 62
     4
100
AcDbSpline
210
0.0
220
0.0
230
1.0
 70
    24
 71
     1
 72
     4
 73
     2
 74
     0
 42
0.0000000001
 43
0.0000000001
 40
0.0
 40
0.0
 40
1.0
 40
1.0
 10
11.75466693733006
 20
-5.546759538624929
 30
0.0
 10
11.77084472479986
 20
-5.637701490563197
 30
0.0
  0
SPLINE
  5
AC0
330
A8B
100
AcDbEntity
  8
FRONT
  6
CONTINUOUS
 62
     4
100
AcDbSpline
210
0.0
220
0.0
230
1.0
 70
     8
 71
     3
 72
    12
 73
     8
 74
     0
 42
0.0000000001
 43
0.0000000001
 40
0.0
 40
0.0
 40
0.0
 40
0.0
 40
0.0001979715625893
 40
0.3804243462904076
 40
0.6884015213626393
 40
0.9998020284374039
 40
1.0
 40
1.0
 40
1.0
 40
1.0
 10
12.16152824195172
 20
-5.579846203347781
 30
0.0
 10
12.16145494845797
 20
-5.579914233221867
 30
0.0
 10
12.14800020764509
 20
-5.592402712335362
 30
0.0
 10
12.12460907423586
 20
-5.619318961954996
 30
0.0
 10
12.09413125687514
 20
-5.668815656959997
 30
0.0
 10
12.07735989436437
 20
-5.705022480727572
 30
0.0
 10
12.06954876176722
 20
-5.72442230320394
 30
0.0
 10
12.06951141172706
 20
-5.72451506620573
 30
0.0
  0
SPLINE
  5
AC1
330
A8B
100
AcDbEntity
  8
FRONT
  6
CONTINUOUS
 62
     4
100
AcDbSpline
210
0.0
220
0.0
230
1.0
 70
     8
 71
     3
 72
    11
 73
     7
 74
     0
 42
0.0000000001
 43
0.0000000001
 40
0.0
 40
0.0
 40
0.0
 40
0.0
 40
0.0003046676542752
 40
0.2859486271382446
 40
0.5715925864685599
 40
1.0
 40
1.0
 40
1.0
 40
1.0
 10
12.05492333661392
 20
-5.761440262542944
 30
0.0
 10
12.05485458948857
 20
-5.761512883702093
 30
0.0
 10
12.04890508266609
 20
-5.767797656751879
 30
0.0
 10
12.0368932920704
 20
-5.780516646112557
 30
0.0
 10
12.01590433567814
 20
-5.802847200540763
 30
0.0
 10
12.00092977263713
 20
-5.818873351337892
 30
0.0
 10
11.99195171433706
 20
-5.82851593948345
 30
0.0
  0
SPLINE
  5
AC2
330
A8B
100
AcDbEntity
  8
FRONT
  6
CONTINUOUS
 62
     4
100
AcDbSpline
210
0.0
220
0.0
230
1.0
 70
     8
 71
     3
 72
    10
 73
     6
 74
     0
 42
0.0000000001
 43
0.0000000001
 40
0.0
 40
0.0
 40
0.0
 40
0.0
 40
0.3783609825527917
 40
0.8357001481048397
 40
1.0
 40
1.0
 40
1.0
 40
1.0
 10
11.92547454029551
 20
-4.97636464574548
 30
0.0
 10
11.92640289606277
 20
-5.008713239544544
 30
0.0
 10
11.9475704542029
 20
-5.078030220539246
 30
0.0
 10
12.02773237930664
 20
-5.158970478124096
 30
0.0
 10
12.09728872776177
 20
-5.203611051795411
 30
0.0
 10
12.11721712142133
 20
-5.215153759323888
 30
0.0
  0
SPLINE
  5
AC3
330
A8B
100
AcDbEntity
  8
FRONT
  6
CONTINUOUS
 62
     4
100
AcDbSpline
210
0.0
220
0.0
230
1.0
 70
    24
 71
     1
 72
     4
 73
     2
 74
     0
 42
0.0000000001
 43
0.0000000001
 40
0.0
 40
0.0
 40
1.0
 40
1.0
 10
11.99195171433702
 20
-5.828515939483446
 30
0.0
 10
12.03715635432748
 20
-5.830493677100303
 30
0.0
  0
SPLINE
  5
AC4
330
A8B
100
AcDbEntity
  8
FRONT
  6
CONTINUOUS
 62
     4
100
AcDbSpline
210
0.0
220
0.0
230
1.0
 70
    24
 71
     1
 72
     4
 73
     2
 74
     0
 42
0.0000000001
 43
0.0000000001
 40
0.0
 40
0.0
 40
1.0
 40
1.0
 10
11.83901267894151
 20
-5.566122727821471
 30
0.0
 10
11.9479686051097
 20
-5.385050716987656
 30
0.0
  0
SPLINE
  5
AC5
330
A8B
100
AcDbEntity
  8
FRONT
  6
CONTINUOUS
 62
     4
100
AcDbSpline
210
0.0
220
0.0
230
1.0
 70
    24
 71
     1
 72
     4
 73
     2
 74
     0
 42
0.0000000001
 43
0.0000000001
 40
0.0
 40
0.0
 40
1.0
 40
1.0
 10
11.9479686051097
 20
-5.385050716987656
 30
0.0
 10
12.05195883253294
 20
-5.282066276975115
 30
0.0
  0
SPLINE
  5
AC6
330
A8B
100
AcDbEntity
  8
FRONT
  6
CONTINUOUS
 62
     4
100
AcDbSpline
210
0.0
220
0.0
230
1.0
 70
     8
 71
     3
 72
    12
 73
     8
 74
     0
 42
0.0000000001
 43
0.0000000001
 40
0.0
 40
0.0
 40
0.0
 40
0.0
 40
0.2440298709825522
 40
0.488120310074948
 40
0.7306421972591243
 40
0.9701993202335991
 40
1.0
 40
1.0
 40
1.0
 40
1.0
 10
11.99195171433709
 20
-5.82851593948345
 30
0.0
 10
11.9656217646913
 20
-5.827267267325022
 30
0.0
 10
11.91614572163951
 20
-5.817153042582487
 30
0.0
 10
11.84798307522928
 20
-5.777355599814407
 30
0.0
 10
11.79694752140733
 20
-5.718879229510209
 30
0.0
 10
11.77656470249855
 20
-5.668220081294727
 30
0.0
 10
11.77135854082036
 20
-5.640760675661914
 30
0.0
 10
11.77084472479986
 20
-5.637701490563109
 30
0.0
  0
SPLINE
  5
AC7
330
A8B
100
AcDbEntity
  8
FRONT
  6
CONTINUOUS
 62
     4
100
AcDbSpline
210
0.0
220
0.0
230
1.0
 70
     8
 71
     3
 72
    12
 73
     8
 74
     0
 42
0.0000000001
 43
0.0000000001
 40
0.0
 40
0.0
 40
0.0
 40
0.0
 40
0.2494158432111992
 40
0.4988262431130359
 40
0.7483784991253286
 40
0.9306372409059042
 40
1.0
 40
1.0
 40
1.0
 40
1.0
 10
12.26612713977725
 20
-5.474189462667368
 30
0.0
 10
12.24074389915803
 20
-5.470905762207362
 30
0.0
 10
12.19300726095426
 20
-5.45734271395117
 30
0.0
 10
12.12696856456717
 20
-5.413990106048153
 30
0.0
 10
12.08152368192698
 20
-5.359081947772208
 30
0.0
 10
12.0601917046491
 20
-5.312655749461065
 30
0.0
 10
12.05351014507608
 20
-5.288741533352951
 30
0.0
 10
12.05195883253294
 20
-5.282066276975186
 30
0.0
  0
SPLINE
  5
AC8
330
A8B
100
AcDbEntity
  8
FRONT
  6
CONTINUOUS
 62
     4
100
AcDbSpline
210
0.0
220
0.0
230
1.0
 70
     8
 71
     3
 72
    12
 73
     8
 74
     0
 42
0.0000000001
 43
0.0000000001
 40
0.0
 40
0.0
 40
0.0
 40
0.0
 40
0.2310224464948759
 40
0.4620128681126269
 40
0.700559328220569
 40
0.9585437245442095
 40
1.0
 40
1.0
 40
1.0
 40
1.0
 10
12.39802525781044
 20
-4.715335514294038
 30
0.0
 10
12.33170953226865
 20
-4.714864780624963
 30
0.0
 10
12.21155122598614
 20
-4.724956838763255
 30
0.0
 10
12.06026597347467
 20
-4.778355069166565
 30
0.0
 10
11.95757756141464
 20
-4.859331154412664
 30
0.0
 10
11.92685169980242
 20
-4.930597414275522
 30
0.0
 10
11.92538238415322
 20
-4.970764610147099
 30
0.0
 10
11.92547454029551
 20
-4.97636464574548
 30
0.0
  0
LINE
  5
AC9
330
A8B
100
AcDbEntity
  8
FRONT
  6
CONTINUOUS
 62
     4
100
AcDbLine
 10
15.84223636732298
 20
-3.792713428712794
 30
0.0
 11
15.84224378306065
 21
-3.174912246999863
 31
0.0
  0
LINE
  5
ACA
330
A8B
100
AcDbEntity
  8
FRONT
  6
CONTINUOUS
 62
     4
100
AcDbLine
 10
17.89827503693186
 20
-4.305849194799658
 30
0.0
 11
17.5908596611797
 21
-2.933128552700321
 31
0.0
  0
ELLIPSE
  5
ACB
330
A8B
100
AcDbEntity
  8
FRONT
  6
CONTINUOUS
 62
     4
100
AcDbEllipse
 10
15.54074239609755
 20
-0.0033845369197216
 30
0.0
 11
-0.0787240753221909
 21
-5.634958844023342
 31
0.0
210
0.0
220
0.0
230
0.9999999999999998
 40
0.0848761530590921
 41
0.8344445634990043
 42
0.9971121243690364
  0
ELLIPSE
  5
ACC
330
A8B
100
AcDbEntity
  8
FRONT
  6
CONTINUOUS
 62
     4
100
AcDbEllipse
 10
14.84592289431094
 20
-3.161093469702696
 30
0.0
 11
-0.7939253072066414
 21
0.4238898519389809
 31
0.0
210
0.0
220
0.0
230
1.0
 40
0.9833059182791441
 41
3.141592653589792
 42
6.283185307179584
  0
ELLIPSE
  5
ACD
330
A8B
100
AcDbEntity
  8
FRONT
  6
CONTINUOUS
 62
     4
100
AcDbEllipse
 10
14.82057983206995
 20
-3.208559806495621
 30
0.0
 11
-0.6124566485468032
 21
0.3270007338409036
 31
0.0
210
0.0
220
0.0
230
1.0
 40
0.9833059182791558
 41
0.0
 42
6.283185307179584
  0
ELLIPSE
  5
ACE
330
A8B
100
AcDbEntity
  8
FRONT
  6
CONTINUOUS
 62
     4
100
AcDbEllipse
 10
13.53332915049316
 20
-0.0034367749653255
 30
0.0
 11
-0.0799385486845723
 21
-5.721889020223127
 31
0.0
210
0.0
220
0.0
230
1.0
 40
0.0848761529690107
 41
0.8609885795557556
 42
1.010813097306144
  0
ELLIPSE
  5
ACF
330
A8B
100
AcDbEntity
  8
FRONT
  6
CONTINUOUS
 62
     4
100
AcDbEllipse
 10
14.84592289431431
 20
-3.161093469702228
 30
0.0
 11
-0.793925307234311
 21
0.42388985189299
 31
0.0
210
0.0
220
0.0
230
1.0
 40
0.9833059182785405
 41
0.0
 42
1.217655899238259
  0
ELLIPSE
  5
AD0
330
A8B
100
AcDbEntity
  8
FRONT
  6
CONTINUOUS
 62
     4
100
AcDbEllipse
 10
14.80294988243549
 20
-3.241579854311311
 30
0.0
 11
-0.7939252851528728
 21
0.4238898401648104
 31
0.0
210
0.0
220
0.0
230
1.0
 40
0.9833059182791334
 41
3.193165641446312
 42
5.213279965006496
  0
LINE
  5
AD1
330
A8B
100
AcDbEntity
  8
FRONT
  6
CONTINUOUS
 62
     4
100
AcDbLine
 10
12.59147932455181
 20
-5.148581112793888
 30
0.0
 11
16.67361660422962
 21
-5.134616718352519
 31
0.0
  0
ELLIPSE
  5
AD2
330
A8B
100
AcDbEntity
  8
FRONT
  6
CONTINUOUS
 62
     4
100
AcDbEllipse
 10
14.84592289572717
 20
-3.161093470714305
 30
0.0
 11
-0.7939253088795834
 21
0.4238898451415228
 31
0.0
210
0.0
220
0.0
230
1.0
 40
0.9833059192021876
 41
2.862822081785346
 42
3.141592646178711
  0
ELLIPSE
  5
AD3
330
A8B
100
AcDbEntity
  8
FRONT
  6
CONTINUOUS
 62
     4
100
AcDbEllipse
 10
26.03145212602744
 20
0.4201256460465415
 30
0.0
 11
-60.22774572573949
 21
0.8391642046853387
 31
0.0
210
0.0
220
0.0
230
1.0
 40
0.0733360947234748
 41
1.395961454238489
 42
1.401822529636017
  0
ELLIPSE
  5
AD4
330
A8B
100
AcDbEntity
  8
FRONT
  6
CONTINUOUS
 62
     4
100
AcDbEllipse
 10
-2.102243007827921
 20
0.5190125394426035
 30
0.0
 11
-74.39203540301211
 21
1.036502535843046
 31
0.0
210
0.0
220
0.0
230
1.0
 40
0.0733366707427299
 41
1.786532921110053
 42
1.835644438831914
  0
SPLINE
  5
AD5
330
A8B
100
AcDbEntity
  8
FRONT
  6
CONTINUOUS
 62
     4
100
AcDbSpline
210
0.0
220
0.0
230
1.0
 70
    24
 71
     1
 72
     4
 73
     2
 74
     0
 42
0.0000000001
 43
0.0000000001
 40
0.0
 40
0.0
 40
1.0
 40
1.0
 10
17.59489872014192
 20
-5.975264142052814
 30
0.0
 10
14.60613712230076
 20
-5.930601946215396
 30
0.0
  0
SPLINE
  5
AD6
330
A8B
100
AcDbEntity
  8
FRONT
  6
CONTINUOUS
 62
     4
100
AcDbSpline
210
0.0
220
0.0
230
1.0
 70
     8
 71
     2
 72
     6
 73
     3
 74
     0
 42
0.0000000001
 43
0.0000000001
 40
0.0
 40
0.0
 40
0.0
 40
1.0
 40
1.0
 40
1.0
 10
17.53382959937809
 20
-5.939844692875301
 30
0.0
 10
16.07823206326433
 20
-5.926820755708295
 30
0.0
 10
14.62245185943817
 20
-5.87714135957826
 30
0.0
  0
SPLINE
  5
AD7
330
A8B
100
AcDbEntity
  8
FRONT
  6
CONTINUOUS
 62
     4
100
AcDbSpline
210
0.0
220
0.0
230
1.0
 70
    24
 71
     1
 72
     4
 73
     2
 74
     0
 42
0.0000000001
 43
0.0000000001
 40
0.0
 40
0.0
 40
1.0
 40
1.0
 10
15.13868294684773
 20
-5.711454223476931
 30
0.0
 10
17.25016942408504
 20
-5.752170042241942
 30
0.0
  0
SPLINE
  5
AD8
330
A8B
100
AcDbEntity
  8
FRONT
  6
CONTINUOUS
 62
     4
100
AcDbSpline
210
0.0
220
0.0
230
1.0
 70
     8
 71
     2
 72
     6
 73
     3
 74
     0
 42
0.0000000001
 43
0.0000000001
 40
0.0
 40
0.0
 40
0.0
 40
1.0
 40
1.0
 40
1.0
 10
17.29538407867861
 20
-5.788382807545392
 30
0.0
 10
16.20626920503309
 20
-5.775330117086896
 30
0.0
 10
15.12493514742534
 20
-5.739186742282312
 30
0.0
  0
SPLINE
  5
AD9
330
A8B
100
AcDbEntity
  8
FRONT
  6
CONTINUOUS
 62
     4
100
AcDbSpline
210
0.0
220
0.0
230
1.0
 70
     8
 71
     2
 72
     6
 73
     3
 74
     0
 42
0.0000000001
 43
0.0000000001
 40
0.0
 40
0.0
 40
0.0
 40
1.0
 40
1.0
 40
1.0
 10
17.31289606147389
 20
-5.809345576655007
 30
0.0
 10
16.21894412271205
 20
-5.784442697072787
 30
0.0
 10
15.12493514742539
 20
-5.739186742282306
 30
0.0
  0
LINE
  5
ADA
330
A8B
100
AcDbEntity
  8
FRONT
  6
CONTINUOUS
 62
     4
100
AcDbLine
 10
13.21506101770313
 20
-5.031717125328196
 30
0.0
 11
13.70168904333385
 21
-5.030052442043299
 31
0.0
  0
LINE
  5
ADB
330
A8B
100
AcDbEntity
  8
FRONT
  6
CONTINUOUS
 62
     4
100
AcDbLine
 10
12.59831180396925
 20
-5.033826934161636
 30
0.0
 11
13.21506101770313
 21
-5.031717125328196
 31
0.0
  0
LINE
  5
ADC
330
A8B
100
AcDbEntity
  8
FRONT
  6
CONTINUOUS
 62
     4
100
AcDbLine
 10
12.52411245174376
 20
-5.148811565010388
 30
0.0
 11
12.59147932455181
 21
-5.148581112793888
 31
0.0
  0
LINE
  5
ADD
330
A8B
100
AcDbEntity
  8
FRONT
  6
CONTINUOUS
 62
     4
100
AcDbLine
 10
13.73039490001062
 20
-5.644465229015402
 30
0.0
 11
13.65251602410751
 21
-5.651687726725348
 31
0.0
  0
ELLIPSE
  5
ADE
330
A8B
100
AcDbEntity
  8
FRONT
  6
CONTINUOUS
 62
     4
100
AcDbEllipse
 10
14.19019065232725
 20
-5.217546069540356
 30
0.0
 11
-0.0261303380478747
 21
-0.4993167493651739
 31
0.0
210
0.0
220
0.0
230
1.0
 40
0.207227326156888
 41
0.293361878369899
 42
0.4309508045600884
  0
ELLIPSE
  5
ADF
330
A8B
100
AcDbEntity
  8
FRONT
  6
CONTINUOUS
 62
     4
100
AcDbEllipse
 10
35.35054063342625
 20
0.000151900276844
 30
0.0
 11
-66.41326335410838
 21
0.9269833922146547
 31
0.0
210
0.0
220
0.0
230
1.0
 40
0.0848785527739216
 41
1.232222219062653
 42
1.240685434065807
  0
ELLIPSE
  5
AE0
330
A8B
100
AcDbEntity
  8
FRONT
  6
CONTINUOUS
 62
     4
100
AcDbEllipse
 10
15.11920026906091
 20
-5.25552853925582
 30
0.0
 11
-0.0157629108455211
 21
-0.4997514551771808
 31
0.0
210
0.0
220
0.0
230
0.9999999999999996
 40
0.1634163455934212
 41
0.2596728804504972
 42
0.4271027027017509
  0
ELLIPSE
  5
AE1
330
A8B
100
AcDbEntity
  8
FRONT
  6
CONTINUOUS
 62
     4
100
AcDbEllipse
 10
26.03106406187677
 20
0.4200021500912944
 30
0.0
 11
-60.22680518323547
 21
0.8391789498204172
 31
0.0
210
0.0
220
0.0
230
0.9999999999999998
 40
0.073335099090449
 41
1.368153266464279
 42
1.373756158617132
  0
ELLIPSE
  5
AE2
330
A8B
100
AcDbEntity
  8
FRONT
  6
CONTINUOUS
 62
     4
100
AcDbEllipse
 10
12.60004943919611
 20
-5.132529700220393
 30
0.0
 11
-0.000342083369458
 21
0.0999994148984049
 31
0.0
210
0.0
220
0.0
230
0.9999999999999998
 40
0.0873785520673491
 41
0.1609135457003019
 42
1.731709872424159
  0
SPLINE
  5
AE3
330
A8B
100
AcDbEntity
  8
FRONT
  6
CONTINUOUS
 62
     4
100
AcDbSpline
210
0.0
220
0.0
230
1.0
 70
     8
 71
     3
 72
    10
 73
     6
 74
     0
 42
0.0000000001
 43
0.0000000001
 40
0.0
 40
0.0
 40
0.0
 40
0.0
 40
0.2568958804124872
 40
0.5137917608271178
 40
1.0
 40
1.0
 40
1.0
 40
1.0
 10
14.6061371218886
 20
-5.930601824966093
 30
0.0
 10
14.60753377257093
 20
-5.926009260558598
 30
0.0
 10
14.61032728581661
 20
-5.916831653154844
 30
0.0
 10
14.61576516470299
 20
-5.898998421367481
 30
0.0
 10
14.61980695983203
 20
-5.885777952760061
 30
0.0
 10
14.62245185943814
 20
-5.87714135957826
 30
0.0
  0
SPLINE
  5
AE4
330
A8B
100
AcDbEntity
  8
FRONT
  6
CONTINUOUS
 62
     4
100
AcDbSpline
210
0.0
220
0.0
230
1.0
 70
    24
 71
     1
 72
     4
 73
     2
 74
     0
 42
0.0000000001
 43
0.0000000001
 40
0.0
 40
0.0
 40
1.0
 40
1.0
 10
13.65251602410751
 20
-5.651687726725348
 30
0.0
 10
13.57741475365825
 20
-5.65512213110166
 30
0.0
  0
SPLINE
  5
AE5
330
A8B
100
AcDbEntity
  8
FRONT
  6
CONTINUOUS
 62
     4
100
AcDbSpline
210
0.0
220
0.0
230
1.0
 70
     8
 71
     3
 72
    15
 73
    11
 74
     0
 42
0.0000000001
 43
0.0000000001
 40
0.0
 40
0.0
 40
0.0
 40
0.0
 40
0.140976339028535
 40
0.2892431856819297
 40
0.4121436114845082
 40
0.5144916745071848
 40
0.6168092444520747
 40
0.7567233522043856
 40
0.9739203035115163
 40
1.0
 40
1.0
 40
1.0
 40
1.0
 10
15.49450213479355
 20
-3.783439226602423
 30
0.0
 10
15.44981998562096
 20
-3.834784754789421
 30
0.0
 10
15.34586240619185
 20
-3.929717956575207
 30
0.0
 10
15.16411478532275
 20
-4.042164088828029
 30
0.0
 10
14.96509713276188
 20
-4.105578478492557
 30
0.0
 10
14.77588171470955
 20
-4.116965143829848
 30
0.0
 10
14.5865234857672
 20
-4.081240257906233
 30
0.0
 10
14.37534379397539
 20
-3.975845413349876
 30
0.0
 10
14.24980172860958
 20
-3.846984870652867
 30
0.0
 10
14.1867895891514
 20
-3.756804337707721
 30
0.0
 10
14.18025452780808
 20
-3.746989982441069
 30
0.0
  0
SPLINE
  5
AE6
330
A8B
100
AcDbEntity
  8
FRONT
  6
CONTINUOUS
 62
     4
100
AcDbSpline
210
0.0
220
0.0
230
1.0
 70
    24
 71
     1
 72
     4
 73
     2
 74
     0
 42
0.0000000001
 43
0.0000000001
 40
0.0
 40
0.0
 40
1.0
 40
1.0
 10
13.69211008638281
 20
-5.664088371972116
 30
0.0
 10
13.57741475365825
 20
-5.65512213110166
 30
0.0
  0
SPLINE
  5
AE7
330
A8B
100
AcDbEntity
  8
FRONT
  6
CONTINUOUS
 62
     4
100
AcDbSpline
210
0.0
220
0.0
230
1.0
 70
    24
 71
     1
 72
     4
 73
     2
 74
     0
 42
0.0000000001
 43
0.0000000001
 40
0.0
 40
0.0
 40
1.0
 40
1.0
 10
14.19509791486686
 20
-5.697096415954096
 30
0.0
 10
13.67240432655448
 20
-5.670248142954241
 30
0.0
  0
SPLINE
  5
AE8
330
A8B
100
AcDbEntity
  8
FRONT
  6
CONTINUOUS
 62
     4
100
AcDbSpline
210
0.0
220
0.0
230
1.0
 70
    24
 71
     1
 72
     4
 73
     2
 74
     0
 42
0.0000000001
 43
0.0000000001
 40
0.0
 40
0.0
 40
1.0
 40
1.0
 10
14.60613712230153
 20
-5.930601946215417
 30
0.0
 10
13.9484959168259
 20
-5.910374237639902
 30
0.0
  0
SPLINE
  5
AE9
330
A8B
100
AcDbEntity
  8
FRONT
  6
CONTINUOUS
 62
     4
100
AcDbSpline
210
0.0
220
0.0
230
1.0
 70
    24
 71
     1
 72
     4
 73
     2
 74
     0
 42
0.0000000001
 43
0.0000000001
 40
0.0
 40
0.0
 40
1.0
 40
1.0
 10
13.73039490001062
 20
-5.644465229015402
 30
0.0
 10
14.20967333082538
 20
-5.673471778213071
 30
0.0
  0
SPLINE
  5
AEA
330
A8B
100
AcDbEntity
  8
FRONT
  6
CONTINUOUS
 62
     4
100
AcDbSpline
210
0.0
220
0.0
230
1.0
 70
    24
 71
     1
 72
     4
 73
     2
 74
     0
 42
0.0000000001
 43
0.0000000001
 40
0.0
 40
0.0
 40
1.0
 40
1.0
 10
14.19509791486686
 20
-5.697096415954096
 30
0.0
 10
13.69211008638281
 20
-5.664088371972116
 30
0.0
  0
SPLINE
  5
AEB
330
A8B
100
AcDbEntity
  8
FRONT
  6
CONTINUOUS
 62
     4
100
AcDbSpline
210
0.0
220
0.0
230
1.0
 70
     8
 71
     3
 72
    11
 73
     7
 74
     0
 42
0.0000000001
 43
0.0000000001
 40
0.0
 40
0.0
 40
0.0
 40
0.0
 40
0.000063183656549
 40
0.6610072159485929
 40
0.9999368181050073
 40
1.0
 40
1.0
 40
1.0
 40
1.0
 10
15.12493514742537
 20
-5.739186742282305
 30
0.0
 10
15.12483521826678
 20
-5.739182978870811
 30
0.0
 10
14.91946003926739
 20
-5.731448386494392
 30
0.0
 10
14.60906890037243
 20
-5.718477412827605
 30
0.0
 10
14.29980413634301
 20
-5.702773299872545
 30
0.0
 10
14.1951977682056
 20
-5.697101829728066
 30
0.0
 10
14.19509791485793
 20
-5.697096415953659
 30
0.0
  0
SPLINE
  5
AEC
330
A8B
100
AcDbEntity
  8
FRONT
  6
CONTINUOUS
 62
     4
100
AcDbSpline
210
0.0
220
0.0
230
1.0
 70
    24
 71
     1
 72
     4
 73
     2
 74
     0
 42
0.0000000001
 43
0.0000000001
 40
0.0
 40
0.0
 40
1.0
 40
1.0
 10
14.20967333286792
 20
-5.673471778307494
 30
0.0
 10
15.13868294684773
 20
-5.711454223476938
 30
0.0
  0
SPLINE
  5
AED
330
A8B
100
AcDbEntity
  8
FRONT
  6
CONTINUOUS
 62
     4
100
AcDbSpline
210
0.0
220
0.0
230
1.0
 70
    24
 71
     1
 72
     4
 73
     2
 74
     0
 42
0.0000000001
 43
0.0000000001
 40
0.0
 40
0.0
 40
1.0
 40
1.0
 10
13.67240432655448
 20
-5.670248142954241
 30
0.0
 10
13.61429623476742
 20
-5.667122247227887
 30
0.0
  0
LINE
  5
AEE
330
A8B
100
AcDbEntity
  8
FRONT
  6
CONTINUOUS
 62
     4
100
AcDbLine
 10
17.94014373270267
 20
-4.696380917179419
 30
0.0
 11
17.94014637934187
 21
-4.697134583006601
 31
0.0
  0
LINE
  5
AEF
330
A8B
100
AcDbEntity
  8
FRONT
  6
CONTINUOUS
 62
     4
100
AcDbLine
 10
17.9296204316509
 20
-4.690827415632082
 30
0.0
 11
17.93253772748869
 21
-5.521566331524031
 31
0.0
  0
LINE
  5
AF0
330
A8B
100
AcDbEntity
  8
FRONT
  6
CONTINUOUS
 62
     4
100
AcDbLine
 10
17.99553525741189
 20
-4.703931962073951
 30
0.0
 11
17.9986026430253
 21
-5.577410944240646
 31
0.0
  0
LINE
  5
AF1
330
A8B
100
AcDbEntity
  8
FRONT
  6
CONTINUOUS
 62
     4
100
AcDbLine
 10
17.58943827622755
 20
-4.872056962875418
 30
0.0
 11
17.58957197281752
 21
-4.91012885081491
 31
0.0
  0
LINE
  5
AF2
330
A8B
100
AcDbEntity
  8
FRONT
  6
CONTINUOUS
 62
     4
100
AcDbLine
 10
17.58943827622755
 20
-4.872056962875418
 30
0.0
 11
17.86767576873332
 21
-4.704849480079047
 31
0.0
  0
LINE
  5
AF3
330
A8B
100
AcDbEntity
  8
FRONT
  6
CONTINUOUS
 62
     4
100
AcDbLine
 10
17.87708664776414
 20
-4.686615922447828
 30
0.0
 11
17.87984322178274
 21
-5.471587155772794
 31
0.0
  0
LINE
  5
AF4
330
A8B
100
AcDbEntity
  8
FRONT
  6
CONTINUOUS
 62
     4
100
AcDbLine
 10
17.94014637934187
 20
-4.697134583006601
 30
0.0
 11
17.94307446467377
 21
-5.53094595129999
 31
0.0
  0
LINE
  5
AF5
330
A8B
100
AcDbEntity
  8
FRONT
  6
CONTINUOUS
 62
     4
100
AcDbLine
 10
17.90527073750188
 20
-4.337218884751767
 30
0.0
 11
17.82020488840544
 21
-4.404730119587552
 31
0.0
  0
LINE
  5
AF6
330
A8B
100
AcDbEntity
  8
FRONT
  6
CONTINUOUS
 62
     4
100
AcDbLine
 10
17.82020488840544
 20
-4.404730119587552
 30
0.0
 11
17.86767576873332
 21
-4.704849480079047
 31
0.0
  0
LINE
  5
AF7
330
A8B
100
AcDbEntity
  8
FRONT
  6
CONTINUOUS
 62
     4
100
AcDbLine
 10
17.57701616247765
 20
-4.794187397985162
 30
0.0
 11
17.48879939540238
 21
-4.241189622687848
 31
0.0
  0
LINE
  5
AF8
330
A8B
100
AcDbEntity
  8
FRONT
  6
CONTINUOUS
 62
     4
100
AcDbLine
 10
17.58943827622755
 20
-4.872056962875418
 30
0.0
 11
17.57701616247765
 21
-4.794187397985162
 31
0.0
  0
ELLIPSE
  5
AF9
330
A8B
100
AcDbEntity
  8
FRONT
  6
CONTINUOUS
 62
     4
100
AcDbEllipse
 10
17.28179924891806
 20
-4.836410083749438
 30
0.0
 11
-0.2646417690684293
 21
0.1412966173143831
 31
0.0
210
0.0
220
0.0
230
1.0
 40
0.9833059182785888
 41
2.071687311421134
 42
3.782109978374953
  0
ELLIPSE
  5
AFA
330
A8B
100
AcDbEntity
  8
FRONT
  6
CONTINUOUS
 62
     4
100
AcDbEllipse
 10
18.78976301780029
 20
-4.225196264847973
 30
0.0
 11
-0.9665041965168652
 21
0.3765818908141549
 31
0.0
210
0.0
220
0.0
230
0.9999999999999998
 40
0.8498862410049405
 41
0.6298734289431917
 42
0.7760221204517431
  0
ELLIPSE
  5
AFB
330
A8B
100
AcDbEntity
  8
FRONT
  6
CONTINUOUS
 62
     4
100
AcDbEllipse
 10
17.29036936377426
 20
-4.820358671225433
 30
0.0
 11
-0.1764278450464169
 21
0.094197746298221
 31
0.0
210
0.0
220
0.0
230
1.0
 40
0.9833059187880415
 41
3.524855636639208
 42
3.716574258287971
  0
ELLIPSE
  5
AFC
330
A8B
100
AcDbEntity
  8
FRONT
  6
CONTINUOUS
 62
     4
100
AcDbEllipse
 10
17.43752785348189
 20
-3.994735409268031
 30
0.0
 11
-0.6378505702784448
 21
2.576726862152773
 31
0.0
210
0.0
220
0.0
230
1.0
 40
0.1420514033894129
 41
4.544013824159174
 42
4.556279548729346
  0
ELLIPSE
  5
AFD
330
A8B
100
AcDbEntity
  8
FRONT
  6
CONTINUOUS
 62
     4
100
AcDbEllipse
 10
17.29558226924102
 20
-5.116466969333043
 30
0.0
 11
-0.0003420833691217
 21
0.0999994148939525
 31
0.0
210
0.0
220
0.0
230
1.0
 40
0.0873785520668444
 41
0.1609135456945704
 42
1.732484486224235
  0
ELLIPSE
  5
AFE
330
A8B
100
AcDbEntity
  8
FRONT
  6
CONTINUOUS
 62
     4
100
AcDbEllipse
 10
17.91251036989776
 20
1.921767689627283
 30
0.0
 11
-0.2231549673139982
 21
7.545048101838847
 31
0.0
210
0.0
220
0.0
230
1.0
 40
0.1565419392169584
 41
2.98028837913766
 42
3.026543021602508
  0
ELLIPSE
  5
AFF
330
A8B
100
AcDbEntity
  8
FRONT
  6
CONTINUOUS
 62
     4
100
AcDbEllipse
 10
17.74265415408251
 20
-4.702133472814753
 30
0.0
 11
-0.1999999433238031
 21
-0.0001525554653821
 31
0.0
210
0.0
220
0.0
230
1.0
 40
0.1775485647405439
 41
3.300064853530633
 42
3.503329043719288
  0
ELLIPSE
  5
B00
330
A8B
100
AcDbEntity
  8
FRONT
  6
CONTINUOUS
 62
     4
100
AcDbEllipse
 10
17.58558627712221
 20
-4.778135985406353
 30
0.0
 11
-0.0987513760100169
 21
-0.0157532770022912
 31
0.0
210
0.0
220
0.0
230
1.0
 40
0.1458931740712325
 41
0.1778612733484125
 42
1.460656485136271
  0
ELLIPSE
  5
B01
330
A8B
100
AcDbEntity
  8
FRONT
  6
CONTINUOUS
 62
     4
100
AcDbEllipse
 10
67.64350291379154
 20
34.55023588267692
 30
0.0
 11
-52.91333538115097
 21
-41.25130454679958
 31
0.0
210
0.0
220
0.0
230
1.0
 40
0.0120306976498371
 41
0.3393916290940456
 42
0.3422858615911428
  0
ELLIPSE
  5
B02
330
A8B
100
AcDbEntity
  8
FRONT
  6
CONTINUOUS
 62
     4
100
AcDbEllipse
 10
17.29036936356746
 20
-4.820358671193344
 30
0.0
 11
-0.1764278461941974
 21
0.0941977445624821
 31
0.0
210
0.0
220
0.0
230
1.0
 40
0.9833059182720552
 41
2.071687309673813
 42
2.454396003569158
  0
ELLIPSE
  5
B03
330
A8B
100
AcDbEntity
  8
FRONT
  6
CONTINUOUS
 62
     4
100
AcDbEllipse
 10
17.29036936356451
 20
-4.820358671172773
 30
0.0
 11
-0.1764278460477521
 21
0.0941977448654515
 31
0.0
210
0.0
220
0.0
230
1.0
 40
0.9833059182873423
 41
2.454396005236844
 42
3.524855627886243
  0
ELLIPSE
  5
B04
330
A8B
100
AcDbEntity
  8
FRONT
  6
CONTINUOUS
 62
     4
100
AcDbEllipse
 10
17.80753817497214
 20
1.984604698993624
 30
0.0
 11
-0.0579833643088966
 21
6.690109145654452
 31
0.0
210
0.0
220
0.0
230
1.0
 40
0.0234081852915922
 41
3.155384266539653
 42
3.216552275148325
  0
ELLIPSE
  5
B05
330
A8B
100
AcDbEntity
  8
FRONT
  6
CONTINUOUS
 62
     4
100
AcDbEllipse
 10
69.31113081533111
 20
35.56042935518711
 30
0.0
 11
-54.58145203794352
 21
-42.26950703433849
 31
0.0
210
0.0
220
0.0
230
0.9999999999999998
 40
0.0166389419643796
 41
0.3320360213461808
 42
0.3350067550538322
  0
ELLIPSE
  5
B06
330
A8B
100
AcDbEntity
  8
FRONT
  6
CONTINUOUS
 62
     4
100
AcDbEllipse
 10
17.74265577240787
 20
-4.702887859456103
 30
0.0
 11
-0.1999987668190257
 21
-0.0007023332506881
 31
0.0
210
0.0
220
0.0
230
1.0
 40
0.1608116416752289
 41
3.299567109250761
 42
3.504047308224818
  0
SPLINE
  5
B07
330
A8B
100
AcDbEntity
  8
FRONT
  6
CONTINUOUS
 62
     4
100
AcDbSpline
210
0.0
220
0.0
230
1.0
 70
     8
 71
     2
 72
     6
 73
     3
 74
     0
 42
0.0000000001
 43
0.0000000001
 40
0.0
 40
0.0
 40
0.0
 40
1.0
 40
1.0
 40
1.0
 10
17.94014476251969
 20
-4.696380196294287
 30
0.0
 10
17.93820990995539
 20
-4.62484467721253
 30
0.0
 10
17.91370298271945
 20
-4.559914968743824
 30
0.0
  0
SPLINE
  5
B08
330
A8B
100
AcDbEntity
  8
FRONT
  6
CONTINUOUS
 62
     4
100
AcDbSpline
210
0.0
220
0.0
230
1.0
 70
     8
 71
     3
 72
    11
 73
     7
 74
     0
 42
0.0000000001
 43
0.0000000001
 40
0.0
 40
0.0
 40
0.0
 40
0.0
 40
0.2797385983135209
 40
0.5594467342961888
 40
0.7797158294879042
 40
1.0
 40
1.0
 40
1.0
 40
1.0
 10
17.5948987190443
 20
-5.975264142050702
 30
0.0
 10
17.65745563319629
 20
-5.974483801919768
 30
0.0
 10
17.77036020044778
 20
-5.950887920362924
 30
0.0
 10
17.90567908297141
 20
-5.850401171714425
 30
0.0
 10
17.98283180302257
 20
-5.717078973008215
 30
0.0
 10
17.99830296929953
 20
-5.626215792883595
 30
0.0
 10
17.9986026430253
 20
-5.577410944240646
 30
0.0
  0
SPLINE
  5
B09
330
A8B
100
AcDbEntity
  8
FRONT
  6
CONTINUOUS
 62
     4
100
AcDbSpline
210
0.0
220
0.0
230
1.0
 70
    24
 71
     1
 72
     4
 73
     2
 74
     0
 42
0.0000000001
 43
0.0000000001
 40
0.0
 40
0.0
 40
1.0
 40
1.0
 10
17.93253772748869
 20
-5.521566331524028
 30
0.0
 10
17.87984322178274
 20
-5.471587155772788
 30
0.0
  0
SPLINE
  5
B0A
330
A8B
100
AcDbEntity
  8
FRONT
  6
CONTINUOUS
 62
     4
100
AcDbSpline
210
0.0
220
0.0
230
1.0
 70
     8
 71
     2
 72
     6
 73
     3
 74
     0
 42
0.0000000001
 43
0.0000000001
 40
0.0
 40
0.0
 40
0.0
 40
1.0
 40
1.0
 40
1.0
 10
17.53382959937809
 20
-5.939844692875301
 30
0.0
 10
17.5478348404841
 20
-5.948879112898527
 30
0.0
 10
17.56310864296497
 20
-5.957732756903237
 30
0.0
  0
SPLINE
  5
B0B
330
A8B
100
AcDbEntity
  8
FRONT
  6
CONTINUOUS
 62
     4
100
AcDbSpline
210
0.0
220
0.0
230
1.0
 70
    24
 71
     1
 72
     4
 73
     2
 74
     0
 42
0.0000000001
 43
0.0000000001
 40
0.0
 40
0.0
 40
1.0
 40
1.0
 10
17.9387785253627
 20
-5.526976438079115
 30
0.0
 10
17.93253772748869
 20
-5.521566331524034
 30
0.0
  0
SPLINE
  5
B0C
330
A8B
100
AcDbEntity
  8
FRONT
  6
CONTINUOUS
 62
     4
100
AcDbSpline
210
0.0
220
0.0
230
1.0
 70
     8
 71
     2
 72
     6
 73
     3
 74
     0
 42
0.0000000001
 43
0.0000000001
 40
0.0
 40
0.0
 40
0.0
 40
1.0
 40
1.0
 40
1.0
 10
17.56310862460081
 20
-5.957732669274165
 30
0.0
 10
17.57839777531656
 20
-5.966594955161369
 30
0.0
 10
17.59489682987357
 20
-5.975263315085282
 30
0.0
  0
SPLINE
  5
B0D
330
A8B
100
AcDbEntity
  8
FRONT
  6
CONTINUOUS
 62
     4
100
AcDbSpline
210
0.0
220
0.0
230
1.0
 70
     8
 71
     2
 72
     6
 73
     3
 74
     0
 42
0.0000000001
 43
0.0000000001
 40
0.0
 40
0.0
 40
0.0
 40
1.0
 40
1.0
 40
1.0
 10
17.92970126088954
 20
-4.689423949520302
 30
0.0
 10
17.93325498333023
 20
-4.621665100236254
 30
0.0
 10
17.91370204730798
 20
-4.55991347542175
 30
0.0
  0
SPLINE
  5
B0E
330
A8B
100
AcDbEntity
  8
FRONT
  6
CONTINUOUS
 62
     4
100
AcDbSpline
210
0.0
220
0.0
230
1.0
 70
     8
 71
     2
 72
     6
 73
     3
 74
     0
 42
0.0000000001
 43
0.0000000001
 40
0.0
 40
0.0
 40
0.0
 40
1.0
 40
1.0
 40
1.0
 10
17.48753914728162
 20
-4.842620158601206
 30
0.0
 10
17.49069400018171
 20
-4.813353923430181
 30
0.0
 10
17.48589383548049
 20
-4.784463510063917
 30
0.0
  0
SPLINE
  5
B0F
330
A8B
100
AcDbEntity
  8
FRONT
  6
CONTINUOUS
 62
     4
100
AcDbSpline
210
0.0
220
0.0
230
1.0
 70
     8
 71
     2
 72
     6
 73
     3
 74
     0
 42
0.0000000001
 43
0.0000000001
 40
0.0
 40
0.0
 40
0.0
 40
1.0
 40
1.0
 40
1.0
 10
17.9296204316509
 20
-4.690827415632075
 30
0.0
 10
17.90811236517728
 20
-4.654740894371965
 30
0.0
 10
17.89274962395551
 20
-4.643583112873108
 30
0.0
  0
SPLINE
  5
B10
330
A8B
100
AcDbEntity
  8
FRONT
  6
CONTINUOUS
 62
     4
100
AcDbSpline
210
0.0
220
0.0
230
1.0
 70
    24
 71
     1
 72
     4
 73
     2
 74
     0
 42
0.0000000001
 43
0.0000000001
 40
0.0
 40
0.0
 40
1.0
 40
1.0
 10
17.28962519580169
 20
-5.781691499550616
 30
0.0
 10
17.29561436988828
 20
-5.788108146748303
 30
0.0
  0
SPLINE
  5
B11
330
A8B
100
AcDbEntity
  8
FRONT
  6
CONTINUOUS
 62
     4
100
AcDbSpline
210
0.0
220
0.0
230
1.0
 70
    24
 71
     1
 72
     4
 73
     2
 74
     0
 42
0.0000000001
 43
0.0000000001
 40
0.0
 40
0.0
 40
1.0
 40
1.0
 10
17.99553525741189
 20
-4.703931962073951
 30
0.0
 10
17.99520039268492
 20
-4.657821589441176
 30
0.0
  0
SPLINE
  5
B12
330
A8B
100
AcDbEntity
  8
FRONT
  6
CONTINUOUS
 62
     4
100
AcDbSpline
210
0.0
220
0.0
230
1.0
 70
     8
 71
     3
 72
    14
 73
    10
 74
     0
 42
0.0000000001
 43
0.0000000001
 40
0.0
 40
0.0
 40
0.0
 40
0.0
 40
0.1248883957440875
 40
0.2497714879519448
 40
0.3746545211303977
 40
0.4995231745160237
 40
0.6243751603251047
 40
0.7494560896066159
 40
1.0
 40
1.0
 40
1.0
 40
1.0
 10
17.87984322178273
 20
-5.471587155772788
 30
0.0
 10
17.87987268926037
 20
-5.50489258238397
 30
0.0
 10
17.87177012324012
 20
-5.568441189966804
 30
0.0
 10
17.83414334612334
 20
-5.657603560500879
 30
0.0
 10
17.77401488846159
 20
-5.731535238533902
 30
0.0
 10
17.6954628151493
 20
-5.785183731153777
 30
0.0
 10
17.60367529558672
 20
-5.815264208756982
 30
0.0
 10
17.47391022284451
 20
-5.813531480830889
 30
0.0
 10
17.37763835799498
 20
-5.813847709256805
 30
0.0
 10
17.31289606147389
 20
-5.809345576655006
 30
0.0
  0
SPLINE
  5
B13
330
A8B
100
AcDbEntity
  8
FRONT
  6
CONTINUOUS
 62
     4
100
AcDbSpline
210
0.0
220
0.0
230
1.0
 70
     8
 71
     2
 72
     6
 73
     3
 74
     0
 42
0.0000000001
 43
0.0000000001
 40
0.0
 40
0.0
 40
0.0
 40
1.0
 40
1.0
 40
1.0
 10
17.96624821359698
 20
-4.521740220909061
 30
0.0
 10
17.9945056831512
 20
-4.587389658473393
 30
0.0
 10
17.99520039268492
 20
-4.657821589442201
 30
0.0
  0
SPLINE
  5
B14
330
A8B
100
AcDbEntity
  8
FRONT
  6
CONTINUOUS
 62
     4
100
AcDbSpline
210
0.0
220
0.0
230
1.0
 70
    24
 71
     1
 72
     4
 73
     2
 74
     0
 42
0.0000000001
 43
0.0000000001
 40
0.0
 40
0.0
 40
1.0
 40
1.0
 10
17.89274962395551
 20
-4.643583112873108
 30
0.0
 10
17.87708664776414
 20
-4.686615922447828
 30
0.0
  0
SPLINE
  5
B15
330
A8B
100
AcDbEntity
  8
FRONT
  6
CONTINUOUS
 62
     4
100
AcDbSpline
210
0.0
220
0.0
230
1.0
 70
     8
 71
     2
 72
     6
 73
     3
 74
     0
 42
0.0000000001
 43
0.0000000001
 40
0.0
 40
0.0
 40
0.0
 40
1.0
 40
1.0
 40
1.0
 10
17.87578472966787
 20
-4.531787042132242
 30
0.0
 10
17.89175394076562
 20
-4.538312409517049
 30
0.0
 10
17.91370204730901
 20
-4.559913475424244
 30
0.0
  0
SPLINE
  5
B16
330
A8B
100
AcDbEntity
  8
FRONT
  6
CONTINUOUS
 62
     4
100
AcDbSpline
210
0.0
220
0.0
230
1.0
 70
    24
 71
     1
 72
     4
 73
     2
 74
     0
 42
0.0000000001
 43
0.0000000001
 40
0.0
 40
0.0
 40
1.0
 40
1.0
 10
17.9296204316509
 20
-4.690827415632075
 30
0.0
 10
17.92970126089028
 20
-4.689423949521914
 30
0.0
  0
SPLINE
  5
B17
330
A8B
100
AcDbEntity
  8
FRONT
  6
CONTINUOUS
 62
     4
100
AcDbSpline
210
0.0
220
0.0
230
1.0
 70
     8
 71
     2
 72
     6
 73
     3
 74
     0
 42
0.0000000001
 43
0.0000000001
 40
0.0
 40
0.0
 40
0.0
 40
1.0
 40
1.0
 40
1.0
 10
17.87984322178273
 20
-5.471587155772788
 30
0.0
 10
17.73244831207634
 20
-5.298438713033085
 30
0.0
 10
17.58957197281752
 20
-4.910128850814881
 30
0.0
  0
SPLINE
  5
B18
330
A8B
100
AcDbEntity
  8
FRONT
  6
CONTINUOUS
 62
     4
100
AcDbSpline
210
0.0
220
0.0
230
1.0
 70
    24
 71
     1
 72
     4
 73
     2
 74
     0
 42
0.0000000001
 43
0.0000000001
 40
0.0
 40
0.0
 40
1.0
 40
1.0
 10
17.28677117630373
 20
-5.132617233954769
 30
0.0
 10
16.67361660422959
 20
-5.134616718352519
 30
0.0
  0
SPLINE
  5
B19
330
A8B
100
AcDbEntity
  8
FRONT
  6
CONTINUOUS
 62
     4
100
AcDbSpline
210
0.0
220
0.0
230
1.0
 70
    24
 71
     1
 72
     4
 73
     2
 74
     0
 42
0.0000000001
 43
0.0000000001
 40
0.0
 40
0.0
 40
1.0
 40
1.0
 10
17.94182141506172
 20
-4.461266655075608
 30
0.0
 10
17.90527073750188
 20
-4.337218884751767
 30
0.0
  0
SPLINE
  5
B1A
330
A8B
100
AcDbEntity
  8
FRONT
  6
CONTINUOUS
 62
     4
100
AcDbSpline
210
0.0
220
0.0
230
1.0
 70
     8
 71
     2
 72
     6
 73
     3
 74
     0
 42
0.0000000001
 43
0.0000000001
 40
0.0
 40
0.0
 40
0.0
 40
1.0
 40
1.0
 40
1.0
 10
17.4863838813945
 20
-5.914121941707048
 30
0.0
 10
17.50241434520515
 20
-5.922316462127195
 30
0.0
 10
17.5149609852006
 20
-5.929071224485984
 30
0.0
  0
SPLINE
  5
B1B
330
A8B
100
AcDbEntity
  8
FRONT
  6
CONTINUOUS
 62
     4
100
AcDbSpline
210
0.0
220
0.0
230
1.0
 70
     8
 71
     3
 72
    10
 73
     6
 74
     0
 42
0.0000000001
 43
0.0000000001
 40
0.0
 40
0.0
 40
0.0
 40
0.0
 40
0.2802834343870607
 40
0.561500176492782
 40
1.0
 40
1.0
 40
1.0
 40
1.0
 10
17.93253772748871
 20
-5.521566331524031
 30
0.0
 10
17.92998166710049
 20
-5.58748102827846
 30
0.0
 10
17.90119279899605
 20
-5.70400075827699
 30
0.0
 10
17.73853112752677
 20
-5.870209334555772
 30
0.0
 10
17.59319445825168
 20
-5.912750987343615
 30
0.0
 10
17.4863838813945
 20
-5.914121941707048
 30
0.0
  0
SPLINE
  5
B1C
330
A8B
100
AcDbEntity
  8
FRONT
  6
CONTINUOUS
 62
     4
100
AcDbSpline
210
0.0
220
0.0
230
1.0
 70
     8
 71
     2
 72
     6
 73
     3
 74
     0
 42
0.0000000001
 43
0.0000000001
 40
0.0
 40
0.0
 40
0.0
 40
1.0
 40
1.0
 40
1.0
 10
17.29745226804206
 20
-5.017742724400552
 30
0.0
 10
17.334810636267
 20
-5.017343599018348
 30
0.0
 10
17.36829733251894
 20
-5.003728771550662
 30
0.0
  0
SPLINE
  5
B1D
330
A8B
100
AcDbEntity
  8
FRONT
  6
CONTINUOUS
 62
     4
100
AcDbSpline
210
0.0
220
0.0
230
1.0
 70
    24
 71
     1
 72
     4
 73
     2
 74
     0
 42
0.0000000001
 43
0.0000000001
 40
0.0
 40
0.0
 40
1.0
 40
1.0
 10
17.25039528434257
 20
-5.752276639961346
 30
0.0
 10
17.25582938323384
 20
-5.75599142494071
 30
0.0
  0
SPLINE
  5
B1E
330
A8B
100
AcDbEntity
  8
FRONT
  6
CONTINUOUS
 62
     4
100
AcDbSpline
210
0.0
220
0.0
230
1.0
 70
     8
 71
     2
 72
     6
 73
     3
 74
     0
 42
0.0000000001
 43
0.0000000001
 40
0.0
 40
0.0
 40
0.0
 40
1.0
 40
1.0
 40
1.0
 10
17.31289606147389
 20
-5.809345576655006
 30
0.0
 10
17.35705677144961
 20
-5.849142853119974
 30
0.0
 10
17.48638388139446
 20
-5.914121941707048
 30
0.0
  0
SPLINE
  5
B1F
330
A8B
100
AcDbEntity
  8
FRONT
  6
CONTINUOUS
 62
     4
100
AcDbSpline
210
0.0
220
0.0
230
1.0
 70
    24
 71
     1
 72
     4
 73
     2
 74
     0
 42
0.0000000001
 43
0.0000000001
 40
0.0
 40
0.0
 40
1.0
 40
1.0
 10
17.29561436988828
 20
-5.788108146748303
 30
0.0
 10
17.31289606147389
 20
-5.809345576655006
 30
0.0
  0
SPLINE
  5
B20
330
A8B
100
AcDbEntity
  8
FRONT
  6
CONTINUOUS
 62
     4
100
AcDbSpline
210
0.0
220
0.0
230
1.0
 70
    24
 71
     1
 72
     4
 73
     2
 74
     0
 42
0.0000000001
 43
0.0000000001
 40
0.0
 40
0.0
 40
1.0
 40
1.0
 10
17.96624821359698
 20
-4.521740220909061
 30
0.0
 10
17.94182141506172
 20
-4.461266655075608
 30
0.0
  0
SPLINE
  5
B21
330
A8B
100
AcDbEntity
  8
FRONT
  6
CONTINUOUS
 62
     4
100
AcDbSpline
210
0.0
220
0.0
230
1.0
 70
     8
 71
     3
 72
    11
 73
     7
 74
     0
 42
0.0000000001
 43
0.0000000001
 40
0.0
 40
0.0
 40
0.0
 40
0.0
 40
0.2627757061120019
 40
0.5667558013116807
 40
0.8797139751218168
 40
1.0
 40
1.0
 40
1.0
 40
1.0
 10
17.36829733251894
 20
-5.003728771550662
 30
0.0
 10
17.38587714511173
 20
-4.996404794424628
 30
0.0
 10
17.41990969395924
 20
-4.976439430695343
 30
0.0
 10
17.46158084441127
 20
-4.929333558277144
 30
0.0
 10
17.48149927690769
 20
-4.880797777468139
 30
0.0
 10
17.4866141760235
 20
-4.851053802725655
 30
0.0
 10
17.48753914728162
 20
-4.842620158601206
 30
0.0
  0
SPLINE
  5
B22
330
A8B
100
AcDbEntity
  8
FRONT
  6
CONTINUOUS
 62
     4
100
AcDbSpline
210
0.0
220
0.0
230
1.0
 70
     8
 71
     3
 72
    11
 73
     7
 74
     0
 42
0.0000000001
 43
0.0000000001
 40
0.0
 40
0.0
 40
0.0
 40
0.0
 40
0.2793522346033047
 40
0.5593335184216813
 40
0.7797559679565327
 40
1.0
 40
1.0
 40
1.0
 40
1.0
 10
17.94307446467377
 20
-5.530945951299988
 30
0.0
 10
17.94180307462405
 20
-5.594501577118919
 30
0.0
 10
17.91667550799417
 20
-5.709260710265843
 30
0.0
 10
17.81058445331001
 20
-5.846075908549162
 30
0.0
 10
17.67367926843748
 20
-5.924340080915007
 30
0.0
 10
17.58243171918843
 20
-5.939723916719522
 30
0.0
 10
17.53382959937809
 20
-5.939844692875301
 30
0.0
  0
SPLINE
  5
B23
330
A8B
100
AcDbEntity
  8
FRONT
  6
CONTINUOUS
 62
     4
100
AcDbSpline
210
0.0
220
0.0
230
1.0
 70
     8
 71
     3
 72
    14
 73
    10
 74
     0
 42
0.0000000001
 43
0.0000000001
 40
0.0
 40
0.0
 40
0.0
 40
0.0
 40
0.1951062385720619
 40
0.3339125582488692
 40
0.4501474463006513
 40
0.566328053941413
 40
0.7231136318596933
 40
0.9477057072569012
 40
1.0
 40
1.0
 40
1.0
 40
1.0
 10
17.89274962394844
 20
-4.643583112868443
 30
0.0
 10
17.89474514222996
 20
-4.639748694764659
 30
0.0
 10
17.89724314910162
 20
-4.631244618840346
 30
0.0
 10
17.89924971527219
 20
-4.615701729296858
 30
0.0
 10
17.89842728956798
 20
-4.599454138182963
 30
0.0
 10
17.8951461020218
 20
-4.581218840503261
 30
0.0
 10
17.88844700421837
 20
-4.558968223287878
 30
0.0
 10
17.8812580747526
 20
-4.542461472099691
 30
0.0
 10
17.8766627348089
 20
-4.533439686083934
 30
0.0
 10
17.87578472966787
 20
-4.531787042132242
 30
0.0
  0
SPLINE
  5
B24
330
A8B
100
AcDbEntity
  8
FRONT
  6
CONTINUOUS
 62
     4
100
AcDbSpline
210
0.0
220
0.0
230
1.0
 70
     8
 71
     2
 72
     6
 73
     3
 74
     0
 42
0.0000000001
 43
0.0000000001
 40
0.0
 40
0.0
 40
0.0
 40
1.0
 40
1.0
 40
1.0
 10
17.51496097087978
 20
-5.929071210841827
 30
0.0
 10
17.52734365897923
 20
-5.93571427869794
 30
0.0
 10
17.53382959937809
 20
-5.939844692875301
 30
0.0
  0
SPLINE
  5
B25
330
A8B
100
AcDbEntity
  8
FRONT
  6
CONTINUOUS
 62
     4
100
AcDbSpline
210
0.0
220
0.0
230
1.0
 70
     8
 71
     2
 72
     6
 73
     3
 74
     0
 42
0.0000000001
 43
0.0000000001
 40
0.0
 40
0.0
 40
0.0
 40
1.0
 40
1.0
 40
1.0
 10
16.67361660422962
 20
-5.134616718352519
 30
0.0
 10
16.8166102911388
 20
-5.470334999613283
 30
0.0
 10
17.25016942408499
 20
-5.752170042241946
 30
0.0
  0
SPLINE
  5
B26
330
A8B
100
AcDbEntity
  8
FRONT
  6
CONTINUOUS
 62
     4
100
AcDbSpline
210
0.0
220
0.0
230
1.0
 70
    24
 71
     1
 72
     4
 73
     2
 74
     0
 42
0.0000000001
 43
0.0000000001
 40
0.0
 40
0.0
 40
1.0
 40
1.0
 10
17.25582938323384
 20
-5.75599142494071
 30
0.0
 10
17.28962519580169
 20
-5.781691499550616
 30
0.0
  0
SPLINE
  5
B27
330
A8B
100
AcDbEntity
  8
FRONT
  6
CONTINUOUS
 62
     4
100
AcDbSpline
210
0.0
220
0.0
230
1.0
 70
    24
 71
     1
 72
     4
 73
     2
 74
     0
 42
0.0000000001
 43
0.0000000001
 40
0.0
 40
0.0
 40
1.0
 40
1.0
 10
17.94307446467377
 20
-5.530945951299988
 30
0.0
 10
17.9387785253627
 20
-5.526976438079117
 30
0.0
  0
SPLINE
  5
B28
330
A8B
100
AcDbEntity
  8
FRONT
  6
CONTINUOUS
 62
     4
100
AcDbSpline
210
0.0
220
0.0
230
1.0
 70
     8
 71
     3
 72
    14
 73
    10
 74
     0
 42
0.0000000001
 43
0.0000000001
 40
0.0
 40
0.0
 40
0.0
 40
0.0
 40
0.142151055421
 40
0.2416441906233231
 40
0.337512840946061
 40
0.5226088307748542
 40
0.7069349958419002
 40
0.7832535482434971
 40
1.0
 40
1.0
 40
1.0
 40
1.0
 10
17.58957197281758
 20
-4.910128850814881
 30
0.0
 10
17.58968669457347
 20
-4.930933722154952
 30
0.0
 10
17.58527280217872
 20
-4.96494050117826
 30
0.0
 10
17.56744498013549
 20
-5.00997609003333
 30
0.0
 10
17.53896901385022
 20
-5.056105771769582
 30
0.0
 10
17.48959095851773
 20
-5.102732691476536
 30
0.0
 10
17.42845235015919
 20
-5.125843715274846
 30
0.0
 10
17.36038010976709
 20
-5.134920028137988
 30
0.0
 10
17.31826363289789
 20
-5.135515785459636
 30
0.0
 10
17.28677048324978
 20
-5.132574095267016
 30
0.0
  0
ELLIPSE
  5
B29
330
A8B
100
AcDbEntity
  8
FRONT
  6
CONTINUOUS
 62
     4
100
AcDbEllipse
 10
14.84592289431094
 20
-3.161093469702648
 30
0.0
 11
-0.8821392302302177
 21
0.4709887243754463
 31
0.0
210
0.0
220
0.0
230
1.0
 40
0.9833059182791327
 41
3.625030345689558
 42
6.283185307179584
  0
SPLINE
  5
B2A
330
A8B
100
AcDbEntity
  8
FRONT
  6
CONTINUOUS
 62
     4
100
AcDbSpline
210
0.0
220
0.0
230
1.0
 70
     8
 71
     3
 72
    16
 73
    12
 74
     0
 42
0.0000000001
 43
0.0000000001
 40
0.0
 40
0.0
 40
0.0
 40
0.0
 40
0.129148378034396
 40
0.2674644537203973
 40
0.3841582685837871
 40
0.5013560291580168
 40
0.6062428686698798
 40
0.7064204883265523
 40
0.8086161864158006
 40
0.91809676777724
 40
1.0
 40
1.0
 40
1.0
 40
1.0
 10
15.89972191180696
 20
-3.067258476064096
 30
0.0
 10
15.90909121726365
 20
-2.958913954357801
 30
0.0
 10
15.89382133999201
 20
-2.73905812340351
 30
0.0
 10
15.7767083394974
 20
-2.417696763445265
 30
0.0
 10
15.55374765832576
 20
-2.152776320541678
 30
0.0
 10
15.26778494996267
 20
-1.989804342125394
 30
0.0
 10
14.95334031998964
 20
-1.939085852191666
 30
0.0
 10
14.65311205059481
 20
-1.989438808047074
 30
0.0
 10
14.38058061019693
 20
-2.127700253828794
 30
0.0
 10
14.17726057529053
 20
-2.322863280499757
 30
0.0
 10
14.08156978624059
 20
-2.467674156401074
 30
0.0
 10
14.04700334616364
 20
-2.534248306255423
 30
0.0
  0
ELLIPSE
  5
B2B
330
A8B
100
AcDbEntity
  8
FRONT
  6
CONTINUOUS
 62
     4
100
AcDbEllipse
 10
14.80294988243358
 20
-3.241579854307761
 30
0.0
 11
-0.7939252851790806
 21
0.4238898401086228
 31
0.0
210
0.0
220
0.0
230
1.0
 40
0.9833059182800139
 41
5.213279964936608
 42
6.231612357172
  0
SPLINE
  5
B2C
330
A8B
100
AcDbEntity
  8
FRONT
  6
CONTINUOUS
 62
     4
100
AcDbSpline
210
0.0
220
0.0
230
1.0
 70
     8
 71
     3
 72
    10
 73
     6
 74
     0
 42
0.0000000001
 43
0.0000000001
 40
0.0
 40
0.0
 40
0.0
 40
0.0
 40
0.1975215270407752
 40
0.8880294744614507
 40
1.0
 40
1.0
 40
1.0
 40
1.0
 10
14.04700334616364
 20
-2.534248306255423
 30
0.0
 10
14.02979995309934
 20
-2.56708149719274
 30
0.0
 10
13.95915311772166
 20
-2.715260042725278
 30
0.0
 10
13.91596124117772
 20
-2.891939134658461
 30
0.0
 10
13.90359775925108
 20
-3.029307479047951
 30
0.0
 10
13.90234343681433
 20
-3.048492528079988
 30
0.0
  0
LINE
  5
B2D
330
A8B
100
AcDbEntity
  8
FRONT
  6
CONTINUOUS
 62
     4
100
AcDbLine
 10
15.89972191180696
 20
-3.067258476064095
 30
0.0
 11
15.84224378306065
 21
-3.174912246999863
 31
0.0
  0
ELLIPSE
  5
B2E
330
A8B
100
AcDbEntity
  8
FRONT
  6
CONTINUOUS
 62
     4
100
AcDbEllipse
 10
17.97951315599034
 20
-2.391212493543383
 30
0.0
 11
-0.4845839650356391
 21
2.565417656625252
 31
0.0
210
0.0
220
0.0
230
0.9999999999999998
 40
0.1877462969956187
 41
1.545777644991644
 42
1.748054161917929
  0
ELLIPSE
  5
B2F
330
A8B
100
AcDbEntity
  8
FRONT
  6
CONTINUOUS
 62
     4
100
AcDbEllipse
 10
12.46509142978946
 20
4.4053773937274
 30
0.0
 11
-0.7820027716041942
 21
-0.3331240993350395
 31
0.0
210
0.0
220
0.0
230
1.0
 40
0.3528380920404428
 41
1.238775038219452
 42
1.609788972500551
  0
ELLIPSE
  5
B30
330
A8B
100
AcDbEntity
  8
FRONT
  6
CONTINUOUS
 62
     4
100
AcDbEllipse
 10
12.30437911162724
 20
5.324732699532396
 30
0.0
 11
-0.1775236042668109
 21
0.8312552970357225
 31
0.0
210
0.0
220
0.0
230
1.0
 40
0.1700246401022982
 41
4.325383915281284
 42
4.740398743479548
  0
SPLINE
  5
B31
330
A8B
100
AcDbEntity
  8
FRONT
  6
CONTINUOUS
 62
     4
100
AcDbSpline
210
0.0
220
0.0
230
1.0
 70
    24
 71
     1
 72
     4
 73
     2
 74
     0
 42
0.0000000001
 43
0.0000000001
 40
0.0
 40
0.0
 40
1.0
 40
1.0
 10
12.44068581249327
 20
5.378184466683816
 30
0.0
 10
12.71058671127498
 20
5.473403005394003
 30
0.0
  0
SPLINE
  5
B32
330
A8B
100
AcDbEntity
  8
FRONT
  6
CONTINUOUS
 62
     4
100
AcDbSpline
210
0.0
220
0.0
230
1.0
 70
    24
 71
     1
 72
     4
 73
     2
 74
     0
 42
0.0000000001
 43
0.0000000001
 40
0.0
 40
0.0
 40
1.0
 40
1.0
 10
12.4453969153142
 20
4.793762731808075
 30
0.0
 10
12.55914221892536
 20
4.254904835094778
 30
0.0
  0
SPLINE
  5
B33
330
A8B
100
AcDbEntity
  8
FRONT
  6
CONTINUOUS
 62
     4
100
AcDbSpline
210
0.0
220
0.0
230
1.0
 70
    24
 71
     1
 72
     4
 73
     2
 74
     0
 42
0.0000000001
 43
0.0000000001
 40
0.0
 40
0.0
 40
1.0
 40
1.0
 10
12.3980252578104
 20
3.54383975964174
 30
0.0
 10
13.21291955543235
 20
3.601539892142866
 30
0.0
  0
SPLINE
  5
B34
330
A8B
100
AcDbEntity
  8
FRONT
  6
CONTINUOUS
 62
     4
100
AcDbSpline
210
0.0
220
0.0
230
1.0
 70
    24
 71
     1
 72
     4
 73
     2
 74
     0
 42
0.0000000001
 43
0.0000000001
 40
0.0
 40
0.0
 40
1.0
 40
1.0
 10
12.73849007715883
 20
3.667718842522095
 30
0.0
 10
12.44268010034102
 20
3.606971866039024
 30
0.0
  0
SPLINE
  5
B35
330
A8B
100
AcDbEntity
  8
FRONT
  6
CONTINUOUS
 62
     4
100
AcDbSpline
210
0.0
220
0.0
230
1.0
 70
    24
 71
     1
 72
     4
 73
     2
 74
     0
 42
0.0000000001
 43
0.0000000001
 40
0.0
 40
0.0
 40
1.0
 40
1.0
 10
12.55915629769893
 20
4.254835323750993
 30
0.0
 10
12.26801481276993
 20
4.191302768065273
 30
0.0
  0
SPLINE
  5
B36
330
A8B
100
AcDbEntity
  8
FRONT
  6
CONTINUOUS
 62
     4
100
AcDbSpline
210
0.0
220
0.0
230
1.0
 70
     8
 71
     3
 72
    12
 73
     8
 74
     0
 42
0.0000000001
 43
0.0000000001
 40
0.0
 40
0.0
 40
0.0
 40
0.0
 40
0.2744697384182955
 40
0.551325202075647
 40
0.7557784030006751
 40
0.9601016673759271
 40
1.0
 40
1.0
 40
1.0
 40
1.0
 10
12.50226080994401
 20
5.038954222702709
 30
0.0
 10
12.49336678341475
 20
5.03692528720934
 30
0.0
 10
12.47674970363677
 20
5.030709459633406
 30
0.0
 10
12.45543597836243
 20
5.016913564102337
 30
0.0
 10
12.44193220855824
 20
4.998754955080447
 30
0.0
 10
12.43759971455943
 20
4.985018509162411
 30
0.0
 10
12.43655385903655
 20
4.977536033076629
 30
0.0
 10
12.43641987849389
 20
4.976306217531559
 30
0.0
  0
SPLINE
  5
B37
330
A8B
100
AcDbEntity
  8
FRONT
  6
CONTINUOUS
 62
     4
100
AcDbSpline
210
0.0
220
0.0
230
1.0
 70
     8
 71
     2
 72
     6
 73
     3
 74
     0
 42
0.0000000001
 43
0.0000000001
 40
0.0
 40
0.0
 40
0.0
 40
1.0
 40
1.0
 40
1.0
 10
12.03715634521592
 20
5.830492901738478
 30
0.0
 10
12.99283696601092
 20
5.878254479706012
 30
0.0
 10
13.94849592177253
 20
5.910374237806076
 30
0.0
  0
ELLIPSE
  5
B38
330
A8B
100
AcDbEntity
  8
FRONT
  6
CONTINUOUS
 62
     4
100
AcDbEllipse
 10
5.662019838117116
 20
-0.0000000000333795
 30
0.0
 11
-30.04133316949641
 21
-2.588839177206941
 31
0.0
210
0.0
220
0.0
230
0.9999999999999998
 40
0.161531415063552
 41
4.513346154013637
 42
4.756988358425918
  0
SPLINE
  5
B39
330
A8B
100
AcDbEntity
  8
FRONT
  6
CONTINUOUS
 62
     4
100
AcDbSpline
210
0.0
220
0.0
230
1.0
 70
     8
 71
     3
 72
    19
 73
    15
 74
     0
 42
0.0000000001
 43
0.0000000001
 40
0.0
 40
0.0
 40
0.0
 40
0.0
 40
0.0378701787910131
 40
0.0905179988905895
 40
0.1642269556926017
 40
0.2380530753730911
 40
0.3123760441477659
 40
0.3869895302976412
 40
0.4614745016438901
 40
0.5851496942702218
 40
0.7092835185565466
 40
0.833157903598639
 40
0.9165781401482579
 40
1.0
 40
1.0
 40
1.0
 40
1.0
 10
1.345325372781964
 20
5.49999932711582
 30
0.0
 10
1.398511539679653
 20
5.499310768582701
 30
0.0
 10
1.538982385476854
 20
5.487566690474291
 30
0.0
 10
1.854591910925284
 20
5.418195046609993
 30
0.0
 10
2.329329109016069
 20
5.271619651707619
 30
0.0
 10
2.940855747626413
 20
5.059696886614688
 30
0.0
 10
3.6216964289096
 20
4.824065572811823
 30
0.0
 10
4.352948688096573
 20
4.581228769111548
 30
0.0
 10
5.29008644652346
 20
4.292383252863228
 30
0.0
 10
6.451194759052143
 20
3.98739059815945
 30
0.0
 10
7.838486420970312
 20
3.705173860574058
 30
0.0
 10
9.103089126275692
 20
3.529868020428326
 30
0.0
 10
10.22364537502219
 20
3.441763234081208
 30
0.0
 10
10.86882686552338
 20
3.420927197378751
 30
0.0
 10
11.19220462092714
 20
3.417991427849379
 30
0.0
  0
LINE
  5
B3A
330
A8B
100
AcDbEntity
  8
FRONT
  6
CONTINUOUS
 62
     4
100
AcDbLine
 10
1.352746725880145
 20
5.5
 30
0.0
 11
0.8660254037844552
 21
5.5
 31
0.0
  0
LINE
  5
B3B
330
A8B
100
AcDbEntity
  8
FRONT
  6
CONTINUOUS
 62
     4
100
AcDbLine
 10
11.18782140983618
 20
3.622780017417606
 30
0.0
 11
11.58072561727361
 21
4.835384189051726
 31
0.0
  0
LINE
  5
B3C
330
A8B
100
AcDbEntity
  8
FRONT
  6
CONTINUOUS
 62
     4
100
AcDbLine
 10
11.18782140983618
 20
3.622780017417606
 30
0.0
 11
12.32131357354198
 21
4.035942971686977
 31
0.0
  0
LINE
  5
B3D
330
A8B
100
AcDbEntity
  8
FRONT
  6
CONTINUOUS
 62
     4
100
AcDbLine
 10
12.1287291577043
 20
4.721327038522023
 30
0.0
 11
11.58072561727361
 21
4.835384189051726
 31
0.0
  0
LINE
  5
B3E
330
A8B
100
AcDbEntity
  8
FRONT
  6
CONTINUOUS
 62
     4
100
AcDbLine
 10
11.73862963750701
 20
5.461687541797799
 30
0.0
 11
11.82908573895635
 21
5.442860719673216
 31
0.0
  0
LINE
  5
B3F
330
A8B
100
AcDbEntity
  8
FRONT
  6
CONTINUOUS
 62
     4
100
AcDbLine
 10
11.73862963750701
 20
5.461687541797799
 30
0.0
 11
11.75466693733002
 21
5.546759538624923
 31
0.0
  0
ELLIPSE
  5
B40
330
A8B
100
AcDbEntity
  8
FRONT
  6
CONTINUOUS
 62
     4
100
AcDbEllipse
 10
11.95540632460577
 20
5.633722551958136
 30
0.0
 11
-0.806489772482009
 21
-0.5912480410211467
 31
0.0
210
0.0
220
0.0
230
1.0
 40
0.0811337619020885
 41
1.354388177432271
 42
1.745711778396149
  0
ELLIPSE
  5
B41
330
A8B
100
AcDbEntity
  8
FRONT
  6
CONTINUOUS
 62
     4
100
AcDbEllipse
 10
335.1698859889653
 20
27.65013668158367
 30
0.0
 11
-342.0959389744786
 21
-28.76099667904112
 31
0.0
210
0.0
220
0.0
230
1.0
 40
0.0434265181053538
 41
5.947803486633389
 42
5.952599622232146
  0
ELLIPSE
  5
B42
330
A8B
100
AcDbEntity
  8
FRONT
  6
CONTINUOUS
 62
     4
100
AcDbEllipse
 10
5.102677341749099
 20
0.6587726038256668
 30
0.0
 11
-7.307339427366883
 21
-3.063816270399227
 31
0.0
210
0.0
220
0.0
230
1.0
 40
0.2481866287351503
 41
3.052623486450511
 42
3.080913953302548
  0
ELLIPSE
  5
B43
330
A8B
100
AcDbEntity
  8
FRONT
  6
CONTINUOUS
 62
     4
100
AcDbEllipse
 10
12.27250701395665
 20
5.090761460477818
 30
0.0
 11
-0.8217836972268276
 21
-0.2171901358713434
 31
0.0
210
0.0
220
0.0
230
0.9999999999999998
 40
0.3920499365775708
 41
1.292632269327997
 42
1.678371035082333
  0
ELLIPSE
  5
B44
330
A8B
100
AcDbEntity
  8
FRONT
  6
CONTINUOUS
 62
     4
100
AcDbEllipse
 10
5.404099419789869
 20
0.7686420975624931
 30
0.0
 11
-5.980729945729562
 21
-2.40986449979302
 31
0.0
210
0.0
220
0.0
230
0.9999999999999998
 40
0.3085337035018759
 41
3.290405811667822
 42
3.332639300504348
  0
ELLIPSE
  5
B45
330
A8B
100
AcDbEntity
  8
FRONT
  6
CONTINUOUS
 62
     4
100
AcDbEllipse
 10
12.04589348063163
 20
3.189576309002418
 30
0.0
 11
-0.6673421078069362
 21
-2.286566163010705
 31
0.0
210
0.0
220
0.0
230
0.9999999999999998
 40
0.3978450525441507
 41
4.63866320637629
 42
4.650929689634257
  0
ELLIPSE
  5
B46
330
A8B
100
AcDbEntity
  8
FRONT
  6
CONTINUOUS
 62
     4
100
AcDbEllipse
 10
10.73278510489058
 20
6.237522743498638
 30
0.0
 11
-0.1862105098576039
 21
-2.621606840087076
 31
0.0
210
0.0
220
0.0
230
0.9999999999999998
 40
0.4178730016605411
 41
1.036429758151679
 42
1.300166956177833
  0
ELLIPSE
  5
B47
330
A8B
100
AcDbEntity
  8
FRONT
  6
CONTINUOUS
 62
     4
100
AcDbEllipse
 10
12.25172592005139
 20
5.268705240183141
 30
0.0
 11
-0.8496785632609061
 21
0.0233738973287866
 31
0.0
210
0.0
220
0.0
230
1.0
 40
0.3469230430269695
 41
1.426511375320844
 42
1.799447862846502
  0
ELLIPSE
  5
B48
330
A8B
100
AcDbEntity
  8
FRONT
  6
CONTINUOUS
 62
     4
100
AcDbEllipse
 10
11.78356539115273
 20
2.802384415741716
 30
0.0
 11
-1.329462075118444
 21
-0.5309569405100488
 31
0.0
210
0.0
220
0.0
230
0.9999999999999998
 40
0.8742324331760295
 41
4.730475183920662
 42
5.327454682651223
  0
SPLINE
  5
B49
330
A8B
100
AcDbEntity
  8
FRONT
  6
CONTINUOUS
 62
     4
100
AcDbSpline
210
0.0
220
0.0
230
1.0
 70
    24
 71
     1
 72
     4
 73
     2
 74
     0
 42
0.0000000001
 43
0.0000000001
 40
0.0
 40
0.0
 40
1.0
 40
1.0
 10
12.44268010034102
 20
3.606971866039025
 30
0.0
 10
12.32131357354198
 20
4.03594297168698
 30
0.0
  0
SPLINE
  5
B4A
330
A8B
100
AcDbEntity
  8
FRONT
  6
CONTINUOUS
 62
     4
100
AcDbSpline
210
0.0
220
0.0
230
1.0
 70
    24
 71
     1
 72
     4
 73
     2
 74
     0
 42
0.0000000001
 43
0.0000000001
 40
0.0
 40
0.0
 40
1.0
 40
1.0
 10
11.19220462092714
 20
3.417991427849379
 30
0.0
 10
12.3980252578104
 20
3.543839759641738
 30
0.0
  0
SPLINE
  5
B4B
330
A8B
100
AcDbEntity
  8
FRONT
  6
CONTINUOUS
 62
     4
100
AcDbSpline
210
0.0
220
0.0
230
1.0
 70
    24
 71
     1
 72
     4
 73
     2
 74
     0
 42
0.0000000001
 43
0.0000000001
 40
0.0
 40
0.0
 40
1.0
 40
1.0
 10
11.13483081029059
 20
3.485051129667143
 30
0.0
 10
11.17890053972468
 20
3.595016077432556
 30
0.0
  0
SPLINE
  5
B4C
330
A8B
100
AcDbEntity
  8
FRONT
  6
CONTINUOUS
 62
     4
100
AcDbSpline
210
0.0
220
0.0
230
1.0
 70
    24
 71
     1
 72
     4
 73
     2
 74
     0
 42
0.0000000001
 43
0.0000000001
 40
0.0
 40
0.0
 40
1.0
 40
1.0
 10
11.82908573895635
 20
5.442860719673213
 30
0.0
 10
11.75466693733006
 20
5.546759538624923
 30
0.0
  0
SPLINE
  5
B4D
330
A8B
100
AcDbEntity
  8
FRONT
  6
CONTINUOUS
 62
     4
100
AcDbSpline
210
0.0
220
0.0
230
1.0
 70
    24
 71
     1
 72
     4
 73
     2
 74
     0
 42
0.0000000001
 43
0.0000000001
 40
0.0
 40
0.0
 40
1.0
 40
1.0
 10
11.99195171433702
 20
5.828515939483442
 30
0.0
 10
12.03715635432748
 20
5.830493677100296
 30
0.0
  0
SPLINE
  5
B4E
330
A8B
100
AcDbEntity
  8
FRONT
  6
CONTINUOUS
 62
     4
100
AcDbSpline
210
0.0
220
0.0
230
1.0
 70
     8
 71
     2
 72
     6
 73
     3
 74
     0
 42
0.0000000001
 43
0.0000000001
 40
0.0
 40
0.0
 40
0.0
 40
1.0
 40
1.0
 40
1.0
 10
12.12153033356313
 20
4.980355974952971
 30
0.0
 10
12.25725557980072
 20
5.188642474664766
 30
0.0
 10
12.44068581249289
 20
5.378184466685091
 30
0.0
  0
SPLINE
  5
B4F
330
A8B
100
AcDbEntity
  8
FRONT
  6
CONTINUOUS
 62
     4
100
AcDbSpline
210
0.0
220
0.0
230
1.0
 70
    24
 71
     1
 72
     4
 73
     2
 74
     0
 42
0.0000000001
 43
0.0000000001
 40
0.0
 40
0.0
 40
1.0
 40
1.0
 10
12.14299382353853
 20
5.672179305901577
 30
0.0
 10
12.44068581249117
 20
5.378184466683152
 30
0.0
  0
SPLINE
  5
B50
330
A8B
100
AcDbEntity
  8
FRONT
  6
CONTINUOUS
 62
     4
100
AcDbSpline
210
0.0
220
0.0
230
1.0
 70
    24
 71
     1
 72
     4
 73
     2
 74
     0
 42
0.0000000001
 43
0.0000000001
 40
0.0
 40
0.0
 40
1.0
 40
1.0
 10
12.43641987849358
 20
4.976306217531615
 30
0.0
 10
12.44539691531411
 20
4.793762731808084
 30
0.0
  0
SPLINE
  5
B51
330
A8B
100
AcDbEntity
  8
FRONT
  6
CONTINUOUS
 62
     4
100
AcDbSpline
210
0.0
220
0.0
230
1.0
 70
    24
 71
     1
 72
     4
 73
     2
 74
     0
 42
0.0000000001
 43
0.0000000001
 40
0.0
 40
0.0
 40
1.0
 40
1.0
 10
12.1287291577043
 20
4.721327038522023
 30
0.0
 10
12.12153033357644
 20
4.980355974944933
 30
0.0
  0
SPLINE
  5
B52
330
A8B
100
AcDbEntity
  8
FRONT
  6
CONTINUOUS
 62
     4
100
AcDbSpline
210
0.0
220
0.0
230
1.0
 70
    24
 71
     1
 72
     4
 73
     2
 74
     0
 42
0.0000000001
 43
0.0000000001
 40
0.0
 40
0.0
 40
1.0
 40
1.0
 10
11.75466693733006
 20
5.546759538624923
 30
0.0
 10
11.77084472479986
 20
5.637701490563192
 30
0.0
  0
SPLINE
  5
B53
330
A8B
100
AcDbEntity
  8
FRONT
  6
CONTINUOUS
 62
     4
100
AcDbSpline
210
0.0
220
0.0
230
1.0
 70
    24
 71
     1
 72
     4
 73
     2
 74
     0
 42
0.0000000001
 43
0.0000000001
 40
0.0
 40
0.0
 40
1.0
 40
1.0
 10
12.26801481277344
 20
4.191302768055223
 30
0.0
 10
12.12872915770442
 20
4.721327038522042
 30
0.0
  0
SPLINE
  5
B54
330
A8B
100
AcDbEntity
  8
FRONT
  6
CONTINUOUS
 62
     4
100
AcDbSpline
210
0.0
220
0.0
230
1.0
 70
    24
 71
     1
 72
     4
 73
     2
 74
     0
 42
0.0000000001
 43
0.0000000001
 40
0.0
 40
0.0
 40
1.0
 40
1.0
 10
12.32131357354198
 20
4.035942971686977
 30
0.0
 10
12.26802043571945
 20
4.191303577397426
 30
0.0
  0
SPLINE
  5
B55
330
A8B
100
AcDbEntity
  8
FRONT
  6
CONTINUOUS
 62
     4
100
AcDbSpline
210
0.0
220
0.0
230
1.0
 70
     8
 71
     3
 72
    12
 73
     8
 74
     0
 42
0.0000000001
 43
0.0000000001
 40
0.0
 40
0.0
 40
0.0
 40
0.0
 40
0.2440298709825523
 40
0.488120310074948
 40
0.7306421972591242
 40
0.9701993202335991
 40
1.0
 40
1.0
 40
1.0
 40
1.0
 10
11.99195171433709
 20
5.828515939483442
 30
0.0
 10
11.9656217646913
 20
5.827267267325016
 30
0.0
 10
11.91614572163948
 20
5.81715304258248
 30
0.0
 10
11.84798307522928
 20
5.777355599814397
 30
0.0
 10
11.79694752140734
 20
5.718879229510207
 30
0.0
 10
11.77656470249855
 20
5.668220081294717
 30
0.0
 10
11.77135854082036
 20
5.640760675661909
 30
0.0
 10
11.77084472479986
 20
5.637701490563106
 30
0.0
  0
SPLINE
  5
B56
330
A8B
100
AcDbEntity
  8
FRONT
  6
CONTINUOUS
 62
     4
100
AcDbSpline
210
0.0
220
0.0
230
1.0
 70
    24
 71
     1
 72
     4
 73
     2
 74
     0
 42
0.0000000001
 43
0.0000000001
 40
0.0
 40
0.0
 40
1.0
 40
1.0
 10
11.10699408027199
 20
3.430964201513404
 30
0.0
 10
11.13483081029059
 20
3.485051129667143
 30
0.0
  0
SPLINE
  5
B57
330
A8B
100
AcDbEntity
  8
FRONT
  6
CONTINUOUS
 62
     4
100
AcDbSpline
210
0.0
220
0.0
230
1.0
 70
     8
 71
     2
 72
     6
 73
     3
 74
     0
 42
0.0000000001
 43
0.0000000001
 40
0.0
 40
0.0
 40
0.0
 40
1.0
 40
1.0
 40
1.0
 10
12.03715634521592
 20
5.830492901738478
 30
0.0
 10
12.08883088585918
 20
5.750552258515644
 30
0.0
 10
12.14299382353853
 20
5.672179305901581
 30
0.0
  0
SPLINE
  5
B58
330
A8B
100
AcDbEntity
  8
FRONT
  6
CONTINUOUS
 62
     4
100
AcDbSpline
210
0.0
220
0.0
230
1.0
 70
     8
 71
     2
 72
     6
 73
     3
 74
     0
 42
0.0000000001
 43
0.0000000001
 40
0.0
 40
0.0
 40
0.0
 40
1.0
 40
1.0
 40
1.0
 10
12.12153033357693
 20
4.98035597495837
 30
0.0
 10
11.94052361365615
 20
5.188224351265906
 30
0.0
 10
11.82908573895635
 20
5.442860719673213
 30
0.0
  0
LINE
  5
B59
330
A8B
100
AcDbEntity
  8
FRONT
  6
CONTINUOUS
 62
     4
100
AcDbLine
 10
17.89827503693186
 20
4.305849194799654
 30
0.0
 11
17.5908596611797
 21
2.933128552700317
 31
0.0
  0
LINE
  5
B5A
330
A8B
100
AcDbEntity
  8
FRONT
  6
CONTINUOUS
 62
     4
100
AcDbLine
 10
17.48879939540238
 20
2.948133384037639
 30
0.0
 11
17.5908596611797
 21
2.933128552700317
 31
0.0
  0
ELLIPSE
  5
B5B
330
A8B
100
AcDbEntity
  8
FRONT
  6
CONTINUOUS
 62
     4
100
AcDbEllipse
 10
17.97951315555683
 20
2.391212493729724
 30
0.0
 11
-0.4845839648273406
 21
-2.565417655414864
 31
0.0
210
0.0
220
0.0
230
1.0
 40
0.1877462969075319
 41
4.535131145218768
 42
4.737407662240475
  0
ELLIPSE
  5
B5C
330
A8B
100
AcDbEntity
  8
FRONT
  6
CONTINUOUS
 62
     4
100
AcDbEllipse
 10
14.51560790723299
 20
3.779757555175363
 30
0.0
 11
-1.088811819638892
 21
-0.5813346379390692
 31
0.0
210
0.0
220
0.0
230
0.9999999999999998
 40
0.9833059182791359
 41
3.141592653589792
 42
5.933643914404617
  0
ELLIPSE
  5
B5D
330
A8B
100
AcDbEntity
  8
FRONT
  6
CONTINUOUS
 62
     4
100
AcDbEllipse
 10
14.59586354321825
 20
3.865394052024021
 30
0.0
 11
-1.19524239155921
 21
-0.6381596805011488
 31
0.0
210
0.0
220
0.0
230
0.9999999999999998
 40
0.9833059182791515
 41
2.398313761510258
 42
5.985009272386527
  0
ELLIPSE
  5
B5E
330
A8B
100
AcDbEntity
  8
FRONT
  6
CONTINUOUS
 62
     4
100
AcDbEllipse
 10
14.58257986552084
 20
3.890273741521
 30
0.0
 11
-1.274184406475826
 21
-0.6803081278529028
 31
0.0
210
0.0
220
0.0
230
0.9999999999999996
 40
0.9833059182793167
 41
2.393939591548555
 42
4.152487722051174
  0
ELLIPSE
  5
B5F
330
A8B
100
AcDbEntity
  8
FRONT
  6
CONTINUOUS
 62
     4
100
AcDbEllipse
 10
14.624437821126
 20
3.811875803681258
 30
0.0
 11
-1.09830870118782
 21
-0.5864051800623212
 31
0.0
210
0.0
220
0.0
230
0.9999999999999998
 40
0.9833059182791778
 41
2.421430119237938
 42
4.646060335807837
  0
ELLIPSE
  5
B60
330
A8B
100
AcDbEntity
  8
FRONT
  6
CONTINUOUS
 62
     4
100
AcDbEllipse
 10
14.59586354321825
 20
3.865394052023983
 30
0.0
 11
-1.15113543004724
 21
-0.6146102442832692
 31
0.0
210
0.0
220
0.0
230
1.0
 40
0.9833059182791595
 41
2.854453356631227
 42
5.726113818514622
  0
ELLIPSE
  5
B61
330
A8B
100
AcDbEntity
  8
FRONT
  6
CONTINUOUS
 62
     4
100
AcDbEllipse
 10
14.61409458346563
 20
3.831248190399238
 30
0.0
 11
-1.141300807152083
 21
-0.6093593764552427
 31
0.0
210
0.0
220
0.0
230
1.0
 40
0.9833059182793387
 41
2.854453356640041
 42
4.211497995772411
  0
ELLIPSE
  5
B62
330
A8B
100
AcDbEntity
  8
FRONT
  6
CONTINUOUS
 62
     4
100
AcDbEllipse
 10
14.58172285405612
 20
3.891878882778576
 30
0.0
 11
-1.289463506136375
 21
-0.6884658918589805
 31
0.0
210
0.0
220
0.0
230
0.9999999999999998
 40
0.9833059182791195
 41
2.395557650275634
 42
4.152487722049663
  0
SPLINE
  5
B63
330
A8B
100
AcDbEntity
  8
FRONT
  6
CONTINUOUS
 62
     4
100
AcDbSpline
210
0.0
220
0.0
230
1.0
 70
    24
 71
     1
 72
     4
 73
     2
 74
     0
 42
0.0000000001
 43
0.0000000001
 40
0.0
 40
0.0
 40
1.0
 40
1.0
 10
17.29745226804206
 20
3.509679345658438
 30
0.0
 10
13.748385681282
 20
3.593205653172363
 30
0.0
  0
SPLINE
  5
B64
330
A8B
100
AcDbEntity
  8
FRONT
  6
CONTINUOUS
 62
     4
100
AcDbSpline
210
0.0
220
0.0
230
1.0
 70
    24
 71
     1
 72
     4
 73
     2
 74
     0
 42
0.0000000001
 43
0.0000000001
 40
0.0
 40
0.0
 40
1.0
 40
1.0
 10
16.11893557758381
 20
4.995450787331964
 30
0.0
 10
15.12498870412168
 20
5.250072189631183
 30
0.0
  0
SPLINE
  5
B65
330
A8B
100
AcDbEntity
  8
FRONT
  6
CONTINUOUS
 62
     4
100
AcDbSpline
210
0.0
220
0.0
230
1.0
 70
    24
 71
     1
 72
     4
 73
     2
 74
     0
 42
0.0000000001
 43
0.0000000001
 40
0.0
 40
0.0
 40
1.0
 40
1.0
 10
17.59489872014192
 20
5.975264142052812
 30
0.0
 10
14.60613712230076
 20
5.930601946215392
 30
0.0
  0
SPLINE
  5
B66
330
A8B
100
AcDbEntity
  8
FRONT
  6
CONTINUOUS
 62
     4
100
AcDbSpline
210
0.0
220
0.0
230
1.0
 70
    24
 71
     1
 72
     4
 73
     2
 74
     0
 42
0.0000000001
 43
0.0000000001
 40
0.0
 40
0.0
 40
1.0
 40
1.0
 10
14.92350318018168
 20
5.636516777042869
 30
0.0
 10
16.19668973819389
 20
5.335334408581799
 30
0.0
  0
LINE
  5
B67
330
A8B
100
AcDbEntity
  8
FRONT
  6
CONTINUOUS
 62
     4
100
AcDbLine
 10
15.10230670790777
 20
4.183313301931558
 30
0.0
 11
15.04448787470278
 21
4.291605195933396
 31
0.0
  0
LINE
  5
B68
330
A8B
100
AcDbEntity
  8
FRONT
  6
CONTINUOUS
 62
     4
100
AcDbLine
 10
15.1976496365405
 20
3.611859513448073
 30
0.0
 11
15.22617856444389
 21
3.558426203482309
 31
0.0
  0
LINE
  5
B69
330
A8B
100
AcDbEntity
  8
FRONT
  6
CONTINUOUS
 62
     4
100
AcDbLine
 10
13.80446405246526
 20
3.591885864106183
 30
0.0
 11
13.80379348619884
 21
3.593141802474725
 31
0.0
  0
LINE
  5
B6A
330
A8B
100
AcDbEntity
  8
FRONT
  6
CONTINUOUS
 62
     4
100
AcDbLine
 10
14.83756674726532
 20
5.331362856545027
 30
0.0
 11
14.69295620412083
 21
5.331857548057461
 31
0.0
  0
LINE
  5
B6B
330
A8B
100
AcDbEntity
  8
FRONT
  6
CONTINUOUS
 62
     4
100
AcDbLine
 10
14.05370990737933
 20
4.186900398182689
 30
0.0
 11
13.99589107417434
 21
4.295192292184527
 31
0.0
  0
LINE
  5
B6C
330
A8B
100
AcDbEntity
  8
FRONT
  6
CONTINUOUS
 62
     4
100
AcDbLine
 10
14.44227717851973
 20
4.461613941808328
 30
0.0
 11
14.40175106321881
 21
4.382834230900383
 31
0.0
  0
LINE
  5
B6D
330
A8B
100
AcDbEntity
  8
FRONT
  6
CONTINUOUS
 62
     4
100
AcDbLine
 10
14.3665823270041
 20
4.549988550519462
 30
0.0
 11
14.38057235479898
 21
4.577184109163312
 31
0.0
  0
LINE
  5
B6E
330
A8B
100
AcDbEntity
  8
FRONT
  6
CONTINUOUS
 62
     4
100
AcDbLine
 10
14.40175106321881
 20
4.382834230900383
 30
0.0
 11
14.3439322300138
 21
4.491126124902223
 31
0.0
  0
LINE
  5
B6F
330
A8B
100
AcDbEntity
  8
FRONT
  6
CONTINUOUS
 62
     4
100
AcDbLine
 10
13.934096024833
 20
4.306515336617805
 30
0.0
 11
13.903565927193
 21
4.308647770791533
 31
0.0
  0
LINE
  5
B70
330
A8B
100
AcDbEntity
  8
FRONT
  6
CONTINUOUS
 62
     4
100
AcDbLine
 10
13.77533931878937
 20
4.042581236833521
 30
0.0
 11
13.75872784864233
 21
4.067853483548937
 31
0.0
  0
LINE
  5
B71
330
A8B
100
AcDbEntity
  8
FRONT
  6
CONTINUOUS
 62
     4
100
AcDbLine
 10
13.96527075091378
 20
4.193077603436552
 30
0.0
 11
14.05370990737933
 21
4.186900398182689
 31
0.0
  0
LINE
  5
B72
330
A8B
100
AcDbEntity
  8
FRONT
  6
CONTINUOUS
 62
     4
100
AcDbLine
 10
13.96527075091378
 20
4.193077603436552
 30
0.0
 11
13.903565927193
 21
4.308647770791533
 31
0.0
  0
LINE
  5
B73
330
A8B
100
AcDbEntity
  8
FRONT
  6
CONTINUOUS
 62
     4
100
AcDbLine
 10
15.24809154382499
 20
4.037543166926568
 30
0.0
 11
15.26559078171205
 21
4.062698725899988
 31
0.0
  0
LINE
  5
B74
330
A8B
100
AcDbEntity
  8
FRONT
  6
CONTINUOUS
 62
     4
100
AcDbLine
 10
15.19095269576139
 20
4.18888472481321
 30
0.0
 11
15.10230670790777
 21
4.183313301931558
 31
0.0
  0
LINE
  5
B75
330
A8B
100
AcDbEntity
  8
FRONT
  6
CONTINUOUS
 62
     4
100
AcDbLine
 10
14.7112810522329
 20
4.474369018649596
 30
0.0
 11
14.76822961098702
 21
4.367707106841534
 31
0.0
  0
LINE
  5
B76
330
A8B
100
AcDbEntity
  8
FRONT
  6
CONTINUOUS
 62
     4
100
AcDbLine
 10
15.09864637409872
 20
4.302531580239758
 30
0.0
 11
15.12924787204065
 21
4.304454892168187
 31
0.0
  0
LINE
  5
B77
330
A8B
100
AcDbEntity
  8
FRONT
  6
CONTINUOUS
 62
     4
100
AcDbLine
 10
15.19095269576139
 20
4.18888472481321
 30
0.0
 11
15.12924787204065
 21
4.304454892168187
 31
0.0
  0
LINE
  5
B78
330
A8B
100
AcDbEntity
  8
FRONT
  6
CONTINUOUS
 62
     4
100
AcDbLine
 10
13.88468018453357
 20
3.851921520671986
 30
0.0
 11
13.82879362639822
 21
3.956594356394368
 31
0.0
  0
LINE
  5
B79
330
A8B
100
AcDbEntity
  8
FRONT
  6
CONTINUOUS
 62
     4
100
AcDbLine
 10
14.44227717851973
 20
4.461613941808328
 30
0.0
 11
14.38057235479898
 21
4.577184109163312
 31
0.0
  0
LINE
  5
B7A
330
A8B
100
AcDbEntity
  8
FRONT
  6
CONTINUOUS
 62
     4
100
AcDbLine
 10
14.67478420277406
 20
4.548934236990556
 30
0.0
 11
14.66175334302106
 21
4.576222230137708
 31
0.0
  0
LINE
  5
B7B
330
A8B
100
AcDbEntity
  8
FRONT
  6
CONTINUOUS
 62
     4
100
AcDbLine
 10
15.22782923901037
 20
3.55838735530968
 30
0.0
 11
15.21184500108873
 21
3.588325064231844
 31
0.0
  0
ELLIPSE
  5
B7C
330
A8B
100
AcDbEntity
  8
FRONT
  6
CONTINUOUS
 62
     4
100
AcDbEllipse
 10
14.57425026010683
 20
3.669923248444872
 30
0.0
 11
-0.5697208004759025
 21
-0.3041833576987884
 31
0.0
210
0.0
220
0.0
230
1.0
 40
0.9833059182803454
 41
3.141592653589792
 42
4.211497995854738
  0
ELLIPSE
  5
B7D
330
A8B
100
AcDbEntity
  8
FRONT
  6
CONTINUOUS
 62
     4
100
AcDbEllipse
 10
14.69467022705201
 20
5.328647265550291
 30
0.0
 11
-0.0012380506136597
 21
-0.0199616439988246
 31
0.0
210
0.0
220
0.0
230
1.0
 40
0.0966394604989199
 41
4.556861561911704
 42
5.60405911256103
  0
ELLIPSE
  5
B7E
330
A8B
100
AcDbEntity
  8
FRONT
  6
CONTINUOUS
 62
     4
100
AcDbEllipse
 10
15.13698707744814
 20
4.149555768557871
 30
0.0
 11
-0.1387163939545198
 21
-0.0740629769062388
 31
0.0
210
0.0
220
0.0
230
1.0
 40
0.983305918279537
 41
3.141592653589792
 42
4.278357181632673
  0
ELLIPSE
  5
B7F
330
A8B
100
AcDbEntity
  8
FRONT
  6
CONTINUOUS
 62
     4
100
AcDbEllipse
 10
14.56910786775645
 20
3.679554149551463
 30
0.0
 11
-0.5697232499858903
 21
-0.3041793370702448
 31
0.0
210
0.0
220
0.0
230
0.9999999999999998
 40
0.9833058533003276
 41
2.452122662756899
 42
2.51349782037308
  0
ELLIPSE
  5
B80
330
A8B
100
AcDbEntity
  8
FRONT
  6
CONTINUOUS
 62
     4
100
AcDbEllipse
 10
15.13698707744944
 20
4.149555768557799
 30
0.0
 11
-0.1387163939436924
 21
-0.0740629769240791
 31
0.0
210
0.0
220
0.0
230
1.0
 40
0.9833059182820004
 41
2.05024370739385
 42
3.141592653473066
  0
ELLIPSE
  5
B81
330
A8B
100
AcDbEntity
  8
FRONT
  6
CONTINUOUS
 62
     4
100
AcDbEllipse
 10
13.95207889255067
 20
4.038250081933183
 30
0.0
 11
-0.138716393954182
 21
-0.0740629769072034
 31
0.0
210
0.0
220
0.0
230
1.0
 40
0.9833059182793643
 41
4.144638809916375
 42
6.033222504441043
  0
ELLIPSE
  5
B82
330
A8B
100
AcDbEntity
  8
FRONT
  6
CONTINUOUS
 62
     4
100
AcDbEllipse
 10
14.50740336589031
 20
3.795124266565245
 30
0.0
 11
-0.6878480648487471
 21
-0.3672534576645039
 31
0.0
210
0.0
220
0.0
230
1.0
 40
0.9833059182825293
 41
3.364014017275521
 42
4.011784423528292
  0
ELLIPSE
  5
B83
330
A8B
100
AcDbEntity
  8
FRONT
  6
CONTINUOUS
 62
     4
100
AcDbEllipse
 10
15.19869190116777
 20
4.03398560119947
 30
0.0
 11
-0.1387163939305158
 21
-0.0740629769569428
 31
0.0
210
0.0
220
0.0
230
0.9999999999999998
 40
0.9833059182794855
 41
3.579055150075236
 42
4.278357181272085
  0
ELLIPSE
  5
B84
330
A8B
100
AcDbEntity
  8
FRONT
  6
CONTINUOUS
 62
     4
100
AcDbEllipse
 10
14.57425026010534
 20
3.669923248441066
 30
0.0
 11
-0.5697208004536415
 21
-0.3041833577478669
 31
0.0
210
0.0
220
0.0
230
1.0
 40
0.9833059182795919
 41
4.211497995770305
 42
5.916687780929657
  0
ELLIPSE
  5
B85
330
A8B
100
AcDbEntity
  8
FRONT
  6
CONTINUOUS
 62
     4
100
AcDbEllipse
 10
14.51995578064691
 20
4.508250739867492
 30
0.0
 11
-0.1387190760836097
 21
-0.074062710247625
 31
0.0
210
0.0
220
0.0
230
1.0
 40
0.9832989179835243
 41
3.097450943316431
 42
3.141602023580455
  0
ELLIPSE
  5
B86
330
A8B
100
AcDbEntity
  8
FRONT
  6
CONTINUOUS
 62
     4
100
AcDbEllipse
 10
14.51995778039392
 20
4.508251751292131
 30
0.0
 11
-0.1387163939537963
 21
-0.0740629769078515
 31
0.0
210
0.0
220
0.0
230
0.9999999999999998
 40
0.9833059182791126
 41
3.141592653589792
 42
5.325554732817813
  0
ELLIPSE
  5
B87
330
A8B
100
AcDbEntity
  8
FRONT
  6
CONTINUOUS
 62
     4
100
AcDbEllipse
 10
14.60429708204515
 20
3.613646995939661
 30
0.0
 11
-0.3532268962687824
 21
-0.1885936818296914
 31
0.0
210
0.0
220
0.0
230
1.0
 40
0.9833059182785307
 41
3.188548543609073
 42
4.2114979956971
  0
ELLIPSE
  5
B88
330
A8B
100
AcDbEntity
  8
FRONT
  6
CONTINUOUS
 62
     4
100
AcDbEllipse
 10
14.08380160591652
 20
4.540074528313537
 30
0.0
 11
-0.3164233418824987
 21
-0.1689436554341971
 31
0.0
210
0.0
220
0.0
230
1.0
 40
0.9833059182770933
 41
1.003046156315968
 42
2.183962079224543
  0
ELLIPSE
  5
B89
330
A8B
100
AcDbEntity
  8
FRONT
  6
CONTINUOUS
 62
     4
100
AcDbEllipse
 10
14.50740336587441
 20
3.795124266572471
 30
0.0
 11
-0.6878480647677431
 21
-0.3672534578178684
 31
0.0
210
0.0
220
0.0
230
1.0
 40
0.9833059182652659
 41
4.41121156824879
 42
5.058981974505009
  0
ELLIPSE
  5
B8A
330
A8B
100
AcDbEntity
  8
FRONT
  6
CONTINUOUS
 62
     4
100
AcDbEllipse
 10
14.58172285396982
 20
3.891878882787051
 30
0.0
 11
-1.289463505490718
 21
-0.6884658929129688
 31
0.0
210
0.0
220
0.0
230
1.0
 40
0.9833059182902299
 41
5.42507150311212
 42
5.993725673721996
  0
ELLIPSE
  5
B8B
330
A8B
100
AcDbEntity
  8
FRONT
  6
CONTINUOUS
 62
     4
100
AcDbEllipse
 10
13.97044885753497
 20
5.616005562204333
 30
0.0
 11
-0.0211384512596285
 21
-0.8497371156793303
 31
0.0
210
0.0
220
0.0
230
1.0
 40
0.1896634436923256
 41
1.168100390367426
 42
1.749625419812159
  0
ELLIPSE
  5
B8C
330
A8B
100
AcDbEntity
  8
FRONT
  6
CONTINUOUS
 62
     4
100
AcDbEllipse
 10
14.58166260411466
 20
4.392681583937155
 30
0.0
 11
-0.138716393954067
 21
-0.0740629769073293
 31
0.0
210
0.0
220
0.0
230
1.0
 40
0.9833059182794162
 41
3.353232323526823
 42
5.325554732821572
  0
ELLIPSE
  5
B8D
330
A8B
100
AcDbEntity
  8
FRONT
  6
CONTINUOUS
 62
     4
100
AcDbEllipse
 10
13.89037417432644
 20
4.153820311544767
 30
0.0
 11
-0.1387164275215775
 21
-0.0740631738835355
 31
0.0
210
0.0
220
0.0
230
1.0
 40
0.9833055364643515
 41
6.283184319510271
 42
6.372751261455347
  0
ELLIPSE
  5
B8E
330
A8B
100
AcDbEntity
  8
FRONT
  6
CONTINUOUS
 62
     4
100
AcDbEllipse
 10
14.50740336586205
 20
3.795124266556618
 30
0.0
 11
-0.6878480646011706
 21
-0.3672534581129616
 31
0.0
210
0.0
220
0.0
230
0.9999999999999998
 40
0.9833059182837756
 41
5.458409119012037
 42
6.053253327806824
  0
ELLIPSE
  5
B8F
330
A8B
100
AcDbEntity
  8
FRONT
  6
CONTINUOUS
 62
     4
100
AcDbEllipse
 10
14.58207327753735
 20
3.891222556444417
 30
0.0
 11
-1.314616796581824
 21
-0.7018956497286183
 31
0.0
210
0.0
220
0.0
230
1.0
 40
0.9833059182747907
 41
4.552187304562112
 42
5.292715336509727
  0
ELLIPSE
  5
B90
330
A8B
100
AcDbEntity
  8
FRONT
  6
CONTINUOUS
 62
     4
100
AcDbEllipse
 10
14.58688798533231
 20
3.646253396861238
 30
0.0
 11
-0.3532268962957501
 21
-0.1885936817720534
 31
0.0
210
0.0
220
0.0
230
1.0
 40
0.9833059182800568
 41
3.141592653589792
 42
4.211497995858031
  0
ELLIPSE
  5
B91
330
A8B
100
AcDbEntity
  8
FRONT
  6
CONTINUOUS
 62
     4
100
AcDbEllipse
 10
5.175521261857809
 20
0.522334779761014
 30
0.0
 11
-7.504621568768301
 21
-3.321134731786813
 31
0.0
210
0.0
220
0.0
230
1.0
 40
0.3415132900699109
 41
3.041715105904696
 42
3.07577658346799
  0
ELLIPSE
  5
B92
330
A8B
100
AcDbEntity
  8
FRONT
  6
CONTINUOUS
 62
     4
100
AcDbEllipse
 10
14.58688798535681
 20
3.646253396862427
 30
0.0
 11
-0.3532268961353468
 21
-0.1885936820254782
 31
0.0
210
0.0
220
0.0
230
1.0
 40
0.9833059183033368
 41
2.433542523355816
 42
3.141592652947553
  0
ELLIPSE
  5
B93
330
A8B
100
AcDbEntity
  8
FRONT
  6
CONTINUOUS
 62
     4
100
AcDbEllipse
 10
14.60429708204586
 20
3.613646995941261
 30
0.0
 11
-0.3532268962799985
 21
-0.1885936818057033
 31
0.0
210
0.0
220
0.0
230
1.0
 40
0.9833059182790311
 41
4.211497995764053
 42
5.866656694161925
  0
ELLIPSE
  5
B94
330
A8B
100
AcDbEntity
  8
FRONT
  6
CONTINUOUS
 62
     4
100
AcDbEllipse
 10
14.61409458346357
 20
3.831248190401323
 30
0.0
 11
-1.141300807144346
 21
-0.6093593764680999
 31
0.0
210
0.0
220
0.0
230
1.0
 40
0.9833059182778084
 41
4.21149799575997
 42
5.305260955205677
  0
ELLIPSE
  5
B95
330
A8B
100
AcDbEntity
  8
FRONT
  6
CONTINUOUS
 62
     4
100
AcDbEllipse
 10
14.58172613529574
 20
3.891872737174622
 30
0.0
 11
-1.2898928947353
 21
-0.6886951495342341
 31
0.0
210
0.0
220
0.0
230
0.9999999999999998
 40
0.9833059182785364
 41
4.211497995763918
 42
5.292715336570157
  0
ELLIPSE
  5
B96
330
A8B
100
AcDbEntity
  8
FRONT
  6
CONTINUOUS
 62
     4
100
AcDbEllipse
 10
14.56910818960468
 20
3.679554099198936
 30
0.0
 11
-0.5697208004516448
 21
-0.3041833577510329
 31
0.0
210
0.0
220
0.0
230
0.9999999999999998
 40
0.9833059182790732
 41
4.211497995764176
 42
5.932188545061793
  0
ELLIPSE
  5
B97
330
A8B
100
AcDbEntity
  8
FRONT
  6
CONTINUOUS
 62
     4
100
AcDbEllipse
 10
12.57015373105181
 20
5.400676431794027
 30
0.0
 11
-0.2869743301033756
 21
0.8000910781621206
 31
0.0
210
0.0
220
0.0
230
0.9999999999999998
 40
0.1844576932552187
 41
4.318012958595913
 42
4.737148911237754
  0
ELLIPSE
  5
B98
330
A8B
100
AcDbEntity
  8
FRONT
  6
CONTINUOUS
 62
     4
100
AcDbEllipse
 10
14.50740336588399
 20
3.79512426655381
 30
0.0
 11
-0.8808790105358404
 21
-0.4703158722400647
 31
0.0
210
0.0
220
0.0
230
1.0
 40
0.9833059182791467
 41
2.390668816843747
 42
5.988551940869403
  0
ELLIPSE
  5
B99
330
A8B
100
AcDbEntity
  8
FRONT
  6
CONTINUOUS
 62
     4
100
AcDbEllipse
 10
14.76472077294693
 20
5.467799863486598
 30
0.0
 11
-0.2364016993902184
 21
-0.8164644729534451
 31
0.0
210
0.0
220
0.0
230
0.9999999999999998
 40
0.1280545533618557
 41
1.440078277354396
 42
1.815854610802254
  0
ELLIPSE
  5
B9A
330
A8B
100
AcDbEntity
  8
FRONT
  6
CONTINUOUS
 62
     4
100
AcDbEllipse
 10
14.58257986552555
 20
3.890273741520238
 30
0.0
 11
-1.274184406513254
 21
-0.6803081277927215
 31
0.0
210
0.0
220
0.0
230
0.9999999999999998
 40
0.9833059182784806
 41
5.425071504014952
 42
5.994214383758207
  0
ELLIPSE
  5
B9B
330
A8B
100
AcDbEntity
  8
FRONT
  6
CONTINUOUS
 62
     4
100
AcDbEllipse
 10
13.78292511660905
 20
5.616499995611142
 30
0.0
 11
-0.0163260565688646
 21
0.8498431972198538
 31
0.0
210
0.0
220
0.0
230
1.0
 40
0.1967958030989425
 41
4.311714536223274
 42
4.876679898782334
  0
ELLIPSE
  5
B9C
330
A8B
100
AcDbEntity
  8
FRONT
  6
CONTINUOUS
 62
     4
100
AcDbEllipse
 10
14.50740336587235
 20
3.795124266552682
 30
0.0
 11
-0.6878480648432717
 21
-0.3672534577212541
 31
0.0
210
0.0
220
0.0
230
1.0
 40
0.9833059182736951
 41
2.316816466017689
 42
2.964586872260165
  0
ELLIPSE
  5
B9D
330
A8B
100
AcDbEntity
  8
FRONT
  6
CONTINUOUS
 62
     4
100
AcDbEllipse
 10
14.56910818960365
 20
3.679554099196997
 30
0.0
 11
-0.5697208004383743
 21
-0.3041833577798674
 31
0.0
210
0.0
220
0.0
230
0.9999999999999998
 40
0.9833059182783683
 41
3.141592653589792
 42
4.211497995714275
  0
ELLIPSE
  5
B9E
330
A8B
100
AcDbEntity
  8
FRONT
  6
CONTINUOUS
 62
     4
100
AcDbEllipse
 10
14.61736004955248
 20
5.312895778975766
 30
0.0
 11
-0.0004109759370388
 21
-0.119983668084697
 31
0.0
210
0.0
220
0.0
230
0.9999999999999998
 40
0.0873685432136738
 41
4.487162694202337
 42
4.526241732837313
  0
ELLIPSE
  5
B9F
330
A8B
100
AcDbEntity
  8
FRONT
  6
CONTINUOUS
 62
     4
100
AcDbEllipse
 10
14.56910819127553
 20
3.679554099860636
 30
0.0
 11
-0.5697207959968914
 21
-0.3041833623035364
 31
0.0
210
0.0
220
0.0
230
1.0
 40
0.9833059196149559
 41
2.938742608956589
 42
3.141592644282478
  0
ELLIPSE
  5
BA0
330
A8B
100
AcDbEntity
  8
FRONT
  6
CONTINUOUS
 62
     4
100
AcDbEllipse
 10
15.08465295287089
 20
4.536650762276023
 30
0.0
 11
-0.3164233418788596
 21
-0.1689436554438716
 31
0.0
210
0.0
220
0.0
230
0.9999999999999998
 40
0.9833059182783118
 41
0.0
 42
1.136764527997375
  0
ELLIPSE
  5
BA1
330
A8B
100
AcDbEntity
  8
FRONT
  6
CONTINUOUS
 62
     4
100
AcDbEllipse
 10
14.58258259988541
 20
3.890268620186363
 30
0.0
 11
-1.274168156721289
 21
-0.6802994518514309
 31
0.0
210
0.0
220
0.0
230
0.9999999999999998
 40
0.9833059182777518
 41
4.211497995758451
 42
5.292715337516465
  0
ELLIPSE
  5
BA2
330
A8B
100
AcDbEntity
  8
FRONT
  6
CONTINUOUS
 62
     4
100
AcDbEllipse
 10
13.89037406882998
 20
4.153820249288088
 30
0.0
 11
-0.1387163939551331
 21
-0.0740629769055295
 31
0.0
210
0.0
220
0.0
230
0.9999999999999998
 40
0.9833059182795551
 41
4.144638809929066
 42
6.283185307179584
  0
ELLIPSE
  5
BA3
330
A8B
100
AcDbEntity
  8
FRONT
  6
CONTINUOUS
 62
     4
100
AcDbEllipse
 10
13.56825684262709
 20
3.682977865236207
 30
0.0
 11
-0.3164233420262994
 21
-0.1689436552114316
 31
0.0
210
0.0
220
0.0
230
0.9999999999999998
 40
0.983305918256555
 41
2.372365793430125
 42
3.141592654310951
  0
ELLIPSE
  5
BA4
330
A8B
100
AcDbEntity
  8
FRONT
  6
CONTINUOUS
 62
     4
100
AcDbEllipse
 10
14.5868879853312
 20
3.646253396859196
 30
0.0
 11
-0.3532268962794111
 21
-0.1885936818066905
 31
0.0
210
0.0
220
0.0
230
1.0
 40
0.9833059182788758
 41
4.211497995761056
 42
5.951301366806
  0
SPLINE
  5
BA5
330
A8B
100
AcDbEntity
  8
FRONT
  6
CONTINUOUS
 62
     4
100
AcDbSpline
210
0.0
220
0.0
230
1.0
 70
    24
 71
     1
 72
     4
 73
     2
 74
     0
 42
0.0000000001
 43
0.0000000001
 40
0.0
 40
0.0
 40
1.0
 40
1.0
 10
14.69249519034973
 20
5.313189824235679
 30
0.0
 10
14.60768112625891
 20
5.315938369092338
 30
0.0
  0
SPLINE
  5
BA6
330
A8B
100
AcDbEntity
  8
FRONT
  6
CONTINUOUS
 62
     4
100
AcDbSpline
210
0.0
220
0.0
230
1.0
 70
    24
 71
     1
 72
     4
 73
     2
 74
     0
 42
0.0000000001
 43
0.0000000001
 40
0.0
 40
0.0
 40
1.0
 40
1.0
 10
14.83756674726532
 20
5.331362856545028
 30
0.0
 10
14.68992440208029
 20
5.336837850675596
 30
0.0
  0
SPLINE
  5
BA7
330
A8B
100
AcDbEntity
  8
FRONT
  6
CONTINUOUS
 62
     4
100
AcDbSpline
210
0.0
220
0.0
230
1.0
 70
    24
 71
     1
 72
     4
 73
     2
 74
     0
 42
0.0000000001
 43
0.0000000001
 40
0.0
 40
0.0
 40
1.0
 40
1.0
 10
12.81667247474081
 20
5.142126865126981
 30
0.0
 10
12.502260809944
 20
5.038954222702708
 30
0.0
  0
SPLINE
  5
BA8
330
A8B
100
AcDbEntity
  8
FRONT
  6
CONTINUOUS
 62
     4
100
AcDbSpline
210
0.0
220
0.0
230
1.0
 70
     8
 71
     2
 72
     6
 73
     3
 74
     0
 42
0.0000000001
 43
0.0000000001
 40
0.0
 40
0.0
 40
0.0
 40
1.0
 40
1.0
 40
1.0
 10
13.94329233751025
 20
5.287986048440243
 30
0.0
 10
13.36904800632871
 20
5.308177948949881
 30
0.0
 10
12.81667247474081
 20
5.142126865127038
 30
0.0
  0
SPLINE
  5
BA9
330
A8B
100
AcDbEntity
  8
FRONT
  6
CONTINUOUS
 62
     4
100
AcDbSpline
210
0.0
220
0.0
230
1.0
 70
     8
 71
     3
 72
    11
 73
     7
 74
     0
 42
0.0000000001
 43
0.0000000001
 40
0.0
 40
0.0
 40
0.0
 40
0.0
 40
0.2500000000004002
 40
0.5000000000000384
 40
0.7500000000002445
 40
1.0
 40
1.0
 40
1.0
 40
1.0
 10
13.24329890969342
 20
4.393410854946448
 30
0.0
 10
13.24233341373558
 20
4.393971351428181
 30
0.0
 10
13.24014478598934
 20
4.395146401648325
 30
0.0
 10
13.23597462327683
 20
4.397127664258944
 30
0.0
 10
13.23126018027509
 20
4.399158067618833
 30
0.0
 10
13.22803724322823
 20
4.400426501220721
 30
0.0
 10
13.22638220773661
 20
4.401049253290286
 30
0.0
  0
SPLINE
  5
BAA
330
A8B
100
AcDbEntity
  8
FRONT
  6
CONTINUOUS
 62
     4
100
AcDbSpline
210
0.0
220
0.0
230
1.0
 70
    24
 71
     1
 72
     4
 73
     2
 74
     0
 42
0.0000000001
 43
0.0000000001
 40
0.0
 40
0.0
 40
1.0
 40
1.0
 10
14.13280283862451
 20
5.763209387832385
 30
0.0
 10
14.60909340460244
 20
5.711114127719043
 30
0.0
  0
SPLINE
  5
BAB
330
A8B
100
AcDbEntity
  8
FRONT
  6
CONTINUOUS
 62
     4
100
AcDbSpline
210
0.0
220
0.0
230
1.0
 70
    24
 71
     1
 72
     4
 73
     2
 74
     0
 42
0.0000000001
 43
0.0000000001
 40
0.0
 40
0.0
 40
1.0
 40
1.0
 10
14.6090865051094
 20
5.711625498686736
 30
0.0
 10
14.92350318018168
 20
5.636516777042869
 30
0.0
  0
SPLINE
  5
BAC
330
A8B
100
AcDbEntity
  8
FRONT
  6
CONTINUOUS
 62
     4
100
AcDbSpline
210
0.0
220
0.0
230
1.0
 70
    24
 71
     1
 72
     4
 73
     2
 74
     0
 42
0.0000000001
 43
0.0000000001
 40
0.0
 40
0.0
 40
1.0
 40
1.0
 10
14.70338694437526
 20
4.489896482910467
 30
0.0
 10
14.71097785761776
 20
4.474938976988299
 30
0.0
  0
SPLINE
  5
BAD
330
A8B
100
AcDbEntity
  8
FRONT
  6
CONTINUOUS
 62
     4
100
AcDbSpline
210
0.0
220
0.0
230
1.0
 70
    24
 71
     1
 72
     4
 73
     2
 74
     0
 42
0.0000000001
 43
0.0000000001
 40
0.0
 40
0.0
 40
1.0
 40
1.0
 10
13.94524870938067
 20
5.758663903675718
 30
0.0
 10
13.94849591684476
 20
5.910374238520851
 30
0.0
  0
SPLINE
  5
BAE
330
A8B
100
AcDbEntity
  8
FRONT
  6
CONTINUOUS
 62
     4
100
AcDbSpline
210
0.0
220
0.0
230
1.0
 70
     8
 71
     3
 72
    27
 73
    23
 74
     0
 42
0.0000000001
 43
0.0000000001
 40
0.0
 40
0.0
 40
0.0
 40
0.0
 40
0.2366252197469015
 40
0.5011857703755036
 40
0.6170954909511118
 40
0.6813809129738626
 40
0.7150700700809978
 40
0.7322963567034382
 40
0.7410042896839962
 40
0.7453818723743754
 40
0.7475765575058172
 40
0.7486753722519263
 40
0.7492251475017373
 40
0.7495001270756441
 40
0.7496376398473227
 40
0.7497064019790262
 40
0.7497407844813077
 40
0.7497751679411861
 40
0.7516543580812576
 40
0.7684406215659994
 40
0.8166950275236356
 40
1.0
 40
1.0
 40
1.0
 40
1.0
 10
14.60909339101644
 20
5.711114124413491
 30
0.0
 10
14.60948781698238
 20
5.682031763659281
 30
0.0
 10
14.61005082917718
 20
5.620220915826541
 30
0.0
 10
14.61001311662804
 20
5.543096055524626
 30
0.0
 10
14.60961852963504
 20
5.487687827984436
 30
0.0
 10
14.60933943853557
 20
5.461104315057176
 30
0.0
 10
14.60916381097548
 20
5.446814350617032
 30
0.0
 10
14.60906622380328
 20
5.439426844543143
 30
0.0
 10
14.60901490310632
 20
5.435673462883298
 30
0.0
 10
14.60898860047587
 20
5.4337819906927
 30
0.0
 10
14.60897045899501
 20
5.432493419559841
 30
0.0
 10
14.60896905688914
 20
5.432393429389828
 30
0.0
 10
14.60896765478331
 20
5.432293439219815
 30
0.0
 10
14.60896625267744
 20
5.432193449049803
 30
0.0
 10
14.60896485057159
 20
5.43209345887979
 30
0.0
 10
14.60896344846577
 20
5.431993468709777
 30
0.0
 10
14.60896204635992
 20
5.431893478539761
 30
0.0
 10
14.60895863749725
 20
5.431652428828829
 30
0.0
 10
14.60892682016698
 20
5.429338529498513
 30
0.0
 10
14.60881020481483
 20
5.421061993311028
 30
0.0
 10
14.6083339813956
 20
5.390397134061578
 30
0.0
 10
14.60776482101609
 20
5.362037547077322
 30
0.0
 10
14.60723379104669
 20
5.339726363785728
 30
0.0
  0
SPLINE
  5
BAF
330
A8B
100
AcDbEntity
  8
FRONT
  6
CONTINUOUS
 62
     4
100
AcDbSpline
210
0.0
220
0.0
230
1.0
 70
    24
 71
     1
 72
     4
 73
     2
 74
     0
 42
0.0000000001
 43
0.0000000001
 40
0.0
 40
0.0
 40
1.0
 40
1.0
 10
13.77533931878937
 20
4.042581236833521
 30
0.0
 10
13.81073371171078
 20
3.987366922169501
 30
0.0
  0
SPLINE
  5
BB0
330
A8B
100
AcDbEntity
  8
FRONT
  6
CONTINUOUS
 62
     4
100
AcDbSpline
210
0.0
220
0.0
230
1.0
 70
    24
 71
     1
 72
     4
 73
     2
 74
     0
 42
0.0000000001
 43
0.0000000001
 40
0.0
 40
0.0
 40
1.0
 40
1.0
 10
15.24809154382499
 20
4.037543166926567
 30
0.0
 10
15.21878522660067
 20
3.982550183926618
 30
0.0
  0
SPLINE
  5
BB1
330
A8B
100
AcDbEntity
  8
FRONT
  6
CONTINUOUS
 62
     4
100
AcDbSpline
210
0.0
220
0.0
230
1.0
 70
     8
 71
     3
 72
    13
 73
     9
 74
     0
 42
0.0000000001
 43
0.0000000001
 40
0.0
 40
0.0
 40
0.0
 40
0.0
 40
0.2195179240467221
 40
0.3900257003637577
 40
0.5330606690638802
 40
0.6760211201067881
 40
0.8783846008238288
 40
1.0
 40
1.0
 40
1.0
 40
1.0
 10
13.99589107417438
 20
4.295192292184528
 30
0.0
 10
14.02503990650797
 20
4.289018514220859
 30
0.0
 10
14.07813545040565
 20
4.286623059621509
 30
0.0
 10
14.15671911404191
 20
4.301478243787753
 30
0.0
 10
14.22171844805865
 20
4.332770470360475
 30
0.0
 10
14.28033457719675
 20
4.380945161854135
 30
0.0
 10
14.3195727746653
 20
4.436285674998737
 30
0.0
 10
14.33825358880528
 20
4.475847256447877
 30
0.0
 10
14.3439322300138
 20
4.491126124902221
 30
0.0
  0
SPLINE
  5
BB2
330
A8B
100
AcDbEntity
  8
FRONT
  6
CONTINUOUS
 62
     4
100
AcDbSpline
210
0.0
220
0.0
230
1.0
 70
    24
 71
     1
 72
     4
 73
     2
 74
     0
 42
0.0000000001
 43
0.0000000001
 40
0.0
 40
0.0
 40
1.0
 40
1.0
 10
14.67478420277406
 20
4.548934236990556
 30
0.0
 10
14.70338694437526
 20
4.489896482910471
 30
0.0
  0
SPLINE
  5
BB3
330
A8B
100
AcDbEntity
  8
FRONT
  6
CONTINUOUS
 62
     4
100
AcDbSpline
210
0.0
220
0.0
230
1.0
 70
     8
 71
     3
 72
    11
 73
     7
 74
     0
 42
0.0000000001
 43
0.0000000001
 40
0.0
 40
0.0
 40
0.0
 40
0.0
 40
0.2500000000000269
 40
0.5000000000000613
 40
0.749999999999787
 40
1.0
 40
1.0
 40
1.0
 40
1.0
 10
13.32453443224983
 20
4.565040025424456
 30
0.0
 10
13.32359602231685
 20
4.565724324465811
 30
0.0
 10
13.3214696827018
 20
4.567186493161131
 30
0.0
 10
13.31741499243888
 20
4.569735924742813
 30
0.0
 10
13.31284498611547
 20
4.572415134760538
 30
0.0
 10
13.30974180656181
 20
4.574123313175141
 30
0.0
 10
13.30815217000305
 20
4.574971618696021
 30
0.0
  0
SPLINE
  5
BB4
330
A8B
100
AcDbEntity
  8
FRONT
  6
CONTINUOUS
 62
     4
100
AcDbSpline
210
0.0
220
0.0
230
1.0
 70
     8
 71
     2
 72
     6
 73
     3
 74
     0
 42
0.0000000001
 43
0.0000000001
 40
0.0
 40
0.0
 40
0.0
 40
1.0
 40
1.0
 40
1.0
 10
13.22638220773663
 20
4.401049253290271
 30
0.0
 10
13.2613789349715
 20
4.490908928155922
 30
0.0
 10
13.308152170003
 20
4.574971618696058
 30
0.0
  0
SPLINE
  5
BB5
330
A8B
100
AcDbEntity
  8
FRONT
  6
CONTINUOUS
 62
     4
100
AcDbSpline
210
0.0
220
0.0
230
1.0
 70
    24
 71
     1
 72
     4
 73
     2
 74
     0
 42
0.0000000001
 43
0.0000000001
 40
0.0
 40
0.0
 40
1.0
 40
1.0
 10
13.80267447603256
 20
3.591914630017021
 30
0.0
 10
13.80379348619884
 20
3.593141802474727
 30
0.0
  0
SPLINE
  5
BB6
330
A8B
100
AcDbEntity
  8
FRONT
  6
CONTINUOUS
 62
     4
100
AcDbSpline
210
0.0
220
0.0
230
1.0
 70
    24
 71
     1
 72
     4
 73
     2
 74
     0
 42
0.0000000001
 43
0.0000000001
 40
0.0
 40
0.0
 40
1.0
 40
1.0
 10
14.60909339101634
 20
5.711114124413048
 30
0.0
 10
14.6090865051094
 20
5.711625498686736
 30
0.0
  0
SPLINE
  5
BB7
330
A8B
100
AcDbEntity
  8
FRONT
  6
CONTINUOUS
 62
     4
100
AcDbSpline
210
0.0
220
0.0
230
1.0
 70
    24
 71
     1
 72
     4
 73
     2
 74
     0
 42
0.0000000001
 43
0.0000000001
 40
0.0
 40
0.0
 40
1.0
 40
1.0
 10
14.60713440708852
 20
5.335136932445034
 30
0.0
 10
14.69295620412083
 20
5.331857548057461
 30
0.0
  0
SPLINE
  5
BB8
330
A8B
100
AcDbEntity
  8
FRONT
  6
CONTINUOUS
 62
     4
100
AcDbSpline
210
0.0
220
0.0
230
1.0
 70
     8
 71
     3
 72
    13
 73
     9
 74
     0
 42
0.0000000001
 43
0.0000000001
 40
0.0
 40
0.0
 40
0.0
 40
0.0
 40
0.1870906036410149
 40
0.3646813612908705
 40
0.5136542261935185
 40
0.6625496942781221
 40
0.8732997954630318
 40
1.0
 40
1.0
 40
1.0
 40
1.0
 10
14.71097785761776
 20
4.474938976988299
 30
0.0
 10
14.72258946069355
 20
4.452117336803171
 30
0.0
 10
14.750239294947
 20
4.410179915390369
 30
0.0
 10
14.80309030761751
 20
4.354724829831821
 30
0.0
 10
14.86319833542792
 20
4.314941243102536
 30
0.0
 10
14.93091957239506
 20
4.289394301276414
 30
0.0
 10
14.99207346962869
 20
4.284228893684812
 30
0.0
 10
15.03052376342849
 20
4.28859592198095
 30
0.0
 10
15.04448787470278
 20
4.291605195933395
 30
0.0
  0
SPLINE
  5
BB9
330
A8B
100
AcDbEntity
  8
FRONT
  6
CONTINUOUS
 62
     4
100
AcDbSpline
210
0.0
220
0.0
230
1.0
 70
    24
 71
     1
 72
     4
 73
     2
 74
     0
 42
0.0000000001
 43
0.0000000001
 40
0.0
 40
0.0
 40
1.0
 40
1.0
 10
14.3665823270041
 20
4.549988550519461
 30
0.0
 10
14.3439322300138
 20
4.491126124902221
 30
0.0
  0
SPLINE
  5
BBA
330
A8B
100
AcDbEntity
  8
FRONT
  6
CONTINUOUS
 62
     4
100
AcDbSpline
210
0.0
220
0.0
230
1.0
 70
    24
 71
     1
 72
     4
 73
     2
 74
     0
 42
0.0000000001
 43
0.0000000001
 40
0.0
 40
0.0
 40
1.0
 40
1.0
 10
12.81667247474081
 20
5.142126865126981
 30
0.0
 10
13.28408820193523
 20
4.587414672117768
 30
0.0
  0
SPLINE
  5
BBB
330
A8B
100
AcDbEntity
  8
FRONT
  6
CONTINUOUS
 62
     4
100
AcDbSpline
210
0.0
220
0.0
230
1.0
 70
    24
 71
     1
 72
     4
 73
     2
 74
     0
 42
0.0000000001
 43
0.0000000001
 40
0.0
 40
0.0
 40
1.0
 40
1.0
 10
14.68992440208029
 20
5.336837850675596
 30
0.0
 10
14.60723379104648
 20
5.339726363791863
 30
0.0
  0
SPLINE
  5
BBC
330
A8B
100
AcDbEntity
  8
FRONT
  6
CONTINUOUS
 62
     4
100
AcDbSpline
210
0.0
220
0.0
230
1.0
 70
    24
 71
     1
 72
     4
 73
     2
 74
     0
 42
0.0000000001
 43
0.0000000001
 40
0.0
 40
0.0
 40
1.0
 40
1.0
 10
13.934096024833
 20
4.306515336617805
 30
0.0
 10
13.99589107417434
 20
4.295192292184527
 30
0.0
  0
SPLINE
  5
BBD
330
A8B
100
AcDbEntity
  8
FRONT
  6
CONTINUOUS
 62
     4
100
AcDbSpline
210
0.0
220
0.0
230
1.0
 70
    24
 71
     1
 72
     4
 73
     2
 74
     0
 42
0.0000000001
 43
0.0000000001
 40
0.0
 40
0.0
 40
1.0
 40
1.0
 10
13.82870159920979
 20
3.956766489145926
 30
0.0
 10
13.81073371171078
 20
3.987366922169501
 30
0.0
  0
SPLINE
  5
BBE
330
A8B
100
AcDbEntity
  8
FRONT
  6
CONTINUOUS
 62
     4
100
AcDbSpline
210
0.0
220
0.0
230
1.0
 70
    24
 71
     1
 72
     4
 73
     2
 74
     0
 42
0.0000000001
 43
0.0000000001
 40
0.0
 40
0.0
 40
1.0
 40
1.0
 10
15.12498870412168
 20
5.250072189631183
 30
0.0
 10
14.83756674726532
 20
5.331362856545028
 30
0.0
  0
SPLINE
  5
BBF
330
A8B
100
AcDbEntity
  8
FRONT
  6
CONTINUOUS
 62
     4
100
AcDbSpline
210
0.0
220
0.0
230
1.0
 70
    24
 71
     1
 72
     4
 73
     2
 74
     0
 42
0.0000000001
 43
0.0000000001
 40
0.0
 40
0.0
 40
1.0
 40
1.0
 10
14.60613712230153
 20
5.930601946215412
 30
0.0
 10
13.9484959168259
 20
5.910374237639897
 30
0.0
  0
SPLINE
  5
BC0
330
A8B
100
AcDbEntity
  8
FRONT
  6
CONTINUOUS
 62
     4
100
AcDbSpline
210
0.0
220
0.0
230
1.0
 70
     8
 71
     3
 72
    13
 73
     9
 74
     0
 42
0.0000000001
 43
0.0000000001
 40
0.0
 40
0.0
 40
0.0
 40
0.0
 40
0.2347537562056165
 40
0.4839866866904262
 40
0.5952214255276555
 40
0.7119727950652918
 40
0.96740910102467
 40
1.0
 40
1.0
 40
1.0
 40
1.0
 10
13.28408820191653
 20
4.587414672136794
 30
0.0
 10
13.25012566103997
 20
4.527227778404608
 30
0.0
 10
13.16675985793541
 20
4.419327616560915
 30
0.0
 10
13.02099432060977
 20
4.324734681857226
 30
0.0
 10
12.89482138585317
 20
4.276802417204223
 30
0.0
 10
12.76176035094723
 20
4.247019780138493
 30
0.0
 10
12.64742901726418
 20
4.245333565339181
 30
0.0
 10
12.56818868716331
 20
4.25379454225212
 30
0.0
 10
12.55922715270803
 20
4.25489452478367
 30
0.0
  0
SPLINE
  5
BC1
330
A8B
100
AcDbEntity
  8
FRONT
  6
CONTINUOUS
 62
     4
100
AcDbSpline
210
0.0
220
0.0
230
1.0
 70
    24
 71
     1
 72
     4
 73
     2
 74
     0
 42
0.0000000001
 43
0.0000000001
 40
0.0
 40
0.0
 40
1.0
 40
1.0
 10
15.19781587154303
 20
3.611548393029448
 30
0.0
 10
15.21184500108873
 20
3.588325064231846
 30
0.0
  0
SPLINE
  5
BC2
330
A8B
100
AcDbEntity
  8
FRONT
  6
CONTINUOUS
 62
     4
100
AcDbSpline
210
0.0
220
0.0
230
1.0
 70
     8
 71
     3
 72
    13
 73
     9
 74
     0
 42
0.0000000001
 43
0.0000000001
 40
0.0
 40
0.0
 40
0.0
 40
0.0
 40
0.2396506614303369
 40
0.4258576417570409
 40
0.5820550163389703
 40
0.7381714217428096
 40
0.9591299429654435
 40
1.0
 40
1.0
 40
1.0
 40
1.0
 10
13.80379348619884
 20
3.593141802474731
 30
0.0
 10
13.82192418679251
 20
3.611675128293107
 30
0.0
 10
13.84805114611859
 20
3.651068053755462
 30
0.0
 10
13.87223513902732
 20
3.72087154530691
 30
0.0
 10
13.87761343104861
 20
3.791029577212136
 30
0.0
 10
13.86710343122898
 20
3.867335533638517
 30
0.0
 10
13.84678182979217
 20
3.921569727755633
 30
0.0
 10
13.83122577128982
 20
3.952077271441022
 30
0.0
 10
13.82870159920979
 20
3.956766489145926
 30
0.0
  0
SPLINE
  5
BC3
330
A8B
100
AcDbEntity
  8
FRONT
  6
CONTINUOUS
 62
     4
100
AcDbSpline
210
0.0
220
0.0
230
1.0
 70
    24
 71
     1
 72
     4
 73
     2
 74
     0
 42
0.0000000001
 43
0.0000000001
 40
0.0
 40
0.0
 40
1.0
 40
1.0
 10
13.32453443224983
 20
4.565040025424456
 30
0.0
 10
13.24329890969339
 20
4.393410854946447
 30
0.0
  0
SPLINE
  5
BC4
330
A8B
100
AcDbEntity
  8
FRONT
  6
CONTINUOUS
 62
     4
100
AcDbSpline
210
0.0
220
0.0
230
1.0
 70
    24
 71
     1
 72
     4
 73
     2
 74
     0
 42
0.0000000001
 43
0.0000000001
 40
0.0
 40
0.0
 40
1.0
 40
1.0
 10
14.11043689694178
 20
5.279305060039821
 30
0.0
 10
13.94329233739435
 20
5.287986047480941
 30
0.0
  0
SPLINE
  5
BC5
330
A8B
100
AcDbEntity
  8
FRONT
  6
CONTINUOUS
 62
     4
100
AcDbSpline
210
0.0
220
0.0
230
1.0
 70
     8
 71
     3
 72
    11
 73
     7
 74
     0
 42
0.0000000001
 43
0.0000000001
 40
0.0
 40
0.0
 40
0.0
 40
0.0
 40
0.1281905622924043
 40
0.421624799894869
 40
0.7263899413642454
 40
1.0
 40
1.0
 40
1.0
 40
1.0
 10
12.73853609935463
 20
3.667760942170496
 30
0.0
 10
12.76672223532988
 20
3.693449167011665
 30
0.0
 10
12.85617813617569
 20
3.780688567568847
 30
0.0
 10
12.99312764578302
 20
3.948243292988441
 30
0.0
 10
13.12308988273993
 20
4.171774666937092
 30
0.0
 10
13.19571953861603
 20
4.326067837016096
 30
0.0
 10
13.2263821747769
 20
4.401049180529136
 30
0.0
  0
SPLINE
  5
BC6
330
A8B
100
AcDbEntity
  8
FRONT
  6
CONTINUOUS
 62
     4
100
AcDbSpline
210
0.0
220
0.0
230
1.0
 70
    24
 71
     1
 72
     4
 73
     2
 74
     0
 42
0.0000000001
 43
0.0000000001
 40
0.0
 40
0.0
 40
1.0
 40
1.0
 10
15.23230844269541
 20
3.558198880030201
 30
0.0
 10
15.21184500108873
 20
3.588325064231844
 30
0.0
  0
SPLINE
  5
BC7
330
A8B
100
AcDbEntity
  8
FRONT
  6
CONTINUOUS
 62
     4
100
AcDbSpline
210
0.0
220
0.0
230
1.0
 70
     8
 71
     2
 72
     6
 73
     3
 74
     0
 42
0.0000000001
 43
0.0000000001
 40
0.0
 40
0.0
 40
0.0
 40
1.0
 40
1.0
 40
1.0
 10
14.60723379104669
 20
5.339726363785726
 30
0.0
 10
14.35457942540308
 20
5.348825046804551
 30
0.0
 10
14.11043689694178
 20
5.279305060039821
 30
0.0
  0
SPLINE
  5
BC8
330
A8B
100
AcDbEntity
  8
FRONT
  6
CONTINUOUS
 62
     4
100
AcDbSpline
210
0.0
220
0.0
230
1.0
 70
    24
 71
     1
 72
     4
 73
     2
 74
     0
 42
0.0000000001
 43
0.0000000001
 40
0.0
 40
0.0
 40
1.0
 40
1.0
 10
13.94524848483674
 20
5.758663915957267
 30
0.0
 10
14.13280283862451
 20
5.763209387832385
 30
0.0
  0
SPLINE
  5
BC9
330
A8B
100
AcDbEntity
  8
FRONT
  6
CONTINUOUS
 62
     4
100
AcDbSpline
210
0.0
220
0.0
230
1.0
 70
    24
 71
     1
 72
     4
 73
     2
 74
     0
 42
0.0000000001
 43
0.0000000001
 40
0.0
 40
0.0
 40
1.0
 40
1.0
 10
13.31078889119694
 20
4.573561762749701
 30
0.0
 10
13.28408820191651
 20
4.587414672136792
 30
0.0
  0
SPLINE
  5
BCA
330
A8B
100
AcDbEntity
  8
FRONT
  6
CONTINUOUS
 62
     4
100
AcDbSpline
210
0.0
220
0.0
230
1.0
 70
     8
 71
     3
 72
    10
 73
     6
 74
     0
 42
0.0000000001
 43
0.0000000001
 40
0.0
 40
0.0
 40
0.0
 40
0.0
 40
0.4926947242044152
 40
0.9999538112423723
 40
1.0
 40
1.0
 40
1.0
 40
1.0
 10
12.71058671127498
 20
5.473403005394001
 30
0.0
 10
12.90547943076539
 20
5.555788825541005
 30
0.0
 10
13.30796995905596
 20
5.686507873440067
 30
0.0
 10
13.73025717117942
 20
5.748973858563186
 30
0.0
 10
13.94514876776342
 20
5.758657162767132
 30
0.0
 10
13.94524866639152
 20
5.758661664333676
 30
0.0
  0
SPLINE
  5
BCB
330
A8B
100
AcDbEntity
  8
FRONT
  6
CONTINUOUS
 62
     4
100
AcDbSpline
210
0.0
220
0.0
230
1.0
 70
     8
 71
     2
 72
     6
 73
     3
 74
     0
 42
0.0000000001
 43
0.0000000001
 40
0.0
 40
0.0
 40
0.0
 40
1.0
 40
1.0
 40
1.0
 10
12.55931172980702
 20
4.254879951245562
 30
0.0
 10
12.58336828364422
 20
4.198188936261384
 30
0.0
 10
12.61302558883277
 20
4.142652858215962
 30
0.0
  0
SPLINE
  5
BCC
330
A8B
100
AcDbEntity
  8
FRONT
  6
CONTINUOUS
 62
     4
100
AcDbSpline
210
0.0
220
0.0
230
1.0
 70
     8
 71
     3
 72
    11
 73
     7
 74
     0
 42
0.0000000001
 43
0.0000000001
 40
0.0
 40
0.0
 40
0.0
 40
0.0
 40
0.3213498426608201
 40
0.6577811939102644
 40
0.9998827329771151
 40
1.0
 40
1.0
 40
1.0
 40
1.0
 10
12.61302558883341
 20
4.142652858218689
 30
0.0
 10
12.63661235923142
 20
4.096595077435821
 30
0.0
 10
12.67812392222471
 20
3.999067509734118
 30
0.0
 10
12.71731265817428
 20
3.837886834830852
 30
0.0
 10
12.73306739599114
 20
3.725263586159053
 30
0.0
 10
12.7384250930861
 20
3.668060358493228
 30
0.0
 10
12.73843441834863
 20
3.667960794245231
 30
0.0
  0
SPLINE
  5
BCD
330
A8B
100
AcDbEntity
  8
FRONT
  6
CONTINUOUS
 62
     4
100
AcDbSpline
210
0.0
220
0.0
230
1.0
 70
    24
 71
     1
 72
     4
 73
     2
 74
     0
 42
0.0000000001
 43
0.0000000001
 40
0.0
 40
0.0
 40
1.0
 40
1.0
 10
15.09864637409872
 20
4.302531580239758
 30
0.0
 10
15.04448787470278
 20
4.291605195933395
 30
0.0
  0
SPLINE
  5
BCE
330
A8B
100
AcDbEntity
  8
FRONT
  6
CONTINUOUS
 62
     4
100
AcDbSpline
210
0.0
220
0.0
230
1.0
 70
     8
 71
     3
 72
    13
 73
     9
 74
     0
 42
0.0000000001
 43
0.0000000001
 40
0.0
 40
0.0
 40
0.0
 40
0.0
 40
0.2396506614303343
 40
0.4258576417570496
 40
0.5820550163389778
 40
0.7381714217428188
 40
0.9591299429654512
 40
1.0
 40
1.0
 40
1.0
 40
1.0
 10
15.21878522660069
 20
3.982550183926613
 30
0.0
 10
15.20446185940899
 20
3.956885905746576
 30
0.0
 10
15.18382701449337
 20
3.907206514117078
 30
0.0
 10
15.16499089997498
 20
3.827386703527638
 30
0.0
 10
15.16059144136004
 20
3.755395363725888
 30
0.0
 10
15.16830971452799
 20
3.684318177059933
 30
0.0
 10
15.18379083088686
 20
3.63914997870789
 30
0.0
 10
15.19585560171567
 20
3.615181448933922
 30
0.0
 10
15.19781587154303
 20
3.611548393029448
 30
0.0
  0
LINE
  5
BCF
330
A8B
100
AcDbEntity
  8
FRONT
  6
CONTINUOUS
 62
     4
100
AcDbLine
 10
17.89827503693186
 20
4.305849194799654
 30
0.0
 11
16.84081100360065
 21
3.750289208641194
 31
0.0
  0
LINE
  5
BD0
330
A8B
100
AcDbEntity
  8
FRONT
  6
CONTINUOUS
 62
     4
100
AcDbLine
 10
17.99553525741189
 20
4.703931962073951
 30
0.0
 11
17.9986026430253
 21
5.577410944240638
 31
0.0
  0
LINE
  5
BD1
330
A8B
100
AcDbEntity
  8
FRONT
  6
CONTINUOUS
 62
     4
100
AcDbLine
 10
16.71085065679102
 20
4.613894536173183
 30
0.0
 11
16.71002253368082
 21
4.378075430726664
 31
0.0
  0
LINE
  5
BD2
330
A8B
100
AcDbEntity
  8
FRONT
  6
CONTINUOUS
 62
     4
100
AcDbLine
 10
16.39808469837355
 20
4.364837484698021
 30
0.0
 11
16.39891265055782
 21
4.600607916707208
 31
0.0
  0
LINE
  5
BD3
330
A8B
100
AcDbEntity
  8
FRONT
  6
CONTINUOUS
 62
     4
100
AcDbLine
 10
17.66367077329101
 20
4.879093702836494
 30
0.0
 11
17.66526427735394
 21
5.332865247206257
 31
0.0
  0
LINE
  5
BD4
330
A8B
100
AcDbEntity
  8
FRONT
  6
CONTINUOUS
 62
     4
100
AcDbLine
 10
15.64053491978258
 20
4.293450173624481
 30
0.0
 11
15.60441972687181
 21
4.361092193114611
 31
0.0
  0
LINE
  5
BD5
330
A8B
100
AcDbEntity
  8
FRONT
  6
CONTINUOUS
 62
     4
100
AcDbLine
 10
16.71002253368082
 20
4.378075430726664
 30
0.0
 11
17.66367077329101
 21
4.879093702836494
 31
0.0
  0
LINE
  5
BD6
330
A8B
100
AcDbEntity
  8
FRONT
  6
CONTINUOUS
 62
     4
100
AcDbLine
 10
17.82736069662903
 20
5.451970850041035
 30
0.0
 11
17.82538373039162
 21
4.889003337034266
 31
0.0
  0
ELLIPSE
  5
BD7
330
A8B
100
AcDbEntity
  8
FRONT
  6
CONTINUOUS
 62
     4
100
AcDbEllipse
 10
14.59586354314858
 20
3.865394052025882
 30
0.0
 11
-1.151135430529534
 21
-0.6146102435097502
 31
0.0
210
0.0
220
0.0
230
1.0
 40
0.9833059182658811
 41
2.387532948130643
 42
2.854453357321848
  0
ELLIPSE
  5
BD8
330
A8B
100
AcDbEntity
  8
FRONT
  6
CONTINUOUS
 62
     4
100
AcDbEllipse
 10
23.34289700321895
 20
7.404971643362473
 30
0.0
 11
-5.502211667105154
 21
-2.588827676295629
 31
0.0
210
0.0
220
0.0
230
1.0
 40
0.1586239430231971
 41
6.208012116159168
 42
6.457681703334741
  0
ELLIPSE
  5
BD9
330
A8B
100
AcDbEntity
  8
FRONT
  6
CONTINUOUS
 62
     4
100
AcDbEllipse
 10
23.98792439919572
 20
7.261422965178862
 30
0.0
 11
-7.504621521697405
 21
-3.321134711197778
 31
0.0
210
0.0
220
0.0
230
1.0
 40
0.3415132911448714
 41
6.131781412421299
 42
6.217369236841816
  0
ELLIPSE
  5
BDA
330
A8B
100
AcDbEntity
  8
FRONT
  6
CONTINUOUS
 62
     4
100
AcDbEllipse
 10
16.32523872390661
 20
4.501274491612504
 30
0.0
 11
-0.8499947589592117
 21
0.0029849163490714
 31
0.0
210
0.0
220
0.0
230
1.0
 40
0.1608116416914428
 41
1.657167966400878
 42
2.041140401843712
  0
ELLIPSE
  5
BDB
330
A8B
100
AcDbEntity
  8
FRONT
  6
CONTINUOUS
 62
     4
100
AcDbEllipse
 10
23.91507831970675
 20
7.397859926833847
 30
0.0
 11
-7.163008401427503
 21
-3.337131822624029
 31
0.0
210
0.0
220
0.0
230
1.0
 40
0.2488347320293084
 41
6.1272315578895
 42
6.212819382930589
  0
ELLIPSE
  5
BDC
330
A8B
100
AcDbEntity
  8
FRONT
  6
CONTINUOUS
 62
     4
100
AcDbEllipse
 10
18.11635760682543
 20
4.734153631805039
 30
0.0
 11
-0.9999938318006432
 21
0.0035116660557411
 31
0.0
210
0.0
220
0.0
230
1.0
 40
0.1608116414610818
 41
5.008200129322958
 42
5.18273305487219
  0
ELLIPSE
  5
BDD
330
A8B
100
AcDbEntity
  8
FRONT
  6
CONTINUOUS
 62
     4
100
AcDbEllipse
 10
16.56225603727189
 20
3.633285833833903
 30
0.0
 11
-0.7801070765252688
 21
-0.3375395473105581
 31
0.0
210
0.0
220
0.0
230
1.0
 40
0.0040693916708658
 41
1.563153189442481
 42
1.934167124601573
  0
ELLIPSE
  5
BDE
330
A8B
100
AcDbEntity
  8
FRONT
  6
CONTINUOUS
 62
     4
100
AcDbEllipse
 10
14.51560790726658
 20
3.779757555178877
 30
0.0
 11
-1.088811819437994
 21
-0.5813346382489481
 31
0.0
210
0.0
220
0.0
230
1.0
 40
0.9833059182890519
 41
2.448217296598584
 42
3.141592653297247
  0
ELLIPSE
  5
BDF
330
A8B
100
AcDbEntity
  8
FRONT
  6
CONTINUOUS
 62
     4
100
AcDbEllipse
 10
23.63387088225076
 20
7.250121938023302
 30
0.0
 11
-5.931785057190547
 21
-2.503957966687563
 31
0.0
210
0.0
220
0.0
230
1.0
 40
0.3000603614080196
 41
6.212003631040982
 42
6.468355228140293
  0
ELLIPSE
  5
BE0
330
A8B
100
AcDbEntity
  8
FRONT
  6
CONTINUOUS
 62
     4
100
AcDbEllipse
 10
14.55172310019603
 20
3.712115535694636
 30
0.0
 11
-1.088811819366767
 21
-0.5813346383414362
 31
0.0
210
0.0
220
0.0
230
1.0
 40
0.9833059182967726
 41
2.505541426623854
 42
3.141592653205357
  0
ELLIPSE
  5
BE1
330
A8B
100
AcDbEntity
  8
FRONT
  6
CONTINUOUS
 62
     4
100
AcDbEllipse
 10
17.43753142984373
 20
3.994737951825666
 30
0.0
 11
-0.6378475908704978
 21
-2.576716806991784
 31
0.0
210
0.0
220
0.0
230
1.0
 40
0.1420508862706076
 41
1.726905085211521
 42
1.739170856938257
  0
SPLINE
  5
BE2
330
A8B
100
AcDbEntity
  8
FRONT
  6
CONTINUOUS
 62
     4
100
AcDbSpline
210
0.0
220
0.0
230
1.0
 70
    24
 71
     1
 72
     4
 73
     2
 74
     0
 42
0.0000000001
 43
0.0000000001
 40
0.0
 40
0.0
 40
1.0
 40
1.0
 10
16.49595502931909
 20
5.475699839190808
 30
0.0
 10
17.5948987190443
 20
5.975264142050702
 30
0.0
  0
SPLINE
  5
BE3
330
A8B
100
AcDbEntity
  8
FRONT
  6
CONTINUOUS
 62
     4
100
AcDbSpline
210
0.0
220
0.0
230
1.0
 70
    24
 71
     1
 72
     4
 73
     2
 74
     0
 42
0.0000000001
 43
0.0000000001
 40
0.0
 40
0.0
 40
1.0
 40
1.0
 10
17.67701948821644
 20
5.341527188321591
 30
0.0
 10
17.77311705953044
 20
5.412174745271188
 30
0.0
  0
SPLINE
  5
BE4
330
A8B
100
AcDbEntity
  8
FRONT
  6
CONTINUOUS
 62
     4
100
AcDbSpline
210
0.0
220
0.0
230
1.0
 70
    24
 71
     1
 72
     4
 73
     2
 74
     0
 42
0.0000000001
 43
0.0000000001
 40
0.0
 40
0.0
 40
1.0
 40
1.0
 10
16.90020018818717
 20
3.583522341359216
 30
0.0
 10
16.91843118442867
 20
3.518558886112968
 30
0.0
  0
SPLINE
  5
BE5
330
A8B
100
AcDbEntity
  8
FRONT
  6
CONTINUOUS
 62
     4
100
AcDbSpline
210
0.0
220
0.0
230
1.0
 70
    24
 71
     1
 72
     4
 73
     2
 74
     0
 42
0.0000000001
 43
0.0000000001
 40
0.0
 40
0.0
 40
1.0
 40
1.0
 10
16.60738235910093
 20
3.52622347312716
 30
0.0
 10
16.55766717029034
 20
3.62753152931504
 30
0.0
  0
SPLINE
  5
BE6
330
A8B
100
AcDbEntity
  8
FRONT
  6
CONTINUOUS
 62
     4
100
AcDbSpline
210
0.0
220
0.0
230
1.0
 70
     8
 71
     2
 72
     6
 73
     3
 74
     0
 42
0.0000000001
 43
0.0000000001
 40
0.0
 40
0.0
 40
0.0
 40
1.0
 40
1.0
 40
1.0
 10
17.96624821359698
 20
4.521740220909058
 30
0.0
 10
17.99450568315117
 20
4.587389658473391
 30
0.0
 10
17.99520039268492
 20
4.657821589442201
 30
0.0
  0
SPLINE
  5
BE7
330
A8B
100
AcDbEntity
  8
FRONT
  6
CONTINUOUS
 62
     4
100
AcDbSpline
210
0.0
220
0.0
230
1.0
 70
    24
 71
     1
 72
     4
 73
     2
 74
     0
 42
0.0000000001
 43
0.0000000001
 40
0.0
 40
0.0
 40
1.0
 40
1.0
 10
16.71141267560334
 20
4.194303491672546
 30
0.0
 10
16.84081100360065
 20
3.750289208641194
 30
0.0
  0
SPLINE
  5
BE8
330
A8B
100
AcDbEntity
  8
FRONT
  6
CONTINUOUS
 62
     4
100
AcDbSpline
210
0.0
220
0.0
230
1.0
 70
    24
 71
     1
 72
     4
 73
     2
 74
     0
 42
0.0000000001
 43
0.0000000001
 40
0.0
 40
0.0
 40
1.0
 40
1.0
 10
16.42495563095342
 20
4.116038923035028
 30
0.0
 10
16.71141267560334
 20
4.194303491672547
 30
0.0
  0
SPLINE
  5
BE9
330
A8B
100
AcDbEntity
  8
FRONT
  6
CONTINUOUS
 62
     4
100
AcDbSpline
210
0.0
220
0.0
230
1.0
 70
    24
 71
     1
 72
     4
 73
     2
 74
     0
 42
0.0000000001
 43
0.0000000001
 40
0.0
 40
0.0
 40
1.0
 40
1.0
 10
16.49314501744483
 20
5.474374826890542
 30
0.0
 10
16.49474485326082
 20
5.475120305234273
 30
0.0
  0
SPLINE
  5
BEA
330
A8B
100
AcDbEntity
  8
FRONT
  6
CONTINUOUS
 62
     4
100
AcDbSpline
210
0.0
220
0.0
230
1.0
 70
    24
 71
     1
 72
     4
 73
     2
 74
     0
 42
0.0000000001
 43
0.0000000001
 40
0.0
 40
0.0
 40
1.0
 40
1.0
 10
16.84081100360065
 20
3.750289208641194
 30
0.0
 10
16.90019487381277
 20
3.583520954077106
 30
0.0
  0
SPLINE
  5
BEB
330
A8B
100
AcDbEntity
  8
FRONT
  6
CONTINUOUS
 62
     4
100
AcDbSpline
210
0.0
220
0.0
230
1.0
 70
     8
 71
     3
 72
    12
 73
     8
 74
     0
 42
0.0000000001
 43
0.0000000001
 40
0.0
 40
0.0
 40
0.0
 40
0.0
 40
0.1495624586559048
 40
0.3981305669337531
 40
0.6362518309539893
 40
0.8431419366934655
 40
1.0
 40
1.0
 40
1.0
 40
1.0
 10
17.48589383548178
 20
3.463369935461981
 30
0.0
 10
17.4886026749378
 20
3.466280125578256
 30
0.0
 10
17.49078367105906
 20
3.47398973939262
 30
0.0
 10
17.47309542125874
 20
3.486777129879093
 30
0.0
 10
17.42482211552024
 20
3.49917167572542
 30
0.0
 10
17.36085181227452
 20
3.507004690170802
 30
0.0
 10
17.31746007618845
 20
3.509155435452544
 30
0.0
 10
17.29745226804206
 20
3.509679345658438
 30
0.0
  0
SPLINE
  5
BEC
330
A8B
100
AcDbEntity
  8
FRONT
  6
CONTINUOUS
 62
     4
100
AcDbSpline
210
0.0
220
0.0
230
1.0
 70
    24
 71
     1
 72
     4
 73
     2
 74
     0
 42
0.0000000001
 43
0.0000000001
 40
0.0
 40
0.0
 40
1.0
 40
1.0
 10
16.39885559051127
 20
4.600607322908822
 30
0.0
 10
16.71077838865055
 20
4.613840528244288
 30
0.0
  0
SPLINE
  5
BED
330
A8B
100
AcDbEntity
  8
FRONT
  6
CONTINUOUS
 62
     4
100
AcDbSpline
210
0.0
220
0.0
230
1.0
 70
     8
 71
     3
 72
    11
 73
     7
 74
     0
 42
0.0000000001
 43
0.0000000001
 40
0.0
 40
0.0
 40
0.0
 40
0.0
 40
0.0001349180935091
 40
0.1930788600656165
 40
0.9998650818819635
 40
1.0
 40
1.0
 40
1.0
 40
1.0
 10
16.19667844852219
 20
5.335343228005076
 30
0.0
 10
16.19672500268154
 20
5.335254725404841
 30
0.0
 10
16.20989169584735
 20
5.310223947250959
 30
0.0
 10
16.32367950371092
 20
5.208467742036122
 30
0.0
 10
16.43522792301602
 20
5.114125861270784
 30
0.0
 10
16.50623019806864
 20
5.020733760974486
 30
0.0
 10
16.50629071951281
 20
5.020654154726011
 30
0.0
  0
SPLINE
  5
BEE
330
A8B
100
AcDbEntity
  8
FRONT
  6
CONTINUOUS
 62
     4
100
AcDbSpline
210
0.0
220
0.0
230
1.0
 70
    24
 71
     1
 72
     4
 73
     2
 74
     0
 42
0.0000000001
 43
0.0000000001
 40
0.0
 40
0.0
 40
1.0
 40
1.0
 10
17.45883754226276
 20
5.180035611251119
 30
0.0
 10
17.66526427735394
 20
5.332865247206231
 30
0.0
  0
SPLINE
  5
BEF
330
A8B
100
AcDbEntity
  8
FRONT
  6
CONTINUOUS
 62
     4
100
AcDbSpline
210
0.0
220
0.0
230
1.0
 70
     8
 71
     3
 72
    11
 73
     7
 74
     0
 42
0.0000000001
 43
0.0000000001
 40
0.0
 40
0.0
 40
0.0
 40
0.0
 40
0.0001278625790222
 40
0.8000466519499596
 40
0.9998721041576972
 40
1.0
 40
1.0
 40
1.0
 40
1.0
 10
16.50629071951281
 20
5.020654154726011
 30
0.0
 10
16.50635300832185
 20
5.020575923630723
 30
0.0
 10
16.58269256964586
 20
4.924697907350288
 30
0.0
 10
16.65651612623752
 20
4.786080692263082
 30
0.0
 10
16.70188763166069
 20
4.642377138962474
 30
0.0
 10
16.71073896129634
 20
4.613939119367898
 30
0.0
 10
16.71076868003114
 20
4.613843637449183
 30
0.0
  0
SPLINE
  5
BF0
330
A8B
100
AcDbEntity
  8
FRONT
  6
CONTINUOUS
 62
     4
100
AcDbSpline
210
0.0
220
0.0
230
1.0
 70
    24
 71
     1
 72
     4
 73
     2
 74
     0
 42
0.0000000001
 43
0.0000000001
 40
0.0
 40
0.0
 40
1.0
 40
1.0
 10
16.94611636433101
 20
4.794203885304683
 30
0.0
 10
17.45883754226276
 20
5.180035611251119
 30
0.0
  0
SPLINE
  5
BF1
330
A8B
100
AcDbEntity
  8
FRONT
  6
CONTINUOUS
 62
     4
100
AcDbSpline
210
0.0
220
0.0
230
1.0
 70
    24
 71
     1
 72
     4
 73
     2
 74
     0
 42
0.0000000001
 43
0.0000000001
 40
0.0
 40
0.0
 40
1.0
 40
1.0
 10
17.99553525741189
 20
4.70393196207395
 30
0.0
 10
17.99520039268492
 20
4.657821589441173
 30
0.0
  0
SPLINE
  5
BF2
330
A8B
100
AcDbEntity
  8
FRONT
  6
CONTINUOUS
 62
     4
100
AcDbSpline
210
0.0
220
0.0
230
1.0
 70
    24
 71
     1
 72
     4
 73
     2
 74
     0
 42
0.0000000001
 43
0.0000000001
 40
0.0
 40
0.0
 40
1.0
 40
1.0
 10
17.66526427735397
 20
5.332865247206212
 30
0.0
 10
17.67698916139616
 20
5.341504848748127
 30
0.0
  0
SPLINE
  5
BF3
330
A8B
100
AcDbEntity
  8
FRONT
  6
CONTINUOUS
 62
     4
100
AcDbSpline
210
0.0
220
0.0
230
1.0
 70
     8
 71
     2
 72
     6
 73
     3
 74
     0
 42
0.0000000001
 43
0.0000000001
 40
0.0
 40
0.0
 40
0.0
 40
1.0
 40
1.0
 40
1.0
 10
17.45883752894693
 20
5.180035602533471
 30
0.0
 10
17.56761241759019
 20
5.260934079266407
 30
0.0
 10
17.67698907835551
 20
5.341504790199523
 30
0.0
  0
SPLINE
  5
BF4
330
A8B
100
AcDbEntity
  8
FRONT
  6
CONTINUOUS
 62
     4
100
AcDbSpline
210
0.0
220
0.0
230
1.0
 70
    24
 71
     1
 72
     4
 73
     2
 74
     0
 42
0.0000000001
 43
0.0000000001
 40
0.0
 40
0.0
 40
1.0
 40
1.0
 10
16.19667844839965
 20
5.335343227947221
 30
0.0
 10
16.49314024556977
 20
5.474388270071903
 30
0.0
  0
SPLINE
  5
BF5
330
A8B
100
AcDbEntity
  8
FRONT
  6
CONTINUOUS
 62
     4
100
AcDbSpline
210
0.0
220
0.0
230
1.0
 70
     8
 71
     3
 72
    11
 73
     7
 74
     0
 42
0.0000000001
 43
0.0000000001
 40
0.0
 40
0.0
 40
0.0
 40
0.0
 40
0.1632580369825384
 40
0.5369633765782556
 40
0.9250992724447831
 40
1.0
 40
1.0
 40
1.0
 40
1.0
 10
16.42490960875768
 20
4.115996823386628
 30
0.0
 10
16.39672347278242
 20
4.090308598545457
 30
0.0
 10
16.30722024578586
 20
4.003092807454835
 30
0.0
 10
16.17072554691022
 20
3.835311191857299
 30
0.0
 10
16.07136739334606
 20
3.667560355337826
 30
0.0
 10
16.0239448572469
 20
3.571267493264961
 30
0.0
 10
16.01647812761165
 20
3.555577697676341
 30
0.0
  0
SPLINE
  5
BF6
330
A8B
100
AcDbEntity
  8
FRONT
  6
CONTINUOUS
 62
     4
100
AcDbSpline
210
0.0
220
0.0
230
1.0
 70
    24
 71
     1
 72
     4
 73
     2
 74
     0
 42
0.0000000001
 43
0.0000000001
 40
0.0
 40
0.0
 40
1.0
 40
1.0
 10
17.96624821359698
 20
4.521740220909058
 30
0.0
 10
17.94182141506172
 20
4.461266655075603
 30
0.0
  0
SPLINE
  5
BF7
330
A8B
100
AcDbEntity
  8
FRONT
  6
CONTINUOUS
 62
     4
100
AcDbSpline
210
0.0
220
0.0
230
1.0
 70
    24
 71
     1
 72
     4
 73
     2
 74
     0
 42
0.0000000001
 43
0.0000000001
 40
0.0
 40
0.0
 40
1.0
 40
1.0
 10
16.68230017246027
 20
3.52498673459668
 30
0.0
 10
16.90020018819045
 20
3.583522341348273
 30
0.0
  0
SPLINE
  5
BF8
330
A8B
100
AcDbEntity
  8
FRONT
  6
CONTINUOUS
 62
     4
100
AcDbSpline
210
0.0
220
0.0
230
1.0
 70
    24
 71
     1
 72
     4
 73
     2
 74
     0
 42
0.0000000001
 43
0.0000000001
 40
0.0
 40
0.0
 40
1.0
 40
1.0
 10
17.94182141506172
 20
4.461266655075603
 30
0.0
 10
17.90527073750188
 20
4.337218884751766
 30
0.0
  0
SPLINE
  5
BF9
330
A8B
100
AcDbEntity
  8
FRONT
  6
CONTINUOUS
 62
     4
100
AcDbSpline
210
0.0
220
0.0
230
1.0
 70
     8
 71
     3
 72
    11
 73
     7
 74
     0
 42
0.0000000001
 43
0.0000000001
 40
0.0
 40
0.0
 40
0.0
 40
0.0
 40
0.3061272518132776
 40
0.6075448394179293
 40
0.8160124276962045
 40
1.0
 40
1.0
 40
1.0
 40
1.0
 10
16.39885559067653
 20
4.600607322599127
 30
0.0
 10
16.39520629565713
 20
4.65475168102716
 30
0.0
 10
16.37252336682536
 20
4.755034069650047
 30
0.0
 10
16.30304229067195
 20
4.879805706769668
 30
0.0
 10
16.21150627020276
 20
4.959021904353886
 30
0.0
 10
16.15015294733186
 20
4.986161952864643
 30
0.0
 10
16.11893736108915
 20
4.995457742129388
 30
0.0
  0
SPLINE
  5
BFA
330
A8B
100
AcDbEntity
  8
FRONT
  6
CONTINUOUS
 62
     4
100
AcDbSpline
210
0.0
220
0.0
230
1.0
 70
     8
 71
     3
 72
    11
 73
     7
 74
     0
 42
0.0000000001
 43
0.0000000001
 40
0.0
 40
0.0
 40
0.0
 40
0.0
 40
0.3213498426608153
 40
0.6577811939102688
 40
0.999882732977116
 40
1.0
 40
1.0
 40
1.0
 40
1.0
 10
16.55766717029036
 20
3.62753152931504
 30
0.0
 10
16.53240165908376
 20
3.676733510899357
 30
0.0
 10
16.48805584972428
 20
3.779569485735088
 30
0.0
 10
16.44656881178055
 20
3.945054769776882
 30
0.0
 10
16.43037839129144
 20
4.058494031060566
 30
0.0
 10
16.42502061513865
 20
4.11569740707443
 30
0.0
 10
16.42501128976365
 20
4.115796971311895
 30
0.0
  0
SPLINE
  5
BFB
330
A8B
100
AcDbEntity
  8
FRONT
  6
CONTINUOUS
 62
     4
100
AcDbSpline
210
0.0
220
0.0
230
1.0
 70
     8
 71
     2
 72
     6
 73
     3
 74
     0
 42
0.0000000001
 43
0.0000000001
 40
0.0
 40
0.0
 40
0.0
 40
1.0
 40
1.0
 40
1.0
 10
17.77370085353426
 20
5.412603271966885
 30
0.0
 10
17.88564682468245
 20
5.494754377154666
 30
0.0
 10
17.9986026430253
 20
5.57741094424067
 30
0.0
  0
SPLINE
  5
BFC
330
A8B
100
AcDbEntity
  8
FRONT
  6
CONTINUOUS
 62
     4
100
AcDbSpline
210
0.0
220
0.0
230
1.0
 70
    24
 71
     1
 72
     4
 73
     2
 74
     0
 42
0.0000000001
 43
0.0000000001
 40
0.0
 40
0.0
 40
1.0
 40
1.0
 10
16.49474485326082
 20
5.475120305234273
 30
0.0
 10
16.49595979536792
 20
5.475686399041637
 30
0.0
  0
SPLINE
  5
BFD
330
A8B
100
AcDbEntity
  8
FRONT
  6
CONTINUOUS
 62
     4
100
AcDbSpline
210
0.0
220
0.0
230
1.0
 70
    24
 71
     1
 72
     4
 73
     2
 74
     0
 42
0.0000000001
 43
0.0000000001
 40
0.0
 40
0.0
 40
1.0
 40
1.0
 10
16.71081487216573
 20
4.613866942044376
 30
0.0
 10
16.946116364331
 20
4.794203885304683
 30
0.0
  0
SPLINE
  5
BFE
330
A8B
100
AcDbEntity
  8
FRONT
  6
CONTINUOUS
 62
     4
100
AcDbSpline
210
0.0
220
0.0
230
1.0
 70
     8
 71
     2
 72
     6
 73
     3
 74
     0
 42
0.0000000001
 43
0.0000000001
 40
0.0
 40
0.0
 40
0.0
 40
1.0
 40
1.0
 40
1.0
 10
16.11893379407845
 20
4.995443832534546
 30
0.0
 10
16.16268975661965
 20
5.166852128994873
 30
0.0
 10
16.19668973819385
 20
5.335334408581799
 30
0.0
  0
SPLINE
  5
BFF
330
A8B
100
AcDbEntity
  8
FRONT
  6
CONTINUOUS
 62
     4
100
AcDbSpline
210
0.0
220
0.0
230
1.0
 70
     8
 71
     3
 72
    11
 73
     7
 74
     0
 42
0.0000000001
 43
0.0000000001
 40
0.0
 40
0.0
 40
0.0
 40
0.0
 40
0.2797385983135212
 40
0.5594467342961896
 40
0.779715829487904
 40
1.0
 40
1.0
 40
1.0
 40
1.0
 10
17.5948987190443
 20
5.975264142050701
 30
0.0
 10
17.65745563319629
 20
5.974483801919762
 30
0.0
 10
17.77036020044778
 20
5.950887920362918
 30
0.0
 10
17.90567908297141
 20
5.85040117171442
 30
0.0
 10
17.98283180302257
 20
5.717078973008209
 30
0.0
 10
17.99830296929956
 20
5.626215792883588
 30
0.0
 10
17.9986026430253
 20
5.577410944240644
 30
0.0
  0
ELLIPSE
  5
C00
330
A8B
100
AcDbEntity
  8
FRONT
  6
CONTINUOUS
 62
     4
100
AcDbEllipse
 10
177.0605964205228
 20
-0.0000000000000062
 30
-0.000000000000001
 11
328.7085881680908
 21
-5.639364115381655
 31
0.9119127835859078
210
-0.0173763522628257
220
-0.9870276605374339
230
0.1596072044615736
 40
0.0173763522628256
 41
2.090738282879778
 42
2.09261634979419
  0
ENDBLK
  5
C02
330
A8B
100
AcDbEntity
  8
0
100
AcDbBlockEnd
  0
BLOCK
  5
C05
330
C03
100
AcDbEntity
  8
0
100
AcDbBlockBegin
  2
ROFFE
 70
     0
 10
0.0
 20
0.0
 30
0.0
  3
ROFFE
  1

  0
INSERT
  5
C04
330
C03
100
AcDbEntity
  8
0
  6
CONTINUOUS
100
AcDbBlockReference
  2
2D00035417
 10
0.0
 20
0.0
 30
0.0
  0
ENDBLK
  5
C06
330
C03
100
AcDbEntity
  8
0
100
AcDbBlockEnd
  0
BLOCK
  5
2366
330
235B
100
AcDbEntity
  8
0
100
AcDbBlockBegin
  2
*D2
 70
     1
 10
0.0
 20
0.0
 30
0.0
  3
*D2
  1

  0
LINE
  5
235C
330
235B
100
AcDbEntity
  8
SK6
 62
     0
100
AcDbLine
 10
-5.819479410699101
 20
-14.04497599155399
 30
0.0
 11
-9.089344804523308
 21
-14.04497599155399
 31
0.0
  0
LINE
  5
235D
330
235B
100
AcDbEntity
  8
SK6
 62
     0
100
AcDbLine
 10
-5.819479410699101
 20
-11.52497599155398
 30
0.0
 11
-9.089344804523307
 21
-11.52497599155398
 31
0.0
  0
LINE
  5
235E
330
235B
100
AcDbEntity
  8
SK6
 62
     0
100
AcDbLine
 10
-8.089344804523308
 20
-14.54497599155399
 30
0.0
 11
-8.089344804523308
 21
-15.04497599155398
 31
0.0
  0
LINE
  5
235F
330
235B
100
AcDbEntity
  8
SK6
 62
     0
100
AcDbLine
 10
-8.089344804523307
 20
-11.02497599155398
 30
0.0
 11
-8.089344804523307
 21
-7.991642658220655
 31
0.0
  0
SOLID
  5
2360
330
235B
100
AcDbEntity
  8
SK6
 62
     0
100
AcDbTrace
 10
-8.172678137856642
 20
-14.54497599155399
 30
0.0
 11
-8.006011471189975
 21
-14.54497599155399
 31
0.0
 12
-8.089344804523308
 22
-14.04497599155399
 32
0.0
 13
-8.089344804523308
 23
-14.04497599155399
 33
0.0
  0
SOLID
  5
2361
330
235B
100
AcDbEntity
  8
SK6
 62
     0
100
AcDbTrace
 10
-8.172678137856641
 20
-11.02497599155398
 30
0.0
 11
-8.006011471189973
 21
-11.02497599155398
 31
0.0
 12
-8.089344804523307
 22
-11.52497599155398
 32
0.0
 13
-8.089344804523307
 23
-11.52497599155398
 33
0.0
  0
MTEXT
  5
2362
330
235B
100
AcDbEntity
  8
SK6
 62
     0
100
AcDbMText
 10
-9.489344804523305
 20
-9.258309324887324
 30
0.0
 40
0.8
 41
0.0
 71
     5
 72
     1
  1
\A1;3
 11
0.0000000000000001
 21
1.0
 31
0.0
1001
ACAD
1000
MTEXTBEGIN
1070
    73
1070
     1
1070
    44
1040
1.0
1070
    74
1070
     0
1000
MTEXTEND
  0
POINT
  5
2363
330
235B
100
AcDbEntity
  8
DEFPOINTS
 62
     0
100
AcDbPoint
 10
-4.819479410699101
 20
-14.04497599155399
 30
0.0
  0
POINT
  5
2364
330
235B
100
AcDbEntity
  8
DEFPOINTS
 62
     0
100
AcDbPoint
 10
-4.819479410699101
 20
-11.52497599155398
 30
0.0
  0
POINT
  5
2365
330
235B
100
AcDbEntity
  8
DEFPOINTS
 62
     0
100
AcDbPoint
 10
-8.089344804523307
 20
-11.52497599155398
 30
0.0
  0
ENDBLK
  5
2367
330
235B
100
AcDbEntity
  8
0
100
AcDbBlockEnd
  0
BLOCK
  5
2375
330
236A
100
AcDbEntity
  8
0
100
AcDbBlockBegin
  2
*D3
 70
     1
 10
0.0
 20
0.0
 30
0.0
  3
*D3
  1

  0
LINE
  5
2398
330
236A
100
AcDbEntity
  8
2
 62
     0
100
AcDbLine
 10
-5.735284352037103
 20
-11.53898139073251
 30
0.0
 11
-10.23652351558691
 21
-11.53898139073251
 31
0.0
  0
LINE
  5
2399
330
236A
100
AcDbEntity
  8
2
 62
     0
100
AcDbLine
 10
-5.735284352037103
 20
-14.05898139073251
 30
0.0
 11
-10.23652351558692
 21
-14.05898139073251
 31
0.0
  0
LINE
  5
239A
330
236A
100
AcDbEntity
  8
2
 62
     0
100
AcDbLine
 10
-9.236523515586918
 20
-11.03898139073251
 30
0.0
 11
-9.236523515586918
 21
-10.53898139073251
 31
0.0
  0
LINE
  5
239B
330
236A
100
AcDbEntity
  8
2
 62
     0
100
AcDbLine
 10
-9.23652351558692
 20
-14.55898139073251
 30
0.0
 11
-9.23652351558692
 21
-15.05898139073251
 31
0.0
  0
SOLID
  5
239C
330
236A
100
AcDbEntity
  8
2
 62
     0
100
AcDbTrace
 10
-9.319856848920252
 20
-11.03898139073251
 30
0.0
 11
-9.153190182253585
 21
-11.03898139073251
 31
0.0
 12
-9.236523515586918
 22
-11.53898139073251
 32
0.0
 13
-9.236523515586918
 23
-11.53898139073251
 33
0.0
  0
SOLID
  5
239D
330
236A
100
AcDbEntity
  8
2
 62
     0
100
AcDbTrace
 10
-9.319856848920254
 20
-14.55898139073251
 30
0.0
 11
-9.153190182253586
 21
-14.55898139073251
 31
0.0
 12
-9.23652351558692
 22
-14.05898139073251
 32
0.0
 13
-9.23652351558692
 23
-14.05898139073251
 33
0.0
  0
MTEXT
  5
239E
330
236A
100
AcDbEntity
  8
2
 62
     0
100
AcDbMText
 10
-10.63652351558691
 20
-12.79898139073251
 30
0.0
 40
0.8
 41
0.0
 71
     5
 72
     1
  1
\A1;2.52
 11
0.0000000000000001
 21
1.0
 31
0.0
1001
ACAD
1000
MTEXTBEGIN
1070
    73
1070
     1
1070
    44
1040
1.0
1070
    74
1070
     0
1000
MTEXTEND
  0
POINT
  5
239F
330
236A
100
AcDbEntity
  8
DEFPOINTS
 62
     0
100
AcDbPoint
 10
-4.735284352037103
 20
-11.53898139073251
 30
0.0
  0
POINT
  5
23A0
330
236A
100
AcDbEntity
  8
DEFPOINTS
 62
     0
100
AcDbPoint
 10
-4.735284352037103
 20
-14.05898139073251
 30
0.0
  0
POINT
  5
23A1
330
236A
100
AcDbEntity
  8
DEFPOINTS
 62
     0
100
AcDbPoint
 10
-9.23652351558692
 20
-14.05898139073251
 30
0.0
  0
ENDBLK
  5
2376
330
236A
100
AcDbEntity
  8
0
100
AcDbBlockEnd
  0
BLOCK
  5
2396
330
238C
100
AcDbEntity
  8
0
100
AcDbBlockBegin
  2
*D4
 70
     1
 10
0.0
 20
0.0
 30
0.0
  3
*D4
  1

  0
LINE
  5
23A2
330
238C
100
AcDbEntity
  8
2
 62
     0
100
AcDbLine
 10
-4.919478310700103
 20
-14.89221989463451
 30
0.0
 11
-4.919478310700103
 21
-19.80446822023095
 31
0.0
  0
LINE
  5
23A3
330
238C
100
AcDbEntity
  8
2
 62
     0
100
AcDbLine
 10
4.080521689299896
 20
-14.89221989463451
 30
0.0
 11
4.080521689299896
 21
-19.80446822023095
 31
0.0
  0
LINE
  5
23A4
330
238C
100
AcDbEntity
  8
2
 62
     0
100
AcDbLine
 10
-4.419478310700103
 20
-18.80446822023095
 30
0.0
 11
3.580521689299896
 21
-18.80446822023095
 31
0.0
  0
SOLID
  5
23A5
330
238C
100
AcDbEntity
  8
2
 62
     0
100
AcDbTrace
 10
-4.419478310700103
 20
-18.72113488689762
 30
0.0
 11
-4.419478310700103
 21
-18.88780155356429
 31
0.0
 12
-4.919478310700103
 22
-18.80446822023095
 32
0.0
 13
-4.919478310700103
 23
-18.80446822023095
 33
0.0
  0
SOLID
  5
23A6
330
238C
100
AcDbEntity
  8
2
 62
     0
100
AcDbTrace
 10
3.580521689299896
 20
-18.72113488689762
 30
0.0
 11
3.580521689299896
 21
-18.88780155356429
 31
0.0
 12
4.080521689299896
 22
-18.80446822023095
 32
0.0
 13
4.080521689299896
 23
-18.80446822023095
 33
0.0
  0
MTEXT
  5
23A7
330
238C
100
AcDbEntity
  8
2
 62
     0
100
AcDbMText
 10
-0.4194783107001036
 20
-17.40446822023096
 30
0.0
 40
0.8
 41
0.0
 71
     5
 72
     1
  1
\A1;9
1001
ACAD
1000
MTEXTBEGIN
1070
    73
1070
     1
1070
    44
1040
1.0
1070
    74
1070
     0
1000
MTEXTEND
  0
POINT
  5
23A8
330
238C
100
AcDbEntity
  8
DEFPOINTS
 62
     0
100
AcDbPoint
 10
-4.919478310700103
 20
-13.8922198946345
 30
0.0
  0
POINT
  5
23A9
330
238C
100
AcDbEntity
  8
DEFPOINTS
 62
     0
100
AcDbPoint
 10
4.080521689299896
 20
-13.8922198946345
 30
0.0
  0
POINT
  5
23AA
330
238C
100
AcDbEntity
  8
DEFPOINTS
 62
     0
100
AcDbPoint
 10
4.080521689299896
 20
-18.80446822023095
 30
0.0
  0
ENDBLK
  5
2397
330
238C
100
AcDbEntity
  8
0
100
AcDbBlockEnd
  0
ENDSEC
  0
SECTION
  2
ENTITIES
  0
LINE
  5
1DEF
330
19
100
AcDbEntity
  8
1
100
AcDbLine
 10
0.8588261967038961
 20
1.708694647292485
 30
0.0
 11
0.7195370502788983
 21
1.79238956359748
 31
0.0
  0
LINE
  5
1DF0
330
19
100
AcDbEntity
  8
1
100
AcDbLine
 10
1.864022334363896
 20
1.454702901284484
 30
0.0
 11
0.774048138624897
 21
2.109624960647483
 31
0.0
  0
LINE
  5
1DF1
330
19
100
AcDbEntity
  8
1
100
AcDbLine
 10
1.864022334363896
 20
1.454702901284484
 30
0.0
 11
0.774048138624897
 21
2.109624960647483
 31
0.0
  0
LINE
  5
1DF2
330
19
100
AcDbEntity
  8
1
100
AcDbLine
 10
1.864022334363896
 20
1.454702901284484
 30
0.0
 11
0.774048138624897
 21
2.109624960647483
 31
0.0
  0
LINE
  5
1DF3
330
19
100
AcDbEntity
  8
1
100
AcDbLine
 10
1.864022334363896
 20
1.454702901284484
 30
0.0
 11
0.774048138624897
 21
2.109624960647483
 31
0.0
  0
LINE
  5
1DF4
330
19
100
AcDbEntity
  8
1
100
AcDbLine
 10
-4.819479410699101
 20
1.094206547495484
 30
0.0
 11
-4.819479410699101
 21
4.492260149438481
 31
0.0
  0
LINE
  5
1DFF
330
19
100
AcDbEntity
  8
1
100
AcDbLine
 10
-2.793591150875102
 20
-11.66749369079151
 30
0.0
 11
-2.896955333225101
 21
-11.67413096986851
 31
0.0
  0
LINE
  5
1E00
330
19
100
AcDbEntity
  8
1
100
AcDbLine
 10
-2.9182770261891
 20
-12.0800814210605
 30
0.0
 11
-2.760086755808101
 21
-12.0769194242225
 31
0.0
  0
LINE
  5
1E01
330
19
100
AcDbEntity
  8
1
100
AcDbLine
 10
-2.9182770261891
 20
-13.52070840900351
 30
0.0
 11
-2.760086755808101
 21
-13.52387083441252
 31
0.0
  0
LINE
  5
1E02
330
19
100
AcDbEntity
  8
1
100
AcDbLine
 10
-2.793591150875102
 20
-13.9332961392725
 30
0.0
 11
-2.896955333225101
 21
-13.92665928876651
 31
0.0
  0
LINE
  5
1E03
330
19
100
AcDbEntity
  8
1
100
AcDbLine
 10
-2.781245877506101
 20
-11.6756206826645
 30
0.0
 11
-2.8168246990701
 21
-11.67313254229551
 31
0.0
  0
LINE
  5
1E04
330
19
100
AcDbEntity
  8
1
100
AcDbLine
 10
-2.8168246990701
 20
-13.92765728776851
 30
0.0
 11
-2.781245877506101
 21
-13.9251691473995
 31
0.0
  0
LINE
  5
1E05
330
19
100
AcDbEntity
  8
4
100
AcDbLine
 10
-3.198416174621101
 20
-12.8003951293175
 30
0.0
 11
-0.7755338832201028
 21
-12.8003951293175
 31
0.0
  0
LINE
  5
1E0B
330
19
100
AcDbEntity
  8
4
100
AcDbLine
 10
-5.352089163803102
 20
-12.8003951293175
 30
0.0
 11
-4.140648946673103
 21
-12.8003951293175
 31
0.0
  0
LINE
  5
1E16
330
19
100
AcDbEntity
  8
1
100
AcDbLine
 10
-4.819475839274103
 20
-13.08863469822051
 30
0.0
 11
-4.819474124990098
 21
-13.22990369980851
 31
0.0
  0
LINE
  5
1E17
330
19
100
AcDbEntity
  8
1
100
AcDbLine
 10
-4.919478310700103
 20
-13.8922198946345
 30
0.0
 11
-4.919478310700103
 21
-11.7085695068585
 31
0.0
  0
LINE
  5
1E18
330
19
100
AcDbEntity
  8
1
100
AcDbLine
 10
-4.819479410699101
 20
-14.04731131097151
 30
0.0
 11
-4.819479410699101
 21
-11.5549003748135
 31
0.0
  0
LINE
  5
1E19
330
19
100
AcDbEntity
  8
1
100
AcDbLine
 10
-4.0939741362051
 20
-13.34556915557151
 30
0.0
 11
-3.909887463149099
 21
-13.37310027089751
 31
0.0
  0
LINE
  5
1E1A
330
19
100
AcDbEntity
  8
1
100
AcDbLine
 10
-3.876969638924101
 20
-13.78397928858951
 30
0.0
 11
-4.087006428887104
 21
-13.76249073864951
 31
0.0
  0
LINE
  5
1E1B
330
19
100
AcDbEntity
  8
1
100
AcDbLine
 10
-4.029204486689098
 20
-14.01243491727651
 30
0.0
 11
-3.842010245312103
 21
-13.9993452160805
 31
0.0
  0
LINE
  5
1E1C
330
19
100
AcDbEntity
  8
1
100
AcDbLine
 10
-3.967287977177103
 20
-14.00810549303451
 30
0.0
 11
-4.637621163986101
 21
-14.05497973187451
 31
0.0
  0
LINE
  5
1E1D
330
19
100
AcDbEntity
  8
1
100
AcDbLine
 10
-4.436972650349101
 20
-14.0409487459055
 30
0.0
 11
-4.236915850406101
 21
-14.0269593313235
 31
0.0
  0
LINE
  5
1E1E
330
19
100
AcDbEntity
  8
1
100
AcDbLine
 10
-4.8279142594071
 20
-14.04322574362851
 30
0.0
 11
-4.894787906819103
 21
-13.98060980624451
 31
0.0
  0
LINE
  5
1E1F
330
19
100
AcDbEntity
  8
1
100
AcDbLine
 10
-4.637621163986101
 20
-14.05497973187451
 30
0.0
 11
-4.436972650349101
 21
-14.0409487459055
 31
0.0
  0
LINE
  5
1E20
330
19
100
AcDbEntity
  8
1
100
AcDbLine
 10
-4.738357206107098
 20
-14.0618090107595
 30
0.0
 11
-4.8279142594071
 21
-14.04322574362851
 31
0.0
  0
LINE
  5
1E21
330
19
100
AcDbEntity
  8
1
100
AcDbLine
 10
-4.637621163986101
 20
-14.05497973187451
 30
0.0
 11
-4.738357206107098
 21
-14.0618090107595
 31
0.0
  0
LINE
  5
1E22
330
19
100
AcDbEntity
  8
1
100
AcDbLine
 10
-4.639624733411102
 20
-13.2638708086985
 30
0.0
 11
-4.458789199961104
 21
-13.29230992311651
 31
0.0
  0
LINE
  5
1E23
330
19
100
AcDbEntity
  8
1
100
AcDbLine
 10
-4.504922439542101
 20
-13.7169027842375
 30
0.0
 11
-4.663654280810101
 21
-13.6919839520135
 31
0.0
  0
LINE
  5
1E24
330
19
100
AcDbEntity
  8
1
100
AcDbLine
 10
-4.819479410699101
 20
-13.23241898300752
 30
0.0
 11
-4.639624733411102
 21
-13.2638708086985
 31
0.0
  0
LINE
  5
1E25
330
19
100
AcDbEntity
  8
1
100
AcDbLine
 10
-4.663654280810101
 20
-13.6919839520135
 30
0.0
 11
-4.819479410699101
 21
-13.66004169824151
 31
0.0
  0
LINE
  5
1E26
330
19
100
AcDbEntity
  8
1
100
AcDbLine
 10
-4.819479410699101
 20
-13.57425178403151
 30
0.0
 11
-4.819479410699101
 21
-13.66018269810051
 31
0.0
  0
LINE
  5
1E27
330
19
100
AcDbEntity
  8
1
100
AcDbLine
 10
-4.819479410699101
 20
-13.48915844055351
 30
0.0
 11
-4.819479410699101
 21
-13.57425178403151
 31
0.0
  0
LINE
  5
1E28
330
19
100
AcDbEntity
  8
1
100
AcDbLine
 10
-4.819479410699101
 20
-13.35811071445851
 30
0.0
 11
-4.819479410699101
 21
-13.48915844055351
 31
0.0
  0
LINE
  5
1E29
330
19
100
AcDbEntity
  8
1
100
AcDbLine
 10
-4.819479410699101
 20
-13.23242298300351
 30
0.0
 11
-4.819479410699101
 21
-13.35811071445851
 31
0.0
  0
LINE
  5
1E2A
330
19
100
AcDbEntity
  8
1
100
AcDbLine
 10
-4.819475839274103
 20
-13.23116198426451
 30
0.0
 11
-4.819479410699101
 21
-13.23241898300752
 31
0.0
  0
LINE
  5
1E2B
330
19
100
AcDbEntity
  8
1
100
AcDbLine
 10
-4.819474124990098
 20
-13.22990369980851
 30
0.0
 11
-4.819475839274103
 21
-13.23116198426451
 31
0.0
  0
LINE
  5
1E2C
330
19
100
AcDbEntity
  8
1
100
AcDbLine
 10
-4.819479410699101
 20
-13.8465205117625
 30
0.0
 11
-4.819479410699101
 21
-13.88539361574651
 31
0.0
  0
LINE
  5
1E2D
330
19
100
AcDbEntity
  8
1
100
AcDbLine
 10
-4.819479410699101
 20
-13.8076472649215
 30
0.0
 11
-4.819479410699101
 21
-13.8465205117625
 31
0.0
  0
LINE
  5
1E2E
330
19
100
AcDbEntity
  8
1
100
AcDbLine
 10
-4.819479410699101
 20
-13.73384876729151
 30
0.0
 11
-4.819479410699101
 21
-13.8076472649215
 31
0.0
  0
LINE
  5
1E2F
330
19
100
AcDbEntity
  8
1
100
AcDbLine
 10
-4.819479410699101
 20
-13.66005069823251
 30
0.0
 11
-4.819479410699101
 21
-13.73384876729151
 31
0.0
  0
LINE
  5
1E30
330
19
100
AcDbEntity
  8
1
100
AcDbLine
 10
-4.894787906819103
 20
-13.98060980624451
 30
0.0
 11
-4.919478310700103
 21
-13.8922198946345
 31
0.0
  0
LINE
  5
1E31
330
19
100
AcDbEntity
  8
1
100
AcDbLine
 10
-4.276924096112102
 20
-13.3190904677645
 30
0.0
 11
-4.0939741362051
 21
-13.34556915557151
 31
0.0
  0
LINE
  5
1E32
330
19
100
AcDbEntity
  8
1
100
AcDbLine
 10
-4.458789199961104
 20
-13.29230992311651
 30
0.0
 11
-4.276924096112102
 21
-13.3190904677645
 31
0.0
  0
LINE
  5
1E33
330
19
100
AcDbEntity
  8
1
100
AcDbLine
 10
-4.2958113629391
 20
-13.74176975937051
 30
0.0
 11
-4.504922439542101
 21
-13.7169027842375
 31
0.0
  0
LINE
  5
1E34
330
19
100
AcDbEntity
  8
1
100
AcDbLine
 10
-4.087006428887104
 20
-13.76249073864951
 30
0.0
 11
-4.2958113629391
 21
-13.74176975937051
 31
0.0
  0
LINE
  5
1E35
330
19
100
AcDbEntity
  8
1
100
AcDbLine
 10
-4.236915850406101
 20
-14.0269593313235
 30
0.0
 11
-4.029204486689098
 21
-14.01243491727651
 31
0.0
  0
LINE
  5
1E36
330
19
100
AcDbEntity
  8
1
100
AcDbLine
 10
-3.4011392576121
 20
-13.45998489829851
 30
0.0
 11
-3.2393379908421
 21
-13.48614215785551
 31
0.0
  0
LINE
  5
1E37
330
19
100
AcDbEntity
  8
1
100
AcDbLine
 10
-3.143707800758102
 20
-13.89674703296451
 30
0.0
 11
-3.398716831463103
 21
-13.85451721805151
 31
0.0
  0
LINE
  5
1E38
330
19
100
AcDbEntity
  8
1
100
AcDbLine
 10
-3.478396037498103
 20
-13.97391852722151
 30
0.0
 11
-3.1652579220651
 21
-13.95202197768951
 31
0.0
  0
LINE
  5
1E39
330
19
100
AcDbEntity
  8
1
100
AcDbLine
 10
-3.563075381390101
 20
-13.43140964115951
 30
0.0
 11
-3.4011392576121
 21
-13.45998489829851
 31
0.0
  0
LINE
  5
1E3A
330
19
100
AcDbEntity
  8
1
100
AcDbLine
 10
-3.724613791280103
 20
-13.40303938381551
 30
0.0
 11
-3.563075381390101
 21
-13.43140964115951
 31
0.0
  0
LINE
  5
1E3B
330
19
100
AcDbEntity
  8
1
100
AcDbLine
 10
-3.909887463149099
 20
-13.37310027089751
 30
0.0
 11
-3.724613791280103
 21
-13.40303938381551
 31
0.0
  0
LINE
  5
1E3C
330
19
100
AcDbEntity
  8
1
100
AcDbLine
 10
-3.664166280299101
 20
-13.81115011856151
 30
0.0
 11
-3.876969638924101
 21
-13.78397928858951
 31
0.0
  0
LINE
  5
1E3D
330
19
100
AcDbEntity
  8
1
100
AcDbLine
 10
-3.398716831463103
 20
-13.85451721805151
 30
0.0
 11
-3.664166280299101
 21
-13.81115011856151
 31
0.0
  0
LINE
  5
1E3E
330
19
100
AcDbEntity
  8
1
100
AcDbLine
 10
-3.6599738559201
 20
-13.98661594309551
 30
0.0
 11
-3.478396037498103
 21
-13.97391852722151
 31
0.0
  0
LINE
  5
1E3F
330
19
100
AcDbEntity
  8
1
100
AcDbLine
 10
-3.842010245312103
 20
-13.9993452160805
 30
0.0
 11
-3.6599738559201
 21
-13.98661594309551
 31
0.0
  0
LINE
  5
1E40
330
19
100
AcDbEntity
  8
1
100
AcDbLine
 10
-3.078206294831105
 20
-13.50725799388251
 30
0.0
 11
-2.9182770261891
 21
-13.52070840900351
 31
0.0
  0
LINE
  5
1E41
330
19
100
AcDbEntity
  8
1
100
AcDbLine
 10
-3.2393379908421
 20
-13.48614215785551
 30
0.0
 11
-3.078206294831105
 21
-13.50725799388251
 31
0.0
  0
LINE
  5
1E42
330
19
100
AcDbEntity
  8
1
100
AcDbLine
 10
-3.018421354616103
 20
-13.9139858728685
 30
0.0
 11
-3.143707800758102
 21
-13.89674703296451
 31
0.0
  0
LINE
  5
1E43
330
19
100
AcDbEntity
  8
1
100
AcDbLine
 10
-2.896955333225101
 20
-13.92665928876651
 30
0.0
 11
-3.018421354616103
 21
-13.9139858728685
 31
0.0
  0
LINE
  5
1E44
330
19
100
AcDbEntity
  8
1
100
AcDbLine
 10
-2.851920806831103
 20
-13.93011114245751
 30
0.0
 11
-2.8168246990701
 21
-13.92765728776851
 31
0.0
  0
LINE
  5
1E45
330
19
100
AcDbEntity
  8
1
100
AcDbLine
 10
-2.861883511154098
 20
-13.93080799890351
 30
0.0
 11
-2.851976092490101
 21
-13.93011499959651
 31
0.0
  0
LINE
  5
1E46
330
19
100
AcDbEntity
  8
1
100
AcDbLine
 10
-2.8719725010651
 20
-13.93151356962651
 30
0.0
 11
-2.861883511154098
 21
-13.93080799890351
 31
0.0
  0
LINE
  5
1E47
330
19
100
AcDbEntity
  8
1
100
AcDbLine
 10
-3.1652579220651
 20
-13.95202197768951
 30
0.0
 11
-2.8719725010651
 21
-13.93151356962651
 31
0.0
  0
LINE
  5
1E48
330
19
100
AcDbEntity
  8
1
100
AcDbLine
 10
-3.876969638924101
 20
-11.8168105414745
 30
0.0
 11
-4.087006428887104
 21
-11.8382992342715
 31
0.0
  0
LINE
  5
1E49
330
19
100
AcDbEntity
  8
1
100
AcDbLine
 10
-4.0939741362051
 20
-12.25522110306351
 30
0.0
 11
-3.909887463149099
 21
-12.22768970202351
 31
0.0
  0
LINE
  5
1E4A
330
19
100
AcDbEntity
  8
1
100
AcDbLine
 10
-4.028979486914103
 20
-11.58837091277151
 30
0.0
 11
-3.841785245537102
 21
-11.60146018539651
 31
0.0
  0
LINE
  5
1E4B
330
19
100
AcDbEntity
  8
1
100
AcDbLine
 10
-3.967287977177103
 20
-11.59268447988651
 30
0.0
 11
-4.637621163986101
 21
-11.5458105267605
 31
0.0
  0
LINE
  5
1E4C
330
19
100
AcDbEntity
  8
1
100
AcDbLine
 10
-4.819479410699101
 20
-12.36837084705651
 30
0.0
 11
-4.639624733411102
 21
-12.3369190213655
 31
0.0
  0
LINE
  5
1E4D
330
19
100
AcDbEntity
  8
1
100
AcDbLine
 10
-4.819479410699101
 20
-12.36836684706051
 30
0.0
 11
-4.819479410699101
 21
-12.2028148697555
 31
0.0
  0
LINE
  5
1E4E
330
19
100
AcDbEntity
  8
1
100
AcDbLine
 10
-4.819477553558101
 20
-12.9394858473695
 30
0.0
 11
-4.819475839274103
 21
-13.08863469822051
 31
0.0
  0
LINE
  5
1E4F
330
19
100
AcDbEntity
  8
1
100
AcDbLine
 10
-4.819479410699101
 20
-12.78514828742151
 30
0.0
 11
-4.819477553558101
 21
-12.9394858473695
 31
0.0
  0
LINE
  5
1E50
330
19
100
AcDbEntity
  8
1
100
AcDbLine
 10
-4.819479410699101
 20
-12.6136296017975
 30
0.0
 11
-4.819479410699101
 21
-12.78514828742151
 31
0.0
  0
LINE
  5
1E51
330
19
100
AcDbEntity
  8
1
100
AcDbLine
 10
-4.819479410699101
 20
-12.44363820036051
 30
0.0
 11
-4.819479410699101
 21
-12.6136296017975
 31
0.0
  0
LINE
  5
1E52
330
19
100
AcDbEntity
  8
1
100
AcDbLine
 10
-4.819479410699101
 20
-12.40507038178551
 30
0.0
 11
-4.819479410699101
 21
-12.44363820036051
 31
0.0
  0
LINE
  5
1E53
330
19
100
AcDbEntity
  8
1
100
AcDbLine
 10
-4.819479410699101
 20
-12.36837084705651
 30
0.0
 11
-4.819479410699101
 21
-12.40507038178551
 31
0.0
  0
LINE
  5
1E54
330
19
100
AcDbEntity
  8
1
100
AcDbLine
 10
-4.504922439542101
 20
-11.88388661725551
 30
0.0
 11
-4.663654280810101
 21
-11.9088063066215
 31
0.0
  0
LINE
  5
1E55
330
19
100
AcDbEntity
  8
1
100
AcDbLine
 10
-4.639624733411102
 20
-12.3369190213655
 30
0.0
 11
-4.458789199961104
 21
-12.3084804783755
 31
0.0
  0
LINE
  5
1E56
330
19
100
AcDbEntity
  8
1
100
AcDbLine
 10
-4.637621163986101
 20
-11.5458105267605
 30
0.0
 11
-4.337274750047099
 21
-11.56681222004451
 31
0.0
  0
LINE
  5
1E58
330
19
100
AcDbEntity
  8
1
100
AcDbLine
 10
-4.663654280810101
 20
-11.9088063066215
 30
0.0
 11
-4.819479410699101
 21
-11.9407481318225
 31
0.0
  0
LINE
  5
1E59
330
19
100
AcDbEntity
  8
1
100
AcDbLine
 10
-4.819479410699101
 20
-11.9852809444325
 30
0.0
 11
-4.819479410699101
 21
-11.9406071319635
 31
0.0
  0
LINE
  5
1E5A
330
19
100
AcDbEntity
  8
1
100
AcDbLine
 10
-4.819479410699101
 20
-12.02983632844851
 30
0.0
 11
-4.819479410699101
 21
-11.9852809444325
 31
0.0
  0
LINE
  5
1E5B
330
19
100
AcDbEntity
  8
1
100
AcDbLine
 10
-4.819479410699101
 20
-12.2028148697555
 30
0.0
 11
-4.819479410699101
 21
-12.02983632844851
 31
0.0
  0
LINE
  5
1E5C
330
19
100
AcDbEntity
  8
1
100
AcDbLine
 10
-4.819479410699101
 20
-11.82806567307651
 30
0.0
 11
-4.819479410699101
 21
-11.9407352746925
 31
0.0
  0
LINE
  5
1E5D
330
19
100
AcDbEntity
  8
1
100
AcDbLine
 10
-4.819479410699101
 20
-11.71539621431751
 30
0.0
 11
-4.819479410699101
 21
-11.82806567307651
 31
0.0
  0
LINE
  5
1E65
330
19
100
AcDbEntity
  8
1
100
AcDbLine
 10
-4.824841405337105
 20
-11.55756408643551
 30
0.0
 11
-4.735284352037103
 21
-11.53898139073251
 31
0.0
  0
LINE
  5
1E66
330
19
100
AcDbEntity
  8
1
100
AcDbLine
 10
-4.891714909892101
 20
-11.6201804523905
 30
0.0
 11
-4.824841405337105
 21
-11.55756408643551
 31
0.0
  0
LINE
  5
1E67
330
19
100
AcDbEntity
  8
1
100
AcDbLine
 10
-4.916407170914101
 20
-11.7085695068585
 30
0.0
 11
-4.891714909892101
 21
-11.6201804523905
 31
0.0
  0
LINE
  5
1E68
330
19
100
AcDbEntity
  8
1
100
AcDbLine
 10
-4.637621163986101
 20
-11.5458105267605
 30
0.0
 11
-4.735284352037103
 21
-11.53898139073251
 31
0.0
  0
LINE
  5
1E69
330
19
100
AcDbEntity
  8
1
100
AcDbLine
 10
-4.2958113629391
 20
-11.8590204992645
 30
0.0
 11
-4.504922439542101
 21
-11.88388661725551
 31
0.0
  0
LINE
  5
1E6A
330
19
100
AcDbEntity
  8
1
100
AcDbLine
 10
-4.087006428887104
 20
-11.8382992342715
 30
0.0
 11
-4.2958113629391
 21
-11.8590204992645
 31
0.0
  0
LINE
  5
1E6B
330
19
100
AcDbEntity
  8
1
100
AcDbLine
 10
-4.276924096112102
 20
-12.2816993622995
 30
0.0
 11
-4.0939741362051
 21
-12.25522110306351
 31
0.0
  0
LINE
  5
1E6C
330
19
100
AcDbEntity
  8
1
100
AcDbLine
 10
-4.458789199961104
 20
-12.3084804783755
 30
0.0
 11
-4.276924096112102
 21
-12.2816993622995
 31
0.0
  0
LINE
  5
1E6D
330
19
100
AcDbEntity
  8
1
100
AcDbLine
 10
-4.337274750047099
 20
-11.56681222004451
 30
0.0
 11
-4.028979486914103
 21
-11.58837091277151
 31
0.0
  0
LINE
  5
1E6F
330
19
100
AcDbEntity
  8
4
100
AcDbLine
 10
-3.8714397873111
 20
-12.8003951293175
 30
0.0
 11
-3.467625191126102
 21
-12.8003951293175
 31
0.0
  0
LINE
  5
1E70
330
19
100
AcDbEntity
  8
1
100
AcDbLine
 10
-3.372725286026102
 20
-11.7417909022085
 30
0.0
 11
-3.609475192133102
 21
-11.78134071980151
 31
0.0
  0
LINE
  5
1E71
330
19
100
AcDbEntity
  8
1
100
AcDbLine
 10
-3.4011392576121
 20
-12.1408049317655
 30
0.0
 11
-3.2393379908421
 21
-12.11464810077951
 31
0.0
  0
LINE
  5
1E72
330
19
100
AcDbEntity
  8
1
100
AcDbLine
 10
-3.478174466291103
 20
-11.62688687425551
 30
0.0
 11
-3.267476676989098
 21
-11.64161985952251
 31
0.0
  0
LINE
  5
1E73
330
19
100
AcDbEntity
  8
1
100
AcDbLine
 10
-3.664166280299101
 20
-11.78963971150251
 30
0.0
 11
-3.876969638924101
 21
-11.8168105414745
 31
0.0
  0
LINE
  5
1E74
330
19
100
AcDbEntity
  8
1
100
AcDbLine
 10
-3.636728164880099
 20
-11.7855338584655
 30
0.0
 11
-3.664166280299101
 21
-11.78963971150251
 31
0.0
  0
LINE
  5
1E75
330
19
100
AcDbEntity
  8
1
100
AcDbLine
 10
-3.609475192133102
 20
-11.78134071980151
 30
0.0
 11
-3.636728164880099
 21
-11.7855338584655
 31
0.0
  0
LINE
  5
1E76
330
19
100
AcDbEntity
  8
1
100
AcDbLine
 10
-3.563075381390101
 20
-12.16938076033251
 30
0.0
 11
-3.4011392576121
 21
-12.1408049317655
 31
0.0
  0
LINE
  5
1E77
330
19
100
AcDbEntity
  8
1
100
AcDbLine
 10
-3.724613791280103
 20
-12.1977504462485
 30
0.0
 11
-3.563075381390101
 21
-12.16938076033251
 31
0.0
  0
LINE
  5
1E78
330
19
100
AcDbEntity
  8
1
100
AcDbLine
 10
-3.909887463149099
 20
-12.22768970202351
 30
0.0
 11
-3.724613791280103
 21
-12.1977504462485
 31
0.0
  0
LINE
  5
1E79
330
19
100
AcDbEntity
  8
1
100
AcDbLine
 10
-3.659748856145101
 20
-11.6141894583815
 30
0.0
 11
-3.478174466291103
 21
-11.62688687425551
 31
0.0
  0
LINE
  5
1E7A
330
19
100
AcDbEntity
  8
1
100
AcDbLine
 10
-3.841785245537102
 20
-11.60146018539651
 30
0.0
 11
-3.659748856145101
 21
-11.6141894583815
 31
0.0
  0
LINE
  5
1E7B
330
19
100
AcDbEntity
  8
1
100
AcDbLine
 10
-3.143707800758102
 20
-11.7040423685285
 30
0.0
 11
-3.372725286026102
 21
-11.7417909022085
 31
0.0
  0
LINE
  5
1E7C
330
19
100
AcDbEntity
  8
1
100
AcDbLine
 10
-3.018421354616103
 20
-11.68680410005251
 30
0.0
 11
-3.143707800758102
 21
-11.7040423685285
 31
0.0
  0
LINE
  5
1E7D
330
19
100
AcDbEntity
  8
1
100
AcDbLine
 10
-2.896955333225101
 20
-11.67413096986851
 30
0.0
 11
-3.018421354616103
 21
-11.68680410005251
 31
0.0
  0
LINE
  5
1E7E
330
19
100
AcDbEntity
  8
1
100
AcDbLine
 10
-3.078206294831105
 20
-12.09353240760951
 30
0.0
 11
-2.9182770261891
 21
-12.0800814210605
 31
0.0
  0
LINE
  5
1E7F
330
19
100
AcDbEntity
  8
1
100
AcDbLine
 10
-3.2393379908421
 20
-12.11464810077951
 30
0.0
 11
-3.078206294831105
 21
-12.09353240760951
 31
0.0
  0
LINE
  5
1E80
330
19
100
AcDbEntity
  8
1
100
AcDbLine
 10
-2.8168246990701
 20
-11.67313254229551
 30
0.0
 11
-2.851920806831103
 21
-11.6706791161775
 31
0.0
  0
LINE
  5
1E81
330
19
100
AcDbEntity
  8
1
100
AcDbLine
 10
-2.8617156541791
 20
-11.66999397400551
 30
0.0
 11
-2.851822235501105
 21
-11.67068511617151
 31
0.0
  0
LINE
  5
1E82
330
19
100
AcDbEntity
  8
1
100
AcDbLine
 10
-2.871789072677101
 20
-11.66928968899551
 30
0.0
 11
-2.8617156541791
 21
-11.66999397400551
 31
0.0
  0
LINE
  5
1E83
330
19
100
AcDbEntity
  8
1
100
AcDbLine
 10
-3.064831451063103
 20
-11.65579041678051
 30
0.0
 11
-2.871789072677101
 21
-11.66928968899551
 31
0.0
  0
LINE
  5
1E84
330
19
100
AcDbEntity
  8
1
100
AcDbLine
 10
-3.267476676989098
 20
-11.64161985952251
 30
0.0
 11
-3.064831451063103
 21
-11.65579041678051
 31
0.0
  0
LINE
  5
1E85
330
19
100
AcDbEntity
  8
4
100
AcDbLine
 10
0.1666973174048962
 20
-12.8003951293175
 30
0.0
 11
2.589579465948895
 21
-12.8003951293175
 31
0.0
  0
LINE
  5
1E86
330
19
100
AcDbEntity
  8
1
100
AcDbLine
 10
3.769427428956897
 20
-13.75688260140051
 30
0.0
 11
1.864022334363896
 21
-13.75688260140051
 31
0.0
  0
LINE
  5
1E87
330
19
100
AcDbEntity
  8
1
100
AcDbLine
 10
3.673567096245899
 20
-13.85039407931751
 30
0.0
 11
1.864022334363896
 21
-13.85039407931751
 31
0.0
  0
LINE
  5
1E88
330
19
100
AcDbEntity
  8
1
100
AcDbLine
 10
3.769482714615896
 20
-11.8439078000915
 30
0.0
 11
1.864022334363896
 21
-11.8439078000915
 31
0.0
  0
LINE
  5
1E89
330
19
100
AcDbEntity
  8
1
100
AcDbLine
 10
3.673567096245899
 20
-11.75039632217451
 30
0.0
 11
1.864022334363896
 21
-11.75039632217451
 31
0.0
  0
LINE
  5
1E8A
330
19
100
AcDbEntity
  8
1
100
AcDbLine
 10
-0.4988483027631025
 20
-11.75039632217451
 30
0.0
 11
-0.4053291105681005
 21
-11.75039632217451
 31
0.0
  0
LINE
  5
1E8B
330
19
100
AcDbEntity
  8
1
100
AcDbLine
 10
-0.4235952351591017
 20
-11.94890540937951
 30
0.0
 11
-0.4785647516181017
 21
-11.98983751130451
 31
0.0
  0
LINE
  5
1E8C
330
19
100
AcDbEntity
  8
1
100
AcDbLine
 10
-0.4235952351591017
 20
-13.6518839921135
 30
0.0
 11
-0.4785647516181017
 21
-13.61095274733051
 31
0.0
  0
LINE
  5
1E8D
330
19
100
AcDbEntity
  8
1
100
AcDbLine
 10
-0.4988483027631025
 20
-13.85039407931751
 30
0.0
 11
-0.4053291105681005
 21
-13.85039407931751
 31
0.0
  0
LINE
  5
1E8E
330
19
100
AcDbEntity
  8
4
100
AcDbLine
 10
-0.5063247238581054
 20
-12.8003951293175
 30
0.0
 11
-0.1025118419571012
 21
-12.8003951293175
 31
0.0
  0
LINE
  5
1E8F
330
19
100
AcDbEntity
  8
1
100
AcDbLine
 10
-1.8677106481851
 20
-13.21512885744051
 30
0.0
 11
-1.727931787964099
 21
-13.12396480574751
 31
0.0
  0
LINE
  5
1E90
330
19
100
AcDbEntity
  8
1
100
AcDbLine
 10
-1.373690285063103
 20
-13.18603445796351
 30
0.0
 11
-1.533626410841102
 21
-13.38982982559651
 31
0.0
  0
LINE
  5
1E91
330
19
100
AcDbEntity
  8
1
100
AcDbLine
 10
-0.9839131034121047
 20
-13.2042157254965
 30
0.0
 11
-1.1168731133091
 21
-13.0929365510615
 31
0.0
  0
LINE
  5
1E92
330
19
100
AcDbEntity
  8
1
100
AcDbLine
 10
-1.533626410841102
 20
-13.38982982559651
 30
0.0
 11
-1.7199277959681
 21
-13.56653236317951
 31
0.0
  0
LINE
  5
1E93
330
19
100
AcDbEntity
  8
1
100
AcDbLine
 10
-1.569843660338104
 20
-13.85039407931751
 30
0.0
 11
-1.711908089702101
 21
-13.85039407931751
 31
0.0
  0
LINE
  5
1E94
330
19
100
AcDbEntity
  8
1
100
AcDbLine
 10
-2.301280071758103
 20
-13.44539119860651
 30
0.0
 11
-2.153706505046101
 21
-13.38184354786851
 31
0.0
  0
LINE
  5
1E95
330
19
100
AcDbEntity
  8
1
100
AcDbLine
 10
-2.1572967871701
 20
-13.83309895375551
 30
0.0
 11
-2.258572685894101
 21
-13.87002520254351
 31
0.0
  0
LINE
  5
1E96
330
19
100
AcDbEntity
  8
1
100
AcDbLine
 10
-2.345511884669102
 20
-13.89469974929751
 30
0.0
 11
-2.129382957941102
 21
-13.87958662155351
 31
0.0
  0
LINE
  5
1E97
330
19
100
AcDbEntity
  8
1
100
AcDbLine
 10
-2.451054493412101
 20
-13.4888357265905
 30
0.0
 11
-2.301280071758103
 21
-13.44539119860651
 31
0.0
  0
LINE
  5
1E98
330
19
100
AcDbEntity
  8
1
100
AcDbLine
 10
-2.604168340298101
 20
-13.51412098701951
 30
0.0
 11
-2.451054493412101
 21
-13.4888357265905
 31
0.0
  0
LINE
  5
1E99
330
19
100
AcDbEntity
  8
1
100
AcDbLine
 10
-2.760086755808101
 20
-13.52387083441252
 30
0.0
 11
-2.604168340298101
 21
-13.51412098701951
 31
0.0
  0
LINE
  5
1E9A
330
19
100
AcDbEntity
  8
1
100
AcDbLine
 10
-2.6919379668141
 20
-13.93508128034451
 30
0.0
 11
-2.793591150875102
 21
-13.9332961392725
 31
0.0
  0
LINE
  5
1E9B
330
19
100
AcDbEntity
  8
1
100
AcDbLine
 10
-2.5851876449931
 20
-13.93116314140551
 30
0.0
 11
-2.6919379668141
 21
-13.93508128034451
 31
0.0
  0
LINE
  5
1E9C
330
19
100
AcDbEntity
  8
1
100
AcDbLine
 10
-2.465631764549103
 20
-13.91810501160651
 30
0.0
 11
-2.5851876449931
 21
-13.93116314140551
 31
0.0
  0
LINE
  5
1E9D
330
19
100
AcDbEntity
  8
1
100
AcDbLine
 10
-2.3591062996461
 20
-13.89793446034851
 30
0.0
 11
-2.465631764549103
 21
-13.91810501160651
 31
0.0
  0
LINE
  5
1E9E
330
19
100
AcDbEntity
  8
1
100
AcDbLine
 10
-2.258572685894101
 20
-13.87002520254351
 30
0.0
 11
-2.3591062996461
 21
-13.89793446034851
 31
0.0
  0
LINE
  5
1E9F
330
19
100
AcDbEntity
  8
1
100
AcDbLine
 10
-2.353259876921101
 20
-13.89524174875551
 30
0.0
 11
-2.345543027495104
 21
-13.8947018921525
 31
0.0
  0
LINE
  5
1EA0
330
19
100
AcDbEntity
  8
1
100
AcDbLine
 10
-2.360983583483101
 20
-13.89578160535851
 30
0.0
 11
-2.353259876921101
 21
-13.89524174875551
 31
0.0
  0
LINE
  5
1EA1
330
19
100
AcDbEntity
  8
1
100
AcDbLine
 10
-2.459536199216101
 20
-13.90267302703851
 30
0.0
 11
-2.360983583483101
 21
-13.89578160535851
 31
0.0
  0
LINE
  5
1EA2
330
19
100
AcDbEntity
  8
1
100
AcDbLine
 10
-2.5574208156171
 20
-13.90951787733651
 30
0.0
 11
-2.459536199216101
 21
-13.90267302703851
 31
0.0
  0
LINE
  5
1EA3
330
19
100
AcDbEntity
  8
1
100
AcDbLine
 10
-2.672670128939101
 20
-13.91757686927751
 30
0.0
 11
-2.5574208156171
 21
-13.90951787733651
 31
0.0
  0
LINE
  5
1EA4
330
19
100
AcDbEntity
  8
1
100
AcDbLine
 10
-2.781245877506101
 20
-13.9251691473995
 30
0.0
 11
-2.672670128939101
 21
-13.91757686927751
 31
0.0
  0
LINE
  5
1EA5
330
19
100
AcDbEntity
  8
1
100
AcDbLine
 10
-2.009408363630103
 20
-13.30308876948051
 30
0.0
 11
-1.8677106481851
 21
-13.21512885744051
 31
0.0
  0
LINE
  5
1EA6
330
19
100
AcDbEntity
  8
1
100
AcDbLine
 10
-2.153706505046101
 20
-13.38184354786851
 30
0.0
 11
-2.009408363630103
 21
-13.30308876948051
 31
0.0
  0
LINE
  5
1EA7
330
19
100
AcDbEntity
  8
1
100
AcDbLine
 10
-2.0574103156281
 20
-13.78764099921351
 30
0.0
 11
-2.1572967871701
 21
-13.83309895375551
 31
0.0
  0
LINE
  5
1EA8
330
19
100
AcDbEntity
  8
1
100
AcDbLine
 10
-1.8812879203221
 20
-13.68641095758651
 30
0.0
 11
-2.0574103156281
 21
-13.78764099921351
 31
0.0
  0
LINE
  5
1EA9
330
19
100
AcDbEntity
  8
1
100
AcDbLine
 10
-1.7199277959681
 20
-13.56653236317951
 30
0.0
 11
-1.8812879203221
 21
-13.68641095758651
 31
0.0
  0
LINE
  5
1EAA
330
19
100
AcDbEntity
  8
1
100
AcDbLine
 10
-1.812590560448104
 20
-13.85743435799151
 30
0.0
 11
-1.711908089702101
 21
-13.85039407931751
 31
0.0
  0
LINE
  5
1EAB
330
19
100
AcDbEntity
  8
1
100
AcDbLine
 10
-1.913273031194104
 20
-13.8644746366655
 30
0.0
 11
-1.812590560448104
 21
-13.85743435799151
 31
0.0
  0
LINE
  5
1EAC
330
19
100
AcDbEntity
  8
1
100
AcDbLine
 10
-2.129382957941102
 20
-13.87958662155351
 30
0.0
 11
-1.913273031194104
 21
-13.8644746366655
 31
0.0
  0
LINE
  5
1EAD
330
19
100
AcDbEntity
  8
1
100
AcDbLine
 10
-1.033742196440099
 20
-13.85039407931751
 30
0.0
 11
-0.9031630413051026
 21
-13.85039407931751
 31
0.0
  0
LINE
  5
1EAE
330
19
100
AcDbEntity
  8
1
100
AcDbLine
 10
-1.1743826272281
 20
-13.85039407931751
 30
0.0
 11
-1.033742196440099
 21
-13.85039407931751
 31
0.0
  0
LINE
  5
1EAF
330
19
100
AcDbEntity
  8
1
100
AcDbLine
 10
-1.4277792309741
 20
-13.85039407931751
 30
0.0
 11
-1.569843660338104
 21
-13.85039407931751
 31
0.0
  0
LINE
  5
1EB0
330
19
100
AcDbEntity
  8
1
100
AcDbLine
 10
-1.3341111817851
 20
-13.85039407931751
 30
0.0
 11
-1.4277792309741
 21
-13.85039407931751
 31
0.0
  0
LINE
  5
1EB1
330
19
100
AcDbEntity
  8
1
100
AcDbLine
 10
-1.240441275455101
 20
-13.85039407931751
 30
0.0
 11
-1.3341111817851
 21
-13.85039407931751
 31
0.0
  0
LINE
  5
1EB2
330
19
100
AcDbEntity
  8
1
100
AcDbLine
 10
-1.2074128799121
 20
-13.85039407931751
 30
0.0
 11
-1.240441275455101
 21
-13.85039407931751
 31
0.0
  0
LINE
  5
1EB3
330
19
100
AcDbEntity
  8
1
100
AcDbLine
 10
-1.1743826272281
 20
-13.85039407931751
 30
0.0
 11
-1.2074128799121
 21
-13.85039407931751
 31
0.0
  0
LINE
  5
1EB4
330
19
100
AcDbEntity
  8
1
100
AcDbLine
 10
-0.854103804650103
 20
-13.31019319094751
 30
0.0
 11
-0.9839131034121047
 21
-13.2042157254965
 31
0.0
  0
LINE
  5
1EB5
330
19
100
AcDbEntity
  8
1
100
AcDbLine
 10
-0.7425556304841054
 20
-13.40138009976051
 30
0.0
 11
-0.854103804650103
 21
-13.31019319094751
 31
0.0
  0
LINE
  5
1EB6
330
19
100
AcDbEntity
  8
1
100
AcDbLine
 10
-0.6367170220371055
 20
-13.48716987111351
 30
0.0
 11
-0.7425556304841054
 21
-13.40138009976051
 31
0.0
  0
LINE
  5
1EB7
330
19
100
AcDbEntity
  8
1
100
AcDbLine
 10
-0.5379015494241007
 20
-13.5654812213735
 30
0.0
 11
-0.6367170220371055
 21
-13.48716987111351
 31
0.0
  0
LINE
  5
1EB8
330
19
100
AcDbEntity
  8
1
100
AcDbLine
 10
-0.4785647516181017
 20
-13.61095274733051
 30
0.0
 11
-0.5379015494241007
 21
-13.5654812213735
 31
0.0
  0
LINE
  5
1EB9
330
19
100
AcDbEntity
  8
1
100
AcDbLine
 10
-0.6243060344481039
 20
-13.85039407931751
 30
0.0
 11
-0.4988483027631025
 21
-13.85039407931751
 31
0.0
  0
LINE
  5
1EBA
330
19
100
AcDbEntity
  8
1
100
AcDbLine
 10
-0.7731945998451053
 20
-13.85039407931751
 30
0.0
 11
-0.6243060344481039
 21
-13.85039407931751
 31
0.0
  0
LINE
  5
1EBB
330
19
100
AcDbEntity
  8
1
100
AcDbLine
 10
-0.9031630413051026
 20
-13.85039407931751
 30
0.0
 11
-0.7731945998451053
 21
-13.85039407931751
 31
0.0
  0
LINE
  5
1EBC
330
19
100
AcDbEntity
  8
1
100
AcDbLine
 10
-1.533626410841102
 20
-12.21096000446751
 30
0.0
 11
-1.7199277959681
 21
-12.03425703831351
 31
0.0
  0
LINE
  5
1EBD
330
19
100
AcDbEntity
  8
1
100
AcDbLine
 10
-1.727931787964099
 20
-12.47682502431651
 30
0.0
 11
-1.5893970693561
 21
-12.5651903645225
 31
0.0
  0
LINE
  5
1EBE
330
19
100
AcDbEntity
  8
1
100
AcDbLine
 10
-1.727931787964099
 20
-13.12396480574751
 30
0.0
 11
-1.5893970693561
 21
-13.03559946554151
 31
0.0
  0
LINE
  5
1EBF
330
19
100
AcDbEntity
  8
1
100
AcDbLine
 10
-1.569843660338104
 20
-11.75039632217451
 30
0.0
 11
-1.711908089702101
 21
-11.75039632217451
 31
0.0
  0
LINE
  5
1EC0
330
19
100
AcDbEntity
  8
1
100
AcDbLine
 10
-2.009408363630103
 20
-12.29770106058351
 30
0.0
 11
-1.8677106481851
 21
-12.38566111548051
 31
0.0
  0
LINE
  5
1EC1
330
19
100
AcDbEntity
  8
1
100
AcDbLine
 10
-1.8677106481851
 20
-12.38566111548051
 30
0.0
 11
-1.727931787964099
 21
-12.47682502431651
 31
0.0
  0
LINE
  5
1EC2
330
19
100
AcDbEntity
  8
1
100
AcDbLine
 10
-2.1572967871701
 20
-11.7676908763085
 30
0.0
 11
-2.258572685894101
 21
-11.7307650560915
 31
0.0
  0
LINE
  5
1EC3
330
19
100
AcDbEntity
  8
1
100
AcDbLine
 10
-2.301280071758103
 20
-12.15539863145751
 30
0.0
 11
-2.153706505046101
 21
-12.21894628219551
 31
0.0
  0
LINE
  5
1EC4
330
19
100
AcDbEntity
  8
1
100
AcDbLine
 10
-2.345569027469103
 20
-11.7060857950565
 30
0.0
 11
-2.129315386580103
 21
-11.7212080656485
 31
0.0
  0
LINE
  5
1EC5
330
19
100
AcDbEntity
  8
1
100
AcDbLine
 10
-2.6919379668141
 20
-11.6657089782905
 30
0.0
 11
-2.793591150875102
 21
-11.66749369079151
 31
0.0
  0
LINE
  5
1EC6
330
19
100
AcDbEntity
  8
1
100
AcDbLine
 10
-2.5851876449931
 20
-11.66962711722951
 30
0.0
 11
-2.6919379668141
 21
-11.6657089782905
 31
0.0
  0
LINE
  5
1EC7
330
19
100
AcDbEntity
  8
1
100
AcDbLine
 10
-2.465631764549103
 20
-11.68268524702851
 30
0.0
 11
-2.5851876449931
 21
-11.66962711722951
 31
0.0
  0
LINE
  5
1EC8
330
19
100
AcDbEntity
  8
1
100
AcDbLine
 10
-2.3591062996461
 20
-11.7028555125725
 30
0.0
 11
-2.465631764549103
 21
-11.68268524702851
 31
0.0
  0
LINE
  5
1EC9
330
19
100
AcDbEntity
  8
1
100
AcDbLine
 10
-2.258572685894101
 20
-11.7307650560915
 30
0.0
 11
-2.3591062996461
 21
-11.7028555125725
 31
0.0
  0
LINE
  5
1ECA
330
19
100
AcDbEntity
  8
1
100
AcDbLine
 10
-2.451054493412101
 20
-12.11195410347351
 30
0.0
 11
-2.301280071758103
 21
-12.15539863145751
 31
0.0
  0
LINE
  5
1ECB
330
19
100
AcDbEntity
  8
1
100
AcDbLine
 10
-2.604168340298101
 20
-12.08666941447251
 30
0.0
 11
-2.451054493412101
 21
-12.11195410347351
 31
0.0
  0
LINE
  5
1ECC
330
19
100
AcDbEntity
  8
1
100
AcDbLine
 10
-2.760086755808101
 20
-12.0769194242225
 30
0.0
 11
-2.604168340298101
 21
-12.08666941447251
 31
0.0
  0
LINE
  5
1ECD
330
19
100
AcDbEntity
  8
1
100
AcDbLine
 10
-2.672670128939101
 20
-11.6832129607865
 30
0.0
 11
-2.781245877506101
 21
-11.6756206826645
 31
0.0
  0
LINE
  5
1ECE
330
19
100
AcDbEntity
  8
1
100
AcDbLine
 10
-2.5574208156171
 20
-11.6912723812985
 30
0.0
 11
-2.672670128939101
 21
-11.6832129607865
 31
0.0
  0
LINE
  5
1ECF
330
19
100
AcDbEntity
  8
1
100
AcDbLine
 10
-2.459536199216101
 20
-11.69811723159651
 30
0.0
 11
-2.5574208156171
 21
-11.6912723812985
 31
0.0
  0
LINE
  5
1ED0
330
19
100
AcDbEntity
  8
1
100
AcDbLine
 10
-2.360983583483101
 20
-11.70500779613451
 30
0.0
 11
-2.459536199216101
 21
-11.69811723159651
 31
0.0
  0
LINE
  5
1ED1
330
19
100
AcDbEntity
  8
1
100
AcDbLine
 10
-2.353259876921101
 20
-11.70554850987951
 30
0.0
 11
-2.360983583483101
 21
-11.70500779613451
 31
0.0
  0
LINE
  5
1ED2
330
19
100
AcDbEntity
  8
1
100
AcDbLine
 10
-2.345543027495104
 20
-11.70608836648251
 30
0.0
 11
-2.353259876921101
 21
-11.70554850987951
 31
0.0
  0
LINE
  5
1ED3
330
19
100
AcDbEntity
  8
1
100
AcDbLine
 10
-2.0574103156281
 20
-11.8131485451365
 30
0.0
 11
-2.1572967871701
 21
-11.7676908763085
 31
0.0
  0
LINE
  5
1ED4
330
19
100
AcDbEntity
  8
1
100
AcDbLine
 10
-1.8812879203221
 20
-11.91437944390551
 30
0.0
 11
-2.0574103156281
 21
-11.8131485451365
 31
0.0
  0
LINE
  5
1ED5
330
19
100
AcDbEntity
  8
1
100
AcDbLine
 10
-1.7199277959681
 20
-12.03425703831351
 30
0.0
 11
-1.8812879203221
 21
-11.91437944390551
 31
0.0
  0
LINE
  5
1ED6
330
19
100
AcDbEntity
  8
1
100
AcDbLine
 10
-2.153706505046101
 20
-12.21894628219551
 30
0.0
 11
-2.009408363630103
 21
-12.29770106058351
 31
0.0
  0
LINE
  5
1ED7
330
19
100
AcDbEntity
  8
1
100
AcDbLine
 10
-1.8124937034021
 20
-11.74336290063651
 30
0.0
 11
-1.711908089702101
 21
-11.75039632217451
 31
0.0
  0
LINE
  5
1ED8
330
19
100
AcDbEntity
  8
1
100
AcDbLine
 10
-1.913077459961099
 20
-11.73632862195651
 30
0.0
 11
-1.8124937034021
 21
-11.74336290063651
 31
0.0
  0
LINE
  5
1ED9
330
19
100
AcDbEntity
  8
1
100
AcDbLine
 10
-2.129315386580103
 20
-11.7212080656485
 30
0.0
 11
-1.913077459961099
 21
-11.73632862195651
 31
0.0
  0
LINE
  5
1EDA
330
19
100
AcDbEntity
  8
1
100
AcDbLine
 10
-1.373690285063103
 20
-12.4147553721005
 30
0.0
 11
-1.533626410841102
 21
-12.21096000446751
 31
0.0
  0
LINE
  5
1EDB
330
19
100
AcDbEntity
  8
1
100
AcDbLine
 10
-0.854103804650103
 20
-12.29059663911651
 30
0.0
 11
-0.9839131034121047
 21
-12.39657410456751
 31
0.0
  0
LINE
  5
1EDC
330
19
100
AcDbEntity
  8
1
100
AcDbLine
 10
-0.9839131034121047
 20
-12.39657410456751
 30
0.0
 11
-1.1168731133091
 21
-12.5078532790025
 31
0.0
  0
LINE
  5
1EDD
330
19
100
AcDbEntity
  8
1
100
AcDbLine
 10
-1.2631282527681
 20
-12.6019483277645
 30
0.0
 11
-1.373690285063103
 21
-12.4147553721005
 31
0.0
  0
LINE
  5
1EDE
330
19
100
AcDbEntity
  8
1
100
AcDbLine
 10
-1.1743826272281
 20
-12.8003821293305
 30
0.0
 11
-1.2631282527681
 21
-12.6019483277645
 31
0.0
  0
LINE
  5
1EDF
330
19
100
AcDbEntity
  8
1
100
AcDbLine
 10
-1.311396633071103
 20
-12.72446077668051
 30
0.0
 11
-1.174377484376103
 21
-12.80039470074651
 31
0.0
  0
LINE
  5
1EE0
330
19
100
AcDbEntity
  8
1
100
AcDbLine
 10
-1.4498846374401
 20
-12.6473704251995
 30
0.0
 11
-1.311396633071103
 21
-12.72446077668051
 31
0.0
  0
LINE
  5
1EE1
330
19
100
AcDbEntity
  8
1
100
AcDbLine
 10
-1.5893970693561
 20
-12.5651903645225
 30
0.0
 11
-1.4498846374401
 21
-12.6473704251995
 31
0.0
  0
LINE
  5
1EE2
330
19
100
AcDbEntity
  8
1
100
AcDbLine
 10
-1.311396633071103
 20
-12.87632919624051
 30
0.0
 11
-1.174377484376103
 21
-12.8003951293175
 31
0.0
  0
LINE
  5
1EE3
330
19
100
AcDbEntity
  8
1
100
AcDbLine
 10
-1.4498846374401
 20
-12.95341940486451
 30
0.0
 11
-1.311396633071103
 21
-12.87632919624051
 31
0.0
  0
LINE
  5
1EE4
330
19
100
AcDbEntity
  8
1
100
AcDbLine
 10
-1.5893970693561
 20
-13.03559946554151
 30
0.0
 11
-1.4498846374401
 21
-12.95341940486451
 31
0.0
  0
LINE
  5
1EE5
330
19
100
AcDbEntity
  8
1
100
AcDbLine
 10
-1.2631282527681
 20
-12.9988415022995
 30
0.0
 11
-1.373690285063103
 21
-13.18603445796351
 31
0.0
  0
LINE
  5
1EE6
330
19
100
AcDbEntity
  8
1
100
AcDbLine
 10
-1.1743826272281
 20
-12.8004077007335
 30
0.0
 11
-1.2631282527681
 21
-12.9988415022995
 31
0.0
  0
LINE
  5
1EE7
330
19
100
AcDbEntity
  8
1
100
AcDbLine
 10
-1.1458285129251
 20
-12.5327228255615
 30
0.0
 11
-1.1743826272281
 21
-12.55736794377351
 31
0.0
  0
LINE
  5
1EE8
330
19
100
AcDbEntity
  8
1
100
AcDbLine
 10
-1.1168731133091
 20
-12.5078532790025
 30
0.0
 11
-1.1458285129251
 21
-12.5327228255615
 31
0.0
  0
LINE
  5
1EE9
330
19
100
AcDbEntity
  8
1
100
AcDbLine
 10
-1.2667495348611
 20
-12.63439929531351
 30
0.0
 11
-1.254700261196099
 21
-12.6186464539235
 31
0.0
  0
LINE
  5
1EEA
330
19
100
AcDbEntity
  8
1
100
AcDbLine
 10
-1.267163105876105
 20
-12.65023613661951
 30
0.0
 11
-1.2667495348611
 21
-12.63439929531351
 31
0.0
  0
LINE
  5
1EEB
330
19
100
AcDbEntity
  8
1
100
AcDbLine
 10
-1.2640348232901
 20
-12.6661045493225
 30
0.0
 11
-1.267163105876105
 21
-12.65023613661951
 31
0.0
  0
LINE
  5
1EEC
330
19
100
AcDbEntity
  8
1
100
AcDbLine
 10
-1.249519837805104
 20
-12.72147563680851
 30
0.0
 11
-1.2640348232901
 21
-12.6661045493225
 31
0.0
  0
LINE
  5
1EED
330
19
100
AcDbEntity
  8
1
100
AcDbLine
 10
-1.223898577712104
 20
-12.77273344269351
 30
0.0
 11
-1.249519837805104
 21
-12.72147563680851
 31
0.0
  0
LINE
  5
1EEE
330
19
100
AcDbEntity
  8
1
100
AcDbLine
 10
-1.266507392246099
 20
-12.95978754135351
 30
0.0
 11
-1.254701975480103
 21
-12.98214909042051
 31
0.0
  0
LINE
  5
1EEF
330
19
100
AcDbEntity
  8
1
100
AcDbLine
 10
-1.264076394677102
 20
-12.93481242347151
 30
0.0
 11
-1.266507392246099
 21
-12.95978754135351
 31
0.0
  0
LINE
  5
1EF0
330
19
100
AcDbEntity
  8
1
100
AcDbLine
 10
-1.2496738376511
 20
-12.87935362178751
 30
0.0
 11
-1.264076394677102
 21
-12.93481242347151
 31
0.0
  0
LINE
  5
1EF1
330
19
100
AcDbEntity
  8
1
100
AcDbLine
 10
-1.223902006280104
 20
-12.82805810165451
 30
0.0
 11
-1.2496738376511
 21
-12.87935362178751
 31
0.0
  0
LINE
  5
1EF2
330
19
100
AcDbEntity
  8
1
100
AcDbLine
 10
-1.240027847297102
 20
-12.79410999274551
 30
0.0
 11
-1.223933149106102
 21
-12.77270829986151
 31
0.0
  0
LINE
  5
1EF3
330
19
100
AcDbEntity
  8
1
100
AcDbLine
 10
-1.2371469930351
 20
-12.81698768415351
 30
0.0
 11
-1.240027847297102
 21
-12.79410999274551
 31
0.0
  0
LINE
  5
1EF4
330
19
100
AcDbEntity
  8
1
100
AcDbLine
 10
-1.2310149991671
 20
-12.8230941066185
 30
0.0
 11
-1.2371469930351
 21
-12.81698768415351
 31
0.0
  0
LINE
  5
1EF5
330
19
100
AcDbEntity
  8
1
100
AcDbLine
 10
-1.223934863390097
 20
-12.82808324448651
 30
0.0
 11
-1.2310149991671
 21
-12.8230941066185
 31
0.0
  0
LINE
  5
1EF6
330
19
100
AcDbEntity
  8
1
100
AcDbLine
 10
-1.2144618728631
 20
-12.5878161990395
 30
0.0
 11
-1.1743826272281
 21
-12.55682165860551
 31
0.0
  0
LINE
  5
1EF7
330
19
100
AcDbEntity
  8
1
100
AcDbLine
 10
-1.254620546990102
 20
-12.61870788243351
 30
0.0
 11
-1.2144618728631
 21
-12.5878161990395
 31
0.0
  0
LINE
  5
1EF8
330
19
100
AcDbEntity
  8
1
100
AcDbLine
 10
-1.2144618728631
 20
-13.01297363102451
 30
0.0
 11
-1.1743826272281
 21
-13.0439687428865
 31
0.0
  0
LINE
  5
1EF9
330
19
100
AcDbEntity
  8
1
100
AcDbLine
 10
-1.254620546990102
 20
-12.9820825190585
 30
0.0
 11
-1.2144618728631
 21
-13.01297363102451
 31
0.0
  0
LINE
  5
1EFA
330
19
100
AcDbEntity
  8
1
100
AcDbLine
 10
-1.1458285129251
 20
-13.0680670045025
 30
0.0
 11
-1.1743826272281
 21
-13.04342188629051
 31
0.0
  0
LINE
  5
1EFB
330
19
100
AcDbEntity
  8
1
100
AcDbLine
 10
-1.1168731133091
 20
-13.0929365510615
 30
0.0
 11
-1.1458285129251
 21
-13.0680670045025
 31
0.0
  0
LINE
  5
1EFC
330
19
100
AcDbEntity
  8
1
100
AcDbLine
 10
-1.033742196440099
 20
-11.75039632217451
 30
0.0
 11
-0.9031630413051026
 21
-11.75039632217451
 31
0.0
  0
LINE
  5
1EFD
330
19
100
AcDbEntity
  8
1
100
AcDbLine
 10
-1.1743826272281
 20
-11.75039632217451
 30
0.0
 11
-1.033742196440099
 21
-11.75039632217451
 31
0.0
  0
LINE
  5
1EFE
330
19
100
AcDbEntity
  8
1
100
AcDbLine
 10
-1.4277792309741
 20
-11.75039632217451
 30
0.0
 11
-1.569843660338104
 21
-11.75039632217451
 31
0.0
  0
LINE
  5
1EFF
330
19
100
AcDbEntity
  8
1
100
AcDbLine
 10
-1.3341111817851
 20
-11.75039632217451
 30
0.0
 11
-1.4277792309741
 21
-11.75039632217451
 31
0.0
  0
LINE
  5
1F00
330
19
100
AcDbEntity
  8
1
100
AcDbLine
 10
-1.240441275455101
 20
-11.75039632217451
 30
0.0
 11
-1.3341111817851
 21
-11.75039632217451
 31
0.0
  0
LINE
  5
1F01
330
19
100
AcDbEntity
  8
1
100
AcDbLine
 10
-1.2074128799121
 20
-11.75039632217451
 30
0.0
 11
-1.240441275455101
 21
-11.75039632217451
 31
0.0
  0
LINE
  5
1F02
330
19
100
AcDbEntity
  8
1
100
AcDbLine
 10
-1.1743826272281
 20
-11.75039632217451
 30
0.0
 11
-1.2074128799121
 21
-11.75039632217451
 31
0.0
  0
LINE
  5
1F03
330
19
100
AcDbEntity
  8
1
100
AcDbLine
 10
-0.6243060344481039
 20
-11.75039632217451
 30
0.0
 11
-0.4988483027631025
 21
-11.75039632217451
 31
0.0
  0
LINE
  5
1F04
330
19
100
AcDbEntity
  8
1
100
AcDbLine
 10
-0.7731945998451053
 20
-11.75039632217451
 30
0.0
 11
-0.6243060344481039
 21
-11.75039632217451
 31
0.0
  0
LINE
  5
1F05
330
19
100
AcDbEntity
  8
1
100
AcDbLine
 10
-0.9031630413051026
 20
-11.75039632217451
 30
0.0
 11
-0.7731945998451053
 21
-11.75039632217451
 31
0.0
  0
LINE
  5
1F06
330
19
100
AcDbEntity
  8
1
100
AcDbLine
 10
-0.7425556304841054
 20
-12.19940987316051
 30
0.0
 11
-0.854103804650103
 21
-12.29059663911651
 31
0.0
  0
LINE
  5
1F07
330
19
100
AcDbEntity
  8
1
100
AcDbLine
 10
-0.6367170220371055
 20
-12.1136195303795
 30
0.0
 11
-0.7425556304841054
 21
-12.19940987316051
 31
0.0
  0
LINE
  5
1F08
330
19
100
AcDbEntity
  8
1
100
AcDbLine
 10
-0.5379015494241007
 20
-12.03530903726151
 30
0.0
 11
-0.6367170220371055
 21
-12.1136195303795
 31
0.0
  0
LINE
  5
1F09
330
19
100
AcDbEntity
  8
1
100
AcDbLine
 10
-0.4785647516181017
 20
-11.98983751130451
 30
0.0
 11
-0.5379015494241007
 21
-12.03530903726151
 31
0.0
  0
LINE
  5
1F0A
330
19
100
AcDbEntity
  8
1
100
AcDbLine
 10
0.7745325667118959
 20
-13.85039407931751
 30
0.0
 11
0.5542700726888992
 21
-13.85039407931751
 31
0.0
  0
LINE
  5
1F0B
330
19
100
AcDbEntity
  8
1
100
AcDbLine
 10
0.7745325667118959
 20
-13.75688260140051
 30
0.0
 11
0.5542700726888992
 21
-13.75688260140051
 31
0.0
  0
LINE
  5
1F0C
330
19
100
AcDbEntity
  8
1
100
AcDbLine
 10
0.1979211433238959
 20
-13.85039407931751
 30
0.0
 11
0.0702331281548983
 21
-13.85039407931751
 31
0.0
  0
LINE
  5
1F0D
330
19
100
AcDbEntity
  8
1
100
AcDbLine
 10
0.1979211433238959
 20
-13.75688260140051
 30
0.0
 11
0.0702331281548983
 21
-13.75688260140051
 31
0.0
  0
LINE
  5
1F0E
330
19
100
AcDbEntity
  8
1
100
AcDbLine
 10
-0.3602201556771032
 20
-13.69802080311951
 30
0.0
 11
-0.4235952351591017
 21
-13.6518839921135
 31
0.0
  0
LINE
  5
1F0F
330
19
100
AcDbEntity
  8
1
100
AcDbLine
 10
-0.3082542076431025
 20
-13.72741191658551
 30
0.0
 11
-0.3602201556771032
 21
-13.69802080311951
 31
0.0
  0
LINE
  5
1F10
330
19
100
AcDbEntity
  8
1
100
AcDbLine
 10
-0.2797053790491031
 20
-13.7351386231445
 30
0.0
 11
-0.3082542076431025
 21
-13.72741191658551
 31
0.0
  0
LINE
  5
1F11
330
19
100
AcDbEntity
  8
1
100
AcDbLine
 10
-0.2555616889071004
 20
-13.74041761786551
 30
0.0
 11
-0.2797053790491031
 21
-13.7351386231445
 31
0.0
  0
LINE
  5
1F12
330
19
100
AcDbEntity
  8
1
100
AcDbLine
 10
-0.2320425695691028
 20
-13.74921546621051
 30
0.0
 11
-0.2555616889071004
 21
-13.74041761786551
 31
0.0
  0
LINE
  5
1F13
330
19
100
AcDbEntity
  8
1
100
AcDbLine
 10
-0.2088280213551048
 20
-13.7642477368925
 30
0.0
 11
-0.2320425695691028
 21
-13.74921546621051
 31
0.0
  0
LINE
  5
1F14
330
19
100
AcDbEntity
  8
1
100
AcDbLine
 10
-0.2022807421881012
 20
-13.77491944050651
 30
0.0
 11
-0.2088280213551048
 21
-13.7642477368925
 31
0.0
  0
LINE
  5
1F15
330
19
100
AcDbEntity
  8
1
100
AcDbLine
 10
-0.1962041768360993
 20
-13.7890562835125
 30
0.0
 11
-0.2022807421881012
 21
-13.77491944050651
 31
0.0
  0
LINE
  5
1F16
330
19
100
AcDbEntity
  8
1
100
AcDbLine
 10
-0.1958166057951036
 20
-13.7950619917925
 30
0.0
 11
-0.1962041768360993
 21
-13.7890562835125
 31
0.0
  0
LINE
  5
1F17
330
19
100
AcDbEntity
  8
1
100
AcDbLine
 10
-0.1961920339911014
 20
-13.80290855537451
 30
0.0
 11
-0.1958166057951036
 21
-13.7950619917925
 31
0.0
  0
LINE
  5
1F18
330
19
100
AcDbEntity
  8
1
100
AcDbLine
 10
-0.196219748249101
 20
-13.8266512459175
 30
0.0
 11
-0.1961920339911014
 21
-13.80290855537451
 31
0.0
  0
LINE
  5
1F19
330
19
100
AcDbEntity
  8
1
100
AcDbLine
 10
-0.1962457482231041
 20
-13.85039407931751
 30
0.0
 11
-0.196219748249101
 21
-13.8266512459175
 31
0.0
  0
LINE
  5
1F1A
330
19
100
AcDbEntity
  8
1
100
AcDbLine
 10
-0.194311321586099
 20
-13.85039407931751
 30
0.0
 11
-0.1124434034541011
 21
-13.85039407931751
 31
0.0
  0
LINE
  5
1F1B
330
19
100
AcDbEntity
  8
1
100
AcDbLine
 10
-0.2803645212470993
 20
-13.85039407931751
 30
0.0
 11
-0.194311321586099
 21
-13.85039407931751
 31
0.0
  0
LINE
  5
1F1C
330
19
100
AcDbEntity
  8
1
100
AcDbLine
 10
-0.3327007546251011
 20
-13.85039407931751
 30
0.0
 11
-0.2803645212470993
 21
-13.85039407931751
 31
0.0
  0
LINE
  5
1F1D
330
19
100
AcDbEntity
  8
1
100
AcDbLine
 10
-0.4053291105681005
 20
-13.85039407931751
 30
0.0
 11
-0.3327007546251011
 21
-13.85039407931751
 31
0.0
  0
LINE
  5
1F1E
330
19
100
AcDbEntity
  8
1
100
AcDbLine
 10
-0.2002044585501022
 20
-13.75688260140051
 30
0.0
 11
-0.2185535830581031
 21
-13.75688260140051
 31
0.0
  0
LINE
  5
1F1F
330
19
100
AcDbEntity
  8
1
100
AcDbLine
 10
-0.1827983330991039
 20
-13.75688260140051
 30
0.0
 11
-0.2002044585501022
 21
-13.75688260140051
 31
0.0
  0
LINE
  5
1F20
330
19
100
AcDbEntity
  8
1
100
AcDbLine
 10
0.0702331281548983
 20
-13.85039407931751
 30
0.0
 11
-0.0195124963851008
 21
-13.85039407931751
 31
0.0
  0
LINE
  5
1F21
330
19
100
AcDbEntity
  8
1
100
AcDbLine
 10
0.0702331281548983
 20
-13.75688260140051
 30
0.0
 11
-0.0195124963851008
 21
-13.75688260140051
 31
0.0
  0
LINE
  5
1F22
330
19
100
AcDbEntity
  8
1
100
AcDbLine
 10
-0.0195124963851008
 20
-13.85039407931751
 30
0.0
 11
-0.1124434034541011
 21
-13.85039407931751
 31
0.0
  0
LINE
  5
1F23
330
19
100
AcDbEntity
  8
1
100
AcDbLine
 10
-0.0195124963851008
 20
-13.75688260140051
 30
0.0
 11
-0.1827983330991039
 21
-13.75688260140051
 31
0.0
  0
LINE
  5
1F24
330
19
100
AcDbEntity
  8
1
100
AcDbLine
 10
0.3605442664148963
 20
-13.85039407931751
 30
0.0
 11
0.1979211433238959
 21
-13.85039407931751
 31
0.0
  0
LINE
  5
1F25
330
19
100
AcDbEntity
  8
1
100
AcDbLine
 10
0.5542700726888992
 20
-13.85039407931751
 30
0.0
 11
0.3605442664148963
 21
-13.85039407931751
 31
0.0
  0
LINE
  5
1F26
330
19
100
AcDbEntity
  8
1
100
AcDbLine
 10
0.3605442664148963
 20
-13.75688260140051
 30
0.0
 11
0.1979211433238959
 21
-13.75688260140051
 31
0.0
  0
LINE
  5
1F27
330
19
100
AcDbEntity
  8
1
100
AcDbLine
 10
0.5542700726888992
 20
-13.75688260140051
 30
0.0
 11
0.3605442664148963
 21
-13.75688260140051
 31
0.0
  0
LINE
  5
1F28
330
19
100
AcDbEntity
  8
1
100
AcDbLine
 10
1.864022334363896
 20
-13.75688260140051
 30
0.0
 11
0.774048138624897
 21
-13.75688260140051
 31
0.0
  0
LINE
  5
1F29
330
19
100
AcDbEntity
  8
1
100
AcDbLine
 10
1.864022334363896
 20
-13.85039407931751
 30
0.0
 11
0.774048138624897
 21
-13.85039407931751
 31
0.0
  0
LINE
  5
1F2A
330
19
100
AcDbEntity
  8
1
100
AcDbLine
 10
0.7745325667118959
 20
-11.75039632217451
 30
0.0
 11
0.5542700726888992
 21
-11.75039632217451
 31
0.0
  0
LINE
  5
1F2B
330
19
100
AcDbEntity
  8
1
100
AcDbLine
 10
0.7745325667118959
 20
-11.8439078000915
 30
0.0
 11
0.5542700726888992
 21
-11.8439078000915
 31
0.0
  0
LINE
  5
1F2C
330
19
100
AcDbEntity
  8
1
100
AcDbLine
 10
0.1979211433238959
 20
-11.75039632217451
 30
0.0
 11
0.0702331281548983
 21
-11.75039632217451
 31
0.0
  0
LINE
  5
1F2D
330
19
100
AcDbEntity
  8
1
100
AcDbLine
 10
0.1979211433238959
 20
-11.8439078000915
 30
0.0
 11
0.0702331281548983
 21
-11.8439078000915
 31
0.0
  0
LINE
  5
1F2E
330
19
100
AcDbEntity
  8
1
100
AcDbLine
 10
-0.2002044585501022
 20
-11.8439078000915
 30
0.0
 11
-0.2185535830581031
 21
-11.8439078000915
 31
0.0
  0
LINE
  5
1F2F
330
19
100
AcDbEntity
  8
1
100
AcDbLine
 10
-0.1827983330991039
 20
-11.8439078000915
 30
0.0
 11
-0.2002044585501022
 21
-11.8439078000915
 31
0.0
  0
LINE
  5
1F30
330
19
100
AcDbEntity
  8
1
100
AcDbLine
 10
-0.194311321586099
 20
-11.75039632217451
 30
0.0
 11
-0.1124434034541011
 21
-11.75039632217451
 31
0.0
  0
LINE
  5
1F31
330
19
100
AcDbEntity
  8
1
100
AcDbLine
 10
-0.2803645212470993
 20
-11.75039632217451
 30
0.0
 11
-0.194311321586099
 21
-11.75039632217451
 31
0.0
  0
LINE
  5
1F32
330
19
100
AcDbEntity
  8
1
100
AcDbLine
 10
-0.3327007546251011
 20
-11.75039632217451
 30
0.0
 11
-0.2803645212470993
 21
-11.75039632217451
 31
0.0
  0
LINE
  5
1F33
330
19
100
AcDbEntity
  8
1
100
AcDbLine
 10
-0.4053291105681005
 20
-11.75039632217451
 30
0.0
 11
-0.3327007546251011
 21
-11.75039632217451
 31
0.0
  0
LINE
  5
1F34
330
19
100
AcDbEntity
  8
1
100
AcDbLine
 10
-0.3602201556771032
 20
-11.9027694555155
 30
0.0
 11
-0.4235952351591017
 21
-11.94890540937951
 31
0.0
  0
LINE
  5
1F35
330
19
100
AcDbEntity
  8
1
100
AcDbLine
 10
-0.3082542076431025
 20
-11.87337805633551
 30
0.0
 11
-0.3602201556771032
 21
-11.9027694555155
 31
0.0
  0
LINE
  5
1F36
330
19
100
AcDbEntity
  8
1
100
AcDbLine
 10
-0.2797053790491031
 20
-11.86565077834851
 30
0.0
 11
-0.3082542076431025
 21
-11.87337805633551
 31
0.0
  0
LINE
  5
1F37
330
19
100
AcDbEntity
  8
1
100
AcDbLine
 10
-0.2555616889071004
 20
-11.86037178362751
 30
0.0
 11
-0.2797053790491031
 21
-11.86565077834851
 31
0.0
  0
LINE
  5
1F38
330
19
100
AcDbEntity
  8
1
100
AcDbLine
 10
-0.2320425695691028
 20
-11.8515743638535
 30
0.0
 11
-0.2555616889071004
 21
-11.86037178362751
 31
0.0
  0
LINE
  5
1F39
330
19
100
AcDbEntity
  8
1
100
AcDbLine
 10
-0.2088280213551048
 20
-11.83654209317151
 30
0.0
 11
-0.2320425695691028
 21
-11.8515743638535
 31
0.0
  0
LINE
  5
1F3A
330
19
100
AcDbEntity
  8
1
100
AcDbLine
 10
-0.2022807421881012
 20
-11.8258709609855
 30
0.0
 11
-0.2088280213551048
 21
-11.83654209317151
 31
0.0
  0
LINE
  5
1F3B
330
19
100
AcDbEntity
  8
1
100
AcDbLine
 10
-0.1962041768360993
 20
-11.8117339751225
 30
0.0
 11
-0.2022807421881012
 21
-11.8258709609855
 31
0.0
  0
LINE
  5
1F3C
330
19
100
AcDbEntity
  8
1
100
AcDbLine
 10
-0.1958166057951036
 20
-11.8057275525575
 30
0.0
 11
-0.1962041768360993
 21
-11.8117339751225
 31
0.0
  0
LINE
  5
1F3D
330
19
100
AcDbEntity
  8
1
100
AcDbLine
 10
-0.1961920339911014
 20
-11.79788170326051
 30
0.0
 11
-0.1958166057951036
 21
-11.8057275525575
 31
0.0
  0
LINE
  5
1F3E
330
19
100
AcDbEntity
  8
1
100
AcDbLine
 10
-0.196219748249101
 20
-11.7741385841465
 30
0.0
 11
-0.1961920339911014
 21
-11.79788170326051
 31
0.0
  0
LINE
  5
1F3F
330
19
100
AcDbEntity
  8
1
100
AcDbLine
 10
-0.1962457482231041
 20
-11.75039632217451
 30
0.0
 11
-0.196219748249101
 21
-11.7741385841465
 31
0.0
  0
LINE
  5
1F40
330
19
100
AcDbEntity
  8
1
100
AcDbLine
 10
0.0702331281548983
 20
-11.75039632217451
 30
0.0
 11
-0.0195124963851008
 21
-11.75039632217451
 31
0.0
  0
LINE
  5
1F41
330
19
100
AcDbEntity
  8
1
100
AcDbLine
 10
0.0702331281548983
 20
-11.8439078000915
 30
0.0
 11
-0.0195124963851008
 21
-11.8439078000915
 31
0.0
  0
LINE
  5
1F42
330
19
100
AcDbEntity
  8
1
100
AcDbLine
 10
-0.0195124963851008
 20
-11.8439078000915
 30
0.0
 11
-0.1827983330991039
 21
-11.8439078000915
 31
0.0
  0
LINE
  5
1F43
330
19
100
AcDbEntity
  8
1
100
AcDbLine
 10
-0.0195124963851008
 20
-11.75039632217451
 30
0.0
 11
-0.1124434034541011
 21
-11.75039632217451
 31
0.0
  0
LINE
  5
1F44
330
19
100
AcDbEntity
  8
1
100
AcDbLine
 10
0.3605442664148963
 20
-11.75039632217451
 30
0.0
 11
0.1979211433238959
 21
-11.75039632217451
 31
0.0
  0
LINE
  5
1F45
330
19
100
AcDbEntity
  8
1
100
AcDbLine
 10
0.5542700726888992
 20
-11.75039632217451
 30
0.0
 11
0.3605442664148963
 21
-11.75039632217451
 31
0.0
  0
LINE
  5
1F46
330
19
100
AcDbEntity
  8
1
100
AcDbLine
 10
0.3605442664148963
 20
-11.8439078000915
 30
0.0
 11
0.1979211433238959
 21
-11.8439078000915
 31
0.0
  0
LINE
  5
1F47
330
19
100
AcDbEntity
  8
1
100
AcDbLine
 10
0.5542700726888992
 20
-11.8439078000915
 30
0.0
 11
0.3605442664148963
 21
-11.8439078000915
 31
0.0
  0
LINE
  5
1F48
330
19
100
AcDbEntity
  8
1
100
AcDbLine
 10
1.864022334363896
 20
-11.8439078000915
 30
0.0
 11
0.774048138624897
 21
-11.8439078000915
 31
0.0
  0
LINE
  5
1F49
330
19
100
AcDbEntity
  8
1
100
AcDbLine
 10
1.864022334363896
 20
-11.75039632217451
 30
0.0
 11
0.774048138624897
 21
-11.75039632217451
 31
0.0
  0
LINE
  5
1F4A
330
19
100
AcDbEntity
  8
4
100
AcDbLine
 10
3.531812380857896
 20
-12.8003951293175
 30
0.0
 11
4.743252597987896
 21
-12.8003951293175
 31
0.0
  0
LINE
  5
1F4D
330
19
100
AcDbEntity
  8
1
100
AcDbLine
 10
3.814280241246894
 20
-13.3981526744165
 30
0.0
 11
3.859942909869895
 21
-13.07532442581651
 31
0.0
  0
LINE
  5
1F4E
330
19
100
AcDbEntity
  8
1
100
AcDbLine
 10
4.173941024442894
 20
-13.2471312540095
 30
0.0
 11
4.173932310165898
 21
-13.16347776623451
 31
0.0
  0
LINE
  5
1F4F
330
19
100
AcDbEntity
  8
1
100
AcDbLine
 10
3.961888522209897
 20
-11.84283237259551
 30
0.0
 11
3.961204951464898
 21
-13.7584623141065
 31
0.0
  0
LINE
  5
1F53
330
19
100
AcDbEntity
  8
1
100
AcDbLine
 10
3.732834608406899
 20
-13.8465792259895
 30
0.0
 11
3.703242352284899
 21
-13.84935979463751
 31
0.0
  0
LINE
  5
1F54
330
19
100
AcDbEntity
  8
1
100
AcDbLine
 10
3.703242352284899
 20
-13.84935979463751
 30
0.0
 11
3.673567096245899
 21
-13.85039407931751
 31
0.0
  0
LINE
  5
1F55
330
19
100
AcDbEntity
  8
1
100
AcDbLine
 10
3.768617572623896
 20
-13.72098235158651
 30
0.0
 11
3.814280241246894
 21
-13.3981526744165
 31
0.0
  0
LINE
  5
1F56
330
19
100
AcDbEntity
  8
1
100
AcDbLine
 10
3.766745574495896
 20
-13.73381762446551
 30
0.0
 11
3.768617572623896
 21
-13.72098235158651
 31
0.0
  0
LINE
  5
1F57
330
19
100
AcDbEntity
  8
1
100
AcDbLine
 10
3.765032576208897
 20
-13.74695446847151
 30
0.0
 11
3.766745574495896
 21
-13.73381762446551
 31
0.0
  0
LINE
  5
1F58
330
19
100
AcDbEntity
  8
1
100
AcDbLine
 10
3.763949434434898
 20
-13.76024359803951
 30
0.0
 11
3.765032576208897
 21
-13.74695446847151
 31
0.0
  0
LINE
  5
1F59
330
19
100
AcDbEntity
  8
1
100
AcDbLine
 10
3.763565291961895
 20
-13.77409758418551
 30
0.0
 11
3.763949434434898
 21
-13.76024359803951
 31
0.0
  0
LINE
  5
1F5A
330
19
100
AcDbEntity
  8
1
100
AcDbLine
 10
3.763525577715896
 20
-13.8079776931625
 30
0.0
 11
3.763565291961895
 21
-13.77409758418551
 31
0.0
  0
LINE
  5
1F5B
330
19
100
AcDbEntity
  8
1
100
AcDbLine
 10
3.763510006302899
 20
-13.8418579449965
 30
0.0
 11
3.763525577715896
 21
-13.8079776931625
 31
0.0
  0
LINE
  5
1F5C
330
19
100
AcDbEntity
  8
1
100
AcDbLine
 10
4.173949595862893
 20
-13.33078431321351
 30
0.0
 11
4.173941024442894
 21
-13.2471312540095
 31
0.0
  0
LINE
  5
1F5D
330
19
100
AcDbEntity
  8
1
100
AcDbLine
 10
4.173437453517896
 20
-13.36734970521951
 30
0.0
 11
4.173949595862893
 21
-13.33078431321351
 31
0.0
  0
LINE
  5
1F5E
330
19
100
AcDbEntity
  8
1
100
AcDbLine
 10
4.170854170386896
 20
-13.40413981128651
 30
0.0
 11
4.173437453517896
 21
-13.36734970521951
 31
0.0
  0
LINE
  5
1F5F
330
19
100
AcDbEntity
  8
1
100
AcDbLine
 10
4.161675322422897
 20
-13.45901589926751
 30
0.0
 11
4.170854170386896
 21
-13.40413981128651
 31
0.0
  0
LINE
  5
1F60
330
19
100
AcDbEntity
  8
1
100
AcDbLine
 10
4.146381766287897
 20
-13.51249541721651
 30
0.0
 11
4.161675322422897
 21
-13.45901589926751
 31
0.0
  0
LINE
  5
1F61
330
19
100
AcDbEntity
  8
1
100
AcDbLine
 10
4.131230067153897
 20
-13.5513245212445
 30
0.0
 11
4.146381766287897
 21
-13.51249541721651
 31
0.0
  0
LINE
  5
1F62
330
19
100
AcDbEntity
  8
1
100
AcDbLine
 10
4.113048799620897
 20
-13.58855434115751
 30
0.0
 11
4.131230067153897
 21
-13.5513245212445
 31
0.0
  0
LINE
  5
1F63
330
19
100
AcDbEntity
  8
1
100
AcDbLine
 10
4.084768113615894
 20
-13.63437443819451
 30
0.0
 11
4.113048799620897
 21
-13.58855434115751
 31
0.0
  0
LINE
  5
1F64
330
19
100
AcDbEntity
  8
1
100
AcDbLine
 10
4.051647861021894
 20
-13.67672811012651
 30
0.0
 11
4.084768113615894
 21
-13.63437443819451
 31
0.0
  0
LINE
  5
1F65
330
19
100
AcDbEntity
  8
1
100
AcDbLine
 10
4.039887444210898
 20
-13.6897869542105
 30
0.0
 11
4.051647861021894
 21
-13.67672811012651
 31
0.0
  0
LINE
  5
1F66
330
19
100
AcDbEntity
  8
1
100
AcDbLine
 10
4.027717027809899
 20
-13.70244151298451
 30
0.0
 11
4.039887444210898
 21
-13.6897869542105
 31
0.0
  0
LINE
  5
1F67
330
19
100
AcDbEntity
  8
1
100
AcDbLine
 10
4.011269329971897
 20
-13.71821092578651
 30
0.0
 11
4.027717027809899
 21
-13.70244151298451
 31
0.0
  0
LINE
  5
1F68
330
19
100
AcDbEntity
  8
1
100
AcDbLine
 10
3.994112347128894
 20
-13.7331990536555
 30
0.0
 11
4.011269329971897
 21
-13.71821092578651
 31
0.0
  0
LINE
  5
1F69
330
19
100
AcDbEntity
  8
1
100
AcDbLine
 10
3.980045504052899
 20
-13.74452561375751
 30
0.0
 11
3.994112347128894
 21
-13.7331990536555
 31
0.0
  0
LINE
  5
1F6A
330
19
100
AcDbEntity
  8
1
100
AcDbLine
 10
3.965416375824899
 20
-13.75545503139951
 30
0.0
 11
3.980045504052899
 21
-13.74452561375751
 31
0.0
  0
LINE
  5
1F6B
330
19
100
AcDbEntity
  8
1
100
AcDbLine
 10
3.963556377684897
 20
-13.7567930300615
 30
0.0
 11
3.965416375824899
 21
-13.75545503139951
 31
0.0
  0
LINE
  5
1F6C
330
19
100
AcDbEntity
  8
1
100
AcDbLine
 10
3.961204951464898
 20
-13.7584623141065
 30
0.0
 11
3.963556377684897
 21
-13.7567930300615
 31
0.0
  0
LINE
  5
1F6D
330
19
100
AcDbEntity
  8
1
100
AcDbLine
 10
3.960447237936893
 20
-13.75898874215151
 30
0.0
 11
3.961204951464898
 21
-13.7584623141065
 31
0.0
  0
LINE
  5
1F6E
330
19
100
AcDbEntity
  8
1
100
AcDbLine
 10
3.960140952528896
 20
-13.75919759908551
 30
0.0
 11
3.960447237936893
 21
-13.75898874215151
 31
0.0
  0
LINE
  5
1F6F
330
19
100
AcDbEntity
  8
1
100
AcDbLine
 10
3.922653561444895
 20
-13.7831132894555
 30
0.0
 11
3.960140952528896
 21
-13.75919759908551
 31
0.0
  0
LINE
  5
1F70
330
19
100
AcDbEntity
  8
1
100
AcDbLine
 10
3.884970884841893
 20
-13.8027792697895
 30
0.0
 11
3.922653561444895
 21
-13.7831132894555
 31
0.0
  0
LINE
  5
1F71
330
19
100
AcDbEntity
  8
1
100
AcDbLine
 10
3.839501930310897
 20
-13.8214489654055
 30
0.0
 11
3.884970884841893
 21
-13.8027792697895
 31
0.0
  0
LINE
  5
1F72
330
19
100
AcDbEntity
  8
1
100
AcDbLine
 10
3.793948261578898
 20
-13.83519995165451
 30
0.0
 11
3.839501930310897
 21
-13.8214489654055
 31
0.0
  0
LINE
  5
1F73
330
19
100
AcDbEntity
  8
1
100
AcDbLine
 10
3.778727419656897
 20
-13.8387759480785
 30
0.0
 11
3.793948261578898
 21
-13.83519995165451
 31
0.0
  0
LINE
  5
1F74
330
19
100
AcDbEntity
  8
1
100
AcDbLine
 10
3.763501292025897
 20
-13.84185965928051
 30
0.0
 11
3.778727419656897
 21
-13.8387759480785
 31
0.0
  0
LINE
  5
1F75
330
19
100
AcDbEntity
  8
1
100
AcDbLine
 10
3.748183593057897
 20
-13.8444467995505
 30
0.0
 11
3.732834608406899
 21
-13.8465792259895
 31
0.0
  0
LINE
  5
1F76
330
19
100
AcDbEntity
  8
1
100
AcDbLine
 10
3.763428720669893
 20
-13.8418535164295
 30
0.0
 11
3.748183593057897
 21
-13.8444467995505
 31
0.0
  0
LINE
  5
1F77
330
19
100
AcDbEntity
  8
4
100
AcDbLine
 10
2.858788625310896
 20
-12.8003951293175
 30
0.0
 11
3.262603221495897
 21
-12.8003951293175
 31
0.0
  0
LINE
  5
1F78
330
19
100
AcDbEntity
  8
1
100
AcDbLine
 10
3.837529503711896
 20
-12.36702856268451
 30
0.0
 11
3.831669223857896
 21
-12.32556046129551
 31
0.0
  0
LINE
  5
1F79
330
19
100
AcDbEntity
  8
1
100
AcDbLine
 10
4.173956595855897
 20
-12.43880606233551
 30
0.0
 11
4.173953024430892
 21
-12.3660635636495
 31
0.0
  0
LINE
  5
1F7A
330
19
100
AcDbEntity
  8
1
100
AcDbLine
 10
3.850023491217898
 20
-12.4552454744675
 30
0.0
 11
3.837529503711896
 21
-12.36702856268451
 31
0.0
  0
LINE
  5
1F7B
330
19
100
AcDbEntity
  8
1
100
AcDbLine
 10
3.862405050264897
 20
-12.54265924419651
 30
0.0
 11
3.850023491217898
 21
-12.4552454744675
 31
0.0
  0
LINE
  5
1F7C
330
19
100
AcDbEntity
  8
1
100
AcDbLine
 10
3.864789333594896
 20
-12.5601457981385
 30
0.0
 11
3.862405050264897
 21
-12.54265924419651
 31
0.0
  0
LINE
  5
1F7D
330
19
100
AcDbEntity
  8
1
100
AcDbLine
 10
3.867026474214894
 20
-12.57791663751051
 30
0.0
 11
3.864789333594896
 21
-12.5601457981385
 31
0.0
  0
LINE
  5
1F7E
330
19
100
AcDbEntity
  8
1
100
AcDbLine
 10
3.870928184598895
 20
-12.6133341735215
 30
0.0
 11
3.867026474214894
 21
-12.57791663751051
 31
0.0
  0
LINE
  5
1F7F
330
19
100
AcDbEntity
  8
1
100
AcDbLine
 10
3.874258895553898
 20
-12.65082399317451
 30
0.0
 11
3.870928184598895
 21
-12.6133341735215
 31
0.0
  0
LINE
  5
1F80
330
19
100
AcDbEntity
  8
1
100
AcDbLine
 10
3.879721318662896
 20
-12.76029345513351
 30
0.0
 11
3.874258895553898
 21
-12.65082399317451
 31
0.0
  0
LINE
  5
1F81
330
19
100
AcDbEntity
  8
1
100
AcDbLine
 10
3.878889033780893
 20
-12.86862834679851
 30
0.0
 11
3.879721318662896
 21
-12.76029345513351
 31
0.0
  0
LINE
  5
1F82
330
19
100
AcDbEntity
  8
1
100
AcDbLine
 10
3.875464894347894
 20
-12.9335204247635
 30
0.0
 11
3.878889033780893
 21
-12.86862834679851
 31
0.0
  0
LINE
  5
1F83
330
19
100
AcDbEntity
  8
1
100
AcDbLine
 10
3.869985185541896
 20
-12.9962592191675
 30
0.0
 11
3.875464894347894
 21
-12.9335204247635
 31
0.0
  0
LINE
  5
1F84
330
19
100
AcDbEntity
  8
1
100
AcDbLine
 10
3.865258190268897
 20
-13.03633060766751
 30
0.0
 11
3.869985185541896
 21
-12.9962592191675
 31
0.0
  0
LINE
  5
1F85
330
19
100
AcDbEntity
  8
1
100
AcDbLine
 10
3.859942909869895
 20
-13.07532442581651
 30
0.0
 11
3.865258190268897
 21
-13.03633060766751
 31
0.0
  0
LINE
  5
1F86
330
19
100
AcDbEntity
  8
1
100
AcDbLine
 10
4.173956595855897
 20
-12.4891210120205
 30
0.0
 11
4.173956595855897
 21
-12.43880606233551
 31
0.0
  0
LINE
  5
1F87
330
19
100
AcDbEntity
  8
1
100
AcDbLine
 10
4.173956595855897
 20
-12.53943624741951
 30
0.0
 11
4.173956595855897
 21
-12.4891210120205
 31
0.0
  0
LINE
  5
1F88
330
19
100
AcDbEntity
  8
1
100
AcDbLine
 10
4.173956595855897
 20
-12.57368578459851
 30
0.0
 11
4.173956595855897
 21
-12.53943624741951
 31
0.0
  0
LINE
  5
1F89
330
19
100
AcDbEntity
  8
1
100
AcDbLine
 10
4.173956595855897
 20
-12.60793575034851
 30
0.0
 11
4.173956595855897
 21
-12.57368578459851
 31
0.0
  0
LINE
  5
1F8A
330
19
100
AcDbEntity
  8
1
100
AcDbLine
 10
4.173960024423896
 20
-12.76581159247251
 30
0.0
 11
4.173956595855897
 21
-12.60793575034851
 31
0.0
  0
LINE
  5
1F8B
330
19
100
AcDbEntity
  8
1
100
AcDbLine
 10
4.173953024430892
 20
-12.92368700602551
 30
0.0
 11
4.173960024423896
 21
-12.76581159247251
 31
0.0
  0
LINE
  5
1F8C
330
19
100
AcDbEntity
  8
1
100
AcDbLine
 10
4.173944453010898
 20
-12.9669139627985
 30
0.0
 11
4.173953024430892
 21
-12.92368700602551
 31
0.0
  0
LINE
  5
1F8D
330
19
100
AcDbEntity
  8
1
100
AcDbLine
 10
4.173932310165898
 20
-13.01014034814349
 30
0.0
 11
4.173944453010898
 21
-12.9669139627985
 31
0.0
  0
LINE
  5
1F8E
330
19
100
AcDbEntity
  8
1
100
AcDbLine
 10
4.173927167313897
 20
-13.08680927147451
 30
0.0
 11
4.173932310165898
 21
-13.01014034814349
 31
0.0
  0
LINE
  5
1F8F
330
19
100
AcDbEntity
  8
1
100
AcDbLine
 10
4.173932310165898
 20
-13.16347776623451
 30
0.0
 11
4.173927167313897
 21
-13.08680927147451
 31
0.0
  0
LINE
  5
1F90
330
19
100
AcDbEntity
  8
1
100
AcDbLine
 10
3.960575237808896
 20
-12.8003951293175
 30
0.0
 11
3.880138318245899
 21
-12.8003951293175
 31
0.0
  0
LINE
  5
1F91
330
19
100
AcDbEntity
  8
1
100
AcDbLine
 10
3.732834608406899
 20
-11.75421060407451
 30
0.0
 11
3.703242352284899
 21
-11.7514300354265
 31
0.0
  0
LINE
  5
1F92
330
19
100
AcDbEntity
  8
1
100
AcDbLine
 10
3.703242352284899
 20
-11.7514300354265
 30
0.0
 11
3.673567096245899
 21
-11.75039632217451
 31
0.0
  0
LINE
  5
1F93
330
19
100
AcDbEntity
  8
1
100
AcDbLine
 10
3.763532434851896
 20
-11.79250756577751
 30
0.0
 11
3.763534149135896
 21
-11.75892288507651
 31
0.0
  0
LINE
  5
1F94
330
19
100
AcDbEntity
  8
1
100
AcDbLine
 10
3.763532434851896
 20
-11.8261028178965
 30
0.0
 11
3.763532434851896
 21
-11.79250756577751
 31
0.0
  0
LINE
  5
1F95
330
19
100
AcDbEntity
  8
1
100
AcDbLine
 10
3.763792006020898
 20
-11.83703180696751
 30
0.0
 11
3.763532434851896
 21
-11.8261028178965
 31
0.0
  0
LINE
  5
1F96
330
19
100
AcDbEntity
  8
1
100
AcDbLine
 10
3.764492719605896
 20
-11.8476700820435
 30
0.0
 11
3.763792006020898
 21
-11.83703180696751
 31
0.0
  0
LINE
  5
1F97
330
19
100
AcDbEntity
  8
1
100
AcDbLine
 10
3.766951431432896
 20
-11.86850391835251
 30
0.0
 11
3.764492719605896
 21
-11.8476700820435
 31
0.0
  0
LINE
  5
1F98
330
19
100
AcDbEntity
  8
1
100
AcDbLine
 10
3.769904999907897
 20
-11.8885080412055
 30
0.0
 11
3.766951431432896
 21
-11.86850391835251
 31
0.0
  0
LINE
  5
1F99
330
19
100
AcDbEntity
  8
1
100
AcDbLine
 10
3.797882829072896
 20
-12.08648855751051
 30
0.0
 11
3.769904999907897
 21
-11.8885080412055
 31
0.0
  0
LINE
  5
1F9A
330
19
100
AcDbEntity
  8
1
100
AcDbLine
 10
3.825860801094894
 20
-12.28446950238651
 30
0.0
 11
3.797882829072896
 21
-12.08648855751051
 31
0.0
  0
LINE
  5
1F9B
330
19
100
AcDbEntity
  8
1
100
AcDbLine
 10
3.831669223857896
 20
-12.32556046129551
 30
0.0
 11
3.825860801094894
 21
-12.28446950238651
 31
0.0
  0
LINE
  5
1F9C
330
19
100
AcDbEntity
  8
1
100
AcDbLine
 10
3.788939266587893
 20
-11.7643471653665
 30
0.0
 11
3.763542863412895
 21
-11.7589245993605
 31
0.0
  0
LINE
  5
1F9D
330
19
100
AcDbEntity
  8
1
100
AcDbLine
 10
3.814318384065895
 20
-11.77115830141251
 30
0.0
 11
3.788939266587893
 21
-11.7643471653665
 31
0.0
  0
LINE
  5
1F9E
330
19
100
AcDbEntity
  8
1
100
AcDbLine
 10
3.858347625750898
 20
-11.7864440004125
 30
0.0
 11
3.814318384065895
 21
-11.77115830141251
 31
0.0
  0
LINE
  5
1F9F
330
19
100
AcDbEntity
  8
1
100
AcDbLine
 10
3.902243724711896
 20
-11.80651040891751
 30
0.0
 11
3.858347625750898
 21
-11.7864440004125
 31
0.0
  0
LINE
  5
1FA0
330
19
100
AcDbEntity
  8
1
100
AcDbLine
 10
3.928487984181898
 20
-11.8210936800485
 30
0.0
 11
3.902243724711896
 21
-11.80651040891751
 31
0.0
  0
LINE
  5
1FA1
330
19
100
AcDbEntity
  8
1
100
AcDbLine
 10
3.954643958025897
 20
-11.83778623478451
 30
0.0
 11
3.928487984181898
 21
-11.8210936800485
 31
0.0
  0
LINE
  5
1FA2
330
19
100
AcDbEntity
  8
1
100
AcDbLine
 10
3.957346526751893
 20
-11.83965309006051
 30
0.0
 11
3.954643958025897
 21
-11.83778623478451
 31
0.0
  0
LINE
  5
1FA3
330
19
100
AcDbEntity
  8
1
100
AcDbLine
 10
3.960289666665893
 20
-11.84171551656951
 30
0.0
 11
3.957346526751893
 21
-11.83965309006051
 31
0.0
  0
LINE
  5
1FA4
330
19
100
AcDbEntity
  8
1
100
AcDbLine
 10
3.960948951720898
 20
-11.84217494468151
 30
0.0
 11
3.960289666665893
 21
-11.84171551656951
 31
0.0
  0
LINE
  5
1FA5
330
19
100
AcDbEntity
  8
1
100
AcDbLine
 10
3.961888522209897
 20
-11.84283237259551
 30
0.0
 11
3.960948951720898
 21
-11.84217494468151
 31
0.0
  0
LINE
  5
1FA6
330
19
100
AcDbEntity
  8
1
100
AcDbLine
 10
3.983165215218896
 20
-11.85872978526951
 30
0.0
 11
3.961888522209897
 21
-11.84283237259551
 31
0.0
  0
LINE
  5
1FA7
330
19
100
AcDbEntity
  8
1
100
AcDbLine
 10
4.003576766235898
 20
-11.87572848255651
 30
0.0
 11
3.983165215218896
 21
-11.85872978526951
 31
0.0
  0
LINE
  5
1FA8
330
19
100
AcDbEntity
  8
1
100
AcDbLine
 10
4.012688185695899
 20
-11.88391861722351
 30
0.0
 11
4.003576766235898
 21
-11.87572848255651
 31
0.0
  0
LINE
  5
1FA9
330
19
100
AcDbEntity
  8
1
100
AcDbLine
 10
4.021590176793897
 20
-11.89233018024051
 30
0.0
 11
4.012688185695899
 21
-11.88391861722351
 31
0.0
  0
LINE
  5
1FAA
330
19
100
AcDbEntity
  8
1
100
AcDbLine
 10
4.057942569012895
 20
-11.93139456974751
 30
0.0
 11
4.021590176793897
 21
-11.89233018024051
 31
0.0
  0
LINE
  5
1FAB
330
19
100
AcDbEntity
  8
1
100
AcDbLine
 10
4.090005536949896
 20
-11.97405866994051
 30
0.0
 11
4.057942569012895
 21
-11.93139456974751
 31
0.0
  0
LINE
  5
1FAC
330
19
100
AcDbEntity
  8
1
100
AcDbLine
 10
4.099289956236894
 20
-11.9884715126705
 30
0.0
 11
4.090005536949896
 21
-11.97405866994051
 31
0.0
  0
LINE
  5
1FAD
330
19
100
AcDbEntity
  8
1
100
AcDbLine
 10
4.108044947481898
 20
-12.00320364079551
 30
0.0
 11
4.099289956236894
 21
-11.9884715126705
 31
0.0
  0
LINE
  5
1FAE
330
19
100
AcDbEntity
  8
1
100
AcDbLine
 10
4.140249772419895
 20
-12.07130400126651
 30
0.0
 11
4.108044947481898
 21
-12.00320364079551
 31
0.0
  0
LINE
  5
1FAF
330
19
100
AcDbEntity
  8
1
100
AcDbLine
 10
4.162024893501895
 20
-12.1434790719485
 30
0.0
 11
4.140249772419895
 21
-12.07130400126651
 31
0.0
  0
LINE
  5
1FB0
330
19
100
AcDbEntity
  8
1
100
AcDbLine
 10
4.166770888755893
 20
-12.16773790483251
 30
0.0
 11
4.162024893501895
 21
-12.1434790719485
 31
0.0
  0
LINE
  5
1FB1
330
19
100
AcDbEntity
  8
1
100
AcDbLine
 10
4.170309170931897
 20
-12.19218730895451
 30
0.0
 11
4.166770888755893
 21
-12.16773790483251
 31
0.0
  0
LINE
  5
1FB2
330
19
100
AcDbEntity
  8
1
100
AcDbLine
 10
4.173240168000894
 20
-12.22959641440251
 30
0.0
 11
4.170309170931897
 21
-12.19218730895451
 31
0.0
  0
LINE
  5
1FB3
330
19
100
AcDbEntity
  8
1
100
AcDbLine
 10
4.173946167294895
 20
-12.2671403768585
 30
0.0
 11
4.173240168000894
 21
-12.22959641440251
 31
0.0
  0
LINE
  5
1FB4
330
19
100
AcDbEntity
  8
1
100
AcDbLine
 10
4.173949595862893
 20
-12.28023079233951
 30
0.0
 11
4.173946167294895
 21
-12.2671403768585
 31
0.0
  0
LINE
  5
1FB5
330
19
100
AcDbEntity
  8
1
100
AcDbLine
 10
4.173949595862893
 20
-12.29332135067751
 30
0.0
 11
4.173949595862893
 21
-12.28023079233951
 31
0.0
  0
LINE
  5
1FB6
330
19
100
AcDbEntity
  8
1
100
AcDbLine
 10
4.173953024430892
 20
-12.3660635636495
 30
0.0
 11
4.173949595862893
 21
-12.29332135067751
 31
0.0
  0
LINE
  5
1FB7
330
19
100
AcDbEntity
  8
1
100
AcDbLine
 10
3.748228593012894
 20
-11.75635003050651
 30
0.0
 11
3.732834608406899
 21
-11.75421060407451
 31
0.0
  0
LINE
  5
1FB8
330
19
100
AcDbEntity
  8
1
100
AcDbLine
 10
3.763520434863897
 20
-11.75895402790251
 30
0.0
 11
3.748228593012894
 21
-11.75635003050651
 31
0.0
  0
LINE
  5
1FC1
330
19
100
AcDbEntity
  8
1
100
AcDbLine
 10
-2.771451030158104
 20
-0.1363736504945159
 30
0.0
 11
-3.145014085166101
 21
0.088088125043484
 31
0.0
  0
LINE
  5
1FC2
330
19
100
AcDbEntity
  8
1
100
AcDbLine
 10
3.700365069447896
 20
-4.329804599916513
 30
0.0
 11
-4.636057022693099
 21
0.6792232481934839
 31
0.0
  0
LINE
  5
2049
330
19
100
AcDbEntity
  8
1
100
AcDbLine
 10
-4.826054261267098
 20
1.038236889179485
 30
0.0
 11
-4.826054261267098
 21
0.7933859911734836
 31
0.0
  0
LINE
  5
204A
330
19
100
AcDbEntity
  8
1
100
AcDbLine
 10
-4.814035987571099
 20
0.7861639983954838
 30
0.0
 11
-4.826054261267098
 21
0.7933859911734836
 31
0.0
  0
LINE
  5
204B
330
19
100
AcDbEntity
  8
1
100
AcDbLine
 10
-4.780824163640101
 20
0.7662074469234847
 30
0.0
 11
-4.814035987571099
 21
0.7861639983954838
 31
0.0
  0
LINE
  5
204C
330
19
100
AcDbEntity
  8
1
100
AcDbLine
 10
-4.732263355058101
 20
0.7370321903844827
 30
0.0
 11
-4.780824163640101
 21
0.7662074469234847
 31
0.0
  0
LINE
  5
204D
330
19
100
AcDbEntity
  8
1
100
AcDbLine
 10
-4.676539410782099
 20
0.703553938148481
 30
0.0
 11
-4.732263355058101
 21
0.7370321903844827
 31
0.0
  0
LINE
  5
204E
330
19
100
AcDbEntity
  8
1
100
AcDbLine
 10
-4.656406288058105
 20
0.6914526645354862
 30
0.0
 11
-4.676539410782099
 21
0.703553938148481
 31
0.0
  0
LINE
  5
204F
330
19
100
AcDbEntity
  8
1
100
AcDbLine
 10
-4.636057022693099
 20
0.6792232481934839
 30
0.0
 11
-4.656406288058105
 21
0.6914526645354862
 31
0.0
  0
LINE
  5
2050
330
19
100
AcDbEntity
  8
1
100
AcDbLine
 10
-4.0166654992281
 20
0.611827172732486
 30
0.0
 11
-4.390230268520101
 21
0.8362889482704821
 31
0.0
  0
LINE
  5
2051
330
19
100
AcDbEntity
  8
1
100
AcDbLine
 10
-4.826054261267098
 20
1.082179702379484
 30
0.0
 11
-4.826054261267098
 21
1.037968746590486
 31
0.0
  0
LINE
  5
2052
330
19
100
AcDbEntity
  8
1
100
AcDbLine
 10
-4.826054261267098
 20
1.09811682929948
 30
0.0
 11
-4.826054261267098
 21
1.082179702379484
 31
0.0
  0
LINE
  5
2053
330
19
100
AcDbEntity
  8
1
100
AcDbLine
 10
-4.826054261267098
 20
1.085252556449481
 30
0.0
 11
-4.826054261267098
 21
1.09811682929948
 31
0.0
  0
LINE
  5
2054
330
19
100
AcDbEntity
  8
1
100
AcDbLine
 10
-4.826054261267098
 20
1.044012454832482
 30
0.0
 11
-4.826054261267098
 21
1.085252556449481
 31
0.0
  0
LINE
  5
2055
330
19
100
AcDbEntity
  8
1
100
AcDbLine
 10
-4.6392718766211
 20
0.9859283700594827
 30
0.0
 11
-4.826054261267098
 21
1.098158400686481
 31
0.0
  0
LINE
  5
2056
330
19
100
AcDbEntity
  8
1
100
AcDbLine
 10
-3.394057407551103
 20
0.237727689689482
 30
0.0
 11
-3.7676221768431
 21
0.4621877509434853
 31
0.0
  0
LINE
  5
2090
330
19
100
AcDbEntity
  8
1
100
AcDbLine
 10
2.209410274689898
 20
-3.129174800547517
 30
0.0
 11
1.835845505397896
 21
-2.904714739293516
 31
0.0
  0
LINE
  5
2091
330
19
100
AcDbEntity
  8
1
100
AcDbLine
 10
3.769427428956897
 20
0.1694906150694848
 30
0.0
 11
1.864022334363896
 21
1.454702901284484
 31
0.0
  0
LINE
  5
2092
330
19
100
AcDbEntity
  8
1
100
AcDbLine
 10
3.673567096245899
 20
0.2341495504104856
 30
0.0
 11
1.864022334363896
 21
1.454702901284484
 31
0.0
  0
LINE
  5
2093
330
19
100
AcDbEntity
  8
1
100
AcDbLine
 10
3.769482714615896
 20
0.1694543293914847
 30
0.0
 11
1.864022334363896
 21
1.454702901284484
 31
0.0
  0
LINE
  5
2094
330
19
100
AcDbEntity
  8
1
100
AcDbLine
 10
3.673567096245899
 20
0.2341495504104856
 30
0.0
 11
1.864022334363896
 21
1.454702901284484
 31
0.0
  0
LINE
  5
2099
330
19
100
AcDbEntity
  8
1
100
AcDbLine
 10
-0.2810203777341051
 20
-1.632773296950516
 30
0.0
 11
-0.654585147026106
 21
-1.408313235696514
 31
0.0
  0
LINE
  5
20AA
330
19
100
AcDbEntity
  8
1
100
AcDbLine
 10
0.9641940913358995
 20
-2.380974120177516
 30
0.0
 11
0.5906293220438981
 21
-2.156514058923515
 31
0.0
  0
LINE
  5
20AB
330
19
100
AcDbEntity
  8
1
100
AcDbLine
 10
0.3415877139429
 20
-2.006874494277514
 30
0.0
 11
-0.0319770553491026
 21
-1.782414575880514
 31
0.0
  0
LINE
  5
20AC
330
19
100
AcDbEntity
  8
1
100
AcDbLine
 10
1.586802183012894
 20
-2.755075317504516
 30
0.0
 11
1.213237413720896
 21
-2.530615256250515
 31
0.0
  0
LINE
  5
20AE
330
19
100
AcDbEntity
  8
1
100
AcDbLine
 10
-1.5262348468041
 20
-0.8845726165805166
 30
0.0
 11
-1.8997996160961
 21
-0.6601125553265172
 31
0.0
  0
LINE
  5
20B2
330
19
100
AcDbEntity
  8
1
100
AcDbLine
 10
-2.148842938481104
 20
-0.5104731335375165
 30
0.0
 11
-2.5224077077731
 21
-0.2860130722835166
 31
0.0
  0
LINE
  5
20B3
330
19
100
AcDbEntity
  8
1
100
AcDbLine
 10
-0.9036284694110996
 20
-1.258673813907512
 30
0.0
 11
-1.277191524419104
 21
-1.034213752653514
 31
0.0
  0
LINE
  5
20B4
330
19
100
AcDbEntity
  8
1
100
AcDbLine
 10
1.323126446688899
 20
1.429716640556484
 30
0.0
 11
1.044546296697895
 21
1.597103044598483
 31
0.0
  0
LINE
  5
20B5
330
19
100
AcDbEntity
  8
1
100
AcDbLine
 10
1.815537668562896
 20
1.121516520185482
 30
0.0
 11
1.648137407391895
 21
1.234430121557482
 31
0.0
  0
LINE
  5
20B6
330
19
100
AcDbEntity
  8
1
100
AcDbLine
 10
1.648137407391895
 20
1.234430121557482
 30
0.0
 11
1.508846403825898
 21
1.318123323578482
 31
0.0
  0
LINE
  5
20B8
330
19
100
AcDbEntity
  8
1
100
AcDbLine
 10
4.173935738733897
 20
-4.056730015848515
 30
0.0
 11
4.173935738733897
 21
-0.5710659300875172
 31
0.0
  0
LINE
  5
20BD
330
19
100
AcDbEntity
  8
1
100
AcDbLine
 10
3.454624743759898
 20
-3.877375480917514
 30
0.0
 11
3.081059974467896
 21
-3.652915419663513
 31
0.0
  0
LINE
  5
20BE
330
19
100
AcDbEntity
  8
1
100
AcDbLine
 10
2.832016652082899
 20
-3.503275997874514
 30
0.0
 11
2.458451882790896
 21
-3.278815936620513
 31
0.0
  0
LINE
  5
20BF
330
19
100
AcDbEntity
  8
1
100
AcDbLine
 10
3.890450450790897
 20
-4.139246790474511
 30
0.0
 11
3.703668066144896
 21
-4.027016759847516
 31
0.0
  0
LINE
  5
20C0
330
19
100
AcDbEntity
  8
1
100
AcDbLine
 10
3.700365069447896
 20
-4.329804599916513
 30
0.0
 11
3.975816793995898
 21
-4.054351018227513
 31
0.0
  0
LINE
  5
20C1
330
19
100
AcDbEntity
  8
1
100
AcDbLine
 10
3.700365069447896
 20
-4.329804599916513
 30
0.0
 11
3.975816793995898
 21
-4.054351018227513
 31
0.0
  0
LINE
  5
20C2
330
19
100
AcDbEntity
  8
1
100
AcDbLine
 10
3.885948455292898
 20
-4.144219356930516
 30
0.0
 11
3.855953056716893
 21
-4.174214755506515
 31
0.0
  0
LINE
  5
20C3
330
19
100
AcDbEntity
  8
1
100
AcDbLine
 10
3.855953056716893
 20
-4.174214755506515
 30
0.0
 11
3.885948455292898
 21
-4.144219356930516
 31
0.0
  0
LINE
  5
20C4
330
19
100
AcDbEntity
  8
1
100
AcDbLine
 10
3.975816793995898
 20
-4.054351018227513
 30
0.0
 11
4.173935738733897
 21
-4.054351018227513
 31
0.0
  0
LINE
  5
20C5
330
19
100
AcDbEntity
  8
1
100
AcDbLine
 10
3.975816793995898
 20
-4.054351018227513
 30
0.0
 11
4.173935738733897
 21
-4.054351018227513
 31
0.0
  0
LINE
  5
20D1
330
19
100
AcDbEntity
  8
1
100
AcDbLine
 10
3.797882829072896
 20
0.0358887486714856
 30
0.0
 11
3.769904999907897
 21
0.1403430727884825
 31
0.0
  0
LINE
  5
20D2
330
19
100
AcDbEntity
  8
1
100
AcDbLine
 10
3.768617572623896
 20
0.1450163538294831
 30
0.0
 11
3.814280241246894
 21
-0.0253703329265171
 31
0.0
  0
LINE
  5
20D3
330
19
100
AcDbEntity
  8
1
100
AcDbLine
 10
3.788939266587893
 20
0.0691854296604859
 30
0.0
 11
3.763542863412895
 21
0.1639746205854848
 31
0.0
  0
LINE
  5
20D4
330
19
100
AcDbEntity
  8
1
100
AcDbLine
 10
3.778727419656897
 20
0.1073076772524857
 30
0.0
 11
3.793948261578898
 21
0.0504988769184855
 31
0.0
  0
LINE
  5
20D5
330
19
100
AcDbEntity
  8
1
100
AcDbLine
 10
3.489551280261896
 20
-0.0076197792485146
 30
0.0
 11
3.154748900778899
 21
0.21820713778148
 31
0.0
  0
LINE
  5
20D9
330
19
100
AcDbEntity
  8
1
100
AcDbLine
 10
3.825860801094894
 20
-0.0685691468705159
 30
0.0
 11
3.797882829072896
 21
0.0358887486714856
 31
0.0
  0
LINE
  5
20DA
330
19
100
AcDbEntity
  8
1
100
AcDbLine
 10
3.831669223857896
 20
-0.0902506966175167
 30
0.0
 11
3.825860801094894
 21
-0.0685691468705159
 31
0.0
  0
LINE
  5
20DB
330
19
100
AcDbEntity
  8
1
100
AcDbLine
 10
3.837529503711896
 20
-0.1121312461655179
 30
0.0
 11
3.831669223857896
 21
-0.0902506966175167
 31
0.0
  0
LINE
  5
20DC
330
19
100
AcDbEntity
  8
1
100
AcDbLine
 10
3.850023491217898
 20
-0.1587160567235131
 30
0.0
 11
3.837529503711896
 21
-0.1121312461655179
 31
0.0
  0
LINE
  5
20DD
330
19
100
AcDbEntity
  8
1
100
AcDbLine
 10
3.862405050264897
 20
-0.2048771534195168
 30
0.0
 11
3.850023491217898
 21
-0.1587160567235131
 31
0.0
  0
LINE
  5
20DE
330
19
100
AcDbEntity
  8
1
100
AcDbLine
 10
3.864789333594896
 20
-0.213782573085517
 30
0.0
 11
3.862405050264897
 21
-0.2048771534195168
 31
0.0
  0
LINE
  5
20DF
330
19
100
AcDbEntity
  8
1
100
AcDbLine
 10
3.867026474214894
 20
-0.222143136153516
 30
0.0
 11
3.864789333594896
 21
-0.213782573085517
 31
0.0
  0
LINE
  5
20E0
330
19
100
AcDbEntity
  8
1
100
AcDbLine
 10
3.870928184598895
 20
-0.2367411215555144
 30
0.0
 11
3.867026474214894
 21
-0.222143136153516
 31
0.0
  0
LINE
  5
20E1
330
19
100
AcDbEntity
  8
1
100
AcDbLine
 10
3.874258895553898
 20
-0.249202251951516
 30
0.0
 11
3.870928184598895
 21
-0.2367411215555144
 31
0.0
  0
LINE
  5
20E2
330
19
100
AcDbEntity
  8
1
100
AcDbLine
 10
3.879721318662896
 20
-0.2696103744005178
 30
0.0
 11
3.874258895553898
 21
-0.249202251951516
 31
0.0
  0
LINE
  5
20E3
330
19
100
AcDbEntity
  8
1
100
AcDbLine
 10
3.878889033780893
 20
-0.2665168060655176
 30
0.0
 11
3.879721318662896
 21
-0.2696103744005178
 31
0.0
  0
LINE
  5
20E4
330
19
100
AcDbEntity
  8
1
100
AcDbLine
 10
3.875464894347894
 20
-0.2537372474165167
 30
0.0
 11
3.878889033780893
 21
-0.2665168060655176
 31
0.0
  0
LINE
  5
20E5
330
19
100
AcDbEntity
  8
1
100
AcDbLine
 10
3.869985185541896
 20
-0.2332892678645138
 30
0.0
 11
3.875464894347894
 21
-0.2537372474165167
 31
0.0
  0
LINE
  5
20E6
330
19
100
AcDbEntity
  8
1
100
AcDbLine
 10
3.865258190268897
 20
-0.2156218569605137
 30
0.0
 11
3.869985185541896
 21
-0.2332892678645138
 31
0.0
  0
LINE
  5
20E7
330
19
100
AcDbEntity
  8
1
100
AcDbLine
 10
3.859942909869895
 20
-0.1957587339665139
 30
0.0
 11
3.865258190268897
 21
-0.2156218569605137
 31
0.0
  0
LINE
  5
20E8
330
19
100
AcDbEntity
  8
1
100
AcDbLine
 10
3.814280241246894
 20
-0.0253703329265171
 30
0.0
 11
3.859942909869895
 21
-0.1957587339665139
 31
0.0
  0
LINE
  5
20E9
330
19
100
AcDbEntity
  8
1
100
AcDbLine
 10
3.814318384065895
 20
-0.0255329041925165
 30
0.0
 11
3.788939266587893
 21
0.0691854296604859
 31
0.0
  0
LINE
  5
20EA
330
19
100
AcDbEntity
  8
1
100
AcDbLine
 10
3.858347625750898
 20
-0.1898568827255182
 30
0.0
 11
3.814318384065895
 21
-0.0255329041925165
 31
0.0
  0
LINE
  5
20EB
330
19
100
AcDbEntity
  8
1
100
AcDbLine
 10
3.902243724711896
 20
-0.3536842903265196
 30
0.0
 11
3.858347625750898
 21
-0.1898568827255182
 31
0.0
  0
LINE
  5
20EC
330
19
100
AcDbEntity
  8
1
100
AcDbLine
 10
3.928487984181898
 20
-0.4516087638305139
 30
0.0
 11
3.902243724711896
 21
-0.3536842903265196
 31
0.0
  0
LINE
  5
20ED
330
19
100
AcDbEntity
  8
1
100
AcDbLine
 10
3.954643958025897
 20
-0.549207809088518
 30
0.0
 11
3.928487984181898
 21
-0.4516087638305139
 31
0.0
  0
LINE
  5
20EE
330
19
100
AcDbEntity
  8
1
100
AcDbLine
 10
3.957346526751893
 20
-0.5597432271245176
 30
0.0
 11
3.954643958025897
 21
-0.549207809088518
 31
0.0
  0
LINE
  5
20EF
330
19
100
AcDbEntity
  8
1
100
AcDbLine
 10
3.960289666665893
 20
-0.570169645269516
 30
0.0
 11
3.957346526751893
 21
-0.5597432271245176
 31
0.0
  0
LINE
  5
20F0
330
19
100
AcDbEntity
  8
1
100
AcDbLine
 10
3.960948951720898
 20
-0.5708686445705169
 30
0.0
 11
3.960289666665893
 21
-0.570169645269516
 31
0.0
  0
LINE
  5
20F1
330
19
100
AcDbEntity
  8
1
100
AcDbLine
 10
3.961888522209897
 20
-0.5710676443715137
 30
0.0
 11
3.960948951720898
 21
-0.5708686445705169
 31
0.0
  0
LINE
  5
20F2
330
19
100
AcDbEntity
  8
1
100
AcDbLine
 10
3.983165215218896
 20
-0.5710866443525121
 30
0.0
 11
3.961888522209897
 21
-0.5710676443715137
 31
0.0
  0
LINE
  5
20F3
330
19
100
AcDbEntity
  8
1
100
AcDbLine
 10
4.003576766235898
 20
-0.5711040729065147
 30
0.0
 11
3.983165215218896
 21
-0.5710866443525121
 31
0.0
  0
LINE
  5
20F4
330
19
100
AcDbEntity
  8
1
100
AcDbLine
 10
4.012688185695899
 20
-0.5710866443525121
 30
0.0
 11
4.003576766235898
 21
-0.5711040729065147
 31
0.0
  0
LINE
  5
20F5
330
19
100
AcDbEntity
  8
1
100
AcDbLine
 10
4.021590176793897
 20
-0.5710693586555175
 30
0.0
 11
4.012688185695899
 21
-0.5710866443525121
 31
0.0
  0
LINE
  5
20F6
330
19
100
AcDbEntity
  8
1
100
AcDbLine
 10
4.057942569012895
 20
-0.5710866443525121
 30
0.0
 11
4.021590176793897
 21
-0.5710693586555175
 31
0.0
  0
LINE
  5
20F7
330
19
100
AcDbEntity
  8
1
100
AcDbLine
 10
4.090005536949896
 20
-0.5711057871905183
 30
0.0
 11
4.057942569012895
 21
-0.5710866443525121
 31
0.0
  0
LINE
  5
20F8
330
19
100
AcDbEntity
  8
1
100
AcDbLine
 10
4.099289956236894
 20
-0.5710953586295169
 30
0.0
 11
4.090005536949896
 21
-0.5711057871905183
 31
0.0
  0
LINE
  5
20F9
330
19
100
AcDbEntity
  8
1
100
AcDbLine
 10
4.108044947481898
 20
-0.5710849300685191
 30
0.0
 11
4.099289956236894
 21
-0.5710953586295169
 31
0.0
  0
LINE
  5
20FA
330
19
100
AcDbEntity
  8
1
100
AcDbLine
 10
4.140249772419895
 20
-0.5710797872165152
 30
0.0
 11
4.108044947481898
 21
-0.5710849300685191
 31
0.0
  0
LINE
  5
20FB
330
19
100
AcDbEntity
  8
1
100
AcDbLine
 10
4.162024893501895
 20
-0.5710763586485152
 30
0.0
 11
4.140249772419895
 21
-0.5710797872165152
 31
0.0
  0
LINE
  5
20FC
330
19
100
AcDbEntity
  8
1
100
AcDbLine
 10
4.166770888755893
 20
-0.5710832157845154
 30
0.0
 11
4.162024893501895
 21
-0.5710763586485152
 31
0.0
  0
LINE
  5
20FD
330
19
100
AcDbEntity
  8
1
100
AcDbLine
 10
4.170309170931897
 20
-0.5710902157775167
 30
0.0
 11
4.166770888755893
 21
-0.5710832157845154
 31
0.0
  0
LINE
  5
20FE
330
19
100
AcDbEntity
  8
1
100
AcDbLine
 10
4.173240168000894
 20
-0.5710797872165152
 30
0.0
 11
4.170309170931897
 21
-0.5710902157775167
 31
0.0
  0
LINE
  5
20FF
330
19
100
AcDbEntity
  8
1
100
AcDbLine
 10
4.173946167294895
 20
-0.5710676443715137
 30
0.0
 11
4.173240168000894
 21
-0.5710797872165152
 31
0.0
  0
LINE
  5
2100
330
19
100
AcDbEntity
  8
1
100
AcDbLine
 10
4.173949595862893
 20
-0.5710849300685191
 30
0.0
 11
4.173946167294895
 21
-0.5710676443715137
 31
0.0
  0
LINE
  5
2101
330
19
100
AcDbEntity
  8
1
100
AcDbLine
 10
4.173949595862893
 20
-0.5711040729065147
 30
0.0
 11
4.173949595862893
 21
-0.5710849300685191
 31
0.0
  0
LINE
  5
2102
330
19
100
AcDbEntity
  8
1
100
AcDbLine
 10
4.173953024430892
 20
-0.5710987871975171
 30
0.0
 11
4.173949595862893
 21
-0.5711040729065147
 31
0.0
  0
LINE
  5
2103
330
19
100
AcDbEntity
  8
1
100
AcDbLine
 10
4.173956595855897
 20
-0.5710919300615167
 30
0.0
 11
4.173953024430892
 21
-0.5710987871975171
 31
0.0
  0
LINE
  5
2104
330
19
100
AcDbEntity
  8
1
100
AcDbLine
 10
4.173956595855897
 20
-0.5710849300685191
 30
0.0
 11
4.173956595855897
 21
-0.5710919300615167
 31
0.0
  0
LINE
  5
2105
330
19
100
AcDbEntity
  8
1
100
AcDbLine
 10
4.173956595855897
 20
-0.5710780729325152
 30
0.0
 11
4.173956595855897
 21
-0.5710849300685191
 31
0.0
  0
LINE
  5
2106
330
19
100
AcDbEntity
  8
1
100
AcDbLine
 10
4.173960024423896
 20
-0.5710746443645151
 30
0.0
 11
4.173956595855897
 21
-0.5710780729325152
 31
0.0
  0
LINE
  5
2107
330
19
100
AcDbEntity
  8
1
100
AcDbLine
 10
4.173953024430892
 20
-0.5710710729395139
 30
0.0
 11
4.173960024423896
 21
-0.5710746443645151
 31
0.0
  0
LINE
  5
2108
330
19
100
AcDbEntity
  8
1
100
AcDbLine
 10
4.173944453010898
 20
-0.5710849300685191
 30
0.0
 11
4.173953024430892
 21
-0.5710710729395139
 31
0.0
  0
LINE
  5
2109
330
19
100
AcDbEntity
  8
1
100
AcDbLine
 10
4.173932310165898
 20
-0.5710987871975171
 30
0.0
 11
4.173944453010898
 21
-0.5710849300685191
 31
0.0
  0
LINE
  5
210A
330
19
100
AcDbEntity
  8
1
100
AcDbLine
 10
4.173927167313897
 20
-0.5710936443455168
 30
0.0
 11
4.173932310165898
 21
-0.5710987871975171
 31
0.0
  0
LINE
  5
210B
330
19
100
AcDbEntity
  8
1
100
AcDbLine
 10
4.173932310165898
 20
-0.5710885014935167
 30
0.0
 11
4.173927167313897
 21
-0.5710936443455168
 31
0.0
  0
LINE
  5
210C
330
19
100
AcDbEntity
  8
1
100
AcDbLine
 10
4.173941024442894
 20
-0.5710849300685191
 30
0.0
 11
4.173932310165898
 21
-0.5710885014935167
 31
0.0
  0
LINE
  5
210D
330
19
100
AcDbEntity
  8
1
100
AcDbLine
 10
4.173949595862893
 20
-0.571081501500519
 30
0.0
 11
4.173941024442894
 21
-0.5710849300685191
 31
0.0
  0
LINE
  5
210E
330
19
100
AcDbEntity
  8
1
100
AcDbLine
 10
4.173437453517896
 20
-0.571081501500519
 30
0.0
 11
4.173949595862893
 21
-0.571081501500519
 31
0.0
  0
LINE
  5
210F
330
19
100
AcDbEntity
  8
1
100
AcDbLine
 10
4.170854170386896
 20
-0.5710832157845154
 30
0.0
 11
4.173437453517896
 21
-0.571081501500519
 31
0.0
  0
LINE
  5
2110
330
19
100
AcDbEntity
  8
1
100
AcDbLine
 10
4.161675322422897
 20
-0.5710832157845154
 30
0.0
 11
4.170854170386896
 21
-0.5710832157845154
 31
0.0
  0
LINE
  5
2111
330
19
100
AcDbEntity
  8
1
100
AcDbLine
 10
4.146381766287897
 20
-0.5710832157845154
 30
0.0
 11
4.161675322422897
 21
-0.5710832157845154
 31
0.0
  0
LINE
  5
2112
330
19
100
AcDbEntity
  8
1
100
AcDbLine
 10
4.131230067153897
 20
-0.5710832157845154
 30
0.0
 11
4.146381766287897
 21
-0.5710832157845154
 31
0.0
  0
LINE
  5
2113
330
19
100
AcDbEntity
  8
1
100
AcDbLine
 10
4.113048799620897
 20
-0.5710832157845154
 30
0.0
 11
4.131230067153897
 21
-0.5710832157845154
 31
0.0
  0
LINE
  5
2114
330
19
100
AcDbEntity
  8
1
100
AcDbLine
 10
4.084768113615894
 20
-0.5710866443525121
 30
0.0
 11
4.113048799620897
 21
-0.5710832157845154
 31
0.0
  0
LINE
  5
2115
330
19
100
AcDbEntity
  8
1
100
AcDbLine
 10
4.051647861021894
 20
-0.5710902157775167
 30
0.0
 11
4.084768113615894
 21
-0.5710866443525121
 31
0.0
  0
LINE
  5
2116
330
19
100
AcDbEntity
  8
1
100
AcDbLine
 10
4.039887444210898
 20
-0.5710885014935167
 30
0.0
 11
4.051647861021894
 21
-0.5710902157775167
 31
0.0
  0
LINE
  5
2117
330
19
100
AcDbEntity
  8
1
100
AcDbLine
 10
4.027717027809899
 20
-0.5710866443525121
 30
0.0
 11
4.039887444210898
 21
-0.5710885014935167
 31
0.0
  0
LINE
  5
2118
330
19
100
AcDbEntity
  8
1
100
AcDbLine
 10
4.011269329971897
 20
-0.5710885014935167
 30
0.0
 11
4.027717027809899
 21
-0.5710866443525121
 31
0.0
  0
LINE
  5
2119
330
19
100
AcDbEntity
  8
1
100
AcDbLine
 10
3.994112347128894
 20
-0.5710902157775167
 30
0.0
 11
4.011269329971897
 21
-0.5710885014935167
 31
0.0
  0
LINE
  5
211A
330
19
100
AcDbEntity
  8
1
100
AcDbLine
 10
3.980045504052899
 20
-0.5710936443455168
 30
0.0
 11
3.994112347128894
 21
-0.5710902157775167
 31
0.0
  0
LINE
  5
211B
330
19
100
AcDbEntity
  8
1
100
AcDbLine
 10
3.965416375824899
 20
-0.5710953586295169
 30
0.0
 11
3.980045504052899
 21
-0.5710936443455168
 31
0.0
  0
LINE
  5
211C
330
19
100
AcDbEntity
  8
1
100
AcDbLine
 10
3.963556377684897
 20
-0.5712770727335155
 30
0.0
 11
3.965416375824899
 21
-0.5710953586295169
 31
0.0
  0
LINE
  5
211D
330
19
100
AcDbEntity
  8
1
100
AcDbLine
 10
3.961204951464898
 20
-0.5710573586675132
 30
0.0
 11
3.963556377684897
 21
-0.5712770727335155
 31
0.0
  0
LINE
  5
211E
330
19
100
AcDbEntity
  8
1
100
AcDbLine
 10
3.960447237936893
 20
-0.5705243592005154
 30
0.0
 11
3.961204951464898
 21
-0.5710573586675132
 31
0.0
  0
LINE
  5
211F
330
19
100
AcDbEntity
  8
1
100
AcDbLine
 10
3.960140952528896
 20
-0.5696903600345138
 30
0.0
 11
3.960447237936893
 21
-0.5705243592005154
 31
0.0
  0
LINE
  5
2120
330
19
100
AcDbEntity
  8
1
100
AcDbLine
 10
3.922653561444895
 20
-0.4298163570515145
 30
0.0
 11
3.960140952528896
 21
-0.5696903600345138
 31
0.0
  0
LINE
  5
2121
330
19
100
AcDbEntity
  8
1
100
AcDbLine
 10
3.884970884841893
 20
-0.2892139262255213
 30
0.0
 11
3.922653561444895
 21
-0.4298163570515145
 31
0.0
  0
LINE
  5
2122
330
19
100
AcDbEntity
  8
1
100
AcDbLine
 10
3.839501930310897
 20
-0.119517667350518
 30
0.0
 11
3.884970884841893
 21
-0.2892139262255213
 31
0.0
  0
LINE
  5
2123
330
19
100
AcDbEntity
  8
1
100
AcDbLine
 10
3.793948261578898
 20
0.0504988769184855
 30
0.0
 11
3.839501930310897
 21
-0.119517667350518
 31
0.0
  0
LINE
  5
2124
330
19
100
AcDbEntity
  8
1
100
AcDbLine
 10
3.961888522209897
 20
-0.5710676443715137
 30
0.0
 11
3.961204951464898
 21
-0.5710573586675132
 31
0.0
  0
LINE
  5
2125
330
19
100
AcDbEntity
  8
1
100
AcDbLine
 10
3.960575237808896
 20
-0.5713237869725171
 30
0.0
 11
3.880138318245899
 21
-0.2711243728865185
 31
0.0
  0
LINE
  5
2126
330
19
100
AcDbEntity
  8
1
100
AcDbLine
 10
3.880153889658896
 20
-0.2710845157835173
 30
0.0
 11
3.712753485630893
 21
-0.1581710572685182
 31
0.0
  0
LINE
  5
212A
330
19
100
AcDbEntity
  8
1
100
AcDbLine
 10
2.373542253414897
 20
0.7451383251354855
 30
0.0
 11
2.038739873931898
 21
0.9709652421654835
 31
0.0
  0
LINE
  5
212B
330
19
100
AcDbEntity
  8
1
100
AcDbLine
 10
2.931546838266897
 20
0.3687584158014836
 30
0.0
 11
2.596744458783894
 21
0.5945870471154821
 31
0.0
  0
LINE
  5
212C
330
19
100
AcDbEntity
  8
1
100
AcDbLine
 10
3.732834608406899
 20
0.1846544570484845
 30
0.0
 11
3.703242352284899
 21
0.2046144370884804
 31
0.0
  0
LINE
  5
212D
330
19
100
AcDbEntity
  8
1
100
AcDbLine
 10
3.732834608406899
 20
0.1846544570484845
 30
0.0
 11
3.703242352284899
 21
0.2046144370884804
 31
0.0
  0
LINE
  5
212E
330
19
100
AcDbEntity
  8
1
100
AcDbLine
 10
3.703242352284899
 20
0.2046144370884804
 30
0.0
 11
3.673567096245899
 21
0.2246315599284863
 31
0.0
  0
LINE
  5
212F
330
19
100
AcDbEntity
  8
1
100
AcDbLine
 10
3.703242352284899
 20
0.2046144370884804
 30
0.0
 11
3.673567096245899
 21
0.2246315599284863
 31
0.0
  0
LINE
  5
2130
330
19
100
AcDbEntity
  8
1
100
AcDbLine
 10
3.763532434851896
 20
0.1639729063014847
 30
0.0
 11
3.763534149135896
 21
0.1639729063014847
 31
0.0
  0
LINE
  5
2131
330
19
100
AcDbEntity
  8
1
100
AcDbLine
 10
3.763792006020898
 20
0.1630766214834836
 30
0.0
 11
3.763532434851896
 21
0.1639729063014847
 31
0.0
  0
LINE
  5
2132
330
19
100
AcDbEntity
  8
1
100
AcDbLine
 10
3.764492719605896
 20
0.1605314811714855
 30
0.0
 11
3.763792006020898
 21
0.1630766214834836
 31
0.0
  0
LINE
  5
2133
330
19
100
AcDbEntity
  8
1
100
AcDbLine
 10
3.766951431432896
 20
0.151362918911488
 30
0.0
 11
3.764492719605896
 21
0.1605314811714855
 31
0.0
  0
LINE
  5
2134
330
19
100
AcDbEntity
  8
1
100
AcDbLine
 10
3.769904999907897
 20
0.1403430727884825
 30
0.0
 11
3.766951431432896
 21
0.151362918911488
 31
0.0
  0
LINE
  5
2135
330
19
100
AcDbEntity
  8
1
100
AcDbLine
 10
3.766745574495896
 20
0.1519910611404853
 30
0.0
 11
3.768617572623896
 21
0.1450163538294831
 31
0.0
  0
LINE
  5
2136
330
19
100
AcDbEntity
  8
1
100
AcDbLine
 10
3.765032576208897
 20
0.1583651976234819
 30
0.0
 11
3.766745574495896
 21
0.1519910611404853
 31
0.0
  0
LINE
  5
2137
330
19
100
AcDbEntity
  8
1
100
AcDbLine
 10
3.763949434434898
 20
0.1624503363954837
 30
0.0
 11
3.765032576208897
 21
0.1583651976234819
 31
0.0
  0
LINE
  5
2138
330
19
100
AcDbEntity
  8
1
100
AcDbLine
 10
3.763565291961895
 20
0.1639279063464869
 30
0.0
 11
3.763949434434898
 21
0.1624503363954837
 31
0.0
  0
LINE
  5
2139
330
19
100
AcDbEntity
  8
1
100
AcDbLine
 10
3.763525577715896
 20
0.1640784776244821
 30
0.0
 11
3.763565291961895
 21
0.1639279063464869
 31
0.0
  0
LINE
  5
213A
330
19
100
AcDbEntity
  8
1
100
AcDbLine
 10
3.763510006302899
 20
0.1641371918514842
 30
0.0
 11
3.763525577715896
 21
0.1640784776244821
 31
0.0
  0
LINE
  5
213B
330
19
100
AcDbEntity
  8
1
100
AcDbLine
 10
3.763501292025897
 20
0.1641354775674841
 30
0.0
 11
3.778727419656897
 21
0.1073076772524857
 31
0.0
  0
LINE
  5
213C
330
19
100
AcDbEntity
  8
1
100
AcDbLine
 10
3.748183593057897
 20
0.1743006102594826
 30
0.0
 11
3.732834608406899
 21
0.1846544570484845
 31
0.0
  0
LINE
  5
213D
330
19
100
AcDbEntity
  8
1
100
AcDbLine
 10
3.763428720669893
 20
0.1640161919724861
 30
0.0
 11
3.748183593057897
 21
0.1743006102594826
 31
0.0
  0
LINE
  5
213E
330
19
100
AcDbEntity
  8
1
100
AcDbLine
 10
3.748228593012894
 20
0.1742694674334828
 30
0.0
 11
3.732834608406899
 21
0.1846544570484845
 31
0.0
  0
LINE
  5
213F
330
19
100
AcDbEntity
  8
1
100
AcDbLine
 10
3.763520434863897
 20
0.1639520491794855
 30
0.0
 11
3.748228593012894
 21
0.1742694674334828
 31
0.0
  0
LINE
  5
214E
330
19
100
AcDbEntity
  8
1
100
AcDbLine
 10
-2.781245877506101
 20
4.858391926163482
 30
0.0
 11
-2.8168246990701
 21
4.836011377115481
 31
0.0
  0
LINE
  5
214F
330
19
100
AcDbEntity
  8
1
100
AcDbLine
 10
-2.8168246990701
 20
4.836011377115481
 30
0.0
 11
-2.781245877506101
 21
4.858391926163482
 31
0.0
  0
LINE
  5
2150
330
19
100
AcDbEntity
  8
1
100
AcDbLine
 10
-4.807746565289099
 20
4.526786972054483
 30
0.0
 11
-1.711908089702101
 21
3.982709087561484
 31
0.0
  0
LINE
  5
2151
330
19
100
AcDbEntity
  8
1
100
AcDbLine
 10
-4.819479410699101
 20
2.207026863245483
 30
0.0
 11
-1.711908089702101
 21
3.982709087561484
 31
0.0
  0
LINE
  5
2152
330
19
100
AcDbEntity
  8
1
100
AcDbLine
 10
-4.819479410699101
 20
2.207026863245483
 30
0.0
 11
-1.711908089702101
 21
3.982709087561484
 31
0.0
  0
LINE
  5
2153
330
19
100
AcDbEntity
  8
1
100
AcDbLine
 10
-4.807746565289099
 20
4.526786972054483
 30
0.0
 11
-1.711908089702101
 21
3.982709087561484
 31
0.0
  0
LINE
  5
2165
330
19
100
AcDbEntity
  8
1
100
AcDbLine
 10
-4.028979486914103
 20
4.549921948919481
 30
0.0
 11
-3.841785245537102
 21
4.542146242409478
 31
0.0
  0
LINE
  5
2166
330
19
100
AcDbEntity
  8
1
100
AcDbLine
 10
-4.029204486689098
 20
4.549941091757485
 30
0.0
 11
-3.842010245312103
 21
4.542144528125483
 31
0.0
  0
LINE
  5
2167
330
19
100
AcDbEntity
  8
1
100
AcDbLine
 10
-4.637621163986101
 20
4.656886841954481
 30
0.0
 11
-4.337274750047099
 21
4.595515474754485
 31
0.0
  0
LINE
  5
2168
330
19
100
AcDbEntity
  8
1
100
AcDbLine
 10
-4.637621163986101
 20
4.656886841954481
 30
0.0
 11
-4.436972650349101
 21
4.615695168860483
 31
0.0
  0
LINE
  5
2169
330
19
100
AcDbEntity
  8
1
100
AcDbLine
 10
-4.819479410699101
 20
4.691285664698483
 30
0.0
 11
-4.819479410699101
 21
4.692348092207485
 31
0.0
  0
LINE
  5
216A
330
19
100
AcDbEntity
  8
1
100
AcDbLine
 10
-4.819479410699101
 20
4.688179953518485
 30
0.0
 11
-4.819479410699101
 21
4.691285664698483
 31
0.0
  0
LINE
  5
216B
330
19
100
AcDbEntity
  8
1
100
AcDbLine
 10
-4.819479410699101
 20
4.656238128317481
 30
0.0
 11
-4.819479410699101
 21
4.688179953518485
 31
0.0
  0
LINE
  5
216C
330
19
100
AcDbEntity
  8
1
100
AcDbLine
 10
-4.819479410699101
 20
4.592683049015483
 30
0.0
 11
-4.819479410699101
 21
4.656238128317481
 31
0.0
  0
LINE
  5
216D
330
19
100
AcDbEntity
  8
1
100
AcDbLine
 10
-4.819479410699101
 20
4.688482810358483
 30
0.0
 11
-4.819479410699101
 21
4.692348092207485
 31
0.0
  0
LINE
  5
216E
330
19
100
AcDbEntity
  8
1
100
AcDbLine
 10
-4.819479410699101
 20
4.677094393175487
 30
0.0
 11
-4.819479410699101
 21
4.688482810358483
 31
0.0
  0
LINE
  5
216F
330
19
100
AcDbEntity
  8
1
100
AcDbLine
 10
-4.819479410699101
 20
4.644095283317483
 30
0.0
 11
-4.819479410699101
 21
4.677094393175487
 31
0.0
  0
LINE
  5
2170
330
19
100
AcDbEntity
  8
1
100
AcDbLine
 10
-4.819479410699101
 20
4.592683049015483
 30
0.0
 11
-4.819479410699101
 21
4.644095283317483
 31
0.0
  0
LINE
  5
2171
330
19
100
AcDbEntity
  8
1
100
AcDbLine
 10
-4.819475839274103
 20
4.592065335347482
 30
0.0
 11
-4.819479410699101
 21
4.592686477583483
 31
0.0
  0
LINE
  5
2172
330
19
100
AcDbEntity
  8
1
100
AcDbLine
 10
-4.819474124990098
 20
4.591445907395481
 30
0.0
 11
-4.819475839274103
 21
4.592065335347482
 31
0.0
  0
LINE
  5
2173
330
19
100
AcDbEntity
  8
1
100
AcDbLine
 10
-4.819475839274103
 20
4.535552391860483
 30
0.0
 11
-4.819474124990098
 21
4.591445907395481
 31
0.0
  0
LINE
  5
2174
330
19
100
AcDbEntity
  8
1
100
AcDbLine
 10
-4.819477553558101
 20
4.502143282412481
 30
0.0
 11
-4.819475839274103
 21
4.535552391860483
 31
0.0
  0
LINE
  5
2175
330
19
100
AcDbEntity
  8
1
100
AcDbLine
 10
-4.819479410699101
 20
4.49237957789048
 30
0.0
 11
-4.819477553558101
 21
4.502143282412481
 31
0.0
  0
LINE
  5
2176
330
19
100
AcDbEntity
  8
1
100
AcDbLine
 10
-4.819479410699101
 20
4.509465560804486
 30
0.0
 11
-4.819479410699101
 21
4.49237957789048
 31
0.0
  0
LINE
  5
2177
330
19
100
AcDbEntity
  8
1
100
AcDbLine
 10
-4.819479410699101
 20
4.559504082194481
 30
0.0
 11
-4.819479410699101
 21
4.509465560804486
 31
0.0
  0
LINE
  5
2178
330
19
100
AcDbEntity
  8
1
100
AcDbLine
 10
-4.819479410699101
 20
4.575498351914481
 30
0.0
 11
-4.819479410699101
 21
4.559504082194481
 31
0.0
  0
LINE
  5
2179
330
19
100
AcDbEntity
  8
1
100
AcDbLine
 10
-4.819479410699101
 20
4.592686477583483
 30
0.0
 11
-4.819479410699101
 21
4.575498351914481
 31
0.0
  0
LINE
  5
217A
330
19
100
AcDbEntity
  8
1
100
AcDbLine
 10
-4.678433980316103
 20
4.664821834019483
 30
0.0
 11
-4.637621163986101
 21
4.656886841954481
 31
0.0
  0
LINE
  5
217B
330
19
100
AcDbEntity
  8
1
100
AcDbLine
 10
-4.717128941621101
 20
4.67234654078048
 30
0.0
 11
-4.678433980316103
 21
4.664821834019483
 31
0.0
  0
LINE
  5
217C
330
19
100
AcDbEntity
  8
1
100
AcDbLine
 10
-4.775050312271101
 20
4.683605243807483
 30
0.0
 11
-4.717128941621101
 21
4.67234654078048
 31
0.0
  0
LINE
  5
217D
330
19
100
AcDbEntity
  8
1
100
AcDbLine
 10
-4.8120289895781
 20
4.690794379475483
 30
0.0
 11
-4.775050312271101
 21
4.683605243807483
 31
0.0
  0
LINE
  5
217E
330
19
100
AcDbEntity
  8
1
100
AcDbLine
 10
-4.817768126696101
 20
4.69190694979148
 30
0.0
 11
-4.8120289895781
 21
4.690794379475483
 31
0.0
  0
LINE
  5
217F
330
19
100
AcDbEntity
  8
1
100
AcDbLine
 10
-4.819479410699101
 20
4.692237378032483
 30
0.0
 11
-4.817768126696101
 21
4.69190694979148
 31
0.0
  0
LINE
  5
2180
330
19
100
AcDbEntity
  8
1
100
AcDbLine
 10
-4.812281560754101
 20
4.690842807998485
 30
0.0
 11
-4.819479410699101
 21
4.692237378032483
 31
0.0
  0
LINE
  5
2181
330
19
100
AcDbEntity
  8
1
100
AcDbLine
 10
-4.791918438260101
 20
4.686889240523482
 30
0.0
 11
-4.812281560754101
 21
4.690842807998485
 31
0.0
  0
LINE
  5
2182
330
19
100
AcDbEntity
  8
1
100
AcDbLine
 10
-4.739004348317101
 20
4.676601250811483
 30
0.0
 11
-4.791918438260101
 21
4.686889240523482
 31
0.0
  0
LINE
  5
2183
330
19
100
AcDbEntity
  8
1
100
AcDbLine
 10
-4.666476277988103
 20
4.66249983634148
 30
0.0
 11
-4.739004348317101
 21
4.676601250811483
 31
0.0
  0
LINE
  5
2184
330
19
100
AcDbEntity
  8
1
100
AcDbLine
 10
-4.652196720839099
 20
4.659722696261486
 30
0.0
 11
-4.666476277988103
 21
4.66249983634148
 31
0.0
  0
LINE
  5
2185
330
19
100
AcDbEntity
  8
1
100
AcDbLine
 10
-4.637621163986101
 20
4.656886841954481
 30
0.0
 11
-4.652196720839099
 21
4.659722696261486
 31
0.0
  0
LINE
  5
2186
330
19
100
AcDbEntity
  8
1
100
AcDbLine
 10
-4.337274750047099
 20
4.595515474754485
 30
0.0
 11
-4.028979486914103
 21
4.549921948919481
 31
0.0
  0
LINE
  5
2187
330
19
100
AcDbEntity
  8
1
100
AcDbLine
 10
-4.236915850406101
 20
4.577131635995481
 30
0.0
 11
-4.029204486689098
 21
4.549941091757485
 31
0.0
  0
LINE
  5
2188
330
19
100
AcDbEntity
  8
1
100
AcDbLine
 10
-4.436972650349101
 20
4.615695168860483
 30
0.0
 11
-4.236915850406101
 21
4.577131635995481
 31
0.0
  0
LINE
  5
2189
330
19
100
AcDbEntity
  8
1
100
AcDbLine
 10
-3.478174466291103
 20
4.578538348874481
 30
0.0
 11
-3.267476676989098
 21
4.631106439163481
 31
0.0
  0
LINE
  5
218A
330
19
100
AcDbEntity
  8
1
100
AcDbLine
 10
-3.478396037498103
 20
4.57849677748748
 30
0.0
 11
-3.1652579220651
 21
4.665641833199483
 31
0.0
  0
LINE
  5
218B
330
19
100
AcDbEntity
  8
1
100
AcDbLine
 10
-3.659748856145101
 20
4.551781947059481
 30
0.0
 11
-3.478174466291103
 21
4.578538348874481
 31
0.0
  0
LINE
  5
218C
330
19
100
AcDbEntity
  8
1
100
AcDbLine
 10
-3.841785245537102
 20
4.542146242409478
 30
0.0
 11
-3.659748856145101
 21
4.551781947059481
 31
0.0
  0
LINE
  5
218D
330
19
100
AcDbEntity
  8
1
100
AcDbLine
 10
-3.6599738559201
 20
4.551759518510486
 30
0.0
 11
-3.478396037498103
 21
4.57849677748748
 31
0.0
  0
LINE
  5
218E
330
19
100
AcDbEntity
  8
1
100
AcDbLine
 10
-3.842010245312103
 20
4.542144528125483
 30
0.0
 11
-3.6599738559201
 21
4.551759518510486
 31
0.0
  0
LINE
  5
218F
330
19
100
AcDbEntity
  8
1
100
AcDbLine
 10
-2.8168246990701
 20
4.836011377115481
 30
0.0
 11
-2.851920806831103
 21
4.814125541858483
 31
0.0
  0
LINE
  5
2190
330
19
100
AcDbEntity
  8
1
100
AcDbLine
 10
-2.851920806831103
 20
4.814125541858483
 30
0.0
 11
-2.8168246990701
 21
4.836011377115481
 31
0.0
  0
LINE
  5
2191
330
19
100
AcDbEntity
  8
1
100
AcDbLine
 10
-2.8617156541791
 20
4.807375977179481
 30
0.0
 11
-2.851822235501105
 21
4.813230971324478
 31
0.0
  0
LINE
  5
2192
330
19
100
AcDbEntity
  8
1
100
AcDbLine
 10
-2.871789072677101
 20
4.801588268681483
 30
0.0
 11
-2.8617156541791
 21
4.807375977179481
 31
0.0
  0
LINE
  5
2193
330
19
100
AcDbEntity
  8
1
100
AcDbLine
 10
-3.064831451063103
 20
4.70574007881548
 30
0.0
 11
-2.871789072677101
 21
4.801588268681483
 31
0.0
  0
LINE
  5
2194
330
19
100
AcDbEntity
  8
1
100
AcDbLine
 10
-3.267476676989098
 20
4.631106439163481
 30
0.0
 11
-3.064831451063103
 21
4.70574007881548
 31
0.0
  0
LINE
  5
2195
330
19
100
AcDbEntity
  8
1
100
AcDbLine
 10
-2.861883511154098
 20
4.807278977276485
 30
0.0
 11
-2.851976092490101
 21
4.813141114271483
 31
0.0
  0
LINE
  5
2196
330
19
100
AcDbEntity
  8
1
100
AcDbLine
 10
-2.8719725010651
 20
4.801484411642483
 30
0.0
 11
-2.861883511154098
 21
4.807278977276485
 31
0.0
  0
LINE
  5
2197
330
19
100
AcDbEntity
  8
1
100
AcDbLine
 10
-3.1652579220651
 20
4.665641833199483
 30
0.0
 11
-2.8719725010651
 21
4.801484411642483
 31
0.0
  0
LINE
  5
219F
330
19
100
AcDbEntity
  8
1
100
AcDbLine
 10
-0.4988483027631025
 20
4.53286182312248
 30
0.0
 11
-0.4053291105681005
 21
4.410016803110487
 31
0.0
  0
LINE
  5
21A0
330
19
100
AcDbEntity
  8
1
100
AcDbLine
 10
-0.4235952351591017
 20
4.438266346289488
 30
0.0
 11
-0.4785647516181017
 21
4.509548703578483
 31
0.0
  0
LINE
  5
21A1
330
19
100
AcDbEntity
  8
1
100
AcDbLine
 10
-0.4235952351591017
 20
4.438266346289488
 30
0.0
 11
-0.4785647516181017
 21
4.509548703578483
 31
0.0
  0
LINE
  5
21A2
330
19
100
AcDbEntity
  8
1
100
AcDbLine
 10
-0.4988483027631025
 20
4.53286182312248
 30
0.0
 11
-0.4053291105681005
 21
4.410016803110487
 31
0.0
  0
LINE
  5
21A3
330
19
100
AcDbEntity
  8
1
100
AcDbLine
 10
-0.4097463918651007
 20
3.459975467438482
 30
0.0
 11
-0.4958498771900999
 21
3.781321717520483
 31
0.0
  0
LINE
  5
21A4
330
19
100
AcDbEntity
  8
1
100
AcDbLine
 10
-1.569843660338104
 20
4.903715452268481
 30
0.0
 11
-1.711908089702101
 21
4.91864743733648
 31
0.0
  0
LINE
  5
21A5
330
19
100
AcDbEntity
  8
1
100
AcDbLine
 10
-1.569843660338104
 20
4.903715452268481
 30
0.0
 11
-1.711908089702101
 21
4.91864743733648
 31
0.0
  0
LINE
  5
21A6
330
19
100
AcDbEntity
  8
1
100
AcDbLine
 10
-2.2509596935071
 20
4.975303952108481
 30
0.0
 11
-1.457701915337101
 21
4.891929035483485
 31
0.0
  0
LINE
  5
21A7
330
19
100
AcDbEntity
  8
1
100
AcDbLine
 10
-1.711908089702101
 20
3.982709087561484
 30
0.0
 11
-1.711908089702101
 21
4.91864743733648
 31
0.0
  0
LINE
  5
21A8
330
19
100
AcDbEntity
  8
1
100
AcDbLine
 10
-1.711908089702101
 20
3.982709087561484
 30
0.0
 11
-1.711908089702101
 21
4.91864743733648
 31
0.0
  0
LINE
  5
21A9
330
19
100
AcDbEntity
  8
1
100
AcDbLine
 10
-2.345569027469103
 20
4.98529779925748
 30
0.0
 11
-2.129315386580103
 21
4.962619536221487
 31
0.0
  0
LINE
  5
21AA
330
19
100
AcDbEntity
  8
1
100
AcDbLine
 10
-2.345511884669102
 20
4.98530122782548
 30
0.0
 11
-2.129382957941102
 21
4.962648964763481
 31
0.0
  0
LINE
  5
21AB
330
19
100
AcDbEntity
  8
1
100
AcDbLine
 10
-2.672670128939101
 20
4.924495574345485
 30
0.0
 11
-2.781245877506101
 21
4.858391926163482
 31
0.0
  0
LINE
  5
21AC
330
19
100
AcDbEntity
  8
1
100
AcDbLine
 10
-2.5574208156171
 20
4.97212552671548
 30
0.0
 11
-2.672670128939101
 21
4.924495574345485
 31
0.0
  0
LINE
  5
21AD
330
19
100
AcDbEntity
  8
1
100
AcDbLine
 10
-2.459536199216101
 20
4.988405367578486
 30
0.0
 11
-2.5574208156171
 21
4.97212552671548
 31
0.0
  0
LINE
  5
21AE
330
19
100
AcDbEntity
  8
1
100
AcDbLine
 10
-2.360983583483101
 20
4.987759939652483
 30
0.0
 11
-2.459536199216101
 21
4.988405367578486
 31
0.0
  0
LINE
  5
21AF
330
19
100
AcDbEntity
  8
1
100
AcDbLine
 10
-2.353259876921101
 20
4.987043654654485
 30
0.0
 11
-2.360983583483101
 21
4.987759939652483
 31
0.0
  0
LINE
  5
21B0
330
19
100
AcDbEntity
  8
1
100
AcDbLine
 10
-2.345543027495104
 20
4.986264941147485
 30
0.0
 11
-2.353259876921101
 21
4.987043654654485
 31
0.0
  0
LINE
  5
21B1
330
19
100
AcDbEntity
  8
1
100
AcDbLine
 10
-2.353259876921101
 20
4.987043654654485
 30
0.0
 11
-2.345543027495104
 21
4.986264941147485
 31
0.0
  0
LINE
  5
21B2
330
19
100
AcDbEntity
  8
1
100
AcDbLine
 10
-2.360983583483101
 20
4.987759939652483
 30
0.0
 11
-2.353259876921101
 21
4.987043654654485
 31
0.0
  0
LINE
  5
21B3
330
19
100
AcDbEntity
  8
1
100
AcDbLine
 10
-2.459536199216101
 20
4.988405367578486
 30
0.0
 11
-2.360983583483101
 21
4.987759939652483
 31
0.0
  0
LINE
  5
21B4
330
19
100
AcDbEntity
  8
1
100
AcDbLine
 10
-2.5574208156171
 20
4.97212552671548
 30
0.0
 11
-2.459536199216101
 21
4.988405367578486
 31
0.0
  0
LINE
  5
21B5
330
19
100
AcDbEntity
  8
1
100
AcDbLine
 10
-2.672670128939101
 20
4.924495574345485
 30
0.0
 11
-2.5574208156171
 21
4.97212552671548
 31
0.0
  0
LINE
  5
21B6
330
19
100
AcDbEntity
  8
1
100
AcDbLine
 10
-2.781245877506101
 20
4.858391926163482
 30
0.0
 11
-2.672670128939101
 21
4.924495574345485
 31
0.0
  0
LINE
  5
21B7
330
19
100
AcDbEntity
  8
1
100
AcDbLine
 10
-1.8124937034021
 20
4.929219141050481
 30
0.0
 11
-1.711908089702101
 21
4.91864743733648
 31
0.0
  0
LINE
  5
21B8
330
19
100
AcDbEntity
  8
1
100
AcDbLine
 10
-1.913077459961099
 20
4.939790844764483
 30
0.0
 11
-1.8124937034021
 21
4.929219141050481
 31
0.0
  0
LINE
  5
21B9
330
19
100
AcDbEntity
  8
1
100
AcDbLine
 10
-2.129315386580103
 20
4.962619536221487
 30
0.0
 11
-1.913077459961099
 21
4.939790844764483
 31
0.0
  0
LINE
  5
21BA
330
19
100
AcDbEntity
  8
1
100
AcDbLine
 10
-1.812590560448104
 20
4.929229569611486
 30
0.0
 11
-1.711908089702101
 21
4.91864743733648
 31
0.0
  0
LINE
  5
21BB
330
19
100
AcDbEntity
  8
1
100
AcDbLine
 10
-1.913273031194104
 20
4.939811559029486
 30
0.0
 11
-1.812590560448104
 21
4.929229569611486
 31
0.0
  0
LINE
  5
21BC
330
19
100
AcDbEntity
  8
1
100
AcDbLine
 10
-2.129382957941102
 20
4.962648964763481
 30
0.0
 11
-1.913273031194104
 21
4.939811559029486
 31
0.0
  0
LINE
  5
21BD
330
19
100
AcDbEntity
  8
1
100
AcDbLine
 10
-0.6548724324531037
 20
4.317765895361485
 30
0.0
 11
-0.5963056338771047
 21
4.156227628328482
 31
0.0
  0
LINE
  5
21BE
330
19
100
AcDbEntity
  8
1
100
AcDbLine
 10
-0.5532539626431028
 20
3.995554360430482
 30
0.0
 11
-0.5963056338771047
 21
4.156227628328482
 31
0.0
  0
LINE
  5
21BF
330
19
100
AcDbEntity
  8
1
100
AcDbLine
 10
-1.033742196440099
 20
4.84328694126848
 30
0.0
 11
-0.9031630413051026
 21
4.806083407043479
 31
0.0
  0
LINE
  5
21C0
330
19
100
AcDbEntity
  8
1
100
AcDbLine
 10
-0.9839131034121047
 20
4.830415668425486
 30
0.0
 11
-1.1168731133091
 21
4.856329499654485
 31
0.0
  0
LINE
  5
21C1
330
19
100
AcDbEntity
  8
1
100
AcDbLine
 10
-0.9839131034121047
 20
4.830415668425486
 30
0.0
 11
-1.1168731133091
 21
4.856329499654485
 31
0.0
  0
LINE
  5
21C2
330
19
100
AcDbEntity
  8
1
100
AcDbLine
 10
-1.033742196440099
 20
4.84328694126848
 30
0.0
 11
-0.9031630413051026
 21
4.806083407043479
 31
0.0
  0
LINE
  5
21C3
330
19
100
AcDbEntity
  8
1
100
AcDbLine
 10
-1.061822168360102
 20
4.758965597018479
 30
0.0
 11
-0.9805132496691053
 21
4.710797645186481
 31
0.0
  0
LINE
  5
21C4
330
19
100
AcDbEntity
  8
1
100
AcDbLine
 10
-1.1743826272281
 20
4.861951065461481
 30
0.0
 11
-1.033742196440099
 21
4.84328694126848
 31
0.0
  0
LINE
  5
21C5
330
19
100
AcDbEntity
  8
1
100
AcDbLine
 10
-1.1458285129251
 20
4.859575353551482
 30
0.0
 11
-1.1743826272281
 21
4.861951065461481
 31
0.0
  0
LINE
  5
21C6
330
19
100
AcDbEntity
  8
1
100
AcDbLine
 10
-1.1168731133091
 20
4.856329499654485
 30
0.0
 11
-1.1458285129251
 21
4.859575353551482
 31
0.0
  0
LINE
  5
21C7
330
19
100
AcDbEntity
  8
1
100
AcDbLine
 10
-1.2667495348611
 20
4.870391057021485
 30
0.0
 11
-1.254700261196099
 21
4.870595199674481
 31
0.0
  0
LINE
  5
21C8
330
19
100
AcDbEntity
  8
1
100
AcDbLine
 10
-1.267163105876105
 20
4.866899489084481
 30
0.0
 11
-1.2667495348611
 21
4.870391057021485
 31
0.0
  0
LINE
  5
21C9
330
19
100
AcDbEntity
  8
1
100
AcDbLine
 10
-1.2640348232901
 20
4.862767636073485
 30
0.0
 11
-1.267163105876105
 21
4.866899489084481
 31
0.0
  0
LINE
  5
21CA
330
19
100
AcDbEntity
  8
1
100
AcDbLine
 10
-1.249519837805104
 20
4.850086791611484
 30
0.0
 11
-1.2640348232901
 21
4.862767636073485
 31
0.0
  0
LINE
  5
21CB
330
19
100
AcDbEntity
  8
1
100
AcDbLine
 10
-1.223898577712104
 20
4.837625661215483
 30
0.0
 11
-1.249519837805104
 21
4.850086791611484
 31
0.0
  0
LINE
  5
21CC
330
19
100
AcDbEntity
  8
1
100
AcDbLine
 10
-1.266507392246099
 20
4.86875948722448
 30
0.0
 11
-1.254701975480103
 21
4.870595199674481
 31
0.0
  0
LINE
  5
21CD
330
19
100
AcDbEntity
  8
1
100
AcDbLine
 10
-1.264076394677102
 20
4.862788493195483
 30
0.0
 11
-1.266507392246099
 21
4.86875948722448
 31
0.0
  0
LINE
  5
21CE
330
19
100
AcDbEntity
  8
1
100
AcDbLine
 10
-1.2496738376511
 20
4.850034934520477
 30
0.0
 11
-1.264076394677102
 21
4.862788493195483
 31
0.0
  0
LINE
  5
21CF
330
19
100
AcDbEntity
  8
1
100
AcDbLine
 10
-1.223902006280104
 20
4.837623946931483
 30
0.0
 11
-1.2496738376511
 21
4.850034934520477
 31
0.0
  0
LINE
  5
21D0
330
19
100
AcDbEntity
  8
1
100
AcDbLine
 10
-1.240027847297102
 20
4.842703798994483
 30
0.0
 11
-1.223933149106102
 21
4.837637804060483
 31
0.0
  0
LINE
  5
21D1
330
19
100
AcDbEntity
  8
1
100
AcDbLine
 10
-1.2371469930351
 20
4.841779942775481
 30
0.0
 11
-1.240027847297102
 21
4.842703798994483
 31
0.0
  0
LINE
  5
21D2
330
19
100
AcDbEntity
  8
1
100
AcDbLine
 10
-1.2310149991671
 20
4.839887087525482
 30
0.0
 11
-1.2371469930351
 21
4.841779942775481
 31
0.0
  0
LINE
  5
21D3
330
19
100
AcDbEntity
  8
1
100
AcDbLine
 10
-1.223934863390097
 20
4.837635946919483
 30
0.0
 11
-1.2310149991671
 21
4.839887087525482
 31
0.0
  0
LINE
  5
21D4
330
19
100
AcDbEntity
  8
1
100
AcDbLine
 10
-1.2144618728631
 20
4.866364775333487
 30
0.0
 11
-1.1743826272281
 21
4.862151779546483
 31
0.0
  0
LINE
  5
21D5
330
19
100
AcDbEntity
  8
1
100
AcDbLine
 10
-1.254620546990102
 20
4.870586628254486
 30
0.0
 11
-1.2144618728631
 21
4.866364775333487
 31
0.0
  0
LINE
  5
21D6
330
19
100
AcDbEntity
  8
1
100
AcDbLine
 10
-1.2144618728631
 20
4.866364775333487
 30
0.0
 11
-1.1743826272281
 21
4.862151779546483
 31
0.0
  0
LINE
  5
21D7
330
19
100
AcDbEntity
  8
1
100
AcDbLine
 10
-1.254620546990102
 20
4.870586628254486
 30
0.0
 11
-1.2144618728631
 21
4.866364775333487
 31
0.0
  0
LINE
  5
21D8
330
19
100
AcDbEntity
  8
1
100
AcDbLine
 10
-1.1458285129251
 20
4.859575353551482
 30
0.0
 11
-1.1743826272281
 21
4.861951065461481
 31
0.0
  0
LINE
  5
21D9
330
19
100
AcDbEntity
  8
1
100
AcDbLine
 10
-1.1168731133091
 20
4.856329499654485
 30
0.0
 11
-1.1458285129251
 21
4.859575353551482
 31
0.0
  0
LINE
  5
21DA
330
19
100
AcDbEntity
  8
1
100
AcDbLine
 10
-1.1743826272281
 20
4.861951065461481
 30
0.0
 11
-1.033742196440099
 21
4.84328694126848
 31
0.0
  0
LINE
  5
21DB
330
19
100
AcDbEntity
  8
1
100
AcDbLine
 10
-1.4277792309741
 20
4.888783467200481
 30
0.0
 11
-1.569843660338104
 21
4.903715452268481
 31
0.0
  0
LINE
  5
21DC
330
19
100
AcDbEntity
  8
1
100
AcDbLine
 10
-1.3341111817851
 20
4.87893847704548
 30
0.0
 11
-1.4277792309741
 21
4.888783467200481
 31
0.0
  0
LINE
  5
21DD
330
19
100
AcDbEntity
  8
1
100
AcDbLine
 10
-1.240441275455101
 20
4.869093486890482
 30
0.0
 11
-1.3341111817851
 21
4.87893847704548
 31
0.0
  0
LINE
  5
21DE
330
19
100
AcDbEntity
  8
1
100
AcDbLine
 10
-1.2074128799121
 20
4.865622633218481
 30
0.0
 11
-1.240441275455101
 21
4.869093486890482
 31
0.0
  0
LINE
  5
21DF
330
19
100
AcDbEntity
  8
1
100
AcDbLine
 10
-1.1743826272281
 20
4.862151779546483
 30
0.0
 11
-1.2074128799121
 21
4.865622633218481
 31
0.0
  0
LINE
  5
21E0
330
19
100
AcDbEntity
  8
1
100
AcDbLine
 10
-1.4277792309741
 20
4.888783467200481
 30
0.0
 11
-1.569843660338104
 21
4.903715452268481
 31
0.0
  0
LINE
  5
21E1
330
19
100
AcDbEntity
  8
1
100
AcDbLine
 10
-1.3341111817851
 20
4.87893847704548
 30
0.0
 11
-1.4277792309741
 21
4.888783467200481
 31
0.0
  0
LINE
  5
21E2
330
19
100
AcDbEntity
  8
1
100
AcDbLine
 10
-1.240441275455101
 20
4.869093486890482
 30
0.0
 11
-1.3341111817851
 21
4.87893847704548
 31
0.0
  0
LINE
  5
21E3
330
19
100
AcDbEntity
  8
1
100
AcDbLine
 10
-1.2074128799121
 20
4.865622633218481
 30
0.0
 11
-1.240441275455101
 21
4.869093486890482
 31
0.0
  0
LINE
  5
21E4
330
19
100
AcDbEntity
  8
1
100
AcDbLine
 10
-1.1743826272281
 20
4.862151779546483
 30
0.0
 11
-1.2074128799121
 21
4.865622633218481
 31
0.0
  0
LINE
  5
21E5
330
19
100
AcDbEntity
  8
1
100
AcDbLine
 10
-1.288991798333102
 20
4.859353925201481
 30
0.0
 11
-1.2809582349381
 21
4.856305213964486
 31
0.0
  0
LINE
  5
21E6
330
19
100
AcDbEntity
  8
1
100
AcDbLine
 10
-1.457701915337101
 20
4.891929035483485
 30
0.0
 11
-1.288991798333102
 21
4.859353925201481
 31
0.0
  0
LINE
  5
21E7
330
19
100
AcDbEntity
  8
1
100
AcDbLine
 10
-0.6243060344481039
 20
4.651251561875483
 30
0.0
 11
-0.4988483027631025
 21
4.53286182312248
 31
0.0
  0
LINE
  5
21E8
330
19
100
AcDbEntity
  8
1
100
AcDbLine
 10
-0.7731945998451053
 20
4.747303894394483
 30
0.0
 11
-0.6243060344481039
 21
4.651251561875483
 31
0.0
  0
LINE
  5
21E9
330
19
100
AcDbEntity
  8
1
100
AcDbLine
 10
-0.9031630413051026
 20
4.806083407043479
 30
0.0
 11
-0.7731945998451053
 21
4.747303894394483
 31
0.0
  0
LINE
  5
21EA
330
19
100
AcDbEntity
  8
1
100
AcDbLine
 10
-0.854103804650103
 20
4.78576699878848
 30
0.0
 11
-0.9839131034121047
 21
4.830415668425486
 31
0.0
  0
LINE
  5
21EB
330
19
100
AcDbEntity
  8
1
100
AcDbLine
 10
-0.7425556304841054
 20
4.730454768386485
 30
0.0
 11
-0.854103804650103
 21
4.78576699878848
 31
0.0
  0
LINE
  5
21EC
330
19
100
AcDbEntity
  8
1
100
AcDbLine
 10
-0.6367170220371055
 20
4.660070553056478
 30
0.0
 11
-0.7425556304841054
 21
4.730454768386485
 31
0.0
  0
LINE
  5
21ED
330
19
100
AcDbEntity
  8
1
100
AcDbLine
 10
-0.5379015494241007
 20
4.573942924898481
 30
0.0
 11
-0.6367170220371055
 21
4.660070553056478
 31
0.0
  0
LINE
  5
21EE
330
19
100
AcDbEntity
  8
1
100
AcDbLine
 10
-0.4785647516181017
 20
4.509548703578483
 30
0.0
 11
-0.5379015494241007
 21
4.573942924898481
 31
0.0
  0
LINE
  5
21EF
330
19
100
AcDbEntity
  8
1
100
AcDbLine
 10
-0.854103804650103
 20
4.78576699878848
 30
0.0
 11
-0.9839131034121047
 21
4.830415668425486
 31
0.0
  0
LINE
  5
21F0
330
19
100
AcDbEntity
  8
1
100
AcDbLine
 10
-0.7425556304841054
 20
4.730454768386485
 30
0.0
 11
-0.854103804650103
 21
4.78576699878848
 31
0.0
  0
LINE
  5
21F1
330
19
100
AcDbEntity
  8
1
100
AcDbLine
 10
-0.6367170220371055
 20
4.660070553056478
 30
0.0
 11
-0.7425556304841054
 21
4.730454768386485
 31
0.0
  0
LINE
  5
21F2
330
19
100
AcDbEntity
  8
1
100
AcDbLine
 10
-0.5379015494241007
 20
4.573942924898481
 30
0.0
 11
-0.6367170220371055
 21
4.660070553056478
 31
0.0
  0
LINE
  5
21F3
330
19
100
AcDbEntity
  8
1
100
AcDbLine
 10
-0.4785647516181017
 20
4.509548703578483
 30
0.0
 11
-0.5379015494241007
 21
4.573942924898481
 31
0.0
  0
LINE
  5
21F4
330
19
100
AcDbEntity
  8
1
100
AcDbLine
 10
-0.6243060344481039
 20
4.651251561875483
 30
0.0
 11
-0.4988483027631025
 21
4.53286182312248
 31
0.0
  0
LINE
  5
21F5
330
19
100
AcDbEntity
  8
1
100
AcDbLine
 10
-0.7731945998451053
 20
4.747303894394483
 30
0.0
 11
-0.6243060344481039
 21
4.651251561875483
 31
0.0
  0
LINE
  5
21F6
330
19
100
AcDbEntity
  8
1
100
AcDbLine
 10
-0.9031630413051026
 20
4.806083407043479
 30
0.0
 11
-0.7731945998451053
 21
4.747303894394483
 31
0.0
  0
LINE
  5
21F7
330
19
100
AcDbEntity
  8
1
100
AcDbLine
 10
-0.6591408567561015
 20
4.325221459334481
 30
0.0
 11
-0.6548724324531037
 21
4.317765895361485
 31
0.0
  0
LINE
  5
21F8
330
19
100
AcDbEntity
  8
1
100
AcDbLine
 10
-0.8498560946121036
 20
4.599206042492481
 30
0.0
 11
-0.7895608691931014
 21
4.526432258123485
 31
0.0
  0
LINE
  5
21F9
330
19
100
AcDbEntity
  8
1
100
AcDbLine
 10
-0.9805132496691053
 20
4.710797645186481
 30
0.0
 11
-0.8498560946121036
 21
4.599206042492481
 31
0.0
  0
LINE
  5
21FD
330
19
100
AcDbEntity
  8
1
100
AcDbLine
 10
-0.0195124963851008
 20
3.162717478982486
 30
0.0
 11
-0.1827983330991039
 21
3.772106583878481
 31
0.0
  0
LINE
  5
21FE
330
19
100
AcDbEntity
  8
1
100
AcDbLine
 10
-0.0195124963851008
 20
3.162717478982486
 30
0.0
 11
-0.1124434034541011
 21
3.509537989304483
 31
0.0
  0
LINE
  5
21FF
330
19
100
AcDbEntity
  8
1
100
AcDbLine
 10
-0.0195124963851008
 20
3.162717478982486
 30
0.0
 11
-0.1124434034541011
 21
3.509537989304483
 31
0.0
  0
LINE
  5
2200
330
19
100
AcDbEntity
  8
1
100
AcDbLine
 10
-0.0195124963851008
 20
3.162717478982486
 30
0.0
 11
-0.1827983330991039
 21
3.772106583878481
 31
0.0
  0
ARC
  5
2202
330
19
100
AcDbEntity
  8
1
100
AcDbCircle
 10
1.680515232156896
 20
3.618238452032485
 30
0.0
 40
1.759998239999999
100
AcDbArc
 50
195.0000000000003
 51
239.0183800000002
  0
ARC
  5
2203
330
19
100
AcDbEntity
  8
1
100
AcDbCircle
 10
1.680515232156896
 20
3.618238452032485
 30
0.0
 40
1.759998239999999
100
AcDbArc
 50
195.0000000000003
 51
239.0183800000002
  0
ARC
  5
2204
330
19
100
AcDbEntity
  8
1
100
AcDbCircle
 10
1.680515232156896
 20
3.618238452032485
 30
0.0
 40
1.759998239999999
100
AcDbArc
 50
195.0000000000003
 51
239.0183800000002
  0
ARC
  5
2205
330
19
100
AcDbEntity
  8
1
100
AcDbCircle
 10
1.680515232156896
 20
3.618238452032485
 30
0.0
 40
1.759998239999999
100
AcDbArc
 50
195.0000000000003
 51
239.0183800000002
  0
LINE
  5
2206
330
19
100
AcDbEntity
  8
1
100
AcDbLine
 10
0.1898564371029003
 20
2.198631728783484
 30
0.0
 11
0.0353273059178996
 21
2.37850012034348
 31
0.0
  0
LINE
  5
2207
330
19
100
AcDbEntity
  8
1
100
AcDbLine
 10
0.0353273059178996
 20
2.37850012034348
 30
0.0
 11
-0.0949801352031017
 21
2.576622493649479
 31
0.0
  0
LINE
  5
2208
330
19
100
AcDbEntity
  8
1
100
AcDbLine
 10
0.619536293136898
 20
1.852475503511485
 30
0.0
 11
0.4245006310298969
 21
1.987356082916484
 31
0.0
  0
LINE
  5
2209
330
19
100
AcDbEntity
  8
1
100
AcDbLine
 10
0.6495368345648977
 20
1.83444995010848
 30
0.0
 11
0.619536293136898
 21
1.852475503511485
 31
0.0
  0
LINE
  5
220A
330
19
100
AcDbEntity
  8
1
100
AcDbLine
 10
0.7195370502788983
 20
1.79238956359748
 30
0.0
 11
0.6895365088508987
 21
1.810415259857484
 31
0.0
  0
LINE
  5
220E
330
19
100
AcDbEntity
  8
1
100
AcDbLine
 10
-0.2333938539321014
 20
2.860412352716482
 30
0.0
 11
-0.3092906351781011
 21
3.085071413771486
 31
0.0
  0
LINE
  5
220F
330
19
100
AcDbEntity
  8
1
100
AcDbLine
 10
-0.3092906351781011
 20
3.085071413771486
 30
0.0
 11
-0.3523423064121012
 21
3.245744538812484
 31
0.0
  0
LINE
  5
2215
330
19
100
AcDbEntity
  8
1
100
AcDbLine
 10
-0.3327007546251011
 20
4.275676080308485
 30
0.0
 11
-0.2803645212470993
 21
4.132959365882483
 31
0.0
  0
LINE
  5
2216
330
19
100
AcDbEntity
  8
1
100
AcDbLine
 10
-0.3082542076431025
 20
4.219756707656478
 30
0.0
 11
-0.3602201556771032
 21
4.336288019696481
 31
0.0
  0
LINE
  5
2217
330
19
100
AcDbEntity
  8
1
100
AcDbLine
 10
-0.3082542076431025
 20
4.219756707656478
 30
0.0
 11
-0.3602201556771032
 21
4.336288019696481
 31
0.0
  0
LINE
  5
2218
330
19
100
AcDbEntity
  8
1
100
AcDbLine
 10
-0.3327007546251011
 20
4.275676080308485
 30
0.0
 11
-0.2803645212470993
 21
4.132959365882483
 31
0.0
  0
LINE
  5
2219
330
19
100
AcDbEntity
  8
1
100
AcDbLine
 10
-0.2002044585501022
 20
3.844163940392482
 30
0.0
 11
-0.2185535830581031
 21
3.918379009034484
 31
0.0
  0
LINE
  5
221A
330
19
100
AcDbEntity
  8
1
100
AcDbLine
 10
-0.1827983330991039
 20
3.769651300619481
 30
0.0
 11
-0.2002044585501022
 21
3.844163940392482
 31
0.0
  0
LINE
  5
221B
330
19
100
AcDbEntity
  8
1
100
AcDbLine
 10
-0.194311321586099
 20
3.824086246184482
 30
0.0
 11
-0.1124434034541011
 21
3.514041841943484
 31
0.0
  0
LINE
  5
221C
330
19
100
AcDbEntity
  8
1
100
AcDbLine
 10
-0.2803645212470993
 20
4.132959365882483
 30
0.0
 11
-0.194311321586099
 21
3.824086246184482
 31
0.0
  0
LINE
  5
221D
330
19
100
AcDbEntity
  8
1
100
AcDbLine
 10
-0.2797053790491031
 20
4.131255081872481
 30
0.0
 11
-0.3082542076431025
 21
4.219756707656478
 31
0.0
  0
LINE
  5
221E
330
19
100
AcDbEntity
  8
1
100
AcDbLine
 10
-0.2555616889071004
 20
4.043629026641482
 30
0.0
 11
-0.2797053790491031
 21
4.131255081872481
 31
0.0
  0
LINE
  5
221F
330
19
100
AcDbEntity
  8
1
100
AcDbLine
 10
-0.2320425695691028
 20
3.955660400324481
 30
0.0
 11
-0.2555616889071004
 21
4.043629026641482
 31
0.0
  0
LINE
  5
2220
330
19
100
AcDbEntity
  8
1
100
AcDbLine
 10
-0.2088280213551048
 20
3.868335344792484
 30
0.0
 11
-0.2320425695691028
 21
3.955660400324481
 31
0.0
  0
LINE
  5
2221
330
19
100
AcDbEntity
  8
1
100
AcDbLine
 10
-0.2022807421881012
 20
3.844388940167482
 30
0.0
 11
-0.2088280213551048
 21
3.868335344792484
 31
0.0
  0
LINE
  5
2222
330
19
100
AcDbEntity
  8
1
100
AcDbLine
 10
-0.1962041768360993
 20
3.821167391960486
 30
0.0
 11
-0.2022807421881012
 21
3.844388940167482
 31
0.0
  0
LINE
  5
2223
330
19
100
AcDbEntity
  8
1
100
AcDbLine
 10
-0.1958166057951036
 20
3.819585964970484
 30
0.0
 11
-0.1962041768360993
 21
3.821167391960486
 31
0.0
  0
LINE
  5
2224
330
19
100
AcDbEntity
  8
1
100
AcDbLine
 10
-0.1961920339911014
 20
3.821124106289488
 30
0.0
 11
-0.1958166057951036
 21
3.819585964970484
 31
0.0
  0
LINE
  5
2225
330
19
100
AcDbEntity
  8
1
100
AcDbLine
 10
-0.196219748249101
 20
3.821245249025483
 30
0.0
 11
-0.1961920339911014
 21
3.821124106289488
 31
0.0
  0
LINE
  5
2226
330
19
100
AcDbEntity
  8
1
100
AcDbLine
 10
-0.1962457482231041
 20
3.821354248916481
 30
0.0
 11
-0.196219748249101
 21
3.821245249025483
 31
0.0
  0
LINE
  5
2227
330
19
100
AcDbEntity
  8
1
100
AcDbLine
 10
-0.2797053790491031
 20
4.131255081872481
 30
0.0
 11
-0.3082542076431025
 21
4.219756707656478
 31
0.0
  0
LINE
  5
2228
330
19
100
AcDbEntity
  8
1
100
AcDbLine
 10
-0.2555616889071004
 20
4.043629026641482
 30
0.0
 11
-0.2797053790491031
 21
4.131255081872481
 31
0.0
  0
LINE
  5
2229
330
19
100
AcDbEntity
  8
1
100
AcDbLine
 10
-0.2320425695691028
 20
3.955660400324481
 30
0.0
 11
-0.2555616889071004
 21
4.043629026641482
 31
0.0
  0
LINE
  5
222A
330
19
100
AcDbEntity
  8
1
100
AcDbLine
 10
-0.2088280213551048
 20
3.868335344792484
 30
0.0
 11
-0.2320425695691028
 21
3.955660400324481
 31
0.0
  0
LINE
  5
222B
330
19
100
AcDbEntity
  8
1
100
AcDbLine
 10
-0.2022807421881012
 20
3.844388940167482
 30
0.0
 11
-0.2088280213551048
 21
3.868335344792484
 31
0.0
  0
LINE
  5
222C
330
19
100
AcDbEntity
  8
1
100
AcDbLine
 10
-0.1962041768360993
 20
3.821167391960486
 30
0.0
 11
-0.2022807421881012
 21
3.844388940167482
 31
0.0
  0
LINE
  5
222D
330
19
100
AcDbEntity
  8
1
100
AcDbLine
 10
-0.1958166057951036
 20
3.819585964970484
 30
0.0
 11
-0.1962041768360993
 21
3.821167391960486
 31
0.0
  0
LINE
  5
222E
330
19
100
AcDbEntity
  8
1
100
AcDbLine
 10
-0.1961920339911014
 20
3.821124106289488
 30
0.0
 11
-0.1958166057951036
 21
3.819585964970484
 31
0.0
  0
LINE
  5
222F
330
19
100
AcDbEntity
  8
1
100
AcDbLine
 10
-0.196219748249101
 20
3.821245249025483
 30
0.0
 11
-0.1961920339911014
 21
3.821124106289488
 31
0.0
  0
LINE
  5
2230
330
19
100
AcDbEntity
  8
1
100
AcDbLine
 10
-0.1962457482231041
 20
3.821354248916481
 30
0.0
 11
-0.196219748249101
 21
3.821245249025483
 31
0.0
  0
LINE
  5
2231
330
19
100
AcDbEntity
  8
1
100
AcDbLine
 10
-0.194311321586099
 20
3.824086246184482
 30
0.0
 11
-0.1124434034541011
 21
3.514041841943484
 31
0.0
  0
LINE
  5
2232
330
19
100
AcDbEntity
  8
1
100
AcDbLine
 10
-0.2803645212470993
 20
4.132959365882483
 30
0.0
 11
-0.194311321586099
 21
3.824086246184482
 31
0.0
  0
LINE
  5
2233
330
19
100
AcDbEntity
  8
1
100
AcDbLine
 10
-0.2002044585501022
 20
3.844163940392482
 30
0.0
 11
-0.2185535830581031
 21
3.918379009034484
 31
0.0
  0
LINE
  5
2234
330
19
100
AcDbEntity
  8
1
100
AcDbLine
 10
-0.1827983330991039
 20
3.769651300619481
 30
0.0
 11
-0.2002044585501022
 21
3.844163940392482
 31
0.0
  0
LINE
  5
2235
330
19
100
AcDbEntity
  8
1
100
AcDbLine
 10
-0.4053291105681005
 20
4.410016803110487
 30
0.0
 11
-0.3327007546251011
 21
4.275676080308485
 31
0.0
  0
LINE
  5
2236
330
19
100
AcDbEntity
  8
1
100
AcDbLine
 10
-0.3602201556771032
 20
4.336288019696481
 30
0.0
 11
-0.4235952351591017
 21
4.438266346289488
 31
0.0
  0
LINE
  5
2237
330
19
100
AcDbEntity
  8
1
100
AcDbLine
 10
-0.3602201556771032
 20
4.336288019696481
 30
0.0
 11
-0.4235952351591017
 21
4.438266346289488
 31
0.0
  0
LINE
  5
2238
330
19
100
AcDbEntity
  8
1
100
AcDbLine
 10
-0.4053291105681005
 20
4.410016803110487
 30
0.0
 11
-0.3327007546251011
 21
4.275676080308485
 31
0.0
  0
LINE
  5
2252
330
19
100
AcDbEntity
  8
1
100
AcDbLine
 10
13.69722602965927
 20
2.171126898600198
 30
0.0
 11
13.69722602965927
 21
0.6999522269192015
 31
0.0
  0
LINE
  5
2253
330
19
100
AcDbEntity
  8
4
100
AcDbLine
 10
12.64722536537528
 20
1.088506124079201
 30
0.0
 11
12.64722536537528
 21
3.703671223197203
 31
0.0
  0
LINE
  5
2254
330
19
100
AcDbEntity
  8
1
100
AcDbLine
 10
11.59722827251628
 20
2.171126898600198
 30
0.0
 11
11.59722827251628
 21
0.6999522269192015
 31
0.0
  0
LINE
  5
2277
330
19
100
AcDbEntity
  8
4
100
AcDbLine
 10
12.64722536537528
 20
-2.543667529457799
 30
0.0
 11
12.64722536537528
 21
0.0714975696602025
 31
0.0
  0
LINE
  5
2278
330
19
100
AcDbEntity
  8
1
100
AcDbLine
 10
13.69722602965927
 20
-4.317140327411799
 30
0.0
 11
13.69722602965927
 21
0.6918875206982023
 31
0.0
  0
LINE
  5
2279
330
19
100
AcDbEntity
  8
1
100
AcDbLine
 10
13.49722451537528
 20
-4.317140327411799
 30
0.0
 11
13.49722451537528
 21
0.8060502636782016
 31
0.0
  0
LINE
  5
227A
330
19
100
AcDbEntity
  8
1
100
AcDbLine
 10
11.79722621537528
 20
-4.317140327411799
 30
0.0
 11
11.79722621537528
 21
0.8060502636782016
 31
0.0
  0
LINE
  5
227B
330
19
100
AcDbEntity
  8
1
100
AcDbLine
 10
11.59722827251628
 20
-4.317140327411799
 30
0.0
 11
11.59722827251628
 21
0.6918875206982023
 31
0.0
  0
LINE
  5
227C
330
19
100
AcDbEntity
  8
1
100
AcDbLine
 10
11.79722621537528
 20
-4.317140327411799
 30
0.0
 11
12.38381434307227
 21
-4.161550483001796
 31
0.0
  0
LINE
  5
227D
330
19
100
AcDbEntity
  8
1
100
AcDbLine
 10
11.79722621537528
 20
-4.317140327411799
 30
0.0
 11
11.59722827251628
 21
-4.317140327411799
 31
0.0
  0
LINE
  5
227E
330
19
100
AcDbEntity
  8
4
100
AcDbLine
 10
12.64722536537528
 20
-3.270101803022797
 30
0.0
 11
12.64722536537528
 21
-2.834241524597796
 31
0.0
  0
LINE
  5
227F
330
19
100
AcDbEntity
  8
1
100
AcDbLine
 10
13.49722451537528
 20
-4.317140327411799
 30
0.0
 11
12.91063653053527
 21
-4.161550483001796
 31
0.0
  0
LINE
  5
2280
330
19
100
AcDbEntity
  8
4
100
AcDbLine
 10
12.64722536537528
 20
-4.868258490578798
 30
0.0
 11
12.64722536537528
 21
-3.560675941019794
 31
0.0
  0
LINE
  5
2281
330
19
100
AcDbEntity
  8
1
100
AcDbLine
 10
12.38381434307227
 20
-4.161550483001796
 30
0.0
 11
12.55772374059127
 21
-4.131555084425798
 31
0.0
  0
LINE
  5
2282
330
19
100
AcDbEntity
  8
1
100
AcDbLine
 10
12.73673056158427
 20
-4.131555084425798
 30
0.0
 11
12.91063653053527
 21
-4.161550483001796
 31
0.0
  0
LINE
  5
2283
330
19
100
AcDbEntity
  8
1
100
AcDbLine
 10
12.55772374059127
 20
-4.131555084425798
 30
0.0
 11
12.73673056158427
 21
-4.131555084425798
 31
0.0
  0
LINE
  5
2284
330
19
100
AcDbEntity
  8
1
100
AcDbLine
 10
13.49722451537528
 20
-4.317140327411799
 30
0.0
 11
13.69722602965927
 21
-4.317140327411799
 31
0.0
  0
LINE
  5
2285
330
19
100
AcDbEntity
  8
1
100
AcDbLine
 10
12.38748933939728
 20
1.056687013041202
 30
0.0
 11
11.79722621537528
 21
0.8060502636782016
 31
0.0
  0
LINE
  5
2286
330
19
100
AcDbEntity
  8
1
100
AcDbLine
 10
11.79271379131626
 20
0.8060502636782016
 30
0.0
 11
11.79722621537528
 21
0.8060502636782016
 31
0.0
  0
LINE
  5
2287
330
19
100
AcDbEntity
  8
1
100
AcDbLine
 10
11.78820136725726
 20
0.8060502636782016
 30
0.0
 11
11.79271379131626
 21
0.8060502636782016
 31
0.0
  0
LINE
  5
2288
330
19
100
AcDbEntity
  8
1
100
AcDbLine
 10
11.78771336774526
 20
0.8060502636782016
 30
0.0
 11
11.78820136725726
 21
0.8060502636782016
 31
0.0
  0
LINE
  5
2289
330
19
100
AcDbEntity
  8
1
100
AcDbLine
 10
11.78722551109027
 20
0.8060502636782016
 30
0.0
 11
11.78771336774526
 21
0.8060502636782016
 31
0.0
  0
LINE
  5
228A
330
19
100
AcDbEntity
  8
1
100
AcDbLine
 10
11.72007843538027
 20
0.7988282709002023
 30
0.0
 11
11.78722551109027
 21
0.8060502636782016
 31
0.0
  0
LINE
  5
228B
330
19
100
AcDbEntity
  8
1
100
AcDbLine
 10
11.66417449128427
 20
0.7788717194282029
 30
0.0
 11
11.72007843538027
 21
0.7988282709002023
 31
0.0
  0
LINE
  5
228C
330
19
100
AcDbEntity
  8
1
100
AcDbLine
 10
11.62328567503027
 20
0.7496964628892009
 30
0.0
 11
11.66417449128427
 21
0.7788717194282029
 31
0.0
  0
LINE
  5
228D
330
19
100
AcDbEntity
  8
1
100
AcDbLine
 10
11.60158841101327
 20
0.7162182106531994
 30
0.0
 11
11.62328567503027
 21
0.7496964628892009
 31
0.0
  0
LINE
  5
228E
330
19
100
AcDbEntity
  8
1
100
AcDbLine
 10
11.59831827142627
 20
0.7041169370402045
 30
0.0
 11
11.60158841101327
 21
0.7162182106531994
 31
0.0
  0
LINE
  5
228F
330
19
100
AcDbEntity
  8
1
100
AcDbLine
 10
11.59722827251628
 20
0.6918875206982023
 30
0.0
 11
11.59831827142627
 21
0.7041169370402045
 31
0.0
  0
LINE
  5
2290
330
19
100
AcDbEntity
  8
1
100
AcDbLine
 10
12.92058880629727
 20
1.050901161684204
 30
0.0
 11
13.49722451537528
 21
0.8060502636782016
 31
0.0
  0
LINE
  5
2291
330
19
100
AcDbEntity
  8
4
100
AcDbLine
 10
12.64722536537528
 20
0.3620699933732006
 30
0.0
 11
12.64722536537528
 21
0.7979319860822009
 31
0.0
  0
LINE
  5
2292
330
19
100
AcDbEntity
  8
1
100
AcDbLine
 10
12.51889035085327
 20
1.0979168289542
 30
0.0
 11
12.65451664379827
 21
1.110781101804198
 31
0.0
  0
LINE
  5
2293
330
19
100
AcDbEntity
  8
1
100
AcDbLine
 10
12.38748933939728
 20
1.0566767273372
 30
0.0
 11
12.51889035085327
 21
1.0979168289542
 31
0.0
  0
LINE
  5
2294
330
19
100
AcDbEntity
  8
1
100
AcDbLine
 10
12.78990065127127
 20
1.094843974884199
 30
0.0
 11
12.92058880629727
 21
1.0506330190952
 31
0.0
  0
LINE
  5
2295
330
19
100
AcDbEntity
  8
1
100
AcDbLine
 10
12.65451664379827
 20
1.110781101804198
 30
0.0
 11
12.78990065127127
 21
1.094843974884199
 31
0.0
  0
LINE
  5
2296
330
19
100
AcDbEntity
  8
1
100
AcDbLine
 10
13.50173708229126
 20
0.8060502636782016
 30
0.0
 11
13.49722451537528
 21
0.8060502636782016
 31
0.0
  0
LINE
  5
2297
330
19
100
AcDbEntity
  8
1
100
AcDbLine
 10
13.50624950635028
 20
0.8060502636782016
 30
0.0
 11
13.50173708229126
 21
0.8060502636782016
 31
0.0
  0
LINE
  5
2298
330
19
100
AcDbEntity
  8
1
100
AcDbLine
 10
13.50673736300526
 20
0.8060502636782016
 30
0.0
 11
13.50624950635028
 21
0.8060502636782016
 31
0.0
  0
LINE
  5
2299
330
19
100
AcDbEntity
  8
1
100
AcDbLine
 10
13.50722536251726
 20
0.8060502636782016
 30
0.0
 11
13.50673736300526
 21
0.8060502636782016
 31
0.0
  0
LINE
  5
229A
330
19
100
AcDbEntity
  8
1
100
AcDbLine
 10
13.57437572393827
 20
0.7988282709002023
 30
0.0
 11
13.50722536251726
 21
0.8060502636782016
 31
0.0
  0
LINE
  5
229B
330
19
100
AcDbEntity
  8
1
100
AcDbLine
 10
13.63027623946627
 20
0.7788717194282029
 30
0.0
 11
13.57437572393827
 21
0.7988282709002023
 31
0.0
  0
LINE
  5
229C
330
19
100
AcDbEntity
  8
1
100
AcDbLine
 10
13.67116862714526
 20
0.7496964628892009
 30
0.0
 11
13.63027623946627
 21
0.7788717194282029
 31
0.0
  0
LINE
  5
229D
330
19
100
AcDbEntity
  8
1
100
AcDbLine
 10
13.69286231973727
 20
0.7162182106531994
 30
0.0
 11
13.67116862714526
 21
0.7496964628892009
 31
0.0
  0
LINE
  5
229E
330
19
100
AcDbEntity
  8
1
100
AcDbLine
 10
13.69613245932427
 20
0.7041169370402045
 30
0.0
 11
13.69286231973727
 21
0.7162182106531994
 31
0.0
  0
LINE
  5
229F
330
19
100
AcDbEntity
  8
1
100
AcDbLine
 10
13.69722602965927
 20
0.6918875206982023
 30
0.0
 11
13.69613245932427
 21
0.7041169370402045
 31
0.0
  0
LINE
  5
22A3
330
19
100
AcDbEntity
  8
1
100
AcDbLine
 10
12.05779281195127
 20
4.912568014299202
 30
0.0
 11
11.88108727437126
 21
4.932149137575201
 31
0.0
  0
LINE
  5
22A4
330
19
100
AcDbEntity
  8
1
100
AcDbLine
 10
11.93193550923727
 20
4.694122232745201
 30
0.0
 11
11.95718305541827
 21
4.7286526267862
 31
0.0
  0
LINE
  5
22A5
330
19
100
AcDbEntity
  8
1
100
AcDbLine
 10
12.04964696295427
 20
4.668902400822203
 30
0.0
 11
11.87666827879026
 21
4.7008442260232
 31
0.0
  0
LINE
  5
22A6
330
19
100
AcDbEntity
  8
1
100
AcDbLine
 10
11.59722827251628
 20
2.171126898600198
 30
0.0
 11
11.39264176281726
 21
4.509551131602201
 31
0.0
  0
LINE
  5
22B3
330
19
100
AcDbEntity
  8
1
100
AcDbLine
 10
11.52096292021026
 20
4.800260126607199
 30
0.0
 11
11.54403732570726
 21
4.704905079105201
 31
0.0
  0
LINE
  5
22B4
330
19
100
AcDbEntity
  8
1
100
AcDbLine
 10
11.51432578399026
 20
4.862650635645202
 30
0.0
 11
11.52096292021026
 21
4.800260126607199
 31
0.0
  0
LINE
  5
22B5
330
19
100
AcDbEntity
  8
1
100
AcDbLine
 10
11.51254007149026
 20
4.9280449988222
 30
0.0
 11
11.51432578399026
 21
4.862650635645202
 31
0.0
  0
LINE
  5
22B6
330
19
100
AcDbEntity
  8
1
100
AcDbLine
 10
11.51645735328727
 20
4.978543662609197
 30
0.0
 11
11.51254007149026
 21
4.9280449988222
 31
0.0
  0
LINE
  5
22B7
330
19
100
AcDbEntity
  8
1
100
AcDbLine
 10
11.52951719737026
 20
5.002301495994203
 30
0.0
 11
11.51645735328727
 21
4.978543662609197
 31
0.0
  0
LINE
  5
22B8
330
19
100
AcDbEntity
  8
1
100
AcDbLine
 10
11.54968832005627
 20
5.000372355066204
 30
0.0
 11
11.52951719737026
 21
5.002301495994203
 31
0.0
  0
LINE
  5
22B9
330
19
100
AcDbEntity
  8
1
100
AcDbLine
 10
11.57759700643327
 20
4.988776223805202
 30
0.0
 11
11.54968832005627
 21
5.000372355066204
 31
0.0
  0
LINE
  5
22BA
330
19
100
AcDbEntity
  8
1
100
AcDbLine
 10
11.61452368379227
 20
4.978126663026202
 30
0.0
 11
11.57759700643327
 21
4.988776223805202
 31
0.0
  0
LINE
  5
22BB
330
19
100
AcDbEntity
  8
1
100
AcDbLine
 10
11.65998049547827
 20
4.967622387816199
 30
0.0
 11
11.61452368379227
 21
4.978126663026202
 31
0.0
  0
LINE
  5
22BC
330
19
100
AcDbEntity
  8
1
100
AcDbLine
 10
11.76120967996326
 20
4.949108834901203
 30
0.0
 11
11.65998049547827
 21
4.967622387816199
 31
0.0
  0
LINE
  5
22BD
330
19
100
AcDbEntity
  8
1
100
AcDbLine
 10
11.88108727437126
 20
4.932149137575201
 30
0.0
 11
11.76120967996326
 21
4.949108834901203
 31
0.0
  0
LINE
  5
22BE
330
19
100
AcDbEntity
  8
1
100
AcDbLine
 10
11.83211132334728
 20
4.7039499372032
 30
0.0
 11
11.78744008230427
 21
4.705012364712203
 31
0.0
  0
LINE
  5
22BF
330
19
100
AcDbEntity
  8
1
100
AcDbLine
 10
11.87666827879026
 20
4.7008442260232
 30
0.0
 11
11.83211132334728
 21
4.7039499372032
 31
0.0
  0
LINE
  5
22C0
330
19
100
AcDbEntity
  8
1
100
AcDbLine
 10
11.51996292121028
 20
4.848675649620201
 30
0.0
 11
11.51750935223526
 21
4.826789814363201
 31
0.0
  0
LINE
  5
22C1
330
19
100
AcDbEntity
  8
1
100
AcDbLine
 10
11.52245091872226
 20
4.871056198668199
 30
0.0
 11
11.51996292121028
 21
4.848675649620201
 31
0.0
  0
LINE
  5
22C2
330
19
100
AcDbEntity
  8
1
100
AcDbLine
 10
11.53004319684427
 20
4.9371598468502
 30
0.0
 11
11.52245091872226
 21
4.871056198668199
 31
0.0
  0
LINE
  5
22C3
330
19
100
AcDbEntity
  8
1
100
AcDbLine
 10
11.53810261735626
 20
4.984789799220202
 30
0.0
 11
11.53004319684427
 21
4.9371598468502
 31
0.0
  0
LINE
  5
22C4
330
19
100
AcDbEntity
  8
1
100
AcDbLine
 10
11.54494746765426
 20
5.0010696400832
 30
0.0
 11
11.53810261735626
 21
4.984789799220202
 31
0.0
  0
LINE
  5
22C5
330
19
100
AcDbEntity
  8
1
100
AcDbLine
 10
11.55184074647527
 20
5.000424212157199
 30
0.0
 11
11.54494746765426
 21
5.0010696400832
 31
0.0
  0
LINE
  5
22C6
330
19
100
AcDbEntity
  8
1
100
AcDbLine
 10
11.55238060307826
 20
4.999707927159199
 30
0.0
 11
11.55184074647527
 21
5.000424212157199
 31
0.0
  0
LINE
  5
22C7
330
19
100
AcDbEntity
  8
1
100
AcDbLine
 10
11.55292031682428
 20
4.998929213652202
 30
0.0
 11
11.55238060307826
 21
4.999707927159199
 31
0.0
  0
LINE
  5
22C8
330
19
100
AcDbEntity
  8
1
100
AcDbLine
 10
11.39471104646226
 20
4.677486106524199
 30
0.0
 11
11.39264176281726
 21
4.669551114459203
 31
0.0
  0
LINE
  5
22C9
330
19
100
AcDbEntity
  8
1
100
AcDbLine
 10
11.40626560633626
 20
4.685010813285201
 30
0.0
 11
11.39471104646226
 21
4.677486106524199
 31
0.0
  0
LINE
  5
22CA
330
19
100
AcDbEntity
  8
1
100
AcDbLine
 10
11.44764585067026
 20
4.696269516312205
 30
0.0
 11
11.40626560633626
 21
4.685010813285201
 31
0.0
  0
LINE
  5
22CB
330
19
100
AcDbEntity
  8
1
100
AcDbLine
 10
11.51243635730826
 20
4.703458651980202
 30
0.0
 11
11.44764585067026
 21
4.696269516312205
 31
0.0
  0
LINE
  5
22CC
330
19
100
AcDbEntity
  8
1
100
AcDbLine
 10
11.53654890462426
 20
4.704571222296197
 30
0.0
 11
11.51243635730826
 21
4.703458651980202
 31
0.0
  0
LINE
  5
22CD
330
19
100
AcDbEntity
  8
1
100
AcDbLine
 10
11.56222902180126
 20
4.704901650537202
 30
0.0
 11
11.53654890462426
 21
4.704571222296197
 31
0.0
  0
LINE
  5
22CE
330
19
100
AcDbEntity
  8
1
100
AcDbLine
 10
11.67489862341728
 20
4.704901650537202
 30
0.0
 11
11.78756808217626
 21
4.704901650537202
 31
0.0
  0
LINE
  5
22CF
330
19
100
AcDbEntity
  8
1
100
AcDbLine
 10
11.56222902180126
 20
4.704901650537202
 30
0.0
 11
11.67489862341728
 21
4.704901650537202
 31
0.0
  0
LINE
  5
22D8
330
19
100
AcDbEntity
  8
1
100
AcDbLine
 10
11.39264176281726
 20
4.509551131602201
 30
0.0
 11
11.39264176281726
 21
4.669551114459203
 31
0.0
  0
LINE
  5
22D9
330
19
100
AcDbEntity
  8
1
100
AcDbLine
 10
13.69722602965927
 20
2.171126898600198
 30
0.0
 11
13.90181253935827
 21
4.509551131602201
 31
0.0
  0
LINE
  5
22DF
330
19
100
AcDbEntity
  8
1
100
AcDbLine
 10
13.14992129125027
 20
4.736644475937204
 30
0.0
 11
13.06195952206928
 21
4.724064059946201
 31
0.0
  0
LINE
  5
22E0
330
19
100
AcDbEntity
  8
1
100
AcDbLine
 10
13.03286726544728
 20
4.895758745394203
 30
0.0
 11
13.23666134736728
 21
4.912568014299202
 31
0.0
  0
LINE
  5
22E1
330
19
100
AcDbEntity
  8
1
100
AcDbLine
 10
13.07925493334527
 20
4.605347321520202
 30
0.0
 11
13.20494266480028
 21
4.656759555822201
 31
0.0
  0
LINE
  5
22E2
330
19
100
AcDbEntity
  8
4
100
AcDbLine
 10
12.64722536537528
 20
3.9942435040532
 30
0.0
 11
12.64722536537528
 21
4.430105496762202
 31
0.0
  0
LINE
  5
22E3
330
19
100
AcDbEntity
  8
1
100
AcDbLine
 10
12.64721507967126
 20
4.874816052051201
 30
0.0
 11
12.44878113524827
 21
4.884140185584199
 31
0.0
  0
LINE
  5
22E4
330
19
100
AcDbEntity
  8
1
100
AcDbLine
 10
12.49420337554026
 20
4.759634167233201
 30
0.0
 11
12.57129229845126
 21
4.810556687739199
 31
0.0
  0
LINE
  5
22E5
330
19
100
AcDbEntity
  8
1
100
AcDbLine
 10
12.46046026642627
 20
4.5221298333092
 30
0.0
 11
12.63197852347927
 21
4.5050438503952
 31
0.0
  0
LINE
  5
22E6
330
19
100
AcDbEntity
  8
1
100
AcDbLine
 10
12.26158689387127
 20
4.895758745394203
 30
0.0
 11
12.05779281195127
 21
4.912568014299202
 31
0.0
  0
LINE
  5
22E7
330
19
100
AcDbEntity
  8
1
100
AcDbLine
 10
12.44878113524827
 20
4.884140185584199
 30
0.0
 11
12.26158689387127
 21
4.895758745394203
 31
0.0
  0
LINE
  5
22E8
330
19
100
AcDbEntity
  8
1
100
AcDbLine
 10
12.41202060058028
 20
4.727761484820201
 30
0.0
 11
12.49420337554026
 21
4.759634167233201
 31
0.0
  0
LINE
  5
22E9
330
19
100
AcDbEntity
  8
1
100
AcDbLine
 10
12.32365740322927
 20
4.718196780099198
 30
0.0
 11
12.41202060058028
 21
4.727761484820201
 31
0.0
  0
LINE
  5
22EA
330
19
100
AcDbEntity
  8
1
100
AcDbLine
 10
12.23249135153827
 20
4.724064059946201
 30
0.0
 11
12.32365740322927
 21
4.718196780099198
 31
0.0
  0
LINE
  5
22EB
330
19
100
AcDbEntity
  8
1
100
AcDbLine
 10
12.14453301092528
 20
4.736644475937204
 30
0.0
 11
12.23249135153827
 21
4.724064059946201
 31
0.0
  0
LINE
  5
22EC
330
19
100
AcDbEntity
  8
1
100
AcDbLine
 10
12.06577608968228
 20
4.747216322508204
 30
0.0
 11
12.14453301092528
 21
4.736644475937204
 31
0.0
  0
LINE
  5
22ED
330
19
100
AcDbEntity
  8
1
100
AcDbLine
 10
12.00223158179827
 20
4.747058894094202
 30
0.0
 11
12.06577608968228
 21
4.747216322508204
 31
0.0
  0
LINE
  5
22EE
330
19
100
AcDbEntity
  8
1
100
AcDbLine
 10
11.95718305541827
 20
4.7286526267862
 30
0.0
 11
12.00223158179827
 21
4.747058894094202
 31
0.0
  0
LINE
  5
22EF
330
19
100
AcDbEntity
  8
1
100
AcDbLine
 10
12.21519936883026
 20
4.605347321520202
 30
0.0
 11
12.04964696295427
 21
4.668902400822203
 31
0.0
  0
LINE
  5
22F0
330
19
100
AcDbEntity
  8
1
100
AcDbLine
 10
12.29046800784726
 20
4.572168354699201
 30
0.0
 11
12.46046026642627
 21
4.5221298333092
 31
0.0
  0
LINE
  5
22F1
330
19
100
AcDbEntity
  8
1
100
AcDbLine
 10
12.25190104641428
 20
4.588162624419203
 30
0.0
 11
12.29046800784726
 21
4.572168354699201
 31
0.0
  0
LINE
  5
22F2
330
19
100
AcDbEntity
  8
1
100
AcDbLine
 10
12.21520279739827
 20
4.605350750088202
 30
0.0
 11
12.25190104641428
 21
4.588162624419203
 31
0.0
  0
LINE
  5
22F3
330
19
100
AcDbEntity
  8
1
100
AcDbLine
 10
12.57129229845126
 20
4.810556687739199
 30
0.0
 11
12.64722536537528
 21
4.8748141949102
 31
0.0
  0
LINE
  5
22F4
330
19
100
AcDbEntity
  8
1
100
AcDbLine
 10
12.72316200372427
 20
4.810556687739199
 30
0.0
 11
12.64722536537528
 21
4.8748141949102
 31
0.0
  0
LINE
  5
22F5
330
19
100
AcDbEntity
  8
1
100
AcDbLine
 10
12.80025092663527
 20
4.759634167233201
 30
0.0
 11
12.72316200372427
 21
4.810556687739199
 31
0.0
  0
LINE
  5
22F6
330
19
100
AcDbEntity
  8
1
100
AcDbLine
 10
12.88243027302728
 20
4.727761484820201
 30
0.0
 11
12.80025092663527
 21
4.759634167233201
 31
0.0
  0
LINE
  5
22F7
330
19
100
AcDbEntity
  8
1
100
AcDbLine
 10
12.97079675608928
 20
4.718196780099198
 30
0.0
 11
12.88243027302728
 21
4.727761484820201
 31
0.0
  0
LINE
  5
22F8
330
19
100
AcDbEntity
  8
1
100
AcDbLine
 10
13.06195952206928
 20
4.724064059946201
 30
0.0
 11
12.97079675608928
 21
4.718196780099198
 31
0.0
  0
LINE
  5
22F9
330
19
100
AcDbEntity
  8
1
100
AcDbLine
 10
12.84567302407027
 20
4.884140185584199
 30
0.0
 11
13.03286726544728
 21
4.895758745394203
 31
0.0
  0
LINE
  5
22FA
330
19
100
AcDbEntity
  8
1
100
AcDbLine
 10
12.64723922250427
 20
4.874816052051201
 30
0.0
 11
12.84567302407027
 21
4.884140185584199
 31
0.0
  0
LINE
  5
22FB
330
19
100
AcDbEntity
  8
1
100
AcDbLine
 10
12.64094122880226
 20
4.855368071499202
 30
0.0
 11
12.61953810734827
 21
4.850302076565203
 31
0.0
  0
LINE
  5
22FC
330
19
100
AcDbEntity
  8
1
100
AcDbLine
 10
12.66381834878226
 20
4.854444215280203
 30
0.0
 11
12.64094122880226
 21
4.855368071499202
 31
0.0
  0
LINE
  5
22FD
330
19
100
AcDbEntity
  8
1
100
AcDbLine
 10
12.66992605696027
 20
4.852551360030201
 30
0.0
 11
12.66381834878226
 21
4.854444215280203
 31
0.0
  0
LINE
  5
22FE
330
19
100
AcDbEntity
  8
1
100
AcDbLine
 10
12.67491605197027
 20
4.850300219424198
 30
0.0
 11
12.66992605696027
 21
4.852551360030201
 31
0.0
  0
LINE
  5
22FF
330
19
100
AcDbEntity
  8
1
100
AcDbLine
 10
13.07799179175127
 20
4.604729607852203
 30
0.0
 11
13.07925150477728
 21
4.605350750088202
 31
0.0
  0
LINE
  5
2300
330
19
100
AcDbEntity
  8
1
100
AcDbLine
 10
13.07673565015027
 20
4.604110179900199
 30
0.0
 11
13.07799179175127
 21
4.604729607852203
 31
0.0
  0
LINE
  5
2301
330
19
100
AcDbEntity
  8
1
100
AcDbLine
 10
12.93546536284926
 20
4.548216664365205
 30
0.0
 11
13.07673565015027
 21
4.604110179900199
 31
0.0
  0
LINE
  5
2302
330
19
100
AcDbEntity
  8
1
100
AcDbLine
 10
12.78631565485627
 20
4.514807554917203
 30
0.0
 11
12.93546536284926
 21
4.548216664365205
 31
0.0
  0
LINE
  5
2303
330
19
100
AcDbEntity
  8
1
100
AcDbLine
 10
12.63197852347927
 20
4.5050438503952
 30
0.0
 11
12.78631565485627
 21
4.514807554917203
 31
0.0
  0
LINE
  5
2304
330
19
100
AcDbEntity
  8
1
100
AcDbLine
 10
13.71685729574227
 20
4.988776223805202
 30
0.0
 11
13.74476598211928
 21
5.000372355066204
 31
0.0
  0
LINE
  5
2305
330
19
100
AcDbEntity
  8
1
100
AcDbLine
 10
13.69335031924928
 20
4.704901650537202
 30
0.0
 11
13.73222528037427
 21
4.704901650537202
 31
0.0
  0
LINE
  5
2306
330
19
100
AcDbEntity
  8
1
100
AcDbLine
 10
13.22867464106827
 20
4.747216322508204
 30
0.0
 11
13.14992129125027
 21
4.736644475937204
 31
0.0
  0
LINE
  5
2307
330
19
100
AcDbEntity
  8
1
100
AcDbLine
 10
13.29222272037727
 20
4.747058894094202
 30
0.0
 11
13.22867464106827
 21
4.747216322508204
 31
0.0
  0
LINE
  5
2308
330
19
100
AcDbEntity
  8
1
100
AcDbLine
 10
13.33727124675726
 20
4.7286526267862
 30
0.0
 11
13.29222272037727
 21
4.747058894094202
 31
0.0
  0
LINE
  5
2309
330
19
100
AcDbEntity
  8
1
100
AcDbLine
 10
13.36251879293827
 20
4.694122232745201
 30
0.0
 11
13.33727124675726
 21
4.7286526267862
 31
0.0
  0
LINE
  5
230A
330
19
100
AcDbEntity
  8
1
100
AcDbLine
 10
13.67993061838326
 20
4.978126663026202
 30
0.0
 11
13.71685729574227
 21
4.988776223805202
 31
0.0
  0
LINE
  5
230B
330
19
100
AcDbEntity
  8
1
100
AcDbLine
 10
13.63447380669726
 20
4.967622387816199
 30
0.0
 11
13.67993061838326
 21
4.978126663026202
 31
0.0
  0
LINE
  5
230C
330
19
100
AcDbEntity
  8
1
100
AcDbLine
 10
13.53324119364426
 20
4.949108834901203
 30
0.0
 11
13.63447380669726
 21
4.967622387816199
 31
0.0
  0
LINE
  5
230D
330
19
100
AcDbEntity
  8
1
100
AcDbLine
 10
13.41336345637927
 20
4.932149137575201
 30
0.0
 11
13.53324119364426
 21
4.949108834901203
 31
0.0
  0
LINE
  5
230E
330
19
100
AcDbEntity
  8
1
100
AcDbLine
 10
13.23666134736728
 20
4.912568014299202
 30
0.0
 11
13.41336345637927
 21
4.932149137575201
 31
0.0
  0
LINE
  5
230F
330
19
100
AcDbEntity
  8
1
100
AcDbLine
 10
13.42108373437326
 20
4.7011470828632
 30
0.0
 11
13.50701421987127
 21
4.705012364712203
 31
0.0
  0
LINE
  5
2310
330
19
100
AcDbEntity
  8
1
100
AcDbLine
 10
13.33599081946627
 20
4.689758665680201
 30
0.0
 11
13.42108373437326
 21
4.7011470828632
 31
0.0
  0
LINE
  5
2311
330
19
100
AcDbEntity
  8
1
100
AcDbLine
 10
13.20494266480028
 20
4.656759555822201
 30
0.0
 11
13.33599081946627
 21
4.689758665680201
 31
0.0
  0
LINE
  5
2312
330
19
100
AcDbEntity
  8
1
100
AcDbLine
 10
13.65447878669227
 20
4.704901650537202
 30
0.0
 11
13.69335031924928
 21
4.704901650537202
 31
0.0
  0
LINE
  5
2313
330
19
100
AcDbEntity
  8
1
100
AcDbLine
 10
13.58068071763327
 20
4.704901650537202
 30
0.0
 11
13.65447878669227
 21
4.704901650537202
 31
0.0
  0
LINE
  5
2314
330
19
100
AcDbEntity
  8
1
100
AcDbLine
 10
13.50688279143127
 20
4.704901650537202
 30
0.0
 11
13.58068071763327
 21
4.704901650537202
 31
0.0
  0
LINE
  5
2315
330
19
100
AcDbEntity
  8
1
100
AcDbLine
 10
13.78191408782827
 20
4.9280449988222
 30
0.0
 11
13.77696566420526
 21
4.826644528794203
 31
0.0
  0
LINE
  5
2316
330
19
100
AcDbEntity
  8
1
100
AcDbLine
 10
13.77799337746327
 20
4.978543662609197
 30
0.0
 11
13.78191408782827
 21
4.9280449988222
 31
0.0
  0
LINE
  5
2317
330
19
100
AcDbEntity
  8
1
100
AcDbLine
 10
13.76493710480527
 20
5.002301495994203
 30
0.0
 11
13.77799337746327
 21
4.978543662609197
 31
0.0
  0
LINE
  5
2318
330
19
100
AcDbEntity
  8
1
100
AcDbLine
 10
13.74476598211928
 20
5.000372355066204
 30
0.0
 11
13.76493710480527
 21
5.002301495994203
 31
0.0
  0
LINE
  5
2319
330
19
100
AcDbEntity
  8
1
100
AcDbLine
 10
13.74207369909727
 20
4.999707927159199
 30
0.0
 11
13.74153384249428
 21
4.998929213652202
 31
0.0
  0
LINE
  5
231A
330
19
100
AcDbEntity
  8
1
100
AcDbLine
 10
13.74261355570026
 20
5.000424212157199
 30
0.0
 11
13.74207369909727
 21
4.999707927159199
 31
0.0
  0
LINE
  5
231B
330
19
100
AcDbEntity
  8
1
100
AcDbLine
 10
13.74950340595328
 20
5.0010696400832
 30
0.0
 11
13.74261355570026
 21
5.000424212157199
 31
0.0
  0
LINE
  5
231C
330
19
100
AcDbEntity
  8
1
100
AcDbLine
 10
13.75634811339428
 20
4.984789799220202
 30
0.0
 11
13.74950340595328
 21
5.0010696400832
 31
0.0
  0
LINE
  5
231D
330
19
100
AcDbEntity
  8
1
100
AcDbLine
 10
13.76440753390626
 20
4.9371598468502
 30
0.0
 11
13.75634811339428
 21
4.984789799220202
 31
0.0
  0
LINE
  5
231E
330
19
100
AcDbEntity
  8
1
100
AcDbLine
 10
13.77199981202827
 20
4.871056198668199
 30
0.0
 11
13.76440753390626
 21
4.9371598468502
 31
0.0
  0
LINE
  5
231F
330
19
100
AcDbEntity
  8
1
100
AcDbLine
 10
13.77448795239728
 20
4.848675649620201
 30
0.0
 11
13.77199981202827
 21
4.871056198668199
 31
0.0
  0
LINE
  5
2320
330
19
100
AcDbEntity
  8
1
100
AcDbLine
 10
13.77694137851527
 20
4.826789814363201
 30
0.0
 11
13.77448795239728
 21
4.848675649620201
 31
0.0
  0
LINE
  5
2321
330
19
100
AcDbEntity
  8
1
100
AcDbLine
 10
13.78118051713326
 20
4.7035070805032
 30
0.0
 11
13.73222528037427
 21
4.704901650537202
 31
0.0
  0
LINE
  5
2322
330
19
100
AcDbEntity
  8
1
100
AcDbLine
 10
13.82505233040427
 20
4.699553513028199
 30
0.0
 11
13.78118051713326
 21
4.7035070805032
 31
0.0
  0
LINE
  5
2323
330
19
100
AcDbEntity
  8
1
100
AcDbLine
 10
13.87672070730727
 20
4.6892655233162
 30
0.0
 11
13.82505233040427
 21
4.699553513028199
 31
0.0
  0
LINE
  5
2324
330
19
100
AcDbEntity
  8
1
100
AcDbLine
 10
13.90138339693027
 20
4.6751641088462
 30
0.0
 11
13.87672070730727
 21
4.6892655233162
 31
0.0
  0
LINE
  5
2325
330
19
100
AcDbEntity
  8
1
100
AcDbLine
 10
13.90227968174826
 20
4.672386968766204
 30
0.0
 11
13.90138339693027
 21
4.6751641088462
 31
0.0
  0
LINE
  5
2326
330
19
100
AcDbEntity
  8
1
100
AcDbLine
 10
13.90181253935827
 20
4.669551114459203
 30
0.0
 11
13.90227968174826
 21
4.672386968766204
 31
0.0
  0
LINE
  5
2327
330
19
100
AcDbEntity
  8
1
100
AcDbLine
 10
13.77764037781628
 20
4.819943249781204
 30
0.0
 11
13.77694494994027
 21
4.825805386776202
 31
0.0
  0
LINE
  5
2328
330
19
100
AcDbEntity
  8
1
100
AcDbLine
 10
13.77834637711027
 20
4.814148684147204
 30
0.0
 11
13.77764037781628
 21
4.819943249781204
 31
0.0
  0
LINE
  5
2329
330
19
100
AcDbEntity
  8
1
100
AcDbLine
 10
13.79446878955927
 20
4.702609081401206
 30
0.0
 11
13.77834637711027
 21
4.814148684147204
 31
0.0
  0
LINE
  5
232A
330
19
100
AcDbEntity
  8
1
100
AcDbLine
 10
13.90181253935827
 20
4.509551131602201
 30
0.0
 11
13.90181253935827
 21
4.669551114459203
 31
0.0
  0
TEXT
  5
232C
330
19
100
AcDbEntity
  8
SK6
100
AcDbText
 10
6.274915259694579
 20
-10.022906429111
 30
0.0
 40
0.8
  1
150.10-2.5N-14
  7
SIMPLEX
100
AcDbText
  0
DIMENSION
  5
2369
330
19
100
AcDbEntity
  8
2
100
AcDbDimension
  2
*D3
 10
-9.23652351558692
 20
-14.05898139073251
 30
0.0
 11
-9.236523515586917
 21
-12.79898139073251
 31
0.0
 70
   160
  1
2.52
  3
INSERTS
100
AcDbAlignedDimension
 13
-4.735284352037103
 23
-11.53898139073251
 33
0.0
 14
-4.735284352037103
 24
-14.05898139073251
 34
0.0
 50
90.0
100
AcDbRotatedDimension
1001
ACAD
1000
DSTYLE
1002
{
1070
   371
1070
    -1
1002
}
  0
DIMENSION
  5
238B
330
19
100
AcDbEntity
  8
2
100
AcDbDimension
  2
*D4
 10
4.080521689299896
 20
-18.80446822023095
 30
0.0
 11
-0.4194783107001036
 21
-17.40446822023096
 31
0.0
 70
    32
  3
INSERTS
100
AcDbAlignedDimension
 13
-4.919478310700103
 23
-13.8922198946345
 33
0.0
 14
4.080521689299896
 24
-13.8922198946345
 34
0.0
100
AcDbRotatedDimension
1001
ACAD
1000
DSTYLE
1002
{
1070
   371
1070
    -1
1002
}
  0
ENDSEC
  0
SECTION
  2
OBJECTS
  0
DICTIONARY
  5
C
330
0
100
AcDbDictionary
  3
ACAD_GROUP
350
D
  3
ACAD_LAYOUT
350
A85
  3
ACAD_MLINESTYLE
350
E
  3
ACAD_PLOTSETTINGS
350
A86
1001
ACAD
1000
TREAT_AS_HARD
1070
     0
1000
TREAT_AS_HARD
1070
     0
  0
DICTIONARY
  5
E8D
330
19
100
AcDbDictionary
  3
ACAD_LAYOUTSELFREF
350
23AD
1001
ACAD
1000
TREAT_AS_HARD
1070
     1
  0
DICTIONARY
  5
E8B
330
16
100
AcDbDictionary
  3
ACAD_LAYOUTSELFREF
350
23AC
1001
ACAD
1000
TREAT_AS_HARD
1070
     1
  0
DICTIONARY
  5
D
102
{ACAD_REACTORS
330
C
102
}
330
C
100
AcDbDictionary
1001
ACAD
1000
TREAT_AS_HARD
1070
     0
1000
TREAT_AS_HARD
1070
     0
  0
DICTIONARY
  5
A85
102
{ACAD_REACTORS
330
C
102
}
330
C
100
AcDbDictionary
1001
ACAD
1000
TREAT_AS_HARD
1070
     0
1000
TREAT_AS_HARD
1070
     0
  0
DICTIONARY
  5
E
102
{ACAD_REACTORS
330
C
102
}
330
C
100
AcDbDictionary
  3
STANDARD
350
1C
1001
ACAD
1000
TREAT_AS_HARD
1070
     0
1000
TREAT_AS_HARD
1070
     0
  0
DICTIONARY
  5
A86
102
{ACAD_REACTORS
330
C
102
}
330
C
100
AcDbDictionary
1001
ACAD
1000
TREAT_AS_HARD
1070
     0
1000
TREAT_AS_HARD
1070
     0
  0
XRECORD
  5
23AD
102
{ACAD_REACTORS
330
E8D
102
}
330
E8D
100
AcDbXrecord
340
19
  0
XRECORD
  5
23AC
102
{ACAD_REACTORS
330
E8B
102
}
330
E8B
100
AcDbXrecord
340
16
  0
MLINESTYLE
  5
1C
102
{ACAD_REACTORS
330
E
102
}
330
E
100
AcDbMlineStyle
  2
STANDARD
 70
     0
  3

 62
     0
 51
90.0
 52
90.0
 71
     2
 49
0.5
 62
   256
  6
BYLAYER
 49
-0.5
 62
   256
  6
BYLAYER
  0
ENDSEC
  0
EOF
