  0
SECTION
  2
HEADER
  9
$ACADVER
  1
AC1015
  9
$ACADMAINTVER
 70
    20
  9
$DWGCODEPAGE
  3
ANSI_1252
  9
$INSBASE
 10
0.0
 20
0.0
 30
0.0
  9
$EXTMIN
 10
2164.054330396772
 20
1256.328955150987
 30
0.0
  9
$EXTMAX
 10
2252.795101160344
 20
1321.765536939823
 30
0.0
  9
$LIMMIN
 10
-170.0
 20
-170.0
  9
$LIMMAX
 10
519.0
 20
260.0
  9
$ORTHOMODE
 70
     1
  9
$REGENMODE
 70
     1
  9
$FILLMODE
 70
     1
  9
$QTEXTMODE
 70
     0
  9
$MIRRTEXT
 70
     1
  9
$LTSCALE
 40
10.0
  9
$ATTMODE
 70
     1
  9
$TEXTSIZE
 40
3.5
  9
$TRACEWID
 40
0.05
  9
$TEXTSTYLE
  7
SIMPLEX
  9
$CLAYER
  8
SK6
  9
$CELTYPE
  6
BYLAYER
  9
$CECOLOR
 62
   256
  9
$CELTSCALE
 40
1.0
  9
$DISPSILH
 70
     0
  9
$DIMSCALE
 40
1.0
  9
$DIMASZ
 40
3.5
  9
$DIMEXO
 40
1.0
  9
$DIMDLI
 40
0.5
  9
$DIMRND
 40
0.0
  9
$DIMDLE
 40
0.0
  9
$DIMEXE
 40
1.0
  9
$DIMTP
 40
0.0
  9
$DIMTM
 40
0.0
  9
$DIMTXT
 40
3.5
  9
$DIMCEN
 40
0.0
  9
$DIMTSZ
 40
0.0
  9
$DIMTOL
 70
     0
  9
$DIMLIM
 70
     0
  9
$DIMTIH
 70
     0
  9
$DIMTOH
 70
     0
  9
$DIMSE1
 70
     0
  9
$DIMSE2
 70
     0
  9
$DIMTAD
 70
     1
  9
$DIMZIN
 70
     0
  9
$DIMBLK
  1

  9
$DIMASO
 70
     1
  9
$DIMSHO
 70
     1
  9
$DIMPOST
  1

  9
$DIMAPOST
  1

  9
$DIMALT
 70
     0
  9
$DIMALTD
 70
     2
  9
$DIMALTF
 40
25.4
  9
$DIMLFAC
 40
1.0
  9
$DIMTOFL
 70
     0
  9
$DIMTVP
 40
0.0
  9
$DIMTIX
 70
     0
  9
$DIMSOXD
 70
     0
  9
$DIMSAH
 70
     0
  9
$DIMBLK1
  1

  9
$DIMBLK2
  1

  9
$DIMSTYLE
  2
V-TYGEN_-160
  9
$DIMCLRD
 70
     0
  9
$DIMCLRE
 70
     0
  9
$DIMCLRT
 70
     0
  9
$DIMTFAC
 40
1.0
  9
$DIMGAP
 40
1.0
  9
$DIMJUST
 70
     0
  9
$DIMSD1
 70
     0
  9
$DIMSD2
 70
     0
  9
$DIMTOLJ
 70
     1
  9
$DIMTZIN
 70
     0
  9
$DIMALTZ
 70
     0
  9
$DIMALTTZ
 70
     0
  9
$DIMUPT
 70
     0
  9
$DIMDEC
 70
     0
  9
$DIMTDEC
 70
     0
  9
$DIMALTU
 70
     2
  9
$DIMALTTD
 70
     2
  9
$DIMTXSTY
  7
STANDARD
  9
$DIMAUNIT
 70
     0
  9
$DIMADEC
 70
     0
  9
$DIMALTRND
 40
0.0
  9
$DIMAZIN
 70
     0
  9
$DIMDSEP
 70
    46
  9
$DIMATFIT
 70
     3
  9
$DIMFRAC
 70
     0
  9
$DIMLDRBLK
  1

  9
$DIMLUNIT
 70
     2
  9
$DIMLWD
 70
    -1
  9
$DIMLWE
 70
    -2
  9
$DIMTMOVE
 70
     0
  9
$LUNITS
 70
     2
  9
$LUPREC
 70
     2
  9
$SKETCHINC
 40
0.1
  9
$FILLETRAD
 40
0.0
  9
$AUNITS
 70
     0
  9
$AUPREC
 70
     0
  9
$MENU
  1
TDMWIN
  9
$ELEVATION
 40
0.0
  9
$PELEVATION
 40
0.0
  9
$THICKNESS
 40
0.0
  9
$LIMCHECK
 70
     0
  9
$CHAMFERA
 40
0.0
  9
$CHAMFERB
 40
0.0
  9
$CHAMFERC
 40
0.0
  9
$CHAMFERD
 40
0.0
  9
$SKPOLY
 70
     0
  9
$TDCREATE
 40
2455495.435690070
  9
$TDUCREATE
 40
2455495.206523403
  9
$TDUPDATE
 40
2455597.630587708
  9
$TDUUPDATE
 40
2455597.401421042
  9
$TDINDWG
 40
0.2028837731
  9
$TDUSRTIMER
 40
0.2028826852
  9
$USRTIMER
 70
     1
  9
$ANGBASE
 50
0.0
  9
$ANGDIR
 70
     0
  9
$PDMODE
 70
     2
  9
$PDSIZE
 40
0.0
  9
$PLINEWID
 40
0.0
  9
$SPLFRAME
 70
     0
  9
$SPLINETYPE
 70
     6
  9
$SPLINESEGS
 70
     8
  9
$HANDSEED
  5
43DD
  9
$SURFTAB1
 70
     6
  9
$SURFTAB2
 70
     6
  9
$SURFTYPE
 70
     6
  9
$SURFU
 70
     6
  9
$SURFV
 70
     6
  9
$UCSBASE
  2

  9
$UCSNAME
  2

  9
$UCSORG
 10
2204.025257942937
 20
1290.606589462735
 30
0.0
  9
$UCSXDIR
 10
1.0
 20
0.0
 30
0.0
  9
$UCSYDIR
 10
0.0
 20
1.0
 30
0.0
  9
$UCSORTHOREF
  2

  9
$UCSORTHOVIEW
 70
     0
  9
$UCSORGTOP
 10
0.0
 20
0.0
 30
0.0
  9
$UCSORGBOTTOM
 10
0.0
 20
0.0
 30
0.0
  9
$UCSORGLEFT
 10
0.0
 20
0.0
 30
0.0
  9
$UCSORGRIGHT
 10
0.0
 20
0.0
 30
0.0
  9
$UCSORGFRONT
 10
0.0
 20
0.0
 30
0.0
  9
$UCSORGBACK
 10
0.0
 20
0.0
 30
0.0
  9
$PUCSBASE
  2

  9
$PUCSNAME
  2

  9
$PUCSORG
 10
0.0
 20
0.0
 30
0.0
  9
$PUCSXDIR
 10
1.0
 20
0.0
 30
0.0
  9
$PUCSYDIR
 10
0.0
 20
1.0
 30
0.0
  9
$PUCSORTHOREF
  2

  9
$PUCSORTHOVIEW
 70
     0
  9
$PUCSORGTOP
 10
0.0
 20
0.0
 30
0.0
  9
$PUCSORGBOTTOM
 10
0.0
 20
0.0
 30
0.0
  9
$PUCSORGLEFT
 10
0.0
 20
0.0
 30
0.0
  9
$PUCSORGRIGHT
 10
0.0
 20
0.0
 30
0.0
  9
$PUCSORGFRONT
 10
0.0
 20
0.0
 30
0.0
  9
$PUCSORGBACK
 10
0.0
 20
0.0
 30
0.0
  9
$USERI1
 70
     0
  9
$USERI2
 70
     0
  9
$USERI3
 70
     0
  9
$USERI4
 70
     0
  9
$USERI5
 70
     0
  9
$USERR1
 40
0.0
  9
$USERR2
 40
0.0
  9
$USERR3
 40
0.0
  9
$USERR4
 40
0.0
  9
$USERR5
 40
0.0
  9
$WORLDVIEW
 70
     1
  9
$SHADEDGE
 70
     3
  9
$SHADEDIF
 70
    70
  9
$TILEMODE
 70
     1
  9
$MAXACTVP
 70
    16
  9
$PINSBASE
 10
0.0
 20
0.0
 30
0.0
  9
$PLIMCHECK
 70
     0
  9
$PEXTMIN
 10
1.000000000000000E+20
 20
1.000000000000000E+20
 30
1.000000000000000E+20
  9
$PEXTMAX
 10
-1.000000000000000E+20
 20
-1.000000000000000E+20
 30
-1.000000000000000E+20
  9
$PLIMMIN
 10
0.0
 20
0.0
  9
$PLIMMAX
 10
12.0
 20
9.0
  9
$UNITMODE
 70
     0
  9
$VISRETAIN
 70
     0
  9
$PLINEGEN
 70
     0
  9
$PSLTSCALE
 70
     0
  9
$TREEDEPTH
 70
  3020
  9
$CMLSTYLE
  2
STANDARD
  9
$CMLJUST
 70
     0
  9
$CMLSCALE
 40
1.0
  9
$PROXYGRAPHICS
 70
     1
  9
$MEASUREMENT
 70
     1
  9
$CELWEIGHT
370
    -1
  9
$ENDCAPS
280
     0
  9
$JOINSTYLE
280
     0
  9
$LWDISPLAY
290
     0
  9
$INSUNITS
 70
     0
  9
$HYPERLINKBASE
  1

  9
$STYLESHEET
  1

  9
$XEDIT
290
     1
  9
$CEPSNTYPE
380
     0
  9
$PSTYLEMODE
290
     1
  9
$FINGERPRINTGUID
  2
{657513BA-23E7-4626-BCF7-6F82F096B1F9}
  9
$VERSIONGUID
  2
{C81A3766-C967-4858-B2E4-287F7FAAD0A1}
  9
$EXTNAMES
290
     1
  9
$PSVPSCALE
 40
0.0
  9
$OLESTARTUP
290
     0
  0
ENDSEC
  0
SECTION
  2
CLASSES
  0
CLASS
  1
ACDBDICTIONARYWDFLT
  2
AcDbDictionaryWithDefault
  3
ObjectDBX Classes
 90
        0
280
     0
281
     0
  0
CLASS
  1
ACDBPLACEHOLDER
  2
AcDbPlaceHolder
  3
ObjectDBX Classes
 90
        0
280
     0
281
     0
  0
CLASS
  1
LAYOUT
  2
AcDbLayout
  3
ObjectDBX Classes
 90
        0
280
     0
281
     0
  0
CLASS
  1
MATERIAL
  2
AcDbMaterial
  3
ObjectDBX Classes
 90
     1153
280
     0
281
     0
  0
CLASS
  1
VISUALSTYLE
  2
AcDbVisualStyle
  3
ObjectDBX Classes
 90
     4095
280
     0
281
     0
  0
CLASS
  1
TABLESTYLE
  2
AcDbTableStyle
  3
ObjectDBX Classes
 90
     4095
280
     0
281
     0
  0
CLASS
  1
DICTIONARYVAR
  2
AcDbDictionaryVar
  3
ObjectDBX Classes
 90
        0
280
     0
281
     0
  0
CLASS
  1
SCALE
  2
AcDbScale
  3
ObjectDBX Classes
 90
     1153
280
     0
281
     0
  0
CLASS
  1
MLEADERSTYLE
  2
AcDbMLeaderStyle
  3
ACDB_MLEADERSTYLE_CLASS
 90
     4095
280
     0
281
     0
  0
CLASS
  1
CELLSTYLEMAP
  2
AcDbCellStyleMap
  3
ObjectDBX Classes
 90
     1152
280
     0
281
     0
  0
CLASS
  1
SORTENTSTABLE
  2
AcDbSortentsTable
  3
ObjectDBX Classes
 90
        0
280
     0
281
     0
  0
ENDSEC
  0
SECTION
  2
TABLES
  0
TABLE
  2
VPORT
  5
8
330
0
100
AcDbSymbolTable
 70
     1
  0
VPORT
  5
1288
330
8
100
AcDbSymbolTableRecord
100
AcDbViewportTableRecord
  2
*Active
 70
     0
 10
0.0
 20
0.0
 11
1.0
 21
1.0
 12
2208.449385615088
 22
1289.074203461517
 13
0.0
 23
0.0
 14
5.0
 24
5.0
 15
5.0
 25
5.0
 16
0.0
 26
0.0
 36
1.0
 17
0.0
 27
0.0
 37
0.0
 40
67.44764602916148
 41
1.752923976608187
 42
50.0
 43
0.0
 44
0.0
 50
0.0
 51
0.0
 71
     0
 72
   100
 73
     1
 74
     3
 75
     0
 76
     0
 77
     0
 78
     0
281
     0
 65
     1
110
0.0
120
0.0
130
0.0
111
1.0
121
0.0
131
0.0
112
0.0
122
1.0
132
0.0
 79
     0
146
0.0
  0
ENDTAB
  0
TABLE
  2
LTYPE
  5
5
330
0
100
AcDbSymbolTable
 70
     4
  0
LTYPE
  5
13
330
5
100
AcDbSymbolTableRecord
100
AcDbLinetypeTableRecord
  2
BYBLOCK
 70
     0
  3

 72
    65
 73
     0
 40
0.0
  0
LTYPE
  5
14
330
5
100
AcDbSymbolTableRecord
100
AcDbLinetypeTableRecord
  2
BYLAYER
 70
     0
  3

 72
    65
 73
     0
 40
0.0
  0
LTYPE
  5
15
330
5
100
AcDbSymbolTableRecord
100
AcDbLinetypeTableRecord
  2
CONTINUOUS
 70
     0
  3
Solid line
 72
    65
 73
     0
 40
0.0
  0
LTYPE
  5
20
330
5
100
AcDbSymbolTableRecord
100
AcDbLinetypeTableRecord
  2
CENTER
 70
     0
  3
____ . ____ . ____
 72
    65
 73
     4
 40
1.5
 49
1.0
 74
     0
 49
-0.25
 74
     0
 49
0.0
 74
     0
 49
-0.25
 74
     0
  0
LTYPE
  5
21
330
5
100
AcDbSymbolTableRecord
100
AcDbLinetypeTableRecord
  2
HIDDEN
 70
     0
  3
_ _ _ _ _ _ _ _ _ _ _ _ _ _ _ _ _ _ _ _ _ _ _
 72
    65
 73
     2
 40
0.375
 49
0.25
 74
     0
 49
-0.125
 74
     0
  0
LTYPE
  5
14C0
330
5
100
AcDbSymbolTableRecord
100
AcDbLinetypeTableRecord
  2
DASHDOT
 70
     0
  3
Dash dot __ . __ . __ . __ . __ . __ . __ . __
 72
    65
 73
     4
 40
25.4
 49
12.7
 74
     0
 49
-6.349999999999997
 74
     0
 49
0.0
 74
     0
 49
-6.349999999999997
 74
     0
  0
ENDTAB
  0
TABLE
  2
LAYER
  5
2
330
0
100
AcDbSymbolTable
 70
    18
  0
LAYER
  5
F
102
{ACAD_XDICTIONARY
360
148A
102
}
330
2
100
AcDbSymbolTableRecord
100
AcDbLayerTableRecord
  2
0
 70
     0
 62
     7
  6
CONTINUOUS
370
    -3
390
E94
  0
LAYER
  5
1E
102
{ACAD_XDICTIONARY
360
148C
102
}
330
2
100
AcDbSymbolTableRecord
100
AcDbLayerTableRecord
  2
1
 70
     0
 62
     4
  6
CONTINUOUS
370
    -3
390
E94
  0
LAYER
  5
22
102
{ACAD_XDICTIONARY
360
148E
102
}
330
2
100
AcDbSymbolTableRecord
100
AcDbLayerTableRecord
  2
SK1
 70
     0
 62
     4
  6
CONTINUOUS
370
    -3
390
E94
  0
LAYER
  5
23
102
{ACAD_XDICTIONARY
360
1490
102
}
330
2
100
AcDbSymbolTableRecord
100
AcDbLayerTableRecord
  2
2
 70
     0
 62
     7
  6
CONTINUOUS
370
    -3
390
E94
  0
LAYER
  5
24
102
{ACAD_XDICTIONARY
360
1492
102
}
330
2
100
AcDbSymbolTableRecord
100
AcDbLayerTableRecord
  2
2L
 70
     0
 62
     7
  6
CONTINUOUS
370
    -3
390
E94
  0
LAYER
  5
25
102
{ACAD_XDICTIONARY
360
1494
102
}
330
2
100
AcDbSymbolTableRecord
100
AcDbLayerTableRecord
  2
SK2
 70
     0
 62
     7
  6
CONTINUOUS
370
    -3
390
E94
  0
LAYER
  5
26
102
{ACAD_XDICTIONARY
360
1496
102
}
330
2
100
AcDbSymbolTableRecord
100
AcDbLayerTableRecord
  2
3
 70
     0
 62
     1
  6
HIDDEN
370
    -3
390
E94
  0
LAYER
  5
27
102
{ACAD_XDICTIONARY
360
1498
102
}
330
2
100
AcDbSymbolTableRecord
100
AcDbLayerTableRecord
  2
SK3
 70
     0
 62
     1
  6
HIDDEN
370
    -3
390
E94
  0
LAYER
  5
28
102
{ACAD_XDICTIONARY
360
149A
102
}
330
2
100
AcDbSymbolTableRecord
100
AcDbLayerTableRecord
  2
4
 70
     0
 62
     2
  6
CENTER
370
    -3
390
E94
  0
LAYER
  5
29
102
{ACAD_XDICTIONARY
360
149C
102
}
330
2
100
AcDbSymbolTableRecord
100
AcDbLayerTableRecord
  2
SK4
 70
     0
 62
     2
  6
CENTER
370
    -3
390
E94
  0
LAYER
  5
2A
102
{ACAD_XDICTIONARY
360
149E
102
}
330
2
100
AcDbSymbolTableRecord
100
AcDbLayerTableRecord
  2
5
 70
     0
 62
     7
  6
CONTINUOUS
370
    -3
390
E94
  0
LAYER
  5
2B
102
{ACAD_XDICTIONARY
360
14A0
102
}
330
2
100
AcDbSymbolTableRecord
100
AcDbLayerTableRecord
  2
6
 70
     0
 62
     5
  6
CONTINUOUS
370
    -3
390
E94
  0
LAYER
  5
2C
102
{ACAD_XDICTIONARY
360
14A2
102
}
330
2
100
AcDbSymbolTableRecord
100
AcDbLayerTableRecord
  2
SK6
 70
     0
 62
     5
  6
CONTINUOUS
370
    -3
390
E94
  0
LAYER
  5
2D
102
{ACAD_XDICTIONARY
360
14A4
102
}
330
2
100
AcDbSymbolTableRecord
100
AcDbLayerTableRecord
  2
243
 70
     0
 62
     7
  6
CONTINUOUS
370
    -3
390
E94
  0
LAYER
  5
2E
330
2
100
AcDbSymbolTableRecord
100
AcDbLayerTableRecord
  2
DEFPOINTS
 70
     0
 62
     7
  6
CONTINUOUS
290
     0
370
    -3
390
E94
  0
LAYER
  5
C07
102
{ACAD_XDICTIONARY
360
14A6
102
}
330
2
100
AcDbSymbolTableRecord
100
AcDbLayerTableRecord
  2
FRONT
 70
     0
 62
     7
  6
CONTINUOUS
370
    -3
390
E94
  0
LAYER
  5
14C1
330
2
100
AcDbSymbolTableRecord
100
AcDbLayerTableRecord
  2
H
 70
     0
 62
     7
  6
CONTINUOUS
370
   100
390
E94
  0
LAYER
  5
14C2
330
2
100
AcDbSymbolTableRecord
100
AcDbLayerTableRecord
  2
P
 70
     0
 62
   250
  6
CONTINUOUS
370
   100
390
E94
  0
ENDTAB
  0
TABLE
  2
STYLE
  5
3
330
0
100
AcDbSymbolTable
 70
     6
  0
STYLE
  5
10
330
3
100
AcDbSymbolTableRecord
100
AcDbTextStyleTableRecord
  2
STANDARD
 70
     0
 40
0.0
 41
1.0
 50
0.0
 71
     0
 42
5.0
  3
txt
  4

  0
STYLE
  5
1F
330
3
100
AcDbSymbolTableRecord
100
AcDbTextStyleTableRecord
  2
SIMPLEX
 70
     0
 40
0.0
 41
1.0
 50
0.0
 71
     0
 42
3.5
  3
simplex
  4

  0
STYLE
  5
2F
330
3
100
AcDbSymbolTableRecord
100
AcDbTextStyleTableRecord
  2
TXT
 70
     0
 40
8.0
 41
1.0
 50
0.0
 71
     0
 42
8.0
  3
txt
  4

  0
STYLE
  5
C08
330
3
100
AcDbSymbolTableRecord
100
AcDbTextStyleTableRecord
  2
UGMTXT
 70
     0
 40
0.0
 41
1.0
 50
0.0
 71
     0
 42
0.2
  3
ugmtxt
  4
bigfont
  0
STYLE
  5
12D5
330
3
100
AcDbSymbolTableRecord
100
AcDbTextStyleTableRecord
  2
SLDTEXTSTYLE0
 70
     0
 40
0.0
 41
0.75
 50
0.0
 71
     0
 42
0.0
  3
TXT
  4

  0
STYLE
  5
14C3
330
3
100
AcDbSymbolTableRecord
100
AcDbTextStyleTableRecord
  2
Roman
 70
     0
 40
0.0
 41
1.0
 50
0.0
 71
     0
 42
0.2
  3

  4

  0
ENDTAB
  0
TABLE
  2
VIEW
  5
6
330
0
100
AcDbSymbolTable
 70
     0
  0
ENDTAB
  0
TABLE
  2
UCS
  5
7
330
0
100
AcDbSymbolTable
 70
     0
  0
ENDTAB
  0
TABLE
  2
APPID
  5
9
330
0
100
AcDbSymbolTable
 70
     4
  0
APPID
  5
11
330
9
100
AcDbSymbolTableRecord
100
AcDbRegAppTableRecord
  2
ACAD
 70
     0
  0
APPID
  5
E8F
330
9
100
AcDbSymbolTableRecord
100
AcDbRegAppTableRecord
  2
CONTENTBLOCKICON
 70
     0
  0
APPID
  5
1485
330
9
100
AcDbSymbolTableRecord
100
AcDbRegAppTableRecord
  2
ACAD_MLEADERVER
 70
     0
  0
APPID
  5
1717
330
9
100
AcDbSymbolTableRecord
100
AcDbRegAppTableRecord
  2
ACAD_EXEMPT_FROM_CAD_STANDARDS
 70
     0
  0
ENDTAB
  0
TABLE
  2
DIMSTYLE
  5
A
330
0
100
AcDbSymbolTable
 70
     5
100
AcDbDimStyleTable
 71
     5
340
D91
340
1273
340
D93
340
D92
340
980
  0
DIMSTYLE
105
980
330
A
100
AcDbSymbolTableRecord
100
AcDbDimStyleTableRecord
  2
STANDARD
 70
     0
340
10
  0
DIMSTYLE
105
D91
102
{ACAD_REACTORS
330
4352
330
435F
330
437E
102
}
330
A
100
AcDbSymbolTableRecord
100
AcDbDimStyleTableRecord
  2
V-TYGEN_-160
 70
     0
 41
3.5
 42
1.0
 43
0.5
 44
1.0
 73
     0
 74
     0
 77
     1
140
3.5
141
0.0
147
1.0
271
     0
272
     0
340
10
371
    -1
  0
DIMSTYLE
105
D92
330
A
100
AcDbSymbolTableRecord
100
AcDbDimStyleTableRecord
  2
V-TYG_160-300
 70
     0
 41
5.0
 42
1.0
 43
0.5
 44
1.0
 73
     0
 74
     0
 77
     1
140
5.0
141
0.0
147
1.0
271
     0
272
     0
340
10
  0
DIMSTYLE
105
D93
330
A
100
AcDbSymbolTableRecord
100
AcDbDimStyleTableRecord
  2
V-TYG_300-
 70
     0
 41
8.0
 42
1.0
 43
0.5
 44
1.0
 73
     0
 74
     0
 77
     1
140
8.0
141
0.0
147
1.0
271
     0
272
     0
340
10
  0
DIMSTYLE
105
1273
330
A
100
AcDbSymbolTableRecord
100
AcDbDimStyleTableRecord
  2
Inserts
 70
     0
 41
0.5
 42
1.0
 43
0.5
 44
1.0
 73
     0
 74
     0
 77
     1
140
0.8
141
0.0
147
1.0
271
     0
272
     0
340
10
371
    -1
  0
ENDTAB
  0
TABLE
  2
BLOCK_RECORD
  5
1
330
0
100
AcDbSymbolTable
 70
    81
  0
BLOCK_RECORD
  5
19
102
{ACAD_XDICTIONARY
360
E8D
102
}
330
1
100
AcDbSymbolTableRecord
100
AcDbBlockTableRecord
  2
*MODEL_SPACE
340
E95
  0
BLOCK_RECORD
  5
16
102
{ACAD_XDICTIONARY
360
E8B
102
}
330
1
100
AcDbSymbolTableRecord
100
AcDbBlockTableRecord
  2
*PAPER_SPACE
340
E96
  0
BLOCK_RECORD
  5
4353
330
1
100
AcDbSymbolTableRecord
100
AcDbBlockTableRecord
  2
*D78
340
0
  0
BLOCK_RECORD
  5
4360
330
1
100
AcDbSymbolTableRecord
100
AcDbBlockTableRecord
  2
*D79
340
0
  0
BLOCK_RECORD
  5
437F
330
1
100
AcDbSymbolTableRecord
100
AcDbBlockTableRecord
  2
*D80
340
0
  0
ENDTAB
  0
ENDSEC
  0
SECTION
  2
BLOCKS
  0
BLOCK
  5
1A
330
19
100
AcDbEntity
  8
0
100
AcDbBlockBegin
  2
*MODEL_SPACE
 70
     0
 10
0.0
 20
0.0
 30
0.0
  3
*MODEL_SPACE
  1

  0
ENDBLK
  5
1B
330
19
100
AcDbEntity
  8
0
100
AcDbBlockEnd
  0
BLOCK
  5
17
330
16
100
AcDbEntity
 67
     1
  8
0
100
AcDbBlockBegin
  2
*PAPER_SPACE
 70
     0
 10
0.0
 20
0.0
 30
0.0
  3
*PAPER_SPACE
  1

  0
ENDBLK
  5
18
330
16
100
AcDbEntity
 67
     1
  8
0
100
AcDbBlockEnd
  0
BLOCK
  5
4354
330
4353
100
AcDbEntity
  8
0
100
AcDbBlockBegin
  2
*D78
 70
     1
 10
0.0
 20
0.0
 30
0.0
  3
*D78
  1

  0
LINE
  5
43B9
330
4353
100
AcDbEntity
  8
SK2
 62
     0
370
    -2
100
AcDbLine
 10
2180.029570442936
 20
1298.134589462735
 30
0.0
 11
2167.554330396773
 21
1298.134589462735
 31
0.0
  0
LINE
  5
43BA
330
4353
100
AcDbEntity
  8
SK2
 62
     0
370
    -2
100
AcDbLine
 10
2180.029570442936
 20
1283.137401962735
 30
0.0
 11
2167.554330396773
 21
1283.137401962735
 31
0.0
  0
LINE
  5
43BB
330
4353
100
AcDbEntity
  8
SK2
 62
     0
100
AcDbLine
 10
2168.554330396773
 20
1294.634589462736
 30
0.0
 11
2168.554330396773
 21
1286.637401962736
 31
0.0
  0
SOLID
  5
43BC
330
4353
100
AcDbEntity
  8
SK2
 62
     0
100
AcDbTrace
 10
2167.970997063439
 20
1294.634589462736
 30
0.0
 11
2169.137663730106
 21
1294.634589462736
 31
0.0
 12
2168.554330396773
 22
1298.134589462735
 32
0.0
 13
2168.554330396773
 23
1298.134589462735
 33
0.0
  0
SOLID
  5
43BD
330
4353
100
AcDbEntity
  8
SK2
 62
     0
100
AcDbTrace
 10
2167.970997063439
 20
1286.637401962736
 30
0.0
 11
2169.137663730106
 21
1286.637401962736
 31
0.0
 12
2168.554330396773
 22
1283.137401962735
 32
0.0
 13
2168.554330396773
 23
1283.137401962735
 33
0.0
  0
MTEXT
  5
43BE
330
4353
100
AcDbEntity
  8
SK2
 62
     0
100
AcDbMText
 10
2165.804330396772
 20
1290.635995712736
 30
0.0
 40
3.5
 41
0.0
 71
     5
 72
     1
  1
\A1;%%c15
 11
0.0000000000000001
 21
1.0
 31
0.0
 73
     1
 44
1.0
1001
ACAD
1000
MTEXTBEGIN
1070
    73
1070
     1
1070
    44
1040
1.0
1070
    74
1070
     0
1000
MTEXTEND
  0
POINT
  5
43BF
330
4353
100
AcDbEntity
  8
DEFPOINTS
 62
     0
100
AcDbPoint
 10
2181.029570442936
 20
1298.134589462735
 30
0.0
  0
POINT
  5
43C0
330
4353
100
AcDbEntity
  8
DEFPOINTS
 62
     0
100
AcDbPoint
 10
2181.029570442936
 20
1283.137401962735
 30
0.0
  0
POINT
  5
43C1
330
4353
100
AcDbEntity
  8
DEFPOINTS
 62
     0
100
AcDbPoint
 10
2168.554330396773
 20
1283.137401962735
 30
0.0
  0
ENDBLK
  5
4355
330
4353
100
AcDbEntity
  8
0
100
AcDbBlockEnd
  0
BLOCK
  5
4361
330
4360
100
AcDbEntity
  8
0
100
AcDbBlockBegin
  2
*D79
 70
     1
 10
0.0
 20
0.0
 30
0.0
  3
*D79
  1

  0
LINE
  5
43A7
330
4360
100
AcDbEntity
  8
2
 62
     0
370
    -2
100
AcDbLine
 10
2235.431320442937
 20
1306.603589462735
 30
0.0
 11
2252.795101160344
 21
1306.603589462735
 31
0.0
  0
LINE
  5
43A8
330
4360
100
AcDbEntity
  8
2
 62
     0
370
    -2
100
AcDbLine
 10
2234.372695442937
 20
1274.609589462735
 30
0.0
 11
2252.795101160344
 21
1274.609589462735
 31
0.0
  0
LINE
  5
43A9
330
4360
100
AcDbEntity
  8
2
 62
     0
100
AcDbLine
 10
2251.795101160344
 20
1303.103589462735
 30
0.0
 11
2251.795101160344
 21
1278.109589462735
 31
0.0
  0
SOLID
  5
43AA
330
4360
100
AcDbEntity
  8
2
 62
     0
100
AcDbTrace
 10
2251.21176782701
 20
1303.103589462735
 30
0.0
 11
2252.378434493677
 21
1303.103589462735
 31
0.0
 12
2251.795101160344
 22
1306.603589462735
 32
0.0
 13
2251.795101160344
 23
1306.603589462735
 33
0.0
  0
SOLID
  5
43AB
330
4360
100
AcDbEntity
  8
2
 62
     0
100
AcDbTrace
 10
2251.21176782701
 20
1278.109589462735
 30
0.0
 11
2252.378434493677
 21
1278.109589462735
 31
0.0
 12
2251.795101160344
 22
1274.609589462735
 32
0.0
 13
2251.795101160344
 23
1274.609589462735
 33
0.0
  0
MTEXT
  5
43AC
330
4360
100
AcDbEntity
  8
2
 62
     0
100
AcDbMText
 10
2249.045101160343
 20
1290.606589462736
 30
0.0
 40
3.5
 41
0.0
 71
     5
 72
     1
  1
\A1;%%c32
 11
0.0000000000000001
 21
1.0
 31
0.0
 73
     1
 44
1.0
1001
ACAD
1000
MTEXTBEGIN
1070
    73
1070
     1
1070
    44
1040
1.0
1070
    74
1070
     0
1000
MTEXTEND
  0
POINT
  5
43AD
330
4360
100
AcDbEntity
  8
DEFPOINTS
 62
     0
100
AcDbPoint
 10
2234.431320442937
 20
1306.603589462735
 30
0.0
  0
POINT
  5
43AE
330
4360
100
AcDbEntity
  8
DEFPOINTS
 62
     0
100
AcDbPoint
 10
2233.372695442936
 20
1274.609589462735
 30
0.0
  0
POINT
  5
43AF
330
4360
100
AcDbEntity
  8
DEFPOINTS
 62
     0
100
AcDbPoint
 10
2251.795101160344
 20
1274.609589462735
 30
0.0
  0
ENDBLK
  5
4362
330
4360
100
AcDbEntity
  8
0
100
AcDbBlockEnd
  0
BLOCK
  5
4380
330
437F
100
AcDbEntity
  8
0
100
AcDbBlockBegin
  2
*D80
 70
     1
 10
0.0
 20
0.0
 30
0.0
  3
*D80
  1

  0
LINE
  5
43B0
330
437F
100
AcDbEntity
  8
2
 62
     0
370
    -2
100
AcDbLine
 10
2204.025257942937
 20
1303.780776962735
 30
0.0
 11
2204.025257942937
 21
1318.265536939823
 31
0.0
  0
LINE
  5
43B1
330
437F
100
AcDbEntity
  8
2
 62
     0
370
    -2
100
AcDbLine
 10
2235.078257942936
 20
1307.191901962735
 30
0.0
 11
2235.078257942936
 21
1318.265536939823
 31
0.0
  0
LINE
  5
43B2
330
437F
100
AcDbEntity
  8
2
 62
     0
100
AcDbLine
 10
2207.525257942937
 20
1317.265536939823
 30
0.0
 11
2231.578257942936
 21
1317.265536939823
 31
0.0
  0
SOLID
  5
43B3
330
437F
100
AcDbEntity
  8
2
 62
     0
100
AcDbTrace
 10
2207.525257942937
 20
1317.848870273156
 30
0.0
 11
2207.525257942937
 21
1316.68220360649
 31
0.0
 12
2204.025257942937
 22
1317.265536939823
 32
0.0
 13
2204.025257942937
 23
1317.265536939823
 33
0.0
  0
SOLID
  5
43B4
330
437F
100
AcDbEntity
  8
2
 62
     0
100
AcDbTrace
 10
2231.578257942936
 20
1317.848870273156
 30
0.0
 11
2231.578257942936
 21
1316.68220360649
 31
0.0
 12
2235.078257942936
 22
1317.265536939823
 32
0.0
 13
2235.078257942936
 23
1317.265536939823
 33
0.0
  0
MTEXT
  5
43B5
330
437F
100
AcDbEntity
  8
2
 62
     0
100
AcDbMText
 10
2219.551757942936
 20
1320.015536939823
 30
0.0
 40
3.5
 41
0.0
 71
     5
 72
     1
  1
\A1;31
 73
     1
 44
1.0
1001
ACAD
1000
MTEXTBEGIN
1070
    73
1070
     1
1070
    44
1040
1.0
1070
    74
1070
     0
1000
MTEXTEND
  0
POINT
  5
43B6
330
437F
100
AcDbEntity
  8
DEFPOINTS
 62
     0
100
AcDbPoint
 10
2204.025257942937
 20
1302.780776962735
 30
0.0
  0
POINT
  5
43B7
330
437F
100
AcDbEntity
  8
DEFPOINTS
 62
     0
100
AcDbPoint
 10
2235.078257942936
 20
1306.191901962735
 30
0.0
  0
POINT
  5
43B8
330
437F
100
AcDbEntity
  8
DEFPOINTS
 62
     0
100
AcDbPoint
 10
2235.078257942936
 20
1317.265536939823
 30
0.0
  0
ENDBLK
  5
4381
330
437F
100
AcDbEntity
  8
0
100
AcDbBlockEnd
  0
ENDSEC
  0
SECTION
  2
ENTITIES
  0
MTEXT
  5
1431
330
19
100
AcDbEntity
  8
SK6
100
AcDbMText
 10
2180.475112269121
 20
1266.894544281931
 30
0.0
 40
3.5
 41
0.0000000000000142
 71
     1
 72
     5
  1
{\fMonospac821 BT|b0|i0|c0|p49;PF84-32H6-EN1\P02602356}
  7
SIMPLEX
 73
     1
 44
1.0
1001
ACAD
1000
MTEXTBEGIN
1070
    73
1070
     1
1070
    44
1040
1.0
1070
    74
1070
     0
1000
MTEXTEND
  0
LWPOLYLINE
  5
41C5
330
19
100
AcDbEntity
  8
SK4
100
AcDbPolyline
 90
        2
 70
     0
 43
0.0
 10
2236.901445442937
 20
1290.606589462735
 10
2178.030132942936
 20
1290.606589462735
  0
LWPOLYLINE
  5
41CB
330
19
100
AcDbEntity
  8
SK1
100
AcDbPolyline
 90
        2
 70
     0
 43
0.0
 10
2202.378507942936
 20
1282.608089462735
 10
2202.378507942936
 20
1286.078026962736
  0
LWPOLYLINE
  5
41CC
330
19
100
AcDbEntity
  8
SK1
100
AcDbPolyline
 90
        2
 70
     0
 43
0.0
 10
2197.379445442937
 20
1286.078026962736
 10
2197.379445442937
 20
1282.608089462735
  0
LWPOLYLINE
  5
41CD
330
19
100
AcDbEntity
  8
SK1
100
AcDbPolyline
 90
        2
 70
     0
 43
0.0
 10
2202.378507942936
 20
1298.134589462735
 10
2202.378507942936
 20
1298.663901962735
  0
LWPOLYLINE
  5
41CE
330
19
100
AcDbEntity
  8
SK1
100
AcDbPolyline
 90
        2
 70
     0
 43
0.0
 10
2197.379445442937
 20
1298.663901962735
 10
2197.379445442937
 20
1298.134589462735
  0
LWPOLYLINE
  5
41CF
330
19
100
AcDbEntity
  8
1
100
AcDbPolyline
 90
        2
 70
     0
 43
0.0
 10
2233.372695442936
 20
1274.609589462735
 10
2234.078445442936
 20
1274.668401962735
  0
LWPOLYLINE
  5
41D0
330
19
100
AcDbEntity
  8
1
100
AcDbPolyline
 90
        2
 70
     0
 43
0.0
 10
2211.023945442937
 20
1274.609589462735
 10
2233.372695442936
 20
1274.609589462735
  0
LWPOLYLINE
  5
41D1
330
19
100
AcDbEntity
  8
1
100
AcDbPolyline
 90
        2
 70
     0
 43
0.0
 10
2210.024132942936
 20
1274.903651962735
 10
2211.023945442937
 20
1274.609589462735
  0
LWPOLYLINE
  5
41D2
330
19
100
AcDbEntity
  8
1
100
AcDbPolyline
 90
        2
 70
     0
 43
0.0
 10
2234.078445442936
 20
1274.668401962735
 10
2235.078257942936
 20
1275.256526962736
  0
LWPOLYLINE
  5
41D3
330
19
100
AcDbEntity
  8
1
100
AcDbPolyline
 90
        2
 70
     0
 43
0.0
 10
2205.966070442936
 20
1305.192089462736
 10
2205.377945442936
 20
1304.133464462735
  0
LWPOLYLINE
  5
41D4
330
19
100
AcDbEntity
  8
1
100
AcDbPolyline
 90
        2
 70
     0
 43
0.0
 10
2205.377945442936
 20
1277.079714462735
 10
2206.024882942937
 20
1275.962276962735
  0
LWPOLYLINE
  5
41D5
330
19
100
AcDbEntity
  8
1
100
AcDbPolyline
 90
        2
 70
     0
 43
0.0
 10
2204.378132942937
 20
1278.138339462735
 10
2205.377945442936
 20
1278.138339462735
  0
LWPOLYLINE
  5
41D6
330
19
100
AcDbEntity
  8
1
100
AcDbPolyline
 90
        2
 70
     0
 43
0.0
 10
2205.377945442936
 20
1303.133651962736
 10
2204.378132942937
 20
1303.133651962736
  0
LWPOLYLINE
  5
41D7
330
19
100
AcDbEntity
  8
1
100
AcDbPolyline
 90
        2
 70
     0
 43
0.0
 10
2204.378132942937
 20
1303.133651962736
 10
2204.025257942937
 20
1302.780776962735
  0
LWPOLYLINE
  5
41D8
330
19
100
AcDbEntity
  8
P
  6
Continuous
 62
     0
100
AcDbPolyline
 90
        2
 70
     0
 43
0.0
 10
2204.025257942937
 20
1278.491214462735
 10
2204.378132942937
 20
1278.138339462735
  0
LWPOLYLINE
  5
41D9
330
19
100
AcDbEntity
  8
SK1
100
AcDbPolyline
 90
        2
 70
     0
 43
0.0
 10
2203.966445442937
 20
1283.431464462735
 10
2204.025257942937
 20
1283.431464462735
  0
LWPOLYLINE
  5
41DA
330
19
100
AcDbEntity
  8
SK1
100
AcDbPolyline
 90
        2
 70
     0
 43
0.0
 10
2204.025257942937
 20
1297.781714462735
 10
2203.966445442937
 20
1297.781714462735
  0
LWPOLYLINE
  5
41DB
330
19
100
AcDbEntity
  8
SK1
100
AcDbPolyline
 90
        2
 70
     0
 43
0.0
 10
2181.029570442936
 20
1298.134589462735
 10
2180.029757942937
 20
1297.546464462735
  0
LWPOLYLINE
  5
41DC
330
19
100
AcDbEntity
  8
SK1
100
AcDbPolyline
 90
        2
 70
     0
 43
0.0
 10
2180.029757942937
 20
1283.725526962735
 10
2181.029570442936
 20
1283.137401962735
  0
LWPOLYLINE
  5
41DD
330
19
100
AcDbEntity
  8
SK1
100
AcDbPolyline
 90
        2
 70
     0
 43
0.0
 10
2202.672570442937
 20
1298.134589462735
 10
2181.029570442936
 20
1298.134589462735
  0
LWPOLYLINE
  5
41DE
330
19
100
AcDbEntity
  8
SK1
100
AcDbPolyline
 90
        2
 70
     0
 43
0.0
 10
2181.029570442936
 20
1283.137401962735
 10
2197.379445442937
 20
1283.137401962735
  0
LWPOLYLINE
  5
41DF
330
19
100
AcDbEntity
  8
SK1
100
AcDbPolyline
 90
        2
 70
     0
 43
0.0
 10
2202.378507942936
 20
1283.137401962735
 10
2202.672570442937
 20
1283.137401962735
  0
LWPOLYLINE
  5
41E0
330
19
100
AcDbEntity
  8
SK1
100
AcDbPolyline
 90
        2
 70
     0
 43
0.0
 10
2202.672570442937
 20
1283.137401962735
 10
2203.260695442936
 20
1283.431464462735
  0
LWPOLYLINE
  5
41E1
330
19
100
AcDbEntity
  8
SK1
100
AcDbPolyline
 90
        2
 70
     0
 43
0.0
 10
2203.260695442936
 20
1297.840526962736
 10
2202.672570442937
 20
1298.134589462735
  0
LWPOLYLINE
  5
41E2
330
19
100
AcDbEntity
  8
SK1
100
AcDbPolyline
 90
        9
 70
     0
 43
0.0
 10
2203.260695442936
 20
1283.431464462735
 10
2203.319507942937
 20
1283.431464462735
 10
2203.319507942937
 20
1283.431464462735
 10
2203.319507942937
 20
1283.431464462735
 10
2203.378320442937
 20
1283.431464462735
 10
2203.378320442937
 20
1283.431464462735
 10
2203.437132942936
 20
1283.431464462735
 10
2203.437132942936
 20
1283.431464462735
 10
2203.437132942936
 20
1283.431464462735
  0
LWPOLYLINE
  5
41E3
330
19
100
AcDbEntity
  8
SK1
100
AcDbPolyline
 90
        9
 70
     0
 43
0.0
 10
2203.437132942936
 20
1297.781714462735
 10
2203.437132942936
 20
1297.781714462735
 10
2203.437132942936
 20
1297.781714462735
 10
2203.378320442937
 20
1297.781714462735
 10
2203.378320442937
 20
1297.840526962736
 10
2203.319507942937
 20
1297.840526962736
 10
2203.319507942937
 20
1297.840526962736
 10
2203.319507942937
 20
1297.840526962736
 10
2203.260695442936
 20
1297.840526962736
  0
LWPOLYLINE
  5
41E4
330
19
100
AcDbEntity
  8
SK1
100
AcDbPolyline
 90
        2
 70
     0
 43
0.0
 10
2203.437132942936
 20
1283.431464462735
 10
2203.966445442937
 20
1283.431464462735
  0
LWPOLYLINE
  5
41E5
330
19
100
AcDbEntity
  8
SK1
100
AcDbPolyline
 90
        2
 70
     0
 43
0.0
 10
2203.966445442937
 20
1297.781714462735
 10
2203.437132942936
 20
1297.781714462735
  0
LWPOLYLINE
  5
41E6
330
19
100
AcDbEntity
  8
1
100
AcDbPolyline
 90
        2
 70
     0
 43
0.0
 10
2235.078257942936
 20
1302.251464462735
 10
2235.078257942936
 20
1302.251464462735
  0
LWPOLYLINE
  5
41E7
330
19
100
AcDbEntity
  8
1
100
AcDbPolyline
 90
        2
 70
     0
 43
0.0
 10
2235.078257942936
 20
1300.722339462735
 10
2235.078257942936
 20
1300.722339462735
  0
LWPOLYLINE
  5
41E8
330
19
100
AcDbEntity
  8
1
100
AcDbPolyline
 90
        2
 70
     0
 43
0.0
 10
2235.078257942936
 20
1300.722339462735
 10
2235.078257942936
 20
1300.722339462735
  0
LWPOLYLINE
  5
41E9
330
19
100
AcDbEntity
  8
1
100
AcDbPolyline
 90
        2
 70
     0
 43
0.0
 10
2235.078257942936
 20
1302.251464462735
 10
2235.078257942936
 20
1302.251464462735
  0
LWPOLYLINE
  5
41EA
330
19
100
AcDbEntity
  8
1
100
AcDbPolyline
 90
        2
 70
     0
 43
0.0
 10
2235.078257942936
 20
1300.781151962735
 10
2235.078257942936
 20
1300.781151962735
  0
LWPOLYLINE
  5
41EB
330
19
100
AcDbEntity
  8
1
100
AcDbPolyline
 90
        2
 70
     0
 43
0.0
 10
2213.905757942936
 20
1300.781151962735
 10
2213.905757942936
 20
1300.722339462735
  0
LWPOLYLINE
  5
41EC
330
19
100
AcDbEntity
  8
1
100
AcDbPolyline
 90
        2
 70
     0
 43
0.0
 10
2223.903882942936
 20
1300.722339462735
 10
2223.903882942936
 20
1300.781151962735
  0
LWPOLYLINE
  5
41ED
330
19
100
AcDbEntity
  8
1
100
AcDbPolyline
 90
        2
 70
     0
 43
0.0
 10
2222.021882942936
 20
1306.133089462736
 10
2222.021882942936
 20
1305.839026962736
  0
LWPOLYLINE
  5
41EE
330
19
100
AcDbEntity
  8
SK1
100
AcDbPolyline
 90
       38
 70
     0
 43
0.0
 10
2199.908382942936
 20
1284.372464462735
 10
2199.496695442936
 20
1284.313651962735
 10
2199.085007942936
 20
1284.254839462735
 10
2198.673320442936
 20
1284.137214462735
 10
2198.320445442937
 20
1283.960776962735
 10
2198.026382942936
 20
1283.725526962735
 10
2197.732320442937
 20
1283.490276962736
 10
2197.555882942937
 20
1283.255026962735
 10
2197.438257942936
 20
1282.960964462735
 10
2197.379445442937
 20
1282.666901962735
 10
2197.438257942936
 20
1282.372839462735
 10
2197.497070442937
 20
1282.078776962735
 10
2197.673507942937
 20
1281.784714462735
 10
2197.908757942936
 20
1281.549464462735
 10
2198.144007942937
 20
1281.314214462735
 10
2198.496882942936
 20
1281.137776962735
 10
2198.849757942936
 20
1280.961339462735
 10
2199.261445442937
 20
1280.902526962735
 10
2199.673132942936
 20
1280.843714462735
 10
2200.084820442937
 20
1280.843714462735
 10
2200.496507942936
 20
1280.902526962735
 10
2200.908195442936
 20
1280.961339462735
 10
2201.319882942936
 20
1281.137776962735
 10
2201.613945442936
 20
1281.314214462735
 10
2201.908007942937
 20
1281.549464462735
 10
2202.143257942936
 20
1281.784714462735
 10
2202.260882942937
 20
1282.078776962735
 10
2202.378507942936
 20
1282.372839462735
 10
2202.378507942936
 20
1282.666901962735
 10
2202.319695442937
 20
1282.960964462735
 10
2202.202070442936
 20
1283.255026962735
 10
2202.025632942936
 20
1283.490276962736
 10
2201.790382942936
 20
1283.725526962735
 10
2201.437507942936
 20
1283.960776962735
 10
2201.084632942937
 20
1284.137214462735
 10
2200.731757942936
 20
1284.254839462735
 10
2200.320070442936
 20
1284.313651962735
 10
2199.908382942936
 20
1284.372464462735
  0
LWPOLYLINE
  5
41EF
330
19
100
AcDbEntity
  8
SK1
100
AcDbPolyline
 90
        3
 70
     0
 43
0.0
 10
2201.143445442936
 20
1287.254276962736
 10
2201.143445442936
 20
1287.195464462735
 10
2201.143445442936
 20
1287.136651962735
  0
LWPOLYLINE
  5
41F0
330
19
100
AcDbEntity
  8
SK1
100
AcDbPolyline
 90
       11
 70
     0
 43
0.0
 10
2199.908382942936
 20
1300.428276962735
 10
2199.496695442936
 20
1300.428276962735
 10
2199.085007942936
 20
1300.310651962736
 10
2198.673320442936
 20
1300.193026962735
 10
2198.320445442937
 20
1300.016589462736
 10
2198.026382942936
 20
1299.840151962735
 10
2197.732320442937
 20
1299.604901962736
 10
2197.555882942937
 20
1299.310839462735
 10
2197.438257942936
 20
1299.016776962735
 10
2197.379445442937
 20
1298.722714462735
 10
2197.379445442937
 20
1298.663901962735
  0
LWPOLYLINE
  5
41F1
330
19
100
AcDbEntity
  8
SK1
100
AcDbPolyline
 90
       11
 70
     0
 43
0.0
 10
2202.378507942936
 20
1298.663901962735
 10
2202.378507942936
 20
1298.722714462735
 10
2202.319695442937
 20
1299.016776962735
 10
2202.202070442936
 20
1299.310839462735
 10
2202.025632942936
 20
1299.604901962736
 10
2201.790382942936
 20
1299.840151962735
 10
2201.437507942936
 20
1300.016589462736
 10
2201.084632942937
 20
1300.193026962735
 10
2200.731757942936
 20
1300.310651962736
 10
2200.320070442936
 20
1300.428276962735
 10
2199.908382942936
 20
1300.428276962735
  0
LWPOLYLINE
  5
41F2
330
19
100
AcDbEntity
  8
1
100
AcDbPolyline
 90
        2
 70
     0
 43
0.0
 10
2234.901820442936
 20
1293.782464462736
 10
2235.078257942936
 20
1293.782464462736
  0
LWPOLYLINE
  5
41F3
330
19
100
AcDbEntity
  8
1
100
AcDbPolyline
 90
        2
 70
     0
 43
0.0
 10
2235.078257942936
 20
1293.782464462736
 10
2235.078257942936
 20
1297.605276962735
  0
LWPOLYLINE
  5
41F4
330
19
100
AcDbEntity
  8
1
100
AcDbPolyline
 90
        2
 70
     0
 43
0.0
 10
2234.901820442936
 20
1293.723651962735
 10
2235.078257942936
 20
1293.723651962735
  0
LWPOLYLINE
  5
41F5
330
19
100
AcDbEntity
  8
1
100
AcDbPolyline
 90
        2
 70
     0
 43
0.0
 10
2235.078257942936
 20
1293.723651962735
 10
2235.078257942936
 20
1293.782464462736
  0
LWPOLYLINE
  5
41F6
330
19
100
AcDbEntity
  8
1
100
AcDbPolyline
 90
        3
 70
     0
 43
0.0
 10
2233.372695442936
 20
1275.138901962735
 10
2233.666757942936
 20
1275.138901962735
 10
2234.078445442936
 20
1275.197714462735
  0
LWPOLYLINE
  5
41F7
330
19
100
AcDbEntity
  8
1
100
AcDbPolyline
 90
        2
 70
     0
 43
0.0
 10
2211.023945442937
 20
1275.138901962735
 10
2233.372695442936
 20
1275.138901962735
  0
LWPOLYLINE
  5
41F8
330
19
100
AcDbEntity
  8
1
100
AcDbPolyline
 90
        3
 70
     0
 43
0.0
 10
2210.024132942936
 20
1275.432964462736
 10
2210.612257942937
 20
1275.256526962736
 10
2211.023945442937
 20
1275.138901962735
  0
LWPOLYLINE
  5
41F9
330
19
100
AcDbEntity
  8
1
100
AcDbPolyline
 90
        2
 70
     0
 43
0.0
 10
2210.024132942936
 20
1275.903464462735
 10
2210.024132942936
 20
1275.432964462736
  0
LWPOLYLINE
  5
41FA
330
19
100
AcDbEntity
  8
1
100
AcDbPolyline
 90
        2
 70
     0
 43
0.0
 10
2234.901820442936
 20
1277.550214462736
 10
2235.078257942936
 20
1277.550214462736
  0
LWPOLYLINE
  5
41FB
330
19
100
AcDbEntity
  8
1
100
AcDbPolyline
 90
        2
 70
     0
 43
0.0
 10
2235.078257942936
 20
1275.785839462736
 10
2235.078257942936
 20
1277.550214462736
  0
LWPOLYLINE
  5
41FC
330
19
100
AcDbEntity
  8
1
100
AcDbPolyline
 90
        3
 70
     0
 43
0.0
 10
2234.078445442936
 20
1275.197714462735
 10
2234.372507942937
 20
1275.374151962735
 10
2235.078257942936
 20
1275.785839462736
  0
LWPOLYLINE
  5
41FD
330
19
100
AcDbEntity
  8
1
100
AcDbPolyline
 90
        5
 70
     0
 43
0.0
 10
2233.372695442936
 20
1275.138901962735
 10
2233.372695442936
 20
1274.903651962735
 10
2233.372695442936
 20
1274.727214462736
 10
2233.372695442936
 20
1274.668401962735
 10
2233.372695442936
 20
1274.609589462735
  0
LWPOLYLINE
  5
41FE
330
19
100
AcDbEntity
  8
1
100
AcDbPolyline
 90
        5
 70
     0
 43
0.0
 10
2234.078445442936
 20
1275.197714462735
 10
2234.078445442936
 20
1274.962464462735
 10
2234.078445442936
 20
1274.786026962735
 10
2234.078445442936
 20
1274.727214462736
 10
2234.078445442936
 20
1274.668401962735
  0
LWPOLYLINE
  5
41FF
330
19
100
AcDbEntity
  8
1
100
AcDbPolyline
 90
        5
 70
     0
 43
0.0
 10
2211.023945442937
 20
1275.138901962735
 10
2211.023945442937
 20
1274.903651962735
 10
2211.023945442937
 20
1274.727214462736
 10
2211.023945442937
 20
1274.668401962735
 10
2211.023945442937
 20
1274.609589462735
  0
LWPOLYLINE
  5
4200
330
19
100
AcDbEntity
  8
1
100
AcDbPolyline
 90
        5
 70
     0
 43
0.0
 10
2210.024132942936
 20
1275.432964462736
 10
2210.024132942936
 20
1275.197714462735
 10
2210.024132942936
 20
1275.021276962735
 10
2210.024132942936
 20
1274.903651962735
 10
2210.024132942936
 20
1274.903651962735
  0
LWPOLYLINE
  5
4201
330
19
100
AcDbEntity
  8
1
100
AcDbPolyline
 90
        5
 70
     0
 43
0.0
 10
2235.078257942936
 20
1275.785839462736
 10
2235.078257942936
 20
1275.550589462735
 10
2235.078257942936
 20
1275.374151962735
 10
2235.078257942936
 20
1275.256526962736
 10
2235.078257942936
 20
1275.256526962736
  0
LWPOLYLINE
  5
4202
330
19
100
AcDbEntity
  8
1
100
AcDbPolyline
 90
        2
 70
     0
 43
0.0
 10
2234.901820442936
 20
1277.726651962735
 10
2235.078257942936
 20
1277.726651962735
  0
LWPOLYLINE
  5
4203
330
19
100
AcDbEntity
  8
1
100
AcDbPolyline
 90
        2
 70
     0
 43
0.0
 10
2235.078257942936
 20
1277.550214462736
 10
2235.078257942936
 20
1277.726651962735
  0
LWPOLYLINE
  5
4204
330
19
100
AcDbEntity
  8
1
100
AcDbPolyline
 90
        3
 70
     0
 43
0.0
 10
2205.377945442936
 20
1304.074651962736
 10
2205.377945442936
 20
1304.133464462735
 10
2205.377945442936
 20
1304.133464462735
  0
LWPOLYLINE
  5
4205
330
19
100
AcDbEntity
  8
1
100
AcDbPolyline
 90
       27
 70
     0
 43
0.0
 10
2205.377945442936
 20
1277.079714462735
 10
2205.377945442936
 20
1277.138526962735
 10
2205.377945442936
 20
1277.197339462735
 10
2205.377945442936
 20
1277.314964462735
 10
2205.377945442936
 20
1277.550214462736
 10
2205.377945442936
 20
1277.785464462735
 10
2205.377945442936
 20
1278.138339462735
 10
2205.377945442936
 20
1278.550026962735
 10
2205.377945442936
 20
1279.020526962735
 10
2205.377945442936
 20
1279.608651962736
 10
2205.377945442936
 20
1280.196776962735
 10
2205.377945442936
 20
1280.843714462735
 10
2205.377945442936
 20
1281.549464462735
 10
2205.377945442936
 20
1282.314026962735
 10
2205.377945442936
 20
1283.078589462735
 10
2205.377945442936
 20
1283.960776962735
 10
2205.377945442936
 20
1284.842964462735
 10
2205.377945442936
 20
1285.725151962735
 10
2205.377945442936
 20
1286.666151962735
 10
2205.377945442936
 20
1287.607151962735
 10
2205.377945442936
 20
1288.606964462735
 10
2205.377945442936
 20
1289.547964462735
 10
2205.377945442936
 20
1290.547776962735
 10
2205.377945442936
 20
1291.547589462735
 10
2205.377945442936
 20
1292.488589462735
 10
2205.377945442936
 20
1293.488401962736
 10
2205.377945442936
 20
1294.429401962735
  0
LWPOLYLINE
  5
4206
330
19
100
AcDbEntity
  8
1
100
AcDbPolyline
 90
        2
 70
     0
 43
0.0
 10
2206.377757942936
 20
1292.665026962735
 10
2205.377945442936
 20
1294.429401962735
  0
LWPOLYLINE
  5
4207
330
19
100
AcDbEntity
  8
1
100
AcDbPolyline
 90
       24
 70
     0
 43
0.0
 10
2206.377757942936
 20
1292.665026962735
 10
2206.377757942936
 20
1291.606401962736
 10
2206.377757942936
 20
1290.547776962735
 10
2206.377757942936
 20
1289.489151962735
 10
2206.377757942936
 20
1288.430526962735
 10
2206.377757942936
 20
1287.371901962735
 10
2206.377757942936
 20
1286.372089462735
 10
2206.377757942936
 20
1285.372276962736
 10
2206.377757942936
 20
1284.372464462735
 10
2206.377757942936
 20
1283.431464462735
 10
2206.377757942936
 20
1282.490464462735
 10
2206.377757942936
 20
1281.608276962735
 10
2206.377757942936
 20
1280.784901962735
 10
2206.377757942936
 20
1280.020339462735
 10
2206.377757942936
 20
1279.255776962735
 10
2206.377757942936
 20
1278.608839462735
 10
2206.377757942936
 20
1277.961901962736
 10
2206.377757942936
 20
1277.432589462735
 10
2206.377757942936
 20
1276.903276962735
 10
2206.377757942936
 20
1276.491589462735
 10
2206.377757942936
 20
1276.138714462735
 10
2206.377757942936
 20
1275.844651962735
 10
2206.377757942936
 20
1275.609401962735
 10
2206.377757942936
 20
1275.432964462736
  0
LWPOLYLINE
  5
4208
330
19
100
AcDbEntity
  8
1
100
AcDbPolyline
 90
        5
 70
     0
 43
0.0
 10
2206.024882942937
 20
1275.962276962735
 10
2206.024882942937
 20
1275.962276962735
 10
2206.083695442937
 20
1275.903464462735
 10
2206.318945442936
 20
1275.609401962735
 10
2206.377757942936
 20
1275.432964462736
  0
LWPOLYLINE
  5
4209
330
19
100
AcDbEntity
  8
1
100
AcDbPolyline
 90
        4
 70
     0
 43
0.0
 10
2205.789632942936
 20
1304.839214462735
 10
2205.966070442936
 20
1305.074464462735
 10
2206.201320442936
 20
1305.603776962735
 10
2206.377757942936
 20
1305.839026962736
  0
LWPOLYLINE
  5
420A
330
19
100
AcDbEntity
  8
1
100
AcDbPolyline
 90
        2
 70
     0
 43
0.0
 10
2205.377945442936
 20
1304.074651962736
 10
2205.789632942936
 20
1304.839214462735
  0
LWPOLYLINE
  5
420B
330
19
100
AcDbEntity
  8
1
100
AcDbPolyline
 90
        2
 70
     0
 43
0.0
 10
2210.024132942936
 20
1275.903464462735
 10
2233.902007942937
 20
1275.903464462735
  0
LWPOLYLINE
  5
420C
330
19
100
AcDbEntity
  8
1
100
AcDbPolyline
 90
        8
 70
     0
 43
0.0
 10
2206.377757942936
 20
1275.432964462736
 10
2206.789445442936
 20
1275.550589462735
 10
2207.201132942936
 20
1275.609401962735
 10
2207.730445442937
 20
1275.727026962735
 10
2208.259757942936
 20
1275.785839462736
 10
2208.906695442936
 20
1275.844651962735
 10
2209.494820442936
 20
1275.903464462735
 10
2210.024132942936
 20
1275.903464462735
  0
LWPOLYLINE
  5
420D
330
19
100
AcDbEntity
  8
1
100
AcDbPolyline
 90
        2
 70
     0
 43
0.0
 10
2227.903132942937
 20
1292.665026962735
 10
2206.377757942936
 20
1292.665026962735
  0
LWPOLYLINE
  5
420E
330
19
100
AcDbEntity
  8
1
100
AcDbPolyline
 90
        5
 70
     0
 43
0.0
 10
2233.902007942937
 20
1290.430151962735
 10
2232.314070442937
 20
1290.959464462736
 10
2230.784945442937
 20
1291.547589462735
 10
2229.314632942937
 20
1292.076901962735
 10
2227.903132942937
 20
1292.665026962735
  0
LWPOLYLINE
  5
420F
330
19
100
AcDbEntity
  8
1
100
AcDbPolyline
 90
       19
 70
     0
 43
0.0
 10
2233.902007942937
 20
1290.430151962735
 10
2233.902007942937
 20
1289.312714462736
 10
2233.902007942937
 20
1288.254089462736
 10
2233.902007942937
 20
1287.195464462735
 10
2233.902007942937
 20
1286.136839462735
 10
2233.902007942937
 20
1285.078214462735
 10
2233.902007942937
 20
1284.078401962736
 10
2233.902007942937
 20
1283.078589462735
 10
2233.902007942937
 20
1282.196401962735
 10
2233.902007942937
 20
1281.255401962736
 10
2233.902007942937
 20
1280.432026962735
 10
2233.902007942937
 20
1279.667464462735
 10
2233.902007942937
 20
1278.902901962735
 10
2233.902007942937
 20
1278.255964462736
 10
2233.902007942937
 20
1277.667839462736
 10
2233.902007942937
 20
1277.079714462735
 10
2233.902007942937
 20
1276.609214462735
 10
2233.902007942937
 20
1276.256339462735
 10
2233.902007942937
 20
1275.903464462735
  0
LWPOLYLINE
  5
4210
330
19
100
AcDbEntity
  8
1
100
AcDbPolyline
 90
       20
 70
     0
 43
0.0
 10
2228.020757942936
 20
1279.079339462735
 10
2227.373820442936
 20
1279.020526962735
 10
2226.726882942936
 20
1278.785276962735
 10
2226.256382942936
 20
1278.491214462735
 10
2226.021132942937
 20
1278.079526962735
 10
2225.962320442937
 20
1277.726651962735
 10
2226.138757942936
 20
1277.373776962736
 10
2226.550445442936
 20
1277.079714462735
 10
2227.138570442936
 20
1276.903276962735
 10
2227.785507942936
 20
1276.844464462735
 10
2228.491257942937
 20
1276.844464462735
 10
2229.138195442937
 20
1276.962089462735
 10
2229.667507942936
 20
1277.138526962735
 10
2230.020382942936
 20
1277.491401962735
 10
2230.138007942937
 20
1277.844276962736
 10
2230.020382942936
 20
1278.197151962735
 10
2229.726320442936
 20
1278.608839462735
 10
2229.197007942936
 20
1278.902901962735
 10
2228.550070442937
 20
1279.079339462735
 10
2228.020757942936
 20
1279.079339462735
  0
LWPOLYLINE
  5
4211
330
19
100
AcDbEntity
  8
1
100
AcDbPolyline
 90
        5
 70
     0
 43
0.0
 10
2228.667695442936
 20
1301.722151962735
 10
2229.020570442936
 20
1301.310464462735
 10
2229.373445442937
 20
1300.898776962735
 10
2229.785132942937
 20
1300.487089462735
 10
2230.196820442937
 20
1300.134214462735
  0
LWPOLYLINE
  5
4212
330
19
100
AcDbEntity
  8
1
100
AcDbPolyline
 90
        9
 70
     0
 43
0.0
 10
2230.196820442937
 20
1300.134214462735
 10
2230.373257942936
 20
1300.016589462736
 10
2230.608507942936
 20
1299.898964462736
 10
2230.784945442937
 20
1299.781339462735
 10
2231.020195442937
 20
1299.663714462735
 10
2231.196632942936
 20
1299.546089462735
 10
2231.431882942937
 20
1299.428464462735
 10
2231.667132942936
 20
1299.369651962736
 10
2231.902382942937
 20
1299.310839462735
  0
LWPOLYLINE
  5
4213
330
19
100
AcDbEntity
  8
1
100
AcDbPolyline
 90
        4
 70
     0
 43
0.0
 10
2231.902382942937
 20
1299.310839462735
 10
2232.843382942936
 20
1299.016776962735
 10
2233.843195442936
 20
1298.722714462735
 10
2234.901820442936
 20
1298.487464462735
  0
LWPOLYLINE
  5
4214
330
19
100
AcDbEntity
  8
1
100
AcDbPolyline
 90
        2
 70
     0
 43
0.0
 10
2234.901820442936
 20
1298.487464462735
 10
2234.901820442936
 20
1290.547776962735
  0
LWPOLYLINE
  5
4215
330
19
100
AcDbEntity
  8
1
100
AcDbPolyline
 90
        2
 70
     0
 43
0.0
 10
2234.901820442936
 20
1290.547776962735
 10
2233.902007942937
 20
1290.430151962735
  0
LWPOLYLINE
  5
4216
330
19
100
AcDbEntity
  8
1
100
AcDbPolyline
 90
        2
 70
     0
 43
0.0
 10
2227.903132942937
 20
1292.665026962735
 10
2227.903132942937
 20
1301.957401962736
  0
LWPOLYLINE
  5
4217
330
19
100
AcDbEntity
  8
1
100
AcDbPolyline
 90
        4
 70
     0
 43
0.0
 10
2227.903132942937
 20
1301.957401962736
 10
2228.138382942937
 20
1301.898589462736
 10
2228.432445442936
 20
1301.780964462736
 10
2228.667695442936
 20
1301.722151962735
  0
LWPOLYLINE
  5
4218
330
19
100
AcDbEntity
  8
1
100
AcDbPolyline
 90
        3
 70
     0
 43
0.0
 10
2233.902007942937
 20
1275.903464462735
 10
2233.960820442936
 20
1275.962276962735
 10
2234.901820442936
 20
1276.491589462735
  0
LWPOLYLINE
  5
4219
330
19
100
AcDbEntity
  8
1
100
AcDbPolyline
 90
       19
 70
     0
 43
0.0
 10
2234.901820442936
 20
1290.547776962735
 10
2234.901820442936
 20
1289.489151962735
 10
2234.901820442936
 20
1288.489339462735
 10
2234.901820442936
 20
1287.430714462735
 10
2234.901820442936
 20
1286.430901962735
 10
2234.901820442936
 20
1285.431089462736
 10
2234.901820442936
 20
1284.431276962735
 10
2234.901820442936
 20
1283.490276962736
 10
2234.901820442936
 20
1282.608089462735
 10
2234.901820442936
 20
1281.725901962735
 10
2234.901820442936
 20
1280.961339462735
 10
2234.901820442936
 20
1280.196776962735
 10
2234.901820442936
 20
1279.432214462735
 10
2234.901820442936
 20
1278.785276962735
 10
2234.901820442936
 20
1278.197151962735
 10
2234.901820442936
 20
1277.667839462736
 10
2234.901820442936
 20
1277.197339462735
 10
2234.901820442936
 20
1276.844464462735
 10
2234.901820442936
 20
1276.491589462735
  0
LWPOLYLINE
  5
421A
330
19
100
AcDbEntity
  8
1
100
AcDbPolyline
 90
        2
 70
     0
 43
0.0
 10
2205.377945442936
 20
1302.721964462735
 10
2204.378132942937
 20
1302.721964462735
  0
LWPOLYLINE
  5
421B
330
19
100
AcDbEntity
  8
1
100
AcDbPolyline
 90
        2
 70
     0
 43
0.0
 10
2205.377945442936
 20
1304.074651962736
 10
2205.377945442936
 20
1302.721964462735
  0
LWPOLYLINE
  5
421C
330
19
100
AcDbEntity
  8
1
100
AcDbPolyline
 90
        9
 70
     0
 43
0.0
 10
2211.612070442936
 20
1304.074651962736
 10
2210.671070442936
 20
1304.192276962735
 10
2209.788882942937
 20
1304.251089462735
 10
2208.965507942938
 20
1304.368714462735
 10
2208.200945442936
 20
1304.486339462735
 10
2207.495195442937
 20
1304.545151962735
 10
2206.848257942937
 20
1304.662776962735
 10
2206.318945442936
 20
1304.780401962736
 10
2205.789632942936
 20
1304.839214462735
  0
LWPOLYLINE
  5
421D
330
19
100
AcDbEntity
  8
1
100
AcDbPolyline
 90
        2
 70
     0
 43
0.0
 10
2216.375882942936
 20
1303.545339462736
 10
2211.612070442936
 20
1304.074651962736
  0
LWPOLYLINE
  5
421E
330
19
100
AcDbEntity
  8
1
100
AcDbPolyline
 90
       29
 70
     0
 43
0.0
 10
2223.903882942936
 20
1300.722339462735
 10
2223.903882942936
 20
1300.604714462735
 10
2223.845070442936
 20
1300.251839462735
 10
2223.727445442937
 20
1299.840151962735
 10
2223.492195442936
 20
1299.487276962735
 10
2223.256945442936
 20
1299.134401962735
 10
2222.904070442937
 20
1298.840339462735
 10
2222.551195442936
 20
1298.546276962736
 10
2222.139507942936
 20
1298.252214462735
 10
2221.669007942937
 20
1298.016964462735
 10
2221.139695442936
 20
1297.840526962736
 10
2220.551570442936
 20
1297.664089462735
 10
2220.022257942936
 20
1297.605276962735
 10
2219.434132942937
 20
1297.546464462735
 10
2218.787195442936
 20
1297.487651962735
 10
2218.199070442937
 20
1297.546464462735
 10
2217.610945442936
 20
1297.605276962735
 10
2217.081632942937
 20
1297.722901962736
 10
2216.493507942937
 20
1297.899339462735
 10
2216.023007942936
 20
1298.075776962735
 10
2215.552507942936
 20
1298.311026962735
 10
2215.140820442936
 20
1298.605089462735
 10
2214.787945442937
 20
1298.899151962735
 10
2214.435070442937
 20
1299.252026962735
 10
2214.199820442936
 20
1299.604901962736
 10
2214.023382942936
 20
1299.957776962735
 10
2213.905757942936
 20
1300.310651962736
 10
2213.905757942936
 20
1300.722339462735
 10
2213.905757942936
 20
1300.722339462735
  0
LWPOLYLINE
  5
421F
330
19
100
AcDbEntity
  8
1
100
AcDbPolyline
 90
        2
 70
     0
 43
0.0
 10
2225.962320442937
 20
1302.310276962735
 10
2223.668632942937
 20
1301.780964462736
  0
LWPOLYLINE
  5
4220
330
19
100
AcDbEntity
  8
1
100
AcDbPolyline
 90
        4
 70
     0
 43
0.0
 10
2225.962320442937
 20
1302.310276962735
 10
2226.609257942937
 20
1302.133839462735
 10
2227.256195442937
 20
1302.016214462735
 10
2227.903132942937
 20
1301.957401962736
  0
LWPOLYLINE
  5
4221
330
19
100
AcDbEntity
  8
1
100
AcDbPolyline
 90
        2
 70
     0
 43
0.0
 10
2205.377945442936
 20
1295.782089462735
 10
2205.377945442936
 20
1294.429401962735
  0
LWPOLYLINE
  5
4222
330
19
100
AcDbEntity
  8
1
100
AcDbPolyline
 90
        2
 70
     0
 43
0.0
 10
2204.378132942937
 20
1295.782089462735
 10
2205.377945442936
 20
1295.782089462735
  0
LWPOLYLINE
  5
4223
330
19
100
AcDbEntity
  8
1
100
AcDbPolyline
 90
        2
 70
     0
 43
0.0
 10
2204.025257942937
 20
1296.311401962735
 10
2204.378132942937
 20
1295.782089462735
  0
LWPOLYLINE
  5
4224
330
19
100
AcDbEntity
  8
1
100
AcDbPolyline
 90
        2
 70
     0
 43
0.0
 10
2204.025257942937
 20
1302.192651962736
 10
2204.025257942937
 20
1296.311401962735
  0
LWPOLYLINE
  5
4225
330
19
100
AcDbEntity
  8
1
100
AcDbPolyline
 90
        2
 70
     0
 43
0.0
 10
2204.378132942937
 20
1302.721964462735
 10
2204.025257942937
 20
1302.192651962736
  0
LWPOLYLINE
  5
4226
330
19
100
AcDbEntity
  8
1
100
AcDbPolyline
 90
        5
 70
     0
 43
0.0
 10
2222.551195442936
 20
1296.840714462735
 10
2222.374757942936
 20
1296.899526962735
 10
2222.257132942937
 20
1296.958339462735
 10
2222.198320442936
 20
1297.017151962736
 10
2222.198320442936
 20
1297.134776962735
  0
LWPOLYLINE
  5
4227
330
19
100
AcDbEntity
  8
1
100
AcDbPolyline
 90
        4
 70
     0
 43
0.0
 10
2222.257132942937
 20
1296.546651962735
 10
2222.257132942937
 20
1296.664276962735
 10
2222.374757942936
 20
1296.723089462735
 10
2222.551195442936
 20
1296.840714462735
  0
LWPOLYLINE
  5
4228
330
19
100
AcDbEntity
  8
1
100
AcDbPolyline
 90
        5
 70
     0
 43
0.0
 10
2222.904070442937
 20
1296.193776962735
 10
2222.668820442937
 20
1296.252589462735
 10
2222.433570442936
 20
1296.311401962735
 10
2222.315945442936
 20
1296.429026962735
 10
2222.257132942937
 20
1296.546651962735
  0
LWPOLYLINE
  5
4229
330
19
100
AcDbEntity
  8
1
100
AcDbPolyline
 90
        2
 70
     0
 43
0.0
 10
2223.668632942937
 20
1296.193776962735
 10
2222.904070442937
 20
1296.193776962735
  0
LWPOLYLINE
  5
422A
330
19
100
AcDbEntity
  8
1
100
AcDbPolyline
 90
        2
 70
     0
 43
0.0
 10
2223.668632942937
 20
1297.487651962735
 10
2223.668632942937
 20
1296.193776962735
  0
LWPOLYLINE
  5
422B
330
19
100
AcDbEntity
  8
1
100
AcDbPolyline
 90
        2
 70
     0
 43
0.0
 10
2222.904070442937
 20
1297.487651962735
 10
2223.668632942937
 20
1297.487651962735
  0
LWPOLYLINE
  5
422C
330
19
100
AcDbEntity
  8
1
100
AcDbPolyline
 90
        6
 70
     0
 43
0.0
 10
2222.198320442936
 20
1297.134776962735
 10
2222.198320442936
 20
1297.252401962735
 10
2222.315945442936
 20
1297.370026962735
 10
2222.433570442936
 20
1297.428839462736
 10
2222.668820442937
 20
1297.487651962735
 10
2222.904070442937
 20
1297.487651962735
  0
LWPOLYLINE
  5
422D
330
19
100
AcDbEntity
  8
1
100
AcDbPolyline
 90
        2
 70
     0
 43
0.0
 10
2214.258632942936
 20
1296.370214462736
 10
2214.905570442936
 20
1296.370214462736
  0
LWPOLYLINE
  5
422E
330
19
100
AcDbEntity
  8
1
100
AcDbPolyline
 90
        2
 70
     0
 43
0.0
 10
2214.258632942936
 20
1296.193776962735
 10
2214.258632942936
 20
1296.370214462736
  0
LWPOLYLINE
  5
422F
330
19
100
AcDbEntity
  8
1
100
AcDbPolyline
 90
        2
 70
     0
 43
0.0
 10
2215.846570442937
 20
1296.193776962735
 10
2214.258632942936
 20
1296.193776962735
  0
LWPOLYLINE
  5
4230
330
19
100
AcDbEntity
  8
1
100
AcDbPolyline
 90
        2
 70
     0
 43
0.0
 10
2215.846570442937
 20
1296.370214462736
 10
2215.846570442937
 20
1296.193776962735
  0
LWPOLYLINE
  5
4231
330
19
100
AcDbEntity
  8
1
100
AcDbPolyline
 90
        2
 70
     0
 43
0.0
 10
2215.199632942937
 20
1296.370214462736
 10
2215.846570442937
 20
1296.370214462736
  0
LWPOLYLINE
  5
4232
330
19
100
AcDbEntity
  8
1
100
AcDbPolyline
 90
        2
 70
     0
 43
0.0
 10
2215.199632942937
 20
1297.487651962735
 10
2215.199632942937
 20
1296.370214462736
  0
LWPOLYLINE
  5
4233
330
19
100
AcDbEntity
  8
1
100
AcDbPolyline
 90
        2
 70
     0
 43
0.0
 10
2214.905570442936
 20
1297.487651962735
 10
2215.199632942937
 20
1297.487651962735
  0
LWPOLYLINE
  5
4234
330
19
100
AcDbEntity
  8
1
100
AcDbPolyline
 90
        2
 70
     0
 43
0.0
 10
2214.905570442936
 20
1296.370214462736
 10
2214.905570442936
 20
1297.487651962735
  0
LWPOLYLINE
  5
4235
330
19
100
AcDbEntity
  8
1
100
AcDbPolyline
 90
        5
 70
     0
 43
0.0
 10
2204.378132942937
 20
1302.721964462735
 10
2204.378132942937
 20
1302.957214462735
 10
2204.378132942937
 20
1303.074839462735
 10
2204.378132942937
 20
1303.133651962736
 10
2204.378132942937
 20
1303.133651962736
  0
LWPOLYLINE
  5
4236
330
19
100
AcDbEntity
  8
1
100
AcDbPolyline
 90
       28
 70
     0
 43
0.0
 10
2204.378132942937
 20
1278.138339462735
 10
2204.378132942937
 20
1278.138339462735
 10
2204.378132942937
 20
1278.197151962735
 10
2204.378132942937
 20
1278.314776962735
 10
2204.378132942937
 20
1278.491214462735
 10
2204.378132942937
 20
1278.785276962735
 10
2204.378132942937
 20
1279.138151962736
 10
2204.378132942937
 20
1279.491026962735
 10
2204.378132942937
 20
1279.961526962735
 10
2204.378132942937
 20
1280.490839462735
 10
2204.378132942937
 20
1281.078964462736
 10
2204.378132942937
 20
1281.725901962735
 10
2204.378132942937
 20
1282.431651962735
 10
2204.378132942937
 20
1283.196214462735
 10
2204.378132942937
 20
1283.960776962735
 10
2204.378132942937
 20
1284.784151962735
 10
2204.378132942937
 20
1285.607526962735
 10
2204.378132942937
 20
1286.489714462735
 10
2204.378132942937
 20
1287.430714462735
 10
2204.378132942937
 20
1288.371714462735
 10
2204.378132942937
 20
1289.253901962735
 10
2204.378132942937
 20
1290.253714462735
 10
2204.378132942937
 20
1291.194714462736
 10
2204.378132942937
 20
1292.135714462735
 10
2204.378132942937
 20
1293.076714462735
 10
2204.378132942937
 20
1293.958901962735
 10
2204.378132942937
 20
1294.899901962735
 10
2204.378132942937
 20
1295.782089462735
  0
LWPOLYLINE
  5
4237
330
19
100
AcDbEntity
  8
1
100
AcDbPolyline
 90
        6
 70
     0
 43
0.0
 10
2204.025257942937
 20
1302.192651962736
 10
2204.025257942937
 20
1302.427901962736
 10
2204.025257942937
 20
1302.604339462736
 10
2204.025257942937
 20
1302.721964462735
 10
2204.025257942937
 20
1302.780776962735
 10
2204.025257942937
 20
1302.780776962735
  0
LWPOLYLINE
  5
4238
330
19
100
AcDbEntity
  8
1
100
AcDbPolyline
 90
       28
 70
     0
 43
0.0
 10
2204.025257942937
 20
1278.491214462735
 10
2204.025257942937
 20
1278.491214462735
 10
2204.025257942937
 20
1278.608839462735
 10
2204.025257942937
 20
1278.785276962735
 10
2204.025257942937
 20
1279.020526962735
 10
2204.025257942937
 20
1279.314589462736
 10
2204.025257942937
 20
1279.667464462735
 10
2204.025257942937
 20
1280.137964462735
 10
2204.025257942937
 20
1280.608464462735
 10
2204.025257942937
 20
1281.196589462735
 10
2204.025257942937
 20
1281.784714462735
 10
2204.025257942937
 20
1282.431651962735
 10
2204.025257942937
 20
1283.137401962735
 10
2204.025257942937
 20
1283.901964462736
 10
2204.025257942937
 20
1284.725339462735
 10
2204.025257942937
 20
1285.548714462735
 10
2204.025257942937
 20
1286.372089462735
 10
2204.025257942937
 20
1287.313089462736
 10
2204.025257942937
 20
1288.195276962735
 10
2204.025257942937
 20
1289.077464462735
 10
2204.025257942937
 20
1290.018464462735
 10
2204.025257942937
 20
1290.959464462736
 10
2204.025257942937
 20
1291.900464462736
 10
2204.025257942937
 20
1292.782651962735
 10
2204.025257942937
 20
1293.723651962735
 10
2204.025257942937
 20
1294.605839462735
 10
2204.025257942937
 20
1295.488026962735
 10
2204.025257942937
 20
1296.311401962735
  0
LWPOLYLINE
  5
4239
330
19
100
AcDbEntity
  8
1
100
AcDbPolyline
 90
        2
 70
     0
 43
0.0
 10
2214.905570442936
 20
1297.370026962735
 10
2215.199632942937
 20
1297.370026962735
  0
LWPOLYLINE
  5
423A
330
19
100
AcDbEntity
  8
1
100
AcDbPolyline
 90
        4
 70
     0
 43
0.0
 10
2222.257132942937
 20
1296.487839462735
 10
2222.257132942937
 20
1296.487839462735
 10
2222.374757942936
 20
1296.605464462736
 10
2222.551195442936
 20
1296.664276962735
  0
LWPOLYLINE
  5
423B
330
19
100
AcDbEntity
  8
1
100
AcDbPolyline
 90
        6
 70
     0
 43
0.0
 10
2222.198320442936
 20
1296.958339462735
 10
2222.198320442936
 20
1297.134776962735
 10
2222.315945442936
 20
1297.193589462735
 10
2222.433570442936
 20
1297.311214462736
 10
2222.668820442937
 20
1297.370026962735
 10
2222.727632942937
 20
1297.370026962735
  0
LWPOLYLINE
  5
423C
330
19
100
AcDbEntity
  8
1
100
AcDbPolyline
 90
        2
 70
     0
 43
0.0
 10
2223.374570442937
 20
1297.370026962735
 10
2223.668632942937
 20
1297.370026962735
  0
LWPOLYLINE
  5
423D
330
19
100
AcDbEntity
  8
1
100
AcDbPolyline
 90
        5
 70
     0
 43
0.0
 10
2222.551195442936
 20
1296.429026962735
 10
2222.551195442936
 20
1296.311401962735
 10
2222.610007942936
 20
1296.252589462735
 10
2222.668820442937
 20
1296.252589462735
 10
2222.786445442936
 20
1296.252589462735
  0
LWPOLYLINE
  5
423E
330
19
100
AcDbEntity
  8
1
100
AcDbPolyline
 90
        6
 70
     0
 43
0.0
 10
2222.433570442936
 20
1296.958339462735
 10
2222.492382942936
 20
1296.899526962735
 10
2222.551195442936
 20
1296.840714462735
 10
2222.610007942936
 20
1296.781901962736
 10
2222.786445442936
 20
1296.781901962736
 10
2222.904070442937
 20
1296.781901962736
  0
LWPOLYLINE
  5
423F
330
19
100
AcDbEntity
  8
1
100
AcDbPolyline
 90
        2
 70
     0
 43
0.0
 10
2223.021695442936
 20
1296.193776962735
 10
2223.021695442936
 20
1296.370214462736
  0
LWPOLYLINE
  5
4240
330
19
100
AcDbEntity
  8
1
100
AcDbPolyline
 90
        2
 70
     0
 43
0.0
 10
2222.551195442936
 20
1296.429026962735
 10
2222.551195442936
 20
1296.546651962735
  0
LWPOLYLINE
  5
4241
330
19
100
AcDbEntity
  8
1
100
AcDbPolyline
 90
        6
 70
     0
 43
0.0
 10
2222.551195442936
 20
1296.546651962735
 10
2222.551195442936
 20
1296.487839462735
 10
2222.610007942936
 20
1296.429026962735
 10
2222.668820442937
 20
1296.370214462736
 10
2222.845257942936
 20
1296.370214462736
 10
2223.021695442936
 20
1296.370214462736
  0
LWPOLYLINE
  5
4242
330
19
100
AcDbEntity
  8
1
100
AcDbPolyline
 90
        2
 70
     0
 43
0.0
 10
2223.021695442936
 20
1296.370214462736
 10
2223.374570442937
 20
1296.370214462736
  0
LWPOLYLINE
  5
4243
330
19
100
AcDbEntity
  8
1
100
AcDbPolyline
 90
        2
 70
     0
 43
0.0
 10
2223.374570442937
 20
1296.193776962735
 10
2223.374570442937
 20
1296.370214462736
  0
LWPOLYLINE
  5
4244
330
19
100
AcDbEntity
  8
1
100
AcDbPolyline
 90
        2
 70
     0
 43
0.0
 10
2215.199632942937
 20
1296.193776962735
 10
2215.199632942937
 20
1296.370214462736
  0
LWPOLYLINE
  5
4245
330
19
100
AcDbEntity
  8
1
100
AcDbPolyline
 90
        2
 70
     0
 43
0.0
 10
2214.905570442936
 20
1296.193776962735
 10
2214.905570442936
 20
1296.370214462736
  0
LWPOLYLINE
  5
4246
330
19
100
AcDbEntity
  8
1
100
AcDbPolyline
 90
        4
 70
     0
 43
0.0
 10
2222.727632942937
 20
1296.723089462735
 10
2222.668820442937
 20
1296.723089462735
 10
2222.551195442936
 20
1296.664276962735
 10
2222.551195442936
 20
1296.546651962735
  0
LWPOLYLINE
  5
4247
330
19
100
AcDbEntity
  8
1
100
AcDbPolyline
 90
        3
 70
     0
 43
0.0
 10
2222.962882942936
 20
1296.781901962736
 10
2222.845257942936
 20
1296.781901962736
 10
2222.727632942937
 20
1296.723089462735
  0
LWPOLYLINE
  5
4248
330
19
100
AcDbEntity
  8
1
100
AcDbPolyline
 90
        2
 70
     0
 43
0.0
 10
2223.374570442937
 20
1296.781901962736
 10
2222.962882942936
 20
1296.781901962736
  0
LWPOLYLINE
  5
4249
330
19
100
AcDbEntity
  8
1
100
AcDbPolyline
 90
        2
 70
     0
 43
0.0
 10
2223.374570442937
 20
1296.370214462736
 10
2223.374570442937
 20
1296.781901962736
  0
LWPOLYLINE
  5
424A
330
19
100
AcDbEntity
  8
1
100
AcDbPolyline
 90
        2
 70
     0
 43
0.0
 10
2222.551195442936
 20
1296.664276962735
 10
2222.551195442936
 20
1296.840714462735
  0
LWPOLYLINE
  5
424B
330
19
100
AcDbEntity
  8
1
100
AcDbPolyline
 90
       11
 70
     0
 43
0.0
 10
2229.608695442936
 20
1278.667651962736
 10
2229.491070442936
 20
1278.550026962735
 10
2229.138195442937
 20
1278.432401962735
 10
2228.785320442936
 20
1278.314776962735
 10
2228.432445442936
 20
1278.255964462736
 10
2228.020757942936
 20
1278.255964462736
 10
2227.667882942936
 20
1278.255964462736
 10
2227.315007942937
 20
1278.314776962735
 10
2226.962132942936
 20
1278.432401962735
 10
2226.609257942937
 20
1278.550026962735
 10
2226.491632942936
 20
1278.667651962736
  0
LWPOLYLINE
  5
424C
330
19
100
AcDbEntity
  8
1
100
AcDbPolyline
 90
        2
 70
     0
 43
0.0
 10
2222.962882942936
 20
1296.781901962736
 10
2222.962882942936
 20
1296.899526962735
  0
LWPOLYLINE
  5
424D
330
19
100
AcDbEntity
  8
1
100
AcDbPolyline
 90
        2
 70
     0
 43
0.0
 10
2222.962882942936
 20
1296.899526962735
 10
2223.374570442937
 20
1296.899526962735
  0
LWPOLYLINE
  5
424E
330
19
100
AcDbEntity
  8
1
100
AcDbPolyline
 90
        2
 70
     0
 43
0.0
 10
2223.374570442937
 20
1296.781901962736
 10
2223.374570442937
 20
1296.899526962735
  0
LWPOLYLINE
  5
424F
330
19
100
AcDbEntity
  8
1
100
AcDbPolyline
 90
        2
 70
     0
 43
0.0
 10
2222.433570442936
 20
1296.958339462735
 10
2222.433570442936
 20
1297.134776962735
  0
LWPOLYLINE
  5
4250
330
19
100
AcDbEntity
  8
1
100
AcDbPolyline
 90
        6
 70
     0
 43
0.0
 10
2222.433570442936
 20
1297.134776962735
 10
2222.492382942936
 20
1297.017151962736
 10
2222.551195442936
 20
1296.958339462735
 10
2222.610007942936
 20
1296.958339462735
 10
2222.786445442936
 20
1296.899526962735
 10
2222.962882942936
 20
1296.899526962735
  0
LWPOLYLINE
  5
4251
330
19
100
AcDbEntity
  8
1
100
AcDbPolyline
 90
        5
 70
     0
 43
0.0
 10
2222.727632942937
 20
1297.370026962735
 10
2222.610007942936
 20
1297.311214462736
 10
2222.492382942936
 20
1297.252401962735
 10
2222.492382942936
 20
1297.193589462735
 10
2222.433570442936
 20
1297.134776962735
  0
LWPOLYLINE
  5
4252
330
19
100
AcDbEntity
  8
1
100
AcDbPolyline
 90
        3
 70
     0
 43
0.0
 10
2222.904070442937
 20
1297.370026962735
 10
2222.786445442936
 20
1297.370026962735
 10
2222.727632942937
 20
1297.370026962735
  0
LWPOLYLINE
  5
4253
330
19
100
AcDbEntity
  8
1
100
AcDbPolyline
 90
        2
 70
     0
 43
0.0
 10
2223.374570442937
 20
1297.370026962735
 10
2222.904070442937
 20
1297.370026962735
  0
LWPOLYLINE
  5
4254
330
19
100
AcDbEntity
  8
1
100
AcDbPolyline
 90
        2
 70
     0
 43
0.0
 10
2223.374570442937
 20
1296.899526962735
 10
2223.374570442937
 20
1297.370026962735
  0
LWPOLYLINE
  5
4255
330
19
100
AcDbEntity
  8
1
100
AcDbPolyline
 90
        2
 70
     0
 43
0.0
 10
2222.904070442937
 20
1297.370026962735
 10
2222.904070442937
 20
1297.487651962735
  0
LWPOLYLINE
  5
4256
330
19
100
AcDbEntity
  8
1
100
AcDbPolyline
 90
       11
 70
     0
 43
0.0
 10
2229.255820442936
 20
1278.844089462735
 10
2229.255820442936
 20
1278.844089462735
 10
2229.020570442936
 20
1278.726464462735
 10
2228.726507942937
 20
1278.608839462735
 10
2228.373632942936
 20
1278.550026962735
 10
2228.020757942936
 20
1278.491214462735
 10
2227.726695442937
 20
1278.550026962735
 10
2227.373820442936
 20
1278.608839462735
 10
2227.079757942936
 20
1278.726464462735
 10
2226.844507942937
 20
1278.844089462735
 10
2226.844507942937
 20
1278.844089462735
  0
LWPOLYLINE
  5
4257
330
19
100
AcDbEntity
  8
SK1
100
AcDbPolyline
 90
       34
 70
     0
 43
0.0
 10
2181.029570442936
 20
1298.134589462735
 10
2181.029570442936
 20
1298.075776962735
 10
2181.029570442936
 20
1297.958151962735
 10
2181.029570442936
 20
1297.781714462735
 10
2181.029570442936
 20
1297.546464462735
 10
2181.029570442936
 20
1297.252401962735
 10
2181.029570442936
 20
1296.840714462735
 10
2181.029570442936
 20
1296.429026962735
 10
2181.029570442936
 20
1295.958526962736
 10
2181.029570442936
 20
1295.370401962736
 10
2181.029570442936
 20
1294.782276962735
 10
2181.029570442936
 20
1294.135339462735
 10
2181.029570442936
 20
1293.488401962736
 10
2181.029570442936
 20
1292.782651962735
 10
2181.029570442936
 20
1292.076901962735
 10
2181.029570442936
 20
1291.371151962735
 10
2181.029570442936
 20
1290.606589462735
 10
2181.029570442936
 20
1289.900839462736
 10
2181.029570442936
 20
1289.136276962735
 10
2181.029570442936
 20
1288.430526962735
 10
2181.029570442936
 20
1287.783589462735
 10
2181.029570442936
 20
1287.077839462735
 10
2181.029570442936
 20
1286.430901962735
 10
2181.029570442936
 20
1285.842776962735
 10
2181.029570442936
 20
1285.313464462735
 10
2181.029570442936
 20
1284.842964462735
 10
2181.029570442936
 20
1284.372464462735
 10
2181.029570442936
 20
1284.019589462735
 10
2181.029570442936
 20
1283.666714462735
 10
2181.029570442936
 20
1283.431464462735
 10
2181.029570442936
 20
1283.255026962735
 10
2181.029570442936
 20
1283.137401962735
 10
2181.029570442936
 20
1283.137401962735
 10
2181.029570442936
 20
1283.137401962735
  0
LWPOLYLINE
  5
4258
330
19
100
AcDbEntity
  8
SK1
100
AcDbPolyline
 90
       32
 70
     0
 43
0.0
 10
2180.029757942937
 20
1283.725526962735
 10
2180.029757942937
 20
1283.725526962735
 10
2180.029757942937
 20
1283.843151962735
 10
2180.029757942937
 20
1284.019589462735
 10
2180.029757942937
 20
1284.254839462735
 10
2180.029757942937
 20
1284.548901962735
 10
2180.029757942937
 20
1284.960589462736
 10
2180.029757942937
 20
1285.372276962736
 10
2180.029757942937
 20
1285.842776962735
 10
2180.029757942937
 20
1286.372089462735
 10
2180.029757942937
 20
1286.960214462735
 10
2180.029757942937
 20
1287.548339462735
 10
2180.029757942937
 20
1288.195276962735
 10
2180.029757942937
 20
1288.901026962735
 10
2180.029757942937
 20
1289.606776962736
 10
2180.029757942937
 20
1290.253714462735
 10
2180.029757942937
 20
1290.959464462736
 10
2180.029757942937
 20
1291.665214462735
 10
2180.029757942937
 20
1292.370964462735
 10
2180.029757942937
 20
1293.017901962735
 10
2180.029757942937
 20
1293.664839462735
 10
2180.029757942937
 20
1294.311776962735
 10
2180.029757942937
 20
1294.841089462735
 10
2180.029757942937
 20
1295.370401962736
 10
2180.029757942937
 20
1295.899714462735
 10
2180.029757942937
 20
1296.311401962735
 10
2180.029757942937
 20
1296.664276962735
 10
2180.029757942937
 20
1297.017151962736
 10
2180.029757942937
 20
1297.252401962735
 10
2180.029757942937
 20
1297.428839462736
 10
2180.029757942937
 20
1297.487651962735
 10
2180.029757942937
 20
1297.546464462735
  0
LWPOLYLINE
  5
4259
330
19
100
AcDbEntity
  8
SK1
100
AcDbPolyline
 90
       25
 70
     0
 43
0.0
 10
2202.672570442937
 20
1285.901589462735
 10
2202.672570442937
 20
1286.489714462735
 10
2202.672570442937
 20
1287.136651962735
 10
2202.672570442937
 20
1287.783589462735
 10
2202.672570442937
 20
1288.489339462735
 10
2202.672570442937
 20
1289.195089462735
 10
2202.672570442937
 20
1289.900839462736
 10
2202.672570442937
 20
1290.665401962735
 10
2202.672570442937
 20
1291.371151962735
 10
2202.672570442937
 20
1292.076901962735
 10
2202.672570442937
 20
1292.782651962735
 10
2202.672570442937
 20
1293.488401962736
 10
2202.672570442937
 20
1294.194151962735
 10
2202.672570442937
 20
1294.782276962735
 10
2202.672570442937
 20
1295.370401962736
 10
2202.672570442937
 20
1295.958526962736
 10
2202.672570442937
 20
1296.429026962735
 10
2202.672570442937
 20
1296.840714462735
 10
2202.672570442937
 20
1297.252401962735
 10
2202.672570442937
 20
1297.546464462735
 10
2202.672570442937
 20
1297.781714462735
 10
2202.672570442937
 20
1297.958151962735
 10
2202.672570442937
 20
1298.075776962735
 10
2202.672570442937
 20
1298.134589462735
 10
2202.672570442937
 20
1298.134589462735
  0
LWPOLYLINE
  5
425A
330
19
100
AcDbEntity
  8
SK1
100
AcDbPolyline
 90
       19
 70
     0
 43
0.0
 10
2202.672570442937
 20
1285.901589462735
 10
2202.378507942936
 20
1286.372089462735
 10
2201.849195442937
 20
1286.901401962736
 10
2201.437507942936
 20
1287.136651962735
 10
2201.025820442937
 20
1287.313089462736
 10
2200.555320442936
 20
1287.430714462735
 10
2200.026007942938
 20
1287.489526962735
 10
2199.555507942937
 20
1287.489526962735
 10
2199.026195442937
 20
1287.430714462735
 10
2198.555695442937
 20
1287.254276962736
 10
2198.144007942937
 20
1287.019026962735
 10
2197.732320442937
 20
1286.724964462735
 10
2197.438257942936
 20
1286.372089462735
 10
2197.203007942936
 20
1286.078026962736
 10
2197.026570442936
 20
1285.725151962735
 10
2196.967757942937
 20
1285.372276962736
 10
2197.026570442936
 20
1285.137026962736
 10
2197.203007942936
 20
1284.666526962735
 10
2197.379445442937
 20
1284.490089462736
  0
LWPOLYLINE
  5
425B
330
19
100
AcDbEntity
  8
SK1
100
AcDbPolyline
 90
        3
 70
     0
 43
0.0
 10
2202.378507942936
 20
1284.490089462736
 10
2202.554945442936
 20
1284.666526962735
 10
2202.672570442937
 20
1284.842964462735
  0
LWPOLYLINE
  5
425C
330
19
100
AcDbEntity
  8
SK1
100
AcDbPolyline
 90
        8
 70
     0
 43
0.0
 10
2202.672570442937
 20
1283.137401962735
 10
2202.672570442937
 20
1283.137401962735
 10
2202.672570442937
 20
1283.255026962735
 10
2202.672570442937
 20
1283.431464462735
 10
2202.672570442937
 20
1283.666714462735
 10
2202.672570442937
 20
1284.019589462735
 10
2202.672570442937
 20
1284.372464462735
 10
2202.672570442937
 20
1284.842964462735
  0
LWPOLYLINE
  5
425D
330
19
100
AcDbEntity
  8
SK1
100
AcDbPolyline
 90
        5
 70
     0
 43
0.0
 10
2202.672570442937
 20
1284.842964462735
 10
2202.672570442937
 20
1284.842964462735
 10
2202.731382942936
 20
1285.195839462735
 10
2202.731382942936
 20
1285.548714462735
 10
2202.672570442937
 20
1285.901589462735
  0
LWPOLYLINE
  5
425E
330
19
100
AcDbEntity
  8
SK1
100
AcDbPolyline
 90
        6
 70
     0
 43
0.0
 10
2202.084445442936
 20
1286.666151962735
 10
2202.260882942937
 20
1286.430901962735
 10
2202.378507942936
 20
1286.136839462735
 10
2202.437320442936
 20
1285.842776962735
 10
2202.378507942936
 20
1285.548714462735
 10
2202.378507942936
 20
1285.489901962735
  0
LWPOLYLINE
  5
425F
330
19
100
AcDbEntity
  8
SK1
100
AcDbPolyline
 90
        7
 70
     0
 43
0.0
 10
2197.379445442937
 20
1285.489901962735
 10
2197.379445442937
 20
1285.548714462735
 10
2197.379445442937
 20
1285.842776962735
 10
2197.438257942936
 20
1286.136839462735
 10
2197.555882942937
 20
1286.430901962735
 10
2197.732320442937
 20
1286.724964462735
 10
2197.849945442936
 20
1286.783776962735
  0
LWPOLYLINE
  5
4260
330
19
100
AcDbEntity
  8
1
100
AcDbPolyline
 90
        2
 70
     0
 43
0.0
 10
2222.668820442937
 20
1303.016026962735
 10
2222.668820442937
 20
1302.839589462736
  0
LWPOLYLINE
  5
4261
330
19
100
AcDbEntity
  8
1
100
AcDbPolyline
 90
        8
 70
     0
 43
0.0
 10
2222.139507942936
 20
1305.839026962736
 10
2222.139507942936
 20
1305.486151962735
 10
2222.139507942936
 20
1304.662776962735
 10
2222.198320442936
 20
1304.251089462735
 10
2222.257132942937
 20
1303.898214462735
 10
2222.315945442936
 20
1303.604151962735
 10
2222.433570442936
 20
1303.368901962735
 10
2222.668820442937
 20
1303.016026962735
  0
LWPOLYLINE
  5
4262
330
19
100
AcDbEntity
  8
1
100
AcDbPolyline
 90
        3
 70
     0
 43
0.0
 10
2222.668820442937
 20
1303.016026962735
 10
2221.786632942936
 20
1303.074839462735
 10
2221.316132942936
 20
1303.133651962736
  0
LWPOLYLINE
  5
4263
330
19
100
AcDbEntity
  8
1
100
AcDbPolyline
 90
        4
 70
     0
 43
0.0
 10
2206.377757942936
 20
1305.839026962736
 10
2211.376820442936
 20
1305.839026962736
 10
2216.787570442936
 20
1305.839026962736
 10
2222.139507942936
 20
1305.839026962736
  0
LWPOLYLINE
  5
4264
330
19
100
AcDbEntity
  8
1
100
AcDbPolyline
 90
       17
 70
     0
 43
0.0
 10
2235.078257942936
 20
1303.133651962736
 10
2235.078257942936
 20
1303.133651962736
 10
2235.078257942936
 20
1303.133651962736
 10
2235.078257942936
 20
1303.016026962735
 10
2235.078257942936
 20
1302.839589462736
 10
2235.078257942936
 20
1302.604339462736
 10
2235.078257942936
 20
1302.310276962735
 10
2235.078257942936
 20
1302.016214462735
 10
2235.078257942936
 20
1301.663339462735
 10
2235.078257942936
 20
1301.310464462735
 10
2235.078257942936
 20
1301.016401962735
 10
2235.078257942936
 20
1300.663526962735
 10
2235.078257942936
 20
1300.369464462735
 10
2235.078257942936
 20
1300.193026962735
 10
2235.078257942936
 20
1300.016589462736
 10
2235.078257942936
 20
1299.898964462736
 10
2235.078257942936
 20
1299.840151962735
  0
LWPOLYLINE
  5
4265
330
19
100
AcDbEntity
  8
1
100
AcDbPolyline
 90
        2
 70
     0
 43
0.0
 10
2235.078257942936
 20
1300.369464462735
 10
2235.078257942936
 20
1300.428276962735
  0
LWPOLYLINE
  5
4266
330
19
100
AcDbEntity
  8
1
100
AcDbPolyline
 90
        5
 70
     0
 43
0.0
 10
2235.078257942936
 20
1300.193026962735
 10
2235.078257942936
 20
1300.193026962735
 10
2235.078257942936
 20
1300.251839462735
 10
2235.078257942936
 20
1300.310651962736
 10
2235.078257942936
 20
1300.369464462735
  0
LWPOLYLINE
  5
4267
330
19
100
AcDbEntity
  8
1
100
AcDbPolyline
 90
        2
 70
     0
 43
0.0
 10
2235.078257942936
 20
1300.369464462735
 10
2235.078257942936
 20
1300.428276962735
  0
LWPOLYLINE
  5
4268
330
19
100
AcDbEntity
  8
1
100
AcDbPolyline
 90
        9
 70
     0
 43
0.0
 10
2235.078257942936
 20
1300.722339462735
 10
2235.078257942936
 20
1300.722339462735
 10
2235.078257942936
 20
1300.722339462735
 10
2235.078257942936
 20
1300.722339462735
 10
2235.078257942936
 20
1300.663526962735
 10
2235.078257942936
 20
1300.604714462735
 10
2235.078257942936
 20
1300.604714462735
 10
2235.078257942936
 20
1300.487089462735
 10
2235.078257942936
 20
1300.428276962735
  0
LWPOLYLINE
  5
4269
330
19
100
AcDbEntity
  8
1
100
AcDbPolyline
 90
        2
 70
     0
 43
0.0
 10
2235.078257942936
 20
1300.722339462735
 10
2235.078257942936
 20
1300.722339462735
  0
LWPOLYLINE
  5
426A
330
19
100
AcDbEntity
  8
1
100
AcDbPolyline
 90
        9
 70
     0
 43
0.0
 10
2235.078257942936
 20
1300.722339462735
 10
2235.078257942936
 20
1300.722339462735
 10
2235.078257942936
 20
1300.781151962735
 10
2235.078257942936
 20
1300.781151962735
 10
2235.078257942936
 20
1300.839964462735
 10
2235.078257942936
 20
1300.898776962735
 10
2235.078257942936
 20
1300.957589462735
 10
2235.078257942936
 20
1301.075214462735
 10
2235.078257942936
 20
1301.134026962735
  0
LWPOLYLINE
  5
426B
330
19
100
AcDbEntity
  8
1
100
AcDbPolyline
 90
        2
 70
     0
 43
0.0
 10
2235.078257942936
 20
1301.134026962735
 10
2235.078257942936
 20
1301.192839462736
  0
LWPOLYLINE
  5
426C
330
19
100
AcDbEntity
  8
1
100
AcDbPolyline
 90
        9
 70
     0
 43
0.0
 10
2235.078257942936
 20
1301.780964462736
 10
2235.078257942936
 20
1301.722151962735
 10
2235.078257942936
 20
1301.663339462735
 10
2235.078257942936
 20
1301.604526962736
 10
2235.078257942936
 20
1301.486901962735
 10
2235.078257942936
 20
1301.428089462735
 10
2235.078257942936
 20
1301.369276962736
 10
2235.078257942936
 20
1301.251651962735
 10
2235.078257942936
 20
1301.192839462736
  0
LWPOLYLINE
  5
426D
330
19
100
AcDbEntity
  8
1
100
AcDbPolyline
 90
        2
 70
     0
 43
0.0
 10
2235.078257942936
 20
1301.780964462736
 10
2235.078257942936
 20
1301.898589462736
  0
LWPOLYLINE
  5
426E
330
19
100
AcDbEntity
  8
1
100
AcDbPolyline
 90
        9
 70
     0
 43
0.0
 10
2235.078257942936
 20
1301.898589462736
 10
2235.078257942936
 20
1301.957401962736
 10
2235.078257942936
 20
1302.016214462735
 10
2235.078257942936
 20
1302.075026962735
 10
2235.078257942936
 20
1302.133839462735
 10
2235.078257942936
 20
1302.192651962736
 10
2235.078257942936
 20
1302.251464462735
 10
2235.078257942936
 20
1302.251464462735
 10
2235.078257942936
 20
1302.251464462735
  0
LWPOLYLINE
  5
426F
330
19
100
AcDbEntity
  8
1
100
AcDbPolyline
 90
        2
 70
     0
 43
0.0
 10
2235.078257942936
 20
1302.251464462735
 10
2235.078257942936
 20
1302.251464462735
  0
LWPOLYLINE
  5
4270
330
19
100
AcDbEntity
  8
1
100
AcDbPolyline
 90
        9
 70
     0
 43
0.0
 10
2235.078257942936
 20
1302.545526962735
 10
2235.078257942936
 20
1302.486714462735
 10
2235.078257942936
 20
1302.427901962736
 10
2235.078257942936
 20
1302.369089462735
 10
2235.078257942936
 20
1302.310276962735
 10
2235.078257942936
 20
1302.310276962735
 10
2235.078257942936
 20
1302.251464462735
 10
2235.078257942936
 20
1302.251464462735
 10
2235.078257942936
 20
1302.251464462735
  0
LWPOLYLINE
  5
4271
330
19
100
AcDbEntity
  8
1
100
AcDbPolyline
 90
        2
 70
     0
 43
0.0
 10
2235.078257942936
 20
1302.663151962735
 10
2235.078257942936
 20
1302.545526962735
  0
LWPOLYLINE
  5
4272
330
19
100
AcDbEntity
  8
1
100
AcDbPolyline
 90
        9
 70
     0
 43
0.0
 10
2235.078257942936
 20
1302.663151962735
 10
2235.078257942936
 20
1302.721964462735
 10
2235.078257942936
 20
1302.780776962735
 10
2235.078257942936
 20
1302.780776962735
 10
2235.078257942936
 20
1302.780776962735
 10
2235.078257942936
 20
1302.780776962735
 10
2235.078257942936
 20
1302.780776962735
 10
2235.078257942936
 20
1302.721964462735
 10
2235.078257942936
 20
1302.663151962735
  0
LWPOLYLINE
  5
4273
330
19
100
AcDbEntity
  8
1
100
AcDbPolyline
 90
        2
 70
     0
 43
0.0
 10
2235.078257942936
 20
1302.663151962735
 10
2235.078257942936
 20
1302.545526962735
  0
LWPOLYLINE
  5
4274
330
19
100
AcDbEntity
  8
1
100
AcDbPolyline
 90
        9
 70
     0
 43
0.0
 10
2235.078257942936
 20
1302.251464462735
 10
2235.078257942936
 20
1302.251464462735
 10
2235.078257942936
 20
1302.251464462735
 10
2235.078257942936
 20
1302.310276962735
 10
2235.078257942936
 20
1302.310276962735
 10
2235.078257942936
 20
1302.369089462735
 10
2235.078257942936
 20
1302.427901962736
 10
2235.078257942936
 20
1302.486714462735
 10
2235.078257942936
 20
1302.545526962735
  0
LWPOLYLINE
  5
4275
330
19
100
AcDbEntity
  8
1
100
AcDbPolyline
 90
        2
 70
     0
 43
0.0
 10
2235.078257942936
 20
1302.251464462735
 10
2235.078257942936
 20
1302.251464462735
  0
LWPOLYLINE
  5
4276
330
19
100
AcDbEntity
  8
1
100
AcDbPolyline
 90
        9
 70
     0
 43
0.0
 10
2235.078257942936
 20
1302.251464462735
 10
2235.078257942936
 20
1302.251464462735
 10
2235.078257942936
 20
1302.251464462735
 10
2235.078257942936
 20
1302.192651962736
 10
2235.078257942936
 20
1302.133839462735
 10
2235.078257942936
 20
1302.075026962735
 10
2235.078257942936
 20
1302.016214462735
 10
2235.078257942936
 20
1301.957401962736
 10
2235.078257942936
 20
1301.898589462736
  0
LWPOLYLINE
  5
4277
330
19
100
AcDbEntity
  8
1
100
AcDbPolyline
 90
        2
 70
     0
 43
0.0
 10
2235.078257942936
 20
1301.898589462736
 10
2235.078257942936
 20
1301.780964462736
  0
LWPOLYLINE
  5
4278
330
19
100
AcDbEntity
  8
1
100
AcDbPolyline
 90
        2
 70
     0
 43
0.0
 10
2235.078257942936
 20
1301.134026962735
 10
2235.078257942936
 20
1301.192839462736
  0
LWPOLYLINE
  5
4279
330
19
100
AcDbEntity
  8
1
100
AcDbPolyline
 90
        9
 70
     0
 43
0.0
 10
2235.078257942936
 20
1301.134026962735
 10
2235.078257942936
 20
1301.075214462735
 10
2235.078257942936
 20
1300.957589462735
 10
2235.078257942936
 20
1300.898776962735
 10
2235.078257942936
 20
1300.839964462735
 10
2235.078257942936
 20
1300.781151962735
 10
2235.078257942936
 20
1300.781151962735
 10
2235.078257942936
 20
1300.722339462735
 10
2235.078257942936
 20
1300.722339462735
  0
LWPOLYLINE
  5
427A
330
19
100
AcDbEntity
  8
1
100
AcDbPolyline
 90
        2
 70
     0
 43
0.0
 10
2235.078257942936
 20
1300.722339462735
 10
2235.078257942936
 20
1300.722339462735
  0
LWPOLYLINE
  5
427B
330
19
100
AcDbEntity
  8
1
100
AcDbPolyline
 90
        5
 70
     0
 43
0.0
 10
2224.609632942936
 20
1302.663151962735
 10
2224.609632942936
 20
1302.663151962735
 10
2224.609632942936
 20
1302.839589462736
 10
2224.609632942936
 20
1302.957214462735
 10
2224.609632942936
 20
1303.016026962735
  0
LWPOLYLINE
  5
427C
330
19
100
AcDbEntity
  8
1
100
AcDbPolyline
 90
        2
 70
     0
 43
0.0
 10
2234.431320442937
 20
1302.133839462735
 10
2232.902195442937
 20
1302.133839462735
  0
LWPOLYLINE
  5
427D
330
19
100
AcDbEntity
  8
1
100
AcDbPolyline
 90
        2
 70
     0
 43
0.0
 10
2234.431320442937
 20
1302.133839462735
 10
2234.431320442937
 20
1301.663339462735
  0
LWPOLYLINE
  5
427E
330
19
100
AcDbEntity
  8
1
100
AcDbPolyline
 90
        4
 70
     0
 43
0.0
 10
2232.902195442937
 20
1302.133839462735
 10
2233.078632942937
 20
1301.957401962736
 10
2233.372695442936
 20
1301.780964462736
 10
2233.725570442937
 20
1301.604526962736
  0
LWPOLYLINE
  5
427F
330
19
100
AcDbEntity
  8
1
100
AcDbPolyline
 90
        2
 70
     0
 43
0.0
 10
2234.431320442937
 20
1301.663339462735
 10
2233.725570442937
 20
1301.604526962736
  0
LWPOLYLINE
  5
4280
330
19
100
AcDbEntity
  8
1
100
AcDbPolyline
 90
        9
 70
     0
 43
0.0
 10
2230.843757942936
 20
1301.604526962736
 10
2230.843757942936
 20
1301.839776962735
 10
2230.843757942936
 20
1302.016214462735
 10
2230.843757942936
 20
1302.192651962736
 10
2230.843757942936
 20
1302.369089462735
 10
2230.843757942936
 20
1302.545526962735
 10
2230.843757942936
 20
1302.721964462735
 10
2230.843757942936
 20
1302.898401962735
 10
2230.843757942936
 20
1303.074839462735
  0
LWPOLYLINE
  5
4281
330
19
100
AcDbEntity
  8
1
100
AcDbPolyline
 90
        2
 70
     0
 43
0.0
 10
2230.843757942936
 20
1303.074839462735
 10
2231.373070442936
 20
1303.192464462735
  0
LWPOLYLINE
  5
4282
330
19
100
AcDbEntity
  8
1
100
AcDbPolyline
 90
        9
 70
     0
 43
0.0
 10
2231.373070442936
 20
1303.192464462735
 10
2231.314257942936
 20
1303.074839462735
 10
2231.314257942936
 20
1302.898401962735
 10
2231.373070442936
 20
1302.780776962735
 10
2231.549507942936
 20
1302.663151962735
 10
2231.784757942936
 20
1302.545526962735
 10
2232.078820442936
 20
1302.369089462735
 10
2232.431695442937
 20
1302.251464462735
 10
2232.902195442937
 20
1302.133839462735
  0
LWPOLYLINE
  5
4283
330
19
100
AcDbEntity
  8
1
100
AcDbPolyline
 90
        2
 70
     0
 43
0.0
 10
2230.843757942936
 20
1301.604526962736
 10
2233.725570442937
 20
1301.604526962736
  0
LWPOLYLINE
  5
4284
330
19
100
AcDbEntity
  8
1
100
AcDbPolyline
 90
        9
 70
     0
 43
0.0
 10
2230.138007942937
 20
1301.663339462735
 10
2230.138007942937
 20
1301.780964462736
 10
2230.138007942937
 20
1301.957401962736
 10
2230.138007942937
 20
1302.075026962735
 10
2230.138007942937
 20
1302.251464462735
 10
2230.138007942937
 20
1302.369089462735
 10
2230.138007942937
 20
1302.545526962735
 10
2230.138007942937
 20
1302.663151962735
 10
2230.138007942937
 20
1302.839589462736
  0
LWPOLYLINE
  5
4285
330
19
100
AcDbEntity
  8
1
100
AcDbPolyline
 90
        4
 70
     0
 43
0.0
 10
2230.138007942937
 20
1302.839589462736
 10
2230.196820442937
 20
1302.898401962735
 10
2230.196820442937
 20
1302.957214462735
 10
2230.255632942936
 20
1303.074839462735
  0
LWPOLYLINE
  5
4286
330
19
100
AcDbEntity
  8
1
100
AcDbPolyline
 90
        2
 70
     0
 43
0.0
 10
2230.255632942936
 20
1303.074839462735
 10
2230.843757942936
 20
1303.074839462735
  0
LWPOLYLINE
  5
4287
330
19
100
AcDbEntity
  8
1
100
AcDbPolyline
 90
        2
 70
     0
 43
0.0
 10
2230.843757942936
 20
1301.604526962736
 10
2230.138007942937
 20
1301.663339462735
  0
LWPOLYLINE
  5
4288
330
19
100
AcDbEntity
  8
1
100
AcDbPolyline
 90
        2
 70
     0
 43
0.0
 10
2231.373070442936
 20
1303.192464462735
 10
2233.196257942936
 20
1303.898214462735
  0
LWPOLYLINE
  5
4289
330
19
100
AcDbEntity
  8
1
100
AcDbPolyline
 90
        2
 70
     0
 43
0.0
 10
2233.725570442937
 20
1304.015839462735
 10
2233.196257942936
 20
1303.898214462735
  0
LWPOLYLINE
  5
428A
330
19
100
AcDbEntity
  8
1
100
AcDbPolyline
 90
        2
 70
     0
 43
0.0
 10
2234.313695442937
 20
1304.015839462735
 10
2233.725570442937
 20
1304.015839462735
  0
LWPOLYLINE
  5
428B
330
19
100
AcDbEntity
  8
1
100
AcDbPolyline
 90
        2
 70
     0
 43
0.0
 10
2234.313695442937
 20
1304.015839462735
 10
2234.431320442937
 20
1302.133839462735
  0
LWPOLYLINE
  5
428C
330
19
100
AcDbEntity
  8
1
100
AcDbPolyline
 90
        2
 70
     0
 43
0.0
 10
2234.431320442937
 20
1302.133839462735
 10
2234.431320442937
 20
1302.133839462735
  0
LWPOLYLINE
  5
428D
330
19
100
AcDbEntity
  8
1
100
AcDbPolyline
 90
        2
 70
     0
 43
0.0
 10
2235.078257942936
 20
1302.192651962736
 10
2234.431320442937
 20
1302.133839462735
  0
LWPOLYLINE
  5
428E
330
19
100
AcDbEntity
  8
1
100
AcDbPolyline
 90
        2
 70
     0
 43
0.0
 10
2235.078257942936
 20
1301.663339462735
 10
2235.078257942936
 20
1302.192651962736
  0
LWPOLYLINE
  5
428F
330
19
100
AcDbEntity
  8
1
100
AcDbPolyline
 90
        2
 70
     0
 43
0.0
 10
2235.078257942936
 20
1301.663339462735
 10
2234.431320442937
 20
1301.663339462735
  0
LWPOLYLINE
  5
4290
330
19
100
AcDbEntity
  8
1
100
AcDbPolyline
 90
        9
 70
     0
 43
0.0
 10
2229.549882942936
 20
1301.663339462735
 10
2229.549882942936
 20
1301.839776962735
 10
2229.549882942936
 20
1301.957401962736
 10
2229.549882942936
 20
1302.075026962735
 10
2229.549882942936
 20
1302.251464462735
 10
2229.549882942936
 20
1302.369089462735
 10
2229.549882942936
 20
1302.545526962735
 10
2229.549882942936
 20
1302.663151962735
 10
2229.549882942936
 20
1302.780776962735
  0
LWPOLYLINE
  5
4291
330
19
100
AcDbEntity
  8
1
100
AcDbPolyline
 90
        2
 70
     0
 43
0.0
 10
2229.549882942936
 20
1302.780776962735
 10
2230.138007942937
 20
1302.839589462736
  0
LWPOLYLINE
  5
4292
330
19
100
AcDbEntity
  8
1
100
AcDbPolyline
 90
        2
 70
     0
 43
0.0
 10
2230.138007942937
 20
1301.663339462735
 10
2229.549882942936
 20
1301.663339462735
  0
LWPOLYLINE
  5
4293
330
19
100
AcDbEntity
  8
1
100
AcDbPolyline
 90
        2
 70
     0
 43
0.0
 10
2235.078257942936
 20
1303.957026962735
 10
2234.431320442937
 20
1304.192276962735
  0
LWPOLYLINE
  5
4294
330
19
100
AcDbEntity
  8
1
100
AcDbPolyline
 90
        2
 70
     0
 43
0.0
 10
2235.078257942936
 20
1302.192651962736
 10
2235.078257942936
 20
1303.957026962735
  0
LWPOLYLINE
  5
4295
330
19
100
AcDbEntity
  8
1
100
AcDbPolyline
 90
        4
 70
     0
 43
0.0
 10
2234.431320442937
 20
1304.192276962735
 10
2234.431320442937
 20
1304.133464462735
 10
2234.372507942937
 20
1304.074651962736
 10
2234.313695442937
 20
1304.015839462735
  0
LWPOLYLINE
  5
4296
330
19
100
AcDbEntity
  8
1
100
AcDbPolyline
 90
        2
 70
     0
 43
0.0
 10
2229.549882942936
 20
1304.074651962736
 10
2229.549882942936
 20
1302.780776962735
  0
LWPOLYLINE
  5
4297
330
19
100
AcDbEntity
  8
1
100
AcDbPolyline
 90
        2
 70
     0
 43
0.0
 10
2229.549882942936
 20
1304.486339462735
 10
2230.138007942937
 20
1304.721589462735
  0
LWPOLYLINE
  5
4298
330
19
100
AcDbEntity
  8
1
100
AcDbPolyline
 90
        2
 70
     0
 43
0.0
 10
2230.255632942936
 20
1303.074839462735
 10
2230.138007942937
 20
1304.721589462735
  0
LWPOLYLINE
  5
4299
330
19
100
AcDbEntity
  8
1
100
AcDbPolyline
 90
        2
 70
     0
 43
0.0
 10
2230.138007942937
 20
1304.721589462735
 10
2230.138007942937
 20
1304.721589462735
  0
LWPOLYLINE
  5
429A
330
19
100
AcDbEntity
  8
1
100
AcDbPolyline
 90
        2
 70
     0
 43
0.0
 10
2230.138007942937
 20
1304.721589462735
 10
2231.667132942936
 20
1304.780401962736
  0
LWPOLYLINE
  5
429B
330
19
100
AcDbEntity
  8
1
100
AcDbPolyline
 90
        9
 70
     0
 43
0.0
 10
2233.196257942936
 20
1303.898214462735
 10
2233.313882942937
 20
1304.015839462735
 10
2233.255070442936
 20
1304.133464462735
 10
2233.196257942936
 20
1304.251089462735
 10
2233.019820442936
 20
1304.368714462735
 10
2232.843382942936
 20
1304.486339462735
 10
2232.490507942937
 20
1304.603964462735
 10
2232.137632942936
 20
1304.721589462735
 10
2231.667132942936
 20
1304.780401962736
  0
LWPOLYLINE
  5
429C
330
19
100
AcDbEntity
  8
1
100
AcDbPolyline
 90
        2
 70
     0
 43
0.0
 10
2235.078257942936
 20
1303.604151962735
 10
2235.078257942936
 20
1303.368901962735
  0
LWPOLYLINE
  5
429D
330
19
100
AcDbEntity
  8
1
100
AcDbPolyline
 90
        2
 70
     0
 43
0.0
 10
2235.078257942936
 20
1303.662964462735
 10
2235.078257942936
 20
1303.604151962735
  0
LWPOLYLINE
  5
429E
330
19
100
AcDbEntity
  8
1
100
AcDbPolyline
 90
        2
 70
     0
 43
0.0
 10
2235.078257942936
 20
1303.368901962735
 10
2235.078257942936
 20
1303.662964462735
  0
LWPOLYLINE
  5
429F
330
19
100
AcDbEntity
  8
1
100
AcDbPolyline
 90
        2
 70
     0
 43
0.0
 10
2235.078257942936
 20
1303.427714462735
 10
2235.078257942936
 20
1303.368901962735
  0
LWPOLYLINE
  5
42A0
330
19
100
AcDbEntity
  8
1
100
AcDbPolyline
 90
        2
 70
     0
 43
0.0
 10
2235.078257942936
 20
1303.368901962735
 10
2235.078257942936
 20
1303.427714462735
  0
LWPOLYLINE
  5
42A1
330
19
100
AcDbEntity
  8
1
100
AcDbPolyline
 90
        2
 70
     0
 43
0.0
 10
2235.078257942936
 20
1303.310089462735
 10
2235.078257942936
 20
1303.368901962735
  0
LWPOLYLINE
  5
42A2
330
19
100
AcDbEntity
  8
1
100
AcDbPolyline
 90
        2
 70
     0
 43
0.0
 10
2235.078257942936
 20
1302.545526962735
 10
2235.078257942936
 20
1303.310089462735
  0
LWPOLYLINE
  5
42A3
330
19
100
AcDbEntity
  8
1
100
AcDbPolyline
 90
        2
 70
     0
 43
0.0
 10
2235.078257942936
 20
1302.486714462735
 10
2235.078257942936
 20
1302.545526962735
  0
LWPOLYLINE
  5
42A4
330
19
100
AcDbEntity
  8
1
100
AcDbPolyline
 90
        2
 70
     0
 43
0.0
 10
2235.078257942936
 20
1302.780776962735
 10
2235.078257942936
 20
1302.486714462735
  0
LWPOLYLINE
  5
42A5
330
19
100
AcDbEntity
  8
1
100
AcDbPolyline
 90
        4
 70
     0
 43
0.0
 10
2235.078257942936
 20
1300.134214462735
 10
2235.078257942936
 20
1300.251839462735
 10
2235.078257942936
 20
1300.310651962736
 10
2235.078257942936
 20
1300.428276962735
  0
LWPOLYLINE
  5
42A6
330
19
100
AcDbEntity
  8
1
100
AcDbPolyline
 90
        2
 70
     0
 43
0.0
 10
2235.078257942936
 20
1299.898964462736
 10
2235.078257942936
 20
1300.134214462735
  0
LWPOLYLINE
  5
42A7
330
19
100
AcDbEntity
  8
1
100
AcDbPolyline
 90
        2
 70
     0
 43
0.0
 10
2235.078257942936
 20
1299.546089462735
 10
2235.078257942936
 20
1299.898964462736
  0
LWPOLYLINE
  5
42A8
330
19
100
AcDbEntity
  8
1
100
AcDbPolyline
 90
        2
 70
     0
 43
0.0
 10
2235.078257942936
 20
1299.663714462735
 10
2235.078257942936
 20
1299.546089462735
  0
LWPOLYLINE
  5
42A9
330
19
100
AcDbEntity
  8
1
100
AcDbPolyline
 90
        2
 70
     0
 43
0.0
 10
2235.078257942936
 20
1299.898964462736
 10
2235.078257942936
 20
1299.663714462735
  0
LWPOLYLINE
  5
42AA
330
19
100
AcDbEntity
  8
1
100
AcDbPolyline
 90
        2
 70
     0
 43
0.0
 10
2235.078257942936
 20
1300.075401962735
 10
2235.078257942936
 20
1299.898964462736
  0
LWPOLYLINE
  5
42AB
330
19
100
AcDbEntity
  8
1
100
AcDbPolyline
 90
        4
 70
     0
 43
0.0
 10
2235.078257942936
 20
1300.369464462735
 10
2235.078257942936
 20
1300.251839462735
 10
2235.078257942936
 20
1300.134214462735
 10
2235.078257942936
 20
1300.075401962735
  0
LWPOLYLINE
  5
42AC
330
19
100
AcDbEntity
  8
1
100
AcDbPolyline
 90
        5
 70
     0
 43
0.0
 10
2235.078257942936
 20
1300.839964462735
 10
2235.078257942936
 20
1300.781151962735
 10
2235.078257942936
 20
1300.604714462735
 10
2235.078257942936
 20
1300.487089462735
 10
2235.078257942936
 20
1300.369464462735
  0
LWPOLYLINE
  5
42AD
330
19
100
AcDbEntity
  8
1
100
AcDbPolyline
 90
        3
 70
     0
 43
0.0
 10
2235.078257942936
 20
1300.898776962735
 10
2235.078257942936
 20
1300.898776962735
 10
2235.078257942936
 20
1300.839964462735
  0
LWPOLYLINE
  5
42AE
330
19
100
AcDbEntity
  8
1
100
AcDbPolyline
 90
        2
 70
     0
 43
0.0
 10
2235.078257942936
 20
1300.545901962735
 10
2235.078257942936
 20
1300.604714462735
  0
LWPOLYLINE
  5
42AF
330
19
100
AcDbEntity
  8
1
100
AcDbPolyline
 90
        5
 70
     0
 43
0.0
 10
2235.078257942936
 20
1300.781151962735
 10
2235.078257942936
 20
1300.781151962735
 10
2235.078257942936
 20
1300.722339462735
 10
2235.078257942936
 20
1300.663526962735
 10
2235.078257942936
 20
1300.545901962735
  0
LWPOLYLINE
  5
42B0
330
19
100
AcDbEntity
  8
1
100
AcDbPolyline
 90
        5
 70
     0
 43
0.0
 10
2235.078257942936
 20
1300.428276962735
 10
2235.078257942936
 20
1300.545901962735
 10
2235.078257942936
 20
1300.604714462735
 10
2235.078257942936
 20
1300.722339462735
 10
2235.078257942936
 20
1300.722339462735
  0
LWPOLYLINE
  5
42B1
330
19
100
AcDbEntity
  8
1
100
AcDbPolyline
 90
        2
 70
     0
 43
0.0
 10
2235.078257942936
 20
1305.015651962735
 10
2235.078257942936
 20
1305.427339462736
  0
LWPOLYLINE
  5
42B2
330
19
100
AcDbEntity
  8
1
100
AcDbPolyline
 90
        2
 70
     0
 43
0.0
 10
2235.078257942936
 20
1305.074464462735
 10
2235.078257942936
 20
1305.015651962735
  0
LWPOLYLINE
  5
42B3
330
19
100
AcDbEntity
  8
1
100
AcDbPolyline
 90
        2
 70
     0
 43
0.0
 10
2235.078257942936
 20
1305.544964462735
 10
2235.078257942936
 20
1305.074464462735
  0
LWPOLYLINE
  5
42B4
330
19
100
AcDbEntity
  8
1
100
AcDbPolyline
 90
        2
 70
     0
 43
0.0
 10
2235.078257942936
 20
1305.309714462735
 10
2235.078257942936
 20
1305.544964462735
  0
LWPOLYLINE
  5
42B5
330
19
100
AcDbEntity
  8
1
100
AcDbPolyline
 90
        2
 70
     0
 43
0.0
 10
2235.078257942936
 20
1305.250901962735
 10
2235.078257942936
 20
1305.309714462735
  0
LWPOLYLINE
  5
42B6
330
19
100
AcDbEntity
  8
1
100
AcDbPolyline
 90
        2
 70
     0
 43
0.0
 10
2235.078257942936
 20
1305.427339462736
 10
2235.078257942936
 20
1305.250901962735
  0
LWPOLYLINE
  5
42B7
330
19
100
AcDbEntity
  8
1
100
AcDbPolyline
 90
        5
 70
     0
 43
0.0
 10
2235.078257942936
 20
1298.016964462735
 10
2235.078257942936
 20
1297.899339462735
 10
2235.078257942936
 20
1297.840526962736
 10
2235.078257942936
 20
1297.722901962736
 10
2235.078257942936
 20
1297.722901962736
  0
LWPOLYLINE
  5
42B8
330
19
100
AcDbEntity
  8
1
100
AcDbPolyline
 90
        2
 70
     0
 43
0.0
 10
2235.078257942936
 20
1298.075776962735
 10
2235.078257942936
 20
1298.016964462735
  0
LWPOLYLINE
  5
42B9
330
19
100
AcDbEntity
  8
1
100
AcDbPolyline
 90
        5
 70
     0
 43
0.0
 10
2235.078257942936
 20
1297.840526962736
 10
2235.078257942936
 20
1297.840526962736
 10
2235.078257942936
 20
1297.840526962736
 10
2235.078257942936
 20
1297.899339462735
 10
2235.078257942936
 20
1298.075776962735
  0
LWPOLYLINE
  5
42BA
330
19
100
AcDbEntity
  8
1
100
AcDbPolyline
 90
        5
 70
     0
 43
0.0
 10
2235.078257942936
 20
1298.193401962735
 10
2235.078257942936
 20
1298.075776962735
 10
2235.078257942936
 20
1297.958151962735
 10
2235.078257942936
 20
1297.899339462735
 10
2235.078257942936
 20
1297.840526962736
  0
LWPOLYLINE
  5
42BB
330
19
100
AcDbEntity
  8
1
100
AcDbPolyline
 90
        3
 70
     0
 43
0.0
 10
2235.078257942936
 20
1298.369839462735
 10
2235.078257942936
 20
1298.311026962735
 10
2235.078257942936
 20
1298.193401962735
  0
LWPOLYLINE
  5
42BC
330
19
100
AcDbEntity
  8
1
100
AcDbPolyline
 90
        3
 70
     0
 43
0.0
 10
2235.078257942936
 20
1298.369839462735
 10
2235.078257942936
 20
1298.369839462735
 10
2235.078257942936
 20
1298.369839462735
  0
LWPOLYLINE
  5
42BD
330
19
100
AcDbEntity
  8
1
100
AcDbPolyline
 90
        2
 70
     0
 43
0.0
 10
2235.078257942936
 20
1298.487464462735
 10
2235.078257942936
 20
1298.369839462735
  0
LWPOLYLINE
  5
42BE
330
19
100
AcDbEntity
  8
1
100
AcDbPolyline
 90
        5
 70
     0
 43
0.0
 10
2235.078257942936
 20
1298.252214462735
 10
2235.078257942936
 20
1298.369839462735
 10
2235.078257942936
 20
1298.487464462735
 10
2235.078257942936
 20
1298.487464462735
 10
2235.078257942936
 20
1298.487464462735
  0
LWPOLYLINE
  5
42BF
330
19
100
AcDbEntity
  8
1
100
AcDbPolyline
 90
        5
 70
     0
 43
0.0
 10
2235.078257942936
 20
1297.722901962736
 10
2235.078257942936
 20
1297.840526962736
 10
2235.078257942936
 20
1298.016964462735
 10
2235.078257942936
 20
1298.134589462735
 10
2235.078257942936
 20
1298.252214462735
  0
LWPOLYLINE
  5
42C0
330
19
100
AcDbEntity
  8
1
100
AcDbPolyline
 90
        3
 70
     0
 43
0.0
 10
2235.078257942936
 20
1297.722901962736
 10
2235.078257942936
 20
1297.722901962736
 10
2235.078257942936
 20
1297.722901962736
  0
LWPOLYLINE
  5
42C1
330
19
100
AcDbEntity
  8
1
100
AcDbPolyline
 90
        3
 70
     0
 43
0.0
 10
2235.078257942936
 20
1297.840526962736
 10
2235.078257942936
 20
1297.781714462735
 10
2235.078257942936
 20
1297.722901962736
  0
LWPOLYLINE
  5
42C2
330
19
100
AcDbEntity
  8
1
100
AcDbPolyline
 90
        4
 70
     0
 43
0.0
 10
2235.078257942936
 20
1297.605276962735
 10
2235.078257942936
 20
1297.605276962735
 10
2235.078257942936
 20
1297.664089462735
 10
2235.078257942936
 20
1297.840526962736
  0
LWPOLYLINE
  5
42C3
330
19
100
AcDbEntity
  8
1
100
AcDbPolyline
 90
        5
 70
     0
 43
0.0
 10
2235.078257942936
 20
1297.781714462735
 10
2235.078257942936
 20
1297.664089462735
 10
2235.078257942936
 20
1297.605276962735
 10
2235.078257942936
 20
1297.546464462735
 10
2235.078257942936
 20
1297.605276962735
  0
LWPOLYLINE
  5
42C4
330
19
100
AcDbEntity
  8
1
100
AcDbPolyline
 90
        5
 70
     0
 43
0.0
 10
2235.078257942936
 20
1298.252214462735
 10
2235.078257942936
 20
1298.134589462735
 10
2235.078257942936
 20
1298.016964462735
 10
2235.078257942936
 20
1297.899339462735
 10
2235.078257942936
 20
1297.781714462735
  0
LWPOLYLINE
  5
42C5
330
19
100
AcDbEntity
  8
1
100
AcDbPolyline
 90
        2
 70
     0
 43
0.0
 10
2235.078257942936
 20
1298.134589462735
 10
2235.078257942936
 20
1298.252214462735
  0
LWPOLYLINE
  5
42C6
330
19
100
AcDbEntity
  8
1
100
AcDbPolyline
 90
        4
 70
     0
 43
0.0
 10
2235.078257942936
 20
1297.840526962736
 10
2235.078257942936
 20
1297.899339462735
 10
2235.078257942936
 20
1298.016964462735
 10
2235.078257942936
 20
1298.134589462735
  0
LWPOLYLINE
  5
42C7
330
19
100
AcDbEntity
  8
1
100
AcDbPolyline
 90
        5
 70
     0
 43
0.0
 10
2235.078257942936
 20
1297.722901962736
 10
2235.078257942936
 20
1297.664089462735
 10
2235.078257942936
 20
1297.722901962736
 10
2235.078257942936
 20
1297.781714462735
 10
2235.078257942936
 20
1297.840526962736
  0
LWPOLYLINE
  5
42C8
330
19
100
AcDbEntity
  8
1
100
AcDbPolyline
 90
        7
 70
     0
 43
0.0
 10
2235.078257942936
 20
1304.251089462735
 10
2235.078257942936
 20
1304.251089462735
 10
2235.078257942936
 20
1304.133464462735
 10
2235.078257942936
 20
1303.957026962735
 10
2235.078257942936
 20
1303.721776962735
 10
2235.078257942936
 20
1303.427714462735
 10
2235.078257942936
 20
1303.192464462735
  0
LWPOLYLINE
  5
42C9
330
19
100
AcDbEntity
  8
1
100
AcDbPolyline
 90
       25
 70
     0
 43
0.0
 10
2235.078257942936
 20
1299.428464462735
 10
2235.078257942936
 20
1299.310839462735
 10
2235.078257942936
 20
1299.134401962735
 10
2235.078257942936
 20
1299.016776962735
 10
2235.078257942936
 20
1299.016776962735
 10
2235.078257942936
 20
1299.016776962735
 10
2235.078257942936
 20
1299.134401962735
 10
2235.078257942936
 20
1299.310839462735
 10
2235.078257942936
 20
1299.546089462735
 10
2235.078257942936
 20
1299.840151962735
 10
2235.078257942936
 20
1300.193026962735
 10
2235.078257942936
 20
1300.545901962735
 10
2235.078257942936
 20
1300.957589462735
 10
2235.078257942936
 20
1301.428089462735
 10
2235.078257942936
 20
1301.839776962735
 10
2235.078257942936
 20
1302.251464462735
 10
2235.078257942936
 20
1302.663151962735
 10
2235.078257942936
 20
1303.074839462735
 10
2235.078257942936
 20
1303.427714462735
 10
2235.078257942936
 20
1303.721776962735
 10
2235.078257942936
 20
1303.957026962735
 10
2235.078257942936
 20
1304.133464462735
 10
2235.078257942936
 20
1304.251089462735
 10
2235.078257942936
 20
1304.251089462735
 10
2235.078257942936
 20
1304.251089462735
  0
LWPOLYLINE
  5
42CA
330
19
100
AcDbEntity
  8
1
100
AcDbPolyline
 90
        9
 70
     0
 43
0.0
 10
2235.078257942936
 20
1303.957026962735
 10
2235.078257942936
 20
1304.074651962736
 10
2235.078257942936
 20
1304.192276962735
 10
2235.078257942936
 20
1304.309901962735
 10
2235.078257942936
 20
1304.427526962735
 10
2235.078257942936
 20
1304.545151962735
 10
2235.078257942936
 20
1304.662776962735
 10
2235.078257942936
 20
1304.780401962736
 10
2235.078257942936
 20
1304.839214462735
  0
LWPOLYLINE
  5
42CB
330
19
100
AcDbEntity
  8
1
100
AcDbPolyline
 90
        2
 70
     0
 43
0.0
 10
2235.078257942936
 20
1304.839214462735
 10
2235.078257942936
 20
1304.368714462735
  0
LWPOLYLINE
  5
42CC
330
19
100
AcDbEntity
  8
1
100
AcDbPolyline
 90
        9
 70
     0
 43
0.0
 10
2235.078257942936
 20
1304.368714462735
 10
2235.078257942936
 20
1304.368714462735
 10
2235.078257942936
 20
1304.309901962735
 10
2235.078257942936
 20
1304.309901962735
 10
2235.078257942936
 20
1304.309901962735
 10
2235.078257942936
 20
1304.309901962735
 10
2235.078257942936
 20
1304.309901962735
 10
2235.078257942936
 20
1304.309901962735
 10
2235.078257942936
 20
1304.368714462735
  0
LWPOLYLINE
  5
42CD
330
19
100
AcDbEntity
  8
1
100
AcDbPolyline
 90
        2
 70
     0
 43
0.0
 10
2235.078257942936
 20
1304.368714462735
 10
2235.078257942936
 20
1304.427526962735
  0
LWPOLYLINE
  5
42CE
330
19
100
AcDbEntity
  8
1
100
AcDbPolyline
 90
        2
 70
     0
 43
0.0
 10
2235.078257942936
 20
1304.427526962735
 10
2235.078257942936
 20
1304.427526962735
  0
LWPOLYLINE
  5
42CF
330
19
100
AcDbEntity
  8
1
100
AcDbPolyline
 90
        9
 70
     0
 43
0.0
 10
2235.078257942936
 20
1304.427526962735
 10
2235.078257942936
 20
1304.368714462735
 10
2235.078257942936
 20
1304.368714462735
 10
2235.078257942936
 20
1304.309901962735
 10
2235.078257942936
 20
1304.309901962735
 10
2235.078257942936
 20
1304.309901962735
 10
2235.078257942936
 20
1304.309901962735
 10
2235.078257942936
 20
1304.309901962735
 10
2235.078257942936
 20
1304.309901962735
  0
LWPOLYLINE
  5
42D0
330
19
100
AcDbEntity
  8
1
100
AcDbPolyline
 90
        2
 70
     0
 43
0.0
 10
2235.078257942936
 20
1304.309901962735
 10
2235.078257942936
 20
1304.956839462735
  0
LWPOLYLINE
  5
42D1
330
19
100
AcDbEntity
  8
1
100
AcDbPolyline
 90
        9
 70
     0
 43
0.0
 10
2235.078257942936
 20
1304.956839462735
 10
2235.078257942936
 20
1304.956839462735
 10
2235.078257942936
 20
1305.015651962735
 10
2235.078257942936
 20
1305.074464462735
 10
2235.078257942936
 20
1305.133276962735
 10
2235.078257942936
 20
1305.192089462736
 10
2235.078257942936
 20
1305.250901962735
 10
2235.078257942936
 20
1305.309714462735
 10
2235.078257942936
 20
1305.427339462736
  0
LWPOLYLINE
  5
42D2
330
19
100
AcDbEntity
  8
1
100
AcDbPolyline
 90
        2
 70
     0
 43
0.0
 10
2235.078257942936
 20
1305.427339462736
 10
2235.078257942936
 20
1305.427339462736
  0
LWPOLYLINE
  5
42D3
330
19
100
AcDbEntity
  8
1
100
AcDbPolyline
 90
        2
 70
     0
 43
0.0
 10
2235.078257942936
 20
1305.427339462736
 10
2235.078257942936
 20
1305.427339462736
  0
LWPOLYLINE
  5
42D4
330
19
100
AcDbEntity
  8
1
100
AcDbPolyline
 90
        9
 70
     0
 43
0.0
 10
2235.078257942936
 20
1305.427339462736
 10
2235.078257942936
 20
1305.427339462736
 10
2235.078257942936
 20
1305.427339462736
 10
2235.078257942936
 20
1305.486151962735
 10
2235.078257942936
 20
1305.486151962735
 10
2235.078257942936
 20
1305.544964462735
 10
2235.078257942936
 20
1305.544964462735
 10
2235.078257942936
 20
1305.603776962735
 10
2235.078257942936
 20
1305.662589462735
  0
LWPOLYLINE
  5
42D5
330
19
100
AcDbEntity
  8
1
100
AcDbPolyline
 90
        2
 70
     0
 43
0.0
 10
2235.078257942936
 20
1305.662589462735
 10
2235.078257942936
 20
1306.250714462735
  0
LWPOLYLINE
  5
42D6
330
19
100
AcDbEntity
  8
1
100
AcDbPolyline
 90
        2
 70
     0
 43
0.0
 10
2235.078257942936
 20
1306.250714462735
 10
2235.078257942936
 20
1306.191901962735
  0
LWPOLYLINE
  5
42D7
330
19
100
AcDbEntity
  8
1
100
AcDbPolyline
 90
        2
 70
     0
 43
0.0
 10
2235.078257942936
 20
1306.191901962735
 10
2235.078257942936
 20
1305.603776962735
  0
LWPOLYLINE
  5
42D8
330
19
100
AcDbEntity
  8
1
100
AcDbPolyline
 90
        9
 70
     0
 43
0.0
 10
2235.078257942936
 20
1305.603776962735
 10
2235.078257942936
 20
1305.544964462735
 10
2235.078257942936
 20
1305.486151962735
 10
2235.078257942936
 20
1305.368526962735
 10
2235.078257942936
 20
1305.309714462735
 10
2235.078257942936
 20
1305.192089462736
 10
2235.078257942936
 20
1305.133276962735
 10
2235.078257942936
 20
1305.015651962735
 10
2235.078257942936
 20
1304.898026962735
  0
LWPOLYLINE
  5
42D9
330
19
100
AcDbEntity
  8
1
100
AcDbPolyline
 90
        2
 70
     0
 43
0.0
 10
2235.078257942936
 20
1304.898026962735
 10
2235.078257942936
 20
1304.545151962735
  0
LWPOLYLINE
  5
42DA
330
19
100
AcDbEntity
  8
1
100
AcDbPolyline
 90
        9
 70
     0
 43
0.0
 10
2235.078257942936
 20
1304.545151962735
 10
2235.078257942936
 20
1304.486339462735
 10
2235.078257942936
 20
1304.486339462735
 10
2235.078257942936
 20
1304.427526962735
 10
2235.078257942936
 20
1304.427526962735
 10
2235.078257942936
 20
1304.368714462735
 10
2235.078257942936
 20
1304.309901962735
 10
2235.078257942936
 20
1304.309901962735
 10
2235.078257942936
 20
1304.251089462735
  0
LWPOLYLINE
  5
42DB
330
19
100
AcDbEntity
  8
1
100
AcDbPolyline
 90
        2
 70
     0
 43
0.0
 10
2235.078257942936
 20
1304.251089462735
 10
2235.078257942936
 20
1304.133464462735
  0
LWPOLYLINE
  5
42DC
330
19
100
AcDbEntity
  8
1
100
AcDbPolyline
 90
        2
 70
     0
 43
0.0
 10
2235.078257942936
 20
1304.133464462735
 10
2235.078257942936
 20
1304.133464462735
  0
LWPOLYLINE
  5
42DD
330
19
100
AcDbEntity
  8
1
100
AcDbPolyline
 90
        9
 70
     0
 43
0.0
 10
2235.078257942936
 20
1304.133464462735
 10
2235.078257942936
 20
1304.074651962736
 10
2235.078257942936
 20
1304.015839462735
 10
2235.078257942936
 20
1303.957026962735
 10
2235.078257942936
 20
1303.898214462735
 10
2235.078257942936
 20
1303.839401962735
 10
2235.078257942936
 20
1303.780589462735
 10
2235.078257942936
 20
1303.662964462735
 10
2235.078257942936
 20
1303.604151962735
  0
LWPOLYLINE
  5
42DE
330
19
100
AcDbEntity
  8
1
100
AcDbPolyline
 90
        2
 70
     0
 43
0.0
 10
2235.078257942936
 20
1303.604151962735
 10
2235.078257942936
 20
1302.133839462735
  0
LWPOLYLINE
  5
42DF
330
19
100
AcDbEntity
  8
1
100
AcDbPolyline
 90
        2
 70
     0
 43
0.0
 10
2235.078257942936
 20
1301.839776962735
 10
2235.078257942936
 20
1301.722151962735
  0
LWPOLYLINE
  5
42E0
330
19
100
AcDbEntity
  8
1
100
AcDbPolyline
 90
        9
 70
     0
 43
0.0
 10
2235.078257942936
 20
1301.722151962735
 10
2235.078257942936
 20
1301.663339462735
 10
2235.078257942936
 20
1301.604526962736
 10
2235.078257942936
 20
1301.604526962736
 10
2235.078257942936
 20
1301.545714462735
 10
2235.078257942936
 20
1301.545714462735
 10
2235.078257942936
 20
1301.545714462735
 10
2235.078257942936
 20
1301.545714462735
 10
2235.078257942936
 20
1301.545714462735
  0
LWPOLYLINE
  5
42E1
330
19
100
AcDbEntity
  8
1
100
AcDbPolyline
 90
        2
 70
     0
 43
0.0
 10
2235.078257942936
 20
1301.545714462735
 10
2235.078257942936
 20
1301.604526962736
  0
LWPOLYLINE
  5
42E2
330
19
100
AcDbEntity
  8
1
100
AcDbPolyline
 90
        2
 70
     0
 43
0.0
 10
2235.078257942936
 20
1301.604526962736
 10
2235.078257942936
 20
1301.075214462735
  0
LWPOLYLINE
  5
42E3
330
19
100
AcDbEntity
  8
1
100
AcDbPolyline
 90
        2
 70
     0
 43
0.0
 10
2235.078257942936
 20
1301.075214462735
 10
2235.078257942936
 20
1300.781151962735
  0
LWPOLYLINE
  5
42E4
330
19
100
AcDbEntity
  8
1
100
AcDbPolyline
 90
        2
 70
     0
 43
0.0
 10
2235.078257942936
 20
1299.428464462735
 10
2235.078257942936
 20
1299.310839462735
  0
LWPOLYLINE
  5
42E5
330
19
100
AcDbEntity
  8
1
100
AcDbPolyline
 90
        9
 70
     0
 43
0.0
 10
2235.078257942936
 20
1299.310839462735
 10
2235.078257942936
 20
1299.193214462735
 10
2235.078257942936
 20
1299.075589462735
 10
2235.078257942936
 20
1298.957964462736
 10
2235.078257942936
 20
1298.840339462735
 10
2235.078257942936
 20
1298.722714462735
 10
2235.078257942936
 20
1298.605089462735
 10
2235.078257942936
 20
1298.487464462735
 10
2235.078257942936
 20
1298.369839462735
  0
LWPOLYLINE
  5
42E6
330
19
100
AcDbEntity
  8
1
100
AcDbPolyline
 90
        5
 70
     0
 43
0.0
 10
2235.078257942936
 20
1298.957964462736
 10
2235.078257942936
 20
1298.957964462736
 10
2235.078257942936
 20
1298.957964462736
 10
2235.078257942936
 20
1298.899151962735
 10
2235.078257942936
 20
1298.899151962735
  0
LWPOLYLINE
  5
42E7
330
19
100
AcDbEntity
  8
1
100
AcDbPolyline
 90
        2
 70
     0
 43
0.0
 10
2235.078257942936
 20
1298.899151962735
 10
2235.078257942936
 20
1298.840339462735
  0
LWPOLYLINE
  5
42E8
330
19
100
AcDbEntity
  8
1
100
AcDbPolyline
 90
        2
 70
     0
 43
0.0
 10
2235.078257942936
 20
1298.840339462735
 10
2235.078257942936
 20
1298.840339462735
  0
LWPOLYLINE
  5
42E9
330
19
100
AcDbEntity
  8
1
100
AcDbPolyline
 90
        9
 70
     0
 43
0.0
 10
2235.078257942936
 20
1298.840339462735
 10
2235.078257942936
 20
1298.899151962735
 10
2235.078257942936
 20
1298.899151962735
 10
2235.078257942936
 20
1298.957964462736
 10
2235.078257942936
 20
1298.957964462736
 10
2235.078257942936
 20
1298.957964462736
 10
2235.078257942936
 20
1298.957964462736
 10
2235.078257942936
 20
1298.957964462736
 10
2235.078257942936
 20
1298.957964462736
  0
LWPOLYLINE
  5
42EA
330
19
100
AcDbEntity
  8
1
100
AcDbPolyline
 90
        2
 70
     0
 43
0.0
 10
2235.078257942936
 20
1298.957964462736
 10
2235.078257942936
 20
1298.369839462735
  0
LWPOLYLINE
  5
42EB
330
19
100
AcDbEntity
  8
1
100
AcDbPolyline
 90
        9
 70
     0
 43
0.0
 10
2235.078257942936
 20
1298.311026962735
 10
2235.078257942936
 20
1298.311026962735
 10
2235.078257942936
 20
1298.252214462735
 10
2235.078257942936
 20
1298.193401962735
 10
2235.078257942936
 20
1298.134589462735
 10
2235.078257942936
 20
1298.075776962735
 10
2235.078257942936
 20
1298.016964462735
 10
2235.078257942936
 20
1297.958151962735
 10
2235.078257942936
 20
1297.840526962736
  0
LWPOLYLINE
  5
42EC
330
19
100
AcDbEntity
  8
1
100
AcDbPolyline
 90
        2
 70
     0
 43
0.0
 10
2235.078257942936
 20
1297.840526962736
 10
2235.078257942936
 20
1297.840526962736
  0
LWPOLYLINE
  5
42ED
330
19
100
AcDbEntity
  8
1
100
AcDbPolyline
 90
        2
 70
     0
 43
0.0
 10
2235.078257942936
 20
1297.840526962736
 10
2235.078257942936
 20
1297.840526962736
  0
LWPOLYLINE
  5
42EE
330
19
100
AcDbEntity
  8
1
100
AcDbPolyline
 90
        3
 70
     0
 43
0.0
 10
2235.078257942936
 20
1297.664089462735
 10
2235.078257942936
 20
1297.664089462735
 10
2235.078257942936
 20
1297.605276962735
  0
LWPOLYLINE
  5
42EF
330
19
100
AcDbEntity
  8
1
100
AcDbPolyline
 90
        2
 70
     0
 43
0.0
 10
2235.078257942936
 20
1297.605276962735
 10
2235.078257942936
 20
1297.017151962736
  0
LWPOLYLINE
  5
42F0
330
19
100
AcDbEntity
  8
1
100
AcDbPolyline
 90
        2
 70
     0
 43
0.0
 10
2235.078257942936
 20
1297.017151962736
 10
2235.078257942936
 20
1297.075964462735
  0
LWPOLYLINE
  5
42F1
330
19
100
AcDbEntity
  8
1
100
AcDbPolyline
 90
        2
 70
     0
 43
0.0
 10
2235.078257942936
 20
1297.075964462735
 10
2235.078257942936
 20
1297.664089462735
  0
LWPOLYLINE
  5
42F2
330
19
100
AcDbEntity
  8
1
100
AcDbPolyline
 90
        9
 70
     0
 43
0.0
 10
2235.078257942936
 20
1297.664089462735
 10
2235.078257942936
 20
1297.722901962736
 10
2235.078257942936
 20
1297.781714462735
 10
2235.078257942936
 20
1297.899339462735
 10
2235.078257942936
 20
1297.958151962735
 10
2235.078257942936
 20
1298.075776962735
 10
2235.078257942936
 20
1298.134589462735
 10
2235.078257942936
 20
1298.252214462735
 10
2235.078257942936
 20
1298.311026962735
  0
LWPOLYLINE
  5
42F3
330
19
100
AcDbEntity
  8
1
100
AcDbPolyline
 90
        2
 70
     0
 43
0.0
 10
2235.078257942936
 20
1298.311026962735
 10
2235.078257942936
 20
1298.722714462735
  0
LWPOLYLINE
  5
42F4
330
19
100
AcDbEntity
  8
1
100
AcDbPolyline
 90
        9
 70
     0
 43
0.0
 10
2235.078257942936
 20
1298.722714462735
 10
2235.078257942936
 20
1298.722714462735
 10
2235.078257942936
 20
1298.781526962735
 10
2235.078257942936
 20
1298.840339462735
 10
2235.078257942936
 20
1298.840339462735
 10
2235.078257942936
 20
1298.899151962735
 10
2235.078257942936
 20
1298.957964462736
 10
2235.078257942936
 20
1298.957964462736
 10
2235.078257942936
 20
1299.016776962735
  0
LWPOLYLINE
  5
42F5
330
19
100
AcDbEntity
  8
1
100
AcDbPolyline
 90
        2
 70
     0
 43
0.0
 10
2235.078257942936
 20
1299.016776962735
 10
2235.078257942936
 20
1299.075589462735
  0
LWPOLYLINE
  5
42F6
330
19
100
AcDbEntity
  8
1
100
AcDbPolyline
 90
        2
 70
     0
 43
0.0
 10
2235.078257942936
 20
1299.075589462735
 10
2235.078257942936
 20
1299.134401962735
  0
LWPOLYLINE
  5
42F7
330
19
100
AcDbEntity
  8
1
100
AcDbPolyline
 90
        9
 70
     0
 43
0.0
 10
2235.078257942936
 20
1299.134401962735
 10
2235.078257942936
 20
1299.134401962735
 10
2235.078257942936
 20
1299.252026962735
 10
2235.078257942936
 20
1299.310839462735
 10
2235.078257942936
 20
1299.369651962736
 10
2235.078257942936
 20
1299.428464462735
 10
2235.078257942936
 20
1299.487276962735
 10
2235.078257942936
 20
1299.604901962736
 10
2235.078257942936
 20
1299.663714462735
  0
LWPOLYLINE
  5
42F8
330
19
100
AcDbEntity
  8
1
100
AcDbPolyline
 90
        2
 70
     0
 43
0.0
 10
2235.078257942936
 20
1299.663714462735
 10
2235.078257942936
 20
1301.134026962735
  0
LWPOLYLINE
  5
42F9
330
19
100
AcDbEntity
  8
1
100
AcDbPolyline
 90
        9
 70
     0
 43
0.0
 10
2235.078257942936
 20
1301.134026962735
 10
2235.078257942936
 20
1301.192839462736
 10
2235.078257942936
 20
1301.251651962735
 10
2235.078257942936
 20
1301.310464462735
 10
2235.078257942936
 20
1301.369276962736
 10
2235.078257942936
 20
1301.369276962736
 10
2235.078257942936
 20
1301.428089462735
 10
2235.078257942936
 20
1301.428089462735
 10
2235.078257942936
 20
1301.428089462735
  0
LWPOLYLINE
  5
42FA
330
19
100
AcDbEntity
  8
1
100
AcDbPolyline
 90
        2
 70
     0
 43
0.0
 10
2235.078257942936
 20
1301.428089462735
 10
2235.078257942936
 20
1301.545714462735
  0
LWPOLYLINE
  5
42FB
330
19
100
AcDbEntity
  8
1
100
AcDbPolyline
 90
        9
 70
     0
 43
0.0
 10
2235.078257942936
 20
1301.545714462735
 10
2235.078257942936
 20
1301.604526962736
 10
2235.078257942936
 20
1301.604526962736
 10
2235.078257942936
 20
1301.663339462735
 10
2235.078257942936
 20
1301.663339462735
 10
2235.078257942936
 20
1301.722151962735
 10
2235.078257942936
 20
1301.722151962735
 10
2235.078257942936
 20
1301.722151962735
 10
2235.078257942936
 20
1301.722151962735
  0
LWPOLYLINE
  5
42FC
330
19
100
AcDbEntity
  8
1
100
AcDbPolyline
 90
        2
 70
     0
 43
0.0
 10
2235.078257942936
 20
1301.722151962735
 10
2235.078257942936
 20
1301.663339462735
  0
LWPOLYLINE
  5
42FD
330
19
100
AcDbEntity
  8
1
100
AcDbPolyline
 90
        4
 70
     0
 43
0.0
 10
2231.667132942936
 20
1304.780401962736
 10
2231.490695442936
 20
1304.898026962735
 10
2231.255445442937
 20
1305.074464462735
 10
2230.843757942936
 20
1305.192089462736
  0
LWPOLYLINE
  5
42FE
330
19
100
AcDbEntity
  8
1
100
AcDbPolyline
 90
        2
 70
     0
 43
0.0
 10
2230.843757942936
 20
1305.192089462736
 10
2233.725570442937
 20
1305.192089462736
  0
LWPOLYLINE
  5
42FF
330
19
100
AcDbEntity
  8
1
100
AcDbPolyline
 90
        9
 70
     0
 43
0.0
 10
2233.725570442937
 20
1304.015839462735
 10
2233.725570442937
 20
1304.192276962735
 10
2233.725570442937
 20
1304.309901962735
 10
2233.725570442937
 20
1304.486339462735
 10
2233.725570442937
 20
1304.603964462735
 10
2233.725570442937
 20
1304.780401962736
 10
2233.725570442937
 20
1304.898026962735
 10
2233.725570442937
 20
1305.015651962735
 10
2233.725570442937
 20
1305.192089462736
  0
LWPOLYLINE
  5
4300
330
19
100
AcDbEntity
  8
1
100
AcDbPolyline
 90
        2
 70
     0
 43
0.0
 10
2233.725570442937
 20
1305.192089462736
 10
2234.431320442937
 20
1305.133276962735
  0
LWPOLYLINE
  5
4301
330
19
100
AcDbEntity
  8
1
100
AcDbPolyline
 90
        9
 70
     0
 43
0.0
 10
2234.431320442937
 20
1304.192276962735
 10
2234.431320442937
 20
1304.309901962735
 10
2234.431320442937
 20
1304.427526962735
 10
2234.431320442937
 20
1304.545151962735
 10
2234.431320442937
 20
1304.662776962735
 10
2234.431320442937
 20
1304.780401962736
 10
2234.431320442937
 20
1304.898026962735
 10
2234.431320442937
 20
1305.015651962735
 10
2234.431320442937
 20
1305.133276962735
  0
LWPOLYLINE
  5
4302
330
19
100
AcDbEntity
  8
1
100
AcDbPolyline
 90
        2
 70
     0
 43
0.0
 10
2234.431320442937
 20
1305.133276962735
 10
2235.078257942936
 20
1304.839214462735
  0
LWPOLYLINE
  5
4303
330
19
100
AcDbEntity
  8
1
100
AcDbPolyline
 90
        2
 70
     0
 43
0.0
 10
2229.549882942936
 20
1301.545714462735
 10
2235.078257942936
 20
1301.545714462735
  0
LWPOLYLINE
  5
4304
330
19
100
AcDbEntity
  8
1
100
AcDbPolyline
 90
        4
 70
     0
 43
0.0
 10
2229.549882942936
 20
1301.663339462735
 10
2229.549882942936
 20
1301.663339462735
 10
2229.549882942936
 20
1301.604526962736
 10
2229.549882942936
 20
1301.604526962736
  0
LWPOLYLINE
  5
4305
330
19
100
AcDbEntity
  8
1
100
AcDbPolyline
 90
        2
 70
     0
 43
0.0
 10
2230.138007942937
 20
1304.721589462735
 10
2230.138007942937
 20
1305.133276962735
  0
LWPOLYLINE
  5
4306
330
19
100
AcDbEntity
  8
1
100
AcDbPolyline
 90
        2
 70
     0
 43
0.0
 10
2230.138007942937
 20
1305.133276962735
 10
2230.843757942936
 20
1305.192089462736
  0
LWPOLYLINE
  5
4307
330
19
100
AcDbEntity
  8
1
100
AcDbPolyline
 90
        2
 70
     0
 43
0.0
 10
2229.549882942936
 20
1304.839214462735
 10
2230.138007942937
 20
1305.133276962735
  0
LWPOLYLINE
  5
4308
330
19
100
AcDbEntity
  8
1
100
AcDbPolyline
 90
        2
 70
     0
 43
0.0
 10
2229.549882942936
 20
1304.839214462735
 10
2229.549882942936
 20
1304.486339462735
  0
LWPOLYLINE
  5
4309
330
19
100
AcDbEntity
  8
1
100
AcDbPolyline
 90
        2
 70
     0
 43
0.0
 10
2235.078257942936
 20
1303.251276962736
 10
2235.078257942936
 20
1302.780776962735
  0
LWPOLYLINE
  5
430A
330
19
100
AcDbEntity
  8
1
100
AcDbPolyline
 90
        2
 70
     0
 43
0.0
 10
2235.078257942936
 20
1303.133651962736
 10
2235.078257942936
 20
1303.251276962736
  0
LWPOLYLINE
  5
430B
330
19
100
AcDbEntity
  8
1
100
AcDbPolyline
 90
        2
 70
     0
 43
0.0
 10
2235.078257942936
 20
1302.780776962735
 10
2235.078257942936
 20
1303.133651962736
  0
LWPOLYLINE
  5
430C
330
19
100
AcDbEntity
  8
1
100
AcDbPolyline
 90
        2
 70
     0
 43
0.0
 10
2235.078257942936
 20
1301.428089462735
 10
2229.549882942936
 20
1301.428089462735
  0
LWPOLYLINE
  5
430D
330
19
100
AcDbEntity
  8
1
100
AcDbPolyline
 90
        2
 70
     0
 43
0.0
 10
2229.549882942936
 20
1301.428089462735
 10
2235.078257942936
 20
1301.428089462735
  0
LWPOLYLINE
  5
430E
330
19
100
AcDbEntity
  8
1
100
AcDbPolyline
 90
        2
 70
     0
 43
0.0
 10
2229.549882942936
 20
1301.134026962735
 10
2235.078257942936
 20
1301.134026962735
  0
LWPOLYLINE
  5
430F
330
19
100
AcDbEntity
  8
1
100
AcDbPolyline
 90
        9
 70
     0
 43
0.0
 10
2229.549882942936
 20
1301.134026962735
 10
2229.549882942936
 20
1301.192839462736
 10
2229.549882942936
 20
1301.251651962735
 10
2229.549882942936
 20
1301.310464462735
 10
2229.549882942936
 20
1301.369276962736
 10
2229.549882942936
 20
1301.369276962736
 10
2229.549882942936
 20
1301.428089462735
 10
2229.549882942936
 20
1301.428089462735
 10
2229.549882942936
 20
1301.428089462735
  0
LWPOLYLINE
  5
4310
330
19
100
AcDbEntity
  8
1
100
AcDbPolyline
 90
        2
 70
     0
 43
0.0
 10
2234.901820442936
 20
1298.252214462735
 10
2235.078257942936
 20
1298.311026962735
  0
LWPOLYLINE
  5
4311
330
19
100
AcDbEntity
  8
1
100
AcDbPolyline
 90
        2
 70
     0
 43
0.0
 10
2235.078257942936
 20
1297.664089462735
 10
2234.901820442936
 20
1297.546464462735
  0
LWPOLYLINE
  5
4312
330
19
100
AcDbEntity
  8
1
100
AcDbPolyline
 90
        2
 70
     0
 43
0.0
 10
2232.549320442936
 20
1299.075589462735
 10
2235.078257942936
 20
1299.075589462735
  0
LWPOLYLINE
  5
4313
330
19
100
AcDbEntity
  8
1
100
AcDbPolyline
 90
        2
 70
     0
 43
0.0
 10
2235.078257942936
 20
1304.427526962735
 10
2235.078257942936
 20
1304.427526962735
  0
LWPOLYLINE
  5
4314
330
19
100
AcDbEntity
  8
1
100
AcDbPolyline
 90
        2
 70
     0
 43
0.0
 10
2235.078257942936
 20
1297.075964462735
 10
2234.901820442936
 20
1297.017151962736
  0
LWPOLYLINE
  5
4315
330
19
100
AcDbEntity
  8
1
100
AcDbPolyline
 90
        2
 70
     0
 43
0.0
 10
2229.549882942936
 20
1304.839214462735
 10
2229.549882942936
 20
1304.956839462735
  0
LWPOLYLINE
  5
4316
330
19
100
AcDbEntity
  8
1
100
AcDbPolyline
 90
        2
 70
     0
 43
0.0
 10
2235.078257942936
 20
1297.017151962736
 10
2234.901820442936
 20
1296.899526962735
  0
LWPOLYLINE
  5
4317
330
19
100
AcDbEntity
  8
1
100
AcDbPolyline
 90
        2
 70
     0
 43
0.0
 10
2229.549882942936
 20
1305.427339462736
 10
2235.078257942936
 20
1305.427339462736
  0
LWPOLYLINE
  5
4318
330
19
100
AcDbEntity
  8
1
100
AcDbPolyline
 90
        9
 70
     0
 43
0.0
 10
2229.549882942936
 20
1304.956839462735
 10
2229.549882942936
 20
1304.956839462735
 10
2229.549882942936
 20
1305.015651962735
 10
2229.549882942936
 20
1305.074464462735
 10
2229.549882942936
 20
1305.133276962735
 10
2229.549882942936
 20
1305.192089462736
 10
2229.549882942936
 20
1305.250901962735
 10
2229.549882942936
 20
1305.309714462735
 10
2229.549882942936
 20
1305.427339462736
  0
LWPOLYLINE
  5
4319
330
19
100
AcDbEntity
  8
1
100
AcDbPolyline
 90
        2
 70
     0
 43
0.0
 10
2235.078257942936
 20
1305.427339462736
 10
2229.549882942936
 20
1305.427339462736
  0
LWPOLYLINE
  5
431A
330
19
100
AcDbEntity
  8
1
100
AcDbPolyline
 90
        2
 70
     0
 43
0.0
 10
2229.549882942936
 20
1305.427339462736
 10
2229.549882942936
 20
1305.427339462736
  0
LWPOLYLINE
  5
431B
330
19
100
AcDbEntity
  8
1
100
AcDbPolyline
 90
        2
 70
     0
 43
0.0
 10
2229.549882942936
 20
1305.427339462736
 10
2235.078257942936
 20
1305.427339462736
  0
LWPOLYLINE
  5
431C
330
19
100
AcDbEntity
  8
1
100
AcDbPolyline
 90
        2
 70
     0
 43
0.0
 10
2229.549882942936
 20
1305.427339462736
 10
2229.549882942936
 20
1305.427339462736
  0
LWPOLYLINE
  5
431D
330
19
100
AcDbEntity
  8
1
100
AcDbPolyline
 90
        2
 70
     0
 43
0.0
 10
2229.549882942936
 20
1305.662589462735
 10
2235.078257942936
 20
1305.662589462735
  0
LWPOLYLINE
  5
431E
330
19
100
AcDbEntity
  8
1
100
AcDbPolyline
 90
        9
 70
     0
 43
0.0
 10
2229.549882942936
 20
1305.662589462735
 10
2229.549882942936
 20
1305.603776962735
 10
2229.549882942936
 20
1305.544964462735
 10
2229.549882942936
 20
1305.544964462735
 10
2229.549882942936
 20
1305.486151962735
 10
2229.549882942936
 20
1305.486151962735
 10
2229.549882942936
 20
1305.427339462736
 10
2229.549882942936
 20
1305.427339462736
 10
2229.549882942936
 20
1305.427339462736
  0
LWPOLYLINE
  5
431F
330
19
100
AcDbEntity
  8
1
100
AcDbPolyline
 90
        2
 70
     0
 43
0.0
 10
2230.138007942937
 20
1306.603589462735
 10
2229.549882942936
 20
1306.250714462735
  0
LWPOLYLINE
  5
4320
330
19
100
AcDbEntity
  8
1
100
AcDbPolyline
 90
        2
 70
     0
 43
0.0
 10
2230.843757942936
 20
1306.603589462735
 10
2230.138007942937
 20
1306.603589462735
  0
LWPOLYLINE
  5
4321
330
19
100
AcDbEntity
  8
1
100
AcDbPolyline
 90
        2
 70
     0
 43
0.0
 10
2230.843757942936
 20
1306.603589462735
 10
2233.725570442937
 20
1306.603589462735
  0
LWPOLYLINE
  5
4322
330
19
100
AcDbEntity
  8
1
100
AcDbPolyline
 90
        2
 70
     0
 43
0.0
 10
2234.431320442937
 20
1306.603589462735
 10
2233.725570442937
 20
1306.603589462735
  0
LWPOLYLINE
  5
4323
330
19
100
AcDbEntity
  8
1
100
AcDbPolyline
 90
        2
 70
     0
 43
0.0
 10
2235.078257942936
 20
1306.250714462735
 10
2234.431320442937
 20
1306.603589462735
  0
LWPOLYLINE
  5
4324
330
19
100
AcDbEntity
  8
1
100
AcDbPolyline
 90
        2
 70
     0
 43
0.0
 10
2229.549882942936
 20
1306.250714462735
 10
2229.549882942936
 20
1305.662589462735
  0
LWPOLYLINE
  5
4325
330
19
100
AcDbEntity
  8
1
100
AcDbPolyline
 90
        2
 70
     0
 43
0.0
 10
2235.078257942936
 20
1305.074464462735
 10
2235.078257942936
 20
1305.074464462735
  0
LWPOLYLINE
  5
4326
330
19
100
AcDbEntity
  8
1
100
AcDbPolyline
 90
        2
 70
     0
 43
0.0
 10
2235.078257942936
 20
1298.840339462735
 10
2235.078257942936
 20
1298.840339462735
  0
LWPOLYLINE
  5
4327
330
19
100
AcDbEntity
  8
1
100
AcDbPolyline
 90
        2
 70
     0
 43
0.0
 10
2235.078257942936
 20
1299.663714462735
 10
2235.078257942936
 20
1299.663714462735
  0
LWPOLYLINE
  5
4328
330
19
100
AcDbEntity
  8
1
100
AcDbPolyline
 90
        2
 70
     0
 43
0.0
 10
2235.078257942936
 20
1299.898964462736
 10
2235.078257942936
 20
1299.898964462736
  0
LWPOLYLINE
  5
4329
330
19
100
AcDbEntity
  8
1
100
AcDbPolyline
 90
        2
 70
     0
 43
0.0
 10
2235.078257942936
 20
1301.604526962736
 10
2235.078257942936
 20
1301.604526962736
  0
LWPOLYLINE
  5
432A
330
19
100
AcDbEntity
  8
1
100
AcDbPolyline
 90
       51
 70
     0
 43
0.0
 10
2221.492570442936
 20
1303.545339462736
 10
2220.963257942937
 20
1303.721776962735
 10
2220.375132942937
 20
1303.839401962735
 10
2219.787007942937
 20
1303.957026962735
 10
2219.198882942936
 20
1304.015839462735
 10
2218.610757942936
 20
1304.015839462735
 10
2218.022632942936
 20
1303.957026962735
 10
2217.434507942936
 20
1303.839401962735
 10
2216.905195442937
 20
1303.721776962735
 10
2216.317070442936
 20
1303.545339462736
 10
2215.846570442937
 20
1303.368901962735
 10
2215.376070442937
 20
1303.074839462735
 10
2215.023195442937
 20
1302.780776962735
 10
2214.670320442936
 20
1302.486714462735
 10
2214.376257942937
 20
1302.133839462735
 10
2214.141007942937
 20
1301.780964462736
 10
2213.964570442938
 20
1301.428089462735
 10
2213.905757942936
 20
1301.016401962735
 10
2213.905757942936
 20
1300.663526962735
 10
2213.964570442938
 20
1300.251839462735
 10
2214.082195442936
 20
1299.898964462736
 10
2214.317445442937
 20
1299.546089462735
 10
2214.552695442936
 20
1299.193214462735
 10
2214.905570442936
 20
1298.899151962735
 10
2215.258445442937
 20
1298.605089462735
 10
2215.728945442936
 20
1298.311026962735
 10
2216.199445442937
 20
1298.075776962735
 10
2216.728757942936
 20
1297.899339462735
 10
2217.258070442936
 20
1297.781714462735
 10
2217.846195442936
 20
1297.664089462735
 10
2218.434320442936
 20
1297.605276962735
 10
2219.022445442937
 20
1297.605276962735
 10
2219.610570442937
 20
1297.605276962735
 10
2220.198695442937
 20
1297.664089462735
 10
2220.786820442937
 20
1297.781714462735
 10
2221.316132942936
 20
1297.958151962735
 10
2221.786632942936
 20
1298.193401962735
 10
2222.257132942937
 20
1298.428651962735
 10
2222.668820442937
 20
1298.722714462735
 10
2223.080507942936
 20
1299.016776962735
 10
2223.374570442937
 20
1299.310839462735
 10
2223.609820442936
 20
1299.663714462735
 10
2223.786257942936
 20
1300.075401962735
 10
2223.845070442936
 20
1300.428276962735
 10
2223.903882942936
 20
1300.839964462735
 10
2223.845070442936
 20
1301.192839462736
 10
2223.727445442937
 20
1301.604526962736
 10
2223.551007942937
 20
1301.957401962736
 10
2223.315757942937
 20
1302.310276962735
 10
2223.021695442936
 20
1302.604339462736
 10
2222.610007942936
 20
1302.957214462735
  0
LWPOLYLINE
  5
432B
330
19
100
AcDbEntity
  8
1
100
AcDbPolyline
 90
       10
 70
     0
 43
0.0
 10
2221.492570442936
 20
1303.545339462736
 10
2221.316132942936
 20
1303.427714462735
 10
2221.257320442936
 20
1303.310089462735
 10
2221.257320442936
 20
1303.192464462735
 10
2221.374945442936
 20
1303.074839462735
 10
2221.492570442936
 20
1303.016026962735
 10
2221.669007942937
 20
1302.957214462735
 10
2221.963070442936
 20
1302.957214462735
 10
2222.257132942937
 20
1302.898401962735
 10
2222.610007942936
 20
1302.957214462735
  0
LWPOLYLINE
  5
432C
330
19
100
AcDbEntity
  8
1
100
AcDbPolyline
 90
       21
 70
     0
 43
0.0
 10
2217.728570442937
 20
1299.016776962735
 10
2217.669757942937
 20
1299.134401962735
 10
2217.493320442937
 20
1299.252026962735
 10
2217.316882942937
 20
1299.310839462735
 10
2217.081632942937
 20
1299.369651962736
 10
2216.846382942937
 20
1299.369651962736
 10
2216.669945442936
 20
1299.310839462735
 10
2216.434695442937
 20
1299.193214462735
 10
2216.317070442936
 20
1299.075589462735
 10
2216.258257942937
 20
1298.957964462736
 10
2216.317070442936
 20
1298.781526962735
 10
2216.375882942936
 20
1298.663901962735
 10
2216.552320442936
 20
1298.546276962736
 10
2216.728757942936
 20
1298.428651962735
 10
2216.964007942936
 20
1298.428651962735
 10
2217.199257942936
 20
1298.428651962735
 10
2217.434507942936
 20
1298.487464462735
 10
2217.610945442936
 20
1298.546276962736
 10
2217.728570442937
 20
1298.722714462735
 10
2217.787382942936
 20
1298.840339462735
 10
2217.728570442937
 20
1299.016776962735
  0
LWPOLYLINE
  5
432D
330
19
100
AcDbEntity
  8
1
100
AcDbPolyline
 90
       11
 70
     0
 43
0.0
 10
2217.787382942936
 20
1298.840339462735
 10
2217.728570442937
 20
1298.840339462735
 10
2217.669757942937
 20
1298.957964462736
 10
2217.493320442937
 20
1299.075589462735
 10
2217.316882942937
 20
1299.193214462735
 10
2217.081632942937
 20
1299.193214462735
 10
2216.846382942937
 20
1299.193214462735
 10
2216.669945442936
 20
1299.134401962735
 10
2216.434695442937
 20
1299.075589462735
 10
2216.317070442936
 20
1298.899151962735
 10
2216.258257942937
 20
1298.840339462735
  0
LWPOLYLINE
  5
432E
330
19
100
AcDbEntity
  8
1
100
AcDbPolyline
 90
        6
 70
     0
 43
0.0
 10
2229.549882942936
 20
1302.133839462735
 10
2228.902945442936
 20
1302.133839462735
 10
2228.256007942936
 20
1302.133839462735
 10
2227.550257942937
 20
1302.133839462735
 10
2226.903320442937
 20
1302.133839462735
 10
2226.550445442936
 20
1302.133839462735
  0
LWPOLYLINE
  5
432F
330
19
100
AcDbEntity
  8
1
100
AcDbPolyline
 90
        6
 70
     0
 43
0.0
 10
2225.315382942936
 20
1302.133839462735
 10
2225.080132942936
 20
1302.133839462735
 10
2224.492007942936
 20
1302.133839462735
 10
2223.962695442937
 20
1302.133839462735
 10
2223.551007942937
 20
1302.133839462735
 10
2223.433382942936
 20
1302.133839462735
  0
LWPOLYLINE
  5
4330
330
19
100
AcDbEntity
  8
1
100
AcDbPolyline
 90
        3
 70
     0
 43
0.0
 10
2229.549882942936
 20
1300.722339462735
 10
2229.549882942936
 20
1300.722339462735
 10
2229.549882942936
 20
1301.663339462735
  0
LWPOLYLINE
  5
4331
330
19
100
AcDbEntity
  8
1
100
AcDbPolyline
 90
        2
 70
     0
 43
0.0
 10
2229.549882942936
 20
1304.074651962736
 10
2229.549882942936
 20
1304.486339462735
  0
LWPOLYLINE
  5
4332
330
19
100
AcDbEntity
  8
1
100
AcDbPolyline
 90
       12
 70
     0
 43
0.0
 10
2229.549882942936
 20
1304.486339462735
 10
2228.902945442936
 20
1304.251089462735
 10
2228.256007942936
 20
1304.015839462735
 10
2227.609070442936
 20
1303.780589462735
 10
2226.962132942936
 20
1303.545339462736
 10
2226.315195442936
 20
1303.310089462735
 10
2225.727070442936
 20
1303.074839462735
 10
2225.138945442937
 20
1302.839589462736
 10
2224.550820442937
 20
1302.663151962735
 10
2224.021507942937
 20
1302.486714462735
 10
2223.609820442936
 20
1302.310276962735
 10
2223.374570442937
 20
1302.251464462735
  0
LWPOLYLINE
  5
4333
330
19
100
AcDbEntity
  8
1
100
AcDbPolyline
 90
        4
 70
     0
 43
0.0
 10
2226.785695442936
 20
1306.133089462736
 10
2227.726695442937
 20
1306.133089462736
 10
2228.667695442936
 20
1306.133089462736
 10
2229.549882942936
 20
1306.133089462736
  0
LWPOLYLINE
  5
4334
330
19
100
AcDbEntity
  8
1
100
AcDbPolyline
 90
       11
 70
     0
 43
0.0
 10
2222.845257942936
 20
1302.721964462735
 10
2223.021695442936
 20
1302.721964462735
 10
2223.492195442936
 20
1302.721964462735
 10
2223.668632942937
 20
1302.721964462735
 10
2223.786257942936
 20
1302.663151962735
 10
2223.786257942936
 20
1302.663151962735
 10
2223.845070442936
 20
1302.604339462736
 10
2223.786257942936
 20
1302.604339462736
 10
2223.727445442937
 20
1302.486714462735
 10
2223.551007942937
 20
1302.369089462735
 10
2223.315757942937
 20
1302.251464462735
  0
LWPOLYLINE
  5
4335
330
19
100
AcDbEntity
  8
1
100
AcDbPolyline
 90
        2
 70
     0
 43
0.0
 10
2222.139507942936
 20
1304.427526962735
 10
2226.785695442936
 20
1306.133089462736
  0
LWPOLYLINE
  5
4336
330
19
100
AcDbEntity
  8
1
100
AcDbPolyline
 90
        9
 70
     0
 43
0.0
 10
2222.139507942936
 20
1306.133089462736
 10
2222.139507942936
 20
1306.133089462736
 10
2222.080695442937
 20
1306.133089462736
 10
2222.080695442937
 20
1306.133089462736
 10
2222.080695442937
 20
1306.133089462736
 10
2222.080695442937
 20
1306.133089462736
 10
2222.080695442937
 20
1306.133089462736
 10
2222.021882942936
 20
1306.133089462736
 10
2222.021882942936
 20
1306.133089462736
  0
LWPOLYLINE
  5
4337
330
19
100
AcDbEntity
  8
1
100
AcDbPolyline
 90
        2
 70
     0
 43
0.0
 10
2222.139507942936
 20
1305.662589462735
 10
2222.139507942936
 20
1306.133089462736
  0
LWPOLYLINE
  5
4338
330
19
100
AcDbEntity
  8
1
100
AcDbPolyline
 90
        2
 70
     0
 43
0.0
 10
2222.139507942936
 20
1306.133089462736
 10
2226.785695442936
 20
1306.133089462736
  0
LWPOLYLINE
  5
4339
330
19
100
AcDbEntity
  8
SK1
100
AcDbPolyline
 90
       33
 70
     0
 43
0.0
 10
2203.966445442937
 20
1283.431464462735
 10
2203.966445442937
 20
1283.490276962736
 10
2203.966445442937
 20
1283.607901962735
 10
2203.966445442937
 20
1283.784339462736
 10
2203.966445442937
 20
1284.019589462735
 10
2203.966445442937
 20
1284.313651962735
 10
2203.966445442937
 20
1284.725339462735
 10
2203.966445442937
 20
1285.137026962736
 10
2203.966445442937
 20
1285.607526962735
 10
2203.966445442937
 20
1286.136839462735
 10
2203.966445442937
 20
1286.724964462735
 10
2203.966445442937
 20
1287.371901962735
 10
2203.966445442937
 20
1288.018839462735
 10
2203.966445442937
 20
1288.665776962736
 10
2203.966445442937
 20
1289.371526962735
 10
2203.966445442937
 20
1290.077276962735
 10
2203.966445442937
 20
1290.783026962736
 10
2203.966445442937
 20
1291.547589462735
 10
2203.966445442937
 20
1292.253339462735
 10
2203.966445442937
 20
1292.900276962735
 10
2203.966445442937
 20
1293.606026962735
 10
2203.966445442937
 20
1294.194151962735
 10
2203.966445442937
 20
1294.841089462735
 10
2203.966445442937
 20
1295.370401962736
 10
2203.966445442937
 20
1295.899714462735
 10
2203.966445442937
 20
1296.370214462736
 10
2203.966445442937
 20
1296.723089462735
 10
2203.966445442937
 20
1297.075964462735
 10
2203.966445442937
 20
1297.370026962735
 10
2203.966445442937
 20
1297.605276962735
 10
2203.966445442937
 20
1297.722901962736
 10
2203.966445442937
 20
1297.781714462735
 10
2203.966445442937
 20
1297.781714462735
  0
LWPOLYLINE
  5
433A
330
19
100
AcDbEntity
  8
SK1
100
AcDbPolyline
 90
       33
 70
     0
 43
0.0
 10
2203.260695442936
 20
1283.431464462735
 10
2203.260695442936
 20
1283.431464462735
 10
2203.260695442936
 20
1283.549089462735
 10
2203.260695442936
 20
1283.725526962735
 10
2203.260695442936
 20
1283.960776962735
 10
2203.260695442936
 20
1284.313651962735
 10
2203.260695442936
 20
1284.666526962735
 10
2203.260695442936
 20
1285.078214462735
 10
2203.260695442936
 20
1285.607526962735
 10
2203.260695442936
 20
1286.136839462735
 10
2203.260695442936
 20
1286.724964462735
 10
2203.260695442936
 20
1287.313089462736
 10
2203.260695442936
 20
1288.018839462735
 10
2203.260695442936
 20
1288.665776962736
 10
2203.260695442936
 20
1289.371526962735
 10
2203.260695442936
 20
1290.077276962735
 10
2203.260695442936
 20
1290.783026962736
 10
2203.260695442936
 20
1291.547589462735
 10
2203.260695442936
 20
1292.253339462735
 10
2203.260695442936
 20
1292.900276962735
 10
2203.260695442936
 20
1293.606026962735
 10
2203.260695442936
 20
1294.252964462735
 10
2203.260695442936
 20
1294.841089462735
 10
2203.260695442936
 20
1295.429214462736
 10
2203.260695442936
 20
1295.899714462735
 10
2203.260695442936
 20
1296.370214462736
 10
2203.260695442936
 20
1296.781901962736
 10
2203.260695442936
 20
1297.134776962735
 10
2203.260695442936
 20
1297.428839462736
 10
2203.260695442936
 20
1297.605276962735
 10
2203.260695442936
 20
1297.781714462735
 10
2203.260695442936
 20
1297.840526962736
 10
2203.260695442936
 20
1297.840526962736
  0
LWPOLYLINE
  5
433B
330
19
100
AcDbEntity
  8
SK1
100
AcDbPolyline
 90
       33
 70
     0
 43
0.0
 10
2203.437132942936
 20
1283.431464462735
 10
2203.437132942936
 20
1283.490276962736
 10
2203.437132942936
 20
1283.607901962735
 10
2203.437132942936
 20
1283.784339462736
 10
2203.437132942936
 20
1284.019589462735
 10
2203.437132942936
 20
1284.313651962735
 10
2203.437132942936
 20
1284.725339462735
 10
2203.437132942936
 20
1285.137026962736
 10
2203.437132942936
 20
1285.607526962735
 10
2203.437132942936
 20
1286.136839462735
 10
2203.437132942936
 20
1286.724964462735
 10
2203.437132942936
 20
1287.371901962735
 10
2203.437132942936
 20
1288.018839462735
 10
2203.437132942936
 20
1288.665776962736
 10
2203.437132942936
 20
1289.371526962735
 10
2203.437132942936
 20
1290.077276962735
 10
2203.437132942936
 20
1290.783026962736
 10
2203.437132942936
 20
1291.547589462735
 10
2203.437132942936
 20
1292.253339462735
 10
2203.437132942936
 20
1292.900276962735
 10
2203.437132942936
 20
1293.606026962735
 10
2203.437132942936
 20
1294.194151962735
 10
2203.437132942936
 20
1294.841089462735
 10
2203.437132942936
 20
1295.370401962736
 10
2203.437132942936
 20
1295.899714462735
 10
2203.437132942936
 20
1296.370214462736
 10
2203.437132942936
 20
1296.723089462735
 10
2203.437132942936
 20
1297.075964462735
 10
2203.437132942936
 20
1297.370026962735
 10
2203.437132942936
 20
1297.605276962735
 10
2203.437132942936
 20
1297.722901962736
 10
2203.437132942936
 20
1297.781714462735
 10
2203.437132942936
 20
1297.781714462735
  0
LWPOLYLINE
  5
433C
330
19
100
AcDbEntity
  8
1
100
AcDbPolyline
 90
        2
 70
     0
 43
0.0
 10
2235.078257942936
 20
1300.722339462735
 10
2235.078257942936
 20
1300.722339462735
  0
LWPOLYLINE
  5
433D
330
19
100
AcDbEntity
  8
1
100
AcDbPolyline
 90
        2
 70
     0
 43
0.0
 10
2235.078257942936
 20
1302.251464462735
 10
2235.078257942936
 20
1302.251464462735
  0
LWPOLYLINE
  5
433E
330
19
100
AcDbEntity
  8
1
100
AcDbPolyline
 90
        2
 70
     0
 43
0.0
 10
2235.078257942936
 20
1300.722339462735
 10
2235.078257942936
 20
1300.722339462735
  0
LWPOLYLINE
  5
433F
330
19
100
AcDbEntity
  8
1
100
AcDbPolyline
 90
        2
 70
     0
 43
0.0
 10
2235.078257942936
 20
1300.369464462735
 10
2235.078257942936
 20
1300.369464462735
  0
LWPOLYLINE
  5
4340
330
19
100
AcDbEntity
  8
1
100
AcDbPolyline
 90
        2
 70
     0
 43
0.0
 10
2235.078257942936
 20
1302.663151962735
 10
2235.078257942936
 20
1302.663151962735
  0
LWPOLYLINE
  5
4341
330
19
100
AcDbEntity
  8
1
100
AcDbPolyline
 90
        2
 70
     0
 43
0.0
 10
2235.078257942936
 20
1302.545526962735
 10
2235.078257942936
 20
1302.545526962735
  0
LWPOLYLINE
  5
4342
330
19
100
AcDbEntity
  8
1
100
AcDbPolyline
 90
        2
 70
     0
 43
0.0
 10
2235.078257942936
 20
1300.428276962735
 10
2235.078257942936
 20
1300.428276962735
  0
LWPOLYLINE
  5
4343
330
19
100
AcDbEntity
  8
1
100
AcDbPolyline
 90
        2
 70
     0
 43
0.0
 10
2235.078257942936
 20
1301.134026962735
 10
2235.078257942936
 20
1301.134026962735
  0
LWPOLYLINE
  5
4344
330
19
100
AcDbEntity
  8
1
100
AcDbPolyline
 90
        2
 70
     0
 43
0.0
 10
2235.078257942936
 20
1301.898589462736
 10
2235.078257942936
 20
1301.898589462736
  0
LWPOLYLINE
  5
4345
330
19
100
AcDbEntity
  8
1
100
AcDbPolyline
 90
        2
 70
     0
 43
0.0
 10
2235.078257942936
 20
1301.780964462736
 10
2235.078257942936
 20
1301.780964462736
  0
LWPOLYLINE
  5
4346
330
19
100
AcDbEntity
  8
1
100
AcDbPolyline
 90
        2
 70
     0
 43
0.0
 10
2235.078257942936
 20
1301.192839462736
 10
2235.078257942936
 20
1301.192839462736
  0
LWPOLYLINE
  5
4347
330
19
100
AcDbEntity
  8
1
100
AcDbPolyline
 90
        2
 70
     0
 43
0.0
 10
2233.960820442936
 20
1298.722714462735
 10
2235.078257942936
 20
1298.722714462735
  0
LWPOLYLINE
  5
4348
330
19
100
AcDbEntity
  8
1
100
AcDbPolyline
 90
        2
 70
     0
 43
0.0
 10
2231.020195442937
 20
1299.663714462735
 10
2235.078257942936
 20
1299.663714462735
  0
LWPOLYLINE
  5
4349
330
19
100
AcDbEntity
  8
1
100
AcDbPolyline
 90
        2
 70
     0
 43
0.0
 10
2232.902195442937
 20
1299.016776962735
 10
2235.078257942936
 20
1299.016776962735
  0
LWPOLYLINE
  5
434A
330
19
100
AcDbEntity
  8
1
100
AcDbPolyline
 90
        2
 70
     0
 43
0.0
 10
2232.549320442936
 20
1299.134401962735
 10
2235.078257942936
 20
1299.134401962735
  0
LWPOLYLINE
  5
434B
330
19
100
AcDbEntity
  8
1
100
AcDbPolyline
 90
        2
 70
     0
 43
0.0
 10
2235.078257942936
 20
1304.309901962735
 10
2235.078257942936
 20
1304.309901962735
  0
LWPOLYLINE
  5
434C
330
19
100
AcDbEntity
  8
1
100
AcDbPolyline
 90
        2
 70
     0
 43
0.0
 10
2229.549882942936
 20
1304.956839462735
 10
2229.726320442936
 20
1304.956839462735
  0
LWPOLYLINE
  5
434D
330
19
100
AcDbEntity
  8
1
100
AcDbPolyline
 90
        2
 70
     0
 43
0.0
 10
2234.901820442936
 20
1304.956839462735
 10
2235.078257942936
 20
1304.956839462735
  0
LWPOLYLINE
  5
434E
330
19
100
AcDbEntity
  8
1
100
AcDbPolyline
 90
        2
 70
     0
 43
0.0
 10
2235.078257942936
 20
1298.840339462735
 10
2235.078257942936
 20
1298.840339462735
  0
LWPOLYLINE
  5
434F
330
19
100
AcDbEntity
  8
1
100
AcDbPolyline
 90
        2
 70
     0
 43
0.0
 10
2235.078257942936
 20
1301.839776962735
 10
2235.078257942936
 20
1301.839776962735
  0
LWPOLYLINE
  5
4350
330
19
100
AcDbEntity
  8
1
100
AcDbPolyline
 90
        2
 70
     0
 43
0.0
 10
2235.078257942936
 20
1301.428089462735
 10
2235.078257942936
 20
1301.428089462735
  0
LWPOLYLINE
  5
4351
330
19
100
AcDbEntity
  8
1
100
AcDbPolyline
 90
        2
 70
     0
 43
0.0
 10
2229.549882942936
 20
1304.486339462735
 10
2229.549882942936
 20
1304.486339462735
  0
DIMENSION
  5
4352
330
19
100
AcDbEntity
  8
SK2
100
AcDbDimension
  2
*D78
 10
2168.554330396773
 20
1283.137401962735
 30
0.0
 11
2165.804330396772
 21
1290.635995712736
 31
0.0
 70
    32
  1
%%c<>
 71
     5
 42
14.99718750000011
  3
V-TYGEN_-160
100
AcDbAlignedDimension
 13
2181.029570442936
 23
1298.134589462735
 33
0.0
 14
2181.029570442936
 24
1283.137401962735
 34
0.0
 50
90.0
100
AcDbRotatedDimension
  0
DIMENSION
  5
435F
330
19
100
AcDbEntity
  8
2
100
AcDbDimension
  2
*D79
 10
2251.795101160344
 20
1274.609589462735
 30
0.0
 11
2249.045101160343
 21
1290.606589462736
 31
0.0
 70
    32
  1
%%c<>
 71
     5
 42
31.99399999999969
  3
V-TYGEN_-160
100
AcDbAlignedDimension
 13
2234.431320442937
 23
1306.603589462735
 33
0.0
 14
2233.372695442936
 24
1274.609589462735
 34
0.0
 50
90.0
100
AcDbRotatedDimension
  0
DIMENSION
  5
437E
330
19
100
AcDbEntity
  8
2
100
AcDbDimension
  2
*D80
 10
2235.078257942936
 20
1317.265536939823
 30
0.0
 11
2219.551757942936
 21
1320.015536939823
 31
0.0
 70
    32
 71
     5
 42
31.05299999999943
  3
V-TYGEN_-160
100
AcDbAlignedDimension
 13
2204.025257942937
 23
1302.780776962735
 33
0.0
 14
2235.078257942936
 24
1306.191901962735
 34
0.0
100
AcDbRotatedDimension
  0
LINE
  5
439D
330
19
100
AcDbEntity
  8
4
100
AcDbLine
 10
2204.025257942937
 20
1290.606589462735
 30
0.0
 11
2236.901445442937
 21
1290.606589462735
 31
0.0
  0
ENDSEC
  0
SECTION
  2
OBJECTS
  0
DICTIONARY
  5
C
330
0
100
AcDbDictionary
281
     1
  3
ACAD_COLOR
350
129F
  3
ACAD_GROUP
350
D
  3
ACAD_LAYOUT
350
A85
  3
ACAD_MATERIAL
350
128A
  3
ACAD_MLEADERSTYLE
350
1483
  3
ACAD_MLINESTYLE
350
E
  3
ACAD_PLOTSETTINGS
350
A86
  3
ACAD_PLOTSTYLENAME
350
E93
  3
ACAD_SCALELIST
350
1461
  3
ACAD_TABLESTYLE
350
12A0
  3
ACAD_VISUALSTYLE
350
128E
  3
ACDB_RECOMPOSE_DATA
350
14AC
  3
AcDbVariableDictionary
350
1433
  3
DWGPROPS
350
43D7
1001
ACAD
1000
TREAT_AS_HARD
1070
     0
  0
DICTIONARY
  5
148A
330
F
100
AcDbDictionary
280
     1
281
     1
  3
ADSK_XREC_LAYER_RECONCILED
360
148B
  0
DICTIONARY
  5
148C
330
1E
100
AcDbDictionary
280
     1
281
     1
  3
ADSK_XREC_LAYER_RECONCILED
360
148D
  0
DICTIONARY
  5
148E
330
22
100
AcDbDictionary
280
     1
281
     1
  3
ADSK_XREC_LAYER_RECONCILED
360
148F
  0
DICTIONARY
  5
1490
330
23
100
AcDbDictionary
280
     1
281
     1
  3
ADSK_XREC_LAYER_RECONCILED
360
1491
  0
DICTIONARY
  5
1492
330
24
100
AcDbDictionary
280
     1
281
     1
  3
ADSK_XREC_LAYER_RECONCILED
360
1493
  0
DICTIONARY
  5
1494
330
25
100
AcDbDictionary
280
     1
281
     1
  3
ADSK_XREC_LAYER_RECONCILED
360
1495
  0
DICTIONARY
  5
1496
330
26
100
AcDbDictionary
280
     1
281
     1
  3
ADSK_XREC_LAYER_RECONCILED
360
1497
  0
DICTIONARY
  5
1498
330
27
100
AcDbDictionary
280
     1
281
     1
  3
ADSK_XREC_LAYER_RECONCILED
360
1499
  0
DICTIONARY
  5
149A
330
28
100
AcDbDictionary
280
     1
281
     1
  3
ADSK_XREC_LAYER_RECONCILED
360
149B
  0
DICTIONARY
  5
149C
330
29
100
AcDbDictionary
280
     1
281
     1
  3
ADSK_XREC_LAYER_RECONCILED
360
149D
  0
DICTIONARY
  5
149E
330
2A
100
AcDbDictionary
280
     1
281
     1
  3
ADSK_XREC_LAYER_RECONCILED
360
149F
  0
DICTIONARY
  5
14A0
330
2B
100
AcDbDictionary
280
     1
281
     1
  3
ADSK_XREC_LAYER_RECONCILED
360
14A1
  0
DICTIONARY
  5
14A2
330
2C
100
AcDbDictionary
280
     1
281
     1
  3
ADSK_XREC_LAYER_RECONCILED
360
14A3
  0
DICTIONARY
  5
14A4
330
2D
100
AcDbDictionary
280
     1
281
     1
  3
ADSK_XREC_LAYER_RECONCILED
360
14A5
  0
DICTIONARY
  5
14A6
330
C07
100
AcDbDictionary
280
     1
281
     1
  3
ADSK_XREC_LAYER_RECONCILED
360
14A7
  0
DICTIONARY
  5
E8D
330
19
100
AcDbDictionary
280
     1
281
     1
  3
ACAD_SORTENTS
360
2AE4
  0
DICTIONARY
  5
E8B
330
16
100
AcDbDictionary
280
     1
281
     1
  0
DICTIONARY
  5
129F
102
{ACAD_REACTORS
330
C
102
}
330
C
100
AcDbDictionary
281
     1
  0
DICTIONARY
  5
D
102
{ACAD_REACTORS
330
C
102
}
330
C
100
AcDbDictionary
281
     1
1001
ACAD
1000
TREAT_AS_HARD
1070
     0
  0
DICTIONARY
  5
A85
102
{ACAD_REACTORS
330
C
102
}
330
C
100
AcDbDictionary
281
     1
  3
Layout1
350
E96
  3
Model
350
E95
1001
ACAD
1000
TREAT_AS_HARD
1070
     0
  0
DICTIONARY
  5
128A
102
{ACAD_REACTORS
330
C
102
}
330
C
100
AcDbDictionary
281
     1
  3
ByBlock
350
128C
  3
ByLayer
350
128B
  3
Global
350
128D
  0
DICTIONARY
  5
1483
102
{ACAD_REACTORS
330
C
102
}
330
C
100
AcDbDictionary
281
     1
  3
Standard
350
1484
  0
DICTIONARY
  5
E
102
{ACAD_REACTORS
330
C
102
}
330
C
100
AcDbDictionary
281
     1
  3
STANDARD
350
1C
1001
ACAD
1000
TREAT_AS_HARD
1070
     0
  0
DICTIONARY
  5
A86
102
{ACAD_REACTORS
330
C
102
}
330
C
100
AcDbDictionary
281
     1
1001
ACAD
1000
TREAT_AS_HARD
1070
     0
  0
ACDBDICTIONARYWDFLT
  5
E93
102
{ACAD_REACTORS
330
C
102
}
330
C
100
AcDbDictionary
281
     1
  3
Normal
350
E94
100
AcDbDictionaryWithDefault
340
E94
  0
DICTIONARY
  5
1461
102
{ACAD_REACTORS
330
C
102
}
330
C
100
AcDbDictionary
281
     1
  3
A0
350
1462
  3
A1
350
1463
  3
A2
350
1464
  3
A3
350
1465
  3
A4
350
1466
  3
A5
350
1467
  3
A6
350
1468
  3
A7
350
1469
  3
A8
350
146A
  3
A9
350
146B
  3
B0
350
146C
  3
B1
350
146D
  3
B2
350
146E
  3
B3
350
146F
  3
B4
350
1470
  3
B5
350
1471
  3
B6
350
1472
  3
B7
350
1473
  3
B8
350
1474
  3
B9
350
1475
  3
C0
350
1476
  3
C1
350
1477
  3
C2
350
1478
  3
C3
350
1479
  3
C4
350
147A
  3
C5
350
147B
  3
C6
350
147C
  3
C7
350
147D
  3
C8
350
147E
  3
C9
350
147F
  3
D0
350
1480
  3
D1
350
1481
  3
D2
350
1482
  0
DICTIONARY
  5
12A0
102
{ACAD_REACTORS
330
C
102
}
330
C
100
AcDbDictionary
281
     1
  3
Standard
350
12A1
  0
DICTIONARY
  5
128E
102
{ACAD_REACTORS
330
C
102
}
330
C
100
AcDbDictionary
281
     1
  3
2dWireframe
350
1294
  3
3D Hidden
350
1296
  3
3dWireframe
350
1295
  3
Basic
350
1293
  3
Brighten
350
129A
  3
ColorChange
350
129E
  3
Conceptual
350
1297
  3
Dim
350
1299
  3
Facepattern
350
129D
  3
Flat
350
128F
  3
FlatWithEdges
350
1290
  3
Gouraud
350
1291
  3
GouraudWithEdges
350
1292
  3
Linepattern
350
129C
  3
Realistic
350
1298
  3
Thicken
350
129B
  0
XRECORD
  5
14AC
102
{ACAD_REACTORS
330
C
102
}
330
C
100
AcDbXrecord
280
     1
 90
        1
330
12A1
  0
DICTIONARY
  5
1433
102
{ACAD_REACTORS
330
C
102
}
330
C
100
AcDbDictionary
281
     1
  3
CANNOSCALE
350
14A9
  3
CMLEADERSTYLE
350
14A8
  3
CTABLESTYLE
350
1434
  3
DIMASSOC
350
1437
  3
INDEXCTL
350
1436
  3
SORTENTS
350
1435
  0
XRECORD
  5
43D7
102
{ACAD_REACTORS
330
C
102
}
330
C
100
AcDbXrecord
280
     1
  1
DWGPROPS COOKIE
  2

  3

  4

  6

  7

  8
inpunamok
  9

300
=
301
=
302
=
303
=
304
=
305
=
306
=
307
=
308
=
309
=
 40
0.2028837731481481
 41
2455495.43569007
 42
2455597.630587708
  1

 90
        0
  0
XRECORD
  5
148B
102
{ACAD_REACTORS
330
148A
102
}
330
148A
100
AcDbXrecord
280
     1
290
     1
  0
XRECORD
  5
148D
102
{ACAD_REACTORS
330
148C
102
}
330
148C
100
AcDbXrecord
280
     1
290
     1
  0
XRECORD
  5
148F
102
{ACAD_REACTORS
330
148E
102
}
330
148E
100
AcDbXrecord
280
     1
290
     1
  0
XRECORD
  5
1491
102
{ACAD_REACTORS
330
1490
102
}
330
1490
100
AcDbXrecord
280
     1
290
     1
  0
XRECORD
  5
1493
102
{ACAD_REACTORS
330
1492
102
}
330
1492
100
AcDbXrecord
280
     1
290
     1
  0
XRECORD
  5
1495
102
{ACAD_REACTORS
330
1494
102
}
330
1494
100
AcDbXrecord
280
     1
290
     1
  0
XRECORD
  5
1497
102
{ACAD_REACTORS
330
1496
102
}
330
1496
100
AcDbXrecord
280
     1
290
     1
  0
XRECORD
  5
1499
102
{ACAD_REACTORS
330
1498
102
}
330
1498
100
AcDbXrecord
280
     1
290
     1
  0
XRECORD
  5
149B
102
{ACAD_REACTORS
330
149A
102
}
330
149A
100
AcDbXrecord
280
     1
290
     1
  0
XRECORD
  5
149D
102
{ACAD_REACTORS
330
149C
102
}
330
149C
100
AcDbXrecord
280
     1
290
     1
  0
XRECORD
  5
149F
102
{ACAD_REACTORS
330
149E
102
}
330
149E
100
AcDbXrecord
280
     1
290
     1
  0
XRECORD
  5
14A1
102
{ACAD_REACTORS
330
14A0
102
}
330
14A0
100
AcDbXrecord
280
     1
290
     1
  0
XRECORD
  5
14A3
102
{ACAD_REACTORS
330
14A2
102
}
330
14A2
100
AcDbXrecord
280
     1
290
     1
  0
XRECORD
  5
14A5
102
{ACAD_REACTORS
330
14A4
102
}
330
14A4
100
AcDbXrecord
280
     1
290
     1
  0
XRECORD
  5
14A7
102
{ACAD_REACTORS
330
14A6
102
}
330
14A6
100
AcDbXrecord
280
     1
290
     1
  0
SORTENTSTABLE
  5
2AE4
102
{ACAD_REACTORS
330
E8D
102
}
330
E8D
100
AcDbSortentsTable
330
19
331
1431
  5
1431
  0
LAYOUT
  5
E96
102
{ACAD_XDICTIONARY
360
43DA
102
}
102
{ACAD_REACTORS
330
A85
102
}
330
A85
100
AcDbPlotSettings
  1

  2
\\SECO_TOOLS\Q_HP8100_WMM.LANDSKAP.PL1.HUS_A.FAGERSTA.SE.SECO_TOOLS
  4

  6

 40
0.0
 41
0.0
 42
0.0
 43
0.0
 44
0.0
 45
0.0
 46
0.0
 47
0.0
 48
0.0
 49
0.0
140
0.0
141
0.0
142
1.0
143
1.0
 70
   688
 72
     0
 73
     0
 74
     5
  7

 75
    16
147
1.0
148
0.0
149
0.0
100
AcDbLayout
  1
Layout1
 70
     0
 71
     1
 10
0.0
 20
0.0
 11
12.0
 21
9.0
 12
0.0
 22
0.0
 32
0.0
 14
1.000000000000000E+20
 24
1.000000000000000E+20
 34
1.000000000000000E+20
 15
-1.000000000000000E+20
 25
-1.000000000000000E+20
 35
-1.000000000000000E+20
146
0.0
 13
0.0
 23
0.0
 33
0.0
 16
1.0
 26
0.0
 36
0.0
 17
0.0
 27
1.0
 37
0.0
 76
     0
330
16
  0
LAYOUT
  5
E95
102
{ACAD_XDICTIONARY
360
43D8
102
}
102
{ACAD_REACTORS
330
A85
102
}
330
A85
100
AcDbPlotSettings
  1

  2
\\SECO_TOOLS\Q_HP8100_WMM.LANDSKAP.PL1.HUS_A.FAGERSTA.SE.SECO_TOOLS
  4

  6

 40
0.0
 41
0.0
 42
0.0
 43
0.0
 44
0.0
 45
0.0
 46
0.0
 47
0.0
 48
0.0
 49
0.0
140
0.0
141
0.0
142
1.0
143
1.0
 70
  1712
 72
     0
 73
     0
 74
     0
  7

 75
     0
147
1.0
148
0.0
149
0.0
100
AcDbLayout
  1
Model
 70
     1
 71
     0
 10
0.0
 20
0.0
 11
12.0
 21
9.0
 12
0.0
 22
0.0
 32
0.0
 14
0.0
 24
0.0
 34
0.0
 15
0.0
 25
0.0
 35
0.0
146
0.0
 13
0.0
 23
0.0
 33
0.0
 16
1.0
 26
0.0
 36
0.0
 17
0.0
 27
1.0
 37
0.0
 76
     0
330
19
331
1288
  0
MATERIAL
  5
128C
102
{ACAD_XDICTIONARY
360
144C
102
}
102
{ACAD_REACTORS
330
128A
102
}
330
128A
100
AcDbMaterial
  1
ByBlock
  0
MATERIAL
  5
128B
102
{ACAD_XDICTIONARY
360
144A
102
}
102
{ACAD_REACTORS
330
128A
102
}
330
128A
100
AcDbMaterial
  1
ByLayer
  0
MATERIAL
  5
128D
102
{ACAD_XDICTIONARY
360
144E
102
}
102
{ACAD_REACTORS
330
128A
102
}
330
128A
100
AcDbMaterial
  1
Global
  0
MLEADERSTYLE
  5
1484
102
{ACAD_REACTORS
330
1483
102
}
330
1483
100
AcDbMLeaderStyle
170
     2
171
     1
172
     0
 90
        2
 40
0.0
 41
0.0
173
     1
 91
-1056964608
340
13
 92
       -2
290
     1
 42
2.0
291
     1
 43
0.36
  3
Standard
 44
4.0
300

342
10
174
     1
178
     6
175
     1
176
     0
 93
-1056964608
 45
4.0
292
     0
297
     0
 46
4.0
 94
-1056964608
 47
1.0
 49
1.0
140
1.0
293
     1
141
0.0
294
     1
177
     0
142
1.0
295
     0
296
     0
143
0.125
1001
ACAD_MLEADERVER
1070
     2
  0
MLINESTYLE
  5
1C
102
{ACAD_REACTORS
330
E
102
}
330
E
100
AcDbMlineStyle
  2
STANDARD
 70
     0
  3

 62
     0
 51
90.0
 52
90.0
 71
     2
 49
0.5
 62
   256
  6
BYLAYER
 49
-0.5
 62
   256
  6
BYLAYER
  0
ACDBPLACEHOLDER
  5
E94
102
{ACAD_REACTORS
330
E93
102
}
330
E93
  0
SCALE
  5
1462
102
{ACAD_REACTORS
330
1461
102
}
330
1461
100
AcDbScale
 70
     0
300
1:1
140
1.0
141
1.0
290
     1
  0
SCALE
  5
1463
102
{ACAD_REACTORS
330
1461
102
}
330
1461
100
AcDbScale
 70
     0
300
1:2
140
1.0
141
2.0
290
     0
  0
SCALE
  5
1464
102
{ACAD_REACTORS
330
1461
102
}
330
1461
100
AcDbScale
 70
     0
300
1:4
140
1.0
141
4.0
290
     0
  0
SCALE
  5
1465
102
{ACAD_REACTORS
330
1461
102
}
330
1461
100
AcDbScale
 70
     0
300
1:5
140
1.0
141
5.0
290
     0
  0
SCALE
  5
1466
102
{ACAD_REACTORS
330
1461
102
}
330
1461
100
AcDbScale
 70
     0
300
1:8
140
1.0
141
8.0
290
     0
  0
SCALE
  5
1467
102
{ACAD_REACTORS
330
1461
102
}
330
1461
100
AcDbScale
 70
     0
300
1:10
140
1.0
141
10.0
290
     0
  0
SCALE
  5
1468
102
{ACAD_REACTORS
330
1461
102
}
330
1461
100
AcDbScale
 70
     0
300
1:16
140
1.0
141
16.0
290
     0
  0
SCALE
  5
1469
102
{ACAD_REACTORS
330
1461
102
}
330
1461
100
AcDbScale
 70
     0
300
1:20
140
1.0
141
20.0
290
     0
  0
SCALE
  5
146A
102
{ACAD_REACTORS
330
1461
102
}
330
1461
100
AcDbScale
 70
     0
300
1:30
140
1.0
141
30.0
290
     0
  0
SCALE
  5
146B
102
{ACAD_REACTORS
330
1461
102
}
330
1461
100
AcDbScale
 70
     0
300
1:40
140
1.0
141
40.0
290
     0
  0
SCALE
  5
146C
102
{ACAD_REACTORS
330
1461
102
}
330
1461
100
AcDbScale
 70
     0
300
1:50
140
1.0
141
50.0
290
     0
  0
SCALE
  5
146D
102
{ACAD_REACTORS
330
1461
102
}
330
1461
100
AcDbScale
 70
     0
300
1:100
140
1.0
141
100.0
290
     0
  0
SCALE
  5
146E
102
{ACAD_REACTORS
330
1461
102
}
330
1461
100
AcDbScale
 70
     0
300
2:1
140
2.0
141
1.0
290
     0
  0
SCALE
  5
146F
102
{ACAD_REACTORS
330
1461
102
}
330
1461
100
AcDbScale
 70
     0
300
4:1
140
4.0
141
1.0
290
     0
  0
SCALE
  5
1470
102
{ACAD_REACTORS
330
1461
102
}
330
1461
100
AcDbScale
 70
     0
300
8:1
140
8.0
141
1.0
290
     0
  0
SCALE
  5
1471
102
{ACAD_REACTORS
330
1461
102
}
330
1461
100
AcDbScale
 70
     0
300
10:1
140
10.0
141
1.0
290
     0
  0
SCALE
  5
1472
102
{ACAD_REACTORS
330
1461
102
}
330
1461
100
AcDbScale
 70
     0
300
100:1
140
100.0
141
1.0
290
     0
  0
SCALE
  5
1473
102
{ACAD_REACTORS
330
1461
102
}
330
1461
100
AcDbScale
 70
     0
300
1/128" = 1'-0"
140
0.0078125
141
12.0
290
     0
  0
SCALE
  5
1474
102
{ACAD_REACTORS
330
1461
102
}
330
1461
100
AcDbScale
 70
     0
300
1/64" = 1'-0"
140
0.015625
141
12.0
290
     0
  0
SCALE
  5
1475
102
{ACAD_REACTORS
330
1461
102
}
330
1461
100
AcDbScale
 70
     0
300
1/32" = 1'-0"
140
0.03125
141
12.0
290
     0
  0
SCALE
  5
1476
102
{ACAD_REACTORS
330
1461
102
}
330
1461
100
AcDbScale
 70
     0
300
1/16" = 1'-0"
140
0.0625
141
12.0
290
     0
  0
SCALE
  5
1477
102
{ACAD_REACTORS
330
1461
102
}
330
1461
100
AcDbScale
 70
     0
300
3/32" = 1'-0"
140
0.09375
141
12.0
290
     0
  0
SCALE
  5
1478
102
{ACAD_REACTORS
330
1461
102
}
330
1461
100
AcDbScale
 70
     0
300
1/8" = 1'-0"
140
0.125
141
12.0
290
     0
  0
SCALE
  5
1479
102
{ACAD_REACTORS
330
1461
102
}
330
1461
100
AcDbScale
 70
     0
300
3/16" = 1'-0"
140
0.1875
141
12.0
290
     0
  0
SCALE
  5
147A
102
{ACAD_REACTORS
330
1461
102
}
330
1461
100
AcDbScale
 70
     0
300
1/4" = 1'-0"
140
0.25
141
12.0
290
     0
  0
SCALE
  5
147B
102
{ACAD_REACTORS
330
1461
102
}
330
1461
100
AcDbScale
 70
     0
300
3/8" = 1'-0"
140
0.375
141
12.0
290
     0
  0
SCALE
  5
147C
102
{ACAD_REACTORS
330
1461
102
}
330
1461
100
AcDbScale
 70
     0
300
1/2" = 1'-0"
140
0.5
141
12.0
290
     0
  0
SCALE
  5
147D
102
{ACAD_REACTORS
330
1461
102
}
330
1461
100
AcDbScale
 70
     0
300
3/4" = 1'-0"
140
0.75
141
12.0
290
     0
  0
SCALE
  5
147E
102
{ACAD_REACTORS
330
1461
102
}
330
1461
100
AcDbScale
 70
     0
300
1" = 1'-0"
140
1.0
141
12.0
290
     0
  0
SCALE
  5
147F
102
{ACAD_REACTORS
330
1461
102
}
330
1461
100
AcDbScale
 70
     0
300
1-1/2" = 1'-0"
140
1.5
141
12.0
290
     0
  0
SCALE
  5
1480
102
{ACAD_REACTORS
330
1461
102
}
330
1461
100
AcDbScale
 70
     0
300
3" = 1'-0"
140
3.0
141
12.0
290
     0
  0
SCALE
  5
1481
102
{ACAD_REACTORS
330
1461
102
}
330
1461
100
AcDbScale
 70
     0
300
6" = 1'-0"
140
6.0
141
12.0
290
     0
  0
SCALE
  5
1482
102
{ACAD_REACTORS
330
1461
102
}
330
1461
100
AcDbScale
 70
     0
300
1'-0" = 1'-0"
140
12.0
141
12.0
290
     0
  0
TABLESTYLE
  5
12A1
102
{ACAD_XDICTIONARY
360
14AA
102
}
102
{ACAD_REACTORS
330
12A0
102
}
330
12A0
100
AcDbTableStyle
  3
Standard
 70
     0
 71
     0
 40
1.5
 41
1.5
280
     0
281
     0
  7
STANDARD
140
4.5
170
     2
 62
     0
 63
     7
283
     0
274
    -2
284
     1
 64
     0
275
    -2
285
     1
 65
     0
276
    -2
286
     1
 66
     0
277
    -2
287
     1
 67
     0
278
    -2
288
     1
 68
     0
279
    -2
289
     1
 69
     0
  7
STANDARD
140
6.0
170
     5
 62
     0
 63
     7
283
     0
274
    -2
284
     1
 64
     0
275
    -2
285
     1
 65
     0
276
    -2
286
     1
 66
     0
277
    -2
287
     1
 67
     0
278
    -2
288
     1
 68
     0
279
    -2
289
     1
 69
     0
  7
STANDARD
140
4.5
170
     5
 62
     0
 63
     7
283
     0
274
    -2
284
     1
 64
     0
275
    -2
285
     1
 65
     0
276
    -2
286
     1
 66
     0
277
    -2
287
     1
 67
     0
278
    -2
288
     1
 68
     0
279
    -2
289
     1
 69
     0
  0
VISUALSTYLE
  5
1294
102
{ACAD_REACTORS
330
128E
102
}
330
128E
100
AcDbVisualStyle
  2
2dWireframe
 70
     4
 71
     0
 72
     2
 73
     0
 90
        0
 40
-0.6
 41
-30.0
 62
     5
 63
     7
 74
     1
 91
        4
 64
     7
 65
   257
 75
     1
175
     1
 42
1.0
 92
        0
 66
   257
 43
1.0
 76
     1
 77
     6
 78
     2
 67
     7
 79
     5
170
     0
171
     0
290
     0
174
     0
 93
        1
 44
0.0
173
     0
291
     0
 45
0.0
1001
ACAD
1000
AcDbSavedByObjectVersion
1070
     0
1000
AcDbSavedByObjectVersion
1070
     0
1000
AcDbSavedByObjectVersion
1070
     0
1000
AcDbSavedByObjectVersion
1070
     0
1000
AcDbSavedByObjectVersion
1070
     0
1000
AcDbSavedByObjectVersion
1070
     0
1000
AcDbSavedByObjectVersion
1070
     0
  0
VISUALSTYLE
  5
1296
102
{ACAD_REACTORS
330
128E
102
}
330
128E
100
AcDbVisualStyle
  2
3D Hidden
 70
     6
 71
     1
 72
     2
 73
     2
 90
        0
 40
-0.6
 41
-30.0
 62
     5
 63
     7
 74
     2
 91
        2
 64
     7
 65
   257
 75
     2
175
     1
 42
40.0
 92
        0
 66
   257
 43
1.0
 76
     1
 77
     6
 78
     2
 67
     7
 79
     3
170
     0
171
     0
290
     0
174
     0
 93
        1
 44
0.0
173
     0
291
     0
 45
0.0
1001
ACAD
1000
AcDbSavedByObjectVersion
1070
     0
1000
AcDbSavedByObjectVersion
1070
     0
1000
AcDbSavedByObjectVersion
1070
     0
1000
AcDbSavedByObjectVersion
1070
     0
1000
AcDbSavedByObjectVersion
1070
     0
1000
AcDbSavedByObjectVersion
1070
     0
1000
AcDbSavedByObjectVersion
1070
     0
  0
VISUALSTYLE
  5
1295
102
{ACAD_REACTORS
330
128E
102
}
330
128E
100
AcDbVisualStyle
  2
3dWireframe
 70
     5
 71
     0
 72
     2
 73
     0
 90
        0
 40
-0.6
 41
-30.0
 62
     5
 63
     7
 74
     1
 91
        4
 64
     7
 65
   257
 75
     1
175
     1
 42
1.0
 92
        0
 66
   257
 43
1.0
 76
     1
 77
     6
 78
     2
 67
     7
 79
     5
170
     0
171
     0
290
     0
174
     0
 93
        1
 44
0.0
173
     0
291
     0
 45
0.0
1001
ACAD
1000
AcDbSavedByObjectVersion
1070
     0
1000
AcDbSavedByObjectVersion
1070
     0
1000
AcDbSavedByObjectVersion
1070
     0
1000
AcDbSavedByObjectVersion
1070
     0
1000
AcDbSavedByObjectVersion
1070
     0
1000
AcDbSavedByObjectVersion
1070
     0
1000
AcDbSavedByObjectVersion
1070
     0
  0
VISUALSTYLE
  5
1293
102
{ACAD_REACTORS
330
128E
102
}
330
128E
100
AcDbVisualStyle
  2
Basic
 70
     7
 71
     1
 72
     0
 73
     1
 90
        0
 40
-0.6
 41
-30.0
 62
     5
 63
     7
 74
     0
 91
        4
 64
     7
 65
   257
 75
     1
175
     1
 42
1.0
 92
        8
 66
     7
 43
1.0
 76
     1
 77
     6
 78
     2
 67
     7
 79
     5
170
     0
171
     0
290
     0
174
     0
 93
        1
 44
0.0
173
     0
291
     1
 45
0.0
1001
ACAD
1000
AcDbSavedByObjectVersion
1070
     0
1000
AcDbSavedByObjectVersion
1070
     0
1000
AcDbSavedByObjectVersion
1070
     0
1000
AcDbSavedByObjectVersion
1070
     0
1000
AcDbSavedByObjectVersion
1070
     0
1000
AcDbSavedByObjectVersion
1070
     0
1000
AcDbSavedByObjectVersion
1070
     0
  0
VISUALSTYLE
  5
129A
102
{ACAD_REACTORS
330
128E
102
}
330
128E
100
AcDbVisualStyle
  2
Brighten
 70
    12
 71
     2
 72
     2
 73
     0
 90
        0
 40
-0.6
 41
-30.0
 62
     5
 63
     7
 74
     1
 91
        4
 64
     7
 65
   257
 75
     1
175
     1
 42
1.0
 92
        8
 66
     7
 43
1.0
 76
     1
 77
     6
 78
     2
 67
     7
 79
     5
170
     0
171
     0
290
     0
174
     0
 93
        1
 44
50.0
173
     0
291
     1
 45
0.0
1001
ACAD
1000
AcDbSavedByObjectVersion
1070
     0
1000
AcDbSavedByObjectVersion
1070
     0
1000
AcDbSavedByObjectVersion
1070
     0
1000
AcDbSavedByObjectVersion
1070
     0
1000
AcDbSavedByObjectVersion
1070
     0
1000
AcDbSavedByObjectVersion
1070
     0
1000
AcDbSavedByObjectVersion
1070
     0
  0
VISUALSTYLE
  5
129E
102
{ACAD_REACTORS
330
128E
102
}
330
128E
100
AcDbVisualStyle
  2
ColorChange
 70
    16
 71
     2
 72
     2
 73
     3
 90
        0
 40
-0.6
 41
-30.0
 62
     5
 63
     8
 74
     1
 91
        4
 64
     7
 65
   257
 75
     1
175
     1
 42
1.0
 92
        8
 66
     8
 43
1.0
 76
     1
 77
     6
 78
     2
 67
     7
 79
     5
170
     0
171
     0
290
     0
174
     0
 93
        1
 44
0.0
173
     0
291
     1
 45
0.0
1001
ACAD
1000
AcDbSavedByObjectVersion
1070
     0
1000
AcDbSavedByObjectVersion
1070
     0
1000
AcDbSavedByObjectVersion
1070
     0
1000
AcDbSavedByObjectVersion
1070
     0
1000
AcDbSavedByObjectVersion
1070
     0
1000
AcDbSavedByObjectVersion
1070
     0
1000
AcDbSavedByObjectVersion
1070
     0
  0
VISUALSTYLE
  5
1297
102
{ACAD_REACTORS
330
128E
102
}
330
128E
100
AcDbVisualStyle
  2
Conceptual
 70
     9
 71
     3
 72
     2
 73
     0
 90
        0
 40
-0.6
 41
-30.0
 62
     5
 63
     7
 74
     2
 91
        2
 64
     7
 65
   257
 75
     1
175
     1
 42
40.0
 92
        8
 66
     7
 43
1.0
 76
     1
 77
     6
 78
     2
 67
     7
 79
     3
170
     0
171
     0
290
     0
174
     0
 93
        1
 44
0.0
173
     0
291
     0
 45
0.0
1001
ACAD
1000
AcDbSavedByObjectVersion
1070
     0
1000
AcDbSavedByObjectVersion
1070
     0
1000
AcDbSavedByObjectVersion
1070
     0
1000
AcDbSavedByObjectVersion
1070
     0
1000
AcDbSavedByObjectVersion
1070
     0
1000
AcDbSavedByObjectVersion
1070
     0
1000
AcDbSavedByObjectVersion
1070
     0
  0
VISUALSTYLE
  5
1299
102
{ACAD_REACTORS
330
128E
102
}
330
128E
100
AcDbVisualStyle
  2
Dim
 70
    11
 71
     2
 72
     2
 73
     0
 90
        0
 40
-0.6
 41
-30.0
 62
     5
 63
     7
 74
     1
 91
        4
 64
     7
 65
   257
 75
     1
175
     1
 42
1.0
 92
        8
 66
     7
 43
1.0
 76
     1
 77
     6
 78
     2
 67
     7
 79
     5
170
     0
171
     0
290
     0
174
     0
 93
        1
 44
-50.0
173
     0
291
     1
 45
0.0
1001
ACAD
1000
AcDbSavedByObjectVersion
1070
     0
1000
AcDbSavedByObjectVersion
1070
     0
1000
AcDbSavedByObjectVersion
1070
     0
1000
AcDbSavedByObjectVersion
1070
     0
1000
AcDbSavedByObjectVersion
1070
     0
1000
AcDbSavedByObjectVersion
1070
     0
1000
AcDbSavedByObjectVersion
1070
     0
  0
VISUALSTYLE
  5
129D
102
{ACAD_REACTORS
330
128E
102
}
330
128E
100
AcDbVisualStyle
  2
Facepattern
 70
    15
 71
     2
 72
     2
 73
     0
 90
        0
 40
-0.6
 41
-30.0
 62
     5
 63
     7
 74
     1
 91
        4
 64
     7
 65
   257
 75
     1
175
     1
 42
1.0
 92
        8
 66
     7
 43
1.0
 76
     1
 77
     6
 78
     2
 67
     7
 79
     5
170
     0
171
     0
290
     0
174
     0
 93
        1
 44
0.0
173
     0
291
     1
 45
0.0
1001
ACAD
1000
AcDbSavedByObjectVersion
1070
     0
1000
AcDbSavedByObjectVersion
1070
     0
1000
AcDbSavedByObjectVersion
1070
     0
1000
AcDbSavedByObjectVersion
1070
     0
1000
AcDbSavedByObjectVersion
1070
     0
1000
AcDbSavedByObjectVersion
1070
     0
1000
AcDbSavedByObjectVersion
1070
     0
  0
VISUALSTYLE
  5
128F
102
{ACAD_REACTORS
330
128E
102
}
330
128E
100
AcDbVisualStyle
  2
Flat
 70
     0
 71
     2
 72
     1
 73
     1
 90
        2
 40
-0.6
 41
30.0
 62
     5
 63
     7
 74
     0
 91
        4
 64
     7
 65
   257
 75
     1
175
     1
 42
1.0
 92
        8
 66
     7
 43
1.0
 76
     1
 77
     6
 78
     2
 67
     7
 79
     5
170
     0
171
     0
290
     0
174
     0
 93
       13
 44
0.0
173
     0
291
     1
 45
0.0
1001
ACAD
1000
AcDbSavedByObjectVersion
1070
     0
1000
AcDbSavedByObjectVersion
1070
     0
1000
AcDbSavedByObjectVersion
1070
     0
1000
AcDbSavedByObjectVersion
1070
     0
1000
AcDbSavedByObjectVersion
1070
     0
1000
AcDbSavedByObjectVersion
1070
     0
1000
AcDbSavedByObjectVersion
1070
     0
  0
VISUALSTYLE
  5
1290
102
{ACAD_REACTORS
330
128E
102
}
330
128E
100
AcDbVisualStyle
  2
FlatWithEdges
 70
     1
 71
     2
 72
     1
 73
     1
 90
        2
 40
-0.6
 41
30.0
 62
     5
 63
     7
 74
     1
 91
        4
 64
     7
 65
   257
 75
     1
175
     1
 42
1.0
 92
        0
 66
   257
 43
1.0
 76
     1
 77
     6
 78
     2
 67
     7
 79
     5
170
     0
171
     0
290
     0
174
     0
 93
       13
 44
0.0
173
     0
291
     1
 45
0.0
1001
ACAD
1000
AcDbSavedByObjectVersion
1070
     0
1000
AcDbSavedByObjectVersion
1070
     0
1000
AcDbSavedByObjectVersion
1070
     0
1000
AcDbSavedByObjectVersion
1070
     0
1000
AcDbSavedByObjectVersion
1070
     0
1000
AcDbSavedByObjectVersion
1070
     0
1000
AcDbSavedByObjectVersion
1070
     0
  0
VISUALSTYLE
  5
1291
102
{ACAD_REACTORS
330
128E
102
}
330
128E
100
AcDbVisualStyle
  2
Gouraud
 70
     2
 71
     2
 72
     2
 73
     1
 90
        2
 40
-0.6
 41
30.0
 62
     5
 63
     7
 74
     0
 91
        4
 64
     7
 65
   257
 75
     1
175
     1
 42
1.0
 92
        0
 66
     7
 43
1.0
 76
     1
 77
     6
 78
     2
 67
     7
 79
     5
170
     0
171
     0
290
     0
174
     0
 93
       13
 44
0.0
173
     0
291
     1
 45
0.0
1001
ACAD
1000
AcDbSavedByObjectVersion
1070
     0
1000
AcDbSavedByObjectVersion
1070
     0
1000
AcDbSavedByObjectVersion
1070
     0
1000
AcDbSavedByObjectVersion
1070
     0
1000
AcDbSavedByObjectVersion
1070
     0
1000
AcDbSavedByObjectVersion
1070
     0
1000
AcDbSavedByObjectVersion
1070
     0
  0
VISUALSTYLE
  5
1292
102
{ACAD_REACTORS
330
128E
102
}
330
128E
100
AcDbVisualStyle
  2
GouraudWithEdges
 70
     3
 71
     2
 72
     2
 73
     1
 90
        2
 40
-0.6
 41
30.0
 62
     5
 63
     7
 74
     1
 91
        4
 64
     7
 65
   257
 75
     1
175
     1
 42
1.0
 92
        0
 66
   257
 43
1.0
 76
     1
 77
     6
 78
     2
 67
     7
 79
     5
170
     0
171
     0
290
     0
174
     0
 93
       13
 44
0.0
173
     0
291
     1
 45
0.0
1001
ACAD
1000
AcDbSavedByObjectVersion
1070
     0
1000
AcDbSavedByObjectVersion
1070
     0
1000
AcDbSavedByObjectVersion
1070
     0
1000
AcDbSavedByObjectVersion
1070
     0
1000
AcDbSavedByObjectVersion
1070
     0
1000
AcDbSavedByObjectVersion
1070
     0
1000
AcDbSavedByObjectVersion
1070
     0
  0
VISUALSTYLE
  5
129C
102
{ACAD_REACTORS
330
128E
102
}
330
128E
100
AcDbVisualStyle
  2
Linepattern
 70
    14
 71
     2
 72
     2
 73
     0
 90
        0
 40
-0.6
 41
-30.0
 62
     5
 63
     7
 74
     1
 91
        4
 64
     7
 65
   257
 75
     7
175
     7
 42
1.0
 92
        8
 66
     7
 43
1.0
 76
     1
 77
     6
 78
     2
 67
     7
 79
     5
170
     0
171
     0
290
     0
174
     0
 93
        1
 44
0.0
173
     0
291
     1
 45
0.0
1001
ACAD
1000
AcDbSavedByObjectVersion
1070
     0
1000
AcDbSavedByObjectVersion
1070
     0
1000
AcDbSavedByObjectVersion
1070
     0
1000
AcDbSavedByObjectVersion
1070
     0
1000
AcDbSavedByObjectVersion
1070
     0
1000
AcDbSavedByObjectVersion
1070
     0
1000
AcDbSavedByObjectVersion
1070
     0
  0
VISUALSTYLE
  5
1298
102
{ACAD_REACTORS
330
128E
102
}
330
128E
100
AcDbVisualStyle
  2
Realistic
 70
     8
 71
     2
 72
     2
 73
     0
 90
        0
 40
-0.6
 41
-30.0
 62
     5
 63
     7
 74
     1
 91
        0
 64
     7
 65
   257
 75
     1
175
     1
 42
1.0
 92
        8
 66
     8
 43
1.0
 76
     1
 77
     6
 78
     2
 67
     7
 79
     5
170
     0
171
     0
290
     0
174
     0
 93
       13
 44
0.0
173
     0
291
     0
 45
0.0
1001
ACAD
1000
AcDbSavedByObjectVersion
1070
     0
1000
AcDbSavedByObjectVersion
1070
     0
1000
AcDbSavedByObjectVersion
1070
     0
1000
AcDbSavedByObjectVersion
1070
     0
1000
AcDbSavedByObjectVersion
1070
     0
1000
AcDbSavedByObjectVersion
1070
     0
1000
AcDbSavedByObjectVersion
1070
     0
  0
VISUALSTYLE
  5
129B
102
{ACAD_REACTORS
330
128E
102
}
330
128E
100
AcDbVisualStyle
  2
Thicken
 70
    13
 71
     2
 72
     2
 73
     0
 90
        0
 40
-0.6
 41
-30.0
 62
     5
 63
     7
 74
     1
 91
        4
 64
     7
 65
   257
 75
     1
175
     1
 42
1.0
 92
       12
 66
     7
 43
1.0
 76
     1
 77
     6
 78
     2
 67
     7
 79
     5
170
     0
171
     0
290
     0
174
     0
 93
        1
 44
0.0
173
     0
291
     1
 45
0.0
1001
ACAD
1000
AcDbSavedByObjectVersion
1070
     0
1000
AcDbSavedByObjectVersion
1070
     0
1000
AcDbSavedByObjectVersion
1070
     0
1000
AcDbSavedByObjectVersion
1070
     0
1000
AcDbSavedByObjectVersion
1070
     0
1000
AcDbSavedByObjectVersion
1070
     0
1000
AcDbSavedByObjectVersion
1070
     0
  0
DICTIONARYVAR
  5
14A9
102
{ACAD_REACTORS
330
1433
102
}
330
1433
100
DictionaryVariables
280
     0
  1
1:1
  0
DICTIONARYVAR
  5
14A8
102
{ACAD_REACTORS
330
1433
102
}
330
1433
100
DictionaryVariables
280
     0
  1
STANDARD
  0
DICTIONARYVAR
  5
1434
102
{ACAD_REACTORS
330
1433
102
}
330
1433
100
DictionaryVariables
280
     0
  1
STANDARD
  0
DICTIONARYVAR
  5
1437
102
{ACAD_REACTORS
330
1433
102
}
330
1433
100
DictionaryVariables
280
     0
  1
1
  0
DICTIONARYVAR
  5
1436
102
{ACAD_REACTORS
330
1433
102
}
330
1433
100
DictionaryVariables
280
     0
  1
0
  0
DICTIONARYVAR
  5
1435
102
{ACAD_REACTORS
330
1433
102
}
330
1433
100
DictionaryVariables
280
     0
  1
127
  0
DICTIONARY
  5
43DA
330
E96
100
AcDbDictionary
280
     1
281
     1
  3
ACAD_XREC_ROUNDTRIP
360
43DB
  0
DICTIONARY
  5
43D8
330
E95
100
AcDbDictionary
280
     1
281
     1
  3
ACAD_XREC_ROUNDTRIP
360
43D9
  0
DICTIONARY
  5
144C
330
128C
100
AcDbDictionary
280
     1
281
     1
  3
ACAD_XREC_ROUNDTRIP
360
144D
  0
DICTIONARY
  5
144A
330
128B
100
AcDbDictionary
280
     1
281
     1
  3
ACAD_XREC_ROUNDTRIP
360
144B
  0
DICTIONARY
  5
144E
330
128D
100
AcDbDictionary
280
     1
281
     1
  3
ACAD_XREC_ROUNDTRIP
360
144F
  0
DICTIONARY
  5
14AA
330
12A1
100
AcDbDictionary
280
     1
281
     1
  3
ACAD_ROUNDTRIP_2008_TABLESTYLE_CELLSTYLEMAP
360
43D6
  3
ACAD_XREC_ROUNDTRIP
360
43DC
  0
XRECORD
  5
43DB
102
{ACAD_REACTORS
330
43DA
102
}
330
43DA
100
AcDbXrecord
280
     1
102
SHADEPLOT
 70
     0
102
SHADEPLOTRESLEVEL
 70
     2
102
SHADEPLOTCUSTOMDPI
 70
   300
  0
XRECORD
  5
43D9
102
{ACAD_REACTORS
330
43D8
102
}
330
43D8
100
AcDbXrecord
280
     1
102
SHADEPLOT
 70
     0
102
SHADEPLOTRESLEVEL
 70
     2
102
SHADEPLOTCUSTOMDPI
 70
   300
  0
XRECORD
  5
144D
102
{ACAD_REACTORS
330
144C
102
}
330
144C
100
AcDbXrecord
280
     1
102
MATERIAL
148
0.0
149
0.0
149
0.0
 93
        0
 94
      127
282
     0
 72
     1
 77
     1
171
     1
175
     1
179
     1
273
     0
  0
XRECORD
  5
144B
102
{ACAD_REACTORS
330
144A
102
}
330
144A
100
AcDbXrecord
280
     1
102
MATERIAL
148
0.0
149
0.0
149
0.0
 93
        0
 94
      127
282
     0
 72
     1
 77
     1
171
     1
175
     1
179
     1
273
     0
  0
XRECORD
  5
144F
102
{ACAD_REACTORS
330
144E
102
}
330
144E
100
AcDbXrecord
280
     1
102
MATERIAL
148
0.0
149
0.0
149
0.0
 93
        0
 94
      127
282
     0
 72
     1
 77
     1
171
     1
175
     1
179
     1
273
     0
  0
CELLSTYLEMAP
  5
43D6
102
{ACAD_REACTORS
330
14AA
102
}
330
14AA
100
AcDbCellStyleMap
 90
        3
300
CELLSTYLE
  1
TABLEFORMAT_BEGIN
 90
        5
170
     1
 91
        0
 92
    32768
 62
   257
 93
        1
300
CONTENTFORMAT
  1
CONTENTFORMAT_BEGIN
 90
        0
 91
        0
 92
      512
 93
        0
300

 40
0.0
140
1.0
 94
        5
 62
     0
340
10
144
6.0
309
CONTENTFORMAT_END
171
     1
301
MARGIN
  1
CELLMARGIN_BEGIN
 40
1.5
 40
1.5
 40
1.5
 40
1.5
 40
0.18
 40
0.18
309
CELLMARGIN_END
 94
        6
 95
        1
302
GRIDFORMAT
  1
GRIDFORMAT_BEGIN
 90
        0
 91
        1
 62
     0
 92
       -2
340
0
 93
        0
 40
0.045
309
GRIDFORMAT_END
 95
        2
302
GRIDFORMAT
  1
GRIDFORMAT_BEGIN
 90
        0
 91
        1
 62
     0
 92
       -2
340
0
 93
        0
 40
0.045
309
GRIDFORMAT_END
 95
        4
302
GRIDFORMAT
  1
GRIDFORMAT_BEGIN
 90
        0
 91
        1
 62
     0
 92
       -2
340
0
 93
        0
 40
0.045
309
GRIDFORMAT_END
 95
        8
302
GRIDFORMAT
  1
GRIDFORMAT_BEGIN
 90
        0
 91
        1
 62
     0
 92
       -2
340
0
 93
        0
 40
0.045
309
GRIDFORMAT_END
 95
       16
302
GRIDFORMAT
  1
GRIDFORMAT_BEGIN
 90
        0
 91
        1
 62
     0
 92
       -2
340
0
 93
        0
 40
0.045
309
GRIDFORMAT_END
 95
       32
302
GRIDFORMAT
  1
GRIDFORMAT_BEGIN
 90
        0
 91
        1
 62
     0
 92
       -2
340
0
 93
        0
 40
0.045
309
GRIDFORMAT_END
309
TABLEFORMAT_END
  1
CELLSTYLE_BEGIN
 90
        1
 91
        1
300
_TITLE
309
CELLSTYLE_END
300
CELLSTYLE
  1
TABLEFORMAT_BEGIN
 90
        5
170
     1
 91
        0
 92
        0
 62
   257
 93
        1
300
CONTENTFORMAT
  1
CONTENTFORMAT_BEGIN
 90
        0
 91
        0
 92
      512
 93
        0
300

 40
0.0
140
1.0
 94
        5
 62
     0
340
10
144
4.5
309
CONTENTFORMAT_END
171
     1
301
MARGIN
  1
CELLMARGIN_BEGIN
 40
1.5
 40
1.5
 40
1.5
 40
1.5
 40
0.18
 40
0.18
309
CELLMARGIN_END
 94
        6
 95
        1
302
GRIDFORMAT
  1
GRIDFORMAT_BEGIN
 90
        0
 91
        1
 62
     0
 92
       -2
340
0
 93
        0
 40
0.045
309
GRIDFORMAT_END
 95
        2
302
GRIDFORMAT
  1
GRIDFORMAT_BEGIN
 90
        0
 91
        1
 62
     0
 92
       -2
340
0
 93
        0
 40
0.045
309
GRIDFORMAT_END
 95
        4
302
GRIDFORMAT
  1
GRIDFORMAT_BEGIN
 90
        0
 91
        1
 62
     0
 92
       -2
340
0
 93
        0
 40
0.045
309
GRIDFORMAT_END
 95
        8
302
GRIDFORMAT
  1
GRIDFORMAT_BEGIN
 90
        0
 91
        1
 62
     0
 92
       -2
340
0
 93
        0
 40
0.045
309
GRIDFORMAT_END
 95
       16
302
GRIDFORMAT
  1
GRIDFORMAT_BEGIN
 90
        0
 91
        1
 62
     0
 92
       -2
340
0
 93
        0
 40
0.045
309
GRIDFORMAT_END
 95
       32
302
GRIDFORMAT
  1
GRIDFORMAT_BEGIN
 90
        0
 91
        1
 62
     0
 92
       -2
340
0
 93
        0
 40
0.045
309
GRIDFORMAT_END
309
TABLEFORMAT_END
  1
CELLSTYLE_BEGIN
 90
        2
 91
        1
300
_HEADER
309
CELLSTYLE_END
300
CELLSTYLE
  1
TABLEFORMAT_BEGIN
 90
        5
170
     1
 91
        0
 92
        0
 62
   257
 93
        1
300
CONTENTFORMAT
  1
CONTENTFORMAT_BEGIN
 90
        0
 91
        0
 92
      512
 93
        0
300

 40
0.0
140
1.0
 94
        2
 62
     0
340
10
144
4.5
309
CONTENTFORMAT_END
171
     1
301
MARGIN
  1
CELLMARGIN_BEGIN
 40
1.5
 40
1.5
 40
1.5
 40
1.5
 40
0.18
 40
0.18
309
CELLMARGIN_END
 94
        6
 95
        1
302
GRIDFORMAT
  1
GRIDFORMAT_BEGIN
 90
        0
 91
        1
 62
     0
 92
       -2
340
0
 93
        0
 40
0.045
309
GRIDFORMAT_END
 95
        2
302
GRIDFORMAT
  1
GRIDFORMAT_BEGIN
 90
        0
 91
        1
 62
     0
 92
       -2
340
0
 93
        0
 40
0.045
309
GRIDFORMAT_END
 95
        4
302
GRIDFORMAT
  1
GRIDFORMAT_BEGIN
 90
        0
 91
        1
 62
     0
 92
       -2
340
0
 93
        0
 40
0.045
309
GRIDFORMAT_END
 95
        8
302
GRIDFORMAT
  1
GRIDFORMAT_BEGIN
 90
        0
 91
        1
 62
     0
 92
       -2
340
0
 93
        0
 40
0.045
309
GRIDFORMAT_END
 95
       16
302
GRIDFORMAT
  1
GRIDFORMAT_BEGIN
 90
        0
 91
        1
 62
     0
 92
       -2
340
0
 93
        0
 40
0.045
309
GRIDFORMAT_END
 95
       32
302
GRIDFORMAT
  1
GRIDFORMAT_BEGIN
 90
        0
 91
        1
 62
     0
 92
       -2
340
0
 93
        0
 40
0.045
309
GRIDFORMAT_END
309
TABLEFORMAT_END
  1
CELLSTYLE_BEGIN
 90
        3
 91
        2
300
_DATA
309
CELLSTYLE_END
  0
XRECORD
  5
43DC
102
{ACAD_REACTORS
330
14AA
102
}
330
14AA
100
AcDbXrecord
280
     1
102
ACAD_ROUNDTRIP_PRE2007_TABLESTYLE
 90
      512
 91
        0
  1

 92
      512
 93
        0
  2

 94
      512
 95
        0
  3

  0
ENDSEC
  0
EOF
