  0
SECTION
  2
HEADER
  9
$ACADVER
  1
AC1015
  9
$ACADMAINTVER
 70
    20
  9
$DWGCODEPAGE
  3
ANSI_1252
  9
$INSBASE
 10
0.0
 20
0.0
 30
0.0
  9
$EXTMIN
 10
1740.223578885351
 20
997.3764503427711
 30
0.0
  9
$EXTMAX
 10
1801.160678357717
 20
1058.620232614073
 30
0.0
  9
$LIMMIN
 10
-170.0
 20
-170.0
  9
$LIMMAX
 10
519.0
 20
260.0
  9
$ORTHOMODE
 70
     0
  9
$REGENMODE
 70
     1
  9
$FILLMODE
 70
     1
  9
$QTEXTMODE
 70
     0
  9
$MIRRTEXT
 70
     1
  9
$LTSCALE
 40
10.0
  9
$ATTMODE
 70
     1
  9
$TEXTSIZE
 40
3.5
  9
$TRACEWID
 40
0.05
  9
$TEXTSTYLE
  7
SIMPLEX
  9
$CLAYER
  8
1
  9
$CELTYPE
  6
BYLAYER
  9
$CECOLOR
 62
   256
  9
$CELTSCALE
 40
1.0
  9
$DISPSILH
 70
     0
  9
$DIMSCALE
 40
1.0
  9
$DIMASZ
 40
3.5
  9
$DIMEXO
 40
1.0
  9
$DIMDLI
 40
0.5
  9
$DIMRND
 40
0.0
  9
$DIMDLE
 40
0.0
  9
$DIMEXE
 40
1.0
  9
$DIMTP
 40
0.0
  9
$DIMTM
 40
0.0
  9
$DIMTXT
 40
3.5
  9
$DIMCEN
 40
0.0
  9
$DIMTSZ
 40
0.0
  9
$DIMTOL
 70
     0
  9
$DIMLIM
 70
     0
  9
$DIMTIH
 70
     0
  9
$DIMTOH
 70
     0
  9
$DIMSE1
 70
     0
  9
$DIMSE2
 70
     0
  9
$DIMTAD
 70
     1
  9
$DIMZIN
 70
     0
  9
$DIMBLK
  1

  9
$DIMASO
 70
     1
  9
$DIMSHO
 70
     1
  9
$DIMPOST
  1

  9
$DIMAPOST
  1

  9
$DIMALT
 70
     0
  9
$DIMALTD
 70
     2
  9
$DIMALTF
 40
25.4
  9
$DIMLFAC
 40
1.0
  9
$DIMTOFL
 70
     0
  9
$DIMTVP
 40
0.0
  9
$DIMTIX
 70
     0
  9
$DIMSOXD
 70
     0
  9
$DIMSAH
 70
     0
  9
$DIMBLK1
  1

  9
$DIMBLK2
  1

  9
$DIMSTYLE
  2
V-TYGEN_-160
  9
$DIMCLRD
 70
     0
  9
$DIMCLRE
 70
     0
  9
$DIMCLRT
 70
     0
  9
$DIMTFAC
 40
1.0
  9
$DIMGAP
 40
1.0
  9
$DIMJUST
 70
     0
  9
$DIMSD1
 70
     0
  9
$DIMSD2
 70
     0
  9
$DIMTOLJ
 70
     1
  9
$DIMTZIN
 70
     0
  9
$DIMALTZ
 70
     0
  9
$DIMALTTZ
 70
     0
  9
$DIMUPT
 70
     0
  9
$DIMDEC
 70
     0
  9
$DIMTDEC
 70
     0
  9
$DIMALTU
 70
     2
  9
$DIMALTTD
 70
     2
  9
$DIMTXSTY
  7
STANDARD
  9
$DIMAUNIT
 70
     0
  9
$DIMADEC
 70
     0
  9
$DIMALTRND
 40
0.0
  9
$DIMAZIN
 70
     0
  9
$DIMDSEP
 70
    46
  9
$DIMATFIT
 70
     3
  9
$DIMFRAC
 70
     0
  9
$DIMLDRBLK
  1

  9
$DIMLUNIT
 70
     2
  9
$DIMLWD
 70
    -1
  9
$DIMLWE
 70
    -2
  9
$DIMTMOVE
 70
     0
  9
$LUNITS
 70
     2
  9
$LUPREC
 70
     2
  9
$SKETCHINC
 40
0.1
  9
$FILLETRAD
 40
0.0
  9
$AUNITS
 70
     0
  9
$AUPREC
 70
     0
  9
$MENU
  1
TDMWIN
  9
$ELEVATION
 40
0.0
  9
$PELEVATION
 40
0.0
  9
$THICKNESS
 40
0.0
  9
$LIMCHECK
 70
     0
  9
$CHAMFERA
 40
0.0
  9
$CHAMFERB
 40
0.0
  9
$CHAMFERC
 40
0.0
  9
$CHAMFERD
 40
0.0
  9
$SKPOLY
 70
     0
  9
$TDCREATE
 40
2455495.435690070
  9
$TDUCREATE
 40
2455495.206523403
  9
$TDUPDATE
 40
2455597.631177454
  9
$TDUUPDATE
 40
2455597.402010787
  9
$TDINDWG
 40
0.1634328935
  9
$TDUSRTIMER
 40
0.1634319792
  9
$USRTIMER
 70
     1
  9
$ANGBASE
 50
0.0
  9
$ANGDIR
 70
     0
  9
$PDMODE
 70
     2
  9
$PDSIZE
 40
0.0
  9
$PLINEWID
 40
0.0
  9
$SPLFRAME
 70
     0
  9
$SPLINETYPE
 70
     6
  9
$SPLINESEGS
 70
     8
  9
$HANDSEED
  5
3A62
  9
$SURFTAB1
 70
     6
  9
$SURFTAB2
 70
     6
  9
$SURFTYPE
 70
     6
  9
$SURFU
 70
     6
  9
$SURFV
 70
     6
  9
$UCSBASE
  2

  9
$UCSNAME
  2

  9
$UCSORG
 10
1766.005391122004
 20
1030.637015796091
 30
0.0
  9
$UCSXDIR
 10
1.0
 20
0.0
 30
0.0
  9
$UCSYDIR
 10
0.0
 20
1.0
 30
0.0
  9
$UCSORTHOREF
  2

  9
$UCSORTHOVIEW
 70
     0
  9
$UCSORGTOP
 10
0.0
 20
0.0
 30
0.0
  9
$UCSORGBOTTOM
 10
0.0
 20
0.0
 30
0.0
  9
$UCSORGLEFT
 10
0.0
 20
0.0
 30
0.0
  9
$UCSORGRIGHT
 10
0.0
 20
0.0
 30
0.0
  9
$UCSORGFRONT
 10
0.0
 20
0.0
 30
0.0
  9
$UCSORGBACK
 10
0.0
 20
0.0
 30
0.0
  9
$PUCSBASE
  2

  9
$PUCSNAME
  2

  9
$PUCSORG
 10
0.0
 20
0.0
 30
0.0
  9
$PUCSXDIR
 10
1.0
 20
0.0
 30
0.0
  9
$PUCSYDIR
 10
0.0
 20
1.0
 30
0.0
  9
$PUCSORTHOREF
  2

  9
$PUCSORTHOVIEW
 70
     0
  9
$PUCSORGTOP
 10
0.0
 20
0.0
 30
0.0
  9
$PUCSORGBOTTOM
 10
0.0
 20
0.0
 30
0.0
  9
$PUCSORGLEFT
 10
0.0
 20
0.0
 30
0.0
  9
$PUCSORGRIGHT
 10
0.0
 20
0.0
 30
0.0
  9
$PUCSORGFRONT
 10
0.0
 20
0.0
 30
0.0
  9
$PUCSORGBACK
 10
0.0
 20
0.0
 30
0.0
  9
$USERI1
 70
     0
  9
$USERI2
 70
     0
  9
$USERI3
 70
     0
  9
$USERI4
 70
     0
  9
$USERI5
 70
     0
  9
$USERR1
 40
0.0
  9
$USERR2
 40
0.0
  9
$USERR3
 40
0.0
  9
$USERR4
 40
0.0
  9
$USERR5
 40
0.0
  9
$WORLDVIEW
 70
     1
  9
$SHADEDGE
 70
     3
  9
$SHADEDIF
 70
    70
  9
$TILEMODE
 70
     1
  9
$MAXACTVP
 70
    16
  9
$PINSBASE
 10
0.0
 20
0.0
 30
0.0
  9
$PLIMCHECK
 70
     0
  9
$PEXTMIN
 10
1.000000000000000E+20
 20
1.000000000000000E+20
 30
1.000000000000000E+20
  9
$PEXTMAX
 10
-1.000000000000000E+20
 20
-1.000000000000000E+20
 30
-1.000000000000000E+20
  9
$PLIMMIN
 10
0.0
 20
0.0
  9
$PLIMMAX
 10
12.0
 20
9.0
  9
$UNITMODE
 70
     0
  9
$VISRETAIN
 70
     0
  9
$PLINEGEN
 70
     0
  9
$PSLTSCALE
 70
     0
  9
$TREEDEPTH
 70
  3020
  9
$CMLSTYLE
  2
STANDARD
  9
$CMLJUST
 70
     0
  9
$CMLSCALE
 40
1.0
  9
$PROXYGRAPHICS
 70
     1
  9
$MEASUREMENT
 70
     1
  9
$CELWEIGHT
370
    -1
  9
$ENDCAPS
280
     0
  9
$JOINSTYLE
280
     0
  9
$LWDISPLAY
290
     0
  9
$INSUNITS
 70
     0
  9
$HYPERLINKBASE
  1

  9
$STYLESHEET
  1

  9
$XEDIT
290
     1
  9
$CEPSNTYPE
380
     0
  9
$PSTYLEMODE
290
     1
  9
$FINGERPRINTGUID
  2
{657513BA-23E7-4626-BCF7-6F82F096B1F9}
  9
$VERSIONGUID
  2
{4A901CBE-8BED-4FBE-B54C-016AA2865F1A}
  9
$EXTNAMES
290
     1
  9
$PSVPSCALE
 40
0.0
  9
$OLESTARTUP
290
     0
  0
ENDSEC
  0
SECTION
  2
CLASSES
  0
CLASS
  1
ACDBDICTIONARYWDFLT
  2
AcDbDictionaryWithDefault
  3
ObjectDBX Classes
 90
        0
280
     0
281
     0
  0
CLASS
  1
ACDBPLACEHOLDER
  2
AcDbPlaceHolder
  3
ObjectDBX Classes
 90
        0
280
     0
281
     0
  0
CLASS
  1
LAYOUT
  2
AcDbLayout
  3
ObjectDBX Classes
 90
        0
280
     0
281
     0
  0
CLASS
  1
MATERIAL
  2
AcDbMaterial
  3
ObjectDBX Classes
 90
     1153
280
     0
281
     0
  0
CLASS
  1
VISUALSTYLE
  2
AcDbVisualStyle
  3
ObjectDBX Classes
 90
     4095
280
     0
281
     0
  0
CLASS
  1
TABLESTYLE
  2
AcDbTableStyle
  3
ObjectDBX Classes
 90
     4095
280
     0
281
     0
  0
CLASS
  1
DICTIONARYVAR
  2
AcDbDictionaryVar
  3
ObjectDBX Classes
 90
        0
280
     0
281
     0
  0
CLASS
  1
SCALE
  2
AcDbScale
  3
ObjectDBX Classes
 90
     1153
280
     0
281
     0
  0
CLASS
  1
MLEADERSTYLE
  2
AcDbMLeaderStyle
  3
ACDB_MLEADERSTYLE_CLASS
 90
     4095
280
     0
281
     0
  0
CLASS
  1
CELLSTYLEMAP
  2
AcDbCellStyleMap
  3
ObjectDBX Classes
 90
     1152
280
     0
281
     0
  0
CLASS
  1
SORTENTSTABLE
  2
AcDbSortentsTable
  3
ObjectDBX Classes
 90
        0
280
     0
281
     0
  0
ENDSEC
  0
SECTION
  2
TABLES
  0
TABLE
  2
VPORT
  5
8
330
0
100
AcDbSymbolTable
 70
     1
  0
VPORT
  5
1288
330
8
100
AcDbSymbolTableRecord
100
AcDbViewportTableRecord
  2
*Active
 70
     0
 10
0.0
 20
0.0
 11
1.0
 21
1.0
 12
1770.661946668631
 22
1027.985778950466
 13
0.0
 23
0.0
 14
5.0
 24
5.0
 15
5.0
 25
5.0
 16
0.0
 26
0.0
 36
1.0
 17
0.0
 27
0.0
 37
0.0
 40
63.25171647037819
 41
1.752923976608187
 42
50.0
 43
0.0
 44
0.0
 50
0.0
 51
0.0
 71
     0
 72
   100
 73
     1
 74
     3
 75
     0
 76
     0
 77
     0
 78
     0
281
     0
 65
     1
110
0.0
120
0.0
130
0.0
111
1.0
121
0.0
131
0.0
112
0.0
122
1.0
132
0.0
 79
     0
146
0.0
  0
ENDTAB
  0
TABLE
  2
LTYPE
  5
5
330
0
100
AcDbSymbolTable
 70
     4
  0
LTYPE
  5
13
330
5
100
AcDbSymbolTableRecord
100
AcDbLinetypeTableRecord
  2
BYBLOCK
 70
     0
  3

 72
    65
 73
     0
 40
0.0
  0
LTYPE
  5
14
330
5
100
AcDbSymbolTableRecord
100
AcDbLinetypeTableRecord
  2
BYLAYER
 70
     0
  3

 72
    65
 73
     0
 40
0.0
  0
LTYPE
  5
15
330
5
100
AcDbSymbolTableRecord
100
AcDbLinetypeTableRecord
  2
CONTINUOUS
 70
     0
  3
Solid line
 72
    65
 73
     0
 40
0.0
  0
LTYPE
  5
20
330
5
100
AcDbSymbolTableRecord
100
AcDbLinetypeTableRecord
  2
CENTER
 70
     0
  3
____ . ____ . ____
 72
    65
 73
     4
 40
1.5
 49
1.0
 74
     0
 49
-0.25
 74
     0
 49
0.0
 74
     0
 49
-0.25
 74
     0
  0
LTYPE
  5
21
330
5
100
AcDbSymbolTableRecord
100
AcDbLinetypeTableRecord
  2
HIDDEN
 70
     0
  3
_ _ _ _ _ _ _ _ _ _ _ _ _ _ _ _ _ _ _ _ _ _ _
 72
    65
 73
     2
 40
0.375
 49
0.25
 74
     0
 49
-0.125
 74
     0
  0
LTYPE
  5
14C0
330
5
100
AcDbSymbolTableRecord
100
AcDbLinetypeTableRecord
  2
DASHDOT
 70
     0
  3
Dash dot __ . __ . __ . __ . __ . __ . __ . __
 72
    65
 73
     4
 40
25.4
 49
12.7
 74
     0
 49
-6.349999999999997
 74
     0
 49
0.0
 74
     0
 49
-6.349999999999997
 74
     0
  0
ENDTAB
  0
TABLE
  2
LAYER
  5
2
330
0
100
AcDbSymbolTable
 70
    18
  0
LAYER
  5
F
102
{ACAD_XDICTIONARY
360
148A
102
}
330
2
100
AcDbSymbolTableRecord
100
AcDbLayerTableRecord
  2
0
 70
     0
 62
     7
  6
CONTINUOUS
370
    -3
390
E94
  0
LAYER
  5
1E
102
{ACAD_XDICTIONARY
360
148C
102
}
330
2
100
AcDbSymbolTableRecord
100
AcDbLayerTableRecord
  2
1
 70
     0
 62
     4
  6
CONTINUOUS
370
    -3
390
E94
  0
LAYER
  5
22
102
{ACAD_XDICTIONARY
360
148E
102
}
330
2
100
AcDbSymbolTableRecord
100
AcDbLayerTableRecord
  2
SK1
 70
     0
 62
     4
  6
CONTINUOUS
370
    -3
390
E94
  0
LAYER
  5
23
102
{ACAD_XDICTIONARY
360
1490
102
}
330
2
100
AcDbSymbolTableRecord
100
AcDbLayerTableRecord
  2
2
 70
     0
 62
     7
  6
CONTINUOUS
370
    -3
390
E94
  0
LAYER
  5
24
102
{ACAD_XDICTIONARY
360
1492
102
}
330
2
100
AcDbSymbolTableRecord
100
AcDbLayerTableRecord
  2
2L
 70
     0
 62
     7
  6
CONTINUOUS
370
    -3
390
E94
  0
LAYER
  5
25
102
{ACAD_XDICTIONARY
360
1494
102
}
330
2
100
AcDbSymbolTableRecord
100
AcDbLayerTableRecord
  2
SK2
 70
     0
 62
     7
  6
CONTINUOUS
370
    -3
390
E94
  0
LAYER
  5
26
102
{ACAD_XDICTIONARY
360
1496
102
}
330
2
100
AcDbSymbolTableRecord
100
AcDbLayerTableRecord
  2
3
 70
     0
 62
     1
  6
HIDDEN
370
    -3
390
E94
  0
LAYER
  5
27
102
{ACAD_XDICTIONARY
360
1498
102
}
330
2
100
AcDbSymbolTableRecord
100
AcDbLayerTableRecord
  2
SK3
 70
     0
 62
     1
  6
HIDDEN
370
    -3
390
E94
  0
LAYER
  5
28
102
{ACAD_XDICTIONARY
360
149A
102
}
330
2
100
AcDbSymbolTableRecord
100
AcDbLayerTableRecord
  2
4
 70
     0
 62
     2
  6
CENTER
370
    -3
390
E94
  0
LAYER
  5
29
102
{ACAD_XDICTIONARY
360
149C
102
}
330
2
100
AcDbSymbolTableRecord
100
AcDbLayerTableRecord
  2
SK4
 70
     0
 62
     2
  6
CENTER
370
    -3
390
E94
  0
LAYER
  5
2A
102
{ACAD_XDICTIONARY
360
149E
102
}
330
2
100
AcDbSymbolTableRecord
100
AcDbLayerTableRecord
  2
5
 70
     0
 62
     7
  6
CONTINUOUS
370
    -3
390
E94
  0
LAYER
  5
2B
102
{ACAD_XDICTIONARY
360
14A0
102
}
330
2
100
AcDbSymbolTableRecord
100
AcDbLayerTableRecord
  2
6
 70
     0
 62
     5
  6
CONTINUOUS
370
    -3
390
E94
  0
LAYER
  5
2C
102
{ACAD_XDICTIONARY
360
14A2
102
}
330
2
100
AcDbSymbolTableRecord
100
AcDbLayerTableRecord
  2
SK6
 70
     0
 62
     5
  6
CONTINUOUS
370
    -3
390
E94
  0
LAYER
  5
2D
102
{ACAD_XDICTIONARY
360
14A4
102
}
330
2
100
AcDbSymbolTableRecord
100
AcDbLayerTableRecord
  2
243
 70
     0
 62
     7
  6
CONTINUOUS
370
    -3
390
E94
  0
LAYER
  5
2E
330
2
100
AcDbSymbolTableRecord
100
AcDbLayerTableRecord
  2
DEFPOINTS
 70
     0
 62
     7
  6
CONTINUOUS
290
     0
370
    -3
390
E94
  0
LAYER
  5
C07
102
{ACAD_XDICTIONARY
360
14A6
102
}
330
2
100
AcDbSymbolTableRecord
100
AcDbLayerTableRecord
  2
FRONT
 70
     0
 62
     7
  6
CONTINUOUS
370
    -3
390
E94
  0
LAYER
  5
14C1
330
2
100
AcDbSymbolTableRecord
100
AcDbLayerTableRecord
  2
H
 70
     0
 62
     7
  6
CONTINUOUS
370
   100
390
E94
  0
LAYER
  5
14C2
330
2
100
AcDbSymbolTableRecord
100
AcDbLayerTableRecord
  2
P
 70
     0
 62
   250
  6
CONTINUOUS
370
   100
390
E94
  0
ENDTAB
  0
TABLE
  2
STYLE
  5
3
330
0
100
AcDbSymbolTable
 70
     6
  0
STYLE
  5
10
330
3
100
AcDbSymbolTableRecord
100
AcDbTextStyleTableRecord
  2
STANDARD
 70
     0
 40
0.0
 41
1.0
 50
0.0
 71
     0
 42
5.0
  3
txt
  4

  0
STYLE
  5
1F
330
3
100
AcDbSymbolTableRecord
100
AcDbTextStyleTableRecord
  2
SIMPLEX
 70
     0
 40
0.0
 41
1.0
 50
0.0
 71
     0
 42
3.5
  3
simplex
  4

  0
STYLE
  5
2F
330
3
100
AcDbSymbolTableRecord
100
AcDbTextStyleTableRecord
  2
TXT
 70
     0
 40
8.0
 41
1.0
 50
0.0
 71
     0
 42
8.0
  3
txt
  4

  0
STYLE
  5
C08
330
3
100
AcDbSymbolTableRecord
100
AcDbTextStyleTableRecord
  2
UGMTXT
 70
     0
 40
0.0
 41
1.0
 50
0.0
 71
     0
 42
0.2
  3
ugmtxt
  4
bigfont
  0
STYLE
  5
12D5
330
3
100
AcDbSymbolTableRecord
100
AcDbTextStyleTableRecord
  2
SLDTEXTSTYLE0
 70
     0
 40
0.0
 41
0.75
 50
0.0
 71
     0
 42
0.0
  3
TXT
  4

  0
STYLE
  5
14C3
330
3
100
AcDbSymbolTableRecord
100
AcDbTextStyleTableRecord
  2
Roman
 70
     0
 40
0.0
 41
1.0
 50
0.0
 71
     0
 42
0.2
  3

  4

  0
ENDTAB
  0
TABLE
  2
VIEW
  5
6
330
0
100
AcDbSymbolTable
 70
     0
  0
ENDTAB
  0
TABLE
  2
UCS
  5
7
330
0
100
AcDbSymbolTable
 70
     0
  0
ENDTAB
  0
TABLE
  2
APPID
  5
9
330
0
100
AcDbSymbolTable
 70
     4
  0
APPID
  5
11
330
9
100
AcDbSymbolTableRecord
100
AcDbRegAppTableRecord
  2
ACAD
 70
     0
  0
APPID
  5
E8F
330
9
100
AcDbSymbolTableRecord
100
AcDbRegAppTableRecord
  2
CONTENTBLOCKICON
 70
     0
  0
APPID
  5
1485
330
9
100
AcDbSymbolTableRecord
100
AcDbRegAppTableRecord
  2
ACAD_MLEADERVER
 70
     0
  0
APPID
  5
1717
330
9
100
AcDbSymbolTableRecord
100
AcDbRegAppTableRecord
  2
ACAD_EXEMPT_FROM_CAD_STANDARDS
 70
     0
  0
ENDTAB
  0
TABLE
  2
DIMSTYLE
  5
A
330
0
100
AcDbSymbolTable
 70
     5
100
AcDbDimStyleTable
 71
     5
340
D91
340
1273
340
D93
340
D92
340
980
  0
DIMSTYLE
105
980
330
A
100
AcDbSymbolTableRecord
100
AcDbDimStyleTableRecord
  2
STANDARD
 70
     0
340
10
  0
DIMSTYLE
105
D91
102
{ACAD_REACTORS
330
39D3
330
39E1
330
39EE
102
}
330
A
100
AcDbSymbolTableRecord
100
AcDbDimStyleTableRecord
  2
V-TYGEN_-160
 70
     0
 41
3.5
 42
1.0
 43
0.5
 44
1.0
 73
     0
 74
     0
 77
     1
140
3.5
141
0.0
147
1.0
271
     0
272
     0
340
10
371
    -1
  0
DIMSTYLE
105
D92
330
A
100
AcDbSymbolTableRecord
100
AcDbDimStyleTableRecord
  2
V-TYG_160-300
 70
     0
 41
5.0
 42
1.0
 43
0.5
 44
1.0
 73
     0
 74
     0
 77
     1
140
5.0
141
0.0
147
1.0
271
     0
272
     0
340
10
  0
DIMSTYLE
105
D93
330
A
100
AcDbSymbolTableRecord
100
AcDbDimStyleTableRecord
  2
V-TYG_300-
 70
     0
 41
8.0
 42
1.0
 43
0.5
 44
1.0
 73
     0
 74
     0
 77
     1
140
8.0
141
0.0
147
1.0
271
     0
272
     0
340
10
  0
DIMSTYLE
105
1273
330
A
100
AcDbSymbolTableRecord
100
AcDbDimStyleTableRecord
  2
Inserts
 70
     0
 41
0.5
 42
1.0
 43
0.5
 44
1.0
 73
     0
 74
     0
 77
     1
140
0.8
141
0.0
147
1.0
271
     0
272
     0
340
10
371
    -1
  0
ENDTAB
  0
TABLE
  2
BLOCK_RECORD
  5
1
330
0
100
AcDbSymbolTable
 70
    69
  0
BLOCK_RECORD
  5
19
102
{ACAD_XDICTIONARY
360
E8D
102
}
330
1
100
AcDbSymbolTableRecord
100
AcDbBlockTableRecord
  2
*MODEL_SPACE
340
E95
  0
BLOCK_RECORD
  5
16
102
{ACAD_XDICTIONARY
360
E8B
102
}
330
1
100
AcDbSymbolTableRecord
100
AcDbBlockTableRecord
  2
*PAPER_SPACE
340
E96
  0
BLOCK_RECORD
  5
39D4
330
1
100
AcDbSymbolTableRecord
100
AcDbBlockTableRecord
  2
*D66
340
0
  0
BLOCK_RECORD
  5
39E2
330
1
100
AcDbSymbolTableRecord
100
AcDbBlockTableRecord
  2
*D67
340
0
  0
BLOCK_RECORD
  5
39EF
330
1
100
AcDbSymbolTableRecord
100
AcDbBlockTableRecord
  2
*D68
340
0
  0
ENDTAB
  0
ENDSEC
  0
SECTION
  2
BLOCKS
  0
BLOCK
  5
1A
330
19
100
AcDbEntity
  8
0
100
AcDbBlockBegin
  2
*MODEL_SPACE
 70
     0
 10
0.0
 20
0.0
 30
0.0
  3
*MODEL_SPACE
  1

  0
ENDBLK
  5
1B
330
19
100
AcDbEntity
  8
0
100
AcDbBlockEnd
  0
BLOCK
  5
17
330
16
100
AcDbEntity
 67
     1
  8
0
100
AcDbBlockBegin
  2
*PAPER_SPACE
 70
     0
 10
0.0
 20
0.0
 30
0.0
  3
*PAPER_SPACE
  1

  0
ENDBLK
  5
18
330
16
100
AcDbEntity
 67
     1
  8
0
100
AcDbBlockEnd
  0
BLOCK
  5
39D5
330
39D4
100
AcDbEntity
  8
0
100
AcDbBlockBegin
  2
*D66
 70
     1
 10
0.0
 20
0.0
 30
0.0
  3
*D66
  1

  0
LINE
  5
3A3D
330
39D4
100
AcDbEntity
  8
SK2
 62
     0
370
    -2
100
AcDbLine
 10
1752.49793278867
 20
1034.636265796091
 30
0.0
 11
1743.723578885352
 21
1034.636265796091
 31
0.0
  0
LINE
  5
3A3E
330
39D4
100
AcDbEntity
  8
SK2
 62
     0
370
    -2
100
AcDbLine
 10
1752.49793278867
 20
1026.637765796091
 30
0.0
 11
1743.723578885352
 21
1026.637765796091
 31
0.0
  0
LINE
  5
3A3F
330
39D4
100
AcDbEntity
  8
SK2
 62
     0
100
AcDbLine
 10
1744.723578885352
 20
1038.136265796091
 30
0.0
 11
1744.723578885352
 21
1041.636265796091
 31
0.0
  0
LINE
  5
3A40
330
39D4
100
AcDbEntity
  8
SK2
 62
     0
100
AcDbLine
 10
1744.723578885352
 20
1023.137765796092
 30
0.0
 11
1744.723578885352
 21
1019.637765796091
 31
0.0
  0
SOLID
  5
3A41
330
39D4
100
AcDbEntity
  8
SK2
 62
     0
100
AcDbTrace
 10
1744.140245552019
 20
1038.136265796091
 30
0.0
 11
1745.306912218685
 21
1038.136265796091
 31
0.0
 12
1744.723578885352
 22
1034.636265796091
 32
0.0
 13
1744.723578885352
 23
1034.636265796091
 33
0.0
  0
SOLID
  5
3A42
330
39D4
100
AcDbEntity
  8
SK2
 62
     0
100
AcDbTrace
 10
1744.140245552019
 20
1023.137765796092
 30
0.0
 11
1745.306912218685
 21
1023.137765796092
 31
0.0
 12
1744.723578885352
 22
1026.637765796091
 32
0.0
 13
1744.723578885352
 23
1026.637765796091
 33
0.0
  0
MTEXT
  5
3A43
330
39D4
100
AcDbEntity
  8
SK2
 62
     0
100
AcDbMText
 10
1741.973578885352
 20
1030.637015796092
 30
0.0
 40
3.5
 41
0.0
 71
     5
 72
     1
  1
\A1;%%c8
 11
0.0000000000000001
 21
1.0
 31
0.0
 73
     1
 44
1.0
1001
ACAD
1000
MTEXTBEGIN
1070
    73
1070
     1
1070
    44
1040
1.0
1070
    74
1070
     0
1000
MTEXTEND
  0
POINT
  5
3A44
330
39D4
100
AcDbEntity
  8
DEFPOINTS
 62
     0
100
AcDbPoint
 10
1753.49793278867
 20
1034.636265796091
 30
0.0
  0
POINT
  5
3A45
330
39D4
100
AcDbEntity
  8
DEFPOINTS
 62
     0
100
AcDbPoint
 10
1753.49793278867
 20
1026.637765796091
 30
0.0
  0
POINT
  5
3A46
330
39D4
100
AcDbEntity
  8
DEFPOINTS
 62
     0
100
AcDbPoint
 10
1744.723578885352
 20
1026.637765796091
 30
0.0
  0
ENDBLK
  5
39D6
330
39D4
100
AcDbEntity
  8
0
100
AcDbBlockEnd
  0
BLOCK
  5
39E3
330
39E2
100
AcDbEntity
  8
0
100
AcDbBlockBegin
  2
*D67
 70
     1
 10
0.0
 20
0.0
 30
0.0
  3
*D67
  1

  0
LINE
  5
3A33
330
39E2
100
AcDbEntity
  8
2
 62
     0
370
    -2
100
AcDbLine
 10
1766.005391122004
 20
1038.498474129424
 30
0.0
 11
1766.005391122004
 21
1055.120232614074
 31
0.0
  0
LINE
  5
3A34
330
39E2
100
AcDbEntity
  8
2
 62
     0
370
    -2
100
AcDbLine
 10
1786.001641122004
 20
1045.281515796091
 30
0.0
 11
1786.001641122004
 21
1055.120232614074
 31
0.0
  0
LINE
  5
3A35
330
39E2
100
AcDbEntity
  8
2
 62
     0
100
AcDbLine
 10
1769.505391122004
 20
1054.120232614073
 30
0.0
 11
1782.501641122004
 21
1054.120232614073
 31
0.0
  0
SOLID
  5
3A36
330
39E2
100
AcDbEntity
  8
2
 62
     0
100
AcDbTrace
 10
1769.505391122004
 20
1054.703565947407
 30
0.0
 11
1769.505391122004
 21
1053.53689928074
 31
0.0
 12
1766.005391122004
 22
1054.120232614073
 32
0.0
 13
1766.005391122004
 23
1054.120232614073
 33
0.0
  0
SOLID
  5
3A37
330
39E2
100
AcDbEntity
  8
2
 62
     0
100
AcDbTrace
 10
1782.501641122004
 20
1054.703565947407
 30
0.0
 11
1782.501641122004
 21
1053.53689928074
 31
0.0
 12
1786.001641122004
 22
1054.120232614073
 32
0.0
 13
1786.001641122004
 23
1054.120232614073
 33
0.0
  0
MTEXT
  5
3A38
330
39E2
100
AcDbEntity
  8
2
 62
     0
100
AcDbMText
 10
1776.003516122004
 20
1056.870232614073
 30
0.0
 40
3.5
 41
0.0
 71
     5
 72
     1
  1
\A1;20
 73
     1
 44
1.0
1001
ACAD
1000
MTEXTBEGIN
1070
    73
1070
     1
1070
    44
1040
1.0
1070
    74
1070
     0
1000
MTEXTEND
  0
POINT
  5
3A39
330
39E2
100
AcDbEntity
  8
DEFPOINTS
 62
     0
100
AcDbPoint
 10
1766.005391122004
 20
1037.498474129424
 30
0.0
  0
POINT
  5
3A3A
330
39E2
100
AcDbEntity
  8
DEFPOINTS
 62
     0
100
AcDbPoint
 10
1786.001641122004
 20
1044.281515796091
 30
0.0
  0
POINT
  5
3A3B
330
39E2
100
AcDbEntity
  8
DEFPOINTS
 62
     0
100
AcDbPoint
 10
1786.001641122004
 20
1054.120232614073
 30
0.0
  0
ENDBLK
  5
39E4
330
39E2
100
AcDbEntity
  8
0
100
AcDbBlockEnd
  0
BLOCK
  5
39F0
330
39EF
100
AcDbEntity
  8
0
100
AcDbBlockBegin
  2
*D68
 70
     1
 10
0.0
 20
0.0
 30
0.0
  3
*D68
  1

  0
LINE
  5
3A2A
330
39EF
100
AcDbEntity
  8
2
 62
     0
370
    -2
100
AcDbLine
 10
1786.413516122004
 20
1044.634390796091
 30
0.0
 11
1801.160678357717
 21
1044.634390796091
 31
0.0
  0
LINE
  5
3A2B
330
39EF
100
AcDbEntity
  8
2
 62
     0
370
    -2
100
AcDbLine
 10
1785.31568278867
 20
1016.639640796091
 30
0.0
 11
1801.160678357717
 21
1016.639640796091
 31
0.0
  0
LINE
  5
3A2C
330
39EF
100
AcDbEntity
  8
2
 62
     0
100
AcDbLine
 10
1800.160678357716
 20
1041.134390796091
 30
0.0
 11
1800.160678357716
 21
1020.139640796091
 31
0.0
  0
SOLID
  5
3A2D
330
39EF
100
AcDbEntity
  8
2
 62
     0
100
AcDbTrace
 10
1799.577345024383
 20
1041.134390796091
 30
0.0
 11
1800.74401169105
 21
1041.134390796091
 31
0.0
 12
1800.160678357716
 22
1044.634390796091
 32
0.0
 13
1800.160678357716
 23
1044.634390796091
 33
0.0
  0
SOLID
  5
3A2E
330
39EF
100
AcDbEntity
  8
2
 62
     0
100
AcDbTrace
 10
1799.577345024383
 20
1020.139640796091
 30
0.0
 11
1800.74401169105
 21
1020.139640796091
 31
0.0
 12
1800.160678357716
 22
1016.639640796091
 32
0.0
 13
1800.160678357716
 23
1016.639640796091
 33
0.0
  0
MTEXT
  5
3A2F
330
39EF
100
AcDbEntity
  8
2
 62
     0
100
AcDbMText
 10
1797.410678357717
 20
1030.637015796092
 30
0.0
 40
3.5
 41
0.0
 71
     5
 72
     1
  1
\A1;%%c28
 11
0.0000000000000001
 21
1.0
 31
0.0
 73
     1
 44
1.0
1001
ACAD
1000
MTEXTBEGIN
1070
    73
1070
     1
1070
    44
1040
1.0
1070
    74
1070
     0
1000
MTEXTEND
  0
POINT
  5
3A30
330
39EF
100
AcDbEntity
  8
DEFPOINTS
 62
     0
100
AcDbPoint
 10
1785.413516122004
 20
1044.634390796091
 30
0.0
  0
POINT
  5
3A31
330
39EF
100
AcDbEntity
  8
DEFPOINTS
 62
     0
100
AcDbPoint
 10
1784.31568278867
 20
1016.639640796091
 30
0.0
  0
POINT
  5
3A32
330
39EF
100
AcDbEntity
  8
DEFPOINTS
 62
     0
100
AcDbPoint
 10
1800.160678357716
 20
1016.639640796091
 30
0.0
  0
ENDBLK
  5
39F1
330
39EF
100
AcDbEntity
  8
0
100
AcDbBlockEnd
  0
ENDSEC
  0
SECTION
  2
ENTITIES
  0
MTEXT
  5
1431
330
19
100
AcDbEntity
  8
SK6
100
AcDbMText
 10
1751.880470802159
 20
1007.942039473715
 30
0.0
 40
3.5
 41
0.0000000000000142
 71
     1
 72
     5
  1
{\fMonospac821 BT|b0|i0|c0|p49;PF84-28H6-EN1\P02602352}
  7
SIMPLEX
 73
     1
 44
1.0
1001
ACAD
1000
MTEXTBEGIN
1070
    73
1070
     1
1070
    44
1040
1.0
1070
    74
1070
     0
1000
MTEXTEND
  0
LWPOLYLINE
  5
3927
330
19
100
AcDbEntity
  8
SK4
100
AcDbPolyline
 90
        2
 70
     0
 43
0.0
 10
1788.458249843628
 20
1030.637015796091
 10
1751.078628386667
 20
1030.637015796091
  0
LWPOLYLINE
  5
392C
330
19
100
AcDbEntity
  8
SK1
100
AcDbPolyline
 90
        2
 70
     0
 43
0.0
 10
1765.26043278867
 20
1025.657557462758
 10
1765.26043278867
 20
1027.892432462758
  0
LWPOLYLINE
  5
392D
330
19
100
AcDbEntity
  8
SK1
100
AcDbPolyline
 90
        2
 70
     0
 43
0.0
 10
1762.241391122003
 20
1027.892432462758
 10
1762.241391122003
 20
1025.657557462758
  0
LWPOLYLINE
  5
392E
330
19
100
AcDbEntity
  8
SK1
100
AcDbPolyline
 90
        2
 70
     0
 43
0.0
 10
1765.26043278867
 20
1034.518640796091
 10
1765.26043278867
 20
1035.655682462758
  0
LWPOLYLINE
  5
392F
330
19
100
AcDbEntity
  8
SK1
100
AcDbPolyline
 90
        2
 70
     0
 43
0.0
 10
1762.241391122003
 20
1035.655682462758
 10
1762.241391122003
 20
1034.636265796091
  0
LWPOLYLINE
  5
3930
330
19
100
AcDbEntity
  8
1
100
AcDbPolyline
 90
        2
 70
     0
 43
0.0
 10
1772.004266122004
 20
1016.639640796091
 10
1784.31568278867
 20
1016.639640796091
  0
LWPOLYLINE
  5
3931
330
19
100
AcDbEntity
  8
1
100
AcDbPolyline
 90
        2
 70
     0
 43
0.0
 10
1770.984849455337
 20
1016.914099129425
 10
1772.004266122004
 20
1016.639640796091
  0
LWPOLYLINE
  5
3932
330
19
100
AcDbEntity
  8
1
100
AcDbPolyline
 90
        2
 70
     0
 43
0.0
 10
1784.31568278867
 20
1016.639640796091
 10
1785.02143278867
 20
1016.678849129425
  0
LWPOLYLINE
  5
3933
330
19
100
AcDbEntity
  8
1
100
AcDbPolyline
 90
        2
 70
     0
 43
0.0
 10
1785.02143278867
 20
1016.678849129425
 10
1786.001641122004
 20
1017.266974129425
  0
LWPOLYLINE
  5
3934
330
19
100
AcDbEntity
  8
1
100
AcDbPolyline
 90
        2
 70
     0
 43
0.0
 10
1770.122266122004
 20
1043.732599129424
 10
1767.338474455337
 20
1038.949182462758
  0
LWPOLYLINE
  5
3935
330
19
100
AcDbEntity
  8
1
100
AcDbPolyline
 90
        2
 70
     0
 43
0.0
 10
1767.338474455337
 20
1022.364057462758
 10
1769.73018278867
 20
1018.247182462758
  0
LWPOLYLINE
  5
3936
330
19
100
AcDbEntity
  8
1
100
AcDbPolyline
 90
        2
 70
     0
 43
0.0
 10
1766.358266122004
 20
1023.461890796091
 10
1767.338474455337
 20
1023.461890796091
  0
LWPOLYLINE
  5
3937
330
19
100
AcDbEntity
  8
1
100
AcDbPolyline
 90
        2
 70
     0
 43
0.0
 10
1767.338474455337
 20
1037.851349129425
 10
1766.358266122004
 20
1037.851349129425
  0
LWPOLYLINE
  5
3938
330
19
100
AcDbEntity
  8
1
100
AcDbPolyline
 90
        2
 70
     0
 43
0.0
 10
1766.358266122004
 20
1037.851349129425
 10
1766.005391122004
 20
1037.498474129424
  0
LWPOLYLINE
  5
3939
330
19
100
AcDbEntity
  8
1
100
AcDbPolyline
 90
        2
 70
     0
 43
0.0
 10
1766.005391122004
 20
1023.814765796091
 10
1766.358266122004
 20
1023.461890796091
  0
LWPOLYLINE
  5
393A
330
19
100
AcDbEntity
  8
SK1
100
AcDbPolyline
 90
        3
 70
     0
 43
0.0
 10
1765.84855778867
 20
1026.873015796091
 10
1765.926974455337
 20
1026.873015796091
 10
1766.005391122004
 20
1026.833807462758
  0
LWPOLYLINE
  5
393B
330
19
100
AcDbEntity
  8
SK1
100
AcDbPolyline
 90
        3
 70
     0
 43
0.0
 10
1766.005391122004
 20
1034.440224129425
 10
1765.926974455337
 20
1034.440224129425
 10
1765.84855778867
 20
1034.440224129425
  0
LWPOLYLINE
  5
393C
330
19
100
AcDbEntity
  8
SK1
100
AcDbPolyline
 90
        2
 70
     0
 43
0.0
 10
1753.49793278867
 20
1034.636265796091
 10
1752.988224455337
 20
1034.361807462758
  0
LWPOLYLINE
  5
393D
330
19
100
AcDbEntity
  8
SK1
100
AcDbPolyline
 90
        2
 70
     0
 43
0.0
 10
1752.988224455337
 20
1026.951432462758
 10
1753.49793278867
 20
1026.637765796091
  0
LWPOLYLINE
  5
393E
330
19
100
AcDbEntity
  8
SK1
100
AcDbPolyline
 90
        2
 70
     0
 43
0.0
 10
1764.90755778867
 20
1034.636265796091
 10
1753.49793278867
 20
1034.636265796091
  0
LWPOLYLINE
  5
393F
330
19
100
AcDbEntity
  8
SK1
100
AcDbPolyline
 90
        2
 70
     0
 43
0.0
 10
1753.49793278867
 20
1026.637765796091
 10
1762.241391122003
 20
1026.637765796091
  0
LWPOLYLINE
  5
3940
330
19
100
AcDbEntity
  8
SK1
100
AcDbPolyline
 90
        2
 70
     0
 43
0.0
 10
1765.338849455337
 20
1034.479432462758
 10
1764.90755778867
 20
1034.636265796091
  0
LWPOLYLINE
  5
3941
330
19
100
AcDbEntity
  8
SK1
100
AcDbPolyline
 90
        9
 70
     0
 43
0.0
 10
1765.338849455337
 20
1026.833807462758
 10
1765.338849455337
 20
1026.833807462758
 10
1765.37805778867
 20
1026.873015796091
 10
1765.37805778867
 20
1026.873015796091
 10
1765.417266122003
 20
1026.873015796091
 10
1765.417266122003
 20
1026.873015796091
 10
1765.456474455337
 20
1026.873015796091
 10
1765.49568278867
 20
1026.873015796091
 10
1765.49568278867
 20
1026.873015796091
  0
LWPOLYLINE
  5
3942
330
19
100
AcDbEntity
  8
SK1
100
AcDbPolyline
 90
        9
 70
     0
 43
0.0
 10
1765.49568278867
 20
1034.440224129425
 10
1765.49568278867
 20
1034.440224129425
 10
1765.456474455337
 20
1034.440224129425
 10
1765.417266122003
 20
1034.440224129425
 10
1765.417266122003
 20
1034.440224129425
 10
1765.37805778867
 20
1034.440224129425
 10
1765.37805778867
 20
1034.440224129425
 10
1765.338849455337
 20
1034.440224129425
 10
1765.338849455337
 20
1034.479432462758
  0
LWPOLYLINE
  5
3943
330
19
100
AcDbEntity
  8
SK1
100
AcDbPolyline
 90
        2
 70
     0
 43
0.0
 10
1765.49568278867
 20
1026.873015796091
 10
1765.84855778867
 20
1026.873015796091
  0
LWPOLYLINE
  5
3944
330
19
100
AcDbEntity
  8
SK1
100
AcDbPolyline
 90
        2
 70
     0
 43
0.0
 10
1765.84855778867
 20
1034.440224129425
 10
1765.49568278867
 20
1034.440224129425
  0
LWPOLYLINE
  5
3945
330
19
100
AcDbEntity
  8
SK1
100
AcDbPolyline
 90
        2
 70
     0
 43
0.0
 10
1765.26043278867
 20
1026.794599129424
 10
1765.338849455337
 20
1026.833807462758
  0
LWPOLYLINE
  5
3946
330
19
100
AcDbEntity
  8
1
100
AcDbPolyline
 90
        2
 70
     0
 43
0.0
 10
1771.96505778867
 20
1039.145224129425
 10
1771.96505778867
 20
1039.106015796091
  0
LWPOLYLINE
  5
3947
330
19
100
AcDbEntity
  8
1
100
AcDbPolyline
 90
        2
 70
     0
 43
0.0
 10
1778.983349455337
 20
1039.106015796091
 10
1778.983349455337
 20
1039.145224129425
  0
LWPOLYLINE
  5
3948
330
19
100
AcDbEntity
  8
SK1
100
AcDbPolyline
 90
       34
 70
     0
 43
0.0
 10
1764.044974455337
 20
1026.480932462758
 10
1763.770516122004
 20
1026.520140796091
 10
1763.49605778867
 20
1026.520140796091
 10
1763.221599455337
 20
1026.441724129425
 10
1762.947141122004
 20
1026.402515796091
 10
1762.751099455337
 20
1026.284890796091
 10
1762.55505778867
 20
1026.167265796091
 10
1762.398224455337
 20
1026.010432462758
 10
1762.280599455337
 20
1025.853599129425
 10
1762.241391122003
 20
1025.696765796091
 10
1762.280599455337
 20
1025.539932462758
 10
1762.31980778867
 20
1025.383099129425
 10
1762.43743278867
 20
1025.226265796091
 10
1762.594266122003
 20
1025.108640796091
 10
1762.79030778867
 20
1024.991015796091
 10
1763.02555778867
 20
1024.912599129425
 10
1763.300016122004
 20
1024.834182462758
 10
1763.574474455337
 20
1024.794974129425
 10
1763.888141122003
 20
1024.794974129425
 10
1764.162599455337
 20
1024.834182462758
 10
1764.397849455337
 20
1024.873390796091
 10
1764.67230778867
 20
1024.951807462758
 10
1764.868349455337
 20
1025.069432462758
 10
1765.02518278867
 20
1025.226265796091
 10
1765.14280778867
 20
1025.343890796091
 10
1765.221224455337
 20
1025.500724129424
 10
1765.26043278867
 20
1025.696765796091
 10
1765.221224455337
 20
1025.853599129425
 10
1765.14280778867
 20
1026.010432462758
 10
1764.985974455337
 20
1026.128057462758
 10
1764.78993278867
 20
1026.284890796091
 10
1764.593891122004
 20
1026.363307462758
 10
1764.31943278867
 20
1026.441724129425
 10
1764.044974455337
 20
1026.480932462758
  0
LWPOLYLINE
  5
3949
330
19
100
AcDbEntity
  8
SK1
100
AcDbPolyline
 90
       11
 70
     0
 43
0.0
 10
1764.044974455337
 20
1036.479057462758
 10
1763.770516122004
 20
1036.518265796091
 10
1763.49605778867
 20
1036.479057462758
 10
1763.221599455337
 20
1036.439849129425
 10
1762.947141122004
 20
1036.400640796091
 10
1762.751099455337
 20
1036.283015796091
 10
1762.55505778867
 20
1036.165390796091
 10
1762.398224455337
 20
1036.008557462758
 10
1762.280599455337
 20
1035.851724129425
 10
1762.241391122003
 20
1035.694890796091
 10
1762.241391122003
 20
1035.655682462758
  0
LWPOLYLINE
  5
394A
330
19
100
AcDbEntity
  8
SK1
100
AcDbPolyline
 90
        9
 70
     0
 43
0.0
 10
1765.26043278867
 20
1035.655682462758
 10
1765.26043278867
 20
1035.694890796091
 10
1765.221224455337
 20
1035.851724129425
 10
1765.14280778867
 20
1036.008557462758
 10
1764.985974455337
 20
1036.126182462758
 10
1764.78993278867
 20
1036.243807462758
 10
1764.593891122004
 20
1036.361432462758
 10
1764.31943278867
 20
1036.439849129425
 10
1764.044974455337
 20
1036.479057462758
  0
LWPOLYLINE
  5
394B
330
19
100
AcDbEntity
  8
1
100
AcDbPolyline
 90
        2
 70
     0
 43
0.0
 10
1785.84480778867
 20
1038.674724129424
 10
1786.001641122004
 20
1038.674724129424
  0
LWPOLYLINE
  5
394C
330
19
100
AcDbEntity
  8
1
100
AcDbPolyline
 90
        2
 70
     0
 43
0.0
 10
1785.84480778867
 20
1038.400265796091
 10
1786.001641122004
 20
1038.400265796091
  0
LWPOLYLINE
  5
394D
330
19
100
AcDbEntity
  8
1
100
AcDbPolyline
 90
        2
 70
     0
 43
0.0
 10
1786.001641122004
 20
1038.400265796091
 10
1786.001641122004
 20
1038.674724129424
  0
LWPOLYLINE
  5
394E
330
19
100
AcDbEntity
  8
1
100
AcDbPolyline
 90
        2
 70
     0
 43
0.0
 10
1785.84480778867
 20
1035.302807462758
 10
1786.001641122004
 20
1035.302807462758
  0
LWPOLYLINE
  5
394F
330
19
100
AcDbEntity
  8
1
100
AcDbPolyline
 90
        2
 70
     0
 43
0.0
 10
1786.001641122004
 20
1035.302807462758
 10
1786.001641122004
 20
1038.400265796091
  0
LWPOLYLINE
  5
3950
330
19
100
AcDbEntity
  8
1
100
AcDbPolyline
 90
        2
 70
     0
 43
0.0
 10
1786.001641122004
 20
1038.988390796091
 10
1785.84480778867
 20
1039.027599129425
  0
LWPOLYLINE
  5
3951
330
19
100
AcDbEntity
  8
1
100
AcDbPolyline
 90
        2
 70
     0
 43
0.0
 10
1786.001641122004
 20
1038.674724129424
 10
1786.001641122004
 20
1038.988390796091
  0
LWPOLYLINE
  5
3952
330
19
100
AcDbEntity
  8
1
100
AcDbPolyline
 90
        2
 70
     0
 43
0.0
 10
1785.84480778867
 20
1035.224390796091
 10
1786.001641122004
 20
1035.224390796091
  0
LWPOLYLINE
  5
3953
330
19
100
AcDbEntity
  8
1
100
AcDbPolyline
 90
        2
 70
     0
 43
0.0
 10
1786.001641122004
 20
1035.224390796091
 10
1786.001641122004
 20
1035.302807462758
  0
LWPOLYLINE
  5
3954
330
19
100
AcDbEntity
  8
1
100
AcDbPolyline
 90
        5
 70
     0
 43
0.0
 10
1772.004266122004
 20
1016.796474129424
 10
1772.004266122004
 20
1016.718057462758
 10
1772.004266122004
 20
1016.678849129425
 10
1772.004266122004
 20
1016.639640796091
 10
1772.004266122004
 20
1016.639640796091
  0
LWPOLYLINE
  5
3955
330
19
100
AcDbEntity
  8
1
100
AcDbPolyline
 90
        2
 70
     0
 43
0.0
 10
1772.004266122004
 20
1016.796474129424
 10
1784.31568278867
 20
1016.796474129424
  0
LWPOLYLINE
  5
3956
330
19
100
AcDbEntity
  8
1
100
AcDbPolyline
 90
        5
 70
     0
 43
0.0
 10
1784.31568278867
 20
1016.796474129424
 10
1784.31568278867
 20
1016.718057462758
 10
1784.31568278867
 20
1016.678849129425
 10
1784.31568278867
 20
1016.639640796091
 10
1784.31568278867
 20
1016.639640796091
  0
LWPOLYLINE
  5
3957
330
19
100
AcDbEntity
  8
1
100
AcDbPolyline
 90
        5
 70
     0
 43
0.0
 10
1770.984849455337
 20
1017.070932462758
 10
1770.984849455337
 20
1016.992515796091
 10
1770.984849455337
 20
1016.953307462758
 10
1770.984849455337
 20
1016.914099129425
 10
1770.984849455337
 20
1016.914099129425
  0
LWPOLYLINE
  5
3958
330
19
100
AcDbEntity
  8
1
100
AcDbPolyline
 90
        3
 70
     0
 43
0.0
 10
1770.984849455337
 20
1017.070932462758
 10
1771.298516122003
 20
1016.992515796091
 10
1772.004266122004
 20
1016.796474129424
  0
LWPOLYLINE
  5
3959
330
19
100
AcDbEntity
  8
1
100
AcDbPolyline
 90
        2
 70
     0
 43
0.0
 10
1785.84480778867
 20
1018.051140796091
 10
1786.001641122004
 20
1018.051140796091
  0
LWPOLYLINE
  5
395A
330
19
100
AcDbEntity
  8
1
100
AcDbPolyline
 90
        2
 70
     0
 43
0.0
 10
1786.001641122004
 20
1017.423807462758
 10
1786.001641122004
 20
1018.051140796091
  0
LWPOLYLINE
  5
395B
330
19
100
AcDbEntity
  8
1
100
AcDbPolyline
 90
        3
 70
     0
 43
0.0
 10
1785.02143278867
 20
1016.835682462758
 10
1785.217474455337
 20
1016.953307462758
 10
1786.001641122004
 20
1017.423807462758
  0
LWPOLYLINE
  5
395C
330
19
100
AcDbEntity
  8
1
100
AcDbPolyline
 90
        3
 70
     0
 43
0.0
 10
1784.31568278867
 20
1016.796474129424
 10
1784.472516122004
 20
1016.796474129424
 10
1785.02143278867
 20
1016.835682462758
  0
LWPOLYLINE
  5
395D
330
19
100
AcDbEntity
  8
1
100
AcDbPolyline
 90
        2
 70
     0
 43
0.0
 10
1770.984849455337
 20
1017.306182462758
 10
1770.984849455337
 20
1017.070932462758
  0
LWPOLYLINE
  5
395E
330
19
100
AcDbEntity
  8
1
100
AcDbPolyline
 90
        5
 70
     0
 43
0.0
 10
1785.02143278867
 20
1016.835682462758
 10
1785.02143278867
 20
1016.796474129424
 10
1785.02143278867
 20
1016.718057462758
 10
1785.02143278867
 20
1016.718057462758
 10
1785.02143278867
 20
1016.678849129425
  0
LWPOLYLINE
  5
395F
330
19
100
AcDbEntity
  8
1
100
AcDbPolyline
 90
        5
 70
     0
 43
0.0
 10
1786.001641122004
 20
1017.423807462758
 10
1786.001641122004
 20
1017.345390796091
 10
1786.001641122004
 20
1017.306182462758
 10
1786.001641122004
 20
1017.266974129425
 10
1786.001641122004
 20
1017.266974129425
  0
LWPOLYLINE
  5
3960
330
19
100
AcDbEntity
  8
1
100
AcDbPolyline
 90
        2
 70
     0
 43
0.0
 10
1785.84480778867
 20
1018.247182462758
 10
1786.001641122004
 20
1018.247182462758
  0
LWPOLYLINE
  5
3961
330
19
100
AcDbEntity
  8
1
100
AcDbPolyline
 90
        2
 70
     0
 43
0.0
 10
1786.001641122004
 20
1018.051140796091
 10
1786.001641122004
 20
1018.247182462758
  0
LWPOLYLINE
  5
3962
330
19
100
AcDbEntity
  8
1
100
AcDbPolyline
 90
       13
 70
     0
 43
0.0
 10
1770.357516122003
 20
1030.244932462758
 10
1769.573349455337
 20
1031.578015796091
 10
1768.90680778867
 20
1032.989515796091
 10
1768.514724455337
 20
1033.930515796091
 10
1768.20105778867
 20
1034.910724129425
 10
1768.005016122003
 20
1035.890932462758
 10
1767.887391122004
 20
1037.027974129425
 10
1767.96580778867
 20
1038.165015796091
 10
1768.20105778867
 20
1039.341265796091
 10
1768.55393278867
 20
1040.517515796091
 10
1768.90680778867
 20
1041.458515796091
 10
1769.37730778867
 20
1042.360307462758
 10
1770.357516122003
 20
1044.163890796091
  0
LWPOLYLINE
  5
3963
330
19
100
AcDbEntity
  8
1
100
AcDbPolyline
 90
       23
 70
     0
 43
0.0
 10
1770.357516122003
 20
1030.244932462758
 10
1770.357516122003
 20
1029.382349129424
 10
1770.357516122003
 20
1028.519765796091
 10
1770.357516122003
 20
1027.696390796091
 10
1770.357516122003
 20
1026.873015796091
 10
1770.357516122003
 20
1026.049640796091
 10
1770.357516122003
 20
1025.226265796091
 10
1770.357516122003
 20
1024.481307462758
 10
1770.357516122003
 20
1023.697140796091
 10
1770.357516122003
 20
1022.991390796091
 10
1770.357516122003
 20
1022.285640796091
 10
1770.357516122003
 20
1021.658307462758
 10
1770.357516122003
 20
1021.030974129425
 10
1770.357516122003
 20
1020.442849129425
 10
1770.357516122003
 20
1019.893932462758
 10
1770.357516122003
 20
1019.384224129425
 10
1770.357516122003
 20
1018.952932462758
 10
1770.357516122003
 20
1018.560849129425
 10
1770.357516122003
 20
1018.168765796091
 10
1770.357516122003
 20
1017.894307462758
 10
1770.357516122003
 20
1017.619849129425
 10
1770.357516122003
 20
1017.423807462758
 10
1770.357516122003
 20
1017.266974129425
  0
LWPOLYLINE
  5
3964
330
19
100
AcDbEntity
  8
1
100
AcDbPolyline
 90
        3
 70
     0
 43
0.0
 10
1769.769391122004
 20
1018.247182462758
 10
1770.043849455336
 20
1017.776682462758
 10
1770.357516122003
 20
1017.266974129425
  0
LWPOLYLINE
  5
3965
330
19
100
AcDbEntity
  8
1
100
AcDbPolyline
 90
        3
 70
     0
 43
0.0
 10
1769.73018278867
 20
1018.247182462758
 10
1769.73018278867
 20
1018.247182462758
 10
1769.769391122004
 20
1018.247182462758
  0
LWPOLYLINE
  5
3966
330
19
100
AcDbEntity
  8
1
100
AcDbPolyline
 90
       41
 70
     0
 43
0.0
 10
1767.338474455337
 20
1022.364057462758
 10
1767.338474455337
 20
1022.364057462758
 10
1767.338474455337
 20
1022.442474129425
 10
1767.338474455337
 20
1022.560099129425
 10
1767.338474455337
 20
1022.756140796091
 10
1767.338474455337
 20
1022.991390796091
 10
1767.338474455337
 20
1023.265849129425
 10
1767.338474455337
 20
1023.579515796091
 10
1767.338474455337
 20
1023.932390796091
 10
1767.338474455337
 20
1024.324474129425
 10
1767.338474455337
 20
1024.794974129425
 10
1767.338474455337
 20
1025.265474129425
 10
1767.338474455337
 20
1025.775182462758
 10
1767.338474455337
 20
1026.324099129424
 10
1767.338474455337
 20
1026.873015796091
 10
1767.338474455337
 20
1027.461140796091
 10
1767.338474455337
 20
1028.088474129425
 10
1767.338474455337
 20
1028.715807462758
 10
1767.338474455337
 20
1029.343140796092
 10
1767.338474455337
 20
1030.009682462758
 10
1767.338474455337
 20
1030.637015796091
 10
1767.338474455337
 20
1031.303557462758
 10
1767.338474455337
 20
1031.970099129425
 10
1767.338474455337
 20
1032.597432462758
 10
1767.338474455337
 20
1033.224765796092
 10
1767.338474455337
 20
1033.812890796091
 10
1767.338474455337
 20
1034.440224129425
 10
1767.338474455337
 20
1034.989140796091
 10
1767.338474455337
 20
1035.538057462758
 10
1767.338474455337
 20
1036.047765796091
 10
1767.338474455337
 20
1036.518265796091
 10
1767.338474455337
 20
1036.949557462758
 10
1767.338474455337
 20
1037.380849129425
 10
1767.338474455337
 20
1037.733724129425
 10
1767.338474455337
 20
1038.047390796091
 10
1767.338474455337
 20
1038.321849129425
 10
1767.338474455337
 20
1038.557099129425
 10
1767.338474455337
 20
1038.713932462758
 10
1767.338474455337
 20
1038.870765796091
 10
1767.338474455337
 20
1038.949182462758
 10
1767.338474455337
 20
1038.949182462758
  0
LWPOLYLINE
  5
3967
330
19
100
AcDbEntity
  8
1
100
AcDbPolyline
 90
        2
 70
     0
 43
0.0
 10
1770.984849455337
 20
1017.306182462758
 10
1785.099849455337
 20
1017.306182462758
  0
LWPOLYLINE
  5
3968
330
19
100
AcDbEntity
  8
1
100
AcDbPolyline
 90
        3
 70
     0
 43
0.0
 10
1770.357516122003
 20
1017.266974129425
 10
1770.55355778867
 20
1017.306182462758
 10
1770.984849455337
 20
1017.306182462758
  0
LWPOLYLINE
  5
3969
330
19
100
AcDbEntity
  8
1
100
AcDbPolyline
 90
        2
 70
     0
 43
0.0
 10
1782.355266122004
 20
1030.244932462758
 10
1770.357516122003
 20
1030.244932462758
  0
LWPOLYLINE
  5
396A
330
19
100
AcDbEntity
  8
1
100
AcDbPolyline
 90
        4
 70
     0
 43
0.0
 10
1785.099849455337
 20
1029.264724129425
 10
1784.158849455337
 20
1029.578390796091
 10
1783.25705778867
 20
1029.931265796091
 10
1782.355266122004
 20
1030.244932462758
  0
LWPOLYLINE
  5
396B
330
19
100
AcDbEntity
  8
1
100
AcDbPolyline
 90
       22
 70
     0
 43
0.0
 10
1785.099849455337
 20
1029.264724129425
 10
1785.099849455337
 20
1028.441349129425
 10
1785.099849455337
 20
1027.578765796091
 10
1785.099849455337
 20
1026.755390796091
 10
1785.099849455337
 20
1025.971224129425
 10
1785.099849455337
 20
1025.187057462758
 10
1785.099849455337
 20
1024.402890796091
 10
1785.099849455337
 20
1023.697140796091
 10
1785.099849455337
 20
1022.952182462758
 10
1785.099849455337
 20
1022.285640796091
 10
1785.099849455337
 20
1021.619099129424
 10
1785.099849455337
 20
1021.030974129425
 10
1785.099849455337
 20
1020.442849129425
 10
1785.099849455337
 20
1019.893932462758
 10
1785.099849455337
 20
1019.423432462758
 10
1785.099849455337
 20
1018.952932462758
 10
1785.099849455337
 20
1018.560849129425
 10
1785.099849455337
 20
1018.207974129424
 10
1785.099849455337
 20
1017.894307462758
 10
1785.099849455337
 20
1017.659057462758
 10
1785.099849455337
 20
1017.463015796091
 10
1785.099849455337
 20
1017.306182462758
  0
LWPOLYLINE
  5
396C
330
19
100
AcDbEntity
  8
1
100
AcDbPolyline
 90
       38
 70
     0
 43
0.0
 10
1780.865349455337
 20
1022.756140796091
 10
1781.218224455337
 20
1022.795349129425
 10
1781.571099455337
 20
1022.873765796091
 10
1781.884766122004
 20
1022.991390796091
 10
1782.19843278867
 20
1023.148224129425
 10
1782.43368278867
 20
1023.344265796091
 10
1782.66893278867
 20
1023.579515796091
 10
1782.825766122003
 20
1023.853974129425
 10
1782.90418278867
 20
1024.128432462758
 10
1782.982599455337
 20
1024.442099129425
 10
1782.982599455337
 20
1024.755765796091
 10
1782.90418278867
 20
1025.108640796091
 10
1782.78655778867
 20
1025.422307462758
 10
1782.590516122004
 20
1025.735974129425
 10
1782.355266122004
 20
1026.010432462758
 10
1782.08080778867
 20
1026.245682462758
 10
1781.767141122004
 20
1026.441724129425
 10
1781.414266122004
 20
1026.559349129425
 10
1781.061391122004
 20
1026.637765796091
 10
1780.747724455337
 20
1026.637765796091
 10
1780.394849455337
 20
1026.559349129425
 10
1780.08118278867
 20
1026.480932462758
 10
1779.806724455337
 20
1026.324099129424
 10
1779.532266122004
 20
1026.128057462758
 10
1779.297016122004
 20
1025.892807462758
 10
1779.100974455337
 20
1025.618349129425
 10
1778.944141122003
 20
1025.304682462758
 10
1778.826516122004
 20
1024.991015796091
 10
1778.78730778867
 20
1024.638140796091
 10
1778.78730778867
 20
1024.324474129425
 10
1778.865724455337
 20
1023.971599129424
 10
1779.02255778867
 20
1023.697140796091
 10
1779.218599455337
 20
1023.422682462758
 10
1779.453849455337
 20
1023.226640796091
 10
1779.72830778867
 20
1023.030599129425
 10
1780.041974455337
 20
1022.912974129424
 10
1780.394849455337
 20
1022.795349129425
 10
1780.865349455337
 20
1022.756140796091
  0
LWPOLYLINE
  5
396D
330
19
100
AcDbEntity
  8
1
100
AcDbPolyline
 90
        2
 70
     0
 43
0.0
 10
1785.84480778867
 20
1041.027224129424
 10
1785.84480778867
 20
1029.382349129424
  0
LWPOLYLINE
  5
396E
330
19
100
AcDbEntity
  8
1
100
AcDbPolyline
 90
        2
 70
     0
 43
0.0
 10
1785.84480778867
 20
1029.382349129424
 10
1785.099849455337
 20
1029.264724129425
  0
LWPOLYLINE
  5
396F
330
19
100
AcDbEntity
  8
1
100
AcDbPolyline
 90
        2
 70
     0
 43
0.0
 10
1782.355266122004
 20
1030.244932462758
 10
1782.355266122004
 20
1041.380099129424
  0
LWPOLYLINE
  5
3970
330
19
100
AcDbEntity
  8
1
100
AcDbPolyline
 90
        2
 70
     0
 43
0.0
 10
1782.355266122004
 20
1041.380099129424
 10
1785.84480778867
 20
1041.027224129424
  0
LWPOLYLINE
  5
3971
330
19
100
AcDbEntity
  8
1
100
AcDbPolyline
 90
        2
 70
     0
 43
0.0
 10
1771.72980778867
 20
1035.694890796091
 10
1772.239516122004
 20
1035.694890796091
  0
LWPOLYLINE
  5
3972
330
19
100
AcDbEntity
  8
1
100
AcDbPolyline
 90
        2
 70
     0
 43
0.0
 10
1771.72980778867
 20
1035.577265796091
 10
1771.72980778867
 20
1035.694890796091
  0
LWPOLYLINE
  5
3973
330
19
100
AcDbEntity
  8
1
100
AcDbPolyline
 90
        2
 70
     0
 43
0.0
 10
1772.90605778867
 20
1035.577265796091
 10
1771.72980778867
 20
1035.577265796091
  0
LWPOLYLINE
  5
3974
330
19
100
AcDbEntity
  8
1
100
AcDbPolyline
 90
        2
 70
     0
 43
0.0
 10
1772.90605778867
 20
1035.694890796091
 10
1772.90605778867
 20
1035.577265796091
  0
LWPOLYLINE
  5
3975
330
19
100
AcDbEntity
  8
1
100
AcDbPolyline
 90
        2
 70
     0
 43
0.0
 10
1772.43555778867
 20
1035.694890796091
 10
1772.90605778867
 20
1035.694890796091
  0
LWPOLYLINE
  5
3976
330
19
100
AcDbEntity
  8
1
100
AcDbPolyline
 90
        2
 70
     0
 43
0.0
 10
1772.43555778867
 20
1036.635890796091
 10
1772.43555778867
 20
1035.694890796091
  0
LWPOLYLINE
  5
3977
330
19
100
AcDbEntity
  8
1
100
AcDbPolyline
 90
        2
 70
     0
 43
0.0
 10
1772.239516122004
 20
1036.635890796091
 10
1772.43555778867
 20
1036.635890796091
  0
LWPOLYLINE
  5
3978
330
19
100
AcDbEntity
  8
1
100
AcDbPolyline
 90
        2
 70
     0
 43
0.0
 10
1772.239516122004
 20
1035.694890796091
 10
1772.239516122004
 20
1036.635890796091
  0
LWPOLYLINE
  5
3979
330
19
100
AcDbEntity
  8
1
100
AcDbPolyline
 90
        2
 70
     0
 43
0.0
 10
1770.357516122003
 20
1044.163890796091
 10
1776.003516122004
 20
1044.163890796091
  0
LWPOLYLINE
  5
397A
330
19
100
AcDbEntity
  8
1
100
AcDbPolyline
 90
        2
 70
     0
 43
0.0
 10
1776.003516122004
 20
1044.163890796091
 10
1776.003516122004
 20
1041.615349129425
  0
LWPOLYLINE
  5
397B
330
19
100
AcDbEntity
  8
1
100
AcDbPolyline
 90
       27
 70
     0
 43
0.0
 10
1778.983349455337
 20
1039.106015796091
 10
1778.983349455337
 20
1038.909974129425
 10
1778.90493278867
 20
1038.596307462758
 10
1778.78730778867
 20
1038.321849129425
 10
1778.630474455337
 20
1038.047390796091
 10
1778.43443278867
 20
1037.772932462758
 10
1778.159974455337
 20
1037.537682462758
 10
1777.885516122004
 20
1037.302432462758
 10
1777.571849455337
 20
1037.106390796091
 10
1777.179766122004
 20
1036.949557462758
 10
1776.78768278867
 20
1036.831932462758
 10
1776.395599455337
 20
1036.714307462758
 10
1775.96430778867
 20
1036.635890796091
 10
1775.533016122003
 20
1036.635890796091
 10
1775.14093278867
 20
1036.635890796091
 10
1774.709641122004
 20
1036.675099129425
 10
1774.278349455337
 20
1036.792724129425
 10
1773.886266122003
 20
1036.910349129424
 10
1773.533391122003
 20
1037.067182462758
 10
1773.180516122003
 20
1037.224015796091
 10
1772.866849455337
 20
1037.459265796091
 10
1772.592391122004
 20
1037.694515796091
 10
1772.396349455337
 20
1037.929765796091
 10
1772.20030778867
 20
1038.204224129425
 10
1772.08268278867
 20
1038.517890796091
 10
1772.004266122004
 20
1038.792349129425
 10
1771.96505778867
 20
1039.106015796091
  0
LWPOLYLINE
  5
397C
330
19
100
AcDbEntity
  8
1
100
AcDbPolyline
 90
        2
 70
     0
 43
0.0
 10
1778.708891122004
 20
1040.125432462758
 10
1782.159224455337
 20
1041.380099129424
  0
LWPOLYLINE
  5
397D
330
19
100
AcDbEntity
  8
1
100
AcDbPolyline
 90
        2
 70
     0
 43
0.0
 10
1782.159224455337
 20
1041.380099129424
 10
1782.355266122004
 20
1041.380099129424
  0
LWPOLYLINE
  5
397E
330
19
100
AcDbEntity
  8
1
100
AcDbPolyline
 90
        5
 70
     0
 43
0.0
 10
1777.96393278867
 20
1036.086974129425
 10
1777.84630778867
 20
1036.126182462758
 10
1777.767891122003
 20
1036.165390796091
 10
1777.689474455337
 20
1036.243807462758
 10
1777.689474455337
 20
1036.322224129424
  0
LWPOLYLINE
  5
397F
330
19
100
AcDbEntity
  8
1
100
AcDbPolyline
 90
        4
 70
     0
 43
0.0
 10
1777.72868278867
 20
1035.851724129425
 10
1777.767891122003
 20
1035.930140796091
 10
1777.84630778867
 20
1036.008557462758
 10
1777.96393278867
 20
1036.086974129425
  0
LWPOLYLINE
  5
3980
330
19
100
AcDbEntity
  8
1
100
AcDbPolyline
 90
        5
 70
     0
 43
0.0
 10
1778.238391122004
 20
1035.577265796091
 10
1778.042349455337
 20
1035.577265796091
 10
1777.885516122004
 20
1035.655682462758
 10
1777.767891122003
 20
1035.734099129425
 10
1777.72868278867
 20
1035.851724129425
  0
LWPOLYLINE
  5
3981
330
19
100
AcDbEntity
  8
1
100
AcDbPolyline
 90
        2
 70
     0
 43
0.0
 10
1778.78730778867
 20
1035.577265796091
 10
1778.238391122004
 20
1035.577265796091
  0
LWPOLYLINE
  5
3982
330
19
100
AcDbEntity
  8
1
100
AcDbPolyline
 90
        2
 70
     0
 43
0.0
 10
1778.78730778867
 20
1036.635890796091
 10
1778.78730778867
 20
1035.577265796091
  0
LWPOLYLINE
  5
3983
330
19
100
AcDbEntity
  8
1
100
AcDbPolyline
 90
        2
 70
     0
 43
0.0
 10
1778.238391122004
 20
1036.635890796091
 10
1778.78730778867
 20
1036.635890796091
  0
LWPOLYLINE
  5
3984
330
19
100
AcDbEntity
  8
1
100
AcDbPolyline
 90
        6
 70
     0
 43
0.0
 10
1777.689474455337
 20
1036.322224129424
 10
1777.72868278867
 20
1036.439849129425
 10
1777.767891122003
 20
1036.518265796091
 10
1777.885516122004
 20
1036.596682462758
 10
1778.08155778867
 20
1036.635890796091
 10
1778.238391122004
 20
1036.635890796091
  0
LWPOLYLINE
  5
3985
330
19
100
AcDbEntity
  8
1
100
AcDbPolyline
 90
        3
 70
     0
 43
0.0
 10
1785.099849455337
 20
1017.306182462758
 10
1785.25668278867
 20
1017.384599129425
 10
1785.84480778867
 20
1017.737474129424
  0
LWPOLYLINE
  5
3986
330
19
100
AcDbEntity
  8
1
100
AcDbPolyline
 90
       22
 70
     0
 43
0.0
 10
1785.84480778867
 20
1029.382349129424
 10
1785.84480778867
 20
1028.598182462758
 10
1785.84480778867
 20
1027.774807462758
 10
1785.84480778867
 20
1026.990640796091
 10
1785.84480778867
 20
1026.206474129425
 10
1785.84480778867
 20
1025.422307462758
 10
1785.84480778867
 20
1024.677349129424
 10
1785.84480778867
 20
1023.971599129424
 10
1785.84480778867
 20
1023.265849129425
 10
1785.84480778867
 20
1022.599307462758
 10
1785.84480778867
 20
1021.971974129425
 10
1785.84480778867
 20
1021.383849129425
 10
1785.84480778867
 20
1020.834932462758
 10
1785.84480778867
 20
1020.286015796091
 10
1785.84480778867
 20
1019.815515796091
 10
1785.84480778867
 20
1019.384224129425
 10
1785.84480778867
 20
1018.992140796091
 10
1785.84480778867
 20
1018.639265796091
 10
1785.84480778867
 20
1018.325599129425
 10
1785.84480778867
 20
1018.090349129425
 10
1785.84480778867
 20
1017.894307462758
 10
1785.84480778867
 20
1017.737474129424
  0
LWPOLYLINE
  5
3987
330
19
100
AcDbEntity
  8
1
100
AcDbPolyline
 90
        2
 70
     0
 43
0.0
 10
1772.239516122004
 20
1035.577265796091
 10
1772.239516122004
 20
1035.694890796091
  0
LWPOLYLINE
  5
3988
330
19
100
AcDbEntity
  8
1
100
AcDbPolyline
 90
        2
 70
     0
 43
0.0
 10
1772.43555778867
 20
1035.577265796091
 10
1772.43555778867
 20
1035.694890796091
  0
LWPOLYLINE
  5
3989
330
19
100
AcDbEntity
  8
1
100
AcDbPolyline
 90
        2
 70
     0
 43
0.0
 10
1778.31680778867
 20
1035.577265796091
 10
1778.31680778867
 20
1035.694890796091
  0
LWPOLYLINE
  5
398A
330
19
100
AcDbEntity
  8
1
100
AcDbPolyline
 90
        4
 70
     0
 43
0.0
 10
1777.96393278867
 20
1035.734099129425
 10
1778.003141122004
 20
1035.616474129424
 10
1778.003141122004
 20
1035.577265796091
 10
1778.042349455337
 20
1035.577265796091
  0
LWPOLYLINE
  5
398B
330
19
100
AcDbEntity
  8
1
100
AcDbPolyline
 90
        2
 70
     0
 43
0.0
 10
1777.96393278867
 20
1035.734099129425
 10
1777.96393278867
 20
1035.851724129425
  0
LWPOLYLINE
  5
398C
330
19
100
AcDbEntity
  8
1
100
AcDbPolyline
 90
        6
 70
     0
 43
0.0
 10
1777.96393278867
 20
1035.851724129425
 10
1778.003141122004
 20
1035.773307462758
 10
1778.003141122004
 20
1035.734099129425
 10
1778.08155778867
 20
1035.694890796091
 10
1778.19918278867
 20
1035.694890796091
 10
1778.31680778867
 20
1035.694890796091
  0
LWPOLYLINE
  5
398D
330
19
100
AcDbEntity
  8
1
100
AcDbPolyline
 90
        2
 70
     0
 43
0.0
 10
1778.31680778867
 20
1035.694890796091
 10
1778.591266122003
 20
1035.694890796091
  0
LWPOLYLINE
  5
398E
330
19
100
AcDbEntity
  8
1
100
AcDbPolyline
 90
        2
 70
     0
 43
0.0
 10
1778.591266122003
 20
1035.577265796091
 10
1778.591266122003
 20
1035.694890796091
  0
LWPOLYLINE
  5
398F
330
19
100
AcDbEntity
  8
1
100
AcDbPolyline
 90
        4
 70
     0
 43
0.0
 10
1778.120766122003
 20
1036.008557462758
 10
1778.042349455337
 20
1035.969349129425
 10
1778.003141122004
 20
1035.930140796091
 10
1777.96393278867
 20
1035.851724129425
  0
LWPOLYLINE
  5
3990
330
19
100
AcDbEntity
  8
1
100
AcDbPolyline
 90
        3
 70
     0
 43
0.0
 10
1778.277599455337
 20
1036.008557462758
 10
1778.19918278867
 20
1036.008557462758
 10
1778.120766122003
 20
1036.008557462758
  0
LWPOLYLINE
  5
3991
330
19
100
AcDbEntity
  8
1
100
AcDbPolyline
 90
        2
 70
     0
 43
0.0
 10
1778.591266122003
 20
1036.008557462758
 10
1778.277599455337
 20
1036.008557462758
  0
LWPOLYLINE
  5
3992
330
19
100
AcDbEntity
  8
1
100
AcDbPolyline
 90
        2
 70
     0
 43
0.0
 10
1778.591266122003
 20
1035.694890796091
 10
1778.591266122003
 20
1036.008557462758
  0
LWPOLYLINE
  5
3993
330
19
100
AcDbEntity
  8
1
100
AcDbPolyline
 90
        4
 70
     0
 43
0.0
 10
1777.767891122003
 20
1035.773307462758
 10
1777.767891122003
 20
1035.773307462758
 10
1777.84630778867
 20
1035.851724129425
 10
1777.96393278867
 20
1035.930140796091
  0
LWPOLYLINE
  5
3994
330
19
100
AcDbEntity
  8
1
100
AcDbPolyline
 90
        5
 70
     0
 43
0.0
 10
1777.689474455337
 20
1036.243807462758
 10
1777.72868278867
 20
1036.283015796091
 10
1777.767891122003
 20
1036.361432462758
 10
1777.885516122004
 20
1036.439849129425
 10
1778.003141122004
 20
1036.479057462758
  0
LWPOLYLINE
  5
3995
330
19
100
AcDbEntity
  8
1
100
AcDbPolyline
 90
        2
 70
     0
 43
0.0
 10
1778.591266122003
 20
1036.479057462758
 10
1778.78730778867
 20
1036.479057462758
  0
LWPOLYLINE
  5
3996
330
19
100
AcDbEntity
  8
1
100
AcDbPolyline
 90
        5
 70
     0
 43
0.0
 10
1777.885516122004
 20
1036.165390796091
 10
1777.924724455337
 20
1036.086974129425
 10
1777.96393278867
 20
1036.047765796091
 10
1778.003141122004
 20
1036.047765796091
 10
1778.120766122003
 20
1036.008557462758
  0
LWPOLYLINE
  5
3997
330
19
100
AcDbEntity
  8
1
100
AcDbPolyline
 90
        2
 70
     0
 43
0.0
 10
1772.239516122004
 20
1036.479057462758
 10
1772.43555778867
 20
1036.479057462758
  0
LWPOLYLINE
  5
3998
330
19
100
AcDbEntity
  8
1
100
AcDbPolyline
 90
        2
 70
     0
 43
0.0
 10
1777.96393278867
 20
1035.930140796091
 10
1777.96393278867
 20
1036.086974129425
  0
LWPOLYLINE
  5
3999
330
19
100
AcDbEntity
  8
1
100
AcDbPolyline
 90
        6
 70
     0
 43
0.0
 10
1777.885516122004
 20
1036.322224129424
 10
1777.924724455337
 20
1036.243807462758
 10
1777.96393278867
 20
1036.204599129425
 10
1778.003141122004
 20
1036.165390796091
 10
1778.120766122003
 20
1036.126182462758
 10
1778.277599455337
 20
1036.126182462758
  0
LWPOLYLINE
  5
399A
330
19
100
AcDbEntity
  8
1
100
AcDbPolyline
 90
        5
 70
     0
 43
0.0
 10
1778.120766122003
 20
1036.518265796091
 10
1778.003141122004
 20
1036.479057462758
 10
1777.924724455337
 20
1036.439849129425
 10
1777.924724455337
 20
1036.361432462758
 10
1777.885516122004
 20
1036.322224129424
  0
LWPOLYLINE
  5
399B
330
19
100
AcDbEntity
  8
1
100
AcDbPolyline
 90
        3
 70
     0
 43
0.0
 10
1778.238391122004
 20
1036.518265796091
 10
1778.159974455337
 20
1036.518265796091
 10
1778.120766122003
 20
1036.518265796091
  0
LWPOLYLINE
  5
399C
330
19
100
AcDbEntity
  8
1
100
AcDbPolyline
 90
        2
 70
     0
 43
0.0
 10
1778.591266122003
 20
1036.518265796091
 10
1778.238391122004
 20
1036.518265796091
  0
LWPOLYLINE
  5
399D
330
19
100
AcDbEntity
  8
1
100
AcDbPolyline
 90
        2
 70
     0
 43
0.0
 10
1778.591266122003
 20
1036.126182462758
 10
1778.591266122003
 20
1036.518265796091
  0
LWPOLYLINE
  5
399E
330
19
100
AcDbEntity
  8
1
100
AcDbPolyline
 90
        2
 70
     0
 43
0.0
 10
1778.277599455337
 20
1036.126182462758
 10
1778.591266122003
 20
1036.126182462758
  0
LWPOLYLINE
  5
399F
330
19
100
AcDbEntity
  8
1
100
AcDbPolyline
 90
        2
 70
     0
 43
0.0
 10
1778.277599455337
 20
1036.008557462758
 10
1778.277599455337
 20
1036.126182462758
  0
LWPOLYLINE
  5
39A0
330
19
100
AcDbEntity
  8
1
100
AcDbPolyline
 90
        2
 70
     0
 43
0.0
 10
1778.591266122003
 20
1036.008557462758
 10
1778.591266122003
 20
1036.126182462758
  0
LWPOLYLINE
  5
39A1
330
19
100
AcDbEntity
  8
1
100
AcDbPolyline
 90
        2
 70
     0
 43
0.0
 10
1777.885516122004
 20
1036.165390796091
 10
1777.885516122004
 20
1036.322224129424
  0
LWPOLYLINE
  5
39A2
330
19
100
AcDbEntity
  8
1
100
AcDbPolyline
 90
        2
 70
     0
 43
0.0
 10
1778.238391122004
 20
1036.518265796091
 10
1778.238391122004
 20
1036.635890796091
  0
LWPOLYLINE
  5
39A3
330
19
100
AcDbEntity
  8
1
100
AcDbPolyline
 90
       38
 70
     0
 43
0.0
 10
1766.358266122004
 20
1023.461890796091
 10
1766.358266122004
 20
1023.461890796091
 10
1766.358266122004
 20
1023.540307462758
 10
1766.358266122004
 20
1023.697140796091
 10
1766.358266122004
 20
1023.853974129425
 10
1766.358266122004
 20
1024.089224129425
 10
1766.358266122004
 20
1024.363682462758
 10
1766.358266122004
 20
1024.677349129424
 10
1766.358266122004
 20
1025.030224129425
 10
1766.358266122004
 20
1025.461515796092
 10
1766.358266122004
 20
1025.892807462758
 10
1766.358266122004
 20
1026.363307462758
 10
1766.358266122004
 20
1026.873015796091
 10
1766.358266122004
 20
1027.421932462758
 10
1766.358266122004
 20
1027.970849129425
 10
1766.358266122004
 20
1028.558974129424
 10
1766.358266122004
 20
1029.147099129424
 10
1766.358266122004
 20
1029.735224129424
 10
1766.358266122004
 20
1030.362557462758
 10
1766.358266122004
 20
1030.950682462758
 10
1766.358266122004
 20
1031.578015796091
 10
1766.358266122004
 20
1032.166140796091
 10
1766.358266122004
 20
1032.754265796091
 10
1766.358266122004
 20
1033.342390796091
 10
1766.358266122004
 20
1033.891307462758
 10
1766.358266122004
 20
1034.440224129425
 10
1766.358266122004
 20
1034.949932462758
 10
1766.358266122004
 20
1035.420432462758
 10
1766.358266122004
 20
1035.851724129425
 10
1766.358266122004
 20
1036.243807462758
 10
1766.358266122004
 20
1036.635890796091
 10
1766.358266122004
 20
1036.949557462758
 10
1766.358266122004
 20
1037.224015796091
 10
1766.358266122004
 20
1037.459265796091
 10
1766.358266122004
 20
1037.616099129425
 10
1766.358266122004
 20
1037.733724129425
 10
1766.358266122004
 20
1037.812140796091
 10
1766.358266122004
 20
1037.851349129425
  0
LWPOLYLINE
  5
39A4
330
19
100
AcDbEntity
  8
1
100
AcDbPolyline
 90
       37
 70
     0
 43
0.0
 10
1766.005391122004
 20
1023.814765796091
 10
1766.005391122004
 20
1023.814765796091
 10
1766.005391122004
 20
1023.893182462758
 10
1766.005391122004
 20
1024.050015796091
 10
1766.005391122004
 20
1024.206849129425
 10
1766.005391122004
 20
1024.442099129425
 10
1766.005391122004
 20
1024.716557462758
 10
1766.005391122004
 20
1025.030224129425
 10
1766.005391122004
 20
1025.383099129425
 10
1766.005391122004
 20
1025.814390796091
 10
1766.005391122004
 20
1026.245682462758
 10
1766.005391122004
 20
1026.716182462758
 10
1766.005391122004
 20
1027.225890796091
 10
1766.005391122004
 20
1027.774807462758
 10
1766.005391122004
 20
1028.323724129425
 10
1766.005391122004
 20
1028.872640796091
 10
1766.005391122004
 20
1029.460765796091
 10
1766.005391122004
 20
1030.048890796091
 10
1766.005391122004
 20
1030.637015796091
 10
1766.005391122004
 20
1031.264349129425
 10
1766.005391122004
 20
1031.852474129425
 10
1766.005391122004
 20
1032.440599129424
 10
1766.005391122004
 20
1032.989515796091
 10
1766.005391122004
 20
1033.538432462758
 10
1766.005391122004
 20
1034.087349129425
 10
1766.005391122004
 20
1034.597057462758
 10
1766.005391122004
 20
1035.067557462758
 10
1766.005391122004
 20
1035.498849129425
 10
1766.005391122004
 20
1035.890932462758
 10
1766.005391122004
 20
1036.283015796091
 10
1766.005391122004
 20
1036.596682462758
 10
1766.005391122004
 20
1036.871140796091
 10
1766.005391122004
 20
1037.106390796091
 10
1766.005391122004
 20
1037.263224129425
 10
1766.005391122004
 20
1037.380849129425
 10
1766.005391122004
 20
1037.459265796091
 10
1766.005391122004
 20
1037.498474129424
  0
LWPOLYLINE
  5
39A5
330
19
100
AcDbEntity
  8
SK1
100
AcDbPolyline
 90
       29
 70
     0
 43
0.0
 10
1753.49793278867
 20
1034.636265796091
 10
1753.49793278867
 20
1034.636265796091
 10
1753.49793278867
 20
1034.557849129424
 10
1753.49793278867
 20
1034.401015796091
 10
1753.49793278867
 20
1034.244182462758
 10
1753.49793278867
 20
1034.008932462758
 10
1753.49793278867
 20
1033.734474129425
 10
1753.49793278867
 20
1033.420807462758
 10
1753.49793278867
 20
1033.107140796091
 10
1753.49793278867
 20
1032.715057462758
 10
1753.49793278867
 20
1032.322974129425
 10
1753.49793278867
 20
1031.891682462758
 10
1753.49793278867
 20
1031.460390796091
 10
1753.49793278867
 20
1030.989890796091
 10
1753.49793278867
 20
1030.519390796091
 10
1753.49793278867
 20
1030.088099129425
 10
1753.49793278867
 20
1029.617599129425
 10
1753.49793278867
 20
1029.186307462758
 10
1753.49793278867
 20
1028.794224129425
 10
1753.49793278867
 20
1028.402140796091
 10
1753.49793278867
 20
1028.049265796091
 10
1753.49793278867
 20
1027.696390796091
 10
1753.49793278867
 20
1027.421932462758
 10
1753.49793278867
 20
1027.186682462758
 10
1753.49793278867
 20
1026.951432462758
 10
1753.49793278867
 20
1026.794599129424
 10
1753.49793278867
 20
1026.716182462758
 10
1753.49793278867
 20
1026.637765796091
 10
1753.49793278867
 20
1026.637765796091
  0
LWPOLYLINE
  5
39A6
330
19
100
AcDbEntity
  8
SK1
100
AcDbPolyline
 90
       28
 70
     0
 43
0.0
 10
1752.988224455337
 20
1026.951432462758
 10
1752.988224455337
 20
1026.951432462758
 10
1752.988224455337
 20
1027.029849129425
 10
1752.988224455337
 20
1027.186682462758
 10
1752.988224455337
 20
1027.343515796091
 10
1752.988224455337
 20
1027.578765796091
 10
1752.988224455337
 20
1027.853224129424
 10
1752.988224455337
 20
1028.127682462758
 10
1752.988224455337
 20
1028.480557462758
 10
1752.988224455337
 20
1028.872640796091
 10
1752.988224455337
 20
1029.264724129425
 10
1752.988224455337
 20
1029.656807462758
 10
1752.988224455337
 20
1030.088099129425
 10
1752.988224455337
 20
1030.558599129425
 10
1752.988224455337
 20
1030.989890796091
 10
1752.988224455337
 20
1031.421182462758
 10
1752.988224455337
 20
1031.852474129425
 10
1752.988224455337
 20
1032.244557462758
 10
1752.988224455337
 20
1032.636640796091
 10
1752.988224455337
 20
1032.989515796091
 10
1752.988224455337
 20
1033.303182462758
 10
1752.988224455337
 20
1033.616849129424
 10
1752.988224455337
 20
1033.852099129425
 10
1752.988224455337
 20
1034.048140796091
 10
1752.988224455337
 20
1034.204974129425
 10
1752.988224455337
 20
1034.322599129425
 10
1752.988224455337
 20
1034.361807462758
 10
1752.988224455337
 20
1034.361807462758
  0
LWPOLYLINE
  5
39A7
330
19
100
AcDbEntity
  8
SK1
100
AcDbPolyline
 90
       16
 70
     0
 43
0.0
 10
1764.90755778867
 20
1028.206099129425
 10
1764.750724455337
 20
1028.323724129425
 10
1764.20180778867
 20
1028.519765796091
 10
1763.888141122003
 20
1028.558974129424
 10
1763.574474455337
 20
1028.558974129424
 10
1763.26080778867
 20
1028.480557462758
 10
1762.986349455337
 20
1028.402140796091
 10
1762.711891122004
 20
1028.284515796091
 10
1762.476641122004
 20
1028.127682462758
 10
1762.280599455337
 20
1027.970849129425
 10
1762.123766122003
 20
1027.774807462758
 10
1762.006141122003
 20
1027.578765796091
 10
1761.96693278867
 20
1027.421932462758
 10
1762.045349455337
 20
1027.186682462758
 10
1762.20218278867
 20
1026.990640796091
 10
1762.241391122003
 20
1026.951432462758
  0
LWPOLYLINE
  5
39A8
330
19
100
AcDbEntity
  8
SK1
100
AcDbPolyline
 90
       21
 70
     0
 43
0.0
 10
1764.90755778867
 20
1028.206099129425
 10
1764.90755778867
 20
1028.598182462758
 10
1764.90755778867
 20
1028.990265796091
 10
1764.90755778867
 20
1029.421557462758
 10
1764.90755778867
 20
1029.852849129425
 10
1764.90755778867
 20
1030.323349129425
 10
1764.90755778867
 20
1030.793849129425
 10
1764.90755778867
 20
1031.264349129425
 10
1764.90755778867
 20
1031.695640796091
 10
1764.90755778867
 20
1032.126932462758
 10
1764.90755778867
 20
1032.558224129425
 10
1764.90755778867
 20
1032.950307462758
 10
1764.90755778867
 20
1033.303182462758
 10
1764.90755778867
 20
1033.616849129424
 10
1764.90755778867
 20
1033.930515796091
 10
1764.90755778867
 20
1034.165765796091
 10
1764.90755778867
 20
1034.361807462758
 10
1764.90755778867
 20
1034.518640796091
 10
1764.90755778867
 20
1034.597057462758
 10
1764.90755778867
 20
1034.636265796091
 10
1764.90755778867
 20
1034.636265796091
  0
LWPOLYLINE
  5
39A9
330
19
100
AcDbEntity
  8
SK1
100
AcDbPolyline
 90
        3
 70
     0
 43
0.0
 10
1765.338849455337
 20
1027.814015796091
 10
1765.103599455337
 20
1028.088474129425
 10
1764.90755778867
 20
1028.206099129425
  0
LWPOLYLINE
  5
39AA
330
19
100
AcDbEntity
  8
SK1
100
AcDbPolyline
 90
        4
 70
     0
 43
0.0
 10
1765.338849455337
 20
1027.265099129425
 10
1765.37805778867
 20
1027.421932462758
 10
1765.417266122003
 20
1027.617974129425
 10
1765.338849455337
 20
1027.814015796091
  0
LWPOLYLINE
  5
39AB
330
19
100
AcDbEntity
  8
SK1
100
AcDbPolyline
 90
        2
 70
     0
 43
0.0
 10
1765.26043278867
 20
1027.147474129425
 10
1765.338849455337
 20
1027.265099129425
  0
LWPOLYLINE
  5
39AC
330
19
100
AcDbEntity
  8
SK1
100
AcDbPolyline
 90
        5
 70
     0
 43
0.0
 10
1765.182016122002
 20
1028.010057462758
 10
1765.221224455337
 20
1027.970849129425
 10
1765.26043278867
 20
1027.814015796091
 10
1765.26043278867
 20
1027.657182462758
 10
1765.26043278867
 20
1027.578765796091
  0
LWPOLYLINE
  5
39AD
330
19
100
AcDbEntity
  8
SK1
100
AcDbPolyline
 90
        5
 70
     0
 43
0.0
 10
1762.241391122003
 20
1027.578765796091
 10
1762.241391122003
 20
1027.657182462758
 10
1762.241391122003
 20
1027.814015796091
 10
1762.280599455337
 20
1027.970849129425
 10
1762.31980778867
 20
1028.010057462758
  0
LWPOLYLINE
  5
39AE
330
19
100
AcDbEntity
  8
1
100
AcDbPolyline
 90
        9
 70
     0
 43
0.0
 10
1779.218599455337
 20
1040.870390796091
 10
1778.826516122004
 20
1040.870390796091
 10
1778.43443278867
 20
1040.870390796091
 10
1778.042349455337
 20
1040.909599129425
 10
1777.689474455337
 20
1040.948807462758
 10
1777.336599455337
 20
1040.948807462758
 10
1777.062141122003
 20
1040.988015796091
 10
1776.78768278867
 20
1041.066432462758
 10
1776.78768278867
 20
1041.066432462758
  0
LWPOLYLINE
  5
39AF
330
19
100
AcDbEntity
  8
1
100
AcDbPolyline
 90
        5
 70
     0
 43
0.0
 10
1779.218599455337
 20
1040.870390796091
 10
1779.218599455337
 20
1040.674349129425
 10
1779.297016122004
 20
1040.556724129425
 10
1779.414641122003
 20
1040.439099129425
 10
1779.532266122004
 20
1040.399890796091
  0
LWPOLYLINE
  5
39B0
330
19
100
AcDbEntity
  8
1
100
AcDbPolyline
 90
        2
 70
     0
 43
0.0
 10
1776.003516122004
 20
1041.732974129425
 10
1776.003516122004
 20
1041.615349129425
  0
LWPOLYLINE
  5
39B1
330
19
100
AcDbEntity
  8
1
100
AcDbPolyline
 90
        2
 70
     0
 43
0.0
 10
1776.003516122004
 20
1042.360307462758
 10
1776.003516122004
 20
1041.732974129425
  0
LWPOLYLINE
  5
39B2
330
19
100
AcDbEntity
  8
1
100
AcDbPolyline
 90
        2
 70
     0
 43
0.0
 10
1776.003516122004
 20
1044.007057462758
 10
1776.003516122004
 20
1043.301307462758
  0
LWPOLYLINE
  5
39B3
330
19
100
AcDbEntity
  8
1
100
AcDbPolyline
 90
        2
 70
     0
 43
0.0
 10
1776.003516122004
 20
1043.262099129425
 10
1776.003516122004
 20
1044.007057462758
  0
LWPOLYLINE
  5
39B4
330
19
100
AcDbEntity
  8
1
100
AcDbPolyline
 90
        2
 70
     0
 43
0.0
 10
1776.003516122004
 20
1043.066057462758
 10
1776.003516122004
 20
1043.262099129425
  0
LWPOLYLINE
  5
39B5
330
19
100
AcDbEntity
  8
1
100
AcDbPolyline
 90
        2
 70
     0
 43
0.0
 10
1776.003516122004
 20
1043.066057462758
 10
1776.003516122004
 20
1042.477932462758
  0
LWPOLYLINE
  5
39B6
330
19
100
AcDbEntity
  8
1
100
AcDbPolyline
 90
        2
 70
     0
 43
0.0
 10
1776.003516122004
 20
1041.615349129425
 10
1776.003516122004
 20
1042.477932462758
  0
LWPOLYLINE
  5
39B7
330
19
100
AcDbEntity
  8
1
100
AcDbPolyline
 90
        2
 70
     0
 43
0.0
 10
1786.001641122004
 20
1041.536932462758
 10
1786.001641122004
 20
1039.380474129425
  0
LWPOLYLINE
  5
39B8
330
19
100
AcDbEntity
  8
1
100
AcDbPolyline
 90
        2
 70
     0
 43
0.0
 10
1786.001641122004
 20
1039.380474129425
 10
1785.84480778867
 20
1039.380474129425
  0
LWPOLYLINE
  5
39B9
330
19
100
AcDbEntity
  8
1
100
AcDbPolyline
 90
        2
 70
     0
 43
0.0
 10
1776.55243278867
 20
1041.536932462758
 10
1786.001641122004
 20
1041.536932462758
  0
LWPOLYLINE
  5
39BA
330
19
100
AcDbEntity
  8
1
100
AcDbPolyline
 90
        2
 70
     0
 43
0.0
 10
1786.001641122004
 20
1041.536932462758
 10
1786.001641122004
 20
1042.517140796091
  0
LWPOLYLINE
  5
39BB
330
19
100
AcDbEntity
  8
1
100
AcDbPolyline
 90
        2
 70
     0
 43
0.0
 10
1776.003516122004
 20
1042.477932462758
 10
1786.001641122004
 20
1042.517140796091
  0
LWPOLYLINE
  5
39BC
330
19
100
AcDbEntity
  8
1
100
AcDbPolyline
 90
        2
 70
     0
 43
0.0
 10
1786.001641122004
 20
1043.105265796091
 10
1776.003516122004
 20
1043.066057462758
  0
LWPOLYLINE
  5
39BD
330
19
100
AcDbEntity
  8
1
100
AcDbPolyline
 90
        2
 70
     0
 43
0.0
 10
1786.001641122004
 20
1042.517140796091
 10
1786.001641122004
 20
1043.105265796091
  0
LWPOLYLINE
  5
39BE
330
19
100
AcDbEntity
  8
1
100
AcDbPolyline
 90
        2
 70
     0
 43
0.0
 10
1777.022932788671
 20
1044.634390796091
 10
1784.707766122004
 20
1044.634390796091
  0
LWPOLYLINE
  5
39BF
330
19
100
AcDbEntity
  8
1
100
AcDbPolyline
 90
        2
 70
     0
 43
0.0
 10
1784.707766122004
 20
1044.634390796091
 10
1785.413516122004
 20
1044.634390796091
  0
LWPOLYLINE
  5
39C0
330
19
100
AcDbEntity
  8
1
100
AcDbPolyline
 90
        2
 70
     0
 43
0.0
 10
1785.413516122004
 20
1044.634390796091
 10
1786.001641122004
 20
1044.281515796091
  0
LWPOLYLINE
  5
39C1
330
19
100
AcDbEntity
  8
1
100
AcDbPolyline
 90
        2
 70
     0
 43
0.0
 10
1776.003516122004
 20
1043.262099129425
 10
1786.001641122004
 20
1043.301307462758
  0
LWPOLYLINE
  5
39C2
330
19
100
AcDbEntity
  8
1
100
AcDbPolyline
 90
        2
 70
     0
 43
0.0
 10
1776.003516122004
 20
1044.007057462758
 10
1777.022932788671
 20
1044.634390796091
  0
LWPOLYLINE
  5
39C3
330
19
100
AcDbEntity
  8
1
100
AcDbPolyline
 90
        2
 70
     0
 43
0.0
 10
1786.001641122004
 20
1044.281515796091
 10
1786.001641122004
 20
1043.301307462758
  0
LWPOLYLINE
  5
39C4
330
19
100
AcDbEntity
  8
1
100
AcDbPolyline
 90
        2
 70
     0
 43
0.0
 10
1786.001641122004
 20
1043.301307462758
 10
1786.001641122004
 20
1043.105265796091
  0
LWPOLYLINE
  5
39C5
330
19
100
AcDbEntity
  8
1
100
AcDbPolyline
 90
       48
 70
     0
 43
0.0
 10
1777.062141122003
 20
1041.380099129424
 10
1776.67005778867
 20
1041.497724129425
 10
1776.238766122003
 20
1041.576140796091
 10
1775.84668278867
 20
1041.615349129425
 10
1775.415391122004
 20
1041.654557462758
 10
1774.984099455337
 20
1041.615349129425
 10
1774.55280778867
 20
1041.536932462758
 10
1774.160724455337
 20
1041.458515796091
 10
1773.768641122004
 20
1041.301682462758
 10
1773.37655778867
 20
1041.144849129425
 10
1773.062891122004
 20
1040.948807462758
 10
1772.78843278867
 20
1040.752765796091
 10
1772.513974455337
 20
1040.478307462758
 10
1772.31793278867
 20
1040.203849129424
 10
1772.161099455337
 20
1039.929390796091
 10
1772.043474455337
 20
1039.654932462758
 10
1772.004266122004
 20
1039.341265796091
 10
1771.96505778867
 20
1039.027599129425
 10
1772.043474455337
 20
1038.753140796091
 10
1772.121891122004
 20
1038.439474129424
 10
1772.278724455337
 20
1038.165015796091
 10
1772.474766122003
 20
1037.890557462758
 10
1772.710016122004
 20
1037.616099129425
 10
1773.02368278867
 20
1037.420057462758
 10
1773.337349455337
 20
1037.224015796091
 10
1773.690224455337
 20
1037.027974129425
 10
1774.08230778867
 20
1036.910349129424
 10
1774.474391122003
 20
1036.792724129425
 10
1774.90568278867
 20
1036.714307462758
 10
1775.336974455337
 20
1036.675099129425
 10
1775.768266122003
 20
1036.714307462758
 10
1776.19955778867
 20
1036.753515796091
 10
1776.591641122004
 20
1036.831932462758
 10
1776.983724455337
 20
1036.949557462758
 10
1777.37580778867
 20
1037.067182462758
 10
1777.72868278867
 20
1037.263224129425
 10
1778.042349455337
 20
1037.459265796091
 10
1778.31680778867
 20
1037.694515796091
 10
1778.55205778867
 20
1037.968974129425
 10
1778.708891122004
 20
1038.243432462758
 10
1778.865724455337
 20
1038.517890796091
 10
1778.944141122003
 20
1038.831557462758
 10
1778.983349455337
 20
1039.145224129425
 10
1778.944141122003
 20
1039.419682462758
 10
1778.865724455337
 20
1039.733349129424
 10
1778.748099455337
 20
1040.047015796091
 10
1778.591266122003
 20
1040.321474129425
 10
1778.356016122003
 20
1040.556724129425
  0
LWPOLYLINE
  5
39C6
330
19
100
AcDbEntity
  8
1
100
AcDbPolyline
 90
        6
 70
     0
 43
0.0
 10
1777.022932788671
 20
1040.399890796091
 10
1776.90530778867
 20
1040.556724129425
 10
1776.826891122003
 20
1040.752765796091
 10
1776.78768278867
 20
1040.948807462758
 10
1776.866099455337
 20
1041.184057462758
 10
1777.022932788671
 20
1041.340890796091
  0
LWPOLYLINE
  5
39C7
330
19
100
AcDbEntity
  8
1
100
AcDbPolyline
 90
       15
 70
     0
 43
0.0
 10
1777.062141122003
 20
1041.380099129424
 10
1776.866099455337
 20
1041.223265796091
 10
1776.709266122004
 20
1041.066432462758
 10
1776.591641122004
 20
1040.909599129425
 10
1776.55243278867
 20
1040.791974129424
 10
1776.55243278867
 20
1040.674349129425
 10
1776.591641122004
 20
1040.556724129425
 10
1776.67005778867
 20
1040.478307462758
 10
1776.78768278867
 20
1040.439099129425
 10
1776.983724455337
 20
1040.399890796091
 10
1777.179766122004
 20
1040.399890796091
 10
1777.454224455337
 20
1040.399890796091
 10
1777.72868278867
 20
1040.439099129425
 10
1778.042349455337
 20
1040.478307462758
 10
1778.356016122003
 20
1040.556724129425
  0
LWPOLYLINE
  5
39C8
330
19
100
AcDbEntity
  8
1
100
AcDbPolyline
 90
       22
 70
     0
 43
0.0
 10
1774.08230778867
 20
1037.537682462758
 10
1774.278349455337
 20
1037.537682462758
 10
1774.43518278867
 20
1037.616099129425
 10
1774.55280778867
 20
1037.694515796091
 10
1774.631224455337
 20
1037.812140796091
 10
1774.631224455337
 20
1037.929765796091
 10
1774.592016122004
 20
1038.086599129425
 10
1774.513599455337
 20
1038.204224129425
 10
1774.395974455337
 20
1038.282640796091
 10
1774.239141122003
 20
1038.321849129425
 10
1774.08230778867
 20
1038.361057462758
 10
1773.886266122003
 20
1038.361057462758
 10
1773.72943278867
 20
1038.321849129425
 10
1773.572599455337
 20
1038.243432462758
 10
1773.49418278867
 20
1038.125807462758
 10
1773.454974455337
 20
1038.008182462758
 10
1773.454974455337
 20
1037.890557462758
 10
1773.49418278867
 20
1037.733724129425
 10
1773.61180778867
 20
1037.655307462758
 10
1773.72943278867
 20
1037.576890796091
 10
1773.925474455336
 20
1037.537682462758
 10
1774.08230778867
 20
1037.537682462758
  0
LWPOLYLINE
  5
39C9
330
19
100
AcDbEntity
  8
1
100
AcDbPolyline
 90
       11
 70
     0
 43
0.0
 10
1774.631224455337
 20
1037.890557462758
 10
1774.592016122004
 20
1037.929765796091
 10
1774.513599455337
 20
1038.047390796091
 10
1774.395974455337
 20
1038.125807462758
 10
1774.239141122003
 20
1038.204224129425
 10
1774.08230778867
 20
1038.243432462758
 10
1773.886266122003
 20
1038.204224129425
 10
1773.72943278867
 20
1038.165015796091
 10
1773.572599455337
 20
1038.086599129425
 10
1773.49418278867
 20
1037.968974129425
 10
1773.454974455337
 20
1037.890557462758
  0
LWPOLYLINE
  5
39CA
330
19
100
AcDbEntity
  8
1
100
AcDbPolyline
 90
        2
 70
     0
 43
0.0
 10
1781.061391122004
 20
1041.419307462758
 10
1783.688349455337
 20
1041.419307462758
  0
LWPOLYLINE
  5
39CB
330
19
100
AcDbEntity
  8
1
100
AcDbPolyline
 90
        9
 70
     0
 43
0.0
 10
1778.356016122003
 20
1040.870390796091
 10
1778.55205778867
 20
1040.988015796091
 10
1778.826516122004
 20
1041.105640796091
 10
1779.14018278867
 20
1041.184057462758
 10
1779.49305778867
 20
1041.262474129425
 10
1779.84593278867
 20
1041.340890796091
 10
1780.238016122004
 20
1041.380099129424
 10
1780.66930778867
 20
1041.419307462758
 10
1781.061391122004
 20
1041.419307462758
  0
LWPOLYLINE
  5
39CC
330
19
100
AcDbEntity
  8
1
100
AcDbPolyline
 90
        8
 70
     0
 43
0.0
 10
1783.688349455337
 20
1041.419307462758
 10
1783.96280778867
 20
1041.419307462758
 10
1784.276474455337
 20
1041.380099129424
 10
1784.511724455336
 20
1041.340890796091
 10
1784.78618278867
 20
1041.301682462758
 10
1784.982224455337
 20
1041.223265796091
 10
1785.13905778867
 20
1041.144849129425
 10
1785.25668278867
 20
1041.066432462758
  0
LWPOLYLINE
  5
39CD
330
19
100
AcDbEntity
  8
SK1
100
AcDbPolyline
 90
       28
 70
     0
 43
0.0
 10
1765.84855778867
 20
1026.873015796091
 10
1765.84855778867
 20
1026.912224129425
 10
1765.84855778867
 20
1026.990640796091
 10
1765.84855778867
 20
1027.108265796091
 10
1765.84855778867
 20
1027.304307462758
 10
1765.84855778867
 20
1027.500349129424
 10
1765.84855778867
 20
1027.774807462758
 10
1765.84855778867
 20
1028.088474129425
 10
1765.84855778867
 20
1028.441349129425
 10
1765.84855778867
 20
1028.833432462758
 10
1765.84855778867
 20
1029.225515796091
 10
1765.84855778867
 20
1029.656807462758
 10
1765.84855778867
 20
1030.088099129425
 10
1765.84855778867
 20
1030.558599129425
 10
1765.84855778867
 20
1030.989890796091
 10
1765.84855778867
 20
1031.421182462758
 10
1765.84855778867
 20
1031.852474129425
 10
1765.84855778867
 20
1032.283765796091
 10
1765.84855778867
 20
1032.675849129425
 10
1765.84855778867
 20
1033.028724129424
 10
1765.84855778867
 20
1033.342390796091
 10
1765.84855778867
 20
1033.656057462758
 10
1765.84855778867
 20
1033.891307462758
 10
1765.84855778867
 20
1034.126557462758
 10
1765.84855778867
 20
1034.244182462758
 10
1765.84855778867
 20
1034.361807462758
 10
1765.84855778867
 20
1034.440224129425
 10
1765.84855778867
 20
1034.440224129425
  0
LWPOLYLINE
  5
39CE
330
19
100
AcDbEntity
  8
SK1
100
AcDbPolyline
 90
       21
 70
     0
 43
0.0
 10
1765.338849455337
 20
1027.814015796091
 10
1765.338849455337
 20
1028.166890796091
 10
1765.338849455337
 20
1028.519765796091
 10
1765.338849455337
 20
1028.911849129425
 10
1765.338849455337
 20
1029.343140796092
 10
1765.338849455337
 20
1029.774432462758
 10
1765.338849455337
 20
1030.244932462758
 10
1765.338849455337
 20
1030.676224129424
 10
1765.338849455337
 20
1031.146724129425
 10
1765.338849455337
 20
1031.578015796091
 10
1765.338849455337
 20
1032.048515796091
 10
1765.338849455337
 20
1032.440599129424
 10
1765.338849455337
 20
1032.832682462758
 10
1765.338849455337
 20
1033.185557462758
 10
1765.338849455337
 20
1033.538432462758
 10
1765.338849455337
 20
1033.812890796091
 10
1765.338849455337
 20
1034.048140796091
 10
1765.338849455337
 20
1034.204974129425
 10
1765.338849455337
 20
1034.361807462758
 10
1765.338849455337
 20
1034.440224129425
 10
1765.338849455337
 20
1034.479432462758
  0
LWPOLYLINE
  5
39CF
330
19
100
AcDbEntity
  8
SK1
100
AcDbPolyline
 90
        6
 70
     0
 43
0.0
 10
1765.338849455337
 20
1026.833807462758
 10
1765.338849455337
 20
1026.833807462758
 10
1765.338849455337
 20
1026.873015796091
 10
1765.338849455337
 20
1026.951432462758
 10
1765.338849455337
 20
1027.069057462758
 10
1765.338849455337
 20
1027.265099129425
  0
LWPOLYLINE
  5
39D0
330
19
100
AcDbEntity
  8
SK1
100
AcDbPolyline
 90
       28
 70
     0
 43
0.0
 10
1765.49568278867
 20
1026.873015796091
 10
1765.49568278867
 20
1026.912224129425
 10
1765.49568278867
 20
1026.990640796091
 10
1765.49568278867
 20
1027.108265796091
 10
1765.49568278867
 20
1027.304307462758
 10
1765.49568278867
 20
1027.500349129424
 10
1765.49568278867
 20
1027.774807462758
 10
1765.49568278867
 20
1028.088474129425
 10
1765.49568278867
 20
1028.441349129425
 10
1765.49568278867
 20
1028.833432462758
 10
1765.49568278867
 20
1029.225515796091
 10
1765.49568278867
 20
1029.656807462758
 10
1765.49568278867
 20
1030.088099129425
 10
1765.49568278867
 20
1030.558599129425
 10
1765.49568278867
 20
1030.989890796091
 10
1765.49568278867
 20
1031.421182462758
 10
1765.49568278867
 20
1031.852474129425
 10
1765.49568278867
 20
1032.283765796091
 10
1765.49568278867
 20
1032.675849129425
 10
1765.49568278867
 20
1033.028724129424
 10
1765.49568278867
 20
1033.342390796091
 10
1765.49568278867
 20
1033.656057462758
 10
1765.49568278867
 20
1033.891307462758
 10
1765.49568278867
 20
1034.126557462758
 10
1765.49568278867
 20
1034.244182462758
 10
1765.49568278867
 20
1034.361807462758
 10
1765.49568278867
 20
1034.440224129425
 10
1765.49568278867
 20
1034.440224129425
  0
LWPOLYLINE
  5
39D1
330
19
100
AcDbEntity
  8
1
100
AcDbPolyline
 90
        2
 70
     0
 43
0.0
 10
1783.688349455337
 20
1041.223265796091
 10
1783.688349455337
 20
1041.419307462758
  0
LWPOLYLINE
  5
39D2
330
19
100
AcDbEntity
  8
1
100
AcDbPolyline
 90
        2
 70
     0
 43
0.0
 10
1781.061391122004
 20
1040.988015796091
 10
1781.061391122004
 20
1041.419307462758
  0
DIMENSION
  5
39D3
330
19
100
AcDbEntity
  8
SK2
100
AcDbDimension
  2
*D66
 10
1744.723578885352
 20
1026.637765796091
 30
0.0
 11
1741.973578885352
 21
1030.637015796092
 31
0.0
 70
    32
  1
%%c<>
 71
     5
 42
7.99849999999992
  3
V-TYGEN_-160
100
AcDbAlignedDimension
 13
1753.49793278867
 23
1034.636265796091
 33
0.0
 14
1753.49793278867
 24
1026.637765796091
 34
0.0
 50
90.0
100
AcDbRotatedDimension
  0
DIMENSION
  5
39E1
330
19
100
AcDbEntity
  8
2
100
AcDbDimension
  2
*D67
 10
1786.001641122004
 20
1054.120232614073
 30
0.0
 11
1776.003516122004
 21
1056.870232614073
 31
0.0
 70
    32
 71
     5
 42
19.99624999999969
  3
V-TYGEN_-160
100
AcDbAlignedDimension
 13
1766.005391122004
 23
1037.498474129424
 33
0.0
 14
1786.001641122004
 24
1044.281515796091
 34
0.0
100
AcDbRotatedDimension
  0
DIMENSION
  5
39EE
330
19
100
AcDbEntity
  8
2
100
AcDbDimension
  2
*D68
 10
1800.160678357716
 20
1016.639640796091
 30
0.0
 11
1797.410678357717
 21
1030.637015796092
 31
0.0
 70
    32
  1
%%c<>
 71
     5
 42
27.99475000000018
  3
V-TYGEN_-160
100
AcDbAlignedDimension
 13
1785.413516122004
 23
1044.634390796091
 33
0.0
 14
1784.31568278867
 24
1016.639640796091
 34
0.0
 50
90.0
100
AcDbRotatedDimension
  0
LINE
  5
3A3C
330
19
100
AcDbEntity
  8
4
100
AcDbLine
 10
1766.005391122004
 20
1030.637015796091
 30
0.0
 11
1788.458249843628
 21
1030.637015796091
 31
0.0
  0
ENDSEC
  0
SECTION
  2
OBJECTS
  0
DICTIONARY
  5
C
330
0
100
AcDbDictionary
281
     1
  3
ACAD_COLOR
350
129F
  3
ACAD_GROUP
350
D
  3
ACAD_LAYOUT
350
A85
  3
ACAD_MATERIAL
350
128A
  3
ACAD_MLEADERSTYLE
350
1483
  3
ACAD_MLINESTYLE
350
E
  3
ACAD_PLOTSETTINGS
350
A86
  3
ACAD_PLOTSTYLENAME
350
E93
  3
ACAD_SCALELIST
350
1461
  3
ACAD_TABLESTYLE
350
12A0
  3
ACAD_VISUALSTYLE
350
128E
  3
ACDB_RECOMPOSE_DATA
350
14AC
  3
AcDbVariableDictionary
350
1433
  3
DWGPROPS
350
3A5C
1001
ACAD
1000
TREAT_AS_HARD
1070
     0
  0
DICTIONARY
  5
148A
330
F
100
AcDbDictionary
280
     1
281
     1
  3
ADSK_XREC_LAYER_RECONCILED
360
148B
  0
DICTIONARY
  5
148C
330
1E
100
AcDbDictionary
280
     1
281
     1
  3
ADSK_XREC_LAYER_RECONCILED
360
148D
  0
DICTIONARY
  5
148E
330
22
100
AcDbDictionary
280
     1
281
     1
  3
ADSK_XREC_LAYER_RECONCILED
360
148F
  0
DICTIONARY
  5
1490
330
23
100
AcDbDictionary
280
     1
281
     1
  3
ADSK_XREC_LAYER_RECONCILED
360
1491
  0
DICTIONARY
  5
1492
330
24
100
AcDbDictionary
280
     1
281
     1
  3
ADSK_XREC_LAYER_RECONCILED
360
1493
  0
DICTIONARY
  5
1494
330
25
100
AcDbDictionary
280
     1
281
     1
  3
ADSK_XREC_LAYER_RECONCILED
360
1495
  0
DICTIONARY
  5
1496
330
26
100
AcDbDictionary
280
     1
281
     1
  3
ADSK_XREC_LAYER_RECONCILED
360
1497
  0
DICTIONARY
  5
1498
330
27
100
AcDbDictionary
280
     1
281
     1
  3
ADSK_XREC_LAYER_RECONCILED
360
1499
  0
DICTIONARY
  5
149A
330
28
100
AcDbDictionary
280
     1
281
     1
  3
ADSK_XREC_LAYER_RECONCILED
360
149B
  0
DICTIONARY
  5
149C
330
29
100
AcDbDictionary
280
     1
281
     1
  3
ADSK_XREC_LAYER_RECONCILED
360
149D
  0
DICTIONARY
  5
149E
330
2A
100
AcDbDictionary
280
     1
281
     1
  3
ADSK_XREC_LAYER_RECONCILED
360
149F
  0
DICTIONARY
  5
14A0
330
2B
100
AcDbDictionary
280
     1
281
     1
  3
ADSK_XREC_LAYER_RECONCILED
360
14A1
  0
DICTIONARY
  5
14A2
330
2C
100
AcDbDictionary
280
     1
281
     1
  3
ADSK_XREC_LAYER_RECONCILED
360
14A3
  0
DICTIONARY
  5
14A4
330
2D
100
AcDbDictionary
280
     1
281
     1
  3
ADSK_XREC_LAYER_RECONCILED
360
14A5
  0
DICTIONARY
  5
14A6
330
C07
100
AcDbDictionary
280
     1
281
     1
  3
ADSK_XREC_LAYER_RECONCILED
360
14A7
  0
DICTIONARY
  5
E8D
330
19
100
AcDbDictionary
280
     1
281
     1
  3
ACAD_SORTENTS
360
2AE4
  0
DICTIONARY
  5
E8B
330
16
100
AcDbDictionary
280
     1
281
     1
  0
DICTIONARY
  5
129F
102
{ACAD_REACTORS
330
C
102
}
330
C
100
AcDbDictionary
281
     1
  0
DICTIONARY
  5
D
102
{ACAD_REACTORS
330
C
102
}
330
C
100
AcDbDictionary
281
     1
1001
ACAD
1000
TREAT_AS_HARD
1070
     0
  0
DICTIONARY
  5
A85
102
{ACAD_REACTORS
330
C
102
}
330
C
100
AcDbDictionary
281
     1
  3
Layout1
350
E96
  3
Model
350
E95
1001
ACAD
1000
TREAT_AS_HARD
1070
     0
  0
DICTIONARY
  5
128A
102
{ACAD_REACTORS
330
C
102
}
330
C
100
AcDbDictionary
281
     1
  3
ByBlock
350
128C
  3
ByLayer
350
128B
  3
Global
350
128D
  0
DICTIONARY
  5
1483
102
{ACAD_REACTORS
330
C
102
}
330
C
100
AcDbDictionary
281
     1
  3
Standard
350
1484
  0
DICTIONARY
  5
E
102
{ACAD_REACTORS
330
C
102
}
330
C
100
AcDbDictionary
281
     1
  3
STANDARD
350
1C
1001
ACAD
1000
TREAT_AS_HARD
1070
     0
  0
DICTIONARY
  5
A86
102
{ACAD_REACTORS
330
C
102
}
330
C
100
AcDbDictionary
281
     1
1001
ACAD
1000
TREAT_AS_HARD
1070
     0
  0
ACDBDICTIONARYWDFLT
  5
E93
102
{ACAD_REACTORS
330
C
102
}
330
C
100
AcDbDictionary
281
     1
  3
Normal
350
E94
100
AcDbDictionaryWithDefault
340
E94
  0
DICTIONARY
  5
1461
102
{ACAD_REACTORS
330
C
102
}
330
C
100
AcDbDictionary
281
     1
  3
A0
350
1462
  3
A1
350
1463
  3
A2
350
1464
  3
A3
350
1465
  3
A4
350
1466
  3
A5
350
1467
  3
A6
350
1468
  3
A7
350
1469
  3
A8
350
146A
  3
A9
350
146B
  3
B0
350
146C
  3
B1
350
146D
  3
B2
350
146E
  3
B3
350
146F
  3
B4
350
1470
  3
B5
350
1471
  3
B6
350
1472
  3
B7
350
1473
  3
B8
350
1474
  3
B9
350
1475
  3
C0
350
1476
  3
C1
350
1477
  3
C2
350
1478
  3
C3
350
1479
  3
C4
350
147A
  3
C5
350
147B
  3
C6
350
147C
  3
C7
350
147D
  3
C8
350
147E
  3
C9
350
147F
  3
D0
350
1480
  3
D1
350
1481
  3
D2
350
1482
  0
DICTIONARY
  5
12A0
102
{ACAD_REACTORS
330
C
102
}
330
C
100
AcDbDictionary
281
     1
  3
Standard
350
12A1
  0
DICTIONARY
  5
128E
102
{ACAD_REACTORS
330
C
102
}
330
C
100
AcDbDictionary
281
     1
  3
2dWireframe
350
1294
  3
3D Hidden
350
1296
  3
3dWireframe
350
1295
  3
Basic
350
1293
  3
Brighten
350
129A
  3
ColorChange
350
129E
  3
Conceptual
350
1297
  3
Dim
350
1299
  3
Facepattern
350
129D
  3
Flat
350
128F
  3
FlatWithEdges
350
1290
  3
Gouraud
350
1291
  3
GouraudWithEdges
350
1292
  3
Linepattern
350
129C
  3
Realistic
350
1298
  3
Thicken
350
129B
  0
XRECORD
  5
14AC
102
{ACAD_REACTORS
330
C
102
}
330
C
100
AcDbXrecord
280
     1
 90
        1
330
12A1
  0
DICTIONARY
  5
1433
102
{ACAD_REACTORS
330
C
102
}
330
C
100
AcDbDictionary
281
     1
  3
CANNOSCALE
350
14A9
  3
CMLEADERSTYLE
350
14A8
  3
CTABLESTYLE
350
1434
  3
DIMASSOC
350
1437
  3
INDEXCTL
350
1436
  3
SORTENTS
350
1435
  0
XRECORD
  5
3A5C
102
{ACAD_REACTORS
330
C
102
}
330
C
100
AcDbXrecord
280
     1
  1
DWGPROPS COOKIE
  2

  3

  4

  6

  7

  8
inpunamok
  9

300
=
301
=
302
=
303
=
304
=
305
=
306
=
307
=
308
=
309
=
 40
0.1634327199074074
 41
2455495.43569007
 42
2455597.631177454
  1

 90
        0
  0
XRECORD
  5
148B
102
{ACAD_REACTORS
330
148A
102
}
330
148A
100
AcDbXrecord
280
     1
290
     1
  0
XRECORD
  5
148D
102
{ACAD_REACTORS
330
148C
102
}
330
148C
100
AcDbXrecord
280
     1
290
     1
  0
XRECORD
  5
148F
102
{ACAD_REACTORS
330
148E
102
}
330
148E
100
AcDbXrecord
280
     1
290
     1
  0
XRECORD
  5
1491
102
{ACAD_REACTORS
330
1490
102
}
330
1490
100
AcDbXrecord
280
     1
290
     1
  0
XRECORD
  5
1493
102
{ACAD_REACTORS
330
1492
102
}
330
1492
100
AcDbXrecord
280
     1
290
     1
  0
XRECORD
  5
1495
102
{ACAD_REACTORS
330
1494
102
}
330
1494
100
AcDbXrecord
280
     1
290
     1
  0
XRECORD
  5
1497
102
{ACAD_REACTORS
330
1496
102
}
330
1496
100
AcDbXrecord
280
     1
290
     1
  0
XRECORD
  5
1499
102
{ACAD_REACTORS
330
1498
102
}
330
1498
100
AcDbXrecord
280
     1
290
     1
  0
XRECORD
  5
149B
102
{ACAD_REACTORS
330
149A
102
}
330
149A
100
AcDbXrecord
280
     1
290
     1
  0
XRECORD
  5
149D
102
{ACAD_REACTORS
330
149C
102
}
330
149C
100
AcDbXrecord
280
     1
290
     1
  0
XRECORD
  5
149F
102
{ACAD_REACTORS
330
149E
102
}
330
149E
100
AcDbXrecord
280
     1
290
     1
  0
XRECORD
  5
14A1
102
{ACAD_REACTORS
330
14A0
102
}
330
14A0
100
AcDbXrecord
280
     1
290
     1
  0
XRECORD
  5
14A3
102
{ACAD_REACTORS
330
14A2
102
}
330
14A2
100
AcDbXrecord
280
     1
290
     1
  0
XRECORD
  5
14A5
102
{ACAD_REACTORS
330
14A4
102
}
330
14A4
100
AcDbXrecord
280
     1
290
     1
  0
XRECORD
  5
14A7
102
{ACAD_REACTORS
330
14A6
102
}
330
14A6
100
AcDbXrecord
280
     1
290
     1
  0
SORTENTSTABLE
  5
2AE4
102
{ACAD_REACTORS
330
E8D
102
}
330
E8D
100
AcDbSortentsTable
330
19
331
1431
  5
1431
  0
LAYOUT
  5
E96
102
{ACAD_XDICTIONARY
360
3A5F
102
}
102
{ACAD_REACTORS
330
A85
102
}
330
A85
100
AcDbPlotSettings
  1

  2
\\SECO_TOOLS\Q_HP8100_WMM.LANDSKAP.PL1.HUS_A.FAGERSTA.SE.SECO_TOOLS
  4

  6

 40
0.0
 41
0.0
 42
0.0
 43
0.0
 44
0.0
 45
0.0
 46
0.0
 47
0.0
 48
0.0
 49
0.0
140
0.0
141
0.0
142
1.0
143
1.0
 70
   688
 72
     0
 73
     0
 74
     5
  7

 75
    16
147
1.0
148
0.0
149
0.0
100
AcDbLayout
  1
Layout1
 70
     0
 71
     1
 10
0.0
 20
0.0
 11
12.0
 21
9.0
 12
0.0
 22
0.0
 32
0.0
 14
1.000000000000000E+20
 24
1.000000000000000E+20
 34
1.000000000000000E+20
 15
-1.000000000000000E+20
 25
-1.000000000000000E+20
 35
-1.000000000000000E+20
146
0.0
 13
0.0
 23
0.0
 33
0.0
 16
1.0
 26
0.0
 36
0.0
 17
0.0
 27
1.0
 37
0.0
 76
     0
330
16
  0
LAYOUT
  5
E95
102
{ACAD_XDICTIONARY
360
3A5D
102
}
102
{ACAD_REACTORS
330
A85
102
}
330
A85
100
AcDbPlotSettings
  1

  2
\\SECO_TOOLS\Q_HP8100_WMM.LANDSKAP.PL1.HUS_A.FAGERSTA.SE.SECO_TOOLS
  4

  6

 40
0.0
 41
0.0
 42
0.0
 43
0.0
 44
0.0
 45
0.0
 46
0.0
 47
0.0
 48
0.0
 49
0.0
140
0.0
141
0.0
142
1.0
143
1.0
 70
  1712
 72
     0
 73
     0
 74
     0
  7

 75
     0
147
1.0
148
0.0
149
0.0
100
AcDbLayout
  1
Model
 70
     1
 71
     0
 10
0.0
 20
0.0
 11
12.0
 21
9.0
 12
0.0
 22
0.0
 32
0.0
 14
0.0
 24
0.0
 34
0.0
 15
0.0
 25
0.0
 35
0.0
146
0.0
 13
0.0
 23
0.0
 33
0.0
 16
1.0
 26
0.0
 36
0.0
 17
0.0
 27
1.0
 37
0.0
 76
     0
330
19
331
1288
  0
MATERIAL
  5
128C
102
{ACAD_XDICTIONARY
360
144C
102
}
102
{ACAD_REACTORS
330
128A
102
}
330
128A
100
AcDbMaterial
  1
ByBlock
  0
MATERIAL
  5
128B
102
{ACAD_XDICTIONARY
360
144A
102
}
102
{ACAD_REACTORS
330
128A
102
}
330
128A
100
AcDbMaterial
  1
ByLayer
  0
MATERIAL
  5
128D
102
{ACAD_XDICTIONARY
360
144E
102
}
102
{ACAD_REACTORS
330
128A
102
}
330
128A
100
AcDbMaterial
  1
Global
  0
MLEADERSTYLE
  5
1484
102
{ACAD_REACTORS
330
1483
102
}
330
1483
100
AcDbMLeaderStyle
170
     2
171
     1
172
     0
 90
        2
 40
0.0
 41
0.0
173
     1
 91
-1056964608
340
13
 92
       -2
290
     1
 42
2.0
291
     1
 43
0.36
  3
Standard
 44
4.0
300

342
10
174
     1
178
     6
175
     1
176
     0
 93
-1056964608
 45
4.0
292
     0
297
     0
 46
4.0
 94
-1056964608
 47
1.0
 49
1.0
140
1.0
293
     1
141
0.0
294
     1
177
     0
142
1.0
295
     0
296
     0
143
0.125
1001
ACAD_MLEADERVER
1070
     2
  0
MLINESTYLE
  5
1C
102
{ACAD_REACTORS
330
E
102
}
330
E
100
AcDbMlineStyle
  2
STANDARD
 70
     0
  3

 62
     0
 51
90.0
 52
90.0
 71
     2
 49
0.5
 62
   256
  6
BYLAYER
 49
-0.5
 62
   256
  6
BYLAYER
  0
ACDBPLACEHOLDER
  5
E94
102
{ACAD_REACTORS
330
E93
102
}
330
E93
  0
SCALE
  5
1462
102
{ACAD_REACTORS
330
1461
102
}
330
1461
100
AcDbScale
 70
     0
300
1:1
140
1.0
141
1.0
290
     1
  0
SCALE
  5
1463
102
{ACAD_REACTORS
330
1461
102
}
330
1461
100
AcDbScale
 70
     0
300
1:2
140
1.0
141
2.0
290
     0
  0
SCALE
  5
1464
102
{ACAD_REACTORS
330
1461
102
}
330
1461
100
AcDbScale
 70
     0
300
1:4
140
1.0
141
4.0
290
     0
  0
SCALE
  5
1465
102
{ACAD_REACTORS
330
1461
102
}
330
1461
100
AcDbScale
 70
     0
300
1:5
140
1.0
141
5.0
290
     0
  0
SCALE
  5
1466
102
{ACAD_REACTORS
330
1461
102
}
330
1461
100
AcDbScale
 70
     0
300
1:8
140
1.0
141
8.0
290
     0
  0
SCALE
  5
1467
102
{ACAD_REACTORS
330
1461
102
}
330
1461
100
AcDbScale
 70
     0
300
1:10
140
1.0
141
10.0
290
     0
  0
SCALE
  5
1468
102
{ACAD_REACTORS
330
1461
102
}
330
1461
100
AcDbScale
 70
     0
300
1:16
140
1.0
141
16.0
290
     0
  0
SCALE
  5
1469
102
{ACAD_REACTORS
330
1461
102
}
330
1461
100
AcDbScale
 70
     0
300
1:20
140
1.0
141
20.0
290
     0
  0
SCALE
  5
146A
102
{ACAD_REACTORS
330
1461
102
}
330
1461
100
AcDbScale
 70
     0
300
1:30
140
1.0
141
30.0
290
     0
  0
SCALE
  5
146B
102
{ACAD_REACTORS
330
1461
102
}
330
1461
100
AcDbScale
 70
     0
300
1:40
140
1.0
141
40.0
290
     0
  0
SCALE
  5
146C
102
{ACAD_REACTORS
330
1461
102
}
330
1461
100
AcDbScale
 70
     0
300
1:50
140
1.0
141
50.0
290
     0
  0
SCALE
  5
146D
102
{ACAD_REACTORS
330
1461
102
}
330
1461
100
AcDbScale
 70
     0
300
1:100
140
1.0
141
100.0
290
     0
  0
SCALE
  5
146E
102
{ACAD_REACTORS
330
1461
102
}
330
1461
100
AcDbScale
 70
     0
300
2:1
140
2.0
141
1.0
290
     0
  0
SCALE
  5
146F
102
{ACAD_REACTORS
330
1461
102
}
330
1461
100
AcDbScale
 70
     0
300
4:1
140
4.0
141
1.0
290
     0
  0
SCALE
  5
1470
102
{ACAD_REACTORS
330
1461
102
}
330
1461
100
AcDbScale
 70
     0
300
8:1
140
8.0
141
1.0
290
     0
  0
SCALE
  5
1471
102
{ACAD_REACTORS
330
1461
102
}
330
1461
100
AcDbScale
 70
     0
300
10:1
140
10.0
141
1.0
290
     0
  0
SCALE
  5
1472
102
{ACAD_REACTORS
330
1461
102
}
330
1461
100
AcDbScale
 70
     0
300
100:1
140
100.0
141
1.0
290
     0
  0
SCALE
  5
1473
102
{ACAD_REACTORS
330
1461
102
}
330
1461
100
AcDbScale
 70
     0
300
1/128" = 1'-0"
140
0.0078125
141
12.0
290
     0
  0
SCALE
  5
1474
102
{ACAD_REACTORS
330
1461
102
}
330
1461
100
AcDbScale
 70
     0
300
1/64" = 1'-0"
140
0.015625
141
12.0
290
     0
  0
SCALE
  5
1475
102
{ACAD_REACTORS
330
1461
102
}
330
1461
100
AcDbScale
 70
     0
300
1/32" = 1'-0"
140
0.03125
141
12.0
290
     0
  0
SCALE
  5
1476
102
{ACAD_REACTORS
330
1461
102
}
330
1461
100
AcDbScale
 70
     0
300
1/16" = 1'-0"
140
0.0625
141
12.0
290
     0
  0
SCALE
  5
1477
102
{ACAD_REACTORS
330
1461
102
}
330
1461
100
AcDbScale
 70
     0
300
3/32" = 1'-0"
140
0.09375
141
12.0
290
     0
  0
SCALE
  5
1478
102
{ACAD_REACTORS
330
1461
102
}
330
1461
100
AcDbScale
 70
     0
300
1/8" = 1'-0"
140
0.125
141
12.0
290
     0
  0
SCALE
  5
1479
102
{ACAD_REACTORS
330
1461
102
}
330
1461
100
AcDbScale
 70
     0
300
3/16" = 1'-0"
140
0.1875
141
12.0
290
     0
  0
SCALE
  5
147A
102
{ACAD_REACTORS
330
1461
102
}
330
1461
100
AcDbScale
 70
     0
300
1/4" = 1'-0"
140
0.25
141
12.0
290
     0
  0
SCALE
  5
147B
102
{ACAD_REACTORS
330
1461
102
}
330
1461
100
AcDbScale
 70
     0
300
3/8" = 1'-0"
140
0.375
141
12.0
290
     0
  0
SCALE
  5
147C
102
{ACAD_REACTORS
330
1461
102
}
330
1461
100
AcDbScale
 70
     0
300
1/2" = 1'-0"
140
0.5
141
12.0
290
     0
  0
SCALE
  5
147D
102
{ACAD_REACTORS
330
1461
102
}
330
1461
100
AcDbScale
 70
     0
300
3/4" = 1'-0"
140
0.75
141
12.0
290
     0
  0
SCALE
  5
147E
102
{ACAD_REACTORS
330
1461
102
}
330
1461
100
AcDbScale
 70
     0
300
1" = 1'-0"
140
1.0
141
12.0
290
     0
  0
SCALE
  5
147F
102
{ACAD_REACTORS
330
1461
102
}
330
1461
100
AcDbScale
 70
     0
300
1-1/2" = 1'-0"
140
1.5
141
12.0
290
     0
  0
SCALE
  5
1480
102
{ACAD_REACTORS
330
1461
102
}
330
1461
100
AcDbScale
 70
     0
300
3" = 1'-0"
140
3.0
141
12.0
290
     0
  0
SCALE
  5
1481
102
{ACAD_REACTORS
330
1461
102
}
330
1461
100
AcDbScale
 70
     0
300
6" = 1'-0"
140
6.0
141
12.0
290
     0
  0
SCALE
  5
1482
102
{ACAD_REACTORS
330
1461
102
}
330
1461
100
AcDbScale
 70
     0
300
1'-0" = 1'-0"
140
12.0
141
12.0
290
     0
  0
TABLESTYLE
  5
12A1
102
{ACAD_XDICTIONARY
360
14AA
102
}
102
{ACAD_REACTORS
330
12A0
102
}
330
12A0
100
AcDbTableStyle
  3
Standard
 70
     0
 71
     0
 40
1.5
 41
1.5
280
     0
281
     0
  7
STANDARD
140
4.5
170
     2
 62
     0
 63
     7
283
     0
274
    -2
284
     1
 64
     0
275
    -2
285
     1
 65
     0
276
    -2
286
     1
 66
     0
277
    -2
287
     1
 67
     0
278
    -2
288
     1
 68
     0
279
    -2
289
     1
 69
     0
  7
STANDARD
140
6.0
170
     5
 62
     0
 63
     7
283
     0
274
    -2
284
     1
 64
     0
275
    -2
285
     1
 65
     0
276
    -2
286
     1
 66
     0
277
    -2
287
     1
 67
     0
278
    -2
288
     1
 68
     0
279
    -2
289
     1
 69
     0
  7
STANDARD
140
4.5
170
     5
 62
     0
 63
     7
283
     0
274
    -2
284
     1
 64
     0
275
    -2
285
     1
 65
     0
276
    -2
286
     1
 66
     0
277
    -2
287
     1
 67
     0
278
    -2
288
     1
 68
     0
279
    -2
289
     1
 69
     0
  0
VISUALSTYLE
  5
1294
102
{ACAD_REACTORS
330
128E
102
}
330
128E
100
AcDbVisualStyle
  2
2dWireframe
 70
     4
 71
     0
 72
     2
 73
     0
 90
        0
 40
-0.6
 41
-30.0
 62
     5
 63
     7
 74
     1
 91
        4
 64
     7
 65
   257
 75
     1
175
     1
 42
1.0
 92
        0
 66
   257
 43
1.0
 76
     1
 77
     6
 78
     2
 67
     7
 79
     5
170
     0
171
     0
290
     0
174
     0
 93
        1
 44
0.0
173
     0
291
     0
 45
0.0
1001
ACAD
1000
AcDbSavedByObjectVersion
1070
     0
1000
AcDbSavedByObjectVersion
1070
     0
1000
AcDbSavedByObjectVersion
1070
     0
1000
AcDbSavedByObjectVersion
1070
     0
1000
AcDbSavedByObjectVersion
1070
     0
1000
AcDbSavedByObjectVersion
1070
     0
1000
AcDbSavedByObjectVersion
1070
     0
  0
VISUALSTYLE
  5
1296
102
{ACAD_REACTORS
330
128E
102
}
330
128E
100
AcDbVisualStyle
  2
3D Hidden
 70
     6
 71
     1
 72
     2
 73
     2
 90
        0
 40
-0.6
 41
-30.0
 62
     5
 63
     7
 74
     2
 91
        2
 64
     7
 65
   257
 75
     2
175
     1
 42
40.0
 92
        0
 66
   257
 43
1.0
 76
     1
 77
     6
 78
     2
 67
     7
 79
     3
170
     0
171
     0
290
     0
174
     0
 93
        1
 44
0.0
173
     0
291
     0
 45
0.0
1001
ACAD
1000
AcDbSavedByObjectVersion
1070
     0
1000
AcDbSavedByObjectVersion
1070
     0
1000
AcDbSavedByObjectVersion
1070
     0
1000
AcDbSavedByObjectVersion
1070
     0
1000
AcDbSavedByObjectVersion
1070
     0
1000
AcDbSavedByObjectVersion
1070
     0
1000
AcDbSavedByObjectVersion
1070
     0
  0
VISUALSTYLE
  5
1295
102
{ACAD_REACTORS
330
128E
102
}
330
128E
100
AcDbVisualStyle
  2
3dWireframe
 70
     5
 71
     0
 72
     2
 73
     0
 90
        0
 40
-0.6
 41
-30.0
 62
     5
 63
     7
 74
     1
 91
        4
 64
     7
 65
   257
 75
     1
175
     1
 42
1.0
 92
        0
 66
   257
 43
1.0
 76
     1
 77
     6
 78
     2
 67
     7
 79
     5
170
     0
171
     0
290
     0
174
     0
 93
        1
 44
0.0
173
     0
291
     0
 45
0.0
1001
ACAD
1000
AcDbSavedByObjectVersion
1070
     0
1000
AcDbSavedByObjectVersion
1070
     0
1000
AcDbSavedByObjectVersion
1070
     0
1000
AcDbSavedByObjectVersion
1070
     0
1000
AcDbSavedByObjectVersion
1070
     0
1000
AcDbSavedByObjectVersion
1070
     0
1000
AcDbSavedByObjectVersion
1070
     0
  0
VISUALSTYLE
  5
1293
102
{ACAD_REACTORS
330
128E
102
}
330
128E
100
AcDbVisualStyle
  2
Basic
 70
     7
 71
     1
 72
     0
 73
     1
 90
        0
 40
-0.6
 41
-30.0
 62
     5
 63
     7
 74
     0
 91
        4
 64
     7
 65
   257
 75
     1
175
     1
 42
1.0
 92
        8
 66
     7
 43
1.0
 76
     1
 77
     6
 78
     2
 67
     7
 79
     5
170
     0
171
     0
290
     0
174
     0
 93
        1
 44
0.0
173
     0
291
     1
 45
0.0
1001
ACAD
1000
AcDbSavedByObjectVersion
1070
     0
1000
AcDbSavedByObjectVersion
1070
     0
1000
AcDbSavedByObjectVersion
1070
     0
1000
AcDbSavedByObjectVersion
1070
     0
1000
AcDbSavedByObjectVersion
1070
     0
1000
AcDbSavedByObjectVersion
1070
     0
1000
AcDbSavedByObjectVersion
1070
     0
  0
VISUALSTYLE
  5
129A
102
{ACAD_REACTORS
330
128E
102
}
330
128E
100
AcDbVisualStyle
  2
Brighten
 70
    12
 71
     2
 72
     2
 73
     0
 90
        0
 40
-0.6
 41
-30.0
 62
     5
 63
     7
 74
     1
 91
        4
 64
     7
 65
   257
 75
     1
175
     1
 42
1.0
 92
        8
 66
     7
 43
1.0
 76
     1
 77
     6
 78
     2
 67
     7
 79
     5
170
     0
171
     0
290
     0
174
     0
 93
        1
 44
50.0
173
     0
291
     1
 45
0.0
1001
ACAD
1000
AcDbSavedByObjectVersion
1070
     0
1000
AcDbSavedByObjectVersion
1070
     0
1000
AcDbSavedByObjectVersion
1070
     0
1000
AcDbSavedByObjectVersion
1070
     0
1000
AcDbSavedByObjectVersion
1070
     0
1000
AcDbSavedByObjectVersion
1070
     0
1000
AcDbSavedByObjectVersion
1070
     0
  0
VISUALSTYLE
  5
129E
102
{ACAD_REACTORS
330
128E
102
}
330
128E
100
AcDbVisualStyle
  2
ColorChange
 70
    16
 71
     2
 72
     2
 73
     3
 90
        0
 40
-0.6
 41
-30.0
 62
     5
 63
     8
 74
     1
 91
        4
 64
     7
 65
   257
 75
     1
175
     1
 42
1.0
 92
        8
 66
     8
 43
1.0
 76
     1
 77
     6
 78
     2
 67
     7
 79
     5
170
     0
171
     0
290
     0
174
     0
 93
        1
 44
0.0
173
     0
291
     1
 45
0.0
1001
ACAD
1000
AcDbSavedByObjectVersion
1070
     0
1000
AcDbSavedByObjectVersion
1070
     0
1000
AcDbSavedByObjectVersion
1070
     0
1000
AcDbSavedByObjectVersion
1070
     0
1000
AcDbSavedByObjectVersion
1070
     0
1000
AcDbSavedByObjectVersion
1070
     0
1000
AcDbSavedByObjectVersion
1070
     0
  0
VISUALSTYLE
  5
1297
102
{ACAD_REACTORS
330
128E
102
}
330
128E
100
AcDbVisualStyle
  2
Conceptual
 70
     9
 71
     3
 72
     2
 73
     0
 90
        0
 40
-0.6
 41
-30.0
 62
     5
 63
     7
 74
     2
 91
        2
 64
     7
 65
   257
 75
     1
175
     1
 42
40.0
 92
        8
 66
     7
 43
1.0
 76
     1
 77
     6
 78
     2
 67
     7
 79
     3
170
     0
171
     0
290
     0
174
     0
 93
        1
 44
0.0
173
     0
291
     0
 45
0.0
1001
ACAD
1000
AcDbSavedByObjectVersion
1070
     0
1000
AcDbSavedByObjectVersion
1070
     0
1000
AcDbSavedByObjectVersion
1070
     0
1000
AcDbSavedByObjectVersion
1070
     0
1000
AcDbSavedByObjectVersion
1070
     0
1000
AcDbSavedByObjectVersion
1070
     0
1000
AcDbSavedByObjectVersion
1070
     0
  0
VISUALSTYLE
  5
1299
102
{ACAD_REACTORS
330
128E
102
}
330
128E
100
AcDbVisualStyle
  2
Dim
 70
    11
 71
     2
 72
     2
 73
     0
 90
        0
 40
-0.6
 41
-30.0
 62
     5
 63
     7
 74
     1
 91
        4
 64
     7
 65
   257
 75
     1
175
     1
 42
1.0
 92
        8
 66
     7
 43
1.0
 76
     1
 77
     6
 78
     2
 67
     7
 79
     5
170
     0
171
     0
290
     0
174
     0
 93
        1
 44
-50.0
173
     0
291
     1
 45
0.0
1001
ACAD
1000
AcDbSavedByObjectVersion
1070
     0
1000
AcDbSavedByObjectVersion
1070
     0
1000
AcDbSavedByObjectVersion
1070
     0
1000
AcDbSavedByObjectVersion
1070
     0
1000
AcDbSavedByObjectVersion
1070
     0
1000
AcDbSavedByObjectVersion
1070
     0
1000
AcDbSavedByObjectVersion
1070
     0
  0
VISUALSTYLE
  5
129D
102
{ACAD_REACTORS
330
128E
102
}
330
128E
100
AcDbVisualStyle
  2
Facepattern
 70
    15
 71
     2
 72
     2
 73
     0
 90
        0
 40
-0.6
 41
-30.0
 62
     5
 63
     7
 74
     1
 91
        4
 64
     7
 65
   257
 75
     1
175
     1
 42
1.0
 92
        8
 66
     7
 43
1.0
 76
     1
 77
     6
 78
     2
 67
     7
 79
     5
170
     0
171
     0
290
     0
174
     0
 93
        1
 44
0.0
173
     0
291
     1
 45
0.0
1001
ACAD
1000
AcDbSavedByObjectVersion
1070
     0
1000
AcDbSavedByObjectVersion
1070
     0
1000
AcDbSavedByObjectVersion
1070
     0
1000
AcDbSavedByObjectVersion
1070
     0
1000
AcDbSavedByObjectVersion
1070
     0
1000
AcDbSavedByObjectVersion
1070
     0
1000
AcDbSavedByObjectVersion
1070
     0
  0
VISUALSTYLE
  5
128F
102
{ACAD_REACTORS
330
128E
102
}
330
128E
100
AcDbVisualStyle
  2
Flat
 70
     0
 71
     2
 72
     1
 73
     1
 90
        2
 40
-0.6
 41
30.0
 62
     5
 63
     7
 74
     0
 91
        4
 64
     7
 65
   257
 75
     1
175
     1
 42
1.0
 92
        8
 66
     7
 43
1.0
 76
     1
 77
     6
 78
     2
 67
     7
 79
     5
170
     0
171
     0
290
     0
174
     0
 93
       13
 44
0.0
173
     0
291
     1
 45
0.0
1001
ACAD
1000
AcDbSavedByObjectVersion
1070
     0
1000
AcDbSavedByObjectVersion
1070
     0
1000
AcDbSavedByObjectVersion
1070
     0
1000
AcDbSavedByObjectVersion
1070
     0
1000
AcDbSavedByObjectVersion
1070
     0
1000
AcDbSavedByObjectVersion
1070
     0
1000
AcDbSavedByObjectVersion
1070
     0
  0
VISUALSTYLE
  5
1290
102
{ACAD_REACTORS
330
128E
102
}
330
128E
100
AcDbVisualStyle
  2
FlatWithEdges
 70
     1
 71
     2
 72
     1
 73
     1
 90
        2
 40
-0.6
 41
30.0
 62
     5
 63
     7
 74
     1
 91
        4
 64
     7
 65
   257
 75
     1
175
     1
 42
1.0
 92
        0
 66
   257
 43
1.0
 76
     1
 77
     6
 78
     2
 67
     7
 79
     5
170
     0
171
     0
290
     0
174
     0
 93
       13
 44
0.0
173
     0
291
     1
 45
0.0
1001
ACAD
1000
AcDbSavedByObjectVersion
1070
     0
1000
AcDbSavedByObjectVersion
1070
     0
1000
AcDbSavedByObjectVersion
1070
     0
1000
AcDbSavedByObjectVersion
1070
     0
1000
AcDbSavedByObjectVersion
1070
     0
1000
AcDbSavedByObjectVersion
1070
     0
1000
AcDbSavedByObjectVersion
1070
     0
  0
VISUALSTYLE
  5
1291
102
{ACAD_REACTORS
330
128E
102
}
330
128E
100
AcDbVisualStyle
  2
Gouraud
 70
     2
 71
     2
 72
     2
 73
     1
 90
        2
 40
-0.6
 41
30.0
 62
     5
 63
     7
 74
     0
 91
        4
 64
     7
 65
   257
 75
     1
175
     1
 42
1.0
 92
        0
 66
     7
 43
1.0
 76
     1
 77
     6
 78
     2
 67
     7
 79
     5
170
     0
171
     0
290
     0
174
     0
 93
       13
 44
0.0
173
     0
291
     1
 45
0.0
1001
ACAD
1000
AcDbSavedByObjectVersion
1070
     0
1000
AcDbSavedByObjectVersion
1070
     0
1000
AcDbSavedByObjectVersion
1070
     0
1000
AcDbSavedByObjectVersion
1070
     0
1000
AcDbSavedByObjectVersion
1070
     0
1000
AcDbSavedByObjectVersion
1070
     0
1000
AcDbSavedByObjectVersion
1070
     0
  0
VISUALSTYLE
  5
1292
102
{ACAD_REACTORS
330
128E
102
}
330
128E
100
AcDbVisualStyle
  2
GouraudWithEdges
 70
     3
 71
     2
 72
     2
 73
     1
 90
        2
 40
-0.6
 41
30.0
 62
     5
 63
     7
 74
     1
 91
        4
 64
     7
 65
   257
 75
     1
175
     1
 42
1.0
 92
        0
 66
   257
 43
1.0
 76
     1
 77
     6
 78
     2
 67
     7
 79
     5
170
     0
171
     0
290
     0
174
     0
 93
       13
 44
0.0
173
     0
291
     1
 45
0.0
1001
ACAD
1000
AcDbSavedByObjectVersion
1070
     0
1000
AcDbSavedByObjectVersion
1070
     0
1000
AcDbSavedByObjectVersion
1070
     0
1000
AcDbSavedByObjectVersion
1070
     0
1000
AcDbSavedByObjectVersion
1070
     0
1000
AcDbSavedByObjectVersion
1070
     0
1000
AcDbSavedByObjectVersion
1070
     0
  0
VISUALSTYLE
  5
129C
102
{ACAD_REACTORS
330
128E
102
}
330
128E
100
AcDbVisualStyle
  2
Linepattern
 70
    14
 71
     2
 72
     2
 73
     0
 90
        0
 40
-0.6
 41
-30.0
 62
     5
 63
     7
 74
     1
 91
        4
 64
     7
 65
   257
 75
     7
175
     7
 42
1.0
 92
        8
 66
     7
 43
1.0
 76
     1
 77
     6
 78
     2
 67
     7
 79
     5
170
     0
171
     0
290
     0
174
     0
 93
        1
 44
0.0
173
     0
291
     1
 45
0.0
1001
ACAD
1000
AcDbSavedByObjectVersion
1070
     0
1000
AcDbSavedByObjectVersion
1070
     0
1000
AcDbSavedByObjectVersion
1070
     0
1000
AcDbSavedByObjectVersion
1070
     0
1000
AcDbSavedByObjectVersion
1070
     0
1000
AcDbSavedByObjectVersion
1070
     0
1000
AcDbSavedByObjectVersion
1070
     0
  0
VISUALSTYLE
  5
1298
102
{ACAD_REACTORS
330
128E
102
}
330
128E
100
AcDbVisualStyle
  2
Realistic
 70
     8
 71
     2
 72
     2
 73
     0
 90
        0
 40
-0.6
 41
-30.0
 62
     5
 63
     7
 74
     1
 91
        0
 64
     7
 65
   257
 75
     1
175
     1
 42
1.0
 92
        8
 66
     8
 43
1.0
 76
     1
 77
     6
 78
     2
 67
     7
 79
     5
170
     0
171
     0
290
     0
174
     0
 93
       13
 44
0.0
173
     0
291
     0
 45
0.0
1001
ACAD
1000
AcDbSavedByObjectVersion
1070
     0
1000
AcDbSavedByObjectVersion
1070
     0
1000
AcDbSavedByObjectVersion
1070
     0
1000
AcDbSavedByObjectVersion
1070
     0
1000
AcDbSavedByObjectVersion
1070
     0
1000
AcDbSavedByObjectVersion
1070
     0
1000
AcDbSavedByObjectVersion
1070
     0
  0
VISUALSTYLE
  5
129B
102
{ACAD_REACTORS
330
128E
102
}
330
128E
100
AcDbVisualStyle
  2
Thicken
 70
    13
 71
     2
 72
     2
 73
     0
 90
        0
 40
-0.6
 41
-30.0
 62
     5
 63
     7
 74
     1
 91
        4
 64
     7
 65
   257
 75
     1
175
     1
 42
1.0
 92
       12
 66
     7
 43
1.0
 76
     1
 77
     6
 78
     2
 67
     7
 79
     5
170
     0
171
     0
290
     0
174
     0
 93
        1
 44
0.0
173
     0
291
     1
 45
0.0
1001
ACAD
1000
AcDbSavedByObjectVersion
1070
     0
1000
AcDbSavedByObjectVersion
1070
     0
1000
AcDbSavedByObjectVersion
1070
     0
1000
AcDbSavedByObjectVersion
1070
     0
1000
AcDbSavedByObjectVersion
1070
     0
1000
AcDbSavedByObjectVersion
1070
     0
1000
AcDbSavedByObjectVersion
1070
     0
  0
DICTIONARYVAR
  5
14A9
102
{ACAD_REACTORS
330
1433
102
}
330
1433
100
DictionaryVariables
280
     0
  1
1:1
  0
DICTIONARYVAR
  5
14A8
102
{ACAD_REACTORS
330
1433
102
}
330
1433
100
DictionaryVariables
280
     0
  1
STANDARD
  0
DICTIONARYVAR
  5
1434
102
{ACAD_REACTORS
330
1433
102
}
330
1433
100
DictionaryVariables
280
     0
  1
STANDARD
  0
DICTIONARYVAR
  5
1437
102
{ACAD_REACTORS
330
1433
102
}
330
1433
100
DictionaryVariables
280
     0
  1
1
  0
DICTIONARYVAR
  5
1436
102
{ACAD_REACTORS
330
1433
102
}
330
1433
100
DictionaryVariables
280
     0
  1
0
  0
DICTIONARYVAR
  5
1435
102
{ACAD_REACTORS
330
1433
102
}
330
1433
100
DictionaryVariables
280
     0
  1
127
  0
DICTIONARY
  5
3A5F
330
E96
100
AcDbDictionary
280
     1
281
     1
  3
ACAD_XREC_ROUNDTRIP
360
3A60
  0
DICTIONARY
  5
3A5D
330
E95
100
AcDbDictionary
280
     1
281
     1
  3
ACAD_XREC_ROUNDTRIP
360
3A5E
  0
DICTIONARY
  5
144C
330
128C
100
AcDbDictionary
280
     1
281
     1
  3
ACAD_XREC_ROUNDTRIP
360
144D
  0
DICTIONARY
  5
144A
330
128B
100
AcDbDictionary
280
     1
281
     1
  3
ACAD_XREC_ROUNDTRIP
360
144B
  0
DICTIONARY
  5
144E
330
128D
100
AcDbDictionary
280
     1
281
     1
  3
ACAD_XREC_ROUNDTRIP
360
144F
  0
DICTIONARY
  5
14AA
330
12A1
100
AcDbDictionary
280
     1
281
     1
  3
ACAD_ROUNDTRIP_2008_TABLESTYLE_CELLSTYLEMAP
360
3A5B
  3
ACAD_XREC_ROUNDTRIP
360
3A61
  0
XRECORD
  5
3A60
102
{ACAD_REACTORS
330
3A5F
102
}
330
3A5F
100
AcDbXrecord
280
     1
102
SHADEPLOT
 70
     0
102
SHADEPLOTRESLEVEL
 70
     2
102
SHADEPLOTCUSTOMDPI
 70
   300
  0
XRECORD
  5
3A5E
102
{ACAD_REACTORS
330
3A5D
102
}
330
3A5D
100
AcDbXrecord
280
     1
102
SHADEPLOT
 70
     0
102
SHADEPLOTRESLEVEL
 70
     2
102
SHADEPLOTCUSTOMDPI
 70
   300
  0
XRECORD
  5
144D
102
{ACAD_REACTORS
330
144C
102
}
330
144C
100
AcDbXrecord
280
     1
102
MATERIAL
148
0.0
149
0.0
149
0.0
 93
        0
 94
      127
282
     0
 72
     1
 77
     1
171
     1
175
     1
179
     1
273
     0
  0
XRECORD
  5
144B
102
{ACAD_REACTORS
330
144A
102
}
330
144A
100
AcDbXrecord
280
     1
102
MATERIAL
148
0.0
149
0.0
149
0.0
 93
        0
 94
      127
282
     0
 72
     1
 77
     1
171
     1
175
     1
179
     1
273
     0
  0
XRECORD
  5
144F
102
{ACAD_REACTORS
330
144E
102
}
330
144E
100
AcDbXrecord
280
     1
102
MATERIAL
148
0.0
149
0.0
149
0.0
 93
        0
 94
      127
282
     0
 72
     1
 77
     1
171
     1
175
     1
179
     1
273
     0
  0
CELLSTYLEMAP
  5
3A5B
102
{ACAD_REACTORS
330
14AA
102
}
330
14AA
100
AcDbCellStyleMap
 90
        3
300
CELLSTYLE
  1
TABLEFORMAT_BEGIN
 90
        5
170
     1
 91
        0
 92
    32768
 62
   257
 93
        1
300
CONTENTFORMAT
  1
CONTENTFORMAT_BEGIN
 90
        0
 91
        0
 92
      512
 93
        0
300

 40
0.0
140
1.0
 94
        5
 62
     0
340
10
144
6.0
309
CONTENTFORMAT_END
171
     1
301
MARGIN
  1
CELLMARGIN_BEGIN
 40
1.5
 40
1.5
 40
1.5
 40
1.5
 40
0.18
 40
0.18
309
CELLMARGIN_END
 94
        6
 95
        1
302
GRIDFORMAT
  1
GRIDFORMAT_BEGIN
 90
        0
 91
        1
 62
     0
 92
       -2
340
0
 93
        0
 40
0.045
309
GRIDFORMAT_END
 95
        2
302
GRIDFORMAT
  1
GRIDFORMAT_BEGIN
 90
        0
 91
        1
 62
     0
 92
       -2
340
0
 93
        0
 40
0.045
309
GRIDFORMAT_END
 95
        4
302
GRIDFORMAT
  1
GRIDFORMAT_BEGIN
 90
        0
 91
        1
 62
     0
 92
       -2
340
0
 93
        0
 40
0.045
309
GRIDFORMAT_END
 95
        8
302
GRIDFORMAT
  1
GRIDFORMAT_BEGIN
 90
        0
 91
        1
 62
     0
 92
       -2
340
0
 93
        0
 40
0.045
309
GRIDFORMAT_END
 95
       16
302
GRIDFORMAT
  1
GRIDFORMAT_BEGIN
 90
        0
 91
        1
 62
     0
 92
       -2
340
0
 93
        0
 40
0.045
309
GRIDFORMAT_END
 95
       32
302
GRIDFORMAT
  1
GRIDFORMAT_BEGIN
 90
        0
 91
        1
 62
     0
 92
       -2
340
0
 93
        0
 40
0.045
309
GRIDFORMAT_END
309
TABLEFORMAT_END
  1
CELLSTYLE_BEGIN
 90
        1
 91
        1
300
_TITLE
309
CELLSTYLE_END
300
CELLSTYLE
  1
TABLEFORMAT_BEGIN
 90
        5
170
     1
 91
        0
 92
        0
 62
   257
 93
        1
300
CONTENTFORMAT
  1
CONTENTFORMAT_BEGIN
 90
        0
 91
        0
 92
      512
 93
        0
300

 40
0.0
140
1.0
 94
        5
 62
     0
340
10
144
4.5
309
CONTENTFORMAT_END
171
     1
301
MARGIN
  1
CELLMARGIN_BEGIN
 40
1.5
 40
1.5
 40
1.5
 40
1.5
 40
0.18
 40
0.18
309
CELLMARGIN_END
 94
        6
 95
        1
302
GRIDFORMAT
  1
GRIDFORMAT_BEGIN
 90
        0
 91
        1
 62
     0
 92
       -2
340
0
 93
        0
 40
0.045
309
GRIDFORMAT_END
 95
        2
302
GRIDFORMAT
  1
GRIDFORMAT_BEGIN
 90
        0
 91
        1
 62
     0
 92
       -2
340
0
 93
        0
 40
0.045
309
GRIDFORMAT_END
 95
        4
302
GRIDFORMAT
  1
GRIDFORMAT_BEGIN
 90
        0
 91
        1
 62
     0
 92
       -2
340
0
 93
        0
 40
0.045
309
GRIDFORMAT_END
 95
        8
302
GRIDFORMAT
  1
GRIDFORMAT_BEGIN
 90
        0
 91
        1
 62
     0
 92
       -2
340
0
 93
        0
 40
0.045
309
GRIDFORMAT_END
 95
       16
302
GRIDFORMAT
  1
GRIDFORMAT_BEGIN
 90
        0
 91
        1
 62
     0
 92
       -2
340
0
 93
        0
 40
0.045
309
GRIDFORMAT_END
 95
       32
302
GRIDFORMAT
  1
GRIDFORMAT_BEGIN
 90
        0
 91
        1
 62
     0
 92
       -2
340
0
 93
        0
 40
0.045
309
GRIDFORMAT_END
309
TABLEFORMAT_END
  1
CELLSTYLE_BEGIN
 90
        2
 91
        1
300
_HEADER
309
CELLSTYLE_END
300
CELLSTYLE
  1
TABLEFORMAT_BEGIN
 90
        5
170
     1
 91
        0
 92
        0
 62
   257
 93
        1
300
CONTENTFORMAT
  1
CONTENTFORMAT_BEGIN
 90
        0
 91
        0
 92
      512
 93
        0
300

 40
0.0
140
1.0
 94
        2
 62
     0
340
10
144
4.5
309
CONTENTFORMAT_END
171
     1
301
MARGIN
  1
CELLMARGIN_BEGIN
 40
1.5
 40
1.5
 40
1.5
 40
1.5
 40
0.18
 40
0.18
309
CELLMARGIN_END
 94
        6
 95
        1
302
GRIDFORMAT
  1
GRIDFORMAT_BEGIN
 90
        0
 91
        1
 62
     0
 92
       -2
340
0
 93
        0
 40
0.045
309
GRIDFORMAT_END
 95
        2
302
GRIDFORMAT
  1
GRIDFORMAT_BEGIN
 90
        0
 91
        1
 62
     0
 92
       -2
340
0
 93
        0
 40
0.045
309
GRIDFORMAT_END
 95
        4
302
GRIDFORMAT
  1
GRIDFORMAT_BEGIN
 90
        0
 91
        1
 62
     0
 92
       -2
340
0
 93
        0
 40
0.045
309
GRIDFORMAT_END
 95
        8
302
GRIDFORMAT
  1
GRIDFORMAT_BEGIN
 90
        0
 91
        1
 62
     0
 92
       -2
340
0
 93
        0
 40
0.045
309
GRIDFORMAT_END
 95
       16
302
GRIDFORMAT
  1
GRIDFORMAT_BEGIN
 90
        0
 91
        1
 62
     0
 92
       -2
340
0
 93
        0
 40
0.045
309
GRIDFORMAT_END
 95
       32
302
GRIDFORMAT
  1
GRIDFORMAT_BEGIN
 90
        0
 91
        1
 62
     0
 92
       -2
340
0
 93
        0
 40
0.045
309
GRIDFORMAT_END
309
TABLEFORMAT_END
  1
CELLSTYLE_BEGIN
 90
        3
 91
        2
300
_DATA
309
CELLSTYLE_END
  0
XRECORD
  5
3A61
102
{ACAD_REACTORS
330
14AA
102
}
330
14AA
100
AcDbXrecord
280
     1
102
ACAD_ROUNDTRIP_PRE2007_TABLESTYLE
 90
      512
 91
        0
  1

 92
      512
 93
        0
  2

 94
      512
 95
        0
  3

  0
ENDSEC
  0
EOF
