  0
SECTION
  2
HEADER
  9
$ACADVER
  1
AC1015
  9
$ACADMAINTVER
 70
    20
  9
$DWGCODEPAGE
  3
ANSI_1252
  9
$INSBASE
 10
0.0
 20
0.0
 30
0.0
  9
$EXTMIN
 10
1607.768368667506
 20
947.6116655736555
 30
0.0
  9
$EXTMAX
 10
1669.562172482337
 20
1005.351600906278
 30
0.0
  9
$LIMMIN
 10
-170.0
 20
-170.0
  9
$LIMMAX
 10
519.0
 20
260.0
  9
$ORTHOMODE
 70
     0
  9
$REGENMODE
 70
     1
  9
$FILLMODE
 70
     1
  9
$QTEXTMODE
 70
     0
  9
$MIRRTEXT
 70
     1
  9
$LTSCALE
 40
10.0
  9
$ATTMODE
 70
     1
  9
$TEXTSIZE
 40
3.5
  9
$TRACEWID
 40
0.05
  9
$TEXTSTYLE
  7
SIMPLEX
  9
$CLAYER
  8
SK6
  9
$CELTYPE
  6
BYLAYER
  9
$CECOLOR
 62
   256
  9
$CELTSCALE
 40
1.0
  9
$DISPSILH
 70
     0
  9
$DIMSCALE
 40
1.0
  9
$DIMASZ
 40
3.5
  9
$DIMEXO
 40
1.0
  9
$DIMDLI
 40
0.5
  9
$DIMRND
 40
0.0
  9
$DIMDLE
 40
0.0
  9
$DIMEXE
 40
1.0
  9
$DIMTP
 40
0.0
  9
$DIMTM
 40
0.0
  9
$DIMTXT
 40
3.5
  9
$DIMCEN
 40
0.0
  9
$DIMTSZ
 40
0.0
  9
$DIMTOL
 70
     0
  9
$DIMLIM
 70
     0
  9
$DIMTIH
 70
     0
  9
$DIMTOH
 70
     0
  9
$DIMSE1
 70
     0
  9
$DIMSE2
 70
     0
  9
$DIMTAD
 70
     1
  9
$DIMZIN
 70
     0
  9
$DIMBLK
  1

  9
$DIMASO
 70
     1
  9
$DIMSHO
 70
     1
  9
$DIMPOST
  1

  9
$DIMAPOST
  1

  9
$DIMALT
 70
     0
  9
$DIMALTD
 70
     2
  9
$DIMALTF
 40
25.4
  9
$DIMLFAC
 40
1.0
  9
$DIMTOFL
 70
     0
  9
$DIMTVP
 40
0.0
  9
$DIMTIX
 70
     0
  9
$DIMSOXD
 70
     0
  9
$DIMSAH
 70
     0
  9
$DIMBLK1
  1

  9
$DIMBLK2
  1

  9
$DIMSTYLE
  2
V-TYGEN_-160
  9
$DIMCLRD
 70
     0
  9
$DIMCLRE
 70
     0
  9
$DIMCLRT
 70
     0
  9
$DIMTFAC
 40
1.0
  9
$DIMGAP
 40
1.0
  9
$DIMJUST
 70
     0
  9
$DIMSD1
 70
     0
  9
$DIMSD2
 70
     0
  9
$DIMTOLJ
 70
     1
  9
$DIMTZIN
 70
     0
  9
$DIMALTZ
 70
     0
  9
$DIMALTTZ
 70
     0
  9
$DIMUPT
 70
     0
  9
$DIMDEC
 70
     0
  9
$DIMTDEC
 70
     0
  9
$DIMALTU
 70
     2
  9
$DIMALTTD
 70
     2
  9
$DIMTXSTY
  7
STANDARD
  9
$DIMAUNIT
 70
     0
  9
$DIMADEC
 70
     0
  9
$DIMALTRND
 40
0.0
  9
$DIMAZIN
 70
     0
  9
$DIMDSEP
 70
    46
  9
$DIMATFIT
 70
     3
  9
$DIMFRAC
 70
     0
  9
$DIMLDRBLK
  1

  9
$DIMLUNIT
 70
     2
  9
$DIMLWD
 70
    -1
  9
$DIMLWE
 70
    -2
  9
$DIMTMOVE
 70
     0
  9
$LUNITS
 70
     2
  9
$LUPREC
 70
     2
  9
$SKETCHINC
 40
0.1
  9
$FILLETRAD
 40
0.0
  9
$AUNITS
 70
     0
  9
$AUPREC
 70
     0
  9
$MENU
  1
TDMWIN
  9
$ELEVATION
 40
0.0
  9
$PELEVATION
 40
0.0
  9
$THICKNESS
 40
0.0
  9
$LIMCHECK
 70
     0
  9
$CHAMFERA
 40
0.0
  9
$CHAMFERB
 40
0.0
  9
$CHAMFERC
 40
0.0
  9
$CHAMFERD
 40
0.0
  9
$SKPOLY
 70
     0
  9
$TDCREATE
 40
2455495.435690070
  9
$TDUCREATE
 40
2455495.206523403
  9
$TDUPDATE
 40
2455597.631331528
  9
$TDUUPDATE
 40
2455597.402164861
  9
$TDINDWG
 40
0.1607253935
  9
$TDUSRTIMER
 40
0.1607246644
  9
$USRTIMER
 70
     1
  9
$ANGBASE
 50
0.0
  9
$ANGDIR
 70
     0
  9
$PDMODE
 70
     2
  9
$PDSIZE
 40
0.0
  9
$PLINEWID
 40
0.0
  9
$SPLFRAME
 70
     0
  9
$SPLINETYPE
 70
     6
  9
$SPLINESEGS
 70
     8
  9
$HANDSEED
  5
3879
  9
$SURFTAB1
 70
     6
  9
$SURFTAB2
 70
     6
  9
$SURFTYPE
 70
     6
  9
$SURFU
 70
     6
  9
$SURFV
 70
     6
  9
$UCSBASE
  2

  9
$UCSNAME
  2

  9
$UCSORG
 10
1635.539565673976
 20
977.2034003443517
 30
0.0
  9
$UCSXDIR
 10
1.0
 20
0.0
 30
0.0
  9
$UCSYDIR
 10
0.0
 20
1.0
 30
0.0
  9
$UCSORTHOREF
  2

  9
$UCSORTHOVIEW
 70
     0
  9
$UCSORGTOP
 10
0.0
 20
0.0
 30
0.0
  9
$UCSORGBOTTOM
 10
0.0
 20
0.0
 30
0.0
  9
$UCSORGLEFT
 10
0.0
 20
0.0
 30
0.0
  9
$UCSORGRIGHT
 10
0.0
 20
0.0
 30
0.0
  9
$UCSORGFRONT
 10
0.0
 20
0.0
 30
0.0
  9
$UCSORGBACK
 10
0.0
 20
0.0
 30
0.0
  9
$PUCSBASE
  2

  9
$PUCSNAME
  2

  9
$PUCSORG
 10
0.0
 20
0.0
 30
0.0
  9
$PUCSXDIR
 10
1.0
 20
0.0
 30
0.0
  9
$PUCSYDIR
 10
0.0
 20
1.0
 30
0.0
  9
$PUCSORTHOREF
  2

  9
$PUCSORTHOVIEW
 70
     0
  9
$PUCSORGTOP
 10
0.0
 20
0.0
 30
0.0
  9
$PUCSORGBOTTOM
 10
0.0
 20
0.0
 30
0.0
  9
$PUCSORGLEFT
 10
0.0
 20
0.0
 30
0.0
  9
$PUCSORGRIGHT
 10
0.0
 20
0.0
 30
0.0
  9
$PUCSORGFRONT
 10
0.0
 20
0.0
 30
0.0
  9
$PUCSORGBACK
 10
0.0
 20
0.0
 30
0.0
  9
$USERI1
 70
     0
  9
$USERI2
 70
     0
  9
$USERI3
 70
     0
  9
$USERI4
 70
     0
  9
$USERI5
 70
     0
  9
$USERR1
 40
0.0
  9
$USERR2
 40
0.0
  9
$USERR3
 40
0.0
  9
$USERR4
 40
0.0
  9
$USERR5
 40
0.0
  9
$WORLDVIEW
 70
     1
  9
$SHADEDGE
 70
     3
  9
$SHADEDIF
 70
    70
  9
$TILEMODE
 70
     1
  9
$MAXACTVP
 70
    16
  9
$PINSBASE
 10
0.0
 20
0.0
 30
0.0
  9
$PLIMCHECK
 70
     0
  9
$PEXTMIN
 10
1.000000000000000E+20
 20
1.000000000000000E+20
 30
1.000000000000000E+20
  9
$PEXTMAX
 10
-1.000000000000000E+20
 20
-1.000000000000000E+20
 30
-1.000000000000000E+20
  9
$PLIMMIN
 10
0.0
 20
0.0
  9
$PLIMMAX
 10
12.0
 20
9.0
  9
$UNITMODE
 70
     0
  9
$VISRETAIN
 70
     0
  9
$PLINEGEN
 70
     0
  9
$PSLTSCALE
 70
     0
  9
$TREEDEPTH
 70
  3020
  9
$CMLSTYLE
  2
STANDARD
  9
$CMLJUST
 70
     0
  9
$CMLSCALE
 40
1.0
  9
$PROXYGRAPHICS
 70
     1
  9
$MEASUREMENT
 70
     1
  9
$CELWEIGHT
370
    -1
  9
$ENDCAPS
280
     0
  9
$JOINSTYLE
280
     0
  9
$LWDISPLAY
290
     0
  9
$INSUNITS
 70
     0
  9
$HYPERLINKBASE
  1

  9
$STYLESHEET
  1

  9
$XEDIT
290
     1
  9
$CEPSNTYPE
380
     0
  9
$PSTYLEMODE
290
     1
  9
$FINGERPRINTGUID
  2
{657513BA-23E7-4626-BCF7-6F82F096B1F9}
  9
$VERSIONGUID
  2
{AE95C34D-AB15-4A48-8133-FE21C437B3B5}
  9
$EXTNAMES
290
     1
  9
$PSVPSCALE
 40
0.0
  9
$OLESTARTUP
290
     0
  0
ENDSEC
  0
SECTION
  2
CLASSES
  0
CLASS
  1
ACDBDICTIONARYWDFLT
  2
AcDbDictionaryWithDefault
  3
ObjectDBX Classes
 90
        0
280
     0
281
     0
  0
CLASS
  1
ACDBPLACEHOLDER
  2
AcDbPlaceHolder
  3
ObjectDBX Classes
 90
        0
280
     0
281
     0
  0
CLASS
  1
LAYOUT
  2
AcDbLayout
  3
ObjectDBX Classes
 90
        0
280
     0
281
     0
  0
CLASS
  1
MATERIAL
  2
AcDbMaterial
  3
ObjectDBX Classes
 90
     1153
280
     0
281
     0
  0
CLASS
  1
VISUALSTYLE
  2
AcDbVisualStyle
  3
ObjectDBX Classes
 90
     4095
280
     0
281
     0
  0
CLASS
  1
TABLESTYLE
  2
AcDbTableStyle
  3
ObjectDBX Classes
 90
     4095
280
     0
281
     0
  0
CLASS
  1
DICTIONARYVAR
  2
AcDbDictionaryVar
  3
ObjectDBX Classes
 90
        0
280
     0
281
     0
  0
CLASS
  1
SCALE
  2
AcDbScale
  3
ObjectDBX Classes
 90
     1153
280
     0
281
     0
  0
CLASS
  1
MLEADERSTYLE
  2
AcDbMLeaderStyle
  3
ACDB_MLEADERSTYLE_CLASS
 90
     4095
280
     0
281
     0
  0
CLASS
  1
CELLSTYLEMAP
  2
AcDbCellStyleMap
  3
ObjectDBX Classes
 90
     1152
280
     0
281
     0
  0
CLASS
  1
SORTENTSTABLE
  2
AcDbSortentsTable
  3
ObjectDBX Classes
 90
        0
280
     0
281
     0
  0
ENDSEC
  0
SECTION
  2
TABLES
  0
TABLE
  2
VPORT
  5
8
330
0
100
AcDbSymbolTable
 70
     1
  0
VPORT
  5
1288
330
8
100
AcDbSymbolTableRecord
100
AcDbViewportTableRecord
  2
*Active
 70
     0
 10
0.0
 20
0.0
 11
1.0
 21
1.0
 12
1638.691125542566
 22
976.4906000196781
 13
0.0
 23
0.0
 14
5.0
 24
5.0
 15
5.0
 25
5.0
 16
0.0
 26
0.0
 36
1.0
 17
0.0
 27
0.0
 37
0.0
 40
59.55907376611762
 41
1.752923976608187
 42
50.0
 43
0.0
 44
0.0
 50
0.0
 51
0.0
 71
     0
 72
   100
 73
     1
 74
     3
 75
     0
 76
     0
 77
     0
 78
     0
281
     0
 65
     1
110
0.0
120
0.0
130
0.0
111
1.0
121
0.0
131
0.0
112
0.0
122
1.0
132
0.0
 79
     0
146
0.0
  0
ENDTAB
  0
TABLE
  2
LTYPE
  5
5
330
0
100
AcDbSymbolTable
 70
     4
  0
LTYPE
  5
13
330
5
100
AcDbSymbolTableRecord
100
AcDbLinetypeTableRecord
  2
BYBLOCK
 70
     0
  3

 72
    65
 73
     0
 40
0.0
  0
LTYPE
  5
14
330
5
100
AcDbSymbolTableRecord
100
AcDbLinetypeTableRecord
  2
BYLAYER
 70
     0
  3

 72
    65
 73
     0
 40
0.0
  0
LTYPE
  5
15
330
5
100
AcDbSymbolTableRecord
100
AcDbLinetypeTableRecord
  2
CONTINUOUS
 70
     0
  3
Solid line
 72
    65
 73
     0
 40
0.0
  0
LTYPE
  5
20
330
5
100
AcDbSymbolTableRecord
100
AcDbLinetypeTableRecord
  2
CENTER
 70
     0
  3
____ . ____ . ____
 72
    65
 73
     4
 40
1.5
 49
1.0
 74
     0
 49
-0.25
 74
     0
 49
0.0
 74
     0
 49
-0.25
 74
     0
  0
LTYPE
  5
21
330
5
100
AcDbSymbolTableRecord
100
AcDbLinetypeTableRecord
  2
HIDDEN
 70
     0
  3
_ _ _ _ _ _ _ _ _ _ _ _ _ _ _ _ _ _ _ _ _ _ _
 72
    65
 73
     2
 40
0.375
 49
0.25
 74
     0
 49
-0.125
 74
     0
  0
LTYPE
  5
14C0
330
5
100
AcDbSymbolTableRecord
100
AcDbLinetypeTableRecord
  2
DASHDOT
 70
     0
  3
Dash dot __ . __ . __ . __ . __ . __ . __ . __
 72
    65
 73
     4
 40
25.4
 49
12.7
 74
     0
 49
-6.349999999999997
 74
     0
 49
0.0
 74
     0
 49
-6.349999999999997
 74
     0
  0
ENDTAB
  0
TABLE
  2
LAYER
  5
2
330
0
100
AcDbSymbolTable
 70
    18
  0
LAYER
  5
F
102
{ACAD_XDICTIONARY
360
148A
102
}
330
2
100
AcDbSymbolTableRecord
100
AcDbLayerTableRecord
  2
0
 70
     0
 62
     7
  6
CONTINUOUS
370
    -3
390
E94
  0
LAYER
  5
1E
102
{ACAD_XDICTIONARY
360
148C
102
}
330
2
100
AcDbSymbolTableRecord
100
AcDbLayerTableRecord
  2
1
 70
     0
 62
     4
  6
CONTINUOUS
370
    -3
390
E94
  0
LAYER
  5
22
102
{ACAD_XDICTIONARY
360
148E
102
}
330
2
100
AcDbSymbolTableRecord
100
AcDbLayerTableRecord
  2
SK1
 70
     0
 62
     4
  6
CONTINUOUS
370
    -3
390
E94
  0
LAYER
  5
23
102
{ACAD_XDICTIONARY
360
1490
102
}
330
2
100
AcDbSymbolTableRecord
100
AcDbLayerTableRecord
  2
2
 70
     0
 62
     7
  6
CONTINUOUS
370
    -3
390
E94
  0
LAYER
  5
24
102
{ACAD_XDICTIONARY
360
1492
102
}
330
2
100
AcDbSymbolTableRecord
100
AcDbLayerTableRecord
  2
2L
 70
     0
 62
     7
  6
CONTINUOUS
370
    -3
390
E94
  0
LAYER
  5
25
102
{ACAD_XDICTIONARY
360
1494
102
}
330
2
100
AcDbSymbolTableRecord
100
AcDbLayerTableRecord
  2
SK2
 70
     0
 62
     7
  6
CONTINUOUS
370
    -3
390
E94
  0
LAYER
  5
26
102
{ACAD_XDICTIONARY
360
1496
102
}
330
2
100
AcDbSymbolTableRecord
100
AcDbLayerTableRecord
  2
3
 70
     0
 62
     1
  6
HIDDEN
370
    -3
390
E94
  0
LAYER
  5
27
102
{ACAD_XDICTIONARY
360
1498
102
}
330
2
100
AcDbSymbolTableRecord
100
AcDbLayerTableRecord
  2
SK3
 70
     0
 62
     1
  6
HIDDEN
370
    -3
390
E94
  0
LAYER
  5
28
102
{ACAD_XDICTIONARY
360
149A
102
}
330
2
100
AcDbSymbolTableRecord
100
AcDbLayerTableRecord
  2
4
 70
     0
 62
     2
  6
CENTER
370
    -3
390
E94
  0
LAYER
  5
29
102
{ACAD_XDICTIONARY
360
149C
102
}
330
2
100
AcDbSymbolTableRecord
100
AcDbLayerTableRecord
  2
SK4
 70
     0
 62
     2
  6
CENTER
370
    -3
390
E94
  0
LAYER
  5
2A
102
{ACAD_XDICTIONARY
360
149E
102
}
330
2
100
AcDbSymbolTableRecord
100
AcDbLayerTableRecord
  2
5
 70
     0
 62
     7
  6
CONTINUOUS
370
    -3
390
E94
  0
LAYER
  5
2B
102
{ACAD_XDICTIONARY
360
14A0
102
}
330
2
100
AcDbSymbolTableRecord
100
AcDbLayerTableRecord
  2
6
 70
     0
 62
     5
  6
CONTINUOUS
370
    -3
390
E94
  0
LAYER
  5
2C
102
{ACAD_XDICTIONARY
360
14A2
102
}
330
2
100
AcDbSymbolTableRecord
100
AcDbLayerTableRecord
  2
SK6
 70
     0
 62
     5
  6
CONTINUOUS
370
    -3
390
E94
  0
LAYER
  5
2D
102
{ACAD_XDICTIONARY
360
14A4
102
}
330
2
100
AcDbSymbolTableRecord
100
AcDbLayerTableRecord
  2
243
 70
     0
 62
     7
  6
CONTINUOUS
370
    -3
390
E94
  0
LAYER
  5
2E
330
2
100
AcDbSymbolTableRecord
100
AcDbLayerTableRecord
  2
DEFPOINTS
 70
     0
 62
     7
  6
CONTINUOUS
290
     0
370
    -3
390
E94
  0
LAYER
  5
C07
102
{ACAD_XDICTIONARY
360
14A6
102
}
330
2
100
AcDbSymbolTableRecord
100
AcDbLayerTableRecord
  2
FRONT
 70
     0
 62
     7
  6
CONTINUOUS
370
    -3
390
E94
  0
LAYER
  5
14C1
330
2
100
AcDbSymbolTableRecord
100
AcDbLayerTableRecord
  2
H
 70
     0
 62
     7
  6
CONTINUOUS
370
   100
390
E94
  0
LAYER
  5
14C2
330
2
100
AcDbSymbolTableRecord
100
AcDbLayerTableRecord
  2
P
 70
     0
 62
   250
  6
CONTINUOUS
370
   100
390
E94
  0
ENDTAB
  0
TABLE
  2
STYLE
  5
3
330
0
100
AcDbSymbolTable
 70
     6
  0
STYLE
  5
10
330
3
100
AcDbSymbolTableRecord
100
AcDbTextStyleTableRecord
  2
STANDARD
 70
     0
 40
0.0
 41
1.0
 50
0.0
 71
     0
 42
5.0
  3
txt
  4

  0
STYLE
  5
1F
330
3
100
AcDbSymbolTableRecord
100
AcDbTextStyleTableRecord
  2
SIMPLEX
 70
     0
 40
0.0
 41
1.0
 50
0.0
 71
     0
 42
3.5
  3
simplex
  4

  0
STYLE
  5
2F
330
3
100
AcDbSymbolTableRecord
100
AcDbTextStyleTableRecord
  2
TXT
 70
     0
 40
8.0
 41
1.0
 50
0.0
 71
     0
 42
8.0
  3
txt
  4

  0
STYLE
  5
C08
330
3
100
AcDbSymbolTableRecord
100
AcDbTextStyleTableRecord
  2
UGMTXT
 70
     0
 40
0.0
 41
1.0
 50
0.0
 71
     0
 42
0.2
  3
ugmtxt
  4
bigfont
  0
STYLE
  5
12D5
330
3
100
AcDbSymbolTableRecord
100
AcDbTextStyleTableRecord
  2
SLDTEXTSTYLE0
 70
     0
 40
0.0
 41
0.75
 50
0.0
 71
     0
 42
0.0
  3
TXT
  4

  0
STYLE
  5
14C3
330
3
100
AcDbSymbolTableRecord
100
AcDbTextStyleTableRecord
  2
Roman
 70
     0
 40
0.0
 41
1.0
 50
0.0
 71
     0
 42
0.2
  3

  4

  0
ENDTAB
  0
TABLE
  2
VIEW
  5
6
330
0
100
AcDbSymbolTable
 70
     0
  0
ENDTAB
  0
TABLE
  2
UCS
  5
7
330
0
100
AcDbSymbolTable
 70
     0
  0
ENDTAB
  0
TABLE
  2
APPID
  5
9
330
0
100
AcDbSymbolTable
 70
     4
  0
APPID
  5
11
330
9
100
AcDbSymbolTableRecord
100
AcDbRegAppTableRecord
  2
ACAD
 70
     0
  0
APPID
  5
E8F
330
9
100
AcDbSymbolTableRecord
100
AcDbRegAppTableRecord
  2
CONTENTBLOCKICON
 70
     0
  0
APPID
  5
1485
330
9
100
AcDbSymbolTableRecord
100
AcDbRegAppTableRecord
  2
ACAD_MLEADERVER
 70
     0
  0
APPID
  5
1717
330
9
100
AcDbSymbolTableRecord
100
AcDbRegAppTableRecord
  2
ACAD_EXEMPT_FROM_CAD_STANDARDS
 70
     0
  0
ENDTAB
  0
TABLE
  2
DIMSTYLE
  5
A
330
0
100
AcDbSymbolTable
 70
     5
100
AcDbDimStyleTable
 71
     5
340
D91
340
1273
340
D93
340
D92
340
980
  0
DIMSTYLE
105
980
330
A
100
AcDbSymbolTableRecord
100
AcDbDimStyleTableRecord
  2
STANDARD
 70
     0
340
10
  0
DIMSTYLE
105
D91
102
{ACAD_REACTORS
330
37D7
330
37E5
330
37F2
102
}
330
A
100
AcDbSymbolTableRecord
100
AcDbDimStyleTableRecord
  2
V-TYGEN_-160
 70
     0
 41
3.5
 42
1.0
 43
0.5
 44
1.0
 73
     0
 74
     0
 77
     1
140
3.5
141
0.0
147
1.0
271
     0
272
     0
340
10
371
    -1
  0
DIMSTYLE
105
D92
330
A
100
AcDbSymbolTableRecord
100
AcDbDimStyleTableRecord
  2
V-TYG_160-300
 70
     0
 41
5.0
 42
1.0
 43
0.5
 44
1.0
 73
     0
 74
     0
 77
     1
140
5.0
141
0.0
147
1.0
271
     0
272
     0
340
10
  0
DIMSTYLE
105
D93
330
A
100
AcDbSymbolTableRecord
100
AcDbDimStyleTableRecord
  2
V-TYG_300-
 70
     0
 41
8.0
 42
1.0
 43
0.5
 44
1.0
 73
     0
 74
     0
 77
     1
140
8.0
141
0.0
147
1.0
271
     0
272
     0
340
10
  0
DIMSTYLE
105
1273
330
A
100
AcDbSymbolTableRecord
100
AcDbDimStyleTableRecord
  2
Inserts
 70
     0
 41
0.5
 42
1.0
 43
0.5
 44
1.0
 73
     0
 74
     0
 77
     1
140
0.8
141
0.0
147
1.0
271
     0
272
     0
340
10
371
    -1
  0
ENDTAB
  0
TABLE
  2
BLOCK_RECORD
  5
1
330
0
100
AcDbSymbolTable
 70
    66
  0
BLOCK_RECORD
  5
19
102
{ACAD_XDICTIONARY
360
E8D
102
}
330
1
100
AcDbSymbolTableRecord
100
AcDbBlockTableRecord
  2
*MODEL_SPACE
340
E95
  0
BLOCK_RECORD
  5
16
102
{ACAD_XDICTIONARY
360
E8B
102
}
330
1
100
AcDbSymbolTableRecord
100
AcDbBlockTableRecord
  2
*PAPER_SPACE
340
E96
  0
BLOCK_RECORD
  5
37D8
330
1
100
AcDbSymbolTableRecord
100
AcDbBlockTableRecord
  2
*D63
340
0
  0
BLOCK_RECORD
  5
37E6
330
1
100
AcDbSymbolTableRecord
100
AcDbBlockTableRecord
  2
*D64
340
0
  0
BLOCK_RECORD
  5
37F3
330
1
100
AcDbSymbolTableRecord
100
AcDbBlockTableRecord
  2
*D65
340
0
  0
ENDTAB
  0
ENDSEC
  0
SECTION
  2
BLOCKS
  0
BLOCK
  5
1A
330
19
100
AcDbEntity
  8
0
100
AcDbBlockBegin
  2
*MODEL_SPACE
 70
     0
 10
0.0
 20
0.0
 30
0.0
  3
*MODEL_SPACE
  1

  0
ENDBLK
  5
1B
330
19
100
AcDbEntity
  8
0
100
AcDbBlockEnd
  0
BLOCK
  5
17
330
16
100
AcDbEntity
 67
     1
  8
0
100
AcDbBlockBegin
  2
*PAPER_SPACE
 70
     0
 10
0.0
 20
0.0
 30
0.0
  3
*PAPER_SPACE
  1

  0
ENDBLK
  5
18
330
16
100
AcDbEntity
 67
     1
  8
0
100
AcDbBlockEnd
  0
BLOCK
  5
37D9
330
37D8
100
AcDbEntity
  8
0
100
AcDbBlockBegin
  2
*D63
 70
     1
 10
0.0
 20
0.0
 30
0.0
  3
*D63
  1

  0
LINE
  5
385B
330
37D8
100
AcDbEntity
  8
SK2
 62
     0
370
    -2
100
AcDbLine
 10
1622.032107340644
 20
981.2026503443517
 30
0.0
 11
1611.268368667507
 21
981.2026503443517
 31
0.0
  0
LINE
  5
385C
330
37D8
100
AcDbEntity
  8
SK2
 62
     0
370
    -2
100
AcDbLine
 10
1622.032107340644
 20
973.2041503443516
 30
0.0
 11
1611.268368667507
 21
973.2041503443516
 31
0.0
  0
LINE
  5
385D
330
37D8
100
AcDbEntity
  8
SK2
 62
     0
100
AcDbLine
 10
1612.268368667507
 20
984.7026503443514
 30
0.0
 11
1612.268368667507
 21
988.2026503443514
 31
0.0
  0
LINE
  5
385E
330
37D8
100
AcDbEntity
  8
SK2
 62
     0
100
AcDbLine
 10
1612.268368667507
 20
969.7041503443513
 30
0.0
 11
1612.268368667507
 21
966.2041503443516
 31
0.0
  0
SOLID
  5
385F
330
37D8
100
AcDbEntity
  8
SK2
 62
     0
100
AcDbTrace
 10
1611.685035334174
 20
984.7026503443514
 30
0.0
 11
1612.85170200084
 21
984.7026503443514
 31
0.0
 12
1612.268368667507
 22
981.2026503443517
 32
0.0
 13
1612.268368667507
 23
981.2026503443517
 33
0.0
  0
SOLID
  5
3860
330
37D8
100
AcDbEntity
  8
SK2
 62
     0
100
AcDbTrace
 10
1611.685035334174
 20
969.7041503443513
 30
0.0
 11
1612.85170200084
 21
969.7041503443513
 31
0.0
 12
1612.268368667507
 22
973.2041503443516
 32
0.0
 13
1612.268368667507
 23
973.2041503443516
 33
0.0
  0
MTEXT
  5
3861
330
37D8
100
AcDbEntity
  8
SK2
 62
     0
100
AcDbMText
 10
1609.518368667506
 20
977.2034003443517
 30
0.0
 40
3.5
 41
0.0
 71
     5
 72
     1
  1
\A1;%%c8
 11
0.0000000000000001
 21
1.0
 31
0.0
 73
     1
 44
1.0
1001
ACAD
1000
MTEXTBEGIN
1070
    73
1070
     1
1070
    44
1040
1.0
1070
    74
1070
     0
1000
MTEXTEND
  0
POINT
  5
3862
330
37D8
100
AcDbEntity
  8
DEFPOINTS
 62
     0
100
AcDbPoint
 10
1623.032107340644
 20
981.2026503443517
 30
0.0
  0
POINT
  5
3863
330
37D8
100
AcDbEntity
  8
DEFPOINTS
 62
     0
100
AcDbPoint
 10
1623.032107340644
 20
973.2041503443516
 30
0.0
  0
POINT
  5
3864
330
37D8
100
AcDbEntity
  8
DEFPOINTS
 62
     0
100
AcDbPoint
 10
1612.268368667507
 20
973.2041503443516
 30
0.0
  0
ENDBLK
  5
37DA
330
37D8
100
AcDbEntity
  8
0
100
AcDbBlockEnd
  0
BLOCK
  5
37E7
330
37E6
100
AcDbEntity
  8
0
100
AcDbBlockBegin
  2
*D64
 70
     1
 10
0.0
 20
0.0
 30
0.0
  3
*D64
  1

  0
LINE
  5
3849
330
37E6
100
AcDbEntity
  8
2
 62
     0
370
    -2
100
AcDbLine
 10
1655.241940673977
 20
990.7302753443516
 30
0.0
 11
1669.562172482337
 21
990.7302753443516
 31
0.0
  0
LINE
  5
384A
330
37E6
100
AcDbEntity
  8
2
 62
     0
370
    -2
100
AcDbLine
 10
1654.849857340644
 20
963.7157336776848
 30
0.0
 11
1669.562172482337
 21
963.7157336776848
 31
0.0
  0
LINE
  5
384B
330
37E6
100
AcDbEntity
  8
2
 62
     0
100
AcDbLine
 10
1668.562172482336
 20
987.2302753443516
 30
0.0
 11
1668.562172482336
 21
967.2157336776846
 31
0.0
  0
SOLID
  5
384C
330
37E6
100
AcDbEntity
  8
2
 62
     0
100
AcDbTrace
 10
1667.978839149003
 20
987.2302753443516
 30
0.0
 11
1669.14550581567
 21
987.2302753443516
 31
0.0
 12
1668.562172482336
 22
990.7302753443516
 32
0.0
 13
1668.562172482336
 23
990.7302753443516
 33
0.0
  0
SOLID
  5
384D
330
37E6
100
AcDbEntity
  8
2
 62
     0
100
AcDbTrace
 10
1667.978839149003
 20
967.2157336776846
 30
0.0
 11
1669.14550581567
 21
967.2157336776846
 31
0.0
 12
1668.562172482336
 22
963.7157336776848
 32
0.0
 13
1668.562172482336
 23
963.7157336776848
 33
0.0
  0
MTEXT
  5
384E
330
37E6
100
AcDbEntity
  8
2
 62
     0
100
AcDbMText
 10
1665.812172482336
 20
977.2230045110182
 30
0.0
 40
3.5
 41
0.0
 71
     5
 72
     1
  1
\A1;%%c27
 11
0.0000000000000001
 21
1.0
 31
0.0
 73
     1
 44
1.0
1001
ACAD
1000
MTEXTBEGIN
1070
    73
1070
     1
1070
    44
1040
1.0
1070
    74
1070
     0
1000
MTEXTEND
  0
POINT
  5
384F
330
37E6
100
AcDbEntity
  8
DEFPOINTS
 62
     0
100
AcDbPoint
 10
1654.241940673977
 20
990.7302753443516
 30
0.0
  0
POINT
  5
3850
330
37E6
100
AcDbEntity
  8
DEFPOINTS
 62
     0
100
AcDbPoint
 10
1653.849857340643
 20
963.7157336776848
 30
0.0
  0
POINT
  5
3851
330
37E6
100
AcDbEntity
  8
DEFPOINTS
 62
     0
100
AcDbPoint
 10
1668.562172482336
 20
963.7157336776848
 30
0.0
  0
ENDBLK
  5
37E8
330
37E6
100
AcDbEntity
  8
0
100
AcDbBlockEnd
  0
BLOCK
  5
37F4
330
37F3
100
AcDbEntity
  8
0
100
AcDbBlockBegin
  2
*D65
 70
     1
 10
0.0
 20
0.0
 30
0.0
  3
*D65
  1

  0
LINE
  5
3852
330
37F3
100
AcDbEntity
  8
2
 62
     0
370
    -2
100
AcDbLine
 10
1635.539565673976
 20
985.0648586776848
 30
0.0
 11
1635.539565673976
 21
1001.851600906278
 31
0.0
  0
LINE
  5
3853
330
37F3
100
AcDbEntity
  8
2
 62
     0
370
    -2
100
AcDbLine
 10
1655.535815673976
 20
991.3381920110182
 30
0.0
 11
1655.535815673976
 21
1001.851600906278
 31
0.0
  0
LINE
  5
3854
330
37F3
100
AcDbEntity
  8
2
 62
     0
100
AcDbLine
 10
1639.039565673976
 20
1000.851600906278
 30
0.0
 11
1652.035815673977
 21
1000.851600906278
 31
0.0
  0
SOLID
  5
3855
330
37F3
100
AcDbEntity
  8
2
 62
     0
100
AcDbTrace
 10
1639.039565673976
 20
1001.434934239612
 30
0.0
 11
1639.039565673976
 21
1000.268267572945
 31
0.0
 12
1635.539565673976
 22
1000.851600906278
 32
0.0
 13
1635.539565673976
 23
1000.851600906278
 33
0.0
  0
SOLID
  5
3856
330
37F3
100
AcDbEntity
  8
2
 62
     0
100
AcDbTrace
 10
1652.035815673977
 20
1001.434934239612
 30
0.0
 11
1652.035815673977
 21
1000.268267572945
 31
0.0
 12
1655.535815673976
 22
1000.851600906278
 32
0.0
 13
1655.535815673976
 23
1000.851600906278
 33
0.0
  0
MTEXT
  5
3857
330
37F3
100
AcDbEntity
  8
2
 62
     0
100
AcDbMText
 10
1645.537690673977
 20
1003.601600906278
 30
0.0
 40
3.5
 41
0.0
 71
     5
 72
     1
  1
\A1;20
 73
     1
 44
1.0
1001
ACAD
1000
MTEXTBEGIN
1070
    73
1070
     1
1070
    44
1040
1.0
1070
    74
1070
     0
1000
MTEXTEND
  0
POINT
  5
3858
330
37F3
100
AcDbEntity
  8
DEFPOINTS
 62
     0
100
AcDbPoint
 10
1635.539565673976
 20
984.0648586776849
 30
0.0
  0
POINT
  5
3859
330
37F3
100
AcDbEntity
  8
DEFPOINTS
 62
     0
100
AcDbPoint
 10
1655.535815673976
 20
990.3381920110183
 30
0.0
  0
POINT
  5
385A
330
37F3
100
AcDbEntity
  8
DEFPOINTS
 62
     0
100
AcDbPoint
 10
1655.535815673976
 20
1000.851600906278
 30
0.0
  0
ENDBLK
  5
37F5
330
37F3
100
AcDbEntity
  8
0
100
AcDbBlockEnd
  0
ENDSEC
  0
SECTION
  2
ENTITIES
  0
MTEXT
  5
1431
330
19
100
AcDbEntity
  8
SK6
100
AcDbMText
 10
1623.683571024111
 20
958.1772547045996
 30
0.0
 40
3.5
 41
0.0000000000000142
 71
     1
 72
     5
  1
{\fMonospac821 BT|b0|i0|c0|p49;PF84-27H6-EN1\P02602351}
  7
SIMPLEX
 73
     1
 44
1.0
1001
ACAD
1000
MTEXTBEGIN
1070
    73
1070
     1
1070
    44
1040
1.0
1070
    74
1070
     0
1000
MTEXTEND
  0
LWPOLYLINE
  5
371F
330
19
100
AcDbEntity
  8
1
100
AcDbPolyline
 90
        6
 70
     0
 43
0.0
 10
1650.948440673977
 20
972.8904836776846
 10
1650.63477400731
 20
972.8512753443515
 10
1650.321107340644
 20
972.8512753443515
 10
1650.007440673977
 20
972.8904836776846
 10
1649.69377400731
 20
972.9296920110183
 10
1649.615357340644
 20
972.9689003443517
  0
LWPOLYLINE
  5
3721
330
19
100
AcDbEntity
  8
1
100
AcDbPolyline
 90
        2
 70
     0
 43
0.0
 10
1651.183690673977
 20
972.9689003443517
 10
1650.948440673977
 20
972.8904836776846
  0
LWPOLYLINE
  5
3723
330
19
100
AcDbEntity
  8
SK4
100
AcDbPolyline
 90
        2
 70
     0
 43
0.0
 10
1657.576844023681
 20
977.2034003443517
 10
1620.58266245763
 20
977.2034003443517
  0
LWPOLYLINE
  5
3729
330
19
100
AcDbEntity
  8
SK1
100
AcDbPolyline
 90
        2
 70
     0
 43
0.0
 10
1634.794607340644
 20
972.2239420110181
 10
1634.794607340644
 20
974.4588170110182
  0
LWPOLYLINE
  5
372A
330
19
100
AcDbEntity
  8
SK1
100
AcDbPolyline
 90
        2
 70
     0
 43
0.0
 10
1631.775565673977
 20
974.4588170110182
 10
1631.775565673977
 20
972.2239420110181
  0
LWPOLYLINE
  5
372B
330
19
100
AcDbEntity
  8
SK1
100
AcDbPolyline
 90
        2
 70
     0
 43
0.0
 10
1634.794607340644
 20
981.0850253443517
 10
1634.794607340644
 20
982.2220670110182
  0
LWPOLYLINE
  5
372C
330
19
100
AcDbEntity
  8
SK1
100
AcDbPolyline
 90
        2
 70
     0
 43
0.0
 10
1631.775565673977
 20
982.2220670110182
 10
1631.775565673977
 20
981.2026503443517
  0
LWPOLYLINE
  5
372D
330
19
100
AcDbEntity
  8
1
100
AcDbPolyline
 90
        2
 70
     0
 43
0.0
 10
1640.51902400731
 20
963.990192011018
 10
1641.538440673977
 20
963.7157336776848
  0
LWPOLYLINE
  5
372E
330
19
100
AcDbEntity
  8
1
100
AcDbPolyline
 90
        2
 70
     0
 43
0.0
 10
1641.538440673977
 20
963.7157336776848
 10
1653.849857340643
 20
963.7157336776848
  0
LWPOLYLINE
  5
372F
330
19
100
AcDbEntity
  8
1
100
AcDbPolyline
 90
        2
 70
     0
 43
0.0
 10
1653.849857340643
 20
963.7157336776848
 10
1654.51639900731
 20
963.7549420110181
  0
LWPOLYLINE
  5
3730
330
19
100
AcDbEntity
  8
1
100
AcDbPolyline
 90
        2
 70
     0
 43
0.0
 10
1654.51639900731
 20
963.7549420110181
 10
1655.535815673976
 20
964.3430670110182
  0
LWPOLYLINE
  5
3731
330
19
100
AcDbEntity
  8
1
100
AcDbPolyline
 90
        2
 70
     0
 43
0.0
 10
1639.381982340642
 20
989.7892753443516
 10
1636.87264900731
 20
985.4371503443514
  0
LWPOLYLINE
  5
3732
330
19
100
AcDbEntity
  8
1
100
AcDbPolyline
 90
        2
 70
     0
 43
0.0
 10
1636.87264900731
 20
968.9696503443515
 10
1638.98989900731
 20
965.3232753443514
  0
LWPOLYLINE
  5
3733
330
19
100
AcDbEntity
  8
1
100
AcDbPolyline
 90
        2
 70
     0
 43
0.0
 10
1635.892440673976
 20
970.0282753443516
 10
1636.87264900731
 20
970.0282753443516
  0
LWPOLYLINE
  5
3734
330
19
100
AcDbEntity
  8
1
100
AcDbPolyline
 90
        2
 70
     0
 43
0.0
 10
1636.87264900731
 20
984.4177336776848
 10
1635.892440673976
 20
984.4177336776848
  0
LWPOLYLINE
  5
3735
330
19
100
AcDbEntity
  8
1
100
AcDbPolyline
 90
        2
 70
     0
 43
0.0
 10
1635.892440673976
 20
984.4177336776848
 10
1635.539565673976
 20
984.0648586776849
  0
LWPOLYLINE
  5
3736
330
19
100
AcDbEntity
  8
1
100
AcDbPolyline
 90
        2
 70
     0
 43
0.0
 10
1635.539565673976
 20
970.3811503443514
 10
1635.892440673976
 20
970.0282753443516
  0
LWPOLYLINE
  5
3737
330
19
100
AcDbEntity
  8
SK1
100
AcDbPolyline
 90
        3
 70
     0
 43
0.0
 10
1635.382732340644
 20
973.4394003443515
 10
1635.46114900731
 20
973.4394003443515
 10
1635.539565673976
 20
973.4001920110181
  0
LWPOLYLINE
  5
3738
330
19
100
AcDbEntity
  8
SK1
100
AcDbPolyline
 90
        3
 70
     0
 43
0.0
 10
1635.539565673976
 20
981.0066086776847
 10
1635.46114900731
 20
981.0066086776847
 10
1635.382732340644
 20
981.0066086776847
  0
LWPOLYLINE
  5
3739
330
19
100
AcDbEntity
  8
SK1
100
AcDbPolyline
 90
        2
 70
     0
 43
0.0
 10
1634.441732340643
 20
981.2026503443517
 10
1623.032107340644
 20
981.2026503443517
  0
LWPOLYLINE
  5
373A
330
19
100
AcDbEntity
  8
SK1
100
AcDbPolyline
 90
        2
 70
     0
 43
0.0
 10
1623.032107340644
 20
973.2041503443516
 10
1631.775565673977
 20
973.2041503443516
  0
LWPOLYLINE
  5
373B
330
19
100
AcDbEntity
  8
SK1
100
AcDbPolyline
 90
        2
 70
     0
 43
0.0
 10
1623.032107340644
 20
981.2026503443517
 10
1622.52239900731
 20
980.9281920110182
  0
LWPOLYLINE
  5
373C
330
19
100
AcDbEntity
  8
SK1
100
AcDbPolyline
 90
        2
 70
     0
 43
0.0
 10
1622.52239900731
 20
973.5178170110183
 10
1623.032107340644
 20
973.2041503443516
  0
LWPOLYLINE
  5
373D
330
19
100
AcDbEntity
  8
SK1
100
AcDbPolyline
 90
        2
 70
     0
 43
0.0
 10
1634.87302400731
 20
981.0458170110182
 10
1634.441732340643
 20
981.2026503443517
  0
LWPOLYLINE
  5
373E
330
19
100
AcDbEntity
  8
SK1
100
AcDbPolyline
 90
        9
 70
     0
 43
0.0
 10
1634.87302400731
 20
973.4001920110181
 10
1634.87302400731
 20
973.4001920110181
 10
1634.912232340643
 20
973.4001920110181
 10
1634.912232340643
 20
973.4394003443515
 10
1634.951440673977
 20
973.4394003443515
 10
1634.951440673977
 20
973.4394003443515
 10
1634.99064900731
 20
973.4394003443515
 10
1634.99064900731
 20
973.4394003443515
 10
1635.029857340644
 20
973.4394003443515
  0
LWPOLYLINE
  5
373F
330
19
100
AcDbEntity
  8
SK1
100
AcDbPolyline
 90
        9
 70
     0
 43
0.0
 10
1635.029857340644
 20
981.0066086776847
 10
1634.99064900731
 20
981.0066086776847
 10
1634.99064900731
 20
981.0066086776847
 10
1634.951440673977
 20
981.0066086776847
 10
1634.951440673977
 20
981.0066086776847
 10
1634.912232340643
 20
981.0066086776847
 10
1634.912232340643
 20
981.0066086776847
 10
1634.87302400731
 20
981.0066086776847
 10
1634.87302400731
 20
981.0458170110182
  0
LWPOLYLINE
  5
3740
330
19
100
AcDbEntity
  8
SK1
100
AcDbPolyline
 90
        2
 70
     0
 43
0.0
 10
1635.029857340644
 20
973.4394003443515
 10
1635.382732340644
 20
973.4394003443515
  0
LWPOLYLINE
  5
3741
330
19
100
AcDbEntity
  8
SK1
100
AcDbPolyline
 90
        2
 70
     0
 43
0.0
 10
1635.382732340644
 20
981.0066086776847
 10
1635.029857340644
 20
981.0066086776847
  0
LWPOLYLINE
  5
3742
330
19
100
AcDbEntity
  8
SK1
100
AcDbPolyline
 90
        2
 70
     0
 43
0.0
 10
1634.794607340644
 20
973.3609836776848
 10
1634.87302400731
 20
973.4001920110181
  0
LWPOLYLINE
  5
3743
330
19
100
AcDbEntity
  8
1
100
AcDbPolyline
 90
        2
 70
     0
 43
0.0
 10
1641.499232340644
 20
985.2411086776848
 10
1641.499232340644
 20
985.1626920110181
  0
LWPOLYLINE
  5
3744
330
19
100
AcDbEntity
  8
1
100
AcDbPolyline
 90
        2
 70
     0
 43
0.0
 10
1648.51752400731
 20
985.1626920110181
 10
1648.51752400731
 20
985.2411086776848
  0
LWPOLYLINE
  5
3745
330
19
100
AcDbEntity
  8
SK1
100
AcDbPolyline
 90
       35
 70
     0
 43
0.0
 10
1633.57914900731
 20
973.0473170110181
 10
1633.304690673977
 20
973.0865253443512
 10
1633.030232340643
 20
973.0865253443512
 10
1632.75577400731
 20
973.0081086776847
 10
1632.52052400731
 20
972.9689003443517
 10
1632.28527400731
 20
972.8512753443515
 10
1632.089232340644
 20
972.7336503443517
 10
1631.932399007309
 20
972.6160253443516
 10
1631.853982340643
 20
972.4591920110182
 10
1631.775565673977
 20
972.3023586776847
 10
1631.775565673977
 20
972.1455253443517
 10
1631.81477400731
 20
971.9886920110182
 10
1631.932399007309
 20
971.8710670110182
 10
1632.05002400731
 20
971.7142336776847
 10
1632.246065673977
 20
971.5966086776848
 10
1632.442107340644
 20
971.4789836776848
 10
1632.716565673977
 20
971.4397753443517
 10
1632.951815673977
 20
971.3613586776848
 10
1633.226274007309
 20
971.3613586776848
 10
1633.500732340644
 20
971.3613586776848
 10
1633.775190673977
 20
971.4005670110182
 10
1634.04964900731
 20
971.4789836776848
 10
1634.245690673977
 20
971.5574003443517
 10
1634.441732340643
 20
971.6750253443516
 10
1634.598565673977
 20
971.8318586776847
 10
1634.716190673977
 20
971.9494836776847
 10
1634.75539900731
 20
972.1063170110182
 10
1634.75539900731
 20
972.2631503443516
 10
1634.716190673977
 20
972.4199836776847
 10
1634.63777400731
 20
972.5768170110182
 10
1634.480940673977
 20
972.7336503443517
 10
1634.324107340643
 20
972.8512753443515
 10
1634.088857340643
 20
972.9296920110183
 10
1633.853607340643
 20
973.0081086776847
 10
1633.57914900731
 20
973.0473170110181
  0
LWPOLYLINE
  5
3746
330
19
100
AcDbEntity
  8
SK1
100
AcDbPolyline
 90
       11
 70
     0
 43
0.0
 10
1633.57914900731
 20
983.0454420110182
 10
1633.304690673977
 20
983.0846503443517
 10
1633.030232340643
 20
983.0454420110182
 10
1632.75577400731
 20
983.0062336776848
 10
1632.52052400731
 20
982.9670253443516
 10
1632.28527400731
 20
982.8494003443516
 10
1632.089232340644
 20
982.7317753443514
 10
1631.932399007309
 20
982.6141503443516
 10
1631.853982340643
 20
982.4573170110182
 10
1631.775565673977
 20
982.3004836776847
 10
1631.775565673977
 20
982.2220670110182
  0
LWPOLYLINE
  5
3747
330
19
100
AcDbEntity
  8
SK1
100
AcDbPolyline
 90
        9
 70
     0
 43
0.0
 10
1634.794607340644
 20
982.2220670110182
 10
1634.75539900731
 20
982.2612753443516
 10
1634.716190673977
 20
982.4181086776848
 10
1634.63777400731
 20
982.5749420110181
 10
1634.480940673977
 20
982.7317753443514
 10
1634.324107340643
 20
982.8494003443516
 10
1634.088857340643
 20
982.9278170110182
 10
1633.853607340643
 20
983.0062336776848
 10
1633.57914900731
 20
983.0454420110182
  0
LWPOLYLINE
  5
3748
330
19
100
AcDbEntity
  8
1
100
AcDbPolyline
 90
        2
 70
     0
 43
0.0
 10
1655.378982340644
 20
985.0058586776848
 10
1655.535815673976
 20
985.0058586776848
  0
LWPOLYLINE
  5
3749
330
19
100
AcDbEntity
  8
1
100
AcDbPolyline
 90
        2
 70
     0
 43
0.0
 10
1655.378982340644
 20
984.7314003443512
 10
1655.535815673976
 20
984.7314003443512
  0
LWPOLYLINE
  5
374A
330
19
100
AcDbEntity
  8
1
100
AcDbPolyline
 90
        2
 70
     0
 43
0.0
 10
1655.535815673976
 20
984.7314003443512
 10
1655.535815673976
 20
985.0058586776848
  0
LWPOLYLINE
  5
374B
330
19
100
AcDbEntity
  8
1
100
AcDbPolyline
 90
        2
 70
     0
 43
0.0
 10
1655.378982340644
 20
981.5947336776847
 10
1655.535815673976
 20
981.5947336776847
  0
LWPOLYLINE
  5
374C
330
19
100
AcDbEntity
  8
1
100
AcDbPolyline
 90
        2
 70
     0
 43
0.0
 10
1655.535815673976
 20
981.5947336776847
 10
1655.535815673976
 20
984.7314003443512
  0
LWPOLYLINE
  5
374D
330
19
100
AcDbEntity
  8
1
100
AcDbPolyline
 90
        2
 70
     0
 43
0.0
 10
1655.535815673976
 20
985.3195253443514
 10
1655.378982340644
 20
985.3587336776847
  0
LWPOLYLINE
  5
374E
330
19
100
AcDbEntity
  8
1
100
AcDbPolyline
 90
        2
 70
     0
 43
0.0
 10
1655.535815673976
 20
985.0058586776848
 10
1655.535815673976
 20
985.3195253443514
  0
LWPOLYLINE
  5
374F
330
19
100
AcDbEntity
  8
1
100
AcDbPolyline
 90
        2
 70
     0
 43
0.0
 10
1655.378982340644
 20
981.5163170110182
 10
1655.535815673976
 20
981.5163170110182
  0
LWPOLYLINE
  5
3750
330
19
100
AcDbEntity
  8
1
100
AcDbPolyline
 90
        2
 70
     0
 43
0.0
 10
1655.535815673976
 20
981.5163170110182
 10
1655.535815673976
 20
981.5947336776847
  0
LWPOLYLINE
  5
3751
330
19
100
AcDbEntity
  8
1
100
AcDbPolyline
 90
        5
 70
     0
 43
0.0
 10
1640.51902400731
 20
964.1470253443516
 10
1640.51902400731
 20
964.0686086776847
 10
1640.51902400731
 20
964.0294003443512
 10
1640.51902400731
 20
963.990192011018
 10
1640.51902400731
 20
963.990192011018
  0
LWPOLYLINE
  5
3752
330
19
100
AcDbEntity
  8
1
100
AcDbPolyline
 90
        3
 70
     0
 43
0.0
 10
1640.51902400731
 20
964.1470253443516
 10
1640.832690673977
 20
964.0686086776847
 10
1641.538440673977
 20
963.8725670110181
  0
LWPOLYLINE
  5
3753
330
19
100
AcDbEntity
  8
1
100
AcDbPolyline
 90
        5
 70
     0
 43
0.0
 10
1641.538440673977
 20
963.8725670110181
 10
1641.538440673977
 20
963.7941503443514
 10
1641.538440673977
 20
963.7549420110181
 10
1641.538440673977
 20
963.7157336776848
 10
1641.538440673977
 20
963.7157336776848
  0
LWPOLYLINE
  5
3754
330
19
100
AcDbEntity
  8
1
100
AcDbPolyline
 90
        2
 70
     0
 43
0.0
 10
1641.538440673977
 20
963.8725670110181
 10
1653.849857340643
 20
963.8725670110181
  0
LWPOLYLINE
  5
3755
330
19
100
AcDbEntity
  8
1
100
AcDbPolyline
 90
        5
 70
     0
 43
0.0
 10
1653.849857340643
 20
963.8725670110181
 10
1653.849857340643
 20
963.7941503443514
 10
1653.849857340643
 20
963.7549420110181
 10
1653.849857340643
 20
963.7157336776848
 10
1653.849857340643
 20
963.7157336776848
  0
LWPOLYLINE
  5
3756
330
19
100
AcDbEntity
  8
1
100
AcDbPolyline
 90
        2
 70
     0
 43
0.0
 10
1655.378982340644
 20
965.1272336776848
 10
1655.535815673976
 20
965.1272336776848
  0
LWPOLYLINE
  5
3757
330
19
100
AcDbEntity
  8
1
100
AcDbPolyline
 90
        2
 70
     0
 43
0.0
 10
1655.535815673976
 20
964.4999003443516
 10
1655.535815673976
 20
965.1272336776848
  0
LWPOLYLINE
  5
3758
330
19
100
AcDbEntity
  8
1
100
AcDbPolyline
 90
        3
 70
     0
 43
0.0
 10
1654.51639900731
 20
963.9117753443516
 10
1654.712440673977
 20
964.0294003443512
 10
1655.535815673976
 20
964.4999003443516
  0
LWPOLYLINE
  5
3759
330
19
100
AcDbEntity
  8
1
100
AcDbPolyline
 90
        3
 70
     0
 43
0.0
 10
1653.849857340643
 20
963.8725670110181
 10
1654.006690673977
 20
963.8725670110181
 10
1654.51639900731
 20
963.9117753443516
  0
LWPOLYLINE
  5
375A
330
19
100
AcDbEntity
  8
1
100
AcDbPolyline
 90
        2
 70
     0
 43
0.0
 10
1640.51902400731
 20
964.3822753443512
 10
1640.51902400731
 20
964.1470253443516
  0
LWPOLYLINE
  5
375B
330
19
100
AcDbEntity
  8
1
100
AcDbPolyline
 90
        5
 70
     0
 43
0.0
 10
1654.51639900731
 20
963.9117753443516
 10
1654.51639900731
 20
963.8333586776848
 10
1654.51639900731
 20
963.7941503443514
 10
1654.51639900731
 20
963.7549420110181
 10
1654.51639900731
 20
963.7549420110181
  0
LWPOLYLINE
  5
375C
330
19
100
AcDbEntity
  8
1
100
AcDbPolyline
 90
        5
 70
     0
 43
0.0
 10
1655.535815673976
 20
964.4999003443516
 10
1655.535815673976
 20
964.4214836776848
 10
1655.535815673976
 20
964.3822753443512
 10
1655.535815673976
 20
964.3430670110182
 10
1655.535815673976
 20
964.3430670110182
  0
LWPOLYLINE
  5
375D
330
19
100
AcDbEntity
  8
1
100
AcDbPolyline
 90
        2
 70
     0
 43
0.0
 10
1655.378982340644
 20
965.3232753443514
 10
1655.535815673976
 20
965.3232753443514
  0
LWPOLYLINE
  5
375E
330
19
100
AcDbEntity
  8
1
100
AcDbPolyline
 90
        2
 70
     0
 43
0.0
 10
1655.535815673976
 20
965.1272336776848
 10
1655.535815673976
 20
965.3232753443514
  0
LWPOLYLINE
  5
375F
330
19
100
AcDbEntity
  8
1
100
AcDbPolyline
 90
        6
 70
     0
 43
0.0
 10
1637.382357340644
 20
984.8882336776847
 10
1637.656815673977
 20
986.0252753443514
 10
1638.088107340644
 20
987.1623170110181
 10
1638.597815673977
 20
988.3385670110182
 10
1639.185940673977
 20
989.4364003443516
 10
1639.617232340643
 20
990.2205670110181
  0
LWPOLYLINE
  5
3760
330
19
100
AcDbEntity
  8
1
100
AcDbPolyline
 90
        5
 70
     0
 43
0.0
 10
1637.382357340644
 20
984.8882336776847
 10
1637.303940673977
 20
984.1824836776847
 10
1637.264732340644
 20
983.5159420110182
 10
1637.303940673977
 20
982.8494003443516
 10
1637.382357340644
 20
982.1436503443514
  0
LWPOLYLINE
  5
3761
330
19
100
AcDbEntity
  8
1
100
AcDbPolyline
 90
        6
 70
     0
 43
0.0
 10
1639.617232340643
 20
976.8113170110181
 10
1638.715440673976
 20
978.4188586776847
 10
1638.323357340643
 20
979.242233677685
 10
1637.970482340643
 20
980.0656086776847
 10
1637.617607340644
 20
981.0850253443517
 10
1637.382357340644
 20
982.1436503443514
  0
LWPOLYLINE
  5
3762
330
19
100
AcDbEntity
  8
1
100
AcDbPolyline
 90
       23
 70
     0
 43
0.0
 10
1639.617232340643
 20
976.8113170110181
 10
1639.617232340643
 20
975.9879420110181
 10
1639.617232340643
 20
975.164567011018
 10
1639.617232340643
 20
974.341192011018
 10
1639.617232340643
 20
973.5570253443517
 10
1639.617232340643
 20
972.7728586776848
 10
1639.617232340643
 20
971.9886920110182
 10
1639.617232340643
 20
971.2437336776847
 10
1639.617232340643
 20
970.4987753443516
 10
1639.617232340643
 20
969.8322336776849
 10
1639.617232340643
 20
969.1656920110181
 10
1639.617232340643
 20
968.5383586776847
 10
1639.617232340643
 20
967.9110253443514
 10
1639.617232340643
 20
967.3621086776847
 10
1639.617232340643
 20
966.8524003443517
 10
1639.617232340643
 20
966.3819003443515
 10
1639.617232340643
 20
965.9506086776849
 10
1639.617232340643
 20
965.5585253443517
 10
1639.617232340643
 20
965.2056503443516
 10
1639.617232340643
 20
964.8919836776848
 10
1639.617232340643
 20
964.6567336776847
 10
1639.617232340643
 20
964.4606920110181
 10
1639.617232340643
 20
964.3430670110182
  0
LWPOLYLINE
  5
3763
330
19
100
AcDbEntity
  8
1
100
AcDbPolyline
 90
        4
 70
     0
 43
0.0
 10
1639.029107340643
 20
965.3232753443514
 10
1639.303565673977
 20
964.8919836776848
 10
1639.57802400731
 20
964.4214836776848
 10
1639.617232340643
 20
964.3430670110182
  0
LWPOLYLINE
  5
3764
330
19
100
AcDbEntity
  8
1
100
AcDbPolyline
 90
        2
 70
     0
 43
0.0
 10
1638.98989900731
 20
965.3232753443514
 10
1639.029107340643
 20
965.3232753443514
  0
LWPOLYLINE
  5
3765
330
19
100
AcDbEntity
  8
1
100
AcDbPolyline
 90
       41
 70
     0
 43
0.0
 10
1636.87264900731
 20
968.9696503443515
 10
1636.87264900731
 20
969.0088586776848
 10
1636.87264900731
 20
969.0872753443516
 10
1636.87264900731
 20
969.2049003443512
 10
1636.87264900731
 20
969.3617336776847
 10
1636.87264900731
 20
969.5969836776848
 10
1636.87264900731
 20
969.8714420110182
 10
1636.87264900731
 20
970.1851086776848
 10
1636.87264900731
 20
970.5379836776847
 10
1636.87264900731
 20
970.9692753443517
 10
1636.87264900731
 20
971.4005670110182
 10
1636.87264900731
 20
971.8710670110182
 10
1636.87264900731
 20
972.3807753443516
 10
1636.87264900731
 20
972.9296920110183
 10
1636.87264900731
 20
973.4786086776848
 10
1636.87264900731
 20
974.0667336776848
 10
1636.87264900731
 20
974.6548586776848
 10
1636.87264900731
 20
975.2821920110182
 10
1636.87264900731
 20
975.9095253443517
 10
1636.87264900731
 20
976.576067011018
 10
1636.87264900731
 20
977.2034003443517
 10
1636.87264900731
 20
977.869942011018
 10
1636.87264900731
 20
978.4972753443517
 10
1636.87264900731
 20
979.1246086776848
 10
1636.87264900731
 20
979.7519420110182
 10
1636.87264900731
 20
980.3792753443516
 10
1636.87264900731
 20
980.9674003443516
 10
1636.87264900731
 20
981.5163170110182
 10
1636.87264900731
 20
982.0652336776847
 10
1636.87264900731
 20
982.5749420110181
 10
1636.87264900731
 20
983.0454420110182
 10
1636.87264900731
 20
983.4767336776847
 10
1636.87264900731
 20
983.8688170110181
 10
1636.87264900731
 20
984.2216920110182
 10
1636.87264900731
 20
984.5745670110181
 10
1636.87264900731
 20
984.8098170110182
 10
1636.87264900731
 20
985.0450670110182
 10
1636.87264900731
 20
985.2411086776848
 10
1636.87264900731
 20
985.3587336776847
 10
1636.87264900731
 20
985.4371503443514
 10
1636.87264900731
 20
985.4371503443514
  0
LWPOLYLINE
  5
3766
330
19
100
AcDbEntity
  8
1
100
AcDbPolyline
 90
        2
 70
     0
 43
0.0
 10
1640.51902400731
 20
964.3822753443512
 10
1654.63402400731
 20
964.3822753443512
  0
LWPOLYLINE
  5
3767
330
19
100
AcDbEntity
  8
1
100
AcDbPolyline
 90
        3
 70
     0
 43
0.0
 10
1639.617232340643
 20
964.3430670110182
 10
1640.04852400731
 20
964.3430670110182
 10
1640.51902400731
 20
964.3822753443512
  0
LWPOLYLINE
  5
3768
330
19
100
AcDbEntity
  8
1
100
AcDbPolyline
 90
        2
 70
     0
 43
0.0
 10
1651.889440673977
 20
976.8113170110181
 10
1639.617232340643
 20
976.8113170110181
  0
LWPOLYLINE
  5
3769
330
19
100
AcDbEntity
  8
1
100
AcDbPolyline
 90
        4
 70
     0
 43
0.0
 10
1654.63402400731
 20
975.8311086776847
 10
1653.69302400731
 20
976.1447753443516
 10
1652.791232340644
 20
976.4976503443516
 10
1651.889440673977
 20
976.8113170110181
  0
LWPOLYLINE
  5
376A
330
19
100
AcDbEntity
  8
1
100
AcDbPolyline
 90
       22
 70
     0
 43
0.0
 10
1654.63402400731
 20
975.8311086776847
 10
1654.63402400731
 20
975.0469420110182
 10
1654.63402400731
 20
974.2235670110181
 10
1654.63402400731
 20
973.4394003443515
 10
1654.63402400731
 20
972.6944420110182
 10
1654.63402400731
 20
971.9494836776847
 10
1654.63402400731
 20
971.2045253443514
 10
1654.63402400731
 20
970.4987753443516
 10
1654.63402400731
 20
969.8322336776849
 10
1654.63402400731
 20
969.1656920110181
 10
1654.63402400731
 20
968.5383586776847
 10
1654.63402400731
 20
967.9502336776847
 10
1654.63402400731
 20
967.4013170110182
 10
1654.63402400731
 20
966.8916086776848
 10
1654.63402400731
 20
966.4211086776846
 10
1654.63402400731
 20
965.9898170110182
 10
1654.63402400731
 20
965.5977336776848
 10
1654.63402400731
 20
965.2448586776847
 10
1654.63402400731
 20
964.9704003443517
 10
1654.63402400731
 20
964.7351503443514
 10
1654.63402400731
 20
964.4999003443516
 10
1654.63402400731
 20
964.3822753443512
  0
LWPOLYLINE
  5
376B
330
19
100
AcDbEntity
  8
1
100
AcDbPolyline
 90
       38
 70
     0
 43
0.0
 10
1650.39952400731
 20
969.3617336776847
 10
1650.75239900731
 20
969.3617336776847
 10
1651.105274007309
 20
969.4401503443517
 10
1651.418940673976
 20
969.5577753443515
 10
1651.732607340643
 20
969.7146086776847
 10
1651.967857340643
 20
969.9106503443513
 10
1652.16389900731
 20
970.1459003443515
 10
1652.359940673977
 20
970.4203586776849
 10
1652.438357340644
 20
970.694817011018
 10
1652.51677400731
 20
971.0084836776848
 10
1652.477565673977
 20
971.3221503443516
 10
1652.438357340644
 20
971.6358170110181
 10
1652.320732340643
 20
971.9494836776847
 10
1652.124690673977
 20
972.2631503443516
 10
1651.889440673977
 20
972.5376086776847
 10
1651.614982340644
 20
972.7728586776848
 10
1651.301315673977
 20
972.9296920110183
 10
1650.948440673977
 20
973.0865253443512
 10
1650.595565673977
 20
973.1257336776847
 10
1650.28189900731
 20
973.1649420110182
 10
1649.92902400731
 20
973.0865253443512
 10
1649.615357340644
 20
973.0081086776847
 10
1649.34089900731
 20
972.8512753443515
 10
1649.066440673976
 20
972.6552336776848
 10
1648.831190673977
 20
972.4199836776847
 10
1648.595940673977
 20
972.1455253443517
 10
1648.439107340643
 20
971.8318586776847
 10
1648.360690673977
 20
971.5181920110181
 10
1648.321482340643
 20
971.2045253443514
 10
1648.321482340643
 20
970.8516503443517
 10
1648.39989900731
 20
970.5379836776847
 10
1648.556732340644
 20
970.2635253443517
 10
1648.752774007309
 20
969.9890670110182
 10
1648.98802400731
 20
969.7930253443514
 10
1649.262482340644
 20
969.6361920110183
 10
1649.57614900731
 20
969.4793586776848
 10
1649.889815673977
 20
969.4009420110182
 10
1650.39952400731
 20
969.3617336776847
  0
LWPOLYLINE
  5
376C
330
19
100
AcDbEntity
  8
1
100
AcDbPolyline
 90
        2
 70
     0
 43
0.0
 10
1655.378982340644
 20
987.0839003443515
 10
1655.378982340644
 20
975.9487336776848
  0
LWPOLYLINE
  5
376D
330
19
100
AcDbEntity
  8
1
100
AcDbPolyline
 90
        2
 70
     0
 43
0.0
 10
1655.378982340644
 20
975.9487336776848
 10
1654.63402400731
 20
975.8311086776847
  0
LWPOLYLINE
  5
376E
330
19
100
AcDbEntity
  8
1
100
AcDbPolyline
 90
        2
 70
     0
 43
0.0
 10
1651.889440673977
 20
976.8113170110181
 10
1651.889440673977
 20
987.4367753443516
  0
LWPOLYLINE
  5
376F
330
19
100
AcDbEntity
  8
1
100
AcDbPolyline
 90
        2
 70
     0
 43
0.0
 10
1651.889440673977
 20
987.4367753443516
 10
1655.378982340644
 20
987.0839003443515
  0
LWPOLYLINE
  5
3770
330
19
100
AcDbEntity
  8
1
100
AcDbPolyline
 90
        2
 70
     0
 43
0.0
 10
1641.263982340644
 20
981.751567011018
 10
1641.734482340643
 20
981.751567011018
  0
LWPOLYLINE
  5
3771
330
19
100
AcDbEntity
  8
1
100
AcDbPolyline
 90
        2
 70
     0
 43
0.0
 10
1641.263982340644
 20
981.6339420110182
 10
1641.263982340644
 20
981.751567011018
  0
LWPOLYLINE
  5
3772
330
19
100
AcDbEntity
  8
1
100
AcDbPolyline
 90
        2
 70
     0
 43
0.0
 10
1642.440232340644
 20
981.6339420110182
 10
1641.263982340644
 20
981.6339420110182
  0
LWPOLYLINE
  5
3773
330
19
100
AcDbEntity
  8
1
100
AcDbPolyline
 90
        2
 70
     0
 43
0.0
 10
1642.440232340644
 20
981.751567011018
 10
1642.440232340644
 20
981.6339420110182
  0
LWPOLYLINE
  5
3774
330
19
100
AcDbEntity
  8
1
100
AcDbPolyline
 90
        2
 70
     0
 43
0.0
 10
1641.969732340644
 20
981.751567011018
 10
1642.440232340644
 20
981.751567011018
  0
LWPOLYLINE
  5
3775
330
19
100
AcDbEntity
  8
1
100
AcDbPolyline
 90
        2
 70
     0
 43
0.0
 10
1641.969732340644
 20
982.6925670110179
 10
1641.969732340644
 20
981.751567011018
  0
LWPOLYLINE
  5
3776
330
19
100
AcDbEntity
  8
1
100
AcDbPolyline
 90
        2
 70
     0
 43
0.0
 10
1641.734482340643
 20
982.6925670110179
 10
1641.969732340644
 20
982.6925670110179
  0
LWPOLYLINE
  5
3777
330
19
100
AcDbEntity
  8
1
100
AcDbPolyline
 90
        2
 70
     0
 43
0.0
 10
1641.734482340643
 20
981.751567011018
 10
1641.734482340643
 20
982.6925670110179
  0
LWPOLYLINE
  5
3778
330
19
100
AcDbEntity
  8
1
100
AcDbPolyline
 90
        2
 70
     0
 43
0.0
 10
1637.382357340644
 20
984.8882336776847
 10
1637.382357340644
 20
982.1436503443514
  0
LWPOLYLINE
  5
3779
330
19
100
AcDbEntity
  8
1
100
AcDbPolyline
 90
        2
 70
     0
 43
0.0
 10
1639.617232340643
 20
990.2205670110181
 10
1645.537690673977
 20
990.2205670110181
  0
LWPOLYLINE
  5
377A
330
19
100
AcDbEntity
  8
1
100
AcDbPolyline
 90
        2
 70
     0
 43
0.0
 10
1645.537690673977
 20
990.2205670110181
 10
1645.537690673977
 20
987.6720253443517
  0
LWPOLYLINE
  5
377B
330
19
100
AcDbEntity
  8
1
100
AcDbPolyline
 90
       28
 70
     0
 43
0.0
 10
1648.51752400731
 20
985.1626920110181
 10
1648.478315673977
 20
985.0058586776848
 10
1648.439107340643
 20
984.7314003443512
 10
1648.360690673977
 20
984.4177336776848
 10
1648.203857340644
 20
984.1432753443513
 10
1648.007815673977
 20
983.8688170110181
 10
1647.772565673977
 20
983.6335670110182
 10
1647.498107340643
 20
983.4375253443516
 10
1647.184440673977
 20
983.2414836776846
 10
1646.831565673977
 20
983.0454420110182
 10
1646.439482340644
 20
982.9278170110182
 10
1646.04739900731
 20
982.8101920110182
 10
1645.655315673977
 20
982.7317753443514
 10
1645.22402400731
 20
982.6925670110179
 10
1644.831940673977
 20
982.6925670110179
 10
1644.40064900731
 20
982.7317753443514
 10
1643.969357340643
 20
982.8101920110182
 10
1643.577274007309
 20
982.8886086776847
 10
1643.22439900731
 20
983.0454420110182
 10
1642.87152400731
 20
983.2022753443515
 10
1642.557857340644
 20
983.3983170110181
 10
1642.28339900731
 20
983.6335670110182
 10
1642.048149007309
 20
983.8688170110181
 10
1641.81289900731
 20
984.1040670110182
 10
1641.695274007309
 20
984.3785253443515
 10
1641.57764900731
 20
984.692192011018
 10
1641.499232340644
 20
984.9666503443517
 10
1641.499232340644
 20
985.1626920110181
  0
LWPOLYLINE
  5
377C
330
19
100
AcDbEntity
  8
1
100
AcDbPolyline
 90
        2
 70
     0
 43
0.0
 10
1648.243065673977
 20
986.1821086776847
 10
1651.69339900731
 20
987.4367753443516
  0
LWPOLYLINE
  5
377D
330
19
100
AcDbEntity
  8
1
100
AcDbPolyline
 90
        2
 70
     0
 43
0.0
 10
1651.69339900731
 20
987.4367753443516
 10
1651.889440673977
 20
987.4367753443516
  0
LWPOLYLINE
  5
377E
330
19
100
AcDbEntity
  8
1
100
AcDbPolyline
 90
        5
 70
     0
 43
0.0
 10
1647.498107340643
 20
982.1436503443514
 10
1647.380482340644
 20
982.1828586776847
 10
1647.262857340643
 20
982.2612753443516
 10
1647.223649007309
 20
982.3004836776847
 10
1647.223649007309
 20
982.3789003443517
  0
LWPOLYLINE
  5
377F
330
19
100
AcDbEntity
  8
1
100
AcDbPolyline
 90
        4
 70
     0
 43
0.0
 10
1647.262857340643
 20
981.9084003443517
 10
1647.302065673977
 20
981.9868170110181
 10
1647.34127400731
 20
982.0652336776847
 10
1647.498107340643
 20
982.1436503443514
  0
LWPOLYLINE
  5
3780
330
19
100
AcDbEntity
  8
1
100
AcDbPolyline
 90
        5
 70
     0
 43
0.0
 10
1647.772565673977
 20
981.6339420110182
 10
1647.57652400731
 20
981.6339420110182
 10
1647.380482340644
 20
981.7123586776848
 10
1647.302065673977
 20
981.7907753443517
 10
1647.262857340643
 20
981.9084003443517
  0
LWPOLYLINE
  5
3781
330
19
100
AcDbEntity
  8
1
100
AcDbPolyline
 90
        2
 70
     0
 43
0.0
 10
1648.321482340643
 20
981.6339420110182
 10
1647.772565673977
 20
981.6339420110182
  0
LWPOLYLINE
  5
3782
330
19
100
AcDbEntity
  8
1
100
AcDbPolyline
 90
        2
 70
     0
 43
0.0
 10
1648.321482340643
 20
982.6925670110179
 10
1648.321482340643
 20
981.6339420110182
  0
LWPOLYLINE
  5
3783
330
19
100
AcDbEntity
  8
1
100
AcDbPolyline
 90
        2
 70
     0
 43
0.0
 10
1647.772565673977
 20
982.6925670110179
 10
1648.321482340643
 20
982.6925670110179
  0
LWPOLYLINE
  5
3784
330
19
100
AcDbEntity
  8
1
100
AcDbPolyline
 90
        6
 70
     0
 43
0.0
 10
1647.223649007309
 20
982.3789003443517
 10
1647.223649007309
 20
982.4965253443517
 10
1647.302065673977
 20
982.5749420110181
 10
1647.419690673977
 20
982.6533586776847
 10
1647.57652400731
 20
982.6925670110179
 10
1647.772565673977
 20
982.6925670110179
  0
LWPOLYLINE
  5
3785
330
19
100
AcDbEntity
  8
1
100
AcDbPolyline
 90
        3
 70
     0
 43
0.0
 10
1654.63402400731
 20
964.3822753443512
 10
1654.75164900731
 20
964.4606920110181
 10
1655.378982340644
 20
964.8135670110182
  0
LWPOLYLINE
  5
3786
330
19
100
AcDbEntity
  8
1
100
AcDbPolyline
 90
       21
 70
     0
 43
0.0
 10
1655.378982340644
 20
975.9487336776848
 10
1655.378982340644
 20
975.164567011018
 10
1655.378982340644
 20
974.341192011018
 10
1655.378982340644
 20
973.5570253443517
 10
1655.378982340644
 20
972.7728586776848
 10
1655.378982340644
 20
971.9886920110182
 10
1655.378982340644
 20
971.282942011018
 10
1655.378982340644
 20
970.5379836776847
 10
1655.378982340644
 20
969.8714420110182
 10
1655.378982340644
 20
969.2049003443512
 10
1655.378982340644
 20
968.6167753443513
 10
1655.378982340644
 20
968.0286503443516
 10
1655.378982340644
 20
967.4797336776848
 10
1655.378982340644
 20
966.9700253443515
 10
1655.378982340644
 20
966.5387336776849
 10
1655.378982340644
 20
966.1074420110182
 10
1655.378982340644
 20
965.7545670110183
 10
1655.378982340644
 20
965.4409003443516
 10
1655.378982340644
 20
965.1664420110183
 10
1655.378982340644
 20
964.9704003443517
 10
1655.378982340644
 20
964.8135670110182
  0
LWPOLYLINE
  5
3787
330
19
100
AcDbEntity
  8
1
100
AcDbPolyline
 90
        4
 70
     0
 43
0.0
 10
1650.39952400731
 20
972.7728586776848
 10
1650.75239900731
 20
972.7728586776848
 10
1651.066065673977
 20
972.8512753443515
 10
1651.301315673977
 20
972.9296920110183
  0
LWPOLYLINE
  5
3788
330
19
100
AcDbEntity
  8
1
100
AcDbPolyline
 90
        4
 70
     0
 43
0.0
 10
1649.497732340643
 20
972.9296920110183
 10
1649.772190673977
 20
972.8512753443515
 10
1650.085857340644
 20
972.7728586776848
 10
1650.39952400731
 20
972.7728586776848
  0
LWPOLYLINE
  5
3789
330
19
100
AcDbEntity
  8
1
100
AcDbPolyline
 90
        3
 70
     0
 43
0.0
 10
1650.203482340644
 20
973.1257336776847
 10
1650.39952400731
 20
973.1257336776847
 10
1650.595565673977
 20
973.1257336776847
  0
LWPOLYLINE
  5
378A
330
19
100
AcDbEntity
  8
1
100
AcDbPolyline
 90
        2
 70
     0
 43
0.0
 10
1648.125440673977
 20
981.6339420110182
 10
1648.125440673977
 20
981.751567011018
  0
LWPOLYLINE
  5
378B
330
19
100
AcDbEntity
  8
1
100
AcDbPolyline
 90
        2
 70
     0
 43
0.0
 10
1647.850982340643
 20
981.6339420110182
 10
1647.850982340643
 20
981.751567011018
  0
LWPOLYLINE
  5
378C
330
19
100
AcDbEntity
  8
1
100
AcDbPolyline
 90
        2
 70
     0
 43
0.0
 10
1647.850982340643
 20
981.751567011018
 10
1648.125440673977
 20
981.751567011018
  0
LWPOLYLINE
  5
378D
330
19
100
AcDbEntity
  8
1
100
AcDbPolyline
 90
        2
 70
     0
 43
0.0
 10
1641.734482340643
 20
981.6339420110182
 10
1641.734482340643
 20
981.751567011018
  0
LWPOLYLINE
  5
378E
330
19
100
AcDbEntity
  8
1
100
AcDbPolyline
 90
        6
 70
     0
 43
0.0
 10
1647.498107340643
 20
981.9084003443517
 10
1647.498107340643
 20
981.8299836776848
 10
1647.537315673976
 20
981.7907753443517
 10
1647.57652400731
 20
981.7907753443517
 10
1647.69414900731
 20
981.751567011018
 10
1647.850982340643
 20
981.751567011018
  0
LWPOLYLINE
  5
378F
330
19
100
AcDbEntity
  8
1
100
AcDbPolyline
 90
        4
 70
     0
 43
0.0
 10
1647.615732340644
 20
982.0652336776847
 10
1647.57652400731
 20
982.0260253443516
 10
1647.498107340643
 20
981.9868170110181
 10
1647.498107340643
 20
981.9084003443517
  0
LWPOLYLINE
  5
3790
330
19
100
AcDbEntity
  8
1
100
AcDbPolyline
 90
        3
 70
     0
 43
0.0
 10
1647.81177400731
 20
982.0652336776847
 10
1647.69414900731
 20
982.0652336776847
 10
1647.615732340644
 20
982.0652336776847
  0
LWPOLYLINE
  5
3791
330
19
100
AcDbEntity
  8
1
100
AcDbPolyline
 90
        2
 70
     0
 43
0.0
 10
1648.125440673977
 20
982.0652336776847
 10
1647.81177400731
 20
982.0652336776847
  0
LWPOLYLINE
  5
3792
330
19
100
AcDbEntity
  8
1
100
AcDbPolyline
 90
        2
 70
     0
 43
0.0
 10
1648.125440673977
 20
981.751567011018
 10
1648.125440673977
 20
982.0652336776847
  0
LWPOLYLINE
  5
3793
330
19
100
AcDbEntity
  8
1
100
AcDbPolyline
 90
        4
 70
     0
 43
0.0
 10
1647.498107340643
 20
981.7907753443517
 10
1647.498107340643
 20
981.7123586776848
 10
1647.537315673976
 20
981.6731503443516
 10
1647.57652400731
 20
981.6339420110182
  0
LWPOLYLINE
  5
3794
330
19
100
AcDbEntity
  8
1
100
AcDbPolyline
 90
        2
 70
     0
 43
0.0
 10
1647.498107340643
 20
981.7907753443517
 10
1647.498107340643
 20
981.9084003443517
  0
LWPOLYLINE
  5
3795
330
19
100
AcDbEntity
  8
1
100
AcDbPolyline
 90
        2
 70
     0
 43
0.0
 10
1641.969732340644
 20
981.6339420110182
 10
1641.969732340644
 20
981.751567011018
  0
LWPOLYLINE
  5
3796
330
19
100
AcDbEntity
  8
1
100
AcDbPolyline
 90
        2
 70
     0
 43
0.0
 10
1641.734482340643
 20
982.5357336776848
 10
1641.969732340644
 20
982.5357336776848
  0
LWPOLYLINE
  5
3797
330
19
100
AcDbEntity
  8
1
100
AcDbPolyline
 90
        4
 70
     0
 43
0.0
 10
1647.302065673977
 20
981.8299836776848
 10
1647.302065673977
 20
981.8299836776848
 10
1647.34127400731
 20
981.9084003443517
 10
1647.498107340643
 20
981.9868170110181
  0
LWPOLYLINE
  5
3798
330
19
100
AcDbEntity
  8
1
100
AcDbPolyline
 90
        5
 70
     0
 43
0.0
 10
1647.223649007309
 20
982.3004836776847
 10
1647.223649007309
 20
982.3396920110182
 10
1647.302065673977
 20
982.4573170110182
 10
1647.419690673977
 20
982.4965253443517
 10
1647.537315673976
 20
982.5357336776848
  0
LWPOLYLINE
  5
3799
330
19
100
AcDbEntity
  8
1
100
AcDbPolyline
 90
        2
 70
     0
 43
0.0
 10
1648.125440673977
 20
982.5357336776848
 10
1648.321482340643
 20
982.5357336776848
  0
LWPOLYLINE
  5
379A
330
19
100
AcDbEntity
  8
1
100
AcDbPolyline
 90
        5
 70
     0
 43
0.0
 10
1647.419690673977
 20
982.2612753443516
 10
1647.458899007309
 20
982.1436503443514
 10
1647.498107340643
 20
982.104442011018
 10
1647.537315673976
 20
982.104442011018
 10
1647.654940673977
 20
982.0652336776847
  0
LWPOLYLINE
  5
379B
330
19
100
AcDbEntity
  8
1
100
AcDbPolyline
 90
        2
 70
     0
 43
0.0
 10
1647.498107340643
 20
981.9868170110181
 10
1647.498107340643
 20
982.1436503443514
  0
LWPOLYLINE
  5
379C
330
19
100
AcDbEntity
  8
1
100
AcDbPolyline
 90
        6
 70
     0
 43
0.0
 10
1647.419690673977
 20
982.3789003443517
 10
1647.458899007309
 20
982.3004836776847
 10
1647.498107340643
 20
982.2612753443516
 10
1647.537315673976
 20
982.2220670110182
 10
1647.654940673977
 20
982.2220670110182
 10
1647.772565673977
 20
982.2220670110182
  0
LWPOLYLINE
  5
379D
330
19
100
AcDbEntity
  8
1
100
AcDbPolyline
 90
        5
 70
     0
 43
0.0
 10
1647.654940673977
 20
982.5749420110181
 10
1647.537315673976
 20
982.5357336776848
 10
1647.458899007309
 20
982.4965253443517
 10
1647.419690673977
 20
982.4573170110182
 10
1647.419690673977
 20
982.3789003443517
  0
LWPOLYLINE
  5
379E
330
19
100
AcDbEntity
  8
1
100
AcDbPolyline
 90
        3
 70
     0
 43
0.0
 10
1647.772565673977
 20
982.5749420110181
 10
1647.69414900731
 20
982.5749420110181
 10
1647.654940673977
 20
982.5749420110181
  0
LWPOLYLINE
  5
379F
330
19
100
AcDbEntity
  8
1
100
AcDbPolyline
 90
        2
 70
     0
 43
0.0
 10
1648.125440673977
 20
982.5749420110181
 10
1647.772565673977
 20
982.5749420110181
  0
LWPOLYLINE
  5
37A0
330
19
100
AcDbEntity
  8
1
100
AcDbPolyline
 90
        2
 70
     0
 43
0.0
 10
1648.125440673977
 20
982.2220670110182
 10
1648.125440673977
 20
982.5749420110181
  0
LWPOLYLINE
  5
37A1
330
19
100
AcDbEntity
  8
1
100
AcDbPolyline
 90
        2
 70
     0
 43
0.0
 10
1647.772565673977
 20
982.2220670110182
 10
1648.125440673977
 20
982.2220670110182
  0
LWPOLYLINE
  5
37A2
330
19
100
AcDbEntity
  8
1
100
AcDbPolyline
 90
        2
 70
     0
 43
0.0
 10
1648.125440673977
 20
982.0652336776847
 10
1648.125440673977
 20
982.2220670110182
  0
LWPOLYLINE
  5
37A3
330
19
100
AcDbEntity
  8
1
100
AcDbPolyline
 90
        2
 70
     0
 43
0.0
 10
1647.772565673977
 20
982.0652336776847
 10
1647.772565673977
 20
982.2220670110182
  0
LWPOLYLINE
  5
37A4
330
19
100
AcDbEntity
  8
1
100
AcDbPolyline
 90
        2
 70
     0
 43
0.0
 10
1647.419690673977
 20
982.2612753443516
 10
1647.419690673977
 20
982.3789003443517
  0
LWPOLYLINE
  5
37A5
330
19
100
AcDbEntity
  8
1
100
AcDbPolyline
 90
        2
 70
     0
 43
0.0
 10
1647.772565673977
 20
982.5749420110181
 10
1647.772565673977
 20
982.6925670110179
  0
LWPOLYLINE
  5
37A6
330
19
100
AcDbEntity
  8
1
100
AcDbPolyline
 90
       39
 70
     0
 43
0.0
 10
1635.892440673976
 20
970.0282753443516
 10
1635.892440673976
 20
970.0282753443516
 10
1635.892440673976
 20
970.106692011018
 10
1635.892440673976
 20
970.2243170110183
 10
1635.892440673976
 20
970.4203586776849
 10
1635.892440673976
 20
970.6556086776847
 10
1635.892440673976
 20
970.8908586776848
 10
1635.892440673976
 20
971.2045253443514
 10
1635.892440673976
 20
971.5574003443517
 10
1635.892440673976
 20
971.9494836776847
 10
1635.892440673976
 20
972.3807753443516
 10
1635.892440673976
 20
972.8512753443515
 10
1635.892440673976
 20
973.3609836776848
 10
1635.892440673976
 20
973.8706920110182
 10
1635.892440673976
 20
974.4196086776847
 10
1635.892440673976
 20
975.0077336776847
 10
1635.892440673976
 20
975.5566503443516
 10
1635.892440673976
 20
976.1447753443516
 10
1635.892440673976
 20
976.7721086776846
 10
1635.892440673976
 20
977.3602336776846
 10
1635.892440673976
 20
977.9875670110182
 10
1635.892440673976
 20
978.5756920110182
 10
1635.892440673976
 20
979.1638170110182
 10
1635.892440673976
 20
979.7127336776847
 10
1635.892440673976
 20
980.3008586776847
 10
1635.892440673976
 20
980.810567011018
 10
1635.892440673976
 20
981.3202753443517
 10
1635.892440673976
 20
981.7907753443517
 10
1635.892440673976
 20
982.2612753443516
 10
1635.892440673976
 20
982.6533586776847
 10
1635.892440673976
 20
983.0454420110182
 10
1635.892440673976
 20
983.3591086776847
 10
1635.892440673976
 20
983.6727753443517
 10
1635.892440673976
 20
983.9080253443514
 10
1635.892440673976
 20
984.1040670110182
 10
1635.892440673976
 20
984.2609003443516
 10
1635.892440673976
 20
984.3785253443515
 10
1635.892440673976
 20
984.4177336776848
 10
1635.892440673976
 20
984.4177336776848
  0
LWPOLYLINE
  5
37A7
330
19
100
AcDbEntity
  8
1
100
AcDbPolyline
 90
       38
 70
     0
 43
0.0
 10
1635.539565673976
 20
970.3811503443514
 10
1635.539565673976
 20
970.3811503443514
 10
1635.539565673976
 20
970.459567011018
 10
1635.539565673976
 20
970.5771920110182
 10
1635.539565673976
 20
970.7732336776848
 10
1635.539565673976
 20
971.0084836776848
 10
1635.539565673976
 20
971.2437336776847
 10
1635.539565673976
 20
971.5574003443517
 10
1635.539565673976
 20
971.9102753443516
 10
1635.539565673976
 20
972.3023586776847
 10
1635.539565673976
 20
972.7336503443517
 10
1635.539565673976
 20
973.2041503443516
 10
1635.539565673976
 20
973.7138586776849
 10
1635.539565673976
 20
974.2235670110181
 10
1635.539565673976
 20
974.7724836776848
 10
1635.539565673976
 20
975.3214003443517
 10
1635.539565673976
 20
975.9095253443517
 10
1635.539565673976
 20
976.4976503443516
 10
1635.539565673976
 20
977.0857753443516
 10
1635.539565673976
 20
977.6739003443513
 10
1635.539565673976
 20
978.2620253443514
 10
1635.539565673976
 20
978.8109420110179
 10
1635.539565673976
 20
979.3990670110179
 10
1635.539565673976
 20
979.9479836776848
 10
1635.539565673976
 20
980.4576920110182
 10
1635.539565673976
 20
980.9674003443516
 10
1635.539565673976
 20
981.4379003443516
 10
1635.539565673976
 20
981.9084003443517
 10
1635.539565673976
 20
982.3004836776847
 10
1635.539565673976
 20
982.6925670110179
 10
1635.539565673976
 20
983.0062336776848
 10
1635.539565673976
 20
983.3199003443514
 10
1635.539565673976
 20
983.5551503443516
 10
1635.539565673976
 20
983.7511920110182
 10
1635.539565673976
 20
983.9080253443514
 10
1635.539565673976
 20
984.0256503443516
 10
1635.539565673976
 20
984.0648586776849
 10
1635.539565673976
 20
984.0648586776849
  0
LWPOLYLINE
  5
37A8
330
19
100
AcDbEntity
  8
SK1
100
AcDbPolyline
 90
       16
 70
     0
 43
0.0
 10
1634.441732340643
 20
974.7724836776848
 10
1634.284899007309
 20
974.8901086776848
 10
1633.735982340644
 20
975.0861503443516
 10
1633.422315673977
 20
975.1253586776847
 10
1633.10864900731
 20
975.1253586776847
 10
1632.794982340643
 20
975.0469420110182
 10
1632.52052400731
 20
974.9685253443514
 10
1632.246065673977
 20
974.8509003443516
 10
1632.010815673976
 20
974.6940670110182
 10
1631.81477400731
 20
974.5372336776847
 10
1631.657940673977
 20
974.341192011018
 10
1631.540315673977
 20
974.1451503443517
 10
1631.501107340644
 20
973.988317011018
 10
1631.540315673977
 20
973.7530670110182
 10
1631.736357340643
 20
973.5570253443517
 10
1631.775565673977
 20
973.5178170110183
  0
LWPOLYLINE
  5
37A9
330
19
100
AcDbEntity
  8
SK1
100
AcDbPolyline
 90
       21
 70
     0
 43
0.0
 10
1634.441732340643
 20
974.7724836776848
 10
1634.441732340643
 20
975.164567011018
 10
1634.441732340643
 20
975.5566503443516
 10
1634.441732340643
 20
975.9879420110181
 10
1634.441732340643
 20
976.4192336776847
 10
1634.441732340643
 20
976.8897336776849
 10
1634.441732340643
 20
977.3602336776846
 10
1634.441732340643
 20
977.7915253443516
 10
1634.441732340643
 20
978.2620253443514
 10
1634.441732340643
 20
978.6933170110181
 10
1634.441732340643
 20
979.1246086776848
 10
1634.441732340643
 20
979.5166920110181
 10
1634.441732340643
 20
979.8695670110182
 10
1634.441732340643
 20
980.1832336776849
 10
1634.441732340643
 20
980.4969003443515
 10
1634.441732340643
 20
980.7321503443516
 10
1634.441732340643
 20
980.9281920110182
 10
1634.441732340643
 20
981.0850253443517
 10
1634.441732340643
 20
981.1634420110181
 10
1634.441732340643
 20
981.2026503443517
 10
1634.441732340643
 20
981.2026503443517
  0
LWPOLYLINE
  5
37AA
330
19
100
AcDbEntity
  8
SK1
100
AcDbPolyline
 90
       30
 70
     0
 43
0.0
 10
1623.032107340644
 20
981.2026503443517
 10
1623.032107340644
 20
981.2026503443517
 10
1623.032107340644
 20
981.1242336776848
 10
1623.032107340644
 20
981.0066086776847
 10
1623.032107340644
 20
980.810567011018
 10
1623.032107340644
 20
980.6145253443517
 10
1623.032107340644
 20
980.3400670110182
 10
1623.032107340644
 20
980.0264003443514
 10
1623.032107340644
 20
979.7127336776847
 10
1623.032107340644
 20
979.3598586776848
 10
1623.032107340644
 20
978.9677753443516
 10
1623.032107340644
 20
978.5364836776848
 10
1623.032107340644
 20
978.1051920110181
 10
1623.032107340644
 20
977.6739003443513
 10
1623.032107340644
 20
977.2034003443517
 10
1623.032107340644
 20
976.7721086776846
 10
1623.032107340644
 20
976.3408170110182
 10
1623.032107340644
 20
975.9095253443517
 10
1623.032107340644
 20
975.4782336776848
 10
1623.032107340644
 20
975.0861503443516
 10
1623.032107340644
 20
974.7332753443517
 10
1623.032107340644
 20
974.3804003443512
 10
1623.032107340644
 20
974.1059420110182
 10
1623.032107340644
 20
973.8314836776847
 10
1623.032107340644
 20
973.5962336776848
 10
1623.032107340644
 20
973.4394003443515
 10
1623.032107340644
 20
973.3217753443517
 10
1623.032107340644
 20
973.2433586776847
 10
1623.032107340644
 20
973.2041503443516
 10
1623.032107340644
 20
973.2041503443516
  0
LWPOLYLINE
  5
37AB
330
19
100
AcDbEntity
  8
SK1
100
AcDbPolyline
 90
       28
 70
     0
 43
0.0
 10
1622.52239900731
 20
973.5178170110183
 10
1622.52239900731
 20
973.5178170110183
 10
1622.52239900731
 20
973.5962336776848
 10
1622.52239900731
 20
973.7138586776849
 10
1622.52239900731
 20
973.9099003443516
 10
1622.52239900731
 20
974.1059420110182
 10
1622.52239900731
 20
974.3804003443512
 10
1622.52239900731
 20
974.6548586776848
 10
1622.52239900731
 20
975.0077336776847
 10
1622.52239900731
 20
975.3606086776848
 10
1622.52239900731
 20
975.752692011018
 10
1622.52239900731
 20
976.1447753443516
 10
1622.52239900731
 20
976.576067011018
 10
1622.52239900731
 20
977.0073586776847
 10
1622.52239900731
 20
977.4386503443517
 10
1622.52239900731
 20
977.869942011018
 10
1622.52239900731
 20
978.2620253443514
 10
1622.52239900731
 20
978.6933170110181
 10
1622.52239900731
 20
979.0854003443516
 10
1622.52239900731
 20
979.4382753443514
 10
1622.52239900731
 20
979.7519420110182
 10
1622.52239900731
 20
980.0656086776847
 10
1622.52239900731
 20
980.3008586776847
 10
1622.52239900731
 20
980.5361086776848
 10
1622.52239900731
 20
980.6929420110181
 10
1622.52239900731
 20
980.810567011018
 10
1622.52239900731
 20
980.8889836776847
 10
1622.52239900731
 20
980.9281920110182
  0
LWPOLYLINE
  5
37AC
330
19
100
AcDbEntity
  8
SK1
100
AcDbPolyline
 90
        3
 70
     0
 43
0.0
 10
1634.87302400731
 20
974.3804003443512
 10
1634.598565673977
 20
974.6548586776848
 10
1634.441732340643
 20
974.7724836776848
  0
LWPOLYLINE
  5
37AD
330
19
100
AcDbEntity
  8
SK1
100
AcDbPolyline
 90
        4
 70
     0
 43
0.0
 10
1634.87302400731
 20
973.8314836776847
 10
1634.912232340643
 20
973.988317011018
 10
1634.912232340643
 20
974.1843586776848
 10
1634.87302400731
 20
974.3804003443512
  0
LWPOLYLINE
  5
37AE
330
19
100
AcDbEntity
  8
SK1
100
AcDbPolyline
 90
        2
 70
     0
 43
0.0
 10
1634.794607340644
 20
973.7138586776849
 10
1634.87302400731
 20
973.8314836776847
  0
LWPOLYLINE
  5
37AF
330
19
100
AcDbEntity
  8
SK1
100
AcDbPolyline
 90
        5
 70
     0
 43
0.0
 10
1634.716190673977
 20
974.576442011018
 10
1634.75539900731
 20
974.5372336776847
 10
1634.794607340644
 20
974.3804003443512
 10
1634.794607340644
 20
974.2235670110181
 10
1634.794607340644
 20
974.1451503443517
  0
LWPOLYLINE
  5
37B0
330
19
100
AcDbEntity
  8
SK1
100
AcDbPolyline
 90
        5
 70
     0
 43
0.0
 10
1631.775565673977
 20
974.1451503443517
 10
1631.775565673977
 20
974.2235670110181
 10
1631.775565673977
 20
974.3804003443512
 10
1631.81477400731
 20
974.5372336776847
 10
1631.81477400731
 20
974.576442011018
  0
LWPOLYLINE
  5
37B1
330
19
100
AcDbEntity
  8
1
100
AcDbPolyline
 90
        9
 70
     0
 43
0.0
 10
1648.713565673977
 20
986.927067011018
 10
1648.321482340643
 20
986.927067011018
 10
1647.92939900731
 20
986.9662753443517
 10
1647.57652400731
 20
986.9662753443517
 10
1647.223649007309
 20
987.0054836776848
 10
1646.87077400731
 20
987.0446920110182
 10
1646.596315673977
 20
987.0839003443515
 10
1646.321857340644
 20
987.1231086776846
 10
1646.321857340644
 20
987.1231086776846
  0
LWPOLYLINE
  5
37B2
330
19
100
AcDbEntity
  8
1
100
AcDbPolyline
 90
        6
 70
     0
 43
0.0
 10
1648.713565673977
 20
986.927067011018
 10
1648.713565673977
 20
986.927067011018
 10
1648.752774007309
 20
986.7310253443516
 10
1648.831190673977
 20
986.6134003443514
 10
1648.948815673977
 20
986.5349836776847
 10
1649.066440673976
 20
986.4957753443515
  0
LWPOLYLINE
  5
37B3
330
19
100
AcDbEntity
  8
1
100
AcDbPolyline
 90
        2
 70
     0
 43
0.0
 10
1655.535815673976
 20
987.6328170110182
 10
1655.535815673976
 20
985.4371503443514
  0
LWPOLYLINE
  5
37B4
330
19
100
AcDbEntity
  8
1
100
AcDbPolyline
 90
        2
 70
     0
 43
0.0
 10
1655.535815673976
 20
985.4371503443514
 10
1655.378982340644
 20
985.4371503443514
  0
LWPOLYLINE
  5
37B5
330
19
100
AcDbEntity
  8
1
100
AcDbPolyline
 90
        2
 70
     0
 43
0.0
 10
1646.086607340643
 20
987.5936086776848
 10
1655.535815673976
 20
987.6328170110182
  0
LWPOLYLINE
  5
37B6
330
19
100
AcDbEntity
  8
1
100
AcDbPolyline
 90
        2
 70
     0
 43
0.0
 10
1655.535815673976
 20
987.6328170110182
 10
1655.535815673976
 20
988.5738170110183
  0
LWPOLYLINE
  5
37B7
330
19
100
AcDbEntity
  8
1
100
AcDbPolyline
 90
        2
 70
     0
 43
0.0
 10
1645.537690673977
 20
987.6720253443517
 10
1645.537690673977
 20
988.5738170110183
  0
LWPOLYLINE
  5
37B8
330
19
100
AcDbEntity
  8
1
100
AcDbPolyline
 90
        2
 70
     0
 43
0.0
 10
1645.537690673977
 20
988.5738170110183
 10
1655.535815673976
 20
988.5738170110183
  0
LWPOLYLINE
  5
37B9
330
19
100
AcDbEntity
  8
1
100
AcDbPolyline
 90
        2
 70
     0
 43
0.0
 10
1645.537690673977
 20
987.8288586776848
 10
1645.537690673977
 20
987.6720253443517
  0
LWPOLYLINE
  5
37BA
330
19
100
AcDbEntity
  8
1
100
AcDbPolyline
 90
        2
 70
     0
 43
0.0
 10
1645.537690673977
 20
988.4169836776848
 10
1645.537690673977
 20
987.8288586776848
  0
LWPOLYLINE
  5
37BB
330
19
100
AcDbEntity
  8
1
100
AcDbPolyline
 90
        2
 70
     0
 43
0.0
 10
1645.537690673977
 20
990.1029420110182
 10
1645.537690673977
 20
989.3579836776847
  0
LWPOLYLINE
  5
37BC
330
19
100
AcDbEntity
  8
1
100
AcDbPolyline
 90
        2
 70
     0
 43
0.0
 10
1645.537690673977
 20
989.3579836776847
 10
1645.537690673977
 20
990.1029420110182
  0
LWPOLYLINE
  5
37BD
330
19
100
AcDbEntity
  8
1
100
AcDbPolyline
 90
        2
 70
     0
 43
0.0
 10
1645.537690673977
 20
989.1227336776848
 10
1645.537690673977
 20
989.3579836776847
  0
LWPOLYLINE
  5
37BE
330
19
100
AcDbEntity
  8
1
100
AcDbPolyline
 90
        2
 70
     0
 43
0.0
 10
1645.537690673977
 20
989.1227336776848
 10
1645.537690673977
 20
988.5738170110183
  0
LWPOLYLINE
  5
37BF
330
19
100
AcDbEntity
  8
1
100
AcDbPolyline
 90
        2
 70
     0
 43
0.0
 10
1655.535815673976
 20
989.1619420110183
 10
1645.537690673977
 20
989.1227336776848
  0
LWPOLYLINE
  5
37C0
330
19
100
AcDbEntity
  8
1
100
AcDbPolyline
 90
        2
 70
     0
 43
0.0
 10
1655.535815673976
 20
988.5738170110183
 10
1655.535815673976
 20
989.1619420110183
  0
LWPOLYLINE
  5
37C1
330
19
100
AcDbEntity
  8
1
100
AcDbPolyline
 90
        2
 70
     0
 43
0.0
 10
1646.557107340643
 20
990.6910670110182
 10
1654.241940673977
 20
990.7302753443516
  0
LWPOLYLINE
  5
37C2
330
19
100
AcDbEntity
  8
1
100
AcDbPolyline
 90
        2
 70
     0
 43
0.0
 10
1654.241940673977
 20
990.7302753443516
 10
1654.947690673977
 20
990.6910670110182
  0
LWPOLYLINE
  5
37C3
330
19
100
AcDbEntity
  8
1
100
AcDbPolyline
 90
        2
 70
     0
 43
0.0
 10
1654.947690673977
 20
990.6910670110182
 10
1655.535815673976
 20
990.3381920110183
  0
LWPOLYLINE
  5
37C4
330
19
100
AcDbEntity
  8
1
100
AcDbPolyline
 90
        2
 70
     0
 43
0.0
 10
1645.537690673977
 20
989.3579836776847
 10
1655.535815673976
 20
989.3579836776847
  0
LWPOLYLINE
  5
37C5
330
19
100
AcDbEntity
  8
1
100
AcDbPolyline
 90
        2
 70
     0
 43
0.0
 10
1645.537690673977
 20
990.1029420110182
 10
1646.557107340643
 20
990.6910670110182
  0
LWPOLYLINE
  5
37C6
330
19
100
AcDbEntity
  8
1
100
AcDbPolyline
 90
        2
 70
     0
 43
0.0
 10
1655.535815673976
 20
990.3381920110183
 10
1655.535815673976
 20
989.3579836776847
  0
LWPOLYLINE
  5
37C7
330
19
100
AcDbEntity
  8
1
100
AcDbPolyline
 90
        2
 70
     0
 43
0.0
 10
1655.535815673976
 20
989.3579836776847
 10
1655.535815673976
 20
989.1619420110183
  0
LWPOLYLINE
  5
37C8
330
19
100
AcDbEntity
  8
1
100
AcDbPolyline
 90
       49
 70
     0
 43
0.0
 10
1646.596315673977
 20
987.4367753443516
 10
1646.204232340643
 20
987.5544003443517
 10
1645.81214900731
 20
987.6328170110182
 10
1645.380857340644
 20
987.6720253443517
 10
1644.949565673977
 20
987.7112336776846
 10
1644.557482340643
 20
987.6720253443517
 10
1644.126190673977
 20
987.6328170110182
 10
1643.734107340644
 20
987.5151920110182
 10
1643.342024007309
 20
987.3975670110182
 10
1642.98914900731
 20
987.2407336776849
 10
1642.675482340643
 20
987.0839003443515
 10
1642.361815673977
 20
986.8486503443516
 10
1642.087357340643
 20
986.6134003443514
 10
1641.891315673977
 20
986.3781503443517
 10
1641.734482340643
 20
986.1036920110182
 10
1641.616857340643
 20
985.7900253443515
 10
1641.538440673977
 20
985.5155670110182
 10
1641.499232340644
 20
985.2019003443515
 10
1641.538440673977
 20
984.9274420110182
 10
1641.616857340643
 20
984.6137753443516
 10
1641.734482340643
 20
984.3393170110182
 10
1641.93052400731
 20
984.0648586776849
 10
1642.126565673977
 20
983.8296086776848
 10
1642.40102400731
 20
983.5943586776847
 10
1642.714690673977
 20
983.3591086776847
 10
1643.028357340644
 20
983.2022753443515
 10
1643.381232340643
 20
983.0454420110182
 10
1643.773315673977
 20
982.9278170110182
 10
1644.16539900731
 20
982.8101920110182
 10
1644.596690673977
 20
982.7709836776847
 10
1645.027982340644
 20
982.7709836776847
 10
1645.420065673977
 20
982.7709836776847
 10
1645.851357340644
 20
982.8101920110182
 10
1646.243440673977
 20
982.9278170110182
 10
1646.63552400731
 20
983.0454420110182
 10
1646.98839900731
 20
983.2022753443515
 10
1647.34127400731
 20
983.3983170110181
 10
1647.615732340644
 20
983.5943586776847
 10
1647.890190673977
 20
983.8296086776848
 10
1648.125440673977
 20
984.0648586776849
 10
1648.28227400731
 20
984.3393170110182
 10
1648.39989900731
 20
984.6529836776849
 10
1648.478315673977
 20
984.9274420110182
 10
1648.51752400731
 20
985.2411086776848
 10
1648.478315673977
 20
985.5155670110182
 10
1648.39989900731
 20
985.8292336776848
 10
1648.28227400731
 20
986.1036920110182
 10
1648.086232340643
 20
986.3781503443517
 10
1647.890190673977
 20
986.6526086776849
  0
LWPOLYLINE
  5
37C9
330
19
100
AcDbEntity
  8
1
100
AcDbPolyline
 90
        6
 70
     0
 43
0.0
 10
1646.557107340643
 20
986.4565670110183
 10
1646.439482340644
 20
986.6134003443514
 10
1646.321857340644
 20
986.8486503443516
 10
1646.321857340644
 20
987.0054836776848
 10
1646.40027400731
 20
987.2407336776849
 10
1646.557107340643
 20
987.3975670110182
  0
LWPOLYLINE
  5
37CA
330
19
100
AcDbEntity
  8
1
100
AcDbPolyline
 90
       15
 70
     0
 43
0.0
 10
1646.596315673977
 20
987.4367753443516
 10
1646.40027400731
 20
987.2799420110181
 10
1646.243440673977
 20
987.1231086776846
 10
1646.125815673977
 20
986.9662753443517
 10
1646.086607340643
 20
986.8486503443516
 10
1646.04739900731
 20
986.7310253443516
 10
1646.086607340643
 20
986.6526086776849
 10
1646.204232340643
 20
986.5741920110181
 10
1646.321857340644
 20
986.4957753443515
 10
1646.478690673976
 20
986.4565670110183
 10
1646.713940673977
 20
986.4565670110183
 10
1646.949190673977
 20
986.4565670110183
 10
1647.262857340643
 20
986.4957753443515
 10
1647.537315673976
 20
986.5741920110181
 10
1647.890190673977
 20
986.6526086776849
  0
LWPOLYLINE
  5
37CB
330
19
100
AcDbEntity
  8
1
100
AcDbPolyline
 90
       22
 70
     0
 43
0.0
 10
1643.616482340643
 20
983.5943586776847
 10
1643.773315673977
 20
983.6335670110182
 10
1643.93014900731
 20
983.6727753443517
 10
1644.04777400731
 20
983.7904003443515
 10
1644.126190673977
 20
983.9080253443514
 10
1644.16539900731
 20
984.0256503443516
 10
1644.126190673977
 20
984.1432753443513
 10
1644.04777400731
 20
984.2609003443516
 10
1643.93014900731
 20
984.3393170110182
 10
1643.773315673977
 20
984.4177336776848
 10
1643.616482340643
 20
984.4177336776848
 10
1643.420440673977
 20
984.4177336776848
 10
1643.263607340642
 20
984.3785253443515
 10
1643.10677400731
 20
984.3001086776848
 10
1643.028357340644
 20
984.1824836776847
 10
1642.949940673977
 20
984.0648586776849
 10
1642.949940673977
 20
983.9472336776848
 10
1643.028357340644
 20
983.8296086776848
 10
1643.145982340644
 20
983.7119836776848
 10
1643.263607340642
 20
983.6335670110182
 10
1643.420440673977
 20
983.5943586776847
 10
1643.616482340643
 20
983.5943586776847
  0
LWPOLYLINE
  5
37CC
330
19
100
AcDbEntity
  8
1
100
AcDbPolyline
 90
       11
 70
     0
 43
0.0
 10
1644.16539900731
 20
983.9472336776848
 10
1644.126190673977
 20
983.9864420110181
 10
1644.04777400731
 20
984.1040670110182
 10
1643.93014900731
 20
984.1824836776847
 10
1643.773315673977
 20
984.2609003443516
 10
1643.616482340643
 20
984.3001086776848
 10
1643.420440673977
 20
984.2609003443516
 10
1643.263607340642
 20
984.2216920110182
 10
1643.10677400731
 20
984.1432753443513
 10
1643.028357340644
 20
984.0256503443516
 10
1642.98914900731
 20
983.9472336776848
  0
LWPOLYLINE
  5
37CD
330
19
100
AcDbEntity
  8
1
100
AcDbPolyline
 90
        2
 70
     0
 43
0.0
 10
1650.595565673977
 20
987.4759836776847
 10
1653.22252400731
 20
987.4759836776847
  0
LWPOLYLINE
  5
37CE
330
19
100
AcDbEntity
  8
1
100
AcDbPolyline
 90
        9
 70
     0
 43
0.0
 10
1647.890190673977
 20
986.9662753443517
 10
1648.04702400731
 20
987.0446920110182
 10
1648.360690673977
 20
987.1623170110181
 10
1648.674357340643
 20
987.2407336776849
 10
1648.98802400731
 20
987.3191503443516
 10
1649.380107340643
 20
987.3975670110182
 10
1649.772190673977
 20
987.4367753443516
 10
1650.203482340644
 20
987.4759836776847
 10
1650.595565673977
 20
987.4759836776847
  0
LWPOLYLINE
  5
37CF
330
19
100
AcDbEntity
  8
1
100
AcDbPolyline
 90
        8
 70
     0
 43
0.0
 10
1653.22252400731
 20
987.4759836776847
 10
1653.496982340643
 20
987.4759836776847
 10
1653.771440673977
 20
987.4759836776847
 10
1654.04589900731
 20
987.4367753443516
 10
1654.28114900731
 20
987.3583586776847
 10
1654.51639900731
 20
987.2799420110181
 10
1654.673232340644
 20
987.2015253443514
 10
1654.790857340644
 20
987.1231086776846
  0
LWPOLYLINE
  5
37D0
330
19
100
AcDbEntity
  8
SK1
100
AcDbPolyline
 90
       28
 70
     0
 43
0.0
 10
1635.382732340644
 20
973.4394003443515
 10
1635.382732340644
 20
973.4786086776848
 10
1635.382732340644
 20
973.5570253443517
 10
1635.382732340644
 20
973.6746503443512
 10
1635.382732340644
 20
973.8314836776847
 10
1635.382732340644
 20
974.0667336776848
 10
1635.382732340644
 20
974.341192011018
 10
1635.382732340644
 20
974.6156503443517
 10
1635.382732340644
 20
974.9685253443514
 10
1635.382732340644
 20
975.3214003443517
 10
1635.382732340644
 20
975.7134836776847
 10
1635.382732340644
 20
976.1447753443516
 10
1635.382732340644
 20
976.576067011018
 10
1635.382732340644
 20
977.0073586776847
 10
1635.382732340644
 20
977.4386503443517
 10
1635.382732340644
 20
977.869942011018
 10
1635.382732340644
 20
978.3012336776847
 10
1635.382732340644
 20
978.6933170110181
 10
1635.382732340644
 20
979.0854003443516
 10
1635.382732340644
 20
979.4774836776847
 10
1635.382732340644
 20
979.7911503443517
 10
1635.382732340644
 20
980.1048170110181
 10
1635.382732340644
 20
980.3792753443516
 10
1635.382732340644
 20
980.5753170110181
 10
1635.382732340644
 20
980.7713586776849
 10
1635.382732340644
 20
980.8889836776847
 10
1635.382732340644
 20
980.9674003443516
 10
1635.382732340644
 20
981.0066086776847
  0
LWPOLYLINE
  5
37D1
330
19
100
AcDbEntity
  8
SK1
100
AcDbPolyline
 90
       22
 70
     0
 43
0.0
 10
1634.87302400731
 20
974.3804003443512
 10
1634.87302400731
 20
974.6940670110182
 10
1634.87302400731
 20
975.0469420110182
 10
1634.87302400731
 20
975.4390253443515
 10
1634.87302400731
 20
975.8311086776847
 10
1634.87302400731
 20
976.2624003443518
 10
1634.87302400731
 20
976.6936920110181
 10
1634.87302400731
 20
977.1249836776847
 10
1634.87302400731
 20
977.5562753443516
 10
1634.87302400731
 20
977.9875670110182
 10
1634.87302400731
 20
978.4188586776847
 10
1634.87302400731
 20
978.8501503443514
 10
1634.87302400731
 20
979.2030253443517
 10
1634.87302400731
 20
979.5951086776849
 10
1634.87302400731
 20
979.9087753443515
 10
1634.87302400731
 20
980.2224420110182
 10
1634.87302400731
 20
980.4576920110182
 10
1634.87302400731
 20
980.6537336776848
 10
1634.87302400731
 20
980.8497753443516
 10
1634.87302400731
 20
980.9281920110182
 10
1634.87302400731
 20
981.0066086776847
 10
1634.87302400731
 20
981.0458170110182
  0
LWPOLYLINE
  5
37D2
330
19
100
AcDbEntity
  8
SK1
100
AcDbPolyline
 90
        6
 70
     0
 43
0.0
 10
1634.87302400731
 20
973.4001920110181
 10
1634.87302400731
 20
973.4001920110181
 10
1634.87302400731
 20
973.4394003443515
 10
1634.87302400731
 20
973.5178170110183
 10
1634.87302400731
 20
973.6746503443512
 10
1634.87302400731
 20
973.8314836776847
  0
LWPOLYLINE
  5
37D3
330
19
100
AcDbEntity
  8
SK1
100
AcDbPolyline
 90
       28
 70
     0
 43
0.0
 10
1635.029857340644
 20
973.4394003443515
 10
1635.029857340644
 20
973.4786086776848
 10
1635.029857340644
 20
973.5570253443517
 10
1635.029857340644
 20
973.6746503443512
 10
1635.029857340644
 20
973.8314836776847
 10
1635.029857340644
 20
974.0667336776848
 10
1635.029857340644
 20
974.341192011018
 10
1635.029857340644
 20
974.6156503443517
 10
1635.029857340644
 20
974.9685253443514
 10
1635.029857340644
 20
975.3214003443517
 10
1635.029857340644
 20
975.7134836776847
 10
1635.029857340644
 20
976.1447753443516
 10
1635.029857340644
 20
976.576067011018
 10
1635.029857340644
 20
977.0073586776847
 10
1635.029857340644
 20
977.4386503443517
 10
1635.029857340644
 20
977.869942011018
 10
1635.029857340644
 20
978.3012336776847
 10
1635.029857340644
 20
978.6933170110181
 10
1635.029857340644
 20
979.0854003443516
 10
1635.029857340644
 20
979.4774836776847
 10
1635.029857340644
 20
979.7911503443517
 10
1635.029857340644
 20
980.1048170110181
 10
1635.029857340644
 20
980.3792753443516
 10
1635.029857340644
 20
980.5753170110181
 10
1635.029857340644
 20
980.7713586776849
 10
1635.029857340644
 20
980.8889836776847
 10
1635.029857340644
 20
980.9674003443516
 10
1635.029857340644
 20
981.0066086776847
  0
LWPOLYLINE
  5
37D4
330
19
100
AcDbEntity
  8
1
100
AcDbPolyline
 90
        2
 70
     0
 43
0.0
 10
1653.22252400731
 20
987.2799420110181
 10
1653.22252400731
 20
987.4759836776847
  0
LWPOLYLINE
  5
37D5
330
19
100
AcDbEntity
  8
1
100
AcDbPolyline
 90
        2
 70
     0
 43
0.0
 10
1650.595565673977
 20
987.0446920110182
 10
1650.595565673977
 20
987.4759836776847
  0
LINE
  5
37D6
330
19
100
AcDbEntity
  8
4
100
AcDbLine
 10
1635.539565673976
 20
977.2034003443517
 30
0.0
 11
1657.576844023681
 21
977.2034003443517
 31
0.0
  0
DIMENSION
  5
37D7
330
19
100
AcDbEntity
  8
SK2
100
AcDbDimension
  2
*D63
 10
1612.268368667507
 20
973.2041503443516
 30
0.0
 11
1609.518368667506
 21
977.2034003443517
 31
0.0
 70
    32
  1
%%c<>
 71
     5
 42
7.99849999999992
  3
V-TYGEN_-160
100
AcDbAlignedDimension
 13
1623.032107340644
 23
981.2026503443517
 33
0.0
 14
1623.032107340644
 24
973.2041503443516
 34
0.0
 50
90.0
100
AcDbRotatedDimension
  0
DIMENSION
  5
37E5
330
19
100
AcDbEntity
  8
2
100
AcDbDimension
  2
*D64
 10
1668.562172482336
 20
963.7157336776848
 30
0.0
 11
1668.562172482336
 21
977.2230045110182
 31
0.0
 70
   160
  1
%%c<>
 71
     5
 42
27.01454166666668
  3
V-TYGEN_-160
100
AcDbAlignedDimension
 13
1654.241940673977
 23
990.7302753443516
 33
0.0
 14
1653.849857340643
 24
963.7157336776848
 34
0.0
 50
90.0
100
AcDbRotatedDimension
  0
DIMENSION
  5
37F2
330
19
100
AcDbEntity
  8
2
100
AcDbDimension
  2
*D65
 10
1655.535815673976
 20
1000.851600906278
 30
0.0
 11
1645.537690673977
 21
1003.601600906278
 31
0.0
 70
    32
 71
     5
 42
19.99625000000014
  3
V-TYGEN_-160
100
AcDbAlignedDimension
 13
1635.539565673976
 23
984.0648586776849
 33
0.0
 14
1655.535815673976
 24
990.3381920110183
 34
0.0
100
AcDbRotatedDimension
  0
ENDSEC
  0
SECTION
  2
OBJECTS
  0
DICTIONARY
  5
C
330
0
100
AcDbDictionary
281
     1
  3
ACAD_COLOR
350
129F
  3
ACAD_GROUP
350
D
  3
ACAD_LAYOUT
350
A85
  3
ACAD_MATERIAL
350
128A
  3
ACAD_MLEADERSTYLE
350
1483
  3
ACAD_MLINESTYLE
350
E
  3
ACAD_PLOTSETTINGS
350
A86
  3
ACAD_PLOTSTYLENAME
350
E93
  3
ACAD_SCALELIST
350
1461
  3
ACAD_TABLESTYLE
350
12A0
  3
ACAD_VISUALSTYLE
350
128E
  3
ACDB_RECOMPOSE_DATA
350
14AC
  3
AcDbVariableDictionary
350
1433
  3
DWGPROPS
350
3873
1001
ACAD
1000
TREAT_AS_HARD
1070
     0
  0
DICTIONARY
  5
148A
330
F
100
AcDbDictionary
280
     1
281
     1
  3
ADSK_XREC_LAYER_RECONCILED
360
148B
  0
DICTIONARY
  5
148C
330
1E
100
AcDbDictionary
280
     1
281
     1
  3
ADSK_XREC_LAYER_RECONCILED
360
148D
  0
DICTIONARY
  5
148E
330
22
100
AcDbDictionary
280
     1
281
     1
  3
ADSK_XREC_LAYER_RECONCILED
360
148F
  0
DICTIONARY
  5
1490
330
23
100
AcDbDictionary
280
     1
281
     1
  3
ADSK_XREC_LAYER_RECONCILED
360
1491
  0
DICTIONARY
  5
1492
330
24
100
AcDbDictionary
280
     1
281
     1
  3
ADSK_XREC_LAYER_RECONCILED
360
1493
  0
DICTIONARY
  5
1494
330
25
100
AcDbDictionary
280
     1
281
     1
  3
ADSK_XREC_LAYER_RECONCILED
360
1495
  0
DICTIONARY
  5
1496
330
26
100
AcDbDictionary
280
     1
281
     1
  3
ADSK_XREC_LAYER_RECONCILED
360
1497
  0
DICTIONARY
  5
1498
330
27
100
AcDbDictionary
280
     1
281
     1
  3
ADSK_XREC_LAYER_RECONCILED
360
1499
  0
DICTIONARY
  5
149A
330
28
100
AcDbDictionary
280
     1
281
     1
  3
ADSK_XREC_LAYER_RECONCILED
360
149B
  0
DICTIONARY
  5
149C
330
29
100
AcDbDictionary
280
     1
281
     1
  3
ADSK_XREC_LAYER_RECONCILED
360
149D
  0
DICTIONARY
  5
149E
330
2A
100
AcDbDictionary
280
     1
281
     1
  3
ADSK_XREC_LAYER_RECONCILED
360
149F
  0
DICTIONARY
  5
14A0
330
2B
100
AcDbDictionary
280
     1
281
     1
  3
ADSK_XREC_LAYER_RECONCILED
360
14A1
  0
DICTIONARY
  5
14A2
330
2C
100
AcDbDictionary
280
     1
281
     1
  3
ADSK_XREC_LAYER_RECONCILED
360
14A3
  0
DICTIONARY
  5
14A4
330
2D
100
AcDbDictionary
280
     1
281
     1
  3
ADSK_XREC_LAYER_RECONCILED
360
14A5
  0
DICTIONARY
  5
14A6
330
C07
100
AcDbDictionary
280
     1
281
     1
  3
ADSK_XREC_LAYER_RECONCILED
360
14A7
  0
DICTIONARY
  5
E8D
330
19
100
AcDbDictionary
280
     1
281
     1
  3
ACAD_SORTENTS
360
2AE4
  0
DICTIONARY
  5
E8B
330
16
100
AcDbDictionary
280
     1
281
     1
  0
DICTIONARY
  5
129F
102
{ACAD_REACTORS
330
C
102
}
330
C
100
AcDbDictionary
281
     1
  0
DICTIONARY
  5
D
102
{ACAD_REACTORS
330
C
102
}
330
C
100
AcDbDictionary
281
     1
1001
ACAD
1000
TREAT_AS_HARD
1070
     0
  0
DICTIONARY
  5
A85
102
{ACAD_REACTORS
330
C
102
}
330
C
100
AcDbDictionary
281
     1
  3
Layout1
350
E96
  3
Model
350
E95
1001
ACAD
1000
TREAT_AS_HARD
1070
     0
  0
DICTIONARY
  5
128A
102
{ACAD_REACTORS
330
C
102
}
330
C
100
AcDbDictionary
281
     1
  3
ByBlock
350
128C
  3
ByLayer
350
128B
  3
Global
350
128D
  0
DICTIONARY
  5
1483
102
{ACAD_REACTORS
330
C
102
}
330
C
100
AcDbDictionary
281
     1
  3
Standard
350
1484
  0
DICTIONARY
  5
E
102
{ACAD_REACTORS
330
C
102
}
330
C
100
AcDbDictionary
281
     1
  3
STANDARD
350
1C
1001
ACAD
1000
TREAT_AS_HARD
1070
     0
  0
DICTIONARY
  5
A86
102
{ACAD_REACTORS
330
C
102
}
330
C
100
AcDbDictionary
281
     1
1001
ACAD
1000
TREAT_AS_HARD
1070
     0
  0
ACDBDICTIONARYWDFLT
  5
E93
102
{ACAD_REACTORS
330
C
102
}
330
C
100
AcDbDictionary
281
     1
  3
Normal
350
E94
100
AcDbDictionaryWithDefault
340
E94
  0
DICTIONARY
  5
1461
102
{ACAD_REACTORS
330
C
102
}
330
C
100
AcDbDictionary
281
     1
  3
A0
350
1462
  3
A1
350
1463
  3
A2
350
1464
  3
A3
350
1465
  3
A4
350
1466
  3
A5
350
1467
  3
A6
350
1468
  3
A7
350
1469
  3
A8
350
146A
  3
A9
350
146B
  3
B0
350
146C
  3
B1
350
146D
  3
B2
350
146E
  3
B3
350
146F
  3
B4
350
1470
  3
B5
350
1471
  3
B6
350
1472
  3
B7
350
1473
  3
B8
350
1474
  3
B9
350
1475
  3
C0
350
1476
  3
C1
350
1477
  3
C2
350
1478
  3
C3
350
1479
  3
C4
350
147A
  3
C5
350
147B
  3
C6
350
147C
  3
C7
350
147D
  3
C8
350
147E
  3
C9
350
147F
  3
D0
350
1480
  3
D1
350
1481
  3
D2
350
1482
  0
DICTIONARY
  5
12A0
102
{ACAD_REACTORS
330
C
102
}
330
C
100
AcDbDictionary
281
     1
  3
Standard
350
12A1
  0
DICTIONARY
  5
128E
102
{ACAD_REACTORS
330
C
102
}
330
C
100
AcDbDictionary
281
     1
  3
2dWireframe
350
1294
  3
3D Hidden
350
1296
  3
3dWireframe
350
1295
  3
Basic
350
1293
  3
Brighten
350
129A
  3
ColorChange
350
129E
  3
Conceptual
350
1297
  3
Dim
350
1299
  3
Facepattern
350
129D
  3
Flat
350
128F
  3
FlatWithEdges
350
1290
  3
Gouraud
350
1291
  3
GouraudWithEdges
350
1292
  3
Linepattern
350
129C
  3
Realistic
350
1298
  3
Thicken
350
129B
  0
XRECORD
  5
14AC
102
{ACAD_REACTORS
330
C
102
}
330
C
100
AcDbXrecord
280
     1
 90
        1
330
12A1
  0
DICTIONARY
  5
1433
102
{ACAD_REACTORS
330
C
102
}
330
C
100
AcDbDictionary
281
     1
  3
CANNOSCALE
350
14A9
  3
CMLEADERSTYLE
350
14A8
  3
CTABLESTYLE
350
1434
  3
DIMASSOC
350
1437
  3
INDEXCTL
350
1436
  3
SORTENTS
350
1435
  0
XRECORD
  5
3873
102
{ACAD_REACTORS
330
C
102
}
330
C
100
AcDbXrecord
280
     1
  1
DWGPROPS COOKIE
  2

  3

  4

  6

  7

  8
inpunamok
  9

300
=
301
=
302
=
303
=
304
=
305
=
306
=
307
=
308
=
309
=
 40
0.1607252199074074
 41
2455495.43569007
 42
2455597.631331528
  1

 90
        0
  0
XRECORD
  5
148B
102
{ACAD_REACTORS
330
148A
102
}
330
148A
100
AcDbXrecord
280
     1
290
     1
  0
XRECORD
  5
148D
102
{ACAD_REACTORS
330
148C
102
}
330
148C
100
AcDbXrecord
280
     1
290
     1
  0
XRECORD
  5
148F
102
{ACAD_REACTORS
330
148E
102
}
330
148E
100
AcDbXrecord
280
     1
290
     1
  0
XRECORD
  5
1491
102
{ACAD_REACTORS
330
1490
102
}
330
1490
100
AcDbXrecord
280
     1
290
     1
  0
XRECORD
  5
1493
102
{ACAD_REACTORS
330
1492
102
}
330
1492
100
AcDbXrecord
280
     1
290
     1
  0
XRECORD
  5
1495
102
{ACAD_REACTORS
330
1494
102
}
330
1494
100
AcDbXrecord
280
     1
290
     1
  0
XRECORD
  5
1497
102
{ACAD_REACTORS
330
1496
102
}
330
1496
100
AcDbXrecord
280
     1
290
     1
  0
XRECORD
  5
1499
102
{ACAD_REACTORS
330
1498
102
}
330
1498
100
AcDbXrecord
280
     1
290
     1
  0
XRECORD
  5
149B
102
{ACAD_REACTORS
330
149A
102
}
330
149A
100
AcDbXrecord
280
     1
290
     1
  0
XRECORD
  5
149D
102
{ACAD_REACTORS
330
149C
102
}
330
149C
100
AcDbXrecord
280
     1
290
     1
  0
XRECORD
  5
149F
102
{ACAD_REACTORS
330
149E
102
}
330
149E
100
AcDbXrecord
280
     1
290
     1
  0
XRECORD
  5
14A1
102
{ACAD_REACTORS
330
14A0
102
}
330
14A0
100
AcDbXrecord
280
     1
290
     1
  0
XRECORD
  5
14A3
102
{ACAD_REACTORS
330
14A2
102
}
330
14A2
100
AcDbXrecord
280
     1
290
     1
  0
XRECORD
  5
14A5
102
{ACAD_REACTORS
330
14A4
102
}
330
14A4
100
AcDbXrecord
280
     1
290
     1
  0
XRECORD
  5
14A7
102
{ACAD_REACTORS
330
14A6
102
}
330
14A6
100
AcDbXrecord
280
     1
290
     1
  0
SORTENTSTABLE
  5
2AE4
102
{ACAD_REACTORS
330
E8D
102
}
330
E8D
100
AcDbSortentsTable
330
19
331
1431
  5
1431
  0
LAYOUT
  5
E96
102
{ACAD_XDICTIONARY
360
3876
102
}
102
{ACAD_REACTORS
330
A85
102
}
330
A85
100
AcDbPlotSettings
  1

  2
\\SECO_TOOLS\Q_HP8100_WMM.LANDSKAP.PL1.HUS_A.FAGERSTA.SE.SECO_TOOLS
  4

  6

 40
0.0
 41
0.0
 42
0.0
 43
0.0
 44
0.0
 45
0.0
 46
0.0
 47
0.0
 48
0.0
 49
0.0
140
0.0
141
0.0
142
1.0
143
1.0
 70
   688
 72
     0
 73
     0
 74
     5
  7

 75
    16
147
1.0
148
0.0
149
0.0
100
AcDbLayout
  1
Layout1
 70
     0
 71
     1
 10
0.0
 20
0.0
 11
12.0
 21
9.0
 12
0.0
 22
0.0
 32
0.0
 14
1.000000000000000E+20
 24
1.000000000000000E+20
 34
1.000000000000000E+20
 15
-1.000000000000000E+20
 25
-1.000000000000000E+20
 35
-1.000000000000000E+20
146
0.0
 13
0.0
 23
0.0
 33
0.0
 16
1.0
 26
0.0
 36
0.0
 17
0.0
 27
1.0
 37
0.0
 76
     0
330
16
  0
LAYOUT
  5
E95
102
{ACAD_XDICTIONARY
360
3874
102
}
102
{ACAD_REACTORS
330
A85
102
}
330
A85
100
AcDbPlotSettings
  1

  2
\\SECO_TOOLS\Q_HP8100_WMM.LANDSKAP.PL1.HUS_A.FAGERSTA.SE.SECO_TOOLS
  4

  6

 40
0.0
 41
0.0
 42
0.0
 43
0.0
 44
0.0
 45
0.0
 46
0.0
 47
0.0
 48
0.0
 49
0.0
140
0.0
141
0.0
142
1.0
143
1.0
 70
  1712
 72
     0
 73
     0
 74
     0
  7

 75
     0
147
1.0
148
0.0
149
0.0
100
AcDbLayout
  1
Model
 70
     1
 71
     0
 10
0.0
 20
0.0
 11
12.0
 21
9.0
 12
0.0
 22
0.0
 32
0.0
 14
0.0
 24
0.0
 34
0.0
 15
0.0
 25
0.0
 35
0.0
146
0.0
 13
0.0
 23
0.0
 33
0.0
 16
1.0
 26
0.0
 36
0.0
 17
0.0
 27
1.0
 37
0.0
 76
     0
330
19
331
1288
  0
MATERIAL
  5
128C
102
{ACAD_XDICTIONARY
360
144C
102
}
102
{ACAD_REACTORS
330
128A
102
}
330
128A
100
AcDbMaterial
  1
ByBlock
  0
MATERIAL
  5
128B
102
{ACAD_XDICTIONARY
360
144A
102
}
102
{ACAD_REACTORS
330
128A
102
}
330
128A
100
AcDbMaterial
  1
ByLayer
  0
MATERIAL
  5
128D
102
{ACAD_XDICTIONARY
360
144E
102
}
102
{ACAD_REACTORS
330
128A
102
}
330
128A
100
AcDbMaterial
  1
Global
  0
MLEADERSTYLE
  5
1484
102
{ACAD_REACTORS
330
1483
102
}
330
1483
100
AcDbMLeaderStyle
170
     2
171
     1
172
     0
 90
        2
 40
0.0
 41
0.0
173
     1
 91
-1056964608
340
13
 92
       -2
290
     1
 42
2.0
291
     1
 43
0.36
  3
Standard
 44
4.0
300

342
10
174
     1
178
     6
175
     1
176
     0
 93
-1056964608
 45
4.0
292
     0
297
     0
 46
4.0
 94
-1056964608
 47
1.0
 49
1.0
140
1.0
293
     1
141
0.0
294
     1
177
     0
142
1.0
295
     0
296
     0
143
0.125
1001
ACAD_MLEADERVER
1070
     2
  0
MLINESTYLE
  5
1C
102
{ACAD_REACTORS
330
E
102
}
330
E
100
AcDbMlineStyle
  2
STANDARD
 70
     0
  3

 62
     0
 51
90.0
 52
90.0
 71
     2
 49
0.5
 62
   256
  6
BYLAYER
 49
-0.5
 62
   256
  6
BYLAYER
  0
ACDBPLACEHOLDER
  5
E94
102
{ACAD_REACTORS
330
E93
102
}
330
E93
  0
SCALE
  5
1462
102
{ACAD_REACTORS
330
1461
102
}
330
1461
100
AcDbScale
 70
     0
300
1:1
140
1.0
141
1.0
290
     1
  0
SCALE
  5
1463
102
{ACAD_REACTORS
330
1461
102
}
330
1461
100
AcDbScale
 70
     0
300
1:2
140
1.0
141
2.0
290
     0
  0
SCALE
  5
1464
102
{ACAD_REACTORS
330
1461
102
}
330
1461
100
AcDbScale
 70
     0
300
1:4
140
1.0
141
4.0
290
     0
  0
SCALE
  5
1465
102
{ACAD_REACTORS
330
1461
102
}
330
1461
100
AcDbScale
 70
     0
300
1:5
140
1.0
141
5.0
290
     0
  0
SCALE
  5
1466
102
{ACAD_REACTORS
330
1461
102
}
330
1461
100
AcDbScale
 70
     0
300
1:8
140
1.0
141
8.0
290
     0
  0
SCALE
  5
1467
102
{ACAD_REACTORS
330
1461
102
}
330
1461
100
AcDbScale
 70
     0
300
1:10
140
1.0
141
10.0
290
     0
  0
SCALE
  5
1468
102
{ACAD_REACTORS
330
1461
102
}
330
1461
100
AcDbScale
 70
     0
300
1:16
140
1.0
141
16.0
290
     0
  0
SCALE
  5
1469
102
{ACAD_REACTORS
330
1461
102
}
330
1461
100
AcDbScale
 70
     0
300
1:20
140
1.0
141
20.0
290
     0
  0
SCALE
  5
146A
102
{ACAD_REACTORS
330
1461
102
}
330
1461
100
AcDbScale
 70
     0
300
1:30
140
1.0
141
30.0
290
     0
  0
SCALE
  5
146B
102
{ACAD_REACTORS
330
1461
102
}
330
1461
100
AcDbScale
 70
     0
300
1:40
140
1.0
141
40.0
290
     0
  0
SCALE
  5
146C
102
{ACAD_REACTORS
330
1461
102
}
330
1461
100
AcDbScale
 70
     0
300
1:50
140
1.0
141
50.0
290
     0
  0
SCALE
  5
146D
102
{ACAD_REACTORS
330
1461
102
}
330
1461
100
AcDbScale
 70
     0
300
1:100
140
1.0
141
100.0
290
     0
  0
SCALE
  5
146E
102
{ACAD_REACTORS
330
1461
102
}
330
1461
100
AcDbScale
 70
     0
300
2:1
140
2.0
141
1.0
290
     0
  0
SCALE
  5
146F
102
{ACAD_REACTORS
330
1461
102
}
330
1461
100
AcDbScale
 70
     0
300
4:1
140
4.0
141
1.0
290
     0
  0
SCALE
  5
1470
102
{ACAD_REACTORS
330
1461
102
}
330
1461
100
AcDbScale
 70
     0
300
8:1
140
8.0
141
1.0
290
     0
  0
SCALE
  5
1471
102
{ACAD_REACTORS
330
1461
102
}
330
1461
100
AcDbScale
 70
     0
300
10:1
140
10.0
141
1.0
290
     0
  0
SCALE
  5
1472
102
{ACAD_REACTORS
330
1461
102
}
330
1461
100
AcDbScale
 70
     0
300
100:1
140
100.0
141
1.0
290
     0
  0
SCALE
  5
1473
102
{ACAD_REACTORS
330
1461
102
}
330
1461
100
AcDbScale
 70
     0
300
1/128" = 1'-0"
140
0.0078125
141
12.0
290
     0
  0
SCALE
  5
1474
102
{ACAD_REACTORS
330
1461
102
}
330
1461
100
AcDbScale
 70
     0
300
1/64" = 1'-0"
140
0.015625
141
12.0
290
     0
  0
SCALE
  5
1475
102
{ACAD_REACTORS
330
1461
102
}
330
1461
100
AcDbScale
 70
     0
300
1/32" = 1'-0"
140
0.03125
141
12.0
290
     0
  0
SCALE
  5
1476
102
{ACAD_REACTORS
330
1461
102
}
330
1461
100
AcDbScale
 70
     0
300
1/16" = 1'-0"
140
0.0625
141
12.0
290
     0
  0
SCALE
  5
1477
102
{ACAD_REACTORS
330
1461
102
}
330
1461
100
AcDbScale
 70
     0
300
3/32" = 1'-0"
140
0.09375
141
12.0
290
     0
  0
SCALE
  5
1478
102
{ACAD_REACTORS
330
1461
102
}
330
1461
100
AcDbScale
 70
     0
300
1/8" = 1'-0"
140
0.125
141
12.0
290
     0
  0
SCALE
  5
1479
102
{ACAD_REACTORS
330
1461
102
}
330
1461
100
AcDbScale
 70
     0
300
3/16" = 1'-0"
140
0.1875
141
12.0
290
     0
  0
SCALE
  5
147A
102
{ACAD_REACTORS
330
1461
102
}
330
1461
100
AcDbScale
 70
     0
300
1/4" = 1'-0"
140
0.25
141
12.0
290
     0
  0
SCALE
  5
147B
102
{ACAD_REACTORS
330
1461
102
}
330
1461
100
AcDbScale
 70
     0
300
3/8" = 1'-0"
140
0.375
141
12.0
290
     0
  0
SCALE
  5
147C
102
{ACAD_REACTORS
330
1461
102
}
330
1461
100
AcDbScale
 70
     0
300
1/2" = 1'-0"
140
0.5
141
12.0
290
     0
  0
SCALE
  5
147D
102
{ACAD_REACTORS
330
1461
102
}
330
1461
100
AcDbScale
 70
     0
300
3/4" = 1'-0"
140
0.75
141
12.0
290
     0
  0
SCALE
  5
147E
102
{ACAD_REACTORS
330
1461
102
}
330
1461
100
AcDbScale
 70
     0
300
1" = 1'-0"
140
1.0
141
12.0
290
     0
  0
SCALE
  5
147F
102
{ACAD_REACTORS
330
1461
102
}
330
1461
100
AcDbScale
 70
     0
300
1-1/2" = 1'-0"
140
1.5
141
12.0
290
     0
  0
SCALE
  5
1480
102
{ACAD_REACTORS
330
1461
102
}
330
1461
100
AcDbScale
 70
     0
300
3" = 1'-0"
140
3.0
141
12.0
290
     0
  0
SCALE
  5
1481
102
{ACAD_REACTORS
330
1461
102
}
330
1461
100
AcDbScale
 70
     0
300
6" = 1'-0"
140
6.0
141
12.0
290
     0
  0
SCALE
  5
1482
102
{ACAD_REACTORS
330
1461
102
}
330
1461
100
AcDbScale
 70
     0
300
1'-0" = 1'-0"
140
12.0
141
12.0
290
     0
  0
TABLESTYLE
  5
12A1
102
{ACAD_XDICTIONARY
360
14AA
102
}
102
{ACAD_REACTORS
330
12A0
102
}
330
12A0
100
AcDbTableStyle
  3
Standard
 70
     0
 71
     0
 40
1.5
 41
1.5
280
     0
281
     0
  7
STANDARD
140
4.5
170
     2
 62
     0
 63
     7
283
     0
274
    -2
284
     1
 64
     0
275
    -2
285
     1
 65
     0
276
    -2
286
     1
 66
     0
277
    -2
287
     1
 67
     0
278
    -2
288
     1
 68
     0
279
    -2
289
     1
 69
     0
  7
STANDARD
140
6.0
170
     5
 62
     0
 63
     7
283
     0
274
    -2
284
     1
 64
     0
275
    -2
285
     1
 65
     0
276
    -2
286
     1
 66
     0
277
    -2
287
     1
 67
     0
278
    -2
288
     1
 68
     0
279
    -2
289
     1
 69
     0
  7
STANDARD
140
4.5
170
     5
 62
     0
 63
     7
283
     0
274
    -2
284
     1
 64
     0
275
    -2
285
     1
 65
     0
276
    -2
286
     1
 66
     0
277
    -2
287
     1
 67
     0
278
    -2
288
     1
 68
     0
279
    -2
289
     1
 69
     0
  0
VISUALSTYLE
  5
1294
102
{ACAD_REACTORS
330
128E
102
}
330
128E
100
AcDbVisualStyle
  2
2dWireframe
 70
     4
 71
     0
 72
     2
 73
     0
 90
        0
 40
-0.6
 41
-30.0
 62
     5
 63
     7
 74
     1
 91
        4
 64
     7
 65
   257
 75
     1
175
     1
 42
1.0
 92
        0
 66
   257
 43
1.0
 76
     1
 77
     6
 78
     2
 67
     7
 79
     5
170
     0
171
     0
290
     0
174
     0
 93
        1
 44
0.0
173
     0
291
     0
 45
0.0
1001
ACAD
1000
AcDbSavedByObjectVersion
1070
     0
1000
AcDbSavedByObjectVersion
1070
     0
1000
AcDbSavedByObjectVersion
1070
     0
1000
AcDbSavedByObjectVersion
1070
     0
1000
AcDbSavedByObjectVersion
1070
     0
1000
AcDbSavedByObjectVersion
1070
     0
1000
AcDbSavedByObjectVersion
1070
     0
  0
VISUALSTYLE
  5
1296
102
{ACAD_REACTORS
330
128E
102
}
330
128E
100
AcDbVisualStyle
  2
3D Hidden
 70
     6
 71
     1
 72
     2
 73
     2
 90
        0
 40
-0.6
 41
-30.0
 62
     5
 63
     7
 74
     2
 91
        2
 64
     7
 65
   257
 75
     2
175
     1
 42
40.0
 92
        0
 66
   257
 43
1.0
 76
     1
 77
     6
 78
     2
 67
     7
 79
     3
170
     0
171
     0
290
     0
174
     0
 93
        1
 44
0.0
173
     0
291
     0
 45
0.0
1001
ACAD
1000
AcDbSavedByObjectVersion
1070
     0
1000
AcDbSavedByObjectVersion
1070
     0
1000
AcDbSavedByObjectVersion
1070
     0
1000
AcDbSavedByObjectVersion
1070
     0
1000
AcDbSavedByObjectVersion
1070
     0
1000
AcDbSavedByObjectVersion
1070
     0
1000
AcDbSavedByObjectVersion
1070
     0
  0
VISUALSTYLE
  5
1295
102
{ACAD_REACTORS
330
128E
102
}
330
128E
100
AcDbVisualStyle
  2
3dWireframe
 70
     5
 71
     0
 72
     2
 73
     0
 90
        0
 40
-0.6
 41
-30.0
 62
     5
 63
     7
 74
     1
 91
        4
 64
     7
 65
   257
 75
     1
175
     1
 42
1.0
 92
        0
 66
   257
 43
1.0
 76
     1
 77
     6
 78
     2
 67
     7
 79
     5
170
     0
171
     0
290
     0
174
     0
 93
        1
 44
0.0
173
     0
291
     0
 45
0.0
1001
ACAD
1000
AcDbSavedByObjectVersion
1070
     0
1000
AcDbSavedByObjectVersion
1070
     0
1000
AcDbSavedByObjectVersion
1070
     0
1000
AcDbSavedByObjectVersion
1070
     0
1000
AcDbSavedByObjectVersion
1070
     0
1000
AcDbSavedByObjectVersion
1070
     0
1000
AcDbSavedByObjectVersion
1070
     0
  0
VISUALSTYLE
  5
1293
102
{ACAD_REACTORS
330
128E
102
}
330
128E
100
AcDbVisualStyle
  2
Basic
 70
     7
 71
     1
 72
     0
 73
     1
 90
        0
 40
-0.6
 41
-30.0
 62
     5
 63
     7
 74
     0
 91
        4
 64
     7
 65
   257
 75
     1
175
     1
 42
1.0
 92
        8
 66
     7
 43
1.0
 76
     1
 77
     6
 78
     2
 67
     7
 79
     5
170
     0
171
     0
290
     0
174
     0
 93
        1
 44
0.0
173
     0
291
     1
 45
0.0
1001
ACAD
1000
AcDbSavedByObjectVersion
1070
     0
1000
AcDbSavedByObjectVersion
1070
     0
1000
AcDbSavedByObjectVersion
1070
     0
1000
AcDbSavedByObjectVersion
1070
     0
1000
AcDbSavedByObjectVersion
1070
     0
1000
AcDbSavedByObjectVersion
1070
     0
1000
AcDbSavedByObjectVersion
1070
     0
  0
VISUALSTYLE
  5
129A
102
{ACAD_REACTORS
330
128E
102
}
330
128E
100
AcDbVisualStyle
  2
Brighten
 70
    12
 71
     2
 72
     2
 73
     0
 90
        0
 40
-0.6
 41
-30.0
 62
     5
 63
     7
 74
     1
 91
        4
 64
     7
 65
   257
 75
     1
175
     1
 42
1.0
 92
        8
 66
     7
 43
1.0
 76
     1
 77
     6
 78
     2
 67
     7
 79
     5
170
     0
171
     0
290
     0
174
     0
 93
        1
 44
50.0
173
     0
291
     1
 45
0.0
1001
ACAD
1000
AcDbSavedByObjectVersion
1070
     0
1000
AcDbSavedByObjectVersion
1070
     0
1000
AcDbSavedByObjectVersion
1070
     0
1000
AcDbSavedByObjectVersion
1070
     0
1000
AcDbSavedByObjectVersion
1070
     0
1000
AcDbSavedByObjectVersion
1070
     0
1000
AcDbSavedByObjectVersion
1070
     0
  0
VISUALSTYLE
  5
129E
102
{ACAD_REACTORS
330
128E
102
}
330
128E
100
AcDbVisualStyle
  2
ColorChange
 70
    16
 71
     2
 72
     2
 73
     3
 90
        0
 40
-0.6
 41
-30.0
 62
     5
 63
     8
 74
     1
 91
        4
 64
     7
 65
   257
 75
     1
175
     1
 42
1.0
 92
        8
 66
     8
 43
1.0
 76
     1
 77
     6
 78
     2
 67
     7
 79
     5
170
     0
171
     0
290
     0
174
     0
 93
        1
 44
0.0
173
     0
291
     1
 45
0.0
1001
ACAD
1000
AcDbSavedByObjectVersion
1070
     0
1000
AcDbSavedByObjectVersion
1070
     0
1000
AcDbSavedByObjectVersion
1070
     0
1000
AcDbSavedByObjectVersion
1070
     0
1000
AcDbSavedByObjectVersion
1070
     0
1000
AcDbSavedByObjectVersion
1070
     0
1000
AcDbSavedByObjectVersion
1070
     0
  0
VISUALSTYLE
  5
1297
102
{ACAD_REACTORS
330
128E
102
}
330
128E
100
AcDbVisualStyle
  2
Conceptual
 70
     9
 71
     3
 72
     2
 73
     0
 90
        0
 40
-0.6
 41
-30.0
 62
     5
 63
     7
 74
     2
 91
        2
 64
     7
 65
   257
 75
     1
175
     1
 42
40.0
 92
        8
 66
     7
 43
1.0
 76
     1
 77
     6
 78
     2
 67
     7
 79
     3
170
     0
171
     0
290
     0
174
     0
 93
        1
 44
0.0
173
     0
291
     0
 45
0.0
1001
ACAD
1000
AcDbSavedByObjectVersion
1070
     0
1000
AcDbSavedByObjectVersion
1070
     0
1000
AcDbSavedByObjectVersion
1070
     0
1000
AcDbSavedByObjectVersion
1070
     0
1000
AcDbSavedByObjectVersion
1070
     0
1000
AcDbSavedByObjectVersion
1070
     0
1000
AcDbSavedByObjectVersion
1070
     0
  0
VISUALSTYLE
  5
1299
102
{ACAD_REACTORS
330
128E
102
}
330
128E
100
AcDbVisualStyle
  2
Dim
 70
    11
 71
     2
 72
     2
 73
     0
 90
        0
 40
-0.6
 41
-30.0
 62
     5
 63
     7
 74
     1
 91
        4
 64
     7
 65
   257
 75
     1
175
     1
 42
1.0
 92
        8
 66
     7
 43
1.0
 76
     1
 77
     6
 78
     2
 67
     7
 79
     5
170
     0
171
     0
290
     0
174
     0
 93
        1
 44
-50.0
173
     0
291
     1
 45
0.0
1001
ACAD
1000
AcDbSavedByObjectVersion
1070
     0
1000
AcDbSavedByObjectVersion
1070
     0
1000
AcDbSavedByObjectVersion
1070
     0
1000
AcDbSavedByObjectVersion
1070
     0
1000
AcDbSavedByObjectVersion
1070
     0
1000
AcDbSavedByObjectVersion
1070
     0
1000
AcDbSavedByObjectVersion
1070
     0
  0
VISUALSTYLE
  5
129D
102
{ACAD_REACTORS
330
128E
102
}
330
128E
100
AcDbVisualStyle
  2
Facepattern
 70
    15
 71
     2
 72
     2
 73
     0
 90
        0
 40
-0.6
 41
-30.0
 62
     5
 63
     7
 74
     1
 91
        4
 64
     7
 65
   257
 75
     1
175
     1
 42
1.0
 92
        8
 66
     7
 43
1.0
 76
     1
 77
     6
 78
     2
 67
     7
 79
     5
170
     0
171
     0
290
     0
174
     0
 93
        1
 44
0.0
173
     0
291
     1
 45
0.0
1001
ACAD
1000
AcDbSavedByObjectVersion
1070
     0
1000
AcDbSavedByObjectVersion
1070
     0
1000
AcDbSavedByObjectVersion
1070
     0
1000
AcDbSavedByObjectVersion
1070
     0
1000
AcDbSavedByObjectVersion
1070
     0
1000
AcDbSavedByObjectVersion
1070
     0
1000
AcDbSavedByObjectVersion
1070
     0
  0
VISUALSTYLE
  5
128F
102
{ACAD_REACTORS
330
128E
102
}
330
128E
100
AcDbVisualStyle
  2
Flat
 70
     0
 71
     2
 72
     1
 73
     1
 90
        2
 40
-0.6
 41
30.0
 62
     5
 63
     7
 74
     0
 91
        4
 64
     7
 65
   257
 75
     1
175
     1
 42
1.0
 92
        8
 66
     7
 43
1.0
 76
     1
 77
     6
 78
     2
 67
     7
 79
     5
170
     0
171
     0
290
     0
174
     0
 93
       13
 44
0.0
173
     0
291
     1
 45
0.0
1001
ACAD
1000
AcDbSavedByObjectVersion
1070
     0
1000
AcDbSavedByObjectVersion
1070
     0
1000
AcDbSavedByObjectVersion
1070
     0
1000
AcDbSavedByObjectVersion
1070
     0
1000
AcDbSavedByObjectVersion
1070
     0
1000
AcDbSavedByObjectVersion
1070
     0
1000
AcDbSavedByObjectVersion
1070
     0
  0
VISUALSTYLE
  5
1290
102
{ACAD_REACTORS
330
128E
102
}
330
128E
100
AcDbVisualStyle
  2
FlatWithEdges
 70
     1
 71
     2
 72
     1
 73
     1
 90
        2
 40
-0.6
 41
30.0
 62
     5
 63
     7
 74
     1
 91
        4
 64
     7
 65
   257
 75
     1
175
     1
 42
1.0
 92
        0
 66
   257
 43
1.0
 76
     1
 77
     6
 78
     2
 67
     7
 79
     5
170
     0
171
     0
290
     0
174
     0
 93
       13
 44
0.0
173
     0
291
     1
 45
0.0
1001
ACAD
1000
AcDbSavedByObjectVersion
1070
     0
1000
AcDbSavedByObjectVersion
1070
     0
1000
AcDbSavedByObjectVersion
1070
     0
1000
AcDbSavedByObjectVersion
1070
     0
1000
AcDbSavedByObjectVersion
1070
     0
1000
AcDbSavedByObjectVersion
1070
     0
1000
AcDbSavedByObjectVersion
1070
     0
  0
VISUALSTYLE
  5
1291
102
{ACAD_REACTORS
330
128E
102
}
330
128E
100
AcDbVisualStyle
  2
Gouraud
 70
     2
 71
     2
 72
     2
 73
     1
 90
        2
 40
-0.6
 41
30.0
 62
     5
 63
     7
 74
     0
 91
        4
 64
     7
 65
   257
 75
     1
175
     1
 42
1.0
 92
        0
 66
     7
 43
1.0
 76
     1
 77
     6
 78
     2
 67
     7
 79
     5
170
     0
171
     0
290
     0
174
     0
 93
       13
 44
0.0
173
     0
291
     1
 45
0.0
1001
ACAD
1000
AcDbSavedByObjectVersion
1070
     0
1000
AcDbSavedByObjectVersion
1070
     0
1000
AcDbSavedByObjectVersion
1070
     0
1000
AcDbSavedByObjectVersion
1070
     0
1000
AcDbSavedByObjectVersion
1070
     0
1000
AcDbSavedByObjectVersion
1070
     0
1000
AcDbSavedByObjectVersion
1070
     0
  0
VISUALSTYLE
  5
1292
102
{ACAD_REACTORS
330
128E
102
}
330
128E
100
AcDbVisualStyle
  2
GouraudWithEdges
 70
     3
 71
     2
 72
     2
 73
     1
 90
        2
 40
-0.6
 41
30.0
 62
     5
 63
     7
 74
     1
 91
        4
 64
     7
 65
   257
 75
     1
175
     1
 42
1.0
 92
        0
 66
   257
 43
1.0
 76
     1
 77
     6
 78
     2
 67
     7
 79
     5
170
     0
171
     0
290
     0
174
     0
 93
       13
 44
0.0
173
     0
291
     1
 45
0.0
1001
ACAD
1000
AcDbSavedByObjectVersion
1070
     0
1000
AcDbSavedByObjectVersion
1070
     0
1000
AcDbSavedByObjectVersion
1070
     0
1000
AcDbSavedByObjectVersion
1070
     0
1000
AcDbSavedByObjectVersion
1070
     0
1000
AcDbSavedByObjectVersion
1070
     0
1000
AcDbSavedByObjectVersion
1070
     0
  0
VISUALSTYLE
  5
129C
102
{ACAD_REACTORS
330
128E
102
}
330
128E
100
AcDbVisualStyle
  2
Linepattern
 70
    14
 71
     2
 72
     2
 73
     0
 90
        0
 40
-0.6
 41
-30.0
 62
     5
 63
     7
 74
     1
 91
        4
 64
     7
 65
   257
 75
     7
175
     7
 42
1.0
 92
        8
 66
     7
 43
1.0
 76
     1
 77
     6
 78
     2
 67
     7
 79
     5
170
     0
171
     0
290
     0
174
     0
 93
        1
 44
0.0
173
     0
291
     1
 45
0.0
1001
ACAD
1000
AcDbSavedByObjectVersion
1070
     0
1000
AcDbSavedByObjectVersion
1070
     0
1000
AcDbSavedByObjectVersion
1070
     0
1000
AcDbSavedByObjectVersion
1070
     0
1000
AcDbSavedByObjectVersion
1070
     0
1000
AcDbSavedByObjectVersion
1070
     0
1000
AcDbSavedByObjectVersion
1070
     0
  0
VISUALSTYLE
  5
1298
102
{ACAD_REACTORS
330
128E
102
}
330
128E
100
AcDbVisualStyle
  2
Realistic
 70
     8
 71
     2
 72
     2
 73
     0
 90
        0
 40
-0.6
 41
-30.0
 62
     5
 63
     7
 74
     1
 91
        0
 64
     7
 65
   257
 75
     1
175
     1
 42
1.0
 92
        8
 66
     8
 43
1.0
 76
     1
 77
     6
 78
     2
 67
     7
 79
     5
170
     0
171
     0
290
     0
174
     0
 93
       13
 44
0.0
173
     0
291
     0
 45
0.0
1001
ACAD
1000
AcDbSavedByObjectVersion
1070
     0
1000
AcDbSavedByObjectVersion
1070
     0
1000
AcDbSavedByObjectVersion
1070
     0
1000
AcDbSavedByObjectVersion
1070
     0
1000
AcDbSavedByObjectVersion
1070
     0
1000
AcDbSavedByObjectVersion
1070
     0
1000
AcDbSavedByObjectVersion
1070
     0
  0
VISUALSTYLE
  5
129B
102
{ACAD_REACTORS
330
128E
102
}
330
128E
100
AcDbVisualStyle
  2
Thicken
 70
    13
 71
     2
 72
     2
 73
     0
 90
        0
 40
-0.6
 41
-30.0
 62
     5
 63
     7
 74
     1
 91
        4
 64
     7
 65
   257
 75
     1
175
     1
 42
1.0
 92
       12
 66
     7
 43
1.0
 76
     1
 77
     6
 78
     2
 67
     7
 79
     5
170
     0
171
     0
290
     0
174
     0
 93
        1
 44
0.0
173
     0
291
     1
 45
0.0
1001
ACAD
1000
AcDbSavedByObjectVersion
1070
     0
1000
AcDbSavedByObjectVersion
1070
     0
1000
AcDbSavedByObjectVersion
1070
     0
1000
AcDbSavedByObjectVersion
1070
     0
1000
AcDbSavedByObjectVersion
1070
     0
1000
AcDbSavedByObjectVersion
1070
     0
1000
AcDbSavedByObjectVersion
1070
     0
  0
DICTIONARYVAR
  5
14A9
102
{ACAD_REACTORS
330
1433
102
}
330
1433
100
DictionaryVariables
280
     0
  1
1:1
  0
DICTIONARYVAR
  5
14A8
102
{ACAD_REACTORS
330
1433
102
}
330
1433
100
DictionaryVariables
280
     0
  1
STANDARD
  0
DICTIONARYVAR
  5
1434
102
{ACAD_REACTORS
330
1433
102
}
330
1433
100
DictionaryVariables
280
     0
  1
STANDARD
  0
DICTIONARYVAR
  5
1437
102
{ACAD_REACTORS
330
1433
102
}
330
1433
100
DictionaryVariables
280
     0
  1
1
  0
DICTIONARYVAR
  5
1436
102
{ACAD_REACTORS
330
1433
102
}
330
1433
100
DictionaryVariables
280
     0
  1
0
  0
DICTIONARYVAR
  5
1435
102
{ACAD_REACTORS
330
1433
102
}
330
1433
100
DictionaryVariables
280
     0
  1
127
  0
DICTIONARY
  5
3876
330
E96
100
AcDbDictionary
280
     1
281
     1
  3
ACAD_XREC_ROUNDTRIP
360
3877
  0
DICTIONARY
  5
3874
330
E95
100
AcDbDictionary
280
     1
281
     1
  3
ACAD_XREC_ROUNDTRIP
360
3875
  0
DICTIONARY
  5
144C
330
128C
100
AcDbDictionary
280
     1
281
     1
  3
ACAD_XREC_ROUNDTRIP
360
144D
  0
DICTIONARY
  5
144A
330
128B
100
AcDbDictionary
280
     1
281
     1
  3
ACAD_XREC_ROUNDTRIP
360
144B
  0
DICTIONARY
  5
144E
330
128D
100
AcDbDictionary
280
     1
281
     1
  3
ACAD_XREC_ROUNDTRIP
360
144F
  0
DICTIONARY
  5
14AA
330
12A1
100
AcDbDictionary
280
     1
281
     1
  3
ACAD_ROUNDTRIP_2008_TABLESTYLE_CELLSTYLEMAP
360
3872
  3
ACAD_XREC_ROUNDTRIP
360
3878
  0
XRECORD
  5
3877
102
{ACAD_REACTORS
330
3876
102
}
330
3876
100
AcDbXrecord
280
     1
102
SHADEPLOT
 70
     0
102
SHADEPLOTRESLEVEL
 70
     2
102
SHADEPLOTCUSTOMDPI
 70
   300
  0
XRECORD
  5
3875
102
{ACAD_REACTORS
330
3874
102
}
330
3874
100
AcDbXrecord
280
     1
102
SHADEPLOT
 70
     0
102
SHADEPLOTRESLEVEL
 70
     2
102
SHADEPLOTCUSTOMDPI
 70
   300
  0
XRECORD
  5
144D
102
{ACAD_REACTORS
330
144C
102
}
330
144C
100
AcDbXrecord
280
     1
102
MATERIAL
148
0.0
149
0.0
149
0.0
 93
        0
 94
      127
282
     0
 72
     1
 77
     1
171
     1
175
     1
179
     1
273
     0
  0
XRECORD
  5
144B
102
{ACAD_REACTORS
330
144A
102
}
330
144A
100
AcDbXrecord
280
     1
102
MATERIAL
148
0.0
149
0.0
149
0.0
 93
        0
 94
      127
282
     0
 72
     1
 77
     1
171
     1
175
     1
179
     1
273
     0
  0
XRECORD
  5
144F
102
{ACAD_REACTORS
330
144E
102
}
330
144E
100
AcDbXrecord
280
     1
102
MATERIAL
148
0.0
149
0.0
149
0.0
 93
        0
 94
      127
282
     0
 72
     1
 77
     1
171
     1
175
     1
179
     1
273
     0
  0
CELLSTYLEMAP
  5
3872
102
{ACAD_REACTORS
330
14AA
102
}
330
14AA
100
AcDbCellStyleMap
 90
        3
300
CELLSTYLE
  1
TABLEFORMAT_BEGIN
 90
        5
170
     1
 91
        0
 92
    32768
 62
   257
 93
        1
300
CONTENTFORMAT
  1
CONTENTFORMAT_BEGIN
 90
        0
 91
        0
 92
      512
 93
        0
300

 40
0.0
140
1.0
 94
        5
 62
     0
340
10
144
6.0
309
CONTENTFORMAT_END
171
     1
301
MARGIN
  1
CELLMARGIN_BEGIN
 40
1.5
 40
1.5
 40
1.5
 40
1.5
 40
0.18
 40
0.18
309
CELLMARGIN_END
 94
        6
 95
        1
302
GRIDFORMAT
  1
GRIDFORMAT_BEGIN
 90
        0
 91
        1
 62
     0
 92
       -2
340
0
 93
        0
 40
0.045
309
GRIDFORMAT_END
 95
        2
302
GRIDFORMAT
  1
GRIDFORMAT_BEGIN
 90
        0
 91
        1
 62
     0
 92
       -2
340
0
 93
        0
 40
0.045
309
GRIDFORMAT_END
 95
        4
302
GRIDFORMAT
  1
GRIDFORMAT_BEGIN
 90
        0
 91
        1
 62
     0
 92
       -2
340
0
 93
        0
 40
0.045
309
GRIDFORMAT_END
 95
        8
302
GRIDFORMAT
  1
GRIDFORMAT_BEGIN
 90
        0
 91
        1
 62
     0
 92
       -2
340
0
 93
        0
 40
0.045
309
GRIDFORMAT_END
 95
       16
302
GRIDFORMAT
  1
GRIDFORMAT_BEGIN
 90
        0
 91
        1
 62
     0
 92
       -2
340
0
 93
        0
 40
0.045
309
GRIDFORMAT_END
 95
       32
302
GRIDFORMAT
  1
GRIDFORMAT_BEGIN
 90
        0
 91
        1
 62
     0
 92
       -2
340
0
 93
        0
 40
0.045
309
GRIDFORMAT_END
309
TABLEFORMAT_END
  1
CELLSTYLE_BEGIN
 90
        1
 91
        1
300
_TITLE
309
CELLSTYLE_END
300
CELLSTYLE
  1
TABLEFORMAT_BEGIN
 90
        5
170
     1
 91
        0
 92
        0
 62
   257
 93
        1
300
CONTENTFORMAT
  1
CONTENTFORMAT_BEGIN
 90
        0
 91
        0
 92
      512
 93
        0
300

 40
0.0
140
1.0
 94
        5
 62
     0
340
10
144
4.5
309
CONTENTFORMAT_END
171
     1
301
MARGIN
  1
CELLMARGIN_BEGIN
 40
1.5
 40
1.5
 40
1.5
 40
1.5
 40
0.18
 40
0.18
309
CELLMARGIN_END
 94
        6
 95
        1
302
GRIDFORMAT
  1
GRIDFORMAT_BEGIN
 90
        0
 91
        1
 62
     0
 92
       -2
340
0
 93
        0
 40
0.045
309
GRIDFORMAT_END
 95
        2
302
GRIDFORMAT
  1
GRIDFORMAT_BEGIN
 90
        0
 91
        1
 62
     0
 92
       -2
340
0
 93
        0
 40
0.045
309
GRIDFORMAT_END
 95
        4
302
GRIDFORMAT
  1
GRIDFORMAT_BEGIN
 90
        0
 91
        1
 62
     0
 92
       -2
340
0
 93
        0
 40
0.045
309
GRIDFORMAT_END
 95
        8
302
GRIDFORMAT
  1
GRIDFORMAT_BEGIN
 90
        0
 91
        1
 62
     0
 92
       -2
340
0
 93
        0
 40
0.045
309
GRIDFORMAT_END
 95
       16
302
GRIDFORMAT
  1
GRIDFORMAT_BEGIN
 90
        0
 91
        1
 62
     0
 92
       -2
340
0
 93
        0
 40
0.045
309
GRIDFORMAT_END
 95
       32
302
GRIDFORMAT
  1
GRIDFORMAT_BEGIN
 90
        0
 91
        1
 62
     0
 92
       -2
340
0
 93
        0
 40
0.045
309
GRIDFORMAT_END
309
TABLEFORMAT_END
  1
CELLSTYLE_BEGIN
 90
        2
 91
        1
300
_HEADER
309
CELLSTYLE_END
300
CELLSTYLE
  1
TABLEFORMAT_BEGIN
 90
        5
170
     1
 91
        0
 92
        0
 62
   257
 93
        1
300
CONTENTFORMAT
  1
CONTENTFORMAT_BEGIN
 90
        0
 91
        0
 92
      512
 93
        0
300

 40
0.0
140
1.0
 94
        2
 62
     0
340
10
144
4.5
309
CONTENTFORMAT_END
171
     1
301
MARGIN
  1
CELLMARGIN_BEGIN
 40
1.5
 40
1.5
 40
1.5
 40
1.5
 40
0.18
 40
0.18
309
CELLMARGIN_END
 94
        6
 95
        1
302
GRIDFORMAT
  1
GRIDFORMAT_BEGIN
 90
        0
 91
        1
 62
     0
 92
       -2
340
0
 93
        0
 40
0.045
309
GRIDFORMAT_END
 95
        2
302
GRIDFORMAT
  1
GRIDFORMAT_BEGIN
 90
        0
 91
        1
 62
     0
 92
       -2
340
0
 93
        0
 40
0.045
309
GRIDFORMAT_END
 95
        4
302
GRIDFORMAT
  1
GRIDFORMAT_BEGIN
 90
        0
 91
        1
 62
     0
 92
       -2
340
0
 93
        0
 40
0.045
309
GRIDFORMAT_END
 95
        8
302
GRIDFORMAT
  1
GRIDFORMAT_BEGIN
 90
        0
 91
        1
 62
     0
 92
       -2
340
0
 93
        0
 40
0.045
309
GRIDFORMAT_END
 95
       16
302
GRIDFORMAT
  1
GRIDFORMAT_BEGIN
 90
        0
 91
        1
 62
     0
 92
       -2
340
0
 93
        0
 40
0.045
309
GRIDFORMAT_END
 95
       32
302
GRIDFORMAT
  1
GRIDFORMAT_BEGIN
 90
        0
 91
        1
 62
     0
 92
       -2
340
0
 93
        0
 40
0.045
309
GRIDFORMAT_END
309
TABLEFORMAT_END
  1
CELLSTYLE_BEGIN
 90
        3
 91
        2
300
_DATA
309
CELLSTYLE_END
  0
XRECORD
  5
3878
102
{ACAD_REACTORS
330
14AA
102
}
330
14AA
100
AcDbXrecord
280
     1
102
ACAD_ROUNDTRIP_PRE2007_TABLESTYLE
 90
      512
 91
        0
  1

 92
      512
 93
        0
  2

 94
      512
 95
        0
  3

  0
ENDSEC
  0
EOF
