  0
SECTION
  2
HEADER
  9
$ACADVER
  1
AC1015
  9
$ACADMAINTVER
 70
    20
  9
$DWGCODEPAGE
  3
ANSI_1252
  9
$INSBASE
 10
0.0
 20
0.0
 30
0.0
  9
$EXTMIN
 10
777.1995754548773
 20
386.8678341795811
 30
0.0
  9
$EXTMAX
 10
829.5078457649767
 20
433.191490631983
 30
0.0
  9
$LIMMIN
 10
-170.0
 20
-170.0
  9
$LIMMAX
 10
519.0
 20
260.0
  9
$ORTHOMODE
 70
     0
  9
$REGENMODE
 70
     1
  9
$FILLMODE
 70
     1
  9
$QTEXTMODE
 70
     0
  9
$MIRRTEXT
 70
     1
  9
$LTSCALE
 40
10.0
  9
$ATTMODE
 70
     1
  9
$TEXTSIZE
 40
3.5
  9
$TRACEWID
 40
0.05
  9
$TEXTSTYLE
  7
SIMPLEX
  9
$CLAYER
  8
SK6
  9
$CELTYPE
  6
BYLAYER
  9
$CECOLOR
 62
   256
  9
$CELTSCALE
 40
1.0
  9
$DISPSILH
 70
     0
  9
$DIMSCALE
 40
1.0
  9
$DIMASZ
 40
3.5
  9
$DIMEXO
 40
1.0
  9
$DIMDLI
 40
0.5
  9
$DIMRND
 40
0.0
  9
$DIMDLE
 40
0.0
  9
$DIMEXE
 40
1.0
  9
$DIMTP
 40
0.0
  9
$DIMTM
 40
0.0
  9
$DIMTXT
 40
3.5
  9
$DIMCEN
 40
0.0
  9
$DIMTSZ
 40
0.0
  9
$DIMTOL
 70
     0
  9
$DIMLIM
 70
     0
  9
$DIMTIH
 70
     0
  9
$DIMTOH
 70
     0
  9
$DIMSE1
 70
     0
  9
$DIMSE2
 70
     0
  9
$DIMTAD
 70
     1
  9
$DIMZIN
 70
     0
  9
$DIMBLK
  1

  9
$DIMASO
 70
     1
  9
$DIMSHO
 70
     1
  9
$DIMPOST
  1

  9
$DIMAPOST
  1

  9
$DIMALT
 70
     0
  9
$DIMALTD
 70
     2
  9
$DIMALTF
 40
25.4
  9
$DIMLFAC
 40
1.0
  9
$DIMTOFL
 70
     0
  9
$DIMTVP
 40
0.0
  9
$DIMTIX
 70
     0
  9
$DIMSOXD
 70
     0
  9
$DIMSAH
 70
     0
  9
$DIMBLK1
  1

  9
$DIMBLK2
  1

  9
$DIMSTYLE
  2
V-TYGEN_-160
  9
$DIMCLRD
 70
     0
  9
$DIMCLRE
 70
     0
  9
$DIMCLRT
 70
     0
  9
$DIMTFAC
 40
1.0
  9
$DIMGAP
 40
1.0
  9
$DIMJUST
 70
     0
  9
$DIMSD1
 70
     0
  9
$DIMSD2
 70
     0
  9
$DIMTOLJ
 70
     1
  9
$DIMTZIN
 70
     0
  9
$DIMALTZ
 70
     0
  9
$DIMALTTZ
 70
     0
  9
$DIMUPT
 70
     0
  9
$DIMDEC
 70
     0
  9
$DIMTDEC
 70
     0
  9
$DIMALTU
 70
     2
  9
$DIMALTTD
 70
     2
  9
$DIMTXSTY
  7
STANDARD
  9
$DIMAUNIT
 70
     0
  9
$DIMADEC
 70
     0
  9
$DIMALTRND
 40
0.0
  9
$DIMAZIN
 70
     0
  9
$DIMDSEP
 70
    46
  9
$DIMATFIT
 70
     3
  9
$DIMFRAC
 70
     0
  9
$DIMLDRBLK
  1

  9
$DIMLUNIT
 70
     2
  9
$DIMLWD
 70
    -1
  9
$DIMLWE
 70
    -2
  9
$DIMTMOVE
 70
     0
  9
$LUNITS
 70
     2
  9
$LUPREC
 70
     2
  9
$SKETCHINC
 40
0.1
  9
$FILLETRAD
 40
0.0
  9
$AUNITS
 70
     0
  9
$AUPREC
 70
     0
  9
$MENU
  1
TDMWIN
  9
$ELEVATION
 40
0.0
  9
$PELEVATION
 40
0.0
  9
$THICKNESS
 40
0.0
  9
$LIMCHECK
 70
     0
  9
$CHAMFERA
 40
0.0
  9
$CHAMFERB
 40
0.0
  9
$CHAMFERC
 40
0.0
  9
$CHAMFERD
 40
0.0
  9
$SKPOLY
 70
     0
  9
$TDCREATE
 40
2455495.435690070
  9
$TDUCREATE
 40
2455495.206523403
  9
$TDUPDATE
 40
2455597.632818877
  9
$TDUUPDATE
 40
2455597.403652211
  9
$TDINDWG
 40
0.1128873148
  9
$TDUSRTIMER
 40
0.1128862384
  9
$USRTIMER
 70
     1
  9
$ANGBASE
 50
0.0
  9
$ANGDIR
 70
     0
  9
$PDMODE
 70
     2
  9
$PDSIZE
 40
0.0
  9
$PLINEWID
 40
0.0
  9
$SPLFRAME
 70
     0
  9
$SPLINETYPE
 70
     6
  9
$SPLINESEGS
 70
     8
  9
$HANDSEED
  5
2232
  9
$SURFTAB1
 70
     6
  9
$SURFTAB2
 70
     6
  9
$SURFTYPE
 70
     6
  9
$SURFU
 70
     6
  9
$SURFV
 70
     6
  9
$UCSBASE
  2

  9
$UCSNAME
  2

  9
$UCSORG
 10
802.6832006406387
 20
413.0886696786825
 30
0.0
  9
$UCSXDIR
 10
1.0
 20
0.0
 30
0.0
  9
$UCSYDIR
 10
0.0
 20
1.0
 30
0.0
  9
$UCSORTHOREF
  2

  9
$UCSORTHOVIEW
 70
     0
  9
$UCSORGTOP
 10
0.0
 20
0.0
 30
0.0
  9
$UCSORGBOTTOM
 10
0.0
 20
0.0
 30
0.0
  9
$UCSORGLEFT
 10
0.0
 20
0.0
 30
0.0
  9
$UCSORGRIGHT
 10
0.0
 20
0.0
 30
0.0
  9
$UCSORGFRONT
 10
0.0
 20
0.0
 30
0.0
  9
$UCSORGBACK
 10
0.0
 20
0.0
 30
0.0
  9
$PUCSBASE
  2

  9
$PUCSNAME
  2

  9
$PUCSORG
 10
0.0
 20
0.0
 30
0.0
  9
$PUCSXDIR
 10
1.0
 20
0.0
 30
0.0
  9
$PUCSYDIR
 10
0.0
 20
1.0
 30
0.0
  9
$PUCSORTHOREF
  2

  9
$PUCSORTHOVIEW
 70
     0
  9
$PUCSORGTOP
 10
0.0
 20
0.0
 30
0.0
  9
$PUCSORGBOTTOM
 10
0.0
 20
0.0
 30
0.0
  9
$PUCSORGLEFT
 10
0.0
 20
0.0
 30
0.0
  9
$PUCSORGRIGHT
 10
0.0
 20
0.0
 30
0.0
  9
$PUCSORGFRONT
 10
0.0
 20
0.0
 30
0.0
  9
$PUCSORGBACK
 10
0.0
 20
0.0
 30
0.0
  9
$USERI1
 70
     0
  9
$USERI2
 70
     0
  9
$USERI3
 70
     0
  9
$USERI4
 70
     0
  9
$USERI5
 70
     0
  9
$USERR1
 40
0.0
  9
$USERR2
 40
0.0
  9
$USERR3
 40
0.0
  9
$USERR4
 40
0.0
  9
$USERR5
 40
0.0
  9
$WORLDVIEW
 70
     1
  9
$SHADEDGE
 70
     3
  9
$SHADEDIF
 70
    70
  9
$TILEMODE
 70
     1
  9
$MAXACTVP
 70
    16
  9
$PINSBASE
 10
0.0
 20
0.0
 30
0.0
  9
$PLIMCHECK
 70
     0
  9
$PEXTMIN
 10
1.000000000000000E+20
 20
1.000000000000000E+20
 30
1.000000000000000E+20
  9
$PEXTMAX
 10
-1.000000000000000E+20
 20
-1.000000000000000E+20
 30
-1.000000000000000E+20
  9
$PLIMMIN
 10
0.0
 20
0.0
  9
$PLIMMAX
 10
12.0
 20
9.0
  9
$UNITMODE
 70
     0
  9
$VISRETAIN
 70
     0
  9
$PLINEGEN
 70
     0
  9
$PSLTSCALE
 70
     0
  9
$TREEDEPTH
 70
  3020
  9
$CMLSTYLE
  2
STANDARD
  9
$CMLJUST
 70
     0
  9
$CMLSCALE
 40
1.0
  9
$PROXYGRAPHICS
 70
     1
  9
$MEASUREMENT
 70
     1
  9
$CELWEIGHT
370
    -1
  9
$ENDCAPS
280
     0
  9
$JOINSTYLE
280
     0
  9
$LWDISPLAY
290
     0
  9
$INSUNITS
 70
     0
  9
$HYPERLINKBASE
  1

  9
$STYLESHEET
  1

  9
$XEDIT
290
     1
  9
$CEPSNTYPE
380
     0
  9
$PSTYLEMODE
290
     1
  9
$FINGERPRINTGUID
  2
{657513BA-23E7-4626-BCF7-6F82F096B1F9}
  9
$VERSIONGUID
  2
{6F09D8C0-6ACB-4D63-AE0D-DE4131DF8AFD}
  9
$EXTNAMES
290
     1
  9
$PSVPSCALE
 40
0.0
  9
$OLESTARTUP
290
     0
  0
ENDSEC
  0
SECTION
  2
CLASSES
  0
CLASS
  1
ACDBDICTIONARYWDFLT
  2
AcDbDictionaryWithDefault
  3
ObjectDBX Classes
 90
        0
280
     0
281
     0
  0
CLASS
  1
ACDBPLACEHOLDER
  2
AcDbPlaceHolder
  3
ObjectDBX Classes
 90
        0
280
     0
281
     0
  0
CLASS
  1
LAYOUT
  2
AcDbLayout
  3
ObjectDBX Classes
 90
        0
280
     0
281
     0
  0
CLASS
  1
MATERIAL
  2
AcDbMaterial
  3
ObjectDBX Classes
 90
     1153
280
     0
281
     0
  0
CLASS
  1
VISUALSTYLE
  2
AcDbVisualStyle
  3
ObjectDBX Classes
 90
     4095
280
     0
281
     0
  0
CLASS
  1
TABLESTYLE
  2
AcDbTableStyle
  3
ObjectDBX Classes
 90
     4095
280
     0
281
     0
  0
CLASS
  1
DICTIONARYVAR
  2
AcDbDictionaryVar
  3
ObjectDBX Classes
 90
        0
280
     0
281
     0
  0
CLASS
  1
SCALE
  2
AcDbScale
  3
ObjectDBX Classes
 90
     1153
280
     0
281
     0
  0
CLASS
  1
MLEADERSTYLE
  2
AcDbMLeaderStyle
  3
ACDB_MLEADERSTYLE_CLASS
 90
     4095
280
     0
281
     0
  0
CLASS
  1
CELLSTYLEMAP
  2
AcDbCellStyleMap
  3
ObjectDBX Classes
 90
     1152
280
     0
281
     0
  0
ENDSEC
  0
SECTION
  2
TABLES
  0
TABLE
  2
VPORT
  5
8
330
0
100
AcDbSymbolTable
 70
     1
  0
VPORT
  5
1288
330
8
100
AcDbSymbolTableRecord
100
AcDbViewportTableRecord
  2
*Active
 70
     0
 10
0.0
 20
0.0
 11
1.0
 21
1.0
 12
803.3391854174231
 22
410.0201126087614
 13
0.0
 23
0.0
 14
5.0
 24
5.0
 15
5.0
 25
5.0
 16
0.0
 26
0.0
 36
1.0
 17
0.0
 27
0.0
 37
0.0
 40
47.74429076979944
 41
1.752923976608187
 42
50.0
 43
0.0
 44
0.0
 50
0.0
 51
0.0
 71
     0
 72
   100
 73
     1
 74
     3
 75
     0
 76
     0
 77
     0
 78
     0
281
     0
 65
     1
110
0.0
120
0.0
130
0.0
111
1.0
121
0.0
131
0.0
112
0.0
122
1.0
132
0.0
 79
     0
146
0.0
  0
ENDTAB
  0
TABLE
  2
LTYPE
  5
5
330
0
100
AcDbSymbolTable
 70
     4
  0
LTYPE
  5
13
330
5
100
AcDbSymbolTableRecord
100
AcDbLinetypeTableRecord
  2
BYBLOCK
 70
     0
  3

 72
    65
 73
     0
 40
0.0
  0
LTYPE
  5
14
330
5
100
AcDbSymbolTableRecord
100
AcDbLinetypeTableRecord
  2
BYLAYER
 70
     0
  3

 72
    65
 73
     0
 40
0.0
  0
LTYPE
  5
15
330
5
100
AcDbSymbolTableRecord
100
AcDbLinetypeTableRecord
  2
CONTINUOUS
 70
     0
  3
Solid line
 72
    65
 73
     0
 40
0.0
  0
LTYPE
  5
20
330
5
100
AcDbSymbolTableRecord
100
AcDbLinetypeTableRecord
  2
CENTER
 70
     0
  3
____ . ____ . ____
 72
    65
 73
     4
 40
1.5
 49
1.0
 74
     0
 49
-0.25
 74
     0
 49
0.0
 74
     0
 49
-0.25
 74
     0
  0
LTYPE
  5
21
330
5
100
AcDbSymbolTableRecord
100
AcDbLinetypeTableRecord
  2
HIDDEN
 70
     0
  3
_ _ _ _ _ _ _ _ _ _ _ _ _ _ _ _ _ _ _ _ _ _ _
 72
    65
 73
     2
 40
0.375
 49
0.25
 74
     0
 49
-0.125
 74
     0
  0
LTYPE
  5
14C0
330
5
100
AcDbSymbolTableRecord
100
AcDbLinetypeTableRecord
  2
DASHDOT
 70
     0
  3
Dash dot __ . __ . __ . __ . __ . __ . __ . __
 72
    65
 73
     4
 40
25.4
 49
12.7
 74
     0
 49
-6.349999999999997
 74
     0
 49
0.0
 74
     0
 49
-6.349999999999997
 74
     0
  0
ENDTAB
  0
TABLE
  2
LAYER
  5
2
330
0
100
AcDbSymbolTable
 70
    18
  0
LAYER
  5
F
102
{ACAD_XDICTIONARY
360
148A
102
}
330
2
100
AcDbSymbolTableRecord
100
AcDbLayerTableRecord
  2
0
 70
     0
 62
     7
  6
CONTINUOUS
370
    -3
390
E94
  0
LAYER
  5
1E
102
{ACAD_XDICTIONARY
360
148C
102
}
330
2
100
AcDbSymbolTableRecord
100
AcDbLayerTableRecord
  2
1
 70
     0
 62
     4
  6
CONTINUOUS
370
    -3
390
E94
  0
LAYER
  5
22
102
{ACAD_XDICTIONARY
360
148E
102
}
330
2
100
AcDbSymbolTableRecord
100
AcDbLayerTableRecord
  2
SK1
 70
     0
 62
     4
  6
CONTINUOUS
370
    -3
390
E94
  0
LAYER
  5
23
102
{ACAD_XDICTIONARY
360
1490
102
}
330
2
100
AcDbSymbolTableRecord
100
AcDbLayerTableRecord
  2
2
 70
     0
 62
     7
  6
CONTINUOUS
370
    -3
390
E94
  0
LAYER
  5
24
102
{ACAD_XDICTIONARY
360
1492
102
}
330
2
100
AcDbSymbolTableRecord
100
AcDbLayerTableRecord
  2
2L
 70
     0
 62
     7
  6
CONTINUOUS
370
    -3
390
E94
  0
LAYER
  5
25
102
{ACAD_XDICTIONARY
360
1494
102
}
330
2
100
AcDbSymbolTableRecord
100
AcDbLayerTableRecord
  2
SK2
 70
     0
 62
     7
  6
CONTINUOUS
370
    -3
390
E94
  0
LAYER
  5
26
102
{ACAD_XDICTIONARY
360
1496
102
}
330
2
100
AcDbSymbolTableRecord
100
AcDbLayerTableRecord
  2
3
 70
     0
 62
     1
  6
HIDDEN
370
    -3
390
E94
  0
LAYER
  5
27
102
{ACAD_XDICTIONARY
360
1498
102
}
330
2
100
AcDbSymbolTableRecord
100
AcDbLayerTableRecord
  2
SK3
 70
     0
 62
     1
  6
HIDDEN
370
    -3
390
E94
  0
LAYER
  5
28
102
{ACAD_XDICTIONARY
360
149A
102
}
330
2
100
AcDbSymbolTableRecord
100
AcDbLayerTableRecord
  2
4
 70
     0
 62
     2
  6
CENTER
370
    -3
390
E94
  0
LAYER
  5
29
102
{ACAD_XDICTIONARY
360
149C
102
}
330
2
100
AcDbSymbolTableRecord
100
AcDbLayerTableRecord
  2
SK4
 70
     0
 62
     2
  6
CENTER
370
    -3
390
E94
  0
LAYER
  5
2A
102
{ACAD_XDICTIONARY
360
149E
102
}
330
2
100
AcDbSymbolTableRecord
100
AcDbLayerTableRecord
  2
5
 70
     0
 62
     7
  6
CONTINUOUS
370
    -3
390
E94
  0
LAYER
  5
2B
102
{ACAD_XDICTIONARY
360
14A0
102
}
330
2
100
AcDbSymbolTableRecord
100
AcDbLayerTableRecord
  2
6
 70
     0
 62
     5
  6
CONTINUOUS
370
    -3
390
E94
  0
LAYER
  5
2C
102
{ACAD_XDICTIONARY
360
14A2
102
}
330
2
100
AcDbSymbolTableRecord
100
AcDbLayerTableRecord
  2
SK6
 70
     0
 62
     5
  6
CONTINUOUS
370
    -3
390
E94
  0
LAYER
  5
2D
102
{ACAD_XDICTIONARY
360
14A4
102
}
330
2
100
AcDbSymbolTableRecord
100
AcDbLayerTableRecord
  2
243
 70
     0
 62
     7
  6
CONTINUOUS
370
    -3
390
E94
  0
LAYER
  5
2E
330
2
100
AcDbSymbolTableRecord
100
AcDbLayerTableRecord
  2
DEFPOINTS
 70
     0
 62
     7
  6
CONTINUOUS
290
     0
370
    -3
390
E94
  0
LAYER
  5
C07
102
{ACAD_XDICTIONARY
360
14A6
102
}
330
2
100
AcDbSymbolTableRecord
100
AcDbLayerTableRecord
  2
FRONT
 70
     0
 62
     7
  6
CONTINUOUS
370
    -3
390
E94
  0
LAYER
  5
14C1
330
2
100
AcDbSymbolTableRecord
100
AcDbLayerTableRecord
  2
H
 70
     0
 62
     7
  6
CONTINUOUS
370
   100
390
E94
  0
LAYER
  5
14C2
330
2
100
AcDbSymbolTableRecord
100
AcDbLayerTableRecord
  2
P
 70
     0
 62
   250
  6
CONTINUOUS
370
   100
390
E94
  0
ENDTAB
  0
TABLE
  2
STYLE
  5
3
330
0
100
AcDbSymbolTable
 70
     6
  0
STYLE
  5
10
330
3
100
AcDbSymbolTableRecord
100
AcDbTextStyleTableRecord
  2
STANDARD
 70
     0
 40
0.0
 41
1.0
 50
0.0
 71
     0
 42
5.0
  3
txt
  4

  0
STYLE
  5
1F
330
3
100
AcDbSymbolTableRecord
100
AcDbTextStyleTableRecord
  2
SIMPLEX
 70
     0
 40
0.0
 41
1.0
 50
0.0
 71
     0
 42
3.5
  3
simplex
  4

  0
STYLE
  5
2F
330
3
100
AcDbSymbolTableRecord
100
AcDbTextStyleTableRecord
  2
TXT
 70
     0
 40
8.0
 41
1.0
 50
0.0
 71
     0
 42
8.0
  3
txt
  4

  0
STYLE
  5
C08
330
3
100
AcDbSymbolTableRecord
100
AcDbTextStyleTableRecord
  2
UGMTXT
 70
     0
 40
0.0
 41
1.0
 50
0.0
 71
     0
 42
0.2
  3
ugmtxt
  4
bigfont
  0
STYLE
  5
12D5
330
3
100
AcDbSymbolTableRecord
100
AcDbTextStyleTableRecord
  2
SLDTEXTSTYLE0
 70
     0
 40
0.0
 41
0.75
 50
0.0
 71
     0
 42
0.0
  3
TXT
  4

  0
STYLE
  5
14C3
330
3
100
AcDbSymbolTableRecord
100
AcDbTextStyleTableRecord
  2
Roman
 70
     0
 40
0.0
 41
1.0
 50
0.0
 71
     0
 42
0.2
  3

  4

  0
ENDTAB
  0
TABLE
  2
VIEW
  5
6
330
0
100
AcDbSymbolTable
 70
     0
  0
ENDTAB
  0
TABLE
  2
UCS
  5
7
330
0
100
AcDbSymbolTable
 70
     0
  0
ENDTAB
  0
TABLE
  2
APPID
  5
9
330
0
100
AcDbSymbolTable
 70
     4
  0
APPID
  5
11
330
9
100
AcDbSymbolTableRecord
100
AcDbRegAppTableRecord
  2
ACAD
 70
     0
  0
APPID
  5
E8F
330
9
100
AcDbSymbolTableRecord
100
AcDbRegAppTableRecord
  2
CONTENTBLOCKICON
 70
     0
  0
APPID
  5
1485
330
9
100
AcDbSymbolTableRecord
100
AcDbRegAppTableRecord
  2
ACAD_MLEADERVER
 70
     0
  0
APPID
  5
1717
330
9
100
AcDbSymbolTableRecord
100
AcDbRegAppTableRecord
  2
ACAD_EXEMPT_FROM_CAD_STANDARDS
 70
     0
  0
ENDTAB
  0
TABLE
  2
DIMSTYLE
  5
A
330
0
100
AcDbSymbolTable
 70
     5
100
AcDbDimStyleTable
 71
     5
340
D91
340
1273
340
D93
340
D92
340
980
  0
DIMSTYLE
105
980
330
A
100
AcDbSymbolTableRecord
100
AcDbDimStyleTableRecord
  2
STANDARD
 70
     0
340
10
  0
DIMSTYLE
105
D91
102
{ACAD_REACTORS
330
21AB
330
21B8
330
21C5
102
}
330
A
100
AcDbSymbolTableRecord
100
AcDbDimStyleTableRecord
  2
V-TYGEN_-160
 70
     0
 41
3.5
 42
1.0
 43
0.5
 44
1.0
 73
     0
 74
     0
 77
     1
140
3.5
141
0.0
147
1.0
271
     0
272
     0
340
10
371
    -1
  0
DIMSTYLE
105
D92
330
A
100
AcDbSymbolTableRecord
100
AcDbDimStyleTableRecord
  2
V-TYG_160-300
 70
     0
 41
5.0
 42
1.0
 43
0.5
 44
1.0
 73
     0
 74
     0
 77
     1
140
5.0
141
0.0
147
1.0
271
     0
272
     0
340
10
  0
DIMSTYLE
105
D93
330
A
100
AcDbSymbolTableRecord
100
AcDbDimStyleTableRecord
  2
V-TYG_300-
 70
     0
 41
8.0
 42
1.0
 43
0.5
 44
1.0
 73
     0
 74
     0
 77
     1
140
8.0
141
0.0
147
1.0
271
     0
272
     0
340
10
  0
DIMSTYLE
105
1273
330
A
100
AcDbSymbolTableRecord
100
AcDbDimStyleTableRecord
  2
Inserts
 70
     0
 41
0.5
 42
1.0
 43
0.5
 44
1.0
 73
     0
 74
     0
 77
     1
140
0.8
141
0.0
147
1.0
271
     0
272
     0
340
10
371
    -1
  0
ENDTAB
  0
TABLE
  2
BLOCK_RECORD
  5
1
330
0
100
AcDbSymbolTable
 70
    33
  0
BLOCK_RECORD
  5
19
102
{ACAD_XDICTIONARY
360
E8D
102
}
330
1
100
AcDbSymbolTableRecord
100
AcDbBlockTableRecord
  2
*MODEL_SPACE
340
E95
  0
BLOCK_RECORD
  5
16
102
{ACAD_XDICTIONARY
360
E8B
102
}
330
1
100
AcDbSymbolTableRecord
100
AcDbBlockTableRecord
  2
*PAPER_SPACE
340
E96
  0
BLOCK_RECORD
  5
21AC
330
1
100
AcDbSymbolTableRecord
100
AcDbBlockTableRecord
  2
*D30
340
0
  0
BLOCK_RECORD
  5
21B9
330
1
100
AcDbSymbolTableRecord
100
AcDbBlockTableRecord
  2
*D31
340
0
  0
BLOCK_RECORD
  5
21C6
330
1
100
AcDbSymbolTableRecord
100
AcDbBlockTableRecord
  2
*D32
340
0
  0
ENDTAB
  0
ENDSEC
  0
SECTION
  2
BLOCKS
  0
BLOCK
  5
1A
330
19
100
AcDbEntity
  8
0
100
AcDbBlockBegin
  2
*MODEL_SPACE
 70
     0
 10
0.0
 20
0.0
 30
0.0
  3
*MODEL_SPACE
  1

  0
ENDBLK
  5
1B
330
19
100
AcDbEntity
  8
0
100
AcDbBlockEnd
  0
BLOCK
  5
17
330
16
100
AcDbEntity
 67
     1
  8
0
100
AcDbBlockBegin
  2
*PAPER_SPACE
 70
     0
 10
0.0
 20
0.0
 30
0.0
  3
*PAPER_SPACE
  1

  0
ENDBLK
  5
18
330
16
100
AcDbEntity
 67
     1
  8
0
100
AcDbBlockEnd
  0
BLOCK
  5
21AD
330
21AC
100
AcDbEntity
  8
0
100
AcDbBlockBegin
  2
*D30
 70
     1
 10
0.0
 20
0.0
 30
0.0
  3
*D30
  1

  0
LINE
  5
2202
330
21AC
100
AcDbEntity
  8
2
 62
     0
370
    -2
100
AcDbLine
 10
815.3877173073054
 20
421.587678012016
 30
0.0
 11
827.2950261327839
 21
421.587678012016
 31
0.0
  0
LINE
  5
2203
330
21AC
100
AcDbEntity
  8
2
 62
     0
370
    -2
100
AcDbLine
 10
815.005408973972
 20
404.5896613453493
 30
0.0
 11
827.2950261327839
 21
404.5896613453493
 31
0.0
  0
LINE
  5
2204
330
21AC
100
AcDbEntity
  8
2
 62
     0
100
AcDbLine
 10
826.2950261327839
 20
418.087678012016
 30
0.0
 11
826.2950261327839
 21
408.0896613453493
 31
0.0
  0
SOLID
  5
2205
330
21AC
100
AcDbEntity
  8
2
 62
     0
100
AcDbTrace
 10
825.7116927994504
 20
418.087678012016
 30
0.0
 11
826.8783594661169
 21
418.087678012016
 31
0.0
 12
826.2950261327839
 22
421.587678012016
 32
0.0
 13
826.2950261327839
 23
421.587678012016
 33
0.0
  0
SOLID
  5
2206
330
21AC
100
AcDbEntity
  8
2
 62
     0
100
AcDbTrace
 10
825.7116927994504
 20
408.0896613453493
 30
0.0
 11
826.8783594661169
 21
408.0896613453493
 31
0.0
 12
826.2950261327839
 22
404.5896613453493
 32
0.0
 13
826.2950261327839
 23
404.5896613453493
 33
0.0
  0
MTEXT
  5
2207
330
21AC
100
AcDbEntity
  8
2
 62
     0
100
AcDbMText
 10
823.5450261327835
 20
413.0886696786827
 30
0.0
 40
3.5
 41
0.0
 71
     5
 72
     1
  1
\A1;%%c17
 11
0.0000000000000001
 21
1.0
 31
0.0
 73
     1
 44
1.0
1001
ACAD
1000
MTEXTBEGIN
1070
    73
1070
     1
1070
    44
1040
1.0
1070
    74
1070
     0
1000
MTEXTEND
  0
POINT
  5
2208
330
21AC
100
AcDbEntity
  8
DEFPOINTS
 62
     0
100
AcDbPoint
 10
814.3877173073054
 20
421.587678012016
 30
0.0
  0
POINT
  5
2209
330
21AC
100
AcDbEntity
  8
DEFPOINTS
 62
     0
100
AcDbPoint
 10
814.005408973972
 20
404.5896613453493
 30
0.0
  0
POINT
  5
220A
330
21AC
100
AcDbEntity
  8
DEFPOINTS
 62
     0
100
AcDbPoint
 10
826.2950261327839
 20
404.5896613453493
 30
0.0
  0
ENDBLK
  5
21AE
330
21AC
100
AcDbEntity
  8
0
100
AcDbBlockEnd
  0
BLOCK
  5
21BA
330
21B9
100
AcDbEntity
  8
0
100
AcDbBlockBegin
  2
*D31
 70
     1
 10
0.0
 20
0.0
 30
0.0
  3
*D31
  1

  0
LINE
  5
220B
330
21B9
100
AcDbEntity
  8
2
 62
     0
370
    -2
100
AcDbLine
 10
815.7110923073053
 20
422.2053696786826
 30
0.0
 11
815.7110923073053
 21
429.6914906319829
 31
0.0
  0
LINE
  5
220C
330
21B9
100
AcDbEntity
  8
2
 62
     0
370
    -2
100
AcDbLine
 10
802.6832006406387
 20
419.235128012016
 30
0.0
 11
802.6832006406387
 21
429.6914906319829
 31
0.0
  0
LINE
  5
220D
330
21B9
100
AcDbEntity
  8
2
 62
     0
100
AcDbLine
 10
812.2110923073053
 20
428.691490631983
 30
0.0
 11
806.1832006406387
 21
428.691490631983
 31
0.0
  0
SOLID
  5
220E
330
21B9
100
AcDbEntity
  8
2
 62
     0
100
AcDbTrace
 10
812.2110923073053
 20
429.2748239653163
 30
0.0
 11
812.2110923073053
 21
428.1081572986495
 31
0.0
 12
815.7110923073053
 22
428.691490631983
 32
0.0
 13
815.7110923073053
 23
428.691490631983
 33
0.0
  0
SOLID
  5
220F
330
21B9
100
AcDbEntity
  8
2
 62
     0
100
AcDbTrace
 10
806.1832006406387
 20
429.2748239653163
 30
0.0
 11
806.1832006406387
 21
428.1081572986495
 31
0.0
 12
802.6832006406387
 22
428.691490631983
 32
0.0
 13
802.6832006406387
 23
428.691490631983
 33
0.0
  0
MTEXT
  5
2210
330
21B9
100
AcDbEntity
  8
2
 62
     0
100
AcDbMText
 10
809.1971464739719
 20
431.441490631983
 30
0.0
 40
3.5
 41
0.0
 71
     5
 72
     1
  1
\A1;13
 73
     1
 44
1.0
1001
ACAD
1000
MTEXTBEGIN
1070
    73
1070
     1
1070
    44
1040
1.0
1070
    74
1070
     0
1000
MTEXTEND
  0
POINT
  5
2211
330
21B9
100
AcDbEntity
  8
DEFPOINTS
 62
     0
100
AcDbPoint
 10
815.7110923073053
 20
421.2053696786826
 30
0.0
  0
POINT
  5
2212
330
21B9
100
AcDbEntity
  8
DEFPOINTS
 62
     0
100
AcDbPoint
 10
802.6832006406387
 20
418.2351280120157
 30
0.0
  0
POINT
  5
2213
330
21B9
100
AcDbEntity
  8
DEFPOINTS
 62
     0
100
AcDbPoint
 10
802.6832006406387
 20
428.691490631983
 30
0.0
  0
ENDBLK
  5
21BB
330
21B9
100
AcDbEntity
  8
0
100
AcDbBlockEnd
  0
BLOCK
  5
21C7
330
21C6
100
AcDbEntity
  8
0
100
AcDbBlockBegin
  2
*D32
 70
     1
 10
0.0
 20
0.0
 30
0.0
  3
*D32
  1

  0
LINE
  5
2214
330
21C6
100
AcDbEntity
  8
SK2
 62
     0
370
    -2
100
AcDbLine
 10
790.6844839739719
 20
416.5882613453493
 30
0.0
 11
780.6995754548775
 21
416.5882613453493
 31
0.0
  0
LINE
  5
2215
330
21C6
100
AcDbEntity
  8
SK2
 62
     0
370
    -2
100
AcDbLine
 10
790.6844839739719
 20
409.589078012016
 30
0.0
 11
780.6995754548775
 21
409.589078012016
 31
0.0
  0
LINE
  5
2216
330
21C6
100
AcDbEntity
  8
SK2
 62
     0
100
AcDbLine
 10
781.6995754548773
 20
406.089078012016
 30
0.0
 11
781.6995754548773
 21
402.5890780120158
 31
0.0
  0
LINE
  5
2217
330
21C6
100
AcDbEntity
  8
SK2
 62
     0
100
AcDbLine
 10
781.6995754548773
 20
420.0882613453493
 30
0.0
 11
781.6995754548773
 21
431.4215946786826
 31
0.0
  0
SOLID
  5
2218
330
21C6
100
AcDbEntity
  8
SK2
 62
     0
100
AcDbTrace
 10
781.1162421215441
 20
406.089078012016
 30
0.0
 11
782.2829087882109
 21
406.089078012016
 31
0.0
 12
781.6995754548773
 22
409.589078012016
 32
0.0
 13
781.6995754548773
 23
409.589078012016
 33
0.0
  0
SOLID
  5
2219
330
21C6
100
AcDbEntity
  8
SK2
 62
     0
100
AcDbTrace
 10
781.1162421215441
 20
420.0882613453493
 30
0.0
 11
782.2829087882109
 21
420.0882613453493
 31
0.0
 12
781.6995754548773
 22
416.5882613453493
 32
0.0
 13
781.6995754548773
 23
416.5882613453493
 33
0.0
  0
MTEXT
  5
221A
330
21C6
100
AcDbEntity
  8
SK2
 62
     0
100
AcDbMText
 10
778.9495754548773
 20
427.5049280120161
 30
0.0
 40
3.5
 41
0.0
 71
     5
 72
     1
  1
\A1;%%c7
 11
0.0000000000000001
 21
1.0
 31
0.0
 73
     1
 44
1.0
1001
ACAD
1000
MTEXTBEGIN
1070
    73
1070
     1
1070
    44
1040
1.0
1070
    74
1070
     0
1000
MTEXTEND
  0
POINT
  5
221B
330
21C6
100
AcDbEntity
  8
DEFPOINTS
 62
     0
100
AcDbPoint
 10
791.6844839739718
 20
416.5882613453493
 30
0.0
  0
POINT
  5
221C
330
21C6
100
AcDbEntity
  8
DEFPOINTS
 62
     0
100
AcDbPoint
 10
791.6844839739718
 20
409.589078012016
 30
0.0
  0
POINT
  5
221D
330
21C6
100
AcDbEntity
  8
DEFPOINTS
 62
     0
100
AcDbPoint
 10
781.6995754548773
 20
409.589078012016
 30
0.0
  0
ENDBLK
  5
21C8
330
21C6
100
AcDbEntity
  8
0
100
AcDbBlockEnd
  0
ENDSEC
  0
SECTION
  2
ENTITIES
  0
MTEXT
  5
1431
330
19
100
AcDbEntity
  8
SK6
100
AcDbMText
 10
790.5356040221797
 20
397.4334233105251
 30
0.0
 40
3.5
 41
80.41994893321954
 71
     1
 72
     5
  1
{\fMonospac821 BT|b0|i0|c0|p49;PF84-17H6-EN1\P02602334}
  7
SIMPLEX
 73
     1
 44
1.0
1001
ACAD
1000
MTEXTBEGIN
1070
    73
1070
     1
1070
    44
1040
1.0
1070
    74
1070
     0
1000
MTEXTEND
  0
LWPOLYLINE
  5
20DE
330
19
100
AcDbEntity
  8
1
100
AcDbPolyline
 90
       14
 70
     0
 43
0.0
 10
813.3290173073053
 20
410.3536946786826
 10
813.1819756406386
 20
410.2360613453493
 10
813.0055256406388
 20
410.1184280120158
 10
812.7996673073052
 20
410.0007946786826
 10
812.5938089739721
 20
409.9419780120158
 10
812.3879506406387
 20
409.8831613453493
 10
812.152683973972
 20
409.8831613453493
 10
811.9174173073053
 20
409.8831613453493
 10
811.711558973972
 20
409.9125696786826
 10
811.4762923073053
 20
409.9713863453493
 10
811.2704339739721
 20
410.0596113453494
 10
811.0939839739721
 20
410.1478363453493
 10
810.9469423073052
 20
410.2948780120158
 10
810.8293089739721
 20
410.4125113453493
  0
LWPOLYLINE
  5
20DF
330
19
100
AcDbEntity
  8
1
100
AcDbPolyline
 90
       10
 70
     0
 43
0.0
 10
812.8290756406387
 20
410.6183696786827
 10
812.6526256406387
 20
410.5301446786826
 10
812.4761756406387
 20
410.471328012016
 10
812.2703173073052
 20
410.4419196786825
 10
812.064458973972
 20
410.4419196786825
 10
811.8586006406387
 20
410.4419196786825
 10
811.6527423073053
 20
410.5007363453493
 10
811.4762923073053
 20
410.5595530120158
 10
811.2998423073054
 20
410.6477780120158
 10
811.2116173073053
 20
410.7065946786827
  0
LWPOLYLINE
  5
20E0
330
19
100
AcDbEntity
  8
1
100
AcDbPolyline
 90
       10
 70
     0
 43
0.0
 10
812.8290756406387
 20
410.6183696786827
 10
812.6526256406387
 20
410.5301446786826
 10
812.4761756406387
 20
410.471328012016
 10
812.2703173073052
 20
410.4419196786825
 10
812.064458973972
 20
410.4419196786825
 10
811.8586006406387
 20
410.4419196786825
 10
811.6527423073053
 20
410.5007363453493
 10
811.4762923073053
 20
410.5595530120158
 10
811.2998423073054
 20
410.6477780120158
 10
811.2116173073053
 20
410.7065946786827
  0
LWPOLYLINE
  5
20E2
330
19
100
AcDbEntity
  8
1
100
AcDbPolyline
 90
        2
 70
     0
 43
0.0
 10
813.3584256406388
 20
410.4125113453493
 10
813.3290173073053
 20
410.3536946786826
  0
LWPOLYLINE
  5
20E3
330
19
100
AcDbEntity
  8
1
100
AcDbPolyline
 90
        2
 70
     0
 43
0.0
 10
812.9761173073053
 20
410.7065946786827
 10
812.8290756406387
 20
410.6183696786827
  0
LWPOLYLINE
  5
20E4
330
19
100
AcDbEntity
  8
1
100
AcDbPolyline
 90
        2
 70
     0
 43
0.0
 10
812.9761173073053
 20
410.7065946786827
 10
812.8290756406387
 20
410.6183696786827
  0
LWPOLYLINE
  5
20EB
330
19
100
AcDbEntity
  8
SK1
100
AcDbPolyline
 90
        2
 70
     0
 43
0.0
 10
802.183258973972
 20
410.7654113453492
 10
802.183258973972
 20
411.6770696786826
  0
LWPOLYLINE
  5
20EC
330
19
100
AcDbEntity
  8
SK1
100
AcDbPolyline
 90
        2
 70
     0
 43
0.0
 10
799.5071006406387
 20
411.6770696786826
 10
799.5071006406387
 20
410.7654113453492
  0
LWPOLYLINE
  5
20ED
330
19
100
AcDbEntity
  8
1
100
AcDbPolyline
 90
        2
 70
     0
 43
0.0
 10
805.6828506406386
 20
404.8543363453493
 10
806.682733973972
 20
404.5896613453493
  0
LWPOLYLINE
  5
20EE
330
19
100
AcDbEntity
  8
1
100
AcDbPolyline
 90
        2
 70
     0
 43
0.0
 10
814.005408973972
 20
404.5896613453493
 10
814.7112089739719
 20
404.6484780120158
  0
LWPOLYLINE
  5
20EF
330
19
100
AcDbEntity
  8
1
100
AcDbPolyline
 90
        2
 70
     0
 43
0.0
 10
814.7112089739719
 20
404.6484780120158
 10
815.7110923073053
 20
405.2072363453492
  0
LWPOLYLINE
  5
20F0
330
19
100
AcDbEntity
  8
1
100
AcDbPolyline
 90
        2
 70
     0
 43
0.0
 10
806.682733973972
 20
404.5896613453493
 10
814.005408973972
 20
404.5896613453493
  0
LWPOLYLINE
  5
20F1
330
19
100
AcDbEntity
  8
1
100
AcDbPolyline
 90
        2
 70
     0
 43
0.0
 10
804.830008973972
 20
420.8524696786827
 10
804.035983973972
 20
419.4996863453493
  0
LWPOLYLINE
  5
20F2
330
19
100
AcDbEntity
  8
1
100
AcDbPolyline
 90
        2
 70
     0
 43
0.0
 10
804.035983973972
 20
406.7070613453493
 10
804.7123756406389
 20
405.5601363453493
  0
LWPOLYLINE
  5
20F3
330
19
100
AcDbEntity
  8
1
100
AcDbPolyline
 90
        2
 70
     0
 43
0.0
 10
803.0361006406387
 20
418.588028012016
 10
802.6832006406387
 20
418.2351280120157
  0
LWPOLYLINE
  5
20F4
330
19
100
AcDbEntity
  8
1
100
AcDbPolyline
 90
        2
 70
     0
 43
0.0
 10
802.6832006406387
 20
407.9422113453493
 10
803.0361006406387
 20
407.5893113453493
  0
LWPOLYLINE
  5
20F5
330
19
100
AcDbEntity
  8
1
100
AcDbPolyline
 90
        2
 70
     0
 43
0.0
 10
803.0361006406387
 20
407.5893113453493
 10
804.035983973972
 20
407.5893113453493
  0
LWPOLYLINE
  5
20F6
330
19
100
AcDbEntity
  8
1
100
AcDbPolyline
 90
        2
 70
     0
 43
0.0
 10
804.035983973972
 20
418.588028012016
 10
803.0361006406387
 20
418.588028012016
  0
LWPOLYLINE
  5
20F7
330
19
100
AcDbEntity
  8
SK1
100
AcDbPolyline
 90
        5
 70
     0
 43
0.0
 10
802.4479339739723
 20
409.7949363453493
 10
802.536158973972
 20
409.7949363453493
 10
802.5949756406387
 20
409.7655280120158
 10
802.6537923073052
 20
409.7361196786826
 10
802.6832006406387
 20
409.7067113453493
  0
LWPOLYLINE
  5
20F8
330
19
100
AcDbEntity
  8
SK1
100
AcDbPolyline
 90
        5
 70
     0
 43
0.0
 10
802.6832006406387
 20
416.4706280120157
 10
802.6537923073052
 20
416.4706280120157
 10
802.5949756406387
 20
416.4118113453493
 10
802.536158973972
 20
416.4118113453493
 10
802.4479339739723
 20
416.3824030120158
  0
LWPOLYLINE
  5
20F9
330
19
100
AcDbEntity
  8
SK1
100
AcDbPolyline
 90
        2
 70
     0
 43
0.0
 10
801.6245006406387
 20
416.5882613453493
 10
791.6844839739718
 20
416.5882613453493
  0
LWPOLYLINE
  5
20FA
330
19
100
AcDbEntity
  8
SK1
100
AcDbPolyline
 90
        2
 70
     0
 43
0.0
 10
791.6844839739718
 20
409.589078012016
 10
801.6245006406387
 20
409.589078012016
  0
LWPOLYLINE
  5
20FB
330
19
100
AcDbEntity
  8
SK1
100
AcDbPolyline
 90
        2
 70
     0
 43
0.0
 10
791.6844839739718
 20
416.5882613453493
 10
791.1845423073055
 20
416.3235863453492
  0
LWPOLYLINE
  5
20FC
330
19
100
AcDbEntity
  8
SK1
100
AcDbPolyline
 90
        2
 70
     0
 43
0.0
 10
791.1845423073055
 20
409.8831613453493
 10
791.6844839739718
 20
409.589078012016
  0
LWPOLYLINE
  5
20FD
330
19
100
AcDbEntity
  8
SK1
100
AcDbPolyline
 90
        2
 70
     0
 43
0.0
 10
801.9774006406388
 20
416.4412196786826
 10
801.6245006406387
 20
416.5882613453493
  0
LWPOLYLINE
  5
20FE
330
19
100
AcDbEntity
  8
SK1
100
AcDbPolyline
 90
        9
 70
     0
 43
0.0
 10
802.1538506406384
 20
416.3824030120158
 10
802.1244423073053
 20
416.3824030120158
 10
802.0950339739719
 20
416.3824030120158
 10
802.0950339739719
 20
416.4118113453493
 10
802.0656256406386
 20
416.4118113453493
 10
802.0362173073053
 20
416.4118113453493
 10
802.0068089739718
 20
416.4118113453493
 10
802.0068089739718
 20
416.4118113453493
 10
801.9774006406388
 20
416.4412196786826
  0
LWPOLYLINE
  5
20FF
330
19
100
AcDbEntity
  8
SK1
100
AcDbPolyline
 90
        2
 70
     0
 43
0.0
 10
802.1538506406384
 20
409.7949363453493
 10
802.4479339739723
 20
409.7949363453493
  0
LWPOLYLINE
  5
2100
330
19
100
AcDbEntity
  8
SK1
100
AcDbPolyline
 90
        2
 70
     0
 43
0.0
 10
802.4479339739723
 20
416.3824030120158
 10
802.1538506406384
 20
416.3824030120158
  0
LWPOLYLINE
  5
2101
330
19
100
AcDbEntity
  8
SK1
100
AcDbPolyline
 90
        9
 70
     0
 43
0.0
 10
801.9774006406388
 20
409.7655280120158
 10
802.0068089739718
 20
409.7655280120158
 10
802.0068089739718
 20
409.7655280120158
 10
802.0362173073053
 20
409.7949363453493
 10
802.0656256406386
 20
409.7949363453493
 10
802.0950339739719
 20
409.7949363453493
 10
802.0950339739719
 20
409.7949363453493
 10
802.1244423073053
 20
409.7949363453493
 10
802.1538506406384
 20
409.7949363453493
  0
LWPOLYLINE
  5
2102
330
19
100
AcDbEntity
  8
SK1
100
AcDbPolyline
 90
        2
 70
     0
 43
0.0
 10
801.6245006406387
 20
409.589078012016
 10
801.9774006406388
 20
409.7655280120158
  0
LWPOLYLINE
  5
2103
330
19
100
AcDbEntity
  8
1
100
AcDbPolyline
 90
        2
 70
     0
 43
0.0
 10
805.8004839739718
 20
417.7645946786825
 10
805.8004839739718
 20
417.7645946786825
  0
LWPOLYLINE
  5
2104
330
19
100
AcDbEntity
  8
1
100
AcDbPolyline
 90
        2
 70
     0
 43
0.0
 10
810.7999006406387
 20
417.7645946786825
 10
810.7999006406387
 20
417.7645946786825
  0
LWPOLYLINE
  5
2105
330
19
100
AcDbEntity
  8
SK1
100
AcDbPolyline
 90
       40
 70
     0
 43
0.0
 10
801.0657423073052
 20
411.9123363453493
 10
800.8304756406387
 20
411.9417446786826
 10
800.6246173073051
 20
411.9123363453493
 10
800.418758973972
 20
411.8829280120158
 10
800.2129006406388
 20
411.7947030120157
 10
800.0364506406386
 20
411.7064780120158
 10
799.8600006406388
 20
411.5888446786827
 10
799.7423673073052
 20
411.4418030120158
 10
799.6247339739722
 20
411.265353012016
 10
799.5365089739721
 20
411.0889030120159
 10
799.5071006406387
 20
410.9124530120157
 10
799.5071006406387
 20
410.7065946786827
 10
799.5071006406387
 20
410.5301446786826
 10
799.5953256406387
 20
410.3536946786826
 10
799.6835506406386
 20
410.1772446786826
 10
799.801183973972
 20
410.0302030120158
 10
799.9482256406387
 20
409.8831613453493
 10
800.1246756406388
 20
409.7949363453493
 10
800.330533973972
 20
409.7067113453493
 10
800.5363923073053
 20
409.6478946786826
 10
800.7422506406387
 20
409.6184863453491
 10
800.948108973972
 20
409.6184863453491
 10
801.1833756406387
 20
409.6478946786826
 10
801.3892339739722
 20
409.7067113453493
 10
801.5656839739719
 20
409.7949363453493
 10
801.7421339739721
 20
409.8831613453493
 10
801.8891756406388
 20
410.0302030120158
 10
802.0068089739718
 20
410.1772446786826
 10
802.0950339739719
 20
410.3536946786826
 10
802.1538506406384
 20
410.5301446786826
 10
802.183258973972
 20
410.736003012016
 10
802.183258973972
 20
410.9124530120157
 10
802.1538506406384
 20
411.0889030120159
 10
802.0656256406386
 20
411.265353012016
 10
801.9479923073054
 20
411.4418030120158
 10
801.8303589739721
 20
411.5888446786827
 10
801.6539089739719
 20
411.7064780120158
 10
801.4774589739721
 20
411.7947030120157
 10
801.2716006406387
 20
411.8829280120158
 10
801.0657423073052
 20
411.9123363453493
  0
LWPOLYLINE
  5
2106
330
19
100
AcDbEntity
  8
SK1
100
AcDbPolyline
 90
        2
 70
     0
 43
0.0
 10
801.6539089739719
 20
412.9416280120158
 10
801.6539089739719
 20
412.7945863453493
  0
LWPOLYLINE
  5
2107
330
19
100
AcDbEntity
  8
1
100
AcDbPolyline
 90
        2
 70
     0
 43
0.0
 10
815.5346423073051
 20
417.6763696786826
 10
815.7110923073053
 20
417.6763696786826
  0
LWPOLYLINE
  5
2108
330
19
100
AcDbEntity
  8
1
100
AcDbPolyline
 90
        2
 70
     0
 43
0.0
 10
815.5346423073051
 20
417.4116946786827
 10
815.7110923073053
 20
417.4116946786827
  0
LWPOLYLINE
  5
2109
330
19
100
AcDbEntity
  8
1
100
AcDbPolyline
 90
        2
 70
     0
 43
0.0
 10
815.7110923073053
 20
417.4116946786827
 10
815.7110923073053
 20
417.6763696786826
  0
LWPOLYLINE
  5
210A
330
19
100
AcDbEntity
  8
1
100
AcDbPolyline
 90
        2
 70
     0
 43
0.0
 10
815.5346423073051
 20
416.029503012016
 10
815.7110923073053
 20
416.029503012016
  0
LWPOLYLINE
  5
210B
330
19
100
AcDbEntity
  8
1
100
AcDbPolyline
 90
        2
 70
     0
 43
0.0
 10
815.7110923073053
 20
416.029503012016
 10
815.7110923073053
 20
417.4116946786827
  0
LWPOLYLINE
  5
210C
330
19
100
AcDbEntity
  8
1
100
AcDbPolyline
 90
        2
 70
     0
 43
0.0
 10
815.7110923073053
 20
417.8822280120158
 10
815.5346423073051
 20
417.9116363453493
  0
LWPOLYLINE
  5
210D
330
19
100
AcDbEntity
  8
1
100
AcDbPolyline
 90
        2
 70
     0
 43
0.0
 10
815.7110923073053
 20
417.6763696786826
 10
815.7110923073053
 20
417.8822280120158
  0
LWPOLYLINE
  5
210E
330
19
100
AcDbEntity
  8
1
100
AcDbPolyline
 90
        2
 70
     0
 43
0.0
 10
815.5346423073051
 20
415.9706863453493
 10
815.7110923073053
 20
415.9706863453493
  0
LWPOLYLINE
  5
210F
330
19
100
AcDbEntity
  8
1
100
AcDbPolyline
 90
        2
 70
     0
 43
0.0
 10
815.7110923073053
 20
415.9706863453493
 10
815.7110923073053
 20
416.029503012016
  0
LWPOLYLINE
  5
2110
330
19
100
AcDbEntity
  8
1
100
AcDbPolyline
 90
        5
 70
     0
 43
0.0
 10
805.6828506406386
 20
404.913153012016
 10
805.6828506406386
 20
404.8837446786826
 10
805.6828506406386
 20
404.8837446786826
 10
805.6828506406386
 20
404.8543363453493
 10
805.6828506406386
 20
404.8543363453493
  0
LWPOLYLINE
  5
2111
330
19
100
AcDbEntity
  8
1
100
AcDbPolyline
 90
        3
 70
     0
 43
0.0
 10
805.6828506406386
 20
404.913153012016
 10
805.8593006406386
 20
404.8837446786826
 10
806.682733973972
 20
404.6484780120158
  0
LWPOLYLINE
  5
2112
330
19
100
AcDbEntity
  8
1
100
AcDbPolyline
 90
        5
 70
     0
 43
0.0
 10
806.682733973972
 20
404.6484780120158
 10
806.682733973972
 20
404.6190696786826
 10
806.682733973972
 20
404.6190696786826
 10
806.682733973972
 20
404.5896613453493
 10
806.682733973972
 20
404.5896613453493
  0
LWPOLYLINE
  5
2113
330
19
100
AcDbEntity
  8
1
100
AcDbPolyline
 90
        2
 70
     0
 43
0.0
 10
815.5346423073051
 20
405.6483613453493
 10
815.7110923073053
 20
405.6483613453493
  0
LWPOLYLINE
  5
2114
330
19
100
AcDbEntity
  8
1
100
AcDbPolyline
 90
        2
 70
     0
 43
0.0
 10
815.7110923073053
 20
405.2954613453493
 10
815.7110923073053
 20
405.6483613453493
  0
LWPOLYLINE
  5
2115
330
19
100
AcDbEntity
  8
1
100
AcDbPolyline
 90
        3
 70
     0
 43
0.0
 10
814.7112089739719
 20
404.7072946786824
 10
814.8288423073054
 20
404.7661113453493
 10
815.7110923073053
 20
405.2954613453493
  0
LWPOLYLINE
  5
2116
330
19
100
AcDbEntity
  8
1
100
AcDbPolyline
 90
        3
 70
     0
 43
0.0
 10
814.005408973972
 20
404.6484780120158
 10
814.181858973972
 20
404.6778863453493
 10
814.7112089739719
 20
404.7072946786824
  0
LWPOLYLINE
  5
2117
330
19
100
AcDbEntity
  8
1
100
AcDbPolyline
 90
        2
 70
     0
 43
0.0
 10
806.682733973972
 20
404.6484780120158
 10
814.005408973972
 20
404.6484780120158
  0
LWPOLYLINE
  5
2118
330
19
100
AcDbEntity
  8
1
100
AcDbPolyline
 90
        2
 70
     0
 43
0.0
 10
805.6828506406386
 20
405.0307863453493
 10
805.6828506406386
 20
404.913153012016
  0
LWPOLYLINE
  5
2119
330
19
100
AcDbEntity
  8
1
100
AcDbPolyline
 90
        5
 70
     0
 43
0.0
 10
814.005408973972
 20
404.6484780120158
 10
814.005408973972
 20
404.6190696786826
 10
814.005408973972
 20
404.6190696786826
 10
814.005408973972
 20
404.5896613453493
 10
814.005408973972
 20
404.5896613453493
  0
LWPOLYLINE
  5
211A
330
19
100
AcDbEntity
  8
1
100
AcDbPolyline
 90
        5
 70
     0
 43
0.0
 10
814.7112089739719
 20
404.7072946786824
 10
814.7112089739719
 20
404.6778863453493
 10
814.7112089739719
 20
404.6484780120158
 10
814.7112089739719
 20
404.6484780120158
 10
814.7112089739719
 20
404.6484780120158
  0
LWPOLYLINE
  5
211B
330
19
100
AcDbEntity
  8
1
100
AcDbPolyline
 90
        5
 70
     0
 43
0.0
 10
815.7110923073053
 20
405.2954613453493
 10
815.7110923073053
 20
405.2660530120158
 10
815.7110923073053
 20
405.2366446786826
 10
815.7110923073053
 20
405.2366446786826
 10
815.7110923073053
 20
405.2072363453492
  0
LWPOLYLINE
  5
211C
330
19
100
AcDbEntity
  8
1
100
AcDbPolyline
 90
        2
 70
     0
 43
0.0
 10
815.5346423073051
 20
405.8542196786826
 10
815.7110923073053
 20
405.8542196786826
  0
LWPOLYLINE
  5
211D
330
19
100
AcDbEntity
  8
1
100
AcDbPolyline
 90
        2
 70
     0
 43
0.0
 10
815.7110923073053
 20
405.6483613453493
 10
815.7110923073053
 20
405.8542196786826
  0
LWPOLYLINE
  5
211E
330
19
100
AcDbEntity
  8
1
100
AcDbPolyline
 90
        2
 70
     0
 43
0.0
 10
805.6828506406386
 20
405.0307863453493
 10
814.7994339739721
 20
405.0307863453493
  0
LWPOLYLINE
  5
211F
330
19
100
AcDbEntity
  8
1
100
AcDbPolyline
 90
        4
 70
     0
 43
0.0
 10
805.0358673073054
 20
405.0013780120158
 10
805.1535006406387
 20
405.0013780120158
 10
805.4769923073054
 20
405.0307863453493
 10
805.6828506406386
 20
405.0307863453493
  0
LWPOLYLINE
  5
2120
330
19
100
AcDbEntity
  8
1
100
AcDbPolyline
 90
       23
 70
     0
 43
0.0
 10
805.0358673073054
 20
412.7357696786827
 10
805.0358673073054
 20
412.2064196786825
 10
805.0358673073054
 20
411.6770696786826
 10
805.0358673073054
 20
411.1477196786826
 10
805.0358673073054
 20
410.6477780120158
 10
805.0358673073054
 20
410.1478363453493
 10
805.0358673073054
 20
409.6478946786826
 10
805.0358673073054
 20
409.1773613453494
 10
805.0358673073054
 20
408.7362363453491
 10
805.0358673073054
 20
408.2951113453494
 10
805.0358673073054
 20
407.8833946786826
 10
805.0358673073054
 20
407.5010863453493
 10
805.0358673073054
 20
407.1187780120158
 10
805.0358673073054
 20
406.7658780120158
 10
805.0358673073054
 20
406.4423863453493
 10
805.0358673073054
 20
406.1777113453493
 10
805.0358673073054
 20
405.9130363453493
 10
805.0358673073054
 20
405.6777696786826
 10
805.0358673073054
 20
405.4719113453493
 10
805.0358673073054
 20
405.2954613453493
 10
805.0358673073054
 20
405.1778280120158
 10
805.0358673073054
 20
405.0601946786826
 10
805.0358673073054
 20
405.0013780120158
  0
LWPOLYLINE
  5
2121
330
19
100
AcDbEntity
  8
1
100
AcDbPolyline
 90
        2
 70
     0
 43
0.0
 10
813.0349339739721
 20
412.7357696786827
 10
805.0358673073054
 20
412.7357696786827
  0
LWPOLYLINE
  5
2122
330
19
100
AcDbEntity
  8
1
100
AcDbPolyline
 90
        4
 70
     0
 43
0.0
 10
814.7994339739721
 20
412.1181946786826
 10
814.2112673073054
 20
412.3240530120158
 10
813.6231006406385
 20
412.5299113453491
 10
813.0349339739721
 20
412.7357696786827
  0
LWPOLYLINE
  5
2123
330
19
100
AcDbEntity
  8
1
100
AcDbPolyline
 90
       21
 70
     0
 43
0.0
 10
814.7994339739721
 20
412.1181946786826
 10
814.7994339739721
 20
411.5888446786827
 10
814.7994339739721
 20
411.0594946786826
 10
814.7994339739721
 20
410.5301446786826
 10
814.7994339739721
 20
410.0302030120158
 10
814.7994339739721
 20
409.5302613453493
 10
814.7994339739721
 20
409.0597280120158
 10
814.7994339739721
 20
408.6186030120159
 10
814.7994339739721
 20
408.1774780120158
 10
814.7994339739721
 20
407.7363530120159
 10
814.7994339739721
 20
407.3540446786826
 10
814.7994339739721
 20
406.9717363453491
 10
814.7994339739721
 20
406.6482446786826
 10
814.7994339739721
 20
406.3247530120158
 10
814.7994339739721
 20
406.0600780120158
 10
814.7994339739721
 20
405.795403012016
 10
814.7994339739721
 20
405.5601363453493
 10
814.7994339739721
 20
405.3836863453494
 10
814.7994339739721
 20
405.2366446786826
 10
814.7994339739721
 20
405.1190113453493
 10
814.7994339739721
 20
405.0307863453493
  0
LWPOLYLINE
  5
2124
330
19
100
AcDbEntity
  8
1
100
AcDbPolyline
 90
       39
 70
     0
 43
0.0
 10
811.5645173073053
 20
407.8833946786826
 10
811.8586006406387
 20
407.824578012016
 10
812.152683973972
 20
407.824578012016
 10
812.6232173073054
 20
407.8833946786826
 10
812.6820339739719
 20
407.8833946786826
 10
812.9467089739719
 20
407.9716196786826
 10
813.1819756406386
 20
408.1186613453493
 10
813.387833973972
 20
408.2657030120158
 10
813.5642839739723
 20
408.4715613453493
 10
813.7113256406387
 20
408.6774196786826
 10
813.7995506406387
 20
408.9126863453493
 10
813.828958973972
 20
409.1479530120158
 10
813.828958973972
 20
409.4126280120158
 10
813.7701423073051
 20
409.6773030120158
 10
813.6819173073053
 20
409.9419780120158
 10
813.5348756406386
 20
410.2066530120159
 10
813.3584256406388
 20
410.4419196786825
 10
813.1231589739721
 20
410.6183696786827
 10
812.8584839739721
 20
410.7948196786826
 10
812.5644006406387
 20
410.9124530120157
 10
812.2703173073052
 20
410.9712696786827
 10
812.0056423073052
 20
410.9712696786827
 10
811.711558973972
 20
410.9418613453494
 10
811.4762923073053
 20
410.8536363453493
 10
811.2116173073053
 20
410.736003012016
 10
811.0057589739719
 20
410.5595530120158
 10
810.7999006406387
 20
410.383103012016
 10
810.6234506406387
 20
410.1478363453493
 10
810.476408973972
 20
409.8831613453493
 10
810.388183973972
 20
409.6184863453491
 10
810.3587756406387
 20
409.324403012016
 10
810.3587756406387
 20
409.0597280120158
 10
810.4175923073054
 20
408.7950530120158
 10
810.5352256406387
 20
408.5597863453493
 10
810.6822673073052
 20
408.3539280120158
 10
810.8881256406387
 20
408.1774780120158
 10
811.1233923073053
 20
408.0304363453493
 10
811.3292506406388
 20
407.9422113453493
 10
811.5645173073053
 20
407.8833946786826
  0
LWPOLYLINE
  5
2125
330
19
100
AcDbEntity
  8
1
100
AcDbPolyline
 90
        2
 70
     0
 43
0.0
 10
804.5359256406387
 20
420.3525280120159
 10
805.0358673073054
 20
421.2053696786826
  0
LWPOLYLINE
  5
2126
330
19
100
AcDbEntity
  8
1
100
AcDbPolyline
 90
        3
 70
     0
 43
0.0
 10
804.5359256406387
 20
420.3525280120159
 10
804.2712506406385
 20
419.823178012016
 10
804.035983973972
 20
419.2938280120158
  0
LWPOLYLINE
  5
2127
330
19
100
AcDbEntity
  8
1
100
AcDbPolyline
 90
        5
 70
     0
 43
0.0
 10
804.035983973972
 20
419.2938280120158
 10
804.035983973972
 20
419.3820530120158
 10
804.035983973972
 20
419.4702780120158
 10
804.035983973972
 20
419.4996863453493
 10
804.035983973972
 20
419.4996863453493
  0
LWPOLYLINE
  5
2128
330
19
100
AcDbEntity
  8
1
100
AcDbPolyline
 90
       26
 70
     0
 43
0.0
 10
804.035983973972
 20
406.7070613453493
 10
804.035983973972
 20
406.7070613453493
 10
804.035983973972
 20
406.7658780120158
 10
804.035983973972
 20
406.8246946786826
 10
804.035983973972
 20
406.942328012016
 10
804.035983973972
 20
407.0893696786826
 10
804.035983973972
 20
407.2658196786826
 10
804.035983973972
 20
407.471678012016
 10
804.035983973972
 20
407.7069446786826
 10
804.035983973972
 20
408.0010280120158
 10
804.035983973972
 20
408.2951113453494
 10
804.035983973972
 20
408.6186030120159
 10
804.035983973972
 20
408.9420946786827
 10
804.035983973972
 20
409.324403012016
 10
804.035983973972
 20
409.7067113453493
 10
804.035983973972
 20
410.1184280120158
 10
804.035983973972
 20
410.5301446786826
 10
804.035983973972
 20
410.9712696786827
 10
804.035983973972
 20
411.4123946786826
 10
804.035983973972
 20
411.8829280120158
 10
804.035983973972
 20
412.3534613453493
 10
804.035983973972
 20
412.8239946786826
 10
804.035983973972
 20
413.2945280120158
 10
804.035983973972
 20
413.7650613453493
 10
804.035983973972
 20
414.2061863453493
 10
804.035983973972
 20
414.6767196786826
  0
LWPOLYLINE
  5
2129
330
19
100
AcDbEntity
  8
1
100
AcDbPolyline
 90
        3
 70
     0
 43
0.0
 10
804.035983973972
 20
414.6767196786826
 10
804.2712506406385
 20
414.1179613453493
 10
804.5359256406387
 20
413.5886113453493
  0
LWPOLYLINE
  5
212A
330
19
100
AcDbEntity
  8
1
100
AcDbPolyline
 90
        2
 70
     0
 43
0.0
 10
805.0358673073054
 20
412.7357696786827
 10
804.5359256406387
 20
413.5886113453493
  0
LWPOLYLINE
  5
212B
330
19
100
AcDbEntity
  8
1
100
AcDbPolyline
 90
        7
 70
     0
 43
0.0
 10
804.7123756406389
 20
405.5601363453493
 10
804.6829673073052
 20
405.5601363453493
 10
804.7123756406389
 20
405.5307280120159
 10
804.8006006406387
 20
405.4130946786826
 10
804.8594173073054
 20
405.2954613453493
 10
804.9476423073055
 20
405.1778280120158
 10
805.0358673073054
 20
405.0013780120158
  0
LWPOLYLINE
  5
212C
330
19
100
AcDbEntity
  8
1
100
AcDbPolyline
 90
        2
 70
     0
 43
0.0
 10
813.1819756406386
 20
419.4702780120158
 10
815.5346423073051
 20
419.2350113453493
  0
LWPOLYLINE
  5
212D
330
19
100
AcDbEntity
  8
1
100
AcDbPolyline
 90
        2
 70
     0
 43
0.0
 10
815.5346423073051
 20
419.2350113453493
 10
815.5346423073051
 20
412.235828012016
  0
LWPOLYLINE
  5
212E
330
19
100
AcDbEntity
  8
1
100
AcDbPolyline
 90
        2
 70
     0
 43
0.0
 10
815.5346423073051
 20
412.235828012016
 10
814.7994339739721
 20
412.1181946786826
  0
LWPOLYLINE
  5
212F
330
19
100
AcDbEntity
  8
1
100
AcDbPolyline
 90
        2
 70
     0
 43
0.0
 10
813.0349339739721
 20
412.7357696786827
 10
813.0349339739721
 20
419.4114613453493
  0
LWPOLYLINE
  5
2130
330
19
100
AcDbEntity
  8
1
100
AcDbPolyline
 90
        4
 70
     0
 43
0.0
 10
813.0349339739721
 20
419.4114613453493
 10
813.0937506406388
 20
419.4408696786826
 10
813.1525673073053
 20
419.4408696786826
 10
813.1819756406386
 20
419.4702780120158
  0
LWPOLYLINE
  5
2131
330
19
100
AcDbEntity
  8
1
100
AcDbPolyline
 90
        2
 70
     0
 43
0.0
 10
805.888708973972
 20
415.3825196786827
 10
806.2122006406385
 20
415.3825196786827
  0
LWPOLYLINE
  5
2132
330
19
100
AcDbEntity
  8
1
100
AcDbPolyline
 90
        2
 70
     0
 43
0.0
 10
805.888708973972
 20
415.2942946786827
 10
805.888708973972
 20
415.3825196786827
  0
LWPOLYLINE
  5
2133
330
19
100
AcDbEntity
  8
1
100
AcDbPolyline
 90
        2
 70
     0
 43
0.0
 10
806.682733973972
 20
415.2942946786827
 10
805.888708973972
 20
415.2942946786827
  0
LWPOLYLINE
  5
2134
330
19
100
AcDbEntity
  8
1
100
AcDbPolyline
 90
        2
 70
     0
 43
0.0
 10
806.682733973972
 20
415.3825196786827
 10
806.682733973972
 20
415.2942946786827
  0
LWPOLYLINE
  5
2135
330
19
100
AcDbEntity
  8
1
100
AcDbPolyline
 90
        2
 70
     0
 43
0.0
 10
806.3592423073053
 20
415.3825196786827
 10
806.682733973972
 20
415.3825196786827
  0
LWPOLYLINE
  5
2136
330
19
100
AcDbEntity
  8
1
100
AcDbPolyline
 90
        2
 70
     0
 43
0.0
 10
806.3592423073053
 20
416.0000946786825
 10
806.3592423073053
 20
415.3825196786827
  0
LWPOLYLINE
  5
2137
330
19
100
AcDbEntity
  8
1
100
AcDbPolyline
 90
        2
 70
     0
 43
0.0
 10
806.2122006406385
 20
416.0000946786825
 10
806.3592423073053
 20
416.0000946786825
  0
LWPOLYLINE
  5
2138
330
19
100
AcDbEntity
  8
1
100
AcDbPolyline
 90
        2
 70
     0
 43
0.0
 10
806.2122006406385
 20
415.3825196786827
 10
806.2122006406385
 20
416.0000946786825
  0
LWPOLYLINE
  5
2139
330
19
100
AcDbEntity
  8
1
100
AcDbPolyline
 90
        2
 70
     0
 43
0.0
 10
804.5359256406387
 20
420.3525280120159
 10
804.5359256406387
 20
413.5886113453493
  0
LWPOLYLINE
  5
213A
330
19
100
AcDbEntity
  8
1
100
AcDbPolyline
 90
        2
 70
     0
 43
0.0
 10
805.0358673073054
 20
421.2053696786826
 10
808.6825006406387
 20
421.2053696786826
  0
LWPOLYLINE
  5
213B
330
19
100
AcDbEntity
  8
1
100
AcDbPolyline
 90
        2
 70
     0
 43
0.0
 10
808.6825006406387
 20
421.2053696786826
 10
808.6825006406387
 20
419.5290946786825
  0
LWPOLYLINE
  5
213C
330
19
100
AcDbEntity
  8
1
100
AcDbPolyline
 90
       46
 70
     0
 43
0.0
 10
810.6234506406387
 20
418.4409863453494
 10
810.7116756406387
 20
418.2351280120157
 10
810.7704923073054
 20
418.0292696786827
 10
810.7999006406387
 20
417.8234113453493
 10
810.7999006406387
 20
417.6175530120158
 10
810.7410839739722
 20
417.4116946786827
 10
810.6822673073052
 20
417.2352446786826
 10
810.564633973972
 20
417.0293863453493
 10
810.4175923073054
 20
416.8529363453493
 10
810.2705506406387
 20
416.6764863453493
 10
810.0646923073053
 20
416.5294446786827
 10
809.858833973972
 20
416.3824030120158
 10
809.6235673073053
 20
416.2647696786827
 10
809.3588923073053
 20
416.1765446786827
 10
809.0942173073054
 20
416.0883196786826
 10
808.8001339739721
 20
416.029503012016
 10
808.5060506406387
 20
416.0000946786825
 10
808.2119673073052
 20
416.0000946786825
 10
807.917883973972
 20
416.029503012016
 10
807.6532089739719
 20
416.0589113453493
 10
807.3591256406386
 20
416.1177280120158
 10
807.0944506406387
 20
416.2059530120158
 10
806.859183973972
 20
416.3235863453492
 10
806.6239173073054
 20
416.4412196786826
 10
806.418058973972
 20
416.5882613453493
 10
806.241608973972
 20
416.7647113453493
 10
806.0945673073053
 20
416.9411613453493
 10
805.9769339739721
 20
417.1176113453493
 10
805.8593006406386
 20
417.3234696786826
 10
805.8298923073053
 20
417.5293280120158
 10
805.8004839739718
 20
417.7351863453493
 10
805.8004839739718
 20
417.9410446786826
 10
805.8593006406386
 20
418.1469030120158
 10
805.9181173073053
 20
418.3527613453493
 10
806.0357506406385
 20
418.5292113453493
 10
806.1827923073051
 20
418.7056613453493
 10
806.3592423073053
 20
418.8821113453493
 10
806.5356923073053
 20
419.0291530120158
 10
806.770958973972
 20
419.1761946786827
 10
807.0062256406387
 20
419.2938280120158
 10
807.2709006406387
 20
419.3820530120158
 10
807.5355756406388
 20
419.4408696786826
 10
807.829658973972
 20
419.4996863453493
 10
808.1237423073053
 20
419.5290946786825
 10
808.4178256406387
 20
419.5290946786825
 10
808.6825006406387
 20
419.4996863453493
  0
LWPOLYLINE
  5
213D
330
19
100
AcDbEntity
  8
1
100
AcDbPolyline
 90
        2
 70
     0
 43
0.0
 10
810.6234506406387
 20
418.4409863453494
 10
812.417358973972
 20
419.1467863453493
  0
LWPOLYLINE
  5
213E
330
19
100
AcDbEntity
  8
1
100
AcDbPolyline
 90
        4
 70
     0
 43
0.0
 10
812.417358973972
 20
419.1467863453493
 10
812.6232173073054
 20
419.2350113453493
 10
812.8584839739721
 20
419.3232363453494
 10
813.0349339739721
 20
419.4114613453493
  0
LWPOLYLINE
  5
213F
330
19
100
AcDbEntity
  8
1
100
AcDbPolyline
 90
        5
 70
     0
 43
0.0
 10
810.0646923073053
 20
415.6177863453494
 10
809.9764673073051
 20
415.6471946786827
 10
809.9176506406386
 20
415.7060113453493
 10
809.8882423073053
 20
415.7354196786826
 10
809.858833973972
 20
415.7942363453493
  0
LWPOLYLINE
  5
2140
330
19
100
AcDbEntity
  8
1
100
AcDbPolyline
 90
        4
 70
     0
 43
0.0
 10
809.9176506406386
 20
415.4707446786826
 10
809.9176506406386
 20
415.5295613453493
 10
809.947058973972
 20
415.5883780120158
 10
810.0646923073053
 20
415.6177863453494
  0
LWPOLYLINE
  5
2141
330
19
100
AcDbEntity
  8
1
100
AcDbPolyline
 90
        5
 70
     0
 43
0.0
 10
810.2411423073052
 20
415.2942946786827
 10
810.0941006406387
 20
415.2942946786827
 10
809.9764673073051
 20
415.3531113453493
 10
809.9176506406386
 20
415.411928012016
 10
809.9176506406386
 20
415.4707446786826
  0
LWPOLYLINE
  5
2142
330
19
100
AcDbEntity
  8
1
100
AcDbPolyline
 90
        2
 70
     0
 43
0.0
 10
810.5940423073054
 20
415.2942946786827
 10
810.2411423073052
 20
415.2942946786827
  0
LWPOLYLINE
  5
2143
330
19
100
AcDbEntity
  8
1
100
AcDbPolyline
 90
        2
 70
     0
 43
0.0
 10
810.5940423073054
 20
416.0000946786825
 10
810.5940423073054
 20
415.2942946786827
  0
LWPOLYLINE
  5
2144
330
19
100
AcDbEntity
  8
1
100
AcDbPolyline
 90
        2
 70
     0
 43
0.0
 10
810.2411423073052
 20
416.0000946786825
 10
810.5940423073054
 20
416.0000946786825
  0
LWPOLYLINE
  5
2145
330
19
100
AcDbEntity
  8
1
100
AcDbPolyline
 90
        6
 70
     0
 43
0.0
 10
809.858833973972
 20
415.7942363453493
 10
809.8882423073053
 20
415.8530530120158
 10
809.9176506406386
 20
415.941278012016
 10
810.0058756406387
 20
415.9706863453493
 10
810.123508973972
 20
416.0000946786825
 10
810.2411423073052
 20
416.0000946786825
  0
LWPOLYLINE
  5
2146
330
19
100
AcDbEntity
  8
1
100
AcDbPolyline
 90
        3
 70
     0
 43
0.0
 10
814.7994339739721
 20
405.0307863453493
 10
814.8876589739721
 20
405.0896030120158
 10
815.5346423073051
 20
405.4719113453493
  0
LWPOLYLINE
  5
2147
330
19
100
AcDbEntity
  8
1
100
AcDbPolyline
 90
       20
 70
     0
 43
0.0
 10
815.5346423073051
 20
412.235828012016
 10
815.5346423073051
 20
411.7064780120158
 10
815.5346423073051
 20
411.1771280120158
 10
815.5346423073051
 20
410.6771863453493
 10
815.5346423073051
 20
410.1772446786826
 10
815.5346423073051
 20
409.6773030120158
 10
815.5346423073051
 20
409.2067696786826
 10
815.5346423073051
 20
408.7362363453491
 10
815.5346423073051
 20
408.3245196786826
 10
815.5346423073051
 20
407.9128030120158
 10
815.5346423073051
 20
407.5304946786826
 10
815.5346423073051
 20
407.1775946786827
 10
815.5346423073051
 20
406.8246946786826
 10
815.5346423073051
 20
406.5306113453493
 10
815.5346423073051
 20
406.2659363453493
 10
815.5346423073051
 20
406.0306696786827
 10
815.5346423073051
 20
405.8542196786826
 10
815.5346423073051
 20
405.6777696786826
 10
815.5346423073051
 20
405.5601363453493
 10
815.5346423073051
 20
405.4719113453493
  0
LWPOLYLINE
  5
2148
330
19
100
AcDbEntity
  8
1
100
AcDbPolyline
 90
        8
 70
     0
 43
0.0
 10
812.0938673073053
 20
409.6773030120158
 10
812.329133973972
 20
409.6773030120158
 10
812.5644006406387
 20
409.7361196786826
 10
812.7996673073052
 20
409.7949363453493
 10
813.0349339739721
 20
409.8831613453493
 10
813.2113839739718
 20
410.0007946786826
 10
813.387833973972
 20
410.1184280120158
 10
813.5054673073053
 20
410.2360613453493
  0
LWPOLYLINE
  5
2149
330
19
100
AcDbEntity
  8
1
100
AcDbPolyline
 90
        8
 70
     0
 43
0.0
 10
810.6822673073052
 20
410.2360613453493
 10
810.7999006406387
 20
410.1184280120158
 10
810.9763506406386
 20
410.0007946786826
 10
811.1528006406386
 20
409.8831613453493
 10
811.3880673073053
 20
409.7949363453493
 10
811.623333973972
 20
409.7361196786826
 10
811.8586006406387
 20
409.6773030120158
 10
812.0938673073053
 20
409.6773030120158
  0
LWPOLYLINE
  5
214A
330
19
100
AcDbEntity
  8
1
100
AcDbPolyline
 90
        2
 70
     0
 43
0.0
 10
804.035983973972
 20
414.6767196786826
 10
804.035983973972
 20
416.823528012016
  0
LWPOLYLINE
  5
214B
330
19
100
AcDbEntity
  8
1
100
AcDbPolyline
 90
        4
 70
     0
 43
0.0
 10
804.035983973972
 20
416.823528012016
 10
804.0065756406388
 20
416.911753012016
 10
804.0065756406388
 20
417.0293863453493
 10
804.035983973972
 20
417.1470196786827
  0
LWPOLYLINE
  5
214C
330
19
100
AcDbEntity
  8
1
100
AcDbPolyline
 90
        2
 70
     0
 43
0.0
 10
804.035983973972
 20
417.1470196786827
 10
804.035983973972
 20
419.2938280120158
  0
LWPOLYLINE
  5
214D
330
19
100
AcDbEntity
  8
1
100
AcDbPolyline
 90
        8
 70
     0
 43
0.0
 10
812.0938673073053
 20
410.0596113453494
 10
812.2997256406387
 20
410.0596113453494
 10
812.5055839739722
 20
410.1184280120158
 10
812.6820339739719
 20
410.1772446786826
 10
812.8584839739721
 20
410.2654696786826
 10
813.0055256406388
 20
410.383103012016
 10
813.1525673073053
 20
410.5007363453493
 10
813.2113839739718
 20
410.5595530120158
  0
LWPOLYLINE
  5
214E
330
19
100
AcDbEntity
  8
1
100
AcDbPolyline
 90
        8
 70
     0
 43
0.0
 10
810.9763506406386
 20
410.5595530120158
 10
811.0351673073052
 20
410.5007363453493
 10
811.1822089739719
 20
410.383103012016
 10
811.3292506406388
 20
410.2654696786826
 10
811.5057006406384
 20
410.1772446786826
 10
811.6821506406386
 20
410.1184280120158
 10
811.888008973972
 20
410.0596113453494
 10
812.0938673073053
 20
410.0596113453494
  0
LWPOLYLINE
  5
214F
330
19
100
AcDbEntity
  8
1
100
AcDbPolyline
 90
       40
 70
     0
 43
0.0
 10
802.6832006406387
 20
407.9422113453493
 10
802.6832006406387
 20
407.9716196786826
 10
802.6832006406387
 20
408.0010280120158
 10
802.6832006406387
 20
408.0892530120157
 10
802.6832006406387
 20
408.2068863453493
 10
802.6832006406387
 20
408.3539280120158
 10
802.6832006406387
 20
408.5597863453493
 10
802.6832006406387
 20
408.7656446786826
 10
802.6832006406387
 20
409.0009113453493
 10
802.6832006406387
 20
409.2655863453493
 10
802.6832006406387
 20
409.5596696786826
 10
802.6832006406387
 20
409.8831613453493
 10
802.6832006406387
 20
410.2360613453493
 10
802.6832006406387
 20
410.5889613453493
 10
802.6832006406387
 20
410.9712696786827
 10
802.6832006406387
 20
411.353578012016
 10
802.6832006406387
 20
411.7358863453493
 10
802.6832006406387
 20
412.147603012016
 10
802.6832006406387
 20
412.5593196786826
 10
802.6832006406387
 20
413.0004446786826
 10
802.6832006406387
 20
413.4121613453491
 10
802.6832006406387
 20
413.8238780120158
 10
802.6832006406387
 20
414.2355946786826
 10
802.6832006406387
 20
414.6473113453494
 10
802.6832006406387
 20
415.0296196786826
 10
802.6832006406387
 20
415.411928012016
 10
802.6832006406387
 20
415.7942363453493
 10
802.6832006406387
 20
416.1471363453493
 10
802.6832006406387
 20
416.4706280120157
 10
802.6832006406387
 20
416.7647113453493
 10
802.6832006406387
 20
417.0587946786826
 10
802.6832006406387
 20
417.3234696786826
 10
802.6832006406387
 20
417.5293280120158
 10
802.6832006406387
 20
417.7351863453493
 10
802.6832006406387
 20
417.9116363453493
 10
802.6832006406387
 20
418.0292696786827
 10
802.6832006406387
 20
418.1469030120158
 10
802.6832006406387
 20
418.2057196786827
 10
802.6832006406387
 20
418.2351280120157
 10
802.6832006406387
 20
418.2351280120157
  0
LWPOLYLINE
  5
2150
330
19
100
AcDbEntity
  8
1
100
AcDbPolyline
 90
       21
 70
     0
 43
0.0
 10
803.0361006406387
 20
413.0886696786825
 10
803.0361006406387
 20
413.5297946786826
 10
803.0361006406387
 20
413.9709196786825
 10
803.0361006406387
 20
414.3826363453493
 10
803.0361006406387
 20
414.8237613453493
 10
803.0361006406387
 20
415.2354780120158
 10
803.0361006406387
 20
415.6177863453494
 10
803.0361006406387
 20
416.0000946786825
 10
803.0361006406387
 20
416.3529946786826
 10
803.0361006406387
 20
416.7058946786826
 10
803.0361006406387
 20
417.0293863453493
 10
803.0361006406387
 20
417.3234696786826
 10
803.0361006406387
 20
417.5881446786826
 10
803.0361006406387
 20
417.8234113453493
 10
803.0361006406387
 20
418.0292696786827
 10
803.0361006406387
 20
418.2057196786827
 10
803.0361006406387
 20
418.3527613453493
 10
803.0361006406387
 20
418.4703946786826
 10
803.0361006406387
 20
418.5586196786826
 10
803.0361006406387
 20
418.588028012016
 10
803.0361006406387
 20
418.588028012016
  0
LWPOLYLINE
  5
2151
330
19
100
AcDbEntity
  8
1
100
AcDbPolyline
 90
       21
 70
     0
 43
0.0
 10
803.0361006406387
 20
407.5893113453493
 10
803.0361006406387
 20
407.6187196786824
 10
803.0361006406387
 20
407.6481280120158
 10
803.0361006406387
 20
407.7363530120159
 10
803.0361006406387
 20
407.824578012016
 10
803.0361006406387
 20
407.9716196786826
 10
803.0361006406387
 20
408.1480696786826
 10
803.0361006406387
 20
408.3833363453493
 10
803.0361006406387
 20
408.6186030120159
 10
803.0361006406387
 20
408.8832780120158
 10
803.0361006406387
 20
409.1773613453494
 10
803.0361006406387
 20
409.5008530120159
 10
803.0361006406387
 20
409.8243446786827
 10
803.0361006406387
 20
410.1772446786826
 10
803.0361006406387
 20
410.5595530120158
 10
803.0361006406387
 20
410.9712696786827
 10
803.0361006406387
 20
411.3829863453493
 10
803.0361006406387
 20
411.7947030120157
 10
803.0361006406387
 20
412.235828012016
 10
803.0361006406387
 20
412.6475446786826
 10
803.0361006406387
 20
413.0886696786825
  0
LWPOLYLINE
  5
2152
330
19
100
AcDbEntity
  8
1
100
AcDbPolyline
 90
        2
 70
     0
 43
0.0
 10
810.2705506406387
 20
415.2942946786827
 10
810.2705506406387
 20
415.3825196786827
  0
LWPOLYLINE
  5
2153
330
19
100
AcDbEntity
  8
1
100
AcDbPolyline
 90
        2
 70
     0
 43
0.0
 10
810.2705506406387
 20
415.3825196786827
 10
810.476408973972
 20
415.3825196786827
  0
LWPOLYLINE
  5
2154
330
19
100
AcDbEntity
  8
1
100
AcDbPolyline
 90
        2
 70
     0
 43
0.0
 10
810.476408973972
 20
415.2942946786827
 10
810.476408973972
 20
415.3825196786827
  0
LWPOLYLINE
  5
2155
330
19
100
AcDbEntity
  8
1
100
AcDbPolyline
 90
        6
 70
     0
 43
0.0
 10
810.0352839739723
 20
415.5001530120158
 10
810.0646923073053
 20
415.4413363453492
 10
810.0941006406387
 20
415.411928012016
 10
810.123508973972
 20
415.3825196786827
 10
810.1823256406387
 20
415.3825196786827
 10
810.2705506406387
 20
415.3825196786827
  0
LWPOLYLINE
  5
2156
330
19
100
AcDbEntity
  8
1
100
AcDbPolyline
 90
        4
 70
     0
 43
0.0
 10
810.1529173073053
 20
415.5883780120158
 10
810.0941006406387
 20
415.5589696786826
 10
810.0646923073053
 20
415.5295613453493
 10
810.0352839739723
 20
415.5001530120158
  0
LWPOLYLINE
  5
2157
330
19
100
AcDbEntity
  8
1
100
AcDbPolyline
 90
        3
 70
     0
 43
0.0
 10
810.2705506406387
 20
415.5883780120158
 10
810.1823256406387
 20
415.5883780120158
 10
810.1529173073053
 20
415.5883780120158
  0
LWPOLYLINE
  5
2158
330
19
100
AcDbEntity
  8
1
100
AcDbPolyline
 90
        2
 70
     0
 43
0.0
 10
810.476408973972
 20
415.5883780120158
 10
810.2705506406387
 20
415.5883780120158
  0
LWPOLYLINE
  5
2159
330
19
100
AcDbEntity
  8
1
100
AcDbPolyline
 90
        2
 70
     0
 43
0.0
 10
810.476408973972
 20
415.3825196786827
 10
810.476408973972
 20
415.5883780120158
  0
LWPOLYLINE
  5
215A
330
19
100
AcDbEntity
  8
1
100
AcDbPolyline
 90
        2
 70
     0
 43
0.0
 10
810.0352839739723
 20
415.3531113453493
 10
810.0352839739723
 20
415.5001530120158
  0
LWPOLYLINE
  5
215B
330
19
100
AcDbEntity
  8
1
100
AcDbPolyline
 90
        2
 70
     0
 43
0.0
 10
806.3592423073053
 20
415.2942946786827
 10
806.3592423073053
 20
415.3825196786827
  0
LWPOLYLINE
  5
215C
330
19
100
AcDbEntity
  8
1
100
AcDbPolyline
 90
        2
 70
     0
 43
0.0
 10
806.2122006406385
 20
415.2942946786827
 10
806.2122006406385
 20
415.3825196786827
  0
LWPOLYLINE
  5
215D
330
19
100
AcDbEntity
  8
1
100
AcDbPolyline
 90
        3
 70
     0
 43
0.0
 10
809.9176506406386
 20
415.411928012016
 10
809.947058973972
 20
415.4413363453492
 10
810.0646923073053
 20
415.5001530120158
  0
LWPOLYLINE
  5
215E
330
19
100
AcDbEntity
  8
1
100
AcDbPolyline
 90
        4
 70
     0
 43
0.0
 10
809.8882423073053
 20
415.7354196786826
 10
809.9176506406386
 20
415.7942363453493
 10
810.0058756406387
 20
415.8236446786826
 10
810.0058756406387
 20
415.8236446786826
  0
LWPOLYLINE
  5
215F
330
19
100
AcDbEntity
  8
1
100
AcDbPolyline
 90
        2
 70
     0
 43
0.0
 10
810.476408973972
 20
415.8530530120158
 10
810.5940423073054
 20
415.8530530120158
  0
LWPOLYLINE
  5
2160
330
19
100
AcDbEntity
  8
1
100
AcDbPolyline
 90
        2
 70
     0
 43
0.0
 10
810.0646923073053
 20
415.5589696786826
 10
810.0646923073053
 20
415.5589696786826
  0
LWPOLYLINE
  5
2161
330
19
100
AcDbEntity
  8
1
100
AcDbPolyline
 90
        2
 70
     0
 43
0.0
 10
806.2122006406385
 20
415.8530530120158
 10
806.3592423073053
 20
415.8530530120158
  0
LWPOLYLINE
  5
2162
330
19
100
AcDbEntity
  8
1
100
AcDbPolyline
 90
        2
 70
     0
 43
0.0
 10
810.0646923073053
 20
415.5001530120158
 10
810.0646923073053
 20
415.6177863453494
  0
LWPOLYLINE
  5
2163
330
19
100
AcDbEntity
  8
1
100
AcDbPolyline
 90
        2
 70
     0
 43
0.0
 10
810.2411423073052
 20
415.5883780120158
 10
810.2411423073052
 20
415.6766030120158
  0
LWPOLYLINE
  5
2164
330
19
100
AcDbEntity
  8
1
100
AcDbPolyline
 90
        2
 70
     0
 43
0.0
 10
810.0058756406387
 20
415.6471946786827
 10
810.0058756406387
 20
415.7942363453493
  0
LWPOLYLINE
  5
2165
330
19
100
AcDbEntity
  8
1
100
AcDbPolyline
 90
        6
 70
     0
 43
0.0
 10
810.0058756406387
 20
415.7942363453493
 10
810.0352839739723
 20
415.7354196786826
 10
810.0352839739723
 20
415.7060113453493
 10
810.0941006406387
 20
415.7060113453493
 10
810.1529173073053
 20
415.6766030120158
 10
810.2411423073052
 20
415.6766030120158
  0
LWPOLYLINE
  5
2166
330
19
100
AcDbEntity
  8
1
100
AcDbPolyline
 90
        5
 70
     0
 43
0.0
 10
810.1529173073053
 20
415.9118696786826
 10
810.0941006406387
 20
415.9118696786826
 10
810.0352839739723
 20
415.8530530120158
 10
810.0058756406387
 20
415.8236446786826
 10
810.0058756406387
 20
415.7942363453493
  0
LWPOLYLINE
  5
2167
330
19
100
AcDbEntity
  8
1
100
AcDbPolyline
 90
        3
 70
     0
 43
0.0
 10
810.2411423073052
 20
415.9118696786826
 10
810.1823256406387
 20
415.9118696786826
 10
810.1529173073053
 20
415.9118696786826
  0
LWPOLYLINE
  5
2168
330
19
100
AcDbEntity
  8
1
100
AcDbPolyline
 90
        2
 70
     0
 43
0.0
 10
810.476408973972
 20
415.9118696786826
 10
810.2411423073052
 20
415.9118696786826
  0
LWPOLYLINE
  5
2169
330
19
100
AcDbEntity
  8
1
100
AcDbPolyline
 90
        2
 70
     0
 43
0.0
 10
810.476408973972
 20
415.6766030120158
 10
810.476408973972
 20
415.9118696786826
  0
LWPOLYLINE
  5
216A
330
19
100
AcDbEntity
  8
1
100
AcDbPolyline
 90
        2
 70
     0
 43
0.0
 10
810.2411423073052
 20
415.6766030120158
 10
810.476408973972
 20
415.6766030120158
  0
LWPOLYLINE
  5
216B
330
19
100
AcDbEntity
  8
1
100
AcDbPolyline
 90
        2
 70
     0
 43
0.0
 10
810.476408973972
 20
415.5883780120158
 10
810.476408973972
 20
415.6766030120158
  0
LWPOLYLINE
  5
216C
330
19
100
AcDbEntity
  8
1
100
AcDbPolyline
 90
        2
 70
     0
 43
0.0
 10
810.2411423073052
 20
415.9118696786826
 10
810.2411423073052
 20
416.0000946786825
  0
LWPOLYLINE
  5
216D
330
19
100
AcDbEntity
  8
SK1
100
AcDbPolyline
 90
        5
 70
     0
 43
0.0
 10
801.6245006406387
 20
409.589078012016
 10
801.6245006406387
 20
409.6184863453491
 10
801.6245006406387
 20
409.6478946786826
 10
801.6245006406387
 20
409.7361196786826
 10
801.6245006406387
 20
409.8243446786827
  0
LWPOLYLINE
  5
216E
330
19
100
AcDbEntity
  8
SK1
100
AcDbPolyline
 90
       19
 70
     0
 43
0.0
 10
801.6245006406387
 20
412.4710946786827
 10
801.6245006406387
 20
412.8239946786826
 10
801.6245006406387
 20
413.1768946786825
 10
801.6245006406387
 20
413.5297946786826
 10
801.6245006406387
 20
413.8826946786826
 10
801.6245006406387
 20
414.2355946786826
 10
801.6245006406387
 20
414.5590863453493
 10
801.6245006406387
 20
414.882578012016
 10
801.6245006406387
 20
415.1766613453493
 10
801.6245006406387
 20
415.4707446786826
 10
801.6245006406387
 20
415.7060113453493
 10
801.6245006406387
 20
415.941278012016
 10
801.6245006406387
 20
416.1177280120158
 10
801.6245006406387
 20
416.294178012016
 10
801.6245006406387
 20
416.4118113453493
 10
801.6245006406387
 20
416.5294446786827
 10
801.6245006406387
 20
416.5882613453493
 10
801.6245006406387
 20
416.5882613453493
 10
801.6245006406387
 20
416.5882613453493
  0
LWPOLYLINE
  5
216F
330
19
100
AcDbEntity
  8
SK1
100
AcDbPolyline
 90
        3
 70
     0
 43
0.0
 10
801.6245006406387
 20
412.4710946786827
 10
801.5656839739719
 20
412.500503012016
 10
801.124558973972
 20
412.6475446786826
  0
LWPOLYLINE
  5
2170
330
19
100
AcDbEntity
  8
SK1
100
AcDbPolyline
 90
        4
 70
     0
 43
0.0
 10
801.124558973972
 20
412.6475446786826
 10
800.9187006406387
 20
412.6769530120157
 10
800.8304756406387
 20
412.6769530120157
 10
800.5658006406386
 20
412.6475446786826
  0
LWPOLYLINE
  5
2171
330
19
100
AcDbEntity
  8
SK1
100
AcDbPolyline
 90
       13
 70
     0
 43
0.0
 10
800.5658006406386
 20
412.6475446786826
 10
800.506983973972
 20
412.6475446786826
 10
800.2717173073053
 20
412.5593196786826
 10
800.0364506406386
 20
412.4416863453493
 10
799.801183973972
 20
412.2946446786825
 10
799.6247339739722
 20
412.1181946786826
 10
799.4776923073053
 20
411.9123363453493
 10
799.3894673073052
 20
411.6770696786826
 10
799.3306506406387
 20
411.4712113453493
 10
799.3306506406387
 20
411.2947613453493
 10
799.360058973972
 20
411.1183113453493
 10
799.3894673073052
 20
410.9712696786827
 10
799.5071006406387
 20
410.8536363453493
  0
LWPOLYLINE
  5
2172
330
19
100
AcDbEntity
  8
SK1
100
AcDbPolyline
 90
       34
 70
     0
 43
0.0
 10
791.6844839739718
 20
416.5882613453493
 10
791.6844839739718
 20
416.5882613453493
 10
791.6844839739718
 20
416.5588530120158
 10
791.6844839739718
 20
416.5000363453494
 10
791.6844839739718
 20
416.4118113453493
 10
791.6844839739718
 20
416.294178012016
 10
791.6844839739718
 20
416.1177280120158
 10
791.6844839739718
 20
415.941278012016
 10
791.6844839739718
 20
415.7354196786826
 10
791.6844839739718
 20
415.4707446786826
 10
791.6844839739718
 20
415.2060696786826
 10
791.6844839739718
 20
414.9119863453493
 10
791.6844839739718
 20
414.6179030120158
 10
791.6844839739718
 20
414.2944113453493
 10
791.6844839739718
 20
413.9709196786825
 10
791.6844839739718
 20
413.6180196786827
 10
791.6844839739718
 20
413.2651196786826
 10
791.6844839739718
 20
412.9122196786826
 10
791.6844839739718
 20
412.5887280120158
 10
791.6844839739718
 20
412.235828012016
 10
791.6844839739718
 20
411.9123363453493
 10
791.6844839739718
 20
411.5888446786827
 10
791.6844839739718
 20
411.265353012016
 10
791.6844839739718
 20
410.9712696786827
 10
791.6844839739718
 20
410.7065946786827
 10
791.6844839739718
 20
410.471328012016
 10
791.6844839739718
 20
410.2654696786826
 10
791.6844839739718
 20
410.0596113453494
 10
791.6844839739718
 20
409.9125696786826
 10
791.6844839739718
 20
409.7655280120158
 10
791.6844839739718
 20
409.6773030120158
 10
791.6844839739718
 20
409.6184863453491
 10
791.6844839739718
 20
409.589078012016
 10
791.6844839739718
 20
409.589078012016
  0
LWPOLYLINE
  5
2173
330
19
100
AcDbEntity
  8
SK1
100
AcDbPolyline
 90
       17
 70
     0
 43
0.0
 10
791.1845423073055
 20
413.0886696786825
 10
791.1845423073055
 20
413.4415696786826
 10
791.1845423073055
 20
413.7650613453493
 10
791.1845423073055
 20
414.0591446786826
 10
791.1845423073055
 20
414.3826363453493
 10
791.1845423073055
 20
414.6767196786826
 10
791.1845423073055
 20
414.9708030120158
 10
791.1845423073055
 20
415.2060696786826
 10
791.1845423073055
 20
415.4413363453492
 10
791.1845423073055
 20
415.6766030120158
 10
791.1845423073055
 20
415.8530530120158
 10
791.1845423073055
 20
416.0000946786825
 10
791.1845423073055
 20
416.1177280120158
 10
791.1845423073055
 20
416.2353613453493
 10
791.1845423073055
 20
416.294178012016
 10
791.1845423073055
 20
416.294178012016
 10
791.1845423073055
 20
416.3235863453492
  0
LWPOLYLINE
  5
2174
330
19
100
AcDbEntity
  8
SK1
100
AcDbPolyline
 90
       17
 70
     0
 43
0.0
 10
791.1845423073055
 20
409.8831613453493
 10
791.1845423073055
 20
409.8831613453493
 10
791.1845423073055
 20
409.9125696786826
 10
791.1845423073055
 20
409.9713863453493
 10
791.1845423073055
 20
410.0596113453494
 10
791.1845423073055
 20
410.1772446786826
 10
791.1845423073055
 20
410.3536946786826
 10
791.1845423073055
 20
410.5301446786826
 10
791.1845423073055
 20
410.736003012016
 10
791.1845423073055
 20
410.9712696786827
 10
791.1845423073055
 20
411.2359446786826
 10
791.1845423073055
 20
411.5006196786826
 10
791.1845423073055
 20
411.8241113453493
 10
791.1845423073055
 20
412.1181946786826
 10
791.1845423073055
 20
412.4416863453493
 10
791.1845423073055
 20
412.7651780120158
 10
791.1845423073055
 20
413.0886696786825
  0
LWPOLYLINE
  5
2175
330
19
100
AcDbEntity
  8
SK1
100
AcDbPolyline
 90
       11
 70
     0
 43
0.0
 10
799.5071006406387
 20
411.265353012016
 10
799.4776923073053
 20
411.3829863453493
 10
799.4776923073053
 20
411.5888446786827
 10
799.5071006406387
 20
411.7652946786826
 10
799.5953256406387
 20
411.9417446786826
 10
799.6835506406386
 20
412.1181946786826
 10
799.801183973972
 20
412.2652363453493
 10
799.977633973972
 20
412.3828696786826
 10
800.1540839739721
 20
412.500503012016
 10
800.3599423073053
 20
412.5887280120158
 10
800.5658006406386
 20
412.6475446786826
  0
LWPOLYLINE
  5
2176
330
19
100
AcDbEntity
  8
SK1
100
AcDbPolyline
 90
        4
 70
     0
 43
0.0
 10
801.9774006406388
 20
412.147603012016
 10
801.8303589739721
 20
412.2946446786825
 10
801.6833173073052
 20
412.4416863453493
 10
801.6245006406387
 20
412.4710946786827
  0
LWPOLYLINE
  5
2177
330
19
100
AcDbEntity
  8
SK1
100
AcDbPolyline
 90
        2
 70
     0
 43
0.0
 10
802.1538506406384
 20
411.8829280120158
 10
801.9774006406388
 20
412.147603012016
  0
LWPOLYLINE
  5
2178
330
19
100
AcDbEntity
  8
SK1
100
AcDbPolyline
 90
        5
 70
     0
 43
0.0
 10
802.183258973972
 20
411.1771280120158
 10
802.2420756406386
 20
411.2947613453493
 10
802.2420756406386
 20
411.4418030120158
 10
802.2420756406386
 20
411.618253012016
 10
802.1538506406384
 20
411.8829280120158
  0
LWPOLYLINE
  5
2179
330
19
100
AcDbEntity
  8
SK1
100
AcDbPolyline
 90
       11
 70
     0
 43
0.0
 10
801.124558973972
 20
412.6475446786826
 10
801.3304173073054
 20
412.5887280120158
 10
801.5362756406386
 20
412.500503012016
 10
801.7127256406388
 20
412.3828696786826
 10
801.8597673073053
 20
412.2652363453493
 10
802.0068089739718
 20
412.1181946786826
 10
802.0950339739719
 20
411.9417446786826
 10
802.183258973972
 20
411.7652946786826
 10
802.2126673073053
 20
411.5888446786827
 10
802.2126673073053
 20
411.3829863453493
 10
802.183258973972
 20
411.265353012016
  0
LWPOLYLINE
  5
217A
330
19
100
AcDbEntity
  8
1
100
AcDbPolyline
 90
        8
 70
     0
 43
0.0
 10
810.9469423073052
 20
419.205603012016
 10
810.6822673073052
 20
419.205603012016
 10
810.388183973972
 20
419.2350113453493
 10
810.123508973972
 20
419.2350113453493
 10
809.858833973972
 20
419.2644196786826
 10
809.6235673073053
 20
419.2938280120158
 10
809.4177089739719
 20
419.3232363453494
 10
809.2706673073053
 20
419.3526446786826
  0
LWPOLYLINE
  5
217B
330
19
100
AcDbEntity
  8
1
100
AcDbPolyline
 90
        8
 70
     0
 43
0.0
 10
810.9469423073052
 20
419.205603012016
 10
810.9763506406386
 20
419.0291530120158
 10
811.0351673073052
 20
418.940928012016
 10
811.0939839739721
 20
418.852703012016
 10
811.2116173073053
 20
418.8232946786826
 10
811.3586589739721
 20
418.8232946786826
 10
811.623333973972
 20
418.8821113453493
 10
812.0056423073052
 20
419.0291530120158
  0
LWPOLYLINE
  5
217C
330
19
100
AcDbEntity
  8
1
100
AcDbPolyline
 90
        2
 70
     0
 43
0.0
 10
812.0056423073052
 20
419.0291530120158
 10
812.5938089739721
 20
419.3232363453494
  0
LWPOLYLINE
  5
217D
330
19
100
AcDbEntity
  8
1
100
AcDbPolyline
 90
        4
 70
     0
 43
0.0
 10
813.0055256406388
 20
419.3820530120158
 10
812.9761173073053
 20
419.3820530120158
 10
812.7996673073052
 20
419.3526446786826
 10
812.5938089739721
 20
419.3232363453494
  0
LWPOLYLINE
  5
217E
330
19
100
AcDbEntity
  8
1
100
AcDbPolyline
 90
       11
 70
     0
 43
0.0
 10
811.2116173073053
 20
410.7065946786827
 10
811.2998423073054
 20
410.6477780120158
 10
811.4762923073053
 20
410.5595530120158
 10
811.6527423073053
 20
410.5007363453493
 10
811.8586006406387
 20
410.4419196786825
 10
812.064458973972
 20
410.4419196786825
 10
812.2703173073052
 20
410.4419196786825
 10
812.4761756406387
 20
410.471328012016
 10
812.6526256406387
 20
410.5301446786826
 10
812.8290756406387
 20
410.6183696786827
 10
812.9761173073053
 20
410.7065946786827
  0
LWPOLYLINE
  5
217F
330
19
100
AcDbEntity
  8
1
100
AcDbPolyline
 90
        2
 70
     0
 43
0.0
 10
811.623333973972
 20
410.9124530120157
 10
812.240908973972
 20
410.736003012016
  0
LWPOLYLINE
  5
2180
330
19
100
AcDbEntity
  8
1
100
AcDbPolyline
 90
        2
 70
     0
 43
0.0
 10
812.240908973972
 20
410.736003012016
 10
812.5349923073054
 20
410.9124530120157
  0
LWPOLYLINE
  5
2181
330
19
100
AcDbEntity
  8
1
100
AcDbPolyline
 90
        2
 70
     0
 43
0.0
 10
812.240908973972
 20
410.9712696786827
 10
812.240908973972
 20
410.736003012016
  0
LWPOLYLINE
  5
2182
330
19
100
AcDbEntity
  8
1
100
AcDbPolyline
 90
        2
 70
     0
 43
0.0
 10
815.7110923073053
 20
419.6173196786826
 10
815.7110923073053
 20
418.1763113453492
  0
LWPOLYLINE
  5
2183
330
19
100
AcDbEntity
  8
1
100
AcDbPolyline
 90
        2
 70
     0
 43
0.0
 10
815.7110923073053
 20
418.1763113453492
 10
815.5346423073051
 20
418.1763113453492
  0
LWPOLYLINE
  5
2184
330
19
100
AcDbEntity
  8
1
100
AcDbPolyline
 90
        2
 70
     0
 43
0.0
 10
808.7119089739719
 20
419.5290946786825
 10
808.7119089739719
 20
419.5879113453493
  0
LWPOLYLINE
  5
2185
330
19
100
AcDbEntity
  8
1
100
AcDbPolyline
 90
        2
 70
     0
 43
0.0
 10
808.7119089739719
 20
419.5879113453493
 10
815.7110923073053
 20
419.6173196786826
  0
LWPOLYLINE
  5
2186
330
19
100
AcDbEntity
  8
1
100
AcDbPolyline
 90
        2
 70
     0
 43
0.0
 10
808.7119089739719
 20
419.6761363453493
 10
808.7119089739719
 20
419.5290946786825
  0
LWPOLYLINE
  5
2187
330
19
100
AcDbEntity
  8
1
100
AcDbPolyline
 90
        2
 70
     0
 43
0.0
 10
808.6825006406387
 20
419.9996280120158
 10
808.7119089739719
 20
419.6761363453493
  0
LWPOLYLINE
  5
2188
330
19
100
AcDbEntity
  8
1
100
AcDbPolyline
 90
        2
 70
     0
 43
0.0
 10
808.6825006406387
 20
421.0877363453493
 10
808.6825006406387
 20
420.617203012016
  0
LWPOLYLINE
  5
2189
330
19
100
AcDbEntity
  8
1
100
AcDbPolyline
 90
        2
 70
     0
 43
0.0
 10
808.7119089739719
 20
420.7348363453493
 10
808.6825006406387
 20
421.0877363453493
  0
LWPOLYLINE
  5
218A
330
19
100
AcDbEntity
  8
1
100
AcDbPolyline
 90
        2
 70
     0
 43
0.0
 10
808.7119089739719
 20
420.5289780120158
 10
808.7119089739719
 20
420.7348363453493
  0
LWPOLYLINE
  5
218B
330
19
100
AcDbEntity
  8
1
100
AcDbPolyline
 90
        2
 70
     0
 43
0.0
 10
808.7119089739719
 20
420.5289780120158
 10
808.7119089739719
 20
420.1760780120158
  0
LWPOLYLINE
  5
218C
330
19
100
AcDbEntity
  8
1
100
AcDbPolyline
 90
        2
 70
     0
 43
0.0
 10
808.7119089739719
 20
419.5879113453493
 10
808.7119089739719
 20
420.1760780120158
  0
LWPOLYLINE
  5
218D
330
19
100
AcDbEntity
  8
1
100
AcDbPolyline
 90
        2
 70
     0
 43
0.0
 10
815.7110923073053
 20
419.6173196786826
 10
815.7110923073053
 20
420.2054863453493
  0
LWPOLYLINE
  5
218E
330
19
100
AcDbEntity
  8
1
100
AcDbPolyline
 90
        2
 70
     0
 43
0.0
 10
808.7119089739719
 20
420.1760780120158
 10
815.7110923073053
 20
420.2054863453493
  0
LWPOLYLINE
  5
218F
330
19
100
AcDbEntity
  8
1
100
AcDbPolyline
 90
        2
 70
     0
 43
0.0
 10
815.7110923073053
 20
420.5289780120158
 10
808.7119089739719
 20
420.5289780120158
  0
LWPOLYLINE
  5
2190
330
19
100
AcDbEntity
  8
1
100
AcDbPolyline
 90
        2
 70
     0
 43
0.0
 10
815.7110923073053
 20
420.2054863453493
 10
815.7110923073053
 20
420.5289780120158
  0
LWPOLYLINE
  5
2191
330
19
100
AcDbEntity
  8
1
100
AcDbPolyline
 90
        2
 70
     0
 43
0.0
 10
809.5647506406388
 20
421.587678012016
 10
814.3877173073054
 20
421.587678012016
  0
LWPOLYLINE
  5
2192
330
19
100
AcDbEntity
  8
1
100
AcDbPolyline
 90
        2
 70
     0
 43
0.0
 10
814.3877173073054
 20
421.587678012016
 10
815.0935173073053
 20
421.5582696786825
  0
LWPOLYLINE
  5
2193
330
19
100
AcDbEntity
  8
1
100
AcDbPolyline
 90
        2
 70
     0
 43
0.0
 10
815.0935173073053
 20
421.5582696786825
 10
815.7110923073053
 20
421.2053696786826
  0
LWPOLYLINE
  5
2194
330
19
100
AcDbEntity
  8
1
100
AcDbPolyline
 90
        2
 70
     0
 43
0.0
 10
808.7119089739719
 20
420.7348363453493
 10
815.7110923073053
 20
420.7642446786826
  0
LWPOLYLINE
  5
2195
330
19
100
AcDbEntity
  8
1
100
AcDbPolyline
 90
        2
 70
     0
 43
0.0
 10
808.6825006406387
 20
421.0877363453493
 10
809.5647506406388
 20
421.587678012016
  0
LWPOLYLINE
  5
2196
330
19
100
AcDbEntity
  8
1
100
AcDbPolyline
 90
        2
 70
     0
 43
0.0
 10
815.7110923073053
 20
421.2053696786826
 10
815.7110923073053
 20
420.7642446786826
  0
LWPOLYLINE
  5
2197
330
19
100
AcDbEntity
  8
1
100
AcDbPolyline
 90
        2
 70
     0
 43
0.0
 10
815.7110923073053
 20
420.7642446786826
 10
815.7110923073053
 20
420.5289780120158
  0
LWPOLYLINE
  5
2198
330
19
100
AcDbEntity
  8
1
100
AcDbPolyline
 90
       49
 70
     0
 43
0.0
 10
809.3000756406388
 20
419.3820530120158
 10
809.0059923073054
 20
419.4702780120158
 10
808.7413173073052
 20
419.5290946786825
 10
808.4178256406387
 20
419.5290946786825
 10
808.1237423073053
 20
419.5290946786825
 10
807.829658973972
 20
419.4996863453493
 10
807.5649839739721
 20
419.4702780120158
 10
807.2709006406387
 20
419.3820530120158
 10
807.0062256406387
 20
419.2938280120158
 10
806.770958973972
 20
419.1761946786827
 10
806.5356923073053
 20
419.0291530120158
 10
806.329833973972
 20
418.8821113453493
 10
806.1827923073051
 20
418.7056613453493
 10
806.0357506406385
 20
418.5292113453493
 10
805.9181173073053
 20
418.323353012016
 10
805.8298923073053
 20
418.1174946786826
 10
805.8004839739718
 20
417.9116363453493
 10
805.8004839739718
 20
417.705778012016
 10
805.8298923073053
 20
417.4999196786826
 10
805.888708973972
 20
417.2940613453492
 10
805.9769339739721
 20
417.0882030120158
 10
806.1239756406386
 20
416.911753012016
 10
806.2710173073053
 20
416.7353030120158
 10
806.4768756406389
 20
416.5588530120158
 10
806.682733973972
 20
416.4118113453493
 10
806.9180006406387
 20
416.294178012016
 10
807.1826756406387
 20
416.1765446786827
 10
807.4473506406386
 20
416.1177280120158
 10
807.7414339739721
 20
416.0589113453493
 10
808.0355173073053
 20
416.0000946786825
 10
808.3296006406387
 20
416.0000946786825
 10
808.623683973972
 20
416.029503012016
 10
808.9177673073052
 20
416.0589113453493
 10
809.2118506406386
 20
416.1177280120158
 10
809.4765256406388
 20
416.2059530120158
 10
809.7117923073053
 20
416.3235863453492
 10
809.947058973972
 20
416.4412196786826
 10
810.1529173073053
 20
416.5882613453493
 10
810.3587756406387
 20
416.7647113453493
 10
810.5058173073052
 20
416.9411613453493
 10
810.6234506406387
 20
417.1470196786827
 10
810.7116756406387
 20
417.3234696786826
 10
810.7704923073054
 20
417.5293280120158
 10
810.7999006406387
 20
417.7645946786825
 10
810.7704923073054
 20
417.970453012016
 10
810.7410839739722
 20
418.1763113453492
 10
810.6528589739721
 20
418.3821696786826
 10
810.5352256406387
 20
418.5586196786826
 10
810.388183973972
 20
418.7350696786826
  0
LWPOLYLINE
  5
2199
330
19
100
AcDbEntity
  8
1
100
AcDbPolyline
 90
        7
 70
     0
 43
0.0
 10
809.8000173073053
 20
418.5586196786826
 10
809.6529756406386
 20
418.6468446786825
 10
809.4471173073053
 20
418.8232946786826
 10
809.3294839739721
 20
418.9997446786826
 10
809.2412589739719
 20
419.1467863453493
 10
809.2412589739719
 20
419.2938280120158
 10
809.3000756406388
 20
419.3820530120158
  0
LWPOLYLINE
  5
219A
330
19
100
AcDbEntity
  8
1
100
AcDbPolyline
 90
       21
 70
     0
 43
0.0
 10
809.3000756406388
 20
419.3820530120158
 10
809.0942173073054
 20
419.2644196786826
 10
808.9471756406387
 20
419.1467863453493
 10
808.8001339739721
 20
419.0585613453492
 10
808.6530923073052
 20
418.940928012016
 10
808.5648673073054
 20
418.8232946786826
 10
808.5060506406387
 20
418.7350696786826
 10
808.4766423073055
 20
418.6468446786825
 10
808.4766423073055
 20
418.5586196786826
 10
808.5060506406387
 20
418.4998030120158
 10
808.5648673073054
 20
418.4409863453494
 10
808.6530923073052
 20
418.4115780120158
 10
808.7707256406387
 20
418.3821696786826
 10
808.9177673073052
 20
418.3821696786826
 10
809.0648089739721
 20
418.4115780120158
 10
809.2706673073053
 20
418.4115780120158
 10
809.4765256406388
 20
418.4703946786826
 10
809.682383973972
 20
418.4998030120158
 10
809.9176506406386
 20
418.588028012016
 10
810.1529173073053
 20
418.6468446786825
 10
810.388183973972
 20
418.7350696786826
  0
LWPOLYLINE
  5
219B
330
19
100
AcDbEntity
  8
1
100
AcDbPolyline
 90
       25
 70
     0
 43
0.0
 10
807.829658973972
 20
416.9999780120158
 10
807.8002506406388
 20
417.0882030120158
 10
807.7414339739721
 20
417.176428012016
 10
807.6532089739719
 20
417.2352446786826
 10
807.5355756406388
 20
417.2646530120158
 10
807.4179423073053
 20
417.2940613453492
 10
807.3003089739721
 20
417.3234696786826
 10
807.1532673073052
 20
417.2940613453492
 10
807.0356339739721
 20
417.2352446786826
 10
806.9474089739719
 20
417.176428012016
 10
806.8885923073052
 20
417.1176113453493
 10
806.8297756406387
 20
417.0293863453493
 10
806.8297756406387
 20
416.9411613453493
 10
806.859183973972
 20
416.823528012016
 10
806.9180006406387
 20
416.7647113453493
 10
807.0062256406387
 20
416.6764863453493
 10
807.1238589739721
 20
416.6470780120158
 10
807.2414923073054
 20
416.6176696786826
 10
807.3885339739719
 20
416.6176696786826
 10
807.5061673073053
 20
416.6176696786826
 10
807.6238006406386
 20
416.6764863453493
 10
807.7120256406388
 20
416.7353030120158
 10
807.8002506406388
 20
416.823528012016
 10
807.829658973972
 20
416.911753012016
 10
807.829658973972
 20
416.9999780120158
  0
LWPOLYLINE
  5
219C
330
19
100
AcDbEntity
  8
1
100
AcDbPolyline
 90
       12
 70
     0
 43
0.0
 10
807.829658973972
 20
416.8823446786825
 10
807.8002506406388
 20
416.9411613453493
 10
807.7414339739721
 20
417.0293863453493
 10
807.6532089739719
 20
417.0882030120158
 10
807.5355756406388
 20
417.1470196786827
 10
807.4179423073053
 20
417.176428012016
 10
807.3003089739721
 20
417.176428012016
 10
807.1532673073052
 20
417.1470196786827
 10
807.0356339739721
 20
417.1176113453493
 10
806.9474089739719
 20
417.0293863453493
 10
806.8885923073052
 20
416.9705696786826
 10
806.8297756406387
 20
416.8823446786825
  0
LWPOLYLINE
  5
219D
330
19
100
AcDbEntity
  8
1
100
AcDbPolyline
 90
        2
 70
     0
 43
0.0
 10
812.2997256406387
 20
419.5290946786825
 10
813.8877756406387
 20
419.5290946786825
  0
LWPOLYLINE
  5
219E
330
19
100
AcDbEntity
  8
1
100
AcDbPolyline
 90
        9
 70
     0
 43
0.0
 10
810.5352256406387
 20
419.205603012016
 10
810.5352256406387
 20
419.2350113453493
 10
810.7410839739722
 20
419.2938280120158
 10
810.9469423073052
 20
419.3526446786826
 10
811.1822089739719
 20
419.4114613453493
 10
811.4468839739718
 20
419.4702780120158
 10
811.711558973972
 20
419.4996863453493
 10
812.0056423073052
 20
419.5290946786825
 10
812.2997256406387
 20
419.5290946786825
  0
LWPOLYLINE
  5
219F
330
19
100
AcDbEntity
  8
1
100
AcDbPolyline
 90
        8
 70
     0
 43
0.0
 10
813.8877756406387
 20
419.5290946786825
 10
814.093633973972
 20
419.5290946786825
 10
814.2994923073054
 20
419.4996863453493
 10
814.5053506406386
 20
419.4702780120158
 10
814.6818006406387
 20
419.4408696786826
 10
814.8288423073054
 20
419.3820530120158
 10
814.9464756406386
 20
419.3232363453494
 10
815.0052923073053
 20
419.2938280120158
  0
LWPOLYLINE
  5
21A0
330
19
100
AcDbEntity
  8
SK1
100
AcDbPolyline
 90
       17
 70
     0
 43
0.0
 10
802.4479339739723
 20
413.0886696786825
 10
802.4479339739723
 20
413.4415696786826
 10
802.4479339739723
 20
413.7650613453493
 10
802.4479339739723
 20
414.0885530120158
 10
802.4479339739723
 20
414.4120446786827
 10
802.4479339739723
 20
414.7061280120158
 10
802.4479339739723
 20
415.0002113453493
 10
802.4479339739723
 20
415.2648863453493
 10
802.4479339739723
 20
415.5295613453493
 10
802.4479339739723
 20
415.7354196786826
 10
802.4479339739723
 20
415.9118696786826
 10
802.4479339739723
 20
416.0883196786826
 10
802.4479339739723
 20
416.2059530120158
 10
802.4479339739723
 20
416.294178012016
 10
802.4479339739723
 20
416.3529946786826
 10
802.4479339739723
 20
416.3824030120158
 10
802.4479339739723
 20
416.3824030120158
  0
LWPOLYLINE
  5
21A1
330
19
100
AcDbEntity
  8
SK1
100
AcDbPolyline
 90
       17
 70
     0
 43
0.0
 10
802.4479339739723
 20
409.7949363453493
 10
802.4479339739723
 20
409.7949363453493
 10
802.4479339739723
 20
409.8243446786827
 10
802.4479339739723
 20
409.8831613453493
 10
802.4479339739723
 20
409.9713863453493
 10
802.4479339739723
 20
410.1184280120158
 10
802.4479339739723
 20
410.2654696786826
 10
802.4479339739723
 20
410.471328012016
 10
802.4479339739723
 20
410.6771863453493
 10
802.4479339739723
 20
410.9124530120157
 10
802.4479339739723
 20
411.1771280120158
 10
802.4479339739723
 20
411.4712113453493
 10
802.4479339739723
 20
411.7652946786826
 10
802.4479339739723
 20
412.0887863453494
 10
802.4479339739723
 20
412.4122780120158
 10
802.4479339739723
 20
412.7651780120158
 10
802.4479339739723
 20
413.0886696786825
  0
LWPOLYLINE
  5
21A2
330
19
100
AcDbEntity
  8
SK1
100
AcDbPolyline
 90
       20
 70
     0
 43
0.0
 10
801.9774006406388
 20
412.147603012016
 10
801.9774006406388
 20
412.4710946786827
 10
801.9774006406388
 20
412.8239946786826
 10
801.9774006406388
 20
413.1474863453493
 10
801.9774006406388
 20
413.5003863453493
 10
801.9774006406388
 20
413.8532863453494
 10
801.9774006406388
 20
414.176778012016
 10
801.9774006406388
 20
414.5002696786827
 10
801.9774006406388
 20
414.7943530120158
 10
801.9774006406388
 20
415.0884363453493
 10
801.9774006406388
 20
415.3531113453493
 10
801.9774006406388
 20
415.5883780120158
 10
801.9774006406388
 20
415.7942363453493
 10
801.9774006406388
 20
415.9706863453493
 10
801.9774006406388
 20
416.1471363453493
 10
801.9774006406388
 20
416.2647696786827
 10
801.9774006406388
 20
416.3529946786826
 10
801.9774006406388
 20
416.4118113453493
 10
801.9774006406388
 20
416.4412196786826
 10
801.9774006406388
 20
416.4412196786826
  0
LWPOLYLINE
  5
21A3
330
19
100
AcDbEntity
  8
SK1
100
AcDbPolyline
 90
       21
 70
     0
 43
0.0
 10
802.1538506406384
 20
411.8829280120158
 10
802.1538506406384
 20
412.1770113453493
 10
802.1538506406384
 20
412.5299113453491
 10
802.1538506406384
 20
412.8534030120158
 10
802.1538506406384
 20
413.1768946786825
 10
802.1538506406384
 20
413.5297946786826
 10
802.1538506406384
 20
413.8532863453494
 10
802.1538506406384
 20
414.176778012016
 10
802.1538506406384
 20
414.5002696786827
 10
802.1538506406384
 20
414.7943530120158
 10
802.1538506406384
 20
415.059028012016
 10
802.1538506406384
 20
415.3237030120157
 10
802.1538506406384
 20
415.5589696786826
 10
802.1538506406384
 20
415.7648280120158
 10
802.1538506406384
 20
415.941278012016
 10
802.1538506406384
 20
416.1177280120158
 10
802.1538506406384
 20
416.2353613453493
 10
802.1538506406384
 20
416.3235863453492
 10
802.1538506406384
 20
416.3824030120158
 10
802.1538506406384
 20
416.3824030120158
 10
802.1538506406384
 20
416.3824030120158
  0
LWPOLYLINE
  5
21A4
330
19
100
AcDbEntity
  8
SK1
100
AcDbPolyline
 90
        8
 70
     0
 43
0.0
 10
802.1538506406384
 20
409.7949363453493
 10
802.1538506406384
 20
409.8243446786827
 10
802.1538506406384
 20
409.8537530120158
 10
802.1538506406384
 20
409.9419780120158
 10
802.1538506406384
 20
410.0596113453494
 10
802.1538506406384
 20
410.2066530120159
 10
802.1538506406384
 20
410.383103012016
 10
802.1538506406384
 20
410.471328012016
  0
LWPOLYLINE
  5
21A5
330
19
100
AcDbEntity
  8
SK1
100
AcDbPolyline
 90
        6
 70
     0
 43
0.0
 10
801.9774006406388
 20
409.7655280120158
 10
801.9774006406388
 20
409.7655280120158
 10
801.9774006406388
 20
409.8243446786827
 10
801.9774006406388
 20
409.9125696786826
 10
801.9774006406388
 20
410.0302030120158
 10
801.9774006406388
 20
410.1478363453493
  0
LWPOLYLINE
  5
21A6
330
19
100
AcDbEntity
  8
1
100
AcDbPolyline
 90
        2
 70
     0
 43
0.0
 10
813.8877756406387
 20
419.4114613453493
 10
813.8877756406387
 20
419.5290946786825
  0
LWPOLYLINE
  5
21A7
330
19
100
AcDbEntity
  8
1
100
AcDbPolyline
 90
        2
 70
     0
 43
0.0
 10
812.2997256406387
 20
419.1761946786827
 10
812.2997256406387
 20
419.5290946786825
  0
LINE
  5
21A9
330
19
100
AcDbEntity
  8
SK4
100
AcDbLine
 10
816.8197431233057
 20
413.0886696786825
 30
0.0
 11
789.9456627968324
 21
413.0886696786825
 31
0.0
  0
LINE
  5
21AA
330
19
100
AcDbEntity
  8
4
100
AcDbLine
 10
802.6832006406387
 20
413.0886696786825
 30
0.0
 11
816.8197431233057
 21
413.0886696786825
 31
0.0
  0
DIMENSION
  5
21AB
330
19
100
AcDbEntity
  8
2
100
AcDbDimension
  2
*D30
 10
826.2950261327839
 20
404.5896613453493
 30
0.0
 11
826.2950261327835
 21
413.0886696786827
 31
0.0
 70
   160
  1
%%c<>
 71
     5
 42
16.99801666666667
  3
V-TYGEN_-160
100
AcDbAlignedDimension
 13
814.3877173073054
 23
421.587678012016
 33
0.0
 14
814.005408973972
 24
404.5896613453493
 34
0.0
 50
90.0
100
AcDbRotatedDimension
  0
DIMENSION
  5
21B8
330
19
100
AcDbEntity
  8
2
100
AcDbDimension
  2
*D31
 10
802.6832006406387
 20
428.691490631983
 30
0.0
 11
809.1971464739719
 21
428.691490631983
 31
0.0
 70
   160
 71
     5
 42
13.02789166666662
  3
V-TYGEN_-160
100
AcDbAlignedDimension
 13
815.7110923073053
 23
421.2053696786826
 33
0.0
 14
802.6832006406387
 24
418.2351280120157
 34
0.0
100
AcDbRotatedDimension
  0
DIMENSION
  5
21C5
330
19
100
AcDbEntity
  8
SK2
100
AcDbDimension
  2
*D32
 10
781.6995754548773
 20
409.589078012016
 30
0.0
 11
781.6995754548773
 21
427.5049280120161
 31
0.0
 70
   160
  1
%%c<>
 71
     5
 42
6.999183333333347
  3
V-TYGEN_-160
100
AcDbAlignedDimension
 13
791.6844839739718
 23
416.5882613453493
 33
0.0
 14
791.6844839739718
 24
409.589078012016
 34
0.0
 50
90.0
100
AcDbRotatedDimension
  0
ENDSEC
  0
SECTION
  2
OBJECTS
  0
DICTIONARY
  5
C
330
0
100
AcDbDictionary
281
     1
  3
ACAD_COLOR
350
129F
  3
ACAD_GROUP
350
D
  3
ACAD_LAYOUT
350
A85
  3
ACAD_MATERIAL
350
128A
  3
ACAD_MLEADERSTYLE
350
1483
  3
ACAD_MLINESTYLE
350
E
  3
ACAD_PLOTSETTINGS
350
A86
  3
ACAD_PLOTSTYLENAME
350
E93
  3
ACAD_SCALELIST
350
1461
  3
ACAD_TABLESTYLE
350
12A0
  3
ACAD_VISUALSTYLE
350
128E
  3
ACDB_RECOMPOSE_DATA
350
14AC
  3
AcDbVariableDictionary
350
1433
  3
DWGPROPS
350
222C
1001
ACAD
1000
TREAT_AS_HARD
1070
     0
  0
DICTIONARY
  5
148A
330
F
100
AcDbDictionary
280
     1
281
     1
  3
ADSK_XREC_LAYER_RECONCILED
360
148B
  0
DICTIONARY
  5
148C
330
1E
100
AcDbDictionary
280
     1
281
     1
  3
ADSK_XREC_LAYER_RECONCILED
360
148D
  0
DICTIONARY
  5
148E
330
22
100
AcDbDictionary
280
     1
281
     1
  3
ADSK_XREC_LAYER_RECONCILED
360
148F
  0
DICTIONARY
  5
1490
330
23
100
AcDbDictionary
280
     1
281
     1
  3
ADSK_XREC_LAYER_RECONCILED
360
1491
  0
DICTIONARY
  5
1492
330
24
100
AcDbDictionary
280
     1
281
     1
  3
ADSK_XREC_LAYER_RECONCILED
360
1493
  0
DICTIONARY
  5
1494
330
25
100
AcDbDictionary
280
     1
281
     1
  3
ADSK_XREC_LAYER_RECONCILED
360
1495
  0
DICTIONARY
  5
1496
330
26
100
AcDbDictionary
280
     1
281
     1
  3
ADSK_XREC_LAYER_RECONCILED
360
1497
  0
DICTIONARY
  5
1498
330
27
100
AcDbDictionary
280
     1
281
     1
  3
ADSK_XREC_LAYER_RECONCILED
360
1499
  0
DICTIONARY
  5
149A
330
28
100
AcDbDictionary
280
     1
281
     1
  3
ADSK_XREC_LAYER_RECONCILED
360
149B
  0
DICTIONARY
  5
149C
330
29
100
AcDbDictionary
280
     1
281
     1
  3
ADSK_XREC_LAYER_RECONCILED
360
149D
  0
DICTIONARY
  5
149E
330
2A
100
AcDbDictionary
280
     1
281
     1
  3
ADSK_XREC_LAYER_RECONCILED
360
149F
  0
DICTIONARY
  5
14A0
330
2B
100
AcDbDictionary
280
     1
281
     1
  3
ADSK_XREC_LAYER_RECONCILED
360
14A1
  0
DICTIONARY
  5
14A2
330
2C
100
AcDbDictionary
280
     1
281
     1
  3
ADSK_XREC_LAYER_RECONCILED
360
14A3
  0
DICTIONARY
  5
14A4
330
2D
100
AcDbDictionary
280
     1
281
     1
  3
ADSK_XREC_LAYER_RECONCILED
360
14A5
  0
DICTIONARY
  5
14A6
330
C07
100
AcDbDictionary
280
     1
281
     1
  3
ADSK_XREC_LAYER_RECONCILED
360
14A7
  0
DICTIONARY
  5
E8D
330
19
100
AcDbDictionary
280
     1
281
     1
  0
DICTIONARY
  5
E8B
330
16
100
AcDbDictionary
280
     1
281
     1
  0
DICTIONARY
  5
129F
102
{ACAD_REACTORS
330
C
102
}
330
C
100
AcDbDictionary
281
     1
  0
DICTIONARY
  5
D
102
{ACAD_REACTORS
330
C
102
}
330
C
100
AcDbDictionary
281
     1
1001
ACAD
1000
TREAT_AS_HARD
1070
     0
  0
DICTIONARY
  5
A85
102
{ACAD_REACTORS
330
C
102
}
330
C
100
AcDbDictionary
281
     1
  3
Layout1
350
E96
  3
Model
350
E95
1001
ACAD
1000
TREAT_AS_HARD
1070
     0
  0
DICTIONARY
  5
128A
102
{ACAD_REACTORS
330
C
102
}
330
C
100
AcDbDictionary
281
     1
  3
ByBlock
350
128C
  3
ByLayer
350
128B
  3
Global
350
128D
  0
DICTIONARY
  5
1483
102
{ACAD_REACTORS
330
C
102
}
330
C
100
AcDbDictionary
281
     1
  3
Standard
350
1484
  0
DICTIONARY
  5
E
102
{ACAD_REACTORS
330
C
102
}
330
C
100
AcDbDictionary
281
     1
  3
STANDARD
350
1C
1001
ACAD
1000
TREAT_AS_HARD
1070
     0
  0
DICTIONARY
  5
A86
102
{ACAD_REACTORS
330
C
102
}
330
C
100
AcDbDictionary
281
     1
1001
ACAD
1000
TREAT_AS_HARD
1070
     0
  0
ACDBDICTIONARYWDFLT
  5
E93
102
{ACAD_REACTORS
330
C
102
}
330
C
100
AcDbDictionary
281
     1
  3
Normal
350
E94
100
AcDbDictionaryWithDefault
340
E94
  0
DICTIONARY
  5
1461
102
{ACAD_REACTORS
330
C
102
}
330
C
100
AcDbDictionary
281
     1
  3
A0
350
1462
  3
A1
350
1463
  3
A2
350
1464
  3
A3
350
1465
  3
A4
350
1466
  3
A5
350
1467
  3
A6
350
1468
  3
A7
350
1469
  3
A8
350
146A
  3
A9
350
146B
  3
B0
350
146C
  3
B1
350
146D
  3
B2
350
146E
  3
B3
350
146F
  3
B4
350
1470
  3
B5
350
1471
  3
B6
350
1472
  3
B7
350
1473
  3
B8
350
1474
  3
B9
350
1475
  3
C0
350
1476
  3
C1
350
1477
  3
C2
350
1478
  3
C3
350
1479
  3
C4
350
147A
  3
C5
350
147B
  3
C6
350
147C
  3
C7
350
147D
  3
C8
350
147E
  3
C9
350
147F
  3
D0
350
1480
  3
D1
350
1481
  3
D2
350
1482
  0
DICTIONARY
  5
12A0
102
{ACAD_REACTORS
330
C
102
}
330
C
100
AcDbDictionary
281
     1
  3
Standard
350
12A1
  0
DICTIONARY
  5
128E
102
{ACAD_REACTORS
330
C
102
}
330
C
100
AcDbDictionary
281
     1
  3
2dWireframe
350
1294
  3
3D Hidden
350
1296
  3
3dWireframe
350
1295
  3
Basic
350
1293
  3
Brighten
350
129A
  3
ColorChange
350
129E
  3
Conceptual
350
1297
  3
Dim
350
1299
  3
Facepattern
350
129D
  3
Flat
350
128F
  3
FlatWithEdges
350
1290
  3
Gouraud
350
1291
  3
GouraudWithEdges
350
1292
  3
Linepattern
350
129C
  3
Realistic
350
1298
  3
Thicken
350
129B
  0
XRECORD
  5
14AC
102
{ACAD_REACTORS
330
C
102
}
330
C
100
AcDbXrecord
280
     1
 90
        1
330
12A1
  0
DICTIONARY
  5
1433
102
{ACAD_REACTORS
330
C
102
}
330
C
100
AcDbDictionary
281
     1
  3
CANNOSCALE
350
14A9
  3
CMLEADERSTYLE
350
14A8
  3
CTABLESTYLE
350
1434
  3
DIMASSOC
350
1437
  3
INDEXCTL
350
1436
  3
SORTENTS
350
1435
  0
XRECORD
  5
222C
102
{ACAD_REACTORS
330
C
102
}
330
C
100
AcDbXrecord
280
     1
  1
DWGPROPS COOKIE
  2

  3

  4

  6

  7

  8
inpunamok
  9

300
=
301
=
302
=
303
=
304
=
305
=
306
=
307
=
308
=
309
=
 40
0.1128873148148148
 41
2455495.43569007
 42
2455597.632818877
  1

 90
        0
  0
XRECORD
  5
148B
102
{ACAD_REACTORS
330
148A
102
}
330
148A
100
AcDbXrecord
280
     1
290
     1
  0
XRECORD
  5
148D
102
{ACAD_REACTORS
330
148C
102
}
330
148C
100
AcDbXrecord
280
     1
290
     1
  0
XRECORD
  5
148F
102
{ACAD_REACTORS
330
148E
102
}
330
148E
100
AcDbXrecord
280
     1
290
     1
  0
XRECORD
  5
1491
102
{ACAD_REACTORS
330
1490
102
}
330
1490
100
AcDbXrecord
280
     1
290
     1
  0
XRECORD
  5
1493
102
{ACAD_REACTORS
330
1492
102
}
330
1492
100
AcDbXrecord
280
     1
290
     1
  0
XRECORD
  5
1495
102
{ACAD_REACTORS
330
1494
102
}
330
1494
100
AcDbXrecord
280
     1
290
     1
  0
XRECORD
  5
1497
102
{ACAD_REACTORS
330
1496
102
}
330
1496
100
AcDbXrecord
280
     1
290
     1
  0
XRECORD
  5
1499
102
{ACAD_REACTORS
330
1498
102
}
330
1498
100
AcDbXrecord
280
     1
290
     1
  0
XRECORD
  5
149B
102
{ACAD_REACTORS
330
149A
102
}
330
149A
100
AcDbXrecord
280
     1
290
     1
  0
XRECORD
  5
149D
102
{ACAD_REACTORS
330
149C
102
}
330
149C
100
AcDbXrecord
280
     1
290
     1
  0
XRECORD
  5
149F
102
{ACAD_REACTORS
330
149E
102
}
330
149E
100
AcDbXrecord
280
     1
290
     1
  0
XRECORD
  5
14A1
102
{ACAD_REACTORS
330
14A0
102
}
330
14A0
100
AcDbXrecord
280
     1
290
     1
  0
XRECORD
  5
14A3
102
{ACAD_REACTORS
330
14A2
102
}
330
14A2
100
AcDbXrecord
280
     1
290
     1
  0
XRECORD
  5
14A5
102
{ACAD_REACTORS
330
14A4
102
}
330
14A4
100
AcDbXrecord
280
     1
290
     1
  0
XRECORD
  5
14A7
102
{ACAD_REACTORS
330
14A6
102
}
330
14A6
100
AcDbXrecord
280
     1
290
     1
  0
LAYOUT
  5
E96
102
{ACAD_XDICTIONARY
360
222F
102
}
102
{ACAD_REACTORS
330
A85
102
}
330
A85
100
AcDbPlotSettings
  1

  2
\\SECO_TOOLS\Q_HP8100_WMM.LANDSKAP.PL1.HUS_A.FAGERSTA.SE.SECO_TOOLS
  4

  6

 40
0.0
 41
0.0
 42
0.0
 43
0.0
 44
0.0
 45
0.0
 46
0.0
 47
0.0
 48
0.0
 49
0.0
140
0.0
141
0.0
142
1.0
143
1.0
 70
   688
 72
     0
 73
     0
 74
     5
  7

 75
    16
147
1.0
148
0.0
149
0.0
100
AcDbLayout
  1
Layout1
 70
     0
 71
     1
 10
0.0
 20
0.0
 11
12.0
 21
9.0
 12
0.0
 22
0.0
 32
0.0
 14
1.000000000000000E+20
 24
1.000000000000000E+20
 34
1.000000000000000E+20
 15
-1.000000000000000E+20
 25
-1.000000000000000E+20
 35
-1.000000000000000E+20
146
0.0
 13
0.0
 23
0.0
 33
0.0
 16
1.0
 26
0.0
 36
0.0
 17
0.0
 27
1.0
 37
0.0
 76
     0
330
16
  0
LAYOUT
  5
E95
102
{ACAD_XDICTIONARY
360
222D
102
}
102
{ACAD_REACTORS
330
A85
102
}
330
A85
100
AcDbPlotSettings
  1

  2
\\SECO_TOOLS\Q_HP8100_WMM.LANDSKAP.PL1.HUS_A.FAGERSTA.SE.SECO_TOOLS
  4

  6

 40
0.0
 41
0.0
 42
0.0
 43
0.0
 44
0.0
 45
0.0
 46
0.0
 47
0.0
 48
0.0
 49
0.0
140
0.0
141
0.0
142
1.0
143
1.0
 70
  1712
 72
     0
 73
     0
 74
     0
  7

 75
     0
147
1.0
148
0.0
149
0.0
100
AcDbLayout
  1
Model
 70
     1
 71
     0
 10
0.0
 20
0.0
 11
12.0
 21
9.0
 12
0.0
 22
0.0
 32
0.0
 14
0.0
 24
0.0
 34
0.0
 15
0.0
 25
0.0
 35
0.0
146
0.0
 13
0.0
 23
0.0
 33
0.0
 16
1.0
 26
0.0
 36
0.0
 17
0.0
 27
1.0
 37
0.0
 76
     0
330
19
331
1288
  0
MATERIAL
  5
128C
102
{ACAD_XDICTIONARY
360
144C
102
}
102
{ACAD_REACTORS
330
128A
102
}
330
128A
100
AcDbMaterial
  1
ByBlock
  0
MATERIAL
  5
128B
102
{ACAD_XDICTIONARY
360
144A
102
}
102
{ACAD_REACTORS
330
128A
102
}
330
128A
100
AcDbMaterial
  1
ByLayer
  0
MATERIAL
  5
128D
102
{ACAD_XDICTIONARY
360
144E
102
}
102
{ACAD_REACTORS
330
128A
102
}
330
128A
100
AcDbMaterial
  1
Global
  0
MLEADERSTYLE
  5
1484
102
{ACAD_REACTORS
330
1483
102
}
330
1483
100
AcDbMLeaderStyle
170
     2
171
     1
172
     0
 90
        2
 40
0.0
 41
0.0
173
     1
 91
-1056964608
340
13
 92
       -2
290
     1
 42
2.0
291
     1
 43
0.36
  3
Standard
 44
4.0
300

342
10
174
     1
178
     6
175
     1
176
     0
 93
-1056964608
 45
4.0
292
     0
297
     0
 46
4.0
 94
-1056964608
 47
1.0
 49
1.0
140
1.0
293
     1
141
0.0
294
     1
177
     0
142
1.0
295
     0
296
     0
143
0.125
1001
ACAD_MLEADERVER
1070
     2
  0
MLINESTYLE
  5
1C
102
{ACAD_REACTORS
330
E
102
}
330
E
100
AcDbMlineStyle
  2
STANDARD
 70
     0
  3

 62
     0
 51
90.0
 52
90.0
 71
     2
 49
0.5
 62
   256
  6
BYLAYER
 49
-0.5
 62
   256
  6
BYLAYER
  0
ACDBPLACEHOLDER
  5
E94
102
{ACAD_REACTORS
330
E93
102
}
330
E93
  0
SCALE
  5
1462
102
{ACAD_REACTORS
330
1461
102
}
330
1461
100
AcDbScale
 70
     0
300
1:1
140
1.0
141
1.0
290
     1
  0
SCALE
  5
1463
102
{ACAD_REACTORS
330
1461
102
}
330
1461
100
AcDbScale
 70
     0
300
1:2
140
1.0
141
2.0
290
     0
  0
SCALE
  5
1464
102
{ACAD_REACTORS
330
1461
102
}
330
1461
100
AcDbScale
 70
     0
300
1:4
140
1.0
141
4.0
290
     0
  0
SCALE
  5
1465
102
{ACAD_REACTORS
330
1461
102
}
330
1461
100
AcDbScale
 70
     0
300
1:5
140
1.0
141
5.0
290
     0
  0
SCALE
  5
1466
102
{ACAD_REACTORS
330
1461
102
}
330
1461
100
AcDbScale
 70
     0
300
1:8
140
1.0
141
8.0
290
     0
  0
SCALE
  5
1467
102
{ACAD_REACTORS
330
1461
102
}
330
1461
100
AcDbScale
 70
     0
300
1:10
140
1.0
141
10.0
290
     0
  0
SCALE
  5
1468
102
{ACAD_REACTORS
330
1461
102
}
330
1461
100
AcDbScale
 70
     0
300
1:16
140
1.0
141
16.0
290
     0
  0
SCALE
  5
1469
102
{ACAD_REACTORS
330
1461
102
}
330
1461
100
AcDbScale
 70
     0
300
1:20
140
1.0
141
20.0
290
     0
  0
SCALE
  5
146A
102
{ACAD_REACTORS
330
1461
102
}
330
1461
100
AcDbScale
 70
     0
300
1:30
140
1.0
141
30.0
290
     0
  0
SCALE
  5
146B
102
{ACAD_REACTORS
330
1461
102
}
330
1461
100
AcDbScale
 70
     0
300
1:40
140
1.0
141
40.0
290
     0
  0
SCALE
  5
146C
102
{ACAD_REACTORS
330
1461
102
}
330
1461
100
AcDbScale
 70
     0
300
1:50
140
1.0
141
50.0
290
     0
  0
SCALE
  5
146D
102
{ACAD_REACTORS
330
1461
102
}
330
1461
100
AcDbScale
 70
     0
300
1:100
140
1.0
141
100.0
290
     0
  0
SCALE
  5
146E
102
{ACAD_REACTORS
330
1461
102
}
330
1461
100
AcDbScale
 70
     0
300
2:1
140
2.0
141
1.0
290
     0
  0
SCALE
  5
146F
102
{ACAD_REACTORS
330
1461
102
}
330
1461
100
AcDbScale
 70
     0
300
4:1
140
4.0
141
1.0
290
     0
  0
SCALE
  5
1470
102
{ACAD_REACTORS
330
1461
102
}
330
1461
100
AcDbScale
 70
     0
300
8:1
140
8.0
141
1.0
290
     0
  0
SCALE
  5
1471
102
{ACAD_REACTORS
330
1461
102
}
330
1461
100
AcDbScale
 70
     0
300
10:1
140
10.0
141
1.0
290
     0
  0
SCALE
  5
1472
102
{ACAD_REACTORS
330
1461
102
}
330
1461
100
AcDbScale
 70
     0
300
100:1
140
100.0
141
1.0
290
     0
  0
SCALE
  5
1473
102
{ACAD_REACTORS
330
1461
102
}
330
1461
100
AcDbScale
 70
     0
300
1/128" = 1'-0"
140
0.0078125
141
12.0
290
     0
  0
SCALE
  5
1474
102
{ACAD_REACTORS
330
1461
102
}
330
1461
100
AcDbScale
 70
     0
300
1/64" = 1'-0"
140
0.015625
141
12.0
290
     0
  0
SCALE
  5
1475
102
{ACAD_REACTORS
330
1461
102
}
330
1461
100
AcDbScale
 70
     0
300
1/32" = 1'-0"
140
0.03125
141
12.0
290
     0
  0
SCALE
  5
1476
102
{ACAD_REACTORS
330
1461
102
}
330
1461
100
AcDbScale
 70
     0
300
1/16" = 1'-0"
140
0.0625
141
12.0
290
     0
  0
SCALE
  5
1477
102
{ACAD_REACTORS
330
1461
102
}
330
1461
100
AcDbScale
 70
     0
300
3/32" = 1'-0"
140
0.09375
141
12.0
290
     0
  0
SCALE
  5
1478
102
{ACAD_REACTORS
330
1461
102
}
330
1461
100
AcDbScale
 70
     0
300
1/8" = 1'-0"
140
0.125
141
12.0
290
     0
  0
SCALE
  5
1479
102
{ACAD_REACTORS
330
1461
102
}
330
1461
100
AcDbScale
 70
     0
300
3/16" = 1'-0"
140
0.1875
141
12.0
290
     0
  0
SCALE
  5
147A
102
{ACAD_REACTORS
330
1461
102
}
330
1461
100
AcDbScale
 70
     0
300
1/4" = 1'-0"
140
0.25
141
12.0
290
     0
  0
SCALE
  5
147B
102
{ACAD_REACTORS
330
1461
102
}
330
1461
100
AcDbScale
 70
     0
300
3/8" = 1'-0"
140
0.375
141
12.0
290
     0
  0
SCALE
  5
147C
102
{ACAD_REACTORS
330
1461
102
}
330
1461
100
AcDbScale
 70
     0
300
1/2" = 1'-0"
140
0.5
141
12.0
290
     0
  0
SCALE
  5
147D
102
{ACAD_REACTORS
330
1461
102
}
330
1461
100
AcDbScale
 70
     0
300
3/4" = 1'-0"
140
0.75
141
12.0
290
     0
  0
SCALE
  5
147E
102
{ACAD_REACTORS
330
1461
102
}
330
1461
100
AcDbScale
 70
     0
300
1" = 1'-0"
140
1.0
141
12.0
290
     0
  0
SCALE
  5
147F
102
{ACAD_REACTORS
330
1461
102
}
330
1461
100
AcDbScale
 70
     0
300
1-1/2" = 1'-0"
140
1.5
141
12.0
290
     0
  0
SCALE
  5
1480
102
{ACAD_REACTORS
330
1461
102
}
330
1461
100
AcDbScale
 70
     0
300
3" = 1'-0"
140
3.0
141
12.0
290
     0
  0
SCALE
  5
1481
102
{ACAD_REACTORS
330
1461
102
}
330
1461
100
AcDbScale
 70
     0
300
6" = 1'-0"
140
6.0
141
12.0
290
     0
  0
SCALE
  5
1482
102
{ACAD_REACTORS
330
1461
102
}
330
1461
100
AcDbScale
 70
     0
300
1'-0" = 1'-0"
140
12.0
141
12.0
290
     0
  0
TABLESTYLE
  5
12A1
102
{ACAD_XDICTIONARY
360
14AA
102
}
102
{ACAD_REACTORS
330
12A0
102
}
330
12A0
100
AcDbTableStyle
  3
Standard
 70
     0
 71
     0
 40
1.5
 41
1.5
280
     0
281
     0
  7
STANDARD
140
4.5
170
     2
 62
     0
 63
     7
283
     0
274
    -2
284
     1
 64
     0
275
    -2
285
     1
 65
     0
276
    -2
286
     1
 66
     0
277
    -2
287
     1
 67
     0
278
    -2
288
     1
 68
     0
279
    -2
289
     1
 69
     0
  7
STANDARD
140
6.0
170
     5
 62
     0
 63
     7
283
     0
274
    -2
284
     1
 64
     0
275
    -2
285
     1
 65
     0
276
    -2
286
     1
 66
     0
277
    -2
287
     1
 67
     0
278
    -2
288
     1
 68
     0
279
    -2
289
     1
 69
     0
  7
STANDARD
140
4.5
170
     5
 62
     0
 63
     7
283
     0
274
    -2
284
     1
 64
     0
275
    -2
285
     1
 65
     0
276
    -2
286
     1
 66
     0
277
    -2
287
     1
 67
     0
278
    -2
288
     1
 68
     0
279
    -2
289
     1
 69
     0
  0
VISUALSTYLE
  5
1294
102
{ACAD_REACTORS
330
128E
102
}
330
128E
100
AcDbVisualStyle
  2
2dWireframe
 70
     4
 71
     0
 72
     2
 73
     0
 90
        0
 40
-0.6
 41
-30.0
 62
     5
 63
     7
 74
     1
 91
        4
 64
     7
 65
   257
 75
     1
175
     1
 42
1.0
 92
        0
 66
   257
 43
1.0
 76
     1
 77
     6
 78
     2
 67
     7
 79
     5
170
     0
171
     0
290
     0
174
     0
 93
        1
 44
0.0
173
     0
291
     0
 45
0.0
1001
ACAD
1000
AcDbSavedByObjectVersion
1070
     0
1000
AcDbSavedByObjectVersion
1070
     0
1000
AcDbSavedByObjectVersion
1070
     0
1000
AcDbSavedByObjectVersion
1070
     0
1000
AcDbSavedByObjectVersion
1070
     0
1000
AcDbSavedByObjectVersion
1070
     0
  0
VISUALSTYLE
  5
1296
102
{ACAD_REACTORS
330
128E
102
}
330
128E
100
AcDbVisualStyle
  2
3D Hidden
 70
     6
 71
     1
 72
     2
 73
     2
 90
        0
 40
-0.6
 41
-30.0
 62
     5
 63
     7
 74
     2
 91
        2
 64
     7
 65
   257
 75
     2
175
     1
 42
40.0
 92
        0
 66
   257
 43
1.0
 76
     1
 77
     6
 78
     2
 67
     7
 79
     3
170
     0
171
     0
290
     0
174
     0
 93
        1
 44
0.0
173
     0
291
     0
 45
0.0
1001
ACAD
1000
AcDbSavedByObjectVersion
1070
     0
1000
AcDbSavedByObjectVersion
1070
     0
1000
AcDbSavedByObjectVersion
1070
     0
1000
AcDbSavedByObjectVersion
1070
     0
1000
AcDbSavedByObjectVersion
1070
     0
1000
AcDbSavedByObjectVersion
1070
     0
  0
VISUALSTYLE
  5
1295
102
{ACAD_REACTORS
330
128E
102
}
330
128E
100
AcDbVisualStyle
  2
3dWireframe
 70
     5
 71
     0
 72
     2
 73
     0
 90
        0
 40
-0.6
 41
-30.0
 62
     5
 63
     7
 74
     1
 91
        4
 64
     7
 65
   257
 75
     1
175
     1
 42
1.0
 92
        0
 66
   257
 43
1.0
 76
     1
 77
     6
 78
     2
 67
     7
 79
     5
170
     0
171
     0
290
     0
174
     0
 93
        1
 44
0.0
173
     0
291
     0
 45
0.0
1001
ACAD
1000
AcDbSavedByObjectVersion
1070
     0
1000
AcDbSavedByObjectVersion
1070
     0
1000
AcDbSavedByObjectVersion
1070
     0
1000
AcDbSavedByObjectVersion
1070
     0
1000
AcDbSavedByObjectVersion
1070
     0
1000
AcDbSavedByObjectVersion
1070
     0
  0
VISUALSTYLE
  5
1293
102
{ACAD_REACTORS
330
128E
102
}
330
128E
100
AcDbVisualStyle
  2
Basic
 70
     7
 71
     1
 72
     0
 73
     1
 90
        0
 40
-0.6
 41
-30.0
 62
     5
 63
     7
 74
     0
 91
        4
 64
     7
 65
   257
 75
     1
175
     1
 42
1.0
 92
        8
 66
     7
 43
1.0
 76
     1
 77
     6
 78
     2
 67
     7
 79
     5
170
     0
171
     0
290
     0
174
     0
 93
        1
 44
0.0
173
     0
291
     1
 45
0.0
1001
ACAD
1000
AcDbSavedByObjectVersion
1070
     0
1000
AcDbSavedByObjectVersion
1070
     0
1000
AcDbSavedByObjectVersion
1070
     0
1000
AcDbSavedByObjectVersion
1070
     0
1000
AcDbSavedByObjectVersion
1070
     0
1000
AcDbSavedByObjectVersion
1070
     0
  0
VISUALSTYLE
  5
129A
102
{ACAD_REACTORS
330
128E
102
}
330
128E
100
AcDbVisualStyle
  2
Brighten
 70
    12
 71
     2
 72
     2
 73
     0
 90
        0
 40
-0.6
 41
-30.0
 62
     5
 63
     7
 74
     1
 91
        4
 64
     7
 65
   257
 75
     1
175
     1
 42
1.0
 92
        8
 66
     7
 43
1.0
 76
     1
 77
     6
 78
     2
 67
     7
 79
     5
170
     0
171
     0
290
     0
174
     0
 93
        1
 44
50.0
173
     0
291
     1
 45
0.0
1001
ACAD
1000
AcDbSavedByObjectVersion
1070
     0
1000
AcDbSavedByObjectVersion
1070
     0
1000
AcDbSavedByObjectVersion
1070
     0
1000
AcDbSavedByObjectVersion
1070
     0
1000
AcDbSavedByObjectVersion
1070
     0
1000
AcDbSavedByObjectVersion
1070
     0
  0
VISUALSTYLE
  5
129E
102
{ACAD_REACTORS
330
128E
102
}
330
128E
100
AcDbVisualStyle
  2
ColorChange
 70
    16
 71
     2
 72
     2
 73
     3
 90
        0
 40
-0.6
 41
-30.0
 62
     5
 63
     8
 74
     1
 91
        4
 64
     7
 65
   257
 75
     1
175
     1
 42
1.0
 92
        8
 66
     8
 43
1.0
 76
     1
 77
     6
 78
     2
 67
     7
 79
     5
170
     0
171
     0
290
     0
174
     0
 93
        1
 44
0.0
173
     0
291
     1
 45
0.0
1001
ACAD
1000
AcDbSavedByObjectVersion
1070
     0
1000
AcDbSavedByObjectVersion
1070
     0
1000
AcDbSavedByObjectVersion
1070
     0
1000
AcDbSavedByObjectVersion
1070
     0
1000
AcDbSavedByObjectVersion
1070
     0
1000
AcDbSavedByObjectVersion
1070
     0
  0
VISUALSTYLE
  5
1297
102
{ACAD_REACTORS
330
128E
102
}
330
128E
100
AcDbVisualStyle
  2
Conceptual
 70
     9
 71
     3
 72
     2
 73
     0
 90
        0
 40
-0.6
 41
-30.0
 62
     5
 63
     7
 74
     2
 91
        2
 64
     7
 65
   257
 75
     1
175
     1
 42
40.0
 92
        8
 66
     7
 43
1.0
 76
     1
 77
     6
 78
     2
 67
     7
 79
     3
170
     0
171
     0
290
     0
174
     0
 93
        1
 44
0.0
173
     0
291
     0
 45
0.0
1001
ACAD
1000
AcDbSavedByObjectVersion
1070
     0
1000
AcDbSavedByObjectVersion
1070
     0
1000
AcDbSavedByObjectVersion
1070
     0
1000
AcDbSavedByObjectVersion
1070
     0
1000
AcDbSavedByObjectVersion
1070
     0
1000
AcDbSavedByObjectVersion
1070
     0
  0
VISUALSTYLE
  5
1299
102
{ACAD_REACTORS
330
128E
102
}
330
128E
100
AcDbVisualStyle
  2
Dim
 70
    11
 71
     2
 72
     2
 73
     0
 90
        0
 40
-0.6
 41
-30.0
 62
     5
 63
     7
 74
     1
 91
        4
 64
     7
 65
   257
 75
     1
175
     1
 42
1.0
 92
        8
 66
     7
 43
1.0
 76
     1
 77
     6
 78
     2
 67
     7
 79
     5
170
     0
171
     0
290
     0
174
     0
 93
        1
 44
-50.0
173
     0
291
     1
 45
0.0
1001
ACAD
1000
AcDbSavedByObjectVersion
1070
     0
1000
AcDbSavedByObjectVersion
1070
     0
1000
AcDbSavedByObjectVersion
1070
     0
1000
AcDbSavedByObjectVersion
1070
     0
1000
AcDbSavedByObjectVersion
1070
     0
1000
AcDbSavedByObjectVersion
1070
     0
  0
VISUALSTYLE
  5
129D
102
{ACAD_REACTORS
330
128E
102
}
330
128E
100
AcDbVisualStyle
  2
Facepattern
 70
    15
 71
     2
 72
     2
 73
     0
 90
        0
 40
-0.6
 41
-30.0
 62
     5
 63
     7
 74
     1
 91
        4
 64
     7
 65
   257
 75
     1
175
     1
 42
1.0
 92
        8
 66
     7
 43
1.0
 76
     1
 77
     6
 78
     2
 67
     7
 79
     5
170
     0
171
     0
290
     0
174
     0
 93
        1
 44
0.0
173
     0
291
     1
 45
0.0
1001
ACAD
1000
AcDbSavedByObjectVersion
1070
     0
1000
AcDbSavedByObjectVersion
1070
     0
1000
AcDbSavedByObjectVersion
1070
     0
1000
AcDbSavedByObjectVersion
1070
     0
1000
AcDbSavedByObjectVersion
1070
     0
1000
AcDbSavedByObjectVersion
1070
     0
  0
VISUALSTYLE
  5
128F
102
{ACAD_REACTORS
330
128E
102
}
330
128E
100
AcDbVisualStyle
  2
Flat
 70
     0
 71
     2
 72
     1
 73
     1
 90
        2
 40
-0.6
 41
30.0
 62
     5
 63
     7
 74
     0
 91
        4
 64
     7
 65
   257
 75
     1
175
     1
 42
1.0
 92
        8
 66
     7
 43
1.0
 76
     1
 77
     6
 78
     2
 67
     7
 79
     5
170
     0
171
     0
290
     0
174
     0
 93
       13
 44
0.0
173
     0
291
     1
 45
0.0
1001
ACAD
1000
AcDbSavedByObjectVersion
1070
     0
1000
AcDbSavedByObjectVersion
1070
     0
1000
AcDbSavedByObjectVersion
1070
     0
1000
AcDbSavedByObjectVersion
1070
     0
1000
AcDbSavedByObjectVersion
1070
     0
1000
AcDbSavedByObjectVersion
1070
     0
  0
VISUALSTYLE
  5
1290
102
{ACAD_REACTORS
330
128E
102
}
330
128E
100
AcDbVisualStyle
  2
FlatWithEdges
 70
     1
 71
     2
 72
     1
 73
     1
 90
        2
 40
-0.6
 41
30.0
 62
     5
 63
     7
 74
     1
 91
        4
 64
     7
 65
   257
 75
     1
175
     1
 42
1.0
 92
        0
 66
   257
 43
1.0
 76
     1
 77
     6
 78
     2
 67
     7
 79
     5
170
     0
171
     0
290
     0
174
     0
 93
       13
 44
0.0
173
     0
291
     1
 45
0.0
1001
ACAD
1000
AcDbSavedByObjectVersion
1070
     0
1000
AcDbSavedByObjectVersion
1070
     0
1000
AcDbSavedByObjectVersion
1070
     0
1000
AcDbSavedByObjectVersion
1070
     0
1000
AcDbSavedByObjectVersion
1070
     0
1000
AcDbSavedByObjectVersion
1070
     0
  0
VISUALSTYLE
  5
1291
102
{ACAD_REACTORS
330
128E
102
}
330
128E
100
AcDbVisualStyle
  2
Gouraud
 70
     2
 71
     2
 72
     2
 73
     1
 90
        2
 40
-0.6
 41
30.0
 62
     5
 63
     7
 74
     0
 91
        4
 64
     7
 65
   257
 75
     1
175
     1
 42
1.0
 92
        0
 66
     7
 43
1.0
 76
     1
 77
     6
 78
     2
 67
     7
 79
     5
170
     0
171
     0
290
     0
174
     0
 93
       13
 44
0.0
173
     0
291
     1
 45
0.0
1001
ACAD
1000
AcDbSavedByObjectVersion
1070
     0
1000
AcDbSavedByObjectVersion
1070
     0
1000
AcDbSavedByObjectVersion
1070
     0
1000
AcDbSavedByObjectVersion
1070
     0
1000
AcDbSavedByObjectVersion
1070
     0
1000
AcDbSavedByObjectVersion
1070
     0
  0
VISUALSTYLE
  5
1292
102
{ACAD_REACTORS
330
128E
102
}
330
128E
100
AcDbVisualStyle
  2
GouraudWithEdges
 70
     3
 71
     2
 72
     2
 73
     1
 90
        2
 40
-0.6
 41
30.0
 62
     5
 63
     7
 74
     1
 91
        4
 64
     7
 65
   257
 75
     1
175
     1
 42
1.0
 92
        0
 66
   257
 43
1.0
 76
     1
 77
     6
 78
     2
 67
     7
 79
     5
170
     0
171
     0
290
     0
174
     0
 93
       13
 44
0.0
173
     0
291
     1
 45
0.0
1001
ACAD
1000
AcDbSavedByObjectVersion
1070
     0
1000
AcDbSavedByObjectVersion
1070
     0
1000
AcDbSavedByObjectVersion
1070
     0
1000
AcDbSavedByObjectVersion
1070
     0
1000
AcDbSavedByObjectVersion
1070
     0
1000
AcDbSavedByObjectVersion
1070
     0
  0
VISUALSTYLE
  5
129C
102
{ACAD_REACTORS
330
128E
102
}
330
128E
100
AcDbVisualStyle
  2
Linepattern
 70
    14
 71
     2
 72
     2
 73
     0
 90
        0
 40
-0.6
 41
-30.0
 62
     5
 63
     7
 74
     1
 91
        4
 64
     7
 65
   257
 75
     7
175
     7
 42
1.0
 92
        8
 66
     7
 43
1.0
 76
     1
 77
     6
 78
     2
 67
     7
 79
     5
170
     0
171
     0
290
     0
174
     0
 93
        1
 44
0.0
173
     0
291
     1
 45
0.0
1001
ACAD
1000
AcDbSavedByObjectVersion
1070
     0
1000
AcDbSavedByObjectVersion
1070
     0
1000
AcDbSavedByObjectVersion
1070
     0
1000
AcDbSavedByObjectVersion
1070
     0
1000
AcDbSavedByObjectVersion
1070
     0
1000
AcDbSavedByObjectVersion
1070
     0
  0
VISUALSTYLE
  5
1298
102
{ACAD_REACTORS
330
128E
102
}
330
128E
100
AcDbVisualStyle
  2
Realistic
 70
     8
 71
     2
 72
     2
 73
     0
 90
        0
 40
-0.6
 41
-30.0
 62
     5
 63
     7
 74
     1
 91
        0
 64
     7
 65
   257
 75
     1
175
     1
 42
1.0
 92
        8
 66
     8
 43
1.0
 76
     1
 77
     6
 78
     2
 67
     7
 79
     5
170
     0
171
     0
290
     0
174
     0
 93
       13
 44
0.0
173
     0
291
     0
 45
0.0
1001
ACAD
1000
AcDbSavedByObjectVersion
1070
     0
1000
AcDbSavedByObjectVersion
1070
     0
1000
AcDbSavedByObjectVersion
1070
     0
1000
AcDbSavedByObjectVersion
1070
     0
1000
AcDbSavedByObjectVersion
1070
     0
1000
AcDbSavedByObjectVersion
1070
     0
  0
VISUALSTYLE
  5
129B
102
{ACAD_REACTORS
330
128E
102
}
330
128E
100
AcDbVisualStyle
  2
Thicken
 70
    13
 71
     2
 72
     2
 73
     0
 90
        0
 40
-0.6
 41
-30.0
 62
     5
 63
     7
 74
     1
 91
        4
 64
     7
 65
   257
 75
     1
175
     1
 42
1.0
 92
       12
 66
     7
 43
1.0
 76
     1
 77
     6
 78
     2
 67
     7
 79
     5
170
     0
171
     0
290
     0
174
     0
 93
        1
 44
0.0
173
     0
291
     1
 45
0.0
1001
ACAD
1000
AcDbSavedByObjectVersion
1070
     0
1000
AcDbSavedByObjectVersion
1070
     0
1000
AcDbSavedByObjectVersion
1070
     0
1000
AcDbSavedByObjectVersion
1070
     0
1000
AcDbSavedByObjectVersion
1070
     0
1000
AcDbSavedByObjectVersion
1070
     0
  0
DICTIONARYVAR
  5
14A9
102
{ACAD_REACTORS
330
1433
102
}
330
1433
100
DictionaryVariables
280
     0
  1
1:1
  0
DICTIONARYVAR
  5
14A8
102
{ACAD_REACTORS
330
1433
102
}
330
1433
100
DictionaryVariables
280
     0
  1
STANDARD
  0
DICTIONARYVAR
  5
1434
102
{ACAD_REACTORS
330
1433
102
}
330
1433
100
DictionaryVariables
280
     0
  1
STANDARD
  0
DICTIONARYVAR
  5
1437
102
{ACAD_REACTORS
330
1433
102
}
330
1433
100
DictionaryVariables
280
     0
  1
1
  0
DICTIONARYVAR
  5
1436
102
{ACAD_REACTORS
330
1433
102
}
330
1433
100
DictionaryVariables
280
     0
  1
0
  0
DICTIONARYVAR
  5
1435
102
{ACAD_REACTORS
330
1433
102
}
330
1433
100
DictionaryVariables
280
     0
  1
127
  0
DICTIONARY
  5
222F
330
E96
100
AcDbDictionary
280
     1
281
     1
  3
ACAD_XREC_ROUNDTRIP
360
2230
  0
DICTIONARY
  5
222D
330
E95
100
AcDbDictionary
280
     1
281
     1
  3
ACAD_XREC_ROUNDTRIP
360
222E
  0
DICTIONARY
  5
144C
330
128C
100
AcDbDictionary
280
     1
281
     1
  3
ACAD_XREC_ROUNDTRIP
360
144D
  0
DICTIONARY
  5
144A
330
128B
100
AcDbDictionary
280
     1
281
     1
  3
ACAD_XREC_ROUNDTRIP
360
144B
  0
DICTIONARY
  5
144E
330
128D
100
AcDbDictionary
280
     1
281
     1
  3
ACAD_XREC_ROUNDTRIP
360
144F
  0
DICTIONARY
  5
14AA
330
12A1
100
AcDbDictionary
280
     1
281
     1
  3
ACAD_ROUNDTRIP_2008_TABLESTYLE_CELLSTYLEMAP
360
222B
  3
ACAD_XREC_ROUNDTRIP
360
2231
  0
XRECORD
  5
2230
102
{ACAD_REACTORS
330
222F
102
}
330
222F
100
AcDbXrecord
280
     1
102
SHADEPLOT
 70
     0
102
SHADEPLOTRESLEVEL
 70
     2
102
SHADEPLOTCUSTOMDPI
 70
   300
  0
XRECORD
  5
222E
102
{ACAD_REACTORS
330
222D
102
}
330
222D
100
AcDbXrecord
280
     1
102
SHADEPLOT
 70
     0
102
SHADEPLOTRESLEVEL
 70
     2
102
SHADEPLOTCUSTOMDPI
 70
   300
  0
XRECORD
  5
144D
102
{ACAD_REACTORS
330
144C
102
}
330
144C
100
AcDbXrecord
280
     1
102
MATERIAL
148
0.0
149
0.0
149
0.0
 93
        0
 94
      127
282
     0
 72
     1
 77
     1
171
     1
175
     1
179
     1
273
     0
  0
XRECORD
  5
144B
102
{ACAD_REACTORS
330
144A
102
}
330
144A
100
AcDbXrecord
280
     1
102
MATERIAL
148
0.0
149
0.0
149
0.0
 93
        0
 94
      127
282
     0
 72
     1
 77
     1
171
     1
175
     1
179
     1
273
     0
  0
XRECORD
  5
144F
102
{ACAD_REACTORS
330
144E
102
}
330
144E
100
AcDbXrecord
280
     1
102
MATERIAL
148
0.0
149
0.0
149
0.0
 93
        0
 94
      127
282
     0
 72
     1
 77
     1
171
     1
175
     1
179
     1
273
     0
  0
CELLSTYLEMAP
  5
222B
102
{ACAD_REACTORS
330
14AA
102
}
330
14AA
100
AcDbCellStyleMap
 90
        3
300
CELLSTYLE
  1
TABLEFORMAT_BEGIN
 90
        5
170
     1
 91
        0
 92
    32768
 62
   257
 93
        1
300
CONTENTFORMAT
  1
CONTENTFORMAT_BEGIN
 90
        0
 91
        0
 92
      512
 93
        0
300

 40
0.0
140
1.0
 94
        5
 62
     0
340
10
144
6.0
309
CONTENTFORMAT_END
171
     1
301
MARGIN
  1
CELLMARGIN_BEGIN
 40
1.5
 40
1.5
 40
1.5
 40
1.5
 40
0.18
 40
0.18
309
CELLMARGIN_END
 94
        6
 95
        1
302
GRIDFORMAT
  1
GRIDFORMAT_BEGIN
 90
        0
 91
        1
 62
     0
 92
       -2
340
0
 93
        0
 40
0.045
309
GRIDFORMAT_END
 95
        2
302
GRIDFORMAT
  1
GRIDFORMAT_BEGIN
 90
        0
 91
        1
 62
     0
 92
       -2
340
0
 93
        0
 40
0.045
309
GRIDFORMAT_END
 95
        4
302
GRIDFORMAT
  1
GRIDFORMAT_BEGIN
 90
        0
 91
        1
 62
     0
 92
       -2
340
0
 93
        0
 40
0.045
309
GRIDFORMAT_END
 95
        8
302
GRIDFORMAT
  1
GRIDFORMAT_BEGIN
 90
        0
 91
        1
 62
     0
 92
       -2
340
0
 93
        0
 40
0.045
309
GRIDFORMAT_END
 95
       16
302
GRIDFORMAT
  1
GRIDFORMAT_BEGIN
 90
        0
 91
        1
 62
     0
 92
       -2
340
0
 93
        0
 40
0.045
309
GRIDFORMAT_END
 95
       32
302
GRIDFORMAT
  1
GRIDFORMAT_BEGIN
 90
        0
 91
        1
 62
     0
 92
       -2
340
0
 93
        0
 40
0.045
309
GRIDFORMAT_END
309
TABLEFORMAT_END
  1
CELLSTYLE_BEGIN
 90
        1
 91
        1
300
_TITLE
309
CELLSTYLE_END
300
CELLSTYLE
  1
TABLEFORMAT_BEGIN
 90
        5
170
     1
 91
        0
 92
        0
 62
   257
 93
        1
300
CONTENTFORMAT
  1
CONTENTFORMAT_BEGIN
 90
        0
 91
        0
 92
      512
 93
        0
300

 40
0.0
140
1.0
 94
        5
 62
     0
340
10
144
4.5
309
CONTENTFORMAT_END
171
     1
301
MARGIN
  1
CELLMARGIN_BEGIN
 40
1.5
 40
1.5
 40
1.5
 40
1.5
 40
0.18
 40
0.18
309
CELLMARGIN_END
 94
        6
 95
        1
302
GRIDFORMAT
  1
GRIDFORMAT_BEGIN
 90
        0
 91
        1
 62
     0
 92
       -2
340
0
 93
        0
 40
0.045
309
GRIDFORMAT_END
 95
        2
302
GRIDFORMAT
  1
GRIDFORMAT_BEGIN
 90
        0
 91
        1
 62
     0
 92
       -2
340
0
 93
        0
 40
0.045
309
GRIDFORMAT_END
 95
        4
302
GRIDFORMAT
  1
GRIDFORMAT_BEGIN
 90
        0
 91
        1
 62
     0
 92
       -2
340
0
 93
        0
 40
0.045
309
GRIDFORMAT_END
 95
        8
302
GRIDFORMAT
  1
GRIDFORMAT_BEGIN
 90
        0
 91
        1
 62
     0
 92
       -2
340
0
 93
        0
 40
0.045
309
GRIDFORMAT_END
 95
       16
302
GRIDFORMAT
  1
GRIDFORMAT_BEGIN
 90
        0
 91
        1
 62
     0
 92
       -2
340
0
 93
        0
 40
0.045
309
GRIDFORMAT_END
 95
       32
302
GRIDFORMAT
  1
GRIDFORMAT_BEGIN
 90
        0
 91
        1
 62
     0
 92
       -2
340
0
 93
        0
 40
0.045
309
GRIDFORMAT_END
309
TABLEFORMAT_END
  1
CELLSTYLE_BEGIN
 90
        2
 91
        1
300
_HEADER
309
CELLSTYLE_END
300
CELLSTYLE
  1
TABLEFORMAT_BEGIN
 90
        5
170
     1
 91
        0
 92
        0
 62
   257
 93
        1
300
CONTENTFORMAT
  1
CONTENTFORMAT_BEGIN
 90
        0
 91
        0
 92
      512
 93
        0
300

 40
0.0
140
1.0
 94
        2
 62
     0
340
10
144
4.5
309
CONTENTFORMAT_END
171
     1
301
MARGIN
  1
CELLMARGIN_BEGIN
 40
1.5
 40
1.5
 40
1.5
 40
1.5
 40
0.18
 40
0.18
309
CELLMARGIN_END
 94
        6
 95
        1
302
GRIDFORMAT
  1
GRIDFORMAT_BEGIN
 90
        0
 91
        1
 62
     0
 92
       -2
340
0
 93
        0
 40
0.045
309
GRIDFORMAT_END
 95
        2
302
GRIDFORMAT
  1
GRIDFORMAT_BEGIN
 90
        0
 91
        1
 62
     0
 92
       -2
340
0
 93
        0
 40
0.045
309
GRIDFORMAT_END
 95
        4
302
GRIDFORMAT
  1
GRIDFORMAT_BEGIN
 90
        0
 91
        1
 62
     0
 92
       -2
340
0
 93
        0
 40
0.045
309
GRIDFORMAT_END
 95
        8
302
GRIDFORMAT
  1
GRIDFORMAT_BEGIN
 90
        0
 91
        1
 62
     0
 92
       -2
340
0
 93
        0
 40
0.045
309
GRIDFORMAT_END
 95
       16
302
GRIDFORMAT
  1
GRIDFORMAT_BEGIN
 90
        0
 91
        1
 62
     0
 92
       -2
340
0
 93
        0
 40
0.045
309
GRIDFORMAT_END
 95
       32
302
GRIDFORMAT
  1
GRIDFORMAT_BEGIN
 90
        0
 91
        1
 62
     0
 92
       -2
340
0
 93
        0
 40
0.045
309
GRIDFORMAT_END
309
TABLEFORMAT_END
  1
CELLSTYLE_BEGIN
 90
        3
 91
        2
300
_DATA
309
CELLSTYLE_END
  0
XRECORD
  5
2231
102
{ACAD_REACTORS
330
14AA
102
}
330
14AA
100
AcDbXrecord
280
     1
102
ACAD_ROUNDTRIP_PRE2007_TABLESTYLE
 90
      512
 91
        0
  1

 92
      512
 93
        0
  2

 94
      512
 95
        0
  3

  0
ENDSEC
  0
EOF
