  0
SECTION
  2
HEADER
  9
$ACADVER
  1
AC1015
  9
$ACADMAINTVER
 70
    20
  9
$DWGCODEPAGE
  3
ANSI_1252
  9
$INSBASE
 10
0.0
 20
0.0
 30
0.0
  9
$EXTMIN
 10
702.1418970099627
 20
319.5719104699509
 30
0.0
  9
$EXTMAX
 10
756.0451863124078
 20
363.4823186052541
 30
0.0
  9
$LIMMIN
 10
-170.0
 20
-170.0
  9
$LIMMAX
 10
519.0
 20
260.0
  9
$ORTHOMODE
 70
     1
  9
$REGENMODE
 70
     1
  9
$FILLMODE
 70
     1
  9
$QTEXTMODE
 70
     0
  9
$MIRRTEXT
 70
     1
  9
$LTSCALE
 40
10.0
  9
$ATTMODE
 70
     1
  9
$TEXTSIZE
 40
3.5
  9
$TRACEWID
 40
0.05
  9
$TEXTSTYLE
  7
SIMPLEX
  9
$CLAYER
  8
SK6
  9
$CELTYPE
  6
BYLAYER
  9
$CECOLOR
 62
   256
  9
$CELTSCALE
 40
1.0
  9
$DISPSILH
 70
     0
  9
$DIMSCALE
 40
1.0
  9
$DIMASZ
 40
3.5
  9
$DIMEXO
 40
1.0
  9
$DIMDLI
 40
0.5
  9
$DIMRND
 40
0.0
  9
$DIMDLE
 40
0.0
  9
$DIMEXE
 40
1.0
  9
$DIMTP
 40
0.0
  9
$DIMTM
 40
0.0
  9
$DIMTXT
 40
3.5
  9
$DIMCEN
 40
0.0
  9
$DIMTSZ
 40
0.0
  9
$DIMTOL
 70
     0
  9
$DIMLIM
 70
     0
  9
$DIMTIH
 70
     0
  9
$DIMTOH
 70
     0
  9
$DIMSE1
 70
     0
  9
$DIMSE2
 70
     0
  9
$DIMTAD
 70
     1
  9
$DIMZIN
 70
     0
  9
$DIMBLK
  1

  9
$DIMASO
 70
     1
  9
$DIMSHO
 70
     1
  9
$DIMPOST
  1

  9
$DIMAPOST
  1

  9
$DIMALT
 70
     0
  9
$DIMALTD
 70
     2
  9
$DIMALTF
 40
25.4
  9
$DIMLFAC
 40
1.0
  9
$DIMTOFL
 70
     0
  9
$DIMTVP
 40
0.0
  9
$DIMTIX
 70
     0
  9
$DIMSOXD
 70
     0
  9
$DIMSAH
 70
     0
  9
$DIMBLK1
  1

  9
$DIMBLK2
  1

  9
$DIMSTYLE
  2
V-TYGEN_-160
  9
$DIMCLRD
 70
     0
  9
$DIMCLRE
 70
     0
  9
$DIMCLRT
 70
     0
  9
$DIMTFAC
 40
1.0
  9
$DIMGAP
 40
1.0
  9
$DIMJUST
 70
     0
  9
$DIMSD1
 70
     0
  9
$DIMSD2
 70
     0
  9
$DIMTOLJ
 70
     1
  9
$DIMTZIN
 70
     0
  9
$DIMALTZ
 70
     0
  9
$DIMALTTZ
 70
     0
  9
$DIMUPT
 70
     0
  9
$DIMDEC
 70
     0
  9
$DIMTDEC
 70
     0
  9
$DIMALTU
 70
     2
  9
$DIMALTTD
 70
     2
  9
$DIMTXSTY
  7
STANDARD
  9
$DIMAUNIT
 70
     0
  9
$DIMADEC
 70
     0
  9
$DIMALTRND
 40
0.0
  9
$DIMAZIN
 70
     0
  9
$DIMDSEP
 70
    46
  9
$DIMATFIT
 70
     3
  9
$DIMFRAC
 70
     0
  9
$DIMLDRBLK
  1

  9
$DIMLUNIT
 70
     2
  9
$DIMLWD
 70
    -1
  9
$DIMLWE
 70
    -2
  9
$DIMTMOVE
 70
     0
  9
$LUNITS
 70
     2
  9
$LUPREC
 70
     2
  9
$SKETCHINC
 40
0.1
  9
$FILLETRAD
 40
0.0
  9
$AUNITS
 70
     0
  9
$AUPREC
 70
     0
  9
$MENU
  1
TDMWIN
  9
$ELEVATION
 40
0.0
  9
$PELEVATION
 40
0.0
  9
$THICKNESS
 40
0.0
  9
$LIMCHECK
 70
     0
  9
$CHAMFERA
 40
0.0
  9
$CHAMFERB
 40
0.0
  9
$CHAMFERC
 40
0.0
  9
$CHAMFERD
 40
0.0
  9
$SKPOLY
 70
     0
  9
$TDCREATE
 40
2455495.435690070
  9
$TDUCREATE
 40
2455495.206523403
  9
$TDUPDATE
 40
2455597.633199039
  9
$TDUUPDATE
 40
2455597.404032373
  9
$TDINDWG
 40
0.1101081134
  9
$TDUSRTIMER
 40
0.1101073843
  9
$USRTIMER
 70
     1
  9
$ANGBASE
 50
0.0
  9
$ANGDIR
 70
     0
  9
$PDMODE
 70
     2
  9
$PDSIZE
 40
0.0
  9
$PLINEWID
 40
0.0
  9
$SPLFRAME
 70
     0
  9
$SPLINETYPE
 70
     6
  9
$SPLINESEGS
 70
     8
  9
$HANDSEED
  5
2023
  9
$SURFTAB1
 70
     6
  9
$SURFTAB2
 70
     6
  9
$SURFTYPE
 70
     6
  9
$SURFU
 70
     6
  9
$SURFV
 70
     6
  9
$UCSBASE
  2

  9
$UCSNAME
  2

  9
$UCSORG
 10
728.0512204280632
 20
345.1346894385873
 30
0.0
  9
$UCSXDIR
 10
1.0
 20
0.0
 30
0.0
  9
$UCSYDIR
 10
0.0
 20
1.0
 30
0.0
  9
$UCSORTHOREF
  2

  9
$UCSORTHOVIEW
 70
     0
  9
$UCSORGTOP
 10
0.0
 20
0.0
 30
0.0
  9
$UCSORGBOTTOM
 10
0.0
 20
0.0
 30
0.0
  9
$UCSORGLEFT
 10
0.0
 20
0.0
 30
0.0
  9
$UCSORGRIGHT
 10
0.0
 20
0.0
 30
0.0
  9
$UCSORGFRONT
 10
0.0
 20
0.0
 30
0.0
  9
$UCSORGBACK
 10
0.0
 20
0.0
 30
0.0
  9
$PUCSBASE
  2

  9
$PUCSNAME
  2

  9
$PUCSORG
 10
0.0
 20
0.0
 30
0.0
  9
$PUCSXDIR
 10
1.0
 20
0.0
 30
0.0
  9
$PUCSYDIR
 10
0.0
 20
1.0
 30
0.0
  9
$PUCSORTHOREF
  2

  9
$PUCSORTHOVIEW
 70
     0
  9
$PUCSORGTOP
 10
0.0
 20
0.0
 30
0.0
  9
$PUCSORGBOTTOM
 10
0.0
 20
0.0
 30
0.0
  9
$PUCSORGLEFT
 10
0.0
 20
0.0
 30
0.0
  9
$PUCSORGRIGHT
 10
0.0
 20
0.0
 30
0.0
  9
$PUCSORGFRONT
 10
0.0
 20
0.0
 30
0.0
  9
$PUCSORGBACK
 10
0.0
 20
0.0
 30
0.0
  9
$USERI1
 70
     0
  9
$USERI2
 70
     0
  9
$USERI3
 70
     0
  9
$USERI4
 70
     0
  9
$USERI5
 70
     0
  9
$USERR1
 40
0.0
  9
$USERR2
 40
0.0
  9
$USERR3
 40
0.0
  9
$USERR4
 40
0.0
  9
$USERR5
 40
0.0
  9
$WORLDVIEW
 70
     1
  9
$SHADEDGE
 70
     3
  9
$SHADEDIF
 70
    70
  9
$TILEMODE
 70
     1
  9
$MAXACTVP
 70
    16
  9
$PINSBASE
 10
0.0
 20
0.0
 30
0.0
  9
$PLIMCHECK
 70
     0
  9
$PEXTMIN
 10
1.000000000000000E+20
 20
1.000000000000000E+20
 30
1.000000000000000E+20
  9
$PEXTMAX
 10
-1.000000000000000E+20
 20
-1.000000000000000E+20
 30
-1.000000000000000E+20
  9
$PLIMMIN
 10
0.0
 20
0.0
  9
$PLIMMAX
 10
12.0
 20
9.0
  9
$UNITMODE
 70
     0
  9
$VISRETAIN
 70
     0
  9
$PLINEGEN
 70
     0
  9
$PSLTSCALE
 70
     0
  9
$TREEDEPTH
 70
  3020
  9
$CMLSTYLE
  2
STANDARD
  9
$CMLJUST
 70
     0
  9
$CMLSCALE
 40
1.0
  9
$PROXYGRAPHICS
 70
     1
  9
$MEASUREMENT
 70
     1
  9
$CELWEIGHT
370
    -1
  9
$ENDCAPS
280
     0
  9
$JOINSTYLE
280
     0
  9
$LWDISPLAY
290
     0
  9
$INSUNITS
 70
     0
  9
$HYPERLINKBASE
  1

  9
$STYLESHEET
  1

  9
$XEDIT
290
     1
  9
$CEPSNTYPE
380
     0
  9
$PSTYLEMODE
290
     1
  9
$FINGERPRINTGUID
  2
{657513BA-23E7-4626-BCF7-6F82F096B1F9}
  9
$VERSIONGUID
  2
{B744B8D4-A7FD-4FF6-85B9-1890B26C2F0D}
  9
$EXTNAMES
290
     1
  9
$PSVPSCALE
 40
0.0
  9
$OLESTARTUP
290
     0
  0
ENDSEC
  0
SECTION
  2
CLASSES
  0
CLASS
  1
ACDBDICTIONARYWDFLT
  2
AcDbDictionaryWithDefault
  3
ObjectDBX Classes
 90
        0
280
     0
281
     0
  0
CLASS
  1
ACDBPLACEHOLDER
  2
AcDbPlaceHolder
  3
ObjectDBX Classes
 90
        0
280
     0
281
     0
  0
CLASS
  1
LAYOUT
  2
AcDbLayout
  3
ObjectDBX Classes
 90
        0
280
     0
281
     0
  0
CLASS
  1
MATERIAL
  2
AcDbMaterial
  3
ObjectDBX Classes
 90
     1153
280
     0
281
     0
  0
CLASS
  1
VISUALSTYLE
  2
AcDbVisualStyle
  3
ObjectDBX Classes
 90
     4095
280
     0
281
     0
  0
CLASS
  1
TABLESTYLE
  2
AcDbTableStyle
  3
ObjectDBX Classes
 90
     4095
280
     0
281
     0
  0
CLASS
  1
DICTIONARYVAR
  2
AcDbDictionaryVar
  3
ObjectDBX Classes
 90
        0
280
     0
281
     0
  0
CLASS
  1
SCALE
  2
AcDbScale
  3
ObjectDBX Classes
 90
     1153
280
     0
281
     0
  0
CLASS
  1
MLEADERSTYLE
  2
AcDbMLeaderStyle
  3
ACDB_MLEADERSTYLE_CLASS
 90
     4095
280
     0
281
     0
  0
CLASS
  1
CELLSTYLEMAP
  2
AcDbCellStyleMap
  3
ObjectDBX Classes
 90
     1152
280
     0
281
     0
  0
ENDSEC
  0
SECTION
  2
TABLES
  0
TABLE
  2
VPORT
  5
8
330
0
100
AcDbSymbolTable
 70
     1
  0
VPORT
  5
1288
330
8
100
AcDbSymbolTableRecord
100
AcDbViewportTableRecord
  2
*Active
 70
     0
 10
0.0
 20
0.0
 11
1.0
 21
1.0
 12
729.0969581251731
 22
341.5262372975702
 13
0.0
 23
0.0
 14
5.0
 24
5.0
 15
5.0
 25
5.0
 16
0.0
 26
0.0
 36
1.0
 17
0.0
 27
0.0
 37
0.0
 40
44.35886439773635
 41
1.752923976608187
 42
50.0
 43
0.0
 44
0.0
 50
0.0
 51
0.0
 71
     0
 72
   100
 73
     1
 74
     3
 75
     0
 76
     0
 77
     0
 78
     0
281
     0
 65
     1
110
0.0
120
0.0
130
0.0
111
1.0
121
0.0
131
0.0
112
0.0
122
1.0
132
0.0
 79
     0
146
0.0
  0
ENDTAB
  0
TABLE
  2
LTYPE
  5
5
330
0
100
AcDbSymbolTable
 70
     4
  0
LTYPE
  5
13
330
5
100
AcDbSymbolTableRecord
100
AcDbLinetypeTableRecord
  2
BYBLOCK
 70
     0
  3

 72
    65
 73
     0
 40
0.0
  0
LTYPE
  5
14
330
5
100
AcDbSymbolTableRecord
100
AcDbLinetypeTableRecord
  2
BYLAYER
 70
     0
  3

 72
    65
 73
     0
 40
0.0
  0
LTYPE
  5
15
330
5
100
AcDbSymbolTableRecord
100
AcDbLinetypeTableRecord
  2
CONTINUOUS
 70
     0
  3
Solid line
 72
    65
 73
     0
 40
0.0
  0
LTYPE
  5
20
330
5
100
AcDbSymbolTableRecord
100
AcDbLinetypeTableRecord
  2
CENTER
 70
     0
  3
____ . ____ . ____
 72
    65
 73
     4
 40
1.5
 49
1.0
 74
     0
 49
-0.25
 74
     0
 49
0.0
 74
     0
 49
-0.25
 74
     0
  0
LTYPE
  5
21
330
5
100
AcDbSymbolTableRecord
100
AcDbLinetypeTableRecord
  2
HIDDEN
 70
     0
  3
_ _ _ _ _ _ _ _ _ _ _ _ _ _ _ _ _ _ _ _ _ _ _
 72
    65
 73
     2
 40
0.375
 49
0.25
 74
     0
 49
-0.125
 74
     0
  0
LTYPE
  5
14C0
330
5
100
AcDbSymbolTableRecord
100
AcDbLinetypeTableRecord
  2
DASHDOT
 70
     0
  3
Dash dot __ . __ . __ . __ . __ . __ . __ . __
 72
    65
 73
     4
 40
25.4
 49
12.7
 74
     0
 49
-6.349999999999997
 74
     0
 49
0.0
 74
     0
 49
-6.349999999999997
 74
     0
  0
ENDTAB
  0
TABLE
  2
LAYER
  5
2
330
0
100
AcDbSymbolTable
 70
    18
  0
LAYER
  5
F
102
{ACAD_XDICTIONARY
360
148A
102
}
330
2
100
AcDbSymbolTableRecord
100
AcDbLayerTableRecord
  2
0
 70
     0
 62
     7
  6
CONTINUOUS
370
    -3
390
E94
  0
LAYER
  5
1E
102
{ACAD_XDICTIONARY
360
148C
102
}
330
2
100
AcDbSymbolTableRecord
100
AcDbLayerTableRecord
  2
1
 70
     0
 62
     4
  6
CONTINUOUS
370
    -3
390
E94
  0
LAYER
  5
22
102
{ACAD_XDICTIONARY
360
148E
102
}
330
2
100
AcDbSymbolTableRecord
100
AcDbLayerTableRecord
  2
SK1
 70
     0
 62
     4
  6
CONTINUOUS
370
    -3
390
E94
  0
LAYER
  5
23
102
{ACAD_XDICTIONARY
360
1490
102
}
330
2
100
AcDbSymbolTableRecord
100
AcDbLayerTableRecord
  2
2
 70
     0
 62
     7
  6
CONTINUOUS
370
    -3
390
E94
  0
LAYER
  5
24
102
{ACAD_XDICTIONARY
360
1492
102
}
330
2
100
AcDbSymbolTableRecord
100
AcDbLayerTableRecord
  2
2L
 70
     0
 62
     7
  6
CONTINUOUS
370
    -3
390
E94
  0
LAYER
  5
25
102
{ACAD_XDICTIONARY
360
1494
102
}
330
2
100
AcDbSymbolTableRecord
100
AcDbLayerTableRecord
  2
SK2
 70
     0
 62
     7
  6
CONTINUOUS
370
    -3
390
E94
  0
LAYER
  5
26
102
{ACAD_XDICTIONARY
360
1496
102
}
330
2
100
AcDbSymbolTableRecord
100
AcDbLayerTableRecord
  2
3
 70
     0
 62
     1
  6
HIDDEN
370
    -3
390
E94
  0
LAYER
  5
27
102
{ACAD_XDICTIONARY
360
1498
102
}
330
2
100
AcDbSymbolTableRecord
100
AcDbLayerTableRecord
  2
SK3
 70
     0
 62
     1
  6
HIDDEN
370
    -3
390
E94
  0
LAYER
  5
28
102
{ACAD_XDICTIONARY
360
149A
102
}
330
2
100
AcDbSymbolTableRecord
100
AcDbLayerTableRecord
  2
4
 70
     0
 62
     2
  6
CENTER
370
    -3
390
E94
  0
LAYER
  5
29
102
{ACAD_XDICTIONARY
360
149C
102
}
330
2
100
AcDbSymbolTableRecord
100
AcDbLayerTableRecord
  2
SK4
 70
     0
 62
     2
  6
CENTER
370
    -3
390
E94
  0
LAYER
  5
2A
102
{ACAD_XDICTIONARY
360
149E
102
}
330
2
100
AcDbSymbolTableRecord
100
AcDbLayerTableRecord
  2
5
 70
     0
 62
     7
  6
CONTINUOUS
370
    -3
390
E94
  0
LAYER
  5
2B
102
{ACAD_XDICTIONARY
360
14A0
102
}
330
2
100
AcDbSymbolTableRecord
100
AcDbLayerTableRecord
  2
6
 70
     0
 62
     5
  6
CONTINUOUS
370
    -3
390
E94
  0
LAYER
  5
2C
102
{ACAD_XDICTIONARY
360
14A2
102
}
330
2
100
AcDbSymbolTableRecord
100
AcDbLayerTableRecord
  2
SK6
 70
     0
 62
     5
  6
CONTINUOUS
370
    -3
390
E94
  0
LAYER
  5
2D
102
{ACAD_XDICTIONARY
360
14A4
102
}
330
2
100
AcDbSymbolTableRecord
100
AcDbLayerTableRecord
  2
243
 70
     0
 62
     7
  6
CONTINUOUS
370
    -3
390
E94
  0
LAYER
  5
2E
330
2
100
AcDbSymbolTableRecord
100
AcDbLayerTableRecord
  2
DEFPOINTS
 70
     0
 62
     7
  6
CONTINUOUS
290
     0
370
    -3
390
E94
  0
LAYER
  5
C07
102
{ACAD_XDICTIONARY
360
14A6
102
}
330
2
100
AcDbSymbolTableRecord
100
AcDbLayerTableRecord
  2
FRONT
 70
     0
 62
     7
  6
CONTINUOUS
370
    -3
390
E94
  0
LAYER
  5
14C1
330
2
100
AcDbSymbolTableRecord
100
AcDbLayerTableRecord
  2
H
 70
     0
 62
     7
  6
CONTINUOUS
370
   100
390
E94
  0
LAYER
  5
14C2
330
2
100
AcDbSymbolTableRecord
100
AcDbLayerTableRecord
  2
P
 70
     0
 62
   250
  6
CONTINUOUS
370
   100
390
E94
  0
ENDTAB
  0
TABLE
  2
STYLE
  5
3
330
0
100
AcDbSymbolTable
 70
     6
  0
STYLE
  5
10
330
3
100
AcDbSymbolTableRecord
100
AcDbTextStyleTableRecord
  2
STANDARD
 70
     0
 40
0.0
 41
1.0
 50
0.0
 71
     0
 42
5.0
  3
txt
  4

  0
STYLE
  5
1F
330
3
100
AcDbSymbolTableRecord
100
AcDbTextStyleTableRecord
  2
SIMPLEX
 70
     0
 40
0.0
 41
1.0
 50
0.0
 71
     0
 42
3.5
  3
simplex
  4

  0
STYLE
  5
2F
330
3
100
AcDbSymbolTableRecord
100
AcDbTextStyleTableRecord
  2
TXT
 70
     0
 40
8.0
 41
1.0
 50
0.0
 71
     0
 42
8.0
  3
txt
  4

  0
STYLE
  5
C08
330
3
100
AcDbSymbolTableRecord
100
AcDbTextStyleTableRecord
  2
UGMTXT
 70
     0
 40
0.0
 41
1.0
 50
0.0
 71
     0
 42
0.2
  3
ugmtxt
  4
bigfont
  0
STYLE
  5
12D5
330
3
100
AcDbSymbolTableRecord
100
AcDbTextStyleTableRecord
  2
SLDTEXTSTYLE0
 70
     0
 40
0.0
 41
0.75
 50
0.0
 71
     0
 42
0.0
  3
TXT
  4

  0
STYLE
  5
14C3
330
3
100
AcDbSymbolTableRecord
100
AcDbTextStyleTableRecord
  2
Roman
 70
     0
 40
0.0
 41
1.0
 50
0.0
 71
     0
 42
0.2
  3

  4

  0
ENDTAB
  0
TABLE
  2
VIEW
  5
6
330
0
100
AcDbSymbolTable
 70
     0
  0
ENDTAB
  0
TABLE
  2
UCS
  5
7
330
0
100
AcDbSymbolTable
 70
     0
  0
ENDTAB
  0
TABLE
  2
APPID
  5
9
330
0
100
AcDbSymbolTable
 70
     4
  0
APPID
  5
11
330
9
100
AcDbSymbolTableRecord
100
AcDbRegAppTableRecord
  2
ACAD
 70
     0
  0
APPID
  5
E8F
330
9
100
AcDbSymbolTableRecord
100
AcDbRegAppTableRecord
  2
CONTENTBLOCKICON
 70
     0
  0
APPID
  5
1485
330
9
100
AcDbSymbolTableRecord
100
AcDbRegAppTableRecord
  2
ACAD_MLEADERVER
 70
     0
  0
APPID
  5
1717
330
9
100
AcDbSymbolTableRecord
100
AcDbRegAppTableRecord
  2
ACAD_EXEMPT_FROM_CAD_STANDARDS
 70
     0
  0
ENDTAB
  0
TABLE
  2
DIMSTYLE
  5
A
330
0
100
AcDbSymbolTable
 70
     5
100
AcDbDimStyleTable
 71
     5
340
D91
340
1273
340
D93
340
D92
340
980
  0
DIMSTYLE
105
980
330
A
100
AcDbSymbolTableRecord
100
AcDbDimStyleTableRecord
  2
STANDARD
 70
     0
340
10
  0
DIMSTYLE
105
D91
102
{ACAD_REACTORS
330
1F83
330
1F91
330
1F9E
102
}
330
A
100
AcDbSymbolTableRecord
100
AcDbDimStyleTableRecord
  2
V-TYGEN_-160
 70
     0
 41
3.5
 42
1.0
 43
0.5
 44
1.0
 73
     0
 74
     0
 77
     1
140
3.5
141
0.0
147
1.0
271
     0
272
     0
340
10
371
    -1
  0
DIMSTYLE
105
D92
330
A
100
AcDbSymbolTableRecord
100
AcDbDimStyleTableRecord
  2
V-TYG_160-300
 70
     0
 41
5.0
 42
1.0
 43
0.5
 44
1.0
 73
     0
 74
     0
 77
     1
140
5.0
141
0.0
147
1.0
271
     0
272
     0
340
10
  0
DIMSTYLE
105
D93
330
A
100
AcDbSymbolTableRecord
100
AcDbDimStyleTableRecord
  2
V-TYG_300-
 70
     0
 41
8.0
 42
1.0
 43
0.5
 44
1.0
 73
     0
 74
     0
 77
     1
140
8.0
141
0.0
147
1.0
271
     0
272
     0
340
10
  0
DIMSTYLE
105
1273
330
A
100
AcDbSymbolTableRecord
100
AcDbDimStyleTableRecord
  2
Inserts
 70
     0
 41
0.5
 42
1.0
 43
0.5
 44
1.0
 73
     0
 74
     0
 77
     1
140
0.8
141
0.0
147
1.0
271
     0
272
     0
340
10
371
    -1
  0
ENDTAB
  0
TABLE
  2
BLOCK_RECORD
  5
1
330
0
100
AcDbSymbolTable
 70
    30
  0
BLOCK_RECORD
  5
19
102
{ACAD_XDICTIONARY
360
E8D
102
}
330
1
100
AcDbSymbolTableRecord
100
AcDbBlockTableRecord
  2
*MODEL_SPACE
340
E95
  0
BLOCK_RECORD
  5
16
102
{ACAD_XDICTIONARY
360
E8B
102
}
330
1
100
AcDbSymbolTableRecord
100
AcDbBlockTableRecord
  2
*PAPER_SPACE
340
E96
  0
BLOCK_RECORD
  5
1F84
330
1
100
AcDbSymbolTableRecord
100
AcDbBlockTableRecord
  2
*D27
340
0
  0
BLOCK_RECORD
  5
1F92
330
1
100
AcDbSymbolTableRecord
100
AcDbBlockTableRecord
  2
*D28
340
0
  0
BLOCK_RECORD
  5
1F9F
330
1
100
AcDbSymbolTableRecord
100
AcDbBlockTableRecord
  2
*D29
340
0
  0
ENDTAB
  0
ENDSEC
  0
SECTION
  2
BLOCKS
  0
BLOCK
  5
1A
330
19
100
AcDbEntity
  8
0
100
AcDbBlockBegin
  2
*MODEL_SPACE
 70
     0
 10
0.0
 20
0.0
 30
0.0
  3
*MODEL_SPACE
  1

  0
ENDBLK
  5
1B
330
19
100
AcDbEntity
  8
0
100
AcDbBlockEnd
  0
BLOCK
  5
17
330
16
100
AcDbEntity
 67
     1
  8
0
100
AcDbBlockBegin
  2
*PAPER_SPACE
 70
     0
 10
0.0
 20
0.0
 30
0.0
  3
*PAPER_SPACE
  1

  0
ENDBLK
  5
18
330
16
100
AcDbEntity
 67
     1
  8
0
100
AcDbBlockEnd
  0
BLOCK
  5
1F85
330
1F84
100
AcDbEntity
  8
0
100
AcDbBlockBegin
  2
*D27
 70
     1
 10
0.0
 20
0.0
 30
0.0
  3
*D27
  1

  0
LINE
  5
1FF1
330
1F84
100
AcDbEntity
  8
SK2
 62
     0
370
    -2
100
AcDbLine
 10
716.0525037613965
 20
348.6489852719208
 30
0.0
 11
705.6418970099628
 21
348.6489852719208
 31
0.0
  0
LINE
  5
1FF2
330
1F84
100
AcDbEntity
  8
SK2
 62
     0
370
    -2
100
AcDbLine
 10
716.0525037613965
 20
341.6203936052542
 30
0.0
 11
705.6418970099628
 21
341.6203936052542
 31
0.0
  0
LINE
  5
1FF3
330
1F84
100
AcDbEntity
  8
SK2
 62
     0
100
AcDbLine
 10
706.6418970099627
 20
338.1203936052541
 30
0.0
 11
706.6418970099627
 21
334.6203936052542
 31
0.0
  0
LINE
  5
1FF4
330
1F84
100
AcDbEntity
  8
SK2
 62
     0
100
AcDbLine
 10
706.6418970099627
 20
352.1489852719208
 30
0.0
 11
706.6418970099627
 21
363.4823186052541
 31
0.0
  0
SOLID
  5
1FF5
330
1F84
100
AcDbEntity
  8
SK2
 62
     0
100
AcDbTrace
 10
706.0585636766291
 20
338.1203936052541
 30
0.0
 11
707.2252303432962
 21
338.1203936052541
 31
0.0
 12
706.6418970099627
 22
341.6203936052542
 32
0.0
 13
706.6418970099627
 23
341.6203936052542
 33
0.0
  0
SOLID
  5
1FF6
330
1F84
100
AcDbEntity
  8
SK2
 62
     0
100
AcDbTrace
 10
706.0585636766291
 20
352.1489852719208
 30
0.0
 11
707.2252303432962
 21
352.1489852719208
 31
0.0
 12
706.6418970099627
 22
348.6489852719208
 32
0.0
 13
706.6418970099627
 23
348.6489852719208
 33
0.0
  0
MTEXT
  5
1FF7
330
1F84
100
AcDbEntity
  8
SK2
 62
     0
100
AcDbMText
 10
703.8918970099627
 20
359.5656519385876
 30
0.0
 40
3.5
 41
0.0
 71
     5
 72
     1
  1
\A1;%%c7
 11
0.0000000000000001
 21
1.0
 31
0.0
 73
     1
 44
1.0
1001
ACAD
1000
MTEXTBEGIN
1070
    73
1070
     1
1070
    44
1040
1.0
1070
    74
1070
     0
1000
MTEXTEND
  0
POINT
  5
1FF8
330
1F84
100
AcDbEntity
  8
DEFPOINTS
 62
     0
100
AcDbPoint
 10
717.0525037613962
 20
348.6489852719208
 30
0.0
  0
POINT
  5
1FF9
330
1F84
100
AcDbEntity
  8
DEFPOINTS
 62
     0
100
AcDbPoint
 10
717.0525037613962
 20
341.6203936052542
 30
0.0
  0
POINT
  5
1FFA
330
1F84
100
AcDbEntity
  8
DEFPOINTS
 62
     0
100
AcDbPoint
 10
706.6418970099627
 20
341.6203936052542
 30
0.0
  0
ENDBLK
  5
1F86
330
1F84
100
AcDbEntity
  8
0
100
AcDbBlockEnd
  0
BLOCK
  5
1F93
330
1F92
100
AcDbEntity
  8
0
100
AcDbBlockBegin
  2
*D28
 70
     1
 10
0.0
 20
0.0
 30
0.0
  3
*D28
  1

  0
LINE
  5
1FDB
330
1F92
100
AcDbEntity
  8
2
 62
     0
370
    -2
100
AcDbLine
 10
728.0512204280632
 20
351.2664436052542
 30
0.0
 11
728.0512204280632
 21
359.8729658241802
 31
0.0
  0
LINE
  5
1FDC
330
1F92
100
AcDbEntity
  8
2
 62
     0
370
    -2
100
AcDbLine
 10
741.0497037613961
 20
353.7367436052542
 30
0.0
 11
741.0497037613961
 21
359.8729658241802
 31
0.0
  0
LINE
  5
1FDD
330
1F92
100
AcDbEntity
  8
2
 62
     0
100
AcDbLine
 10
731.551220428063
 20
358.8729658241803
 30
0.0
 11
737.5497037613961
 21
358.8729658241803
 31
0.0
  0
SOLID
  5
1FDE
330
1F92
100
AcDbEntity
  8
2
 62
     0
100
AcDbTrace
 10
731.551220428063
 20
359.4562991575137
 30
0.0
 11
731.551220428063
 21
358.2896324908469
 31
0.0
 12
728.0512204280632
 22
358.8729658241803
 32
0.0
 13
728.0512204280632
 23
358.8729658241803
 33
0.0
  0
SOLID
  5
1FDF
330
1F92
100
AcDbEntity
  8
2
 62
     0
100
AcDbTrace
 10
737.5497037613961
 20
359.4562991575137
 30
0.0
 11
737.5497037613961
 21
358.2896324908469
 31
0.0
 12
741.0497037613961
 22
358.8729658241803
 32
0.0
 13
741.0497037613961
 23
358.8729658241803
 33
0.0
  0
MTEXT
  5
1FE0
330
1F92
100
AcDbEntity
  8
2
 62
     0
100
AcDbMText
 10
734.5504620947298
 20
361.6229658241802
 30
0.0
 40
3.5
 41
0.0
 71
     5
 72
     1
  1
\A1;13
 73
     1
 44
1.0
1001
ACAD
1000
MTEXTBEGIN
1070
    73
1070
     1
1070
    44
1040
1.0
1070
    74
1070
     0
1000
MTEXTEND
  0
POINT
  5
1FE1
330
1F92
100
AcDbEntity
  8
DEFPOINTS
 62
     0
100
AcDbPoint
 10
728.0512204280632
 20
350.2664436052541
 30
0.0
  0
POINT
  5
1FE2
330
1F92
100
AcDbEntity
  8
DEFPOINTS
 62
     0
100
AcDbPoint
 10
741.0497037613961
 20
352.7367436052541
 30
0.0
  0
POINT
  5
1FE3
330
1F92
100
AcDbEntity
  8
DEFPOINTS
 62
     0
100
AcDbPoint
 10
741.0497037613961
 20
358.8729658241803
 30
0.0
  0
ENDBLK
  5
1F94
330
1F92
100
AcDbEntity
  8
0
100
AcDbBlockEnd
  0
BLOCK
  5
1FA0
330
1F9F
100
AcDbEntity
  8
0
100
AcDbBlockBegin
  2
*D29
 70
     1
 10
0.0
 20
0.0
 30
0.0
  3
*D29
  1

  0
LINE
  5
1FD2
330
1F9F
100
AcDbEntity
  8
2
 62
     0
370
    -2
100
AcDbLine
 10
740.7557370947297
 20
353.1484602719207
 30
0.0
 11
753.4620333059822
 21
353.1484602719207
 31
0.0
  0
LINE
  5
1FD3
330
1F9F
100
AcDbEntity
  8
2
 62
     0
370
    -2
100
AcDbLine
 10
740.344020428063
 20
337.1209186052541
 30
0.0
 11
753.4620333059822
 21
337.1209186052541
 31
0.0
  0
LINE
  5
1FD4
330
1F9F
100
AcDbEntity
  8
2
 62
     0
100
AcDbLine
 10
752.4620333059822
 20
349.6484602719207
 30
0.0
 11
752.4620333059822
 21
340.6209186052541
 31
0.0
  0
SOLID
  5
1FD5
330
1F9F
100
AcDbEntity
  8
2
 62
     0
100
AcDbTrace
 10
751.8786999726487
 20
349.6484602719207
 30
0.0
 11
753.0453666393156
 21
349.6484602719207
 31
0.0
 12
752.4620333059822
 22
353.1484602719207
 32
0.0
 13
752.4620333059822
 23
353.1484602719207
 33
0.0
  0
SOLID
  5
1FD6
330
1F9F
100
AcDbEntity
  8
2
 62
     0
100
AcDbTrace
 10
751.8786999726487
 20
340.6209186052541
 30
0.0
 11
753.0453666393156
 21
340.6209186052541
 31
0.0
 12
752.4620333059822
 22
337.1209186052541
 32
0.0
 13
752.4620333059822
 23
337.1209186052541
 33
0.0
  0
MTEXT
  5
1FD7
330
1F9F
100
AcDbEntity
  8
2
 62
     0
100
AcDbMText
 10
749.712033305982
 20
345.1346894385875
 30
0.0
 40
3.5
 41
0.0
 71
     5
 72
     1
  1
\A1;%%c16
 11
0.0000000000000001
 21
1.0
 31
0.0
 73
     1
 44
1.0
1001
ACAD
1000
MTEXTBEGIN
1070
    73
1070
     1
1070
    44
1040
1.0
1070
    74
1070
     0
1000
MTEXTEND
  0
POINT
  5
1FD8
330
1F9F
100
AcDbEntity
  8
DEFPOINTS
 62
     0
100
AcDbPoint
 10
739.7557370947297
 20
353.1484602719207
 30
0.0
  0
POINT
  5
1FD9
330
1F9F
100
AcDbEntity
  8
DEFPOINTS
 62
     0
100
AcDbPoint
 10
739.3440204280628
 20
337.1209186052541
 30
0.0
  0
POINT
  5
1FDA
330
1F9F
100
AcDbEntity
  8
DEFPOINTS
 62
     0
100
AcDbPoint
 10
752.4620333059822
 20
337.1209186052541
 30
0.0
  0
ENDBLK
  5
1FA1
330
1F9F
100
AcDbEntity
  8
0
100
AcDbBlockEnd
  0
ENDSEC
  0
SECTION
  2
ENTITIES
  0
MTEXT
  5
1431
330
19
100
AcDbEntity
  8
SK6
100
AcDbMText
 10
717.0729445696109
 20
330.1374996008949
 30
0.0
 40
3.5
 41
80.41994893321954
 71
     1
 72
     5
  1
{\fMonospac821 BT|b0|i0|c0|p49;PF84-16H6-EN1\P02602333}
  7
SIMPLEX
 73
     1
 44
1.0
1001
ACAD
1000
MTEXTBEGIN
1070
    73
1070
     1
1070
    44
1040
1.0
1070
    74
1070
     0
1000
MTEXTEND
  0
LWPOLYLINE
  5
1EB2
330
19
100
AcDbEntity
  8
1
100
AcDbPolyline
 90
       18
 70
     0
 43
0.0
 10
738.8146704280631
 20
342.0615186052542
 10
738.6970370947298
 20
341.9144769385874
 10
738.549995428063
 20
341.7674352719207
 10
738.373545428063
 20
341.6498019385874
 10
738.1970954280632
 20
341.5615769385874
 10
737.9912370947297
 20
341.4733519385874
 10
737.7853787613965
 20
341.4439436052542
 10
737.5501120947298
 20
341.4145352719207
 10
737.3442537613962
 20
341.4145352719207
 10
737.1089870947297
 20
341.4439436052542
 10
736.9031287613964
 20
341.4733519385874
 10
736.6972704280629
 20
341.5615769385874
 10
736.5208204280632
 20
341.6498019385874
 10
736.344370428063
 20
341.7674352719207
 10
736.2267370947297
 20
341.9144769385874
 10
736.1091037613962
 20
342.0615186052542
 10
736.0208787613965
 20
342.2085602719207
 10
736.0208787613965
 20
342.2085602719207
  0
LWPOLYLINE
  5
1EB3
330
19
100
AcDbEntity
  8
1
100
AcDbPolyline
 90
       15
 70
     0
 43
0.0
 10
738.5794037613962
 20
342.5320519385874
 10
738.4911787613962
 20
342.3850102719208
 10
738.3441370947297
 20
342.2673769385874
 10
738.1970954280632
 20
342.1497436052541
 10
738.0206454280631
 20
342.0615186052542
 10
737.844195428063
 20
342.0027019385874
 10
737.6383370947297
 20
341.9732936052541
 10
737.4324787613962
 20
341.9732936052541
 10
737.226620428063
 20
341.9732936052541
 10
737.0207620947297
 20
342.0321102719207
 10
736.8443120947297
 20
342.0909269385874
 10
736.6678620947298
 20
342.1791519385875
 10
736.5208204280632
 20
342.2967852719207
 10
736.4031870947298
 20
342.4144186052541
 10
736.3149620947297
 20
342.5320519385874
  0
LWPOLYLINE
  5
1EB4
330
19
100
AcDbEntity
  8
1
100
AcDbPolyline
 90
       15
 70
     0
 43
0.0
 10
738.5794037613962
 20
342.5320519385874
 10
738.4911787613962
 20
342.3850102719208
 10
738.3441370947297
 20
342.2673769385874
 10
738.1970954280632
 20
342.1497436052541
 10
738.0206454280631
 20
342.0615186052542
 10
737.844195428063
 20
342.0027019385874
 10
737.6383370947297
 20
341.9732936052541
 10
737.4324787613962
 20
341.9732936052541
 10
737.226620428063
 20
341.9732936052541
 10
737.0207620947297
 20
342.0321102719207
 10
736.8443120947297
 20
342.0909269385874
 10
736.6678620947298
 20
342.1791519385875
 10
736.5208204280632
 20
342.2967852719207
 10
736.4031870947298
 20
342.4144186052541
 10
736.3149620947297
 20
342.5320519385874
  0
LWPOLYLINE
  5
1EB8
330
19
100
AcDbEntity
  8
1
100
AcDbPolyline
 90
        2
 70
     0
 43
0.0
 10
738.8734870947297
 20
342.2085602719207
 10
738.8146704280631
 20
342.0615186052542
  0
LWPOLYLINE
  5
1EB9
330
19
100
AcDbEntity
  8
1
100
AcDbPolyline
 90
        2
 70
     0
 43
0.0
 10
738.5794037613962
 20
342.5320519385874
 10
738.5794037613962
 20
342.5320519385874
  0
LWPOLYLINE
  5
1EBA
330
19
100
AcDbEntity
  8
1
100
AcDbPolyline
 90
        2
 70
     0
 43
0.0
 10
738.5794037613962
 20
342.5320519385874
 10
738.5794037613962
 20
342.5320519385874
  0
LWPOLYLINE
  5
1EC1
330
19
100
AcDbEntity
  8
SK1
100
AcDbPolyline
 90
        2
 70
     0
 43
0.0
 10
727.5512787613965
 20
342.7967269385874
 10
727.5512787613965
 20
343.7083852719208
  0
LWPOLYLINE
  5
1EC2
330
19
100
AcDbEntity
  8
SK1
100
AcDbPolyline
 90
        2
 70
     0
 43
0.0
 10
724.8457120947297
 20
343.7083852719208
 10
724.8457120947297
 20
342.7967269385874
  0
LWPOLYLINE
  5
1EC3
330
19
100
AcDbEntity
  8
1
100
AcDbPolyline
 90
        2
 70
     0
 43
0.0
 10
731.050870428063
 20
337.4150019385873
 10
732.0507537613962
 20
337.1209186052541
  0
LWPOLYLINE
  5
1EC4
330
19
100
AcDbEntity
  8
1
100
AcDbPolyline
 90
        2
 70
     0
 43
0.0
 10
739.3440204280628
 20
337.1209186052541
 10
740.0498204280632
 20
337.1797352719208
  0
LWPOLYLINE
  5
1EC5
330
19
100
AcDbEntity
  8
1
100
AcDbPolyline
 90
        2
 70
     0
 43
0.0
 10
740.0498204280632
 20
337.1797352719208
 10
741.0497037613961
 20
337.7679019385874
  0
LWPOLYLINE
  5
1EC6
330
19
100
AcDbEntity
  8
1
100
AcDbPolyline
 90
        2
 70
     0
 43
0.0
 10
732.0507537613962
 20
337.1209186052541
 10
739.3440204280628
 20
337.1209186052541
  0
LWPOLYLINE
  5
1EC7
330
19
100
AcDbEntity
  8
1
100
AcDbPolyline
 90
        2
 70
     0
 43
0.0
 10
730.1980287613965
 20
352.3838436052541
 10
729.4040037613962
 20
351.0310602719207
  0
LWPOLYLINE
  5
1EC8
330
19
100
AcDbEntity
  8
1
100
AcDbPolyline
 90
        2
 70
     0
 43
0.0
 10
729.4040037613962
 20
339.2383186052541
 10
730.0509870947297
 20
338.1208019385874
  0
LWPOLYLINE
  5
1EC9
330
19
100
AcDbEntity
  8
1
100
AcDbPolyline
 90
        2
 70
     0
 43
0.0
 10
728.404120428063
 20
350.6487519385875
 10
728.0512204280632
 20
350.2958519385874
  0
LWPOLYLINE
  5
1ECA
330
19
100
AcDbEntity
  8
1
100
AcDbPolyline
 90
        2
 70
     0
 43
0.0
 10
728.0512204280632
 20
339.9735269385875
 10
728.404120428063
 20
339.6206269385874
  0
LWPOLYLINE
  5
1ECB
330
19
100
AcDbEntity
  8
1
100
AcDbPolyline
 90
        2
 70
     0
 43
0.0
 10
728.404120428063
 20
339.6206269385874
 10
729.4040037613962
 20
339.6206269385874
  0
LWPOLYLINE
  5
1ECC
330
19
100
AcDbEntity
  8
1
100
AcDbPolyline
 90
        2
 70
     0
 43
0.0
 10
729.4040037613962
 20
350.6487519385875
 10
728.404120428063
 20
350.6487519385875
  0
LWPOLYLINE
  5
1ECD
330
19
100
AcDbEntity
  8
SK1
100
AcDbPolyline
 90
        5
 70
     0
 43
0.0
 10
727.8159537613965
 20
341.8262519385874
 10
727.874770428063
 20
341.8262519385874
 10
727.9629954280631
 20
341.7968436052541
 10
728.0218120947297
 20
341.7674352719207
 10
728.0512204280632
 20
341.7380269385875
  0
LWPOLYLINE
  5
1ECE
330
19
100
AcDbEntity
  8
SK1
100
AcDbPolyline
 90
        5
 70
     0
 43
0.0
 10
728.0512204280632
 20
348.5313519385873
 10
728.0218120947297
 20
348.5019436052541
 10
727.9629954280631
 20
348.4725352719207
 10
727.874770428063
 20
348.4431269385873
 10
727.8159537613965
 20
348.4431269385873
  0
LWPOLYLINE
  5
1ECF
330
19
100
AcDbEntity
  8
SK1
100
AcDbPolyline
 90
        2
 70
     0
 43
0.0
 10
726.9631120947297
 20
348.6489852719208
 10
717.0525037613962
 20
348.6489852719208
  0
LWPOLYLINE
  5
1ED0
330
19
100
AcDbEntity
  8
SK1
100
AcDbPolyline
 90
        2
 70
     0
 43
0.0
 10
717.0525037613962
 20
341.6203936052542
 10
726.9631120947297
 20
341.6203936052542
  0
LWPOLYLINE
  5
1ED1
330
19
100
AcDbEntity
  8
SK1
100
AcDbPolyline
 90
        2
 70
     0
 43
0.0
 10
717.0525037613962
 20
348.6489852719208
 10
716.5525620947297
 20
348.3549019385873
  0
LWPOLYLINE
  5
1ED2
330
19
100
AcDbEntity
  8
SK1
100
AcDbPolyline
 90
        2
 70
     0
 43
0.0
 10
716.5525620947297
 20
341.9144769385874
 10
717.0525037613962
 20
341.6203936052542
  0
LWPOLYLINE
  5
1ED3
330
19
100
AcDbEntity
  8
SK1
100
AcDbPolyline
 90
        2
 70
     0
 43
0.0
 10
727.3454204280628
 20
348.4725352719207
 10
726.9631120947297
 20
348.6489852719208
  0
LWPOLYLINE
  5
1ED4
330
19
100
AcDbEntity
  8
SK1
100
AcDbPolyline
 90
        9
 70
     0
 43
0.0
 10
727.4924620947297
 20
348.4431269385873
 10
727.4924620947297
 20
348.4431269385873
 10
727.4630537613961
 20
348.4431269385873
 10
727.433645428063
 20
348.4431269385873
 10
727.4042370947297
 20
348.4431269385873
 10
727.4042370947297
 20
348.4431269385873
 10
727.3748287613962
 20
348.4431269385873
 10
727.3454204280628
 20
348.4725352719207
 10
727.3454204280628
 20
348.4725352719207
  0
LWPOLYLINE
  5
1ED5
330
19
100
AcDbEntity
  8
SK1
100
AcDbPolyline
 90
        2
 70
     0
 43
0.0
 10
727.4924620947297
 20
341.8262519385874
 10
727.8159537613965
 20
341.8262519385874
  0
LWPOLYLINE
  5
1ED6
330
19
100
AcDbEntity
  8
SK1
100
AcDbPolyline
 90
        2
 70
     0
 43
0.0
 10
727.8159537613965
 20
348.4431269385873
 10
727.4924620947297
 20
348.4431269385873
  0
LWPOLYLINE
  5
1ED7
330
19
100
AcDbEntity
  8
SK1
100
AcDbPolyline
 90
        9
 70
     0
 43
0.0
 10
727.3454204280628
 20
341.7968436052541
 10
727.3454204280628
 20
341.7968436052541
 10
727.3748287613962
 20
341.8262519385874
 10
727.4042370947297
 20
341.8262519385874
 10
727.4042370947297
 20
341.8262519385874
 10
727.433645428063
 20
341.8262519385874
 10
727.4630537613961
 20
341.8262519385874
 10
727.4924620947297
 20
341.8262519385874
 10
727.4924620947297
 20
341.8262519385874
  0
LWPOLYLINE
  5
1ED8
330
19
100
AcDbEntity
  8
SK1
100
AcDbPolyline
 90
        2
 70
     0
 43
0.0
 10
726.9631120947297
 20
341.6203936052542
 10
727.3454204280628
 20
341.7968436052541
  0
LWPOLYLINE
  5
1ED9
330
19
100
AcDbEntity
  8
1
100
AcDbPolyline
 90
        2
 70
     0
 43
0.0
 10
731.1390954280629
 20
349.3253769385873
 10
731.1390954280629
 20
349.2959686052541
  0
LWPOLYLINE
  5
1EDA
330
19
100
AcDbEntity
  8
1
100
AcDbPolyline
 90
        2
 70
     0
 43
0.0
 10
736.1385120947297
 20
349.2959686052541
 10
736.1385120947297
 20
349.3253769385873
  0
LWPOLYLINE
  5
1EDB
330
19
100
AcDbEntity
  8
SK1
100
AcDbPolyline
 90
       41
 70
     0
 43
0.0
 10
726.4043537613964
 20
343.9730602719208
 10
726.1984954280631
 20
343.9730602719208
 10
725.9926370947297
 20
343.9730602719208
 10
725.7867787613965
 20
343.9142436052541
 10
725.5809204280629
 20
343.8554269385873
 10
725.404470428063
 20
343.7672019385873
 10
725.2574287613962
 20
343.6495686052542
 10
725.1103870947297
 20
343.5025269385874
 10
724.9927537613962
 20
343.3554852719208
 10
724.9045287613965
 20
343.1790352719207
 10
724.875120428063
 20
343.0025852719207
 10
724.8457120947297
 20
342.7967269385874
 10
724.875120428063
 20
342.6202769385874
 10
724.9045287613965
 20
342.4438269385874
 10
724.9927537613962
 20
342.2673769385874
 10
725.1103870947297
 20
342.1203352719207
 10
725.2574287613962
 20
341.9732936052541
 10
725.404470428063
 20
341.8556602719208
 10
725.5809204280629
 20
341.7674352719207
 10
725.7867787613965
 20
341.7086186052541
 10
725.9926370947297
 20
341.6498019385874
 10
726.1984954280631
 20
341.6498019385874
 10
726.4043537613964
 20
341.6498019385874
 10
726.6102120947297
 20
341.7086186052541
 10
726.8160704280631
 20
341.7674352719207
 10
726.992520428063
 20
341.8556602719208
 10
727.1689704280632
 20
341.9732936052541
 10
727.2866037613961
 20
342.1203352719207
 10
727.4042370947297
 20
342.2673769385874
 10
727.4924620947297
 20
342.4438269385874
 10
727.521870428063
 20
342.6202769385874
 10
727.5512787613965
 20
342.7967269385874
 10
727.521870428063
 20
343.0025852719207
 10
727.4924620947297
 20
343.1790352719207
 10
727.4042370947297
 20
343.3260769385875
 10
727.2866037613961
 20
343.5025269385874
 10
727.1689704280632
 20
343.6201602719208
 10
726.992520428063
 20
343.7672019385873
 10
726.8160704280631
 20
343.8554269385873
 10
726.6102120947297
 20
343.9142436052541
 10
726.4043537613964
 20
343.9730602719208
  0
LWPOLYLINE
  5
1EDC
330
19
100
AcDbEntity
  8
SK1
100
AcDbPolyline
 90
        2
 70
     0
 43
0.0
 10
727.0219287613961
 20
344.9729436052542
 10
727.0219287613961
 20
344.8259019385873
  0
LWPOLYLINE
  5
1EDD
330
19
100
AcDbEntity
  8
1
100
AcDbPolyline
 90
        2
 70
     0
 43
0.0
 10
740.9026620947297
 20
349.4724186052541
 10
741.0497037613961
 20
349.4724186052541
  0
LWPOLYLINE
  5
1EDE
330
19
100
AcDbEntity
  8
1
100
AcDbPolyline
 90
        2
 70
     0
 43
0.0
 10
740.9026620947297
 20
349.2077436052541
 10
741.0497037613961
 20
349.2077436052541
  0
LWPOLYLINE
  5
1EDF
330
19
100
AcDbEntity
  8
1
100
AcDbPolyline
 90
        2
 70
     0
 43
0.0
 10
741.0497037613961
 20
349.2077436052541
 10
741.0497037613961
 20
349.4724186052541
  0
LWPOLYLINE
  5
1EE0
330
19
100
AcDbEntity
  8
1
100
AcDbPolyline
 90
        2
 70
     0
 43
0.0
 10
740.9026620947297
 20
347.8255519385874
 10
741.0497037613961
 20
347.8255519385874
  0
LWPOLYLINE
  5
1EE1
330
19
100
AcDbEntity
  8
1
100
AcDbPolyline
 90
        2
 70
     0
 43
0.0
 10
741.0497037613961
 20
347.8255519385874
 10
741.0497037613961
 20
349.2077436052541
  0
LWPOLYLINE
  5
1EE2
330
19
100
AcDbEntity
  8
1
100
AcDbPolyline
 90
        2
 70
     0
 43
0.0
 10
741.0497037613961
 20
349.6488686052541
 10
740.9026620947297
 20
349.7076852719207
  0
LWPOLYLINE
  5
1EE3
330
19
100
AcDbEntity
  8
1
100
AcDbPolyline
 90
        2
 70
     0
 43
0.0
 10
741.0497037613961
 20
349.4724186052541
 10
741.0497037613961
 20
349.6488686052541
  0
LWPOLYLINE
  5
1EE4
330
19
100
AcDbEntity
  8
1
100
AcDbPolyline
 90
        2
 70
     0
 43
0.0
 10
740.9026620947297
 20
347.7373269385873
 10
741.0497037613961
 20
347.7373269385873
  0
LWPOLYLINE
  5
1EE5
330
19
100
AcDbEntity
  8
1
100
AcDbPolyline
 90
        2
 70
     0
 43
0.0
 10
741.0497037613961
 20
347.7373269385873
 10
741.0497037613961
 20
347.8255519385874
  0
LWPOLYLINE
  5
1EE6
330
19
100
AcDbEntity
  8
1
100
AcDbPolyline
 90
        5
 70
     0
 43
0.0
 10
731.050870428063
 20
337.4738186052541
 10
731.050870428063
 20
337.4444102719207
 10
731.050870428063
 20
337.4150019385873
 10
731.050870428063
 20
337.4150019385873
 10
731.050870428063
 20
337.4150019385873
  0
LWPOLYLINE
  5
1EE7
330
19
100
AcDbEntity
  8
1
100
AcDbPolyline
 90
        3
 70
     0
 43
0.0
 10
731.050870428063
 20
337.4738186052541
 10
731.4625870947297
 20
337.3561852719208
 10
732.0507537613962
 20
337.2091436052542
  0
LWPOLYLINE
  5
1EE8
330
19
100
AcDbEntity
  8
1
100
AcDbPolyline
 90
        5
 70
     0
 43
0.0
 10
732.0507537613962
 20
337.2091436052542
 10
732.0507537613962
 20
337.1797352719208
 10
732.0507537613962
 20
337.1503269385875
 10
732.0507537613962
 20
337.1503269385875
 10
732.0507537613962
 20
337.1209186052541
  0
LWPOLYLINE
  5
1EE9
330
19
100
AcDbEntity
  8
1
100
AcDbPolyline
 90
        2
 70
     0
 43
0.0
 10
740.9026620947297
 20
338.179618605254
 10
741.0497037613961
 20
338.179618605254
  0
LWPOLYLINE
  5
1EEA
330
19
100
AcDbEntity
  8
1
100
AcDbPolyline
 90
        2
 70
     0
 43
0.0
 10
741.0497037613961
 20
337.8267186052541
 10
741.0497037613961
 20
338.179618605254
  0
LWPOLYLINE
  5
1EEB
330
19
100
AcDbEntity
  8
1
100
AcDbPolyline
 90
        3
 70
     0
 43
0.0
 10
740.0498204280632
 20
337.2385519385874
 10
740.1674537613961
 20
337.3267769385874
 10
741.0497037613961
 20
337.8267186052541
  0
LWPOLYLINE
  5
1EEC
330
19
100
AcDbEntity
  8
1
100
AcDbPolyline
 90
        3
 70
     0
 43
0.0
 10
739.3440204280628
 20
337.2091436052542
 10
739.520470428063
 20
337.2091436052542
 10
740.0498204280632
 20
337.2385519385874
  0
LWPOLYLINE
  5
1EED
330
19
100
AcDbEntity
  8
1
100
AcDbPolyline
 90
        2
 70
     0
 43
0.0
 10
732.0507537613962
 20
337.2091436052542
 10
739.3440204280628
 20
337.2091436052542
  0
LWPOLYLINE
  5
1EEE
330
19
100
AcDbEntity
  8
1
100
AcDbPolyline
 90
        2
 70
     0
 43
0.0
 10
731.050870428063
 20
337.5620436052541
 10
731.050870428063
 20
337.4738186052541
  0
LWPOLYLINE
  5
1EEF
330
19
100
AcDbEntity
  8
1
100
AcDbPolyline
 90
        5
 70
     0
 43
0.0
 10
739.3440204280628
 20
337.2091436052542
 10
739.3440204280628
 20
337.1797352719208
 10
739.3440204280628
 20
337.1503269385875
 10
739.3440204280628
 20
337.1503269385875
 10
739.3440204280628
 20
337.1209186052541
  0
LWPOLYLINE
  5
1EF0
330
19
100
AcDbEntity
  8
1
100
AcDbPolyline
 90
        5
 70
     0
 43
0.0
 10
740.0498204280632
 20
337.2385519385874
 10
740.0498204280632
 20
337.2091436052542
 10
740.0498204280632
 20
337.2091436052542
 10
740.0498204280632
 20
337.1797352719208
 10
740.0498204280632
 20
337.1797352719208
  0
LWPOLYLINE
  5
1EF1
330
19
100
AcDbEntity
  8
1
100
AcDbPolyline
 90
        5
 70
     0
 43
0.0
 10
741.0497037613961
 20
337.8267186052541
 10
741.0497037613961
 20
337.7973102719208
 10
741.0497037613961
 20
337.7679019385874
 10
741.0497037613961
 20
337.7679019385874
 10
741.0497037613961
 20
337.7679019385874
  0
LWPOLYLINE
  5
1EF2
330
19
100
AcDbEntity
  8
1
100
AcDbPolyline
 90
        2
 70
     0
 43
0.0
 10
740.9026620947297
 20
338.3854769385874
 10
741.0497037613961
 20
338.3854769385874
  0
LWPOLYLINE
  5
1EF3
330
19
100
AcDbEntity
  8
1
100
AcDbPolyline
 90
        2
 70
     0
 43
0.0
 10
741.0497037613961
 20
338.179618605254
 10
741.0497037613961
 20
338.3854769385874
  0
LWPOLYLINE
  5
1EF4
330
19
100
AcDbEntity
  8
1
100
AcDbPolyline
 90
        2
 70
     0
 43
0.0
 10
731.050870428063
 20
337.5620436052541
 10
740.1674537613961
 20
337.5620436052541
  0
LWPOLYLINE
  5
1EF5
330
19
100
AcDbEntity
  8
1
100
AcDbPolyline
 90
        4
 70
     0
 43
0.0
 10
730.4038870947297
 20
337.5326352719207
 10
730.521520428063
 20
337.5620436052541
 10
730.8156037613962
 20
337.5620436052541
 10
731.050870428063
 20
337.5620436052541
  0
LWPOLYLINE
  5
1EF6
330
19
100
AcDbEntity
  8
1
100
AcDbPolyline
 90
       22
 70
     0
 43
0.0
 10
730.4038870947297
 20
344.7670852719207
 10
730.4038870947297
 20
344.2377352719208
 10
730.4038870947297
 20
343.7377936052541
 10
730.4038870947297
 20
343.2378519385874
 10
730.4038870947297
 20
342.7379102719208
 10
730.4038870947297
 20
342.2673769385874
 10
730.4038870947297
 20
341.7674352719207
 10
730.4038870947297
 20
341.3263102719207
 10
730.4038870947297
 20
340.8851852719207
 10
730.4038870947297
 20
340.4734686052541
 10
730.4038870947297
 20
340.0617519385874
 10
730.4038870947297
 20
339.7088519385874
 10
730.4038870947297
 20
339.3559519385874
 10
730.4038870947297
 20
339.0324602719207
 10
730.4038870947297
 20
338.7383769385874
 10
730.4038870947297
 20
338.4737019385874
 10
730.4038870947297
 20
338.2384352719208
 10
730.4038870947297
 20
338.0325769385875
 10
730.4038870947297
 20
337.8561269385873
 10
730.4038870947297
 20
337.7090852719208
 10
730.4038870947297
 20
337.6208602719207
 10
730.4038870947297
 20
337.5326352719207
  0
LWPOLYLINE
  5
1EF7
330
19
100
AcDbEntity
  8
1
100
AcDbPolyline
 90
        2
 70
     0
 43
0.0
 10
738.4029537613961
 20
344.7670852719207
 10
730.4038870947297
 20
344.7670852719207
  0
LWPOLYLINE
  5
1EF8
330
19
100
AcDbEntity
  8
1
100
AcDbPolyline
 90
        4
 70
     0
 43
0.0
 10
740.1674537613961
 20
344.1495102719207
 10
739.5498787613965
 20
344.3553686052541
 10
738.9617120947298
 20
344.5612269385874
 10
738.4029537613961
 20
344.7670852719207
  0
LWPOLYLINE
  5
1EF9
330
19
100
AcDbEntity
  8
1
100
AcDbPolyline
 90
       20
 70
     0
 43
0.0
 10
740.1674537613961
 20
344.1495102719207
 10
740.1674537613961
 20
343.6201602719208
 10
740.1674537613961
 20
343.1202186052541
 10
740.1674537613961
 20
342.6202769385874
 10
740.1674537613961
 20
342.1203352719207
 10
740.1674537613961
 20
341.6498019385874
 10
740.1674537613961
 20
341.2086769385874
 10
740.1674537613961
 20
340.7675519385874
 10
740.1674537613961
 20
340.3264269385874
 10
740.1674537613961
 20
339.9441186052541
 10
740.1674537613961
 20
339.5618102719208
 10
740.1674537613961
 20
339.2089102719207
 10
740.1674537613961
 20
338.9148269385874
 10
740.1674537613961
 20
338.6207436052541
 10
740.1674537613961
 20
338.3560686052541
 10
740.1674537613961
 20
338.1208019385874
 10
740.1674537613961
 20
337.9443519385874
 10
740.1674537613961
 20
337.7973102719208
 10
740.1674537613961
 20
337.6502686052542
 10
740.1674537613961
 20
337.5620436052541
  0
LWPOLYLINE
  5
1EFA
330
19
100
AcDbEntity
  8
1
100
AcDbPolyline
 90
       38
 70
     0
 43
0.0
 10
737.4618870947297
 20
339.8853019385874
 10
737.755970428063
 20
339.9147102719207
 10
738.0206454280631
 20
339.9441186052541
 10
738.3147287613965
 20
340.0617519385874
 10
738.549995428063
 20
340.1793852719208
 10
738.7558537613962
 20
340.3264269385874
 10
738.9323037613965
 20
340.5028769385874
 10
739.079345428063
 20
340.7087352719208
 10
739.167570428063
 20
340.9440019385874
 10
739.1969787613962
 20
341.2086769385874
 10
739.1969787613962
 20
341.4439436052542
 10
739.1381620947298
 20
341.7086186052541
 10
739.0499370947297
 20
341.9438852719208
 10
738.9028954280632
 20
342.2085602719207
 10
738.726445428063
 20
342.4144186052541
 10
738.4911787613962
 20
342.6202769385874
 10
738.2265037613962
 20
342.7967269385874
 10
737.9324204280631
 20
342.8849519385874
 10
737.6383370947297
 20
342.9437686052541
 10
737.3736620947298
 20
342.9731769385873
 10
737.0795787613961
 20
342.9143602719207
 10
736.8149037613961
 20
342.8555436052541
 10
736.5796370947297
 20
342.7379102719208
 10
736.344370428063
 20
342.5614602719207
 10
736.1385120947297
 20
342.3850102719208
 10
735.9620620947297
 20
342.1497436052541
 10
735.8444287613962
 20
341.8850686052542
 10
735.7562037613964
 20
341.6203936052542
 10
735.6973870947297
 20
341.3557186052541
 10
735.726795428063
 20
341.0910436052541
 10
735.7856120947298
 20
340.8557769385875
 10
735.903245428063
 20
340.6205102719208
 10
736.0502870947298
 20
340.4146519385875
 10
736.2267370947297
 20
340.2676102719207
 10
736.4620037613962
 20
340.1205686052541
 10
736.6972704280629
 20
340.0029352719208
 10
736.9913537613962
 20
339.9441186052541
 10
737.4618870947297
 20
339.8853019385874
  0
LWPOLYLINE
  5
1EFB
330
19
100
AcDbEntity
  8
1
100
AcDbPolyline
 90
        2
 70
     0
 43
0.0
 10
729.903945428063
 20
351.8839019385873
 10
730.4038870947297
 20
352.7661519385873
  0
LWPOLYLINE
  5
1EFC
330
19
100
AcDbEntity
  8
1
100
AcDbPolyline
 90
        3
 70
     0
 43
0.0
 10
729.903945428063
 20
351.8839019385873
 10
729.639270428063
 20
351.3545519385874
 10
729.4040037613962
 20
350.7957936052541
  0
LWPOLYLINE
  5
1EFD
330
19
100
AcDbEntity
  8
1
100
AcDbPolyline
 90
        5
 70
     0
 43
0.0
 10
729.4040037613962
 20
350.7957936052541
 10
729.4040037613962
 20
350.9134269385874
 10
729.4040037613962
 20
350.9722436052541
 10
729.4040037613962
 20
351.0310602719207
 10
729.4040037613962
 20
351.0310602719207
  0
LWPOLYLINE
  5
1EFE
330
19
100
AcDbEntity
  8
1
100
AcDbPolyline
 90
       26
 70
     0
 43
0.0
 10
729.4040037613962
 20
339.2383186052541
 10
729.4040037613962
 20
339.2383186052541
 10
729.4040037613962
 20
339.2677269385874
 10
729.4040037613962
 20
339.3559519385874
 10
729.4040037613962
 20
339.4441769385874
 10
729.4040037613962
 20
339.5912186052541
 10
729.4040037613962
 20
339.7382602719208
 10
729.4040037613962
 20
339.9441186052541
 10
729.4040037613962
 20
340.1793852719208
 10
729.4040037613962
 20
340.4146519385875
 10
729.4040037613962
 20
340.7087352719208
 10
729.4040037613962
 20
341.0028186052542
 10
729.4040037613962
 20
341.3263102719207
 10
729.4040037613962
 20
341.6792102719207
 10
729.4040037613962
 20
342.0321102719207
 10
729.4040037613962
 20
342.4438269385874
 10
729.4040037613962
 20
342.8261352719208
 10
729.4040037613962
 20
343.2378519385874
 10
729.4040037613962
 20
343.6789769385874
 10
729.4040037613962
 20
344.0906936052542
 10
729.4040037613962
 20
344.5318186052542
 10
729.4040037613962
 20
344.9729436052542
 10
729.4040037613962
 20
345.4140686052542
 10
729.4040037613962
 20
345.8551936052542
 10
729.4040037613962
 20
346.2963186052542
 10
729.4040037613962
 20
346.7374436052542
  0
LWPOLYLINE
  5
1EFF
330
19
100
AcDbEntity
  8
1
100
AcDbPolyline
 90
        3
 70
     0
 43
0.0
 10
729.4040037613962
 20
346.7374436052542
 10
729.639270428063
 20
346.1786852719208
 10
729.903945428063
 20
345.6493352719207
  0
LWPOLYLINE
  5
1F00
330
19
100
AcDbEntity
  8
1
100
AcDbPolyline
 90
        2
 70
     0
 43
0.0
 10
730.4038870947297
 20
344.7670852719207
 10
729.903945428063
 20
345.6493352719207
  0
LWPOLYLINE
  5
1F01
330
19
100
AcDbEntity
  8
1
100
AcDbPolyline
 90
        7
 70
     0
 43
0.0
 10
730.0509870947297
 20
338.1208019385874
 10
730.0509870947297
 20
338.1208019385874
 10
730.080395428063
 20
338.0619852719208
 10
730.1392120947297
 20
337.9443519385874
 10
730.2274370947298
 20
337.8267186052541
 10
730.3156620947297
 20
337.7090852719208
 10
730.4038870947297
 20
337.5326352719207
  0
LWPOLYLINE
  5
1F02
330
19
100
AcDbEntity
  8
1
100
AcDbPolyline
 90
        2
 70
     0
 43
0.0
 10
738.549995428063
 20
351.0016519385875
 10
740.9026620947297
 20
350.7663852719208
  0
LWPOLYLINE
  5
1F03
330
19
100
AcDbEntity
  8
1
100
AcDbPolyline
 90
        2
 70
     0
 43
0.0
 10
740.9026620947297
 20
350.7663852719208
 10
740.9026620947297
 20
344.2965519385873
  0
LWPOLYLINE
  5
1F04
330
19
100
AcDbEntity
  8
1
100
AcDbPolyline
 90
        2
 70
     0
 43
0.0
 10
740.9026620947297
 20
344.2965519385873
 10
740.1674537613961
 20
344.1495102719207
  0
LWPOLYLINE
  5
1F05
330
19
100
AcDbEntity
  8
1
100
AcDbPolyline
 90
        2
 70
     0
 43
0.0
 10
738.4029537613961
 20
344.7670852719207
 10
738.4029537613961
 20
350.9428352719207
  0
LWPOLYLINE
  5
1F06
330
19
100
AcDbEntity
  8
1
100
AcDbPolyline
 90
        4
 70
     0
 43
0.0
 10
738.4029537613961
 20
350.9428352719207
 10
738.4617704280628
 20
350.9722436052541
 10
738.4911787613962
 20
351.0016519385875
 10
738.549995428063
 20
351.0016519385875
  0
LWPOLYLINE
  5
1F07
330
19
100
AcDbEntity
  8
1
100
AcDbPolyline
 90
        5
 70
     0
 43
0.0
 10
735.4033037613965
 20
347.1785686052542
 10
735.3150787613961
 20
347.2079769385874
 10
735.2562620947297
 20
347.2373852719207
 10
735.2268537613962
 20
347.2962019385873
 10
735.2268537613962
 20
347.3256102719208
  0
LWPOLYLINE
  5
1F08
330
19
100
AcDbEntity
  8
1
100
AcDbPolyline
 90
        4
 70
     0
 43
0.0
 10
735.2562620947297
 20
347.0021186052541
 10
735.2856704280632
 20
347.0609352719208
 10
735.3150787613961
 20
347.1197519385875
 10
735.4033037613965
 20
347.1785686052542
  0
LWPOLYLINE
  5
1F09
330
19
100
AcDbEntity
  8
1
100
AcDbPolyline
 90
        5
 70
     0
 43
0.0
 10
735.5797537613962
 20
346.8256686052541
 10
735.462120428063
 20
346.8550769385875
 10
735.3444870947297
 20
346.8844852719208
 10
735.2856704280632
 20
346.9433019385874
 10
735.2562620947297
 20
347.0021186052541
  0
LWPOLYLINE
  5
1F0A
330
19
100
AcDbEntity
  8
1
100
AcDbPolyline
 90
        2
 70
     0
 43
0.0
 10
735.9620620947297
 20
346.8256686052541
 10
735.5797537613962
 20
346.8256686052541
  0
LWPOLYLINE
  5
1F0B
330
19
100
AcDbEntity
  8
1
100
AcDbPolyline
 90
        2
 70
     0
 43
0.0
 10
735.9620620947297
 20
347.5314686052541
 10
735.9620620947297
 20
346.8256686052541
  0
LWPOLYLINE
  5
1F0C
330
19
100
AcDbEntity
  8
1
100
AcDbPolyline
 90
        2
 70
     0
 43
0.0
 10
735.5797537613962
 20
347.5314686052541
 10
735.9620620947297
 20
347.5314686052541
  0
LWPOLYLINE
  5
1F0D
330
19
100
AcDbEntity
  8
1
100
AcDbPolyline
 90
        6
 70
     0
 43
0.0
 10
735.2268537613962
 20
347.3256102719208
 10
735.2268537613962
 20
347.4138352719208
 10
735.2856704280632
 20
347.4726519385873
 10
735.3738954280632
 20
347.5020602719208
 10
735.462120428063
 20
347.5314686052541
 10
735.5797537613962
 20
347.5314686052541
  0
LWPOLYLINE
  5
1F0E
330
19
100
AcDbEntity
  8
1
100
AcDbPolyline
 90
        2
 70
     0
 43
0.0
 10
729.903945428063
 20
351.8839019385873
 10
729.903945428063
 20
345.6493352719207
  0
LWPOLYLINE
  5
1F0F
330
19
100
AcDbEntity
  8
1
100
AcDbPolyline
 90
        2
 70
     0
 43
0.0
 10
730.4038870947297
 20
352.7661519385873
 10
734.050520428063
 20
352.7661519385873
  0
LWPOLYLINE
  5
1F10
330
19
100
AcDbEntity
  8
1
100
AcDbPolyline
 90
        2
 70
     0
 43
0.0
 10
734.050520428063
 20
352.7661519385873
 10
734.050520428063
 20
351.0604686052541
  0
LWPOLYLINE
  5
1F11
330
19
100
AcDbEntity
  8
1
100
AcDbPolyline
 90
       46
 70
     0
 43
0.0
 10
735.9620620947297
 20
349.9723602719208
 10
736.0502870947298
 20
349.7665019385875
 10
736.1091037613962
 20
349.5900519385874
 10
736.1385120947297
 20
349.3841936052541
 10
736.1385120947297
 20
349.1783352719207
 10
736.1091037613962
 20
348.9724769385873
 10
736.0208787613965
 20
348.7666186052541
 10
735.9326537613965
 20
348.5607602719207
 10
735.7856120947298
 20
348.3843102719208
 10
735.6091620947297
 20
348.2078602719208
 10
735.4327120947298
 20
348.0608186052541
 10
735.197445428063
 20
347.9137769385873
 10
734.9621787613962
 20
347.7961436052542
 10
734.6975037613962
 20
347.7079186052541
 10
734.4328287613961
 20
347.6196936052541
 10
734.1681537613965
 20
347.5608769385873
 10
733.874070428063
 20
347.5314686052541
 10
733.5799870947298
 20
347.5314686052541
 10
733.2859037613961
 20
347.5608769385873
 10
732.991820428063
 20
347.5902852719207
 10
732.727145428063
 20
347.6785102719207
 10
732.4624704280632
 20
347.7667352719208
 10
732.197795428063
 20
347.8549602719207
 10
731.9919370947298
 20
348.0020019385875
 10
731.7860787613962
 20
348.1490436052541
 10
731.580220428063
 20
348.2960852719207
 10
731.4331787613962
 20
348.4725352719207
 10
731.315545428063
 20
348.6783936052542
 10
731.227320428063
 20
348.8548436052541
 10
731.1685037613962
 20
349.0607019385873
 10
731.1390954280629
 20
349.2665602719208
 10
731.1685037613962
 20
349.4724186052541
 10
731.1979120947297
 20
349.6782769385873
 10
731.2861370947297
 20
349.8841352719207
 10
731.403770428063
 20
350.0605852719207
 10
731.5508120947297
 20
350.2664436052541
 10
731.6978537613962
 20
350.4134852719208
 10
731.9037120947297
 20
350.5605269385875
 10
732.1389787613961
 20
350.7075686052541
 10
732.3742454280631
 20
350.8252019385873
 10
732.6389204280631
 20
350.9134269385874
 10
732.9035954280628
 20
351.0016519385875
 10
733.168270428063
 20
351.0310602719207
 10
733.4623537613962
 20
351.0604686052541
 10
733.7564370947298
 20
351.0604686052541
 10
734.050520428063
 20
351.0604686052541
  0
LWPOLYLINE
  5
1F12
330
19
100
AcDbEntity
  8
1
100
AcDbPolyline
 90
        2
 70
     0
 43
0.0
 10
735.9620620947297
 20
349.9723602719208
 10
737.7853787613965
 20
350.6781602719208
  0
LWPOLYLINE
  5
1F13
330
19
100
AcDbEntity
  8
1
100
AcDbPolyline
 90
        4
 70
     0
 43
0.0
 10
737.7853787613965
 20
350.6781602719208
 10
737.9912370947297
 20
350.7663852719208
 10
738.1970954280632
 20
350.8546102719208
 10
738.4029537613961
 20
350.9428352719207
  0
LWPOLYLINE
  5
1F14
330
19
100
AcDbEntity
  8
1
100
AcDbPolyline
 90
        2
 70
     0
 43
0.0
 10
731.2567287613965
 20
346.9138936052541
 10
731.580220428063
 20
346.9138936052541
  0
LWPOLYLINE
  5
1F15
330
19
100
AcDbEntity
  8
1
100
AcDbPolyline
 90
        2
 70
     0
 43
0.0
 10
731.2567287613965
 20
346.8256686052541
 10
731.2567287613965
 20
346.9138936052541
  0
LWPOLYLINE
  5
1F16
330
19
100
AcDbEntity
  8
1
100
AcDbPolyline
 90
        2
 70
     0
 43
0.0
 10
732.0507537613962
 20
346.8256686052541
 10
731.2567287613965
 20
346.8256686052541
  0
LWPOLYLINE
  5
1F17
330
19
100
AcDbEntity
  8
1
100
AcDbPolyline
 90
        2
 70
     0
 43
0.0
 10
732.0507537613962
 20
346.9138936052541
 10
732.0507537613962
 20
346.8256686052541
  0
LWPOLYLINE
  5
1F18
330
19
100
AcDbEntity
  8
1
100
AcDbPolyline
 90
        2
 70
     0
 43
0.0
 10
731.7272620947298
 20
346.9138936052541
 10
732.0507537613962
 20
346.9138936052541
  0
LWPOLYLINE
  5
1F19
330
19
100
AcDbEntity
  8
1
100
AcDbPolyline
 90
        2
 70
     0
 43
0.0
 10
731.7272620947298
 20
347.5314686052541
 10
731.7272620947298
 20
346.9138936052541
  0
LWPOLYLINE
  5
1F1A
330
19
100
AcDbEntity
  8
1
100
AcDbPolyline
 90
        2
 70
     0
 43
0.0
 10
731.580220428063
 20
347.5314686052541
 10
731.7272620947298
 20
347.5314686052541
  0
LWPOLYLINE
  5
1F1B
330
19
100
AcDbEntity
  8
1
100
AcDbPolyline
 90
        2
 70
     0
 43
0.0
 10
731.580220428063
 20
346.9138936052541
 10
731.580220428063
 20
347.5314686052541
  0
LWPOLYLINE
  5
1F1C
330
19
100
AcDbEntity
  8
1
100
AcDbPolyline
 90
        3
 70
     0
 43
0.0
 10
740.1674537613961
 20
337.5620436052541
 10
740.2556787613962
 20
337.6208602719207
 10
740.9026620947297
 20
338.0031686052541
  0
LWPOLYLINE
  5
1F1D
330
19
100
AcDbEntity
  8
1
100
AcDbPolyline
 90
       20
 70
     0
 43
0.0
 10
740.9026620947297
 20
344.2965519385873
 10
740.9026620947297
 20
343.7966102719207
 10
740.9026620947297
 20
343.3260769385875
 10
740.9026620947297
 20
342.8261352719208
 10
740.9026620947297
 20
342.3556019385874
 10
740.9026620947297
 20
341.9144769385874
 10
740.9026620947297
 20
341.4733519385874
 10
740.9026620947297
 20
341.0616352719208
 10
740.9026620947297
 20
340.6499186052541
 10
740.9026620947297
 20
340.2970186052542
 10
740.9026620947297
 20
339.9147102719207
 10
740.9026620947297
 20
339.5912186052541
 10
740.9026620947297
 20
339.2971352719208
 10
740.9026620947297
 20
339.0030519385874
 10
740.9026620947297
 20
338.7677852719207
 10
740.9026620947297
 20
338.5619269385874
 10
740.9026620947297
 20
338.3560686052541
 10
740.9026620947297
 20
338.2090269385874
 10
740.9026620947297
 20
338.0913936052542
 10
740.9026620947297
 20
338.0031686052541
  0
LWPOLYLINE
  5
1F1E
330
19
100
AcDbEntity
  8
1
100
AcDbPolyline
 90
       10
 70
     0
 43
0.0
 10
737.4618870947297
 20
341.2086769385874
 10
737.6971537613965
 20
341.2380852719207
 10
737.9324204280631
 20
341.2674936052541
 10
738.1676870947297
 20
341.3263102719207
 10
738.373545428063
 20
341.4145352719207
 10
738.5794037613962
 20
341.5321686052541
 10
738.7558537613962
 20
341.6498019385874
 10
738.9028954280632
 20
341.7968436052541
 10
739.0205287613962
 20
341.9732936052541
 10
739.0205287613962
 20
341.9732936052541
  0
LWPOLYLINE
  5
1F1F
330
19
100
AcDbEntity
  8
1
100
AcDbPolyline
 90
       10
 70
     0
 43
0.0
 10
735.8738370947297
 20
341.9732936052541
 10
735.8738370947297
 20
341.9732936052541
 10
735.991470428063
 20
341.7968436052541
 10
736.1385120947297
 20
341.6498019385874
 10
736.3149620947297
 20
341.5321686052541
 10
736.5208204280632
 20
341.4145352719207
 10
736.7266787613962
 20
341.3263102719207
 10
736.961945428063
 20
341.2674936052541
 10
737.1972120947297
 20
341.2380852719207
 10
737.4618870947297
 20
341.2086769385874
  0
LWPOLYLINE
  5
1F20
330
19
100
AcDbEntity
  8
1
100
AcDbPolyline
 90
        2
 70
     0
 43
0.0
 10
729.4040037613962
 20
346.7374436052542
 10
729.4040037613962
 20
347.3844269385874
  0
LWPOLYLINE
  5
1F21
330
19
100
AcDbEntity
  8
1
100
AcDbPolyline
 90
        5
 70
     0
 43
0.0
 10
729.4040037613962
 20
347.3844269385874
 10
729.198145428063
 20
347.4432436052541
 10
728.8746537613961
 20
347.5608769385873
 10
728.5805704280631
 20
347.7667352719208
 10
728.404120428063
 20
347.8843686052541
  0
LWPOLYLINE
  5
1F22
330
19
100
AcDbEntity
  8
1
100
AcDbPolyline
 90
        6
 70
     0
 43
0.0
 10
728.404120428063
 20
347.8843686052541
 10
728.315895428063
 20
348.2666769385874
 10
728.2570787613962
 20
348.6195769385873
 10
728.2570787613962
 20
349.0018852719207
 10
728.2864870947297
 20
349.3841936052541
 10
728.404120428063
 20
349.9135436052541
  0
LWPOLYLINE
  5
1F23
330
19
100
AcDbEntity
  8
1
100
AcDbPolyline
 90
        5
 70
     0
 43
0.0
 10
728.404120428063
 20
349.9135436052541
 10
728.6099787613961
 20
350.0017686052542
 10
728.8452454280631
 20
350.0605852719207
 10
729.1099204280631
 20
350.1194019385873
 10
729.4040037613962
 20
350.1488102719207
  0
LWPOLYLINE
  5
1F24
330
19
100
AcDbEntity
  8
1
100
AcDbPolyline
 90
        2
 70
     0
 43
0.0
 10
729.4040037613962
 20
350.1488102719207
 10
729.4040037613962
 20
350.7957936052541
  0
LWPOLYLINE
  5
1F25
330
19
100
AcDbEntity
  8
1
100
AcDbPolyline
 90
       10
 70
     0
 43
0.0
 10
737.4618870947297
 20
341.5909852719208
 10
737.667745428063
 20
341.6203936052542
 10
737.844195428063
 20
341.6498019385874
 10
738.0500537613961
 20
341.7086186052541
 10
738.2265037613962
 20
341.7968436052541
 10
738.373545428063
 20
341.9144769385874
 10
738.4911787613962
 20
342.0321102719207
 10
738.6088120947297
 20
342.1791519385875
 10
738.6676287613964
 20
342.3261936052542
 10
738.6970370947298
 20
342.4438269385874
  0
LWPOLYLINE
  5
1F26
330
19
100
AcDbEntity
  8
1
100
AcDbPolyline
 90
       10
 70
     0
 43
0.0
 10
736.1973287613961
 20
342.4438269385874
 10
736.2267370947297
 20
342.3261936052542
 10
736.3149620947297
 20
342.1791519385875
 10
736.4031870947298
 20
342.0321102719207
 10
736.5208204280632
 20
341.9144769385874
 10
736.6972704280629
 20
341.7968436052541
 10
736.8443120947297
 20
341.7086186052541
 10
737.0501704280632
 20
341.6498019385874
 10
737.2560287613961
 20
341.6203936052542
 10
737.4618870947297
 20
341.5909852719208
  0
LWPOLYLINE
  5
1F27
330
19
100
AcDbEntity
  8
1
100
AcDbPolyline
 90
       40
 70
     0
 43
0.0
 10
728.0512204280632
 20
339.9735269385875
 10
728.0512204280632
 20
340.0029352719208
 10
728.0512204280632
 20
340.0617519385874
 10
728.0512204280632
 20
340.1205686052541
 10
728.0512204280632
 20
340.2382019385874
 10
728.0512204280632
 20
340.3852436052541
 10
728.0512204280632
 20
340.5616936052542
 10
728.0512204280632
 20
340.7675519385874
 10
728.0512204280632
 20
341.0028186052542
 10
728.0512204280632
 20
341.2674936052541
 10
728.0512204280632
 20
341.5615769385874
 10
728.0512204280632
 20
341.8850686052542
 10
728.0512204280632
 20
342.2085602719207
 10
728.0512204280632
 20
342.5614602719207
 10
728.0512204280632
 20
342.9143602719207
 10
728.0512204280632
 20
343.2966686052541
 10
728.0512204280632
 20
343.7083852719208
 10
728.0512204280632
 20
344.0906936052542
 10
728.0512204280632
 20
344.5024102719208
 10
728.0512204280632
 20
344.9141269385874
 10
728.0512204280632
 20
345.3552519385874
 10
728.0512204280632
 20
345.7669686052541
 10
728.0512204280632
 20
346.1786852719208
 10
728.0512204280632
 20
346.5609936052541
 10
728.0512204280632
 20
346.9727102719208
 10
728.0512204280632
 20
347.3550186052542
 10
728.0512204280632
 20
347.7079186052541
 10
728.0512204280632
 20
348.0608186052541
 10
728.0512204280632
 20
348.3843102719208
 10
728.0512204280632
 20
348.7078019385874
 10
728.0512204280632
 20
349.0018852719207
 10
728.0512204280632
 20
349.2665602719208
 10
728.0512204280632
 20
349.5018269385874
 10
728.0512204280632
 20
349.7076852719207
 10
728.0512204280632
 20
349.8841352719207
 10
728.0512204280632
 20
350.0311769385874
 10
728.0512204280632
 20
350.1488102719207
 10
728.0512204280632
 20
350.2076269385873
 10
728.0512204280632
 20
350.2664436052541
 10
728.0512204280632
 20
350.2958519385874
  0
LWPOLYLINE
  5
1F28
330
19
100
AcDbEntity
  8
1
100
AcDbPolyline
 90
        8
 70
     0
 43
0.0
 10
728.404120428063
 20
349.9135436052541
 10
728.404120428063
 20
350.0899936052541
 10
728.404120428063
 20
350.2664436052541
 10
728.404120428063
 20
350.4134852719208
 10
728.404120428063
 20
350.5017102719207
 10
728.404120428063
 20
350.5899352719207
 10
728.404120428063
 20
350.6193436052541
 10
728.404120428063
 20
350.6487519385875
  0
LWPOLYLINE
  5
1F29
330
19
100
AcDbEntity
  8
1
100
AcDbPolyline
 90
       28
 70
     0
 43
0.0
 10
728.404120428063
 20
339.6206269385874
 10
728.404120428063
 20
339.6500352719207
 10
728.404120428063
 20
339.6794436052541
 10
728.404120428063
 20
339.7676686052542
 10
728.404120428063
 20
339.8853019385874
 10
728.404120428063
 20
340.0323436052541
 10
728.404120428063
 20
340.2087936052542
 10
728.404120428063
 20
340.4146519385875
 10
728.404120428063
 20
340.6499186052541
 10
728.404120428063
 20
340.9145936052541
 10
728.404120428063
 20
341.1792686052542
 10
728.404120428063
 20
341.5027602719208
 10
728.404120428063
 20
341.8262519385874
 10
728.404120428063
 20
342.1791519385875
 10
728.404120428063
 20
342.5614602719207
 10
728.404120428063
 20
342.9437686052541
 10
728.404120428063
 20
343.3260769385875
 10
728.404120428063
 20
343.7377936052541
 10
728.404120428063
 20
344.1789186052541
 10
728.404120428063
 20
344.5906352719207
 10
728.404120428063
 20
345.0023519385874
 10
728.404120428063
 20
345.4434769385874
 10
728.404120428063
 20
345.8846019385874
 10
728.404120428063
 20
346.2963186052542
 10
728.404120428063
 20
346.7080352719207
 10
728.404120428063
 20
347.1197519385875
 10
728.404120428063
 20
347.5020602719208
 10
728.404120428063
 20
347.8843686052541
  0
LWPOLYLINE
  5
1F2A
330
19
100
AcDbEntity
  8
1
100
AcDbPolyline
 90
        2
 70
     0
 43
0.0
 10
735.8150204280629
 20
346.8256686052541
 10
735.8150204280629
 20
346.9138936052541
  0
LWPOLYLINE
  5
1F2B
330
19
100
AcDbEntity
  8
1
100
AcDbPolyline
 90
        2
 70
     0
 43
0.0
 10
735.638570428063
 20
346.8256686052541
 10
735.638570428063
 20
346.9138936052541
  0
LWPOLYLINE
  5
1F2C
330
19
100
AcDbEntity
  8
1
100
AcDbPolyline
 90
        2
 70
     0
 43
0.0
 10
735.638570428063
 20
346.9138936052541
 10
735.8150204280629
 20
346.9138936052541
  0
LWPOLYLINE
  5
1F2D
330
19
100
AcDbEntity
  8
1
100
AcDbPolyline
 90
        2
 70
     0
 43
0.0
 10
735.4033037613965
 20
346.8844852719208
 10
735.4033037613965
 20
347.0315269385873
  0
LWPOLYLINE
  5
1F2E
330
19
100
AcDbEntity
  8
1
100
AcDbPolyline
 90
        6
 70
     0
 43
0.0
 10
735.4033037613965
 20
347.0315269385873
 10
735.4327120947298
 20
346.9727102719208
 10
735.4327120947298
 20
346.9433019385874
 10
735.462120428063
 20
346.9138936052541
 10
735.5503454280628
 20
346.9138936052541
 10
735.638570428063
 20
346.9138936052541
  0
LWPOLYLINE
  5
1F2F
330
19
100
AcDbEntity
  8
1
100
AcDbPolyline
 90
        4
 70
     0
 43
0.0
 10
735.4915287613961
 20
347.1197519385875
 10
735.462120428063
 20
347.1197519385875
 10
735.4327120947298
 20
347.0903436052541
 10
735.4033037613965
 20
347.0315269385873
  0
LWPOLYLINE
  5
1F30
330
19
100
AcDbEntity
  8
1
100
AcDbPolyline
 90
        3
 70
     0
 43
0.0
 10
735.6091620947297
 20
347.1197519385875
 10
735.5503454280628
 20
347.1197519385875
 10
735.4915287613961
 20
347.1197519385875
  0
LWPOLYLINE
  5
1F31
330
19
100
AcDbEntity
  8
1
100
AcDbPolyline
 90
        2
 70
     0
 43
0.0
 10
735.8150204280629
 20
347.1197519385875
 10
735.6091620947297
 20
347.1197519385875
  0
LWPOLYLINE
  5
1F32
330
19
100
AcDbEntity
  8
1
100
AcDbPolyline
 90
        2
 70
     0
 43
0.0
 10
735.8150204280629
 20
346.9138936052541
 10
735.8150204280629
 20
347.1197519385875
  0
LWPOLYLINE
  5
1F33
330
19
100
AcDbEntity
  8
1
100
AcDbPolyline
 90
        2
 70
     0
 43
0.0
 10
731.7272620947298
 20
346.8256686052541
 10
731.7272620947298
 20
346.9138936052541
  0
LWPOLYLINE
  5
1F34
330
19
100
AcDbEntity
  8
1
100
AcDbPolyline
 90
        2
 70
     0
 43
0.0
 10
731.580220428063
 20
346.8256686052541
 10
731.580220428063
 20
346.9138936052541
  0
LWPOLYLINE
  5
1F35
330
19
100
AcDbEntity
  8
1
100
AcDbPolyline
 90
        3
 70
     0
 43
0.0
 10
735.2856704280632
 20
346.9433019385874
 10
735.3150787613961
 20
346.9727102719208
 10
735.4033037613965
 20
347.0315269385873
  0
LWPOLYLINE
  5
1F36
330
19
100
AcDbEntity
  8
1
100
AcDbPolyline
 90
        4
 70
     0
 43
0.0
 10
735.2562620947297
 20
347.2667936052541
 10
735.2856704280632
 20
347.3256102719208
 10
735.3738954280632
 20
347.3550186052542
 10
735.3738954280632
 20
347.3550186052542
  0
LWPOLYLINE
  5
1F37
330
19
100
AcDbEntity
  8
1
100
AcDbPolyline
 90
        2
 70
     0
 43
0.0
 10
735.8150204280629
 20
347.3844269385874
 10
735.9620620947297
 20
347.3844269385874
  0
LWPOLYLINE
  5
1F38
330
19
100
AcDbEntity
  8
1
100
AcDbPolyline
 90
        2
 70
     0
 43
0.0
 10
735.4033037613965
 20
347.1197519385875
 10
735.4327120947298
 20
347.0903436052541
  0
LWPOLYLINE
  5
1F39
330
19
100
AcDbEntity
  8
1
100
AcDbPolyline
 90
        2
 70
     0
 43
0.0
 10
731.580220428063
 20
347.3844269385874
 10
731.7272620947298
 20
347.3844269385874
  0
LWPOLYLINE
  5
1F3A
330
19
100
AcDbEntity
  8
1
100
AcDbPolyline
 90
        2
 70
     0
 43
0.0
 10
735.4033037613965
 20
347.0609352719208
 10
735.4033037613965
 20
347.1785686052542
  0
LWPOLYLINE
  5
1F3B
330
19
100
AcDbEntity
  8
1
100
AcDbPolyline
 90
        6
 70
     0
 43
0.0
 10
735.3738954280632
 20
347.3256102719208
 10
735.3738954280632
 20
347.2667936052541
 10
735.4033037613965
 20
347.2373852719207
 10
735.4327120947298
 20
347.2373852719207
 10
735.5209370947298
 20
347.2079769385874
 10
735.6091620947297
 20
347.2079769385874
  0
LWPOLYLINE
  5
1F3C
330
19
100
AcDbEntity
  8
1
100
AcDbPolyline
 90
        5
 70
     0
 43
0.0
 10
735.4915287613961
 20
347.4432436052541
 10
735.4327120947298
 20
347.4432436052541
 10
735.4033037613965
 20
347.4138352719208
 10
735.3738954280632
 20
347.3844269385874
 10
735.3738954280632
 20
347.3256102719208
  0
LWPOLYLINE
  5
1F3D
330
19
100
AcDbEntity
  8
1
100
AcDbPolyline
 90
        3
 70
     0
 43
0.0
 10
735.5797537613962
 20
347.4432436052541
 10
735.5503454280628
 20
347.4432436052541
 10
735.4915287613961
 20
347.4432436052541
  0
LWPOLYLINE
  5
1F3E
330
19
100
AcDbEntity
  8
1
100
AcDbPolyline
 90
        2
 70
     0
 43
0.0
 10
735.8150204280629
 20
347.4432436052541
 10
735.5797537613962
 20
347.4432436052541
  0
LWPOLYLINE
  5
1F3F
330
19
100
AcDbEntity
  8
1
100
AcDbPolyline
 90
        2
 70
     0
 43
0.0
 10
735.8150204280629
 20
347.2079769385874
 10
735.8150204280629
 20
347.4432436052541
  0
LWPOLYLINE
  5
1F40
330
19
100
AcDbEntity
  8
1
100
AcDbPolyline
 90
        2
 70
     0
 43
0.0
 10
735.6091620947297
 20
347.2079769385874
 10
735.8150204280629
 20
347.2079769385874
  0
LWPOLYLINE
  5
1F41
330
19
100
AcDbEntity
  8
1
100
AcDbPolyline
 90
        2
 70
     0
 43
0.0
 10
735.8150204280629
 20
347.1197519385875
 10
735.8150204280629
 20
347.2079769385874
  0
LWPOLYLINE
  5
1F42
330
19
100
AcDbEntity
  8
1
100
AcDbPolyline
 90
        2
 70
     0
 43
0.0
 10
735.6091620947297
 20
347.1197519385875
 10
735.6091620947297
 20
347.2079769385874
  0
LWPOLYLINE
  5
1F43
330
19
100
AcDbEntity
  8
1
100
AcDbPolyline
 90
        2
 70
     0
 43
0.0
 10
735.3738954280632
 20
347.2079769385874
 10
735.3738954280632
 20
347.3256102719208
  0
LWPOLYLINE
  5
1F44
330
19
100
AcDbEntity
  8
1
100
AcDbPolyline
 90
        2
 70
     0
 43
0.0
 10
735.5797537613962
 20
347.4432436052541
 10
735.5797537613962
 20
347.5314686052541
  0
LWPOLYLINE
  5
1F45
330
19
100
AcDbEntity
  8
SK1
100
AcDbPolyline
 90
        6
 70
     0
 43
0.0
 10
726.9631120947297
 20
341.6203936052542
 10
726.9631120947297
 20
341.6203936052542
 10
726.9631120947297
 20
341.6498019385874
 10
726.9631120947297
 20
341.7086186052541
 10
726.9631120947297
 20
341.7968436052541
 10
726.9631120947297
 20
341.8556602719208
  0
LWPOLYLINE
  5
1F46
330
19
100
AcDbEntity
  8
SK1
100
AcDbPolyline
 90
       19
 70
     0
 43
0.0
 10
726.9631120947297
 20
344.5024102719208
 10
726.9631120947297
 20
344.8553102719208
 10
726.9631120947297
 20
345.1788019385873
 10
726.9631120947297
 20
345.5317019385873
 10
726.9631120947297
 20
345.8846019385874
 10
726.9631120947297
 20
346.2080936052541
 10
726.9631120947297
 20
346.5315852719208
 10
726.9631120947297
 20
346.8256686052541
 10
726.9631120947297
 20
347.1197519385875
 10
726.9631120947297
 20
347.3844269385874
 10
726.9631120947297
 20
347.6491019385874
 10
726.9631120947297
 20
347.8843686052541
 10
726.9631120947297
 20
348.0902269385873
 10
726.9631120947297
 20
348.2372686052542
 10
726.9631120947297
 20
348.3843102719208
 10
726.9631120947297
 20
348.5019436052541
 10
726.9631120947297
 20
348.5901686052541
 10
726.9631120947297
 20
348.6195769385873
 10
726.9631120947297
 20
348.6489852719208
  0
LWPOLYLINE
  5
1F47
330
19
100
AcDbEntity
  8
SK1
100
AcDbPolyline
 90
        3
 70
     0
 43
0.0
 10
726.9631120947297
 20
344.5024102719208
 10
726.9042954280632
 20
344.5318186052542
 10
726.4925787613962
 20
344.6788602719208
  0
LWPOLYLINE
  5
1F48
330
19
100
AcDbEntity
  8
SK1
100
AcDbPolyline
 90
        4
 70
     0
 43
0.0
 10
726.4925787613962
 20
344.6788602719208
 10
726.286720428063
 20
344.7082686052541
 10
726.1984954280631
 20
344.7082686052541
 10
725.9044120947297
 20
344.6788602719208
  0
LWPOLYLINE
  5
1F49
330
19
100
AcDbEntity
  8
SK1
100
AcDbPolyline
 90
       13
 70
     0
 43
0.0
 10
725.9044120947297
 20
344.6788602719208
 10
725.8750037613962
 20
344.6788602719208
 10
725.6397370947297
 20
344.5906352719207
 10
725.3750620947299
 20
344.4730019385874
 10
725.1692037613961
 20
344.3259602719207
 10
724.9927537613962
 20
344.1495102719207
 10
724.8457120947297
 20
343.9436519385873
 10
724.7280787613962
 20
343.7083852719208
 10
724.6986704280629
 20
343.5319352719208
 10
724.6692620947298
 20
343.3260769385875
 10
724.6986704280629
 20
343.1790352719207
 10
724.7574870947297
 20
343.0025852719207
 10
724.8457120947297
 20
342.8849519385874
  0
LWPOLYLINE
  5
1F4A
330
19
100
AcDbEntity
  8
SK1
100
AcDbPolyline
 90
       34
 70
     0
 43
0.0
 10
717.0525037613962
 20
348.6489852719208
 10
717.0525037613962
 20
348.6195769385873
 10
717.0525037613962
 20
348.5607602719207
 10
717.0525037613962
 20
348.4725352719207
 10
717.0525037613962
 20
348.3843102719208
 10
717.0525037613962
 20
348.2372686052542
 10
717.0525037613962
 20
348.0608186052541
 10
717.0525037613962
 20
347.8549602719207
 10
717.0525037613962
 20
347.6196936052541
 10
717.0525037613962
 20
347.3550186052542
 10
717.0525037613962
 20
347.0903436052541
 10
717.0525037613962
 20
346.7962602719207
 10
717.0525037613962
 20
346.4727686052541
 10
717.0525037613962
 20
346.1492769385873
 10
717.0525037613962
 20
345.8257852719207
 10
717.0525037613962
 20
345.4728852719207
 10
717.0525037613962
 20
345.1493936052541
 10
717.0525037613962
 20
344.7964936052541
 10
717.0525037613962
 20
344.4435936052542
 10
717.0525037613962
 20
344.1201019385874
 10
717.0525037613962
 20
343.7966102719207
 10
717.0525037613962
 20
343.4731186052541
 10
717.0525037613962
 20
343.1790352719207
 10
717.0525037613962
 20
342.9143602719207
 10
717.0525037613962
 20
342.6496852719207
 10
717.0525037613962
 20
342.4144186052541
 10
717.0525037613962
 20
342.2379686052541
 10
717.0525037613962
 20
342.0615186052542
 10
717.0525037613962
 20
341.9144769385874
 10
717.0525037613962
 20
341.7968436052541
 10
717.0525037613962
 20
341.7086186052541
 10
717.0525037613962
 20
341.6498019385874
 10
717.0525037613962
 20
341.6203936052542
 10
717.0525037613962
 20
341.6203936052542
  0
LWPOLYLINE
  5
1F4B
330
19
100
AcDbEntity
  8
SK1
100
AcDbPolyline
 90
       17
 70
     0
 43
0.0
 10
716.5525620947297
 20
345.1493936052541
 10
716.5525620947297
 20
345.4728852719207
 10
716.5525620947297
 20
345.7963769385874
 10
716.5525620947297
 20
346.1198686052541
 10
716.5525620947297
 20
346.4139519385873
 10
716.5525620947297
 20
346.7080352719207
 10
716.5525620947297
 20
347.0021186052541
 10
716.5525620947297
 20
347.2667936052541
 10
716.5525620947297
 20
347.5020602719208
 10
716.5525620947297
 20
347.7079186052541
 10
716.5525620947297
 20
347.8843686052541
 10
716.5525620947297
 20
348.0314102719208
 10
716.5525620947297
 20
348.1784519385873
 10
716.5525620947297
 20
348.2666769385874
 10
716.5525620947297
 20
348.3254936052541
 10
716.5525620947297
 20
348.3549019385873
 10
716.5525620947297
 20
348.3549019385873
  0
LWPOLYLINE
  5
1F4C
330
19
100
AcDbEntity
  8
SK1
100
AcDbPolyline
 90
       17
 70
     0
 43
0.0
 10
716.5525620947297
 20
341.9144769385874
 10
716.5525620947297
 20
341.9144769385874
 10
716.5525620947297
 20
341.9438852719208
 10
716.5525620947297
 20
342.0027019385874
 10
716.5525620947297
 20
342.0909269385874
 10
716.5525620947297
 20
342.2379686052541
 10
716.5525620947297
 20
342.3850102719208
 10
716.5525620947297
 20
342.5614602719207
 10
716.5525620947297
 20
342.7673186052542
 10
716.5525620947297
 20
343.0025852719207
 10
716.5525620947297
 20
343.2672602719208
 10
716.5525620947297
 20
343.5613436052542
 10
716.5525620947297
 20
343.8554269385873
 10
716.5525620947297
 20
344.1495102719207
 10
716.5525620947297
 20
344.4730019385874
 10
716.5525620947297
 20
344.7964936052541
 10
716.5525620947297
 20
345.1493936052541
  0
LWPOLYLINE
  5
1F4D
330
19
100
AcDbEntity
  8
SK1
100
AcDbPolyline
 90
       11
 70
     0
 43
0.0
 10
724.8457120947297
 20
343.3260769385875
 10
724.8457120947297
 20
343.4143019385873
 10
724.8457120947297
 20
343.6201602719208
 10
724.875120428063
 20
343.7966102719207
 10
724.9339370947297
 20
343.9730602719208
 10
725.0515704280631
 20
344.1495102719207
 10
725.1692037613961
 20
344.2965519385873
 10
725.3162454280631
 20
344.4435936052542
 10
725.5221037613964
 20
344.5318186052542
 10
725.6985537613961
 20
344.6200436052541
 10
725.9044120947297
 20
344.6788602719208
  0
LWPOLYLINE
  5
1F4E
330
19
100
AcDbEntity
  8
SK1
100
AcDbPolyline
 90
        4
 70
     0
 43
0.0
 10
727.3454204280628
 20
344.1789186052541
 10
727.1983787613962
 20
344.3259602719207
 10
727.0219287613961
 20
344.4730019385874
 10
726.9631120947297
 20
344.5024102719208
  0
LWPOLYLINE
  5
1F4F
330
19
100
AcDbEntity
  8
SK1
100
AcDbPolyline
 90
        2
 70
     0
 43
0.0
 10
727.4924620947297
 20
343.9142436052541
 10
727.3454204280628
 20
344.1789186052541
  0
LWPOLYLINE
  5
1F50
330
19
100
AcDbEntity
  8
SK1
100
AcDbPolyline
 90
        5
 70
     0
 43
0.0
 10
727.5512787613965
 20
343.2084436052542
 10
727.5806870947298
 20
343.3260769385875
 10
727.610095428063
 20
343.5025269385874
 10
727.5806870947298
 20
343.6495686052542
 10
727.4924620947297
 20
343.9142436052541
  0
LWPOLYLINE
  5
1F51
330
19
100
AcDbEntity
  8
SK1
100
AcDbPolyline
 90
       11
 70
     0
 43
0.0
 10
726.4925787613962
 20
344.6788602719208
 10
726.6984370947298
 20
344.6200436052541
 10
726.9042954280632
 20
344.5318186052542
 10
727.0807454280631
 20
344.4435936052542
 10
727.2277870947298
 20
344.2965519385873
 10
727.3748287613962
 20
344.1495102719207
 10
727.4630537613961
 20
343.9730602719208
 10
727.521870428063
 20
343.7966102719207
 10
727.5806870947298
 20
343.6201602719208
 10
727.5806870947298
 20
343.4143019385873
 10
727.5512787613965
 20
343.3260769385875
  0
LWPOLYLINE
  5
1F52
330
19
100
AcDbEntity
  8
1
100
AcDbPolyline
 90
        8
 70
     0
 43
0.0
 10
736.3149620947297
 20
350.7369769385874
 10
736.0208787613965
 20
350.7663852719208
 10
735.7562037613964
 20
350.7663852719208
 10
735.462120428063
 20
350.7957936052541
 10
735.2268537613962
 20
350.7957936052541
 10
734.9915870947297
 20
350.8252019385873
 10
734.7563204280632
 20
350.8546102719208
 10
734.6386870947298
 20
350.8840186052541
  0
LWPOLYLINE
  5
1F53
330
19
100
AcDbEntity
  8
1
100
AcDbPolyline
 90
        8
 70
     0
 43
0.0
 10
736.3149620947297
 20
350.7369769385874
 10
736.344370428063
 20
350.5899352719207
 10
736.3737787613961
 20
350.4723019385874
 10
736.4620037613962
 20
350.3840769385873
 10
736.5502287613962
 20
350.3546686052541
 10
736.7266787613962
 20
350.3546686052541
 10
736.9913537613962
 20
350.4134852719208
 10
737.3442537613962
 20
350.5605269385875
  0
LWPOLYLINE
  5
1F54
330
19
100
AcDbEntity
  8
1
100
AcDbPolyline
 90
        2
 70
     0
 43
0.0
 10
737.3442537613962
 20
350.5605269385875
 10
737.9618287613961
 20
350.8546102719208
  0
LWPOLYLINE
  5
1F55
330
19
100
AcDbEntity
  8
1
100
AcDbPolyline
 90
        4
 70
     0
 43
0.0
 10
738.3441370947297
 20
350.9428352719207
 10
738.3147287613965
 20
350.9134269385874
 10
738.1382787613961
 20
350.8840186052541
 10
737.9618287613961
 20
350.8546102719208
  0
LWPOLYLINE
  5
1F56
330
19
100
AcDbEntity
  8
1
100
AcDbPolyline
 90
       16
 70
     0
 43
0.0
 10
736.3149620947297
 20
342.5320519385874
 10
736.4031870947298
 20
342.4144186052541
 10
736.5208204280632
 20
342.2967852719207
 10
736.6678620947298
 20
342.1791519385875
 10
736.8443120947297
 20
342.0909269385874
 10
737.0207620947297
 20
342.0321102719207
 10
737.226620428063
 20
341.9732936052541
 10
737.4324787613962
 20
341.9732936052541
 10
737.6383370947297
 20
341.9732936052541
 10
737.844195428063
 20
342.0027019385874
 10
738.0206454280631
 20
342.0615186052542
 10
738.1970954280632
 20
342.1497436052541
 10
738.3441370947297
 20
342.2673769385874
 10
738.4911787613962
 20
342.3850102719208
 10
738.5794037613962
 20
342.5320519385874
 10
738.5794037613962
 20
342.5320519385874
  0
LWPOLYLINE
  5
1F57
330
19
100
AcDbEntity
  8
1
100
AcDbPolyline
 90
        2
 70
     0
 43
0.0
 10
738.2559120947298
 20
342.7085019385874
 10
738.2559120947298
 20
342.7673186052542
  0
LWPOLYLINE
  5
1F58
330
19
100
AcDbEntity
  8
1
100
AcDbPolyline
 90
        2
 70
     0
 43
0.0
 10
736.7266787613962
 20
342.7967269385874
 10
736.785495428063
 20
342.5026436052541
  0
LWPOLYLINE
  5
1F59
330
19
100
AcDbEntity
  8
1
100
AcDbPolyline
 90
        2
 70
     0
 43
0.0
 10
736.785495428063
 20
342.5026436052541
 10
737.6089287613962
 20
342.2673769385874
  0
LWPOLYLINE
  5
1F5A
330
19
100
AcDbEntity
  8
1
100
AcDbPolyline
 90
        2
 70
     0
 43
0.0
 10
737.6089287613962
 20
342.2673769385874
 10
738.2559120947298
 20
342.7085019385874
  0
LWPOLYLINE
  5
1F5B
330
19
100
AcDbEntity
  8
1
100
AcDbPolyline
 90
        2
 70
     0
 43
0.0
 10
736.785495428063
 20
342.8261352719208
 10
736.785495428063
 20
342.5026436052541
  0
LWPOLYLINE
  5
1F5C
330
19
100
AcDbEntity
  8
1
100
AcDbPolyline
 90
        2
 70
     0
 43
0.0
 10
737.6089287613962
 20
342.9437686052541
 10
737.6089287613962
 20
342.2673769385874
  0
LWPOLYLINE
  5
1F5D
330
19
100
AcDbEntity
  8
1
100
AcDbPolyline
 90
        2
 70
     0
 43
0.0
 10
741.0497037613961
 20
351.1486936052542
 10
741.0497037613961
 20
349.7076852719207
  0
LWPOLYLINE
  5
1F5E
330
19
100
AcDbEntity
  8
1
100
AcDbPolyline
 90
        2
 70
     0
 43
0.0
 10
741.0497037613961
 20
349.7076852719207
 10
740.9026620947297
 20
349.7076852719207
  0
LWPOLYLINE
  5
1F5F
330
19
100
AcDbEntity
  8
1
100
AcDbPolyline
 90
        2
 70
     0
 43
0.0
 10
734.050520428063
 20
351.0604686052541
 10
734.050520428063
 20
351.1192852719207
  0
LWPOLYLINE
  5
1F60
330
19
100
AcDbEntity
  8
1
100
AcDbPolyline
 90
        2
 70
     0
 43
0.0
 10
734.050520428063
 20
351.1192852719207
 10
741.0497037613961
 20
351.1486936052542
  0
LWPOLYLINE
  5
1F61
330
19
100
AcDbEntity
  8
1
100
AcDbPolyline
 90
        2
 70
     0
 43
0.0
 10
734.050520428063
 20
351.2369186052541
 10
734.050520428063
 20
351.0604686052541
  0
LWPOLYLINE
  5
1F62
330
19
100
AcDbEntity
  8
1
100
AcDbPolyline
 90
        2
 70
     0
 43
0.0
 10
734.050520428063
 20
351.5310019385875
 10
734.050520428063
 20
351.2369186052541
  0
LWPOLYLINE
  5
1F63
330
19
100
AcDbEntity
  8
1
100
AcDbPolyline
 90
        2
 70
     0
 43
0.0
 10
734.050520428063
 20
352.6191102719208
 10
734.050520428063
 20
352.1485769385873
  0
LWPOLYLINE
  5
1F64
330
19
100
AcDbEntity
  8
1
100
AcDbPolyline
 90
        2
 70
     0
 43
0.0
 10
734.050520428063
 20
352.2662102719207
 10
734.050520428063
 20
352.6191102719208
  0
LWPOLYLINE
  5
1F65
330
19
100
AcDbEntity
  8
1
100
AcDbPolyline
 90
        2
 70
     0
 43
0.0
 10
734.050520428063
 20
352.0603519385874
 10
734.050520428063
 20
352.2662102719207
  0
LWPOLYLINE
  5
1F66
330
19
100
AcDbEntity
  8
1
100
AcDbPolyline
 90
        2
 70
     0
 43
0.0
 10
734.050520428063
 20
352.0603519385874
 10
734.050520428063
 20
351.7074519385873
  0
LWPOLYLINE
  5
1F67
330
19
100
AcDbEntity
  8
1
100
AcDbPolyline
 90
        2
 70
     0
 43
0.0
 10
734.050520428063
 20
351.1192852719207
 10
734.050520428063
 20
351.7074519385873
  0
LWPOLYLINE
  5
1F68
330
19
100
AcDbEntity
  8
1
100
AcDbPolyline
 90
        2
 70
     0
 43
0.0
 10
741.0497037613961
 20
351.1486936052542
 10
741.0497037613961
 20
351.7368602719208
  0
LWPOLYLINE
  5
1F69
330
19
100
AcDbEntity
  8
1
100
AcDbPolyline
 90
        2
 70
     0
 43
0.0
 10
734.050520428063
 20
351.7074519385873
 10
741.0497037613961
 20
351.7368602719208
  0
LWPOLYLINE
  5
1F6A
330
19
100
AcDbEntity
  8
1
100
AcDbPolyline
 90
        2
 70
     0
 43
0.0
 10
741.0497037613961
 20
352.0897602719208
 10
734.050520428063
 20
352.0603519385874
  0
LWPOLYLINE
  5
1F6B
330
19
100
AcDbEntity
  8
1
100
AcDbPolyline
 90
        2
 70
     0
 43
0.0
 10
741.0497037613961
 20
351.7368602719208
 10
741.0497037613961
 20
352.0897602719208
  0
LWPOLYLINE
  5
1F6C
330
19
100
AcDbEntity
  8
1
100
AcDbPolyline
 90
        2
 70
     0
 43
0.0
 10
734.9327704280629
 20
353.1190519385873
 10
739.7557370947297
 20
353.1484602719207
  0
LWPOLYLINE
  5
1F6D
330
19
100
AcDbEntity
  8
1
100
AcDbPolyline
 90
        2
 70
     0
 43
0.0
 10
739.7557370947297
 20
353.1484602719207
 10
740.4615370947298
 20
353.0896436052541
  0
LWPOLYLINE
  5
1F6E
330
19
100
AcDbEntity
  8
1
100
AcDbPolyline
 90
        2
 70
     0
 43
0.0
 10
740.4615370947298
 20
353.0896436052541
 10
741.0497037613961
 20
352.7367436052541
  0
LWPOLYLINE
  5
1F6F
330
19
100
AcDbEntity
  8
1
100
AcDbPolyline
 90
        2
 70
     0
 43
0.0
 10
734.050520428063
 20
352.2662102719207
 10
741.0497037613961
 20
352.2956186052542
  0
LWPOLYLINE
  5
1F70
330
19
100
AcDbEntity
  8
1
100
AcDbPolyline
 90
        2
 70
     0
 43
0.0
 10
734.050520428063
 20
352.6191102719208
 10
734.9327704280629
 20
353.1190519385873
  0
LWPOLYLINE
  5
1F71
330
19
100
AcDbEntity
  8
1
100
AcDbPolyline
 90
        2
 70
     0
 43
0.0
 10
741.0497037613961
 20
352.7367436052541
 10
741.0497037613961
 20
352.2956186052542
  0
LWPOLYLINE
  5
1F72
330
19
100
AcDbEntity
  8
1
100
AcDbPolyline
 90
        2
 70
     0
 43
0.0
 10
741.0497037613961
 20
352.2956186052542
 10
741.0497037613961
 20
352.0897602719208
  0
LWPOLYLINE
  5
1F73
330
19
100
AcDbEntity
  8
1
100
AcDbPolyline
 90
       50
 70
     0
 43
0.0
 10
734.6386870947298
 20
350.9428352719207
 10
734.3740120947297
 20
351.0016519385875
 10
734.1093370947297
 20
351.0604686052541
 10
733.8152537613962
 20
351.0898769385873
 10
733.5211704280632
 20
351.0898769385873
 10
733.2270870947297
 20
351.0604686052541
 10
732.9330037613962
 20
351.0016519385875
 10
732.6683287613962
 20
350.9428352719207
 10
732.4036537613965
 20
350.8546102719208
 10
732.1683870947297
 20
350.7369769385874
 10
731.933120428063
 20
350.5899352719207
 10
731.7272620947298
 20
350.4428936052542
 10
731.580220428063
 20
350.2958519385874
 10
731.4331787613962
 20
350.1194019385873
 10
731.315545428063
 20
349.9135436052541
 10
731.227320428063
 20
349.7370936052541
 10
731.1685037613962
 20
349.5312352719208
 10
731.1390954280629
 20
349.3253769385873
 10
731.1685037613962
 20
349.1195186052542
 10
731.227320428063
 20
348.9136602719208
 10
731.2861370947297
 20
348.7078019385874
 10
731.403770428063
 20
348.5313519385873
 10
731.5508120947297
 20
348.3549019385873
 10
731.7272620947298
 20
348.1784519385873
 10
731.933120428063
 20
348.0314102719208
 10
732.1683870947297
 20
347.8843686052541
 10
732.4036537613965
 20
347.7667352719208
 10
732.6683287613962
 20
347.6785102719207
 10
732.9330037613962
 20
347.6196936052541
 10
733.2270870947297
 20
347.5608769385873
 10
733.4917620947297
 20
347.5314686052541
 10
733.7858454280628
 20
347.5314686052541
 10
734.0799287613962
 20
347.5608769385873
 10
734.3740120947297
 20
347.6196936052541
 10
734.6386870947298
 20
347.6785102719207
 10
734.9033620947298
 20
347.7667352719208
 10
735.1386287613961
 20
347.8843686052541
 10
735.3738954280632
 20
348.0314102719208
 10
735.5797537613962
 20
348.1784519385873
 10
735.726795428063
 20
348.3549019385873
 10
735.8738370947297
 20
348.5313519385873
 10
735.991470428063
 20
348.7078019385874
 10
736.079695428063
 20
348.9136602719208
 10
736.1385120947297
 20
349.1195186052542
 10
736.1385120947297
 20
349.3253769385873
 10
736.1385120947297
 20
349.5312352719208
 10
736.079695428063
 20
349.7076852719207
 10
735.991470428063
 20
349.9135436052541
 10
735.8738370947297
 20
350.1194019385873
 10
735.726795428063
 20
350.2958519385874
  0
LWPOLYLINE
  5
1F74
330
19
100
AcDbEntity
  8
1
100
AcDbPolyline
 90
        7
 70
     0
 43
0.0
 10
735.1680370947298
 20
350.0899936052541
 10
735.020995428063
 20
350.1782186052541
 10
734.8151370947297
 20
350.3546686052541
 10
734.6680954280628
 20
350.5311186052541
 10
734.6092787613961
 20
350.6781602719208
 10
734.6092787613961
 20
350.8252019385873
 10
734.6386870947298
 20
350.9428352719207
  0
LWPOLYLINE
  5
1F75
330
19
100
AcDbEntity
  8
1
100
AcDbPolyline
 90
       21
 70
     0
 43
0.0
 10
734.6386870947298
 20
350.9428352719207
 10
734.4622370947297
 20
350.8252019385873
 10
734.2857870947298
 20
350.7075686052541
 10
734.138745428063
 20
350.5899352719207
 10
734.0211120947298
 20
350.4723019385874
 10
733.9328870947297
 20
350.3840769385873
 10
733.874070428063
 20
350.2664436052541
 10
733.8446620947297
 20
350.1782186052541
 10
733.8446620947297
 20
350.1194019385873
 10
733.874070428063
 20
350.0311769385874
 10
733.9328870947297
 20
350.0017686052542
 10
734.0211120947298
 20
349.9429519385873
 10
734.138745428063
 20
349.9429519385873
 10
734.2563787613965
 20
349.9135436052541
 10
734.4328287613961
 20
349.9429519385873
 10
734.6092787613961
 20
349.9723602719208
 10
734.8151370947297
 20
350.0017686052542
 10
735.0504037613961
 20
350.0605852719207
 10
735.2562620947297
 20
350.1194019385873
 10
735.4915287613961
 20
350.2076269385873
 10
735.726795428063
 20
350.2958519385874
  0
LWPOLYLINE
  5
1F76
330
19
100
AcDbEntity
  8
1
100
AcDbPolyline
 90
       25
 70
     0
 43
0.0
 10
733.1976787613962
 20
348.5313519385873
 10
733.168270428063
 20
348.6195769385873
 10
733.1094537613965
 20
348.7078019385874
 10
733.0212287613965
 20
348.7666186052541
 10
732.9035954280628
 20
348.8254352719208
 10
732.7859620947297
 20
348.8548436052541
 10
732.6389204280631
 20
348.8548436052541
 10
732.5212870947297
 20
348.8254352719208
 10
732.4036537613965
 20
348.7960269385873
 10
732.3154287613962
 20
348.7372102719207
 10
732.2272037613961
 20
348.6489852719208
 10
732.197795428063
 20
348.5607602719207
 10
732.197795428063
 20
348.4725352719207
 10
732.2272037613961
 20
348.3843102719208
 10
732.286020428063
 20
348.2960852719207
 10
732.3742454280631
 20
348.2372686052542
 10
732.4918787613965
 20
348.1784519385873
 10
732.6095120947297
 20
348.1490436052541
 10
732.727145428063
 20
348.1490436052541
 10
732.8741870947298
 20
348.1784519385873
 10
732.991820428063
 20
348.2078602719208
 10
733.080045428063
 20
348.2666769385874
 10
733.1388620947298
 20
348.3549019385873
 10
733.168270428063
 20
348.4431269385873
 10
733.1976787613962
 20
348.5313519385873
  0
LWPOLYLINE
  5
1F77
330
19
100
AcDbEntity
  8
1
100
AcDbPolyline
 90
       12
 70
     0
 43
0.0
 10
733.168270428063
 20
348.4137186052541
 10
733.168270428063
 20
348.4725352719207
 10
733.1094537613965
 20
348.5607602719207
 10
733.0212287613965
 20
348.6195769385873
 10
732.9035954280628
 20
348.6783936052542
 10
732.7859620947297
 20
348.7078019385874
 10
732.6389204280631
 20
348.7078019385874
 10
732.5212870947297
 20
348.6783936052542
 10
732.4036537613965
 20
348.6489852719208
 10
732.3154287613962
 20
348.5901686052541
 10
732.2272037613961
 20
348.5019436052541
 10
732.197795428063
 20
348.4137186052541
  0
LWPOLYLINE
  5
1F78
330
19
100
AcDbEntity
  8
1
100
AcDbPolyline
 90
        2
 70
     0
 43
0.0
 10
737.6383370947297
 20
351.0604686052541
 10
739.255795428063
 20
351.0604686052541
  0
LWPOLYLINE
  5
1F79
330
19
100
AcDbEntity
  8
1
100
AcDbPolyline
 90
        9
 70
     0
 43
0.0
 10
735.903245428063
 20
350.7663852719208
 10
735.903245428063
 20
350.7663852719208
 10
736.1091037613962
 20
350.8252019385873
 10
736.3149620947297
 20
350.9134269385874
 10
736.5502287613962
 20
350.9722436052541
 10
736.8149037613961
 20
351.0016519385875
 10
737.0795787613961
 20
351.0310602719207
 10
737.3736620947298
 20
351.0604686052541
 10
737.6383370947297
 20
351.0604686052541
  0
LWPOLYLINE
  5
1F7A
330
19
100
AcDbEntity
  8
1
100
AcDbPolyline
 90
        8
 70
     0
 43
0.0
 10
739.255795428063
 20
351.0604686052541
 10
739.4616537613962
 20
351.0604686052541
 10
739.6675120947297
 20
351.0310602719207
 10
739.8439620947298
 20
351.0016519385875
 10
740.0204120947297
 20
350.9722436052541
 10
740.1674537613961
 20
350.9134269385874
 10
740.2850870947297
 20
350.8546102719208
 10
740.3439037613962
 20
350.8252019385873
  0
LWPOLYLINE
  5
1F7B
330
19
100
AcDbEntity
  8
SK1
100
AcDbPolyline
 90
       17
 70
     0
 43
0.0
 10
727.8159537613965
 20
345.1493936052541
 10
727.8159537613965
 20
345.4728852719207
 10
727.8159537613965
 20
345.7963769385874
 10
727.8159537613965
 20
346.1198686052541
 10
727.8159537613965
 20
346.4433602719207
 10
727.8159537613965
 20
346.7374436052542
 10
727.8159537613965
 20
347.0315269385873
 10
727.8159537613965
 20
347.2962019385873
 10
727.8159537613965
 20
347.5314686052541
 10
727.8159537613965
 20
347.7373269385873
 10
727.8159537613965
 20
347.9431852719208
 10
727.8159537613965
 20
348.0902269385873
 10
727.8159537613965
 20
348.2372686052542
 10
727.8159537613965
 20
348.3254936052541
 10
727.8159537613965
 20
348.3843102719208
 10
727.8159537613965
 20
348.4137186052541
 10
727.8159537613965
 20
348.4431269385873
  0
LWPOLYLINE
  5
1F7C
330
19
100
AcDbEntity
  8
SK1
100
AcDbPolyline
 90
       17
 70
     0
 43
0.0
 10
727.8159537613965
 20
341.8262519385874
 10
727.8159537613965
 20
341.8556602719208
 10
727.8159537613965
 20
341.8850686052542
 10
727.8159537613965
 20
341.9438852719208
 10
727.8159537613965
 20
342.0321102719207
 10
727.8159537613965
 20
342.1791519385875
 10
727.8159537613965
 20
342.3261936052542
 10
727.8159537613965
 20
342.5320519385874
 10
727.8159537613965
 20
342.7379102719208
 10
727.8159537613965
 20
343.0025852719207
 10
727.8159537613965
 20
343.2378519385874
 10
727.8159537613965
 20
343.5319352719208
 10
727.8159537613965
 20
343.8260186052541
 10
727.8159537613965
 20
344.1495102719207
 10
727.8159537613965
 20
344.4730019385874
 10
727.8159537613965
 20
344.7964936052541
 10
727.8159537613965
 20
345.1493936052541
  0
LWPOLYLINE
  5
1F7D
330
19
100
AcDbEntity
  8
SK1
100
AcDbPolyline
 90
       20
 70
     0
 43
0.0
 10
727.3454204280628
 20
344.1789186052541
 10
727.3454204280628
 20
344.5318186052542
 10
727.3454204280628
 20
344.8553102719208
 10
727.3454204280628
 20
345.2082102719207
 10
727.3454204280628
 20
345.5317019385873
 10
727.3454204280628
 20
345.8846019385874
 10
727.3454204280628
 20
346.2080936052541
 10
727.3454204280628
 20
346.5315852719208
 10
727.3454204280628
 20
346.8256686052541
 10
727.3454204280628
 20
347.1197519385875
 10
727.3454204280628
 20
347.3844269385874
 10
727.3454204280628
 20
347.6196936052541
 10
727.3454204280628
 20
347.8255519385874
 10
727.3454204280628
 20
348.0314102719208
 10
727.3454204280628
 20
348.1784519385873
 10
727.3454204280628
 20
348.2960852719207
 10
727.3454204280628
 20
348.3843102719208
 10
727.3454204280628
 20
348.4431269385873
 10
727.3454204280628
 20
348.4725352719207
 10
727.3454204280628
 20
348.4725352719207
  0
LWPOLYLINE
  5
1F7E
330
19
100
AcDbEntity
  8
SK1
100
AcDbPolyline
 90
       21
 70
     0
 43
0.0
 10
727.4924620947297
 20
343.9142436052541
 10
727.4924620947297
 20
344.2377352719208
 10
727.4924620947297
 20
344.5612269385874
 10
727.4924620947297
 20
344.8847186052542
 10
727.4924620947297
 20
345.2376186052541
 10
727.4924620947297
 20
345.5611102719208
 10
727.4924620947297
 20
345.8846019385874
 10
727.4924620947297
 20
346.2080936052541
 10
727.4924620947297
 20
346.5315852719208
 10
727.4924620947297
 20
346.8256686052541
 10
727.4924620947297
 20
347.0903436052541
 10
727.4924620947297
 20
347.3550186052542
 10
727.4924620947297
 20
347.5902852719207
 10
727.4924620947297
 20
347.7961436052542
 10
727.4924620947297
 20
348.0020019385875
 10
727.4924620947297
 20
348.1490436052541
 10
727.4924620947297
 20
348.2666769385874
 10
727.4924620947297
 20
348.3549019385873
 10
727.4924620947297
 20
348.4137186052541
 10
727.4924620947297
 20
348.4431269385873
 10
727.4924620947297
 20
348.4431269385873
  0
LWPOLYLINE
  5
1F7F
330
19
100
AcDbEntity
  8
SK1
100
AcDbPolyline
 90
        8
 70
     0
 43
0.0
 10
727.4924620947297
 20
341.8262519385874
 10
727.4924620947297
 20
341.8556602719208
 10
727.4924620947297
 20
341.8850686052542
 10
727.4924620947297
 20
341.9732936052541
 10
727.4924620947297
 20
342.0909269385874
 10
727.4924620947297
 20
342.2379686052541
 10
727.4924620947297
 20
342.4144186052541
 10
727.4924620947297
 20
342.5026436052541
  0
LWPOLYLINE
  5
1F80
330
19
100
AcDbEntity
  8
SK1
100
AcDbPolyline
 90
        6
 70
     0
 43
0.0
 10
727.3454204280628
 20
341.7968436052541
 10
727.3454204280628
 20
341.8262519385874
 10
727.3454204280628
 20
341.8556602719208
 10
727.3454204280628
 20
341.9438852719208
 10
727.3454204280628
 20
342.0615186052542
 10
727.3454204280628
 20
342.1791519385875
  0
LWPOLYLINE
  5
1F81
330
19
100
AcDbEntity
  8
1
100
AcDbPolyline
 90
        2
 70
     0
 43
0.0
 10
739.255795428063
 20
350.9428352719207
 10
739.255795428063
 20
351.0604686052541
  0
LWPOLYLINE
  5
1F82
330
19
100
AcDbEntity
  8
1
100
AcDbPolyline
 90
        2
 70
     0
 43
0.0
 10
737.6383370947297
 20
350.7075686052541
 10
737.6383370947297
 20
351.0604686052541
  0
DIMENSION
  5
1F83
330
19
100
AcDbEntity
  8
SK2
100
AcDbDimension
  2
*D27
 10
706.6418970099627
 20
341.6203936052542
 30
0.0
 11
706.6418970099626
 21
359.5656519385876
 31
0.0
 70
   160
  1
%%c<>
 71
     5
 42
7.028591666666669
  3
V-TYGEN_-160
100
AcDbAlignedDimension
 13
717.0525037613962
 23
348.6489852719208
 33
0.0
 14
717.0525037613962
 24
341.6203936052542
 34
0.0
 50
90.0
100
AcDbRotatedDimension
  0
DIMENSION
  5
1F91
330
19
100
AcDbEntity
  8
2
100
AcDbDimension
  2
*D28
 10
741.0497037613961
 20
358.8729658241803
 30
0.0
 11
734.5504620947298
 21
361.6229658241802
 31
0.0
 70
    32
 71
     5
 42
12.99848333333318
  3
V-TYGEN_-160
100
AcDbAlignedDimension
 13
728.0512204280632
 23
350.2664436052541
 33
0.0
 14
741.0497037613961
 24
352.7367436052541
 34
0.0
100
AcDbRotatedDimension
  0
DIMENSION
  5
1F9E
330
19
100
AcDbEntity
  8
2
100
AcDbDimension
  2
*D29
 10
752.4620333059822
 20
337.1209186052541
 30
0.0
 11
749.712033305982
 21
345.1346894385875
 31
0.0
 70
    32
  1
%%c<>
 71
     5
 42
16.02754166666665
  3
V-TYGEN_-160
100
AcDbAlignedDimension
 13
739.7557370947297
 23
353.1484602719207
 33
0.0
 14
739.3440204280628
 24
337.1209186052541
 34
0.0
 50
90.0
100
AcDbRotatedDimension
  0
LINE
  5
1FE5
330
19
100
AcDbEntity
  8
SK4
100
AcDbLine
 10
742.2100901906108
 20
345.1346894385873
 30
0.0
 11
715.4470936412304
 21
345.1346894385873
 31
0.0
  0
LINE
  5
1FE6
330
19
100
AcDbEntity
  8
4
100
AcDbLine
 10
728.0512204280632
 20
345.1346894385873
 30
0.0
 11
742.2100901906108
 21
345.1346894385873
 31
0.0
  0
ENDSEC
  0
SECTION
  2
OBJECTS
  0
DICTIONARY
  5
C
330
0
100
AcDbDictionary
281
     1
  3
ACAD_COLOR
350
129F
  3
ACAD_GROUP
350
D
  3
ACAD_LAYOUT
350
A85
  3
ACAD_MATERIAL
350
128A
  3
ACAD_MLEADERSTYLE
350
1483
  3
ACAD_MLINESTYLE
350
E
  3
ACAD_PLOTSETTINGS
350
A86
  3
ACAD_PLOTSTYLENAME
350
E93
  3
ACAD_SCALELIST
350
1461
  3
ACAD_TABLESTYLE
350
12A0
  3
ACAD_VISUALSTYLE
350
128E
  3
ACDB_RECOMPOSE_DATA
350
14AC
  3
AcDbVariableDictionary
350
1433
  3
DWGPROPS
350
201D
1001
ACAD
1000
TREAT_AS_HARD
1070
     0
  0
DICTIONARY
  5
148A
330
F
100
AcDbDictionary
280
     1
281
     1
  3
ADSK_XREC_LAYER_RECONCILED
360
148B
  0
DICTIONARY
  5
148C
330
1E
100
AcDbDictionary
280
     1
281
     1
  3
ADSK_XREC_LAYER_RECONCILED
360
148D
  0
DICTIONARY
  5
148E
330
22
100
AcDbDictionary
280
     1
281
     1
  3
ADSK_XREC_LAYER_RECONCILED
360
148F
  0
DICTIONARY
  5
1490
330
23
100
AcDbDictionary
280
     1
281
     1
  3
ADSK_XREC_LAYER_RECONCILED
360
1491
  0
DICTIONARY
  5
1492
330
24
100
AcDbDictionary
280
     1
281
     1
  3
ADSK_XREC_LAYER_RECONCILED
360
1493
  0
DICTIONARY
  5
1494
330
25
100
AcDbDictionary
280
     1
281
     1
  3
ADSK_XREC_LAYER_RECONCILED
360
1495
  0
DICTIONARY
  5
1496
330
26
100
AcDbDictionary
280
     1
281
     1
  3
ADSK_XREC_LAYER_RECONCILED
360
1497
  0
DICTIONARY
  5
1498
330
27
100
AcDbDictionary
280
     1
281
     1
  3
ADSK_XREC_LAYER_RECONCILED
360
1499
  0
DICTIONARY
  5
149A
330
28
100
AcDbDictionary
280
     1
281
     1
  3
ADSK_XREC_LAYER_RECONCILED
360
149B
  0
DICTIONARY
  5
149C
330
29
100
AcDbDictionary
280
     1
281
     1
  3
ADSK_XREC_LAYER_RECONCILED
360
149D
  0
DICTIONARY
  5
149E
330
2A
100
AcDbDictionary
280
     1
281
     1
  3
ADSK_XREC_LAYER_RECONCILED
360
149F
  0
DICTIONARY
  5
14A0
330
2B
100
AcDbDictionary
280
     1
281
     1
  3
ADSK_XREC_LAYER_RECONCILED
360
14A1
  0
DICTIONARY
  5
14A2
330
2C
100
AcDbDictionary
280
     1
281
     1
  3
ADSK_XREC_LAYER_RECONCILED
360
14A3
  0
DICTIONARY
  5
14A4
330
2D
100
AcDbDictionary
280
     1
281
     1
  3
ADSK_XREC_LAYER_RECONCILED
360
14A5
  0
DICTIONARY
  5
14A6
330
C07
100
AcDbDictionary
280
     1
281
     1
  3
ADSK_XREC_LAYER_RECONCILED
360
14A7
  0
DICTIONARY
  5
E8D
330
19
100
AcDbDictionary
280
     1
281
     1
  0
DICTIONARY
  5
E8B
330
16
100
AcDbDictionary
280
     1
281
     1
  0
DICTIONARY
  5
129F
102
{ACAD_REACTORS
330
C
102
}
330
C
100
AcDbDictionary
281
     1
  0
DICTIONARY
  5
D
102
{ACAD_REACTORS
330
C
102
}
330
C
100
AcDbDictionary
281
     1
1001
ACAD
1000
TREAT_AS_HARD
1070
     0
  0
DICTIONARY
  5
A85
102
{ACAD_REACTORS
330
C
102
}
330
C
100
AcDbDictionary
281
     1
  3
Layout1
350
E96
  3
Model
350
E95
1001
ACAD
1000
TREAT_AS_HARD
1070
     0
  0
DICTIONARY
  5
128A
102
{ACAD_REACTORS
330
C
102
}
330
C
100
AcDbDictionary
281
     1
  3
ByBlock
350
128C
  3
ByLayer
350
128B
  3
Global
350
128D
  0
DICTIONARY
  5
1483
102
{ACAD_REACTORS
330
C
102
}
330
C
100
AcDbDictionary
281
     1
  3
Standard
350
1484
  0
DICTIONARY
  5
E
102
{ACAD_REACTORS
330
C
102
}
330
C
100
AcDbDictionary
281
     1
  3
STANDARD
350
1C
1001
ACAD
1000
TREAT_AS_HARD
1070
     0
  0
DICTIONARY
  5
A86
102
{ACAD_REACTORS
330
C
102
}
330
C
100
AcDbDictionary
281
     1
1001
ACAD
1000
TREAT_AS_HARD
1070
     0
  0
ACDBDICTIONARYWDFLT
  5
E93
102
{ACAD_REACTORS
330
C
102
}
330
C
100
AcDbDictionary
281
     1
  3
Normal
350
E94
100
AcDbDictionaryWithDefault
340
E94
  0
DICTIONARY
  5
1461
102
{ACAD_REACTORS
330
C
102
}
330
C
100
AcDbDictionary
281
     1
  3
A0
350
1462
  3
A1
350
1463
  3
A2
350
1464
  3
A3
350
1465
  3
A4
350
1466
  3
A5
350
1467
  3
A6
350
1468
  3
A7
350
1469
  3
A8
350
146A
  3
A9
350
146B
  3
B0
350
146C
  3
B1
350
146D
  3
B2
350
146E
  3
B3
350
146F
  3
B4
350
1470
  3
B5
350
1471
  3
B6
350
1472
  3
B7
350
1473
  3
B8
350
1474
  3
B9
350
1475
  3
C0
350
1476
  3
C1
350
1477
  3
C2
350
1478
  3
C3
350
1479
  3
C4
350
147A
  3
C5
350
147B
  3
C6
350
147C
  3
C7
350
147D
  3
C8
350
147E
  3
C9
350
147F
  3
D0
350
1480
  3
D1
350
1481
  3
D2
350
1482
  0
DICTIONARY
  5
12A0
102
{ACAD_REACTORS
330
C
102
}
330
C
100
AcDbDictionary
281
     1
  3
Standard
350
12A1
  0
DICTIONARY
  5
128E
102
{ACAD_REACTORS
330
C
102
}
330
C
100
AcDbDictionary
281
     1
  3
2dWireframe
350
1294
  3
3D Hidden
350
1296
  3
3dWireframe
350
1295
  3
Basic
350
1293
  3
Brighten
350
129A
  3
ColorChange
350
129E
  3
Conceptual
350
1297
  3
Dim
350
1299
  3
Facepattern
350
129D
  3
Flat
350
128F
  3
FlatWithEdges
350
1290
  3
Gouraud
350
1291
  3
GouraudWithEdges
350
1292
  3
Linepattern
350
129C
  3
Realistic
350
1298
  3
Thicken
350
129B
  0
XRECORD
  5
14AC
102
{ACAD_REACTORS
330
C
102
}
330
C
100
AcDbXrecord
280
     1
 90
        1
330
12A1
  0
DICTIONARY
  5
1433
102
{ACAD_REACTORS
330
C
102
}
330
C
100
AcDbDictionary
281
     1
  3
CANNOSCALE
350
14A9
  3
CMLEADERSTYLE
350
14A8
  3
CTABLESTYLE
350
1434
  3
DIMASSOC
350
1437
  3
INDEXCTL
350
1436
  3
SORTENTS
350
1435
  0
XRECORD
  5
201D
102
{ACAD_REACTORS
330
C
102
}
330
C
100
AcDbXrecord
280
     1
  1
DWGPROPS COOKIE
  2

  3

  4

  6

  7

  8
inpunamok
  9

300
=
301
=
302
=
303
=
304
=
305
=
306
=
307
=
308
=
309
=
 40
0.1101079282407407
 41
2455495.43569007
 42
2455597.633199039
  1

 90
        0
  0
XRECORD
  5
148B
102
{ACAD_REACTORS
330
148A
102
}
330
148A
100
AcDbXrecord
280
     1
290
     1
  0
XRECORD
  5
148D
102
{ACAD_REACTORS
330
148C
102
}
330
148C
100
AcDbXrecord
280
     1
290
     1
  0
XRECORD
  5
148F
102
{ACAD_REACTORS
330
148E
102
}
330
148E
100
AcDbXrecord
280
     1
290
     1
  0
XRECORD
  5
1491
102
{ACAD_REACTORS
330
1490
102
}
330
1490
100
AcDbXrecord
280
     1
290
     1
  0
XRECORD
  5
1493
102
{ACAD_REACTORS
330
1492
102
}
330
1492
100
AcDbXrecord
280
     1
290
     1
  0
XRECORD
  5
1495
102
{ACAD_REACTORS
330
1494
102
}
330
1494
100
AcDbXrecord
280
     1
290
     1
  0
XRECORD
  5
1497
102
{ACAD_REACTORS
330
1496
102
}
330
1496
100
AcDbXrecord
280
     1
290
     1
  0
XRECORD
  5
1499
102
{ACAD_REACTORS
330
1498
102
}
330
1498
100
AcDbXrecord
280
     1
290
     1
  0
XRECORD
  5
149B
102
{ACAD_REACTORS
330
149A
102
}
330
149A
100
AcDbXrecord
280
     1
290
     1
  0
XRECORD
  5
149D
102
{ACAD_REACTORS
330
149C
102
}
330
149C
100
AcDbXrecord
280
     1
290
     1
  0
XRECORD
  5
149F
102
{ACAD_REACTORS
330
149E
102
}
330
149E
100
AcDbXrecord
280
     1
290
     1
  0
XRECORD
  5
14A1
102
{ACAD_REACTORS
330
14A0
102
}
330
14A0
100
AcDbXrecord
280
     1
290
     1
  0
XRECORD
  5
14A3
102
{ACAD_REACTORS
330
14A2
102
}
330
14A2
100
AcDbXrecord
280
     1
290
     1
  0
XRECORD
  5
14A5
102
{ACAD_REACTORS
330
14A4
102
}
330
14A4
100
AcDbXrecord
280
     1
290
     1
  0
XRECORD
  5
14A7
102
{ACAD_REACTORS
330
14A6
102
}
330
14A6
100
AcDbXrecord
280
     1
290
     1
  0
LAYOUT
  5
E96
102
{ACAD_XDICTIONARY
360
2020
102
}
102
{ACAD_REACTORS
330
A85
102
}
330
A85
100
AcDbPlotSettings
  1

  2
\\SECO_TOOLS\Q_HP8100_WMM.LANDSKAP.PL1.HUS_A.FAGERSTA.SE.SECO_TOOLS
  4

  6

 40
0.0
 41
0.0
 42
0.0
 43
0.0
 44
0.0
 45
0.0
 46
0.0
 47
0.0
 48
0.0
 49
0.0
140
0.0
141
0.0
142
1.0
143
1.0
 70
   688
 72
     0
 73
     0
 74
     5
  7

 75
    16
147
1.0
148
0.0
149
0.0
100
AcDbLayout
  1
Layout1
 70
     0
 71
     1
 10
0.0
 20
0.0
 11
12.0
 21
9.0
 12
0.0
 22
0.0
 32
0.0
 14
1.000000000000000E+20
 24
1.000000000000000E+20
 34
1.000000000000000E+20
 15
-1.000000000000000E+20
 25
-1.000000000000000E+20
 35
-1.000000000000000E+20
146
0.0
 13
0.0
 23
0.0
 33
0.0
 16
1.0
 26
0.0
 36
0.0
 17
0.0
 27
1.0
 37
0.0
 76
     0
330
16
  0
LAYOUT
  5
E95
102
{ACAD_XDICTIONARY
360
201E
102
}
102
{ACAD_REACTORS
330
A85
102
}
330
A85
100
AcDbPlotSettings
  1

  2
\\SECO_TOOLS\Q_HP8100_WMM.LANDSKAP.PL1.HUS_A.FAGERSTA.SE.SECO_TOOLS
  4

  6

 40
0.0
 41
0.0
 42
0.0
 43
0.0
 44
0.0
 45
0.0
 46
0.0
 47
0.0
 48
0.0
 49
0.0
140
0.0
141
0.0
142
1.0
143
1.0
 70
  1712
 72
     0
 73
     0
 74
     0
  7

 75
     0
147
1.0
148
0.0
149
0.0
100
AcDbLayout
  1
Model
 70
     1
 71
     0
 10
0.0
 20
0.0
 11
12.0
 21
9.0
 12
0.0
 22
0.0
 32
0.0
 14
0.0
 24
0.0
 34
0.0
 15
0.0
 25
0.0
 35
0.0
146
0.0
 13
0.0
 23
0.0
 33
0.0
 16
1.0
 26
0.0
 36
0.0
 17
0.0
 27
1.0
 37
0.0
 76
     0
330
19
331
1288
  0
MATERIAL
  5
128C
102
{ACAD_XDICTIONARY
360
144C
102
}
102
{ACAD_REACTORS
330
128A
102
}
330
128A
100
AcDbMaterial
  1
ByBlock
  0
MATERIAL
  5
128B
102
{ACAD_XDICTIONARY
360
144A
102
}
102
{ACAD_REACTORS
330
128A
102
}
330
128A
100
AcDbMaterial
  1
ByLayer
  0
MATERIAL
  5
128D
102
{ACAD_XDICTIONARY
360
144E
102
}
102
{ACAD_REACTORS
330
128A
102
}
330
128A
100
AcDbMaterial
  1
Global
  0
MLEADERSTYLE
  5
1484
102
{ACAD_REACTORS
330
1483
102
}
330
1483
100
AcDbMLeaderStyle
170
     2
171
     1
172
     0
 90
        2
 40
0.0
 41
0.0
173
     1
 91
-1056964608
340
13
 92
       -2
290
     1
 42
2.0
291
     1
 43
0.36
  3
Standard
 44
4.0
300

342
10
174
     1
178
     6
175
     1
176
     0
 93
-1056964608
 45
4.0
292
     0
297
     0
 46
4.0
 94
-1056964608
 47
1.0
 49
1.0
140
1.0
293
     1
141
0.0
294
     1
177
     0
142
1.0
295
     0
296
     0
143
0.125
1001
ACAD_MLEADERVER
1070
     2
  0
MLINESTYLE
  5
1C
102
{ACAD_REACTORS
330
E
102
}
330
E
100
AcDbMlineStyle
  2
STANDARD
 70
     0
  3

 62
     0
 51
90.0
 52
90.0
 71
     2
 49
0.5
 62
   256
  6
BYLAYER
 49
-0.5
 62
   256
  6
BYLAYER
  0
ACDBPLACEHOLDER
  5
E94
102
{ACAD_REACTORS
330
E93
102
}
330
E93
  0
SCALE
  5
1462
102
{ACAD_REACTORS
330
1461
102
}
330
1461
100
AcDbScale
 70
     0
300
1:1
140
1.0
141
1.0
290
     1
  0
SCALE
  5
1463
102
{ACAD_REACTORS
330
1461
102
}
330
1461
100
AcDbScale
 70
     0
300
1:2
140
1.0
141
2.0
290
     0
  0
SCALE
  5
1464
102
{ACAD_REACTORS
330
1461
102
}
330
1461
100
AcDbScale
 70
     0
300
1:4
140
1.0
141
4.0
290
     0
  0
SCALE
  5
1465
102
{ACAD_REACTORS
330
1461
102
}
330
1461
100
AcDbScale
 70
     0
300
1:5
140
1.0
141
5.0
290
     0
  0
SCALE
  5
1466
102
{ACAD_REACTORS
330
1461
102
}
330
1461
100
AcDbScale
 70
     0
300
1:8
140
1.0
141
8.0
290
     0
  0
SCALE
  5
1467
102
{ACAD_REACTORS
330
1461
102
}
330
1461
100
AcDbScale
 70
     0
300
1:10
140
1.0
141
10.0
290
     0
  0
SCALE
  5
1468
102
{ACAD_REACTORS
330
1461
102
}
330
1461
100
AcDbScale
 70
     0
300
1:16
140
1.0
141
16.0
290
     0
  0
SCALE
  5
1469
102
{ACAD_REACTORS
330
1461
102
}
330
1461
100
AcDbScale
 70
     0
300
1:20
140
1.0
141
20.0
290
     0
  0
SCALE
  5
146A
102
{ACAD_REACTORS
330
1461
102
}
330
1461
100
AcDbScale
 70
     0
300
1:30
140
1.0
141
30.0
290
     0
  0
SCALE
  5
146B
102
{ACAD_REACTORS
330
1461
102
}
330
1461
100
AcDbScale
 70
     0
300
1:40
140
1.0
141
40.0
290
     0
  0
SCALE
  5
146C
102
{ACAD_REACTORS
330
1461
102
}
330
1461
100
AcDbScale
 70
     0
300
1:50
140
1.0
141
50.0
290
     0
  0
SCALE
  5
146D
102
{ACAD_REACTORS
330
1461
102
}
330
1461
100
AcDbScale
 70
     0
300
1:100
140
1.0
141
100.0
290
     0
  0
SCALE
  5
146E
102
{ACAD_REACTORS
330
1461
102
}
330
1461
100
AcDbScale
 70
     0
300
2:1
140
2.0
141
1.0
290
     0
  0
SCALE
  5
146F
102
{ACAD_REACTORS
330
1461
102
}
330
1461
100
AcDbScale
 70
     0
300
4:1
140
4.0
141
1.0
290
     0
  0
SCALE
  5
1470
102
{ACAD_REACTORS
330
1461
102
}
330
1461
100
AcDbScale
 70
     0
300
8:1
140
8.0
141
1.0
290
     0
  0
SCALE
  5
1471
102
{ACAD_REACTORS
330
1461
102
}
330
1461
100
AcDbScale
 70
     0
300
10:1
140
10.0
141
1.0
290
     0
  0
SCALE
  5
1472
102
{ACAD_REACTORS
330
1461
102
}
330
1461
100
AcDbScale
 70
     0
300
100:1
140
100.0
141
1.0
290
     0
  0
SCALE
  5
1473
102
{ACAD_REACTORS
330
1461
102
}
330
1461
100
AcDbScale
 70
     0
300
1/128" = 1'-0"
140
0.0078125
141
12.0
290
     0
  0
SCALE
  5
1474
102
{ACAD_REACTORS
330
1461
102
}
330
1461
100
AcDbScale
 70
     0
300
1/64" = 1'-0"
140
0.015625
141
12.0
290
     0
  0
SCALE
  5
1475
102
{ACAD_REACTORS
330
1461
102
}
330
1461
100
AcDbScale
 70
     0
300
1/32" = 1'-0"
140
0.03125
141
12.0
290
     0
  0
SCALE
  5
1476
102
{ACAD_REACTORS
330
1461
102
}
330
1461
100
AcDbScale
 70
     0
300
1/16" = 1'-0"
140
0.0625
141
12.0
290
     0
  0
SCALE
  5
1477
102
{ACAD_REACTORS
330
1461
102
}
330
1461
100
AcDbScale
 70
     0
300
3/32" = 1'-0"
140
0.09375
141
12.0
290
     0
  0
SCALE
  5
1478
102
{ACAD_REACTORS
330
1461
102
}
330
1461
100
AcDbScale
 70
     0
300
1/8" = 1'-0"
140
0.125
141
12.0
290
     0
  0
SCALE
  5
1479
102
{ACAD_REACTORS
330
1461
102
}
330
1461
100
AcDbScale
 70
     0
300
3/16" = 1'-0"
140
0.1875
141
12.0
290
     0
  0
SCALE
  5
147A
102
{ACAD_REACTORS
330
1461
102
}
330
1461
100
AcDbScale
 70
     0
300
1/4" = 1'-0"
140
0.25
141
12.0
290
     0
  0
SCALE
  5
147B
102
{ACAD_REACTORS
330
1461
102
}
330
1461
100
AcDbScale
 70
     0
300
3/8" = 1'-0"
140
0.375
141
12.0
290
     0
  0
SCALE
  5
147C
102
{ACAD_REACTORS
330
1461
102
}
330
1461
100
AcDbScale
 70
     0
300
1/2" = 1'-0"
140
0.5
141
12.0
290
     0
  0
SCALE
  5
147D
102
{ACAD_REACTORS
330
1461
102
}
330
1461
100
AcDbScale
 70
     0
300
3/4" = 1'-0"
140
0.75
141
12.0
290
     0
  0
SCALE
  5
147E
102
{ACAD_REACTORS
330
1461
102
}
330
1461
100
AcDbScale
 70
     0
300
1" = 1'-0"
140
1.0
141
12.0
290
     0
  0
SCALE
  5
147F
102
{ACAD_REACTORS
330
1461
102
}
330
1461
100
AcDbScale
 70
     0
300
1-1/2" = 1'-0"
140
1.5
141
12.0
290
     0
  0
SCALE
  5
1480
102
{ACAD_REACTORS
330
1461
102
}
330
1461
100
AcDbScale
 70
     0
300
3" = 1'-0"
140
3.0
141
12.0
290
     0
  0
SCALE
  5
1481
102
{ACAD_REACTORS
330
1461
102
}
330
1461
100
AcDbScale
 70
     0
300
6" = 1'-0"
140
6.0
141
12.0
290
     0
  0
SCALE
  5
1482
102
{ACAD_REACTORS
330
1461
102
}
330
1461
100
AcDbScale
 70
     0
300
1'-0" = 1'-0"
140
12.0
141
12.0
290
     0
  0
TABLESTYLE
  5
12A1
102
{ACAD_XDICTIONARY
360
14AA
102
}
102
{ACAD_REACTORS
330
12A0
102
}
330
12A0
100
AcDbTableStyle
  3
Standard
 70
     0
 71
     0
 40
1.5
 41
1.5
280
     0
281
     0
  7
STANDARD
140
4.5
170
     2
 62
     0
 63
     7
283
     0
274
    -2
284
     1
 64
     0
275
    -2
285
     1
 65
     0
276
    -2
286
     1
 66
     0
277
    -2
287
     1
 67
     0
278
    -2
288
     1
 68
     0
279
    -2
289
     1
 69
     0
  7
STANDARD
140
6.0
170
     5
 62
     0
 63
     7
283
     0
274
    -2
284
     1
 64
     0
275
    -2
285
     1
 65
     0
276
    -2
286
     1
 66
     0
277
    -2
287
     1
 67
     0
278
    -2
288
     1
 68
     0
279
    -2
289
     1
 69
     0
  7
STANDARD
140
4.5
170
     5
 62
     0
 63
     7
283
     0
274
    -2
284
     1
 64
     0
275
    -2
285
     1
 65
     0
276
    -2
286
     1
 66
     0
277
    -2
287
     1
 67
     0
278
    -2
288
     1
 68
     0
279
    -2
289
     1
 69
     0
  0
VISUALSTYLE
  5
1294
102
{ACAD_REACTORS
330
128E
102
}
330
128E
100
AcDbVisualStyle
  2
2dWireframe
 70
     4
 71
     0
 72
     2
 73
     0
 90
        0
 40
-0.6
 41
-30.0
 62
     5
 63
     7
 74
     1
 91
        4
 64
     7
 65
   257
 75
     1
175
     1
 42
1.0
 92
        0
 66
   257
 43
1.0
 76
     1
 77
     6
 78
     2
 67
     7
 79
     5
170
     0
171
     0
290
     0
174
     0
 93
        1
 44
0.0
173
     0
291
     0
 45
0.0
1001
ACAD
1000
AcDbSavedByObjectVersion
1070
     0
1000
AcDbSavedByObjectVersion
1070
     0
1000
AcDbSavedByObjectVersion
1070
     0
1000
AcDbSavedByObjectVersion
1070
     0
1000
AcDbSavedByObjectVersion
1070
     0
1000
AcDbSavedByObjectVersion
1070
     0
1000
AcDbSavedByObjectVersion
1070
     0
  0
VISUALSTYLE
  5
1296
102
{ACAD_REACTORS
330
128E
102
}
330
128E
100
AcDbVisualStyle
  2
3D Hidden
 70
     6
 71
     1
 72
     2
 73
     2
 90
        0
 40
-0.6
 41
-30.0
 62
     5
 63
     7
 74
     2
 91
        2
 64
     7
 65
   257
 75
     2
175
     1
 42
40.0
 92
        0
 66
   257
 43
1.0
 76
     1
 77
     6
 78
     2
 67
     7
 79
     3
170
     0
171
     0
290
     0
174
     0
 93
        1
 44
0.0
173
     0
291
     0
 45
0.0
1001
ACAD
1000
AcDbSavedByObjectVersion
1070
     0
1000
AcDbSavedByObjectVersion
1070
     0
1000
AcDbSavedByObjectVersion
1070
     0
1000
AcDbSavedByObjectVersion
1070
     0
1000
AcDbSavedByObjectVersion
1070
     0
1000
AcDbSavedByObjectVersion
1070
     0
1000
AcDbSavedByObjectVersion
1070
     0
  0
VISUALSTYLE
  5
1295
102
{ACAD_REACTORS
330
128E
102
}
330
128E
100
AcDbVisualStyle
  2
3dWireframe
 70
     5
 71
     0
 72
     2
 73
     0
 90
        0
 40
-0.6
 41
-30.0
 62
     5
 63
     7
 74
     1
 91
        4
 64
     7
 65
   257
 75
     1
175
     1
 42
1.0
 92
        0
 66
   257
 43
1.0
 76
     1
 77
     6
 78
     2
 67
     7
 79
     5
170
     0
171
     0
290
     0
174
     0
 93
        1
 44
0.0
173
     0
291
     0
 45
0.0
1001
ACAD
1000
AcDbSavedByObjectVersion
1070
     0
1000
AcDbSavedByObjectVersion
1070
     0
1000
AcDbSavedByObjectVersion
1070
     0
1000
AcDbSavedByObjectVersion
1070
     0
1000
AcDbSavedByObjectVersion
1070
     0
1000
AcDbSavedByObjectVersion
1070
     0
1000
AcDbSavedByObjectVersion
1070
     0
  0
VISUALSTYLE
  5
1293
102
{ACAD_REACTORS
330
128E
102
}
330
128E
100
AcDbVisualStyle
  2
Basic
 70
     7
 71
     1
 72
     0
 73
     1
 90
        0
 40
-0.6
 41
-30.0
 62
     5
 63
     7
 74
     0
 91
        4
 64
     7
 65
   257
 75
     1
175
     1
 42
1.0
 92
        8
 66
     7
 43
1.0
 76
     1
 77
     6
 78
     2
 67
     7
 79
     5
170
     0
171
     0
290
     0
174
     0
 93
        1
 44
0.0
173
     0
291
     1
 45
0.0
1001
ACAD
1000
AcDbSavedByObjectVersion
1070
     0
1000
AcDbSavedByObjectVersion
1070
     0
1000
AcDbSavedByObjectVersion
1070
     0
1000
AcDbSavedByObjectVersion
1070
     0
1000
AcDbSavedByObjectVersion
1070
     0
1000
AcDbSavedByObjectVersion
1070
     0
1000
AcDbSavedByObjectVersion
1070
     0
  0
VISUALSTYLE
  5
129A
102
{ACAD_REACTORS
330
128E
102
}
330
128E
100
AcDbVisualStyle
  2
Brighten
 70
    12
 71
     2
 72
     2
 73
     0
 90
        0
 40
-0.6
 41
-30.0
 62
     5
 63
     7
 74
     1
 91
        4
 64
     7
 65
   257
 75
     1
175
     1
 42
1.0
 92
        8
 66
     7
 43
1.0
 76
     1
 77
     6
 78
     2
 67
     7
 79
     5
170
     0
171
     0
290
     0
174
     0
 93
        1
 44
50.0
173
     0
291
     1
 45
0.0
1001
ACAD
1000
AcDbSavedByObjectVersion
1070
     0
1000
AcDbSavedByObjectVersion
1070
     0
1000
AcDbSavedByObjectVersion
1070
     0
1000
AcDbSavedByObjectVersion
1070
     0
1000
AcDbSavedByObjectVersion
1070
     0
1000
AcDbSavedByObjectVersion
1070
     0
1000
AcDbSavedByObjectVersion
1070
     0
  0
VISUALSTYLE
  5
129E
102
{ACAD_REACTORS
330
128E
102
}
330
128E
100
AcDbVisualStyle
  2
ColorChange
 70
    16
 71
     2
 72
     2
 73
     3
 90
        0
 40
-0.6
 41
-30.0
 62
     5
 63
     8
 74
     1
 91
        4
 64
     7
 65
   257
 75
     1
175
     1
 42
1.0
 92
        8
 66
     8
 43
1.0
 76
     1
 77
     6
 78
     2
 67
     7
 79
     5
170
     0
171
     0
290
     0
174
     0
 93
        1
 44
0.0
173
     0
291
     1
 45
0.0
1001
ACAD
1000
AcDbSavedByObjectVersion
1070
     0
1000
AcDbSavedByObjectVersion
1070
     0
1000
AcDbSavedByObjectVersion
1070
     0
1000
AcDbSavedByObjectVersion
1070
     0
1000
AcDbSavedByObjectVersion
1070
     0
1000
AcDbSavedByObjectVersion
1070
     0
1000
AcDbSavedByObjectVersion
1070
     0
  0
VISUALSTYLE
  5
1297
102
{ACAD_REACTORS
330
128E
102
}
330
128E
100
AcDbVisualStyle
  2
Conceptual
 70
     9
 71
     3
 72
     2
 73
     0
 90
        0
 40
-0.6
 41
-30.0
 62
     5
 63
     7
 74
     2
 91
        2
 64
     7
 65
   257
 75
     1
175
     1
 42
40.0
 92
        8
 66
     7
 43
1.0
 76
     1
 77
     6
 78
     2
 67
     7
 79
     3
170
     0
171
     0
290
     0
174
     0
 93
        1
 44
0.0
173
     0
291
     0
 45
0.0
1001
ACAD
1000
AcDbSavedByObjectVersion
1070
     0
1000
AcDbSavedByObjectVersion
1070
     0
1000
AcDbSavedByObjectVersion
1070
     0
1000
AcDbSavedByObjectVersion
1070
     0
1000
AcDbSavedByObjectVersion
1070
     0
1000
AcDbSavedByObjectVersion
1070
     0
1000
AcDbSavedByObjectVersion
1070
     0
  0
VISUALSTYLE
  5
1299
102
{ACAD_REACTORS
330
128E
102
}
330
128E
100
AcDbVisualStyle
  2
Dim
 70
    11
 71
     2
 72
     2
 73
     0
 90
        0
 40
-0.6
 41
-30.0
 62
     5
 63
     7
 74
     1
 91
        4
 64
     7
 65
   257
 75
     1
175
     1
 42
1.0
 92
        8
 66
     7
 43
1.0
 76
     1
 77
     6
 78
     2
 67
     7
 79
     5
170
     0
171
     0
290
     0
174
     0
 93
        1
 44
-50.0
173
     0
291
     1
 45
0.0
1001
ACAD
1000
AcDbSavedByObjectVersion
1070
     0
1000
AcDbSavedByObjectVersion
1070
     0
1000
AcDbSavedByObjectVersion
1070
     0
1000
AcDbSavedByObjectVersion
1070
     0
1000
AcDbSavedByObjectVersion
1070
     0
1000
AcDbSavedByObjectVersion
1070
     0
1000
AcDbSavedByObjectVersion
1070
     0
  0
VISUALSTYLE
  5
129D
102
{ACAD_REACTORS
330
128E
102
}
330
128E
100
AcDbVisualStyle
  2
Facepattern
 70
    15
 71
     2
 72
     2
 73
     0
 90
        0
 40
-0.6
 41
-30.0
 62
     5
 63
     7
 74
     1
 91
        4
 64
     7
 65
   257
 75
     1
175
     1
 42
1.0
 92
        8
 66
     7
 43
1.0
 76
     1
 77
     6
 78
     2
 67
     7
 79
     5
170
     0
171
     0
290
     0
174
     0
 93
        1
 44
0.0
173
     0
291
     1
 45
0.0
1001
ACAD
1000
AcDbSavedByObjectVersion
1070
     0
1000
AcDbSavedByObjectVersion
1070
     0
1000
AcDbSavedByObjectVersion
1070
     0
1000
AcDbSavedByObjectVersion
1070
     0
1000
AcDbSavedByObjectVersion
1070
     0
1000
AcDbSavedByObjectVersion
1070
     0
1000
AcDbSavedByObjectVersion
1070
     0
  0
VISUALSTYLE
  5
128F
102
{ACAD_REACTORS
330
128E
102
}
330
128E
100
AcDbVisualStyle
  2
Flat
 70
     0
 71
     2
 72
     1
 73
     1
 90
        2
 40
-0.6
 41
30.0
 62
     5
 63
     7
 74
     0
 91
        4
 64
     7
 65
   257
 75
     1
175
     1
 42
1.0
 92
        8
 66
     7
 43
1.0
 76
     1
 77
     6
 78
     2
 67
     7
 79
     5
170
     0
171
     0
290
     0
174
     0
 93
       13
 44
0.0
173
     0
291
     1
 45
0.0
1001
ACAD
1000
AcDbSavedByObjectVersion
1070
     0
1000
AcDbSavedByObjectVersion
1070
     0
1000
AcDbSavedByObjectVersion
1070
     0
1000
AcDbSavedByObjectVersion
1070
     0
1000
AcDbSavedByObjectVersion
1070
     0
1000
AcDbSavedByObjectVersion
1070
     0
1000
AcDbSavedByObjectVersion
1070
     0
  0
VISUALSTYLE
  5
1290
102
{ACAD_REACTORS
330
128E
102
}
330
128E
100
AcDbVisualStyle
  2
FlatWithEdges
 70
     1
 71
     2
 72
     1
 73
     1
 90
        2
 40
-0.6
 41
30.0
 62
     5
 63
     7
 74
     1
 91
        4
 64
     7
 65
   257
 75
     1
175
     1
 42
1.0
 92
        0
 66
   257
 43
1.0
 76
     1
 77
     6
 78
     2
 67
     7
 79
     5
170
     0
171
     0
290
     0
174
     0
 93
       13
 44
0.0
173
     0
291
     1
 45
0.0
1001
ACAD
1000
AcDbSavedByObjectVersion
1070
     0
1000
AcDbSavedByObjectVersion
1070
     0
1000
AcDbSavedByObjectVersion
1070
     0
1000
AcDbSavedByObjectVersion
1070
     0
1000
AcDbSavedByObjectVersion
1070
     0
1000
AcDbSavedByObjectVersion
1070
     0
1000
AcDbSavedByObjectVersion
1070
     0
  0
VISUALSTYLE
  5
1291
102
{ACAD_REACTORS
330
128E
102
}
330
128E
100
AcDbVisualStyle
  2
Gouraud
 70
     2
 71
     2
 72
     2
 73
     1
 90
        2
 40
-0.6
 41
30.0
 62
     5
 63
     7
 74
     0
 91
        4
 64
     7
 65
   257
 75
     1
175
     1
 42
1.0
 92
        0
 66
     7
 43
1.0
 76
     1
 77
     6
 78
     2
 67
     7
 79
     5
170
     0
171
     0
290
     0
174
     0
 93
       13
 44
0.0
173
     0
291
     1
 45
0.0
1001
ACAD
1000
AcDbSavedByObjectVersion
1070
     0
1000
AcDbSavedByObjectVersion
1070
     0
1000
AcDbSavedByObjectVersion
1070
     0
1000
AcDbSavedByObjectVersion
1070
     0
1000
AcDbSavedByObjectVersion
1070
     0
1000
AcDbSavedByObjectVersion
1070
     0
1000
AcDbSavedByObjectVersion
1070
     0
  0
VISUALSTYLE
  5
1292
102
{ACAD_REACTORS
330
128E
102
}
330
128E
100
AcDbVisualStyle
  2
GouraudWithEdges
 70
     3
 71
     2
 72
     2
 73
     1
 90
        2
 40
-0.6
 41
30.0
 62
     5
 63
     7
 74
     1
 91
        4
 64
     7
 65
   257
 75
     1
175
     1
 42
1.0
 92
        0
 66
   257
 43
1.0
 76
     1
 77
     6
 78
     2
 67
     7
 79
     5
170
     0
171
     0
290
     0
174
     0
 93
       13
 44
0.0
173
     0
291
     1
 45
0.0
1001
ACAD
1000
AcDbSavedByObjectVersion
1070
     0
1000
AcDbSavedByObjectVersion
1070
     0
1000
AcDbSavedByObjectVersion
1070
     0
1000
AcDbSavedByObjectVersion
1070
     0
1000
AcDbSavedByObjectVersion
1070
     0
1000
AcDbSavedByObjectVersion
1070
     0
1000
AcDbSavedByObjectVersion
1070
     0
  0
VISUALSTYLE
  5
129C
102
{ACAD_REACTORS
330
128E
102
}
330
128E
100
AcDbVisualStyle
  2
Linepattern
 70
    14
 71
     2
 72
     2
 73
     0
 90
        0
 40
-0.6
 41
-30.0
 62
     5
 63
     7
 74
     1
 91
        4
 64
     7
 65
   257
 75
     7
175
     7
 42
1.0
 92
        8
 66
     7
 43
1.0
 76
     1
 77
     6
 78
     2
 67
     7
 79
     5
170
     0
171
     0
290
     0
174
     0
 93
        1
 44
0.0
173
     0
291
     1
 45
0.0
1001
ACAD
1000
AcDbSavedByObjectVersion
1070
     0
1000
AcDbSavedByObjectVersion
1070
     0
1000
AcDbSavedByObjectVersion
1070
     0
1000
AcDbSavedByObjectVersion
1070
     0
1000
AcDbSavedByObjectVersion
1070
     0
1000
AcDbSavedByObjectVersion
1070
     0
1000
AcDbSavedByObjectVersion
1070
     0
  0
VISUALSTYLE
  5
1298
102
{ACAD_REACTORS
330
128E
102
}
330
128E
100
AcDbVisualStyle
  2
Realistic
 70
     8
 71
     2
 72
     2
 73
     0
 90
        0
 40
-0.6
 41
-30.0
 62
     5
 63
     7
 74
     1
 91
        0
 64
     7
 65
   257
 75
     1
175
     1
 42
1.0
 92
        8
 66
     8
 43
1.0
 76
     1
 77
     6
 78
     2
 67
     7
 79
     5
170
     0
171
     0
290
     0
174
     0
 93
       13
 44
0.0
173
     0
291
     0
 45
0.0
1001
ACAD
1000
AcDbSavedByObjectVersion
1070
     0
1000
AcDbSavedByObjectVersion
1070
     0
1000
AcDbSavedByObjectVersion
1070
     0
1000
AcDbSavedByObjectVersion
1070
     0
1000
AcDbSavedByObjectVersion
1070
     0
1000
AcDbSavedByObjectVersion
1070
     0
1000
AcDbSavedByObjectVersion
1070
     0
  0
VISUALSTYLE
  5
129B
102
{ACAD_REACTORS
330
128E
102
}
330
128E
100
AcDbVisualStyle
  2
Thicken
 70
    13
 71
     2
 72
     2
 73
     0
 90
        0
 40
-0.6
 41
-30.0
 62
     5
 63
     7
 74
     1
 91
        4
 64
     7
 65
   257
 75
     1
175
     1
 42
1.0
 92
       12
 66
     7
 43
1.0
 76
     1
 77
     6
 78
     2
 67
     7
 79
     5
170
     0
171
     0
290
     0
174
     0
 93
        1
 44
0.0
173
     0
291
     1
 45
0.0
1001
ACAD
1000
AcDbSavedByObjectVersion
1070
     0
1000
AcDbSavedByObjectVersion
1070
     0
1000
AcDbSavedByObjectVersion
1070
     0
1000
AcDbSavedByObjectVersion
1070
     0
1000
AcDbSavedByObjectVersion
1070
     0
1000
AcDbSavedByObjectVersion
1070
     0
1000
AcDbSavedByObjectVersion
1070
     0
  0
DICTIONARYVAR
  5
14A9
102
{ACAD_REACTORS
330
1433
102
}
330
1433
100
DictionaryVariables
280
     0
  1
1:1
  0
DICTIONARYVAR
  5
14A8
102
{ACAD_REACTORS
330
1433
102
}
330
1433
100
DictionaryVariables
280
     0
  1
STANDARD
  0
DICTIONARYVAR
  5
1434
102
{ACAD_REACTORS
330
1433
102
}
330
1433
100
DictionaryVariables
280
     0
  1
STANDARD
  0
DICTIONARYVAR
  5
1437
102
{ACAD_REACTORS
330
1433
102
}
330
1433
100
DictionaryVariables
280
     0
  1
1
  0
DICTIONARYVAR
  5
1436
102
{ACAD_REACTORS
330
1433
102
}
330
1433
100
DictionaryVariables
280
     0
  1
0
  0
DICTIONARYVAR
  5
1435
102
{ACAD_REACTORS
330
1433
102
}
330
1433
100
DictionaryVariables
280
     0
  1
127
  0
DICTIONARY
  5
2020
330
E96
100
AcDbDictionary
280
     1
281
     1
  3
ACAD_XREC_ROUNDTRIP
360
2021
  0
DICTIONARY
  5
201E
330
E95
100
AcDbDictionary
280
     1
281
     1
  3
ACAD_XREC_ROUNDTRIP
360
201F
  0
DICTIONARY
  5
144C
330
128C
100
AcDbDictionary
280
     1
281
     1
  3
ACAD_XREC_ROUNDTRIP
360
144D
  0
DICTIONARY
  5
144A
330
128B
100
AcDbDictionary
280
     1
281
     1
  3
ACAD_XREC_ROUNDTRIP
360
144B
  0
DICTIONARY
  5
144E
330
128D
100
AcDbDictionary
280
     1
281
     1
  3
ACAD_XREC_ROUNDTRIP
360
144F
  0
DICTIONARY
  5
14AA
330
12A1
100
AcDbDictionary
280
     1
281
     1
  3
ACAD_ROUNDTRIP_2008_TABLESTYLE_CELLSTYLEMAP
360
201C
  3
ACAD_XREC_ROUNDTRIP
360
2022
  0
XRECORD
  5
2021
102
{ACAD_REACTORS
330
2020
102
}
330
2020
100
AcDbXrecord
280
     1
102
SHADEPLOT
 70
     0
102
SHADEPLOTRESLEVEL
 70
     2
102
SHADEPLOTCUSTOMDPI
 70
   300
  0
XRECORD
  5
201F
102
{ACAD_REACTORS
330
201E
102
}
330
201E
100
AcDbXrecord
280
     1
102
SHADEPLOT
 70
     0
102
SHADEPLOTRESLEVEL
 70
     2
102
SHADEPLOTCUSTOMDPI
 70
   300
  0
XRECORD
  5
144D
102
{ACAD_REACTORS
330
144C
102
}
330
144C
100
AcDbXrecord
280
     1
102
MATERIAL
148
0.0
149
0.0
149
0.0
 93
        0
 94
      127
282
     0
 72
     1
 77
     1
171
     1
175
     1
179
     1
273
     0
  0
XRECORD
  5
144B
102
{ACAD_REACTORS
330
144A
102
}
330
144A
100
AcDbXrecord
280
     1
102
MATERIAL
148
0.0
149
0.0
149
0.0
 93
        0
 94
      127
282
     0
 72
     1
 77
     1
171
     1
175
     1
179
     1
273
     0
  0
XRECORD
  5
144F
102
{ACAD_REACTORS
330
144E
102
}
330
144E
100
AcDbXrecord
280
     1
102
MATERIAL
148
0.0
149
0.0
149
0.0
 93
        0
 94
      127
282
     0
 72
     1
 77
     1
171
     1
175
     1
179
     1
273
     0
  0
CELLSTYLEMAP
  5
201C
102
{ACAD_REACTORS
330
14AA
102
}
330
14AA
100
AcDbCellStyleMap
 90
        3
300
CELLSTYLE
  1
TABLEFORMAT_BEGIN
 90
        5
170
     1
 91
        0
 92
    32768
 62
   257
 93
        1
300
CONTENTFORMAT
  1
CONTENTFORMAT_BEGIN
 90
        0
 91
        0
 92
      512
 93
        0
300

 40
0.0
140
1.0
 94
        5
 62
     0
340
10
144
6.0
309
CONTENTFORMAT_END
171
     1
301
MARGIN
  1
CELLMARGIN_BEGIN
 40
1.5
 40
1.5
 40
1.5
 40
1.5
 40
0.18
 40
0.18
309
CELLMARGIN_END
 94
        6
 95
        1
302
GRIDFORMAT
  1
GRIDFORMAT_BEGIN
 90
        0
 91
        1
 62
     0
 92
       -2
340
0
 93
        0
 40
0.045
309
GRIDFORMAT_END
 95
        2
302
GRIDFORMAT
  1
GRIDFORMAT_BEGIN
 90
        0
 91
        1
 62
     0
 92
       -2
340
0
 93
        0
 40
0.045
309
GRIDFORMAT_END
 95
        4
302
GRIDFORMAT
  1
GRIDFORMAT_BEGIN
 90
        0
 91
        1
 62
     0
 92
       -2
340
0
 93
        0
 40
0.045
309
GRIDFORMAT_END
 95
        8
302
GRIDFORMAT
  1
GRIDFORMAT_BEGIN
 90
        0
 91
        1
 62
     0
 92
       -2
340
0
 93
        0
 40
0.045
309
GRIDFORMAT_END
 95
       16
302
GRIDFORMAT
  1
GRIDFORMAT_BEGIN
 90
        0
 91
        1
 62
     0
 92
       -2
340
0
 93
        0
 40
0.045
309
GRIDFORMAT_END
 95
       32
302
GRIDFORMAT
  1
GRIDFORMAT_BEGIN
 90
        0
 91
        1
 62
     0
 92
       -2
340
0
 93
        0
 40
0.045
309
GRIDFORMAT_END
309
TABLEFORMAT_END
  1
CELLSTYLE_BEGIN
 90
        1
 91
        1
300
_TITLE
309
CELLSTYLE_END
300
CELLSTYLE
  1
TABLEFORMAT_BEGIN
 90
        5
170
     1
 91
        0
 92
        0
 62
   257
 93
        1
300
CONTENTFORMAT
  1
CONTENTFORMAT_BEGIN
 90
        0
 91
        0
 92
      512
 93
        0
300

 40
0.0
140
1.0
 94
        5
 62
     0
340
10
144
4.5
309
CONTENTFORMAT_END
171
     1
301
MARGIN
  1
CELLMARGIN_BEGIN
 40
1.5
 40
1.5
 40
1.5
 40
1.5
 40
0.18
 40
0.18
309
CELLMARGIN_END
 94
        6
 95
        1
302
GRIDFORMAT
  1
GRIDFORMAT_BEGIN
 90
        0
 91
        1
 62
     0
 92
       -2
340
0
 93
        0
 40
0.045
309
GRIDFORMAT_END
 95
        2
302
GRIDFORMAT
  1
GRIDFORMAT_BEGIN
 90
        0
 91
        1
 62
     0
 92
       -2
340
0
 93
        0
 40
0.045
309
GRIDFORMAT_END
 95
        4
302
GRIDFORMAT
  1
GRIDFORMAT_BEGIN
 90
        0
 91
        1
 62
     0
 92
       -2
340
0
 93
        0
 40
0.045
309
GRIDFORMAT_END
 95
        8
302
GRIDFORMAT
  1
GRIDFORMAT_BEGIN
 90
        0
 91
        1
 62
     0
 92
       -2
340
0
 93
        0
 40
0.045
309
GRIDFORMAT_END
 95
       16
302
GRIDFORMAT
  1
GRIDFORMAT_BEGIN
 90
        0
 91
        1
 62
     0
 92
       -2
340
0
 93
        0
 40
0.045
309
GRIDFORMAT_END
 95
       32
302
GRIDFORMAT
  1
GRIDFORMAT_BEGIN
 90
        0
 91
        1
 62
     0
 92
       -2
340
0
 93
        0
 40
0.045
309
GRIDFORMAT_END
309
TABLEFORMAT_END
  1
CELLSTYLE_BEGIN
 90
        2
 91
        1
300
_HEADER
309
CELLSTYLE_END
300
CELLSTYLE
  1
TABLEFORMAT_BEGIN
 90
        5
170
     1
 91
        0
 92
        0
 62
   257
 93
        1
300
CONTENTFORMAT
  1
CONTENTFORMAT_BEGIN
 90
        0
 91
        0
 92
      512
 93
        0
300

 40
0.0
140
1.0
 94
        2
 62
     0
340
10
144
4.5
309
CONTENTFORMAT_END
171
     1
301
MARGIN
  1
CELLMARGIN_BEGIN
 40
1.5
 40
1.5
 40
1.5
 40
1.5
 40
0.18
 40
0.18
309
CELLMARGIN_END
 94
        6
 95
        1
302
GRIDFORMAT
  1
GRIDFORMAT_BEGIN
 90
        0
 91
        1
 62
     0
 92
       -2
340
0
 93
        0
 40
0.045
309
GRIDFORMAT_END
 95
        2
302
GRIDFORMAT
  1
GRIDFORMAT_BEGIN
 90
        0
 91
        1
 62
     0
 92
       -2
340
0
 93
        0
 40
0.045
309
GRIDFORMAT_END
 95
        4
302
GRIDFORMAT
  1
GRIDFORMAT_BEGIN
 90
        0
 91
        1
 62
     0
 92
       -2
340
0
 93
        0
 40
0.045
309
GRIDFORMAT_END
 95
        8
302
GRIDFORMAT
  1
GRIDFORMAT_BEGIN
 90
        0
 91
        1
 62
     0
 92
       -2
340
0
 93
        0
 40
0.045
309
GRIDFORMAT_END
 95
       16
302
GRIDFORMAT
  1
GRIDFORMAT_BEGIN
 90
        0
 91
        1
 62
     0
 92
       -2
340
0
 93
        0
 40
0.045
309
GRIDFORMAT_END
 95
       32
302
GRIDFORMAT
  1
GRIDFORMAT_BEGIN
 90
        0
 91
        1
 62
     0
 92
       -2
340
0
 93
        0
 40
0.045
309
GRIDFORMAT_END
309
TABLEFORMAT_END
  1
CELLSTYLE_BEGIN
 90
        3
 91
        2
300
_DATA
309
CELLSTYLE_END
  0
XRECORD
  5
2022
102
{ACAD_REACTORS
330
14AA
102
}
330
14AA
100
AcDbXrecord
280
     1
102
ACAD_ROUNDTRIP_PRE2007_TABLESTYLE
 90
      512
 91
        0
  1

 92
      512
 93
        0
  2

 94
      512
 95
        0
  3

  0
ENDSEC
  0
EOF
