  0
SECTION
  2
HEADER
  9
$ACADVER
  1
AC1015
  9
$ACADMAINTVER
 70
    20
  9
$DWGCODEPAGE
  3
ANSI_1252
  9
$INSBASE
 10
0.0
 20
0.0
 30
0.0
  9
$EXTMIN
 10
565.0025775726317
 20
269.7328946388938
 30
0.0
  9
$EXTMAX
 10
620.0144700664371
 20
314.455936579383
 30
0.0
  9
$LIMMIN
 10
-170.0
 20
-170.0
  9
$LIMMAX
 10
519.0
 20
260.0
  9
$ORTHOMODE
 70
     1
  9
$REGENMODE
 70
     1
  9
$FILLMODE
 70
     1
  9
$QTEXTMODE
 70
     0
  9
$MIRRTEXT
 70
     1
  9
$LTSCALE
 40
10.0
  9
$ATTMODE
 70
     1
  9
$TEXTSIZE
 40
3.5
  9
$TRACEWID
 40
0.05
  9
$TEXTSTYLE
  7
SIMPLEX
  9
$CLAYER
  8
SK6
  9
$CELTYPE
  6
BYLAYER
  9
$CECOLOR
 62
   256
  9
$CELTSCALE
 40
1.0
  9
$DISPSILH
 70
     0
  9
$DIMSCALE
 40
1.0
  9
$DIMASZ
 40
3.5
  9
$DIMEXO
 40
1.0
  9
$DIMDLI
 40
0.5
  9
$DIMRND
 40
0.0
  9
$DIMDLE
 40
0.0
  9
$DIMEXE
 40
1.0
  9
$DIMTP
 40
0.0
  9
$DIMTM
 40
0.0
  9
$DIMTXT
 40
3.5
  9
$DIMCEN
 40
0.0
  9
$DIMTSZ
 40
0.0
  9
$DIMTOL
 70
     0
  9
$DIMLIM
 70
     0
  9
$DIMTIH
 70
     0
  9
$DIMTOH
 70
     0
  9
$DIMSE1
 70
     0
  9
$DIMSE2
 70
     0
  9
$DIMTAD
 70
     1
  9
$DIMZIN
 70
     0
  9
$DIMBLK
  1

  9
$DIMASO
 70
     1
  9
$DIMSHO
 70
     1
  9
$DIMPOST
  1

  9
$DIMAPOST
  1

  9
$DIMALT
 70
     0
  9
$DIMALTD
 70
     2
  9
$DIMALTF
 40
25.4
  9
$DIMLFAC
 40
1.0
  9
$DIMTOFL
 70
     0
  9
$DIMTVP
 40
0.0
  9
$DIMTIX
 70
     0
  9
$DIMSOXD
 70
     0
  9
$DIMSAH
 70
     0
  9
$DIMBLK1
  1

  9
$DIMBLK2
  1

  9
$DIMSTYLE
  2
V-TYGEN_-160
  9
$DIMCLRD
 70
     0
  9
$DIMCLRE
 70
     0
  9
$DIMCLRT
 70
     0
  9
$DIMTFAC
 40
1.0
  9
$DIMGAP
 40
1.0
  9
$DIMJUST
 70
     0
  9
$DIMSD1
 70
     0
  9
$DIMSD2
 70
     0
  9
$DIMTOLJ
 70
     1
  9
$DIMTZIN
 70
     0
  9
$DIMALTZ
 70
     0
  9
$DIMALTTZ
 70
     0
  9
$DIMUPT
 70
     0
  9
$DIMDEC
 70
     0
  9
$DIMTDEC
 70
     0
  9
$DIMALTU
 70
     2
  9
$DIMALTTD
 70
     2
  9
$DIMTXSTY
  7
STANDARD
  9
$DIMAUNIT
 70
     0
  9
$DIMADEC
 70
     0
  9
$DIMALTRND
 40
0.0
  9
$DIMAZIN
 70
     0
  9
$DIMDSEP
 70
    46
  9
$DIMATFIT
 70
     3
  9
$DIMFRAC
 70
     0
  9
$DIMLDRBLK
  1

  9
$DIMLUNIT
 70
     2
  9
$DIMLWD
 70
    -1
  9
$DIMLWE
 70
    -2
  9
$DIMTMOVE
 70
     0
  9
$LUNITS
 70
     2
  9
$LUPREC
 70
     2
  9
$SKETCHINC
 40
0.1
  9
$FILLETRAD
 40
0.0
  9
$AUNITS
 70
     0
  9
$AUPREC
 70
     0
  9
$MENU
  1
TDMWIN
  9
$ELEVATION
 40
0.0
  9
$PELEVATION
 40
0.0
  9
$THICKNESS
 40
0.0
  9
$LIMCHECK
 70
     0
  9
$CHAMFERA
 40
0.0
  9
$CHAMFERB
 40
0.0
  9
$CHAMFERC
 40
0.0
  9
$CHAMFERD
 40
0.0
  9
$SKPOLY
 70
     0
  9
$TDCREATE
 40
2455495.435690070
  9
$TDUCREATE
 40
2455495.206523403
  9
$TDUPDATE
 40
2455597.633367951
  9
$TDUUPDATE
 40
2455597.404201284
  9
$TDINDWG
 40
0.1063798380
  9
$TDUSRTIMER
 40
0.1063789352
  9
$USRTIMER
 70
     1
  9
$ANGBASE
 50
0.0
  9
$ANGDIR
 70
     0
  9
$PDMODE
 70
     2
  9
$PDSIZE
 40
0.0
  9
$PLINEWID
 40
0.0
  9
$SPLFRAME
 70
     0
  9
$SPLINETYPE
 70
     6
  9
$SPLINESEGS
 70
     8
  9
$HANDSEED
  5
1DE3
  9
$SURFTAB1
 70
     6
  9
$SURFTAB2
 70
     6
  9
$SURFTYPE
 70
     6
  9
$SURFU
 70
     6
  9
$SURFV
 70
     6
  9
$UCSBASE
  2

  9
$UCSNAME
  2

  9
$UCSORG
 10
590.8311669930473
 20
296.123011579383
 30
0.0
  9
$UCSXDIR
 10
1.0
 20
0.0
 30
0.0
  9
$UCSYDIR
 10
0.0
 20
1.0
 30
0.0
  9
$UCSORTHOREF
  2

  9
$UCSORTHOVIEW
 70
     0
  9
$UCSORGTOP
 10
0.0
 20
0.0
 30
0.0
  9
$UCSORGBOTTOM
 10
0.0
 20
0.0
 30
0.0
  9
$UCSORGLEFT
 10
0.0
 20
0.0
 30
0.0
  9
$UCSORGRIGHT
 10
0.0
 20
0.0
 30
0.0
  9
$UCSORGFRONT
 10
0.0
 20
0.0
 30
0.0
  9
$UCSORGBACK
 10
0.0
 20
0.0
 30
0.0
  9
$PUCSBASE
  2

  9
$PUCSNAME
  2

  9
$PUCSORG
 10
0.0
 20
0.0
 30
0.0
  9
$PUCSXDIR
 10
1.0
 20
0.0
 30
0.0
  9
$PUCSYDIR
 10
0.0
 20
1.0
 30
0.0
  9
$PUCSORTHOREF
  2

  9
$PUCSORTHOVIEW
 70
     0
  9
$PUCSORGTOP
 10
0.0
 20
0.0
 30
0.0
  9
$PUCSORGBOTTOM
 10
0.0
 20
0.0
 30
0.0
  9
$PUCSORGLEFT
 10
0.0
 20
0.0
 30
0.0
  9
$PUCSORGRIGHT
 10
0.0
 20
0.0
 30
0.0
  9
$PUCSORGFRONT
 10
0.0
 20
0.0
 30
0.0
  9
$PUCSORGBACK
 10
0.0
 20
0.0
 30
0.0
  9
$USERI1
 70
     0
  9
$USERI2
 70
     0
  9
$USERI3
 70
     0
  9
$USERI4
 70
     0
  9
$USERI5
 70
     0
  9
$USERR1
 40
0.0
  9
$USERR2
 40
0.0
  9
$USERR3
 40
0.0
  9
$USERR4
 40
0.0
  9
$USERR5
 40
0.0
  9
$WORLDVIEW
 70
     1
  9
$SHADEDGE
 70
     3
  9
$SHADEDIF
 70
    70
  9
$TILEMODE
 70
     1
  9
$MAXACTVP
 70
    16
  9
$PINSBASE
 10
0.0
 20
0.0
 30
0.0
  9
$PLIMCHECK
 70
     0
  9
$PEXTMIN
 10
1.000000000000000E+20
 20
1.000000000000000E+20
 30
1.000000000000000E+20
  9
$PEXTMAX
 10
-1.000000000000000E+20
 20
-1.000000000000000E+20
 30
-1.000000000000000E+20
  9
$PLIMMIN
 10
0.0
 20
0.0
  9
$PLIMMAX
 10
12.0
 20
9.0
  9
$UNITMODE
 70
     0
  9
$VISRETAIN
 70
     0
  9
$PLINEGEN
 70
     0
  9
$PSLTSCALE
 70
     0
  9
$TREEDEPTH
 70
  3020
  9
$CMLSTYLE
  2
STANDARD
  9
$CMLJUST
 70
     0
  9
$CMLSCALE
 40
1.0
  9
$PROXYGRAPHICS
 70
     1
  9
$MEASUREMENT
 70
     1
  9
$CELWEIGHT
370
    -1
  9
$ENDCAPS
280
     0
  9
$JOINSTYLE
280
     0
  9
$LWDISPLAY
290
     0
  9
$INSUNITS
 70
     0
  9
$HYPERLINKBASE
  1

  9
$STYLESHEET
  1

  9
$XEDIT
290
     1
  9
$CEPSNTYPE
380
     0
  9
$PSTYLEMODE
290
     1
  9
$FINGERPRINTGUID
  2
{657513BA-23E7-4626-BCF7-6F82F096B1F9}
  9
$VERSIONGUID
  2
{5943084B-EFC5-4E05-8248-99B02B56D189}
  9
$EXTNAMES
290
     1
  9
$PSVPSCALE
 40
0.0
  9
$OLESTARTUP
290
     0
  0
ENDSEC
  0
SECTION
  2
CLASSES
  0
CLASS
  1
ACDBDICTIONARYWDFLT
  2
AcDbDictionaryWithDefault
  3
ObjectDBX Classes
 90
        0
280
     0
281
     0
  0
CLASS
  1
ACDBPLACEHOLDER
  2
AcDbPlaceHolder
  3
ObjectDBX Classes
 90
        0
280
     0
281
     0
  0
CLASS
  1
LAYOUT
  2
AcDbLayout
  3
ObjectDBX Classes
 90
        0
280
     0
281
     0
  0
CLASS
  1
MATERIAL
  2
AcDbMaterial
  3
ObjectDBX Classes
 90
     1153
280
     0
281
     0
  0
CLASS
  1
VISUALSTYLE
  2
AcDbVisualStyle
  3
ObjectDBX Classes
 90
     4095
280
     0
281
     0
  0
CLASS
  1
TABLESTYLE
  2
AcDbTableStyle
  3
ObjectDBX Classes
 90
     4095
280
     0
281
     0
  0
CLASS
  1
DICTIONARYVAR
  2
AcDbDictionaryVar
  3
ObjectDBX Classes
 90
        0
280
     0
281
     0
  0
CLASS
  1
SCALE
  2
AcDbScale
  3
ObjectDBX Classes
 90
     1153
280
     0
281
     0
  0
CLASS
  1
MLEADERSTYLE
  2
AcDbMLeaderStyle
  3
ACDB_MLEADERSTYLE_CLASS
 90
     4095
280
     0
281
     0
  0
CLASS
  1
CELLSTYLEMAP
  2
AcDbCellStyleMap
  3
ObjectDBX Classes
 90
     1152
280
     0
281
     0
  0
ENDSEC
  0
SECTION
  2
TABLES
  0
TABLE
  2
VPORT
  5
8
330
0
100
AcDbSymbolTable
 70
     1
  0
VPORT
  5
1288
330
8
100
AcDbSymbolTableRecord
100
AcDbViewportTableRecord
  2
*Active
 70
     0
 10
0.0
 20
0.0
 11
1.0
 21
1.0
 12
592.5223863446247
 22
292.0907822707103
 13
0.0
 23
0.0
 14
5.0
 24
5.0
 15
5.0
 25
5.0
 16
0.0
 26
0.0
 36
1.0
 17
0.0
 27
0.0
 37
0.0
 40
45.16528649667413
 41
1.752923976608187
 42
50.0
 43
0.0
 44
0.0
 50
0.0
 51
0.0
 71
     0
 72
   100
 73
     1
 74
     3
 75
     0
 76
     0
 77
     0
 78
     0
281
     0
 65
     1
110
0.0
120
0.0
130
0.0
111
1.0
121
0.0
131
0.0
112
0.0
122
1.0
132
0.0
 79
     0
146
0.0
  0
ENDTAB
  0
TABLE
  2
LTYPE
  5
5
330
0
100
AcDbSymbolTable
 70
     4
  0
LTYPE
  5
13
330
5
100
AcDbSymbolTableRecord
100
AcDbLinetypeTableRecord
  2
BYBLOCK
 70
     0
  3

 72
    65
 73
     0
 40
0.0
  0
LTYPE
  5
14
330
5
100
AcDbSymbolTableRecord
100
AcDbLinetypeTableRecord
  2
BYLAYER
 70
     0
  3

 72
    65
 73
     0
 40
0.0
  0
LTYPE
  5
15
330
5
100
AcDbSymbolTableRecord
100
AcDbLinetypeTableRecord
  2
CONTINUOUS
 70
     0
  3
Solid line
 72
    65
 73
     0
 40
0.0
  0
LTYPE
  5
20
330
5
100
AcDbSymbolTableRecord
100
AcDbLinetypeTableRecord
  2
CENTER
 70
     0
  3
____ . ____ . ____
 72
    65
 73
     4
 40
1.5
 49
1.0
 74
     0
 49
-0.25
 74
     0
 49
0.0
 74
     0
 49
-0.25
 74
     0
  0
LTYPE
  5
21
330
5
100
AcDbSymbolTableRecord
100
AcDbLinetypeTableRecord
  2
HIDDEN
 70
     0
  3
_ _ _ _ _ _ _ _ _ _ _ _ _ _ _ _ _ _ _ _ _ _ _
 72
    65
 73
     2
 40
0.375
 49
0.25
 74
     0
 49
-0.125
 74
     0
  0
LTYPE
  5
14C0
330
5
100
AcDbSymbolTableRecord
100
AcDbLinetypeTableRecord
  2
DASHDOT
 70
     0
  3
Dash dot __ . __ . __ . __ . __ . __ . __ . __
 72
    65
 73
     4
 40
25.4
 49
12.7
 74
     0
 49
-6.349999999999997
 74
     0
 49
0.0
 74
     0
 49
-6.349999999999997
 74
     0
  0
ENDTAB
  0
TABLE
  2
LAYER
  5
2
330
0
100
AcDbSymbolTable
 70
    18
  0
LAYER
  5
F
102
{ACAD_XDICTIONARY
360
148A
102
}
330
2
100
AcDbSymbolTableRecord
100
AcDbLayerTableRecord
  2
0
 70
     0
 62
     7
  6
CONTINUOUS
370
    -3
390
E94
  0
LAYER
  5
1E
102
{ACAD_XDICTIONARY
360
148C
102
}
330
2
100
AcDbSymbolTableRecord
100
AcDbLayerTableRecord
  2
1
 70
     0
 62
     4
  6
CONTINUOUS
370
    -3
390
E94
  0
LAYER
  5
22
102
{ACAD_XDICTIONARY
360
148E
102
}
330
2
100
AcDbSymbolTableRecord
100
AcDbLayerTableRecord
  2
SK1
 70
     0
 62
     4
  6
CONTINUOUS
370
    -3
390
E94
  0
LAYER
  5
23
102
{ACAD_XDICTIONARY
360
1490
102
}
330
2
100
AcDbSymbolTableRecord
100
AcDbLayerTableRecord
  2
2
 70
     0
 62
     7
  6
CONTINUOUS
370
    -3
390
E94
  0
LAYER
  5
24
102
{ACAD_XDICTIONARY
360
1492
102
}
330
2
100
AcDbSymbolTableRecord
100
AcDbLayerTableRecord
  2
2L
 70
     0
 62
     7
  6
CONTINUOUS
370
    -3
390
E94
  0
LAYER
  5
25
102
{ACAD_XDICTIONARY
360
1494
102
}
330
2
100
AcDbSymbolTableRecord
100
AcDbLayerTableRecord
  2
SK2
 70
     0
 62
     7
  6
CONTINUOUS
370
    -3
390
E94
  0
LAYER
  5
26
102
{ACAD_XDICTIONARY
360
1496
102
}
330
2
100
AcDbSymbolTableRecord
100
AcDbLayerTableRecord
  2
3
 70
     0
 62
     1
  6
HIDDEN
370
    -3
390
E94
  0
LAYER
  5
27
102
{ACAD_XDICTIONARY
360
1498
102
}
330
2
100
AcDbSymbolTableRecord
100
AcDbLayerTableRecord
  2
SK3
 70
     0
 62
     1
  6
HIDDEN
370
    -3
390
E94
  0
LAYER
  5
28
102
{ACAD_XDICTIONARY
360
149A
102
}
330
2
100
AcDbSymbolTableRecord
100
AcDbLayerTableRecord
  2
4
 70
     0
 62
     2
  6
CENTER
370
    -3
390
E94
  0
LAYER
  5
29
102
{ACAD_XDICTIONARY
360
149C
102
}
330
2
100
AcDbSymbolTableRecord
100
AcDbLayerTableRecord
  2
SK4
 70
     0
 62
     2
  6
CENTER
370
    -3
390
E94
  0
LAYER
  5
2A
102
{ACAD_XDICTIONARY
360
149E
102
}
330
2
100
AcDbSymbolTableRecord
100
AcDbLayerTableRecord
  2
5
 70
     0
 62
     7
  6
CONTINUOUS
370
    -3
390
E94
  0
LAYER
  5
2B
102
{ACAD_XDICTIONARY
360
14A0
102
}
330
2
100
AcDbSymbolTableRecord
100
AcDbLayerTableRecord
  2
6
 70
     0
 62
     5
  6
CONTINUOUS
370
    -3
390
E94
  0
LAYER
  5
2C
102
{ACAD_XDICTIONARY
360
14A2
102
}
330
2
100
AcDbSymbolTableRecord
100
AcDbLayerTableRecord
  2
SK6
 70
     0
 62
     5
  6
CONTINUOUS
370
    -3
390
E94
  0
LAYER
  5
2D
102
{ACAD_XDICTIONARY
360
14A4
102
}
330
2
100
AcDbSymbolTableRecord
100
AcDbLayerTableRecord
  2
243
 70
     0
 62
     7
  6
CONTINUOUS
370
    -3
390
E94
  0
LAYER
  5
2E
330
2
100
AcDbSymbolTableRecord
100
AcDbLayerTableRecord
  2
DEFPOINTS
 70
     0
 62
     7
  6
CONTINUOUS
290
     0
370
    -3
390
E94
  0
LAYER
  5
C07
102
{ACAD_XDICTIONARY
360
14A6
102
}
330
2
100
AcDbSymbolTableRecord
100
AcDbLayerTableRecord
  2
FRONT
 70
     0
 62
     7
  6
CONTINUOUS
370
    -3
390
E94
  0
LAYER
  5
14C1
330
2
100
AcDbSymbolTableRecord
100
AcDbLayerTableRecord
  2
H
 70
     0
 62
     7
  6
CONTINUOUS
370
   100
390
E94
  0
LAYER
  5
14C2
330
2
100
AcDbSymbolTableRecord
100
AcDbLayerTableRecord
  2
P
 70
     0
 62
   250
  6
CONTINUOUS
370
   100
390
E94
  0
ENDTAB
  0
TABLE
  2
STYLE
  5
3
330
0
100
AcDbSymbolTable
 70
     6
  0
STYLE
  5
10
330
3
100
AcDbSymbolTableRecord
100
AcDbTextStyleTableRecord
  2
STANDARD
 70
     0
 40
0.0
 41
1.0
 50
0.0
 71
     0
 42
5.0
  3
txt
  4

  0
STYLE
  5
1F
330
3
100
AcDbSymbolTableRecord
100
AcDbTextStyleTableRecord
  2
SIMPLEX
 70
     0
 40
0.0
 41
1.0
 50
0.0
 71
     0
 42
3.5
  3
simplex
  4

  0
STYLE
  5
2F
330
3
100
AcDbSymbolTableRecord
100
AcDbTextStyleTableRecord
  2
TXT
 70
     0
 40
8.0
 41
1.0
 50
0.0
 71
     0
 42
8.0
  3
txt
  4

  0
STYLE
  5
C08
330
3
100
AcDbSymbolTableRecord
100
AcDbTextStyleTableRecord
  2
UGMTXT
 70
     0
 40
0.0
 41
1.0
 50
0.0
 71
     0
 42
0.2
  3
ugmtxt
  4
bigfont
  0
STYLE
  5
12D5
330
3
100
AcDbSymbolTableRecord
100
AcDbTextStyleTableRecord
  2
SLDTEXTSTYLE0
 70
     0
 40
0.0
 41
0.75
 50
0.0
 71
     0
 42
0.0
  3
TXT
  4

  0
STYLE
  5
14C3
330
3
100
AcDbSymbolTableRecord
100
AcDbTextStyleTableRecord
  2
Roman
 70
     0
 40
0.0
 41
1.0
 50
0.0
 71
     0
 42
0.2
  3

  4

  0
ENDTAB
  0
TABLE
  2
VIEW
  5
6
330
0
100
AcDbSymbolTable
 70
     0
  0
ENDTAB
  0
TABLE
  2
UCS
  5
7
330
0
100
AcDbSymbolTable
 70
     0
  0
ENDTAB
  0
TABLE
  2
APPID
  5
9
330
0
100
AcDbSymbolTable
 70
     4
  0
APPID
  5
11
330
9
100
AcDbSymbolTableRecord
100
AcDbRegAppTableRecord
  2
ACAD
 70
     0
  0
APPID
  5
E8F
330
9
100
AcDbSymbolTableRecord
100
AcDbRegAppTableRecord
  2
CONTENTBLOCKICON
 70
     0
  0
APPID
  5
1485
330
9
100
AcDbSymbolTableRecord
100
AcDbRegAppTableRecord
  2
ACAD_MLEADERVER
 70
     0
  0
APPID
  5
1717
330
9
100
AcDbSymbolTableRecord
100
AcDbRegAppTableRecord
  2
ACAD_EXEMPT_FROM_CAD_STANDARDS
 70
     0
  0
ENDTAB
  0
TABLE
  2
DIMSTYLE
  5
A
330
0
100
AcDbSymbolTable
 70
     5
100
AcDbDimStyleTable
 71
     5
340
D91
340
1273
340
D93
340
D92
340
980
  0
DIMSTYLE
105
980
330
A
100
AcDbSymbolTableRecord
100
AcDbDimStyleTableRecord
  2
STANDARD
 70
     0
340
10
  0
DIMSTYLE
105
D91
102
{ACAD_REACTORS
330
1D5D
330
1D6A
330
1D78
102
}
330
A
100
AcDbSymbolTableRecord
100
AcDbDimStyleTableRecord
  2
V-TYGEN_-160
 70
     0
 41
3.5
 42
1.0
 43
0.5
 44
1.0
 73
     0
 74
     0
 77
     1
140
3.5
141
0.0
147
1.0
271
     0
272
     0
340
10
371
    -1
  0
DIMSTYLE
105
D92
330
A
100
AcDbSymbolTableRecord
100
AcDbDimStyleTableRecord
  2
V-TYG_160-300
 70
     0
 41
5.0
 42
1.0
 43
0.5
 44
1.0
 73
     0
 74
     0
 77
     1
140
5.0
141
0.0
147
1.0
271
     0
272
     0
340
10
  0
DIMSTYLE
105
D93
330
A
100
AcDbSymbolTableRecord
100
AcDbDimStyleTableRecord
  2
V-TYG_300-
 70
     0
 41
8.0
 42
1.0
 43
0.5
 44
1.0
 73
     0
 74
     0
 77
     1
140
8.0
141
0.0
147
1.0
271
     0
272
     0
340
10
  0
DIMSTYLE
105
1273
330
A
100
AcDbSymbolTableRecord
100
AcDbDimStyleTableRecord
  2
Inserts
 70
     0
 41
0.5
 42
1.0
 43
0.5
 44
1.0
 73
     0
 74
     0
 77
     1
140
0.8
141
0.0
147
1.0
271
     0
272
     0
340
10
371
    -1
  0
ENDTAB
  0
TABLE
  2
BLOCK_RECORD
  5
1
330
0
100
AcDbSymbolTable
 70
    27
  0
BLOCK_RECORD
  5
19
102
{ACAD_XDICTIONARY
360
E8D
102
}
330
1
100
AcDbSymbolTableRecord
100
AcDbBlockTableRecord
  2
*MODEL_SPACE
340
E95
  0
BLOCK_RECORD
  5
16
102
{ACAD_XDICTIONARY
360
E8B
102
}
330
1
100
AcDbSymbolTableRecord
100
AcDbBlockTableRecord
  2
*PAPER_SPACE
340
E96
  0
BLOCK_RECORD
  5
1D5E
330
1
100
AcDbSymbolTableRecord
100
AcDbBlockTableRecord
  2
*D24
340
0
  0
BLOCK_RECORD
  5
1D6B
330
1
100
AcDbSymbolTableRecord
100
AcDbBlockTableRecord
  2
*D25
340
0
  0
BLOCK_RECORD
  5
1D79
330
1
100
AcDbSymbolTableRecord
100
AcDbBlockTableRecord
  2
*D26
340
0
  0
ENDTAB
  0
ENDSEC
  0
SECTION
  2
BLOCKS
  0
BLOCK
  5
1A
330
19
100
AcDbEntity
  8
0
100
AcDbBlockBegin
  2
*MODEL_SPACE
 70
     0
 10
0.0
 20
0.0
 30
0.0
  3
*MODEL_SPACE
  1

  0
ENDBLK
  5
1B
330
19
100
AcDbEntity
  8
0
100
AcDbBlockEnd
  0
BLOCK
  5
17
330
16
100
AcDbEntity
 67
     1
  8
0
100
AcDbBlockBegin
  2
*PAPER_SPACE
 70
     0
 10
0.0
 20
0.0
 30
0.0
  3
*PAPER_SPACE
  1

  0
ENDBLK
  5
18
330
16
100
AcDbEntity
 67
     1
  8
0
100
AcDbBlockEnd
  0
BLOCK
  5
1D5F
330
1D5E
100
AcDbEntity
  8
0
100
AcDbBlockBegin
  2
*D24
 70
     1
 10
0.0
 20
0.0
 30
0.0
  3
*D24
  1

  0
LINE
  5
1DAC
330
1D5E
100
AcDbEntity
  8
2
 62
     0
370
    -2
100
AcDbLine
 10
603.5062753263804
 20
303.6221365793831
 30
0.0
 11
614.5881383838946
 21
303.6221365793831
 31
0.0
  0
LINE
  5
1DAD
330
1D5E
100
AcDbEntity
  8
2
 62
     0
370
    -2
100
AcDbLine
 10
603.1239669930472
 20
288.623886579383
 30
0.0
 11
614.5881383838946
 21
288.623886579383
 31
0.0
  0
LINE
  5
1DAE
330
1D5E
100
AcDbEntity
  8
2
 62
     0
100
AcDbLine
 10
613.5881383838944
 20
300.122136579383
 30
0.0
 11
613.5881383838944
 21
292.123886579383
 31
0.0
  0
SOLID
  5
1DAF
330
1D5E
100
AcDbEntity
  8
2
 62
     0
100
AcDbTrace
 10
613.0048050505612
 20
300.122136579383
 30
0.0
 11
614.171471717228
 21
300.122136579383
 31
0.0
 12
613.5881383838944
 22
303.6221365793831
 32
0.0
 13
613.5881383838944
 23
303.6221365793831
 33
0.0
  0
SOLID
  5
1DB0
330
1D5E
100
AcDbEntity
  8
2
 62
     0
100
AcDbTrace
 10
613.0048050505612
 20
292.123886579383
 30
0.0
 11
614.171471717228
 21
292.123886579383
 31
0.0
 12
613.5881383838944
 22
288.623886579383
 32
0.0
 13
613.5881383838944
 23
288.623886579383
 33
0.0
  0
MTEXT
  5
1DB1
330
1D5E
100
AcDbEntity
  8
2
 62
     0
100
AcDbMText
 10
610.8381383838945
 20
296.123011579383
 30
0.0
 40
3.5
 41
0.0
 71
     5
 72
     1
  1
\A1;%%c15
 11
0.0000000000000001
 21
1.0
 31
0.0
 73
     1
 44
1.0
1001
ACAD
1000
MTEXTBEGIN
1070
    73
1070
     1
1070
    44
1040
1.0
1070
    74
1070
     0
1000
MTEXTEND
  0
POINT
  5
1DB2
330
1D5E
100
AcDbEntity
  8
DEFPOINTS
 62
     0
100
AcDbPoint
 10
602.5062753263804
 20
303.6221365793831
 30
0.0
  0
POINT
  5
1DB3
330
1D5E
100
AcDbEntity
  8
DEFPOINTS
 62
     0
100
AcDbPoint
 10
602.1239669930472
 20
288.623886579383
 30
0.0
  0
POINT
  5
1DB4
330
1D5E
100
AcDbEntity
  8
DEFPOINTS
 62
     0
100
AcDbPoint
 10
613.5881383838944
 20
288.623886579383
 30
0.0
  0
ENDBLK
  5
1D60
330
1D5E
100
AcDbEntity
  8
0
100
AcDbBlockEnd
  0
BLOCK
  5
1D6C
330
1D6B
100
AcDbEntity
  8
0
100
AcDbBlockBegin
  2
*D25
 70
     1
 10
0.0
 20
0.0
 30
0.0
  3
*D25
  1

  0
LINE
  5
1DBE
330
1D6B
100
AcDbEntity
  8
SK2
 62
     0
370
    -2
100
AcDbLine
 10
578.8030419930472
 20
299.6226032460496
 30
0.0
 11
568.5025775726317
 21
299.6226032460496
 31
0.0
  0
LINE
  5
1DBF
330
1D6B
100
AcDbEntity
  8
SK2
 62
     0
370
    -2
100
AcDbLine
 10
578.8030419930472
 20
292.6234199127164
 30
0.0
 11
568.5025775726317
 21
292.6234199127164
 31
0.0
  0
LINE
  5
1DC0
330
1D6B
100
AcDbEntity
  8
SK2
 62
     0
100
AcDbLine
 10
569.5025775726317
 20
289.1234199127164
 30
0.0
 11
569.5025775726317
 21
285.6234199127164
 31
0.0
  0
LINE
  5
1DC1
330
1D6B
100
AcDbEntity
  8
SK2
 62
     0
100
AcDbLine
 10
569.5025775726317
 20
303.1226032460497
 30
0.0
 11
569.5025775726317
 21
314.455936579383
 31
0.0
  0
SOLID
  5
1DC2
330
1D6B
100
AcDbEntity
  8
SK2
 62
     0
100
AcDbTrace
 10
568.9192442392984
 20
289.1234199127164
 30
0.0
 11
570.0859109059653
 21
289.1234199127164
 31
0.0
 12
569.5025775726317
 22
292.6234199127164
 32
0.0
 13
569.5025775726317
 23
292.6234199127164
 33
0.0
  0
SOLID
  5
1DC3
330
1D6B
100
AcDbEntity
  8
SK2
 62
     0
100
AcDbTrace
 10
568.9192442392984
 20
303.1226032460497
 30
0.0
 11
570.0859109059653
 21
303.1226032460497
 31
0.0
 12
569.5025775726317
 22
299.6226032460496
 32
0.0
 13
569.5025775726317
 23
299.6226032460496
 33
0.0
  0
MTEXT
  5
1DC4
330
1D6B
100
AcDbEntity
  8
SK2
 62
     0
100
AcDbMText
 10
566.7525775726317
 20
310.5392699127163
 30
0.0
 40
3.5
 41
0.0
 71
     5
 72
     1
  1
\A1;%%c7
 11
0.0000000000000001
 21
1.0
 31
0.0
 73
     1
 44
1.0
1001
ACAD
1000
MTEXTBEGIN
1070
    73
1070
     1
1070
    44
1040
1.0
1070
    74
1070
     0
1000
MTEXTEND
  0
POINT
  5
1DC5
330
1D6B
100
AcDbEntity
  8
DEFPOINTS
 62
     0
100
AcDbPoint
 10
579.8030419930472
 20
299.6226032460496
 30
0.0
  0
POINT
  5
1DC6
330
1D6B
100
AcDbEntity
  8
DEFPOINTS
 62
     0
100
AcDbPoint
 10
579.8030419930472
 20
292.6234199127164
 30
0.0
  0
POINT
  5
1DC7
330
1D6B
100
AcDbEntity
  8
DEFPOINTS
 62
     0
100
AcDbPoint
 10
569.5025775726317
 20
292.6234199127164
 30
0.0
  0
ENDBLK
  5
1D6D
330
1D6B
100
AcDbEntity
  8
0
100
AcDbBlockEnd
  0
BLOCK
  5
1D7A
330
1D79
100
AcDbEntity
  8
0
100
AcDbBlockBegin
  2
*D26
 70
     1
 10
0.0
 20
0.0
 30
0.0
  3
*D26
  1

  0
LINE
  5
1DB5
330
1D79
100
AcDbEntity
  8
2
 62
     0
370
    -2
100
AcDbLine
 10
590.8311669930473
 20
302.2547657460497
 30
0.0
 11
590.8311669930473
 21
310.872952566227
 31
0.0
  0
LINE
  5
1DB6
330
1D79
100
AcDbEntity
  8
2
 62
     0
370
    -2
100
AcDbLine
 10
603.8296503263803
 20
304.2398282460497
 30
0.0
 11
603.8296503263803
 21
310.872952566227
 31
0.0
  0
LINE
  5
1DB7
330
1D79
100
AcDbEntity
  8
2
 62
     0
100
AcDbLine
 10
594.3311669930473
 20
309.872952566227
 30
0.0
 11
600.3296503263803
 21
309.872952566227
 31
0.0
  0
SOLID
  5
1DB8
330
1D79
100
AcDbEntity
  8
2
 62
     0
100
AcDbTrace
 10
594.3311669930473
 20
310.4562858995603
 30
0.0
 11
594.3311669930473
 21
309.2896192328937
 31
0.0
 12
590.8311669930473
 22
309.872952566227
 32
0.0
 13
590.8311669930473
 23
309.872952566227
 33
0.0
  0
SOLID
  5
1DB9
330
1D79
100
AcDbEntity
  8
2
 62
     0
100
AcDbTrace
 10
600.3296503263803
 20
310.4562858995603
 30
0.0
 11
600.3296503263803
 21
309.2896192328937
 31
0.0
 12
603.8296503263803
 22
309.872952566227
 32
0.0
 13
603.8296503263803
 23
309.872952566227
 33
0.0
  0
MTEXT
  5
1DBA
330
1D79
100
AcDbEntity
  8
2
 62
     0
100
AcDbMText
 10
597.3304086597137
 20
312.622952566227
 30
0.0
 40
3.5
 41
0.0
 71
     5
 72
     1
  1
\A1;13
 73
     1
 44
1.0
1001
ACAD
1000
MTEXTBEGIN
1070
    73
1070
     1
1070
    44
1040
1.0
1070
    74
1070
     0
1000
MTEXTEND
  0
POINT
  5
1DBB
330
1D79
100
AcDbEntity
  8
DEFPOINTS
 62
     0
100
AcDbPoint
 10
590.8311669930473
 20
301.2547657460497
 30
0.0
  0
POINT
  5
1DBC
330
1D79
100
AcDbEntity
  8
DEFPOINTS
 62
     0
100
AcDbPoint
 10
603.8296503263803
 20
303.2398282460497
 30
0.0
  0
POINT
  5
1DBD
330
1D79
100
AcDbEntity
  8
DEFPOINTS
 62
     0
100
AcDbPoint
 10
603.8296503263803
 20
309.872952566227
 30
0.0
  0
ENDBLK
  5
1D7B
330
1D79
100
AcDbEntity
  8
0
100
AcDbBlockEnd
  0
ENDSEC
  0
SECTION
  2
ENTITIES
  0
MTEXT
  5
1431
330
19
100
AcDbEntity
  8
SK6
100
AcDbMText
 10
581.0422283236402
 20
280.2984837698378
 30
0.0
 40
3.5
 41
80.41994893321954
 71
     1
 72
     5
  1
{\fMonospac821 BT|b0|i0|c0|p49;PF84-15H6-EN1\P02602331}
  7
SIMPLEX
 73
     1
 44
1.0
1001
ACAD
1000
MTEXTBEGIN
1070
    73
1070
     1
1070
    44
1040
1.0
1070
    74
1070
     0
1000
MTEXTEND
  0
LWPOLYLINE
  5
1C80
330
19
100
AcDbEntity
  8
1
100
AcDbPolyline
 90
       21
 70
     0
 43
0.0
 10
601.7122503263805
 20
292.858686579383
 10
601.6534336597137
 20
292.682236579383
 10
601.5652086597137
 20
292.5351949127163
 10
601.4475753263805
 20
292.3881532460497
 10
601.3299419930472
 20
292.2411115793829
 10
601.1534919930473
 20
292.1234782460497
 10
600.9770419930472
 20
292.0352532460496
 10
600.7711836597137
 20
291.976436579383
 10
600.5653253263805
 20
291.9176199127163
 10
600.3300586597137
 20
291.888211579383
 10
600.0947919930472
 20
291.888211579383
 10
599.8889336597137
 20
291.9176199127163
 10
599.6830753263805
 20
291.976436579383
 10
599.4772169930472
 20
292.0352532460496
 10
599.2713586597139
 20
292.1234782460497
 10
599.1243169930471
 20
292.2411115793829
 10
598.9772753263804
 20
292.3881532460497
 10
598.8596419930472
 20
292.5351949127163
 10
598.7714169930472
 20
292.682236579383
 10
598.7420086597137
 20
292.858686579383
 10
598.7126003263804
 20
293.035136579383
  0
LWPOLYLINE
  5
1C81
330
19
100
AcDbEntity
  8
1
100
AcDbPolyline
 90
       18
 70
     0
 43
0.0
 10
601.4475753263805
 20
293.1821782460497
 10
601.3593503263804
 20
293.035136579383
 10
601.2711253263804
 20
292.8880949127163
 10
601.1534919930473
 20
292.770461579383
 10
601.0064503263804
 20
292.6528282460497
 10
600.8594086597137
 20
292.5646032460497
 10
600.6829586597139
 20
292.505786579383
 10
600.4771003263804
 20
292.4763782460496
 10
600.271241993047
 20
292.4469699127163
 10
600.0653836597137
 20
292.4469699127163
 10
599.8889336597137
 20
292.4763782460496
 10
599.6830753263805
 20
292.5351949127163
 10
599.5066253263805
 20
292.6234199127164
 10
599.3595836597137
 20
292.7116449127163
 10
599.2125419930472
 20
292.8292782460497
 10
599.1243169930471
 20
292.946911579383
 10
599.0360919930473
 20
293.0939532460497
 10
598.9772753263804
 20
293.211586579383
  0
LWPOLYLINE
  5
1C82
330
19
100
AcDbEntity
  8
1
100
AcDbPolyline
 90
       18
 70
     0
 43
0.0
 10
601.4475753263805
 20
293.1821782460497
 10
601.3593503263804
 20
293.035136579383
 10
601.2711253263804
 20
292.8880949127163
 10
601.1534919930473
 20
292.770461579383
 10
601.0064503263804
 20
292.6528282460497
 10
600.8594086597137
 20
292.5646032460497
 10
600.6829586597139
 20
292.505786579383
 10
600.4771003263804
 20
292.4763782460496
 10
600.271241993047
 20
292.4469699127163
 10
600.0653836597137
 20
292.4469699127163
 10
599.8889336597137
 20
292.4763782460496
 10
599.6830753263805
 20
292.5351949127163
 10
599.5066253263805
 20
292.6234199127164
 10
599.3595836597137
 20
292.7116449127163
 10
599.2125419930472
 20
292.8292782460497
 10
599.1243169930471
 20
292.946911579383
 10
599.0360919930473
 20
293.0939532460497
 10
598.9772753263804
 20
293.211586579383
  0
LWPOLYLINE
  5
1C84
330
19
100
AcDbEntity
  8
1
100
AcDbPolyline
 90
        2
 70
     0
 43
0.0
 10
601.7122503263805
 20
293.035136579383
 10
601.7122503263805
 20
292.858686579383
  0
LWPOLYLINE
  5
1C85
330
19
100
AcDbEntity
  8
1
100
AcDbPolyline
 90
        2
 70
     0
 43
0.0
 10
601.4475753263805
 20
293.211586579383
 10
601.4475753263805
 20
293.1821782460497
  0
LWPOLYLINE
  5
1C86
330
19
100
AcDbEntity
  8
1
100
AcDbPolyline
 90
        2
 70
     0
 43
0.0
 10
601.4475753263805
 20
293.211586579383
 10
601.4475753263805
 20
293.1821782460497
  0
LWPOLYLINE
  5
1C8E
330
19
100
AcDbEntity
  8
SK1
100
AcDbPolyline
 90
        2
 70
     0
 43
0.0
 10
590.3312253263805
 20
293.7997532460496
 10
590.3312253263805
 20
294.711411579383
  0
LWPOLYLINE
  5
1C8F
330
19
100
AcDbEntity
  8
SK1
100
AcDbPolyline
 90
        2
 70
     0
 43
0.0
 10
587.6256586597137
 20
294.711411579383
 10
587.6256586597137
 20
293.7997532460496
  0
LWPOLYLINE
  5
1C90
330
19
100
AcDbEntity
  8
1
100
AcDbPolyline
 90
        2
 70
     0
 43
0.0
 10
593.830816993047
 20
288.888561579383
 10
594.8307003263805
 20
288.623886579383
  0
LWPOLYLINE
  5
1C91
330
19
100
AcDbEntity
  8
1
100
AcDbPolyline
 90
        2
 70
     0
 43
0.0
 10
602.1239669930472
 20
288.623886579383
 10
602.8297669930472
 20
288.6532949127163
  0
LWPOLYLINE
  5
1C92
330
19
100
AcDbEntity
  8
1
100
AcDbPolyline
 90
        2
 70
     0
 43
0.0
 10
602.8297669930472
 20
288.6532949127163
 10
603.8296503263803
 20
289.241461579383
  0
LWPOLYLINE
  5
1C93
330
19
100
AcDbEntity
  8
1
100
AcDbPolyline
 90
        2
 70
     0
 43
0.0
 10
594.8307003263805
 20
288.623886579383
 10
602.1239669930472
 20
288.623886579383
  0
LWPOLYLINE
  5
1C94
330
19
100
AcDbEntity
  8
1
100
AcDbPolyline
 90
        2
 70
     0
 43
0.0
 10
592.6838919930473
 20
302.8575199127163
 10
592.1545419930472
 20
301.945861579383
  0
LWPOLYLINE
  5
1C95
330
19
100
AcDbEntity
  8
1
100
AcDbPolyline
 90
        2
 70
     0
 43
0.0
 10
592.1545419930472
 20
290.2707532460496
 10
592.8309336597139
 20
289.153236579383
  0
LWPOLYLINE
  5
1C96
330
19
100
AcDbEntity
  8
1
100
AcDbPolyline
 90
        2
 70
     0
 43
0.0
 10
591.1546586597137
 20
290.6236532460497
 10
592.1545419930472
 20
290.6236532460497
  0
LWPOLYLINE
  5
1C97
330
19
100
AcDbEntity
  8
1
100
AcDbPolyline
 90
        2
 70
     0
 43
0.0
 10
592.1545419930472
 20
301.6223699127163
 10
591.1546586597137
 20
301.6223699127163
  0
LWPOLYLINE
  5
1C98
330
19
100
AcDbEntity
  8
1
100
AcDbPolyline
 90
        2
 70
     0
 43
0.0
 10
591.1546586597137
 20
301.6223699127163
 10
590.8311669930473
 20
301.2694699127163
  0
LWPOLYLINE
  5
1C99
330
19
100
AcDbEntity
  8
1
100
AcDbPolyline
 90
        2
 70
     0
 43
0.0
 10
590.8311669930473
 20
290.9471449127163
 10
591.1546586597137
 20
290.6236532460497
  0
LWPOLYLINE
  5
1C9A
330
19
100
AcDbEntity
  8
SK1
100
AcDbPolyline
 90
        5
 70
     0
 43
0.0
 10
590.5664919930472
 20
292.8292782460497
 10
590.6547169930473
 20
292.7998699127163
 10
590.7135336597137
 20
292.7998699127163
 10
590.8017586597138
 20
292.7410532460497
 10
590.8311669930473
 20
292.7410532460497
  0
LWPOLYLINE
  5
1C9B
330
19
100
AcDbEntity
  8
SK1
100
AcDbPolyline
 90
        5
 70
     0
 43
0.0
 10
590.8311669930473
 20
299.5049699127163
 10
590.8017586597138
 20
299.475561579383
 10
590.7135336597137
 20
299.4461532460497
 10
590.6547169930473
 20
299.4167449127163
 10
590.5664919930472
 20
299.4167449127163
  0
LWPOLYLINE
  5
1C9C
330
19
100
AcDbEntity
  8
SK1
100
AcDbPolyline
 90
        2
 70
     0
 43
0.0
 10
589.7430586597137
 20
299.6226032460496
 10
579.8030419930472
 20
299.6226032460496
  0
LWPOLYLINE
  5
1C9D
330
19
100
AcDbEntity
  8
SK1
100
AcDbPolyline
 90
        2
 70
     0
 43
0.0
 10
579.8030419930472
 20
292.6234199127164
 10
589.7430586597137
 20
292.6234199127164
  0
LWPOLYLINE
  5
1C9E
330
19
100
AcDbEntity
  8
SK1
100
AcDbPolyline
 90
        2
 70
     0
 43
0.0
 10
579.8030419930472
 20
299.6226032460496
 10
579.3031003263804
 20
299.3285199127163
  0
LWPOLYLINE
  5
1C9F
330
19
100
AcDbEntity
  8
SK1
100
AcDbPolyline
 90
        2
 70
     0
 43
0.0
 10
579.3031003263804
 20
292.8880949127163
 10
579.8030419930472
 20
292.6234199127164
  0
LWPOLYLINE
  5
1CA0
330
19
100
AcDbEntity
  8
SK1
100
AcDbPolyline
 90
        2
 70
     0
 43
0.0
 10
590.0959586597138
 20
299.4461532460497
 10
589.7430586597137
 20
299.6226032460496
  0
LWPOLYLINE
  5
1CA1
330
19
100
AcDbEntity
  8
SK1
100
AcDbPolyline
 90
        9
 70
     0
 43
0.0
 10
590.2724086597137
 20
299.4167449127163
 10
590.2430003263804
 20
299.4167449127163
 10
590.213591993047
 20
299.4167449127163
 10
590.213591993047
 20
299.4167449127163
 10
590.1841836597139
 20
299.4167449127163
 10
590.1547753263804
 20
299.4167449127163
 10
590.1547753263804
 20
299.4167449127163
 10
590.1253669930472
 20
299.4461532460497
 10
590.0959586597138
 20
299.4461532460497
  0
LWPOLYLINE
  5
1CA2
330
19
100
AcDbEntity
  8
SK1
100
AcDbPolyline
 90
        2
 70
     0
 43
0.0
 10
590.2724086597137
 20
292.8292782460497
 10
590.5664919930472
 20
292.8292782460497
  0
LWPOLYLINE
  5
1CA3
330
19
100
AcDbEntity
  8
SK1
100
AcDbPolyline
 90
        2
 70
     0
 43
0.0
 10
590.5664919930472
 20
299.4167449127163
 10
590.2724086597137
 20
299.4167449127163
  0
LWPOLYLINE
  5
1CA4
330
19
100
AcDbEntity
  8
SK1
100
AcDbPolyline
 90
        9
 70
     0
 43
0.0
 10
590.0959586597138
 20
292.770461579383
 10
590.1253669930472
 20
292.7998699127163
 10
590.1547753263804
 20
292.7998699127163
 10
590.1547753263804
 20
292.7998699127163
 10
590.1841836597139
 20
292.7998699127163
 10
590.213591993047
 20
292.7998699127163
 10
590.213591993047
 20
292.7998699127163
 10
590.2430003263804
 20
292.8292782460497
 10
590.2724086597137
 20
292.8292782460497
  0
LWPOLYLINE
  5
1CA5
330
19
100
AcDbEntity
  8
SK1
100
AcDbPolyline
 90
        2
 70
     0
 43
0.0
 10
589.7430586597137
 20
292.6234199127164
 10
590.0959586597138
 20
292.770461579383
  0
LWPOLYLINE
  5
1CA6
330
19
100
AcDbEntity
  8
1
100
AcDbPolyline
 90
        2
 70
     0
 43
0.0
 10
593.9190419930472
 20
299.7990532460497
 10
593.9190419930472
 20
299.7990532460497
  0
LWPOLYLINE
  5
1CA7
330
19
100
AcDbEntity
  8
1
100
AcDbPolyline
 90
        2
 70
     0
 43
0.0
 10
598.9184586597139
 20
299.7990532460497
 10
598.9184586597139
 20
299.7990532460497
  0
LWPOLYLINE
  5
1CA8
330
19
100
AcDbEntity
  8
SK1
100
AcDbPolyline
 90
       41
 70
     0
 43
0.0
 10
589.1843003263804
 20
294.9466782460497
 10
588.9784419930472
 20
294.9466782460497
 10
588.7431753263804
 20
294.9466782460497
 10
588.537316993047
 20
294.887861579383
 10
588.3608669930472
 20
294.8290449127163
 10
588.1844169930473
 20
294.7408199127163
 10
588.0079669930473
 20
294.623186579383
 10
587.8609253263804
 20
294.4761449127163
 10
587.7727003263806
 20
294.3291032460497
 10
587.6844753263806
 20
294.1526532460497
 10
587.6256586597137
 20
293.9762032460496
 10
587.6256586597137
 20
293.7997532460496
 10
587.6256586597137
 20
293.5938949127163
 10
587.6844753263806
 20
293.4174449127164
 10
587.7727003263806
 20
293.2704032460497
 10
587.8609253263804
 20
293.0939532460497
 10
588.0079669930473
 20
292.946911579383
 10
588.1844169930473
 20
292.8292782460497
 10
588.3608669930472
 20
292.7410532460497
 10
588.537316993047
 20
292.682236579383
 10
588.7431753263804
 20
292.6234199127164
 10
588.9784419930472
 20
292.6234199127164
 10
589.1843003263804
 20
292.6234199127164
 10
589.3901586597137
 20
292.682236579383
 10
589.5666086597137
 20
292.7410532460497
 10
589.7724669930473
 20
292.8292782460497
 10
589.9195086597138
 20
292.946911579383
 10
590.0665503263804
 20
293.0939532460497
 10
590.1547753263804
 20
293.2409949127164
 10
590.2430003263804
 20
293.4174449127164
 10
590.301816993047
 20
293.5938949127163
 10
590.3312253263805
 20
293.7703449127163
 10
590.301816993047
 20
293.9762032460496
 10
590.2430003263804
 20
294.1526532460497
 10
590.1841836597139
 20
294.3291032460497
 10
590.0665503263804
 20
294.4761449127163
 10
589.9195086597138
 20
294.623186579383
 10
589.7724669930473
 20
294.7408199127163
 10
589.5960169930472
 20
294.8290449127163
 10
589.3901586597137
 20
294.887861579383
 10
589.1843003263804
 20
294.9466782460497
  0
LWPOLYLINE
  5
1CA9
330
19
100
AcDbEntity
  8
SK1
100
AcDbPolyline
 90
        2
 70
     0
 43
0.0
 10
589.7724669930473
 20
295.946561579383
 10
589.7724669930473
 20
295.7995199127164
  0
LWPOLYLINE
  5
1CAA
330
19
100
AcDbEntity
  8
1
100
AcDbPolyline
 90
        2
 70
     0
 43
0.0
 10
603.6826086597137
 20
299.9460949127163
 10
603.8296503263803
 20
299.9460949127163
  0
LWPOLYLINE
  5
1CAB
330
19
100
AcDbEntity
  8
1
100
AcDbPolyline
 90
        2
 70
     0
 43
0.0
 10
603.8296503263803
 20
299.9460949127163
 10
603.8296503263803
 20
300.181361579383
  0
LWPOLYLINE
  5
1CAC
330
19
100
AcDbEntity
  8
1
100
AcDbPolyline
 90
        2
 70
     0
 43
0.0
 10
603.6826086597137
 20
298.5344949127163
 10
603.8296503263803
 20
298.5344949127163
  0
LWPOLYLINE
  5
1CAD
330
19
100
AcDbEntity
  8
1
100
AcDbPolyline
 90
        2
 70
     0
 43
0.0
 10
603.8296503263803
 20
298.5344949127163
 10
603.8296503263803
 20
299.9460949127163
  0
LWPOLYLINE
  5
1CAE
330
19
100
AcDbEntity
  8
1
100
AcDbPolyline
 90
        2
 70
     0
 43
0.0
 10
603.6826086597137
 20
298.4756782460497
 10
603.8296503263803
 20
298.4756782460497
  0
LWPOLYLINE
  5
1CAF
330
19
100
AcDbEntity
  8
1
100
AcDbPolyline
 90
        2
 70
     0
 43
0.0
 10
603.8296503263803
 20
298.4756782460497
 10
603.8296503263803
 20
298.5344949127163
  0
LWPOLYLINE
  5
1CB0
330
19
100
AcDbEntity
  8
1
100
AcDbPolyline
 90
        5
 70
     0
 43
0.0
 10
593.830816993047
 20
288.9473782460497
 10
593.830816993047
 20
288.9179699127163
 10
593.830816993047
 20
288.888561579383
 10
593.830816993047
 20
288.888561579383
 10
593.830816993047
 20
288.888561579383
  0
LWPOLYLINE
  5
1CB1
330
19
100
AcDbEntity
  8
1
100
AcDbPolyline
 90
        3
 70
     0
 43
0.0
 10
593.830816993047
 20
288.9473782460497
 10
594.2131253263806
 20
288.8297449127163
 10
594.8307003263805
 20
288.6827032460496
  0
LWPOLYLINE
  5
1CB2
330
19
100
AcDbEntity
  8
1
100
AcDbPolyline
 90
        5
 70
     0
 43
0.0
 10
594.8307003263805
 20
288.6827032460496
 10
594.8307003263805
 20
288.6532949127163
 10
594.8307003263805
 20
288.623886579383
 10
594.8307003263805
 20
288.623886579383
 10
594.8307003263805
 20
288.623886579383
  0
LWPOLYLINE
  5
1CB3
330
19
100
AcDbEntity
  8
1
100
AcDbPolyline
 90
        2
 70
     0
 43
0.0
 10
603.6826086597137
 20
289.6531782460497
 10
603.8296503263803
 20
289.6531782460497
  0
LWPOLYLINE
  5
1CB4
330
19
100
AcDbEntity
  8
1
100
AcDbPolyline
 90
        2
 70
     0
 43
0.0
 10
603.8296503263803
 20
289.3002782460497
 10
603.8296503263803
 20
289.6531782460497
  0
LWPOLYLINE
  5
1CB5
330
19
100
AcDbEntity
  8
1
100
AcDbPolyline
 90
        3
 70
     0
 43
0.0
 10
602.8297669930472
 20
288.712111579383
 10
602.9474003263806
 20
288.800336579383
 10
603.8296503263803
 20
289.3002782460497
  0
LWPOLYLINE
  5
1CB6
330
19
100
AcDbEntity
  8
1
100
AcDbPolyline
 90
        3
 70
     0
 43
0.0
 10
602.1239669930472
 20
288.6827032460496
 10
602.3004169930473
 20
288.6827032460496
 10
602.8297669930472
 20
288.712111579383
  0
LWPOLYLINE
  5
1CB7
330
19
100
AcDbEntity
  8
1
100
AcDbPolyline
 90
        2
 70
     0
 43
0.0
 10
594.8307003263805
 20
288.6827032460496
 10
602.1239669930472
 20
288.6827032460496
  0
LWPOLYLINE
  5
1CB8
330
19
100
AcDbEntity
  8
1
100
AcDbPolyline
 90
        2
 70
     0
 43
0.0
 10
593.830816993047
 20
289.065011579383
 10
593.830816993047
 20
288.9473782460497
  0
LWPOLYLINE
  5
1CB9
330
19
100
AcDbEntity
  8
1
100
AcDbPolyline
 90
        5
 70
     0
 43
0.0
 10
602.1239669930472
 20
288.6827032460496
 10
602.1239669930472
 20
288.6532949127163
 10
602.1239669930472
 20
288.623886579383
 10
602.1239669930472
 20
288.623886579383
 10
602.1239669930472
 20
288.623886579383
  0
LWPOLYLINE
  5
1CBA
330
19
100
AcDbEntity
  8
1
100
AcDbPolyline
 90
        5
 70
     0
 43
0.0
 10
602.8297669930472
 20
288.712111579383
 10
602.8297669930472
 20
288.6827032460496
 10
602.8297669930472
 20
288.6827032460496
 10
602.8297669930472
 20
288.6532949127163
 10
602.8297669930472
 20
288.6532949127163
  0
LWPOLYLINE
  5
1CBB
330
19
100
AcDbEntity
  8
1
100
AcDbPolyline
 90
        5
 70
     0
 43
0.0
 10
603.8296503263803
 20
289.3002782460497
 10
603.8296503263803
 20
289.2708699127163
 10
603.8296503263803
 20
289.241461579383
 10
603.8296503263803
 20
289.241461579383
 10
603.8296503263803
 20
289.241461579383
  0
LWPOLYLINE
  5
1CBC
330
19
100
AcDbEntity
  8
1
100
AcDbPolyline
 90
        2
 70
     0
 43
0.0
 10
603.6826086597137
 20
289.859036579383
 10
603.8296503263803
 20
289.859036579383
  0
LWPOLYLINE
  5
1CBD
330
19
100
AcDbEntity
  8
1
100
AcDbPolyline
 90
        2
 70
     0
 43
0.0
 10
603.8296503263803
 20
289.6531782460497
 10
603.8296503263803
 20
289.859036579383
  0
LWPOLYLINE
  5
1CBE
330
19
100
AcDbEntity
  8
1
100
AcDbPolyline
 90
        2
 70
     0
 43
0.0
 10
592.6544836597137
 20
302.7987032460497
 10
592.9191586597137
 20
303.2398282460497
  0
LWPOLYLINE
  5
1CBF
330
19
100
AcDbEntity
  8
1
100
AcDbPolyline
 90
        3
 70
     0
 43
0.0
 10
592.6544836597137
 20
302.7987032460497
 10
592.3898086597136
 20
302.3281699127164
 10
592.1545419930472
 20
301.857636579383
  0
LWPOLYLINE
  5
1CC0
330
19
100
AcDbEntity
  8
1
100
AcDbPolyline
 90
        4
 70
     0
 43
0.0
 10
592.1545419930472
 20
301.857636579383
 10
592.1545419930472
 20
301.9164532460497
 10
592.1545419930472
 20
301.945861579383
 10
592.1545419930472
 20
301.945861579383
  0
LWPOLYLINE
  5
1CC1
330
19
100
AcDbEntity
  8
1
100
AcDbPolyline
 90
       25
 70
     0
 43
0.0
 10
592.1545419930472
 20
290.2707532460496
 10
592.1545419930472
 20
290.300161579383
 10
592.1545419930472
 20
290.3295699127164
 10
592.1545419930472
 20
290.388386579383
 10
592.1545419930472
 20
290.476611579383
 10
592.1545419930472
 20
290.5942449127163
 10
592.1545419930472
 20
290.7706949127164
 10
592.1545419930472
 20
290.9471449127163
 10
592.1545419930472
 20
291.1530032460496
 10
592.1545419930472
 20
291.4176782460497
 10
592.1545419930472
 20
291.6823532460497
 10
592.1545419930472
 20
291.976436579383
 10
592.1545419930472
 20
292.2999282460497
 10
592.1545419930472
 20
292.6234199127164
 10
592.1545419930472
 20
292.9763199127163
 10
592.1545419930472
 20
293.3586282460496
 10
592.1545419930472
 20
293.740936579383
 10
592.1545419930472
 20
294.1526532460497
 10
592.1545419930472
 20
294.5643699127164
 10
592.1545419930472
 20
295.0054949127164
 10
592.1545419930472
 20
295.417211579383
 10
592.1545419930472
 20
295.858336579383
 10
592.1545419930472
 20
296.299461579383
 10
592.1545419930472
 20
296.7111782460496
 10
592.1545419930472
 20
297.1523032460496
  0
LWPOLYLINE
  5
1CC2
330
19
100
AcDbEntity
  8
1
100
AcDbPolyline
 90
        3
 70
     0
 43
0.0
 10
592.1545419930472
 20
297.1523032460496
 10
592.3898086597136
 20
296.652361579383
 10
592.6544836597137
 20
296.1524199127164
  0
LWPOLYLINE
  5
1CC3
330
19
100
AcDbEntity
  8
1
100
AcDbPolyline
 90
        2
 70
     0
 43
0.0
 10
592.9191586597137
 20
295.7407032460496
 10
592.6544836597137
 20
296.1524199127164
  0
LWPOLYLINE
  5
1CC4
330
19
100
AcDbEntity
  8
1
100
AcDbPolyline
 90
       22
 70
     0
 43
0.0
 10
592.9191586597137
 20
295.7407032460496
 10
592.9191586597137
 20
295.240761579383
 10
592.9191586597137
 20
294.7702282460497
 10
592.9191586597137
 20
294.270286579383
 10
592.9191586597137
 20
293.7997532460496
 10
592.9191586597137
 20
293.3292199127163
 10
592.9191586597137
 20
292.8880949127163
 10
592.9191586597137
 20
292.4469699127163
 10
592.9191586597137
 20
292.0352532460496
 10
592.9191586597137
 20
291.6529449127164
 10
592.9191586597137
 20
291.270636579383
 10
592.9191586597137
 20
290.917736579383
 10
592.9191586597137
 20
290.5942449127163
 10
592.9191586597137
 20
290.300161579383
 10
592.9191586597137
 20
290.035486579383
 10
592.9191586597137
 20
289.770811579383
 10
592.9191586597137
 20
289.5649532460496
 10
592.9191586597137
 20
289.3885032460497
 10
592.9191586597137
 20
289.241461579383
 10
592.9191586597137
 20
289.1238282460497
 10
592.9191586597137
 20
289.0356032460497
 10
592.9191586597137
 20
289.0061949127164
  0
LWPOLYLINE
  5
1CC5
330
19
100
AcDbEntity
  8
1
100
AcDbPolyline
 90
        4
 70
     0
 43
0.0
 10
592.8309336597139
 20
289.153236579383
 10
592.8309336597139
 20
289.153236579383
 10
592.8603419930472
 20
289.0944199127163
 10
592.9191586597137
 20
289.0061949127164
  0
LWPOLYLINE
  5
1CC6
330
19
100
AcDbEntity
  8
1
100
AcDbPolyline
 90
        2
 70
     0
 43
0.0
 10
593.830816993047
 20
289.065011579383
 10
602.9179919930473
 20
289.065011579383
  0
LWPOLYLINE
  5
1CC7
330
19
100
AcDbEntity
  8
1
100
AcDbPolyline
 90
        5
 70
     0
 43
0.0
 10
592.9191586597137
 20
289.0061949127164
 10
593.0367919930472
 20
289.0061949127164
 10
593.2720586597136
 20
289.0356032460497
 10
593.5955503263804
 20
289.065011579383
 10
593.830816993047
 20
289.065011579383
  0
LWPOLYLINE
  5
1CC8
330
19
100
AcDbEntity
  8
1
100
AcDbPolyline
 90
        2
 70
     0
 43
0.0
 10
601.1829003263804
 20
295.7407032460496
 10
592.9191586597137
 20
295.7407032460496
  0
LWPOLYLINE
  5
1CC9
330
19
100
AcDbEntity
  8
1
100
AcDbPolyline
 90
        4
 70
     0
 43
0.0
 10
602.9179919930473
 20
295.1231282460497
 10
602.3298253263805
 20
295.328986579383
 10
601.7416586597136
 20
295.5348449127163
 10
601.1829003263804
 20
295.7407032460496
  0
LWPOLYLINE
  5
1CCA
330
19
100
AcDbEntity
  8
1
100
AcDbPolyline
 90
       20
 70
     0
 43
0.0
 10
602.9179919930473
 20
295.1231282460497
 10
602.9179919930473
 20
294.6525949127163
 10
602.9179919930473
 20
294.182061579383
 10
602.9179919930473
 20
293.7115282460497
 10
602.9179919930473
 20
293.2704032460497
 10
602.9179919930473
 20
292.8292782460497
 10
602.9179919930473
 20
292.417561579383
 10
602.9179919930473
 20
292.0058449127163
 10
602.9179919930473
 20
291.623536579383
 10
602.9179919930473
 20
291.2412282460497
 10
602.9179919930473
 20
290.917736579383
 10
602.9179919930473
 20
290.5942449127163
 10
602.9179919930473
 20
290.300161579383
 10
602.9179919930473
 20
290.035486579383
 10
602.9179919930473
 20
289.8002199127163
 10
602.9179919930473
 20
289.594361579383
 10
602.9179919930473
 20
289.417911579383
 10
602.9179919930473
 20
289.2708699127163
 10
602.9179919930473
 20
289.153236579383
 10
602.9179919930473
 20
289.065011579383
  0
LWPOLYLINE
  5
1CCB
330
19
100
AcDbEntity
  8
1
100
AcDbPolyline
 90
       39
 70
     0
 43
0.0
 10
600.2124253263803
 20
290.917736579383
 10
600.5065086597137
 20
290.917736579383
 10
600.8005919930472
 20
290.9765532460497
 10
601.0652669930472
 20
291.0647782460497
 10
601.3005336597139
 20
291.182411579383
 10
601.5358003263805
 20
291.3294532460497
 10
601.7122503263805
 20
291.5059032460497
 10
601.8298836597139
 20
291.711761579383
 10
601.9181086597138
 20
291.9470282460497
 10
601.9769253263803
 20
292.1822949127163
 10
601.9475169930472
 20
292.417561579383
 10
601.9181086597138
 20
292.6528282460497
 10
601.8004753263806
 20
292.8880949127163
 10
601.6534336597137
 20
293.1527699127163
 10
601.4769836597137
 20
293.3586282460496
 10
601.2417169930472
 20
293.564486579383
 10
601.0064503263804
 20
293.7115282460497
 10
600.7123669930471
 20
293.829161579383
 10
600.4182836597138
 20
293.8879782460497
 10
600.1242003263804
 20
293.8879782460497
 10
599.8595253263804
 20
293.8585699127163
 10
599.5948503263804
 20
293.7703449127163
 10
599.3595836597137
 20
293.652711579383
 10
599.1243169930471
 20
293.5056699127164
 10
598.9184586597139
 20
293.3292199127163
 10
598.7420086597137
 20
293.0939532460497
 10
598.5949669930472
 20
292.858686579383
 10
598.506741993047
 20
292.594011579383
 10
598.4773336597137
 20
292.329336579383
 10
598.4773336597137
 20
292.064661579383
 10
598.5361503263805
 20
291.8293949127163
 10
598.6537836597137
 20
291.623536579383
 10
598.8008253263805
 20
291.447086579383
 10
598.9772753263804
 20
291.270636579383
 10
599.2125419930472
 20
291.1530032460496
 10
599.4478086597137
 20
291.0353699127163
 10
599.7418919930472
 20
290.9471449127163
 10
599.9771586597137
 20
290.917736579383
 10
600.2124253263803
 20
290.917736579383
  0
LWPOLYLINE
  5
1CCC
330
19
100
AcDbEntity
  8
1
100
AcDbPolyline
 90
        2
 70
     0
 43
0.0
 10
601.3005336597139
 20
301.4753282460497
 10
603.6826086597137
 20
301.240061579383
  0
LWPOLYLINE
  5
1CCD
330
19
100
AcDbEntity
  8
1
100
AcDbPolyline
 90
        2
 70
     0
 43
0.0
 10
603.6826086597137
 20
301.240061579383
 10
603.6826086597137
 20
295.2701699127164
  0
LWPOLYLINE
  5
1CCE
330
19
100
AcDbEntity
  8
1
100
AcDbPolyline
 90
        2
 70
     0
 43
0.0
 10
603.6826086597137
 20
295.2701699127164
 10
602.9179919930473
 20
295.1231282460497
  0
LWPOLYLINE
  5
1CCF
330
19
100
AcDbEntity
  8
1
100
AcDbPolyline
 90
        2
 70
     0
 43
0.0
 10
601.1829003263804
 20
295.7407032460496
 10
601.1829003263804
 20
301.416511579383
  0
LWPOLYLINE
  5
1CD0
330
19
100
AcDbEntity
  8
1
100
AcDbPolyline
 90
        4
 70
     0
 43
0.0
 10
601.1829003263804
 20
301.416511579383
 10
601.2123086597137
 20
301.4459199127164
 10
601.2711253263804
 20
301.4753282460497
 10
601.3005336597139
 20
301.4753282460497
  0
LWPOLYLINE
  5
1CD1
330
19
100
AcDbEntity
  8
1
100
AcDbPolyline
 90
        5
 70
     0
 43
0.0
 10
598.1832503263805
 20
297.6522449127164
 10
598.0950253263804
 20
297.6816532460497
 10
598.0362086597137
 20
297.711061579383
 10
598.0068003263803
 20
297.7698782460496
 10
597.9773919930472
 20
297.7992865793829
  0
LWPOLYLINE
  5
1CD2
330
19
100
AcDbEntity
  8
1
100
AcDbPolyline
 90
        4
 70
     0
 43
0.0
 10
598.0362086597137
 20
297.5052032460496
 10
598.0362086597137
 20
297.534611579383
 10
598.0656169930472
 20
297.5934282460496
 10
598.1832503263805
 20
297.6522449127164
  0
LWPOLYLINE
  5
1CD3
330
19
100
AcDbEntity
  8
1
100
AcDbPolyline
 90
        5
 70
     0
 43
0.0
 10
598.3597003263804
 20
297.2993449127163
 10
598.2126586597137
 20
297.3287532460497
 10
598.0950253263804
 20
297.358161579383
 10
598.0362086597137
 20
297.4169782460497
 10
598.0362086597137
 20
297.5052032460496
  0
LWPOLYLINE
  5
1CD4
330
19
100
AcDbEntity
  8
1
100
AcDbPolyline
 90
        2
 70
     0
 43
0.0
 10
598.7420086597137
 20
297.2993449127163
 10
598.3597003263804
 20
297.2993449127163
  0
LWPOLYLINE
  5
1CD5
330
19
100
AcDbEntity
  8
1
100
AcDbPolyline
 90
        2
 70
     0
 43
0.0
 10
598.7420086597137
 20
298.0051449127163
 10
598.7420086597137
 20
297.2993449127163
  0
LWPOLYLINE
  5
1CD6
330
19
100
AcDbEntity
  8
1
100
AcDbPolyline
 90
        2
 70
     0
 43
0.0
 10
598.3597003263804
 20
298.0051449127163
 10
598.7420086597137
 20
298.0051449127163
  0
LWPOLYLINE
  5
1CD7
330
19
100
AcDbEntity
  8
1
100
AcDbPolyline
 90
        6
 70
     0
 43
0.0
 10
597.9773919930472
 20
297.7992865793829
 10
598.0068003263803
 20
297.887511579383
 10
598.0362086597137
 20
297.9463282460497
 10
598.1244336597137
 20
297.975736579383
 10
598.2420669930473
 20
298.0051449127163
 10
598.3597003263804
 20
298.0051449127163
  0
LWPOLYLINE
  5
1CD8
330
19
100
AcDbEntity
  8
1
100
AcDbPolyline
 90
        2
 70
     0
 43
0.0
 10
592.6544836597137
 20
302.7987032460497
 10
592.6544836597137
 20
296.1524199127164
  0
LWPOLYLINE
  5
1CD9
330
19
100
AcDbEntity
  8
1
100
AcDbPolyline
 90
        2
 70
     0
 43
0.0
 10
592.9191586597137
 20
303.2398282460497
 10
596.8304669930472
 20
303.2398282460497
  0
LWPOLYLINE
  5
1CDA
330
19
100
AcDbEntity
  8
1
100
AcDbPolyline
 90
        2
 70
     0
 43
0.0
 10
596.8304669930472
 20
303.2398282460497
 10
596.8304669930472
 20
301.5341449127163
  0
LWPOLYLINE
  5
1CDB
330
19
100
AcDbEntity
  8
1
100
AcDbPolyline
 90
       47
 70
     0
 43
0.0
 10
598.7420086597137
 20
300.446036579383
 10
598.8302336597136
 20
300.269586579383
 10
598.8890503263806
 20
300.0637282460496
 10
598.9184586597139
 20
299.8578699127163
 10
598.9184586597139
 20
299.652011579383
 10
598.8890503263806
 20
299.4461532460497
 10
598.8008253263805
 20
299.2697032460496
 10
598.7126003263804
 20
299.0638449127163
 10
598.5655586597137
 20
298.8873949127163
 10
598.4185169930472
 20
298.7109449127164
 10
598.2420669930473
 20
298.5639032460497
 10
598.0362086597137
 20
298.416861579383
 10
597.8009419930472
 20
298.2992282460497
 10
597.5362669930472
 20
298.2110032460496
 10
597.3010003263805
 20
298.1227782460497
 10
597.0069169930472
 20
298.063961579383
 10
596.742241993047
 20
298.0345532460496
 10
596.4481586597137
 20
298.0051449127163
 10
596.1540753263805
 20
298.0345532460496
 10
595.8894003263805
 20
298.063961579383
 10
595.595316993047
 20
298.1227782460497
 10
595.3306419930473
 20
298.1815949127163
 10
595.0953753263806
 20
298.2992282460497
 10
594.8601086597139
 20
298.3874532460496
 10
594.6542503263803
 20
298.5344949127163
 10
594.4483919930473
 20
298.681536579383
 10
594.3013503263804
 20
298.857986579383
 10
594.1543086597136
 20
299.034436579383
 10
594.0366753263804
 20
299.210886579383
 10
593.9778586597137
 20
299.4167449127163
 10
593.9190419930472
 20
299.6226032460496
 10
593.9190419930472
 20
299.828461579383
 10
593.9484503263805
 20
300.004911579383
 10
593.9778586597137
 20
300.2107699127163
 10
594.0660836597137
 20
300.4166282460496
 10
594.1837169930472
 20
300.5930782460497
 10
594.3307586597137
 20
300.7695282460497
 10
594.5072086597138
 20
300.9165699127164
 10
594.7130669930472
 20
301.063611579383
 10
594.9189253263804
 20
301.2106532460497
 10
595.1541919930471
 20
301.328286579383
 10
595.4188669930472
 20
301.416511579383
 10
595.6835419930472
 20
301.4753282460497
 10
595.9776253263806
 20
301.5341449127163
 10
596.2423003263803
 20
301.5635532460497
 10
596.5363836597137
 20
301.5635532460497
 10
596.8304669930472
 20
301.5341449127163
  0
LWPOLYLINE
  5
1CDC
330
19
100
AcDbEntity
  8
1
100
AcDbPolyline
 90
        2
 70
     0
 43
0.0
 10
598.7420086597137
 20
300.446036579383
 10
600.5359169930472
 20
301.1812449127163
  0
LWPOLYLINE
  5
1CDD
330
19
100
AcDbEntity
  8
1
100
AcDbPolyline
 90
        4
 70
     0
 43
0.0
 10
600.5359169930472
 20
301.1812449127163
 10
600.7417753263804
 20
301.2694699127163
 10
600.9770419930472
 20
301.3576949127164
 10
601.1829003263804
 20
301.416511579383
  0
LWPOLYLINE
  5
1CDE
330
19
100
AcDbEntity
  8
1
100
AcDbPolyline
 90
        2
 70
     0
 43
0.0
 10
594.0366753263804
 20
297.3875699127163
 10
594.3307586597137
 20
297.3875699127163
  0
LWPOLYLINE
  5
1CDF
330
19
100
AcDbEntity
  8
1
100
AcDbPolyline
 90
        2
 70
     0
 43
0.0
 10
594.0366753263804
 20
297.2993449127163
 10
594.0366753263804
 20
297.3875699127163
  0
LWPOLYLINE
  5
1CE0
330
19
100
AcDbEntity
  8
1
100
AcDbPolyline
 90
        2
 70
     0
 43
0.0
 10
594.8012919930472
 20
297.2993449127163
 10
594.0366753263804
 20
297.2993449127163
  0
LWPOLYLINE
  5
1CE1
330
19
100
AcDbEntity
  8
1
100
AcDbPolyline
 90
        2
 70
     0
 43
0.0
 10
594.8012919930472
 20
297.3875699127163
 10
594.8012919930472
 20
297.2993449127163
  0
LWPOLYLINE
  5
1CE2
330
19
100
AcDbEntity
  8
1
100
AcDbPolyline
 90
        2
 70
     0
 43
0.0
 10
594.4778003263803
 20
297.3875699127163
 10
594.8012919930472
 20
297.3875699127163
  0
LWPOLYLINE
  5
1CE3
330
19
100
AcDbEntity
  8
1
100
AcDbPolyline
 90
        2
 70
     0
 43
0.0
 10
594.4778003263803
 20
298.0051449127163
 10
594.4778003263803
 20
297.3875699127163
  0
LWPOLYLINE
  5
1CE4
330
19
100
AcDbEntity
  8
1
100
AcDbPolyline
 90
        2
 70
     0
 43
0.0
 10
594.3307586597137
 20
298.0051449127163
 10
594.4778003263803
 20
298.0051449127163
  0
LWPOLYLINE
  5
1CE5
330
19
100
AcDbEntity
  8
1
100
AcDbPolyline
 90
        2
 70
     0
 43
0.0
 10
594.3307586597137
 20
297.3875699127163
 10
594.3307586597137
 20
298.0051449127163
  0
LWPOLYLINE
  5
1CE6
330
19
100
AcDbEntity
  8
1
100
AcDbPolyline
 90
        3
 70
     0
 43
0.0
 10
602.9179919930473
 20
289.065011579383
 10
603.0062169930472
 20
289.0944199127163
 10
603.6826086597137
 20
289.506136579383
  0
LWPOLYLINE
  5
1CE7
330
19
100
AcDbEntity
  8
1
100
AcDbPolyline
 90
       19
 70
     0
 43
0.0
 10
603.6826086597137
 20
295.2701699127164
 10
603.6826086597137
 20
294.799636579383
 10
603.6826086597137
 20
294.3291032460497
 10
603.6826086597137
 20
293.8585699127163
 10
603.6826086597137
 20
293.4174449127164
 10
603.6826086597137
 20
292.9763199127163
 10
603.6826086597137
 20
292.5646032460497
 10
603.6826086597137
 20
292.1822949127163
 10
603.6826086597137
 20
291.799986579383
 10
603.6826086597137
 20
291.447086579383
 10
603.6826086597137
 20
291.094186579383
 10
603.6826086597137
 20
290.8001032460497
 10
603.6826086597137
 20
290.5060199127163
 10
603.6826086597137
 20
290.2707532460496
 10
603.6826086597137
 20
290.035486579383
 10
603.6826086597137
 20
289.859036579383
 10
603.6826086597137
 20
289.7119949127164
 10
603.6826086597137
 20
289.594361579383
 10
603.6826086597137
 20
289.506136579383
  0
LWPOLYLINE
  5
1CE8
330
19
100
AcDbEntity
  8
1
100
AcDbPolyline
 90
       11
 70
     0
 43
0.0
 10
600.2124253263803
 20
291.6823532460497
 10
600.4476919930472
 20
291.711761579383
 10
600.6829586597139
 20
291.7411699127163
 10
600.9182253263803
 20
291.799986579383
 10
601.1240836597139
 20
291.888211579383
 10
601.3299419930472
 20
292.0058449127163
 10
601.5063919930472
 20
292.1234782460497
 10
601.6534336597137
 20
292.2705199127163
 10
601.7710669930472
 20
292.417561579383
 10
601.8592919930472
 20
292.594011579383
 10
601.9181086597138
 20
292.682236579383
  0
LWPOLYLINE
  5
1CE9
330
19
100
AcDbEntity
  8
1
100
AcDbPolyline
 90
       11
 70
     0
 43
0.0
 10
598.5361503263805
 20
292.682236579383
 10
598.5655586597137
 20
292.594011579383
 10
598.6537836597137
 20
292.417561579383
 10
598.8008253263805
 20
292.2705199127163
 10
598.9478669930472
 20
292.1234782460497
 10
599.1243169930471
 20
292.0058449127163
 10
599.3007669930472
 20
291.888211579383
 10
599.5066253263805
 20
291.799986579383
 10
599.7418919930472
 20
291.7411699127163
 10
599.9771586597137
 20
291.711761579383
 10
600.2124253263803
 20
291.6823532460497
  0
LWPOLYLINE
  5
1CEA
330
19
100
AcDbEntity
  8
1
100
AcDbPolyline
 90
        3
 70
     0
 43
0.0
 10
590.8311669930473
 20
300.357811579383
 10
590.9488003263803
 20
300.8577532460497
 10
591.1546586597137
 20
301.2988782460496
  0
LWPOLYLINE
  5
1CEB
330
19
100
AcDbEntity
  8
1
100
AcDbPolyline
 90
        4
 70
     0
 43
0.0
 10
591.1546586597137
 20
301.2988782460496
 10
591.5075586597136
 20
301.3576949127164
 10
591.8898669930472
 20
301.3871032460496
 10
592.1545419930472
 20
301.416511579383
  0
LWPOLYLINE
  5
1CEC
330
19
100
AcDbEntity
  8
1
100
AcDbPolyline
 90
        2
 70
     0
 43
0.0
 10
592.1545419930472
 20
301.416511579383
 10
592.1545419930472
 20
301.857636579383
  0
LWPOLYLINE
  5
1CED
330
19
100
AcDbEntity
  8
1
100
AcDbPolyline
 90
        2
 70
     0
 43
0.0
 10
592.1545419930472
 20
297.1523032460496
 10
592.1545419930472
 20
297.5934282460496
  0
LWPOLYLINE
  5
1CEE
330
19
100
AcDbEntity
  8
1
100
AcDbPolyline
 90
        4
 70
     0
 43
0.0
 10
592.1545419930472
 20
297.5934282460496
 10
591.7134169930473
 20
297.6816532460497
 10
591.4487419930472
 20
297.7992865793829
 10
591.1546586597137
 20
297.9463282460497
  0
LWPOLYLINE
  5
1CEF
330
19
100
AcDbEntity
  8
1
100
AcDbPolyline
 90
        3
 70
     0
 43
0.0
 10
591.1546586597137
 20
297.9463282460497
 10
590.9488003263803
 20
298.4756782460497
 10
590.8311669930473
 20
299.0050282460497
  0
LWPOLYLINE
  5
1CF0
330
19
100
AcDbEntity
  8
1
100
AcDbPolyline
 90
        2
 70
     0
 43
0.0
 10
590.8311669930473
 20
299.0050282460497
 10
590.8311669930473
 20
300.357811579383
  0
LWPOLYLINE
  5
1CF1
330
19
100
AcDbEntity
  8
1
100
AcDbPolyline
 90
       15
 70
     0
 43
0.0
 10
600.2124253263803
 20
292.064661579383
 10
600.4182836597138
 20
292.0940699127164
 10
600.6241419930472
 20
292.1234782460497
 10
600.8005919930472
 20
292.1822949127163
 10
600.9770419930472
 20
292.2705199127163
 10
601.1240836597139
 20
292.3587449127164
 10
601.2417169930472
 20
292.4763782460496
 10
601.3593503263804
 20
292.6234199127164
 10
601.418166993047
 20
292.770461579383
 10
601.4475753263805
 20
292.9175032460496
 10
601.4769836597137
 20
293.0645449127163
 10
601.4475753263805
 20
293.211586579383
 10
601.3887586597137
 20
293.388036579383
 10
601.3005336597139
 20
293.5056699127164
 10
601.2711253263804
 20
293.564486579383
  0
LWPOLYLINE
  5
1CF2
330
19
100
AcDbEntity
  8
1
100
AcDbPolyline
 90
       15
 70
     0
 43
0.0
 10
599.1537253263803
 20
293.5350782460497
 10
599.1243169930471
 20
293.5056699127164
 10
599.0360919930473
 20
293.388036579383
 10
599.0066836597137
 20
293.211586579383
 10
598.9772753263804
 20
293.0645449127163
 10
598.9772753263804
 20
292.9175032460496
 10
599.0066836597137
 20
292.770461579383
 10
599.0949086597137
 20
292.6234199127164
 10
599.1831336597137
 20
292.4763782460496
 10
599.3301753263803
 20
292.3587449127164
 10
599.4772169930472
 20
292.2705199127163
 10
599.6242586597137
 20
292.1822949127163
 10
599.8301169930472
 20
292.1234782460497
 10
600.0065669930473
 20
292.0940699127164
 10
600.2124253263803
 20
292.064661579383
  0
LWPOLYLINE
  5
1CF3
330
19
100
AcDbEntity
  8
1
100
AcDbPolyline
 90
        6
 70
     0
 43
0.0
 10
591.1546586597137
 20
301.2988782460496
 10
591.1546586597137
 20
301.416511579383
 10
591.1546586597137
 20
301.5341449127163
 10
591.1546586597137
 20
301.592961579383
 10
591.1546586597137
 20
301.6223699127163
 10
591.1546586597137
 20
301.6223699127163
  0
LWPOLYLINE
  5
1CF4
330
19
100
AcDbEntity
  8
1
100
AcDbPolyline
 90
       26
 70
     0
 43
0.0
 10
591.1546586597137
 20
290.6236532460497
 10
591.1546586597137
 20
290.6236532460497
 10
591.1546586597137
 20
290.653061579383
 10
591.1546586597137
 20
290.741286579383
 10
591.1546586597137
 20
290.829511579383
 10
591.1546586597137
 20
290.9765532460497
 10
591.1546586597137
 20
291.1530032460496
 10
591.1546586597137
 20
291.3588615793829
 10
591.1546586597137
 20
291.5647199127164
 10
591.1546586597137
 20
291.8293949127163
 10
591.1546586597137
 20
292.0940699127164
 10
591.1546586597137
 20
292.417561579383
 10
591.1546586597137
 20
292.7410532460497
 10
591.1546586597137
 20
293.0645449127163
 10
591.1546586597137
 20
293.4468532460497
 10
591.1546586597137
 20
293.7997532460496
 10
591.1546586597137
 20
294.2114699127163
 10
591.1546586597137
 20
294.5937782460497
 10
591.1546586597137
 20
295.0054949127164
 10
591.1546586597137
 20
295.4466199127164
 10
591.1546586597137
 20
295.858336579383
 10
591.1546586597137
 20
296.2700532460496
 10
591.1546586597137
 20
296.7111782460496
 10
591.1546586597137
 20
297.1228949127164
 10
591.1546586597137
 20
297.534611579383
 10
591.1546586597137
 20
297.9463282460497
  0
LWPOLYLINE
  5
1CF5
330
19
100
AcDbEntity
  8
1
100
AcDbPolyline
 90
        9
 70
     0
 43
0.0
 10
590.8311669930473
 20
300.357811579383
 10
590.8311669930473
 20
300.5930782460497
 10
590.8311669930473
 20
300.7695282460497
 10
590.8311669930473
 20
300.9459782460496
 10
590.8311669930473
 20
301.063611579383
 10
590.8311669930473
 20
301.151836579383
 10
590.8311669930473
 20
301.240061579383
 10
590.8311669930473
 20
301.2694699127163
 10
590.8311669930473
 20
301.2694699127163
  0
LWPOLYLINE
  5
1CF6
330
19
100
AcDbEntity
  8
1
100
AcDbPolyline
 90
       29
 70
     0
 43
0.0
 10
590.8311669930473
 20
290.9471449127163
 10
590.8311669930473
 20
290.9471449127163
 10
590.8311669930473
 20
290.9765532460497
 10
590.8311669930473
 20
291.0353699127163
 10
590.8311669930473
 20
291.1235949127163
 10
590.8311669930473
 20
291.2412282460497
 10
590.8311669930473
 20
291.3882699127163
 10
590.8311669930473
 20
291.5647199127164
 10
590.8311669930473
 20
291.7705782460497
 10
590.8311669930473
 20
292.0058449127163
 10
590.8311669930473
 20
292.2705199127163
 10
590.8311669930473
 20
292.5646032460497
 10
590.8311669930473
 20
292.8880949127163
 10
590.8311669930473
 20
293.211586579383
 10
590.8311669930473
 20
293.564486579383
 10
590.8311669930473
 20
293.917386579383
 10
590.8311669930473
 20
294.2996949127163
 10
590.8311669930473
 20
294.6820032460497
 10
590.8311669930473
 20
295.0937199127163
 10
590.8311669930473
 20
295.505436579383
 10
590.8311669930473
 20
295.9171532460497
 10
590.8311669930473
 20
296.3288699127163
 10
590.8311669930473
 20
296.7111782460496
 10
590.8311669930473
 20
297.1228949127164
 10
590.8311669930473
 20
297.534611579383
 10
590.8311669930473
 20
297.9169199127164
 10
590.8311669930473
 20
298.2992282460497
 10
590.8311669930473
 20
298.6521282460497
 10
590.8311669930473
 20
299.0050282460497
  0
LWPOLYLINE
  5
1CF7
330
19
100
AcDbEntity
  8
1
100
AcDbPolyline
 90
        2
 70
     0
 43
0.0
 10
594.4778003263803
 20
297.2993449127163
 10
594.4778003263803
 20
297.3875699127163
  0
LWPOLYLINE
  5
1CF8
330
19
100
AcDbEntity
  8
1
100
AcDbPolyline
 90
        6
 70
     0
 43
0.0
 10
598.1538419930473
 20
297.5052032460496
 10
598.1832503263805
 20
297.446386579383
 10
598.2126586597137
 20
297.4169782460497
 10
598.2420669930473
 20
297.4169782460497
 10
598.3302919930472
 20
297.3875699127163
 10
598.3891086597139
 20
297.3875699127163
  0
LWPOLYLINE
  5
1CF9
330
19
100
AcDbEntity
  8
1
100
AcDbPolyline
 90
        4
 70
     0
 43
0.0
 10
598.2714753263806
 20
297.5934282460496
 10
598.2126586597137
 20
297.5934282460496
 10
598.1832503263805
 20
297.5640199127163
 10
598.1538419930473
 20
297.5052032460496
  0
LWPOLYLINE
  5
1CFA
330
19
100
AcDbEntity
  8
1
100
AcDbPolyline
 90
        3
 70
     0
 43
0.0
 10
598.3891086597139
 20
297.5934282460496
 10
598.3302919930472
 20
297.5934282460496
 10
598.2714753263806
 20
297.5934282460496
  0
LWPOLYLINE
  5
1CFB
330
19
100
AcDbEntity
  8
1
100
AcDbPolyline
 90
        2
 70
     0
 43
0.0
 10
598.5949669930472
 20
297.5934282460496
 10
598.3891086597139
 20
297.5934282460496
  0
LWPOLYLINE
  5
1CFC
330
19
100
AcDbEntity
  8
1
100
AcDbPolyline
 90
        2
 70
     0
 43
0.0
 10
598.3891086597139
 20
297.3875699127163
 10
598.5949669930472
 20
297.3875699127163
  0
LWPOLYLINE
  5
1CFD
330
19
100
AcDbEntity
  8
1
100
AcDbPolyline
 90
        2
 70
     0
 43
0.0
 10
598.5949669930472
 20
297.3875699127163
 10
598.5949669930472
 20
297.5934282460496
  0
LWPOLYLINE
  5
1CFE
330
19
100
AcDbEntity
  8
1
100
AcDbPolyline
 90
        2
 70
     0
 43
0.0
 10
598.3891086597139
 20
297.2993449127163
 10
598.3891086597139
 20
297.3875699127163
  0
LWPOLYLINE
  5
1CFF
330
19
100
AcDbEntity
  8
1
100
AcDbPolyline
 90
        2
 70
     0
 43
0.0
 10
598.5949669930472
 20
297.2993449127163
 10
598.5949669930472
 20
297.3875699127163
  0
LWPOLYLINE
  5
1D00
330
19
100
AcDbEntity
  8
1
100
AcDbPolyline
 90
        2
 70
     0
 43
0.0
 10
594.3307586597137
 20
297.2993449127163
 10
594.3307586597137
 20
297.3875699127163
  0
LWPOLYLINE
  5
1D01
330
19
100
AcDbEntity
  8
1
100
AcDbPolyline
 90
        2
 70
     0
 43
0.0
 10
598.1538419930473
 20
297.358161579383
 10
598.1538419930473
 20
297.5052032460496
  0
LWPOLYLINE
  5
1D02
330
19
100
AcDbEntity
  8
1
100
AcDbPolyline
 90
        3
 70
     0
 43
0.0
 10
598.0362086597137
 20
297.4169782460497
 10
598.0656169930472
 20
297.446386579383
 10
598.1832503263805
 20
297.5052032460496
  0
LWPOLYLINE
  5
1D03
330
19
100
AcDbEntity
  8
1
100
AcDbPolyline
 90
        4
 70
     0
 43
0.0
 10
598.0068003263803
 20
297.7404699127163
 10
598.0362086597137
 20
297.7992865793829
 10
598.1244336597137
 20
297.8581032460497
 10
598.1244336597137
 20
297.8581032460497
  0
LWPOLYLINE
  5
1D04
330
19
100
AcDbEntity
  8
1
100
AcDbPolyline
 90
        2
 70
     0
 43
0.0
 10
598.5949669930472
 20
297.887511579383
 10
598.7420086597137
 20
297.887511579383
  0
LWPOLYLINE
  5
1D05
330
19
100
AcDbEntity
  8
1
100
AcDbPolyline
 90
        2
 70
     0
 43
0.0
 10
598.1832503263805
 20
297.5934282460496
 10
598.2126586597137
 20
297.5640199127163
  0
LWPOLYLINE
  5
1D06
330
19
100
AcDbEntity
  8
1
100
AcDbPolyline
 90
        2
 70
     0
 43
0.0
 10
594.3307586597137
 20
297.887511579383
 10
594.4778003263803
 20
297.887511579383
  0
LWPOLYLINE
  5
1D07
330
19
100
AcDbEntity
  8
1
100
AcDbPolyline
 90
        2
 70
     0
 43
0.0
 10
598.1832503263805
 20
297.534611579383
 10
598.1832503263805
 20
297.6522449127164
  0
LWPOLYLINE
  5
1D08
330
19
100
AcDbEntity
  8
1
100
AcDbPolyline
 90
        2
 70
     0
 43
0.0
 10
598.3597003263804
 20
297.5934282460496
 10
598.3597003263804
 20
297.6816532460497
  0
LWPOLYLINE
  5
1D09
330
19
100
AcDbEntity
  8
1
100
AcDbPolyline
 90
        2
 70
     0
 43
0.0
 10
598.1244336597137
 20
297.6816532460497
 10
598.1244336597137
 20
297.7992865793829
  0
LWPOLYLINE
  5
1D0A
330
19
100
AcDbEntity
  8
1
100
AcDbPolyline
 90
        6
 70
     0
 43
0.0
 10
598.1244336597137
 20
297.7992865793829
 10
598.1538419930473
 20
297.7404699127163
 10
598.1832503263805
 20
297.7404699127163
 10
598.2126586597137
 20
297.711061579383
 10
598.2714753263806
 20
297.6816532460497
 10
598.3597003263804
 20
297.6816532460497
  0
LWPOLYLINE
  5
1D0B
330
19
100
AcDbEntity
  8
1
100
AcDbPolyline
 90
        2
 70
     0
 43
0.0
 10
598.5949669930472
 20
297.5934282460496
 10
598.5949669930472
 20
297.6816532460497
  0
LWPOLYLINE
  5
1D0C
330
19
100
AcDbEntity
  8
1
100
AcDbPolyline
 90
        2
 70
     0
 43
0.0
 10
598.3597003263804
 20
297.6816532460497
 10
598.5949669930472
 20
297.6816532460497
  0
LWPOLYLINE
  5
1D0D
330
19
100
AcDbEntity
  8
1
100
AcDbPolyline
 90
        5
 70
     0
 43
0.0
 10
598.2714753263806
 20
297.9169199127164
 10
598.2126586597137
 20
297.9169199127164
 10
598.1538419930473
 20
297.887511579383
 10
598.1244336597137
 20
297.8581032460497
 10
598.1244336597137
 20
297.7992865793829
  0
LWPOLYLINE
  5
1D0E
330
19
100
AcDbEntity
  8
1
100
AcDbPolyline
 90
        3
 70
     0
 43
0.0
 10
598.3597003263804
 20
297.9463282460497
 10
598.3008836597137
 20
297.9463282460497
 10
598.2714753263806
 20
297.9169199127164
  0
LWPOLYLINE
  5
1D0F
330
19
100
AcDbEntity
  8
1
100
AcDbPolyline
 90
        2
 70
     0
 43
0.0
 10
598.5949669930472
 20
297.9463282460497
 10
598.3597003263804
 20
297.9463282460497
  0
LWPOLYLINE
  5
1D10
330
19
100
AcDbEntity
  8
1
100
AcDbPolyline
 90
        2
 70
     0
 43
0.0
 10
598.5949669930472
 20
297.6816532460497
 10
598.5949669930472
 20
297.9463282460497
  0
LWPOLYLINE
  5
1D11
330
19
100
AcDbEntity
  8
1
100
AcDbPolyline
 90
        2
 70
     0
 43
0.0
 10
598.3597003263804
 20
297.9463282460497
 10
598.3597003263804
 20
298.0051449127163
  0
LWPOLYLINE
  5
1D12
330
19
100
AcDbEntity
  8
SK1
100
AcDbPolyline
 90
        6
 70
     0
 43
0.0
 10
589.7430586597137
 20
292.6234199127164
 10
589.7430586597137
 20
292.6234199127164
 10
589.7430586597137
 20
292.6234199127164
 10
589.7430586597137
 20
292.682236579383
 10
589.7430586597137
 20
292.770461579383
 10
589.7430586597137
 20
292.8292782460497
  0
LWPOLYLINE
  5
1D13
330
19
100
AcDbEntity
  8
SK1
100
AcDbPolyline
 90
       19
 70
     0
 43
0.0
 10
589.7430586597137
 20
295.4760282460497
 10
589.7430586597137
 20
295.8289282460496
 10
589.7430586597137
 20
296.1524199127164
 10
589.7430586597137
 20
296.5053199127163
 10
589.7430586597137
 20
296.8582199127163
 10
589.7430586597137
 20
297.181711579383
 10
589.7430586597137
 20
297.5052032460496
 10
589.7430586597137
 20
297.7992865793829
 10
589.7430586597137
 20
298.0933699127163
 10
589.7430586597137
 20
298.3874532460496
 10
589.7430586597137
 20
298.6227199127163
 10
589.7430586597137
 20
298.857986579383
 10
589.7430586597137
 20
299.0638449127163
 10
589.7430586597137
 20
299.2402949127163
 10
589.7430586597137
 20
299.3579282460497
 10
589.7430586597137
 20
299.475561579383
 10
589.7430586597137
 20
299.563786579383
 10
589.7430586597137
 20
299.5931949127164
 10
589.7430586597137
 20
299.6226032460496
  0
LWPOLYLINE
  5
1D14
330
19
100
AcDbEntity
  8
SK1
100
AcDbPolyline
 90
        4
 70
     0
 43
0.0
 10
589.7430586597137
 20
295.4760282460497
 10
589.6842419930472
 20
295.505436579383
 10
589.4783836597139
 20
295.5936615793831
 10
589.2431169930472
 20
295.6524782460497
  0
LWPOLYLINE
  5
1D15
330
19
100
AcDbEntity
  8
SK1
100
AcDbPolyline
 90
        4
 70
     0
 43
0.0
 10
589.2431169930472
 20
295.6524782460497
 10
589.0372586597139
 20
295.681886579383
 10
588.9784419930472
 20
295.681886579383
 10
588.6843586597137
 20
295.6524782460497
  0
LWPOLYLINE
  5
1D16
330
19
100
AcDbEntity
  8
SK1
100
AcDbPolyline
 90
       13
 70
     0
 43
0.0
 10
588.6843586597137
 20
295.6524782460497
 10
588.6549503263806
 20
295.6524782460497
 10
588.3902753263804
 20
295.5642532460497
 10
588.1550086597139
 20
295.4466199127164
 10
587.9491503263805
 20
295.2995782460497
 10
587.7432919930472
 20
295.1231282460497
 10
587.5962503263804
 20
294.9172699127164
 10
587.5080253263806
 20
294.711411579383
 10
587.4492086597139
 20
294.5055532460497
 10
587.4492086597139
 20
294.2996949127163
 10
587.4786169930472
 20
294.1526532460497
 10
587.5374336597139
 20
293.9762032460496
 10
587.6256586597137
 20
293.8585699127163
  0
LWPOLYLINE
  5
1D17
330
19
100
AcDbEntity
  8
SK1
100
AcDbPolyline
 90
       34
 70
     0
 43
0.0
 10
579.8030419930472
 20
299.6226032460496
 10
579.8030419930472
 20
299.5931949127164
 10
579.8030419930472
 20
299.563786579383
 10
579.8030419930472
 20
299.5049699127163
 10
579.8030419930472
 20
299.3873365793831
 10
579.8030419930472
 20
299.2402949127163
 10
579.8030419930472
 20
299.0932532460497
 10
579.8030419930472
 20
298.8873949127163
 10
579.8030419930472
 20
298.681536579383
 10
579.8030419930472
 20
298.4462699127163
 10
579.8030419930472
 20
298.1815949127163
 10
579.8030419930472
 20
297.887511579383
 10
579.8030419930472
 20
297.5934282460496
 10
579.8030419930472
 20
297.269936579383
 10
579.8030419930472
 20
296.9464449127163
 10
579.8030419930472
 20
296.6229532460496
 10
579.8030419930472
 20
296.2700532460496
 10
579.8030419930472
 20
295.946561579383
 10
579.8030419930472
 20
295.5936615793831
 10
579.8030419930472
 20
295.2701699127164
 10
579.8030419930472
 20
294.9466782460497
 10
579.8030419930472
 20
294.623186579383
 10
579.8030419930472
 20
294.3291032460497
 10
579.8030419930472
 20
294.0644282460496
 10
579.8030419930472
 20
293.7997532460496
 10
579.8030419930472
 20
293.5350782460497
 10
579.8030419930472
 20
293.3292199127163
 10
579.8030419930472
 20
293.1527699127163
 10
579.8030419930472
 20
292.9763199127163
 10
579.8030419930472
 20
292.8292782460497
 10
579.8030419930472
 20
292.7410532460497
 10
579.8030419930472
 20
292.6528282460497
 10
579.8030419930472
 20
292.6234199127164
 10
579.8030419930472
 20
292.6234199127164
  0
LWPOLYLINE
  5
1D18
330
19
100
AcDbEntity
  8
SK1
100
AcDbPolyline
 90
       17
 70
     0
 43
0.0
 10
579.3031003263804
 20
296.123011579383
 10
579.3031003263804
 20
296.4465032460497
 10
579.3031003263804
 20
296.7699949127164
 10
579.3031003263804
 20
297.0640782460497
 10
579.3031003263804
 20
297.3875699127163
 10
579.3031003263804
 20
297.6816532460497
 10
579.3031003263804
 20
297.9463282460497
 10
579.3031003263804
 20
298.2110032460496
 10
579.3031003263804
 20
298.4462699127163
 10
579.3031003263804
 20
298.6521282460497
 10
579.3031003263804
 20
298.8285782460497
 10
579.3031003263804
 20
299.0050282460497
 10
579.3031003263804
 20
299.122661579383
 10
579.3031003263804
 20
299.210886579383
 10
579.3031003263804
 20
299.299111579383
 10
579.3031003263804
 20
299.3285199127163
 10
579.3031003263804
 20
299.3285199127163
  0
LWPOLYLINE
  5
1D19
330
19
100
AcDbEntity
  8
SK1
100
AcDbPolyline
 90
       17
 70
     0
 43
0.0
 10
579.3031003263804
 20
292.8880949127163
 10
579.3031003263804
 20
292.9175032460496
 10
579.3031003263804
 20
292.946911579383
 10
579.3031003263804
 20
293.0057282460497
 10
579.3031003263804
 20
293.0939532460497
 10
579.3031003263804
 20
293.2409949127164
 10
579.3031003263804
 20
293.388036579383
 10
579.3031003263804
 20
293.564486579383
 10
579.3031003263804
 20
293.7703449127163
 10
579.3031003263804
 20
294.0056115793828
 10
579.3031003263804
 20
294.270286579383
 10
579.3031003263804
 20
294.5643699127164
 10
579.3031003263804
 20
294.8584532460496
 10
579.3031003263804
 20
295.152536579383
 10
579.3031003263804
 20
295.4760282460497
 10
579.3031003263804
 20
295.7995199127164
 10
579.3031003263804
 20
296.123011579383
  0
LWPOLYLINE
  5
1D1A
330
19
100
AcDbEntity
  8
SK1
100
AcDbPolyline
 90
       11
 70
     0
 43
0.0
 10
587.6256586597137
 20
294.2996949127163
 10
587.5962503263804
 20
294.3879199127163
 10
587.5962503263804
 20
294.5937782460497
 10
587.6256586597137
 20
294.7702282460497
 10
587.7138836597139
 20
294.9466782460497
 10
587.8021086597137
 20
295.1231282460497
 10
587.9491503263805
 20
295.2701699127164
 10
588.0961919930472
 20
295.417211579383
 10
588.2726419930472
 20
295.505436579383
 10
588.4785003263804
 20
295.5936615793831
 10
588.6843586597137
 20
295.6524782460497
  0
LWPOLYLINE
  5
1D1B
330
19
100
AcDbEntity
  8
SK1
100
AcDbPolyline
 90
        4
 70
     0
 43
0.0
 10
590.0959586597138
 20
295.152536579383
 10
589.9783253263803
 20
295.2995782460497
 10
589.8018753263803
 20
295.4466199127164
 10
589.7430586597137
 20
295.4760282460497
  0
LWPOLYLINE
  5
1D1C
330
19
100
AcDbEntity
  8
SK1
100
AcDbPolyline
 90
        2
 70
     0
 43
0.0
 10
590.2724086597137
 20
294.887861579383
 10
590.0959586597138
 20
295.152536579383
  0
LWPOLYLINE
  5
1D1D
330
19
100
AcDbEntity
  8
SK1
100
AcDbPolyline
 90
        5
 70
     0
 43
0.0
 10
590.3312253263805
 20
294.2114699127163
 10
590.3606336597136
 20
294.2996949127163
 10
590.3606336597136
 20
294.4761449127163
 10
590.3606336597136
 20
294.6525949127163
 10
590.2724086597137
 20
294.887861579383
  0
LWPOLYLINE
  5
1D1E
330
19
100
AcDbEntity
  8
SK1
100
AcDbPolyline
 90
       11
 70
     0
 43
0.0
 10
589.2431169930472
 20
295.6524782460497
 10
589.4489753263806
 20
295.5936615793831
 10
589.6548336597137
 20
295.505436579383
 10
589.8312836597138
 20
295.417211579383
 10
590.0077336597137
 20
295.2701699127164
 10
590.1253669930472
 20
295.1231282460497
 10
590.2430003263804
 20
294.9466782460497
 10
590.301816993047
 20
294.7702282460497
 10
590.3312253263805
 20
294.5937782460497
 10
590.3312253263805
 20
294.3879199127163
 10
590.3312253263805
 20
294.2996949127163
  0
LWPOLYLINE
  5
1D1F
330
19
100
AcDbEntity
  8
1
100
AcDbPolyline
 90
        8
 70
     0
 43
0.0
 10
599.0949086597137
 20
301.240061579383
 10
598.8008253263805
 20
301.240061579383
 10
598.506741993047
 20
301.240061579383
 10
598.2420669930473
 20
301.2694699127163
 10
597.9773919930472
 20
301.2694699127163
 10
597.7421253263806
 20
301.2988782460496
 10
597.5362669930472
 20
301.328286579383
 10
597.3892253263803
 20
301.3576949127164
  0
LWPOLYLINE
  5
1D20
330
19
100
AcDbEntity
  8
1
100
AcDbPolyline
 90
        8
 70
     0
 43
0.0
 10
599.0949086597137
 20
301.240061579383
 10
599.0949086597137
 20
301.063611579383
 10
599.1537253263803
 20
300.9459782460496
 10
599.2419503263804
 20
300.8577532460497
 10
599.3301753263803
 20
300.8283449127163
 10
599.4772169930472
 20
300.8283449127163
 10
599.7713003263803
 20
300.887161579383
 10
600.1242003263804
 20
301.0342032460496
  0
LWPOLYLINE
  5
1D21
330
19
100
AcDbEntity
  8
1
100
AcDbPolyline
 90
        2
 70
     0
 43
0.0
 10
600.1242003263804
 20
301.0342032460496
 10
600.7123669930471
 20
301.328286579383
  0
LWPOLYLINE
  5
1D22
330
19
100
AcDbEntity
  8
1
100
AcDbPolyline
 90
        4
 70
     0
 43
0.0
 10
601.1240836597139
 20
301.416511579383
 10
601.0946753263803
 20
301.3871032460496
 10
600.9182253263803
 20
301.3576949127164
 10
600.7123669930471
 20
301.328286579383
  0
LWPOLYLINE
  5
1D23
330
19
100
AcDbEntity
  8
1
100
AcDbPolyline
 90
       19
 70
     0
 43
0.0
 10
598.9772753263804
 20
293.211586579383
 10
599.0360919930473
 20
293.0939532460497
 10
599.1243169930471
 20
292.946911579383
 10
599.2125419930472
 20
292.8292782460497
 10
599.3595836597137
 20
292.7116449127163
 10
599.5066253263805
 20
292.6234199127164
 10
599.6830753263805
 20
292.5351949127163
 10
599.8889336597137
 20
292.4763782460496
 10
600.0653836597137
 20
292.4469699127163
 10
600.271241993047
 20
292.4469699127163
 10
600.4771003263804
 20
292.4763782460496
 10
600.6829586597139
 20
292.505786579383
 10
600.8594086597137
 20
292.5646032460497
 10
601.0064503263804
 20
292.6528282460497
 10
601.1534919930473
 20
292.770461579383
 10
601.2711253263804
 20
292.8880949127163
 10
601.3593503263804
 20
293.035136579383
 10
601.4475753263805
 20
293.1821782460497
 10
601.4475753263805
 20
293.211586579383
  0
LWPOLYLINE
  5
1D24
330
19
100
AcDbEntity
  8
1
100
AcDbPolyline
 90
        2
 70
     0
 43
0.0
 10
601.0358586597138
 20
293.1821782460497
 10
600.8888169930473
 20
293.740936579383
  0
LWPOLYLINE
  5
1D25
330
19
100
AcDbEntity
  8
1
100
AcDbPolyline
 90
        2
 70
     0
 43
0.0
 10
599.653666993047
 20
293.7997532460496
 10
599.4184003263804
 20
293.6233032460497
  0
LWPOLYLINE
  5
1D26
330
19
100
AcDbEntity
  8
1
100
AcDbPolyline
 90
        2
 70
     0
 43
0.0
 10
599.4184003263804
 20
293.6233032460497
 10
599.5654419930472
 20
292.9763199127163
  0
LWPOLYLINE
  5
1D27
330
19
100
AcDbEntity
  8
1
100
AcDbPolyline
 90
        2
 70
     0
 43
0.0
 10
599.5654419930472
 20
292.9763199127163
 10
600.3594669930472
 20
292.7410532460497
  0
LWPOLYLINE
  5
1D28
330
19
100
AcDbEntity
  8
1
100
AcDbPolyline
 90
        2
 70
     0
 43
0.0
 10
600.3594669930472
 20
292.7410532460497
 10
601.0358586597138
 20
293.1821782460497
  0
LWPOLYLINE
  5
1D29
330
19
100
AcDbEntity
  8
1
100
AcDbPolyline
 90
        2
 70
     0
 43
0.0
 10
599.5654419930472
 20
293.740936579383
 10
599.5654419930472
 20
292.9763199127163
  0
LWPOLYLINE
  5
1D2A
330
19
100
AcDbEntity
  8
1
100
AcDbPolyline
 90
        2
 70
     0
 43
0.0
 10
600.3594669930472
 20
293.5350782460497
 10
600.3594669930472
 20
292.7410532460497
  0
LWPOLYLINE
  5
1D2B
330
19
100
AcDbEntity
  8
1
100
AcDbPolyline
 90
        2
 70
     0
 43
0.0
 10
600.3594669930472
 20
293.5350782460497
 10
600.8005919930472
 20
293.7997532460496
  0
LWPOLYLINE
  5
1D2C
330
19
100
AcDbEntity
  8
1
100
AcDbPolyline
 90
        2
 70
     0
 43
0.0
 10
599.5654419930472
 20
293.740936579383
 10
600.3594669930472
 20
293.5350782460497
  0
LWPOLYLINE
  5
1D2D
330
19
100
AcDbEntity
  8
1
100
AcDbPolyline
 90
        2
 70
     0
 43
0.0
 10
603.8296503263803
 20
301.6223699127163
 10
603.8296503263803
 20
302.210536579383
  0
LWPOLYLINE
  5
1D2E
330
19
100
AcDbEntity
  8
1
100
AcDbPolyline
 90
        2
 70
     0
 43
0.0
 10
596.8304669930472
 20
301.6223699127163
 10
603.8296503263803
 20
301.6223699127163
  0
LWPOLYLINE
  5
1D2F
330
19
100
AcDbEntity
  8
1
100
AcDbPolyline
 90
        2
 70
     0
 43
0.0
 10
596.8304669930472
 20
301.6223699127163
 10
596.8304669930472
 20
302.1811282460496
  0
LWPOLYLINE
  5
1D30
330
19
100
AcDbEntity
  8
1
100
AcDbPolyline
 90
        2
 70
     0
 43
0.0
 10
596.8304669930472
 20
302.1811282460496
 10
603.8296503263803
 20
302.210536579383
  0
LWPOLYLINE
  5
1D31
330
19
100
AcDbEntity
  8
1
100
AcDbPolyline
 90
        2
 70
     0
 43
0.0
 10
603.8296503263803
 20
301.6223699127163
 10
603.8296503263803
 20
300.181361579383
  0
LWPOLYLINE
  5
1D32
330
19
100
AcDbEntity
  8
1
100
AcDbPolyline
 90
        2
 70
     0
 43
0.0
 10
603.8296503263803
 20
300.181361579383
 10
603.6826086597137
 20
300.181361579383
  0
LWPOLYLINE
  5
1D33
330
19
100
AcDbEntity
  8
1
100
AcDbPolyline
 90
        2
 70
     0
 43
0.0
 10
596.8304669930472
 20
301.5341449127163
 10
596.8304669930472
 20
301.6223699127163
  0
LWPOLYLINE
  5
1D34
330
19
100
AcDbEntity
  8
1
100
AcDbPolyline
 90
        2
 70
     0
 43
0.0
 10
596.8304669930472
 20
301.7105949127163
 10
596.8304669930472
 20
301.5341449127163
  0
LWPOLYLINE
  5
1D35
330
19
100
AcDbEntity
  8
1
100
AcDbPolyline
 90
        2
 70
     0
 43
0.0
 10
596.8304669930472
 20
302.0046782460497
 10
596.8304669930472
 20
301.7105949127163
  0
LWPOLYLINE
  5
1D36
330
19
100
AcDbEntity
  8
1
100
AcDbPolyline
 90
        2
 70
     0
 43
0.0
 10
596.8304669930472
 20
303.092786579383
 10
596.8304669930472
 20
302.6222532460497
  0
LWPOLYLINE
  5
1D37
330
19
100
AcDbEntity
  8
1
100
AcDbPolyline
 90
        2
 70
     0
 43
0.0
 10
596.8304669930472
 20
302.739886579383
 10
596.8304669930472
 20
303.092786579383
  0
LWPOLYLINE
  5
1D38
330
19
100
AcDbEntity
  8
1
100
AcDbPolyline
 90
        2
 70
     0
 43
0.0
 10
596.8304669930472
 20
302.5340282460497
 10
596.8304669930472
 20
302.739886579383
  0
LWPOLYLINE
  5
1D39
330
19
100
AcDbEntity
  8
1
100
AcDbPolyline
 90
        2
 70
     0
 43
0.0
 10
596.8304669930472
 20
302.5340282460497
 10
596.8304669930472
 20
302.1811282460496
  0
LWPOLYLINE
  5
1D3A
330
19
100
AcDbEntity
  8
1
100
AcDbPolyline
 90
        2
 70
     0
 43
0.0
 10
603.8296503263803
 20
302.563436579383
 10
596.8304669930472
 20
302.5340282460497
  0
LWPOLYLINE
  5
1D3B
330
19
100
AcDbEntity
  8
1
100
AcDbPolyline
 90
        2
 70
     0
 43
0.0
 10
603.8296503263803
 20
302.210536579383
 10
603.8296503263803
 20
302.563436579383
  0
LWPOLYLINE
  5
1D3C
330
19
100
AcDbEntity
  8
1
100
AcDbPolyline
 90
        2
 70
     0
 43
0.0
 10
597.6833086597137
 20
303.5927282460497
 10
602.5062753263804
 20
303.6221365793831
  0
LWPOLYLINE
  5
1D3D
330
19
100
AcDbEntity
  8
1
100
AcDbPolyline
 90
        2
 70
     0
 43
0.0
 10
602.5062753263804
 20
303.6221365793831
 10
603.2120753263805
 20
303.5633199127163
  0
LWPOLYLINE
  5
1D3E
330
19
100
AcDbEntity
  8
1
100
AcDbPolyline
 90
        2
 70
     0
 43
0.0
 10
603.2120753263805
 20
303.5633199127163
 10
603.8296503263803
 20
303.2398282460497
  0
LWPOLYLINE
  5
1D3F
330
19
100
AcDbEntity
  8
1
100
AcDbPolyline
 90
        2
 70
     0
 43
0.0
 10
596.8304669930472
 20
302.739886579383
 10
603.8296503263803
 20
302.7692949127163
  0
LWPOLYLINE
  5
1D40
330
19
100
AcDbEntity
  8
1
100
AcDbPolyline
 90
        2
 70
     0
 43
0.0
 10
596.8304669930472
 20
303.092786579383
 10
597.6833086597137
 20
303.5927282460497
  0
LWPOLYLINE
  5
1D41
330
19
100
AcDbEntity
  8
1
100
AcDbPolyline
 90
        2
 70
     0
 43
0.0
 10
603.8296503263803
 20
303.2398282460497
 10
603.8296503263803
 20
302.7692949127163
  0
LWPOLYLINE
  5
1D42
330
19
100
AcDbEntity
  8
1
100
AcDbPolyline
 90
        2
 70
     0
 43
0.0
 10
603.8296503263803
 20
302.7692949127163
 10
603.8296503263803
 20
302.563436579383
  0
LWPOLYLINE
  5
1D43
330
19
100
AcDbEntity
  8
1
100
AcDbPolyline
 90
       51
 70
     0
 43
0.0
 10
597.4186336597137
 20
301.416511579383
 10
597.1539586597137
 20
301.4753282460497
 10
596.8598753263806
 20
301.5341449127163
 10
596.5952003263804
 20
301.5635532460497
 10
596.3011169930472
 20
301.5635532460497
 10
596.0070336597139
 20
301.5341449127163
 10
595.7423586597137
 20
301.504736579383
 10
595.4776836597138
 20
301.416511579383
 10
595.2130086597137
 20
301.328286579383
 10
594.977741993047
 20
301.240061579383
 10
594.7424753263804
 20
301.0930199127163
 10
594.5366169930472
 20
300.975386579383
 10
594.3601669930473
 20
300.798936579383
 10
594.2131253263806
 20
300.622486579383
 10
594.0954919930472
 20
300.446036579383
 10
594.007266993047
 20
300.269586579383
 10
593.9484503263805
 20
300.0637282460496
 10
593.9190419930472
 20
299.8578699127163
 10
593.9190419930472
 20
299.652011579383
 10
593.9484503263805
 20
299.475561579383
 10
594.0366753263804
 20
299.2697032460496
 10
594.1249003263805
 20
299.0638449127163
 10
594.2425336597137
 20
298.8873949127163
 10
594.4189836597137
 20
298.7403532460497
 10
594.5954336597139
 20
298.5639032460497
 10
594.8012919930472
 20
298.4462699127163
 10
595.0365586597136
 20
298.328636579383
 10
595.2718253263805
 20
298.2110032460496
 10
595.5365003263805
 20
298.1227782460497
 10
595.8011753263804
 20
298.063961579383
 10
596.0952586597137
 20
298.0345532460496
 10
596.3893419930473
 20
298.0345532460496
 10
596.6540169930472
 20
298.0345532460496
 10
596.9481003263804
 20
298.063961579383
 10
597.2127753263804
 20
298.1227782460497
 10
597.4774503263804
 20
298.1815949127163
 10
597.7421253263806
 20
298.2992282460497
 10
597.9773919930472
 20
298.416861579383
 10
598.1832503263805
 20
298.5344949127163
 10
598.3597003263804
 20
298.681536579383
 10
598.5361503263805
 20
298.857986579383
 10
598.6831919930472
 20
299.034436579383
 10
598.7714169930472
 20
299.210886579383
 10
598.8596419930472
 20
299.4167449127163
 10
598.9184586597139
 20
299.6226032460496
 10
598.9184586597139
 20
299.7990532460497
 10
598.8890503263806
 20
300.004911579383
 10
598.8302336597136
 20
300.2107699127163
 10
598.7714169930472
 20
300.4166282460496
 10
598.6537836597137
 20
300.5930782460497
 10
598.506741993047
 20
300.7695282460497
  0
LWPOLYLINE
  5
1D44
330
19
100
AcDbEntity
  8
1
100
AcDbPolyline
 90
        7
 70
     0
 43
0.0
 10
597.9185753263805
 20
300.5636699127164
 10
597.7715336597139
 20
300.6518949127163
 10
597.5950836597137
 20
300.8283449127163
 10
597.4480419930472
 20
301.0047949127163
 10
597.3892253263803
 20
301.151836579383
 10
597.3892253263803
 20
301.2988782460496
 10
597.4186336597137
 20
301.416511579383
  0
LWPOLYLINE
  5
1D45
330
19
100
AcDbEntity
  8
1
100
AcDbPolyline
 90
       22
 70
     0
 43
0.0
 10
597.4186336597137
 20
301.416511579383
 10
597.2421836597137
 20
301.2988782460496
 10
597.0657336597136
 20
301.1812449127163
 10
596.9186919930471
 20
301.0930199127163
 10
596.8010586597137
 20
300.975386579383
 10
596.7128336597137
 20
300.8577532460497
 10
596.6540169930472
 20
300.7695282460497
 10
596.5952003263804
 20
300.6813032460497
 10
596.5952003263804
 20
300.622486579383
 10
596.5952003263804
 20
300.534261579383
 10
596.6540169930472
 20
300.5048532460496
 10
596.7128336597137
 20
300.446036579383
 10
596.8304669930472
 20
300.4166282460496
 10
596.9481003263804
 20
300.4166282460496
 10
597.0951419930472
 20
300.4166282460496
 10
597.2421836597137
 20
300.4166282460496
 10
597.4186336597137
 20
300.446036579383
 10
597.6244919930472
 20
300.4754449127164
 10
597.8303503263804
 20
300.534261579383
 10
598.0656169930472
 20
300.5930782460497
 10
598.2714753263806
 20
300.6813032460497
 10
598.506741993047
 20
300.7695282460497
  0
LWPOLYLINE
  5
1D46
330
19
100
AcDbEntity
  8
1
100
AcDbPolyline
 90
       25
 70
     0
 43
0.0
 10
595.9482169930472
 20
299.0050282460497
 10
595.9188086597136
 20
299.0932532460497
 10
595.8599919930472
 20
299.1814782460497
 10
595.7717669930472
 20
299.2402949127163
 10
595.6541336597137
 20
299.299111579383
 10
595.5365003263805
 20
299.3285199127163
 10
595.4188669930472
 20
299.3285199127163
 10
595.2718253263805
 20
299.299111579383
 10
595.1541919930471
 20
299.2697032460496
 10
595.0659669930472
 20
299.210886579383
 10
595.0071503263805
 20
299.122661579383
 10
594.9483336597137
 20
299.034436579383
 10
594.9483336597137
 20
298.9462115793831
 10
594.977741993047
 20
298.857986579383
 10
595.0365586597136
 20
298.769761579383
 10
595.1247836597137
 20
298.7109449127164
 10
595.2424169930472
 20
298.6521282460497
 10
595.3600503263806
 20
298.6227199127163
 10
595.5070919930473
 20
298.6227199127163
 10
595.6247253263803
 20
298.6521282460497
 10
595.7423586597137
 20
298.681536579383
 10
595.8305836597137
 20
298.7403532460497
 10
595.9188086597136
 20
298.8285782460497
 10
595.9482169930472
 20
298.9168032460497
 10
595.9482169930472
 20
299.0050282460497
  0
LWPOLYLINE
  5
1D47
330
19
100
AcDbEntity
  8
1
100
AcDbPolyline
 90
       12
 70
     0
 43
0.0
 10
595.9482169930472
 20
298.9168032460497
 10
595.9188086597136
 20
298.9462115793831
 10
595.8599919930472
 20
299.034436579383
 10
595.7717669930472
 20
299.0932532460497
 10
595.6541336597137
 20
299.1520699127164
 10
595.5365003263805
 20
299.1814782460497
 10
595.4188669930472
 20
299.1814782460497
 10
595.2718253263805
 20
299.1520699127164
 10
595.1541919930471
 20
299.122661579383
 10
595.0659669930472
 20
299.0638449127163
 10
595.0071503263805
 20
298.9756199127164
 10
594.977741993047
 20
298.9168032460497
  0
LWPOLYLINE
  5
1D48
330
19
100
AcDbEntity
  8
1
100
AcDbPolyline
 90
        2
 70
     0
 43
0.0
 10
600.4182836597138
 20
301.5341449127163
 10
602.0063336597137
 20
301.5341449127163
  0
LWPOLYLINE
  5
1D49
330
19
100
AcDbEntity
  8
1
100
AcDbPolyline
 90
        9
 70
     0
 43
0.0
 10
598.6537836597137
 20
301.240061579383
 10
598.6831919930472
 20
301.240061579383
 10
598.8596419930472
 20
301.328286579383
 10
599.0655003263805
 20
301.3871032460496
 10
599.3301753263803
 20
301.4459199127164
 10
599.5654419930472
 20
301.4753282460497
 10
599.8595253263804
 20
301.504736579383
 10
600.1242003263804
 20
301.5341449127163
 10
600.4182836597138
 20
301.5341449127163
  0
LWPOLYLINE
  5
1D4A
330
19
100
AcDbEntity
  8
1
100
AcDbPolyline
 90
        8
 70
     0
 43
0.0
 10
602.0063336597137
 20
301.5341449127163
 10
602.2121919930472
 20
301.5341449127163
 10
602.4180503263806
 20
301.5341449127163
 10
602.6239086597136
 20
301.504736579383
 10
602.8003586597137
 20
301.4459199127164
 10
602.9474003263806
 20
301.416511579383
 10
603.0650336597139
 20
301.3576949127164
 10
603.1238503263804
 20
301.2988782460496
  0
LWPOLYLINE
  5
1D4B
330
19
100
AcDbEntity
  8
SK1
100
AcDbPolyline
 90
       17
 70
     0
 43
0.0
 10
590.5664919930472
 20
296.123011579383
 10
590.5664919930472
 20
296.4465032460497
 10
590.5664919930472
 20
296.7699949127164
 10
590.5664919930472
 20
297.093486579383
 10
590.5664919930472
 20
297.3875699127163
 10
590.5664919930472
 20
297.6816532460497
 10
590.5664919930472
 20
297.975736579383
 10
590.5664919930472
 20
298.240411579383
 10
590.5664919930472
 20
298.4756782460497
 10
590.5664919930472
 20
298.681536579383
 10
590.5664919930472
 20
298.8873949127163
 10
590.5664919930472
 20
299.034436579383
 10
590.5664919930472
 20
299.1814782460497
 10
590.5664919930472
 20
299.299111579383
 10
590.5664919930472
 20
299.3579282460497
 10
590.5664919930472
 20
299.3873365793831
 10
590.5664919930472
 20
299.4167449127163
  0
LWPOLYLINE
  5
1D4C
330
19
100
AcDbEntity
  8
SK1
100
AcDbPolyline
 90
       17
 70
     0
 43
0.0
 10
590.5664919930472
 20
292.8292782460497
 10
590.5664919930472
 20
292.8292782460497
 10
590.5664919930472
 20
292.858686579383
 10
590.5664919930472
 20
292.946911579383
 10
590.5664919930472
 20
293.035136579383
 10
590.5664919930472
 20
293.1821782460497
 10
590.5664919930472
 20
293.3292199127163
 10
590.5664919930472
 20
293.5350782460497
 10
590.5664919930472
 20
293.740936579383
 10
590.5664919930472
 20
294.0056115793828
 10
590.5664919930472
 20
294.270286579383
 10
590.5664919930472
 20
294.534961579383
 10
590.5664919930472
 20
294.8290449127163
 10
590.5664919930472
 20
295.152536579383
 10
590.5664919930472
 20
295.4466199127164
 10
590.5664919930472
 20
295.770111579383
 10
590.5664919930472
 20
296.123011579383
  0
LWPOLYLINE
  5
1D4D
330
19
100
AcDbEntity
  8
SK1
100
AcDbPolyline
 90
       20
 70
     0
 43
0.0
 10
590.0959586597138
 20
295.152536579383
 10
590.0959586597138
 20
295.4760282460497
 10
590.0959586597138
 20
295.7995199127164
 10
590.0959586597138
 20
296.1524199127164
 10
590.0959586597138
 20
296.475911579383
 10
590.0959586597138
 20
296.7994032460497
 10
590.0959586597138
 20
297.1228949127164
 10
590.0959586597138
 20
297.4169782460497
 10
590.0959586597138
 20
297.711061579383
 10
590.0959586597138
 20
298.0051449127163
 10
590.0959586597138
 20
298.2698199127163
 10
590.0959586597138
 20
298.505086579383
 10
590.0959586597138
 20
298.7109449127164
 10
590.0959586597138
 20
298.9168032460497
 10
590.0959586597138
 20
299.0638449127163
 10
590.0959586597138
 20
299.210886579383
 10
590.0959586597138
 20
299.3285199127163
 10
590.0959586597138
 20
299.3873365793831
 10
590.0959586597138
 20
299.4461532460497
 10
590.0959586597138
 20
299.4461532460497
  0
LWPOLYLINE
  5
1D4E
330
19
100
AcDbEntity
  8
SK1
100
AcDbPolyline
 90
       21
 70
     0
 43
0.0
 10
590.2724086597137
 20
294.887861579383
 10
590.2724086597137
 20
295.2113532460497
 10
590.2724086597137
 20
295.5348449127163
 10
590.2724086597137
 20
295.858336579383
 10
590.2724086597137
 20
296.211236579383
 10
590.2724086597137
 20
296.5347282460497
 10
590.2724086597137
 20
296.8582199127163
 10
590.2724086597137
 20
297.181711579383
 10
590.2724086597137
 20
297.5052032460496
 10
590.2724086597137
 20
297.7992865793829
 10
590.2724086597137
 20
298.0933699127163
 10
590.2724086597137
 20
298.328636579383
 10
590.2724086597137
 20
298.5639032460497
 10
590.2724086597137
 20
298.7991699127164
 10
590.2724086597137
 20
298.9756199127164
 10
590.2724086597137
 20
299.122661579383
 10
590.2724086597137
 20
299.2402949127163
 10
590.2724086597137
 20
299.3285199127163
 10
590.2724086597137
 20
299.3873365793831
 10
590.2724086597137
 20
299.4167449127163
 10
590.2724086597137
 20
299.4167449127163
  0
LWPOLYLINE
  5
1D4F
330
19
100
AcDbEntity
  8
SK1
100
AcDbPolyline
 90
        8
 70
     0
 43
0.0
 10
590.2724086597137
 20
292.8292782460497
 10
590.2724086597137
 20
292.8292782460497
 10
590.2724086597137
 20
292.8880949127163
 10
590.2724086597137
 20
292.946911579383
 10
590.2724086597137
 20
293.0645449127163
 10
590.2724086597137
 20
293.211586579383
 10
590.2724086597137
 20
293.388036579383
 10
590.2724086597137
 20
293.476261579383
  0
LWPOLYLINE
  5
1D50
330
19
100
AcDbEntity
  8
SK1
100
AcDbPolyline
 90
        7
 70
     0
 43
0.0
 10
590.0959586597138
 20
292.770461579383
 10
590.0959586597138
 20
292.770461579383
 10
590.0959586597138
 20
292.7998699127163
 10
590.0959586597138
 20
292.858686579383
 10
590.0959586597138
 20
292.946911579383
 10
590.0959586597138
 20
293.0645449127163
 10
590.0959586597138
 20
293.1527699127163
  0
LWPOLYLINE
  5
1D51
330
19
100
AcDbEntity
  8
1
100
AcDbPolyline
 90
        2
 70
     0
 43
0.0
 10
602.0063336597137
 20
301.416511579383
 10
602.0063336597137
 20
301.5341449127163
  0
LWPOLYLINE
  5
1D52
330
19
100
AcDbEntity
  8
1
100
AcDbPolyline
 90
        2
 70
     0
 43
0.0
 10
600.4182836597138
 20
301.1812449127163
 10
600.4182836597138
 20
301.5341449127163
  0
LINE
  5
1D5B
330
19
100
AcDbEntity
  8
SK4
100
AcDbLine
 10
604.4167835285234
 20
296.123011579383
 30
0.0
 11
578.1673476191455
 21
296.123011579383
 31
0.0
  0
LINE
  5
1D5C
330
19
100
AcDbEntity
  8
4
100
AcDbLine
 10
590.8311669930473
 20
296.123011579383
 30
0.0
 11
604.4167835285234
 21
296.123011579383
 31
0.0
  0
DIMENSION
  5
1D5D
330
19
100
AcDbEntity
  8
2
100
AcDbDimension
  2
*D24
 10
613.5881383838944
 20
288.623886579383
 30
0.0
 11
610.8381383838945
 21
296.123011579383
 31
0.0
 70
    32
  1
%%c<>
 71
     5
 42
14.99824999999998
  3
V-TYGEN_-160
100
AcDbAlignedDimension
 13
602.5062753263804
 23
303.6221365793831
 33
0.0
 14
602.1239669930472
 24
288.623886579383
 34
0.0
 50
90.0
100
AcDbRotatedDimension
  0
DIMENSION
  5
1D6A
330
19
100
AcDbEntity
  8
SK2
100
AcDbDimension
  2
*D25
 10
569.5025775726317
 20
292.6234199127164
 30
0.0
 11
569.5025775726317
 21
310.5392699127163
 31
0.0
 70
   160
  1
%%c<>
 71
     5
 42
6.999183333333292
  3
V-TYGEN_-160
100
AcDbAlignedDimension
 13
579.8030419930472
 23
299.6226032460496
 33
0.0
 14
579.8030419930472
 24
292.6234199127164
 34
0.0
 50
90.0
100
AcDbRotatedDimension
  0
DIMENSION
  5
1D78
330
19
100
AcDbEntity
  8
2
100
AcDbDimension
  2
*D26
 10
603.8296503263803
 20
309.872952566227
 30
0.0
 11
597.3304086597137
 21
312.622952566227
 31
0.0
 70
    32
 71
     5
 42
12.99848333333329
  3
V-TYGEN_-160
100
AcDbAlignedDimension
 13
590.8311669930473
 23
301.2547657460497
 33
0.0
 14
603.8296503263803
 24
303.2398282460497
 34
0.0
100
AcDbRotatedDimension
  0
ENDSEC
  0
SECTION
  2
OBJECTS
  0
DICTIONARY
  5
C
330
0
100
AcDbDictionary
281
     1
  3
ACAD_COLOR
350
129F
  3
ACAD_GROUP
350
D
  3
ACAD_LAYOUT
350
A85
  3
ACAD_MATERIAL
350
128A
  3
ACAD_MLEADERSTYLE
350
1483
  3
ACAD_MLINESTYLE
350
E
  3
ACAD_PLOTSETTINGS
350
A86
  3
ACAD_PLOTSTYLENAME
350
E93
  3
ACAD_SCALELIST
350
1461
  3
ACAD_TABLESTYLE
350
12A0
  3
ACAD_VISUALSTYLE
350
128E
  3
ACDB_RECOMPOSE_DATA
350
14AC
  3
AcDbVariableDictionary
350
1433
  3
DWGPROPS
350
1DDD
1001
ACAD
1000
TREAT_AS_HARD
1070
     0
  0
DICTIONARY
  5
148A
330
F
100
AcDbDictionary
280
     1
281
     1
  3
ADSK_XREC_LAYER_RECONCILED
360
148B
  0
DICTIONARY
  5
148C
330
1E
100
AcDbDictionary
280
     1
281
     1
  3
ADSK_XREC_LAYER_RECONCILED
360
148D
  0
DICTIONARY
  5
148E
330
22
100
AcDbDictionary
280
     1
281
     1
  3
ADSK_XREC_LAYER_RECONCILED
360
148F
  0
DICTIONARY
  5
1490
330
23
100
AcDbDictionary
280
     1
281
     1
  3
ADSK_XREC_LAYER_RECONCILED
360
1491
  0
DICTIONARY
  5
1492
330
24
100
AcDbDictionary
280
     1
281
     1
  3
ADSK_XREC_LAYER_RECONCILED
360
1493
  0
DICTIONARY
  5
1494
330
25
100
AcDbDictionary
280
     1
281
     1
  3
ADSK_XREC_LAYER_RECONCILED
360
1495
  0
DICTIONARY
  5
1496
330
26
100
AcDbDictionary
280
     1
281
     1
  3
ADSK_XREC_LAYER_RECONCILED
360
1497
  0
DICTIONARY
  5
1498
330
27
100
AcDbDictionary
280
     1
281
     1
  3
ADSK_XREC_LAYER_RECONCILED
360
1499
  0
DICTIONARY
  5
149A
330
28
100
AcDbDictionary
280
     1
281
     1
  3
ADSK_XREC_LAYER_RECONCILED
360
149B
  0
DICTIONARY
  5
149C
330
29
100
AcDbDictionary
280
     1
281
     1
  3
ADSK_XREC_LAYER_RECONCILED
360
149D
  0
DICTIONARY
  5
149E
330
2A
100
AcDbDictionary
280
     1
281
     1
  3
ADSK_XREC_LAYER_RECONCILED
360
149F
  0
DICTIONARY
  5
14A0
330
2B
100
AcDbDictionary
280
     1
281
     1
  3
ADSK_XREC_LAYER_RECONCILED
360
14A1
  0
DICTIONARY
  5
14A2
330
2C
100
AcDbDictionary
280
     1
281
     1
  3
ADSK_XREC_LAYER_RECONCILED
360
14A3
  0
DICTIONARY
  5
14A4
330
2D
100
AcDbDictionary
280
     1
281
     1
  3
ADSK_XREC_LAYER_RECONCILED
360
14A5
  0
DICTIONARY
  5
14A6
330
C07
100
AcDbDictionary
280
     1
281
     1
  3
ADSK_XREC_LAYER_RECONCILED
360
14A7
  0
DICTIONARY
  5
E8D
330
19
100
AcDbDictionary
280
     1
281
     1
  0
DICTIONARY
  5
E8B
330
16
100
AcDbDictionary
280
     1
281
     1
  0
DICTIONARY
  5
129F
102
{ACAD_REACTORS
330
C
102
}
330
C
100
AcDbDictionary
281
     1
  0
DICTIONARY
  5
D
102
{ACAD_REACTORS
330
C
102
}
330
C
100
AcDbDictionary
281
     1
1001
ACAD
1000
TREAT_AS_HARD
1070
     0
  0
DICTIONARY
  5
A85
102
{ACAD_REACTORS
330
C
102
}
330
C
100
AcDbDictionary
281
     1
  3
Layout1
350
E96
  3
Model
350
E95
1001
ACAD
1000
TREAT_AS_HARD
1070
     0
  0
DICTIONARY
  5
128A
102
{ACAD_REACTORS
330
C
102
}
330
C
100
AcDbDictionary
281
     1
  3
ByBlock
350
128C
  3
ByLayer
350
128B
  3
Global
350
128D
  0
DICTIONARY
  5
1483
102
{ACAD_REACTORS
330
C
102
}
330
C
100
AcDbDictionary
281
     1
  3
Standard
350
1484
  0
DICTIONARY
  5
E
102
{ACAD_REACTORS
330
C
102
}
330
C
100
AcDbDictionary
281
     1
  3
STANDARD
350
1C
1001
ACAD
1000
TREAT_AS_HARD
1070
     0
  0
DICTIONARY
  5
A86
102
{ACAD_REACTORS
330
C
102
}
330
C
100
AcDbDictionary
281
     1
1001
ACAD
1000
TREAT_AS_HARD
1070
     0
  0
ACDBDICTIONARYWDFLT
  5
E93
102
{ACAD_REACTORS
330
C
102
}
330
C
100
AcDbDictionary
281
     1
  3
Normal
350
E94
100
AcDbDictionaryWithDefault
340
E94
  0
DICTIONARY
  5
1461
102
{ACAD_REACTORS
330
C
102
}
330
C
100
AcDbDictionary
281
     1
  3
A0
350
1462
  3
A1
350
1463
  3
A2
350
1464
  3
A3
350
1465
  3
A4
350
1466
  3
A5
350
1467
  3
A6
350
1468
  3
A7
350
1469
  3
A8
350
146A
  3
A9
350
146B
  3
B0
350
146C
  3
B1
350
146D
  3
B2
350
146E
  3
B3
350
146F
  3
B4
350
1470
  3
B5
350
1471
  3
B6
350
1472
  3
B7
350
1473
  3
B8
350
1474
  3
B9
350
1475
  3
C0
350
1476
  3
C1
350
1477
  3
C2
350
1478
  3
C3
350
1479
  3
C4
350
147A
  3
C5
350
147B
  3
C6
350
147C
  3
C7
350
147D
  3
C8
350
147E
  3
C9
350
147F
  3
D0
350
1480
  3
D1
350
1481
  3
D2
350
1482
  0
DICTIONARY
  5
12A0
102
{ACAD_REACTORS
330
C
102
}
330
C
100
AcDbDictionary
281
     1
  3
Standard
350
12A1
  0
DICTIONARY
  5
128E
102
{ACAD_REACTORS
330
C
102
}
330
C
100
AcDbDictionary
281
     1
  3
2dWireframe
350
1294
  3
3D Hidden
350
1296
  3
3dWireframe
350
1295
  3
Basic
350
1293
  3
Brighten
350
129A
  3
ColorChange
350
129E
  3
Conceptual
350
1297
  3
Dim
350
1299
  3
Facepattern
350
129D
  3
Flat
350
128F
  3
FlatWithEdges
350
1290
  3
Gouraud
350
1291
  3
GouraudWithEdges
350
1292
  3
Linepattern
350
129C
  3
Realistic
350
1298
  3
Thicken
350
129B
  0
XRECORD
  5
14AC
102
{ACAD_REACTORS
330
C
102
}
330
C
100
AcDbXrecord
280
     1
 90
        1
330
12A1
  0
DICTIONARY
  5
1433
102
{ACAD_REACTORS
330
C
102
}
330
C
100
AcDbDictionary
281
     1
  3
CANNOSCALE
350
14A9
  3
CMLEADERSTYLE
350
14A8
  3
CTABLESTYLE
350
1434
  3
DIMASSOC
350
1437
  3
INDEXCTL
350
1436
  3
SORTENTS
350
1435
  0
XRECORD
  5
1DDD
102
{ACAD_REACTORS
330
C
102
}
330
C
100
AcDbXrecord
280
     1
  1
DWGPROPS COOKIE
  2

  3

  4

  6

  7

  8
inpunamok
  9

300
=
301
=
302
=
303
=
304
=
305
=
306
=
307
=
308
=
309
=
 40
0.106379837962963
 41
2455495.43569007
 42
2455597.633367951
  1

 90
        0
  0
XRECORD
  5
148B
102
{ACAD_REACTORS
330
148A
102
}
330
148A
100
AcDbXrecord
280
     1
290
     1
  0
XRECORD
  5
148D
102
{ACAD_REACTORS
330
148C
102
}
330
148C
100
AcDbXrecord
280
     1
290
     1
  0
XRECORD
  5
148F
102
{ACAD_REACTORS
330
148E
102
}
330
148E
100
AcDbXrecord
280
     1
290
     1
  0
XRECORD
  5
1491
102
{ACAD_REACTORS
330
1490
102
}
330
1490
100
AcDbXrecord
280
     1
290
     1
  0
XRECORD
  5
1493
102
{ACAD_REACTORS
330
1492
102
}
330
1492
100
AcDbXrecord
280
     1
290
     1
  0
XRECORD
  5
1495
102
{ACAD_REACTORS
330
1494
102
}
330
1494
100
AcDbXrecord
280
     1
290
     1
  0
XRECORD
  5
1497
102
{ACAD_REACTORS
330
1496
102
}
330
1496
100
AcDbXrecord
280
     1
290
     1
  0
XRECORD
  5
1499
102
{ACAD_REACTORS
330
1498
102
}
330
1498
100
AcDbXrecord
280
     1
290
     1
  0
XRECORD
  5
149B
102
{ACAD_REACTORS
330
149A
102
}
330
149A
100
AcDbXrecord
280
     1
290
     1
  0
XRECORD
  5
149D
102
{ACAD_REACTORS
330
149C
102
}
330
149C
100
AcDbXrecord
280
     1
290
     1
  0
XRECORD
  5
149F
102
{ACAD_REACTORS
330
149E
102
}
330
149E
100
AcDbXrecord
280
     1
290
     1
  0
XRECORD
  5
14A1
102
{ACAD_REACTORS
330
14A0
102
}
330
14A0
100
AcDbXrecord
280
     1
290
     1
  0
XRECORD
  5
14A3
102
{ACAD_REACTORS
330
14A2
102
}
330
14A2
100
AcDbXrecord
280
     1
290
     1
  0
XRECORD
  5
14A5
102
{ACAD_REACTORS
330
14A4
102
}
330
14A4
100
AcDbXrecord
280
     1
290
     1
  0
XRECORD
  5
14A7
102
{ACAD_REACTORS
330
14A6
102
}
330
14A6
100
AcDbXrecord
280
     1
290
     1
  0
LAYOUT
  5
E96
102
{ACAD_XDICTIONARY
360
1DE0
102
}
102
{ACAD_REACTORS
330
A85
102
}
330
A85
100
AcDbPlotSettings
  1

  2
\\SECO_TOOLS\Q_HP8100_WMM.LANDSKAP.PL1.HUS_A.FAGERSTA.SE.SECO_TOOLS
  4

  6

 40
0.0
 41
0.0
 42
0.0
 43
0.0
 44
0.0
 45
0.0
 46
0.0
 47
0.0
 48
0.0
 49
0.0
140
0.0
141
0.0
142
1.0
143
1.0
 70
   688
 72
     0
 73
     0
 74
     5
  7

 75
    16
147
1.0
148
0.0
149
0.0
100
AcDbLayout
  1
Layout1
 70
     0
 71
     1
 10
0.0
 20
0.0
 11
12.0
 21
9.0
 12
0.0
 22
0.0
 32
0.0
 14
1.000000000000000E+20
 24
1.000000000000000E+20
 34
1.000000000000000E+20
 15
-1.000000000000000E+20
 25
-1.000000000000000E+20
 35
-1.000000000000000E+20
146
0.0
 13
0.0
 23
0.0
 33
0.0
 16
1.0
 26
0.0
 36
0.0
 17
0.0
 27
1.0
 37
0.0
 76
     0
330
16
  0
LAYOUT
  5
E95
102
{ACAD_XDICTIONARY
360
1DDE
102
}
102
{ACAD_REACTORS
330
A85
102
}
330
A85
100
AcDbPlotSettings
  1

  2
\\SECO_TOOLS\Q_HP8100_WMM.LANDSKAP.PL1.HUS_A.FAGERSTA.SE.SECO_TOOLS
  4

  6

 40
0.0
 41
0.0
 42
0.0
 43
0.0
 44
0.0
 45
0.0
 46
0.0
 47
0.0
 48
0.0
 49
0.0
140
0.0
141
0.0
142
1.0
143
1.0
 70
  1712
 72
     0
 73
     0
 74
     0
  7

 75
     0
147
1.0
148
0.0
149
0.0
100
AcDbLayout
  1
Model
 70
     1
 71
     0
 10
0.0
 20
0.0
 11
12.0
 21
9.0
 12
0.0
 22
0.0
 32
0.0
 14
0.0
 24
0.0
 34
0.0
 15
0.0
 25
0.0
 35
0.0
146
0.0
 13
0.0
 23
0.0
 33
0.0
 16
1.0
 26
0.0
 36
0.0
 17
0.0
 27
1.0
 37
0.0
 76
     0
330
19
331
1288
  0
MATERIAL
  5
128C
102
{ACAD_XDICTIONARY
360
144C
102
}
102
{ACAD_REACTORS
330
128A
102
}
330
128A
100
AcDbMaterial
  1
ByBlock
  0
MATERIAL
  5
128B
102
{ACAD_XDICTIONARY
360
144A
102
}
102
{ACAD_REACTORS
330
128A
102
}
330
128A
100
AcDbMaterial
  1
ByLayer
  0
MATERIAL
  5
128D
102
{ACAD_XDICTIONARY
360
144E
102
}
102
{ACAD_REACTORS
330
128A
102
}
330
128A
100
AcDbMaterial
  1
Global
  0
MLEADERSTYLE
  5
1484
102
{ACAD_REACTORS
330
1483
102
}
330
1483
100
AcDbMLeaderStyle
170
     2
171
     1
172
     0
 90
        2
 40
0.0
 41
0.0
173
     1
 91
-1056964608
340
13
 92
       -2
290
     1
 42
2.0
291
     1
 43
0.36
  3
Standard
 44
4.0
300

342
10
174
     1
178
     6
175
     1
176
     0
 93
-1056964608
 45
4.0
292
     0
297
     0
 46
4.0
 94
-1056964608
 47
1.0
 49
1.0
140
1.0
293
     1
141
0.0
294
     1
177
     0
142
1.0
295
     0
296
     0
143
0.125
1001
ACAD_MLEADERVER
1070
     2
  0
MLINESTYLE
  5
1C
102
{ACAD_REACTORS
330
E
102
}
330
E
100
AcDbMlineStyle
  2
STANDARD
 70
     0
  3

 62
     0
 51
90.0
 52
90.0
 71
     2
 49
0.5
 62
   256
  6
BYLAYER
 49
-0.5
 62
   256
  6
BYLAYER
  0
ACDBPLACEHOLDER
  5
E94
102
{ACAD_REACTORS
330
E93
102
}
330
E93
  0
SCALE
  5
1462
102
{ACAD_REACTORS
330
1461
102
}
330
1461
100
AcDbScale
 70
     0
300
1:1
140
1.0
141
1.0
290
     1
  0
SCALE
  5
1463
102
{ACAD_REACTORS
330
1461
102
}
330
1461
100
AcDbScale
 70
     0
300
1:2
140
1.0
141
2.0
290
     0
  0
SCALE
  5
1464
102
{ACAD_REACTORS
330
1461
102
}
330
1461
100
AcDbScale
 70
     0
300
1:4
140
1.0
141
4.0
290
     0
  0
SCALE
  5
1465
102
{ACAD_REACTORS
330
1461
102
}
330
1461
100
AcDbScale
 70
     0
300
1:5
140
1.0
141
5.0
290
     0
  0
SCALE
  5
1466
102
{ACAD_REACTORS
330
1461
102
}
330
1461
100
AcDbScale
 70
     0
300
1:8
140
1.0
141
8.0
290
     0
  0
SCALE
  5
1467
102
{ACAD_REACTORS
330
1461
102
}
330
1461
100
AcDbScale
 70
     0
300
1:10
140
1.0
141
10.0
290
     0
  0
SCALE
  5
1468
102
{ACAD_REACTORS
330
1461
102
}
330
1461
100
AcDbScale
 70
     0
300
1:16
140
1.0
141
16.0
290
     0
  0
SCALE
  5
1469
102
{ACAD_REACTORS
330
1461
102
}
330
1461
100
AcDbScale
 70
     0
300
1:20
140
1.0
141
20.0
290
     0
  0
SCALE
  5
146A
102
{ACAD_REACTORS
330
1461
102
}
330
1461
100
AcDbScale
 70
     0
300
1:30
140
1.0
141
30.0
290
     0
  0
SCALE
  5
146B
102
{ACAD_REACTORS
330
1461
102
}
330
1461
100
AcDbScale
 70
     0
300
1:40
140
1.0
141
40.0
290
     0
  0
SCALE
  5
146C
102
{ACAD_REACTORS
330
1461
102
}
330
1461
100
AcDbScale
 70
     0
300
1:50
140
1.0
141
50.0
290
     0
  0
SCALE
  5
146D
102
{ACAD_REACTORS
330
1461
102
}
330
1461
100
AcDbScale
 70
     0
300
1:100
140
1.0
141
100.0
290
     0
  0
SCALE
  5
146E
102
{ACAD_REACTORS
330
1461
102
}
330
1461
100
AcDbScale
 70
     0
300
2:1
140
2.0
141
1.0
290
     0
  0
SCALE
  5
146F
102
{ACAD_REACTORS
330
1461
102
}
330
1461
100
AcDbScale
 70
     0
300
4:1
140
4.0
141
1.0
290
     0
  0
SCALE
  5
1470
102
{ACAD_REACTORS
330
1461
102
}
330
1461
100
AcDbScale
 70
     0
300
8:1
140
8.0
141
1.0
290
     0
  0
SCALE
  5
1471
102
{ACAD_REACTORS
330
1461
102
}
330
1461
100
AcDbScale
 70
     0
300
10:1
140
10.0
141
1.0
290
     0
  0
SCALE
  5
1472
102
{ACAD_REACTORS
330
1461
102
}
330
1461
100
AcDbScale
 70
     0
300
100:1
140
100.0
141
1.0
290
     0
  0
SCALE
  5
1473
102
{ACAD_REACTORS
330
1461
102
}
330
1461
100
AcDbScale
 70
     0
300
1/128" = 1'-0"
140
0.0078125
141
12.0
290
     0
  0
SCALE
  5
1474
102
{ACAD_REACTORS
330
1461
102
}
330
1461
100
AcDbScale
 70
     0
300
1/64" = 1'-0"
140
0.015625
141
12.0
290
     0
  0
SCALE
  5
1475
102
{ACAD_REACTORS
330
1461
102
}
330
1461
100
AcDbScale
 70
     0
300
1/32" = 1'-0"
140
0.03125
141
12.0
290
     0
  0
SCALE
  5
1476
102
{ACAD_REACTORS
330
1461
102
}
330
1461
100
AcDbScale
 70
     0
300
1/16" = 1'-0"
140
0.0625
141
12.0
290
     0
  0
SCALE
  5
1477
102
{ACAD_REACTORS
330
1461
102
}
330
1461
100
AcDbScale
 70
     0
300
3/32" = 1'-0"
140
0.09375
141
12.0
290
     0
  0
SCALE
  5
1478
102
{ACAD_REACTORS
330
1461
102
}
330
1461
100
AcDbScale
 70
     0
300
1/8" = 1'-0"
140
0.125
141
12.0
290
     0
  0
SCALE
  5
1479
102
{ACAD_REACTORS
330
1461
102
}
330
1461
100
AcDbScale
 70
     0
300
3/16" = 1'-0"
140
0.1875
141
12.0
290
     0
  0
SCALE
  5
147A
102
{ACAD_REACTORS
330
1461
102
}
330
1461
100
AcDbScale
 70
     0
300
1/4" = 1'-0"
140
0.25
141
12.0
290
     0
  0
SCALE
  5
147B
102
{ACAD_REACTORS
330
1461
102
}
330
1461
100
AcDbScale
 70
     0
300
3/8" = 1'-0"
140
0.375
141
12.0
290
     0
  0
SCALE
  5
147C
102
{ACAD_REACTORS
330
1461
102
}
330
1461
100
AcDbScale
 70
     0
300
1/2" = 1'-0"
140
0.5
141
12.0
290
     0
  0
SCALE
  5
147D
102
{ACAD_REACTORS
330
1461
102
}
330
1461
100
AcDbScale
 70
     0
300
3/4" = 1'-0"
140
0.75
141
12.0
290
     0
  0
SCALE
  5
147E
102
{ACAD_REACTORS
330
1461
102
}
330
1461
100
AcDbScale
 70
     0
300
1" = 1'-0"
140
1.0
141
12.0
290
     0
  0
SCALE
  5
147F
102
{ACAD_REACTORS
330
1461
102
}
330
1461
100
AcDbScale
 70
     0
300
1-1/2" = 1'-0"
140
1.5
141
12.0
290
     0
  0
SCALE
  5
1480
102
{ACAD_REACTORS
330
1461
102
}
330
1461
100
AcDbScale
 70
     0
300
3" = 1'-0"
140
3.0
141
12.0
290
     0
  0
SCALE
  5
1481
102
{ACAD_REACTORS
330
1461
102
}
330
1461
100
AcDbScale
 70
     0
300
6" = 1'-0"
140
6.0
141
12.0
290
     0
  0
SCALE
  5
1482
102
{ACAD_REACTORS
330
1461
102
}
330
1461
100
AcDbScale
 70
     0
300
1'-0" = 1'-0"
140
12.0
141
12.0
290
     0
  0
TABLESTYLE
  5
12A1
102
{ACAD_XDICTIONARY
360
14AA
102
}
102
{ACAD_REACTORS
330
12A0
102
}
330
12A0
100
AcDbTableStyle
  3
Standard
 70
     0
 71
     0
 40
1.5
 41
1.5
280
     0
281
     0
  7
STANDARD
140
4.5
170
     2
 62
     0
 63
     7
283
     0
274
    -2
284
     1
 64
     0
275
    -2
285
     1
 65
     0
276
    -2
286
     1
 66
     0
277
    -2
287
     1
 67
     0
278
    -2
288
     1
 68
     0
279
    -2
289
     1
 69
     0
  7
STANDARD
140
6.0
170
     5
 62
     0
 63
     7
283
     0
274
    -2
284
     1
 64
     0
275
    -2
285
     1
 65
     0
276
    -2
286
     1
 66
     0
277
    -2
287
     1
 67
     0
278
    -2
288
     1
 68
     0
279
    -2
289
     1
 69
     0
  7
STANDARD
140
4.5
170
     5
 62
     0
 63
     7
283
     0
274
    -2
284
     1
 64
     0
275
    -2
285
     1
 65
     0
276
    -2
286
     1
 66
     0
277
    -2
287
     1
 67
     0
278
    -2
288
     1
 68
     0
279
    -2
289
     1
 69
     0
  0
VISUALSTYLE
  5
1294
102
{ACAD_REACTORS
330
128E
102
}
330
128E
100
AcDbVisualStyle
  2
2dWireframe
 70
     4
 71
     0
 72
     2
 73
     0
 90
        0
 40
-0.6
 41
-30.0
 62
     5
 63
     7
 74
     1
 91
        4
 64
     7
 65
   257
 75
     1
175
     1
 42
1.0
 92
        0
 66
   257
 43
1.0
 76
     1
 77
     6
 78
     2
 67
     7
 79
     5
170
     0
171
     0
290
     0
174
     0
 93
        1
 44
0.0
173
     0
291
     0
 45
0.0
1001
ACAD
1000
AcDbSavedByObjectVersion
1070
     0
1000
AcDbSavedByObjectVersion
1070
     0
1000
AcDbSavedByObjectVersion
1070
     0
1000
AcDbSavedByObjectVersion
1070
     0
1000
AcDbSavedByObjectVersion
1070
     0
1000
AcDbSavedByObjectVersion
1070
     0
  0
VISUALSTYLE
  5
1296
102
{ACAD_REACTORS
330
128E
102
}
330
128E
100
AcDbVisualStyle
  2
3D Hidden
 70
     6
 71
     1
 72
     2
 73
     2
 90
        0
 40
-0.6
 41
-30.0
 62
     5
 63
     7
 74
     2
 91
        2
 64
     7
 65
   257
 75
     2
175
     1
 42
40.0
 92
        0
 66
   257
 43
1.0
 76
     1
 77
     6
 78
     2
 67
     7
 79
     3
170
     0
171
     0
290
     0
174
     0
 93
        1
 44
0.0
173
     0
291
     0
 45
0.0
1001
ACAD
1000
AcDbSavedByObjectVersion
1070
     0
1000
AcDbSavedByObjectVersion
1070
     0
1000
AcDbSavedByObjectVersion
1070
     0
1000
AcDbSavedByObjectVersion
1070
     0
1000
AcDbSavedByObjectVersion
1070
     0
1000
AcDbSavedByObjectVersion
1070
     0
  0
VISUALSTYLE
  5
1295
102
{ACAD_REACTORS
330
128E
102
}
330
128E
100
AcDbVisualStyle
  2
3dWireframe
 70
     5
 71
     0
 72
     2
 73
     0
 90
        0
 40
-0.6
 41
-30.0
 62
     5
 63
     7
 74
     1
 91
        4
 64
     7
 65
   257
 75
     1
175
     1
 42
1.0
 92
        0
 66
   257
 43
1.0
 76
     1
 77
     6
 78
     2
 67
     7
 79
     5
170
     0
171
     0
290
     0
174
     0
 93
        1
 44
0.0
173
     0
291
     0
 45
0.0
1001
ACAD
1000
AcDbSavedByObjectVersion
1070
     0
1000
AcDbSavedByObjectVersion
1070
     0
1000
AcDbSavedByObjectVersion
1070
     0
1000
AcDbSavedByObjectVersion
1070
     0
1000
AcDbSavedByObjectVersion
1070
     0
1000
AcDbSavedByObjectVersion
1070
     0
  0
VISUALSTYLE
  5
1293
102
{ACAD_REACTORS
330
128E
102
}
330
128E
100
AcDbVisualStyle
  2
Basic
 70
     7
 71
     1
 72
     0
 73
     1
 90
        0
 40
-0.6
 41
-30.0
 62
     5
 63
     7
 74
     0
 91
        4
 64
     7
 65
   257
 75
     1
175
     1
 42
1.0
 92
        8
 66
     7
 43
1.0
 76
     1
 77
     6
 78
     2
 67
     7
 79
     5
170
     0
171
     0
290
     0
174
     0
 93
        1
 44
0.0
173
     0
291
     1
 45
0.0
1001
ACAD
1000
AcDbSavedByObjectVersion
1070
     0
1000
AcDbSavedByObjectVersion
1070
     0
1000
AcDbSavedByObjectVersion
1070
     0
1000
AcDbSavedByObjectVersion
1070
     0
1000
AcDbSavedByObjectVersion
1070
     0
1000
AcDbSavedByObjectVersion
1070
     0
  0
VISUALSTYLE
  5
129A
102
{ACAD_REACTORS
330
128E
102
}
330
128E
100
AcDbVisualStyle
  2
Brighten
 70
    12
 71
     2
 72
     2
 73
     0
 90
        0
 40
-0.6
 41
-30.0
 62
     5
 63
     7
 74
     1
 91
        4
 64
     7
 65
   257
 75
     1
175
     1
 42
1.0
 92
        8
 66
     7
 43
1.0
 76
     1
 77
     6
 78
     2
 67
     7
 79
     5
170
     0
171
     0
290
     0
174
     0
 93
        1
 44
50.0
173
     0
291
     1
 45
0.0
1001
ACAD
1000
AcDbSavedByObjectVersion
1070
     0
1000
AcDbSavedByObjectVersion
1070
     0
1000
AcDbSavedByObjectVersion
1070
     0
1000
AcDbSavedByObjectVersion
1070
     0
1000
AcDbSavedByObjectVersion
1070
     0
1000
AcDbSavedByObjectVersion
1070
     0
  0
VISUALSTYLE
  5
129E
102
{ACAD_REACTORS
330
128E
102
}
330
128E
100
AcDbVisualStyle
  2
ColorChange
 70
    16
 71
     2
 72
     2
 73
     3
 90
        0
 40
-0.6
 41
-30.0
 62
     5
 63
     8
 74
     1
 91
        4
 64
     7
 65
   257
 75
     1
175
     1
 42
1.0
 92
        8
 66
     8
 43
1.0
 76
     1
 77
     6
 78
     2
 67
     7
 79
     5
170
     0
171
     0
290
     0
174
     0
 93
        1
 44
0.0
173
     0
291
     1
 45
0.0
1001
ACAD
1000
AcDbSavedByObjectVersion
1070
     0
1000
AcDbSavedByObjectVersion
1070
     0
1000
AcDbSavedByObjectVersion
1070
     0
1000
AcDbSavedByObjectVersion
1070
     0
1000
AcDbSavedByObjectVersion
1070
     0
1000
AcDbSavedByObjectVersion
1070
     0
  0
VISUALSTYLE
  5
1297
102
{ACAD_REACTORS
330
128E
102
}
330
128E
100
AcDbVisualStyle
  2
Conceptual
 70
     9
 71
     3
 72
     2
 73
     0
 90
        0
 40
-0.6
 41
-30.0
 62
     5
 63
     7
 74
     2
 91
        2
 64
     7
 65
   257
 75
     1
175
     1
 42
40.0
 92
        8
 66
     7
 43
1.0
 76
     1
 77
     6
 78
     2
 67
     7
 79
     3
170
     0
171
     0
290
     0
174
     0
 93
        1
 44
0.0
173
     0
291
     0
 45
0.0
1001
ACAD
1000
AcDbSavedByObjectVersion
1070
     0
1000
AcDbSavedByObjectVersion
1070
     0
1000
AcDbSavedByObjectVersion
1070
     0
1000
AcDbSavedByObjectVersion
1070
     0
1000
AcDbSavedByObjectVersion
1070
     0
1000
AcDbSavedByObjectVersion
1070
     0
  0
VISUALSTYLE
  5
1299
102
{ACAD_REACTORS
330
128E
102
}
330
128E
100
AcDbVisualStyle
  2
Dim
 70
    11
 71
     2
 72
     2
 73
     0
 90
        0
 40
-0.6
 41
-30.0
 62
     5
 63
     7
 74
     1
 91
        4
 64
     7
 65
   257
 75
     1
175
     1
 42
1.0
 92
        8
 66
     7
 43
1.0
 76
     1
 77
     6
 78
     2
 67
     7
 79
     5
170
     0
171
     0
290
     0
174
     0
 93
        1
 44
-50.0
173
     0
291
     1
 45
0.0
1001
ACAD
1000
AcDbSavedByObjectVersion
1070
     0
1000
AcDbSavedByObjectVersion
1070
     0
1000
AcDbSavedByObjectVersion
1070
     0
1000
AcDbSavedByObjectVersion
1070
     0
1000
AcDbSavedByObjectVersion
1070
     0
1000
AcDbSavedByObjectVersion
1070
     0
  0
VISUALSTYLE
  5
129D
102
{ACAD_REACTORS
330
128E
102
}
330
128E
100
AcDbVisualStyle
  2
Facepattern
 70
    15
 71
     2
 72
     2
 73
     0
 90
        0
 40
-0.6
 41
-30.0
 62
     5
 63
     7
 74
     1
 91
        4
 64
     7
 65
   257
 75
     1
175
     1
 42
1.0
 92
        8
 66
     7
 43
1.0
 76
     1
 77
     6
 78
     2
 67
     7
 79
     5
170
     0
171
     0
290
     0
174
     0
 93
        1
 44
0.0
173
     0
291
     1
 45
0.0
1001
ACAD
1000
AcDbSavedByObjectVersion
1070
     0
1000
AcDbSavedByObjectVersion
1070
     0
1000
AcDbSavedByObjectVersion
1070
     0
1000
AcDbSavedByObjectVersion
1070
     0
1000
AcDbSavedByObjectVersion
1070
     0
1000
AcDbSavedByObjectVersion
1070
     0
  0
VISUALSTYLE
  5
128F
102
{ACAD_REACTORS
330
128E
102
}
330
128E
100
AcDbVisualStyle
  2
Flat
 70
     0
 71
     2
 72
     1
 73
     1
 90
        2
 40
-0.6
 41
30.0
 62
     5
 63
     7
 74
     0
 91
        4
 64
     7
 65
   257
 75
     1
175
     1
 42
1.0
 92
        8
 66
     7
 43
1.0
 76
     1
 77
     6
 78
     2
 67
     7
 79
     5
170
     0
171
     0
290
     0
174
     0
 93
       13
 44
0.0
173
     0
291
     1
 45
0.0
1001
ACAD
1000
AcDbSavedByObjectVersion
1070
     0
1000
AcDbSavedByObjectVersion
1070
     0
1000
AcDbSavedByObjectVersion
1070
     0
1000
AcDbSavedByObjectVersion
1070
     0
1000
AcDbSavedByObjectVersion
1070
     0
1000
AcDbSavedByObjectVersion
1070
     0
  0
VISUALSTYLE
  5
1290
102
{ACAD_REACTORS
330
128E
102
}
330
128E
100
AcDbVisualStyle
  2
FlatWithEdges
 70
     1
 71
     2
 72
     1
 73
     1
 90
        2
 40
-0.6
 41
30.0
 62
     5
 63
     7
 74
     1
 91
        4
 64
     7
 65
   257
 75
     1
175
     1
 42
1.0
 92
        0
 66
   257
 43
1.0
 76
     1
 77
     6
 78
     2
 67
     7
 79
     5
170
     0
171
     0
290
     0
174
     0
 93
       13
 44
0.0
173
     0
291
     1
 45
0.0
1001
ACAD
1000
AcDbSavedByObjectVersion
1070
     0
1000
AcDbSavedByObjectVersion
1070
     0
1000
AcDbSavedByObjectVersion
1070
     0
1000
AcDbSavedByObjectVersion
1070
     0
1000
AcDbSavedByObjectVersion
1070
     0
1000
AcDbSavedByObjectVersion
1070
     0
  0
VISUALSTYLE
  5
1291
102
{ACAD_REACTORS
330
128E
102
}
330
128E
100
AcDbVisualStyle
  2
Gouraud
 70
     2
 71
     2
 72
     2
 73
     1
 90
        2
 40
-0.6
 41
30.0
 62
     5
 63
     7
 74
     0
 91
        4
 64
     7
 65
   257
 75
     1
175
     1
 42
1.0
 92
        0
 66
     7
 43
1.0
 76
     1
 77
     6
 78
     2
 67
     7
 79
     5
170
     0
171
     0
290
     0
174
     0
 93
       13
 44
0.0
173
     0
291
     1
 45
0.0
1001
ACAD
1000
AcDbSavedByObjectVersion
1070
     0
1000
AcDbSavedByObjectVersion
1070
     0
1000
AcDbSavedByObjectVersion
1070
     0
1000
AcDbSavedByObjectVersion
1070
     0
1000
AcDbSavedByObjectVersion
1070
     0
1000
AcDbSavedByObjectVersion
1070
     0
  0
VISUALSTYLE
  5
1292
102
{ACAD_REACTORS
330
128E
102
}
330
128E
100
AcDbVisualStyle
  2
GouraudWithEdges
 70
     3
 71
     2
 72
     2
 73
     1
 90
        2
 40
-0.6
 41
30.0
 62
     5
 63
     7
 74
     1
 91
        4
 64
     7
 65
   257
 75
     1
175
     1
 42
1.0
 92
        0
 66
   257
 43
1.0
 76
     1
 77
     6
 78
     2
 67
     7
 79
     5
170
     0
171
     0
290
     0
174
     0
 93
       13
 44
0.0
173
     0
291
     1
 45
0.0
1001
ACAD
1000
AcDbSavedByObjectVersion
1070
     0
1000
AcDbSavedByObjectVersion
1070
     0
1000
AcDbSavedByObjectVersion
1070
     0
1000
AcDbSavedByObjectVersion
1070
     0
1000
AcDbSavedByObjectVersion
1070
     0
1000
AcDbSavedByObjectVersion
1070
     0
  0
VISUALSTYLE
  5
129C
102
{ACAD_REACTORS
330
128E
102
}
330
128E
100
AcDbVisualStyle
  2
Linepattern
 70
    14
 71
     2
 72
     2
 73
     0
 90
        0
 40
-0.6
 41
-30.0
 62
     5
 63
     7
 74
     1
 91
        4
 64
     7
 65
   257
 75
     7
175
     7
 42
1.0
 92
        8
 66
     7
 43
1.0
 76
     1
 77
     6
 78
     2
 67
     7
 79
     5
170
     0
171
     0
290
     0
174
     0
 93
        1
 44
0.0
173
     0
291
     1
 45
0.0
1001
ACAD
1000
AcDbSavedByObjectVersion
1070
     0
1000
AcDbSavedByObjectVersion
1070
     0
1000
AcDbSavedByObjectVersion
1070
     0
1000
AcDbSavedByObjectVersion
1070
     0
1000
AcDbSavedByObjectVersion
1070
     0
1000
AcDbSavedByObjectVersion
1070
     0
  0
VISUALSTYLE
  5
1298
102
{ACAD_REACTORS
330
128E
102
}
330
128E
100
AcDbVisualStyle
  2
Realistic
 70
     8
 71
     2
 72
     2
 73
     0
 90
        0
 40
-0.6
 41
-30.0
 62
     5
 63
     7
 74
     1
 91
        0
 64
     7
 65
   257
 75
     1
175
     1
 42
1.0
 92
        8
 66
     8
 43
1.0
 76
     1
 77
     6
 78
     2
 67
     7
 79
     5
170
     0
171
     0
290
     0
174
     0
 93
       13
 44
0.0
173
     0
291
     0
 45
0.0
1001
ACAD
1000
AcDbSavedByObjectVersion
1070
     0
1000
AcDbSavedByObjectVersion
1070
     0
1000
AcDbSavedByObjectVersion
1070
     0
1000
AcDbSavedByObjectVersion
1070
     0
1000
AcDbSavedByObjectVersion
1070
     0
1000
AcDbSavedByObjectVersion
1070
     0
  0
VISUALSTYLE
  5
129B
102
{ACAD_REACTORS
330
128E
102
}
330
128E
100
AcDbVisualStyle
  2
Thicken
 70
    13
 71
     2
 72
     2
 73
     0
 90
        0
 40
-0.6
 41
-30.0
 62
     5
 63
     7
 74
     1
 91
        4
 64
     7
 65
   257
 75
     1
175
     1
 42
1.0
 92
       12
 66
     7
 43
1.0
 76
     1
 77
     6
 78
     2
 67
     7
 79
     5
170
     0
171
     0
290
     0
174
     0
 93
        1
 44
0.0
173
     0
291
     1
 45
0.0
1001
ACAD
1000
AcDbSavedByObjectVersion
1070
     0
1000
AcDbSavedByObjectVersion
1070
     0
1000
AcDbSavedByObjectVersion
1070
     0
1000
AcDbSavedByObjectVersion
1070
     0
1000
AcDbSavedByObjectVersion
1070
     0
1000
AcDbSavedByObjectVersion
1070
     0
  0
DICTIONARYVAR
  5
14A9
102
{ACAD_REACTORS
330
1433
102
}
330
1433
100
DictionaryVariables
280
     0
  1
1:1
  0
DICTIONARYVAR
  5
14A8
102
{ACAD_REACTORS
330
1433
102
}
330
1433
100
DictionaryVariables
280
     0
  1
STANDARD
  0
DICTIONARYVAR
  5
1434
102
{ACAD_REACTORS
330
1433
102
}
330
1433
100
DictionaryVariables
280
     0
  1
STANDARD
  0
DICTIONARYVAR
  5
1437
102
{ACAD_REACTORS
330
1433
102
}
330
1433
100
DictionaryVariables
280
     0
  1
1
  0
DICTIONARYVAR
  5
1436
102
{ACAD_REACTORS
330
1433
102
}
330
1433
100
DictionaryVariables
280
     0
  1
0
  0
DICTIONARYVAR
  5
1435
102
{ACAD_REACTORS
330
1433
102
}
330
1433
100
DictionaryVariables
280
     0
  1
127
  0
DICTIONARY
  5
1DE0
330
E96
100
AcDbDictionary
280
     1
281
     1
  3
ACAD_XREC_ROUNDTRIP
360
1DE1
  0
DICTIONARY
  5
1DDE
330
E95
100
AcDbDictionary
280
     1
281
     1
  3
ACAD_XREC_ROUNDTRIP
360
1DDF
  0
DICTIONARY
  5
144C
330
128C
100
AcDbDictionary
280
     1
281
     1
  3
ACAD_XREC_ROUNDTRIP
360
144D
  0
DICTIONARY
  5
144A
330
128B
100
AcDbDictionary
280
     1
281
     1
  3
ACAD_XREC_ROUNDTRIP
360
144B
  0
DICTIONARY
  5
144E
330
128D
100
AcDbDictionary
280
     1
281
     1
  3
ACAD_XREC_ROUNDTRIP
360
144F
  0
DICTIONARY
  5
14AA
330
12A1
100
AcDbDictionary
280
     1
281
     1
  3
ACAD_ROUNDTRIP_2008_TABLESTYLE_CELLSTYLEMAP
360
1DDC
  3
ACAD_XREC_ROUNDTRIP
360
1DE2
  0
XRECORD
  5
1DE1
102
{ACAD_REACTORS
330
1DE0
102
}
330
1DE0
100
AcDbXrecord
280
     1
102
SHADEPLOT
 70
     0
102
SHADEPLOTRESLEVEL
 70
     2
102
SHADEPLOTCUSTOMDPI
 70
   300
  0
XRECORD
  5
1DDF
102
{ACAD_REACTORS
330
1DDE
102
}
330
1DDE
100
AcDbXrecord
280
     1
102
SHADEPLOT
 70
     0
102
SHADEPLOTRESLEVEL
 70
     2
102
SHADEPLOTCUSTOMDPI
 70
   300
  0
XRECORD
  5
144D
102
{ACAD_REACTORS
330
144C
102
}
330
144C
100
AcDbXrecord
280
     1
102
MATERIAL
148
0.0
149
0.0
149
0.0
 93
        0
 94
      127
282
     0
 72
     1
 77
     1
171
     1
175
     1
179
     1
273
     0
  0
XRECORD
  5
144B
102
{ACAD_REACTORS
330
144A
102
}
330
144A
100
AcDbXrecord
280
     1
102
MATERIAL
148
0.0
149
0.0
149
0.0
 93
        0
 94
      127
282
     0
 72
     1
 77
     1
171
     1
175
     1
179
     1
273
     0
  0
XRECORD
  5
144F
102
{ACAD_REACTORS
330
144E
102
}
330
144E
100
AcDbXrecord
280
     1
102
MATERIAL
148
0.0
149
0.0
149
0.0
 93
        0
 94
      127
282
     0
 72
     1
 77
     1
171
     1
175
     1
179
     1
273
     0
  0
CELLSTYLEMAP
  5
1DDC
102
{ACAD_REACTORS
330
14AA
102
}
330
14AA
100
AcDbCellStyleMap
 90
        3
300
CELLSTYLE
  1
TABLEFORMAT_BEGIN
 90
        5
170
     1
 91
        0
 92
    32768
 62
   257
 93
        1
300
CONTENTFORMAT
  1
CONTENTFORMAT_BEGIN
 90
        0
 91
        0
 92
      512
 93
        0
300

 40
0.0
140
1.0
 94
        5
 62
     0
340
10
144
6.0
309
CONTENTFORMAT_END
171
     1
301
MARGIN
  1
CELLMARGIN_BEGIN
 40
1.5
 40
1.5
 40
1.5
 40
1.5
 40
0.18
 40
0.18
309
CELLMARGIN_END
 94
        6
 95
        1
302
GRIDFORMAT
  1
GRIDFORMAT_BEGIN
 90
        0
 91
        1
 62
     0
 92
       -2
340
0
 93
        0
 40
0.045
309
GRIDFORMAT_END
 95
        2
302
GRIDFORMAT
  1
GRIDFORMAT_BEGIN
 90
        0
 91
        1
 62
     0
 92
       -2
340
0
 93
        0
 40
0.045
309
GRIDFORMAT_END
 95
        4
302
GRIDFORMAT
  1
GRIDFORMAT_BEGIN
 90
        0
 91
        1
 62
     0
 92
       -2
340
0
 93
        0
 40
0.045
309
GRIDFORMAT_END
 95
        8
302
GRIDFORMAT
  1
GRIDFORMAT_BEGIN
 90
        0
 91
        1
 62
     0
 92
       -2
340
0
 93
        0
 40
0.045
309
GRIDFORMAT_END
 95
       16
302
GRIDFORMAT
  1
GRIDFORMAT_BEGIN
 90
        0
 91
        1
 62
     0
 92
       -2
340
0
 93
        0
 40
0.045
309
GRIDFORMAT_END
 95
       32
302
GRIDFORMAT
  1
GRIDFORMAT_BEGIN
 90
        0
 91
        1
 62
     0
 92
       -2
340
0
 93
        0
 40
0.045
309
GRIDFORMAT_END
309
TABLEFORMAT_END
  1
CELLSTYLE_BEGIN
 90
        1
 91
        1
300
_TITLE
309
CELLSTYLE_END
300
CELLSTYLE
  1
TABLEFORMAT_BEGIN
 90
        5
170
     1
 91
        0
 92
        0
 62
   257
 93
        1
300
CONTENTFORMAT
  1
CONTENTFORMAT_BEGIN
 90
        0
 91
        0
 92
      512
 93
        0
300

 40
0.0
140
1.0
 94
        5
 62
     0
340
10
144
4.5
309
CONTENTFORMAT_END
171
     1
301
MARGIN
  1
CELLMARGIN_BEGIN
 40
1.5
 40
1.5
 40
1.5
 40
1.5
 40
0.18
 40
0.18
309
CELLMARGIN_END
 94
        6
 95
        1
302
GRIDFORMAT
  1
GRIDFORMAT_BEGIN
 90
        0
 91
        1
 62
     0
 92
       -2
340
0
 93
        0
 40
0.045
309
GRIDFORMAT_END
 95
        2
302
GRIDFORMAT
  1
GRIDFORMAT_BEGIN
 90
        0
 91
        1
 62
     0
 92
       -2
340
0
 93
        0
 40
0.045
309
GRIDFORMAT_END
 95
        4
302
GRIDFORMAT
  1
GRIDFORMAT_BEGIN
 90
        0
 91
        1
 62
     0
 92
       -2
340
0
 93
        0
 40
0.045
309
GRIDFORMAT_END
 95
        8
302
GRIDFORMAT
  1
GRIDFORMAT_BEGIN
 90
        0
 91
        1
 62
     0
 92
       -2
340
0
 93
        0
 40
0.045
309
GRIDFORMAT_END
 95
       16
302
GRIDFORMAT
  1
GRIDFORMAT_BEGIN
 90
        0
 91
        1
 62
     0
 92
       -2
340
0
 93
        0
 40
0.045
309
GRIDFORMAT_END
 95
       32
302
GRIDFORMAT
  1
GRIDFORMAT_BEGIN
 90
        0
 91
        1
 62
     0
 92
       -2
340
0
 93
        0
 40
0.045
309
GRIDFORMAT_END
309
TABLEFORMAT_END
  1
CELLSTYLE_BEGIN
 90
        2
 91
        1
300
_HEADER
309
CELLSTYLE_END
300
CELLSTYLE
  1
TABLEFORMAT_BEGIN
 90
        5
170
     1
 91
        0
 92
        0
 62
   257
 93
        1
300
CONTENTFORMAT
  1
CONTENTFORMAT_BEGIN
 90
        0
 91
        0
 92
      512
 93
        0
300

 40
0.0
140
1.0
 94
        2
 62
     0
340
10
144
4.5
309
CONTENTFORMAT_END
171
     1
301
MARGIN
  1
CELLMARGIN_BEGIN
 40
1.5
 40
1.5
 40
1.5
 40
1.5
 40
0.18
 40
0.18
309
CELLMARGIN_END
 94
        6
 95
        1
302
GRIDFORMAT
  1
GRIDFORMAT_BEGIN
 90
        0
 91
        1
 62
     0
 92
       -2
340
0
 93
        0
 40
0.045
309
GRIDFORMAT_END
 95
        2
302
GRIDFORMAT
  1
GRIDFORMAT_BEGIN
 90
        0
 91
        1
 62
     0
 92
       -2
340
0
 93
        0
 40
0.045
309
GRIDFORMAT_END
 95
        4
302
GRIDFORMAT
  1
GRIDFORMAT_BEGIN
 90
        0
 91
        1
 62
     0
 92
       -2
340
0
 93
        0
 40
0.045
309
GRIDFORMAT_END
 95
        8
302
GRIDFORMAT
  1
GRIDFORMAT_BEGIN
 90
        0
 91
        1
 62
     0
 92
       -2
340
0
 93
        0
 40
0.045
309
GRIDFORMAT_END
 95
       16
302
GRIDFORMAT
  1
GRIDFORMAT_BEGIN
 90
        0
 91
        1
 62
     0
 92
       -2
340
0
 93
        0
 40
0.045
309
GRIDFORMAT_END
 95
       32
302
GRIDFORMAT
  1
GRIDFORMAT_BEGIN
 90
        0
 91
        1
 62
     0
 92
       -2
340
0
 93
        0
 40
0.045
309
GRIDFORMAT_END
309
TABLEFORMAT_END
  1
CELLSTYLE_BEGIN
 90
        3
 91
        2
300
_DATA
309
CELLSTYLE_END
  0
XRECORD
  5
1DE2
102
{ACAD_REACTORS
330
14AA
102
}
330
14AA
100
AcDbXrecord
280
     1
102
ACAD_ROUNDTRIP_PRE2007_TABLESTYLE
 90
      512
 91
        0
  1

 92
      512
 93
        0
  2

 94
      512
 95
        0
  3

  0
ENDSEC
  0
EOF
