  0
SECTION
  2
HEADER
  9
$ACADVER
  1
AC1015
  9
$ACADMAINTVER
 70
    20
  9
$DWGCODEPAGE
  3
ANSI_1252
  9
$INSBASE
 10
0.0
 20
0.0
 30
0.0
  9
$EXTMIN
 10
-27.77599920678881
 20
7.075806871377608
 30
-0.0015258207003583
  9
$EXTMAX
 10
49.81219588221529
 20
61.66565018434266
 30
0.0000000349246037
  9
$LIMMIN
 10
-170.0
 20
-170.0
  9
$LIMMAX
 10
519.0
 20
260.0
  9
$ORTHOMODE
 70
     1
  9
$REGENMODE
 70
     1
  9
$FILLMODE
 70
     1
  9
$QTEXTMODE
 70
     0
  9
$MIRRTEXT
 70
     1
  9
$LTSCALE
 40
10.0
  9
$ATTMODE
 70
     1
  9
$TEXTSIZE
 40
3.5
  9
$TRACEWID
 40
0.05
  9
$TEXTSTYLE
  7
SIMPLEX
  9
$CLAYER
  8
1
  9
$CELTYPE
  6
BYLAYER
  9
$CECOLOR
 62
   256
  9
$CELTSCALE
 40
1.0
  9
$DISPSILH
 70
     0
  9
$DIMSCALE
 40
1.0
  9
$DIMASZ
 40
0.5
  9
$DIMEXO
 40
1.0
  9
$DIMDLI
 40
0.5
  9
$DIMRND
 40
0.0
  9
$DIMDLE
 40
0.0
  9
$DIMEXE
 40
1.0
  9
$DIMTP
 40
0.0
  9
$DIMTM
 40
0.0
  9
$DIMTXT
 40
0.8
  9
$DIMCEN
 40
0.0
  9
$DIMTSZ
 40
0.0
  9
$DIMTOL
 70
     0
  9
$DIMLIM
 70
     0
  9
$DIMTIH
 70
     0
  9
$DIMTOH
 70
     0
  9
$DIMSE1
 70
     0
  9
$DIMSE2
 70
     0
  9
$DIMTAD
 70
     1
  9
$DIMZIN
 70
     0
  9
$DIMBLK
  1

  9
$DIMASO
 70
     1
  9
$DIMSHO
 70
     1
  9
$DIMPOST
  1

  9
$DIMAPOST
  1

  9
$DIMALT
 70
     0
  9
$DIMALTD
 70
     2
  9
$DIMALTF
 40
25.4
  9
$DIMLFAC
 40
1.0
  9
$DIMTOFL
 70
     0
  9
$DIMTVP
 40
0.0
  9
$DIMTIX
 70
     0
  9
$DIMSOXD
 70
     0
  9
$DIMSAH
 70
     0
  9
$DIMBLK1
  1

  9
$DIMBLK2
  1

  9
$DIMSTYLE
  2
Inserts
  9
$DIMCLRD
 70
     0
  9
$DIMCLRE
 70
     0
  9
$DIMCLRT
 70
     0
  9
$DIMTFAC
 40
1.0
  9
$DIMGAP
 40
1.0
  9
$DIMJUST
 70
     0
  9
$DIMSD1
 70
     0
  9
$DIMSD2
 70
     0
  9
$DIMTOLJ
 70
     1
  9
$DIMTZIN
 70
     0
  9
$DIMALTZ
 70
     0
  9
$DIMALTTZ
 70
     0
  9
$DIMUPT
 70
     0
  9
$DIMDEC
 70
     0
  9
$DIMTDEC
 70
     0
  9
$DIMALTU
 70
     2
  9
$DIMALTTD
 70
     2
  9
$DIMTXSTY
  7
STANDARD
  9
$DIMAUNIT
 70
     0
  9
$DIMADEC
 70
     0
  9
$DIMALTRND
 40
0.0
  9
$DIMAZIN
 70
     0
  9
$DIMDSEP
 70
    46
  9
$DIMATFIT
 70
     3
  9
$DIMFRAC
 70
     0
  9
$DIMLDRBLK
  1

  9
$DIMLUNIT
 70
     2
  9
$DIMLWD
 70
    -1
  9
$DIMLWE
 70
    -2
  9
$DIMTMOVE
 70
     0
  9
$LUNITS
 70
     2
  9
$LUPREC
 70
     2
  9
$SKETCHINC
 40
0.1
  9
$FILLETRAD
 40
0.0
  9
$AUNITS
 70
     0
  9
$AUPREC
 70
     0
  9
$MENU
  1
TDMWIN
  9
$ELEVATION
 40
0.0
  9
$PELEVATION
 40
0.0
  9
$THICKNESS
 40
0.0
  9
$LIMCHECK
 70
     0
  9
$CHAMFERA
 40
0.0
  9
$CHAMFERB
 40
0.0
  9
$CHAMFERC
 40
0.0
  9
$CHAMFERD
 40
0.0
  9
$SKPOLY
 70
     0
  9
$TDCREATE
 40
2455584.592479306
  9
$TDUCREATE
 40
2455584.363312639
  9
$TDUPDATE
 40
2455584.594034965
  9
$TDUUPDATE
 40
2455584.364868299
  9
$TDINDWG
 40
0.0015562037
  9
$TDUSRTIMER
 40
0.0015562037
  9
$USRTIMER
 70
     1
  9
$ANGBASE
 50
0.0
  9
$ANGDIR
 70
     0
  9
$PDMODE
 70
     2
  9
$PDSIZE
 40
0.0
  9
$PLINEWID
 40
0.0
  9
$SPLFRAME
 70
     0
  9
$SPLINETYPE
 70
     6
  9
$SPLINESEGS
 70
     8
  9
$HANDSEED
  5
1540
  9
$SURFTAB1
 70
     6
  9
$SURFTAB2
 70
     6
  9
$SURFTYPE
 70
     6
  9
$SURFU
 70
     6
  9
$SURFV
 70
     6
  9
$UCSBASE
  2

  9
$UCSNAME
  2

  9
$UCSORG
 10
27.64042974117615
 20
37.18528531905355
 30
0.0
  9
$UCSXDIR
 10
1.0
 20
0.0
 30
0.0
  9
$UCSYDIR
 10
0.0
 20
1.0
 30
0.0
  9
$UCSORTHOREF
  2

  9
$UCSORTHOVIEW
 70
     0
  9
$UCSORGTOP
 10
0.0
 20
0.0
 30
0.0
  9
$UCSORGBOTTOM
 10
0.0
 20
0.0
 30
0.0
  9
$UCSORGLEFT
 10
0.0
 20
0.0
 30
0.0
  9
$UCSORGRIGHT
 10
0.0
 20
0.0
 30
0.0
  9
$UCSORGFRONT
 10
0.0
 20
0.0
 30
0.0
  9
$UCSORGBACK
 10
0.0
 20
0.0
 30
0.0
  9
$PUCSBASE
  2

  9
$PUCSNAME
  2

  9
$PUCSORG
 10
0.0
 20
0.0
 30
0.0
  9
$PUCSXDIR
 10
1.0
 20
0.0
 30
0.0
  9
$PUCSYDIR
 10
0.0
 20
1.0
 30
0.0
  9
$PUCSORTHOREF
  2

  9
$PUCSORTHOVIEW
 70
     0
  9
$PUCSORGTOP
 10
0.0
 20
0.0
 30
0.0
  9
$PUCSORGBOTTOM
 10
0.0
 20
0.0
 30
0.0
  9
$PUCSORGLEFT
 10
0.0
 20
0.0
 30
0.0
  9
$PUCSORGRIGHT
 10
0.0
 20
0.0
 30
0.0
  9
$PUCSORGFRONT
 10
0.0
 20
0.0
 30
0.0
  9
$PUCSORGBACK
 10
0.0
 20
0.0
 30
0.0
  9
$USERI1
 70
     0
  9
$USERI2
 70
     0
  9
$USERI3
 70
     0
  9
$USERI4
 70
     0
  9
$USERI5
 70
     0
  9
$USERR1
 40
0.0
  9
$USERR2
 40
0.0
  9
$USERR3
 40
0.0
  9
$USERR4
 40
0.0
  9
$USERR5
 40
0.0
  9
$WORLDVIEW
 70
     1
  9
$SHADEDGE
 70
     3
  9
$SHADEDIF
 70
    70
  9
$TILEMODE
 70
     1
  9
$MAXACTVP
 70
    16
  9
$PINSBASE
 10
0.0
 20
0.0
 30
0.0
  9
$PLIMCHECK
 70
     0
  9
$PEXTMIN
 10
1.000000000000000E+20
 20
1.000000000000000E+20
 30
1.000000000000000E+20
  9
$PEXTMAX
 10
-1.000000000000000E+20
 20
-1.000000000000000E+20
 30
-1.000000000000000E+20
  9
$PLIMMIN
 10
0.0
 20
0.0
  9
$PLIMMAX
 10
12.0
 20
9.0
  9
$UNITMODE
 70
     0
  9
$VISRETAIN
 70
     0
  9
$PLINEGEN
 70
     0
  9
$PSLTSCALE
 70
     0
  9
$TREEDEPTH
 70
  3020
  9
$CMLSTYLE
  2
STANDARD
  9
$CMLJUST
 70
     0
  9
$CMLSCALE
 40
1.0
  9
$PROXYGRAPHICS
 70
     1
  9
$MEASUREMENT
 70
     1
  9
$CELWEIGHT
370
    -1
  9
$ENDCAPS
280
     0
  9
$JOINSTYLE
280
     0
  9
$LWDISPLAY
290
     0
  9
$INSUNITS
 70
     0
  9
$HYPERLINKBASE
  1

  9
$STYLESHEET
  1

  9
$XEDIT
290
     1
  9
$CEPSNTYPE
380
     0
  9
$PSTYLEMODE
290
     1
  9
$FINGERPRINTGUID
  2
{3686D1BA-9651-4BD8-8D6C-EEEDB732E6EF}
  9
$VERSIONGUID
  2
{B0DE1279-3F43-43DC-A564-B8CA4C007601}
  9
$EXTNAMES
290
     1
  9
$PSVPSCALE
 40
0.0
  9
$OLESTARTUP
290
     0
  0
ENDSEC
  0
SECTION
  2
CLASSES
  0
CLASS
  1
ACDBDICTIONARYWDFLT
  2
AcDbDictionaryWithDefault
  3
ObjectDBX Classes
 90
        0
280
     0
281
     0
  0
CLASS
  1
ACDBPLACEHOLDER
  2
AcDbPlaceHolder
  3
ObjectDBX Classes
 90
        0
280
     0
281
     0
  0
CLASS
  1
LAYOUT
  2
AcDbLayout
  3
ObjectDBX Classes
 90
        0
280
     0
281
     0
  0
CLASS
  1
MATERIAL
  2
AcDbMaterial
  3
ObjectDBX Classes
 90
     1153
280
     0
281
     0
  0
CLASS
  1
VISUALSTYLE
  2
AcDbVisualStyle
  3
ObjectDBX Classes
 90
     4095
280
     0
281
     0
  0
CLASS
  1
TABLESTYLE
  2
AcDbTableStyle
  3
ObjectDBX Classes
 90
     4095
280
     0
281
     0
  0
CLASS
  1
SCALE
  2
AcDbScale
  3
ObjectDBX Classes
 90
     1153
280
     0
281
     0
  0
CLASS
  1
MLEADERSTYLE
  2
AcDbMLeaderStyle
  3
ACDB_MLEADERSTYLE_CLASS
 90
     4095
280
     0
281
     0
  0
CLASS
  1
DICTIONARYVAR
  2
AcDbDictionaryVar
  3
ObjectDBX Classes
 90
        0
280
     0
281
     0
  0
CLASS
  1
CELLSTYLEMAP
  2
AcDbCellStyleMap
  3
ObjectDBX Classes
 90
     1152
280
     0
281
     0
  0
ENDSEC
  0
SECTION
  2
TABLES
  0
TABLE
  2
VPORT
  5
8
330
0
100
AcDbSymbolTable
 70
     1
  0
VPORT
  5
1288
330
8
100
AcDbSymbolTableRecord
100
AcDbViewportTableRecord
  2
*Active
 70
     0
 10
0.0
 20
0.0
 11
1.0
 21
1.0
 12
11.01809833771324
 22
34.37072852786014
 13
0.0
 23
0.0
 14
5.0
 24
5.0
 15
5.0
 25
5.0
 16
0.0
 26
0.0
 36
1.0
 17
0.0
 27
0.0
 37
0.0
 40
56.20053917806846
 41
1.822916666666666
 42
50.0
 43
0.0
 44
0.0
 50
0.0
 51
0.0
 71
     0
 72
   100
 73
     1
 74
     3
 75
     0
 76
     0
 77
     0
 78
     0
281
     0
 65
     1
110
0.0
120
0.0
130
0.0
111
1.0
121
0.0
131
0.0
112
0.0
122
1.0
132
0.0
 79
     0
146
0.0
  0
ENDTAB
  0
TABLE
  2
LTYPE
  5
5
330
0
100
AcDbSymbolTable
 70
     3
  0
LTYPE
  5
13
330
5
100
AcDbSymbolTableRecord
100
AcDbLinetypeTableRecord
  2
BYBLOCK
 70
     0
  3

 72
    65
 73
     0
 40
0.0
  0
LTYPE
  5
14
330
5
100
AcDbSymbolTableRecord
100
AcDbLinetypeTableRecord
  2
BYLAYER
 70
     0
  3

 72
    65
 73
     0
 40
0.0
  0
LTYPE
  5
15
330
5
100
AcDbSymbolTableRecord
100
AcDbLinetypeTableRecord
  2
CONTINUOUS
 70
     0
  3
Solid line
 72
    65
 73
     0
 40
0.0
  0
LTYPE
  5
20
330
5
100
AcDbSymbolTableRecord
100
AcDbLinetypeTableRecord
  2
CENTER
 70
     0
  3
____ . ____ . ____
 72
    65
 73
     4
 40
1.5
 49
1.0
 74
     0
 49
-0.25
 74
     0
 49
0.0
 74
     0
 49
-0.25
 74
     0
  0
LTYPE
  5
21
330
5
100
AcDbSymbolTableRecord
100
AcDbLinetypeTableRecord
  2
HIDDEN
 70
     0
  3
_ _ _ _ _ _ _ _ _ _ _ _ _ _ _ _ _ _ _ _ _ _ _
 72
    65
 73
     2
 40
0.375
 49
0.25
 74
     0
 49
-0.125
 74
     0
  0
ENDTAB
  0
TABLE
  2
LAYER
  5
2
330
0
100
AcDbSymbolTable
 70
    17
  0
LAYER
  5
F
102
{ACAD_XDICTIONARY
360
14FD
102
}
330
2
100
AcDbSymbolTableRecord
100
AcDbLayerTableRecord
  2
0
 70
     0
 62
     7
  6
CONTINUOUS
370
    -3
390
E94
  0
LAYER
  5
1E
102
{ACAD_XDICTIONARY
360
14FF
102
}
330
2
100
AcDbSymbolTableRecord
100
AcDbLayerTableRecord
  2
1
 70
     0
 62
     4
  6
CONTINUOUS
370
    -3
390
E94
  0
LAYER
  5
22
102
{ACAD_XDICTIONARY
360
1501
102
}
330
2
100
AcDbSymbolTableRecord
100
AcDbLayerTableRecord
  2
SK1
 70
     0
 62
     4
  6
CONTINUOUS
370
    -3
390
E94
  0
LAYER
  5
23
102
{ACAD_XDICTIONARY
360
1503
102
}
330
2
100
AcDbSymbolTableRecord
100
AcDbLayerTableRecord
  2
2
 70
     0
 62
     7
  6
CONTINUOUS
370
    -3
390
E94
  0
LAYER
  5
25
102
{ACAD_XDICTIONARY
360
1505
102
}
330
2
100
AcDbSymbolTableRecord
100
AcDbLayerTableRecord
  2
SK2
 70
     0
 62
     7
  6
CONTINUOUS
370
    -3
390
E94
  0
LAYER
  5
26
102
{ACAD_XDICTIONARY
360
1507
102
}
330
2
100
AcDbSymbolTableRecord
100
AcDbLayerTableRecord
  2
3
 70
     0
 62
     1
  6
HIDDEN
370
    -3
390
E94
  0
LAYER
  5
27
102
{ACAD_XDICTIONARY
360
1509
102
}
330
2
100
AcDbSymbolTableRecord
100
AcDbLayerTableRecord
  2
SK3
 70
     0
 62
     1
  6
HIDDEN
370
    -3
390
E94
  0
LAYER
  5
28
102
{ACAD_XDICTIONARY
360
150B
102
}
330
2
100
AcDbSymbolTableRecord
100
AcDbLayerTableRecord
  2
4
 70
     0
 62
     2
  6
CENTER
370
    -3
390
E94
  0
LAYER
  5
29
102
{ACAD_XDICTIONARY
360
150D
102
}
330
2
100
AcDbSymbolTableRecord
100
AcDbLayerTableRecord
  2
SK4
 70
     0
 62
     2
  6
CENTER
370
    -3
390
E94
  0
LAYER
  5
2A
102
{ACAD_XDICTIONARY
360
150F
102
}
330
2
100
AcDbSymbolTableRecord
100
AcDbLayerTableRecord
  2
5
 70
     0
 62
     7
  6
CONTINUOUS
370
    -3
390
E94
  0
LAYER
  5
2B
102
{ACAD_XDICTIONARY
360
1511
102
}
330
2
100
AcDbSymbolTableRecord
100
AcDbLayerTableRecord
  2
6
 70
     0
 62
     5
  6
CONTINUOUS
370
    -3
390
E94
  0
LAYER
  5
2C
102
{ACAD_XDICTIONARY
360
1513
102
}
330
2
100
AcDbSymbolTableRecord
100
AcDbLayerTableRecord
  2
SK6
 70
     0
 62
     5
  6
CONTINUOUS
370
    -3
390
E94
  0
LAYER
  5
2E
330
2
100
AcDbSymbolTableRecord
100
AcDbLayerTableRecord
  2
DEFPOINTS
 70
     0
 62
     7
  6
CONTINUOUS
290
     0
370
    -3
390
E94
  0
ENDTAB
  0
TABLE
  2
STYLE
  5
3
330
0
100
AcDbSymbolTable
 70
     4
  0
STYLE
  5
10
330
3
100
AcDbSymbolTableRecord
100
AcDbTextStyleTableRecord
  2
STANDARD
 70
     0
 40
0.0
 41
1.0
 50
0.0
 71
     0
 42
5.0
  3
txt
  4

  0
STYLE
  5
1F
330
3
100
AcDbSymbolTableRecord
100
AcDbTextStyleTableRecord
  2
SIMPLEX
 70
     0
 40
0.0
 41
1.0
 50
0.0
 71
     0
 42
3.5
  3
simplex
  4

  0
STYLE
  5
2F
330
3
100
AcDbSymbolTableRecord
100
AcDbTextStyleTableRecord
  2
TXT
 70
     0
 40
8.0
 41
1.0
 50
0.0
 71
     0
 42
8.0
  3
txt
  4

  0
STYLE
  5
C08
330
3
100
AcDbSymbolTableRecord
100
AcDbTextStyleTableRecord
  2
UGMTXT
 70
     0
 40
0.0
 41
1.0
 50
0.0
 71
     0
 42
0.2
  3
ugmtxt
  4
bigfont
  0
ENDTAB
  0
TABLE
  2
VIEW
  5
6
330
0
100
AcDbSymbolTable
 70
     0
  0
ENDTAB
  0
TABLE
  2
UCS
  5
7
330
0
100
AcDbSymbolTable
 70
     0
  0
ENDTAB
  0
TABLE
  2
APPID
  5
9
330
0
100
AcDbSymbolTable
 70
     3
  0
APPID
  5
11
330
9
100
AcDbSymbolTableRecord
100
AcDbRegAppTableRecord
  2
ACAD
 70
     0
  0
APPID
  5
E8F
330
9
100
AcDbSymbolTableRecord
100
AcDbRegAppTableRecord
  2
CONTENTBLOCKICON
 70
     0
  0
APPID
  5
12DB
330
9
100
AcDbSymbolTableRecord
100
AcDbRegAppTableRecord
  2
ACAD_MLEADERVER
 70
     0
  0
ENDTAB
  0
TABLE
  2
DIMSTYLE
  5
A
330
0
100
AcDbSymbolTable
 70
     5
100
AcDbDimStyleTable
 71
     5
340
D91
340
1273
340
D93
340
D92
340
980
  0
DIMSTYLE
105
980
330
A
100
AcDbSymbolTableRecord
100
AcDbDimStyleTableRecord
  2
STANDARD
 70
     0
340
10
  0
DIMSTYLE
105
D91
102
{ACAD_REACTORS
330
1369
330
1368
330
1363
330
135F
330
135B
330
135C
102
}
330
A
100
AcDbSymbolTableRecord
100
AcDbDimStyleTableRecord
  2
V-TYGEN_-160
 70
     0
 41
3.5
 42
1.0
 43
0.5
 44
1.0
 73
     0
 74
     0
 77
     1
140
3.5
141
0.0
147
1.0
271
     0
272
     0
340
10
371
    -1
  0
DIMSTYLE
105
D92
330
A
100
AcDbSymbolTableRecord
100
AcDbDimStyleTableRecord
  2
V-TYG_160-300
 70
     0
 41
5.0
 42
1.0
 43
0.5
 44
1.0
 73
     0
 74
     0
 77
     1
140
5.0
141
0.0
147
1.0
271
     0
272
     0
340
10
  0
DIMSTYLE
105
D93
330
A
100
AcDbSymbolTableRecord
100
AcDbDimStyleTableRecord
  2
V-TYG_300-
 70
     0
 41
8.0
 42
1.0
 43
0.5
 44
1.0
 73
     0
 74
     0
 77
     1
140
8.0
141
0.0
147
1.0
271
     0
272
     0
340
10
  0
DIMSTYLE
105
1273
330
A
100
AcDbSymbolTableRecord
100
AcDbDimStyleTableRecord
  2
Inserts
 70
     0
 41
0.5
 42
1.0
 43
0.5
 44
1.0
 73
     0
 74
     0
 77
     1
140
0.8
141
0.0
147
1.0
271
     0
272
     0
340
10
371
    -1
  0
ENDTAB
  0
TABLE
  2
BLOCK_RECORD
  5
1
330
0
100
AcDbSymbolTable
 70
    15
  0
BLOCK_RECORD
  5
19
102
{ACAD_XDICTIONARY
360
E8D
102
}
330
1
100
AcDbSymbolTableRecord
100
AcDbBlockTableRecord
  2
*MODEL_SPACE
340
E95
  0
BLOCK_RECORD
  5
16
102
{ACAD_XDICTIONARY
360
E8B
102
}
330
1
100
AcDbSymbolTableRecord
100
AcDbBlockTableRecord
  2
*PAPER_SPACE
340
E96
  0
BLOCK_RECORD
  5
136C
330
1
100
AcDbSymbolTableRecord
100
AcDbBlockTableRecord
  2
*D9
340
0
  0
BLOCK_RECORD
  5
1379
330
1
100
AcDbSymbolTableRecord
100
AcDbBlockTableRecord
  2
*D10
340
0
  0
BLOCK_RECORD
  5
1386
330
1
100
AcDbSymbolTableRecord
100
AcDbBlockTableRecord
  2
*D11
340
0
  0
BLOCK_RECORD
  5
1393
330
1
100
AcDbSymbolTableRecord
100
AcDbBlockTableRecord
  2
*D12
340
0
  0
BLOCK_RECORD
  5
13A0
330
1
100
AcDbSymbolTableRecord
100
AcDbBlockTableRecord
  2
*D13
340
0
  0
BLOCK_RECORD
  5
13AD
330
1
100
AcDbSymbolTableRecord
100
AcDbBlockTableRecord
  2
*D14
340
0
  0
ENDTAB
  0
ENDSEC
  0
SECTION
  2
BLOCKS
  0
BLOCK
  5
1A
330
19
100
AcDbEntity
  8
0
100
AcDbBlockBegin
  2
*MODEL_SPACE
 70
     0
 10
0.0
 20
0.0
 30
0.0
  3
*MODEL_SPACE
  1

  0
ENDBLK
  5
1B
330
19
100
AcDbEntity
  8
0
100
AcDbBlockEnd
  0
BLOCK
  5
17
330
16
100
AcDbEntity
 67
     1
  8
0
100
AcDbBlockBegin
  2
*PAPER_SPACE
 70
     0
 10
0.0
 20
0.0
 30
0.0
  3
*PAPER_SPACE
  1

  0
ENDBLK
  5
18
330
16
100
AcDbEntity
 67
     1
  8
0
100
AcDbBlockEnd
  0
BLOCK
  5
136D
330
136C
100
AcDbEntity
  8
0
100
AcDbBlockBegin
  2
*D9
 70
     1
 10
0.0
 20
0.0
 30
0.0
  3
*D9
  1

  0
LINE
  5
14A7
330
136C
100
AcDbEntity
  8
SK2
 62
     0
370
    -2
100
AcDbLine
 10
27.64042974117615
 20
46.18528531905352
 30
0.0
 11
27.64042974117613
 21
50.62914955436653
 31
0.0
  0
LINE
  5
14A8
330
136C
100
AcDbEntity
  8
SK2
 62
     0
370
    -2
100
AcDbLine
 10
25.64042974117615
 20
46.18528531905352
 30
0.0
 11
25.64042974117613
 21
50.62914955436653
 31
0.0
  0
LINE
  5
14A9
330
136C
100
AcDbEntity
  8
SK2
 62
     0
100
AcDbLine
 10
31.14042974117613
 20
49.62914955436655
 30
0.0
 11
34.64042974117613
 21
49.62914955436655
 31
0.0
  0
LINE
  5
14AA
330
136C
100
AcDbEntity
  8
SK2
 62
     0
100
AcDbLine
 10
22.14042974117613
 20
49.62914955436652
 30
0.0
 11
14.3070964078428
 21
49.62914955436648
 31
0.0
  0
SOLID
  5
14AB
330
136C
100
AcDbEntity
  8
SK2
 62
     0
100
AcDbTrace
 10
31.14042974117613
 20
50.21248288769989
 30
0.0
 11
31.14042974117614
 21
49.04581622103322
 31
0.0
 12
27.64042974117613
 22
49.62914955436653
 32
0.0
 13
27.64042974117613
 23
49.62914955436653
 33
0.0
  0
SOLID
  5
14AC
330
136C
100
AcDbEntity
  8
SK2
 62
     0
100
AcDbTrace
 10
22.14042974117613
 20
50.21248288769985
 30
0.0
 11
22.14042974117614
 21
49.04581622103318
 31
0.0
 12
25.64042974117613
 22
49.62914955436652
 32
0.0
 13
25.64042974117613
 23
49.62914955436652
 33
0.0
  0
MTEXT
  5
14AD
330
136C
100
AcDbEntity
  8
SK2
 62
     0
100
AcDbMText
 10
16.47376307450945
 20
52.37914955436649
 30
0.0
 40
3.5
 41
0.0
 71
     5
 72
     1
  1
\A1;2
 73
     1
 44
1.0
1001
ACAD
1000
MTEXTBEGIN
1070
    73
1070
     1
1070
    44
1040
1.0
1070
    74
1070
     0
1000
MTEXTEND
  0
POINT
  5
14AE
330
136C
100
AcDbEntity
  8
DEFPOINTS
 62
     0
100
AcDbPoint
 10
27.64042974117615
 20
45.18528531905352
 30
0.0
  0
POINT
  5
14AF
330
136C
100
AcDbEntity
  8
DEFPOINTS
 62
     0
100
AcDbPoint
 10
25.64042974117615
 20
45.18528531905352
 30
0.0
  0
POINT
  5
14B0
330
136C
100
AcDbEntity
  8
DEFPOINTS
 62
     0
100
AcDbPoint
 10
25.64042974117613
 20
49.62914955436652
 30
0.0
  0
ENDBLK
  5
136E
330
136C
100
AcDbEntity
  8
0
100
AcDbBlockEnd
  0
BLOCK
  5
137A
330
1379
100
AcDbEntity
  8
0
100
AcDbBlockBegin
  2
*D10
 70
     1
 10
0.0
 20
0.0
 30
0.0
  3
*D10
  1

  0
LINE
  5
14CD
330
1379
100
AcDbEntity
  8
SK2
 62
     0
370
    -2
100
AcDbLine
 10
-15.35957025882385
 20
30.18528531905358
 30
0.0
 11
-15.35957025882385
 21
22.47123140085395
 31
0.0
  0
LINE
  5
14CE
330
1379
100
AcDbEntity
  8
SK2
 62
     0
370
    -2
100
AcDbLine
 10
25.64042974117615
 20
28.18528531905357
 30
0.0
 11
25.64042974117615
 21
22.47123140085395
 31
0.0
  0
LINE
  5
14CF
330
1379
100
AcDbEntity
  8
SK2
 62
     0
100
AcDbLine
 10
-11.85957025882385
 20
23.47123140085396
 30
0.0
 11
22.14042974117615
 21
23.47123140085396
 31
0.0
  0
SOLID
  5
14D0
330
1379
100
AcDbEntity
  8
SK2
 62
     0
100
AcDbTrace
 10
-11.85957025882385
 20
24.05456473418729
 30
0.0
 11
-11.85957025882385
 21
22.88789806752062
 31
0.0
 12
-15.35957025882385
 22
23.47123140085396
 32
0.0
 13
-15.35957025882385
 23
23.47123140085396
 33
0.0
  0
SOLID
  5
14D1
330
1379
100
AcDbEntity
  8
SK2
 62
     0
100
AcDbTrace
 10
22.14042974117615
 20
24.05456473418729
 30
0.0
 11
22.14042974117615
 21
22.88789806752062
 31
0.0
 12
25.64042974117615
 22
23.47123140085396
 32
0.0
 13
25.64042974117615
 23
23.47123140085396
 33
0.0
  0
MTEXT
  5
14D2
330
1379
100
AcDbEntity
  8
SK2
 62
     0
100
AcDbMText
 10
5.140429741176149
 20
26.22123140085396
 30
0.0
 40
3.5
 41
0.0
 71
     5
 72
     1
  1
\A1;41
 73
     1
 44
1.0
1001
ACAD
1000
MTEXTBEGIN
1070
    73
1070
     1
1070
    44
1040
1.0
1070
    74
1070
     0
1000
MTEXTEND
  0
POINT
  5
14D3
330
1379
100
AcDbEntity
  8
DEFPOINTS
 62
     0
100
AcDbPoint
 10
-15.35957025882385
 20
31.18528531905358
 30
0.0
  0
POINT
  5
14D4
330
1379
100
AcDbEntity
  8
DEFPOINTS
 62
     0
100
AcDbPoint
 10
25.64042974117615
 20
29.18528531905357
 30
0.0
  0
POINT
  5
14D5
330
1379
100
AcDbEntity
  8
DEFPOINTS
 62
     0
100
AcDbPoint
 10
25.64042974117615
 20
23.47123140085396
 30
0.0
  0
ENDBLK
  5
137B
330
1379
100
AcDbEntity
  8
0
100
AcDbBlockEnd
  0
BLOCK
  5
1387
330
1386
100
AcDbEntity
  8
0
100
AcDbBlockBegin
  2
*D11
 70
     1
 10
0.0
 20
0.0
 30
0.0
  3
*D11
  1

  0
LINE
  5
14F4
330
1386
100
AcDbEntity
  8
SK2
 62
     0
370
    -2
100
AcDbLine
 10
-16.35957025882385
 20
43.18528531905355
 30
0.0
 11
-24.27504175914629
 21
43.18528531905355
 31
0.0
  0
LINE
  5
14F5
330
1386
100
AcDbEntity
  8
SK2
 62
     0
370
    -2
100
AcDbLine
 10
-16.35957025882385
 20
31.18528531905355
 30
0.0
 11
-24.27504175914629
 21
31.18528531905355
 31
0.0
  0
LINE
  5
14F6
330
1386
100
AcDbEntity
  8
SK2
 62
     0
100
AcDbLine
 10
-23.27504175914629
 20
39.68528531905356
 30
0.0
 11
-23.27504175914629
 21
34.68528531905355
 31
0.0
  0
SOLID
  5
14F7
330
1386
100
AcDbEntity
  8
SK2
 62
     0
100
AcDbTrace
 10
-23.85837509247963
 20
39.68528531905356
 30
0.0
 11
-22.69170842581296
 21
39.68528531905356
 31
0.0
 12
-23.27504175914629
 22
43.18528531905355
 32
0.0
 13
-23.27504175914629
 23
43.18528531905355
 33
0.0
  0
SOLID
  5
14F8
330
1386
100
AcDbEntity
  8
SK2
 62
     0
100
AcDbTrace
 10
-23.85837509247963
 20
34.68528531905355
 30
0.0
 11
-22.69170842581296
 21
34.68528531905355
 31
0.0
 12
-23.27504175914629
 22
31.18528531905355
 32
0.0
 13
-23.27504175914629
 23
31.18528531905355
 33
0.0
  0
MTEXT
  5
14F9
330
1386
100
AcDbEntity
  8
SK2
 62
     0
100
AcDbMText
 10
-26.0250417591463
 20
37.18528531905355
 30
0.0
 40
3.5
 41
0.0
 71
     5
 72
     1
  1
\A1;%%C12
 11
0.0000000000000001
 21
1.0
 31
0.0
 73
     1
 44
1.0
1001
ACAD
1000
MTEXTBEGIN
1070
    73
1070
     1
1070
    44
1040
1.0
1070
    74
1070
     0
1000
MTEXTEND
  0
POINT
  5
14FA
330
1386
100
AcDbEntity
  8
DEFPOINTS
 62
     0
100
AcDbPoint
 10
-15.35957025882385
 20
43.18528531905355
 30
0.0
  0
POINT
  5
14FB
330
1386
100
AcDbEntity
  8
DEFPOINTS
 62
     0
100
AcDbPoint
 10
-15.35957025882385
 20
31.18528531905355
 30
0.0
  0
POINT
  5
14FC
330
1386
100
AcDbEntity
  8
DEFPOINTS
 62
     0
100
AcDbPoint
 10
-23.27504175914629
 20
31.18528531905355
 30
0.0
  0
ENDBLK
  5
1388
330
1386
100
AcDbEntity
  8
0
100
AcDbBlockEnd
  0
BLOCK
  5
1394
330
1393
100
AcDbEntity
  8
0
100
AcDbBlockBegin
  2
*D12
 70
     1
 10
0.0
 20
0.0
 30
0.0
  3
*D12
  1

  0
LINE
  5
14D8
330
1393
100
AcDbEntity
  8
SK2
 62
     0
370
    -2
100
AcDbLine
 10
27.64042974117615
 20
46.18528531905352
 30
0.0
 11
27.64042974117615
 21
58.13693591510784
 31
0.0
  0
LINE
  5
14D9
330
1393
100
AcDbEntity
  8
SK2
 62
     0
370
    -2
100
AcDbLine
 10
-8.35957025882385
 20
42.18528531905355
 30
0.0
 11
-8.359570258823849
 21
58.13693591510784
 31
0.0
  0
LINE
  5
14DA
330
1393
100
AcDbEntity
  8
SK2
 62
     0
100
AcDbLine
 10
24.14042974117615
 20
57.13693591510784
 30
0.0
 11
-4.859570258823849
 21
57.13693591510784
 31
0.0
  0
SOLID
  5
14DB
330
1393
100
AcDbEntity
  8
SK2
 62
     0
100
AcDbTrace
 10
24.14042974117615
 20
57.72026924844118
 30
0.0
 11
24.14042974117615
 21
56.5536025817745
 31
0.0
 12
27.64042974117615
 22
57.13693591510784
 32
0.0
 13
27.64042974117615
 23
57.13693591510784
 33
0.0
  0
SOLID
  5
14DC
330
1393
100
AcDbEntity
  8
SK2
 62
     0
100
AcDbTrace
 10
-4.859570258823849
 20
57.72026924844118
 30
0.0
 11
-4.859570258823849
 21
56.5536025817745
 31
0.0
 12
-8.359570258823849
 22
57.13693591510784
 32
0.0
 13
-8.359570258823849
 23
57.13693591510784
 33
0.0
  0
MTEXT
  5
14DD
330
1393
100
AcDbEntity
  8
SK2
 62
     0
100
AcDbMText
 10
9.640429741176149
 20
59.88693591510784
 30
0.0
 40
3.5
 41
0.0
 71
     5
 72
     1
  1
\A1;36
 73
     1
 44
1.0
1001
ACAD
1000
MTEXTBEGIN
1070
    73
1070
     1
1070
    44
1040
1.0
1070
    74
1070
     0
1000
MTEXTEND
  0
POINT
  5
14DE
330
1393
100
AcDbEntity
  8
DEFPOINTS
 62
     0
100
AcDbPoint
 10
27.64042974117615
 20
45.18528531905352
 30
0.0
  0
POINT
  5
14DF
330
1393
100
AcDbEntity
  8
DEFPOINTS
 62
     0
100
AcDbPoint
 10
-8.35957025882385
 20
41.18528531905354
 30
0.0
  0
POINT
  5
14E0
330
1393
100
AcDbEntity
  8
DEFPOINTS
 62
     0
100
AcDbPoint
 10
-8.359570258823849
 20
57.13693591510784
 30
0.0
  0
ENDBLK
  5
1395
330
1393
100
AcDbEntity
  8
0
100
AcDbBlockEnd
  0
BLOCK
  5
13A1
330
13A0
100
AcDbEntity
  8
0
100
AcDbBlockBegin
  2
*D13
 70
     1
 10
0.0
 20
0.0
 30
0.0
  3
*D13
  1

  0
LINE
  5
14EB
330
13A0
100
AcDbEntity
  8
SK2
 62
     0
370
    -2
100
AcDbLine
 10
28.64042974117615
 20
29.18528531905355
 30
0.0
 11
49.78184698898165
 21
29.18528531905354
 31
0.0
  0
LINE
  5
14EC
330
13A0
100
AcDbEntity
  8
SK2
 62
     0
370
    -2
100
AcDbLine
 10
28.64042974117615
 20
45.18528531905355
 30
0.0
 11
49.78184698898165
 21
45.18528531905354
 31
0.0
  0
LINE
  5
14ED
330
13A0
100
AcDbEntity
  8
SK2
 62
     0
100
AcDbLine
 10
48.78184698898166
 20
32.68528531905353
 30
0.0
 11
48.78184698898166
 21
41.68528531905354
 31
0.0
  0
SOLID
  5
14EE
330
13A0
100
AcDbEntity
  8
SK2
 62
     0
100
AcDbTrace
 10
48.19851365564832
 20
32.68528531905353
 30
0.0
 11
49.36518032231499
 21
32.68528531905353
 31
0.0
 12
48.78184698898166
 22
29.18528531905354
 32
0.0
 13
48.78184698898166
 23
29.18528531905354
 33
0.0
  0
SOLID
  5
14EF
330
13A0
100
AcDbEntity
  8
SK2
 62
     0
100
AcDbTrace
 10
48.19851365564832
 20
41.68528531905354
 30
0.0
 11
49.36518032231499
 21
41.68528531905354
 31
0.0
 12
48.78184698898166
 22
45.18528531905354
 32
0.0
 13
48.78184698898166
 23
45.18528531905354
 33
0.0
  0
MTEXT
  5
14F0
330
13A0
100
AcDbEntity
  8
SK2
 62
     0
100
AcDbMText
 10
46.03184698898164
 20
37.18528531905355
 30
0.0
 40
3.5
 41
0.0
 71
     5
 72
     1
  1
\A1;%%C16
 11
0.0000000000000001
 21
1.0
 31
0.0
 73
     1
 44
1.0
1001
ACAD
1000
MTEXTBEGIN
1070
    73
1070
     1
1070
    44
1040
1.0
1070
    74
1070
     0
1000
MTEXTEND
  0
POINT
  5
14F1
330
13A0
100
AcDbEntity
  8
DEFPOINTS
 62
     0
100
AcDbPoint
 10
27.64042974117615
 20
29.18528531905355
 30
0.0
  0
POINT
  5
14F2
330
13A0
100
AcDbEntity
  8
DEFPOINTS
 62
     0
100
AcDbPoint
 10
27.64042974117615
 20
45.18528531905355
 30
0.0
  0
POINT
  5
14F3
330
13A0
100
AcDbEntity
  8
DEFPOINTS
 62
     0
100
AcDbPoint
 10
48.78184698898166
 20
45.18528531905354
 30
0.0
  0
ENDBLK
  5
13A2
330
13A0
100
AcDbEntity
  8
0
100
AcDbBlockEnd
  0
BLOCK
  5
13AE
330
13AD
100
AcDbEntity
  8
0
100
AcDbBlockBegin
  2
*D14
 70
     1
 10
0.0
 20
0.0
 30
0.0
  3
*D14
  1

  0
LINE
  5
14E1
330
13AD
100
AcDbEntity
  8
SK2
 62
     0
370
    -2
100
AcDbLine
 10
28.64042974117616
 20
33.18528531905355
 30
0.0
 11
40.44629861628386
 21
33.18528531905355
 31
0.0
  0
LINE
  5
14E2
330
13AD
100
AcDbEntity
  8
SK2
 62
     0
370
    -2
100
AcDbLine
 10
28.64042974117616
 20
41.18528531905354
 30
0.0
 11
40.44629861628386
 21
41.18528531905354
 31
0.0
  0
LINE
  5
14E3
330
13AD
100
AcDbEntity
  8
SK2
 62
     0
100
AcDbLine
 10
39.44629861628387
 20
29.68528531905355
 30
0.0
 11
39.44629861628387
 21
26.18528531905355
 31
0.0
  0
LINE
  5
14E4
330
13AD
100
AcDbEntity
  8
SK2
 62
     0
100
AcDbLine
 10
39.44629861628387
 20
44.68528531905355
 30
0.0
 11
39.44629861628388
 21
48.18528531905355
 31
0.0
  0
SOLID
  5
14E5
330
13AD
100
AcDbEntity
  8
SK2
 62
     0
100
AcDbTrace
 10
38.86296528295054
 20
29.68528531905355
 30
0.0
 11
40.0296319496172
 21
29.68528531905354
 31
0.0
 12
39.44629861628387
 22
33.18528531905355
 32
0.0
 13
39.44629861628387
 23
33.18528531905355
 33
0.0
  0
SOLID
  5
14E6
330
13AD
100
AcDbEntity
  8
SK2
 62
     0
100
AcDbTrace
 10
38.86296528295054
 20
44.68528531905355
 30
0.0
 11
40.0296319496172
 21
44.68528531905355
 31
0.0
 12
39.44629861628387
 22
41.18528531905354
 32
0.0
 13
39.44629861628387
 23
41.18528531905354
 33
0.0
  0
MTEXT
  5
14E7
330
13AD
100
AcDbEntity
  8
SK2
 62
     0
100
AcDbMText
 10
36.69629861628386
 20
37.18528531905356
 30
0.0
 40
3.5
 41
0.0
 71
     5
 72
     1
  1
\A1;%%C8
 11
0.0000000000000001
 21
1.0
 31
0.0
 73
     1
 44
1.0
1001
ACAD
1000
MTEXTBEGIN
1070
    73
1070
     1
1070
    44
1040
1.0
1070
    74
1070
     0
1000
MTEXTEND
  0
POINT
  5
14E8
330
13AD
100
AcDbEntity
  8
DEFPOINTS
 62
     0
100
AcDbPoint
 10
27.64042974117616
 20
33.18528531905355
 30
0.0
  0
POINT
  5
14E9
330
13AD
100
AcDbEntity
  8
DEFPOINTS
 62
     0
100
AcDbPoint
 10
27.64042974117616
 20
41.18528531905354
 30
0.0
  0
POINT
  5
14EA
330
13AD
100
AcDbEntity
  8
DEFPOINTS
 62
     0
100
AcDbPoint
 10
39.44629861628387
 20
41.18528531905354
 30
0.0
  0
ENDBLK
  5
13AF
330
13AD
100
AcDbEntity
  8
0
100
AcDbBlockEnd
  0
ENDSEC
  0
SECTION
  2
ENTITIES
  0
LINE
  5
1350
330
19
100
AcDbEntity
  8
SK1
100
AcDbLine
 10
-15.35957025882385
 20
31.18528531905358
 30
0.0
 11
-15.35957025882385
 21
43.18528531905351
 31
0.0
  0
LINE
  5
1351
330
19
100
AcDbEntity
  8
SK1
100
AcDbLine
 10
25.64042974117615
 20
29.18528531905357
 30
0.0
 11
25.64042974117615
 21
45.18528531905352
 31
0.0
  0
LINE
  5
1352
330
19
100
AcDbEntity
  8
SK1
100
AcDbLine
 10
22.64042974117615
 20
42.98528531905354
 30
0.0
 11
25.64042974117615
 21
42.98528531905354
 31
0.0
  0
LINE
  5
1353
330
19
100
AcDbEntity
  8
SK4
100
AcDbLine
 10
-19.21100821772755
 20
37.18528531905355
 30
0.0
 11
32.1168934781002
 21
37.18528531905355
 31
0.0
  0
LINE
  5
1354
330
19
100
AcDbEntity
  8
SK1
100
AcDbLine
 10
-15.35957025882385
 20
43.18528531905355
 30
0.0
 11
22.64042974117615
 21
43.18528531905355
 31
0.0
  0
LINE
  5
1355
330
19
100
AcDbEntity
  8
SK1
100
AcDbLine
 10
-15.35957025882385
 20
31.18528531905355
 30
0.0
 11
22.64042974117615
 21
31.18528531905355
 31
0.0
  0
LINE
  5
1356
330
19
100
AcDbEntity
  8
SK1
100
AcDbLine
 10
25.64042974117612
 20
45.18528531905355
 30
0.0
 11
27.64042974117615
 21
45.18528531905355
 31
0.0
  0
LINE
  5
1357
330
19
100
AcDbEntity
  8
SK1
100
AcDbLine
 10
25.64042974117618
 20
29.18528531905355
 30
0.0
 11
27.64042974117615
 21
29.18528531905355
 31
0.0
  0
LINE
  5
1358
330
19
100
AcDbEntity
  8
SK1
100
AcDbLine
 10
22.64042974117615
 20
31.38528531905354
 30
0.0
 11
25.64042974117614
 21
31.38528531905354
 31
0.0
  0
LINE
  5
1359
330
19
100
AcDbEntity
  8
SK1
100
AcDbLine
 10
27.64042974117615
 20
29.18528531905355
 30
0.0
 11
27.64042974117615
 21
45.18528531905352
 31
0.0
  0
LINE
  5
135A
330
19
100
AcDbEntity
  8
SK1
100
AcDbLine
 10
22.64042974117615
 20
31.18528531905355
 30
0.0
 11
22.64042974117615
 21
43.18528531905355
 31
0.0
  0
DIMENSION
  5
135B
330
19
100
AcDbEntity
  8
SK2
100
AcDbDimension
  2
*D9
 10
25.64042974117613
 20
49.62914955436652
 30
0.0
 11
16.47376307450945
 21
52.37914955436649
 31
0.0
 70
    32
 71
     5
 42
2.0
  3
V-TYGEN_-160
100
AcDbAlignedDimension
 13
27.64042974117615
 23
45.18528531905352
 33
0.0
 14
25.64042974117615
 24
45.18528531905352
 34
0.0
 50
180.0000000000002
100
AcDbRotatedDimension
  0
DIMENSION
  5
135C
330
19
100
AcDbEntity
  8
SK2
100
AcDbDimension
  2
*D10
 10
25.64042974117615
 20
23.47123140085396
 30
0.0
 11
5.140429741176149
 21
26.22123140085396
 31
0.0
 70
    32
 71
     5
 42
41.0
  3
V-TYGEN_-160
100
AcDbAlignedDimension
 13
-15.35957025882385
 23
31.18528531905358
 33
0.0
 14
25.64042974117615
 24
29.18528531905357
 34
0.0
100
AcDbRotatedDimension
  0
LINE
  5
135D
330
19
100
AcDbEntity
  8
SK3
100
AcDbLine
 10
-8.35957025882385
 20
33.18528531905355
 30
0.0
 11
-8.35957025882385
 21
41.18528531905354
 31
0.0
  0
LINE
  5
135E
330
19
100
AcDbEntity
  8
SK3
100
AcDbLine
 10
-15.35957025882385
 20
40.18528531905355
 30
0.0
 11
-8.936920528013452
 21
40.18528531905355
 31
0.0
  0
DIMENSION
  5
135F
330
19
100
AcDbEntity
  8
SK2
100
AcDbDimension
  2
*D11
 10
-23.27504175914629
 20
31.18528531905355
 30
0.0
 11
-26.0250417591463
 21
37.18528531905355
 31
0.0
 70
    32
  1
%%C<>
 71
     5
 42
12.00000000000001
  3
V-TYGEN_-160
100
AcDbAlignedDimension
 13
-15.35957025882385
 23
43.18528531905355
 33
0.0
 14
-15.35957025882385
 24
31.18528531905355
 34
0.0
 50
270.0
100
AcDbRotatedDimension
  0
LINE
  5
1360
330
19
100
AcDbEntity
  8
SK3
100
AcDbLine
 10
-15.35957025882385
 20
34.18528531905355
 30
0.0
 11
-8.936920528013452
 21
34.18528531905355
 31
0.0
  0
LINE
  5
1361
330
19
100
AcDbEntity
  8
SK3
100
AcDbLine
 10
-8.35957025882385
 20
33.18528531905355
 30
0.0
 11
-8.936920528013452
 21
34.18528531905355
 31
0.0
  0
LINE
  5
1362
330
19
100
AcDbEntity
  8
SK3
100
AcDbLine
 10
-8.35957025882385
 20
41.18528531905354
 30
0.0
 11
-8.936920528013452
 21
40.18528531905355
 31
0.0
  0
DIMENSION
  5
1363
330
19
100
AcDbEntity
  8
SK2
100
AcDbDimension
  2
*D12
 10
-8.359570258823849
 20
57.13693591510784
 30
0.0
 11
9.640429741176149
 21
57.13693591510784
 31
0.0
 70
   160
 71
     5
 42
36.0
  3
V-TYGEN_-160
100
AcDbAlignedDimension
 13
27.64042974117615
 23
45.18528531905352
 33
0.0
 14
-8.35957025882385
 24
41.18528531905354
 34
0.0
 50
180.0
100
AcDbRotatedDimension
  0
LINE
  5
1364
330
19
100
AcDbEntity
  8
SK3
100
AcDbLine
 10
-8.936920528013452
 20
40.18528531905355
 30
0.0
 11
-8.936920528013452
 21
34.18528531905355
 31
0.0
  0
LINE
  5
1365
330
19
100
AcDbEntity
  8
SK3
100
AcDbLine
 10
-8.35957025882385
 20
41.18528531905354
 30
0.0
 11
27.64042974117616
 21
41.18528531905354
 31
0.0
  0
LINE
  5
1367
330
19
100
AcDbEntity
  8
SK3
100
AcDbLine
 10
-8.35957025882385
 20
33.18528531905355
 30
0.0
 11
27.64042974117616
 21
33.18528531905355
 31
0.0
  0
DIMENSION
  5
1368
330
19
100
AcDbEntity
  8
SK2
100
AcDbDimension
  2
*D13
 10
48.78184698898166
 20
45.18528531905354
 30
0.0
 11
46.03184698898164
 21
37.18528531905355
 31
0.0
 70
    32
  1
%%C<>
 71
     5
 42
16.0
  3
V-TYGEN_-160
100
AcDbAlignedDimension
 13
27.64042974117615
 23
29.18528531905355
 33
0.0
 14
27.64042974117615
 24
45.18528531905355
 34
0.0
 50
90.0
100
AcDbRotatedDimension
  0
DIMENSION
  5
1369
330
19
100
AcDbEntity
  8
SK2
100
AcDbDimension
  2
*D14
 10
39.44629861628387
 20
41.18528531905354
 30
0.0
 11
36.69629861628386
 21
37.18528531905356
 31
0.0
 70
    32
  1
%%C<>
 71
     5
 42
8.0
  3
V-TYGEN_-160
100
AcDbAlignedDimension
 13
27.64042974117616
 23
33.18528531905355
 33
0.0
 14
27.64042974117616
 24
41.18528531905354
 34
0.0
 50
90.0
100
AcDbRotatedDimension
  0
MTEXT
  5
14D6
330
19
100
AcDbEntity
  8
SK6
100
AcDbMText
 10
-11.79619771136322
 20
17.65711846776025
 30
0.0
 40
3.5
 41
28.70460412189186
 71
     1
 72
     5
  1
{\fMonospac821 BT|b0|i0|c0|p49;05F58321208\P00032450}
  7
SIMPLEX
 73
     1
 44
1.0
1001
ACAD
1000
MTEXTBEGIN
1070
    73
1070
     1
1070
    44
1040
1.0
1070
    74
1070
     0
1000
MTEXTEND
  0
ENDSEC
  0
SECTION
  2
OBJECTS
  0
DICTIONARY
  5
C
330
0
100
AcDbDictionary
281
     1
  3
ACAD_COLOR
350
12B4
  3
ACAD_GROUP
350
D
  3
ACAD_LAYOUT
350
A85
  3
ACAD_MATERIAL
350
128A
  3
ACAD_MLEADERSTYLE
350
12D9
  3
ACAD_MLINESTYLE
350
E
  3
ACAD_PLOTSETTINGS
350
A86
  3
ACAD_PLOTSTYLENAME
350
E93
  3
ACAD_SCALELIST
350
12B7
  3
ACAD_TABLESTYLE
350
12B5
  3
ACAD_VISUALSTYLE
350
12A3
  3
ACDB_RECOMPOSE_DATA
350
1536
  3
AcDbVariableDictionary
350
1515
  3
DWGPROPS
350
1537
1001
ACAD
1000
TREAT_AS_HARD
1070
     0
  0
DICTIONARY
  5
14FD
330
F
100
AcDbDictionary
280
     1
281
     1
  3
ADSK_XREC_LAYER_RECONCILED
360
14FE
  0
DICTIONARY
  5
14FF
330
1E
100
AcDbDictionary
280
     1
281
     1
  3
ADSK_XREC_LAYER_RECONCILED
360
1500
  0
DICTIONARY
  5
1501
330
22
100
AcDbDictionary
280
     1
281
     1
  3
ADSK_XREC_LAYER_RECONCILED
360
1502
  0
DICTIONARY
  5
1503
330
23
100
AcDbDictionary
280
     1
281
     1
  3
ADSK_XREC_LAYER_RECONCILED
360
1504
  0
DICTIONARY
  5
1505
330
25
100
AcDbDictionary
280
     1
281
     1
  3
ADSK_XREC_LAYER_RECONCILED
360
1506
  0
DICTIONARY
  5
1507
330
26
100
AcDbDictionary
280
     1
281
     1
  3
ADSK_XREC_LAYER_RECONCILED
360
1508
  0
DICTIONARY
  5
1509
330
27
100
AcDbDictionary
280
     1
281
     1
  3
ADSK_XREC_LAYER_RECONCILED
360
150A
  0
DICTIONARY
  5
150B
330
28
100
AcDbDictionary
280
     1
281
     1
  3
ADSK_XREC_LAYER_RECONCILED
360
150C
  0
DICTIONARY
  5
150D
330
29
100
AcDbDictionary
280
     1
281
     1
  3
ADSK_XREC_LAYER_RECONCILED
360
150E
  0
DICTIONARY
  5
150F
330
2A
100
AcDbDictionary
280
     1
281
     1
  3
ADSK_XREC_LAYER_RECONCILED
360
1510
  0
DICTIONARY
  5
1511
330
2B
100
AcDbDictionary
280
     1
281
     1
  3
ADSK_XREC_LAYER_RECONCILED
360
1512
  0
DICTIONARY
  5
1513
330
2C
100
AcDbDictionary
280
     1
281
     1
  3
ADSK_XREC_LAYER_RECONCILED
360
1514
  0
DICTIONARY
  5
E8D
330
19
100
AcDbDictionary
280
     1
281
     1
  0
DICTIONARY
  5
E8B
330
16
100
AcDbDictionary
280
     1
281
     1
  0
DICTIONARY
  5
12B4
102
{ACAD_REACTORS
330
C
102
}
330
C
100
AcDbDictionary
281
     1
  0
DICTIONARY
  5
D
102
{ACAD_REACTORS
330
C
102
}
330
C
100
AcDbDictionary
281
     1
1001
ACAD
1000
TREAT_AS_HARD
1070
     0
  0
DICTIONARY
  5
A85
102
{ACAD_REACTORS
330
C
102
}
330
C
100
AcDbDictionary
281
     1
  3
Layout1
350
E96
  3
Model
350
E95
1001
ACAD
1000
TREAT_AS_HARD
1070
     0
  0
DICTIONARY
  5
128A
102
{ACAD_REACTORS
330
C
102
}
330
C
100
AcDbDictionary
281
     1
  3
ByBlock
350
1293
  3
ByLayer
350
128B
  3
Global
350
129B
  0
DICTIONARY
  5
12D9
102
{ACAD_REACTORS
330
C
102
}
330
C
100
AcDbDictionary
281
     1
  3
Standard
350
12DA
  0
DICTIONARY
  5
E
102
{ACAD_REACTORS
330
C
102
}
330
C
100
AcDbDictionary
281
     1
  3
STANDARD
350
1C
1001
ACAD
1000
TREAT_AS_HARD
1070
     0
  0
DICTIONARY
  5
A86
102
{ACAD_REACTORS
330
C
102
}
330
C
100
AcDbDictionary
281
     1
1001
ACAD
1000
TREAT_AS_HARD
1070
     0
  0
ACDBDICTIONARYWDFLT
  5
E93
102
{ACAD_REACTORS
330
C
102
}
330
C
100
AcDbDictionary
281
     1
  3
Normal
350
E94
100
AcDbDictionaryWithDefault
340
E94
  0
DICTIONARY
  5
12B7
102
{ACAD_REACTORS
330
C
102
}
330
C
100
AcDbDictionary
281
     1
  3
A0
350
12B8
  3
A1
350
12B9
  3
A2
350
12BA
  3
A3
350
12BB
  3
A4
350
12BC
  3
A5
350
12BD
  3
A6
350
12BE
  3
A7
350
12BF
  3
A8
350
12C0
  3
A9
350
12C1
  3
B0
350
12C2
  3
B1
350
12C3
  3
B2
350
12C4
  3
B3
350
12C5
  3
B4
350
12C6
  3
B5
350
12C7
  3
B6
350
12C8
  3
B7
350
12C9
  3
B8
350
12CA
  3
B9
350
12CB
  3
C0
350
12CC
  3
C1
350
12CD
  3
C2
350
12CE
  3
C3
350
12CF
  3
C4
350
12D0
  3
C5
350
12D1
  3
C6
350
12D2
  3
C7
350
12D3
  3
C8
350
12D4
  3
C9
350
12D5
  3
D0
350
12D6
  3
D1
350
12D7
  3
D2
350
12D8
  0
DICTIONARY
  5
12B5
102
{ACAD_REACTORS
330
C
102
}
330
C
100
AcDbDictionary
281
     1
  3
Standard
350
12B6
  0
DICTIONARY
  5
12A3
102
{ACAD_REACTORS
330
C
102
}
330
C
100
AcDbDictionary
281
     1
  3
2dWireframe
350
12A9
  3
3D Hidden
350
12AB
  3
3dWireframe
350
12AA
  3
Basic
350
12A8
  3
Brighten
350
12AF
  3
ColorChange
350
12B3
  3
Conceptual
350
12AC
  3
Dim
350
12AE
  3
Facepattern
350
12B2
  3
Flat
350
12A4
  3
FlatWithEdges
350
12A5
  3
Gouraud
350
12A6
  3
GouraudWithEdges
350
12A7
  3
Linepattern
350
12B1
  3
Realistic
350
12AD
  3
Thicken
350
12B0
  0
XRECORD
  5
1536
102
{ACAD_REACTORS
330
C
102
}
330
C
100
AcDbXrecord
280
     1
 90
        1
330
12B6
  0
DICTIONARY
  5
1515
102
{ACAD_REACTORS
330
C
102
}
330
C
100
AcDbDictionary
281
     1
  3
CANNOSCALE
350
1518
  3
CMLEADERSTYLE
350
1517
  3
CTABLESTYLE
350
1516
  3
DIMASSOC
350
151B
  3
INDEXCTL
350
151A
  3
SORTENTS
350
1519
  0
XRECORD
  5
1537
102
{ACAD_REACTORS
330
C
102
}
330
C
100
AcDbXrecord
280
     1
  1
DWGPROPS COOKIE
  2

  3

  4

  6

  7

  8
inpunvijd
  9

300
=
301
=
302
=
303
=
304
=
305
=
306
=
307
=
308
=
309
=
 40
0.0015562037037037
 41
2455584.592479306
 42
2455584.594034965
  1

 90
        0
  0
XRECORD
  5
14FE
102
{ACAD_REACTORS
330
14FD
102
}
330
14FD
100
AcDbXrecord
280
     1
290
     1
  0
XRECORD
  5
1500
102
{ACAD_REACTORS
330
14FF
102
}
330
14FF
100
AcDbXrecord
280
     1
290
     1
  0
XRECORD
  5
1502
102
{ACAD_REACTORS
330
1501
102
}
330
1501
100
AcDbXrecord
280
     1
290
     1
  0
XRECORD
  5
1504
102
{ACAD_REACTORS
330
1503
102
}
330
1503
100
AcDbXrecord
280
     1
290
     1
  0
XRECORD
  5
1506
102
{ACAD_REACTORS
330
1505
102
}
330
1505
100
AcDbXrecord
280
     1
290
     1
  0
XRECORD
  5
1508
102
{ACAD_REACTORS
330
1507
102
}
330
1507
100
AcDbXrecord
280
     1
290
     1
  0
XRECORD
  5
150A
102
{ACAD_REACTORS
330
1509
102
}
330
1509
100
AcDbXrecord
280
     1
290
     1
  0
XRECORD
  5
150C
102
{ACAD_REACTORS
330
150B
102
}
330
150B
100
AcDbXrecord
280
     1
290
     1
  0
XRECORD
  5
150E
102
{ACAD_REACTORS
330
150D
102
}
330
150D
100
AcDbXrecord
280
     1
290
     1
  0
XRECORD
  5
1510
102
{ACAD_REACTORS
330
150F
102
}
330
150F
100
AcDbXrecord
280
     1
290
     1
  0
XRECORD
  5
1512
102
{ACAD_REACTORS
330
1511
102
}
330
1511
100
AcDbXrecord
280
     1
290
     1
  0
XRECORD
  5
1514
102
{ACAD_REACTORS
330
1513
102
}
330
1513
100
AcDbXrecord
280
     1
290
     1
  0
LAYOUT
  5
E96
102
{ACAD_XDICTIONARY
360
153A
102
}
102
{ACAD_REACTORS
330
A85
102
}
330
A85
100
AcDbPlotSettings
  1

  2
\\SECO_TOOLS\Q_HP8100_WMM.LANDSKAP.PL1.HUS_A.FAGERSTA.SE.SECO_TOOLS
  4

  6

 40
0.0
 41
0.0
 42
0.0
 43
0.0
 44
0.0
 45
0.0
 46
0.0
 47
0.0
 48
0.0
 49
0.0
140
0.0
141
0.0
142
1.0
143
1.0
 70
   688
 72
     0
 73
     0
 74
     5
  7

 75
    16
147
1.0
148
0.0
149
0.0
100
AcDbLayout
  1
Layout1
 70
     0
 71
     1
 10
0.0
 20
0.0
 11
12.0
 21
9.0
 12
0.0
 22
0.0
 32
0.0
 14
1.000000000000000E+20
 24
1.000000000000000E+20
 34
1.000000000000000E+20
 15
-1.000000000000000E+20
 25
-1.000000000000000E+20
 35
-1.000000000000000E+20
146
0.0
 13
0.0
 23
0.0
 33
0.0
 16
1.0
 26
0.0
 36
0.0
 17
0.0
 27
1.0
 37
0.0
 76
     0
330
16
  0
LAYOUT
  5
E95
102
{ACAD_XDICTIONARY
360
1538
102
}
102
{ACAD_REACTORS
330
A85
102
}
330
A85
100
AcDbPlotSettings
  1

  2
\\SECO_TOOLS\Q_HP8100_WMM.LANDSKAP.PL1.HUS_A.FAGERSTA.SE.SECO_TOOLS
  4

  6

 40
0.0
 41
0.0
 42
0.0
 43
0.0
 44
0.0
 45
0.0
 46
0.0
 47
0.0
 48
0.0
 49
0.0
140
0.0
141
0.0
142
1.0
143
1.0
 70
  1712
 72
     0
 73
     0
 74
     0
  7

 75
     0
147
1.0
148
0.0
149
0.0
100
AcDbLayout
  1
Model
 70
     1
 71
     0
 10
0.0
 20
0.0
 11
12.0
 21
9.0
 12
0.0
 22
0.0
 32
0.0
 14
0.0
 24
0.0
 34
0.0
 15
0.0
 25
0.0
 35
0.0
146
0.0
 13
0.0
 23
0.0
 33
0.0
 16
1.0
 26
0.0
 36
0.0
 17
0.0
 27
1.0
 37
0.0
 76
     0
330
19
331
1288
  0
MATERIAL
  5
1293
102
{ACAD_XDICTIONARY
360
1294
102
}
102
{ACAD_REACTORS
330
128A
102
}
330
128A
100
AcDbMaterial
  1
ByBlock
 72
     0
 43
0.0208333333333333
 43
0.0
 43
0.0
 43
0.0
 43
0.0
 43
0.0208333333333333
 43
0.0
 43
0.0
 43
0.0
 43
0.0
 43
1.0
 43
0.0
 43
0.0
 43
0.0
 43
0.0
 43
1.0
 77
     0
 47
0.0208333333333333
 47
0.0
 47
0.0
 47
0.0
 47
0.0
 47
0.0208333333333333
 47
0.0
 47
0.0
 47
0.0
 47
0.0
 47
1.0
 47
0.0
 47
0.0
 47
0.0
 47
0.0
 47
1.0
171
     0
 49
0.0208333333333333
 49
0.0
 49
0.0
 49
0.0
 49
0.0
 49
0.0208333333333333
 49
0.0
 49
0.0
 49
0.0
 49
0.0
 49
1.0
 49
0.0
 49
0.0
 49
0.0
 49
0.0
 49
1.0
175
     0
142
0.0208333333333333
142
0.0
142
0.0
142
0.0
142
0.0
142
0.0208333333333333
142
0.0
142
0.0
142
0.0
142
0.0
142
1.0
142
0.0
142
0.0
142
0.0
142
0.0
142
1.0
179
     0
144
0.0208333333333333
144
0.0
144
0.0
144
0.0
144
0.0
144
0.0208333333333333
144
0.0
144
0.0
144
0.0
144
0.0
144
1.0
144
0.0
144
0.0
144
0.0
144
0.0
144
1.0
147
0.0208333333333333
147
0.0
147
0.0
147
0.0
147
0.0
147
0.0208333333333333
147
0.0
147
0.0
147
0.0
147
0.0
147
1.0
147
0.0
147
0.0
147
0.0
147
0.0
147
1.0
  0
MATERIAL
  5
128B
102
{ACAD_XDICTIONARY
360
128C
102
}
102
{ACAD_REACTORS
330
128A
102
}
330
128A
100
AcDbMaterial
  1
ByLayer
 72
     0
 43
0.0208333333333333
 43
0.0
 43
0.0
 43
0.0
 43
0.0
 43
0.0208333333333333
 43
0.0
 43
0.0
 43
0.0
 43
0.0
 43
1.0
 43
0.0
 43
0.0
 43
0.0
 43
0.0
 43
1.0
 77
     0
 47
0.0208333333333333
 47
0.0
 47
0.0
 47
0.0
 47
0.0
 47
0.0208333333333333
 47
0.0
 47
0.0
 47
0.0
 47
0.0
 47
1.0
 47
0.0
 47
0.0
 47
0.0
 47
0.0
 47
1.0
171
     0
 49
0.0208333333333333
 49
0.0
 49
0.0
 49
0.0
 49
0.0
 49
0.0208333333333333
 49
0.0
 49
0.0
 49
0.0
 49
0.0
 49
1.0
 49
0.0
 49
0.0
 49
0.0
 49
0.0
 49
1.0
175
     0
142
0.0208333333333333
142
0.0
142
0.0
142
0.0
142
0.0
142
0.0208333333333333
142
0.0
142
0.0
142
0.0
142
0.0
142
1.0
142
0.0
142
0.0
142
0.0
142
0.0
142
1.0
179
     0
144
0.0208333333333333
144
0.0
144
0.0
144
0.0
144
0.0
144
0.0208333333333333
144
0.0
144
0.0
144
0.0
144
0.0
144
1.0
144
0.0
144
0.0
144
0.0
144
0.0
144
1.0
147
0.0208333333333333
147
0.0
147
0.0
147
0.0
147
0.0
147
0.0208333333333333
147
0.0
147
0.0
147
0.0
147
0.0
147
1.0
147
0.0
147
0.0
147
0.0
147
0.0
147
1.0
  0
MATERIAL
  5
129B
102
{ACAD_XDICTIONARY
360
129C
102
}
102
{ACAD_REACTORS
330
128A
102
}
330
128A
100
AcDbMaterial
  1
Global
 72
     0
 43
0.0208333333333333
 43
0.0
 43
0.0
 43
0.0
 43
0.0
 43
0.0208333333333333
 43
0.0
 43
0.0
 43
0.0
 43
0.0
 43
1.0
 43
0.0
 43
0.0
 43
0.0
 43
0.0
 43
1.0
 77
     0
 47
0.0208333333333333
 47
0.0
 47
0.0
 47
0.0
 47
0.0
 47
0.0208333333333333
 47
0.0
 47
0.0
 47
0.0
 47
0.0
 47
1.0
 47
0.0
 47
0.0
 47
0.0
 47
0.0
 47
1.0
171
     0
 49
0.0208333333333333
 49
0.0
 49
0.0
 49
0.0
 49
0.0
 49
0.0208333333333333
 49
0.0
 49
0.0
 49
0.0
 49
0.0
 49
1.0
 49
0.0
 49
0.0
 49
0.0
 49
0.0
 49
1.0
175
     0
142
0.0208333333333333
142
0.0
142
0.0
142
0.0
142
0.0
142
0.0208333333333333
142
0.0
142
0.0
142
0.0
142
0.0
142
1.0
142
0.0
142
0.0
142
0.0
142
0.0
142
1.0
179
     0
144
0.0208333333333333
144
0.0
144
0.0
144
0.0
144
0.0
144
0.0208333333333333
144
0.0
144
0.0
144
0.0
144
0.0
144
1.0
144
0.0
144
0.0
144
0.0
144
0.0
144
1.0
147
0.0208333333333333
147
0.0
147
0.0
147
0.0
147
0.0
147
0.0208333333333333
147
0.0
147
0.0
147
0.0
147
0.0
147
1.0
147
0.0
147
0.0
147
0.0
147
0.0
147
1.0
  0
MLEADERSTYLE
  5
12DA
102
{ACAD_REACTORS
330
12D9
102
}
330
12D9
100
AcDbMLeaderStyle
170
     2
171
     1
172
     0
 90
        2
 40
0.0
 41
0.0
173
     1
 91
-1056964608
340
13
 92
       -2
290
     1
 42
2.0
291
     1
 43
0.36
  3
Standard
 44
4.0
300

342
10
174
     1
178
     6
175
     1
176
     0
 93
-1056964608
 45
4.0
292
     0
297
     0
 46
4.0
 94
-1056964608
 47
1.0
 49
1.0
140
1.0
293
     1
141
0.0
294
     1
177
     0
142
1.0
295
     0
296
     0
143
0.125
1001
ACAD_MLEADERVER
1070
     2
  0
MLINESTYLE
  5
1C
102
{ACAD_REACTORS
330
E
102
}
330
E
100
AcDbMlineStyle
  2
STANDARD
 70
     0
  3

 62
     0
 51
90.0
 52
90.0
 71
     2
 49
0.5
 62
   256
  6
BYLAYER
 49
-0.5
 62
   256
  6
BYLAYER
  0
ACDBPLACEHOLDER
  5
E94
102
{ACAD_REACTORS
330
E93
102
}
330
E93
  0
SCALE
  5
12B8
102
{ACAD_REACTORS
330
12B7
102
}
330
12B7
100
AcDbScale
 70
     0
300
1:1
140
1.0
141
1.0
290
     1
  0
SCALE
  5
12B9
102
{ACAD_REACTORS
330
12B7
102
}
330
12B7
100
AcDbScale
 70
     0
300
1:2
140
1.0
141
2.0
290
     0
  0
SCALE
  5
12BA
102
{ACAD_REACTORS
330
12B7
102
}
330
12B7
100
AcDbScale
 70
     0
300
1:4
140
1.0
141
4.0
290
     0
  0
SCALE
  5
12BB
102
{ACAD_REACTORS
330
12B7
102
}
330
12B7
100
AcDbScale
 70
     0
300
1:5
140
1.0
141
5.0
290
     0
  0
SCALE
  5
12BC
102
{ACAD_REACTORS
330
12B7
102
}
330
12B7
100
AcDbScale
 70
     0
300
1:8
140
1.0
141
8.0
290
     0
  0
SCALE
  5
12BD
102
{ACAD_REACTORS
330
12B7
102
}
330
12B7
100
AcDbScale
 70
     0
300
1:10
140
1.0
141
10.0
290
     0
  0
SCALE
  5
12BE
102
{ACAD_REACTORS
330
12B7
102
}
330
12B7
100
AcDbScale
 70
     0
300
1:16
140
1.0
141
16.0
290
     0
  0
SCALE
  5
12BF
102
{ACAD_REACTORS
330
12B7
102
}
330
12B7
100
AcDbScale
 70
     0
300
1:20
140
1.0
141
20.0
290
     0
  0
SCALE
  5
12C0
102
{ACAD_REACTORS
330
12B7
102
}
330
12B7
100
AcDbScale
 70
     0
300
1:30
140
1.0
141
30.0
290
     0
  0
SCALE
  5
12C1
102
{ACAD_REACTORS
330
12B7
102
}
330
12B7
100
AcDbScale
 70
     0
300
1:40
140
1.0
141
40.0
290
     0
  0
SCALE
  5
12C2
102
{ACAD_REACTORS
330
12B7
102
}
330
12B7
100
AcDbScale
 70
     0
300
1:50
140
1.0
141
50.0
290
     0
  0
SCALE
  5
12C3
102
{ACAD_REACTORS
330
12B7
102
}
330
12B7
100
AcDbScale
 70
     0
300
1:100
140
1.0
141
100.0
290
     0
  0
SCALE
  5
12C4
102
{ACAD_REACTORS
330
12B7
102
}
330
12B7
100
AcDbScale
 70
     0
300
2:1
140
2.0
141
1.0
290
     0
  0
SCALE
  5
12C5
102
{ACAD_REACTORS
330
12B7
102
}
330
12B7
100
AcDbScale
 70
     0
300
4:1
140
4.0
141
1.0
290
     0
  0
SCALE
  5
12C6
102
{ACAD_REACTORS
330
12B7
102
}
330
12B7
100
AcDbScale
 70
     0
300
8:1
140
8.0
141
1.0
290
     0
  0
SCALE
  5
12C7
102
{ACAD_REACTORS
330
12B7
102
}
330
12B7
100
AcDbScale
 70
     0
300
10:1
140
10.0
141
1.0
290
     0
  0
SCALE
  5
12C8
102
{ACAD_REACTORS
330
12B7
102
}
330
12B7
100
AcDbScale
 70
     0
300
100:1
140
100.0
141
1.0
290
     0
  0
SCALE
  5
12C9
102
{ACAD_REACTORS
330
12B7
102
}
330
12B7
100
AcDbScale
 70
     0
300
1/128" = 1'-0"
140
0.0078125
141
12.0
290
     0
  0
SCALE
  5
12CA
102
{ACAD_REACTORS
330
12B7
102
}
330
12B7
100
AcDbScale
 70
     0
300
1/64" = 1'-0"
140
0.015625
141
12.0
290
     0
  0
SCALE
  5
12CB
102
{ACAD_REACTORS
330
12B7
102
}
330
12B7
100
AcDbScale
 70
     0
300
1/32" = 1'-0"
140
0.03125
141
12.0
290
     0
  0
SCALE
  5
12CC
102
{ACAD_REACTORS
330
12B7
102
}
330
12B7
100
AcDbScale
 70
     0
300
1/16" = 1'-0"
140
0.0625
141
12.0
290
     0
  0
SCALE
  5
12CD
102
{ACAD_REACTORS
330
12B7
102
}
330
12B7
100
AcDbScale
 70
     0
300
3/32" = 1'-0"
140
0.09375
141
12.0
290
     0
  0
SCALE
  5
12CE
102
{ACAD_REACTORS
330
12B7
102
}
330
12B7
100
AcDbScale
 70
     0
300
1/8" = 1'-0"
140
0.125
141
12.0
290
     0
  0
SCALE
  5
12CF
102
{ACAD_REACTORS
330
12B7
102
}
330
12B7
100
AcDbScale
 70
     0
300
3/16" = 1'-0"
140
0.1875
141
12.0
290
     0
  0
SCALE
  5
12D0
102
{ACAD_REACTORS
330
12B7
102
}
330
12B7
100
AcDbScale
 70
     0
300
1/4" = 1'-0"
140
0.25
141
12.0
290
     0
  0
SCALE
  5
12D1
102
{ACAD_REACTORS
330
12B7
102
}
330
12B7
100
AcDbScale
 70
     0
300
3/8" = 1'-0"
140
0.375
141
12.0
290
     0
  0
SCALE
  5
12D2
102
{ACAD_REACTORS
330
12B7
102
}
330
12B7
100
AcDbScale
 70
     0
300
1/2" = 1'-0"
140
0.5
141
12.0
290
     0
  0
SCALE
  5
12D3
102
{ACAD_REACTORS
330
12B7
102
}
330
12B7
100
AcDbScale
 70
     0
300
3/4" = 1'-0"
140
0.75
141
12.0
290
     0
  0
SCALE
  5
12D4
102
{ACAD_REACTORS
330
12B7
102
}
330
12B7
100
AcDbScale
 70
     0
300
1" = 1'-0"
140
1.0
141
12.0
290
     0
  0
SCALE
  5
12D5
102
{ACAD_REACTORS
330
12B7
102
}
330
12B7
100
AcDbScale
 70
     0
300
1-1/2" = 1'-0"
140
1.5
141
12.0
290
     0
  0
SCALE
  5
12D6
102
{ACAD_REACTORS
330
12B7
102
}
330
12B7
100
AcDbScale
 70
     0
300
3" = 1'-0"
140
3.0
141
12.0
290
     0
  0
SCALE
  5
12D7
102
{ACAD_REACTORS
330
12B7
102
}
330
12B7
100
AcDbScale
 70
     0
300
6" = 1'-0"
140
6.0
141
12.0
290
     0
  0
SCALE
  5
12D8
102
{ACAD_REACTORS
330
12B7
102
}
330
12B7
100
AcDbScale
 70
     0
300
1'-0" = 1'-0"
140
12.0
141
12.0
290
     0
  0
TABLESTYLE
  5
12B6
102
{ACAD_XDICTIONARY
360
1534
102
}
102
{ACAD_REACTORS
330
12B5
102
}
330
12B5
100
AcDbTableStyle
  3
Standard
 70
     0
 71
     0
 40
1.5
 41
1.5
280
     0
281
     0
  7
STANDARD
140
4.5
170
     2
 62
     0
 63
     7
283
     0
274
    -2
284
     1
 64
     0
275
    -2
285
     1
 65
     0
276
    -2
286
     1
 66
     0
277
    -2
287
     1
 67
     0
278
    -2
288
     1
 68
     0
279
    -2
289
     1
 69
     0
  7
STANDARD
140
6.0
170
     5
 62
     0
 63
     7
283
     0
274
    -2
284
     1
 64
     0
275
    -2
285
     1
 65
     0
276
    -2
286
     1
 66
     0
277
    -2
287
     1
 67
     0
278
    -2
288
     1
 68
     0
279
    -2
289
     1
 69
     0
  7
STANDARD
140
4.5
170
     5
 62
     0
 63
     7
283
     0
274
    -2
284
     1
 64
     0
275
    -2
285
     1
 65
     0
276
    -2
286
     1
 66
     0
277
    -2
287
     1
 67
     0
278
    -2
288
     1
 68
     0
279
    -2
289
     1
 69
     0
  0
VISUALSTYLE
  5
12A9
102
{ACAD_REACTORS
330
12A3
102
}
330
12A3
100
AcDbVisualStyle
  2
2dWireframe
 70
     4
 71
     0
 72
     2
 73
     0
 90
        0
 40
-0.6
 41
-30.0
 62
     5
 63
     7
 74
     1
 91
        4
 64
     7
 65
   257
 75
     1
175
     1
 42
1.0
 92
        0
 66
   257
 43
1.0
 76
     1
 77
     6
 78
     2
 67
     7
 79
     5
170
     0
171
     0
290
     0
174
     0
 93
        1
 44
0.0
173
     0
291
     0
 45
0.0
1001
ACAD
1000
AcDbSavedByObjectVersion
1070
     0
  0
VISUALSTYLE
  5
12AB
102
{ACAD_REACTORS
330
12A3
102
}
330
12A3
100
AcDbVisualStyle
  2
3D Hidden
 70
     6
 71
     1
 72
     2
 73
     2
 90
        0
 40
-0.6
 41
-30.0
 62
     5
 63
     7
 74
     2
 91
        2
 64
     7
 65
   257
 75
     2
175
     1
 42
40.0
 92
        0
 66
   257
 43
1.0
 76
     1
 77
     6
 78
     2
 67
     7
 79
     3
170
     0
171
     0
290
     0
174
     0
 93
        1
 44
0.0
173
     0
291
     0
 45
0.0
1001
ACAD
1000
AcDbSavedByObjectVersion
1070
     0
  0
VISUALSTYLE
  5
12AA
102
{ACAD_REACTORS
330
12A3
102
}
330
12A3
100
AcDbVisualStyle
  2
3dWireframe
 70
     5
 71
     0
 72
     2
 73
     0
 90
        0
 40
-0.6
 41
-30.0
 62
     5
 63
     7
 74
     1
 91
        4
 64
     7
 65
   257
 75
     1
175
     1
 42
1.0
 92
        0
 66
   257
 43
1.0
 76
     1
 77
     6
 78
     2
 67
     7
 79
     5
170
     0
171
     0
290
     0
174
     0
 93
        1
 44
0.0
173
     0
291
     0
 45
0.0
1001
ACAD
1000
AcDbSavedByObjectVersion
1070
     0
  0
VISUALSTYLE
  5
12A8
102
{ACAD_REACTORS
330
12A3
102
}
330
12A3
100
AcDbVisualStyle
  2
Basic
 70
     7
 71
     1
 72
     0
 73
     1
 90
        0
 40
-0.6
 41
-30.0
 62
     5
 63
     7
 74
     0
 91
        4
 64
     7
 65
   257
 75
     1
175
     1
 42
1.0
 92
        8
 66
     7
 43
1.0
 76
     1
 77
     6
 78
     2
 67
     7
 79
     5
170
     0
171
     0
290
     0
174
     0
 93
        1
 44
0.0
173
     0
291
     1
 45
0.0
1001
ACAD
1000
AcDbSavedByObjectVersion
1070
     0
  0
VISUALSTYLE
  5
12AF
102
{ACAD_REACTORS
330
12A3
102
}
330
12A3
100
AcDbVisualStyle
  2
Brighten
 70
    12
 71
     2
 72
     2
 73
     0
 90
        0
 40
-0.6
 41
-30.0
 62
     5
 63
     7
 74
     1
 91
        4
 64
     7
 65
   257
 75
     1
175
     1
 42
1.0
 92
        8
 66
     7
 43
1.0
 76
     1
 77
     6
 78
     2
 67
     7
 79
     5
170
     0
171
     0
290
     0
174
     0
 93
        1
 44
50.0
173
     0
291
     1
 45
0.0
1001
ACAD
1000
AcDbSavedByObjectVersion
1070
     0
  0
VISUALSTYLE
  5
12B3
102
{ACAD_REACTORS
330
12A3
102
}
330
12A3
100
AcDbVisualStyle
  2
ColorChange
 70
    16
 71
     2
 72
     2
 73
     3
 90
        0
 40
-0.6
 41
-30.0
 62
     5
 63
     8
 74
     1
 91
        4
 64
     7
 65
   257
 75
     1
175
     1
 42
1.0
 92
        8
 66
     8
 43
1.0
 76
     1
 77
     6
 78
     2
 67
     7
 79
     5
170
     0
171
     0
290
     0
174
     0
 93
        1
 44
0.0
173
     0
291
     1
 45
0.0
1001
ACAD
1000
AcDbSavedByObjectVersion
1070
     0
  0
VISUALSTYLE
  5
12AC
102
{ACAD_REACTORS
330
12A3
102
}
330
12A3
100
AcDbVisualStyle
  2
Conceptual
 70
     9
 71
     3
 72
     2
 73
     0
 90
        0
 40
-0.6
 41
-30.0
 62
     5
 63
     7
 74
     2
 91
        2
 64
     7
 65
   257
 75
     1
175
     1
 42
40.0
 92
        8
 66
     7
 43
1.0
 76
     1
 77
     6
 78
     2
 67
     7
 79
     3
170
     0
171
     0
290
     0
174
     0
 93
        1
 44
0.0
173
     0
291
     0
 45
0.0
1001
ACAD
1000
AcDbSavedByObjectVersion
1070
     0
  0
VISUALSTYLE
  5
12AE
102
{ACAD_REACTORS
330
12A3
102
}
330
12A3
100
AcDbVisualStyle
  2
Dim
 70
    11
 71
     2
 72
     2
 73
     0
 90
        0
 40
-0.6
 41
-30.0
 62
     5
 63
     7
 74
     1
 91
        4
 64
     7
 65
   257
 75
     1
175
     1
 42
1.0
 92
        8
 66
     7
 43
1.0
 76
     1
 77
     6
 78
     2
 67
     7
 79
     5
170
     0
171
     0
290
     0
174
     0
 93
        1
 44
-50.0
173
     0
291
     1
 45
0.0
1001
ACAD
1000
AcDbSavedByObjectVersion
1070
     0
  0
VISUALSTYLE
  5
12B2
102
{ACAD_REACTORS
330
12A3
102
}
330
12A3
100
AcDbVisualStyle
  2
Facepattern
 70
    15
 71
     2
 72
     2
 73
     0
 90
        0
 40
-0.6
 41
-30.0
 62
     5
 63
     7
 74
     1
 91
        4
 64
     7
 65
   257
 75
     1
175
     1
 42
1.0
 92
        8
 66
     7
 43
1.0
 76
     1
 77
     6
 78
     2
 67
     7
 79
     5
170
     0
171
     0
290
     0
174
     0
 93
        1
 44
0.0
173
     0
291
     1
 45
0.0
1001
ACAD
1000
AcDbSavedByObjectVersion
1070
     0
  0
VISUALSTYLE
  5
12A4
102
{ACAD_REACTORS
330
12A3
102
}
330
12A3
100
AcDbVisualStyle
  2
Flat
 70
     0
 71
     2
 72
     1
 73
     1
 90
        2
 40
-0.6
 41
30.0
 62
     5
 63
     7
 74
     0
 91
        4
 64
     7
 65
   257
 75
     1
175
     1
 42
1.0
 92
        8
 66
     7
 43
1.0
 76
     1
 77
     6
 78
     2
 67
     7
 79
     5
170
     0
171
     0
290
     0
174
     0
 93
       13
 44
0.0
173
     0
291
     1
 45
0.0
1001
ACAD
1000
AcDbSavedByObjectVersion
1070
     0
  0
VISUALSTYLE
  5
12A5
102
{ACAD_REACTORS
330
12A3
102
}
330
12A3
100
AcDbVisualStyle
  2
FlatWithEdges
 70
     1
 71
     2
 72
     1
 73
     1
 90
        2
 40
-0.6
 41
30.0
 62
     5
 63
     7
 74
     1
 91
        4
 64
     7
 65
   257
 75
     1
175
     1
 42
1.0
 92
        0
 66
   257
 43
1.0
 76
     1
 77
     6
 78
     2
 67
     7
 79
     5
170
     0
171
     0
290
     0
174
     0
 93
       13
 44
0.0
173
     0
291
     1
 45
0.0
1001
ACAD
1000
AcDbSavedByObjectVersion
1070
     0
  0
VISUALSTYLE
  5
12A6
102
{ACAD_REACTORS
330
12A3
102
}
330
12A3
100
AcDbVisualStyle
  2
Gouraud
 70
     2
 71
     2
 72
     2
 73
     1
 90
        2
 40
-0.6
 41
30.0
 62
     5
 63
     7
 74
     0
 91
        4
 64
     7
 65
   257
 75
     1
175
     1
 42
1.0
 92
        0
 66
     7
 43
1.0
 76
     1
 77
     6
 78
     2
 67
     7
 79
     5
170
     0
171
     0
290
     0
174
     0
 93
       13
 44
0.0
173
     0
291
     1
 45
0.0
1001
ACAD
1000
AcDbSavedByObjectVersion
1070
     0
  0
VISUALSTYLE
  5
12A7
102
{ACAD_REACTORS
330
12A3
102
}
330
12A3
100
AcDbVisualStyle
  2
GouraudWithEdges
 70
     3
 71
     2
 72
     2
 73
     1
 90
        2
 40
-0.6
 41
30.0
 62
     5
 63
     7
 74
     1
 91
        4
 64
     7
 65
   257
 75
     1
175
     1
 42
1.0
 92
        0
 66
   257
 43
1.0
 76
     1
 77
     6
 78
     2
 67
     7
 79
     5
170
     0
171
     0
290
     0
174
     0
 93
       13
 44
0.0
173
     0
291
     1
 45
0.0
1001
ACAD
1000
AcDbSavedByObjectVersion
1070
     0
  0
VISUALSTYLE
  5
12B1
102
{ACAD_REACTORS
330
12A3
102
}
330
12A3
100
AcDbVisualStyle
  2
Linepattern
 70
    14
 71
     2
 72
     2
 73
     0
 90
        0
 40
-0.6
 41
-30.0
 62
     5
 63
     7
 74
     1
 91
        4
 64
     7
 65
   257
 75
     7
175
     7
 42
1.0
 92
        8
 66
     7
 43
1.0
 76
     1
 77
     6
 78
     2
 67
     7
 79
     5
170
     0
171
     0
290
     0
174
     0
 93
        1
 44
0.0
173
     0
291
     1
 45
0.0
1001
ACAD
1000
AcDbSavedByObjectVersion
1070
     0
  0
VISUALSTYLE
  5
12AD
102
{ACAD_REACTORS
330
12A3
102
}
330
12A3
100
AcDbVisualStyle
  2
Realistic
 70
     8
 71
     2
 72
     2
 73
     0
 90
        0
 40
-0.6
 41
-30.0
 62
     5
 63
     7
 74
     1
 91
        0
 64
     7
 65
   257
 75
     1
175
     1
 42
1.0
 92
        8
 66
     8
 43
1.0
 76
     1
 77
     6
 78
     2
 67
     7
 79
     5
170
     0
171
     0
290
     0
174
     0
 93
       13
 44
0.0
173
     0
291
     0
 45
0.0
1001
ACAD
1000
AcDbSavedByObjectVersion
1070
     0
  0
VISUALSTYLE
  5
12B0
102
{ACAD_REACTORS
330
12A3
102
}
330
12A3
100
AcDbVisualStyle
  2
Thicken
 70
    13
 71
     2
 72
     2
 73
     0
 90
        0
 40
-0.6
 41
-30.0
 62
     5
 63
     7
 74
     1
 91
        4
 64
     7
 65
   257
 75
     1
175
     1
 42
1.0
 92
       12
 66
     7
 43
1.0
 76
     1
 77
     6
 78
     2
 67
     7
 79
     5
170
     0
171
     0
290
     0
174
     0
 93
        1
 44
0.0
173
     0
291
     1
 45
0.0
1001
ACAD
1000
AcDbSavedByObjectVersion
1070
     0
  0
DICTIONARYVAR
  5
1518
102
{ACAD_REACTORS
330
1515
102
}
330
1515
100
DictionaryVariables
280
     0
  1
1:1
  0
DICTIONARYVAR
  5
1517
102
{ACAD_REACTORS
330
1515
102
}
330
1515
100
DictionaryVariables
280
     0
  1
STANDARD
  0
DICTIONARYVAR
  5
1516
102
{ACAD_REACTORS
330
1515
102
}
330
1515
100
DictionaryVariables
280
     0
  1
STANDARD
  0
DICTIONARYVAR
  5
151B
102
{ACAD_REACTORS
330
1515
102
}
330
1515
100
DictionaryVariables
280
     0
  1
1
  0
DICTIONARYVAR
  5
151A
102
{ACAD_REACTORS
330
1515
102
}
330
1515
100
DictionaryVariables
280
     0
  1
0
  0
DICTIONARYVAR
  5
1519
102
{ACAD_REACTORS
330
1515
102
}
330
1515
100
DictionaryVariables
280
     0
  1
127
  0
DICTIONARY
  5
153A
330
E96
100
AcDbDictionary
280
     1
281
     1
  3
ACAD_XREC_ROUNDTRIP
360
153B
  0
DICTIONARY
  5
1538
330
E95
100
AcDbDictionary
280
     1
281
     1
  3
ACAD_XREC_ROUNDTRIP
360
1539
  0
DICTIONARY
  5
1294
330
1293
100
AcDbDictionary
280
     1
281
     1
  3
ACAD_XREC_ROUNDTRIP
360
153D
  3
BUMPTILE
360
1296
  3
DIFFUSETILE
360
1295
  3
OPACITYTILE
360
1299
  3
REFLECTIONTILE
360
1298
  3
REFRACTIONTILE
360
129A
  3
SPECULARTILE
360
1297
  0
DICTIONARY
  5
128C
330
128B
100
AcDbDictionary
280
     1
281
     1
  3
ACAD_XREC_ROUNDTRIP
360
153C
  3
BUMPTILE
360
128E
  3
DIFFUSETILE
360
128D
  3
OPACITYTILE
360
1291
  3
REFLECTIONTILE
360
1290
  3
REFRACTIONTILE
360
1292
  3
SPECULARTILE
360
128F
  0
DICTIONARY
  5
129C
330
129B
100
AcDbDictionary
280
     1
281
     1
  3
ACAD_XREC_ROUNDTRIP
360
153E
  3
BUMPTILE
360
129E
  3
DIFFUSETILE
360
129D
  3
OPACITYTILE
360
12A1
  3
REFLECTIONTILE
360
12A0
  3
REFRACTIONTILE
360
12A2
  3
SPECULARTILE
360
129F
  0
DICTIONARY
  5
1534
330
12B6
100
AcDbDictionary
280
     1
281
     1
  3
ACAD_ROUNDTRIP_2008_TABLESTYLE_CELLSTYLEMAP
360
1535
  3
ACAD_XREC_ROUNDTRIP
360
153F
  0
XRECORD
  5
153B
102
{ACAD_REACTORS
330
153A
102
}
330
153A
100
AcDbXrecord
280
     1
102
SHADEPLOT
 70
     0
102
SHADEPLOTRESLEVEL
 70
     2
102
SHADEPLOTCUSTOMDPI
 70
   300
  0
XRECORD
  5
1539
102
{ACAD_REACTORS
330
1538
102
}
330
1538
100
AcDbXrecord
280
     1
102
SHADEPLOT
 70
     0
102
SHADEPLOTRESLEVEL
 70
     2
102
SHADEPLOTCUSTOMDPI
 70
   300
  0
XRECORD
  5
153D
102
{ACAD_REACTORS
330
1294
102
}
330
1294
100
AcDbXrecord
280
     1
102
MATERIAL
148
0.0
149
0.0
149
0.0
 93
        0
 94
      127
282
     0
 72
     0
 77
     0
171
     0
175
     0
179
     0
273
     0
  0
XRECORD
  5
1296
102
{ACAD_REACTORS
330
1294
102
}
330
1294
100
AcDbXrecord
280
     1
270
     1
271
     1
  0
XRECORD
  5
1295
102
{ACAD_REACTORS
330
1294
102
}
330
1294
100
AcDbXrecord
280
     1
270
     1
271
     1
  0
XRECORD
  5
1299
102
{ACAD_REACTORS
330
1294
102
}
330
1294
100
AcDbXrecord
280
     1
270
     1
271
     1
  0
XRECORD
  5
1298
102
{ACAD_REACTORS
330
1294
102
}
330
1294
100
AcDbXrecord
280
     1
270
     1
271
     1
  0
XRECORD
  5
129A
102
{ACAD_REACTORS
330
1294
102
}
330
1294
100
AcDbXrecord
280
     1
270
     1
271
     1
  0
XRECORD
  5
1297
102
{ACAD_REACTORS
330
1294
102
}
330
1294
100
AcDbXrecord
280
     1
270
     1
271
     1
  0
XRECORD
  5
153C
102
{ACAD_REACTORS
330
128C
102
}
330
128C
100
AcDbXrecord
280
     1
102
MATERIAL
148
0.0
149
0.0
149
0.0
 93
        0
 94
      127
282
     0
 72
     0
 77
     0
171
     0
175
     0
179
     0
273
     0
  0
XRECORD
  5
128E
102
{ACAD_REACTORS
330
128C
102
}
330
128C
100
AcDbXrecord
280
     1
270
     1
271
     1
  0
XRECORD
  5
128D
102
{ACAD_REACTORS
330
128C
102
}
330
128C
100
AcDbXrecord
280
     1
270
     1
271
     1
  0
XRECORD
  5
1291
102
{ACAD_REACTORS
330
128C
102
}
330
128C
100
AcDbXrecord
280
     1
270
     1
271
     1
  0
XRECORD
  5
1290
102
{ACAD_REACTORS
330
128C
102
}
330
128C
100
AcDbXrecord
280
     1
270
     1
271
     1
  0
XRECORD
  5
1292
102
{ACAD_REACTORS
330
128C
102
}
330
128C
100
AcDbXrecord
280
     1
270
     1
271
     1
  0
XRECORD
  5
128F
102
{ACAD_REACTORS
330
128C
102
}
330
128C
100
AcDbXrecord
280
     1
270
     1
271
     1
  0
XRECORD
  5
153E
102
{ACAD_REACTORS
330
129C
102
}
330
129C
100
AcDbXrecord
280
     1
102
MATERIAL
148
0.0
149
0.0
149
0.0
 93
        0
 94
      127
282
     0
 72
     0
 77
     0
171
     0
175
     0
179
     0
273
     0
  0
XRECORD
  5
129E
102
{ACAD_REACTORS
330
129C
102
}
330
129C
100
AcDbXrecord
280
     1
270
     1
271
     1
  0
XRECORD
  5
129D
102
{ACAD_REACTORS
330
129C
102
}
330
129C
100
AcDbXrecord
280
     1
270
     1
271
     1
  0
XRECORD
  5
12A1
102
{ACAD_REACTORS
330
129C
102
}
330
129C
100
AcDbXrecord
280
     1
270
     1
271
     1
  0
XRECORD
  5
12A0
102
{ACAD_REACTORS
330
129C
102
}
330
129C
100
AcDbXrecord
280
     1
270
     1
271
     1
  0
XRECORD
  5
12A2
102
{ACAD_REACTORS
330
129C
102
}
330
129C
100
AcDbXrecord
280
     1
270
     1
271
     1
  0
XRECORD
  5
129F
102
{ACAD_REACTORS
330
129C
102
}
330
129C
100
AcDbXrecord
280
     1
270
     1
271
     1
  0
CELLSTYLEMAP
  5
1535
102
{ACAD_REACTORS
330
1534
102
}
330
1534
100
AcDbCellStyleMap
 90
        3
300
CELLSTYLE
  1
TABLEFORMAT_BEGIN
 90
        5
170
     1
 91
        0
 92
    32768
 62
   257
 93
        1
300
CONTENTFORMAT
  1
CONTENTFORMAT_BEGIN
 90
        0
 91
        0
 92
      512
 93
        0
300

 40
0.0
140
1.0
 94
        5
 62
     0
340
10
144
6.0
309
CONTENTFORMAT_END
171
     1
301
MARGIN
  1
CELLMARGIN_BEGIN
 40
1.5
 40
1.5
 40
1.5
 40
1.5
 40
4.5
 40
4.5
309
CELLMARGIN_END
 94
        6
 95
        1
302
GRIDFORMAT
  1
GRIDFORMAT_BEGIN
 90
        0
 91
        1
 62
     0
 92
       -2
340
0
 93
        0
 40
1.125
309
GRIDFORMAT_END
 95
        2
302
GRIDFORMAT
  1
GRIDFORMAT_BEGIN
 90
        0
 91
        1
 62
     0
 92
       -2
340
0
 93
        0
 40
1.125
309
GRIDFORMAT_END
 95
        4
302
GRIDFORMAT
  1
GRIDFORMAT_BEGIN
 90
        0
 91
        1
 62
     0
 92
       -2
340
0
 93
        0
 40
1.125
309
GRIDFORMAT_END
 95
        8
302
GRIDFORMAT
  1
GRIDFORMAT_BEGIN
 90
        0
 91
        1
 62
     0
 92
       -2
340
0
 93
        0
 40
1.125
309
GRIDFORMAT_END
 95
       16
302
GRIDFORMAT
  1
GRIDFORMAT_BEGIN
 90
        0
 91
        1
 62
     0
 92
       -2
340
0
 93
        0
 40
1.125
309
GRIDFORMAT_END
 95
       32
302
GRIDFORMAT
  1
GRIDFORMAT_BEGIN
 90
        0
 91
        1
 62
     0
 92
       -2
340
0
 93
        0
 40
1.125
309
GRIDFORMAT_END
309
TABLEFORMAT_END
  1
CELLSTYLE_BEGIN
 90
        1
 91
        1
300
_TITLE
309
CELLSTYLE_END
300
CELLSTYLE
  1
TABLEFORMAT_BEGIN
 90
        5
170
     1
 91
        0
 92
        0
 62
   257
 93
        1
300
CONTENTFORMAT
  1
CONTENTFORMAT_BEGIN
 90
        0
 91
        0
 92
      512
 93
        0
300

 40
0.0
140
1.0
 94
        5
 62
     0
340
10
144
4.5
309
CONTENTFORMAT_END
171
     1
301
MARGIN
  1
CELLMARGIN_BEGIN
 40
1.5
 40
1.5
 40
1.5
 40
1.5
 40
4.5
 40
4.5
309
CELLMARGIN_END
 94
        6
 95
        1
302
GRIDFORMAT
  1
GRIDFORMAT_BEGIN
 90
        0
 91
        1
 62
     0
 92
       -2
340
0
 93
        0
 40
1.125
309
GRIDFORMAT_END
 95
        2
302
GRIDFORMAT
  1
GRIDFORMAT_BEGIN
 90
        0
 91
        1
 62
     0
 92
       -2
340
0
 93
        0
 40
1.125
309
GRIDFORMAT_END
 95
        4
302
GRIDFORMAT
  1
GRIDFORMAT_BEGIN
 90
        0
 91
        1
 62
     0
 92
       -2
340
0
 93
        0
 40
1.125
309
GRIDFORMAT_END
 95
        8
302
GRIDFORMAT
  1
GRIDFORMAT_BEGIN
 90
        0
 91
        1
 62
     0
 92
       -2
340
0
 93
        0
 40
1.125
309
GRIDFORMAT_END
 95
       16
302
GRIDFORMAT
  1
GRIDFORMAT_BEGIN
 90
        0
 91
        1
 62
     0
 92
       -2
340
0
 93
        0
 40
1.125
309
GRIDFORMAT_END
 95
       32
302
GRIDFORMAT
  1
GRIDFORMAT_BEGIN
 90
        0
 91
        1
 62
     0
 92
       -2
340
0
 93
        0
 40
1.125
309
GRIDFORMAT_END
309
TABLEFORMAT_END
  1
CELLSTYLE_BEGIN
 90
        2
 91
        1
300
_HEADER
309
CELLSTYLE_END
300
CELLSTYLE
  1
TABLEFORMAT_BEGIN
 90
        5
170
     1
 91
        0
 92
        0
 62
   257
 93
        1
300
CONTENTFORMAT
  1
CONTENTFORMAT_BEGIN
 90
        0
 91
        0
 92
      512
 93
        0
300

 40
0.0
140
1.0
 94
        2
 62
     0
340
10
144
4.5
309
CONTENTFORMAT_END
171
     1
301
MARGIN
  1
CELLMARGIN_BEGIN
 40
1.5
 40
1.5
 40
1.5
 40
1.5
 40
4.5
 40
4.5
309
CELLMARGIN_END
 94
        6
 95
        1
302
GRIDFORMAT
  1
GRIDFORMAT_BEGIN
 90
        0
 91
        1
 62
     0
 92
       -2
340
0
 93
        0
 40
1.125
309
GRIDFORMAT_END
 95
        2
302
GRIDFORMAT
  1
GRIDFORMAT_BEGIN
 90
        0
 91
        1
 62
     0
 92
       -2
340
0
 93
        0
 40
1.125
309
GRIDFORMAT_END
 95
        4
302
GRIDFORMAT
  1
GRIDFORMAT_BEGIN
 90
        0
 91
        1
 62
     0
 92
       -2
340
0
 93
        0
 40
1.125
309
GRIDFORMAT_END
 95
        8
302
GRIDFORMAT
  1
GRIDFORMAT_BEGIN
 90
        0
 91
        1
 62
     0
 92
       -2
340
0
 93
        0
 40
1.125
309
GRIDFORMAT_END
 95
       16
302
GRIDFORMAT
  1
GRIDFORMAT_BEGIN
 90
        0
 91
        1
 62
     0
 92
       -2
340
0
 93
        0
 40
1.125
309
GRIDFORMAT_END
 95
       32
302
GRIDFORMAT
  1
GRIDFORMAT_BEGIN
 90
        0
 91
        1
 62
     0
 92
       -2
340
0
 93
        0
 40
1.125
309
GRIDFORMAT_END
309
TABLEFORMAT_END
  1
CELLSTYLE_BEGIN
 90
        3
 91
        2
300
_DATA
309
CELLSTYLE_END
  0
XRECORD
  5
153F
102
{ACAD_REACTORS
330
1534
102
}
330
1534
100
AcDbXrecord
280
     1
102
ACAD_ROUNDTRIP_PRE2007_TABLESTYLE
 90
      512
 91
        0
  1

 92
      512
 93
        0
  2

 94
      512
 95
        0
  3

  0
ENDSEC
  0
EOF
