  0
SECTION
  2
HEADER
  9
$ACADVER
  1
AC1015
  9
$ACADMAINTVER
 70
    20
  9
$DWGCODEPAGE
  3
ANSI_1252
  9
$INSBASE
 10
0.0
 20
0.0
 30
0.0
  9
$EXTMIN
 10
232.3663342562113
 20
40.16587903416473
 30
-0.0000000000000058
  9
$EXTMAX
 10
350.414429607818
 20
132.3439183465018
 30
0.0000000000000104
  9
$LIMMIN
 10
0.0
 20
0.0
  9
$LIMMAX
 10
420.0
 20
297.0
  9
$ORTHOMODE
 70
     0
  9
$REGENMODE
 70
     1
  9
$FILLMODE
 70
     1
  9
$QTEXTMODE
 70
     0
  9
$MIRRTEXT
 70
     0
  9
$LTSCALE
 40
1.0
  9
$ATTMODE
 70
     1
  9
$TEXTSIZE
 40
2.5
  9
$TRACEWID
 40
1.0
  9
$TEXTSTYLE
  7
Standard
  9
$CLAYER
  8
5
  9
$CELTYPE
  6
ByLayer
  9
$CECOLOR
 62
   256
  9
$CELTSCALE
 40
1.0
  9
$DISPSILH
 70
     0
  9
$DIMSCALE
 40
1.0
  9
$DIMASZ
 40
3.5
  9
$DIMEXO
 40
1.5
  9
$DIMDLI
 40
3.75
  9
$DIMRND
 40
0.0
  9
$DIMDLE
 40
0.0
  9
$DIMEXE
 40
1.25
  9
$DIMTP
 40
0.0
  9
$DIMTM
 40
0.0
  9
$DIMTXT
 40
3.5
  9
$DIMCEN
 40
1.5
  9
$DIMTSZ
 40
0.0
  9
$DIMTOL
 70
     0
  9
$DIMLIM
 70
     0
  9
$DIMTIH
 70
     0
  9
$DIMTOH
 70
     0
  9
$DIMSE1
 70
     0
  9
$DIMSE2
 70
     0
  9
$DIMTAD
 70
     1
  9
$DIMZIN
 70
     8
  9
$DIMBLK
  1

  9
$DIMASO
 70
     1
  9
$DIMSHO
 70
     1
  9
$DIMPOST
  1

  9
$DIMAPOST
  1

  9
$DIMALT
 70
     0
  9
$DIMALTD
 70
     3
  9
$DIMALTF
 40
0.03937007874016
  9
$DIMLFAC
 40
1.0
  9
$DIMTOFL
 70
     1
  9
$DIMTVP
 40
0.0
  9
$DIMTIX
 70
     0
  9
$DIMSOXD
 70
     0
  9
$DIMSAH
 70
     0
  9
$DIMBLK1
  1

  9
$DIMBLK2
  1

  9
$DIMSTYLE
  2
WINTOOL
  9
$DIMCLRD
 70
     0
  9
$DIMCLRE
 70
     0
  9
$DIMCLRT
 70
     0
  9
$DIMTFAC
 40
1.0
  9
$DIMGAP
 40
1.0
  9
$DIMJUST
 70
     0
  9
$DIMSD1
 70
     0
  9
$DIMSD2
 70
     0
  9
$DIMTOLJ
 70
     0
  9
$DIMTZIN
 70
     8
  9
$DIMALTZ
 70
     0
  9
$DIMALTTZ
 70
     0
  9
$DIMUPT
 70
     0
  9
$DIMDEC
 70
     2
  9
$DIMTDEC
 70
     2
  9
$DIMALTU
 70
     2
  9
$DIMALTTD
 70
     3
  9
$DIMTXSTY
  7
Standard
  9
$DIMAUNIT
 70
     0
  9
$DIMADEC
 70
     0
  9
$DIMALTRND
 40
0.0
  9
$DIMAZIN
 70
     0
  9
$DIMDSEP
 70
    46
  9
$DIMATFIT
 70
     3
  9
$DIMFRAC
 70
     0
  9
$DIMLDRBLK
  1
Dot
  9
$DIMLUNIT
 70
     2
  9
$DIMLWD
 70
    -2
  9
$DIMLWE
 70
    -2
  9
$DIMTMOVE
 70
     0
  9
$LUNITS
 70
     2
  9
$LUPREC
 70
     4
  9
$SKETCHINC
 40
1.0
  9
$FILLETRAD
 40
5.0
  9
$AUNITS
 70
     0
  9
$AUPREC
 70
     0
  9
$MENU
  1
.
  9
$ELEVATION
 40
0.0
  9
$PELEVATION
 40
0.0
  9
$THICKNESS
 40
0.0
  9
$LIMCHECK
 70
     0
  9
$CHAMFERA
 40
0.5
  9
$CHAMFERB
 40
0.5
  9
$CHAMFERC
 40
0.0
  9
$CHAMFERD
 40
0.0
  9
$SKPOLY
 70
     0
  9
$TDCREATE
 40
2454172.670813739
  9
$TDUCREATE
 40
2454172.629147072
  9
$TDUPDATE
 40
2455132.409178415
  9
$TDUUPDATE
 40
2455132.367511748
  9
$TDINDWG
 40
0.0428900579
  9
$TDUSRTIMER
 40
0.0428735532
  9
$USRTIMER
 70
     1
  9
$ANGBASE
 50
0.0
  9
$ANGDIR
 70
     0
  9
$PDMODE
 70
     0
  9
$PDSIZE
 40
0.0
  9
$PLINEWID
 40
0.0
  9
$SPLFRAME
 70
     0
  9
$SPLINETYPE
 70
     6
  9
$SPLINESEGS
 70
     8
  9
$HANDSEED
  5
5F40
  9
$SURFTAB1
 70
     6
  9
$SURFTAB2
 70
     6
  9
$SURFTYPE
 70
     6
  9
$SURFU
 70
     6
  9
$SURFV
 70
     6
  9
$UCSBASE
  2

  9
$UCSNAME
  2

  9
$UCSORG
 10
265.5330058186107
 20
81.42421556451427
 30
0.0
  9
$UCSXDIR
 10
1.0
 20
0.0
 30
0.0
  9
$UCSYDIR
 10
0.0
 20
1.0
 30
0.0
  9
$UCSORTHOREF
  2

  9
$UCSORTHOVIEW
 70
     0
  9
$UCSORGTOP
 10
0.0
 20
0.0
 30
0.0
  9
$UCSORGBOTTOM
 10
0.0
 20
0.0
 30
0.0
  9
$UCSORGLEFT
 10
0.0
 20
0.0
 30
0.0
  9
$UCSORGRIGHT
 10
0.0
 20
0.0
 30
0.0
  9
$UCSORGFRONT
 10
0.0
 20
0.0
 30
0.0
  9
$UCSORGBACK
 10
0.0
 20
0.0
 30
0.0
  9
$PUCSBASE
  2

  9
$PUCSNAME
  2

  9
$PUCSORG
 10
0.0
 20
0.0
 30
0.0
  9
$PUCSXDIR
 10
1.0
 20
0.0
 30
0.0
  9
$PUCSYDIR
 10
0.0
 20
1.0
 30
0.0
  9
$PUCSORTHOREF
  2

  9
$PUCSORTHOVIEW
 70
     0
  9
$PUCSORGTOP
 10
0.0
 20
0.0
 30
0.0
  9
$PUCSORGBOTTOM
 10
0.0
 20
0.0
 30
0.0
  9
$PUCSORGLEFT
 10
0.0
 20
0.0
 30
0.0
  9
$PUCSORGRIGHT
 10
0.0
 20
0.0
 30
0.0
  9
$PUCSORGFRONT
 10
0.0
 20
0.0
 30
0.0
  9
$PUCSORGBACK
 10
0.0
 20
0.0
 30
0.0
  9
$USERI1
 70
     0
  9
$USERI2
 70
     0
  9
$USERI3
 70
     0
  9
$USERI4
 70
     0
  9
$USERI5
 70
     0
  9
$USERR1
 40
0.0
  9
$USERR2
 40
0.0
  9
$USERR3
 40
0.0
  9
$USERR4
 40
0.0
  9
$USERR5
 40
0.0
  9
$WORLDVIEW
 70
     1
  9
$SHADEDGE
 70
     3
  9
$SHADEDIF
 70
    70
  9
$TILEMODE
 70
     1
  9
$MAXACTVP
 70
    64
  9
$PINSBASE
 10
0.0
 20
0.0
 30
0.0
  9
$PLIMCHECK
 70
     0
  9
$PEXTMIN
 10
28.55595059394835
 20
19.94958353042602
 30
0.0
  9
$PEXTMAX
 10
257.0035553455353
 20
179.5462517738342
 30
0.0
  9
$PLIMMIN
 10
-5.365753173828125
 20
-5.027083396911621
  9
$PLIMMAX
 10
291.687255859375
 20
204.8615732192993
  9
$UNITMODE
 70
     0
  9
$VISRETAIN
 70
     1
  9
$PLINEGEN
 70
     0
  9
$PSLTSCALE
 70
     1
  9
$TREEDEPTH
 70
  3020
  9
$CMLSTYLE
  2
Standard
  9
$CMLJUST
 70
     0
  9
$CMLSCALE
 40
20.0
  9
$PROXYGRAPHICS
 70
     1
  9
$MEASUREMENT
 70
     1
  9
$CELWEIGHT
370
    -1
  9
$ENDCAPS
280
     0
  9
$JOINSTYLE
280
     0
  9
$LWDISPLAY
290
     0
  9
$INSUNITS
 70
     4
  9
$HYPERLINKBASE
  1

  9
$STYLESHEET
  1

  9
$XEDIT
290
     1
  9
$CEPSNTYPE
380
     0
  9
$PSTYLEMODE
290
     1
  9
$FINGERPRINTGUID
  2
{F6BC63F2-1A10-43DC-BBD5-5FAB653EFC06}
  9
$VERSIONGUID
  2
{35E904C1-D45D-454F-B49B-E2641D39618B}
  9
$EXTNAMES
290
     1
  9
$PSVPSCALE
 40
0.0
  9
$OLESTARTUP
290
     0
  0
ENDSEC
  0
SECTION
  2
CLASSES
  0
CLASS
  1
ACDBDICTIONARYWDFLT
  2
AcDbDictionaryWithDefault
  3
ObjectDBX Classes
 90
        0
280
     0
281
     0
  0
CLASS
  1
DICTIONARYVAR
  2
AcDbDictionaryVar
  3
ObjectDBX Classes
 90
        0
280
     0
281
     0
  0
CLASS
  1
TABLESTYLE
  2
AcDbTableStyle
  3
ObjectDBX Classes
 90
     4095
280
     0
281
     0
  0
CLASS
  1
SORTENTSTABLE
  2
AcDbSortentsTable
  3
ObjectDBX Classes
 90
        0
280
     0
281
     0
  0
CLASS
  1
DIMASSOC
  2
AcDbDimAssoc
  3
"AcDbDimAssoc|Product Desc:     AcDim ARX App For Dimension|Company:          Autodesk, Inc.|WEB Address:      www.autodesk.com"
 90
        0
280
     0
281
     0
  0
CLASS
  1
PLOTSETTINGS
  2
AcDbPlotSettings
  3
ObjectDBX Classes
 90
    32768
280
     0
281
     0
  0
CLASS
  1
ACDBPLACEHOLDER
  2
AcDbPlaceHolder
  3
ObjectDBX Classes
 90
        0
280
     0
281
     0
  0
CLASS
  1
LAYOUT
  2
AcDbLayout
  3
ObjectDBX Classes
 90
        0
280
     0
281
     0
  0
CLASS
  1
MATERIAL
  2
AcDbMaterial
  3
ObjectDBX Classes
 90
     1153
280
     0
281
     0
  0
CLASS
  1
VISUALSTYLE
  2
AcDbVisualStyle
  3
ObjectDBX Classes
 90
     4095
280
     0
281
     0
  0
CLASS
  1
SCALE
  2
AcDbScale
  3
ObjectDBX Classes
 90
     1153
280
     0
281
     0
  0
CLASS
  1
MLEADERSTYLE
  2
AcDbMLeaderStyle
  3
ACDB_MLEADERSTYLE_CLASS
 90
     4095
280
     0
281
     0
  0
CLASS
  1
CELLSTYLEMAP
  2
AcDbCellStyleMap
  3
ObjectDBX Classes
 90
     1152
280
     0
281
     0
  0
ENDSEC
  0
SECTION
  2
TABLES
  0
TABLE
  2
VPORT
  5
8
330
0
100
AcDbSymbolTable
 70
     1
  0
VPORT
  5
5E62
330
8
100
AcDbSymbolTableRecord
100
AcDbViewportTableRecord
  2
*Active
 70
     0
 10
0.0
 20
0.0
 11
1.0
 21
1.0
 12
291.3903819320146
 22
86.25489869033328
 13
0.0
 23
0.0
 14
10.0
 24
10.0
 15
10.0
 25
10.0
 16
0.0
 26
0.0
 36
1.0
 17
0.0
 27
0.0
 37
0.0
 40
94.8057255641951
 41
1.597350993377483
 42
50.0
 43
0.0
 44
0.0
 50
0.0
 51
0.0
 71
     0
 72
  1000
 73
     1
 74
     3
 75
     0
 76
     0
 77
     0
 78
     0
281
     0
 65
     1
110
265.5330058186107
120
81.42421556451427
130
0.0
111
1.0
121
0.0
131
0.0
112
0.0
122
1.0
132
0.0
 79
     0
146
0.0
  0
ENDTAB
  0
TABLE
  2
LTYPE
  5
5
330
0
100
AcDbSymbolTable
 70
     6
  0
LTYPE
  5
14
330
5
100
AcDbSymbolTableRecord
100
AcDbLinetypeTableRecord
  2
ByBlock
 70
     0
  3

 72
    65
 73
     0
 40
0.0
  0
LTYPE
  5
15
330
5
100
AcDbSymbolTableRecord
100
AcDbLinetypeTableRecord
  2
ByLayer
 70
     0
  3

 72
    65
 73
     0
 40
0.0
  0
LTYPE
  5
16
330
5
100
AcDbSymbolTableRecord
100
AcDbLinetypeTableRecord
  2
Continuous
 70
     0
  3
Solid line
 72
    65
 73
     0
 40
0.0
  0
LTYPE
  5
130
330
5
100
AcDbSymbolTableRecord
100
AcDbLinetypeTableRecord
  2
CENTER
 70
     0
  3
Center line
 72
    65
 73
     4
 40
2.0
 49
1.25
 74
     0
 49
-0.25
 74
     0
 49
0.25
 74
     0
 49
-0.25
 74
     0
  0
LTYPE
  5
1E40
330
5
100
AcDbSymbolTableRecord
100
AcDbLinetypeTableRecord
  2
CACHE2
 70
     0
  3
Caché (x.5) _ _ _ _ _ _ _ _ _ _ _ _ _ _ _ _ _
 72
    65
 73
     2
 40
4.762499999999998
 49
3.174999999999998
 74
     0
 49
-1.587499999999999
 74
     0
  0
LTYPE
  5
1E41
330
5
100
AcDbSymbolTableRecord
100
AcDbLinetypeTableRecord
  2
AXES2
 70
     0
  3
Centre (x.5) ___ _ ___ _ ___ _ ___ _ ___ _ ___
 72
    65
 73
     4
 40
28.575
 49
19.05
 74
     0
 49
-3.174999999999998
 74
     0
 49
3.174999999999998
 74
     0
 49
-3.174999999999998
 74
     0
  0
LTYPE
  5
3781
330
5
100
AcDbSymbolTableRecord
100
AcDbLinetypeTableRecord
  2
DASHDOT
 70
     0
  3

 72
    65
 73
     4
 40
2.54
 49
1.27
 74
     0
 49
-0.635
 74
     0
 49
0.0
 74
     0
 49
-0.635
 74
     0
  0
LTYPE
  5
3782
330
5
100
AcDbSymbolTableRecord
100
AcDbLinetypeTableRecord
  2
DASHED
 70
     0
  3

 72
    65
 73
     2
 40
1.905
 49
1.27
 74
     0
 49
-0.635
 74
     0
  0
ENDTAB
  0
TABLE
  2
LAYER
  5
2
102
{ACAD_XDICTIONARY
360
1E47
102
}
330
0
100
AcDbSymbolTable
 70
    21
  0
LAYER
  5
10
102
{ACAD_XDICTIONARY
360
5F02
102
}
330
2
100
AcDbSymbolTableRecord
100
AcDbLayerTableRecord
  2
0
 70
     0
 62
     7
  6
Continuous
370
    -3
390
F
  0
LAYER
  5
131
330
2
100
AcDbSymbolTableRecord
100
AcDbLayerTableRecord
  2
DEFPOINTS
 70
     0
 62
    -7
  6
Continuous
290
     0
370
    -3
390
F
  0
LAYER
  5
1E42
102
{ACAD_XDICTIONARY
360
5F04
102
}
330
2
100
AcDbSymbolTableRecord
100
AcDbLayerTableRecord
  2
2
 70
     0
 62
   150
  6
Continuous
370
    -3
390
F
1001
AcAecLayerStandard
1000

1000

  0
LAYER
  5
1E43
102
{ACAD_XDICTIONARY
360
5F06
102
}
330
2
100
AcDbSymbolTableRecord
100
AcDbLayerTableRecord
  2
1
 70
     0
 62
   250
  6
Continuous
370
    -3
390
F
1001
AcAecLayerStandard
1000

1000

  0
LAYER
  5
1E44
102
{ACAD_XDICTIONARY
360
5F08
102
}
330
2
100
AcDbSymbolTableRecord
100
AcDbLayerTableRecord
  2
3
 70
     0
 62
   254
  6
CACHE2
370
    15
390
F
1001
AcAecLayerStandard
1000

1000

  0
LAYER
  5
3629
102
{ACAD_XDICTIONARY
360
5F0A
102
}
330
2
100
AcDbSymbolTableRecord
100
AcDbLayerTableRecord
  2
SK1
 70
     0
 62
   253
  6
Continuous
370
    -3
390
F
  0
LAYER
  5
362A
102
{ACAD_XDICTIONARY
360
5F0C
102
}
330
2
100
AcDbSymbolTableRecord
100
AcDbLayerTableRecord
  2
SK3
 70
     0
 62
     9
  6
CACHE2
370
    -3
390
F
  0
LAYER
  5
3783
102
{ACAD_XDICTIONARY
360
5F0E
102
}
330
2
100
AcDbSymbolTableRecord
100
AcDbLayerTableRecord
  2
4
 70
     0
 62
     2
  6
AXES2
370
    -3
390
F
  0
LAYER
  5
3784
102
{ACAD_XDICTIONARY
360
5F10
102
}
330
2
100
AcDbSymbolTableRecord
100
AcDbLayerTableRecord
  2
3L
 70
     0
 62
     9
  6
DASHED
370
    -3
390
F
  0
LAYER
  5
3785
102
{ACAD_XDICTIONARY
360
5F12
102
}
330
2
100
AcDbSymbolTableRecord
100
AcDbLayerTableRecord
  2
6
 70
     0
 62
     5
  6
Continuous
370
    -3
390
F
  0
LAYER
  5
39C1
102
{ACAD_XDICTIONARY
360
5F14
102
}
330
2
100
AcDbSymbolTableRecord
100
AcDbLayerTableRecord
  2
SK4
 70
     0
 62
     2
  6
AXES2
370
    -3
390
F
  0
LAYER
  5
39C2
102
{ACAD_XDICTIONARY
360
5F16
102
}
330
2
100
AcDbSymbolTableRecord
100
AcDbLayerTableRecord
  2
SK2
 70
     0
 62
   160
  6
Continuous
370
    -3
390
F
  0
LAYER
  5
3B9E
102
{ACAD_XDICTIONARY
360
5F18
102
}
330
2
100
AcDbSymbolTableRecord
100
AcDbLayerTableRecord
  2
5
 70
     0
 62
   211
  6
Continuous
370
    -3
390
F
1001
AcAecLayerStandard
1000

1000

  0
LAYER
  5
3B9F
102
{ACAD_XDICTIONARY
360
5F1A
102
}
330
2
100
AcDbSymbolTableRecord
100
AcDbLayerTableRecord
  2
CUT
 70
     0
 62
     1
  6
Continuous
370
    -3
390
F
1001
AcAecLayerStandard
1000

1000

  0
LAYER
  5
3BA0
102
{ACAD_XDICTIONARY
360
5F1C
102
}
330
2
100
AcDbSymbolTableRecord
100
AcDbLayerTableRecord
  2
NOCUT
 70
     0
 62
     7
  6
Continuous
370
    -3
390
F
1001
AcAecLayerStandard
1000

1000

  0
LAYER
  5
3BA1
102
{ACAD_XDICTIONARY
360
5F1E
102
}
330
2
100
AcDbSymbolTableRecord
100
AcDbLayerTableRecord
  2
SK6
 70
     0
 62
     5
  6
Continuous
370
    -3
390
F
1001
AcAecLayerStandard
1000

1000

  0
LAYER
  5
3BA2
102
{ACAD_XDICTIONARY
360
5F20
102
}
330
2
100
AcDbSymbolTableRecord
100
AcDbLayerTableRecord
  2
1L
 70
     0
 62
   250
  6
Continuous
370
    -3
390
F
1001
AcAecLayerStandard
1000

1000

  0
LAYER
  5
3BA3
102
{ACAD_XDICTIONARY
360
5F22
102
}
330
2
100
AcDbSymbolTableRecord
100
AcDbLayerTableRecord
  2
2L
 70
     0
 62
     5
  6
Continuous
370
    -3
390
F
1001
AcAecLayerStandard
1000

1000

  0
LAYER
  5
3FEC
102
{ACAD_XDICTIONARY
360
5F24
102
}
330
2
100
AcDbSymbolTableRecord
100
AcDbLayerTableRecord
  2
- Default
 70
     0
 62
     3
  6
Continuous
370
    15
390
F
  0
LAYER
  5
5A7B
102
{ACAD_XDICTIONARY
360
5F26
102
}
330
2
100
AcDbSymbolTableRecord
100
AcDbLayerTableRecord
  2
11
 70
     0
 62
     7
  6
Continuous
370
    -3
390
F
  0
LAYER
  5
5A7C
102
{ACAD_XDICTIONARY
360
5F28
102
}
330
2
100
AcDbSymbolTableRecord
100
AcDbLayerTableRecord
  2
12
 70
     0
 62
     7
  6
Continuous
370
    -3
390
F
  0
ENDTAB
  0
TABLE
  2
STYLE
  5
3
330
0
100
AcDbSymbolTable
 70
     3
  0
STYLE
  5
11
330
3
100
AcDbSymbolTableRecord
100
AcDbTextStyleTableRecord
  2
Standard
 70
     0
 40
0.0
 41
1.0
 50
0.0
 71
     0
 42
2.5
  3
txt
  4

  0
STYLE
  5
500B
330
3
100
AcDbSymbolTableRecord
100
AcDbTextStyleTableRecord
  2
Roman
 70
     0
 40
0.0
 41
1.0
 50
0.0
 71
     0
 42
0.25
  3
romans
  4

  0
STYLE
  5
500C
330
3
100
AcDbSymbolTableRecord
100
AcDbTextStyleTableRecord
  2
ISO Proportional
 70
     0
 40
0.0
 41
1.0
 50
0.0
 71
     0
 42
2.5
  3
isocp.shx
  4

  0
ENDTAB
  0
TABLE
  2
VIEW
  5
6
330
0
100
AcDbSymbolTable
 70
     0
  0
ENDTAB
  0
TABLE
  2
UCS
  5
7
330
0
100
AcDbSymbolTable
 70
     0
  0
ENDTAB
  0
TABLE
  2
APPID
  5
9
330
0
100
AcDbSymbolTable
 70
    13
  0
APPID
  5
12
330
9
100
AcDbSymbolTableRecord
100
AcDbRegAppTableRecord
  2
ACAD
 70
     0
  0
APPID
  5
9E
330
9
100
AcDbSymbolTableRecord
100
AcDbRegAppTableRecord
  2
ACAD_PSEXT
 70
     0
  0
APPID
  5
298
330
9
100
AcDbSymbolTableRecord
100
AcDbRegAppTableRecord
  2
ACAD_DSTYLE_DIMTEXT_FILL
 70
     0
  0
APPID
  5
299
330
9
100
AcDbSymbolTableRecord
100
AcDbRegAppTableRecord
  2
ACAD_DSTYLE_DIMEXT_LENGTH
 70
     0
  0
APPID
  5
29A
330
9
100
AcDbSymbolTableRecord
100
AcDbRegAppTableRecord
  2
ACAD_DSTYLE_DIMEXT_ENABLED
 70
     0
  0
APPID
  5
29B
330
9
100
AcDbSymbolTableRecord
100
AcDbRegAppTableRecord
  2
ACAD_DSTYLE_DIM_LINETYPE
 70
     0
  0
APPID
  5
29C
330
9
100
AcDbSymbolTableRecord
100
AcDbRegAppTableRecord
  2
ACAD_DSTYLE_DIM_EXT1_LINETYPE
 70
     0
  0
APPID
  5
29D
330
9
100
AcDbSymbolTableRecord
100
AcDbRegAppTableRecord
  2
ACAD_DSTYLE_DIM_EXT2_LINETYPE
 70
     0
  0
APPID
  5
359
330
9
100
AcDbSymbolTableRecord
100
AcDbRegAppTableRecord
  2
ACAD_DSTYLE_DIMJOGGED_JOGANGLE_SYMBOL
 70
     0
  0
APPID
  5
4AD
330
9
100
AcDbSymbolTableRecord
100
AcDbRegAppTableRecord
  2
ACAD_DSTYLE_DIMARC_LENGTH_SYMBOL
 70
     0
  0
APPID
  5
1E46
330
9
100
AcDbSymbolTableRecord
100
AcDbRegAppTableRecord
  2
AcAecLayerStandard
 70
     0
  0
APPID
  5
360D
330
9
100
AcDbSymbolTableRecord
100
AcDbRegAppTableRecord
  2
ACAD_EXEMPT_FROM_CAD_STANDARDS
 70
     0
  0
APPID
  5
5EBF
330
9
100
AcDbSymbolTableRecord
100
AcDbRegAppTableRecord
  2
ACAD_MLEADERVER
 70
     0
  0
ENDTAB
  0
TABLE
  2
DIMSTYLE
  5
A
330
0
100
AcDbSymbolTable
 70
     4
100
AcDbDimStyleTable
 71
     2
340
4B2
340
27
  0
DIMSTYLE
105
27
330
A
100
AcDbSymbolTableRecord
100
AcDbDimStyleTableRecord
  2
ISO-25
 70
     0
 41
2.5
 42
0.625
 43
3.75
 44
1.25
 73
     0
 74
     0
 77
     1
 78
     8
140
2.5
141
2.5
143
0.03937007874016
147
0.625
171
     3
172
     1
271
     2
272
     2
274
     3
278
    44
283
     0
284
     8
340
11
  0
DIMSTYLE
105
13A
330
A
100
AcDbSymbolTableRecord
100
AcDbDimStyleTableRecord
  2
Standard
 70
     0
340
11
  0
DIMSTYLE
105
4B2
102
{ACAD_REACTORS
330
5B2C
330
5B2B
330
5B29
330
5B11
330
5CF6
330
5D56
330
5D6E
102
}
330
A
100
AcDbSymbolTableRecord
100
AcDbDimStyleTableRecord
  2
WINTOOL
 70
     0
 41
3.5
 42
1.5
 43
3.75
 44
1.25
 73
     0
 74
     0
 77
     1
 78
     8
140
3.5
141
1.5
143
0.03937007874016
147
1.0
171
     3
172
     1
271
     2
272
     2
274
     3
283
     0
284
     8
340
11
1001
ACAD_DSTYLE_DIMEXT_LENGTH
1070
   378
1040
1.25
1001
ACAD_DSTYLE_DIMJOGGED_JOGANGLE_SYMBOL
1070
   384
1040
1.570796326794896
  0
DIMSTYLE
105
4594
330
A
100
AcDbSymbolTableRecord
100
AcDbDimStyleTableRecord
  2
WINTOOL Old
 70
     0
 41
3.5
 42
1.5
 43
3.75
 44
1.25
 73
     0
 74
     0
 77
     1
 78
     8
140
3.5
141
1.5
143
0.03937007874016
147
1.0
171
     3
172
     1
271
     2
272
     2
274
     3
283
     0
284
     8
340
11
1001
ACAD_DSTYLE_DIMEXT_LENGTH
1070
   378
1040
1.25
1001
ACAD_DSTYLE_DIMJOGGED_JOGANGLE_SYMBOL
1070
   384
1040
1.570796326794896
  0
ENDTAB
  0
TABLE
  2
BLOCK_RECORD
  5
1
330
0
100
AcDbSymbolTable
 70
    16
  0
BLOCK_RECORD
  5
1F
102
{ACAD_XDICTIONARY
360
3615
102
}
330
1
100
AcDbSymbolTableRecord
100
AcDbBlockTableRecord
  2
*Model_Space
340
22
  0
BLOCK_RECORD
  5
59F3
330
1
100
AcDbSymbolTableRecord
100
AcDbBlockTableRecord
  2
*Paper_Space
340
59F4
  0
BLOCK_RECORD
  5
3FE7
330
1
100
AcDbSymbolTableRecord
100
AcDbBlockTableRecord
  2
_Dot
340
0
  0
BLOCK_RECORD
  5
5A2D
330
1
100
AcDbSymbolTableRecord
100
AcDbBlockTableRecord
  2
*D1
340
0
  0
BLOCK_RECORD
  5
5A3A
330
1
100
AcDbSymbolTableRecord
100
AcDbBlockTableRecord
  2
*D2
340
0
  0
BLOCK_RECORD
  5
5A47
330
1
100
AcDbSymbolTableRecord
100
AcDbBlockTableRecord
  2
*D3
340
0
  0
BLOCK_RECORD
  5
5A54
330
1
100
AcDbSymbolTableRecord
100
AcDbBlockTableRecord
  2
*D4
340
0
  0
BLOCK_RECORD
  5
5A61
330
1
100
AcDbSymbolTableRecord
100
AcDbBlockTableRecord
  2
*D5
340
0
  0
BLOCK_RECORD
  5
5A6E
330
1
100
AcDbSymbolTableRecord
100
AcDbBlockTableRecord
  2
*D6
340
0
  0
BLOCK_RECORD
  5
5B2D
330
1
100
AcDbSymbolTableRecord
100
AcDbBlockTableRecord
  2
*D7
340
0
  0
BLOCK_RECORD
  5
5B3A
330
1
100
AcDbSymbolTableRecord
100
AcDbBlockTableRecord
  2
*D8
340
0
  0
BLOCK_RECORD
  5
5B47
330
1
100
AcDbSymbolTableRecord
100
AcDbBlockTableRecord
  2
*D9
340
0
  0
BLOCK_RECORD
  5
5B54
330
1
100
AcDbSymbolTableRecord
100
AcDbBlockTableRecord
  2
*D10
340
0
  0
BLOCK_RECORD
  5
5B61
330
1
100
AcDbSymbolTableRecord
100
AcDbBlockTableRecord
  2
*D11
340
0
  0
BLOCK_RECORD
  5
5B6E
330
1
100
AcDbSymbolTableRecord
100
AcDbBlockTableRecord
  2
*D12
340
0
  0
BLOCK_RECORD
  5
5CF7
330
1
100
AcDbSymbolTableRecord
100
AcDbBlockTableRecord
  2
*D13
340
0
  0
BLOCK_RECORD
  5
5D57
330
1
100
AcDbSymbolTableRecord
100
AcDbBlockTableRecord
  2
*D14
340
0
  0
BLOCK_RECORD
  5
5D6F
330
1
100
AcDbSymbolTableRecord
100
AcDbBlockTableRecord
  2
*D15
340
0
  0
ENDTAB
  0
ENDSEC
  0
SECTION
  2
BLOCKS
  0
BLOCK
  5
20
330
1F
100
AcDbEntity
  8
0
100
AcDbBlockBegin
  2
*Model_Space
 70
     0
 10
0.0
 20
0.0
 30
0.0
  3
*Model_Space
  1

  0
ENDBLK
  5
21
330
1F
100
AcDbEntity
  8
0
100
AcDbBlockEnd
  0
BLOCK
  5
59F5
330
59F3
100
AcDbEntity
 67
     1
  8
0
100
AcDbBlockBegin
  2
*Paper_Space
 70
     0
 10
0.0
 20
0.0
 30
0.0
  3
*Paper_Space
  1

  0
ENDBLK
  5
59F6
330
59F3
100
AcDbEntity
 67
     1
  8
0
100
AcDbBlockEnd
  0
BLOCK
  5
3FE8
330
3FE7
100
AcDbEntity
  8
0
 48
0.5
100
AcDbBlockBegin
  2
_Dot
 70
     0
 10
0.0
 20
0.0
 30
0.0
  3
_Dot
  1

  0
LWPOLYLINE
  5
3FE9
330
3FE7
100
AcDbEntity
  8
0
  6
ByBlock
 62
     0
100
AcDbPolyline
 90
        2
 70
     1
 43
0.5
 10
-0.25
 20
0.0
 42
1.0
 10
0.25
 20
0.0
 42
1.0
  0
LINE
  5
3FEA
330
3FE7
100
AcDbEntity
  8
0
  6
ByBlock
 62
     0
370
    -2
100
AcDbLine
 10
-0.5
 20
0.0
 30
0.0
 11
-1.0
 21
0.0
 31
0.0
  0
ENDBLK
  5
3FEB
330
3FE7
100
AcDbEntity
  8
0
 48
0.5
100
AcDbBlockEnd
  0
BLOCK
  5
5A2E
330
5A2D
100
AcDbEntity
  8
0
100
AcDbBlockBegin
  2
*D1
 70
     1
 10
0.0
 20
0.0
 30
0.0
  3
*D1
  1

  0
LINE
  5
5A2F
330
5A2D
100
AcDbEntity
  8
2
 62
     1
100
AcDbLine
 10
-1.0
 20
16.0
 30
0.0
 11
-21.5459422130086
 21
16.0
 31
0.0
  0
LINE
  5
5A30
330
5A2D
100
AcDbEntity
  8
2
 62
     1
100
AcDbLine
 10
-1.0
 20
-16.0
 30
0.0
 11
-21.5459422130086
 21
-16.0
 31
0.0
  0
LINE
  5
5A31
330
5A2D
100
AcDbEntity
  8
2
 62
     1
100
AcDbLine
 10
-20.5459422130086
 20
16.0
 30
0.0
 11
-20.5459422130086
 21
-3.4305942906878
 31
0.0
  0
LINE
  5
5A32
330
5A2D
100
AcDbEntity
  8
2
 62
     1
100
AcDbLine
 10
-20.5459422130086
 20
-16.0
 30
0.0
 11
-20.5459422130086
 21
2.3694057093122
 31
0.0
  0
SOLID
  5
5A33
330
5A2D
100
AcDbEntity
  8
2
 62
     1
100
AcDbTrace
 10
-20.12927554634193
 20
13.5
 30
0.0
 11
-20.96260887967527
 21
13.5
 31
0.0
 12
-20.5459422130086
 22
16.0
 32
0.0
 13
-20.5459422130086
 23
16.0
 33
0.0
  0
SOLID
  5
5A34
330
5A2D
100
AcDbEntity
  8
2
 62
     1
100
AcDbTrace
 10
-20.96260887967527
 20
-13.5
 30
0.0
 11
-20.12927554634193
 21
-13.5
 31
0.0
 12
-20.5459422130086
 22
-16.0
 32
0.0
 13
-20.5459422130086
 23
-16.0
 33
0.0
  0
TEXT
  5
5A35
330
5A2D
100
AcDbEntity
  8
2
 62
     1
100
AcDbText
 10
-22.5459422130086
 20
-2.36940570931216
 30
0.0
 40
4.0
  1
32
 50
90.0
100
AcDbText
  0
POINT
  5
5A36
330
5A2D
100
AcDbEntity
  8
DEFPOINTS
100
AcDbPoint
 10
0.0
 20
16.0
 30
0.0
  0
POINT
  5
5A37
330
5A2D
100
AcDbEntity
  8
DEFPOINTS
100
AcDbPoint
 10
0.0
 20
-16.0
 30
0.0
  0
POINT
  5
5A38
330
5A2D
100
AcDbEntity
  8
DEFPOINTS
100
AcDbPoint
 10
-20.5459422130086
 20
16.0
 30
0.0
  0
ENDBLK
  5
5A39
330
5A2D
100
AcDbEntity
  8
0
100
AcDbBlockEnd
  0
BLOCK
  5
5A3B
330
5A3A
100
AcDbEntity
  8
0
100
AcDbBlockBegin
  2
*D2
 70
     1
 10
0.0
 20
0.0
 30
0.0
  3
*D2
  1

  0
LINE
  5
5A3C
330
5A3A
100
AcDbEntity
  8
2
 62
     1
100
AcDbLine
 10
47.0
 20
9.0
 30
0.0
 11
47.0
 21
27.4441536472887
 31
0.0
  0
LINE
  5
5A3D
330
5A3A
100
AcDbEntity
  8
2
 62
     1
100
AcDbLine
 10
30.0
 20
20.0
 30
0.0
 11
30.0
 21
27.44415364728866
 31
0.0
  0
LINE
  5
5A3E
330
5A3A
100
AcDbEntity
  8
2
 62
     1
100
AcDbLine
 10
47.0
 20
26.4441536472887
 30
0.0
 11
36.0374387462842
 21
26.44415364728867
 31
0.0
  0
LINE
  5
5A3F
330
5A3A
100
AcDbEntity
  8
2
 62
     1
100
AcDbLine
 10
30.0
 20
26.44415364728866
 30
0.0
 11
41.83743874628421
 21
26.44415364728869
 31
0.0
  0
SOLID
  5
5A40
330
5A3A
100
AcDbEntity
  8
2
 62
     1
100
AcDbTrace
 10
44.5
 20
26.02748698062203
 30
0.0
 11
44.5
 21
26.86082031395536
 31
0.0
 12
47.0
 22
26.4441536472887
 32
0.0
 13
47.0
 23
26.4441536472887
 33
0.0
  0
SOLID
  5
5A41
330
5A3A
100
AcDbEntity
  8
2
 62
     1
100
AcDbTrace
 10
32.5
 20
26.86082031395533
 30
0.0
 11
32.5
 21
26.027486980622
 31
0.0
 12
30.0
 22
26.44415364728866
 32
0.0
 13
30.0
 23
26.44415364728866
 33
0.0
  0
TEXT
  5
5A42
330
5A3A
100
AcDbEntity
  8
2
 62
     1
100
AcDbText
 10
36.0374387462842
 20
28.4441536472887
 30
0.0
 40
4.0
  1
17
100
AcDbText
  0
POINT
  5
5A43
330
5A3A
100
AcDbEntity
  8
DEFPOINTS
100
AcDbPoint
 10
47.0
 20
8.0
 30
0.0
  0
POINT
  5
5A44
330
5A3A
100
AcDbEntity
  8
DEFPOINTS
100
AcDbPoint
 10
30.0
 20
19.0
 30
0.0
  0
POINT
  5
5A45
330
5A3A
100
AcDbEntity
  8
DEFPOINTS
100
AcDbPoint
 10
47.0
 20
26.4441536472887
 30
0.0
  0
ENDBLK
  5
5A46
330
5A3A
100
AcDbEntity
  8
0
100
AcDbBlockEnd
  0
BLOCK
  5
5A48
330
5A47
100
AcDbEntity
  8
0
100
AcDbBlockBegin
  2
*D3
 70
     1
 10
0.0
 20
0.0
 30
0.0
  3
*D3
  1

  0
LINE
  5
5A49
330
5A47
100
AcDbEntity
  8
2
 62
     1
100
AcDbLine
 10
30.0
 20
20.0
 30
0.0
 11
30.0
 21
27.89582447603698
 31
0.0
  0
LINE
  5
5A4A
330
5A47
100
AcDbEntity
  8
2
 62
     1
100
AcDbLine
 10
0.0
 20
17.0
 30
0.0
 11
0.0
 21
27.895824476037
 31
0.0
  0
LINE
  5
5A4B
330
5A47
100
AcDbEntity
  8
2
 62
     1
100
AcDbLine
 10
30.0
 20
26.89582447603698
 30
0.0
 11
15.3358590953186
 21
26.89582447603699
 31
0.0
  0
LINE
  5
5A4C
330
5A47
100
AcDbEntity
  8
2
 62
     1
100
AcDbLine
 10
0.0
 20
26.895824476037
 30
0.0
 11
21.1358590953186
 21
26.89582447603699
 31
0.0
  0
SOLID
  5
5A4D
330
5A47
100
AcDbEntity
  8
2
 62
     1
100
AcDbTrace
 10
27.5
 20
26.47915780937031
 30
0.0
 11
27.5
 21
27.31249114270365
 31
0.0
 12
30.0
 22
26.89582447603698
 32
0.0
 13
30.0
 23
26.89582447603698
 33
0.0
  0
SOLID
  5
5A4E
330
5A47
100
AcDbEntity
  8
2
 62
     1
100
AcDbTrace
 10
2.5
 20
27.31249114270367
 30
0.0
 11
2.5
 21
26.47915780937033
 31
0.0
 12
0.0
 22
26.895824476037
 32
0.0
 13
0.0
 23
26.895824476037
 33
0.0
  0
TEXT
  5
5A4F
330
5A47
100
AcDbEntity
  8
2
 62
     1
100
AcDbText
 10
15.3358590953186
 20
28.895824476037
 30
0.0
 40
4.0
  1
30
100
AcDbText
  0
POINT
  5
5A50
330
5A47
100
AcDbEntity
  8
DEFPOINTS
100
AcDbPoint
 10
30.0
 20
19.0
 30
0.0
  0
POINT
  5
5A51
330
5A47
100
AcDbEntity
  8
DEFPOINTS
100
AcDbPoint
 10
0.0
 20
16.0
 30
0.0
  0
POINT
  5
5A52
330
5A47
100
AcDbEntity
  8
DEFPOINTS
100
AcDbPoint
 10
30.0
 20
26.89582447603698
 30
0.0
  0
ENDBLK
  5
5A53
330
5A47
100
AcDbEntity
  8
0
100
AcDbBlockEnd
  0
BLOCK
  5
5A55
330
5A54
100
AcDbEntity
  8
0
100
AcDbBlockBegin
  2
*D4
 70
     1
 10
0.0
 20
0.0
 30
0.0
  3
*D4
  1

  0
LINE
  5
5A56
330
5A54
100
AcDbEntity
  8
2
 62
     1
100
AcDbLine
 10
15.0
 20
-20.0
 30
0.0
 11
15.0
 21
-30.0360798172991
 31
0.0
  0
LINE
  5
5A57
330
5A54
100
AcDbEntity
  8
2
 62
     1
100
AcDbLine
 10
30.0
 20
-20.0
 30
0.0
 11
30.0
 21
-30.0360798172991
 31
0.0
  0
LINE
  5
5A58
330
5A54
100
AcDbEntity
  8
2
 62
     1
100
AcDbLine
 10
15.0
 20
-29.03607981729911
 30
0.0
 11
24.89978266822145
 21
-29.03607981729911
 31
0.0
  0
LINE
  5
5A59
330
5A54
100
AcDbEntity
  8
2
 62
     1
100
AcDbLine
 10
30.0
 20
-29.03607981729911
 30
0.0
 11
19.0997826682215
 21
-29.03607981729911
 31
0.0
  0
SOLID
  5
5A5A
330
5A54
100
AcDbEntity
  8
2
 62
     1
100
AcDbTrace
 10
17.5
 20
-28.61941315063243
 30
0.0
 11
17.5
 21
-29.45274648396577
 31
0.0
 12
15.0
 22
-29.03607981729911
 32
0.0
 13
15.0
 23
-29.03607981729911
 33
0.0
  0
SOLID
  5
5A5B
330
5A54
100
AcDbEntity
  8
2
 62
     1
100
AcDbTrace
 10
27.5
 20
-29.45274648396577
 30
0.0
 11
27.5
 21
-28.61941315063243
 31
0.0
 12
30.0
 22
-29.03607981729911
 32
0.0
 13
30.0
 23
-29.03607981729911
 33
0.0
  0
TEXT
  5
5A5C
330
5A54
100
AcDbEntity
  8
2
 62
     1
100
AcDbText
 10
19.0997826682215
 20
-27.03607981729911
 30
0.0
 40
4.0
  1
15
100
AcDbText
  0
POINT
  5
5A5D
330
5A54
100
AcDbEntity
  8
DEFPOINTS
100
AcDbPoint
 10
15.0
 20
-19.0
 30
0.0
  0
POINT
  5
5A5E
330
5A54
100
AcDbEntity
  8
DEFPOINTS
100
AcDbPoint
 10
30.0
 20
-19.0
 30
0.0
  0
POINT
  5
5A5F
330
5A54
100
AcDbEntity
  8
DEFPOINTS
100
AcDbPoint
 10
15.0
 20
-29.03607981729911
 30
0.0
  0
ENDBLK
  5
5A60
330
5A54
100
AcDbEntity
  8
0
100
AcDbBlockEnd
  0
BLOCK
  5
5A62
330
5A61
100
AcDbEntity
  8
0
100
AcDbBlockBegin
  2
*D5
 70
     1
 10
0.0
 20
0.0
 30
0.0
  3
*D5
  1

  0
LINE
  5
5A63
330
5A61
100
AcDbEntity
  8
2
 62
     1
100
AcDbLine
 10
48.0
 20
-8.0
 30
0.0
 11
67.4174224859716
 21
-8.0
 31
0.0
  0
LINE
  5
5A64
330
5A61
100
AcDbEntity
  8
2
 62
     1
100
AcDbLine
 10
48.0
 20
8.0
 30
0.0
 11
67.4174224859716
 21
8.0
 31
0.0
  0
LINE
  5
5A65
330
5A61
100
AcDbEntity
  8
2
 62
     1
100
AcDbLine
 10
66.4174224859716
 20
-8.0
 30
0.0
 11
66.4174224859716
 21
3.605815763859598
 31
0.0
  0
LINE
  5
5A66
330
5A61
100
AcDbEntity
  8
2
 62
     1
100
AcDbLine
 10
66.4174224859716
 20
8.0
 30
0.0
 11
66.4174224859716
 21
-2.1941842361404
 31
0.0
  0
SOLID
  5
5A67
330
5A61
100
AcDbEntity
  8
2
 62
     1
100
AcDbTrace
 10
66.00075581930493
 20
-5.5
 30
0.0
 11
66.83408915263827
 21
-5.5
 31
0.0
 12
66.4174224859716
 22
-8.0
 32
0.0
 13
66.4174224859716
 23
-8.0
 33
0.0
  0
SOLID
  5
5A68
330
5A61
100
AcDbEntity
  8
2
 62
     1
100
AcDbTrace
 10
66.83408915263827
 20
5.5
 30
0.0
 11
66.00075581930493
 21
5.5
 31
0.0
 12
66.4174224859716
 22
8.0
 32
0.0
 13
66.4174224859716
 23
8.0
 33
0.0
  0
TEXT
  5
5A69
330
5A61
100
AcDbEntity
  8
2
 62
     1
100
AcDbText
 10
64.4174224859716
 20
-2.194184236140428
 30
0.0
 40
4.0
  1
16
 50
90.0
100
AcDbText
  0
POINT
  5
5A6A
330
5A61
100
AcDbEntity
  8
DEFPOINTS
100
AcDbPoint
 10
47.0
 20
-8.0
 30
0.0
  0
POINT
  5
5A6B
330
5A61
100
AcDbEntity
  8
DEFPOINTS
100
AcDbPoint
 10
47.0
 20
8.0
 30
0.0
  0
POINT
  5
5A6C
330
5A61
100
AcDbEntity
  8
DEFPOINTS
100
AcDbPoint
 10
66.4174224859716
 20
-8.0
 30
0.0
  0
ENDBLK
  5
5A6D
330
5A61
100
AcDbEntity
  8
0
100
AcDbBlockEnd
  0
BLOCK
  5
5A6F
330
5A6E
100
AcDbEntity
  8
0
100
AcDbBlockBegin
  2
*D6
 70
     1
 10
0.0
 20
0.0
 30
0.0
  3
*D6
  1

  0
LINE
  5
5A70
330
5A6E
100
AcDbEntity
  8
2
 62
     1
100
AcDbLine
 10
31.0
 20
-19.0
 30
0.0
 11
75.2463835176095
 21
-19.0
 31
0.0
  0
LINE
  5
5A71
330
5A6E
100
AcDbEntity
  8
2
 62
     1
100
AcDbLine
 10
31.0
 20
19.0
 30
0.0
 11
75.2463835176095
 21
19.0
 31
0.0
  0
LINE
  5
5A72
330
5A6E
100
AcDbEntity
  8
2
 62
     1
100
AcDbLine
 10
74.2463835176095
 20
-19.0
 30
0.0
 11
74.2463835176095
 21
4.358600478440099
 31
0.0
  0
LINE
  5
5A73
330
5A6E
100
AcDbEntity
  8
2
 62
     1
100
AcDbLine
 10
74.2463835176095
 20
19.0
 30
0.0
 11
74.2463835176095
 21
-1.441399521559899
 31
0.0
  0
SOLID
  5
5A74
330
5A6E
100
AcDbEntity
  8
2
 62
     1
100
AcDbTrace
 10
73.82971685094283
 20
-16.5
 30
0.0
 11
74.66305018427617
 21
-16.5
 31
0.0
 12
74.2463835176095
 22
-19.0
 32
0.0
 13
74.2463835176095
 23
-19.0
 33
0.0
  0
SOLID
  5
5A75
330
5A6E
100
AcDbEntity
  8
2
 62
     1
100
AcDbTrace
 10
74.66305018427617
 20
16.5
 30
0.0
 11
73.82971685094283
 21
16.5
 31
0.0
 12
74.2463835176095
 22
19.0
 32
0.0
 13
74.2463835176095
 23
19.0
 33
0.0
  0
TEXT
  5
5A76
330
5A6E
100
AcDbEntity
  8
2
 62
     1
100
AcDbText
 10
72.2463835176095
 20
-1.44139952155986
 30
0.0
 40
4.0
  1
38
 50
90.0
100
AcDbText
  0
POINT
  5
5A77
330
5A6E
100
AcDbEntity
  8
DEFPOINTS
100
AcDbPoint
 10
30.0
 20
-19.0
 30
0.0
  0
POINT
  5
5A78
330
5A6E
100
AcDbEntity
  8
DEFPOINTS
100
AcDbPoint
 10
30.0
 20
19.0
 30
0.0
  0
POINT
  5
5A79
330
5A6E
100
AcDbEntity
  8
DEFPOINTS
100
AcDbPoint
 10
74.2463835176095
 20
-19.0
 30
0.0
  0
ENDBLK
  5
5A7A
330
5A6E
100
AcDbEntity
  8
0
100
AcDbBlockEnd
  0
BLOCK
  5
5B38
330
5B2D
100
AcDbEntity
  8
0
100
AcDbBlockBegin
  2
*D7
 70
     1
 10
0.0
 20
0.0
 30
0.0
  3
*D7
  1

  0
LINE
  5
5EDB
330
5B2D
100
AcDbEntity
  8
2
 62
     0
370
    -2
100
AcDbLine
 10
264.0330058186107
 20
97.42421556451427
 30
0.0
 11
239.2370636056021
 21
97.42421556451427
 31
0.0
  0
LINE
  5
5EDC
330
5B2D
100
AcDbEntity
  8
2
 62
     0
370
    -2
100
AcDbLine
 10
264.0330058186107
 20
65.42421556451427
 30
0.0
 11
239.2370636056021
 21
65.42421556451427
 31
0.0
  0
LINE
  5
5EDD
330
5B2D
100
AcDbEntity
  8
2
 62
     0
370
    -2
100
AcDbLine
 10
240.4870636056021
 20
93.92421556451427
 30
0.0
 11
240.4870636056021
 21
68.92421556451427
 31
0.0
  0
SOLID
  5
5EDE
330
5B2D
100
AcDbEntity
  8
2
 62
     0
100
AcDbTrace
 10
239.9037302722688
 20
93.92421556451427
 30
0.0
 11
241.0703969389355
 21
93.92421556451427
 31
0.0
 12
240.4870636056021
 22
97.42421556451427
 32
0.0
 13
240.4870636056021
 23
97.42421556451427
 33
0.0
  0
SOLID
  5
5EDF
330
5B2D
100
AcDbEntity
  8
2
 62
     0
100
AcDbTrace
 10
239.9037302722688
 20
68.92421556451427
 30
0.0
 11
241.0703969389355
 21
68.92421556451427
 31
0.0
 12
240.4870636056021
 22
65.42421556451427
 32
0.0
 13
240.4870636056021
 23
65.42421556451427
 33
0.0
  0
MTEXT
  5
5EE0
330
5B2D
100
AcDbEntity
  8
2
 62
     0
100
AcDbMText
 10
237.7370636056021
 20
81.42421556451431
 30
0.0
 40
3.5
 41
0.0
 71
     5
 72
     1
  1
Ø 32
 11
0.0000000000000001
 21
1.0
 31
0.0
 73
     1
 44
1.0
1001
ACAD
1000
MTEXTBEGIN
1070
    73
1070
     1
1070
    44
1040
1.0
1070
    74
1070
     0
1000
MTEXTEND
  0
POINT
  5
5EE1
330
5B2D
100
AcDbEntity
  8
DEFPOINTS
 62
     0
100
AcDbPoint
 10
265.5330058186107
 20
97.42421556451427
 30
0.0
  0
POINT
  5
5EE2
330
5B2D
100
AcDbEntity
  8
DEFPOINTS
 62
     0
100
AcDbPoint
 10
265.5330058186107
 20
65.42421556451427
 30
0.0
  0
POINT
  5
5EE3
330
5B2D
100
AcDbEntity
  8
DEFPOINTS
 62
     0
100
AcDbPoint
 10
240.4870636056021
 20
65.42421556451427
 30
0.0
  0
ENDBLK
  5
5B39
330
5B2D
100
AcDbEntity
  8
0
100
AcDbBlockEnd
  0
BLOCK
  5
5B45
330
5B3A
100
AcDbEntity
  8
0
100
AcDbBlockBegin
  2
*D8
 70
     1
 10
0.0
 20
0.0
 30
0.0
  3
*D8
  1

  0
LINE
  5
5CED
330
5B3A
100
AcDbEntity
  8
2
 62
     0
370
    -2
100
AcDbLine
 10
312.5330058186106
 20
71.92421556451427
 30
0.0
 11
312.5330058186106
 21
51.31039187882539
 31
0.0
  0
LINE
  5
5CEE
330
5B3A
100
AcDbEntity
  8
2
 62
     0
370
    -2
100
AcDbLine
 10
295.5330058186106
 20
60.92421556451427
 30
0.0
 11
295.5330058186106
 21
51.31039187882539
 31
0.0
  0
LINE
  5
5CEF
330
5B3A
100
AcDbEntity
  8
2
 62
     0
370
    -2
100
AcDbLine
 10
309.0330058186107
 20
52.56039187882539
 30
0.0
 11
299.0330058186107
 21
52.56039187882539
 31
0.0
  0
SOLID
  5
5CF0
330
5B3A
100
AcDbEntity
  8
2
 62
     0
100
AcDbTrace
 10
309.0330058186107
 20
53.14372521215872
 30
0.0
 11
309.0330058186107
 21
51.97705854549205
 31
0.0
 12
312.5330058186106
 22
52.56039187882539
 32
0.0
 13
312.5330058186106
 23
52.56039187882539
 33
0.0
  0
SOLID
  5
5CF1
330
5B3A
100
AcDbEntity
  8
2
 62
     0
100
AcDbTrace
 10
299.0330058186107
 20
53.14372521215872
 30
0.0
 11
299.0330058186107
 21
51.97705854549205
 31
0.0
 12
295.5330058186106
 22
52.56039187882539
 32
0.0
 13
295.5330058186106
 23
52.56039187882539
 33
0.0
  0
MTEXT
  5
5CF2
330
5B3A
100
AcDbEntity
  8
2
 62
     0
100
AcDbMText
 10
304.0330058186107
 20
55.31039187882537
 30
0.0
 40
3.5
 41
0.0
 71
     5
 72
     1
  1
17
 73
     1
 44
1.0
1001
ACAD
1000
MTEXTBEGIN
1070
    73
1070
     1
1070
    44
1040
1.0
1070
    74
1070
     0
1000
MTEXTEND
  0
POINT
  5
5CF3
330
5B3A
100
AcDbEntity
  8
DEFPOINTS
 62
     0
100
AcDbPoint
 10
312.5330058186106
 20
73.42421556451427
 30
0.0
  0
POINT
  5
5CF4
330
5B3A
100
AcDbEntity
  8
DEFPOINTS
 62
     0
100
AcDbPoint
 10
295.5330058186106
 20
62.42421556451429
 30
0.0
  0
POINT
  5
5CF5
330
5B3A
100
AcDbEntity
  8
DEFPOINTS
 62
     0
100
AcDbPoint
 10
295.5330058186106
 20
52.56039187882539
 30
0.0
  0
ENDBLK
  5
5B46
330
5B3A
100
AcDbEntity
  8
0
100
AcDbBlockEnd
  0
BLOCK
  5
5B52
330
5B47
100
AcDbEntity
  8
0
100
AcDbBlockBegin
  2
*D9
 70
     1
 10
0.0
 20
0.0
 30
0.0
  3
*D9
  1

  0
LINE
  5
5ED2
330
5B47
100
AcDbEntity
  8
2
 62
     0
370
    -2
100
AcDbLine
 10
295.5330058186106
 20
101.9242155645142
 30
0.0
 11
295.5330058186106
 21
112.2454517120676
 31
0.0
  0
LINE
  5
5ED3
330
5B47
100
AcDbEntity
  8
2
 62
     0
370
    -2
100
AcDbLine
 10
265.5330058186107
 20
98.92421556451427
 30
0.0
 11
265.5330058186107
 21
112.2454517120676
 31
0.0
  0
LINE
  5
5ED4
330
5B47
100
AcDbEntity
  8
2
 62
     0
370
    -2
100
AcDbLine
 10
292.0330058186106
 20
110.9954517120676
 30
0.0
 11
269.0330058186106
 21
110.9954517120676
 31
0.0
  0
SOLID
  5
5ED5
330
5B47
100
AcDbEntity
  8
2
 62
     0
100
AcDbTrace
 10
292.0330058186106
 20
111.5787850454009
 30
0.0
 11
292.0330058186106
 21
110.4121183787342
 31
0.0
 12
295.5330058186106
 22
110.9954517120676
 32
0.0
 13
295.5330058186106
 23
110.9954517120676
 33
0.0
  0
SOLID
  5
5ED6
330
5B47
100
AcDbEntity
  8
2
 62
     0
100
AcDbTrace
 10
269.0330058186106
 20
111.5787850454009
 30
0.0
 11
269.0330058186106
 21
110.4121183787342
 31
0.0
 12
265.5330058186107
 22
110.9954517120676
 32
0.0
 13
265.5330058186107
 23
110.9954517120676
 33
0.0
  0
MTEXT
  5
5ED7
330
5B47
100
AcDbEntity
  8
2
 62
     0
100
AcDbMText
 10
280.3978581261278
 20
113.7454517120676
 30
0.0
 40
3.5
 41
0.0
 71
     5
 72
     1
  1
30
 73
     1
 44
1.0
1001
ACAD
1000
MTEXTBEGIN
1070
    73
1070
     1
1070
    44
1040
1.0
1070
    74
1070
     0
1000
MTEXTEND
  0
POINT
  5
5ED8
330
5B47
100
AcDbEntity
  8
DEFPOINTS
 62
     0
100
AcDbPoint
 10
295.5330058186106
 20
100.4242155645142
 30
0.0
  0
POINT
  5
5ED9
330
5B47
100
AcDbEntity
  8
DEFPOINTS
 62
     0
100
AcDbPoint
 10
265.5330058186107
 20
97.42421556451427
 30
0.0
  0
POINT
  5
5EDA
330
5B47
100
AcDbEntity
  8
DEFPOINTS
 62
     0
100
AcDbPoint
 10
265.5330058186107
 20
110.9954517120676
 30
0.0
  0
ENDBLK
  5
5B53
330
5B47
100
AcDbEntity
  8
0
100
AcDbBlockEnd
  0
BLOCK
  5
5B5F
330
5B54
100
AcDbEntity
  8
0
100
AcDbBlockBegin
  2
*D10
 70
     1
 10
0.0
 20
0.0
 30
0.0
  3
*D10
  1

  0
LINE
  5
5CD2
330
5B54
100
AcDbEntity
  8
2
 62
     0
370
    -2
100
AcDbLine
 10
280.5330058186107
 20
60.92421556451427
 30
0.0
 11
280.5330058186107
 21
51.13813574721516
 31
0.0
  0
LINE
  5
5CD3
330
5B54
100
AcDbEntity
  8
2
 62
     0
370
    -2
100
AcDbLine
 10
295.5330058186106
 20
60.92421556451427
 30
0.0
 11
295.5330058186106
 21
51.13813574721516
 31
0.0
  0
LINE
  5
5CD4
330
5B54
100
AcDbEntity
  8
2
 62
     0
370
    -2
100
AcDbLine
 10
284.0330058186107
 20
52.38813574721516
 30
0.0
 11
292.0330058186106
 21
52.38813574721516
 31
0.0
  0
SOLID
  5
5CD5
330
5B54
100
AcDbEntity
  8
2
 62
     0
100
AcDbTrace
 10
284.0330058186107
 20
52.97146908054849
 30
0.0
 11
284.0330058186107
 21
51.80480241388181
 31
0.0
 12
280.5330058186107
 22
52.38813574721516
 32
0.0
 13
280.5330058186107
 23
52.38813574721516
 33
0.0
  0
SOLID
  5
5CD6
330
5B54
100
AcDbEntity
  8
2
 62
     0
100
AcDbTrace
 10
292.0330058186106
 20
52.97146908054849
 30
0.0
 11
292.0330058186106
 21
51.80480241388181
 31
0.0
 12
295.5330058186106
 22
52.38813574721516
 32
0.0
 13
295.5330058186106
 23
52.38813574721516
 33
0.0
  0
MTEXT
  5
5CD7
330
5B54
100
AcDbEntity
  8
2
 62
     0
100
AcDbMText
 10
288.0330058186107
 20
55.13813574721517
 30
0.0
 40
3.5
 41
0.0
 71
     5
 72
     1
  1
15
 73
     1
 44
1.0
1001
ACAD
1000
MTEXTBEGIN
1070
    73
1070
     1
1070
    44
1040
1.0
1070
    74
1070
     0
1000
MTEXTEND
  0
POINT
  5
5CD8
330
5B54
100
AcDbEntity
  8
DEFPOINTS
 62
     0
100
AcDbPoint
 10
280.5330058186107
 20
62.42421556451429
 30
0.0
  0
POINT
  5
5CD9
330
5B54
100
AcDbEntity
  8
DEFPOINTS
 62
     0
100
AcDbPoint
 10
295.5330058186106
 20
62.42421556451429
 30
0.0
  0
POINT
  5
5CDA
330
5B54
100
AcDbEntity
  8
DEFPOINTS
 62
     0
100
AcDbPoint
 10
295.5330058186106
 20
52.38813574721516
 30
0.0
  0
ENDBLK
  5
5B60
330
5B54
100
AcDbEntity
  8
0
100
AcDbBlockEnd
  0
BLOCK
  5
5B6C
330
5B61
100
AcDbEntity
  8
0
100
AcDbBlockBegin
  2
*D11
 70
     1
 10
0.0
 20
0.0
 30
0.0
  3
*D11
  1

  0
LINE
  5
5EC9
330
5B61
100
AcDbEntity
  8
2
 62
     0
370
    -2
100
AcDbLine
 10
314.0330058186106
 20
73.42421556451427
 30
0.0
 11
328.7004283045823
 21
73.42421556451427
 31
0.0
  0
LINE
  5
5ECA
330
5B61
100
AcDbEntity
  8
2
 62
     0
370
    -2
100
AcDbLine
 10
314.0330058186106
 20
89.42421556451426
 30
0.0
 11
328.7004283045823
 21
89.42421556451426
 31
0.0
  0
LINE
  5
5ECB
330
5B61
100
AcDbEntity
  8
2
 62
     0
370
    -2
100
AcDbLine
 10
327.4504283045823
 20
76.92421556451427
 30
0.0
 11
327.4504283045823
 21
85.92421556451427
 31
0.0
  0
SOLID
  5
5ECC
330
5B61
100
AcDbEntity
  8
2
 62
     0
100
AcDbTrace
 10
326.867094971249
 20
76.92421556451427
 30
0.0
 11
328.0337616379156
 21
76.92421556451427
 31
0.0
 12
327.4504283045823
 22
73.42421556451427
 32
0.0
 13
327.4504283045823
 23
73.42421556451427
 33
0.0
  0
SOLID
  5
5ECD
330
5B61
100
AcDbEntity
  8
2
 62
     0
100
AcDbTrace
 10
326.867094971249
 20
85.92421556451427
 30
0.0
 11
328.0337616379156
 21
85.92421556451427
 31
0.0
 12
327.4504283045823
 22
89.42421556451426
 32
0.0
 13
327.4504283045823
 23
89.42421556451426
 33
0.0
  0
MTEXT
  5
5ECE
330
5B61
100
AcDbEntity
  8
2
 62
     0
100
AcDbMText
 10
324.7004283045823
 20
81.42421556451433
 30
0.0
 40
3.5
 41
0.0
 71
     5
 72
     1
  1
Ø 16
 11
0.0000000000000001
 21
1.0
 31
0.0
 73
     1
 44
1.0
1001
ACAD
1000
MTEXTBEGIN
1070
    73
1070
     1
1070
    44
1040
1.0
1070
    74
1070
     0
1000
MTEXTEND
  0
POINT
  5
5ECF
330
5B61
100
AcDbEntity
  8
DEFPOINTS
 62
     0
100
AcDbPoint
 10
312.5330058186106
 20
73.42421556451427
 30
0.0
  0
POINT
  5
5ED0
330
5B61
100
AcDbEntity
  8
DEFPOINTS
 62
     0
100
AcDbPoint
 10
312.5330058186106
 20
89.42421556451426
 30
0.0
  0
POINT
  5
5ED1
330
5B61
100
AcDbEntity
  8
DEFPOINTS
 62
     0
100
AcDbPoint
 10
327.4504283045823
 20
89.42421556451426
 30
0.0
  0
ENDBLK
  5
5B6D
330
5B61
100
AcDbEntity
  8
0
100
AcDbBlockEnd
  0
BLOCK
  5
5B79
330
5B6E
100
AcDbEntity
  8
0
100
AcDbBlockBegin
  2
*D12
 70
     1
 10
0.0
 20
0.0
 30
0.0
  3
*D12
  1

  0
LINE
  5
5EC0
330
5B6E
100
AcDbEntity
  8
2
 62
     0
370
    -2
100
AcDbLine
 10
297.0330058186106
 20
62.42421556451429
 30
0.0
 11
336.5293893362202
 21
62.42421556451428
 31
0.0
  0
LINE
  5
5EC1
330
5B6E
100
AcDbEntity
  8
2
 62
     0
370
    -2
100
AcDbLine
 10
297.0330058186106
 20
100.4242155645142
 30
0.0
 11
336.5293893362202
 21
100.4242155645142
 31
0.0
  0
LINE
  5
5EC2
330
5B6E
100
AcDbEntity
  8
2
 62
     0
370
    -2
100
AcDbLine
 10
335.2793893362202
 20
65.92421556451428
 30
0.0
 11
335.2793893362202
 21
96.92421556451421
 31
0.0
  0
SOLID
  5
5EC3
330
5B6E
100
AcDbEntity
  8
2
 62
     0
100
AcDbTrace
 10
334.6960560028869
 20
65.92421556451428
 30
0.0
 11
335.8627226695535
 21
65.92421556451428
 31
0.0
 12
335.2793893362202
 22
62.42421556451429
 32
0.0
 13
335.2793893362202
 23
62.42421556451429
 33
0.0
  0
SOLID
  5
5EC4
330
5B6E
100
AcDbEntity
  8
2
 62
     0
100
AcDbTrace
 10
334.6960560028869
 20
96.92421556451421
 30
0.0
 11
335.8627226695535
 21
96.92421556451421
 31
0.0
 12
335.2793893362202
 22
100.4242155645142
 32
0.0
 13
335.2793893362202
 23
100.4242155645142
 33
0.0
  0
MTEXT
  5
5EC5
330
5B6E
100
AcDbEntity
  8
2
 62
     0
100
AcDbMText
 10
332.5293893362202
 20
81.42421556451431
 30
0.0
 40
3.5
 41
0.0
 71
     5
 72
     1
  1
Ø 38
 11
0.0000000000000001
 21
1.0
 31
0.0
 73
     1
 44
1.0
1001
ACAD
1000
MTEXTBEGIN
1070
    73
1070
     1
1070
    44
1040
1.0
1070
    74
1070
     0
1000
MTEXTEND
  0
POINT
  5
5EC6
330
5B6E
100
AcDbEntity
  8
DEFPOINTS
 62
     0
100
AcDbPoint
 10
295.5330058186106
 20
62.42421556451429
 30
0.0
  0
POINT
  5
5EC7
330
5B6E
100
AcDbEntity
  8
DEFPOINTS
 62
     0
100
AcDbPoint
 10
295.5330058186106
 20
100.4242155645142
 30
0.0
  0
POINT
  5
5EC8
330
5B6E
100
AcDbEntity
  8
DEFPOINTS
 62
     0
100
AcDbPoint
 10
335.2793893362202
 20
100.4242155645142
 30
0.0
  0
ENDBLK
  5
5B7A
330
5B6E
100
AcDbEntity
  8
0
100
AcDbBlockEnd
  0
BLOCK
  5
5D01
330
5CF7
100
AcDbEntity
  8
0
100
AcDbBlockBegin
  2
*D13
 70
     1
 10
0.0
 20
0.0
 30
0.0
  3
*D13
  1

  0
LINE
  5
5EE4
330
5CF7
100
AcDbEntity
  8
2
 62
     0
370
    -2
100
AcDbLine
 10
246.5330058186107
 20
93.50777617123965
 30
0.0
 11
246.5330058186107
 21
118.8045750966495
 31
0.0
  0
LINE
  5
5EE5
330
5CF7
100
AcDbEntity
  8
2
 62
     0
370
    -2
100
AcDbLine
 10
312.5330058186106
 20
90.92421556451427
 30
0.0
 11
312.5330058186106
 21
118.8045750966495
 31
0.0
  0
LINE
  5
5EE6
330
5CF7
100
AcDbEntity
  8
2
 62
     0
370
    -2
100
AcDbLine
 10
250.0330058186107
 20
117.5545750966495
 30
0.0
 11
309.0330058186106
 21
117.5545750966495
 31
0.0
  0
SOLID
  5
5EE7
330
5CF7
100
AcDbEntity
  8
2
 62
     0
100
AcDbTrace
 10
250.0330058186107
 20
118.1379084299828
 30
0.0
 11
250.0330058186107
 21
116.9712417633161
 31
0.0
 12
246.5330058186107
 22
117.5545750966495
 32
0.0
 13
246.5330058186107
 23
117.5545750966495
 33
0.0
  0
SOLID
  5
5EE8
330
5CF7
100
AcDbEntity
  8
2
 62
     0
100
AcDbTrace
 10
309.0330058186106
 20
118.1379084299828
 30
0.0
 11
309.0330058186106
 21
116.9712417633161
 31
0.0
 12
312.5330058186106
 22
117.5545750966495
 32
0.0
 13
312.5330058186106
 23
117.5545750966495
 33
0.0
  0
MTEXT
  5
5EE9
330
5CF7
100
AcDbEntity
  8
2
 62
     0
100
AcDbMText
 10
281.664012762233
 20
120.3045750966495
 30
0.0
 40
3.5
 41
0.0
 71
     5
 72
     1
  1
66
 73
     1
 44
1.0
1001
ACAD
1000
MTEXTBEGIN
1070
    73
1070
     1
1070
    44
1040
1.0
1070
    74
1070
     0
1000
MTEXTEND
  0
POINT
  5
5EEA
330
5CF7
100
AcDbEntity
  8
DEFPOINTS
 62
     0
100
AcDbPoint
 10
246.5330058186107
 20
92.00777617123966
 30
0.0
  0
POINT
  5
5EEB
330
5CF7
100
AcDbEntity
  8
DEFPOINTS
 62
     0
100
AcDbPoint
 10
312.5330058186106
 20
89.42421556451426
 30
0.0
  0
POINT
  5
5EEC
330
5CF7
100
AcDbEntity
  8
DEFPOINTS
 62
     0
100
AcDbPoint
 10
312.5330058186106
 20
117.5545750966495
 30
0.0
  0
ENDBLK
  5
5D02
330
5CF7
100
AcDbEntity
  8
0
100
AcDbBlockEnd
  0
BLOCK
  5
5D61
330
5D57
100
AcDbEntity
  8
0
100
AcDbBlockBegin
  2
*D14
 70
     1
 10
0.0
 20
0.0
 30
0.0
  3
*D14
  1

  0
LINE
  5
5EED
330
5D57
100
AcDbEntity
  8
2
 62
     0
370
    -2
100
AcDbLine
 10
280.5330058186107
 20
101.9242155645142
 30
0.0
 11
280.5330058186107
 21
105.9164730510949
 31
0.0
  0
LINE
  5
5EEE
330
5D57
100
AcDbEntity
  8
2
 62
     0
370
    -2
100
AcDbLine
 10
295.5330058186106
 20
101.9242155645142
 30
0.0
 11
295.5330058186106
 21
105.9164730510949
 31
0.0
  0
LINE
  5
5EEF
330
5D57
100
AcDbEntity
  8
2
 62
     0
370
    -2
100
AcDbLine
 10
284.0330058186107
 20
104.6664730510949
 30
0.0
 11
292.0330058186106
 21
104.6664730510949
 31
0.0
  0
SOLID
  5
5EF0
330
5D57
100
AcDbEntity
  8
2
 62
     0
100
AcDbTrace
 10
284.0330058186107
 20
105.2498063844282
 30
0.0
 11
284.0330058186107
 21
104.0831397177615
 31
0.0
 12
280.5330058186107
 22
104.6664730510949
 32
0.0
 13
280.5330058186107
 23
104.6664730510949
 33
0.0
  0
SOLID
  5
5EF1
330
5D57
100
AcDbEntity
  8
2
 62
     0
100
AcDbTrace
 10
292.0330058186106
 20
105.2498063844282
 30
0.0
 11
292.0330058186106
 21
104.0831397177615
 31
0.0
 12
295.5330058186106
 22
104.6664730510949
 32
0.0
 13
295.5330058186106
 23
104.6664730510949
 33
0.0
  0
MTEXT
  5
5EF2
330
5D57
100
AcDbEntity
  8
2
 62
     0
100
AcDbMText
 10
288.0330058186106
 20
107.4164730510949
 30
0.0
 40
3.5
 41
0.0
 71
     5
 72
     1
  1
15
 73
     1
 44
1.0
1001
ACAD
1000
MTEXTBEGIN
1070
    73
1070
     1
1070
    44
1040
1.0
1070
    74
1070
     0
1000
MTEXTEND
  0
POINT
  5
5EF3
330
5D57
100
AcDbEntity
  8
DEFPOINTS
 62
     0
100
AcDbPoint
 10
280.5330058186107
 20
100.4242155645142
 30
0.0
  0
POINT
  5
5EF4
330
5D57
100
AcDbEntity
  8
DEFPOINTS
 62
     0
100
AcDbPoint
 10
295.5330058186106
 20
100.4242155645142
 30
0.0
  0
POINT
  5
5EF5
330
5D57
100
AcDbEntity
  8
DEFPOINTS
 62
     0
100
AcDbPoint
 10
295.5330058186106
 20
104.6664730510949
 30
0.0
  0
ENDBLK
  5
5D62
330
5D57
100
AcDbEntity
  8
0
100
AcDbBlockEnd
  0
BLOCK
  5
5D79
330
5D6F
100
AcDbEntity
  8
0
100
AcDbBlockBegin
  2
*D15
 70
     1
 10
0.0
 20
0.0
 30
0.0
  3
*D15
  1

  0
LINE
  5
5EF6
330
5D6F
100
AcDbEntity
  8
2
 62
     0
370
    -2
100
AcDbLine
 10
295.5330058186106
 20
101.9242155645142
 30
0.0
 11
295.5330058186106
 21
112.2454517120676
 31
0.0
  0
LINE
  5
5EF7
330
5D6F
100
AcDbEntity
  8
2
 62
     0
370
    -2
100
AcDbLine
 10
312.5330058186106
 20
90.92421556451427
 30
0.0
 11
312.5330058186106
 21
112.2454517120676
 31
0.0
  0
LINE
  5
5EF8
330
5D6F
100
AcDbEntity
  8
2
 62
     0
370
    -2
100
AcDbLine
 10
299.0330058186106
 20
110.9954517120676
 30
0.0
 11
309.0330058186106
 21
110.9954517120676
 31
0.0
  0
SOLID
  5
5EF9
330
5D6F
100
AcDbEntity
  8
2
 62
     0
100
AcDbTrace
 10
299.0330058186106
 20
111.5787850454009
 30
0.0
 11
299.0330058186106
 21
110.4121183787342
 31
0.0
 12
295.5330058186106
 22
110.9954517120676
 32
0.0
 13
295.5330058186106
 23
110.9954517120676
 33
0.0
  0
SOLID
  5
5EFA
330
5D6F
100
AcDbEntity
  8
2
 62
     0
100
AcDbTrace
 10
309.0330058186106
 20
111.5787850454009
 30
0.0
 11
309.0330058186106
 21
110.4121183787342
 31
0.0
 12
312.5330058186106
 22
110.9954517120676
 32
0.0
 13
312.5330058186106
 23
110.9954517120676
 33
0.0
  0
MTEXT
  5
5EFB
330
5D6F
100
AcDbEntity
  8
2
 62
     0
100
AcDbMText
 10
304.0330058186106
 20
113.7454517120676
 30
0.0
 40
3.5
 41
0.0
 71
     5
 72
     1
  1
17
 73
     1
 44
1.0
1001
ACAD
1000
MTEXTBEGIN
1070
    73
1070
     1
1070
    44
1040
1.0
1070
    74
1070
     0
1000
MTEXTEND
  0
POINT
  5
5EFC
330
5D6F
100
AcDbEntity
  8
DEFPOINTS
 62
     0
100
AcDbPoint
 10
295.5330058186106
 20
100.4242155645142
 30
0.0
  0
POINT
  5
5EFD
330
5D6F
100
AcDbEntity
  8
DEFPOINTS
 62
     0
100
AcDbPoint
 10
312.5330058186106
 20
89.42421556451426
 30
0.0
  0
POINT
  5
5EFE
330
5D6F
100
AcDbEntity
  8
DEFPOINTS
 62
     0
100
AcDbPoint
 10
312.5330058186106
 20
110.9954517120676
 30
0.0
  0
ENDBLK
  5
5D7A
330
5D6F
100
AcDbEntity
  8
0
100
AcDbBlockEnd
  0
ENDSEC
  0
SECTION
  2
ENTITIES
  0
POINT
  5
5AD7
330
1F
100
AcDbEntity
  8
0
 62
     1
100
AcDbPoint
 10
265.5330058186107
 20
81.42421556451427
 30
0.0
  0
POINT
  5
5AD8
330
1F
100
AcDbEntity
  8
0
 62
     1
100
AcDbPoint
 10
265.5330058186107
 20
81.42421556451427
 30
0.0
  0
POINT
  5
5AD9
330
1F
100
AcDbEntity
  8
0
 62
     1
100
AcDbPoint
 10
265.5330058186107
 20
81.42421556451427
 30
0.0
  0
POINT
  5
5ADA
330
1F
100
AcDbEntity
  8
0
 62
     1
100
AcDbPoint
 10
265.5330058186107
 20
81.42421556451427
 30
0.0
  0
LINE
  5
5ADC
330
1F
100
AcDbEntity
  8
SK3
  6
CACHE2
100
AcDbLine
 10
259.3330058186107
 20
88.92421556451427
 30
0.0
 11
259.3330058186107
 21
92.28832481512986
 31
0.0
  0
LINE
  5
5ADD
330
1F
100
AcDbEntity
  8
SK3
  6
CACHE2
100
AcDbLine
 10
255.7330058186107
 20
88.92421556451427
 30
0.0
 11
255.7330058186107
 21
92.20942050903575
 31
0.0
  0
LINE
  5
5ADE
330
1F
100
AcDbEntity
  8
4
  6
CENTER
100
AcDbLine
 10
324.8550636828748
 20
81.42421556451427
 30
0.0
 11
243.7669804073776
 21
81.42421556451427
 31
0.0
  0
LINE
  5
5ADF
330
1F
100
AcDbEntity
  8
SK3
  6
CACHE2
100
AcDbLine
 10
259.3330058186107
 20
72.42421556451427
 30
0.0
 11
255.7330058186107
 21
72.42421556451427
 31
0.0
  0
POINT
  5
5AE0
330
1F
100
AcDbEntity
  8
5
 62
     1
100
AcDbPoint
 10
265.5330058186107
 20
81.42421556451427
 30
0.0
  0
LINE
  5
5AE1
330
1F
100
AcDbEntity
  8
1
 62
     4
100
AcDbLine
 10
280.5330058186107
 20
62.42421556451429
 30
0.0
 11
280.5330058186107
 21
100.4242155645142
 31
0.0
  0
LINE
  5
5AE2
330
1F
100
AcDbEntity
  8
1
 62
     4
100
AcDbLine
 10
265.5330058186107
 20
65.42421556451427
 30
0.0
 11
265.5330058186107
 21
97.42421556451427
 31
0.0
  0
LINE
  5
5AE3
330
1F
100
AcDbEntity
  8
SK1
 62
     4
100
AcDbLine
 10
246.5330058186107
 20
70.84065495778887
 30
0.0
 11
246.5330058186107
 21
92.00777617123966
 31
0.0
  0
LINE
  5
5AE4
330
1F
100
AcDbEntity
  8
1
 62
     4
100
AcDbLine
 10
280.5330058186107
 20
97.42421556451427
 30
0.0
 11
265.5330058186107
 21
97.42421556451427
 31
0.0
  0
LINE
  5
5AE5
330
1F
100
AcDbEntity
  8
1
 62
     4
100
AcDbLine
 10
280.5330058186107
 20
65.42421556451427
 30
0.0
 11
265.5330058186107
 21
65.42421556451427
 31
0.0
  0
LINE
  5
5AE6
330
1F
100
AcDbEntity
  8
SK3
  6
CACHE2
100
AcDbLine
 10
255.7330058186107
 20
72.42421556451427
 30
0.0
 11
255.7330058186107
 21
73.92421556451427
 31
0.0
  0
LINE
  5
5AE7
330
1F
100
AcDbEntity
  8
SK3
  6
CACHE2
100
AcDbLine
 10
259.3330058186107
 20
72.42421556451427
 30
0.0
 11
259.3330058186107
 21
73.92421556451427
 31
0.0
  0
LINE
  5
5AE8
330
1F
100
AcDbEntity
  8
SK1
 62
     4
100
AcDbLine
 10
265.5330058186107
 20
92.42421556451427
 30
0.0
 11
246.5375679057254
 21
92.00787616243907
 31
0.0
  0
LINE
  5
5AE9
330
1F
100
AcDbEntity
  8
SK1
 62
     4
100
AcDbLine
 10
265.5330058186107
 20
70.42421556451427
 30
0.0
 11
246.5375679057254
 21
70.84055496658947
 31
0.0
  0
LINE
  5
5AEA
330
1F
100
AcDbEntity
  8
SK3
  6
CACHE2
100
AcDbLine
 10
259.3330058186107
 20
72.42421556451427
 30
0.0
 11
257.5330058186107
 21
71.38498507997297
 31
0.0
  0
LINE
  5
5AEB
330
1F
100
AcDbEntity
  8
1
 62
     4
100
AcDbLine
 10
272.7830058186107
 20
86.89448227429195
 30
0.0
 11
272.7830058186107
 21
96.46004550914646
 31
0.0
  0
LINE
  5
5AEC
330
1F
100
AcDbEntity
  8
1
 62
     4
100
AcDbLine
 10
270.2830058186107
 20
86.89448227429195
 30
0.0
 11
270.2830058186107
 21
96.46004550914646
 31
0.0
  0
LINE
  5
5AED
330
1F
100
AcDbEntity
  8
SK3
  6
CACHE2
100
AcDbLine
 10
255.7330058186107
 20
72.42421556451427
 30
0.0
 11
257.5330058186107
 21
71.38498507997297
 31
0.0
  0
LINE
  5
5AEE
330
1F
100
AcDbEntity
  8
1
 62
     4
100
AcDbLine
 10
272.7830058186107
 20
66.38838561988207
 30
0.0
 11
272.7830058186107
 21
75.95394885473661
 31
0.0
  0
LINE
  5
5AEF
330
1F
100
AcDbEntity
  8
1
 62
     4
100
AcDbLine
 10
270.2830058186107
 20
66.38838561988207
 30
0.0
 11
270.2830058186107
 21
75.95394885473661
 31
0.0
  0
LINE
  5
5AF0
330
1F
100
AcDbEntity
  8
SK3
  6
CACHE2
100
AcDbLine
 10
250.5330058186107
 20
88.92421556451427
 30
0.0
 11
246.5330058186107
 21
88.92421556451427
 31
0.0
  0
LINE
  5
5AF1
330
1F
100
AcDbEntity
  8
1
 62
     4
100
AcDbLine
 10
270.2830058186107
 20
96.46004550914646
 30
0.0
 11
272.7830058186107
 21
96.46004550914646
 31
0.0
  0
LINE
  5
5AF2
330
1F
100
AcDbEntity
  8
SK3
  6
CACHE2
100
AcDbLine
 10
250.5330058186107
 20
73.92421556451427
 30
0.0
 11
246.5330058186107
 21
73.92421556451427
 31
0.0
  0
ARC
  5
5AF3
330
1F
100
AcDbEntity
  8
1
 62
     4
100
AcDbCircle
 10
264.7080058186107
 20
71.17116723730936
 30
0.0
 40
9.385127862741187
100
AcDbArc
 50
329.3619556788719
 51
30.63804432112812
  0
ARC
  5
5AF4
330
1F
100
AcDbEntity
  8
1
 62
     4
100
AcDbCircle
 10
278.3580058186107
 20
91.67726389171916
 30
0.0
 40
9.385127862741139
100
AcDbArc
 50
149.3619556788719
 51
210.6380443211281
  0
ARC
  5
5AF5
330
1F
100
AcDbEntity
  8
1
 62
     4
100
AcDbCircle
 10
264.7080058186107
 20
91.67726389171916
 30
0.0
 40
9.385127862741132
100
AcDbArc
 50
329.3619556788719
 51
30.63804432112812
  0
ARC
  5
5AF6
330
1F
100
AcDbEntity
  8
1
 62
     4
100
AcDbCircle
 10
278.3580058186107
 20
71.17116723730936
 30
0.0
 40
9.38512786274116
100
AcDbArc
 50
149.3619556788719
 51
210.6380443211281
  0
LINE
  5
5AF7
330
1F
100
AcDbEntity
  8
1
 62
     4
100
AcDbLine
 10
270.2830058186107
 20
86.89448227429195
 30
0.0
 11
272.7830058186107
 21
86.89448227429195
 31
0.0
  0
LINE
  5
5AF8
330
1F
100
AcDbEntity
  8
1
 62
     4
100
AcDbLine
 10
270.2830058186107
 20
75.95394885473661
 30
0.0
 11
272.7830058186107
 21
75.95394885473661
 31
0.0
  0
LINE
  5
5AF9
330
1F
100
AcDbEntity
  8
1
 62
     4
100
AcDbLine
 10
270.2830058186107
 20
66.38838561988207
 30
0.0
 11
272.7830058186107
 21
66.38838561988207
 31
0.0
  0
LINE
  5
5AFA
330
1F
100
AcDbEntity
  8
SK3
  6
CACHE2
100
AcDbLine
 10
259.5330058186107
 20
73.92421556451427
 30
0.0
 11
259.5330058186107
 21
88.92421556451427
 31
0.0
  0
ARC
  5
5AFB
330
1F
100
AcDbEntity
  8
SK3
  6
CACHE2
100
AcDbCircle
 10
251.2830058186107
 20
88.92421556451427
 30
0.0
 40
0.75
100
AcDbArc
 50
90.0
 51
179.9999999999996
  0
LINE
  5
5AFC
330
1F
100
AcDbEntity
  8
SK3
  6
CACHE2
100
AcDbLine
 10
250.5330058186107
 20
73.92421556451427
 30
0.0
 11
250.5330058186107
 21
88.92421556451427
 31
0.0
  0
LINE
  5
5AFD
330
1F
100
AcDbEntity
  8
SK3
  6
CACHE2
100
AcDbLine
 10
253.3330058186107
 20
73.92421556451427
 30
0.0
 11
253.3330058186107
 21
88.92421556451427
 31
0.0
  0
LINE
  5
5AFE
330
1F
100
AcDbEntity
  8
SK3
  6
CACHE2
100
AcDbLine
 10
253.3330058186107
 20
73.92421556451427
 30
0.0
 11
252.5830058186107
 21
73.17421556451427
 31
0.0
  0
LINE
  5
5AFF
330
1F
100
AcDbEntity
  8
SK3
  6
CACHE2
100
AcDbLine
 10
252.5830058186107
 20
89.67421556451427
 30
0.0
 11
251.2830058186107
 21
89.67421556451427
 31
0.0
  0
LINE
  5
5B00
330
1F
100
AcDbEntity
  8
SK3
  6
CACHE2
100
AcDbLine
 10
253.3330058186107
 20
88.92421556451427
 30
0.0
 11
252.5830058186107
 21
89.67421556451427
 31
0.0
  0
LINE
  5
5B01
330
1F
100
AcDbEntity
  8
SK3
  6
CACHE2
100
AcDbLine
 10
252.5830058186107
 20
73.17421556451427
 30
0.0
 11
252.5830058186107
 21
89.67421556451427
 31
0.0
  0
LINE
  5
5B02
330
1F
100
AcDbEntity
  8
SK3
  6
CACHE2
100
AcDbLine
 10
252.5830058186107
 20
73.17421556451427
 30
0.0
 11
251.2830058186107
 21
73.17421556451427
 31
0.0
  0
ARC
  5
5B03
330
1F
100
AcDbEntity
  8
SK3
  6
CACHE2
100
AcDbCircle
 10
-251.2830058186107
 20
73.92421556451427
 30
0.0
 40
0.75
210
0.0
220
0.0
230
-1.0
100
AcDbArc
 50
270.0
 51
0.0
  0
LINE
  5
5B04
330
1F
100
AcDbEntity
  8
SK3
  6
CACHE2
100
AcDbLine
 10
259.5330058186107
 20
88.92421556451427
 30
0.0
 11
253.3330058186107
 21
88.92421556451427
 31
0.0
  0
LINE
  5
5B05
330
1F
100
AcDbEntity
  8
SK3
  6
CACHE2
100
AcDbLine
 10
259.5330058186107
 20
73.92421556451427
 30
0.0
 11
253.3330058186107
 21
73.92421556451427
 31
0.0
  0
LINE
  5
5B06
330
1F
100
AcDbEntity
  8
SK3
  6
CACHE2
100
AcDbLine
 10
271.5330058186107
 20
87.42421556451427
 30
0.0
 11
259.5330058186107
 21
87.42421556451427
 31
0.0
  0
LINE
  5
5B07
330
1F
100
AcDbEntity
  8
SK3
  6
CACHE2
100
AcDbLine
 10
271.5330058186107
 20
75.42421556451427
 30
0.0
 11
259.5330058186107
 21
75.42421556451427
 31
0.0
  0
LINE
  5
5B08
330
1F
100
AcDbEntity
  8
SK3
  6
CACHE2
100
AcDbLine
 10
276.0330058186107
 20
86.67421556451428
 30
0.0
 11
259.5330058186107
 21
86.67421556451428
 31
0.0
  0
LINE
  5
5B09
330
1F
100
AcDbEntity
  8
SK3
  6
CACHE2
100
AcDbLine
 10
276.0330058186107
 20
76.17421556451427
 30
0.0
 11
259.5330058186107
 21
76.17421556451427
 31
0.0
  0
POINT
  5
5B0E
330
1F
100
AcDbEntity
  8
5
100
AcDbPoint
 10
350.3828388752688
 20
132.3387978968931
 30
0.0
  0
LINE
  5
5B0F
330
1F
100
AcDbEntity
  8
SK3
  6
CACHE2
100
AcDbLine
 10
276.0330058186107
 20
76.17421556451427
 30
0.0
 11
276.0330058186107
 21
86.67421556451428
 31
0.0
  0
LINE
  5
5B10
330
1F
100
AcDbEntity
  8
SK3
  6
CACHE2
100
AcDbLine
 10
271.5330058186107
 20
75.42421556451427
 30
0.0
 11
271.5330058186107
 21
87.42421556451427
 31
0.0
  0
DIMENSION
  5
5B11
330
1F
100
AcDbEntity
  8
2
 62
     7
100
AcDbDimension
  2
*D7
 10
240.4870636056021
 20
65.42421556451427
 30
0.0
 11
240.4870636056021
 21
81.42421556451431
 31
0.0
 70
   160
  1
Ø 32
 71
     5
 42
32.0
  3
WINTOOL
100
AcDbAlignedDimension
 13
265.5330058186107
 23
97.42421556451427
 33
0.0
 14
265.5330058186107
 24
65.42421556451427
 34
0.0
 50
270.0
100
AcDbRotatedDimension
1001
ACAD
1000
DSTYLE
1002
{
1070
   340
1005
11
1002
}
  0
LINE
  5
5B13
102
{ACAD_REACTORS
330
5D6D
102
}
330
1F
100
AcDbEntity
  8
1
 62
     4
100
AcDbLine
 10
295.5330058186106
 20
100.4242155645142
 30
0.0
 11
280.5330058186107
 21
100.4242155645142
 31
0.0
  0
LINE
  5
5B14
330
1F
100
AcDbEntity
  8
1
 62
     4
100
AcDbLine
 10
295.5330058186106
 20
62.42421556451429
 30
0.0
 11
280.5330058186107
 21
62.42421556451429
 31
0.0
  0
LINE
  5
5B15
102
{ACAD_REACTORS
330
5D6D
102
}
330
1F
100
AcDbEntity
  8
1
 62
     4
100
AcDbLine
 10
295.5330058186106
 20
62.42421556451429
 30
0.0
 11
295.5330058186106
 21
100.4242155645142
 31
0.0
  0
LINE
  5
5B16
330
1F
100
AcDbEntity
  8
SK1
 62
     4
100
AcDbLine
 10
312.5330058186106
 20
89.42421556451426
 30
0.0
 11
295.5330058186106
 21
89.42421556451426
 31
0.0
  0
LINE
  5
5B17
330
1F
100
AcDbEntity
  8
SK1
 62
     4
100
AcDbLine
 10
312.5330058186106
 20
73.42421556451427
 30
0.0
 11
295.5330058186106
 21
73.42421556451427
 31
0.0
  0
LINE
  5
5B18
102
{ACAD_REACTORS
330
5D85
102
}
330
1F
100
AcDbEntity
  8
SK1
 62
     4
100
AcDbLine
 10
312.5330058186106
 20
73.42421556451427
 30
0.0
 11
312.5330058186106
 21
89.42421556451426
 31
0.0
  0
LINE
  5
5B19
330
1F
100
AcDbEntity
  8
SK1
 62
     4
100
AcDbLine
 10
300.5330058186107
 20
90.42421556451428
 30
0.0
 11
295.5330058186106
 21
90.42421556451428
 31
0.0
  0
LINE
  5
5B1A
330
1F
100
AcDbEntity
  8
SK1
 62
     4
100
AcDbLine
 10
300.5330058186107
 20
95.42421556451428
 30
0.0
 11
295.5330058186106
 21
95.42421556451428
 31
0.0
  0
LINE
  5
5B1B
330
1F
100
AcDbEntity
  8
SK1
 62
     4
100
AcDbLine
 10
300.5330058186107
 20
72.42421556451427
 30
0.0
 11
295.5330058186106
 21
72.42421556451427
 31
0.0
  0
LINE
  5
5B1C
330
1F
100
AcDbEntity
  8
SK1
 62
     4
100
AcDbLine
 10
300.5330058186107
 20
67.42421556451427
 30
0.0
 11
295.5330058186106
 21
67.42421556451427
 31
0.0
  0
LINE
  5
5B1D
330
1F
100
AcDbEntity
  8
SK1
 62
     4
100
AcDbLine
 10
300.5330058186107
 20
90.42421556451428
 30
0.0
 11
300.5330058186107
 21
95.42421556451428
 31
0.0
  0
LINE
  5
5B1E
330
1F
100
AcDbEntity
  8
SK1
 62
     4
100
AcDbLine
 10
300.5330058186107
 20
67.42421556451427
 30
0.0
 11
300.5330058186107
 21
72.42421556451427
 31
0.0
  0
LINE
  5
5B27
330
1F
100
AcDbEntity
  8
SK1
  6
CACHE2
100
AcDbLine
 10
287.5330058186106
 20
76.77421556451426
 30
0.0
 11
287.5330058186106
 21
86.07421556451425
 31
0.0
  0
DIMENSION
  5
5B29
330
1F
100
AcDbEntity
  8
2
 62
     7
100
AcDbDimension
  2
*D9
 10
265.5330058186107
 20
110.9954517120676
 30
0.0
 11
280.3978581261278
 21
110.9954517120676
 31
0.0
 70
   160
 71
     5
 42
29.99999999999995
  3
WINTOOL
100
AcDbAlignedDimension
 13
295.5330058186106
 23
100.4242155645142
 33
0.0
 14
265.5330058186107
 24
97.42421556451427
 34
0.0
 50
180.0
100
AcDbRotatedDimension
1001
ACAD
1000
DSTYLE
1002
{
1070
   340
1005
11
1002
}
  0
DIMENSION
  5
5B2B
330
1F
100
AcDbEntity
  8
2
 62
     7
100
AcDbDimension
  2
*D11
 10
327.4504283045823
 20
89.42421556451426
 30
0.0
 11
327.4504283045823
 21
81.42421556451433
 31
0.0
 70
   160
  1
Ø 16
 71
     5
 42
16.0
  3
WINTOOL
100
AcDbAlignedDimension
 13
312.5330058186106
 23
73.42421556451427
 33
0.0
 14
312.5330058186106
 24
89.42421556451426
 34
0.0
 50
90.0
100
AcDbRotatedDimension
1001
ACAD
1000
DSTYLE
1002
{
1070
   340
1005
11
1002
}
  0
DIMENSION
  5
5B2C
330
1F
100
AcDbEntity
  8
2
 62
     7
100
AcDbDimension
  2
*D12
 10
335.2793893362202
 20
100.4242155645142
 30
0.0
 11
335.2793893362202
 21
81.42421556451431
 31
0.0
 70
   160
  1
Ø 38
 71
     5
 42
37.99999999999992
  3
WINTOOL
100
AcDbAlignedDimension
 13
295.5330058186106
 23
62.42421556451429
 33
0.0
 14
295.5330058186106
 24
100.4242155645142
 34
0.0
 50
90.0
100
AcDbRotatedDimension
1001
ACAD
1000
DSTYLE
1002
{
1070
   340
1005
11
1002
}
  0
LINE
  5
5C6C
330
1F
100
AcDbEntity
  8
SK1
 62
     4
100
AcDbLine
 10
314.0330058186107
 20
77.42421556451427
 30
0.0
 11
314.0330058186107
 21
85.42421556451428
 31
0.0
  0
LINE
  5
5C6D
330
1F
100
AcDbEntity
  8
SK1
 62
     4
100
AcDbLine
 10
315.5330058186107
 20
77.42421556451427
 30
0.0
 11
312.5330058186106
 21
77.42421556451427
 31
0.0
  0
LINE
  5
5C6E
330
1F
100
AcDbEntity
  8
SK1
 62
     4
100
AcDbLine
 10
321.5330058186107
 20
76.92421556451428
 30
0.0
 11
315.5330058186107
 21
76.92421556451428
 31
0.0
  0
ARC
  5
5C6F
330
1F
100
AcDbEntity
  8
SK1
 62
     4
100
AcDbCircle
 10
319.9330058186107
 20
73.02421556451426
 30
0.0
 40
1.6
100
AcDbArc
 50
270.0
 51
0.0
  0
LINE
  5
5C70
330
1F
100
AcDbEntity
  8
SK1
 62
     4
100
AcDbLine
 10
321.5330058186107
 20
73.02421556451426
 30
0.0
 11
321.5330058186107
 21
89.82421556451427
 31
0.0
  0
LINE
  5
5C71
330
1F
100
AcDbEntity
  8
SK1
 62
     4
100
AcDbLine
 10
315.5330058186107
 20
71.42421556451428
 30
0.0
 11
315.5330058186107
 21
91.42421556451424
 31
0.0
  0
LINE
  5
5C72
330
1F
100
AcDbEntity
  8
SK1
 62
     4
100
AcDbLine
 10
319.9330058186107
 20
71.42421556451428
 30
0.0
 11
315.5330058186107
 21
71.42421556451428
 31
0.0
  0
ARC
  5
5C73
330
1F
100
AcDbEntity
  8
SK1
 62
     4
100
AcDbCircle
 10
319.9330058186107
 20
89.82421556451427
 30
0.0
 40
1.6
100
AcDbArc
 50
0.0
 51
90.0
  0
LINE
  5
5C74
330
1F
100
AcDbEntity
  8
SK1
 62
     4
100
AcDbLine
 10
319.9330058186107
 20
91.42421556451424
 30
0.0
 11
315.5330058186107
 21
91.42421556451424
 31
0.0
  0
LINE
  5
5C75
330
1F
100
AcDbEntity
  8
SK1
 62
     4
100
AcDbLine
 10
321.5330058186107
 20
85.92421556451427
 30
0.0
 11
315.5330058186107
 21
85.92421556451427
 31
0.0
  0
LINE
  5
5C76
330
1F
100
AcDbEntity
  8
SK1
 62
     4
100
AcDbLine
 10
315.5330058186107
 20
85.42421556451428
 30
0.0
 11
312.5330058186106
 21
85.42421556451428
 31
0.0
  0
LINE
  5
5C77
330
1F
100
AcDbEntity
  8
SK1
 62
     4
100
AcDbLine
 10
314.0330058186107
 20
84.67421556451427
 30
0.0
 11
312.5330058186106
 21
84.67421556451427
 31
0.0
  0
LINE
  5
5C78
330
1F
100
AcDbEntity
  8
SK1
 62
     4
100
AcDbLine
 10
314.0330058186107
 20
78.17421556451427
 30
0.0
 11
312.5330058186106
 21
78.17421556451427
 31
0.0
  0
LINE
  5
5C82
330
1F
100
AcDbEntity
  8
SK1
  6
CACHE2
100
AcDbLine
 10
312.5330058186106
 20
88.57421556451425
 30
0.0
 11
285.0308545037303
 21
88.57421556451425
 31
0.0
  0
LINE
  5
5C83
330
1F
100
AcDbEntity
  8
SK1
  6
CACHE2
100
AcDbLine
 10
312.5330058186106
 20
74.27421556451426
 30
0.0
 11
284.9948307533221
 21
74.27421556451426
 31
0.0
  0
LINE
  5
5C84
330
1F
100
AcDbEntity
  8
SK1
  6
CACHE2
100
AcDbLine
 10
312.5330058186106
 20
76.77421556451426
 30
0.0
 11
287.5330058186106
 21
76.77421556451426
 31
0.0
  0
LINE
  5
5C85
330
1F
100
AcDbEntity
  8
SK1
  6
CACHE2
100
AcDbLine
 10
312.5330058186106
 20
86.07421556451425
 30
0.0
 11
287.5330058186106
 21
86.07421556451425
 31
0.0
  0
LINE
  5
5C86
330
1F
100
AcDbEntity
  8
SK1
  6
CACHE2
100
AcDbLine
 10
284.9948307533221
 20
74.27421556451426
 30
0.0
 11
285.0330058186107
 21
88.57421556451425
 31
0.0
  0
LINE
  5
5C87
330
1F
100
AcDbEntity
  8
SK1
  6
CACHE2
100
AcDbLine
 10
285.017255267198
 20
82.67421556451427
 30
0.0
 11
276.0330058186107
 21
82.67421556451427
 31
0.0
  0
LINE
  5
5C88
330
1F
100
AcDbEntity
  8
SK1
  6
CACHE2
100
AcDbLine
 10
285.010581304735
 20
80.17421556451429
 30
0.0
 11
276.0330058186107
 21
80.17421556451427
 31
0.0
  0
DIMENSION
  5
5CF6
330
1F
100
AcDbEntity
  8
2
 62
     7
100
AcDbDimension
  2
*D13
 10
312.5330058186106
 20
117.5545750966495
 30
0.0
 11
281.664012762233
 21
117.5545750966495
 31
0.0
 70
   160
 71
     5
 42
65.99999999999991
  3
WINTOOL
100
AcDbAlignedDimension
 13
246.5330058186107
 23
92.00777617123966
 33
0.0
 14
312.5330058186106
 24
89.42421556451426
 34
0.0
100
AcDbRotatedDimension
1001
ACAD
1000
DSTYLE
1002
{
1070
   341
1005
3FE7
1002
}
  0
POINT
  5
5D25
330
1F
100
AcDbEntity
  8
5
100
AcDbPoint
 10
232.3871208641344
 20
40.17421556451425
 30
0.0
  0
POINT
  5
5D26
330
1F
100
AcDbEntity
  8
5
100
AcDbPoint
 10
342.3871208641344
 20
122.6742155645142
 30
0.0
  0
POINT
  5
5D27
330
1F
100
AcDbEntity
  8
5
100
AcDbPoint
 10
342.3871208641344
 20
122.6742155645142
 30
0.0
  0
POINT
  5
5D28
330
1F
100
AcDbEntity
  8
5
100
AcDbPoint
 10
232.3871208641344
 20
40.17421556451425
 30
0.0
  0
POINT
  5
5D29
330
1F
100
AcDbEntity
  8
5
100
AcDbPoint
 10
265.5330058186107
 20
81.42421556451427
 30
0.0
  0
POINT
  5
5D2A
330
1F
100
AcDbEntity
  8
5
100
AcDbPoint
 10
265.5330058186107
 20
81.42421556451427
 30
0.0
  0
DIMENSION
  5
5D56
102
{ACAD_XDICTIONARY
360
5D63
102
}
102
{ACAD_REACTORS
330
5D6D
102
}
330
1F
100
AcDbEntity
  8
2
 62
     7
100
AcDbDimension
  2
*D14
 10
295.5330058186106
 20
104.6664730510949
 30
0.0
 11
288.0330058186106
 21
107.4164730510949
 31
0.0
 70
    32
 71
     5
 42
14.99999999999994
  3
WINTOOL
100
AcDbAlignedDimension
 13
280.5330058186107
 23
100.4242155645142
 33
0.0
 14
295.5330058186106
 24
100.4242155645142
 34
0.0
100
AcDbRotatedDimension
1001
ACAD
1000
DSTYLE
1002
{
1070
   341
1005
3FE7
1002
}
  0
DIMENSION
  5
5D6E
102
{ACAD_XDICTIONARY
360
5D7B
102
}
102
{ACAD_REACTORS
330
5D85
102
}
330
1F
100
AcDbEntity
  8
2
 62
     7
100
AcDbDimension
  2
*D15
 10
312.5330058186106
 20
110.9954517120676
 30
0.0
 11
304.0330058186106
 21
113.7454517120676
 31
0.0
 70
    32
 71
     5
 42
17.0
  3
WINTOOL
100
AcDbAlignedDimension
 13
295.5330058186106
 23
100.4242155645142
 33
0.0
 14
312.5330058186106
 24
89.42421556451426
 34
0.0
100
AcDbRotatedDimension
1001
ACAD
1000
DSTYLE
1002
{
1070
   341
1005
3FE7
1002
}
  0
MTEXT
  5
5E4C
330
1F
100
AcDbEntity
  8
SK6
 62
     5
100
AcDbMText
 10
280.4722499655706
 20
59.51090959446256
 30
0.0
 40
3.5
 41
38.08722625758436
 71
     1
 72
     5
  1
C3-391.5525-16030
 73
     1
 44
1.0
1001
ACAD
1000
MTEXTBEGIN
1070
    73
1070
     1
1070
    44
1040
1.0
1070
    74
1070
     0
1000
MTEXTEND
  0
MTEXT
  5
5E4D
330
1F
100
AcDbEntity
  8
SK6
 62
     5
100
AcDbMText
 10
280.784320121846
 20
54.49781401054487
 30
0.0
 40
3.5
 41
19.80989828571091
 71
     1
 72
     5
  1
02532782
 73
     1
 44
1.0
1001
ACAD
1000
MTEXTBEGIN
1070
    73
1070
     1
1070
    44
1040
1.0
1070
    74
1070
     0
1000
MTEXTEND
  0
VIEWPORT
  5
59FA
102
{ACAD_XDICTIONARY
360
5F39
102
}
330
59F3
100
AcDbEntity
 67
     1
  8
0
100
AcDbViewport
 10
142.7797529697417
 20
96.46546413302631
 30
0.0
 40
230.3476309289795
 41
164.1226870368979
 68
     1
 69
     1
 12
142.7797529697417
 22
96.46546413302631
 13
0.0
 23
0.0
 14
10.0
 24
10.0
 15
10.0
 25
10.0
 16
0.0
 26
0.0
 36
1.0
 17
0.0
 27
0.0
 37
0.0
 42
50.0
 43
0.0
 44
0.0
 45
164.1226870368979
 50
0.0
 51
0.0
 72
   100
 90
    32800
  1

281
     0
 71
     1
 74
     0
110
0.0
120
0.0
130
0.0
111
1.0
121
0.0
131
0.0
112
0.0
122
1.0
132
0.0
 79
     0
146
0.0
  0
VIEWPORT
  5
59FC
102
{ACAD_XDICTIONARY
360
5F3B
102
}
330
59F3
100
AcDbEntity
 67
     1
  8
- Default
100
AcDbViewport
 10
142.7797529697418
 20
99.74791765213012
 30
0.0
 40
228.447604751587
 41
159.5966682434081
 68
     2
 69
     2
 12
398.5543632245868
 22
298.9609757892988
 13
0.0
 23
0.0
 14
10.0
 24
10.0
 15
10.0
 25
10.0
 16
0.0
 26
0.0
 36
1.0
 17
0.0
 27
0.0
 37
0.0
 42
50.0
 43
0.0
 44
0.0
 45
641.1957259021303
 50
0.0
 51
0.0
 72
  1000
 90
    32864
  1

281
     0
 71
     1
 74
     0
110
316.3512076211408
120
315.8786602293522
130
0.0
111
1.0
121
0.0
131
0.0
112
0.0
122
1.0
132
0.0
 79
     0
146
0.0
  0
ENDSEC
  0
SECTION
  2
OBJECTS
  0
DICTIONARY
  5
C
330
0
100
AcDbDictionary
281
     1
  3
ACAD_2007HEADERVARS_RT
350
5F32
  3
ACAD_COLOR
350
6B
  3
ACAD_GROUP
350
D
  3
ACAD_LAYOUT
350
1A
  3
ACAD_MATERIAL
350
6A
  3
ACAD_MLEADERSTYLE
350
5EBD
  3
ACAD_MLINESTYLE
350
17
  3
ACAD_PLOTSETTINGS
350
19
  3
ACAD_PLOTSTYLENAME
350
E
  3
ACAD_SCALELIST
350
5E9B
  3
ACAD_TABLESTYLE
350
7E
  3
ACAD_VISUALSTYLE
350
5E8A
  3
AcadDim
350
58C6
  3
ACDB_RECOMPOSE_DATA
350
5F30
  3
AcDbVariableDictionary
350
5E
  3
DWGPROPS
350
5F31
  0
DICTIONARY
  5
1E47
330
2
100
AcDbDictionary
280
     1
281
     1
  3
ACAD_LAYERFILTERS
360
5A22
  3
ACAD_LAYERSTATES
360
1E48
  3
ACLYDICTIONARY
360
5A21
  0
DICTIONARY
  5
5F02
330
10
100
AcDbDictionary
280
     1
281
     1
  3
ADSK_XREC_LAYER_RECONCILED
360
5F03
  0
DICTIONARY
  5
5F04
330
1E42
100
AcDbDictionary
280
     1
281
     1
  3
ADSK_XREC_LAYER_RECONCILED
360
5F05
  0
DICTIONARY
  5
5F06
330
1E43
100
AcDbDictionary
280
     1
281
     1
  3
ADSK_XREC_LAYER_RECONCILED
360
5F07
  0
DICTIONARY
  5
5F08
330
1E44
100
AcDbDictionary
280
     1
281
     1
  3
ADSK_XREC_LAYER_RECONCILED
360
5F09
  0
DICTIONARY
  5
5F0A
330
3629
100
AcDbDictionary
280
     1
281
     1
  3
ADSK_XREC_LAYER_RECONCILED
360
5F0B
  0
DICTIONARY
  5
5F0C
330
362A
100
AcDbDictionary
280
     1
281
     1
  3
ADSK_XREC_LAYER_RECONCILED
360
5F0D
  0
DICTIONARY
  5
5F0E
330
3783
100
AcDbDictionary
280
     1
281
     1
  3
ADSK_XREC_LAYER_RECONCILED
360
5F0F
  0
DICTIONARY
  5
5F10
330
3784
100
AcDbDictionary
280
     1
281
     1
  3
ADSK_XREC_LAYER_RECONCILED
360
5F11
  0
DICTIONARY
  5
5F12
330
3785
100
AcDbDictionary
280
     1
281
     1
  3
ADSK_XREC_LAYER_RECONCILED
360
5F13
  0
DICTIONARY
  5
5F14
330
39C1
100
AcDbDictionary
280
     1
281
     1
  3
ADSK_XREC_LAYER_RECONCILED
360
5F15
  0
DICTIONARY
  5
5F16
330
39C2
100
AcDbDictionary
280
     1
281
     1
  3
ADSK_XREC_LAYER_RECONCILED
360
5F17
  0
DICTIONARY
  5
5F18
330
3B9E
100
AcDbDictionary
280
     1
281
     1
  3
ADSK_XREC_LAYER_RECONCILED
360
5F19
  0
DICTIONARY
  5
5F1A
330
3B9F
100
AcDbDictionary
280
     1
281
     1
  3
ADSK_XREC_LAYER_RECONCILED
360
5F1B
  0
DICTIONARY
  5
5F1C
330
3BA0
100
AcDbDictionary
280
     1
281
     1
  3
ADSK_XREC_LAYER_RECONCILED
360
5F1D
  0
DICTIONARY
  5
5F1E
330
3BA1
100
AcDbDictionary
280
     1
281
     1
  3
ADSK_XREC_LAYER_RECONCILED
360
5F1F
  0
DICTIONARY
  5
5F20
330
3BA2
100
AcDbDictionary
280
     1
281
     1
  3
ADSK_XREC_LAYER_RECONCILED
360
5F21
  0
DICTIONARY
  5
5F22
330
3BA3
100
AcDbDictionary
280
     1
281
     1
  3
ADSK_XREC_LAYER_RECONCILED
360
5F23
  0
DICTIONARY
  5
5F24
330
3FEC
100
AcDbDictionary
280
     1
281
     1
  3
ADSK_XREC_LAYER_RECONCILED
360
5F25
  0
DICTIONARY
  5
5F26
330
5A7B
100
AcDbDictionary
280
     1
281
     1
  3
ADSK_XREC_LAYER_RECONCILED
360
5F27
  0
DICTIONARY
  5
5F28
330
5A7C
100
AcDbDictionary
280
     1
281
     1
  3
ADSK_XREC_LAYER_RECONCILED
360
5F29
  0
DICTIONARY
  5
3615
330
1F
100
AcDbDictionary
280
     1
281
     1
  3
ACAD_SORTENTS
360
3616
  0
DICTIONARY
  5
5D63
330
5D56
100
AcDbDictionary
280
     1
281
     1
  3
ACAD_DIMASSOC
360
5D6D
  0
DICTIONARY
  5
5D7B
330
5D6E
100
AcDbDictionary
280
     1
281
     1
  3
ACAD_DIMASSOC
360
5D85
  0
DICTIONARY
  5
5F39
330
59FA
100
AcDbDictionary
280
     1
281
     1
  3
ACAD_XREC_ROUNDTRIP
360
5F3A
  0
DICTIONARY
  5
5F3B
330
59FC
100
AcDbDictionary
280
     1
281
     1
  3
ACAD_XREC_ROUNDTRIP
360
5F3C
  0
DICTIONARY
  5
5F32
102
{ACAD_REACTORS
330
C
102
}
330
C
100
AcDbDictionary
281
     1
  3
DIMFXL
350
5F33
  3
DIMJOGANG
350
5F34
  0
DICTIONARY
  5
6B
102
{ACAD_REACTORS
330
C
102
}
330
C
100
AcDbDictionary
281
     1
  0
DICTIONARY
  5
D
102
{ACAD_REACTORS
330
C
102
}
330
C
100
AcDbDictionary
281
     1
  0
DICTIONARY
  5
1A
102
{ACAD_REACTORS
330
C
102
}
330
C
100
AcDbDictionary
281
     1
  3
Model
350
22
  3
Présentation1
350
59F4
  0
DICTIONARY
  5
6A
102
{ACAD_REACTORS
330
C
102
}
330
C
100
AcDbDictionary
281
     1
  3
ByBlock
350
5E7A
  3
ByLayer
350
5E72
  3
Global
350
5E82
  0
DICTIONARY
  5
5EBD
102
{ACAD_REACTORS
330
C
102
}
330
C
100
AcDbDictionary
281
     1
  3
Standard
350
5EBE
  0
DICTIONARY
  5
17
102
{ACAD_REACTORS
330
C
102
}
330
C
100
AcDbDictionary
281
     1
  3
Standard
350
18
  0
DICTIONARY
  5
19
102
{ACAD_REACTORS
330
C
102
}
330
C
100
AcDbDictionary
281
     1
  0
ACDBDICTIONARYWDFLT
  5
E
102
{ACAD_REACTORS
330
C
102
}
330
C
100
AcDbDictionary
281
     1
  3
Normal
350
F
100
AcDbDictionaryWithDefault
340
F
  0
DICTIONARY
  5
5E9B
102
{ACAD_REACTORS
330
C
102
}
330
C
100
AcDbDictionary
281
     1
  3
A0
350
5E9C
  3
A1
350
5E9D
  3
A2
350
5E9E
  3
A3
350
5E9F
  3
A4
350
5EA0
  3
A5
350
5EA1
  3
A6
350
5EA2
  3
A7
350
5EA3
  3
A8
350
5EA4
  3
A9
350
5EA5
  3
B0
350
5EA6
  3
B1
350
5EA7
  3
B2
350
5EA8
  3
B3
350
5EA9
  3
B4
350
5EAA
  3
B5
350
5EAB
  3
B6
350
5EAC
  3
B7
350
5EAD
  3
B8
350
5EAE
  3
B9
350
5EAF
  3
C0
350
5EB0
  3
C1
350
5EB1
  3
C2
350
5EB2
  3
C3
350
5EB3
  3
C4
350
5EB4
  3
C5
350
5EB5
  3
C6
350
5EB6
  3
C7
350
5EB7
  3
C8
350
5EB8
  3
C9
350
5EB9
  3
D0
350
5EBA
  3
D1
350
5EBB
  3
D2
350
5EBC
  0
DICTIONARY
  5
7E
102
{ACAD_REACTORS
330
C
102
}
330
C
100
AcDbDictionary
281
     1
  3
Standard
350
7F
  0
DICTIONARY
  5
5E8A
102
{ACAD_REACTORS
330
C
102
}
330
C
100
AcDbDictionary
281
     1
  3
2dWireframe
350
5E90
  3
3D Hidden
350
5E92
  3
3dWireframe
350
5E91
  3
Basic
350
5E8F
  3
Brighten
350
5E96
  3
ColorChange
350
5E9A
  3
Conceptual
350
5E93
  3
Dim
350
5E95
  3
Facepattern
350
5E99
  3
Flat
350
5E8B
  3
FlatWithEdges
350
5E8C
  3
Gouraud
350
5E8D
  3
GouraudWithEdges
350
5E8E
  3
Linepattern
350
5E98
  3
Realistic
350
5E94
  3
Thicken
350
5E97
  0
XRECORD
  5
58C6
102
{ACAD_REACTORS
330
C
102
}
330
C
100
AcDbXrecord
280
     1
 90
   990106
  3

 60
     3
 61
     0
 62
     1
 63
     3
 64
     0
 65
     0
 66
     0
 67
     3
 68
     1
 69
     0
 70
     0
 71
     0
 72
     0
 40
0.0
170
     0
  0
XRECORD
  5
5F30
102
{ACAD_REACTORS
330
C
102
}
330
C
100
AcDbXrecord
280
     1
 90
        1
330
7F
  0
DICTIONARY
  5
5E
102
{ACAD_REACTORS
330
C
102
}
330
C
100
AcDbDictionary
281
     1
  3
CANNOSCALE
350
5F2B
  3
CMLEADERSTYLE
350
5F2A
  3
CTABLESTYLE
350
84
  3
DIMASSOC
350
5F
  3
HIDETEXT
350
63
  3
INDEXCTL
350
5F2D
  3
PROJECTNAME
350
5E4E
  3
SORTENTS
350
5F2C
  0
XRECORD
  5
5F31
102
{ACAD_REACTORS
330
C
102
}
330
C
100
AcDbXrecord
280
     1
  1
DWGPROPS COOKIE
  2

  3

  4

  6

  7

  8
sefagings
  9

300
=
301
=
302
=
303
=
304
=
305
=
306
=
307
=
308
=
309
=
 40
0.0428898726851852
 41
2454172.670813739
 42
2455132.409178415
  1

 90
        0
  0
DICTIONARY
  5
5A22
102
{ACAD_REACTORS
330
1E47
102
}
330
1E47
100
AcDbDictionary
281
     1
  0
DICTIONARY
  5
1E48
102
{ACAD_REACTORS
330
1E47
102
}
330
1E47
100
AcDbDictionary
281
     1
  0
DICTIONARY
  5
5A21
102
{ACAD_REACTORS
330
1E47
102
}
330
1E47
100
AcDbDictionary
281
     1
1001
ACAD
1000
<All
  0
XRECORD
  5
5F03
102
{ACAD_REACTORS
330
5F02
102
}
330
5F02
100
AcDbXrecord
280
     1
290
     1
  0
XRECORD
  5
5F05
102
{ACAD_REACTORS
330
5F04
102
}
330
5F04
100
AcDbXrecord
280
     1
290
     1
  0
XRECORD
  5
5F07
102
{ACAD_REACTORS
330
5F06
102
}
330
5F06
100
AcDbXrecord
280
     1
290
     1
  0
XRECORD
  5
5F09
102
{ACAD_REACTORS
330
5F08
102
}
330
5F08
100
AcDbXrecord
280
     1
290
     1
  0
XRECORD
  5
5F0B
102
{ACAD_REACTORS
330
5F0A
102
}
330
5F0A
100
AcDbXrecord
280
     1
290
     1
  0
XRECORD
  5
5F0D
102
{ACAD_REACTORS
330
5F0C
102
}
330
5F0C
100
AcDbXrecord
280
     1
290
     1
  0
XRECORD
  5
5F0F
102
{ACAD_REACTORS
330
5F0E
102
}
330
5F0E
100
AcDbXrecord
280
     1
290
     1
  0
XRECORD
  5
5F11
102
{ACAD_REACTORS
330
5F10
102
}
330
5F10
100
AcDbXrecord
280
     1
290
     1
  0
XRECORD
  5
5F13
102
{ACAD_REACTORS
330
5F12
102
}
330
5F12
100
AcDbXrecord
280
     1
290
     1
  0
XRECORD
  5
5F15
102
{ACAD_REACTORS
330
5F14
102
}
330
5F14
100
AcDbXrecord
280
     1
290
     1
  0
XRECORD
  5
5F17
102
{ACAD_REACTORS
330
5F16
102
}
330
5F16
100
AcDbXrecord
280
     1
290
     1
  0
XRECORD
  5
5F19
102
{ACAD_REACTORS
330
5F18
102
}
330
5F18
100
AcDbXrecord
280
     1
290
     1
  0
XRECORD
  5
5F1B
102
{ACAD_REACTORS
330
5F1A
102
}
330
5F1A
100
AcDbXrecord
280
     1
290
     1
  0
XRECORD
  5
5F1D
102
{ACAD_REACTORS
330
5F1C
102
}
330
5F1C
100
AcDbXrecord
280
     1
290
     1
  0
XRECORD
  5
5F1F
102
{ACAD_REACTORS
330
5F1E
102
}
330
5F1E
100
AcDbXrecord
280
     1
290
     1
  0
XRECORD
  5
5F21
102
{ACAD_REACTORS
330
5F20
102
}
330
5F20
100
AcDbXrecord
280
     1
290
     1
  0
XRECORD
  5
5F23
102
{ACAD_REACTORS
330
5F22
102
}
330
5F22
100
AcDbXrecord
280
     1
290
     1
  0
XRECORD
  5
5F25
102
{ACAD_REACTORS
330
5F24
102
}
330
5F24
100
AcDbXrecord
280
     1
290
     1
  0
XRECORD
  5
5F27
102
{ACAD_REACTORS
330
5F26
102
}
330
5F26
100
AcDbXrecord
280
     1
290
     1
  0
XRECORD
  5
5F29
102
{ACAD_REACTORS
330
5F28
102
}
330
5F28
100
AcDbXrecord
280
     1
290
     1
  0
SORTENTSTABLE
  5
3616
102
{ACAD_REACTORS
330
3615
102
}
330
3615
100
AcDbSortentsTable
330
1F
331
5C6C
  5
5C75
331
5B0E
  5
5B13
331
5B14
  5
5B18
331
5AE5
  5
5AE7
331
5B03
  5
5B05
331
5AF8
  5
5AFA
331
5ADA
  5
5ADA
331
5C74
  5
5C86
331
5C6D
  5
5C76
331
5B0F
  5
5B14
331
5B15
  5
5B19
331
5B04
  5
5B06
331
5AE6
  5
5AE8
331
5C75
  5
5C87
331
5AF9
  5
5AFB
331
5B16
  5
5B1A
331
5C6E
  5
5C78
331
5AE7
  5
5AE9
331
5B05
  5
5B07
331
5B18
  5
5B1C
331
5AFA
  5
5AFC
331
5ADC
  5
5ADC
331
5C76
  5
5C88
331
5C6F
  5
5C79
331
5B17
  5
5B1B
331
5C82
  5
5B2B
331
5B06
  5
5B08
331
5AE8
  5
5AEA
331
5C77
  5
5CF6
331
5B19
  5
5B1D
331
5AFB
  5
5AFD
331
5ADD
  5
5ADD
331
5AF0
  5
5AF2
331
5B07
  5
5B09
331
5AE9
  5
5AEB
331
5C83
  5
5C6C
331
5B1A
  5
5B1E
331
5AFC
  5
5AFE
331
5ADE
  5
5ADE
331
5C78
  5
5D0E
331
5AF1
  5
5AF3
331
5C84
  5
5C6D
331
5B08
  5
5B0D
331
5AEA
  5
5AEC
331
5B1B
  5
5B26
331
5AFD
  5
5AFF
331
5ADF
  5
5AE1
331
5AF2
  5
5AF4
331
5C85
  5
5B2C
331
5B09
  5
5B0E
331
5AEB
  5
5AED
331
5B27
  5
5C6E
331
5B1C
  5
5B28
331
5AFE
  5
5B00
331
5AE0
  5
5AE2
331
5AF3
  5
5AF5
331
5C86
  5
5C6F
331
5AEC
  5
5AEE
331
5B10
  5
5B15
331
5B29
  5
5C71
331
5B1D
  5
5B29
331
5AFF
  5
5B01
331
5AE1
  5
5AE3
331
5C70
  5
5C82
331
5AF4
  5
5AF6
331
5B11
  5
5B16
331
5AED
  5
5AEF
331
5C87
  5
5B11
331
5B1E
  5
5B2A
331
5B00
  5
5B02
331
5AE2
  5
5AE4
331
5C71
  5
5C83
331
5AF5
  5
5AF7
331
5AD7
  5
5AD7
331
5AEE
  5
5AF0
331
5B2B
  5
5C73
331
5B01
  5
5B03
331
5AE3
  5
5AE5
331
5CF6
  5
5D21
331
5C88
  5
5B10
331
5AF6
  5
5AF8
331
5AD8
  5
5AD8
331
5C72
  5
5C84
331
5AEF
  5
5AF1
331
5B13
  5
5B17
331
5B2C
  5
5C74
331
5B02
  5
5B04
331
5AE4
  5
5AE6
331
5C73
  5
5C85
331
5AF7
  5
5AF9
331
5AD9
  5
5AD9
  0
DIMASSOC
  5
5D6D
102
{ACAD_REACTORS
330
5D63
102
}
330
5D63
100
AcDbDimAssoc
330
5D56
 90
        3
 70
     0
 71
     0
  1
AcDbOsnapPointRef
 72
     1
331
5B13
 73
     2
 91
        0
 40
1.0
 10
0.0
 20
0.0
 30
2.000000000000000E+50
 75
     0
  1
AcDbOsnapPointRef
 72
     1
331
5B15
 73
     2
 91
        0
 40
1.0
 10
0.0
 20
0.0
 30
2.000000000000000E+50
 75
     0
  0
DIMASSOC
  5
5D85
102
{ACAD_REACTORS
330
5D7B
102
}
330
5D7B
100
AcDbDimAssoc
330
5D6E
 90
        2
 70
     0
 71
     0
  1
AcDbOsnapPointRef
 72
     1
331
5B18
 73
     2
 91
        0
 40
1.0
 10
0.0
 20
0.0
 30
2.000000000000000E+50
 75
     0
  0
XRECORD
  5
5F3A
102
{ACAD_REACTORS
330
5F39
102
}
330
5F39
100
AcDbXrecord
280
     1
102
SHADEPLOT
 70
     0
  0
XRECORD
  5
5F3C
102
{ACAD_REACTORS
330
5F3B
102
}
330
5F3B
100
AcDbXrecord
280
     1
102
SHADEPLOT
 70
     0
  0
XRECORD
  5
5F33
102
{ACAD_REACTORS
330
5F32
102
}
330
5F32
100
AcDbXrecord
280
     1
 40
1.25
  0
XRECORD
  5
5F34
102
{ACAD_REACTORS
330
5F32
102
}
330
5F32
100
AcDbXrecord
280
     1
 40
1.570796326794896
  0
LAYOUT
  5
22
102
{ACAD_XDICTIONARY
360
5F35
102
}
102
{ACAD_REACTORS
330
1A
102
}
330
1A
100
AcDbPlotSettings
  1

  2
none_device
  4
ISO_A4_(210.00_x_297.00_MM)
  6

 40
7.5
 41
20.0
 42
7.5
 43
20.0
 44
210.0
 45
297.0
 46
11.54999923706054
 47
-13.65000009536743
 48
0.0
 49
0.0
140
0.0
141
0.0
142
1.0
143
8.704084754739808
 70
 11952
 72
     1
 73
     0
 74
     0
  7

 75
     0
147
0.1148885871608098
148
0.0
149
0.0
100
AcDbLayout
  1
Model
 70
     1
 71
     0
 10
0.0
 20
0.0
 11
12.0
 21
9.0
 12
0.0
 22
0.0
 32
0.0
 14
0.0
 24
0.0
 34
0.0
 15
0.0
 25
0.0
 35
0.0
146
0.0
 13
0.0
 23
0.0
 33
0.0
 16
1.0
 26
0.0
 36
0.0
 17
0.0
 27
1.0
 37
0.0
 76
     0
330
1F
331
5E62
1001
ACAD_PSEXT
1000
None
1000
None
1000
Not applicable
1000
The layout will not be plotted unless a new plotter configuration name is selected.
1070
     0
  0
LAYOUT
  5
59F4
102
{ACAD_XDICTIONARY
360
5A01
102
}
102
{ACAD_REACTORS
330
1A
102
}
330
1A
100
AcDbPlotSettings
  1

  2
HP LaserJet 4250 PS
  4
A4
  6

 40
5.027083396911621
 41
6.127749919891357
 42
5.365737915039061
 43
5.365753173828125
 44
209.8886566162109
 45
297.0530090332031
 46
0.0
 47
0.0
 48
0.0
 49
0.0
140
0.0
141
0.0
142
1.0
143
1.0
 70
   688
 72
     1
 73
     1
 74
     5
  7

 75
    16
147
1.0
148
0.0
149
0.0
100
AcDbLayout
  1
Présentation1
 70
     1
 71
     1
 10
-5.365753173828125
 20
-5.027083396911621
 11
291.687255859375
 21
204.8615732192993
 12
0.0
 22
0.0
 32
0.0
 14
28.55595059394835
 24
19.94958353042602
 34
0.0
 15
257.0035553455353
 25
179.5462517738342
 35
0.0
146
0.0
 13
0.0
 23
0.0
 33
0.0
 16
1.0
 26
0.0
 36
0.0
 17
0.0
 27
1.0
 37
0.0
 76
     0
330
59F3
331
59FA
1001
ACAD_PSEXT
1000
HP LaserJet 4250 PS
1000
HP LaserJet 4250 PS
1000
IP_172.17.109.77
1000

1070
     0
  0
MATERIAL
  5
5E7A
102
{ACAD_XDICTIONARY
360
5E7B
102
}
102
{ACAD_REACTORS
330
6A
102
}
330
6A
100
AcDbMaterial
  1
ByBlock
 72
     0
 43
0.0008202099737533
 43
0.0
 43
0.0
 43
0.0
 43
0.0
 43
0.0008202099737533
 43
0.0
 43
0.0
 43
0.0
 43
0.0
 43
1.0
 43
0.0
 43
0.0
 43
0.0
 43
0.0
 43
1.0
 77
     0
 47
0.0008202099737533
 47
0.0
 47
0.0
 47
0.0
 47
0.0
 47
0.0008202099737533
 47
0.0
 47
0.0
 47
0.0
 47
0.0
 47
1.0
 47
0.0
 47
0.0
 47
0.0
 47
0.0
 47
1.0
171
     0
 49
0.0008202099737533
 49
0.0
 49
0.0
 49
0.0
 49
0.0
 49
0.0008202099737533
 49
0.0
 49
0.0
 49
0.0
 49
0.0
 49
1.0
 49
0.0
 49
0.0
 49
0.0
 49
0.0
 49
1.0
175
     0
142
0.0008202099737533
142
0.0
142
0.0
142
0.0
142
0.0
142
0.0008202099737533
142
0.0
142
0.0
142
0.0
142
0.0
142
1.0
142
0.0
142
0.0
142
0.0
142
0.0
142
1.0
179
     0
144
0.0008202099737533
144
0.0
144
0.0
144
0.0
144
0.0
144
0.0008202099737533
144
0.0
144
0.0
144
0.0
144
0.0
144
1.0
144
0.0
144
0.0
144
0.0
144
0.0
144
1.0
147
0.0008202099737533
147
0.0
147
0.0
147
0.0
147
0.0
147
0.0008202099737533
147
0.0
147
0.0
147
0.0
147
0.0
147
1.0
147
0.0
147
0.0
147
0.0
147
0.0
147
1.0
  0
MATERIAL
  5
5E72
102
{ACAD_XDICTIONARY
360
5E73
102
}
102
{ACAD_REACTORS
330
6A
102
}
330
6A
100
AcDbMaterial
  1
ByLayer
 72
     0
 43
0.0008202099737533
 43
0.0
 43
0.0
 43
0.0
 43
0.0
 43
0.0008202099737533
 43
0.0
 43
0.0
 43
0.0
 43
0.0
 43
1.0
 43
0.0
 43
0.0
 43
0.0
 43
0.0
 43
1.0
 77
     0
 47
0.0008202099737533
 47
0.0
 47
0.0
 47
0.0
 47
0.0
 47
0.0008202099737533
 47
0.0
 47
0.0
 47
0.0
 47
0.0
 47
1.0
 47
0.0
 47
0.0
 47
0.0
 47
0.0
 47
1.0
171
     0
 49
0.0008202099737533
 49
0.0
 49
0.0
 49
0.0
 49
0.0
 49
0.0008202099737533
 49
0.0
 49
0.0
 49
0.0
 49
0.0
 49
1.0
 49
0.0
 49
0.0
 49
0.0
 49
0.0
 49
1.0
175
     0
142
0.0008202099737533
142
0.0
142
0.0
142
0.0
142
0.0
142
0.0008202099737533
142
0.0
142
0.0
142
0.0
142
0.0
142
1.0
142
0.0
142
0.0
142
0.0
142
0.0
142
1.0
179
     0
144
0.0008202099737533
144
0.0
144
0.0
144
0.0
144
0.0
144
0.0008202099737533
144
0.0
144
0.0
144
0.0
144
0.0
144
1.0
144
0.0
144
0.0
144
0.0
144
0.0
144
1.0
147
0.0008202099737533
147
0.0
147
0.0
147
0.0
147
0.0
147
0.0008202099737533
147
0.0
147
0.0
147
0.0
147
0.0
147
1.0
147
0.0
147
0.0
147
0.0
147
0.0
147
1.0
  0
MATERIAL
  5
5E82
102
{ACAD_XDICTIONARY
360
5E83
102
}
102
{ACAD_REACTORS
330
6A
102
}
330
6A
100
AcDbMaterial
  1
Global
 72
     0
 43
0.0008202099737533
 43
0.0
 43
0.0
 43
0.0
 43
0.0
 43
0.0008202099737533
 43
0.0
 43
0.0
 43
0.0
 43
0.0
 43
1.0
 43
0.0
 43
0.0
 43
0.0
 43
0.0
 43
1.0
 77
     0
 47
0.0008202099737533
 47
0.0
 47
0.0
 47
0.0
 47
0.0
 47
0.0008202099737533
 47
0.0
 47
0.0
 47
0.0
 47
0.0
 47
1.0
 47
0.0
 47
0.0
 47
0.0
 47
0.0
 47
1.0
171
     0
 49
0.0008202099737533
 49
0.0
 49
0.0
 49
0.0
 49
0.0
 49
0.0008202099737533
 49
0.0
 49
0.0
 49
0.0
 49
0.0
 49
1.0
 49
0.0
 49
0.0
 49
0.0
 49
0.0
 49
1.0
175
     0
142
0.0008202099737533
142
0.0
142
0.0
142
0.0
142
0.0
142
0.0008202099737533
142
0.0
142
0.0
142
0.0
142
0.0
142
1.0
142
0.0
142
0.0
142
0.0
142
0.0
142
1.0
179
     0
144
0.0008202099737533
144
0.0
144
0.0
144
0.0
144
0.0
144
0.0008202099737533
144
0.0
144
0.0
144
0.0
144
0.0
144
1.0
144
0.0
144
0.0
144
0.0
144
0.0
144
1.0
147
0.0008202099737533
147
0.0
147
0.0
147
0.0
147
0.0
147
0.0008202099737533
147
0.0
147
0.0
147
0.0
147
0.0
147
1.0
147
0.0
147
0.0
147
0.0
147
0.0
147
1.0
  0
MLEADERSTYLE
  5
5EBE
102
{ACAD_REACTORS
330
5EBD
102
}
330
5EBD
100
AcDbMLeaderStyle
170
     2
171
     1
172
     0
 90
        2
 40
0.0
 41
0.0
173
     1
 91
-1056964608
340
14
 92
       -2
290
     1
 42
2.0
291
     1
 43
0.36
  3
Standard
 44
4.0
300

342
11
174
     1
178
     6
175
     1
176
     0
 93
-1056964608
 45
4.0
292
     0
297
     0
 46
4.0
 94
-1056964608
 47
1.0
 49
1.0
140
1.0
293
     1
141
0.0
294
     1
177
     0
142
1.0
295
     0
296
     0
143
0.125
1001
ACAD_MLEADERVER
1070
     2
  0
MLINESTYLE
  5
18
102
{ACAD_REACTORS
330
17
102
}
330
17
100
AcDbMlineStyle
  2
STANDARD
 70
     0
  3

 62
   256
 51
90.0
 52
90.0
 71
     2
 49
0.5
 62
   256
  6
BYLAYER
 49
-0.5
 62
   256
  6
BYLAYER
  0
ACDBPLACEHOLDER
  5
F
102
{ACAD_REACTORS
330
E
102
}
330
E
  0
SCALE
  5
5E9C
102
{ACAD_REACTORS
330
5E9B
102
}
330
5E9B
100
AcDbScale
 70
     0
300
1:1
140
1.0
141
1.0
290
     1
  0
SCALE
  5
5E9D
102
{ACAD_REACTORS
330
5E9B
102
}
330
5E9B
100
AcDbScale
 70
     0
300
1:2
140
1.0
141
2.0
290
     0
  0
SCALE
  5
5E9E
102
{ACAD_REACTORS
330
5E9B
102
}
330
5E9B
100
AcDbScale
 70
     0
300
1:4
140
1.0
141
4.0
290
     0
  0
SCALE
  5
5E9F
102
{ACAD_REACTORS
330
5E9B
102
}
330
5E9B
100
AcDbScale
 70
     0
300
1:5
140
1.0
141
5.0
290
     0
  0
SCALE
  5
5EA0
102
{ACAD_REACTORS
330
5E9B
102
}
330
5E9B
100
AcDbScale
 70
     0
300
1:8
140
1.0
141
8.0
290
     0
  0
SCALE
  5
5EA1
102
{ACAD_REACTORS
330
5E9B
102
}
330
5E9B
100
AcDbScale
 70
     0
300
1:10
140
1.0
141
10.0
290
     0
  0
SCALE
  5
5EA2
102
{ACAD_REACTORS
330
5E9B
102
}
330
5E9B
100
AcDbScale
 70
     0
300
1:16
140
1.0
141
16.0
290
     0
  0
SCALE
  5
5EA3
102
{ACAD_REACTORS
330
5E9B
102
}
330
5E9B
100
AcDbScale
 70
     0
300
1:20
140
1.0
141
20.0
290
     0
  0
SCALE
  5
5EA4
102
{ACAD_REACTORS
330
5E9B
102
}
330
5E9B
100
AcDbScale
 70
     0
300
1:30
140
1.0
141
30.0
290
     0
  0
SCALE
  5
5EA5
102
{ACAD_REACTORS
330
5E9B
102
}
330
5E9B
100
AcDbScale
 70
     0
300
1:40
140
1.0
141
40.0
290
     0
  0
SCALE
  5
5EA6
102
{ACAD_REACTORS
330
5E9B
102
}
330
5E9B
100
AcDbScale
 70
     0
300
1:50
140
1.0
141
50.0
290
     0
  0
SCALE
  5
5EA7
102
{ACAD_REACTORS
330
5E9B
102
}
330
5E9B
100
AcDbScale
 70
     0
300
1:100
140
1.0
141
100.0
290
     0
  0
SCALE
  5
5EA8
102
{ACAD_REACTORS
330
5E9B
102
}
330
5E9B
100
AcDbScale
 70
     0
300
2:1
140
2.0
141
1.0
290
     0
  0
SCALE
  5
5EA9
102
{ACAD_REACTORS
330
5E9B
102
}
330
5E9B
100
AcDbScale
 70
     0
300
4:1
140
4.0
141
1.0
290
     0
  0
SCALE
  5
5EAA
102
{ACAD_REACTORS
330
5E9B
102
}
330
5E9B
100
AcDbScale
 70
     0
300
8:1
140
8.0
141
1.0
290
     0
  0
SCALE
  5
5EAB
102
{ACAD_REACTORS
330
5E9B
102
}
330
5E9B
100
AcDbScale
 70
     0
300
10:1
140
10.0
141
1.0
290
     0
  0
SCALE
  5
5EAC
102
{ACAD_REACTORS
330
5E9B
102
}
330
5E9B
100
AcDbScale
 70
     0
300
100:1
140
100.0
141
1.0
290
     0
  0
SCALE
  5
5EAD
102
{ACAD_REACTORS
330
5E9B
102
}
330
5E9B
100
AcDbScale
 70
     0
300
1/128" = 1'-0"
140
0.0078125
141
12.0
290
     0
  0
SCALE
  5
5EAE
102
{ACAD_REACTORS
330
5E9B
102
}
330
5E9B
100
AcDbScale
 70
     0
300
1/64" = 1'-0"
140
0.015625
141
12.0
290
     0
  0
SCALE
  5
5EAF
102
{ACAD_REACTORS
330
5E9B
102
}
330
5E9B
100
AcDbScale
 70
     0
300
1/32" = 1'-0"
140
0.03125
141
12.0
290
     0
  0
SCALE
  5
5EB0
102
{ACAD_REACTORS
330
5E9B
102
}
330
5E9B
100
AcDbScale
 70
     0
300
1/16" = 1'-0"
140
0.0625
141
12.0
290
     0
  0
SCALE
  5
5EB1
102
{ACAD_REACTORS
330
5E9B
102
}
330
5E9B
100
AcDbScale
 70
     0
300
3/32" = 1'-0"
140
0.09375
141
12.0
290
     0
  0
SCALE
  5
5EB2
102
{ACAD_REACTORS
330
5E9B
102
}
330
5E9B
100
AcDbScale
 70
     0
300
1/8" = 1'-0"
140
0.125
141
12.0
290
     0
  0
SCALE
  5
5EB3
102
{ACAD_REACTORS
330
5E9B
102
}
330
5E9B
100
AcDbScale
 70
     0
300
3/16" = 1'-0"
140
0.1875
141
12.0
290
     0
  0
SCALE
  5
5EB4
102
{ACAD_REACTORS
330
5E9B
102
}
330
5E9B
100
AcDbScale
 70
     0
300
1/4" = 1'-0"
140
0.25
141
12.0
290
     0
  0
SCALE
  5
5EB5
102
{ACAD_REACTORS
330
5E9B
102
}
330
5E9B
100
AcDbScale
 70
     0
300
3/8" = 1'-0"
140
0.375
141
12.0
290
     0
  0
SCALE
  5
5EB6
102
{ACAD_REACTORS
330
5E9B
102
}
330
5E9B
100
AcDbScale
 70
     0
300
1/2" = 1'-0"
140
0.5
141
12.0
290
     0
  0
SCALE
  5
5EB7
102
{ACAD_REACTORS
330
5E9B
102
}
330
5E9B
100
AcDbScale
 70
     0
300
3/4" = 1'-0"
140
0.75
141
12.0
290
     0
  0
SCALE
  5
5EB8
102
{ACAD_REACTORS
330
5E9B
102
}
330
5E9B
100
AcDbScale
 70
     0
300
1" = 1'-0"
140
1.0
141
12.0
290
     0
  0
SCALE
  5
5EB9
102
{ACAD_REACTORS
330
5E9B
102
}
330
5E9B
100
AcDbScale
 70
     0
300
1-1/2" = 1'-0"
140
1.5
141
12.0
290
     0
  0
SCALE
  5
5EBA
102
{ACAD_REACTORS
330
5E9B
102
}
330
5E9B
100
AcDbScale
 70
     0
300
3" = 1'-0"
140
3.0
141
12.0
290
     0
  0
SCALE
  5
5EBB
102
{ACAD_REACTORS
330
5E9B
102
}
330
5E9B
100
AcDbScale
 70
     0
300
6" = 1'-0"
140
6.0
141
12.0
290
     0
  0
SCALE
  5
5EBC
102
{ACAD_REACTORS
330
5E9B
102
}
330
5E9B
100
AcDbScale
 70
     0
300
1'-0" = 1'-0"
140
12.0
141
12.0
290
     0
  0
TABLESTYLE
  5
7F
102
{ACAD_XDICTIONARY
360
5F2E
102
}
102
{ACAD_REACTORS
330
7E
102
}
330
7E
100
AcDbTableStyle
  3
Standard
 70
     0
 71
     0
 40
1.5
 41
1.5
280
     0
281
     0
  7
Standard
140
4.5
170
     2
 62
     0
 63
     7
283
     0
274
    -2
284
     1
 64
     0
275
    -2
285
     1
 65
     0
276
    -2
286
     1
 66
     0
277
    -2
287
     1
 67
     0
278
    -2
288
     1
 68
     0
279
    -2
289
     1
 69
     0
  7
Standard
140
6.0
170
     5
 62
     0
 63
     7
283
     0
274
    -2
284
     1
 64
     0
275
    -2
285
     1
 65
     0
276
    -2
286
     1
 66
     0
277
    -2
287
     1
 67
     0
278
    -2
288
     1
 68
     0
279
    -2
289
     1
 69
     0
  7
Standard
140
4.5
170
     5
 62
     0
 63
     7
283
     0
274
    -2
284
     1
 64
     0
275
    -2
285
     1
 65
     0
276
    -2
286
     1
 66
     0
277
    -2
287
     1
 67
     0
278
    -2
288
     1
 68
     0
279
    -2
289
     1
 69
     0
  0
VISUALSTYLE
  5
5E90
102
{ACAD_REACTORS
330
5E8A
102
}
330
5E8A
100
AcDbVisualStyle
  2
2dWireframe
 70
     4
 71
     0
 72
     2
 73
     0
 90
        0
 40
-0.6
 41
-30.0
 62
     5
 63
     7
 74
     1
 91
        4
 64
     7
 65
   257
 75
     1
175
     1
 42
1.0
 92
        0
 66
   257
 43
1.0
 76
     1
 77
     6
 78
     2
 67
     7
 79
     5
170
     0
171
     0
290
     0
174
     0
 93
        1
 44
0.0
173
     0
291
     0
 45
0.0
1001
ACAD
1000
AcDbSavedByObjectVersion
1070
     0
  0
VISUALSTYLE
  5
5E92
102
{ACAD_REACTORS
330
5E8A
102
}
330
5E8A
100
AcDbVisualStyle
  2
3D Hidden
 70
     6
 71
     1
 72
     2
 73
     2
 90
        0
 40
-0.6
 41
-30.0
 62
     5
 63
     7
 74
     2
 91
        2
 64
     7
 65
   257
 75
     2
175
     1
 42
40.0
 92
        0
 66
   257
 43
1.0
 76
     1
 77
     6
 78
     2
 67
     7
 79
     3
170
     0
171
     0
290
     0
174
     0
 93
        1
 44
0.0
173
     0
291
     0
 45
0.0
1001
ACAD
1000
AcDbSavedByObjectVersion
1070
     0
  0
VISUALSTYLE
  5
5E91
102
{ACAD_REACTORS
330
5E8A
102
}
330
5E8A
100
AcDbVisualStyle
  2
3dWireframe
 70
     5
 71
     0
 72
     2
 73
     0
 90
        0
 40
-0.6
 41
-30.0
 62
     5
 63
     7
 74
     1
 91
        4
 64
     7
 65
   257
 75
     1
175
     1
 42
1.0
 92
        0
 66
   257
 43
1.0
 76
     1
 77
     6
 78
     2
 67
     7
 79
     5
170
     0
171
     0
290
     0
174
     0
 93
        1
 44
0.0
173
     0
291
     0
 45
0.0
1001
ACAD
1000
AcDbSavedByObjectVersion
1070
     0
  0
VISUALSTYLE
  5
5E8F
102
{ACAD_REACTORS
330
5E8A
102
}
330
5E8A
100
AcDbVisualStyle
  2
Basic
 70
     7
 71
     1
 72
     0
 73
     1
 90
        0
 40
-0.6
 41
-30.0
 62
     5
 63
     7
 74
     0
 91
        4
 64
     7
 65
   257
 75
     1
175
     1
 42
1.0
 92
        8
 66
     7
 43
1.0
 76
     1
 77
     6
 78
     2
 67
     7
 79
     5
170
     0
171
     0
290
     0
174
     0
 93
        1
 44
0.0
173
     0
291
     1
 45
0.0
1001
ACAD
1000
AcDbSavedByObjectVersion
1070
     0
  0
VISUALSTYLE
  5
5E96
102
{ACAD_REACTORS
330
5E8A
102
}
330
5E8A
100
AcDbVisualStyle
  2
Brighten
 70
    12
 71
     2
 72
     2
 73
     0
 90
        0
 40
-0.6
 41
-30.0
 62
     5
 63
     7
 74
     1
 91
        4
 64
     7
 65
   257
 75
     1
175
     1
 42
1.0
 92
        8
 66
     7
 43
1.0
 76
     1
 77
     6
 78
     2
 67
     7
 79
     5
170
     0
171
     0
290
     0
174
     0
 93
        1
 44
50.0
173
     0
291
     1
 45
0.0
1001
ACAD
1000
AcDbSavedByObjectVersion
1070
     0
  0
VISUALSTYLE
  5
5E9A
102
{ACAD_REACTORS
330
5E8A
102
}
330
5E8A
100
AcDbVisualStyle
  2
ColorChange
 70
    16
 71
     2
 72
     2
 73
     3
 90
        0
 40
-0.6
 41
-30.0
 62
     5
 63
     8
 74
     1
 91
        4
 64
     7
 65
   257
 75
     1
175
     1
 42
1.0
 92
        8
 66
     8
 43
1.0
 76
     1
 77
     6
 78
     2
 67
     7
 79
     5
170
     0
171
     0
290
     0
174
     0
 93
        1
 44
0.0
173
     0
291
     1
 45
0.0
1001
ACAD
1000
AcDbSavedByObjectVersion
1070
     0
  0
VISUALSTYLE
  5
5E93
102
{ACAD_REACTORS
330
5E8A
102
}
330
5E8A
100
AcDbVisualStyle
  2
Conceptual
 70
     9
 71
     3
 72
     2
 73
     0
 90
        0
 40
-0.6
 41
-30.0
 62
     5
 63
     7
 74
     2
 91
        2
 64
     7
 65
   257
 75
     1
175
     1
 42
40.0
 92
        8
 66
     7
 43
1.0
 76
     1
 77
     6
 78
     2
 67
     7
 79
     3
170
     0
171
     0
290
     0
174
     0
 93
        1
 44
0.0
173
     0
291
     0
 45
0.0
1001
ACAD
1000
AcDbSavedByObjectVersion
1070
     0
  0
VISUALSTYLE
  5
5E95
102
{ACAD_REACTORS
330
5E8A
102
}
330
5E8A
100
AcDbVisualStyle
  2
Dim
 70
    11
 71
     2
 72
     2
 73
     0
 90
        0
 40
-0.6
 41
-30.0
 62
     5
 63
     7
 74
     1
 91
        4
 64
     7
 65
   257
 75
     1
175
     1
 42
1.0
 92
        8
 66
     7
 43
1.0
 76
     1
 77
     6
 78
     2
 67
     7
 79
     5
170
     0
171
     0
290
     0
174
     0
 93
        1
 44
-50.0
173
     0
291
     1
 45
0.0
1001
ACAD
1000
AcDbSavedByObjectVersion
1070
     0
  0
VISUALSTYLE
  5
5E99
102
{ACAD_REACTORS
330
5E8A
102
}
330
5E8A
100
AcDbVisualStyle
  2
Facepattern
 70
    15
 71
     2
 72
     2
 73
     0
 90
        0
 40
-0.6
 41
-30.0
 62
     5
 63
     7
 74
     1
 91
        4
 64
     7
 65
   257
 75
     1
175
     1
 42
1.0
 92
        8
 66
     7
 43
1.0
 76
     1
 77
     6
 78
     2
 67
     7
 79
     5
170
     0
171
     0
290
     0
174
     0
 93
        1
 44
0.0
173
     0
291
     1
 45
0.0
1001
ACAD
1000
AcDbSavedByObjectVersion
1070
     0
  0
VISUALSTYLE
  5
5E8B
102
{ACAD_REACTORS
330
5E8A
102
}
330
5E8A
100
AcDbVisualStyle
  2
Flat
 70
     0
 71
     2
 72
     1
 73
     1
 90
        2
 40
-0.6
 41
30.0
 62
     5
 63
     7
 74
     0
 91
        4
 64
     7
 65
   257
 75
     1
175
     1
 42
1.0
 92
        8
 66
     7
 43
1.0
 76
     1
 77
     6
 78
     2
 67
     7
 79
     5
170
     0
171
     0
290
     0
174
     0
 93
       13
 44
0.0
173
     0
291
     1
 45
0.0
1001
ACAD
1000
AcDbSavedByObjectVersion
1070
     0
  0
VISUALSTYLE
  5
5E8C
102
{ACAD_REACTORS
330
5E8A
102
}
330
5E8A
100
AcDbVisualStyle
  2
FlatWithEdges
 70
     1
 71
     2
 72
     1
 73
     1
 90
        2
 40
-0.6
 41
30.0
 62
     5
 63
     7
 74
     1
 91
        4
 64
     7
 65
   257
 75
     1
175
     1
 42
1.0
 92
        0
 66
   257
 43
1.0
 76
     1
 77
     6
 78
     2
 67
     7
 79
     5
170
     0
171
     0
290
     0
174
     0
 93
       13
 44
0.0
173
     0
291
     1
 45
0.0
1001
ACAD
1000
AcDbSavedByObjectVersion
1070
     0
  0
VISUALSTYLE
  5
5E8D
102
{ACAD_REACTORS
330
5E8A
102
}
330
5E8A
100
AcDbVisualStyle
  2
Gouraud
 70
     2
 71
     2
 72
     2
 73
     1
 90
        2
 40
-0.6
 41
30.0
 62
     5
 63
     7
 74
     0
 91
        4
 64
     7
 65
   257
 75
     1
175
     1
 42
1.0
 92
        0
 66
     7
 43
1.0
 76
     1
 77
     6
 78
     2
 67
     7
 79
     5
170
     0
171
     0
290
     0
174
     0
 93
       13
 44
0.0
173
     0
291
     1
 45
0.0
1001
ACAD
1000
AcDbSavedByObjectVersion
1070
     0
  0
VISUALSTYLE
  5
5E8E
102
{ACAD_REACTORS
330
5E8A
102
}
330
5E8A
100
AcDbVisualStyle
  2
GouraudWithEdges
 70
     3
 71
     2
 72
     2
 73
     1
 90
        2
 40
-0.6
 41
30.0
 62
     5
 63
     7
 74
     1
 91
        4
 64
     7
 65
   257
 75
     1
175
     1
 42
1.0
 92
        0
 66
   257
 43
1.0
 76
     1
 77
     6
 78
     2
 67
     7
 79
     5
170
     0
171
     0
290
     0
174
     0
 93
       13
 44
0.0
173
     0
291
     1
 45
0.0
1001
ACAD
1000
AcDbSavedByObjectVersion
1070
     0
  0
VISUALSTYLE
  5
5E98
102
{ACAD_REACTORS
330
5E8A
102
}
330
5E8A
100
AcDbVisualStyle
  2
Linepattern
 70
    14
 71
     2
 72
     2
 73
     0
 90
        0
 40
-0.6
 41
-30.0
 62
     5
 63
     7
 74
     1
 91
        4
 64
     7
 65
   257
 75
     7
175
     7
 42
1.0
 92
        8
 66
     7
 43
1.0
 76
     1
 77
     6
 78
     2
 67
     7
 79
     5
170
     0
171
     0
290
     0
174
     0
 93
        1
 44
0.0
173
     0
291
     1
 45
0.0
1001
ACAD
1000
AcDbSavedByObjectVersion
1070
     0
  0
VISUALSTYLE
  5
5E94
102
{ACAD_REACTORS
330
5E8A
102
}
330
5E8A
100
AcDbVisualStyle
  2
Realistic
 70
     8
 71
     2
 72
     2
 73
     0
 90
        0
 40
-0.6
 41
-30.0
 62
     5
 63
     7
 74
     1
 91
        0
 64
     7
 65
   257
 75
     1
175
     1
 42
1.0
 92
        8
 66
     8
 43
1.0
 76
     1
 77
     6
 78
     2
 67
     7
 79
     5
170
     0
171
     0
290
     0
174
     0
 93
       13
 44
0.0
173
     0
291
     0
 45
0.0
1001
ACAD
1000
AcDbSavedByObjectVersion
1070
     0
  0
VISUALSTYLE
  5
5E97
102
{ACAD_REACTORS
330
5E8A
102
}
330
5E8A
100
AcDbVisualStyle
  2
Thicken
 70
    13
 71
     2
 72
     2
 73
     0
 90
        0
 40
-0.6
 41
-30.0
 62
     5
 63
     7
 74
     1
 91
        4
 64
     7
 65
   257
 75
     1
175
     1
 42
1.0
 92
       12
 66
     7
 43
1.0
 76
     1
 77
     6
 78
     2
 67
     7
 79
     5
170
     0
171
     0
290
     0
174
     0
 93
        1
 44
0.0
173
     0
291
     1
 45
0.0
1001
ACAD
1000
AcDbSavedByObjectVersion
1070
     0
  0
DICTIONARYVAR
  5
5F2B
102
{ACAD_REACTORS
330
5E
102
}
330
5E
100
DictionaryVariables
280
     0
  1
1:1
  0
DICTIONARYVAR
  5
5F2A
102
{ACAD_REACTORS
330
5E
102
}
330
5E
100
DictionaryVariables
280
     0
  1
STANDARD
  0
DICTIONARYVAR
  5
84
102
{ACAD_REACTORS
330
5E
102
}
330
5E
100
DictionaryVariables
280
     0
  1
STANDARD
  0
DICTIONARYVAR
  5
5F
102
{ACAD_REACTORS
330
5E
102
}
330
5E
100
DictionaryVariables
280
     0
  1
2
  0
DICTIONARYVAR
  5
63
102
{ACAD_REACTORS
330
5E
102
}
330
5E
100
DictionaryVariables
280
     0
  1
1
  0
DICTIONARYVAR
  5
5F2D
102
{ACAD_REACTORS
330
5E
102
}
330
5E
100
DictionaryVariables
280
     0
  1
0
  0
DICTIONARYVAR
  5
5E4E
102
{ACAD_REACTORS
330
5E
102
}
330
5E
100
DictionaryVariables
280
     0
  1

  0
DICTIONARYVAR
  5
5F2C
102
{ACAD_REACTORS
330
5E
102
}
330
5E
100
DictionaryVariables
280
     0
  1
127
  0
DICTIONARY
  5
5F35
330
22
100
AcDbDictionary
280
     1
281
     1
  3
ACAD_XREC_ROUNDTRIP
360
5F36
  0
DICTIONARY
  5
5A01
330
59F4
100
AcDbDictionary
280
     1
281
     1
  3
ACAD_XREC_ROUNDTRIP
360
5F38
  3
ADSK_XREC_LAYOUTTHUMBNAIL
360
5A02
  0
DICTIONARY
  5
5E7B
330
5E7A
100
AcDbDictionary
280
     1
281
     1
  3
ACAD_XREC_ROUNDTRIP
360
5F3E
  3
BUMPTILE
360
5E7D
  3
DIFFUSETILE
360
5E7C
  3
OPACITYTILE
360
5E80
  3
REFLECTIONTILE
360
5E7F
  3
REFRACTIONTILE
360
5E81
  3
SPECULARTILE
360
5E7E
  0
DICTIONARY
  5
5E73
330
5E72
100
AcDbDictionary
280
     1
281
     1
  3
ACAD_XREC_ROUNDTRIP
360
5F3D
  3
BUMPTILE
360
5E75
  3
DIFFUSETILE
360
5E74
  3
OPACITYTILE
360
5E78
  3
REFLECTIONTILE
360
5E77
  3
REFRACTIONTILE
360
5E79
  3
SPECULARTILE
360
5E76
  0
DICTIONARY
  5
5E83
330
5E82
100
AcDbDictionary
280
     1
281
     1
  3
ACAD_XREC_ROUNDTRIP
360
5F3F
  3
BUMPTILE
360
5E85
  3
DIFFUSETILE
360
5E84
  3
OPACITYTILE
360
5E88
  3
REFLECTIONTILE
360
5E87
  3
REFRACTIONTILE
360
5E89
  3
SPECULARTILE
360
5E86
  0
DICTIONARY
  5
5F2E
330
7F
100
AcDbDictionary
280
     1
281
     1
  3
ACAD_ROUNDTRIP_2008_TABLESTYLE_CELLSTYLEMAP
360
5F2F
  3
ACAD_XREC_ROUNDTRIP
360
5F37
  0
XRECORD
  5
5F36
102
{ACAD_REACTORS
330
5F35
102
}
330
5F35
100
AcDbXrecord
280
     1
102
SHADEPLOT
 70
     0
102
SHADEPLOTRESLEVEL
 70
     2
102
SHADEPLOTCUSTOMDPI
 70
   300
  0
XRECORD
  5
5F38
102
{ACAD_REACTORS
330
5A01
102
}
330
5A01
100
AcDbXrecord
280
     1
102
SHADEPLOT
 70
     0
102
SHADEPLOTRESLEVEL
 70
     2
102
SHADEPLOTCUSTOMDPI
 70
   300
  0
XRECORD
  5
5A02
102
{ACAD_REACTORS
330
5A01
102
}
330
5A01
100
AcDbXrecord
280
     1
310
28000000B40000007F00000001000800000000004C59000000000000000000000001000000000000FFFFFF0000000000FFFFFF000000000000000000000000000000000000000000000000000000000000000000330000006600000099000000CC000000FF00000000330000333300006633000099330000CC330000FF3300
310
0000660000336600006666000099660000CC660000FF66000000990000339900006699000099990000CC990000FF99000000CC000033CC000066CC000099CC0000CCCC0000FFCC000000FF000033FF000066FF000099FF0000CCFF0000FFFF000000003300330033006600330099003300CC003300FF003300003333003333
310
33006633330099333300CC333300FF33330000663300336633006666330099663300CC663300FF66330000993300339933006699330099993300CC993300FF99330000CC330033CC330066CC330099CC3300CCCC3300FFCC330000FF330033FF330066FF330099FF3300CCFF3300FFFF330000006600330066006600660099
310
006600CC006600FF00660000336600333366006633660099336600CC336600FF33660000666600336666006666660099666600CC666600FF66660000996600339966006699660099996600CC996600FF99660000CC660033CC660066CC660099CC6600CCCC6600FFCC660000FF660033FF660066FF660099FF6600CCFF6600
310
FFFF660000009900330099006600990099009900CC009900FF00990000339900333399006633990099339900CC339900FF33990000669900336699006666990099669900CC669900FF66990000999900339999006699990099999900CC999900FF99990000CC990033CC990066CC990099CC9900CCCC9900FFCC990000FF99
310
0033FF990066FF990099FF9900CCFF9900FFFF99000000CC003300CC006600CC009900CC00CC00CC00FF00CC000033CC003333CC006633CC009933CC00CC33CC00FF33CC000066CC003366CC006666CC009966CC00CC66CC00FF66CC000099CC003399CC006699CC009999CC00CC99CC00FF99CC0000CCCC0033CCCC0066CC
310
CC0099CCCC00CCCCCC00FFCCCC0000FFCC0033FFCC0066FFCC0099FFCC00CCFFCC00FFFFCC000000FF003300FF006600FF009900FF00CC00FF00FF00FF000033FF003333FF006633FF009933FF00CC33FF00FF33FF000066FF003366FF006666FF009966FF00CC66FF00FF66FF000099FF003399FF006699FF009999FF00CC
310
99FF00FF99FF0000CCFF0033CCFF0066CCFF0099CCFF00CCCCFF00FFCCFF0000FFFF0033FFFF0066FFFF0099FFFF00CCFFFF00FFFFFF00000000000D0D0D001A1A1A00282828003535350043434300505050005D5D5D006B6B6B00787878008686860093939300A1A1A100AEAEAE00BBBBBB00C9C9C900D6D6D600E4E4E400
310
F1F1F100FFFFFF0000000000000000000000000000000000000000000000000000000000000000000000000000000000EFEFE2E2E2E2E2E2E2E2E2E2E2E2E2E2E2E2E2E2E2E2E2E2E2E2E2E2E2E2E2E2E2E2E2E2E2E2E2E2E2E2E2E2E2E2E2E2E2E2E2E2E2E2E2E2E2E2E2E2E2E2E2E2E2E2E2E2E2E2E2E2E2E2E2E2E2E2E2
310
E2E2E2E2E2E2E2E2E2E2E2E2E2E2E2E2E2E2E2E2E2E2E2E2E2E2E2E2E2E2E2E2E2E2E2E2E2E2E2E2E2E2E2E2E2E2E2E2E2E2E2E2E2E2E2E2E2E2E2E2E2E2E2E2E2E2E2E2E2E2E2E2E2E2E2E2E2E2E2E2E2E2E2E2E2E2E2E2E2E2E2E2E2E2E2E2E2E2E2E2E2E2E2E2E2E2E2E2E2E2E2E2E2E2E2E2E2E2E2E2E2E2E2E2E2E2E2
310
E2E2E2E2E2E2E2E2E2E2E2E2E2E2E2E2E2E2E2E2E2E2E2E2E2E2E2E2E2E2E2E2E2E2E2E2E2E2E2E2E2E2E2E2E2E2E2E2E2E2E2E2E2E2E2E2E2E2E2E2E2E2E2E2E2E2E2E2E2E2E2E2E2E2E2E2E2E2E2E2E2E2E2E2E2E2E2E2E2E2E2E2E2E2E2E2E2E2E2E2E2E2E2E2E2E2E2E2E2E2E2E2E2E2E2E2E2E2E2E2E2E2E2E2E2E2E2
310
E2E2E2E2E2E2E2E2E2E2E2E2E2E2E2E2E2E2E2E2E2E2E2E2E2E2E2E2F5F5F5F5F5F5F5F5F5F5F5F5F5F5F5F5F5F5F5F5F5F5F5F5F5F5F5F5F5F5F5F5F5F5F5F5F5F5F5F5F5F5F5F5F5F5F5F5F5F5F5F5F5F5F5F5F5F5F5F5F5F5F5F5F5F5F5F5F5F5F5F5F5F5F5F5F5F5F5F5F5F5F5F5F5F5F5F5F5F5F5F5F5F5F5F5F5F5F5
310
F5F5F5F5F5F5F5F5F5F5F5F5F5F5F5F5F5F5F5F5F5F5F5F5F5F5F5F5F5F5F5F5F5F5F5F5F5F5F5F5F5F5F5F5F5F5F5F5F5F5F5F5F5F5F5F5F5F5F5F5F5F5F5F5F5F5F5F5F5F5F5F5F5F5F5F5F5F5E2E2E2F5F5F5F5F5F5F5F5F5F5F5F5F5F5F5F5F5F5F5F5F5F5F5F5F5F5F5F5F5F5F5F5F5F5F5F5F5F5F5F5F5F5F5F5F5F5
310
F5F5F5F5F5F5F5F5F5F5F5F5F5F5F5F5F5F5F5F5F5F5F5F5F5F5F5F5F5F5F5F5F5F5F5F5F5F5F5F5F5F5F5F5F5F5F5F5F5F5F5F5F5F5F5F5F5F5F5F5F5F5F5F5F5F5F5F5F5F5F5F5F5F5F5F5F5F5F5F5F5F5F5F5F5F5F5F5F5F5F5F5F5F5F5F5F5F5F5F5F5F5F5F5F5F5F5F5F5F5F5F5F5F5F5F5F5F5F5F5F5F5F5F5F5F5F5
310
F5F5F5F5E2E2E2F5F5F5E2E2E2E2E2E2E2E2F5F5F5F5F5F5F5F5F5E2E2E2E2E2E2E2E2E2E2E2E2E2E2E2E2F5F5F5F5F5F5F5F5E2E2E2E2E2E2E2E2E2E2E2E2E2E2E2E2F5F5F5F5F5F5F5F5F5E2E2E2E2E2E2E2E2E2E2E2E2E2E2E2F5F5F5F5F5F5F5F5F5E2E2E2E2E2E2E2E2E2E2E2E2E2E2E2F5F5F5F5F5F5F5F5F5E2E2E2
310
E2E2E2E2E2E2E2E2E2E2E2E2E2F5F5F5F5F5F5F5F5E2E2E2E2E2E2E2E2E2E2E2E2E2E2E2E2F5F5F5F5F5F5F5F5F5E2E2E2E2E2E2E2E2F5F5F5E2E2E2F5F5F5E2F5F5F5F5F5F5F5F5F5F5F5F5F5F5F5F5F5F5F5F5F5F5F5F5F5F5F5F5F5F5F5F5F5F5F5F5F5F5F5F5F5F5F5F5F5F5F5F5F5F5F5F5F5F5F5F5F5F5F5F5F5F5F5
310
F5F5F5F5F5F5F5F5F5F5F5F5F5F5F5F5F5F5F5F5F5F5F5F5F5F5F5F5F5F5F5F5F5F5F5F5F5F5F5F5F5F5F5F5F5F5F5F5F5F5F5F5F5F5F5F5F5F5F5F5F5F5F5F5F5F5F5F5F5F5F5F5F5F5F5F5F5F5F5F5F5F5F5F5F5F5F5F5F5F5F5F5F5F5F5F5F5F5F5F5F5F5F5F5F5F5E2F5F5F5E2E2E2F5F5F5E2F5F5F5F5F5F5F5F5F5F5
310
F5F5F5F5F5F5F5F5F5F5F5F5F5F5F5F5F5F5F5F5F5F5F5F5F5F5F5F5F5F5F5F5F5F5F5F5F5F5F5F5F5F5F5F5F5F5F5F5F5F5F5F5F5F5F5F5F5F5F5F5F5F5F5F5F5F5F5F5F5F5F5F5F5F5F5F5F5F5F5F5F5F5F5F5F5F5F5F5F5F5F5F5F5F5F5F5F5F5F5F5F5F5F5F5F5F5F5F5F5F5F5F5F5F5F5F5F5F5F5F5F5F5F5F5F5F5F5
310
F5F5F5F5F5F5F5F5F5F5F5F5F5F5F5F5F5F5F5F5F5F5F5F5F5F5F5F5F5F5F5F5E2F5F5F5E2E2E2F5F5F5E2F5F5F5F5F5F5F5F5F5F5F5F5F5F5F5F5F5F5F5F5F5F5F5F5F5F5F5F5F5F5F5F5F5F5F5F5F5F5F5F5F5F5F5F5F5F5F5F5F5F5F5F5F5F5F5F5F5F5F5F5F5F5F5F5F5F5F5F5F5F5F5F5F5F5F5F5F5F5F5F5F5F5F5F5
310
F5F5F5F5F5F5F5F5F5F5F5F5F5F5F5F5F5F5F5F5F5F5F5F5F5F5F5F5F5F5F5F5F5F5F5F5F5F5F5F5F5F5F5F5F5F5F5F5F5F5F5F5F5F5F5F5F5F5F5F5F5F5F5F5F5F5F5F5F5F5F5F5F5F5F5F5F5F5F5F5F5F5F5F5F5E2F5F5F5E2E2E2F5F5F5E2F5F5F5F5F5F5F5F5F5F5F5F5F5F5F5F5F5F5F5F5F5F5F5F5F5F5F5F5F5F5F5
310
F5F5F5F5F5F5F5F5F5F5F5F5F5F5F5F5F5F5F5F5F5F5F5F5F5F5F5F5F5F5F5F5F5F5F5F5F5F5F5F5F5F5F5F5F5F5F5F5F5F5F5F5F5F5F5F5F5F5F5F5F5F5F5F5F5F5F5F5F5F5F5F5F5F5F5F5F5F5F5F5F5F5F5F5F5F5F5F5F5F5F5F5F5F5F5F5F5F5F5F5F5F5F5F5F5F5F5F5F5F5F5F5F5F5F5F5F5F5F5F5F5F5F5F5F5F5F5
310
F5F5F5F5F5F5F5F5F5F5F5E2F5F5F5E2E2E2F5F5F5E2F5F5F5F5F5F5F5F5F5F5F5F5F5F5F5F5F5F5F5F5F5F5F5F5F5F5F5F5F5F5F5F5F5F5F5F5F5F5F5F5F5F5F5F5F5F5F5F5F5F5F5F5F5F5F5F5F5F5F5F5F5F5F5F5F5F5F5F5F5F5F5F5F5F5F5F5F5F5F5F5F5F5F5F5F5F5F5F5F5F5F5F5F5F5F5F5F5F5F5F5F5F5F5F5F5
310
F5F5F5F5F5F5F5F5F5F5F5F5F5F5F5F5F5F5F5F5F5F5F5F5F5F5F5F5F5F5F5F5F5F5F5F5F5F5F5F5F5F5F5F5F5F5F5F5F5F5F5F5F5F5F5F5F5F5F5F5F5F5F5F5E2F5F5F5E2E2E2F5F5F5E2F5F5F5F5F5F5F5F5F5F5F5F5F5F5F5F5F5F5F5F5F5F5F5F5F5F5F5F5F5F5F5F5F5F5F5F5F5F5F5F5F5F5F5F5F5F5F5F5F5F5F5F5
310
F5F5F5F5F5F5F5F5F5F5F5F5F5F5F5F5F5F5F5F5F5F5F5F5F5F5F5F5F5F5F5F5F5F5F5F5F5F5F5F5F5F5F5F5F5F5F5F5F5F5F5F5F5F5F5F5F5F5F5F5F5F5F5F5F5F5F5F5F5F5F5F5F5F5F5F5F5F5F5F5F5F5F5F5F5F5F5F5F5F5F5F5F5F5F5F5F5F5F5F5F5F5F5F5F5F5F5F5F5F5F5F5F5F5F5F5F5E2F5F5F5E2E2E2F5F5F5
310
E2F5F5F5F5F5F5F5F5F5F5F5F5F5F5F5F5F5F5F5F5F5F5F5F5F5F5F5F5F5F5F5F5F5F5F5F5F5F5F5F5F5F5F5F5F5F5F5F5F5F5F5F5F5F5F5F5F5F5F5F5F5F5F5F5F5F5F5F5F5F5F5F5F5F5F5F5F5F5F5F5F5F5F5F5F5F5F5F5F5F5F5F5F5F5F5F5F5F5F5F5F5F5F5F5F5F5F5F5F5F5F5F5F5F5F5F5F5F5F5F5F5F5F5F5F5F5
310
F5F5F5F5F5F5F5F5F5F5F5F5F5F5F5F5F5F5F5F5F5F5F5F5F5F5F5F5F5F5F5F5F5F5F5F5F5F5F5F5F5F5F5E2F5F5F5E2E2E2F5F5F5F5F5F5F5F5F5F5F5F5F5F5F5F5F5F5F5F5F5F5F5F5F5F5F5F5F5F5F5F5F5F5F5F5F5F5F5F5F5F5F5F5F5F5F5F5F5F5F5F5F5F5F5F5F5F5F5F5F5F5F5F5F5F5F5F5F5F5F5F5F5F5F5F5F5
310
F5F5F5F5F5F5F5F5F5F5F5F5F5F5F5F5F5F5F5F5F5F5F5F5F5F5F5F5F5F5F5F5F5F5F5F5F5F5F5F5F5F5F5F5F5F5F5F5F5F5F5F5F5F5F5F5F5F5F5F5F5F5F5F5F5F5F5F5F5F5F5F5F5F5F5F5F5F5F5F5F5F5F5F5F5F5F5F5F5F5F5F5F5F5F5F5F5F5F5F5E2E2E2F5F5F5F5F5F5F5F5F5F5F5F5F5F5F5F5F5F5F5F5F5F5F5F5
310
F5F5F5F5F5F5F5F5F5F5F5F5F5F5F5F5F5F5F5F5F5F5F5F5F5F5F5F5F5F5F5F5F5F5F5F5F5F5F5F5F5F5F5F5F5F5F5F5F5F5F5F5F5F5F5F5F5F5F5F5F5F5F5F5F5F5F5F5F5F5F5F5F5F5F5F5F5F5F5F5F5F5F5F5F5F5F5F5F5F5F5F5F5F5F5F5F5F5F5F5F5F5F5F5F5F5F5F5F5F5F5F5F5F5F5F5F5F5F5F5F5F5F5F5F5F5F5
310
F5F5F5F5F5F5F5F5F5F5F5F5F5F5F5F5F5F5F5F5F5F5F5F5F5F5E2E2E2F5F5F5F5F5F5F5F5F5F5F5F5F5F5F5F5F5F5F5F5F5F5F5F5F5F5F5F5F5F5F5F5F5F5F5F5F5F5F5F5F5F5F5F5F5F5F5F5F5F5F5F5F5F5F5F5F5F5F5F5F5F5F5F5F5F5F5F5F5F5F5F5F5F5F5F5F5F5F5F5F5F5F5F5F5F5F5F5F5F5F5F5F5F5F5F5F5F5
310
F5F5F5F5F5F5F5F5F5F5F5F5F5F5F5F5F5F5F5F5F5F5F5F5F5F5F5F5F5F5F5F5F5F5F5F5F5F5F5F5F5F5F5F5F5F5F5F5F5F5F5F5F5F5F5F5F5F5F5F5F5F5F5F5F5F5F5F5F5F5F5F5F5F5F5F5F5F5F5E2E2E2F5F5F5F5F5F5F5F5F5F5F5F5F5F5F5F5F5F5F5F5F5F5F5F5F5F5F5F5F5F5F5F5F5F5F5F5F5F5F5F5F5F5F5F5F5
310
F5F5F5F5F5F5F5F5F5F5F5F5F5F5F5F5F5F5F5F5F5F5F5F5F5F5F5F5F5F5F5F5F5F5F5F5F5F5F5F5F5F5F5F5F5F5F5F5F5F5F5F5F5F5F5F5F5F5F5F5F5F5F5F5F5F5F5F5F5F5F5F5F5F5F5F5F5F5F5F5F5F5F5F5F5F5F5F5F5F5F5F5F5F5F5F5F5F5F5F5F5F5F5F5F5F5F5F5F5F5F5F5F5F5F5F5F5F5F5F5F5F5F5F5F5F5F5
310
F5F5F5F5F5E2E2E2F5F5F5F5F5F5F5F5F5F5F5F5F5F5F5F5F5F5F5F5F5F5F5F5F5F5F5F5F5F5F5F5F5F5F5F5F5F5F5F5F5F5F5F5F5F5F5F5F5F5F5F5F5F5F5F5F5F5F5F5F5F5F5F5F5F5F5F5F5F5F5F5F5F5F5F5F5F5F5F5F5F5F5F5F5F5F5F5F5F5F5F5F5F5F5F5F5F5F5F5F5F5F5F5F5F5F5F5F5F5F5F5F5F5F5F5F5F5F5
310
F5F5F5F5F5F5F5F5F5F5F5F5F5F5F5F5F5F5F5F5F5F5F5F5F5F5F5F5F5F5F5F5F5F5F5F5F5F5F5F5F5F5F5F5F5F5F5F5F5F5F5F5F5F5F5F5F5F5E2E2E2F5F5F5F5F5F5F5F5F5F5F5F5F5F5F5F5F5F5F5F5F5F5F5F5F5F5F5F5F5F5F5F5F5F5F5F5F5F5F5F5F5F5F5F5F5F5F5F5F5F5F5F5F5F5F5F5F5F5F5F5F5F5F5F5F5F5
310
F5F5F5F5F5F5F5F5F5F5F5F5F5F5F5F5F5F5F5F5F5F5F5F5F5F5F5F5F5F5F5F5F5F5F5F5F5F5F5F5F5F5F5F5F5F5F5F5F5F5F5F5F5F5F5F5F5F5F5F5F5F5F5F5F5F5F5F5F5F5F5F5F5F5F5F5F5F5F5F5F5F5F5F5F5F5F5F5F5F5F5F5F5F5F5F5F5F5F5F5F5F5F5F5F5F5F5F5F5F5F5E2E2E2F5F5F5F5F5F5F5F5F5F5F5F5F5
310
F5F5F5F5F5F5F5F5F5F5F5F5F5F5F5F5F5F5F5F5F5F5F5F5F5F5F5F5F5F5F5F5F5F5F5F5F5F5F5F5F5F5F5F5F5F5F5F5F5F5F5F5F5F5F5F5F5F5F5F5F5F5F5F5F5F5F5F5F5F5F5F5F5F5F5F5F5F5F5F5F5F5F5F5F5F5F5F5F5F5F5F5F5F5F5F5F5F5F5F5F5F5F5F5F5F5F5F5F5F5F5F5F5F5F5F5F5F5F5F5F5F5F5F5F5F5F5
310
F5F5F5F5F5F5F5F5F5F5F5F5F5F5F5F5F5F5F5F5F5F5F5F5F5F5F5F5F5F5F5F5F5F5F5F5F5E2E2E2F5F5F5F5F5F5F5F5F5F5F5F5F5F5F5F5F5F5F5F5F5F5F5F5F5F5F5F5F5F5F5F5F5F5F5F5F5F5F5F5F5F5F5F5F5F5F5F5F5F5F5F5F5F5F5F5F5F5F5F5F5F5F5F5F5F5F5F5F5F5F5F5F5F5F5F5F5F5F5F5F5F5F5F5F5F5F5
310
F5F5F5F5F5F5F5F5F5F5F5F5F5F5F5F5F5F5F5F5F5F5F5F5F5F5F5F5F5F5F5F5F5F5F5F5F5F5F5F5F5F5F5F5F5F5F5F5F5F5F5F5F5F5F5F5F5F5F5F5F5F5F5F5F5F5F5F5F5F5F5F5F5F5F5F5F5F5F5F5F5F5F5F5F5F5F5F5F5F5E2E2E2F5F5F5F5F5F5F5F5F5F5F5F5F5F5F5F5F5F5F5F5F5F5F5F5F5F5F5F5F5F5F5F5F5F5
310
F5F5F5F5F5F5F5F5F5F5F5F5F5F5F5F5F5F5F5F5F5F5F5F5F5F5F5F5F5F5F5F5F5F5F5F5F5F5F5F5F5F5F5F5F5F5F5F5F5F5F5F5F5F5F5F5F5F5F5F5F5F5F5F5F5F5F5F5F5F5F5F5F5F5F5F5F5F5F5F5F5F5F5F5F5F5F5F5F5F5F5F5F5F5F5F5F5F5F5F5F5F5F5F5F5F5F5F5F5F5F5F5F5F5F5F5F5F5F5F5F5F5F5F5F5F5F5
310
F5F5F5F5F5F5F5F5F5F5F5F5F5F5F5F5E2E2E2F5F5F5E2F5F5F5F5F5F5F5F5F5F5F5F5F5F5F5F5F5F5F5F5F5F5F5F5F5F5F5F5F5F5F5F5F5F5F5F5F5F5F5F5F5F5F5F5F5F5F5F5F5F5F5F5F5F5F5F5F5F5F5F5F5F5F5F5F5F5F5F5F5F5F5F5F5F5F5F5F5F5F5F5F5F5F5F5F5F5F5F5F5F5F5F5F5F5F5F5F5F5F5F5F5F5F5F5
310
F5F5F5F5F5F5F5F5F5F5F5F5F5F5F5F5F5F5F5F5F5F5F5F5F5F5F5F5F5F5F5F5F5F5F5F5F5F5F5F5F5F5F5F5F5F5F5F5F5F5F5F5F5F5F5F5F5F5F5F5F5F5F5F5F5E2F5F5F5E2E2E2F5F5F5E2F5F5F5F5F5F5F5F5F5F5F5F5F5F5F5F5F5F5F5F5F5F5F5F5F5F5F5F5F5F5F5F5F5F5F5F5F5F5F5F5F5F5F5F5F5F5F5F5F5F5F5
310
F5F5F5F5F5F5F5F5F5F5F5F5F5F5F5F5F5F5F5F5F5F5F5F5F5F5F5F5F5F5F5F5F5F5F5F5F5F5F5F5F5F5F5F5F5F5F5F5F5F5F5F5F5F5F5F5F5F5F5F5F5F5F5F5F5F5F5F5F5F5F5F5F5F5F5F5F5F5F5F5F5F5F5F5F5F5F5F5F5F5F5F5F5F5F5F5F5F5F5F5F5F5F5F5F5F5F5F5F5F5F5F5F5F5F5F5F5F5E2F5F5F5E2E2E2F5F5
310
F5E2F5F5F5F5F5F5F5F5F5F5F5F5F5F5F5F5F5F5F5F5F5F5F5F5F5F5F5F5F5F5F5F5F5F5F5F5F5F5F5F5F5F5F5F5F5F5F5F5F5F5F5F5F5F5F5F5F5F5F5F5F5F5F5F5F5F5F5F5F5F5F5F5F5F5F5F5F5F5F5F5F5F5F5F5F5F5F5F5F5F5F5F5F5F5F5F5F5F5F5F5F5F5F5F5F5F5F5F5F5F5F5F5F5F5F5F5F5F5F5F5F5F5F5F5F5
310
F5F5F5F5F5F5F5F5F5F5F5F5F5F5F5F5F5F5F5F5F5F5F5F5F5F5F5F5F5F5F5F5F5F5F5F5F5F5F5F5F5F5F5F5E2F5F5F5E2E2E2F5F5F5E2F5F5F5F5F5F5F5F5F5F5F5F5F5F5F5F5F5F5F5F5F5F5F5F5F5F5F5F5F5F5F5F5F5F5F5F5F5F5F5F5F5F5F5F5F5F5F5F5F5F5F5F5F5F5F5F5F5F5F5F5F5F5F5F5F5F5F5F5F5F5F5F5
310
F5F5F5F5F5F5F5F5F5F5F5F5F5F5F5F5F5F5F5F5F5F5F5F5F5F5F5F5F5F5F5F5F5F5F5F5F5F5F5F5F5F5F5F5F5F5F5F5F5F5F5F5F5F5F5F5F5F5F5F5F5F5F5F5F5F5F5F5F5F5F5F5F5F5F5F5F5F5F5F5F5F5F5F5F5F5F5F5F5F5F5F5F5F5F5F5F5E2F5F5F5E2E2E2F5F5F5E2F5F5F5F5F5F5F5F5F5F5F5F5F5F5F5F5F5F5F5
310
F5F5F5F5F5F5F5F5F5F5F5F5F5F5F5F5F5F5F5F5F5F5F5F5F5F5F5F5F5F5F5F5F5F5F5F5F5F5F5F5F5F5F5F5F5F5F5F5F5F5F5F5F5F5F5F5F5F5F5F5F5F5F5F5F5F5F5F5F5F5F5F5F5F5F5F5F5F5F5F5F5F5F5F5F5F5F5F5F5F5F5F5F5F5F5F5F5F5F5F5F5F5F5F5F5F5F5F5F5F5F5F5F5F5F5F5F5F5F5F5F5F5F5F5F5F5F5
310
F5F5F5F5F5F5F5F5F5F5F5F5F5F5F5F5F5F5F5F5F5F5F5E2F5F5F5E2E2E2F5F5F5E2F5F5F5F5F5F5F5F5F5F5F5F5F5F5F5F5F5F5F5F5F5F5F5F5F5F5F5F5F5F5F5F5F5F5F5F5F5F5F5F5F5F5F5F5F5F5F5F5F5F5F5F5F5F5F5F5F5F5F5F5F5F5F5F5F5F5F5F5F5F5F5F5F5F5F5F5F5F5F5F5F5F5F5F5F5F5F5F5F5F5F5F5F5
310
F5F5F5F5F5F5F5F5F5F5F5F5F5F5F5F5F5F5F5F5F5F5F5F5F5F5F5F5F5F5F5F5F5F5F5F5F5F5F5F5F5F5F5F5F5F5F5F5F5F5F5F5F5F5F5F5F5F5F5F5F5F5F5F5F5F5F5F5F5F5F5F5F5F5F5F5E2F5F5F5E2E2E2F5F5F5E2F5F5F5F5F5F5F5F5F5F5F5F5F5F5F5F5F5F5F5F5F5F5F5F5F5F5F5F5F5F5F5F5F5F5F5F5F5F5F5F5
310
F5F5F5F5F5F5F5F5F5F5F5F5F5F5F5F5F5F5F5F5F5F5F5F5F5F5F5F5F5F5F5F5F5F5F5F5F5F5F5F5F5F5F5F5F5F5F5F5F5F5F5F5F5F5F5F5F5F5F5F5F5F5F5F5F5F5F5F5F5F5F5F5F5F5F5F5F5F5F5F5F5F5F5F5F5F5F5F5F5F5F5F5F5F5F5F5F5F5F5F5F5F5F5F5F5F5F5F5F5F5F5F5F5F5F5F5F5F5F5F5F5F5F5F5F5F5F5
310
F5F5E2F5F5F5E2E2E2F5F5F5E2F5F5F5F5F5F5F5F5F5F5F5F5F5F5F5F5F5F5F5F5F5F5F5F5F5F5F5F5F5F5F5F5F5F5F5F5F5F5F5F5F5F5F5F5F5F5F5F5F5F5F5F5F5F5F5F5F5F5F5F5F5F5F5F5F5F5F5F5F5F5F5F5F5F5F5F5F5F5F5F5F5F5F5F5F5F5F5F5F5F5F5F5F5F5F5F5F5F5F5F5F5F5F5F5F5F5F5F5F5F5F5F5F5F5
310
F5F5F5F5F5F5F5F5F5F5F5F5F5F5F5F5F5F5F5F5F5F5F5F5F5F5F5F5F5F5F5F5F5F5F5F5F5F5F5F5F5F5F5F5F5F5F5F5F5F5F5F5F5F5F5E2F5F5F5E2E2E2F5F5F5E2F5F5F5F5F5F5F5F5F5F5F5F5F5F5F5F5F5F5F5F5F5F5F5F5F5F5F5F5F5F5F5F5F5F5F5F5F5F5F5F5F5F5F5F5F5F5F5F5F5F5F5F5F5F5F5F5F5F5F5F5F5
310
F5F5F5F5F5F5F5F5F5F5F5F5F5F5F5F5F5F5F5F5F5F5F5F5F5F5F5F5F5F5F5F5F5F5F5F5F5F5F5F5F5F5F5F5F5F5F5F5F5F5F5F5F5F5F5F5F5F5F5F5F5F5F5F5F5F5F5F5F5F5F5F5F5F5F5F5F5F5F5F5F5F5F5F5F5F5F5F5F5F5F5F5F5F5F5F5F5F5F5F5F5F5F5F5F5F5F5F5E2F5F5F5E2E2E2F5F5F5E2F5F5F5F5F5F5F5F5
310
F5F5F5F5F5F5F5F5F5F5F5F5F5F5F5F5F5F5F5F5F5F5F5F5F5F5F5F5F5F5F5F5F5F5F5F5F5F5F5F5F5F5F5F5F5F5F5F5F5F5F5F5F5F5F5F5F5F5F5F5F5F5F5F5F5F5F5F5F5F5F5F5F5F5F5F5F5F5F5F5F5F5F5F5F5F5F5F5F5F5F5F5F5F5F5F5F5F5F5F5F5F5F5F5F5F5F5F5F5F5F5F5F5F5F5F5F5F5F5F5F5F5F5F5F5F5F5
310
F5F5F5F5F5F5F5F5F5F5F5F5F5F5F5F5F5F5F5F5F5F5F5F5F5F5F5F5F5F5F5F5F5F5E2F5F5F5E2E2E2F5F5F5E2F5F5F5F5F5F5F5F5F5F5F5F5F5F5F5F5F5F5F5F5F5F5F5F5F5F5F5F5F5F5F5F5F5F5F5F5F5F5F5F5F5F5F5F5F5F5F5F5F5F5F5F5F5F5F5F5F5F5F5F5F5F5F5F5F5F5F5F5F5F5F5F5F5F5F5F5F5F5F5F5F5F5
310
F5F5F5F5F5F5F5F5F5F5F5F5F5F5F5F5F5F5F5F5F5F5F5F5F5F5F5F5F5F5F5F5F5F5F5F5F5F5F5F5F5F5F5F5F5F5F5F5F5F5F5F5F5F5F5F5F5F5F5F5F5F5F5F5F5F5F5F5F5F5F5F5F5F5F5F5F5F5F5F5F5F5F5F5F5F5F5E2F5F5F5E2E2E2F5F5F5E2F5F5F5F5F5F5F5F5F5F5F5F5F5F5F5F5F5F5F5F5F5F5F5F5F5F5F5F5F5
310
F5F5F5F5F5F5F5F5F5F5F5F5F5F5F5F5F5F5F5F5F5F5F5F5F5F5F5F5F5F5F5F5F5F5F5F5F5F5F5F5F5F5F5F5F5F5F5F5F5F5F5F5F5F5F5F5F5F5F5F5F5F5F5F5F5F5F5F5F5F5F5F5F5F5F5F5F5F5F5F5F5F5F5F5F5F5F5F5F5F5F5F5F5F5F5F5F5F5F5F5F5F5F5F5F5F5F5F5F5F5F5F5F5F5F5F5F5F5F5F5F5F5F5F5F5F5F5
310
F5F5F5F5F5F5F5F5F5F5F5F5F5E2F5F5F5E2E2E2F5F5F5E2F5F5F5F5F5F5F5F5F5F5F5F5F5F5F5F5F5F5F5F5F5F5F5F5F5F5F5F5F5F5F5F5F5F5F5F5F5F5F5F5F5F5F5F5F5F5F5F5F5F5F5F5F5F5F5F5F5F5F5F5F5F5F5F5F5F5F5F5F5F5F5F5F5F5F5F5F5F5F5F5F5F5F5F5F5F5F5F5F5F5F5F5F5F5F5F5F5F5F5F5F5F5F5
310
F5F5F5F5F5F5F5F5F5F5F5F5F5F5F5F5F5F5F5F5F5F5F5F5F5F5F5F5F5F5F5F5F5F5F5F5F5F5F5F5F5F5F5F5F5F5F5F5F5F5F5F5F5F5F5F5F5F5F5F5F5F5F5F5F5F5E2F5F5F5E2E2E2F5F5F5E2F5F5F5F5F5F5F5F5F5F5F5F5F5F5F5F5F5F5F5F5F5F5F5F5F5F5F5F5F5F5F5F5F5F5F5F5F5F5F5F5F5F5F5F5F5F5F5F5F5F5
310
F5F5F5F5F5F5F5F5F5F5F5F5F5F5F5F5F5F5F5F5F5F5F5F5F5F5F5F5F5F5F5F5F5F5F5F5F5F5F5F5F5F5F5F5F5F5F5F5F5F5F5F5F5F5F5F5F5F5F5F5F5F5F5F5F5F5F5F5F5F5F5F5F5F5F5F5F5F5F5F5F5F5F5F5F5F5F5F5F5F5F5F5F5F5F5F5F5F5F5F5F5F5F5F5F5F5F5F5F5F5F5F5F5F5F5F5F5F5F5E2F5F5F5E2E2E2F5
310
F5F5E2F5F5F5F5F5F5F5F5F5F5F5F5F5F5F5F5F5F5F5F5F5F5F5F5F5F5F5F5F5F5F5F5F5F5F5F5F5F5F5F5F5F5F5F5F5F5F5F5F5F5F5F5F5F5F5F5F5F5F5F5F5F5F5F5F5F5F5F5F5F5F5F5F5F5F5F5F5F5F5F5F5F5F5F5F5F5F5F5F5F5F5F5F5F5F5F5F5F5F5F5F5F5F5F5F5F5F5F5F5F5F5F5F5F5F5F5F5F5F5F5F5F5F5F5
310
F5F5F5F5F5F5F5F5F5F5F5F5F5F5F5F5F5F5F5F5F5F5F5F5F5F5F5F5F5F5F5F5F5F5F5F5F5F5F5F5F5F5F5F5F5E2F5F5F5E2E2E2F5F5F5F5F5F5F5F5F5F5F5F5F5F5F5F5F5F5F5F5F5F5F5F5F5F5F5F5F5F5F5F5F5F5F5F5F5F5F5F5F5F5F5F5F5F5F5F5F5F5F5F5F5F5F5F5F5F5F5F5F5F5F5F5F5F5F5F5F5F5F5F5F5F5F5
310
F5F5F5F5F5F5F5F5F5F5F5F5F5F5F5F5F5F5F5F5F5F5F5F5F5F5F5F5F5F5F5F5F5F5F5F5F5F5F5F5F5F5F5F5F5F5F5F5F5F5F5F5F5F5F5F5F5F5F5F5F5F5F5F5F5F5F5F5F5F5F5F5F5F5F5F5F5F5F5F5F5F5F5F5F5F5F5F5F5F5F5F5F5F5F5F5F5F5F5F5F5F5E2E2E2F5F5F5F5F5F5F5F5F5F5F5F5F5F5F5F5F5F5F5F5F5F5
310
F5F5F5F5F5F5F5F5F5F5F5F5F5F5F5F5F5F5F5F5F5F5F5F5F5F5F5F5F5F5F5F5F5F5F5F5F5F5F5F5F5F5F5F5F5F5F5F5F5F5F5F5F5F5F5F5F5F5F5F5F5F5F5F5F5F5F5F5F5F5F5F5F5F5F5F5F5F5F5F5F5F5F5F5F5F5F5F5F5F5F5F5F5F5F5F5F5F5F5F5F5F5F5F5F5F5F5F5F5F5F5F5F5F5F5F5F5F5F5F5F5F5F5F5F5F5F5
310
F5F5F5F5F5F5F5F5F5F5F5F5F5F5F5F5F5F5F5F5F5F5F5F5F5F5F5F5E2E2E2F5F5F5F5F5F5F5F5F5F5F5F5F5F5F5F5F5F5F5F5F5F5F5F5F5F5F5F5F5F5F5F5F5F5F5F5F5F5F5F5F5F5F5F5F5F5F5F5F5F5F5F5F5F5F5F5F5F5F5F5F5F5F5F5F5F5F5F5F5F5F5F5F5F5F5F5F5F5F5F5F5F5F5F5F5F5F5F5F5F5F5F5F5F5F5F5
310
F5F5F5F5F5F5F5F5F5F5F5F5F5F5F5F5F5F5F5F5F5F5F5F5F5F5F5F5F5F5F5F5F5F5F5F5F5F5F5F5F5F5F5F5F5F5F5F5F5F5F5F5F5F5F5F5F5F5F5F5F5F5F5F5F5F5F5F5F5F5F5F5F5F5F5F5F5F5F5F5F5E2E2E2F5F5F5F5F5F5F5F5F5F5F5F5F5F5F5F5F5F5F5F5F5F5F5F5F5F5F5F5F5F5F5F5F5F5F5F5F5F5F5F5F5F5F5
310
F5F5F5F5F5F5F5F5F5F5F5F5F5F5F5F5F5F5F5F5F5F5F5F5F5F5F5F5F5F5F5F5F5F5F5F5F5F5F5F5F5F5F5F5F5F5F5F5F5F5F5F5F5F5F5F5F5F5F5F5F5F5F5F5F5F5F5F5F5F5F5F5F5F5F5F5F5F5F5F5F5F5F5F5F5F5F5F5F5F5F5F5F5F5F5F5F5F5F5F5F5F5F5F5F5F5F5F5F5F5F5F5F5F5F5F5F5F5F5F5F5F5F5F5F5F5F5
310
F5F5F5F5F5F5F5E2E2E2F5F5F5F5F5F5F5F5F5F5F5F5F5F5F5F5F5F5F5F5F5F5F5F5F5F5F5F5F5F5F5F5F5F5F5F5F5F5F5F5F5F5F5F5F5F5F5F5F5F5F5F5F5F5F5F5F5F5F5F5F5F5F5F5F5F5F5F5F5F5F5F5F5F5F5F5F5F5F5F5F5F5F5F5F5F5F5F5F5F5F5F5F5F5F5F5F5F5F5F5F5F5F5F5F5F5F5F5F5F5F5F5F5F5F5F5F5
310
F5F5F5F5F5F5F5F5F5F5F5F5F5F5F5F5F5F5F5F5F5F5F5F5F5F5F5F5F5F5F5F5F5F5F5F5F5F5F5F5F5F5F5F5F5F5F5F5F5F5F5F5F5F5F5F5F5F5F5F5E2E2E2F5F5F5F5F5F5F5F5F5F5F5F5F5F5F5F5F5F5F5F5F5F5F5F5F5F5F5F5F5F5F5F5F5F5F5F5F5F5F5F5F5F5F5F5F5F5F5F5F5F5F5F5F5F5F5F5F5F5F5F5F5F5F5F5
310
F5F5F5F5F5F5F5F5F5F5F5F5F5F5F5F5F5F5F5F5F5F5F5F5F5F5F5F5F5F5F5F5F5F5F5F5F5F5F5F5F5F5F5F5F5F5F5F5F5F5F5F5F5F5F5F5F5F5F5F5F5F5F5F5F5F5F5F5F5F5F5F5F5F5F5F5F5F5F5F5F5F5F5F5F5F5F5F5F5F5F5F5F5F5F5F5F5F5F5F5F5F5F5F5F5F5F5F5F5F5F5F5F5E2E2E2F5F5F5F5F5F5F5F5F5F5F5
310
F5F5F5F5F5F5F5F5F5F5F5F5F5F5F5F5F5F5F5F5F5F5F5F5F5F5F5F5F5F5F5F5F5F5F5F5F5F5F5F5F5F5F5F5F5F5F5F5F5F5F5F5F5F5F5F5F5F5F5F5F5F5F5F5F5F5F5F5F5F5F5F5F5F5F5F5F5F5F5F5F5F5F5F5F5F5F5F5F5F5F5F5F5F5F5F5F5F5F5F5F5F5F5F5F5F5F5F5F5F5F5F5F5F5F5F5F5F5F5F5F5F5F5F5F5F5F5
310
F5F5F5F5F5F5F5F5F5F5F5F5F5F5F5F5F5F5F5F5F5F5F5F5F5F5F5F5F5F5F5F5F5F5F5F5F5F5F5E2E2E2F5F5F5F5F5F5F5F5F5F5F5F5F5F5F5F5F5F5F5F5F5F5F5F5F5F5F5F5F5F5F5F5F5F5F5F5F5F5F5F5F5F5F5F5F5F5F5F5F5F5F5F5F5F5F5F5F5F5F5F5F5F5F5F5F5F5F5F5F5F5F5F5F5F5F5F5F5F5F5F5F5F5F5F5F5
310
F5F5F5F5F5F5F5F5F5F5F5F5F5F5F5F5F5F5F5F5F5F5F5F5F5F5F5F5F5F5F5F5F5F5F5F5F5F5F5F5F5F5F5F5F5F5F5F5F5F5F5F5F5F5F5F5F5F5F5F5F5F5F5F5F5F5F5F5F5F5F5F5F5F5F5F5F5F5F5F5F5F5F5F5F5F5F5F5F5F5F5F5E2E2E2F5F5F5E2F5F5F5F5F5F5F5F5F5F5F5F5F5F5F5F5F5F5F5F5F5F5F5F5F5F5F5F5
310
F5F5F5F5F5F5F5F5F5F5F5F5F5F5F5F5F5F5F5F5F5F5F5F5F5F5F5F5F5F5F5F5F5F5F5F5F5F5F5F5F5F5F5F5F5F5F5F5F5F5F5F5F5F5F5F5F5F5F5F5F5F5F5F5F5F5F5F5F5F5F5F5F5F5F5F5F5F5F5F5F5F5F5F5F5F5F5F5F5F5F5F5F5F5F5F5F5F5F5F5F5F5F5F5F5F5F5F5F5F5F5F5F5F5F5F5F5F5F5F5F5F5F5F5F5F5F5
310
F5F5F5F5F5F5F5F5F5F5F5F5F5F5E2F5F5F5E2E2E2F5F5F5E2F5F5F5F5F5F5F5F5F5F5F5F5F5F5F5F5F5F5F5F5F5F5F5F5F5F5F5F5F5F5F5F5F5F5F5F5F5F5F5F5F5F5F5F5F5F5F5F5F5F5F5F5F5F5F5F5F5F5F5F5F5F5F5F5F5F5F5F5F5F5F5F5F5F5F5F5F5F5F5F5F5F5F5F5F5F5F5F5F5F5F5F5F5F5F5F5F5F5F5F5F5F5
310
F5F5F5F5F5F5F5F5F5F5F5F5F5F5F5F5F5F5F5F5F5F5F5F5F5F5F5F5F5F5F5F5F5F5F5F5F5F5F5F5F5F5F5F5F5F5F5F5F5F5F5F5F5F5F5F5F5F5F5F5F5F5F5F5F5F5F5E2F5F5F5E2E2E2F5F5F5E2F5F5F5F5F5F5F5F5F5F5F5F5F5F5F5F5F5F5F5F5F5F5F5F5F5F5F5F5F5F5F5F5F5F5F5F5F5F5F5F5F5F5F5F5F5F5F5F5F5
310
F5F5F5F5F5F5F5F5F5F5F5F5F5F5F5F5F5F5F5F5F5F5F5F5F5F5F5F5F5F5F5F5F5F5F5F5F5F5F5F5F5F5F5F5F5F5F5F5F5F5F5F5F5F5F5F5F5F5F5F5F5F5F5F5F5F5F5F5F5F5F5F5F5F5F5F5F5F5F5F5F5F5F5F5F5F5F5F5F5F5F5F5F5F5F5F5F5F5F5F5F5F5F5F5F5F5F5F5F5F5F5F5F5F5F5F5F5F5F5F5E2F5F5F5E2E2E2
310
F5F5F5E2F5F5F5F5F5F5F5F5F5F5F5F5F5F5F5F5F5F5F5F5F5F5F5F5F5F5F5F5F5F5F5F5F5F5F5F5F5F5F5F5F5F5F5F5F5F5F5F5F5F5F5F5F5F5F5F5F5F5F5F5F5F5F5F5F5F5F5F5F5F5F5F5F5F5F5F5F5F5F5F5F5F5F5F5F5F5F5F5F5F5F5F5F5F5F5F5F5F5F5F5F5F5F5F5F5F5F5F5F5F5F5F5F5F5F5F5F5F5F5F5F5F5F5
310
F5F5F5F5F5F5F5F5F5F5F5F5F5F5F5F5F5F5F5F5F5F5F5F5F5F5F5F5F5F5F5F5F5F5F5F5F5F5F5F5F5F5F5F5F5F5E2F5F5F5E2E2E2F5F5F5E2F5F5F5F5F5F5F5F5F5F5F5F5F5F5F5F5F5F5F5F5F5F5F5F5F5F5F5F5F5F5F5F5F5F5F5F5F5F5F5F5F5F5F5F5F5F5F5F5F5F5F5F5F5F5F5F5F5F5F5F5F5F5F5F5F5F5F5F5F5F5
310
F5F5F5F5F5F5F5F5F5F5F5F5F5F5F5F5F5F5F5F5F5F5F5F5F5F5F5F5F5F5F5F5F5F5F5F5F5F5F5F5F5F5F5F5F5F5F5F5F5F5F5F5F5F5F5F5F5F5F5F5F5F5F5F5F5F5F5F5F5F5F5F5F5F5F5F5F5F5F5F5F5F5F5F5F5F5F5F5F5F5F5F5F5F5F5F5F5F5F5E2F5F5F5E2E2E2F5F5F5E2F5F5F5F5F5F5F5F5F5F5F5F5F5F5F5F5F5
310
F5F5F5F5F5F5F5F5F5F5F5F5F5F5F5F5F5F5F5F5F5F5F5F5F5F5F5F5F5F5F5F5F5F5F5F5F5F5F5F5F5F5F5F5F5F5F5F5F5F5F5F5F5F5F5F5F5F5F5F5F5F5F5F5F5F5F5F5F5F5F5F5F5F5F5F5F5F5F5F5F5F5F5F5F5F5F5F5F5F5F5F5F5F5F5F5F5F5F5F5F5F5F5F5F5F5F5F5F5F5F5F5F5F5F5F5F5F5F5F5F5F5F5F5F5F5F5
310
F5F5F5F5F5F5F5F5F5F5F5F5F5F5F5F5F5F5F5F5F5F5F5F5F5E2F5F5F5E2E2E2F5F5F5E2F5F5F5F5F5F5F5F5F5F5F5F5F5F5F5F5F5F5F5F5F5F5F5F5F5F5F5F5F5F5F5F5F5F5F5F5F5F5F5F5F5F5F5F5F5F5F5F5F5F5F5F5F5F5F5F5F5F5F5F5F5F5F5F5F5F5F5F5F5F5F5F5F5F5F5F5F5F5F5F5F5F5F5F5F5F5F5F5F5F5F5
310
F5F5F5F5F5F5F5F5F5F5F5F5F5F5F5F5F5F5F5F5F5F5F5F5F5F5F5F5F5F5F5F5F5F5F5F5F5F5F5F5F5F5F5F5F5F5F5F5F5F5F5F5F5F5F5F5F5F5F5F5F5F5F5F5F5F5F5F5F5F5F5F5F5F5F5F5F5F5E2F5F5F5E2E2E2F5F5F5E2F5F5F5F5F5F5F5F5F5F5F5F5F5F5F5F5F5F5F5F5F5F5F5F5F5F5F5F5F5F5F5F5F5F5F5F5F5F5
310
F5F5F5F5F5F5F5F5F5F5F5F5F5F5F5F5F5F5F5F5F5F5F5F5F5F5F5F5F5F5F5F5F5F5F5F5F5F5F5F5F5F5F5F5F5F5F5F5F5F5F5F5F5F5F5F5F5F5F5F5F5F5F5F5F5F5F5F5F5F5F5F5F5F5F5F5F5F5F5F5F5F5F5F5F5F5F5F5F5F5F5F5F5F5F5F5F5F5F5F5F5F5F5F5F5F5F5F5F5F5F5F5F5F5F5F5F5F5F5F5F5F5F5F5F5F5F5
310
F5F5F5F5E2F5F5F5E2E2E2F5F5F5E2F5F5F5F5F5F5F5F5F5F5F5F5F5F5F5F5F5F5F5F5F5F5F5F5F5F5F5F5F5F5F5F5F5F5F5F5F5F5F5F5F5F5F5F5F5F5F5F5F5F5F5F5F5F5F5F5F5F5F5F5F5F5F5F5F5F5F5F5F5F5F5F5F5F5F5F5F5F5F5F5F5F5F5F5F5F5F5F5F5F5F5F5F5F5F5F5F5F5F5F5F5F5F5F5F5F5F5F5F5F5F5F5
310
F5F5F5F5F5F5F5F5F5F5F5F5F5F5F5F5F5F5F5F5F5F5F5F5F5F5F5F5F5F5F5F5F5F5F5F5F5F5F5F5F5F5F5F5F5F5F5F5F5F5F5F5F5F5F5F5F5E2F5F5F5E2E2E2F5F5F5E2F5F5F5F5F5F5F5F5F5F5F5F5F5F5F5F5F5F5F5F5F5F5F5F5F5F5F5F5F5F5F5F5F5F5F5F5F5F5F5F5F5F5F5F5F5F5F5F5F5F5F5F5F5F5F5F5F5F5F5
310
F5F5F5F5F5F5F5F5F5F5F5F5F5F5F5F5F5F5F5F5F5F5F5F5F5F5F5F5F5F5F5F5F5F5F5F5F5F5F5F5F5F5F5F5F5F5F5F5F5F5F5F5F5F5F5F5F5F5F5F5F5F5F5F5F5F5F5F5F5F5F5F5F5F5F5F5F5F5F5F5F5F5F5F5F5F5F5F5F5F5F5F5F5F5F5F5F5F5F5F5F5F5F5F5F5F5F5F5F5F5E2F5F5F5E2E2E2F5F5F5E2F5F5F5F5F5F5
310
F5F5F5F5F5F5F5F5F5F5F5F5F5F5F5F5F5F5F5F5F5F5F5F5F5F5F5F5F5F5F5F5F5F5F5F5F5F5F5F5F5F5F5F5F5F5F5F5F5F5F5F5F5F5F5F5F5F5F5F5F5F5F5F5F5F5F5F5F5F5F5F5F5F5F5F5F5F5F5F5F5F5F5F5F5F5F5F5F5F5F5F5F5F5F5F5F5F5F5F5F5F5F5F5F5F5F5F5F5F5F5F5F5F5F5F5F5F5F5F5F5F5F5F5F5F5F5
310
F5F5F5F5F5F5F5F5F5F5F5F5F5F5F5F5F5F5F5F5F5F5F5F5F5F5F5F5F5F5F5F5F5F5F5F5E2F5F5F5E2E2E2F5F5F5E2F5F5F5F5F5F5F5F5F5F5F5F5F5F5F5F5F5F5F5F5F5F5F5F5F5F5F5F5F5F5F5F5F5F5F5F5F5F5F5F5F5F5F5F5F5F5F5F5F5F5F5F5F5F5F5F5F5F5F5F5F5F5F5F5F5F5F5F5F5F5F5F5F5F5F5F5F5F5F5F5
310
F5F5F5F5F5F5F5F5F5F5F5F5F5F5F5F5F5F5F5F5F5F5F5F5F5F5F5F5F5F5F5F5F5F5F5F5F5F5F5F5F5F5F5F5F5F5F5F5F5F5F5F5F5F5F5F5F5F5F5F5F5F5F5F5F5F5F5F5F5F5F5F5F5F5F5F5F5F5F5F5F5F5F5F5F5F5F5F5F5E2F5F5F5E2E2E2F5F5F5E2F5F5F5F5F5F5F5F5F5F5F5F5F5F5F5F5F5F5F5F5F5F5F5F5F5F5F5
310
F5F5F5F5F5F5F5F5F5F5F5F5F5F5F5F5F5F5F5F5F5F5F5F5F5F5F5F5F5F5F5F5F5F5F5F5F5F5F5F5F5F5F5F5F5F5F5F5F5F5F5F5F5F5F5F5F5F5F5F5F5F5F5F5F5F5F5F5F5F5F5F5F5F5F5F5F5F5F5F5F5F5F5F5F5F5F5F5F5F5F5F5F5F5F5F5F5F5F5F5F5F5F5F5F5F5F5F5F5F5F5F5F5F5F5F5F5F5F5F5F5F5F5F5F5F5F5
310
F5F5F5F5F5F5F5F5F5F5F5F5F5F5F5E2F5F5F5E2E2E2F5F5F5E2F5F5F5F5F5F5F5F5F5F5F5F5F5F5F5F5F5F5F5F5F5F5F5F5F5F5F5F5F5F5F5F5F5F5F5F5F5F5F5F5F5F5F5F5F5F5F5F5F5F5F5F5F5F5F5F5F5F5F5F5F5F5F5F5F5F5F5F5F5F5F5F5F5F5F5F5F5F5F5F5F5F5F5F5F5F5F5F5F5F5F5F5F5F5F5F5F5F5F5F5F5
310
F5F5F5F5F5F5F5F5F5F5F5F5F5F5F5F5F5F5F5F5F5F5F5F5F5F5F5F5F5F5F5F5F5F5F5F5F5F5F5F5F5F5F5F5F5F5F5F5F5F5F5F5F5F5F5F5F5F5F5F5F5F5F5F5F5F5F5F5E2F5F5F5E2E2E2F5F5F5E2F5F5F5F5F5F5F5F5F5F5F5F5F5F5F5F5F5F5F5F5F5F5F5F5F5F5F5F5F5F5F5F5F5F5F5F5F5F5F5F5F5F5F5F5F5F5F5F5
310
F5F5F5F5F5F5F5F5F5F5F5F5F5F5F5F5F5F5F5F5F5F5F5F5F5F5F5F5F5F5F5F5F5F5F5F5F5F5F5F5F5F5F5F5F5F5F5F5F5F5F5F5F5F5F5F5F5F5F5F5F5F5F5F5F5F5F5F5F5F5F5F5F5F5F5F5F5F5F5F5F5F5F5F5F5F5F5F5F5F5F5F5F5F5F5F5F5F5F5F5F5F5F5F5F5F5F5F5F5F5F5F5F5F5F5F5F5F5F5F5F5E2F5F5F5E2E2
310
E2F5F5F5E2F5F5F5F5F5F5F5F5F5F5F5F5F5F5F5F5F5F5F5F5F5F5F5F5F5F5F5F5F5F5F5F5F5F5F5F5F5F5F5F5F5F5F5F5F5F5F5F5F5F5F5F5F5F5F5F5F5F5F5F5F5F5F5F5F5F5F5F5F5F5F5F5F5F5F5F5F5F5F5F5F5F5F5F5F5F5F5F5F5F5F5F5F5F5F5F5F5F5F5F5F5F5F5F5F5F5F5F5F5F5F5F5F5F5F5F5F5F5F5F5F5F5
310
F5F5F5F5F5F5F5F5F5F5F5F5F5F5F5F5F5F5F5F5F5F5F5F5F5F5F5F5F5F5F5F5F5F5F5F5F5F5F5F5F5F5F5F5F5F5F5E2F5F5F5E2E2E2F5F5F5F5F5F5F5F5F5F5F5F5F5F5F5F5F5F5F5F5F5F5F5F5F5F5F5F5F5F5F5F5F5F5F5F5F5F5F5F5F5F5F5F5F5F5F5F5F5F5F5F5F5F5F5F5F5F5F5F5F5F5F5F5F5F5F5F5F5F5F5F5F5
310
F5F5F5F5F5F5F5F5F5F5F5F5F5F5F5F5F5F5F5F5F5F5F5F5F5F5F5F5F5F5F5F5F5F5F5F5F5F5F5F5F5F5F5F5F5F5F5F5F5F5F5F5F5F5F5F5F5F5F5F5F5F5F5F5F5F5F5F5F5F5F5F5F5F5F5F5F5F5F5F5F5F5F5F5F5F5F5F5F5F5F5F5F5F5F5F5F5F5F5F5F5F5F5F5E2E2E2F5F5F5F5F5F5F5F5F5F5F5F5F5F5F5F5F5F5F5F5
310
F5F5F5F5F5F5F5F5F5F5F5F5F5F5F5F5F5F5F5F5F5F5F5F5F5F5F5F5F5F5F5F5F5F5F5F5F5F5F5F5F5F5F5F5F5F5F5F5F5F5F5F5F5F5F5F5F5F5F5F5F5F5F5F5F5F5F5F5F5F5F5F5F5F5F5F5F5F5F5F5F5F5F5F5F5F5F5F5F5F5F5F5F5F5F5F5F5F5F5F5F5F5F5F5F5F5F5F5F5F5F5F5F5F5F5F5F5F5F5F5F5F5F5F5F5F5F5
310
F5F5F5F5F5F5F5F5F5F5F5F5F5F5F5F5F5F5F5F5F5F5F5F5F5F5F5F5F5F5E2E2E2F5F5F5F5F5F5F5F5F5F5F5F5F5F5F5F5F5F5F5F5F5F5F5F5F5F5F5F5F5F5F5F5F5F5F5F5F5F5F5F5F5F5F5F5F5F5F5F5F5F5F5F5F5F5F5F5F5F5F5F5F5F5F5F5F5F5F5F5F5F5F5F5F5F5F5F5F5F5F5F5F5F5F5F5F5F5F5F5F5F5F5F5F5F5
310
F5F5F5F5F5F5F5F5F5F5F5F5F5F5F5F5F5F5F5F5F5F5F5F5F5F5F5F5F5F5F5F5F5F5F5F5F5F5F5F5F5F5F5F5F5F5F5F5F5F5F5F5F5F5F5F5F5F5F5F5F5F5F5F5F5F5F5F5F5F5F5F5F5F5F5F5F5F5F5F5F5F5F5E2E2E2F5F5F5F5F5F5F5F5F5F5F5F5F5F5F5F5F5F5F5F5F5F5F5F5F5F5F5F5F5F5F5F5F5F5F5F5F5F5F5F5F5
310
F5F5F5F5F5F5F5F5F5F5F5F5F5F5F5F5F5F5F5F5F5F5F5F5F5F5F5F5F5F5F5F5F5F5F5F5F5F5F5F5F5F5F5F5F5F5F5F5F5F5F5F5F5F5F5F5F5F5F5F5F5F5F5F5F5F5F5F5F5F5F5F5F5F5F5F5F5F5F5F5F5F5F5F5F5F5F5F5F5F5F5F5F5F5F5F5F5F5F5F5F5F5F5F5F5F5F5F5F5F5F5F5F5F5F5F5F5F5F5F5F5F5F5F5F5F5F5
310
F5F5F5F5F5F5F5F5F5E2E2E2F5F5F5F5F5F5F5F5F5F5F5F5F5F5F5F5F5F5F5F5F5F5F5F5F5F5F5F5F5F5F5F5F5F5F5F5F5F5F5F5F5F5F5F5F5F5F5F5F5F5F5F5F5F5F5F5F5F5F5F5F5F5F5F5F5F5F5F5F5F5F5F5F5F5F5F5F5F5F5F5F5F5F5F5F5F5F5F5F5F5F5F5F5F5F5F5F5F5F5F5F5F5F5F5F5F5F5F5F5F5F5F5F5F5F5
310
F5F5F5F5F5F5F5F5F5F5F5F5F5F5F5F5F5F5F5F5F5F5F5F5F5F5F5F5F5F5F5F5F5F5F5F5F5F5F5F5F5F5F5F5F5F5F5F5F5F5F5F5F5F5F5F5F5F5F5F5F5F5E2E2E2F5F5F5F5F5F5F5F5F5F5F5F5F5F5F5F5F5F5F5F5F5F5F5F5F5F5F5F5F5F5F5F5F5F5F5F5F5F5F5F5F5F5F5F5F5F5F5F5F5F5F5F5F5F5F5F5F5F5F5F5F5F5
310
F5F5F5F5F5F5F5F5F5F5F5F5F5F5F5F5F5F5F5F5F5F5F5F5F5F5F5F5F5F5F5F5F5F5F5F5F5F5F5F5F5F5F5F5F5F5F5F5F5F5F5F5F5F5F5F5F5F5F5F5F5F5F5F5F5F5F5F5F5F5F5F5F5F5F5F5F5F5F5F5F5F5F5F5F5F5F5F5F5F5F5F5F5F5F5F5F5F5F5F5F5F5F5F5F5F5F5F5F5F5F5F5F5F5F5E2E2E2F5F5F5F5F5F5F5F5F5
310
F5F5F5F5F5F5F5F5F5F5F5F5F5F5F5F5F5F5F5F5F5F5F5F5F5F5F5F5F5F5F5F5F5F5F5F5F5F5F5F5F5F5F5F5F5F5F5F5F5F5F5F5F5F5F5F5F5F5F5F5F5F5F5F5F5F5F5F5F5F5F5F5F5F5F5F5F5F5F5F5F5F5F5F5F5F5F5F5F5F5F5F5F5F5F5F5F5F5F5F5F5F5F5F5F5F5F5F5F5F5F5F5F5F5F5F5F5F5F5F5F5F5F5F5F5F5F5
310
F5F5F5F5F5F5F5F5F5F5F5F5F5F5F5F5F5F5F5F5F5F5F5F5F5F5F5F5F5F5F5F5F5F5F5F5F5F5F5F5F5E2E2E2F5F5F5F5F5F5F5F5F5F5F5F5F5F5F5F5F5F5F5F5F5F5F5F5F5F5F5F5F5F5F5F5F5F5F5F5F5F5F5F5F5F5F5F5F5F5F5F5F5F5F5F5F5F5F5F5F5F5F5F5F5F5F5F5F5F5F5F5F5F5F5F5F5F5F5F5F5F5F5F5F5F5F5
310
F5F5F5F5F5F5F5F5F5F5F5F5F5F5F5F5F5F5F5F5F5F5F5F5F5F5F5F5F5F5F5F5F5F5F5F5F5F5F5F5F5F5F5F5F5F5F5F5F5F5F5F5F5F5F5F5F5F5F5F5F5F5F5F5F5F5F5F5F5F5F5F5F5F5F5F5F5F5F5F5F5F5F5F5F5F5F5F5F5F5F5F5F5F5E2E2E2F5F5F5E2F5F5F5F5F5F5F5F5F5F5F5F5F5F5F5F5F5F5F5F5F5F5F5F5F5F5
310
F5F5F5F5F5F5F5F5F5F5F5F5F5F5F5F5F5F5F5F5F5F5F5F5F5F5F5F5F5F5F5F5F5F5F5F5F5F5F5F5F5F5F5F5F5F5F5F5F5F5F5F5F5F5F5F5F5F5F5F5F5F5F5F5F5F5F5F5F5F5F5F5F5F5F5F5F5F5F5F5F5F5F5F5F5F5F5F5F5F5F5F5F5F5F5F5F5F5F5F5F5F5F5F5F5F5F5F5F5F5F5F5F5F5F5F5F5F5F5F5F5F5F5F5F5F5F5
310
F5F5F5F5F5F5F5F5F5F5F5F5F5F5F5F5E2F5F5F5E2E2E2F5F5F5E2F5F5F5F5F5F5F5F5F5F5F5F5F5F5F5F5F5F5F5F5F5F5F5F5F5F5F5F5F5F5F5F5F5F5F5F5F5F5F5F5F5F5F5F5F5F5F5F5F5F5F5F5F5F5F5F5F5F5F5F5F5F5F5F5F5F5F5F5F5F5F5F5F5F5F5F5F5F5F5F5F5F5F5F5F5F5F5F5F5F5F5F5F5F5F5F5F5F5F5F5
310
F5F5F5F5F5F5F5F5F5F5F5F5F5F5F5F5F5F5F5F5F5F5F5F5F5F5F5F5F5F5F5F5F5F5F5F5F5F5F5F5F5F5F5F5F5F5F5F5F5F5F5F5F5F5F5F5F5F5F5F5F5F5F5F5F5F5F5F5F5E2F5F5F5E2E2E2F5F5F5E2F5F5F5F5F5F5F5F5F5F5F5F5F5F5F5F5F5F5F5F5F5F5F5F5F5F5F5F5F5F5F5F5F5F5F5F5F5F5F5F5F5F5F5F5F5F5F5
310
F5F5F5F5F5F5F5F5F5F5F5F5F5F5F5F5F5F5F5F5F5F5F5F5F5F5F5F5F5F5F5F5F5F5F5F5F5F5F5F5F5F5F5F5F5F5F5F5F5F5F5F5F5F5F5F5F5F5F5F5F5F5F5F5F5F5F5F5F5F5F5F5F5F5F5F5F5F5F5F5F5F5F5F5F5F5F5F5F5F5F5F5F5F5F5F5F5F5F5F5F5F5F5F5F5F5F5F5F5F5F5F5F5F5F5F5F5F5F5F5F5F5E2F5F5F5E2
310
E2E2F5F5F5E2F5F5F5F5F5F5F5F5F5F5F5F5F5F5F5F5F5F5F5F5F5F5F5F5F5F5F5F5F5F5F5F5F5F5F5F5F5F5F5F5F5F5F5F5F5F5F5F5F5F5F5F5F5F5F5F5F5F5F5F5F5F5F5F5F5F5F5F5F5F5F5F5F5F5F5F5F5F5F5F5F5F5F5F5F5F5F5F5F5F5F5F5F5F5F5F5F5F5F5F5F5F5F5F5F5F5F5F5F5F5F5F5F5F5F5F5F5F5F5F5F5
310
F5F5F5F5F5F5F5F5F5F5F5F5F5F5F5F5F5F5F5F5F5F5F5F5F5F5F5F5F5F5F5F5F5F5F5F5F5F5F5F5F5F5F5F5F5F5F5F5E2F5F5F5E2E2E2F5F5F5E2F5F5F5F5F5F5F5F5F5F5F5F5F5F5F5F5F5F5F5F5F5F5F5F5F5F5F5F5F5F5F5F5F5F5F5F5F5F5F5F5F5F5F5F5F5F5F5F5F5F5F5F5F5F5F5F5F5F5F5F5F5F5F5F5F5F5F5F5
310
F5F5F5F5F5F5F5F5F5F5F5F5F5F5F5F5F5F5F5F5F5F5F5F5F5F5F5F5F5F5F5F5F5F5F5F5F5F5F5F5F5F5F5F5F5F5F5F5F5F5F5F5F5F5F5F5F5F5F5F5F5F5F5F5F5F5F5F5F5F5F5F5F5F5F5F5F5F5F5F5F5F5F5F5F5F5F5F5F5F5F5F5F5F5F5F5F5F5F5F5F5E2F5F5F5E2E2E2F5F5F5E2F5F5F5F5F5F5F5F5F5F5F5F5F5F5F5
310
F5F5F5F5F5F5F5F5F5F5F5F5F5F5F5F5F5F5F5F5F5F5F5F5F5F5F5F5F5F5F5F5F5F5F5F5F5F5F5F5F5F5F5F5F5F5F5F5F5F5F5F5F5F5F5F5F5F5F5F5F5F5F5F5F5F5F5F5F5F5F5F5F5F5F5F5F5F5F5F5F5F5F5F5F5F5F5F5F5F5F5F5F5F5F5F5F5F5F5F5F5F5F5F5F5F5F5F5F5F5F5F5F5F5F5F5F5F5F5F5F5F5F5F5F5F5F5
310
F5F5F5F5F5F5F5F5F5F5F5F5F5F5F5F5F5F5F5F5F5F5F5F5F5F5F5E2F5F5F5E2E2E2F5F5F5E2F5F5F5F5F5F5F5F5F5F5F5F5F5F5F5F5F5F5F5F5F5F5F5F5F5F5F5F5F5F5F5F5F5F5F5F5F5F5F5F5F5F5F5F5F5F5F5F5F5F5F5F5F5F5F5F5F5F5F5F5F5F5F5F5F5F5F5F5F5F5F5F5F5F5F5F5F5F5F5F5F5F5F5F5F5F5F5F5F5
310
F5F5F5F5F5F5F5F5F5F5F5F5F5F5F5F5F5F5F5F5F5F5F5F5F5F5F5F5F5F5F5F5F5F5F5F5F5F5F5F5F5F5F5F5F5F5F5F5F5F5F5F5F5F5F5F5F5F5F5F5F5F5F5F5F5F5F5F5F5F5F5F5F5F5F5F5F5F5F5F5E2F5F5F5E2E2E2F5F5F5E2F5F5F5F5F5F5F5F5F5F5F5F5F5F5F5F5F5F5F5F5F5F5F5F5F5F5F5F5F5F5F5F5F5F5F5F5
310
F5F5F5F5F5F5F5F5F5F5F5F5F5F5F5F5F5F5F5F5F5F5F5F5F5F5F5F5F5F5F5F5F5F5F5F5F5F5F5F5F5F5F5F5F5F5F5F5F5F5F5F5F5F5F5F5F5F5F5F5F5F5F5F5F5F5F5F5F5F5F5F5F5F5F5F5F5F5F5F5F5F5F5F5F5F5F5F5F5F5F5F5F5F5F5F5F5F5F5F5F5F5F5F5F5F5F5F5F5F5F5F5F5F5F5F5F5F5F5F5F5F5F5F5F5F5F5
310
F5F5F5F5F5F5E2F5F5F5E2E2E2F5F5F5E2F5F5F5F5F5F5F5F5F5F5F5F5F5F5F5F5F5F5F5F5F5F5F5F5F5F5F5F5F5F5F5F5F5F5F5F5F5F5F5F5F5F5F5F5F5F5F5F5F5F5F5F5F5F5F5F5F5F5F5F5F5F5F5F5F5F5F5F5F5F5F5F5F5F5F5F5F5F5F5F5F5F5F5F5F5F5F5F5F5F5F5F5F5F5F5F5F5F5F5F5F5F5F5F5F5F5F5F5F5F5
310
F5F5F5F5F5F5F5F5F5F5F5F5F5F5F5F5F5F5F5F5F5F5F5F5F5F5F5F5F5F5F5F5F5F5F5F5F5F5F5F5F5F5F5F5F5F5F5F5F5F5F5F5F5F5F5F5F5F5F5E2F5F5F5E2E2E2F5F5F5E2F5F5F5F5F5F5F5F5F5F5F5F5F5F5F5F5F5F5F5F5F5F5F5F5F5F5F5F5F5F5F5F5F5F5F5F5F5F5F5F5F5F5F5F5F5F5F5F5F5F5F5F5F5F5F5F5F5
310
F5F5F5F5F5F5F5F5F5F5F5F5F5F5F5F5F5F5F5F5F5F5F5F5F5F5F5F5F5F5F5F5F5F5F5F5F5F5F5F5F5F5F5F5F5F5F5F5F5F5F5F5F5F5F5F5F5F5F5F5F5F5F5F5F5F5F5F5F5F5F5F5F5F5F5F5F5F5F5F5F5F5F5F5F5F5F5F5F5F5F5F5F5F5F5F5F5F5F5F5F5F5F5F5F5F5F5F5F5F5F5F5E2F5F5F5E2E2E2F5F5F5E2F5F5F5F5
310
F5F5F5F5F5F5F5F5F5F5F5F5F5F5F5F5F5F5F5F5F5F5F5F5F5F5F5F5F5F5F5F5F5F5F5F5F5F5F5F5F5F5F5F5F5F5F5F5F5F5F5F5F5F5F5F5F5F5F5F5F5F5F5F5F5F5F5F5F5F5F5F5F5F5F5F5F5F5F5F5F5F5F5F5F5F5F5F5F5F5F5F5F5F5F5F5F5F5F5F5F5F5F5F5F5F5F5F5F5F5F5F5F5F5F5F5F5F5F5F5F5F5F5F5F5F5F5
310
F5F5F5F5F5F5F5F5F5F5F5F5F5F5F5F5F5F5F5F5F5F5F5F5F5F5F5F5F5F5F5F5F5F5F5F5F5F5E2F5F5F5E2E2E2F5F5F5E2F5F5F5F5F5F5F5F5F5F5F5F5F5F5F5F5F5F5F5F5F5F5F5F5F5F5F5F5F5F5F5F5F5F5F5F5F5F5F5F5F5F5F5F5F5F5F5F5F5F5F5F5F5F5F5F5F5F5F5F5F5F5F5F5F5F5F5F5F5F5F5F5F5F5F5F5F5F5
310
F5F5F5F5F5F5F5F5F5F5F5F5F5F5F5F5F5F5F5F5F5F5F5F5F5F5F5F5F5F5F5F5F5F5F5F5F5F5F5F5F5F5F5F5F5F5F5F5F5F5F5F5F5F5F5F5F5F5F5F5F5F5F5F5F5F5F5F5F5F5F5F5F5F5F5F5F5F5F5F5F5F5F5F5F5F5F5F5F5F5F5E2F5F5F5E2E2E2F5F5F5E2F5F5F5F5F5F5F5F5F5F5F5F5F5F5F5F5F5F5F5F5F5F5F5F5F5
310
F5F5F5F5F5F5F5F5F5F5F5F5F5F5F5F5F5F5F5F5F5F5F5F5F5F5F5F5F5F5F5F5F5F5F5F5F5F5F5F5F5F5F5F5F5F5F5F5F5F5F5F5F5F5F5F5F5F5F5F5F5F5F5F5F5F5F5F5F5F5F5F5F5F5F5F5F5F5F5F5F5F5F5F5F5F5F5F5F5F5F5F5F5F5F5F5F5F5F5F5F5F5F5F5F5F5F5F5F5F5F5F5F5F5F5F5F5F5F5F5F5F5F5F5F5F5F5
310
F5F5F5F5F5F5F5F5F5F5F5F5F5F5F5F5F5E2F5F5F5E2E2E2F5F5F5E2F5F5F5F5F5F5F5F5F5F5F5F5F5F5F5F5F5F5F5F5F5F5F5F5F5F5F5F5F5F5F5F5F5F5F5F5F5F5F5F5F5F5F5F5F5F5F5F5F5F5F5F5F5F5F5F5F5F5F5F5F5F5F5F5F5F5F5F5F5F5F5F5F5F5F5F5F5F5F5F5F5F5F5F5F5F5F5F5F5F5F5F5F5F5F5F5F5F5F5
310
F5F5F5F5F5F5F5F5F5F5F5F5F5F5F5F5F5F5F5F5F5F5F5F5F5F5F5F5F5F5F5F5F5F5F5F5F5F5F5F5F5F5F5F5F5F5F5F5F5F5F5F5F5F5F5F5F5F5F5F5F5F5F5F5F5F5F5F5F5F5E2F5F5F5E2E2E2F5F5F5E2F5F5F5F5F5F5F5F5F5F5F5F5F5F5F5F5F5F5F5F5F5F5F5F5F5F5F5F5F5F5F5F5F5F5F5F5F5F5F5F5F5F5F5F5F5F5
310
F5F5F5F5F5F5F5F5F5F5F5F5F5F5F5F5F5F5F5F5F5F5F5F5F5F5F5F5F5F5F5F5F5F5F5F5F5F5F5F5F5F5F5F5F5F5F5F5F5F5F5F5F5F5F5F5F5F5F5F5F5F5F5F5F5F5F5F5F5F5F5F5F5F5F5F5F5F5F5F5F5F5F5F5F5F5F5F5F5F5F5F5F5F5F5F5F5F5F5F5F5F5F5F5F5F5F5F5F5F5F5F5F5F5F5F5F5F5F5F5F5F5F5E2F5F5F5
310
E2E2E2F5F5F5E2F5F5F5F5F5F5F5F5F5F5F5F5F5F5F5F5F5F5F5F5F5F5F5F5F5F5F5F5F5F5F5F5F5F5F5F5F5F5F5F5F5F5F5F5F5F5F5F5F5F5F5F5F5F5F5F5F5F5F5F5F5F5F5F5F5F5F5F5F5F5F5F5F5F5F5F5F5F5F5F5F5F5F5F5F5F5F5F5F5F5F5F5F5F5F5F5F5F5F5F5F5F5F5F5F5F5F5F5F5F5F5F5F5F5F5F5F5F5F5F5
310
F5F5F5F5F5F5F5F5F5F5F5F5F5F5F5F5F5F5F5F5F5F5F5F5F5F5F5F5F5F5F5F5F5F5F5F5F5F5F5F5F5F5F5F5F5F5F5F5F5E2F5F5F5E2E2E2F5F5F5F5F5F5F5F5F5F5F5F5F5F5F5F5F5F5F5F5F5F5F5F5F5F5F5F5F5F5F5F5F5F5F5F5F5F5F5F5F5F5F5F5F5F5F5F5F5F5F5F5F5F5F5F5F5F5F5F5F5F5F5F5F5F5F5F5F5F5F5
310
F5F5F5F5F5F5F5F5F5F5F5F5F5F5F5F5F5F5F5F5F5F5F5F5F5F5F5F5F5F5F5F5F5F5F5F5F5F5F5F5F5F5F5F5F5F5F5F5F5F5F5F5F5F5F5F5F5F5F5F5F5F5F5F5F5F5F5F5F5F5F5F5F5F5F5F5F5F5F5F5F5F5F5F5F5F5F5F5F5F5F5F5F5F5F5F5F5F5F5F5F5F5F5F5F5F5E2E2E2F5F5F5F5F5F5F5F5F5F5F5F5F5F5F5F5F5F5
310
F5F5F5F5F5F5F5F5F5F5F5F5F5F5F5F5F5F5F5F5F5F5F5F5F5F5F5F5F5F5F5F5F5F5F5F5F5F5F5F5F5F5F5F5F5F5F5F5F5F5F5F5F5F5F5F5F5F5F5F5F5F5F5F5F5F5F5F5F5F5F5F5F5F5F5F5F5F5F5F5F5F5F5F5F5F5F5F5F5F5F5F5F5F5F5F5F5F5F5F5F5F5F5F5F5F5F5F5F5F5F5F5F5F5F5F5F5F5F5F5F5F5F5F5F5F5F5
310
F5F5F5F5F5F5F5F5F5F5F5F5F5F5F5F5F5F5F5F5F5F5F5F5F5F5F5F5F5F5F5F5E2E2E2F5F5F5F5F5F5F5F5F5F5F5F5F5F5F5F5F5F5F5F5F5F5F5F5F5F5F5F5F5F5F5F5F5F5F5F5F5F5F5F5F5F5F5F5F5F5F5F5F5F5F5F5F5F5F5F5F5F5F5F5F5F5F5F5F5F5F5F5F5F5F5F5F5F5F5F5F5F5F5F5F5F5F5F5F5F5F5F5F5F5F5F5
310
F5F5F5F5F5F5F5F5F5F5F5F5F5F5F5F5F5F5F5F5F5F5F5F5F5F5F5F5F5F5F5F5F5F5F5F5F5F5F5F5F5F5F5F5F5F5F5F5F5F5F5F5F5F5F5F5F5F5F5F5F5F5F5F5F5F5F5F5F5F5F5F5F5F5F5F5F5F5F5F5F5F5F5F5F5E2E2E2F5F5F5F5F5F5F5F5F5F5F5F5F5F5F5F5F5F5F5F5F5F5F5F5F5F5F5F5F5F5F5F5F5F5F5F5F5F5F5
310
F5F5F5F5F5F5F5F5F5F5F5F5F5F5F5F5F5F5F5F5F5F5F5F5F5F5F5F5F5F5F5F5F5F5F5F5F5F5F5F5F5F5F5F5F5F5F5F5F5F5F5F5F5F5F5F5F5F5F5F5F5F5F5F5F5F5F5F5F5F5F5F5F5F5F5F5F5F5F5F5F5F5F5F5F5F5F5F5F5F5F5F5F5F5F5F5F5F5F5F5F5F5F5F5F5F5F5F5F5F5F5F5F5F5F5F5F5F5F5F5F5F5F5F5F5F5F5
310
F5F5F5F5F5F5F5F5F5F5F5E2E2E2F5F5F5F5F5F5F5F5F5F5F5F5F5F5F5F5F5F5F5F5F5F5F5F5F5F5F5F5F5F5F5F5F5F5F5F5F5F5F5F5F5F5F5F5F5F5F5F5F5F5F5F5F5F5F5F5F5F5F5F5F5F5F5F5F5F5F5F5F5F5F5F5F5F5F5F5F5F5F5F5F5F5F5F5F5F5F5F5F5F5F5F5F5F5F5F5F5F5F5F5F5F5F5F5F5F5F5F5F5F5F5F5F5
310
F5F5F5F5F5F5F5F5F5F5F5F5F5F5F5F5F5F5F5F5F5F5F5F5F5F5F5F5F5F5F5F5F5F5F5F5F5F5F5F5F5F5F5F5F5F5F5F5F5F5F5F5F5F5F5F5F5F5F5F5F5F5F5F5E2E2E2F5F5F5F5F5F5F5F5F5F5F5F5F5F5F5F5F5F5F5F5F5F5F5F5F5F5F5F5F5F5F5F5F5F5F5F5F5F5F5F5F5F5F5F5F5F5F5F5F5F5F5F5F5F5F5F5F5F5F5F5
310
F5F5F5F5F5F5F5F5F5F5F5F5F5F5F5F5F5F5F5F5F5F5F5F5F5F5F5F5F5F5F5F5F5F5F5F5F5F5F5F5F5F5F5F5F5F5F5F5F5F5F5F5F5F5F5F5F5F5F5F5F5F5F5F5F5F5F5F5F5F5F5F5F5F5F5F5F5F5F5F5F5F5F5F5F5F5F5F5F5F5F5F5F5F5F5F5F5F5F5F5F5F5F5F5F5F5F5F5F5F5F5F5F5F5F5F5F5E2E2E2F5F5F5F5F5F5F5
310
F5F5F5F5F5F5F5F5F5F5F5F5F5F5F5F5F5F5F5F5F5F5F5F5F5F5F5F5F5F5F5F5F5F5F5F5F5F5F5F5F5F5F5F5F5F5F5F5F5F5F5F5F5F5F5F5F5F5F5F5F5F5F5F5F5F5F5F5F5F5F5F5F5F5F5F5F5F5F5F5F5F5F5F5F5F5F5F5F5F5F5F5F5F5F5F5F5F5F5F5F5F5F5F5F5F5F5F5F5F5F5F5F5F5F5F5F5F5F5F5F5F5F5F5F5F5F5
310
F5F5F5F5F5F5F5F5F5F5F5F5F5F5F5F5F5F5F5F5F5F5F5F5F5F5F5F5F5F5F5F5F5F5F5F5F5F5F5F5F5F5F5E2E2E2F5F5F5F5F5F5F5F5F5F5F5F5F5F5F5F5F5F5F5F5F5F5F5F5F5F5F5F5F5F5F5F5F5F5F5F5F5F5F5F5F5F5F5F5F5F5F5F5F5F5F5F5F5F5F5F5F5F5F5F5F5F5F5F5F5F5F5F5F5F5F5F5F5F5F5F5F5F5F5F5F5
310
F5F5F5F5F5F5F5F5F5F5F5F5F5F5F5F5F5F5F5F5F5F5F5F5F5F5F5F5F5F5F5F5F5F5F5F5F5F5F5F5F5F5F5F5F5F5F5F5F5F5F5F5F5F5F5F5F5F5F5F5F5F5F5F5F5F5F5F5F5F5F5F5F5F5F5F5F5F5F5F5F5F5F5F5F5F5F5F5F5F5F5F5F5F5F5F5E2E2E2F5F5F5E2F5F5F5F5F5F5F5F5F5F5F5F5F5F5F5F5F5F5F5F5F5F5F5F5
310
F5F5F5F5F5F5F5F5F5F5F5F5F5F5F5F5F5F5F5F5F5F5F5F5F5F5F5F5F5F5F5F5F5F5F5F5F5F5F5F5F5F5F5F5F5F5F5F5F5F5F5F5F5F5F5F5F5F5F5F5F5F5F5F5F5F5F5F5F5F5F5F5F5F5F5F5F5F5F5F5F5F5F5F5F5F5F5F5F5F5F5F5F5F5F5F5F5F5F5F5F5F5F5F5F5F5F5F5F5F5F5F5F5F5F5F5F5F5F5F5F5F5F5F5F5F5F5
310
F5F5F5F5F5F5F5F5F5F5F5F5F5F5F5F5F5F5E2F5F5F5E2E2E2F5F5F5E2F5F5F5F5F5F5F5F5F5F5F5F5F5F5F5F5F5F5F5F5F5F5F5F5F5F5F5F5F5F5F5F5F5F5F5F5F5F5F5F5F5F5F5F5F5F5F5F5F5F5F5F5F5F5F5F5F5F5F5F5F5F5F5F5F5F5F5F5F5F5F5F5F5F5F5F5F5F5F5F5F5F5F5F5F5F5F5F5F5F5F5F5F5F5F5F5F5F5
310
F5F5F5F5F5F5F5F5F5F5F5F5F5F5F5F5F5F5F5F5F5F5F5F5F5F5F5F5F5F5F5F5F5F5F5F5F5F5F5F5F5F5F5F5F5F5F5F5F5F5F5F5F5F5F5F5F5F5F5F5F5F5F5F5F5F5F5F5F5F5F5E2F5F5F5E2E2E2F5F5F5E2F5F5F5F5F5F5F5F5F5F5F5F5F5F5F5F5F5F5F5F5F5F5F5F5F5F5F5F5F5F5F5F5F5F5F5F5F5F5F5F5F5F5F5F5F5
310
F5F5F5F5F5F5F5F5F5F5F5F5F5F5F5F5F5F5F5F5F5F5F5F5F5F5F5F5F5F5F5F5F5F5F5F5F5F5F5F5F5F5F5F5F5F5F5F5F5F5F5F5F5F5F5F5F5F5F5F5F5F5F5F5F5F5F5F5F5F5F5F5F5F5F5F5F5F5F5F5F5F5F5F5F5F5F5F5F5F5F5F5F5F5F5F5F5F5F5F5F5F5F5F5F5F5F5F5F5F5F5F5F5F5F5F5F5F5F5F5F5F5F5F5E2F5F5
310
F5E2E2E2F5F5F5E2F5F5F5F5F5F5F5F5F5F5F5F5F5F5F5F5F5F5F5F5F5F5F5F5F5F5F5F5F5F5F5F5F5F5F5F5F5F5F5F5F5F5F5F5F5F5F5F5F5F5F5F5F5F5F5F5F5F5F5F5F5F5F5F5F5F5F5F5F5F5F5F5F5F5F5F5F5F5F5F5F5F5F5F5F5F5F5F5F5F5F5F5F5F5F5F5F5F5F5F5F5F5F5F5F5F5F5F5F5F5F5F5F5F5F5F5F5F5F5
310
F5F5F5F5F5F5F5F5F5F5F5F5F5F5F5F5F5F5F5F5F5F5F5F5F5F5F5F5F5F5F5F5F5F5F5F5F5F5F5F5F5F5F5F5F5F5F5F5F5F5E2F5F5F5E2E2E2F5F5F5E2F5F5F5F5F5F5F5F5F5F5F5F5F5F5F5F5F5F5F5F5F5F5F5F5F5F5F5F5F5F5F5F5F5F5F5F5F5F5F5F5F5F5F5F5F5F5F5F5F5F5F5F5F5F5F5F5F5F5F5F5F5F5F5F5F5F5
310
F5F5F5F5F5F5F5F5F5F5F5F5F5F5F5F5F5F5F5F5F5F5F5F5F5F5F5F5F5F5F5F5F5F5F5F5F5F5F5F5F5F5F5F5F5F5F5F5F5F5F5F5F5F5F5F5F5F5F5F5F5F5F5F5F5F5F5F5F5F5F5F5F5F5F5F5F5F5F5F5F5F5F5F5F5F5F5F5F5F5F5F5F5F5F5F5F5F5F5F5F5F5F5E2F5F5F5E2E2E2F5F5F5E2F5F5F5F5F5F5F5F5F5F5F5F5F5
310
F5F5F5F5F5F5F5F5F5F5F5F5F5F5F5F5F5F5F5F5F5F5F5F5F5F5F5F5F5F5F5F5F5F5F5F5F5F5F5F5F5F5F5F5F5F5F5F5F5F5F5F5F5F5F5F5F5F5F5F5F5F5F5F5F5F5F5F5F5F5F5F5F5F5F5F5F5F5F5F5F5F5F5F5F5F5F5F5F5F5F5F5F5F5F5F5F5F5F5F5F5F5F5F5F5F5F5F5F5F5F5F5F5F5F5F5F5F5F5F5F5F5F5F5F5F5F5
310
F5F5F5F5F5F5F5F5F5F5F5F5F5F5F5F5F5F5F5F5F5F5F5F5F5F5F5F5F5E2F5F5F5E2E2E2F5F5F5E2F5F5F5F5F5F5F5F5F5F5F5F5F5F5F5F5F5F5F5F5F5F5F5F5F5F5F5F5F5F5F5F5F5F5F5F5F5F5F5F5F5F5F5F5F5F5F5F5F5F5F5F5F5F5F5F5F5F5F5F5F5F5F5F5F5F5F5F5F5F5F5F5F5F5F5F5F5F5F5F5F5F5F5F5F5F5F5
310
F5F5F5F5F5F5F5F5F5F5F5F5F5F5F5F5F5F5F5F5F5F5F5F5F5F5F5F5F5F5F5F5F5F5F5F5F5F5F5F5F5F5F5F5F5F5F5F5F5F5F5F5F5F5F5F5F5F5F5F5F5F5F5F5F5F5F5F5F5F5F5F5F5F5F5F5F5F5F5F5F5F5E2F5F5F5E2E2E2F5F5F5E2F5F5F5F5F5F5F5F5F5F5F5F5F5F5F5F5F5F5F5F5F5F5F5F5F5F5F5F5F5F5F5F5F5F5
310
F5F5F5F5F5F5F5F5F5F5F5F5F5F5F5F5F5F5F5F5F5F5F5F5F5F5F5F5F5F5F5F5F5F5F5F5F5F5F5F5F5F5F5F5F5F5F5F5F5F5F5F5F5F5F5F5F5F5F5F5F5F5F5F5F5F5F5F5F5F5F5F5F5F5F5F5F5F5F5F5F5F5F5F5F5F5F5F5F5F5F5F5F5F5F5F5F5F5F5F5F5F5F5F5F5F5F5F5F5F5F5F5F5F5F5F5F5F5F5F5F5F5F5F5F5F5F5
310
F5F5F5F5F5F5F5F5E2F5F5F5E2E2E2F5F5F5E2F5F5F5F5F5F5F5F5F5F5F5F5F5F5F5F5F5F5F5F5F5F5F5F5F5F5F5F5F5F5F5F5F5F5F5F5F5F5F5F5F5F5F5F5F5F5F5F5F5F5F5F5F5F5F5F5F5F5F5F5F5F5F5F5F5F5F5F5F5F5F5F5F5F5F5F5F5F5F5F5F5F5F5F5F5F5F5F5F5F5F5F5F5F5F5F5F5F5F5F5F5F5F5F5F5F5F5F5
310
F5F5F5F5F5F5F5F5F5F5F5F5F5F5F5F5F5F5F5F5F5F5F5F5F5F5F5F5F5F5F5F5F5F5F5F5F5F5F5F5F5F5F5F5F5F5F5F5F5F5F5F5F5F5F5F5F5F5F5F5F5E2F5F5F5E2E2E2F5F5F5E2F5F5F5F5F5F5F5F5F5F5F5F5F5F5F5F5F5F5F5F5F5F5F5F5F5F5F5F5F5F5F5F5F5F5F5F5F5F5F5F5F5F5F5F5F5F5F5F5F5F5F5F5F5F5F5
310
F5F5F5F5F5F5F5F5F5F5F5F5F5F5F5F5F5F5F5F5F5F5F5F5F5F5F5F5F5F5F5F5F5F5F5F5F5F5F5F5F5F5F5F5F5F5F5F5F5F5F5F5F5F5F5F5F5F5F5F5F5F5F5F5F5F5F5F5F5F5F5F5F5F5F5F5F5F5F5F5F5F5F5F5F5F5F5F5F5F5F5F5F5F5F5F5F5F5F5F5F5F5F5F5F5F5F5F5F5F5F5F5F5F5E2F5F5F5E2E2E2F5F5F5E2F5F5
310
F5F5F5F5F5F5F5F5F5F5F5F5F5F5F5F5F5F5F5F5F5F5F5F5F5F5F5F5F5F5F5F5F5F5F5F5F5F5F5F5F5F5F5F5F5F5F5F5F5F5F5F5F5F5F5F5F5F5F5F5F5F5F5F5F5F5F5F5F5F5F5F5F5F5F5F5F5F5F5F5F5F5F5F5F5F5F5F5F5F5F5F5F5F5F5F5F5F5F5F5F5F5F5F5F5F5F5F5F5F5F5F5F5F5F5F5F5F5F5F5F5F5F5F5F5F5F5
310
F5F5F5F5F5F5F5F5F5F5F5F5F5F5F5F5F5F5F5F5F5F5F5F5F5F5F5F5F5F5F5F5F5F5F5F5F5F5F5F5E2F5F5F5E2E2E2F5F5F5E2F5F5F5F5F5F5F5F5F5F5F5F5F5F5F5F5F5F5F5F5F5F5F5F5F5F5F5F5F5F5F5F5F5F5F5F5F5F5F5F5F5F5F5F5F5F5F5F5F5F5F5F5F5F5F5F5F5F5F5F5F5F5F5F5F5F5F5F5F5F5F5F5F5F5F5F5
310
F5F5F5F5F5F5F5F5F5F5F5F5F5F5F5F5F5F5F5F5F5F5F5F5F5F5F5F5F5F5F5F5F5F5F5F5F5F5F5F5F5F5F5F5F5F5F5F5F5F5F5F5F5F5F5F5F5F5F5F5F5F5F5F5F5F5F5F5F5F5F5F5F5F5F5F5F5F5F5F5F5F5F5F5F5F5F5F5F5F5F5F5F5E2F5F5F5E2E2E2F5F5F5E2F5F5F5F5F5F5F5F5F5F5F5F5F5F5F5F5F5F5F5F5F5F5F5
310
F5F5F5F5F5F5F5F5F5F5F5F5F5F5F5F5F5F5F5F5F5F5F5F5F5F5F5F5F5F5F5F5F5F5F5F5F5F5F5F5F5F5F5F5F5F5F5F5F5F5F5F5F5F5F5F5F5F5F5F5F5F5F5F5F5F5F5F5F5F5F5F5F5F5F5F5F5F5F5F5F5F5F5F5F5F5F5F5F5F5F5F5F5F5F5F5F5F5F5F5F5F5F5F5F5F5F5F5F5F5F5F5F5F5F5F5F5F5F5F5F5F5F5F5F5F5F5
310
F5F5F5F5F5F5F5F5F5F5F5F5F5F5F5F5F5F5F5E2F5F5F5E2E2E2F5F5F5E2F5F5F5F5F5F5F5F5F5F5F5F5F5F5F5F5F5F5F5F5F5F5F5F5F5F5F5F5F5F5F5F5F5F5F5F5F5F5F5F5F5F5F5F5F5F5F5F5F5F5F5F5F5F5F5F5F5F5F5F5F5F5F5F5F5F5F5F5F5F5F5F5F5F5F5F5F5F5F5F5F5F5F5F5F5F5F5F5F5F5F5F5F5F5F5F5F5
310
F5F5F5F5F5F5F5F5F5F5F5F5F5F5F5F5F5F5F5F5F5F5F5F5F5F5F5F5F5F5F5F5F5F5F5F5F5F5F5F5F5F5F5F5F5F5F5F5F5F5F5F5F5F5F5F5F5F5F5F5F5F5F5F5F5F5F5F5F5F5F5F5E2F5F5F5E2E2E2F5F5F5E2F5F5F5F5F5F5F5F5F5F5F5F5F5F5F5F5F5F5F5F5F5F5F5F5F5F5F5F5F5F5F5F5F5F5F5F5F5F5F5F5F5F5F5F5
310
F5F5F5F5F5F5F5F5F5F5F5F5F5F5F5F5F5F5F5F5F5F5F5F5F5F5F5F5F5F5F5F5F5F5F5F5F5F5F5F5F5F5F5F5F5F5F5F5F5F5F5F5F5F5F5F5F5F5F5F5F5F5F5F5F5F5F5F5F5F5F5F5F5F5F5F5F5F5F5F5F5F5F5F5F5F5F5F5F5F5F5F5F5F5F5F5F5F5F5F5F5F5F5F5F5F5F5F5F5F5F5F5F5F5F5F5F5F5F5F5F5F5F5F5F5E2F5
310
F5F5E2E2E2F5F5F5F5F5F5F5F5F5F5F5F5F5F5F5F5F5F5F5F5F5F5F5F5F5F5F5F5F5F5F5F5F5F5F5F5F5F5F5F5F5F5F5F5F5F5F5F5F5F5F5F5F5F5F5F5F5F5F5F5F5F5F5F5F5F5F5F5F5F5F5F5F5F5F5F5F5F5F5F5F5F5F5F5F5F5F5F5F5F5F5F5F5F5F5F5F5F5F5F5F5F5F5F5F5F5F5F5F5F5F5F5F5F5F5F5F5F5F5F5F5F5
310
F5F5F5F5F5F5F5F5F5F5F5F5F5F5F5F5F5F5F5F5F5F5F5F5F5F5F5F5F5F5F5F5F5F5F5F5F5F5F5F5F5F5F5F5F5F5F5F5F5F5F5F5F5F5F5E2E2E2F5F5F5F5F5F5F5F5F5F5F5F5F5F5F5F5F5F5F5F5F5F5F5F5F5F5F5F5F5F5F5F5F5F5F5F5F5F5F5F5F5F5F5F5F5F5F5F5F5F5F5F5F5F5F5F5F5F5F5F5F5F5F5F5F5F5F5F5F5
310
F5F5F5F5F5F5F5F5F5F5F5F5F5F5F5F5F5F5F5F5F5F5F5F5F5F5F5F5F5F5F5F5F5F5F5F5F5F5F5F5F5F5F5F5F5F5F5F5F5F5F5F5F5F5F5F5F5F5F5F5F5F5F5F5F5F5F5F5F5F5F5F5F5F5F5F5F5F5F5F5F5F5F5F5F5F5F5F5F5F5F5F5F5F5F5F5F5F5F5F5F5F5F5F5F5F5F5F5E2E2E2F5F5F5F5F5F5F5F5F5F5F5F5F5F5F5F5
310
F5F5F5F5F5F5F5F5F5F5F5F5F5F5F5F5F5F5F5F5F5F5F5F5F5F5F5F5F5F5F5F5F5F5F5F5F5F5F5F5F5F5F5F5F5F5F5F5F5F5F5F5F5F5F5F5F5F5F5F5F5F5F5F5F5F5F5F5F5F5F5F5F5F5F5F5F5F5F5F5F5F5F5F5F5F5F5F5F5F5F5F5F5F5F5F5F5F5F5F5F5F5F5F5F5F5F5F5F5F5F5F5F5F5F5F5F5F5F5F5F5F5F5F5F5F5F5
310
F5F5F5F5F5F5F5F5F5F5F5F5F5F5F5F5F5F5F5F5F5F5F5F5F5F5F5F5F5F5F5F5F5F5E2E2E2F5F5F5F5F5F5F5F5F5F5F5F5F5F5F5F5F5F5F5F5F5F5F5F5F5F5F5F5F5F5F5F5F5F5F5F5F5F5F5F5F5F5F5F5F5F5F5F5F5F5F5F5F5F5F5F5F5F5F5F5F5F5F5F5F5F5F5F5F5F5F5F5F5F5F5F5F5F5F5F5F5F5F5F5F5F5F5F5F5F5
310
F5F5F5F5F5F5F5F5F5F5F5F5F5F5F5F5F5F5F5F5F5F5F5F5F5F5F5F5F5F5F5F5F5F5F5F5F5F5F5F5F5F5F5F5F5F5F5F5F5F5F5F5F5F5F5F5F5F5F5F5F5F5F5F5F5F5F5F5F5F5F5F5F5F5F5F5F5F5F5F5F5F5F5F5F5F5F5E2E2E2F5F5F5F5F5F5F5F5F5F5F5F5F5F5F5F5F5F5F5F5F5F5F5F5F5F5F5F5F5F5F5F5F5F5F5F5F5
310
F5F5F5F5F5F5F5F5F5F5F5F5F5F5F5F5F5F5F5F5F5F5F5F5F5F5F5F5F5F5F5F5F5F5F5F5F5F5F5F5F5F5F5F5F5F5F5F5F5F5F5F5F5F5F5F5F5F5F5F5F5F5F5F5F5F5F5F5F5F5F5F5F5F5F5F5F5F5F5F5F5F5F5F5F5F5F5F5F5F5F5F5F5F5F5F5F5F5F5F5F5F5F5F5F5F5F5F5F5F5F5F5F5F5F5F5F5F5F5F5F5F5F5F5F5F5F5
310
F5F5F5F5F5F5F5F5F5F5F5F5F5E2E2E2F5F5F5F5F5F5F5F5F5F5F5F5F5F5F5F5F5F5F5F5F5F5F5F5F5F5F5F5F5F5F5F5F5F5F5F5F5F5F5F5F5F5F5F5F5F5F5F5F5F5F5F5F5F5F5F5F5F5F5F5F5F5F5F5F5F5F5F5F5F5F5F5F5F5F5F5F5F5F5F5F5F5F5F5F5F5F5F5F5F5F5F5F5F5F5F5F5F5F5F5F5F5F5F5F5F5F5F5F5F5F5
310
F5F5F5F5F5F5F5F5F5F5F5F5F5F5F5F5F5F5F5F5F5F5F5F5F5F5F5F5F5F5F5F5F5F5F5F5F5F5F5F5F5F5F5F5F5F5F5F5F5F5F5F5F5F5F5F5F5F5F5F5F5F5F5F5F5F5E2E2E2F5F5F5F5F5F5F5F5F5F5F5F5F5F5F5F5F5F5F5F5F5F5F5F5F5F5F5F5F5F5F5F5F5F5F5F5F5F5F5F5F5F5F5F5F5F5F5F5F5F5F5F5F5F5F5F5F5F5
310
F5F5F5F5F5F5F5F5F5F5F5F5F5F5F5F5F5F5F5F5F5F5F5F5F5F5F5F5F5F5F5F5F5F5F5F5F5F5F5F5F5F5F5F5F5F5F5F5F5F5F5F5F5F5F5F5F5F5F5F5F5F5F5F5F5F5F5F5F5F5F5F5F5F5F5F5F5F5F5F5F5F5F5F5F5F5F5F5F5F5F5F5F5F5F5F5F5F5F5F5F5F5F5F5F5F5F5F5F5F5F5F5F5F5F5F5F5F5F5E2E2E2F5F5F5F5F5
310
F5F5F5F5F5F5F5F5F5F5F5F5F5F5F5F5F5F5F5F5F5F5F5F5F5F5F5F5F5F5F5F5F5F5F5F5F5F5F5F5F5F5F5F5F5F5F5F5F5F5F5F5F5F5F5F5F5F5F5F5F5F5F5F5F5F5F5F5F5F5F5F5F5F5F5F5F5F5F5F5F5F5F5F5F5F5F5F5F5F5F5F5F5F5F5F5F5F5F5F5F5F5F5F5F5F5F5F5F5F5F5F5F5F5F5F5F5F5F5F5F5F5F5F5F5F5F5
310
F5F5F5F5F5F5F5F5F5F5F5F5F5F5F5F5F5F5F5F5F5F5F5F5F5F5F5F5F5F5F5F5F5F5F5F5F5F5F5F5F5F5F5F5F5E2E2E2F5F5F5F5F5F5F5F5F5F5F5F5F5F5F5F5F5F5F5F5F5F5F5F5F5F5F5F5F5F5F5F5F5F5F5F5F5F5F5F5F5F5F5F5F5F5F5F5F5F5F5F5F5F5F5F5F5F5F5F5F5F5F5F5F5F5F5F5F5F5F5F5F5F5F5F5F5F5F5
310
F5F5F5F5F5F5F5F5F5F5F5F5F5F5F5F5F5F5F5F5F5F5F5F5F5F5F5F5F5F5F5F5F5F5F5F5F5F5F5F5F5F5F5F5F5F5F5F5F5F5F5F5F5F5F5F5F5F5F5F5F5F5F5F5F5F5F5F5F5F5F5F5F5F5F5F5F5F5F5F5F5F5F5F5F5F5F5F5F5F5F5F5F5F5F5F5F5F5E2E2E2F5F5F5E2F5F5F5F5F5F5F5F5F5F5F5F5F5F5F5F5F5F5F5F5F5F5
310
F5F5F5F5F5F5F5F5F5F5F5F5F5F5F5F5F5F5F5F5F5F5F5F5F5F5F5F5F5F5F5F5F5F5F5F5F5F5F5F5F5F5F5F5F5F5F5F5F5F5F5F5F5F5F5F5F5F5F5F5F5F5F5F5F5F5F5F5F5F5F5F5F5F5F5F5F5F5F5F5F5F5F5F5F5F5F5F5F5F5F5F5F5F5F5F5F5F5F5F5F5F5F5F5F5F5F5F5F5F5F5F5F5F5F5F5F5F5F5F5F5F5F5F5F5F5F5
310
F5F5F5F5F5F5F5F5F5F5F5F5F5F5F5F5F5F5F5F5E2F5F5F5E2E2E2F5F5F5E2F5F5F5F5F5F5F5F5F5F5F5F5F5F5F5F5F5F5F5F5F5F5F5F5F5F5F5F5F5F5F5F5F5F5F5F5F5F5F5F5F5F5F5F5F5F5F5F5F5F5F5F5F5F5F5F5F5F5F5F5F5F5F5F5F5F5F5F5F5F5F5F5F5F5F5F5F5F5F5F5F5F5F5F5F5F5F5F5F5F5F5F5F5F5F5F5
310
F5F5F5F5F5F5F5F5F5F5F5F5F5F5F5F5F5F5F5F5F5F5F5F5F5F5F5F5F5F5F5F5F5F5F5F5F5F5F5F5F5F5F5F5F5F5F5F5F5F5F5F5F5F5F5F5F5F5F5F5F5F5F5F5F5F5F5F5F5F5F5F5F5E2F5F5F5E2E2E2F5F5F5E2F5F5F5F5F5F5F5F5F5F5F5F5F5F5F5F5F5F5F5F5F5F5F5F5F5F5F5F5F5F5F5F5F5F5F5F5F5F5F5F5F5F5F5
310
F5F5F5F5F5F5F5F5F5F5F5F5F5F5F5F5F5F5F5F5F5F5F5F5F5F5F5F5F5F5F5F5F5F5F5F5F5F5F5F5F5F5F5F5F5F5F5F5F5F5F5F5F5F5F5F5F5F5F5F5F5F5F5F5F5F5F5F5F5F5F5F5F5F5F5F5F5F5F5F5F5F5F5F5F5F5F5F5F5F5F5F5F5F5F5F5F5F5F5F5F5F5F5F5F5F5F5F5F5F5F5F5F5F5F5F5F5F5F5F5F5F5F5F5F5F5E2
310
F5F5F5E2E2E2F5F5F5E2F5F5F5F5F5F5F5F5F5F5F5F5F5F5F5F5F5F5F5F5F5F5F5F5F5F5F5F5F5F5F5F5F5F5F5F5F5F5F5F5F5F5F5F5F5F5F5F5F5F5F5F5F5F5F5F5F5F5F5F5F5F5F5F5F5F5F5F5F5F5F5F5F5F5F5F5F5F5F5F5F5F5F5F5F5F5F5F5F5F5F5F5F5F5F5F5F5F5F5F5F5F5F5F5F5F5F5F5F5F5F5F5F5F5F5F5F5
310
F5F5F5F5F5F5F5F5F5F5F5F5F5F5F5F5F5F5F5F5F5F5F5F5F5F5F5F5F5F5F5F5F5F5F5F5F5F5F5F5F5F5F5F5F5F5F5F5F5F5F5F5E2F5F5F5E2E2E2F5F5F5E2F5F5F5F5F5F5F5F5F5F5F5F5F5F5F5F5F5F5F5F5F5F5F5F5F5F5F5F5F5F5F5F5F5F5F5F5F5F5F5F5F5F5F5F5F5F5F5F5F5F5F5F5F5F5F5F5F5F5F5F5F5F5F5F5
310
F5F5F5F5F5F5F5F5F5F5F5F5F5F5F5F5F5F5F5F5F5F5F5F5F5F5F5F5F5F5F5F5F5F5F5F5F5F5F5F5F5F5F5F5F5F5F5F5F5F5F5F5F5F5F5F5F5F5F5F5F5F5F5F5F5F5F5F5F5F5F5F5F5F5F5F5F5F5F5F5F5F5F5F5F5F5F5F5F5F5F5F5F5F5F5F5F5F5F5F5F5F5F5F5F5E2F5F5F5E2E2E2F5F5F5E2F5F5F5F5F5F5F5F5F5F5F5
310
F5F5F5F5F5F5F5F5F5F5F5F5F5F5F5F5F5F5F5F5F5F5F5F5F5F5F5F5F5F5F5F5F5F5F5F5F5F5F5F5F5F5F5F5F5F5F5F5F5F5F5F5F5F5F5F5F5F5F5F5F5F5F5F5F5F5F5F5F5F5F5F5F5F5F5F5F5F5F5F5F5F5F5F5F5F5F5F5F5F5F5F5F5F5F5F5F5F5F5F5F5F5F5F5F5F5F5F5F5F5F5F5F5F5F5F5F5F5F5F5F5F5F5F5F5F5F5
310
F5F5F5F5F5F5F5F5F5F5F5F5F5F5F5F5F5F5F5F5F5F5F5F5F5F5F5F5F5F5F5E2F5F5F5E2E2E2F5F5F5E2F5F5F5F5F5F5F5F5F5F5F5F5F5F5F5F5F5F5F5F5F5F5F5F5F5F5F5F5F5F5F5F5F5F5F5F5F5F5F5F5F5F5F5F5F5F5F5F5F5F5F5F5F5F5F5F5F5F5F5F5F5F5F5F5F5F5F5F5F5F5F5F5F5F5F5F5F5F5F5F5F5F5F5F5F5
310
F5F5F5F5F5F5F5F5F5F5F5F5F5F5F5F5F5F5F5F5F5F5F5F5F5F5F5F5F5F5F5F5F5F5F5F5F5F5F5F5F5F5F5F5F5F5F5F5F5F5F5F5F5F5F5F5F5F5F5F5F5F5F5F5F5F5F5F5F5F5F5F5F5F5F5F5F5F5F5F5F5F5F5F5E2F5F5F5E2E2E2F5F5F5E2E2E2E2E2E2E2E2F5F5F5F5F5F5F5F5F5E2E2E2E2E2E2E2E2E2E2E2E2E2E2E2E2
310
F5F5F5F5F5F5F5F5E2E2E2E2E2E2E2E2E2E2E2E2E2E2E2E2F5F5F5F5F5F5F5F5F5E2E2E2E2E2E2E2E2E2E2E2E2E2E2E2F5F5F5F5F5F5F5F5F5E2E2E2E2E2E2E2E2E2E2E2E2E2E2E2F5F5F5F5F5F5F5F5F5E2E2E2E2E2E2E2E2E2E2E2E2E2E2E2E2F5F5F5F5F5F5F5F5E2E2E2E2E2E2E2E2E2E2E2E2E2E2E2E2F5F5F5F5F5F5
310
F5F5F5E2E2E2E2E2E2E2E2F5F5F5E2E2E2F5F5F5F5F5F5F5F5F5F5F5F5F5F5F5F5F5F5F5F5F5F5F5F5F5F5F5F5F5F5F5F5F5F5F5F5F5F5F5F5F5F5F5F5F5F5F5F5F5F5F5F5F5F5F5F5F5F5F5F5F5F5F5F5F5F5F5F5F5F5F5F5F5F5F5F5F5F5F5F5F5F5F5F5F5F5F5F5F5F5F5F5F5F5F5F5F5F5F5F5F5F5F5F5F5F5F5F5F5F5
310
F5F5F5F5F5F5F5F5F5F5F5F5F5F5F5F5F5F5F5F5F5F5F5F5F5F5F5F5F5F5F5F5F5F5F5F5F5F5F5F5F5F5F5F5F5F5F5F5F5F5F5F5F5F5F5F5F5F5F5F5F5F5F5F5F5F5F5E2E2E2F5F5F5F5F5F5F5F5F5F5F5F5F5F5F5F5F5F5F5F5F5F5F5F5F5F5F5F5F5F5F5F5F5F5F5F5F5F5F5F5F5F5F5F5F5F5F5F5F5F5F5F5F5F5F5F5F5
310
F5F5F5F5F5F5F5F5F5F5F5F5F5F5F5F5F5F5F5F5F5F5F5F5F5F5F5F5F5F5F5F5F5F5F5F5F5F5F5F5F5F5F5F5F5F5F5F5F5F5F5F5F5F5F5F5F5F5F5F5F5F5F5F5F5F5F5F5F5F5F5F5F5F5F5F5F5F5F5F5F5F5F5F5F5F5F5F5F5F5F5F5F5F5F5F5F5F5F5F5F5F5F5F5F5F5F5F5F5F5F5F5F5F5F5F5F5F5F5F5E2EFE2E2E2E2E2
310
E2E2E2E2E2E2E2E2E2E2E2E2E2E2E2E2E2E2E2E2E2E2E2E2E2E2E2E2E2E2E2E2E2E2E2E2E2E2E2E2E2E2E2E2E2E2E2E2E2E2E2E2E2E2E2E2E2E2E2E2E2E2E2E2E2E2E2E2E2E2E2E2E2E2E2E2E2E2E2E2E2E2E2E2E2E2E2E2E2E2E2E2E2E2E2E2E2E2E2E2E2E2E2E2E2E2E2E2E2E2E2E2E2E2E2E2E2E2E2E2E2E2E2E2E2E2E2
310
E2E2E2E2E2E2E2E2E2E2E2E2E2E2E2E2E2E2E2E2E2E2E2E2E2E2E2E2E2E2E2E2E2E2E2E2E2E2E2E2E2E2E2E2E2E2E2EF
  0
XRECORD
  5
5F3E
102
{ACAD_REACTORS
330
5E7B
102
}
330
5E7B
100
AcDbXrecord
280
     1
102
MATERIAL
148
0.0
149
0.0
149
0.0
 93
        0
 94
      127
282
     0
 72
     0
 77
     0
171
     0
175
     0
179
     0
273
     0
  0
XRECORD
  5
5E7D
102
{ACAD_REACTORS
330
5E7B
102
}
330
5E7B
100
AcDbXrecord
280
     1
270
     1
271
     1
  0
XRECORD
  5
5E7C
102
{ACAD_REACTORS
330
5E7B
102
}
330
5E7B
100
AcDbXrecord
280
     1
270
     1
271
     1
  0
XRECORD
  5
5E80
102
{ACAD_REACTORS
330
5E7B
102
}
330
5E7B
100
AcDbXrecord
280
     1
270
     1
271
     1
  0
XRECORD
  5
5E7F
102
{ACAD_REACTORS
330
5E7B
102
}
330
5E7B
100
AcDbXrecord
280
     1
270
     1
271
     1
  0
XRECORD
  5
5E81
102
{ACAD_REACTORS
330
5E7B
102
}
330
5E7B
100
AcDbXrecord
280
     1
270
     1
271
     1
  0
XRECORD
  5
5E7E
102
{ACAD_REACTORS
330
5E7B
102
}
330
5E7B
100
AcDbXrecord
280
     1
270
     1
271
     1
  0
XRECORD
  5
5F3D
102
{ACAD_REACTORS
330
5E73
102
}
330
5E73
100
AcDbXrecord
280
     1
102
MATERIAL
148
0.0
149
0.0
149
0.0
 93
        0
 94
      127
282
     0
 72
     0
 77
     0
171
     0
175
     0
179
     0
273
     0
  0
XRECORD
  5
5E75
102
{ACAD_REACTORS
330
5E73
102
}
330
5E73
100
AcDbXrecord
280
     1
270
     1
271
     1
  0
XRECORD
  5
5E74
102
{ACAD_REACTORS
330
5E73
102
}
330
5E73
100
AcDbXrecord
280
     1
270
     1
271
     1
  0
XRECORD
  5
5E78
102
{ACAD_REACTORS
330
5E73
102
}
330
5E73
100
AcDbXrecord
280
     1
270
     1
271
     1
  0
XRECORD
  5
5E77
102
{ACAD_REACTORS
330
5E73
102
}
330
5E73
100
AcDbXrecord
280
     1
270
     1
271
     1
  0
XRECORD
  5
5E79
102
{ACAD_REACTORS
330
5E73
102
}
330
5E73
100
AcDbXrecord
280
     1
270
     1
271
     1
  0
XRECORD
  5
5E76
102
{ACAD_REACTORS
330
5E73
102
}
330
5E73
100
AcDbXrecord
280
     1
270
     1
271
     1
  0
XRECORD
  5
5F3F
102
{ACAD_REACTORS
330
5E83
102
}
330
5E83
100
AcDbXrecord
280
     1
102
MATERIAL
148
0.0
149
0.0
149
0.0
 93
        0
 94
      127
282
     0
 72
     0
 77
     0
171
     0
175
     0
179
     0
273
     0
  0
XRECORD
  5
5E85
102
{ACAD_REACTORS
330
5E83
102
}
330
5E83
100
AcDbXrecord
280
     1
270
     1
271
     1
  0
XRECORD
  5
5E84
102
{ACAD_REACTORS
330
5E83
102
}
330
5E83
100
AcDbXrecord
280
     1
270
     1
271
     1
  0
XRECORD
  5
5E88
102
{ACAD_REACTORS
330
5E83
102
}
330
5E83
100
AcDbXrecord
280
     1
270
     1
271
     1
  0
XRECORD
  5
5E87
102
{ACAD_REACTORS
330
5E83
102
}
330
5E83
100
AcDbXrecord
280
     1
270
     1
271
     1
  0
XRECORD
  5
5E89
102
{ACAD_REACTORS
330
5E83
102
}
330
5E83
100
AcDbXrecord
280
     1
270
     1
271
     1
  0
XRECORD
  5
5E86
102
{ACAD_REACTORS
330
5E83
102
}
330
5E83
100
AcDbXrecord
280
     1
270
     1
271
     1
  0
CELLSTYLEMAP
  5
5F2F
102
{ACAD_REACTORS
330
5F2E
102
}
330
5F2E
100
AcDbCellStyleMap
 90
        3
300
CELLSTYLE
  1
TABLEFORMAT_BEGIN
 90
        5
170
     1
 91
        0
 92
    32768
 62
   257
 93
        1
300
CONTENTFORMAT
  1
CONTENTFORMAT_BEGIN
 90
        0
 91
        0
 92
        4
 93
        0
300

 40
0.0
140
1.0
 94
        5
 62
     0
340
11
144
6.0
309
CONTENTFORMAT_END
171
     1
301
MARGIN
  1
CELLMARGIN_BEGIN
 40
1.5
 40
1.5
 40
1.5
 40
1.5
 40
0.18
 40
0.18
309
CELLMARGIN_END
 94
        6
 95
        1
302
GRIDFORMAT
  1
GRIDFORMAT_BEGIN
 90
        0
 91
        1
 62
     0
 92
       -2
340
0
 93
        0
 40
0.045
309
GRIDFORMAT_END
 95
        2
302
GRIDFORMAT
  1
GRIDFORMAT_BEGIN
 90
        0
 91
        1
 62
     0
 92
       -2
340
0
 93
        0
 40
0.045
309
GRIDFORMAT_END
 95
        4
302
GRIDFORMAT
  1
GRIDFORMAT_BEGIN
 90
        0
 91
        1
 62
     0
 92
       -2
340
0
 93
        0
 40
0.045
309
GRIDFORMAT_END
 95
        8
302
GRIDFORMAT
  1
GRIDFORMAT_BEGIN
 90
        0
 91
        1
 62
     0
 92
       -2
340
0
 93
        0
 40
0.045
309
GRIDFORMAT_END
 95
       16
302
GRIDFORMAT
  1
GRIDFORMAT_BEGIN
 90
        0
 91
        1
 62
     0
 92
       -2
340
0
 93
        0
 40
0.045
309
GRIDFORMAT_END
 95
       32
302
GRIDFORMAT
  1
GRIDFORMAT_BEGIN
 90
        0
 91
        1
 62
     0
 92
       -2
340
0
 93
        0
 40
0.045
309
GRIDFORMAT_END
309
TABLEFORMAT_END
  1
CELLSTYLE_BEGIN
 90
        1
 91
        1
300
_TITLE
309
CELLSTYLE_END
300
CELLSTYLE
  1
TABLEFORMAT_BEGIN
 90
        5
170
     1
 91
        0
 92
        0
 62
   257
 93
        1
300
CONTENTFORMAT
  1
CONTENTFORMAT_BEGIN
 90
        0
 91
        0
 92
        4
 93
        0
300

 40
0.0
140
1.0
 94
        5
 62
     0
340
11
144
4.5
309
CONTENTFORMAT_END
171
     1
301
MARGIN
  1
CELLMARGIN_BEGIN
 40
1.5
 40
1.5
 40
1.5
 40
1.5
 40
0.18
 40
0.18
309
CELLMARGIN_END
 94
        6
 95
        1
302
GRIDFORMAT
  1
GRIDFORMAT_BEGIN
 90
        0
 91
        1
 62
     0
 92
       -2
340
0
 93
        0
 40
0.045
309
GRIDFORMAT_END
 95
        2
302
GRIDFORMAT
  1
GRIDFORMAT_BEGIN
 90
        0
 91
        1
 62
     0
 92
       -2
340
0
 93
        0
 40
0.045
309
GRIDFORMAT_END
 95
        4
302
GRIDFORMAT
  1
GRIDFORMAT_BEGIN
 90
        0
 91
        1
 62
     0
 92
       -2
340
0
 93
        0
 40
0.045
309
GRIDFORMAT_END
 95
        8
302
GRIDFORMAT
  1
GRIDFORMAT_BEGIN
 90
        0
 91
        1
 62
     0
 92
       -2
340
0
 93
        0
 40
0.045
309
GRIDFORMAT_END
 95
       16
302
GRIDFORMAT
  1
GRIDFORMAT_BEGIN
 90
        0
 91
        1
 62
     0
 92
       -2
340
0
 93
        0
 40
0.045
309
GRIDFORMAT_END
 95
       32
302
GRIDFORMAT
  1
GRIDFORMAT_BEGIN
 90
        0
 91
        1
 62
     0
 92
       -2
340
0
 93
        0
 40
0.045
309
GRIDFORMAT_END
309
TABLEFORMAT_END
  1
CELLSTYLE_BEGIN
 90
        2
 91
        1
300
_HEADER
309
CELLSTYLE_END
300
CELLSTYLE
  1
TABLEFORMAT_BEGIN
 90
        5
170
     1
 91
        0
 92
        0
 62
   257
 93
        1
300
CONTENTFORMAT
  1
CONTENTFORMAT_BEGIN
 90
        0
 91
        0
 92
        4
 93
        0
300

 40
0.0
140
1.0
 94
        2
 62
     0
340
11
144
4.5
309
CONTENTFORMAT_END
171
     1
301
MARGIN
  1
CELLMARGIN_BEGIN
 40
1.5
 40
1.5
 40
1.5
 40
1.5
 40
0.18
 40
0.18
309
CELLMARGIN_END
 94
        6
 95
        1
302
GRIDFORMAT
  1
GRIDFORMAT_BEGIN
 90
        0
 91
        1
 62
     0
 92
       -2
340
0
 93
        0
 40
0.045
309
GRIDFORMAT_END
 95
        2
302
GRIDFORMAT
  1
GRIDFORMAT_BEGIN
 90
        0
 91
        1
 62
     0
 92
       -2
340
0
 93
        0
 40
0.045
309
GRIDFORMAT_END
 95
        4
302
GRIDFORMAT
  1
GRIDFORMAT_BEGIN
 90
        0
 91
        1
 62
     0
 92
       -2
340
0
 93
        0
 40
0.045
309
GRIDFORMAT_END
 95
        8
302
GRIDFORMAT
  1
GRIDFORMAT_BEGIN
 90
        0
 91
        1
 62
     0
 92
       -2
340
0
 93
        0
 40
0.045
309
GRIDFORMAT_END
 95
       16
302
GRIDFORMAT
  1
GRIDFORMAT_BEGIN
 90
        0
 91
        1
 62
     0
 92
       -2
340
0
 93
        0
 40
0.045
309
GRIDFORMAT_END
 95
       32
302
GRIDFORMAT
  1
GRIDFORMAT_BEGIN
 90
        0
 91
        1
 62
     0
 92
       -2
340
0
 93
        0
 40
0.045
309
GRIDFORMAT_END
309
TABLEFORMAT_END
  1
CELLSTYLE_BEGIN
 90
        3
 91
        2
300
_DATA
309
CELLSTYLE_END
  0
XRECORD
  5
5F37
102
{ACAD_REACTORS
330
5F2E
102
}
330
5F2E
100
AcDbXrecord
280
     1
102
ACAD_ROUNDTRIP_PRE2007_TABLESTYLE
 90
        4
 91
        0
  1

 92
        4
 93
        0
  2

 94
        4
 95
        0
  3

  0
ENDSEC
  0
EOF
