  0
SECTION
  2
HEADER
  9
$ACADVER
  1
AC1015
  9
$ACADMAINTVER
 70
    20
  9
$DWGCODEPAGE
  3
ANSI_1252
  9
$INSBASE
 10
0.0
 20
0.0
 30
0.0
  9
$EXTMIN
 10
-244.9692324310445
 20
-76.02279552028369
 30
-0.0000000000112498
  9
$EXTMAX
 10
63.55388948641234
 20
91.58508381292358
 30
0.0000000000002956
  9
$LIMMIN
 10
-170.0
 20
-170.0
  9
$LIMMAX
 10
519.0
 20
260.0
  9
$ORTHOMODE
 70
     1
  9
$REGENMODE
 70
     1
  9
$FILLMODE
 70
     1
  9
$QTEXTMODE
 70
     0
  9
$MIRRTEXT
 70
     0
  9
$LTSCALE
 40
1.0
  9
$ATTMODE
 70
     1
  9
$TEXTSIZE
 40
5.0
  9
$TRACEWID
 40
1.0
  9
$TEXTSTYLE
  7
USER1
  9
$CLAYER
  8
4
  9
$CELTYPE
  6
BYLAYER
  9
$CECOLOR
 62
   256
  9
$CELTSCALE
 40
1.0
  9
$DISPSILH
 70
     0
  9
$DIMSCALE
 40
1.0
  9
$DIMASZ
 40
2.5
  9
$DIMEXO
 40
1.0
  9
$DIMDLI
 40
15.0
  9
$DIMRND
 40
0.0
  9
$DIMDLE
 40
0.0
  9
$DIMEXE
 40
2.0
  9
$DIMTP
 40
0.0
  9
$DIMTM
 40
0.000000001
  9
$DIMTXT
 40
3.5
  9
$DIMCEN
 40
0.09
  9
$DIMTSZ
 40
0.0
  9
$DIMTOL
 70
     0
  9
$DIMLIM
 70
     0
  9
$DIMTIH
 70
     0
  9
$DIMTOH
 70
     0
  9
$DIMSE1
 70
     0
  9
$DIMSE2
 70
     0
  9
$DIMTAD
 70
     1
  9
$DIMZIN
 70
     8
  9
$DIMBLK
  1

  9
$DIMASO
 70
     1
  9
$DIMSHO
 70
     1
  9
$DIMPOST
  1

  9
$DIMAPOST
  1

  9
$DIMALT
 70
     0
  9
$DIMALTD
 70
     3
  9
$DIMALTF
 40
0.0393701
  9
$DIMLFAC
 40
1.0
  9
$DIMTOFL
 70
     1
  9
$DIMTVP
 40
0.0
  9
$DIMTIX
 70
     0
  9
$DIMSOXD
 70
     0
  9
$DIMSAH
 70
     0
  9
$DIMBLK1
  1

  9
$DIMBLK2
  1

  9
$DIMSTYLE
  2
AM_DIN
  9
$DIMCLRD
 70
     0
  9
$DIMCLRE
 70
     0
  9
$DIMCLRT
 70
     0
  9
$DIMTFAC
 40
0.7071069999999999
  9
$DIMGAP
 40
1.0
  9
$DIMJUST
 70
     0
  9
$DIMSD1
 70
     0
  9
$DIMSD2
 70
     0
  9
$DIMTOLJ
 70
     1
  9
$DIMTZIN
 70
     8
  9
$DIMALTZ
 70
    11
  9
$DIMALTTZ
 70
     8
  9
$DIMUPT
 70
     0
  9
$DIMDEC
 70
     2
  9
$DIMTDEC
 70
     2
  9
$DIMALTU
 70
     3
  9
$DIMALTTD
 70
     3
  9
$DIMTXSTY
  7
STANDARD 3.5 mm
  9
$DIMAUNIT
 70
     0
  9
$DIMADEC
 70
     0
  9
$DIMALTRND
 40
0.0
  9
$DIMAZIN
 70
     2
  9
$DIMDSEP
 70
    46
  9
$DIMATFIT
 70
     3
  9
$DIMFRAC
 70
     0
  9
$DIMLDRBLK
  1

  9
$DIMLUNIT
 70
     2
  9
$DIMLWD
 70
    -1
  9
$DIMLWE
 70
    -1
  9
$DIMTMOVE
 70
     0
  9
$LUNITS
 70
     2
  9
$LUPREC
 70
     2
  9
$SKETCHINC
 40
1.0
  9
$FILLETRAD
 40
0.0
  9
$AUNITS
 70
     0
  9
$AUPREC
 70
     0
  9
$MENU
  1
c:\tdm21\cad\caduti13\tdm13
  9
$ELEVATION
 40
0.0
  9
$PELEVATION
 40
0.0
  9
$THICKNESS
 40
0.0
  9
$LIMCHECK
 70
     0
  9
$CHAMFERA
 40
0.0
  9
$CHAMFERB
 40
0.0
  9
$CHAMFERC
 40
0.0
  9
$CHAMFERD
 40
0.0
  9
$SKPOLY
 70
     0
  9
$TDCREATE
 40
2458061.561456400
  9
$TDUCREATE
 40
2458061.332289734
  9
$TDUPDATE
 40
2458065.396330150
  9
$TDUUPDATE
 40
2458065.167163484
  9
$TDINDWG
 40
0.1753743519
  9
$TDUSRTIMER
 40
0.1753742130
  9
$USRTIMER
 70
     1
  9
$ANGBASE
 50
0.0
  9
$ANGDIR
 70
     0
  9
$PDMODE
 70
     1
  9
$PDSIZE
 40
0.0
  9
$PLINEWID
 40
0.0
  9
$SPLFRAME
 70
     0
  9
$SPLINETYPE
 70
     6
  9
$SPLINESEGS
 70
     8
  9
$HANDSEED
  5
5292
  9
$SURFTAB1
 70
     6
  9
$SURFTAB2
 70
     6
  9
$SURFTYPE
 70
     6
  9
$SURFU
 70
     6
  9
$SURFV
 70
     6
  9
$UCSBASE
  2

  9
$UCSNAME
  2

  9
$UCSORG
 10
0.0
 20
0.0
 30
0.0
  9
$UCSXDIR
 10
1.0
 20
0.0
 30
0.0
  9
$UCSYDIR
 10
0.0
 20
1.0
 30
0.0
  9
$UCSORTHOREF
  2

  9
$UCSORTHOVIEW
 70
     0
  9
$UCSORGTOP
 10
0.0
 20
0.0
 30
0.0
  9
$UCSORGBOTTOM
 10
0.0
 20
0.0
 30
0.0
  9
$UCSORGLEFT
 10
0.0
 20
0.0
 30
0.0
  9
$UCSORGRIGHT
 10
0.0
 20
0.0
 30
0.0
  9
$UCSORGFRONT
 10
0.0
 20
0.0
 30
0.0
  9
$UCSORGBACK
 10
0.0
 20
0.0
 30
0.0
  9
$PUCSBASE
  2

  9
$PUCSNAME
  2

  9
$PUCSORG
 10
0.0
 20
0.0
 30
0.0
  9
$PUCSXDIR
 10
1.0
 20
0.0
 30
0.0
  9
$PUCSYDIR
 10
0.0
 20
1.0
 30
0.0
  9
$PUCSORTHOREF
  2

  9
$PUCSORTHOVIEW
 70
     0
  9
$PUCSORGTOP
 10
0.0
 20
0.0
 30
0.0
  9
$PUCSORGBOTTOM
 10
0.0
 20
0.0
 30
0.0
  9
$PUCSORGLEFT
 10
0.0
 20
0.0
 30
0.0
  9
$PUCSORGRIGHT
 10
0.0
 20
0.0
 30
0.0
  9
$PUCSORGFRONT
 10
0.0
 20
0.0
 30
0.0
  9
$PUCSORGBACK
 10
0.0
 20
0.0
 30
0.0
  9
$USERI1
 70
     0
  9
$USERI2
 70
     0
  9
$USERI3
 70
     0
  9
$USERI4
 70
     0
  9
$USERI5
 70
     0
  9
$USERR1
 40
0.0
  9
$USERR2
 40
0.0
  9
$USERR3
 40
0.0
  9
$USERR4
 40
0.0
  9
$USERR5
 40
0.0
  9
$WORLDVIEW
 70
     1
  9
$SHADEDGE
 70
     3
  9
$SHADEDIF
 70
    70
  9
$TILEMODE
 70
     1
  9
$MAXACTVP
 70
    64
  9
$PINSBASE
 10
0.0
 20
0.0
 30
0.0
  9
$PLIMCHECK
 70
     0
  9
$PEXTMIN
 10
-0.0226558438690745
 20
-0.0160192835437556
 30
-0.000000000000013
  9
$PEXTMAX
 10
297.000001383183
 20
210.0000009780083
 30
0.0000000000000023
  9
$PLIMMIN
 10
0.0
 20
0.0
  9
$PLIMMAX
 10
297.0
 20
210.0
  9
$UNITMODE
 70
     0
  9
$VISRETAIN
 70
     0
  9
$PLINEGEN
 70
     0
  9
$PSLTSCALE
 70
     1
  9
$TREEDEPTH
 70
  3020
  9
$CMLSTYLE
  2
STANDARD
  9
$CMLJUST
 70
     0
  9
$CMLSCALE
 40
20.0
  9
$PROXYGRAPHICS
 70
     1
  9
$MEASUREMENT
 70
     1
  9
$CELWEIGHT
370
    -1
  9
$ENDCAPS
280
     0
  9
$JOINSTYLE
280
     0
  9
$LWDISPLAY
290
     0
  9
$INSUNITS
 70
     0
  9
$HYPERLINKBASE
  1
HTTP://WWW.SECOTOOLS.COM/
  9
$STYLESHEET
  1
MONOCHROME.CTB
  9
$XEDIT
290
     1
  9
$CEPSNTYPE
380
     0
  9
$PSTYLEMODE
290
     1
  9
$FINGERPRINTGUID
  2
{81ABCFBB-36BE-4FE5-BDFA-7D8400810113}
  9
$VERSIONGUID
  2
{96945A10-2A66-4DEC-A020-E85ED16B024A}
  9
$EXTNAMES
290
     1
  9
$PSVPSCALE
 40
0.0
  9
$OLESTARTUP
290
     0
  0
ENDSEC
  0
SECTION
  2
CLASSES
  0
CLASS
  1
ACDBDICTIONARYWDFLT
  2
AcDbDictionaryWithDefault
  3
ObjectDBX Classes
 90
        0
280
     0
281
     0
  0
CLASS
  1
ACDBPLACEHOLDER
  2
AcDbPlaceHolder
  3
ObjectDBX Classes
 90
        0
280
     0
281
     0
  0
CLASS
  1
LAYOUT
  2
AcDbLayout
  3
ObjectDBX Classes
 90
        0
280
     0
281
     0
  0
CLASS
  1
DICTIONARYVAR
  2
AcDbDictionaryVar
  3
ObjectDBX Classes
 90
        0
280
     0
281
     0
  0
CLASS
  1
TABLESTYLE
  2
AcDbTableStyle
  3
ObjectDBX Classes
 90
     4095
280
     0
281
     0
  0
CLASS
  1
MATERIAL
  2
AcDbMaterial
  3
ObjectDBX Classes
 90
     1153
280
     0
281
     0
  0
CLASS
  1
VISUALSTYLE
  2
AcDbVisualStyle
  3
ObjectDBX Classes
 90
     4095
280
     0
281
     0
  0
CLASS
  1
SCALE
  2
AcDbScale
  3
ObjectDBX Classes
 90
     1153
280
     0
281
     0
  0
CLASS
  1
MLEADERSTYLE
  2
AcDbMLeaderStyle
  3
ACDB_MLEADERSTYLE_CLASS
 90
     4095
280
     0
281
     0
  0
CLASS
  1
ACME_DOCUMENT
  2
AcMeDbDoc
  3
AcMeServices
 90
     1024
280
     0
281
     0
  0
CLASS
  1
AMGSETTINGSOBJ
  2
AmgSettingsObj
  3
"AcadM|Product Description: AutoCAD Mechanical|Company: Autodesk, Inc."
 90
     1024
280
     0
281
     0
  0
CLASS
  1
ACMESCOPE
  2
AcMeScope
  3
AcMeServices
 90
     1024
280
     0
281
     0
  0
CLASS
  1
ACMECOMMANDHISTORY
  2
AcMeCommandHistory
  3
AcMeServices
 90
     1024
280
     0
281
     0
  0
CLASS
  1
ACIMSYSVARMAN
  2
AcImSysVarManager
  3
AcMeServices
 90
     1024
280
     0
281
     0
  0
CLASS
  1
ACIMINTSYSVAR
  2
AcImIntSysVar
  3
AcMeServices
 90
     1024
280
     0
281
     0
  0
CLASS
  1
ACMEDRAWINGMAN
  2
AcMeDrawingMan
  3
AcMeServices
 90
    33792
280
     0
281
     0
  0
CLASS
  1
ACMEVIEW
  2
AcMeView
  3
AcMeServices
 90
    33792
280
     0
281
     0
  0
CLASS
  1
ACDBENTITYCACHE
  2
AcMeEntityCache
  3
AcMeServices
 90
     1024
280
     0
281
     0
  0
CLASS
  1
GSMANAGER
  2
AcMeGSManager
  3
AcMeServices
 90
    33792
280
     0
281
     0
  0
CLASS
  1
AMDTINTERNALREACTOR
  2
AmdtInternalReactor
  3
AcMeServices
 90
    33792
280
     0
281
     0
  0
CLASS
  1
ACMESTATEMGR
  2
AcMeStateMgr
  3
AcMeServices
 90
     1024
280
     0
281
     0
  0
CLASS
  1
ACGREFMASTER
  2
AcGrefMaster
  3
AcAttribServices
 90
     1024
280
     0
281
     0
  0
CLASS
  1
AM_DRAWING_MGR
  2
AcDmDwgMgr
  3
AcMechDwgViewMgmt
 90
    33792
280
     0
281
     0
  0
CLASS
  1
AM_DWG_DOCUMENT
  2
AcDmDwgDocument
  3
AcMechDwgViewMgmt
 90
    33792
280
     0
281
     0
  0
CLASS
  1
AM_DWG_SHEET
  2
AcDmSheet
  3
AcMechDwgViewMgmt
 90
    33792
280
     0
281
     0
  0
CLASS
  1
AM_VIEWDIMPARMAP
  2
AcDmViewDimParMap
  3
AcMechDwgViewMgmt
 90
    33792
280
     0
281
     0
  0
CLASS
  1
ACIMREALSYSVAR
  2
AcImRealSysVar
  3
AcMeServices
 90
    33792
280
     0
281
     0
  0
CLASS
  1
AM_DWGMGR_NAME
  2
AcDmDwgMgrName
  3
AcMechDwgViewMgmt
 90
    33792
280
     0
281
     0
  0
CLASS
  1
ACME_DATABASE
  2
AcMeDbDatabase
  3
AcMeServices
 90
     1024
280
     0
281
     0
  0
CLASS
  1
ACRFINSADJUSTERMGR
  2
AcRfInsAdjusterMgr
  3
AcMeServices
 90
     1024
280
     0
281
     0
  0
CLASS
  1
ACGREFACADMASTER
  2
AcGrefacadMaster
  3
AcGrefServices
 90
     1024
280
     0
281
     0
  0
CLASS
  1
AMDTMENUSTATEMGR
  2
AmdtMenuStateMgr
  3
McadcomServices
 90
     1024
280
     0
281
     0
  0
CLASS
  1
AMDTMCOMMENUSTATE
  2
AmdtMcomMenuState
  3
McadcomServices
 90
     1024
280
     0
281
     0
  0
CLASS
  1
AMIMASTER
  2
AmiMaster
  3
AmiServices
 90
     1024
280
     0
281
     0
  0
CLASS
  1
MAPIAMMOUDLE
  2
MApiAmModule
  3
MApiAmServices
 90
     1024
280
     0
281
     0
  0
CLASS
  1
ACIMSTRSYSVAR
  2
AcImStrSysVar
  3
AcMeServices
 90
     1024
280
     0
281
     0
  0
CLASS
  1
AMDTADMENUSTATE
  2
AmdtAdMenuState
  3
DesignerServices
 90
    33792
280
     0
281
     0
  0
CLASS
  1
ADAPPL
  2
AcAdAppl
  3
DesignerAssemblies
 90
    33792
280
     0
281
     0
  0
CLASS
  1
DEPMGR
  2
AcAdDepMgr
  3
DesignerAssemblies
 90
    33792
280
     0
281
     0
  0
CLASS
  1
PARAMMGR
  2
AcAdParamMgr
  3
DesignerAssemblies
 90
    33792
280
     0
281
     0
  0
CLASS
  1
PARAMSCOPE
  2
AcAdParamScope
  3
DesignerAssemblies
 90
    33792
280
     0
281
     0
  0
CLASS
  1
NAMEDAPPL
  2
AcAdNamedAppl
  3
DesignerAssemblies
 90
    33792
280
     0
281
     0
  0
CLASS
  1
AMDTDMMENUSTATE
  2
AmdtDmMenuState
  3
AcMechDwgViewMgmt
 90
    33792
280
     0
281
     0
  0
CLASS
  1
AMDTAMMENUSTATE
  2
AmdtAmMenuState
  3
DesignerAssemblies
 90
     1024
280
     0
281
     0
  0
CLASS
  1
ACAMPROJECT
  2
AcAmProject
  3
DesignerAssemblies
 90
     1024
280
     0
281
     0
  0
CLASS
  1
ACAMGRCOMPDEF
  2
AcAmGrCompDef
  3
DesignerAssemblies
 90
     1024
280
     0
281
     0
  0
CLASS
  1
ACCMCONTEXT
  2
AcCmContext
  3
DesignerAssemblies
 90
    33792
280
     0
281
     0
  0
CLASS
  1
ACAMCOMPDEF
  2
AcAmCompDef
  3
DesignerAssemblies
 90
     1024
280
     0
281
     0
  0
CLASS
  1
ACAMCOMPDEFMGR
  2
AcAmCompDefMgr
  3
DesignerAssemblies
 90
     1024
280
     0
281
     0
  0
CLASS
  1
AMCONTEXTMGR
  2
AcAmContextMgr
  3
DesignerAssemblies
 90
     1024
280
     0
281
     0
  0
CLASS
  1
ACAMCONTEXTMODELER
  2
AcAmContextModeler
  3
DesignerAssemblies
 90
     1024
280
     0
281
     0
  0
CLASS
  1
ACMDATADICTIONARY
  2
AcmDataDictionary
  3
"AcmSymBB|Product Description: AutoCAD Mechanical|Company: Autodesk, Inc."
 90
     1024
280
     0
281
     0
  0
CLASS
  1
CATALOGSTATE
  2
AcAmCatalogState
  3
DesignerAssemblies
 90
    33792
280
     0
281
     0
  0
CLASS
  1
ACAMGRCOMPDEFSET
  2
AcAmGrCompDefSet
  3
DesignerAssemblies
 90
     1024
280
     0
281
     0
  0
CLASS
  1
AMDTBROWSERDBTAB
  2
AmdtBrowserDbTab
  3
McadcomServices
 90
     1024
280
     0
281
     0
  0
CLASS
  1
CBROWSERAPPOBJECT
  2
CBrowserAppObject
  3
McadcomServices
 90
     1024
280
     0
281
     0
  0
CLASS
  1
DM_PLACEHOLDER
  2
AcDmSelsetPlaceholder
  3
McadcomServices
 90
     1024
280
     0
281
     0
  0
CLASS
  1
ACMSTANDARDDIN
  2
AcmStandardDIN
  3
"Amdt_StdImp|Product Description: AutoCAD Mechanical|Company: Autodesk, Inc."
 90
    33792
280
     0
281
     0
  0
CLASS
  1
AMGOBJPROPCFG
  2
AmgObjPropCfg
  3
"AmgLay|Product Description: AutoCAD Mechanical|Company: Autodesk, Inc."
 90
     1024
280
     0
281
     0
  0
CLASS
  1
AMDTEDGESTANDARDDIN13715
  2
AmdtEdgeStdDIN13715
  3
"Amdt_StdImp|Product Description: AutoCAD Mechanical|Company: Autodesk, Inc."
 90
    33792
280
     0
281
     0
  0
CLASS
  1
ACMSURFSTANDARDDIN2002
  2
AcmSurfTextStdDIN2002
  3
"Amdt_StdImp|Product Description: AutoCAD Mechanical|Company: Autodesk, Inc."
 90
    33792
280
     0
281
     0
  0
CLASS
  1
ACMFCFSTANDARDDIN
  2
AcmFCFStdDIN
  3
"Amdt_StdImp|Product Description: AutoCAD Mechanical|Company: Autodesk, Inc."
 90
    33792
280
     0
281
     0
  0
CLASS
  1
ACMWELDSTANDARDDIN
  2
AcmWeldingStdDIN
  3
"Amdt_StdImp|Product Description: AutoCAD Mechanical|Company: Autodesk, Inc."
 90
    33792
280
     0
281
     0
  0
CLASS
  1
ACMIDSTANDARDDIN
  2
AcmIdStdDIN
  3
"Amdt_StdImp|Product Description: AutoCAD Mechanical|Company: Autodesk, Inc."
 90
    33792
280
     0
281
     0
  0
CLASS
  1
ACMDATUMSTANDARDDIN
  2
AcmDatumStdDIN
  3
"Amdt_StdImp|Product Description: AutoCAD Mechanical|Company: Autodesk, Inc."
 90
    33792
280
     0
281
     0
  0
CLASS
  1
ACMBOMSTANDARDDIN
  2
AcmBOMStdDIN
  3
"Amdt_StdImp|Product Description: AutoCAD Mechanical|Company: Autodesk, Inc."
 90
    33792
280
     0
281
     0
  0
CLASS
  1
ACMDETAILSTANDARDDIN
  2
AmdtDetailSymStdDIN
  3
"Amdt_StdImp|Product Description: AutoCAD Mechanical|Company: Autodesk, Inc."
 90
    33792
280
     0
281
     0
  0
CLASS
  1
ACMSECTIONSTANDARDDIN
  2
AmdtSectionSymStdDIN
  3
"Amdt_StdImp|Product Description: AutoCAD Mechanical|Company: Autodesk, Inc."
 90
    33792
280
     0
281
     0
  0
CLASS
  1
ACMCENTERLINESTANDARDDIN
  2
AmdtCenterLineStdDIN
  3
"Amdt_StdImp|Product Description: AutoCAD Mechanical|Company: Autodesk, Inc."
 90
    33792
280
     0
281
     0
  0
CLASS
  1
ACMTHREADLINESTANDARDDIN
  2
AmdtThreadLineStdDIN
  3
"Amdt_StdImp|Product Description: AutoCAD Mechanical|Company: Autodesk, Inc."
 90
    33792
280
     0
281
     0
  0
CLASS
  1
ACMNOTESTANDARDDIN
  2
AmdtNoteStdDIN
  3
"Amdt_StdImp|Product Description: AutoCAD Mechanical|Company: Autodesk, Inc."
 90
    33792
280
     0
281
     0
  0
CLASS
  1
ACMTAPERSTANDARDDIN
  2
AcmTaperStdDIN
  3
"Amdt_StdImp|Product Description: AutoCAD Mechanical|Company: Autodesk, Inc."
 90
    33792
280
     0
281
     0
  0
CLASS
  1
ACMANOOTATIONVIEWSTANDARDDIN
  2
AmdtAnViewStdDIN
  3
"Amdt_StdImp|Product Description: AutoCAD Mechanical|Company: Autodesk, Inc."
 90
    33792
280
     0
281
     0
  0
CLASS
  1
AMDTNOTETEMPLATEDB
  2
AmdtNoteTemplateDB
  3
AcmSymBB|Product Description: AutoCAD Mechanical|Company: Autodesk, Inc.
 90
     1024
280
     0
281
     0
  0
CLASS
  1
ACAMGLAYSTD
  2
AcAmgLayStd
  3
"AmgLay|Product Description: AutoCAD Mechanical|Company: Autodesk, Inc."
 90
     1024
280
     0
281
     0
  0
CLASS
  1
ACAMGDIMSTD
  2
AcAmgDimStd
  3
"AmgDim|Product Description: AutoCAD Mechanical|Company: Autodesk, Inc."
 90
     1024
280
     0
281
     0
  0
CLASS
  1
ACAMGHOLECHARTSTDDIN
  2
AcAmgHoleChartStdDIN
  3
AmgDim|Product Description: AutoCAD Mechanical|Company: Autodesk, Inc.
 90
    33792
280
     0
281
     0
  0
CLASS
  1
ACAMGTITLESTD
  2
AcAmgTitleStd
  3
"AmgTitle|Product Description: AutoCAD Mechanical|Company: Autodesk, Inc."
 90
     1024
280
     0
281
     0
  0
CLASS
  1
ACAMGFILTERDAT
  2
AcAmgFilterDat
  3
"AcadM|Product Description: AutoCAD Mechanical|Company: Autodesk, Inc."
 90
    33792
280
     0
281
     0
  0
CLASS
  1
CAMSSTRUCTBTNSTATE
  2
StructBtnState
  3
DesignerAssemblies
 90
    33792
280
     0
281
     0
  0
CLASS
  1
CELLSTYLEMAP
  2
AcDbCellStyleMap
  3
ObjectDBX Classes
 90
     1152
280
     0
281
     0
  0
CLASS
  1
SORTENTSTABLE
  2
AcDbSortentsTable
  3
ObjectDBX Classes
 90
        0
280
     0
281
     0
  0
CLASS
  1
PLOTSETTINGS
  2
AcDbPlotSettings
  3
ObjectDBX Classes
 90
        0
280
     0
281
     0
  0
CLASS
  1
SOLID_BACKGROUND
  2
AcDbSolidBackground
  3
SCENEOE
 90
    36863
280
     0
281
     0
  0
CLASS
  1
NPOCOLLECTION
  2
AcDbImpNonPersistentObjectsCollection
  3
ObjectDBX Classes
 90
    33921
280
     0
281
     0
  0
CLASS
  1
ACDBSECTIONVIEWSTYLE
  2
AcDbSectionViewStyle
  3
ObjectDBX Classes
 90
     1025
280
     0
281
     0
  0
CLASS
  1
ACDBDETAILVIEWSTYLE
  2
AcDbDetailViewStyle
  3
ObjectDBX Classes
 90
     1025
280
     0
281
     0
  0
CLASS
  1
ACMSECTIONSTANDARDCUSTOM
  2
AmdtSectionSymStdCustom
  3
"Amdt_StdImp|Product Description: AutoCAD Mechanical|Company: Autodesk, Inc."
 90
     1024
280
     0
281
     0
  0
CLASS
  1
ACMDETAILTANDARDCUSTOM
  2
AmdtDetailSymStdCustom
  3
"Amdt_StdImp|Product Description: AutoCAD Mechanical|Company: Autodesk, Inc."
 90
     1024
280
     0
281
     0
  0
CLASS
  1
FIELD
  2
AcDbField
  3
ObjectDBX Classes
 90
     1152
280
     0
281
     0
  0
CLASS
  1
FIELDLIST
  2
AcDbFieldList
  3
ObjectDBX Classes
 90
     1152
280
     0
281
     0
  0
CLASS
  1
DIMASSOC
  2
AcDbDimAssoc
  3
"AcDbDimAssoc|Product Desc:     AcDim ARX App For Dimension|Company:          Autodesk, Inc.|WEB Address:      www.autodesk.com"
 90
        0
280
     0
281
     0
  0
CLASS
  1
ACMSTANDARDANSI
  2
AcmStandardANSI
  3
"Amdt_StdImp|Product Description: AutoCAD Mechanical|Company: Autodesk, Inc."
 90
    33792
280
     0
281
     0
  0
CLASS
  1
ACMSURFSTANDARDANSI
  2
AcmSurfTextStdANSI
  3
"Amdt_StdImp|Product Description: AutoCAD Mechanical|Company: Autodesk, Inc."
 90
    33792
280
     0
281
     0
  0
CLASS
  1
ACMFCFSTANDARDANSI
  2
AcmFCFStdANSI
  3
"Amdt_StdImp|Product Description: AutoCAD Mechanical|Company: Autodesk, Inc."
 90
    33792
280
     0
281
     0
  0
CLASS
  1
ACMWELDSTANDARDANSI
  2
AcmWeldingStdANSI
  3
"Amdt_StdImp|Product Description: AutoCAD Mechanical|Company: Autodesk, Inc."
 90
    33792
280
     0
281
     0
  0
CLASS
  1
ACMIDSTANDARDANSI
  2
AcmIdStdANSI
  3
"Amdt_StdImp|Product Description: AutoCAD Mechanical|Company: Autodesk, Inc."
 90
    33792
280
     0
281
     0
  0
CLASS
  1
ACMDATUMSTANDARDANSI
  2
AcmDatumStdANSI
  3
"Amdt_StdImp|Product Description: AutoCAD Mechanical|Company: Autodesk, Inc."
 90
    33792
280
     0
281
     0
  0
CLASS
  1
ACMBOMSTANDARDANSI
  2
AcmBOMStdANSI
  3
"Amdt_StdImp|Product Description: AutoCAD Mechanical|Company: Autodesk, Inc."
 90
    33792
280
     0
281
     0
  0
CLASS
  1
ACMDETAILSTANDARDANSI
  2
AmdtDetailSymStdANSI
  3
"Amdt_StdImp|Product Description: AutoCAD Mechanical|Company: Autodesk, Inc."
 90
    33792
280
     0
281
     0
  0
CLASS
  1
ACMSECTIONSTANDARDANSI
  2
AmdtSectionSymStdANSI
  3
"Amdt_StdImp|Product Description: AutoCAD Mechanical|Company: Autodesk, Inc."
 90
    33792
280
     0
281
     0
  0
CLASS
  1
ACMCENTERLINESTANDARDANSI
  2
AmdtCenterLineStdANSI
  3
"Amdt_StdImp|Product Description: AutoCAD Mechanical|Company: Autodesk, Inc."
 90
    33792
280
     0
281
     0
  0
CLASS
  1
ACMTHREADLINESTANDARDANSI
  2
AmdtThreadLineStdANSI
  3
"Amdt_StdImp|Product Description: AutoCAD Mechanical|Company: Autodesk, Inc."
 90
    33792
280
     0
281
     0
  0
CLASS
  1
ACMNOTESTANDARDANSI
  2
AmdtNoteStdANSI
  3
"Amdt_StdImp|Product Description: AutoCAD Mechanical|Company: Autodesk, Inc."
 90
    33792
280
     0
281
     0
  0
CLASS
  1
ACMTAPERSTANDARDANSI
  2
AcmTaperStdANSI
  3
"Amdt_StdImp|Product Description: AutoCAD Mechanical|Company: Autodesk, Inc."
 90
    33792
280
     0
281
     0
  0
CLASS
  1
ACMANOOTATIONVIEWSTANDARDANSI
  2
AmdtAnViewStdANSI
  3
"Amdt_StdImp|Product Description: AutoCAD Mechanical|Company: Autodesk, Inc."
 90
    33792
280
     0
281
     0
  0
CLASS
  1
ACAMGHOLECHARTSTDANSI
  2
AcAmgHoleChartStdANSI
  3
AmgDim|Product Description: AutoCAD Mechanical|Company: Autodesk, Inc.
 90
    33792
280
     0
281
     0
  0
CLASS
  1
ACMSTANDARDISO
  2
AcmStandardISO
  3
"Amdt_StdImp|Product Description: AutoCAD Mechanical|Company: Autodesk, Inc."
 90
     1024
280
     0
281
     0
  0
CLASS
  1
AMDTEDGESTANDARDISO13715
  2
AmdtEdgeStdISO13715
  3
"Amdt_StdImp|Product Description: AutoCAD Mechanical|Company: Autodesk, Inc."
 90
     1024
280
     0
281
     0
  0
CLASS
  1
ACMSURFSTANDARDISO2002
  2
AcmSurfTextStdISO2002
  3
"Amdt_StdImp|Product Description: AutoCAD Mechanical|Company: Autodesk, Inc."
 90
     1024
280
     0
281
     0
  0
CLASS
  1
ACMFCFSTANDARDISO2004
  2
AcmFCFStdISO2004
  3
"Amdt_StdImp|Product Description: AutoCAD Mechanical|Company: Autodesk, Inc."
 90
     1024
280
     0
281
     0
  0
CLASS
  1
ACMWELDSTANDARDISO
  2
AcmWeldingStdISO
  3
"Amdt_StdImp|Product Description: AutoCAD Mechanical|Company: Autodesk, Inc."
 90
     1024
280
     0
281
     0
  0
CLASS
  1
ACMIDSTANDARDISO2004
  2
AcmIdStdISO2004
  3
"Amdt_StdImp|Product Description: AutoCAD Mechanical|Company: Autodesk, Inc."
 90
     1024
280
     0
281
     0
  0
CLASS
  1
ACMDATUMSTANDARDISO
  2
AcmDatumStdISO
  3
"Amdt_StdImp|Product Description: AutoCAD Mechanical|Company: Autodesk, Inc."
 90
     1024
280
     0
281
     0
  0
CLASS
  1
ACMBOMSTANDARDISO
  2
AcmBOMStdISO
  3
"Amdt_StdImp|Product Description: AutoCAD Mechanical|Company: Autodesk, Inc."
 90
     1024
280
     0
281
     0
  0
CLASS
  1
ACMDETAILSTANDARDISO
  2
AmdtDetailSymStdISO
  3
"Amdt_StdImp|Product Description: AutoCAD Mechanical|Company: Autodesk, Inc."
 90
     1024
280
     0
281
     0
  0
CLASS
  1
ACMSECTIONSTANDARDISO2001
  2
AmdtSectionSymStdISO2001
  3
"Amdt_StdImp|Product Description: AutoCAD Mechanical|Company: Autodesk, Inc."
 90
     1024
280
     0
281
     0
  0
CLASS
  1
ACMCENTERLINESTANDARDISO
  2
AmdtCenterLineStdISO
  3
"Amdt_StdImp|Product Description: AutoCAD Mechanical|Company: Autodesk, Inc."
 90
     1024
280
     0
281
     0
  0
CLASS
  1
ACMTHREADLINESTANDARDISO
  2
AmdtThreadLineStdISO
  3
"Amdt_StdImp|Product Description: AutoCAD Mechanical|Company: Autodesk, Inc."
 90
     1024
280
     0
281
     0
  0
CLASS
  1
ACMNOTESTANDARDISO
  2
AmdtNoteStdISO
  3
"Amdt_StdImp|Product Description: AutoCAD Mechanical|Company: Autodesk, Inc."
 90
     1024
280
     0
281
     0
  0
CLASS
  1
ACMTAPERSTANDARDISO
  2
AcmTaperStdISO
  3
"Amdt_StdImp|Product Description: AutoCAD Mechanical|Company: Autodesk, Inc."
 90
     1024
280
     0
281
     0
  0
CLASS
  1
ACMANOOTATIONVIEWSTANDARDISO
  2
AmdtAnViewStdISO
  3
"Amdt_StdImp|Product Description: AutoCAD Mechanical|Company: Autodesk, Inc."
 90
     1024
280
     0
281
     0
  0
CLASS
  1
ACAMGHOLECHARTSTDISO
  2
AcAmgHoleChartStdISO
  3
AmgDim|Product Description: AutoCAD Mechanical|Company: Autodesk, Inc.
 90
     1024
280
     0
281
     0
  0
ENDSEC
  0
SECTION
  2
TABLES
  0
TABLE
  2
VPORT
  5
8
102
{ACAD_XDICTIONARY
360
A45
102
}
330
0
100
AcDbSymbolTable
 70
     1
  0
VPORT
  5
AD1
330
8
100
AcDbSymbolTableRecord
100
AcDbViewportTableRecord
  2
*Active
 70
     0
 10
0.0
 20
0.0
 11
1.0
 21
1.0
 12
-90.70767147231606
 22
7.781144146319945
 13
0.0
 23
0.0
 14
5.0
 24
5.0
 15
5.0
 25
5.0
 16
0.0
 26
0.0
 36
1.0
 17
0.0
 27
0.0
 37
0.0
 40
168.8283250565073
 41
2.232077764277035
 42
50.0
 43
0.0
 44
0.0
 50
0.0
 51
0.0
 71
     0
 72
  2000
 73
     1
 74
     3
 75
     0
 76
     0
 77
     0
 78
     0
281
     0
 65
     0
110
0.0
120
0.0
130
0.0
111
1.0
121
0.0
131
0.0
112
0.0
122
1.0
132
0.0
 79
     0
146
0.0
1001
ACAD_NAV_VCDISPLAY
1070
     3
  0
ENDTAB
  0
TABLE
  2
LTYPE
  5
5
330
0
100
AcDbSymbolTable
 70
    17
  0
LTYPE
  5
12
330
5
100
AcDbSymbolTableRecord
100
AcDbLinetypeTableRecord
  2
BYBLOCK
 70
     0
  3

 72
    65
 73
     0
 40
0.0
  0
LTYPE
  5
13
330
5
100
AcDbSymbolTableRecord
100
AcDbLinetypeTableRecord
  2
BYLAYER
 70
     0
  3

 72
    65
 73
     0
 40
0.0
  0
LTYPE
  5
4E48
330
5
100
AcDbSymbolTableRecord
100
AcDbLinetypeTableRecord
  2
Continuous
 70
     0
  3
Solid line
 72
    65
 73
     0
 40
0.0
  0
LTYPE
  5
916
330
5
100
AcDbSymbolTableRecord
100
AcDbLinetypeTableRecord
  2
LONGDASH_DASH
 70
     0
  3
ISO center line ____ _ ____ _ ____ _ ____ _ ___ _ ___
 72
    65
 73
     4
 40
10.5
 49
6.0
 74
     0
 49
-0.75
 74
     0
 49
3.0
 74
     0
 49
-0.75
 74
     0
  0
LTYPE
  5
917
330
5
100
AcDbSymbolTableRecord
100
AcDbLinetypeTableRecord
  2
DASH
 70
     0
  3
ISO hidden line __ __ __ __ __ __ __ __ __ __ __ __ __
 72
    65
 73
     2
 40
3.75
 49
3.0
 74
     0
 49
-0.75
 74
     0
  0
LTYPE
  5
168D
330
5
100
AcDbSymbolTableRecord
100
AcDbLinetypeTableRecord
  2
CENTER2
 70
     0
  3
Center (.5x) ___ _ ___ _ ___ _ ___ _ ___ _ ___
 72
    65
 73
     4
 40
28.575
 49
19.05
 74
     0
 49
-3.174999999999998
 74
     0
 49
3.174999999999998
 74
     0
 49
-3.174999999999998
 74
     0
  0
LTYPE
  5
168F
330
5
100
AcDbSymbolTableRecord
100
AcDbLinetypeTableRecord
  2
Amconstr
 70
     0
  3
_______________________
 72
    65
 73
     2
 40
9999.0
 49
9999.0
 74
     0
 49
0.0
 74
     0
  0
LTYPE
  5
4E8F
330
5
100
AcDbSymbolTableRecord
100
AcDbLinetypeTableRecord
  2
AM_ISO02W050
 70
     0
  3
__ __ __ __ __ __ __ __ __ __ __ __ __ __ __
 72
    65
 73
     2
 40
7.5
 49
6.0
 74
     0
 49
-1.5
 74
     0
  0
LTYPE
  5
4E90
330
5
100
AcDbSymbolTableRecord
100
AcDbLinetypeTableRecord
  2
AM_ISO08W050
 70
     0
  3
____ . ____ . ____ . ____ . ____ . ____ . ____
 72
    65
 73
     4
 40
18.0
 49
12.0
 74
     0
 49
-1.5
 74
     0
 49
3.0
 74
     0
 49
-1.5
 74
     0
  0
LTYPE
  5
4E91
330
5
100
AcDbSymbolTableRecord
100
AcDbLinetypeTableRecord
  2
AM_ISO09W050
 70
     0
  3
_____ . . _____ . . _____ . . ____ .. ____
 72
    65
 73
     6
 40
22.5
 49
12.0
 74
     0
 49
-1.5
 74
     0
 49
3.0
 74
     0
 49
-1.5
 74
     0
 49
3.0
 74
     0
 49
-1.5
 74
     0
  0
LTYPE
  5
4E92
330
5
100
AcDbSymbolTableRecord
100
AcDbLinetypeTableRecord
  2
AM_ISO08W050x2
 70
     0
  3
__ . __ . __ . __ . __ . __
 72
    65
 73
     4
 40
9.0
 49
6.0
 74
     0
 49
-0.75
 74
     0
 49
1.5
 74
     0
 49
-0.75
 74
     0
  0
LTYPE
  5
4E93
330
5
100
AcDbSymbolTableRecord
100
AcDbLinetypeTableRecord
  2
AM_ISO02W050x2
 70
     0
  3
 _ _ _ _ _ _ _ _ _ _ _ _
 72
    65
 73
     2
 40
3.75
 49
3.0
 74
     0
 49
-0.75
 74
     0
  0
LTYPE
  5
4E94
330
5
100
AcDbSymbolTableRecord
100
AcDbLinetypeTableRecord
  2
Amzigzag
 70
     0
  3
/\/-/\/-/\/-/\/-/\/-/\/
 72
    65
 73
     2
 40
11.0001
 49
0.0001
 74
     4
 75
   136
340
1698
 46
0.04
 50
0.0
 44
0.0
 45
0.0
 49
-11.0
 74
     0
  0
LTYPE
  5
4EA3
330
5
100
AcDbSymbolTableRecord
100
AcDbLinetypeTableRecord
  2
ACISOWELD
 70
     0
  3
_ _ _ _ _
 72
    65
 73
     2
 40
2.0
 49
2.0
 74
     0
 49
-1.0
 74
     0
  0
LTYPE
  5
4EA4
330
5
100
AcDbSymbolTableRecord
100
AcDbLinetypeTableRecord
  2
ACISOTGL
 70
     0
  3
_ _ _ _ _
 72
    65
 73
     2
 40
3.0
 49
2.0
 74
     0
 49
-1.0
 74
     0
  0
LTYPE
  5
4EA5
330
5
100
AcDbSymbolTableRecord
100
AcDbLinetypeTableRecord
  2
ACISOTGB
 70
     0
  3
__ . . __ . .
 72
    65
 73
     6
 40
9.0
 49
4.0
 74
     0
 49
-1.0
 74
     0
 49
1.0
 74
     0
 49
-1.0
 74
     0
 49
1.0
 74
     0
 49
-1.0
 74
     0
  0
LTYPE
  5
51CD
330
5
100
AcDbSymbolTableRecord
100
AcDbLinetypeTableRecord
  2
HIDDEN
 70
     0
  3
Hidden __ __ __ __ __ __ __ __ __ __ __ __ __ _
 72
    65
 73
     2
 40
9.524999999999998
 49
6.349999999999999
 74
     0
 49
-3.174999999999999
 74
     0
  0
LTYPE
  5
51CE
330
5
100
AcDbSymbolTableRecord
100
AcDbLinetypeTableRecord
  2
PHANTOM2
 70
     0
  3
Phantom (.5x) ___ _ _ ___ _ _ ___ _ _ ___ _ _
 72
    65
 73
     6
 40
31.75
 49
15.875
 74
     0
 49
-3.174999999999999
 74
     0
 49
3.174999999999999
 74
     0
 49
-3.174999999999999
 74
     0
 49
3.174999999999999
 74
     0
 49
-3.174999999999999
 74
     0
  0
LTYPE
  5
51CF
330
5
100
AcDbSymbolTableRecord
100
AcDbLinetypeTableRecord
  2
CENTER
 70
     0
  3
Center ____ _ ____ _ ____ _ ____ _ ____ _ ____
 72
    65
 73
     4
 40
50.8
 49
31.75
 74
     0
 49
-6.349999999999999
 74
     0
 49
6.349999999999999
 74
     0
 49
-6.349999999999999
 74
     0
  0
ENDTAB
  0
TABLE
  2
LAYER
  5
2
102
{ACAD_XDICTIONARY
360
43C
102
}
330
0
100
AcDbSymbolTable
 70
    11
  0
LAYER
  5
F
102
{ACAD_XDICTIONARY
360
52D
102
}
330
2
100
AcDbSymbolTableRecord
100
AcDbLayerTableRecord
  2
0
 70
     0
 62
     7
  6
Continuous
290
     0
370
    -3
390
300
  0
LAYER
  5
23
102
{ACAD_XDICTIONARY
360
52F
102
}
330
2
100
AcDbSymbolTableRecord
100
AcDbLayerTableRecord
  2
1
 70
     0
 62
     4
  6
Continuous
370
    50
390
300
  0
LAYER
  5
25
102
{ACAD_XDICTIONARY
360
533
102
}
330
2
100
AcDbSymbolTableRecord
100
AcDbLayerTableRecord
  2
2
 70
     0
 62
     7
  6
Continuous
370
    25
390
300
  0
LAYER
  5
2A
102
{ACAD_XDICTIONARY
360
53D
102
}
330
2
100
AcDbSymbolTableRecord
100
AcDbLayerTableRecord
  2
4
 70
     0
 62
     2
  6
LONGDASH_DASH
370
    25
390
300
  0
LAYER
  5
2E
102
{ACAD_XDICTIONARY
360
545
102
}
330
2
100
AcDbSymbolTableRecord
100
AcDbLayerTableRecord
  2
SK6
 70
     0
 62
     5
  6
Continuous
370
    35
390
300
  0
LAYER
  5
2F
330
2
100
AcDbSymbolTableRecord
100
AcDbLayerTableRecord
  2
DEFPOINTS
 70
     0
 62
     7
  6
Continuous
290
     0
370
    -3
390
300
  0
LAYER
  5
432
102
{ACAD_XDICTIONARY
360
54D
102
}
330
2
100
AcDbSymbolTableRecord
100
AcDbLayerTableRecord
  2
SKVIEW1
 70
     0
 62
     4
  6
Continuous
370
    50
390
300
1001
AcAecLayerStandard
1000

1000

  0
LAYER
  5
434
102
{ACAD_XDICTIONARY
360
54F
102
}
330
2
100
AcDbSymbolTableRecord
100
AcDbLayerTableRecord
  2
SKVIEW2
 70
     0
 62
     7
  6
Continuous
370
    25
390
300
1001
AcAecLayerStandard
1000

1000

  0
LAYER
  5
435
102
{ACAD_XDICTIONARY
360
551
102
}
330
2
100
AcDbSymbolTableRecord
100
AcDbLayerTableRecord
  2
SKVIEW3
 70
     0
 62
     1
  6
DASH
370
    35
390
300
1001
AcAecLayerStandard
1000

1000

  0
LAYER
  5
436
102
{ACAD_XDICTIONARY
360
553
102
}
330
2
100
AcDbSymbolTableRecord
100
AcDbLayerTableRecord
  2
SKVIEW4
 70
     0
 62
     2
  6
LONGDASH_DASH
370
    25
390
300
1001
AcAecLayerStandard
1000

1000

  0
LAYER
  5
1693
102
{ACAD_XDICTIONARY
360
4DE8
102
}
330
2
100
AcDbSymbolTableRecord
100
AcDbLayerTableRecord
  2
DEFAULT
 70
     0
 62
     7
  6
Continuous
370
    -3
390
300
  0
ENDTAB
  0
TABLE
  2
STYLE
  5
3
330
0
100
AcDbSymbolTable
 70
     7
  0
STYLE
  5
10
330
3
100
AcDbSymbolTableRecord
100
AcDbTextStyleTableRecord
  2
STANDARD
 70
     0
 40
0.0
 41
1.0
 50
0.0
 71
     0
 42
5.0
  3
monos.ttf
  4

1001
ACAD
1000
Monospac821 BT
1071
       49
  0
STYLE
  5
1E
330
3
100
AcDbSymbolTableRecord
100
AcDbTextStyleTableRecord
  2
STANDARD 5 mm
 70
     0
 40
5.0
 41
1.0
 50
0.0
 71
     0
 42
3.5
  3
monos.ttf
  4

1001
ACAD
1000
Monospac821 BT
1071
       49
  0
STYLE
  5
7DE
330
3
100
AcDbSymbolTableRecord
100
AcDbTextStyleTableRecord
  2
STANDARD 3.5 mm
 70
     0
 40
3.5
 41
1.0
 50
0.0
 71
     0
 42
3.5
  3
monos.ttf
  4

1001
ACAD
1000
Monospac821 BT
1071
       49
  0
STYLE
  5
E90
330
3
100
AcDbSymbolTableRecord
100
AcDbTextStyleTableRecord
  2
USER1
 70
     0
 40
0.0
 41
1.0
 50
0.0
 71
     0
 42
5.0
  3
TXT.SHX
  4

  0
STYLE
  5
1698
330
3
100
AcDbSymbolTableRecord
100
AcDbTextStyleTableRecord
  2

 70
     1
 40
0.0
 41
1.0
 50
0.0
 71
     0
 42
2.5
  3
genltshp.shx
  4

  0
STYLE
  5
4EA2
330
3
100
AcDbSymbolTableRecord
100
AcDbTextStyleTableRecord
  2
ACISOGDT
 70
     0
 40
0.0
 41
1.0
 50
0.0
 71
     0
 42
5.0
  3
amgdt.shx
  4

  0
STYLE
  5
5209
330
3
100
AcDbSymbolTableRecord
100
AcDbTextStyleTableRecord
  2
ACISOTS
 70
     0
 40
0.0
 41
1.0
 50
0.0
 71
     0
 42
5.0
  3
isocp.shx
  4

  0
ENDTAB
  0
TABLE
  2
VIEW
  5
6
330
0
100
AcDbSymbolTable
 70
     6
  0
VIEW
  5
758
330
6
100
AcDbSymbolTableRecord
100
AcDbViewTableRecord
  2
AM_VIEW1
 70
     1
 40
148.5265045166015
 10
121.0318359737553
 20
219.614756822586
 41
248.4136475334483
 11
0.0
 21
0.0
 31
1.0
 12
0.0
 22
0.0
 32
0.0
 42
50.0
 43
0.0
 44
0.0
 50
0.0
 71
     0
281
     0
 72
     0
  0
VIEW
  5
759
330
6
100
AcDbSymbolTableRecord
100
AcDbViewTableRecord
  2
AM_VIEW2
 70
     1
 40
148.5265045166015
 10
292.4378600711665
 20
219.614756822586
 41
248.4136475334483
 11
0.0
 21
0.0
 31
1.0
 12
0.0
 22
0.0
 32
0.0
 42
50.0
 43
0.0
 44
0.0
 50
0.0
 71
     0
281
     0
 72
     0
  0
VIEW
  5
75A
330
6
100
AcDbSymbolTableRecord
100
AcDbViewTableRecord
  2
AM_VIEW3
 70
     1
 40
148.5265045166015
 10
121.0318359737553
 20
71.0882523059845
 41
248.4136475334483
 11
0.0
 21
0.0
 31
1.0
 12
0.0
 22
0.0
 32
0.0
 42
50.0
 43
0.0
 44
0.0
 50
0.0
 71
     0
281
     0
 72
     0
  0
VIEW
  5
75B
330
6
100
AcDbSymbolTableRecord
100
AcDbViewTableRecord
  2
AM_VIEW4
 70
     1
 40
148.5265045166015
 10
292.4378600711665
 20
71.0882523059845
 41
248.4136475334483
 11
0.0
 21
0.0
 31
1.0
 12
0.0
 22
0.0
 32
0.0
 42
50.0
 43
0.0
 44
0.0
 50
0.0
 71
     0
281
     0
 72
     0
  0
VIEW
  5
75C
330
6
100
AcDbSymbolTableRecord
100
AcDbViewTableRecord
  2
AM_VIEW5
 70
     1
 40
148.5265045166015
 10
206.7348480224609
 20
145.3515045642852
 41
248.4136475334483
 11
0.0
 21
0.0
 31
1.0
 12
0.0
 22
0.0
 32
0.0
 42
50.0
 43
0.0
 44
0.0
 50
0.0
 71
     0
281
     0
 72
     0
  0
VIEW
  5
75D
330
6
100
AcDbSymbolTableRecord
100
AcDbViewTableRecord
  2
AM_VIEW6
 70
     1
 40
297.0500385031128
 10
206.7348480224609
 20
145.3515045642852
 41
496.8223267939458
 11
0.0
 21
0.0
 31
1.0
 12
0.0
 22
0.0
 32
0.0
 42
50.0
 43
0.0
 44
0.0
 50
0.0
 71
     0
281
     0
 72
     0
  0
ENDTAB
  0
TABLE
  2
UCS
  5
7
330
0
100
AcDbSymbolTable
 70
     0
  0
ENDTAB
  0
TABLE
  2
APPID
  5
9
330
0
100
AcDbSymbolTable
 70
    39
  0
APPID
  5
11
330
9
100
AcDbSymbolTableRecord
100
AcDbRegAppTableRecord
  2
ACAD
 70
     0
  0
APPID
  5
3A6
330
9
100
AcDbSymbolTableRecord
100
AcDbRegAppTableRecord
  2
ACAD_PSEXT
 70
     0
  0
APPID
  5
3A8
330
9
100
AcDbSymbolTableRecord
100
AcDbRegAppTableRecord
  2
ACAD_EXEMPT_FROM_CAD_STANDARDS
 70
     0
  0
APPID
  5
433
330
9
100
AcDbSymbolTableRecord
100
AcDbRegAppTableRecord
  2
AcAecLayerStandard
 70
     0
  0
APPID
  5
471
330
9
100
AcDbSymbolTableRecord
100
AcDbRegAppTableRecord
  2
ACAD_MLEADERVER
 70
     0
  0
APPID
  5
47D
330
9
100
AcDbSymbolTableRecord
100
AcDbRegAppTableRecord
  2
MCAD_NO_VIS
 70
     0
  0
APPID
  5
47E
330
9
100
AcDbSymbolTableRecord
100
AcDbRegAppTableRecord
  2
ACAD_TEMP_GRAPHIC
 70
     0
  0
APPID
  5
4AC
330
9
100
AcDbSymbolTableRecord
100
AcDbRegAppTableRecord
  2
AD_DRAW
 70
     0
  0
APPID
  5
4AF
330
9
100
AcDbSymbolTableRecord
100
AcDbRegAppTableRecord
  2
ACATTRIBSERVICES
 70
     0
  0
APPID
  5
4D0
330
9
100
AcDbSymbolTableRecord
100
AcDbRegAppTableRecord
  2
DESIGNERASSEMBLIES
 70
     0
  0
APPID
  5
4D6
330
9
100
AcDbSymbolTableRecord
100
AcDbRegAppTableRecord
  2
ACADM_DIM_EDIT
 70
     0
  0
APPID
  5
4D7
330
9
100
AcDbSymbolTableRecord
100
AcDbRegAppTableRecord
  2
AMDT_DM_ADJ
 70
     0
  0
APPID
  5
5CD
330
9
100
AcDbSymbolTableRecord
100
AcDbRegAppTableRecord
  2
AcDbAttr
 70
     0
  0
APPID
  5
5CE
330
9
100
AcDbSymbolTableRecord
100
AcDbRegAppTableRecord
  2
ACAUTHENVIRON
 70
     0
  0
APPID
  5
5CF
330
9
100
AcDbSymbolTableRecord
100
AcDbRegAppTableRecord
  2
AcDbDynamicBlockTrueName
 70
     0
  0
APPID
  5
5D0
330
9
100
AcDbSymbolTableRecord
100
AcDbRegAppTableRecord
  2
ACDBBLOCKREPETAG
 70
     0
  0
APPID
  5
723
330
9
100
AcDbSymbolTableRecord
100
AcDbRegAppTableRecord
  2
GENIUS_GENTRA_14
 70
     0
  0
APPID
  5
752
330
9
100
AcDbSymbolTableRecord
100
AcDbRegAppTableRecord
  2
GENIUS_GENOENT_13
 70
     0
  0
APPID
  5
753
330
9
100
AcDbSymbolTableRecord
100
AcDbRegAppTableRecord
  2
GENIUS_GENOBJ-N-TIT_13
 70
     0
  0
APPID
  5
754
330
9
100
AcDbSymbolTableRecord
100
AcDbRegAppTableRecord
  2
GENIUS_GENODEF_13
 70
     0
  0
APPID
  5
755
330
9
100
AcDbSymbolTableRecord
100
AcDbRegAppTableRecord
  2
GENIUS_GENOLIS_13
 70
     0
  0
APPID
  5
756
330
9
100
AcDbSymbolTableRecord
100
AcDbRegAppTableRecord
  2
GENIUS_GENTITLE_13
 70
     0
  0
APPID
  5
757
330
9
100
AcDbSymbolTableRecord
100
AcDbRegAppTableRecord
  2
GENIUS_GENOREF_13
 70
     0
  0
APPID
  5
75E
330
9
100
AcDbSymbolTableRecord
100
AcDbRegAppTableRecord
  2
GENIUS_GENSCREG_15
 70
     0
  0
APPID
  5
75F
330
9
100
AcDbSymbolTableRecord
100
AcDbRegAppTableRecord
  2
GENIUS_GENOBJ-N-SDF_13
 70
     0
  0
APPID
  5
7BE
330
9
100
AcDbSymbolTableRecord
100
AcDbRegAppTableRecord
  2
AcadAnnoPO
 70
     0
  0
APPID
  5
7BF
330
9
100
AcDbSymbolTableRecord
100
AcDbRegAppTableRecord
  2
ACAD_DSTYLE_DIMJAG
 70
     0
  0
APPID
  5
7C0
330
9
100
AcDbSymbolTableRecord
100
AcDbRegAppTableRecord
  2
ACAD_DSTYLE_DIMTALN
 70
     0
  0
APPID
  5
A53
330
9
100
AcDbSymbolTableRecord
100
AcDbRegAppTableRecord
  2
ACAD_DSTYLE_DIMARC_LENGTH_SYMBOL
 70
     0
  0
APPID
  5
A65
330
9
100
AcDbSymbolTableRecord
100
AcDbRegAppTableRecord
  2
ACAD_DSTYLE_DIMJOGGED_JOGANGLE_SYMBOL
 70
     0
  0
APPID
  5
CCE
330
9
100
AcDbSymbolTableRecord
100
AcDbRegAppTableRecord
  2
ACAD_DSTYLE_DIMBREAK
 70
     0
  0
APPID
  5
D24
330
9
100
AcDbSymbolTableRecord
100
AcDbRegAppTableRecord
  2
ACAD_NAV_VCDISPLAY
 70
     0
  0
APPID
  5
D4A
330
9
100
AcDbSymbolTableRecord
100
AcDbRegAppTableRecord
  2
GENIUS_GENREC_14
 70
     0
  0
APPID
  5
D4B
330
9
100
AcDbSymbolTableRecord
100
AcDbRegAppTableRecord
  2
GENIUS_GENOBJ-N-REC_13
 70
     0
  0
APPID
  5
DC9
330
9
100
AcDbSymbolTableRecord
100
AcDbRegAppTableRecord
  2
ACAD_DSTYLE_DIMRADIAL_EXTENSION
 70
     0
  0
APPID
  5
4530
330
9
100
AcDbSymbolTableRecord
100
AcDbRegAppTableRecord
  2
ACAD_DSTYLE_DIMINSPECT
 70
     0
  0
APPID
  5
4E41
330
9
100
AcDbSymbolTableRecord
100
AcDbRegAppTableRecord
  2
ACAD_DSTYLE_DIM_LINETYPE
 70
     0
  0
APPID
  5
4E42
330
9
100
AcDbSymbolTableRecord
100
AcDbRegAppTableRecord
  2
ACAD_DSTYLE_DIM_EXT1_LINETYPE
 70
     0
  0
APPID
  5
4E43
330
9
100
AcDbSymbolTableRecord
100
AcDbRegAppTableRecord
  2
ACAD_DSTYLE_DIM_EXT2_LINETYPE
 70
     0
  0
ENDTAB
  0
TABLE
  2
DIMSTYLE
  5
A
330
0
100
AcDbSymbolTable
 70
     9
100
AcDbDimStyleTable
 71
     2
340
4FC
340
3F
  0
DIMSTYLE
105
3F
330
A
100
AcDbSymbolTableRecord
100
AcDbDimStyleTableRecord
  2
STANDARD
 70
     0
 41
5.0
 42
1.0
 43
15.0
 44
2.0
 48
0.000000001
 73
     0
 74
     0
 77
     1
 78
     9
 79
     2
140
3.5
143
0.0393700787401575
147
2.299999999999998
171
     3
172
     1
271
     2
272
     2
273
     3
274
     3
284
     8
285
    11
286
     8
340
7DE
1001
ACAD_DSTYLE_DIMJAG
1070
   388
1040
1.5
1001
ACAD_DSTYLE_DIMTALN
1070
   392
1070
     0
1001
ACAD_DSTYLE_DIMARC_LENGTH_SYMBOL
1070
   379
1070
     1
1001
ACAD_DSTYLE_DIMJOGGED_JOGANGLE_SYMBOL
1070
   384
1040
1.570796326794896
  0
DIMSTYLE
105
4FC
102
{ACAD_REACTORS
330
4308
330
4320
330
4338
330
4350
330
4371
330
4491
330
44A9
330
44C1
330
450F
102
}
330
A
100
AcDbSymbolTableRecord
100
AcDbDimStyleTableRecord
  2
AM_DIN
 70
     0
 41
2.5
 42
1.0
 43
15.0
 44
2.0
 48
0.000000001
 73
     0
 74
     0
 77
     1
 78
     8
 79
     2
140
3.5
143
0.0393701
146
0.7071069999999999
147
1.0
171
     3
172
     1
271
     2
272
     2
273
     3
274
     3
284
     8
285
    11
286
     8
340
7DE
371
    -1
372
    -1
1001
ACAD_DSTYLE_DIMJAG
1070
   388
1040
1.5
1001
ACAD_DSTYLE_DIMTALN
1070
   392
1070
     0
1001
ACAD_DSTYLE_DIMARC_LENGTH_SYMBOL
1070
   379
1070
     1
1001
ACAD_DSTYLE_DIMJOGGED_JOGANGLE_SYMBOL
1070
   384
1040
1.570796326794896
  0
DIMSTYLE
105
4E8D
102
{ACAD_REACTORS
330
51F1
102
}
330
A
100
AcDbSymbolTableRecord
100
AcDbDimStyleTableRecord
  2
AM_ISO
 70
     0
  4
"
 41
3.5
 42
1.0
 43
10.0
 44
1.0
 47
0.1
 48
0.1
 73
     0
 74
     0
 77
     1
 78
     8
 79
     2
140
3.5
141
0.0
143
0.0393701
146
0.71
147
1.5
172
     1
176
   256
177
   256
178
     2
271
     2
272
     3
274
     4
283
     0
284
     8
340
10
371
    -1
372
    -1
1001
ACAD_DSTYLE_DIMJAG
1070
   388
1040
1.5
1001
ACAD_DSTYLE_DIMBREAK
1070
   391
1040
3.75
1001
ACAD_DSTYLE_DIMARC_LENGTH_SYMBOL
1070
   379
1070
     1
1001
ACAD_DSTYLE_DIM_LINETYPE
1070
   380
1005
12
1001
ACAD_DSTYLE_DIM_EXT1_LINETYPE
1070
   381
1005
12
1001
ACAD_DSTYLE_DIM_EXT2_LINETYPE
1070
   382
1005
12
  0
DIMSTYLE
105
4E95
330
A
100
AcDbSymbolTableRecord
100
AcDbDimStyleTableRecord
  2
AM_ISO$3
 70
     0
  4
"
 41
3.5
 42
1.0
 43
10.0
 44
1.0
 47
0.1
 48
0.1
 73
     0
 77
     1
 78
     8
 79
     2
140
3.5
141
0.0
143
0.0393701
146
0.71
147
1.5
176
   256
177
   256
178
     2
271
     2
272
     3
274
     4
283
     0
284
     8
288
     1
289
     0
340
10
371
    -1
372
    -1
1001
ACAD_DSTYLE_DIMBREAK
1070
   391
1040
3.75
1001
ACAD_DSTYLE_DIMJAG
1070
   388
1040
1.5
1001
ACAD_DSTYLE_DIMARC_LENGTH_SYMBOL
1070
   379
1070
     1
1001
ACAD_DSTYLE_DIM_LINETYPE
1070
   380
1005
12
1001
ACAD_DSTYLE_DIM_EXT1_LINETYPE
1070
   381
1005
12
1001
ACAD_DSTYLE_DIM_EXT2_LINETYPE
1070
   382
1005
12
  0
DIMSTYLE
105
4E96
330
A
100
AcDbSymbolTableRecord
100
AcDbDimStyleTableRecord
  2
AM_ISO$4
 70
     0
  4
"
 41
3.5
 42
1.0
 43
10.0
 44
1.0
 47
0.1
 48
0.1
 73
     0
 77
     1
 78
     8
 79
     2
140
3.5
141
0.0
143
0.0393701
146
0.71
147
1.5
176
   256
177
   256
178
     2
271
     2
272
     3
274
     4
283
     0
284
     8
288
     1
289
     0
340
10
371
    -1
372
    -1
1001
ACAD_DSTYLE_DIMBREAK
1070
   391
1040
3.75
1001
ACAD_DSTYLE_DIMJAG
1070
   388
1040
1.5
1001
ACAD_DSTYLE_DIMARC_LENGTH_SYMBOL
1070
   379
1070
     1
1001
ACAD_DSTYLE_DIM_LINETYPE
1070
   380
1005
12
1001
ACAD_DSTYLE_DIM_EXT1_LINETYPE
1070
   381
1005
12
1001
ACAD_DSTYLE_DIM_EXT2_LINETYPE
1070
   382
1005
12
  0
DIMSTYLE
105
4E97
330
A
100
AcDbSymbolTableRecord
100
AcDbDimStyleTableRecord
  2
AM_ISO$6
 70
     0
  4
"
 41
3.5
 42
1.0
 43
10.0
 44
1.0
 47
0.1
 48
0.1
 73
     0
 74
     0
 78
     8
 79
     2
140
3.5
141
0.0
143
0.0393701
146
0.71
147
1.5
172
     1
176
   256
177
   256
178
     2
271
     2
272
     3
274
     4
283
     0
284
     8
340
10
371
    -1
372
    -1
1001
ACAD_DSTYLE_DIMBREAK
1070
   391
1040
3.75
1001
ACAD_DSTYLE_DIMJAG
1070
   388
1040
1.5
1001
ACAD_DSTYLE_DIMARC_LENGTH_SYMBOL
1070
   379
1070
     1
1001
ACAD_DSTYLE_DIM_LINETYPE
1070
   380
1005
12
1001
ACAD_DSTYLE_DIM_EXT1_LINETYPE
1070
   381
1005
12
1001
ACAD_DSTYLE_DIM_EXT2_LINETYPE
1070
   382
1005
12
  0
DIMSTYLE
105
4E98
330
A
100
AcDbSymbolTableRecord
100
AcDbDimStyleTableRecord
  2
AM_ISO$7
 70
     0
  4
"
 41
3.5
 42
1.0
 43
10.0
 44
1.0
 47
0.1
 48
0.1
 73
     0
 74
     0
 77
     1
 78
     8
 79
     2
140
3.5
141
0.0
143
0.0393701
146
0.71
147
1.5
172
     1
176
   256
177
   256
178
     2
271
     2
272
     3
274
     4
283
     0
284
     8
340
10
371
    -1
372
    -1
1001
ACAD_DSTYLE_DIMBREAK
1070
   391
1040
3.75
1001
ACAD_DSTYLE_DIMJAG
1070
   388
1040
1.5
1001
ACAD_DSTYLE_DIMARC_LENGTH_SYMBOL
1070
   379
1070
     1
1001
ACAD_DSTYLE_DIM_LINETYPE
1070
   380
1005
12
1001
ACAD_DSTYLE_DIM_EXT1_LINETYPE
1070
   381
1005
12
1001
ACAD_DSTYLE_DIM_EXT2_LINETYPE
1070
   382
1005
12
  0
DIMSTYLE
105
4E99
330
A
100
AcDbSymbolTableRecord
100
AcDbDimStyleTableRecord
  2
AM_ISO$SF
 70
     0
  4
"
 41
3.5
 42
1.0
 43
10.0
 44
1.0
 47
0.1
 48
0.1
 73
     0
 74
     0
 75
     1
 76
     1
 77
     1
 78
     8
 79
     2
140
3.5
141
0.0
143
0.0393701
146
0.71
147
1.5
172
     1
176
   256
177
   256
178
     2
271
     2
272
     3
274
     4
283
     0
284
     8
340
10
371
    -1
372
    -1
1001
ACAD_DSTYLE_DIMBREAK
1070
   391
1040
3.75
1001
ACAD_DSTYLE_DIMJAG
1070
   388
1040
1.5
1001
ACAD_DSTYLE_DIMARC_LENGTH_SYMBOL
1070
   379
1070
     1
1001
ACAD_DSTYLE_DIM_LINETYPE
1070
   380
1005
12
1001
ACAD_DSTYLE_DIM_EXT1_LINETYPE
1070
   381
1005
12
1001
ACAD_DSTYLE_DIM_EXT2_LINETYPE
1070
   382
1005
12
  0
DIMSTYLE
105
4E9A
330
A
100
AcDbSymbolTableRecord
100
AcDbDimStyleTableRecord
  2
AM_ISO$SH
 70
     0
  4
"
 41
3.5
 42
1.0
 43
10.0
 44
1.0
 47
0.1
 48
0.1
 73
     0
 74
     0
 75
     1
 76
     1
 77
     1
 78
     8
 79
     2
140
3.5
141
0.0
143
0.0393701
144
2.0
146
0.71
147
1.5
172
     1
173
     1
176
   256
177
   256
178
     2
271
     2
272
     3
274
     4
283
     0
284
     8
340
10
343
1684
371
    -1
372
    -1
1001
ACAD_DSTYLE_DIMBREAK
1070
   391
1040
3.75
1001
ACAD_DSTYLE_DIMJAG
1070
   388
1040
1.5
1001
ACAD_DSTYLE_DIMARC_LENGTH_SYMBOL
1070
   379
1070
     1
1001
ACAD_DSTYLE_DIM_LINETYPE
1070
   380
1005
12
1001
ACAD_DSTYLE_DIM_EXT1_LINETYPE
1070
   381
1005
12
1001
ACAD_DSTYLE_DIM_EXT2_LINETYPE
1070
   382
1005
12
  0
ENDTAB
  0
TABLE
  2
BLOCK_RECORD
  5
1
330
0
100
AcDbSymbolTable
 70
    12
  0
BLOCK_RECORD
  5
18
102
{ACAD_XDICTIONARY
360
DB1
102
}
330
1
100
AcDbSymbolTableRecord
100
AcDbBlockTableRecord
  2
*MODEL_SPACE
340
303
  0
BLOCK_RECORD
  5
B56
330
1
100
AcDbSymbolTableRecord
100
AcDbBlockTableRecord
  2
*Paper_Space
340
B57
  0
BLOCK_RECORD
  5
F8F
330
1
100
AcDbSymbolTableRecord
100
AcDbBlockTableRecord
  2
SEANNOT_GROUP33
340
0
102
{BLKREFS
331
404B
102
}
  0
BLOCK_RECORD
  5
1684
330
1
100
AcDbSymbolTableRecord
100
AcDbBlockTableRecord
  2
GENAXEH
340
0
  0
BLOCK_RECORD
  5
4309
330
1
100
AcDbSymbolTableRecord
100
AcDbBlockTableRecord
  2
*D2
340
0
  0
BLOCK_RECORD
  5
4321
330
1
100
AcDbSymbolTableRecord
100
AcDbBlockTableRecord
  2
*D3
340
0
  0
BLOCK_RECORD
  5
4339
330
1
100
AcDbSymbolTableRecord
100
AcDbBlockTableRecord
  2
*D4
340
0
  0
BLOCK_RECORD
  5
4351
330
1
100
AcDbSymbolTableRecord
100
AcDbBlockTableRecord
  2
*D5
340
0
  0
BLOCK_RECORD
  5
4372
330
1
100
AcDbSymbolTableRecord
100
AcDbBlockTableRecord
  2
*D6
340
0
  0
BLOCK_RECORD
  5
4492
330
1
100
AcDbSymbolTableRecord
100
AcDbBlockTableRecord
  2
*D7
340
0
  0
BLOCK_RECORD
  5
44AA
330
1
100
AcDbSymbolTableRecord
100
AcDbBlockTableRecord
  2
*D8
340
0
  0
BLOCK_RECORD
  5
44C2
330
1
100
AcDbSymbolTableRecord
100
AcDbBlockTableRecord
  2
*D9
340
0
  0
BLOCK_RECORD
  5
4510
330
1
100
AcDbSymbolTableRecord
100
AcDbBlockTableRecord
  2
*D10
340
0
  0
ENDTAB
  0
ENDSEC
  0
SECTION
  2
BLOCKS
  0
BLOCK
  5
32
330
18
100
AcDbEntity
  8
0
100
AcDbBlockBegin
  2
*MODEL_SPACE
 70
     0
 10
0.0
 20
0.0
 30
0.0
  3
*MODEL_SPACE
  1

  0
ENDBLK
  5
33
330
18
100
AcDbEntity
  8
0
100
AcDbBlockEnd
  0
BLOCK
  5
B58
330
B56
100
AcDbEntity
 67
     1
  8
0
100
AcDbBlockBegin
  2
*Paper_Space
 70
     0
 10
0.0
 20
0.0
 30
0.0
  3
*Paper_Space
  1

  0
ENDBLK
  5
B59
330
B56
100
AcDbEntity
 67
     1
  8
0
100
AcDbBlockEnd
  0
BLOCK
  5
F90
330
F8F
100
AcDbEntity
  8
0
100
AcDbBlockBegin
  2
SEANNOT_GROUP33
 70
     0
 10
0.0
 20
0.0
 30
0.0
  3
SEANNOT_GROUP33
  1

  0
LINE
  5
F91
330
F8F
100
AcDbEntity
  8
DEFAULT
  6
CENTER2
 62
   136
100
AcDbLine
 10
99.34772463959999
 20
180.9115836949
 30
0.0
 11
86.88580846079998
 21
180.9115836949
 31
0.0
  0
ENDBLK
  5
F92
330
F8F
100
AcDbEntity
  8
0
100
AcDbBlockEnd
  0
BLOCK
  5
1685
330
1684
100
AcDbEntity
  8
0
100
AcDbBlockBegin
  2
GENAXEH
 70
     0
 10
0.0
 20
0.0
 30
0.0
  3
GENAXEH
  1

  0
LINE
  5
1686
330
1684
100
AcDbEntity
  8
0
100
AcDbLine
 10
-1.0
 20
0.0
 30
0.0
 11
1.0
 21
0.0
 31
0.0
  0
ENDBLK
  5
1687
330
1684
100
AcDbEntity
  8
0
100
AcDbBlockEnd
  0
BLOCK
  5
430A
330
4309
100
AcDbEntity
  8
0
100
AcDbBlockBegin
  2
*D2
 70
     1
 10
0.0
 20
0.0
 30
0.0
  3
*D2
  1

  0
LINE
  5
4463
330
4309
100
AcDbEntity
  8
SKVIEW2
 62
     0
100
AcDbLine
 10
-193.091499263
 20
50.0
 30
0.0
 11
-114.7435245857252
 21
50.0
 31
0.0
  0
LINE
  5
4464
330
4309
100
AcDbEntity
  8
SKVIEW2
 62
     0
100
AcDbLine
 10
-134.5493198927419
 20
-0.0000000000000038
 30
0.0
 11
-114.7435245857252
 21
-0.0000000000000094
 31
0.0
  0
LINE
  5
4465
330
4309
100
AcDbEntity
  8
SKVIEW2
 62
     0
100
AcDbLine
 10
-116.7435245857253
 20
47.49999999999999
 30
0.0
 11
-116.7435245857253
 21
2.49999999999999
 31
0.0
  0
SOLID
  5
4466
330
4309
100
AcDbEntity
  8
SKVIEW2
 62
     0
100
AcDbTrace
 10
-117.160191252392
 20
47.49999999999999
 30
0.0
 11
-116.3268579190587
 21
47.49999999999999
 31
0.0
 12
-116.7435245857253
 22
50.0
 32
0.0
 13
-116.7435245857253
 23
50.0
 33
0.0
  0
SOLID
  5
4467
330
4309
100
AcDbEntity
  8
SKVIEW2
 62
     0
100
AcDbTrace
 10
-117.160191252392
 20
2.49999999999999
 30
0.0
 11
-116.3268579190587
 21
2.49999999999999
 31
0.0
 12
-116.7435245857253
 22
-0.0000000000000089
 32
0.0
 13
-116.7435245857253
 23
-0.0000000000000089
 33
0.0
  0
MTEXT
  5
4468
330
4309
100
AcDbEntity
  8
SKVIEW2
 62
     0
100
AcDbMText
 10
-119.5550143959854
 20
24.99999999999997
 30
0.0
 40
3.5
 41
0.0
 71
     5
 72
     1
  1
\A1;50
  7
STANDARD 3.5 mm
 11
0.0000000000000001
 21
1.0
 31
0.0
 73
     1
 44
1.0
1001
ACAD
1000
MTEXTBEGIN
1070
    73
1070
     1
1070
    44
1040
1.0
1070
    74
1070
     0
1000
MTEXTEND
  0
POINT
  5
4469
330
4309
100
AcDbEntity
  8
DEFPOINTS
 62
     0
100
AcDbPoint
 10
-194.091499263
 20
50.0
 30
0.0
  0
POINT
  5
446A
330
4309
100
AcDbEntity
  8
DEFPOINTS
 62
     0
100
AcDbPoint
 10
-135.5493198927419
 20
-0.0000000000000036
 30
0.0
  0
POINT
  5
446B
330
4309
100
AcDbEntity
  8
DEFPOINTS
 62
     0
100
AcDbPoint
 10
-116.7435245857253
 20
-0.0000000000000089
 30
0.0
  0
ENDBLK
  5
430B
330
4309
100
AcDbEntity
  8
0
100
AcDbBlockEnd
  0
BLOCK
  5
4322
330
4321
100
AcDbEntity
  8
0
100
AcDbBlockBegin
  2
*D3
 70
     1
 10
0.0
 20
0.0
 30
0.0
  3
*D3
  1

  0
LINE
  5
446C
330
4321
100
AcDbEntity
  8
SKVIEW2
 62
     0
100
AcDbLine
 10
-166.9671436100001
 20
-50.0
 30
0.0
 11
-114.4959329636316
 21
-50.0
 31
0.0
  0
LINE
  5
446D
330
4321
100
AcDbEntity
  8
SKVIEW2
 62
     0
100
AcDbLine
 10
-134.5493198927419
 20
-0.0000000000000038
 30
0.0
 11
-114.4959329636316
 21
-0.0000000000000095
 31
0.0
  0
LINE
  5
446E
330
4321
100
AcDbEntity
  8
SKVIEW2
 62
     0
100
AcDbLine
 10
-116.4959329636316
 20
-47.49999999999999
 30
0.0
 11
-116.4959329636316
 21
-2.500000000000008
 31
0.0
  0
SOLID
  5
446F
330
4321
100
AcDbEntity
  8
SKVIEW2
 62
     0
100
AcDbTrace
 10
-116.9125996302983
 20
-47.49999999999999
 30
0.0
 11
-116.0792662969649
 21
-47.49999999999999
 31
0.0
 12
-116.4959329636316
 22
-50.0
 32
0.0
 13
-116.4959329636316
 23
-50.0
 33
0.0
  0
SOLID
  5
4470
330
4321
100
AcDbEntity
  8
SKVIEW2
 62
     0
100
AcDbTrace
 10
-116.9125996302983
 20
-2.500000000000008
 30
0.0
 11
-116.0792662969649
 21
-2.500000000000008
 31
0.0
 12
-116.4959329636316
 22
-0.000000000000009
 32
0.0
 13
-116.4959329636316
 23
-0.000000000000009
 33
0.0
  0
MTEXT
  5
4471
330
4321
100
AcDbEntity
  8
SKVIEW2
 62
     0
100
AcDbMText
 10
-119.3074227738916
 20
-25.00000000000002
 30
0.0
 40
3.5
 41
0.0
 71
     5
 72
     1
  1
\A1;50
  7
STANDARD 3.5 mm
 11
0.0000000000000001
 21
1.0
 31
0.0
 73
     1
 44
1.0
1001
ACAD
1000
MTEXTBEGIN
1070
    73
1070
     1
1070
    44
1040
1.0
1070
    74
1070
     0
1000
MTEXTEND
  0
POINT
  5
4472
330
4321
100
AcDbEntity
  8
DEFPOINTS
 62
     0
100
AcDbPoint
 10
-167.9671436100001
 20
-50.0
 30
0.0
  0
POINT
  5
4473
330
4321
100
AcDbEntity
  8
DEFPOINTS
 62
     0
100
AcDbPoint
 10
-135.5493198927419
 20
-0.0000000000000036
 30
0.0
  0
POINT
  5
4474
330
4321
100
AcDbEntity
  8
DEFPOINTS
 62
     0
100
AcDbPoint
 10
-116.4959329636316
 20
-0.000000000000009
 30
0.0
  0
ENDBLK
  5
4323
330
4321
100
AcDbEntity
  8
0
100
AcDbBlockEnd
  0
BLOCK
  5
433A
330
4339
100
AcDbEntity
  8
0
100
AcDbBlockBegin
  2
*D4
 70
     1
 10
0.0
 20
0.0
 30
0.0
  3
*D4
  1

  0
LINE
  5
522C
330
4339
100
AcDbEntity
  8
SKVIEW2
 62
     0
100
AcDbLine
 10
-188.1107371494
 20
0.9999999999999964
 30
0.0
 11
-188.1107371494
 21
76.49739067266108
 31
0.0
  0
LINE
  5
522D
330
4339
100
AcDbEntity
  8
SKVIEW2
 62
     0
100
AcDbLine
 10
-238.1107371494
 20
49.0
 30
0.0
 11
-238.1107371494
 21
76.49739067266108
 31
0.0
  0
LINE
  5
522E
330
4339
100
AcDbEntity
  8
SKVIEW2
 62
     0
100
AcDbLine
 10
-190.6107371494
 20
74.49739067266108
 30
0.0
 11
-235.6107371494
 21
74.49739067266108
 31
0.0
  0
SOLID
  5
522F
330
4339
100
AcDbEntity
  8
SKVIEW2
 62
     0
100
AcDbTrace
 10
-190.6107371494
 20
74.91405733932776
 30
0.0
 11
-190.6107371494
 21
74.08072400599441
 31
0.0
 12
-188.1107371494
 22
74.49739067266108
 32
0.0
 13
-188.1107371494
 23
74.49739067266108
 33
0.0
  0
SOLID
  5
5230
330
4339
100
AcDbEntity
  8
SKVIEW2
 62
     0
100
AcDbTrace
 10
-235.6107371494
 20
74.91405733932776
 30
0.0
 11
-235.6107371494
 21
74.08072400599441
 31
0.0
 12
-238.1107371494
 22
74.49739067266108
 32
0.0
 13
-238.1107371494
 23
74.49739067266108
 33
0.0
  0
MTEXT
  5
5231
330
4339
100
AcDbEntity
  8
SKVIEW2
 62
     0
100
AcDbMText
 10
-211.4729710150963
 20
77.3088804829211
 30
0.0
 40
3.5
 41
0.0
 71
     5
 72
     1
  1
\A1;50
  7
STANDARD 3.5 mm
 73
     1
 44
1.0
1001
ACAD
1000
MTEXTBEGIN
1070
    73
1070
     1
1070
    44
1040
1.0
1070
    74
1070
     0
1000
MTEXTEND
  0
POINT
  5
5232
330
4339
100
AcDbEntity
  8
DEFPOINTS
 62
     0
100
AcDbPoint
 10
-188.1107371494
 20
-0.0000000000000036
 30
0.0
  0
POINT
  5
5233
330
4339
100
AcDbEntity
  8
DEFPOINTS
 62
     0
100
AcDbPoint
 10
-238.1107371494
 20
48.0
 30
0.0
  0
POINT
  5
5234
330
4339
100
AcDbEntity
  8
DEFPOINTS
 62
     0
100
AcDbPoint
 10
-238.1107371494
 20
74.49739067266108
 30
0.0
  0
ENDBLK
  5
433B
330
4339
100
AcDbEntity
  8
0
100
AcDbBlockEnd
  0
BLOCK
  5
4352
330
4351
100
AcDbEntity
  8
0
100
AcDbBlockBegin
  2
*D5
 70
     1
 10
0.0
 20
0.0
 30
0.0
  3
*D5
  1

  0
LINE
  5
5235
330
4351
100
AcDbEntity
  8
SKVIEW2
 62
     0
100
AcDbLine
 10
-238.1107371494
 20
49.0
 30
0.0
 11
-238.1107371494
 21
86.49739067266109
 31
0.0
  0
LINE
  5
5236
330
4351
100
AcDbEntity
  8
SKVIEW2
 62
     0
100
AcDbLine
 10
-138.1107371494
 20
34.00000000000002
 30
0.0
 11
-138.1107371494
 21
86.49739067266109
 31
0.0
  0
LINE
  5
5237
330
4351
100
AcDbEntity
  8
SKVIEW2
 62
     0
100
AcDbLine
 10
-235.6107371494
 20
84.49739067266108
 30
0.0
 11
-140.6107371494
 21
84.49739067266108
 31
0.0
  0
SOLID
  5
5238
330
4351
100
AcDbEntity
  8
SKVIEW2
 62
     0
100
AcDbTrace
 10
-235.6107371494
 20
84.91405733932776
 30
0.0
 11
-235.6107371494
 21
84.08072400599442
 31
0.0
 12
-238.1107371494
 22
84.49739067266108
 32
0.0
 13
-238.1107371494
 23
84.49739067266108
 33
0.0
  0
SOLID
  5
5239
330
4351
100
AcDbEntity
  8
SKVIEW2
 62
     0
100
AcDbTrace
 10
-140.6107371494
 20
84.91405733932776
 30
0.0
 11
-140.6107371494
 21
84.08072400599442
 31
0.0
 12
-138.1107371494
 22
84.49739067266108
 32
0.0
 13
-138.1107371494
 23
84.49739067266108
 33
0.0
  0
MTEXT
  5
523A
330
4351
100
AcDbEntity
  8
SKVIEW2
 62
     0
100
AcDbMText
 10
-188.1107371494
 20
87.3088804829211
 30
0.0
 40
3.5
 41
0.0
 71
     5
 72
     1
  1
\A1;100
  7
STANDARD 3.5 mm
 73
     1
 44
1.0
1001
ACAD
1000
MTEXTBEGIN
1070
    73
1070
     1
1070
    44
1040
1.0
1070
    74
1070
     0
1000
MTEXTEND
  0
POINT
  5
523B
330
4351
100
AcDbEntity
  8
DEFPOINTS
 62
     0
100
AcDbPoint
 10
-238.1107371494
 20
48.0
 30
0.0
  0
POINT
  5
523C
330
4351
100
AcDbEntity
  8
DEFPOINTS
 62
     0
100
AcDbPoint
 10
-138.1107371494
 20
33.00000000000002
 30
0.0
  0
POINT
  5
523D
330
4351
100
AcDbEntity
  8
DEFPOINTS
 62
     0
100
AcDbPoint
 10
-138.1107371494
 20
84.49739067266108
 30
0.0
  0
ENDBLK
  5
4353
330
4351
100
AcDbEntity
  8
0
100
AcDbBlockEnd
  0
BLOCK
  5
4373
330
4372
100
AcDbEntity
  8
0
100
AcDbBlockBegin
  2
*D6
 70
     1
 10
0.0
 20
0.0
 30
0.0
  3
*D6
  1

  0
LINE
  5
5222
330
4372
100
AcDbEntity
  8
SKVIEW2
 62
     0
100
AcDbLine
 10
-238.1107371494
 20
49.0
 30
0.0
 11
-238.1107371494
 21
66.49739067266108
 31
0.0
  0
LINE
  5
5223
330
4372
100
AcDbEntity
  8
SKVIEW2
 62
     0
100
AcDbLine
 10
-228.0107371494001
 20
36.00000000000002
 30
0.0
 11
-228.0107371494001
 21
66.49739067266108
 31
0.0
  0
LINE
  5
5224
330
4372
100
AcDbEntity
  8
SKVIEW2
 62
     0
100
AcDbLine
 10
-235.6107371494
 20
64.49739067266108
 30
0.0
 11
-230.5107371494001
 21
64.49739067266108
 31
0.0
  0
LINE
  5
5225
330
4372
100
AcDbEntity
  8
SKVIEW2
 62
     0
100
AcDbLine
 10
-228.0107371494001
 20
64.49739067266108
 30
0.0
 11
-198.1837455893263
 21
64.49739067266108
 31
0.0
  0
SOLID
  5
5226
330
4372
100
AcDbEntity
  8
SKVIEW2
 62
     0
100
AcDbTrace
 10
-235.6107371494
 20
64.91405733932776
 30
0.0
 11
-235.6107371494
 21
64.08072400599441
 31
0.0
 12
-238.1107371494
 22
64.49739067266108
 32
0.0
 13
-238.1107371494
 23
64.49739067266108
 33
0.0
  0
SOLID
  5
5227
330
4372
100
AcDbEntity
  8
SKVIEW2
 62
     0
100
AcDbTrace
 10
-230.5107371494001
 20
64.91405733932776
 30
0.0
 11
-230.5107371494001
 21
64.08072400599441
 31
0.0
 12
-228.0107371494001
 22
64.49739067266108
 32
0.0
 13
-228.0107371494001
 23
64.49739067266108
 33
0.0
  0
MTEXT
  5
5228
330
4372
100
AcDbEntity
  8
SKVIEW2
 62
     0
100
AcDbMText
 10
-204.3697961866559
 20
67.3088804829211
 30
0.0
 40
3.5
 41
0.0
 71
     5
 72
     1
  1
\A1;10.1
  7
STANDARD 3.5 mm
 73
     1
 44
1.0
1001
ACAD
1000
MTEXTBEGIN
1070
    73
1070
     1
1070
    44
1040
1.0
1070
    74
1070
     0
1000
MTEXTEND
  0
POINT
  5
5229
330
4372
100
AcDbEntity
  8
DEFPOINTS
 62
     0
100
AcDbPoint
 10
-238.1107371494
 20
48.0
 30
0.0
  0
POINT
  5
522A
330
4372
100
AcDbEntity
  8
DEFPOINTS
 62
     0
100
AcDbPoint
 10
-228.0107371494001
 20
35.00000000000002
 30
0.0
  0
POINT
  5
522B
330
4372
100
AcDbEntity
  8
DEFPOINTS
 62
     0
100
AcDbPoint
 10
-228.0107371494001
 20
64.49739067266108
 30
0.0
  0
ENDBLK
  5
4374
330
4372
100
AcDbEntity
  8
0
100
AcDbBlockEnd
  0
BLOCK
  5
4493
330
4492
100
AcDbEntity
  8
0
100
AcDbBlockBegin
  2
*D7
 70
     1
 10
0.0
 20
0.0
 30
0.0
  3
*D7
  1

  0
LINE
  5
44F4
330
4492
100
AcDbEntity
  8
2
 62
     0
100
AcDbLine
 10
-75.0000000000001
 20
20.50000000000001
 30
0.0
 11
-75.0000000000001
 21
87.60381145819861
 31
0.0
  0
LINE
  5
44F5
330
4492
100
AcDbEntity
  8
2
 62
     0
100
AcDbLine
 10
55.0
 20
-20.04619929169998
 30
0.0
 11
55.0
 21
87.60381145819861
 31
0.0
  0
LINE
  5
44F6
330
4492
100
AcDbEntity
  8
2
 62
     0
100
AcDbLine
 10
-72.5000000000001
 20
85.60381145819858
 30
0.0
 11
52.5
 21
85.60381145819858
 31
0.0
  0
SOLID
  5
44F7
330
4492
100
AcDbEntity
  8
2
 62
     0
100
AcDbTrace
 10
-72.5000000000001
 20
86.02047812486528
 30
0.0
 11
-72.5000000000001
 21
85.18714479153194
 31
0.0
 12
-75.0000000000001
 22
85.60381145819858
 32
0.0
 13
-75.0000000000001
 23
85.60381145819858
 33
0.0
  0
SOLID
  5
44F8
330
4492
100
AcDbEntity
  8
2
 62
     0
100
AcDbTrace
 10
52.5
 20
86.02047812486528
 30
0.0
 11
52.5
 21
85.18714479153194
 31
0.0
 12
55.0
 22
85.60381145819858
 32
0.0
 13
55.0
 23
85.60381145819858
 33
0.0
  0
MTEXT
  5
44F9
330
4492
100
AcDbEntity
  8
2
 62
     0
100
AcDbMText
 10
-10.00000000000005
 20
88.41530126845864
 30
0.0
 40
3.5
 41
0.0
 71
     5
 72
     1
  1
\A1;130
  7
STANDARD 3.5 mm
 73
     1
 44
1.0
1001
ACAD
1000
MTEXTBEGIN
1070
    73
1070
     1
1070
    44
1040
1.0
1070
    74
1070
     0
1000
MTEXTEND
  0
POINT
  5
44FA
330
4492
100
AcDbEntity
  8
DEFPOINTS
 62
     0
100
AcDbPoint
 10
-75.0000000000001
 20
19.50000000000001
 30
0.0
  0
POINT
  5
44FB
330
4492
100
AcDbEntity
  8
DEFPOINTS
 62
     0
100
AcDbPoint
 10
55.0
 20
-21.04619929169998
 30
0.0
  0
POINT
  5
44FC
330
4492
100
AcDbEntity
  8
DEFPOINTS
 62
     0
100
AcDbPoint
 10
55.0
 20
85.60381145819858
 30
0.0
  0
ENDBLK
  5
4494
330
4492
100
AcDbEntity
  8
0
100
AcDbBlockEnd
  0
BLOCK
  5
44AB
330
44AA
100
AcDbEntity
  8
0
100
AcDbBlockBegin
  2
*D8
 70
     1
 10
0.0
 20
0.0
 30
0.0
  3
*D8
  1

  0
LINE
  5
44FD
330
44AA
100
AcDbEntity
  8
2
 62
     0
100
AcDbLine
 10
55.0
 20
50.0
 30
0.0
 11
55.0
 21
77.60381145819859
 31
0.0
  0
LINE
  5
44FE
330
44AA
100
AcDbEntity
  8
2
 62
     0
100
AcDbLine
 10
0.0000000000000001
 20
49.73242271070002
 30
0.0
 11
0.0000000000000018
 21
77.60381145819859
 31
0.0
  0
LINE
  5
44FF
330
44AA
100
AcDbEntity
  8
2
 62
     0
100
AcDbLine
 10
52.5
 20
75.60381145819859
 30
0.0
 11
2.5
 21
75.60381145819859
 31
0.0
  0
SOLID
  5
4500
330
44AA
100
AcDbEntity
  8
2
 62
     0
100
AcDbTrace
 10
52.5
 20
76.02047812486528
 30
0.0
 11
52.5
 21
75.18714479153193
 31
0.0
 12
55.0
 22
75.60381145819859
 32
0.0
 13
55.0
 23
75.60381145819859
 33
0.0
  0
SOLID
  5
4501
330
44AA
100
AcDbEntity
  8
2
 62
     0
100
AcDbTrace
 10
2.5
 20
76.02047812486528
 30
0.0
 11
2.5
 21
75.18714479153193
 31
0.0
 12
0.0000000000000016
 22
75.60381145819859
 32
0.0
 13
0.0000000000000016
 23
75.60381145819859
 33
0.0
  0
MTEXT
  5
4502
330
44AA
100
AcDbEntity
  8
2
 62
     0
100
AcDbMText
 10
27.50000000000001
 20
78.40423310261181
 30
0.0
 40
3.5
 41
0.0
 71
     5
 72
     1
  1
\A1;55
  7
STANDARD 3.5 mm
 73
     1
 44
1.0
1001
ACAD
1000
MTEXTBEGIN
1070
    73
1070
     1
1070
    44
1040
1.0
1070
    74
1070
     0
1000
MTEXTEND
  0
POINT
  5
4503
330
44AA
100
AcDbEntity
  8
DEFPOINTS
 62
     0
100
AcDbPoint
 10
55.0
 20
49.00000000000002
 30
0.0
  0
POINT
  5
4504
330
44AA
100
AcDbEntity
  8
DEFPOINTS
 62
     0
100
AcDbPoint
 10
0.0
 20
48.73242271070004
 30
0.0
  0
POINT
  5
4505
330
44AA
100
AcDbEntity
  8
DEFPOINTS
 62
     0
100
AcDbPoint
 10
0.0000000000000016
 20
75.60381145819859
 30
0.0
  0
ENDBLK
  5
44AC
330
44AA
100
AcDbEntity
  8
0
100
AcDbBlockEnd
  0
BLOCK
  5
44C3
330
44C2
100
AcDbEntity
  8
0
100
AcDbBlockBegin
  2
*D9
 70
     1
 10
0.0
 20
0.0
 30
0.0
  3
*D9
  1

  0
LINE
  5
4506
330
44C2
100
AcDbEntity
  8
2
 62
     0
100
AcDbLine
 10
0.0000000000000001
 20
49.73242271070002
 30
0.0
 11
0.0000000000000012
 21
67.6038114581986
 31
0.0
  0
LINE
  5
4507
330
44C2
100
AcDbEntity
  8
2
 62
     0
100
AcDbLine
 10
29.5
 20
28.00000000000001
 30
0.0
 11
29.50000000000001
 21
67.6038114581986
 31
0.0
  0
LINE
  5
4508
330
44C2
100
AcDbEntity
  8
2
 62
     0
100
AcDbLine
 10
2.5
 20
65.6038114581986
 30
0.0
 11
27.00000000000001
 21
65.6038114581986
 31
0.0
  0
SOLID
  5
4509
330
44C2
100
AcDbEntity
  8
2
 62
     0
100
AcDbTrace
 10
2.5
 20
66.02047812486528
 30
0.0
 11
2.5
 21
65.18714479153192
 31
0.0
 12
0.000000000000001
 22
65.6038114581986
 32
0.0
 13
0.000000000000001
 23
65.6038114581986
 33
0.0
  0
SOLID
  5
450A
330
44C2
100
AcDbEntity
  8
2
 62
     0
100
AcDbTrace
 10
27.00000000000001
 20
66.02047812486528
 30
0.0
 11
27.00000000000001
 21
65.18714479153192
 31
0.0
 12
29.50000000000001
 22
65.6038114581986
 32
0.0
 13
29.50000000000001
 23
65.6038114581986
 33
0.0
  0
MTEXT
  5
450B
330
44C2
100
AcDbEntity
  8
2
 62
     0
100
AcDbMText
 10
14.75
 20
68.41530126845862
 30
0.0
 40
3.5
 41
0.0
 71
     5
 72
     1
  1
\A1;29.5
  7
STANDARD 3.5 mm
 73
     1
 44
1.0
1001
ACAD
1000
MTEXTBEGIN
1070
    73
1070
     1
1070
    44
1040
1.0
1070
    74
1070
     0
1000
MTEXTEND
  0
POINT
  5
450C
330
44C2
100
AcDbEntity
  8
DEFPOINTS
 62
     0
100
AcDbPoint
 10
0.0
 20
48.73242271070004
 30
0.0
  0
POINT
  5
450D
330
44C2
100
AcDbEntity
  8
DEFPOINTS
 62
     0
100
AcDbPoint
 10
29.5
 20
27.00000000000001
 30
0.0
  0
POINT
  5
450E
330
44C2
100
AcDbEntity
  8
DEFPOINTS
 62
     0
100
AcDbPoint
 10
29.50000000000001
 20
65.6038114581986
 30
0.0
  0
ENDBLK
  5
44C4
330
44C2
100
AcDbEntity
  8
0
100
AcDbBlockEnd
  0
BLOCK
  5
4511
330
4510
100
AcDbEntity
  8
0
100
AcDbBlockBegin
  2
*D10
 70
     1
 10
0.0
 20
0.0
 30
0.0
  3
*D10
  1

  0
LINE
  5
453A
330
4510
100
AcDbEntity
  8
2
 62
     0
100
AcDbLine
 10
-73.0000000000001
 20
20.00000000000001
 30
0.0
 11
-89.48616769971659
 21
20.00000000000001
 31
0.0
  0
LINE
  5
453B
330
4510
100
AcDbEntity
  8
2
 62
     0
100
AcDbLine
 10
-73.0000000000001
 20
-19.99999999999999
 30
0.0
 11
-89.48616769971659
 21
-19.99999999999998
 31
0.0
  0
LINE
  5
453C
330
4510
100
AcDbEntity
  8
2
 62
     0
100
AcDbLine
 10
-87.48616769971659
 20
17.50000000000001
 30
0.0
 11
-87.48616769971659
 21
-17.49999999999999
 31
0.0
  0
SOLID
  5
453D
330
4510
100
AcDbEntity
  8
2
 62
     0
100
AcDbTrace
 10
-87.90283436638326
 20
17.50000000000001
 30
0.0
 11
-87.06950103304995
 21
17.50000000000001
 31
0.0
 12
-87.48616769971659
 22
20.00000000000001
 32
0.0
 13
-87.48616769971659
 23
20.00000000000001
 33
0.0
  0
SOLID
  5
453E
330
4510
100
AcDbEntity
  8
2
 62
     0
100
AcDbTrace
 10
-87.90283436638326
 20
-17.49999999999999
 30
0.0
 11
-87.06950103304995
 21
-17.49999999999999
 31
0.0
 12
-87.48616769971659
 22
-19.99999999999999
 32
0.0
 13
-87.48616769971659
 23
-19.99999999999999
 33
0.0
  0
MTEXT
  5
453F
330
4510
100
AcDbEntity
  8
2
 62
     0
100
AcDbMText
 10
-90.34930895059501
 20
-0.0000000000000014
 30
0.0
 40
3.5
 41
0.0
 71
     5
 72
     1
  1
\A1;%%c40
  7
STANDARD 3.5 mm
 11
0.0000000000000001
 21
1.0
 31
0.0
 73
     1
 44
1.0
1001
ACAD
1000
MTEXTBEGIN
1070
    73
1070
     1
1070
    44
1040
1.0
1070
    74
1070
     0
1000
MTEXTEND
  0
POINT
  5
4540
330
4510
100
AcDbEntity
  8
DEFPOINTS
 62
     0
100
AcDbPoint
 10
-72.00000000000009
 20
20.00000000000001
 30
0.0
  0
POINT
  5
4541
330
4510
100
AcDbEntity
  8
DEFPOINTS
 62
     0
100
AcDbPoint
 10
-72.00000000000009
 20
-19.99999999999999
 30
0.0
  0
POINT
  5
4542
330
4510
100
AcDbEntity
  8
DEFPOINTS
 62
     0
100
AcDbPoint
 10
-87.48616769971659
 20
-19.99999999999999
 30
0.0
  0
ENDBLK
  5
4512
330
4510
100
AcDbEntity
  8
0
100
AcDbBlockEnd
  0
ENDSEC
  0
SECTION
  2
ENTITIES
  0
POINT
  5
2CF8
330
18
100
AcDbEntity
  8
1
  6
Continuous
 62
     1
100
AcDbPoint
 10
-278.1339422344
 20
-165.0024496949
 30
0.0
 50
180.0
  0
INSERT
  5
404B
330
18
100
AcDbEntity
  8
1
100
AcDbBlockReference
  2
SEANNOT_GROUP33
 10
125.1944137655999
 20
-190.9115836949
 30
0.0
 41
-1.0
  0
LINE
  5
409B
330
18
100
AcDbEntity
  8
1
100
AcDbLine
 10
-10.0
 20
20.00000000000001
 30
0.0
 11
-5.0
 21
25.00000000000001
 31
0.0
  0
LINE
  5
409C
330
18
100
AcDbEntity
  8
1
100
AcDbLine
 10
-72.00000000000009
 20
20.00000000000001
 30
0.0
 11
-59.10000000000001
 21
20.00000000000001
 31
0.0
  0
LINE
  5
409D
330
18
100
AcDbEntity
  8
1
100
AcDbLine
 10
-11.70000000000004
 20
20.00000000000001
 30
0.0
 11
-10.0
 21
20.00000000000001
 31
0.0
  0
LINE
  5
409E
330
18
100
AcDbEntity
  8
1
100
AcDbLine
 10
-13.39999999999998
 20
18.30000000000002
 30
0.0
 11
-11.70000000000004
 21
20.00000000000001
 31
0.0
  0
LINE
  5
409F
330
18
100
AcDbEntity
  8
1
100
AcDbLine
 10
-15.10000000000002
 20
20.00000000000001
 30
0.0
 11
-13.39999999999998
 21
18.30000000000002
 31
0.0
  0
LINE
  5
40A0
330
18
100
AcDbEntity
  8
1
100
AcDbLine
 10
-15.70000000000004
 20
20.00000000000001
 30
0.0
 11
-15.10000000000002
 21
20.00000000000001
 31
0.0
  0
LINE
  5
40A1
330
18
100
AcDbEntity
  8
1
100
AcDbLine
 10
-19.10000000000002
 20
20.00000000000001
 30
0.0
 11
-17.39999999999997
 21
18.30000000000002
 31
0.0
  0
LINE
  5
40A2
330
18
100
AcDbEntity
  8
1
100
AcDbLine
 10
-17.39999999999997
 20
18.30000000000002
 30
0.0
 11
-15.70000000000004
 21
20.00000000000001
 31
0.0
  0
LINE
  5
40A3
330
18
100
AcDbEntity
  8
1
100
AcDbLine
 10
-19.70000000000004
 20
20.00000000000001
 30
0.0
 11
-19.10000000000002
 21
20.00000000000001
 31
0.0
  0
LINE
  5
40A4
330
18
100
AcDbEntity
  8
1
100
AcDbLine
 10
-23.10000000000002
 20
20.00000000000001
 30
0.0
 11
-21.39999999999998
 21
18.30000000000002
 31
0.0
  0
LINE
  5
40A5
330
18
100
AcDbEntity
  8
1
100
AcDbLine
 10
-21.39999999999998
 20
18.30000000000002
 30
0.0
 11
-19.70000000000004
 21
20.00000000000001
 31
0.0
  0
LINE
  5
40A6
330
18
100
AcDbEntity
  8
1
100
AcDbLine
 10
-23.70000000000004
 20
20.00000000000001
 30
0.0
 11
-23.10000000000002
 21
20.00000000000001
 31
0.0
  0
LINE
  5
40A7
330
18
100
AcDbEntity
  8
1
100
AcDbLine
 10
-27.10000000000003
 20
20.00000000000001
 30
0.0
 11
-25.39999999999998
 21
18.30000000000002
 31
0.0
  0
LINE
  5
40A8
330
18
100
AcDbEntity
  8
1
100
AcDbLine
 10
-25.39999999999998
 20
18.30000000000002
 30
0.0
 11
-23.70000000000004
 21
20.00000000000001
 31
0.0
  0
LINE
  5
40A9
330
18
100
AcDbEntity
  8
1
100
AcDbLine
 10
-27.70000000000005
 20
20.00000000000001
 30
0.0
 11
-27.10000000000003
 21
20.00000000000001
 31
0.0
  0
LINE
  5
40AA
330
18
100
AcDbEntity
  8
1
100
AcDbLine
 10
-31.10000000000002
 20
20.00000000000001
 30
0.0
 11
-29.39999999999998
 21
18.30000000000002
 31
0.0
  0
LINE
  5
40AB
330
18
100
AcDbEntity
  8
1
100
AcDbLine
 10
-29.39999999999998
 20
18.30000000000002
 30
0.0
 11
-27.70000000000005
 21
20.00000000000001
 31
0.0
  0
LINE
  5
40AC
330
18
100
AcDbEntity
  8
1
100
AcDbLine
 10
-31.70000000000005
 20
20.00000000000001
 30
0.0
 11
-31.10000000000002
 21
20.00000000000001
 31
0.0
  0
LINE
  5
40AD
330
18
100
AcDbEntity
  8
1
100
AcDbLine
 10
-35.10000000000002
 20
20.00000000000001
 30
0.0
 11
-33.39999999999998
 21
18.30000000000002
 31
0.0
  0
LINE
  5
40AE
330
18
100
AcDbEntity
  8
1
100
AcDbLine
 10
-33.39999999999998
 20
18.30000000000002
 30
0.0
 11
-31.70000000000005
 21
20.00000000000001
 31
0.0
  0
LINE
  5
40AF
330
18
100
AcDbEntity
  8
1
100
AcDbLine
 10
-35.70000000000005
 20
20.00000000000001
 30
0.0
 11
-35.10000000000002
 21
20.00000000000001
 31
0.0
  0
LINE
  5
40B0
330
18
100
AcDbEntity
  8
1
100
AcDbLine
 10
-39.10000000000002
 20
20.00000000000001
 30
0.0
 11
-37.39999999999998
 21
18.30000000000002
 31
0.0
  0
LINE
  5
40B1
330
18
100
AcDbEntity
  8
1
100
AcDbLine
 10
-37.39999999999998
 20
18.30000000000002
 30
0.0
 11
-35.70000000000005
 21
20.00000000000001
 31
0.0
  0
LINE
  5
40B2
330
18
100
AcDbEntity
  8
1
100
AcDbLine
 10
-39.70000000000005
 20
20.00000000000001
 30
0.0
 11
-39.10000000000002
 21
20.00000000000001
 31
0.0
  0
LINE
  5
40B3
330
18
100
AcDbEntity
  8
1
100
AcDbLine
 10
-43.10000000000001
 20
20.00000000000001
 30
0.0
 11
-41.39999999999997
 21
18.30000000000002
 31
0.0
  0
LINE
  5
40B4
330
18
100
AcDbEntity
  8
1
100
AcDbLine
 10
-41.39999999999997
 20
18.30000000000002
 30
0.0
 11
-39.70000000000005
 21
20.00000000000001
 31
0.0
  0
LINE
  5
40B5
330
18
100
AcDbEntity
  8
1
100
AcDbLine
 10
-43.70000000000003
 20
20.00000000000001
 30
0.0
 11
-43.10000000000001
 21
20.00000000000001
 31
0.0
  0
LINE
  5
40B6
330
18
100
AcDbEntity
  8
1
100
AcDbLine
 10
-47.1
 20
20.00000000000001
 30
0.0
 11
-45.39999999999998
 21
18.30000000000002
 31
0.0
  0
LINE
  5
40B7
330
18
100
AcDbEntity
  8
1
100
AcDbLine
 10
-45.39999999999998
 20
18.30000000000002
 30
0.0
 11
-43.70000000000003
 21
20.00000000000001
 31
0.0
  0
LINE
  5
40B8
330
18
100
AcDbEntity
  8
1
100
AcDbLine
 10
-47.70000000000004
 20
20.00000000000001
 30
0.0
 11
-47.1
 21
20.00000000000001
 31
0.0
  0
LINE
  5
40B9
330
18
100
AcDbEntity
  8
1
100
AcDbLine
 10
-51.10000000000002
 20
20.00000000000001
 30
0.0
 11
-49.40000000000011
 21
18.30000000000002
 31
0.0
  0
LINE
  5
40BA
330
18
100
AcDbEntity
  8
1
100
AcDbLine
 10
-49.40000000000011
 20
18.30000000000002
 30
0.0
 11
-47.70000000000004
 21
20.00000000000001
 31
0.0
  0
LINE
  5
40BB
330
18
100
AcDbEntity
  8
1
100
AcDbLine
 10
-51.70000000000005
 20
20.00000000000001
 30
0.0
 11
-51.10000000000002
 21
20.00000000000001
 31
0.0
  0
LINE
  5
40BC
330
18
100
AcDbEntity
  8
1
100
AcDbLine
 10
-55.10000000000001
 20
20.00000000000001
 30
0.0
 11
-53.4000000000001
 21
18.30000000000002
 31
0.0
  0
LINE
  5
40BD
330
18
100
AcDbEntity
  8
1
100
AcDbLine
 10
-53.4000000000001
 20
18.30000000000002
 30
0.0
 11
-51.70000000000005
 21
20.00000000000001
 31
0.0
  0
LINE
  5
40BE
330
18
100
AcDbEntity
  8
1
100
AcDbLine
 10
-55.70000000000003
 20
20.00000000000001
 30
0.0
 11
-55.10000000000001
 21
20.00000000000001
 31
0.0
  0
LINE
  5
40BF
330
18
100
AcDbEntity
  8
1
100
AcDbLine
 10
-59.10000000000001
 20
20.00000000000001
 30
0.0
 11
-57.40000000000009
 21
18.30000000000002
 31
0.0
  0
LINE
  5
40C0
330
18
100
AcDbEntity
  8
1
100
AcDbLine
 10
-57.40000000000009
 20
18.30000000000002
 30
0.0
 11
-55.70000000000003
 21
20.00000000000001
 31
0.0
  0
LINE
  5
40C1
330
18
100
AcDbEntity
  8
1
100
AcDbLine
 10
-72.00000000000009
 20
-19.99999999999999
 30
0.0
 11
-72.00000000000009
 21
20.00000000000001
 31
0.0
  0
LINE
  5
40C2
330
18
100
AcDbEntity
  8
1
100
AcDbLine
 10
-72.00000000000009
 20
-19.99999999999999
 30
0.0
 11
-74.50000000000009
 21
-19.99999999999999
 31
0.0
  0
LINE
  5
40C3
330
18
100
AcDbEntity
  8
1
100
AcDbLine
 10
-10.0
 20
-19.99999999999999
 30
0.0
 11
-5.0
 21
-24.99999999999999
 31
0.0
  0
LINE
  5
40C4
330
18
100
AcDbEntity
  8
1
100
AcDbLine
 10
-10.0
 20
-19.99999999999999
 30
0.0
 11
-11.70000000000004
 21
-19.99999999999999
 31
0.0
  0
LINE
  5
40C5
330
18
100
AcDbEntity
  8
1
100
AcDbLine
 10
-15.10000000000002
 20
-19.99999999999999
 30
0.0
 11
-15.70000000000004
 21
-19.99999999999999
 31
0.0
  0
LINE
  5
40C6
330
18
100
AcDbEntity
  8
1
100
AcDbLine
 10
-13.39999999999998
 20
-18.29999999999997
 30
0.0
 11
-15.10000000000002
 21
-19.99999999999999
 31
0.0
  0
LINE
  5
40C7
330
18
100
AcDbEntity
  8
1
100
AcDbLine
 10
-11.70000000000004
 20
-19.99999999999999
 30
0.0
 11
-13.39999999999998
 21
-18.29999999999997
 31
0.0
  0
LINE
  5
40C8
330
18
100
AcDbEntity
  8
1
100
AcDbLine
 10
-19.10000000000002
 20
-19.99999999999999
 30
0.0
 11
-19.70000000000004
 21
-19.99999999999999
 31
0.0
  0
LINE
  5
40C9
330
18
100
AcDbEntity
  8
1
100
AcDbLine
 10
-15.70000000000004
 20
-19.99999999999999
 30
0.0
 11
-17.39999999999997
 21
-18.29999999999997
 31
0.0
  0
LINE
  5
40CA
330
18
100
AcDbEntity
  8
1
100
AcDbLine
 10
-17.39999999999997
 20
-18.29999999999997
 30
0.0
 11
-19.10000000000002
 21
-19.99999999999999
 31
0.0
  0
LINE
  5
40CB
330
18
100
AcDbEntity
  8
1
100
AcDbLine
 10
-23.10000000000002
 20
-19.99999999999999
 30
0.0
 11
-23.70000000000004
 21
-19.99999999999999
 31
0.0
  0
LINE
  5
40CC
330
18
100
AcDbEntity
  8
1
100
AcDbLine
 10
-19.70000000000004
 20
-19.99999999999999
 30
0.0
 11
-21.39999999999998
 21
-18.29999999999997
 31
0.0
  0
LINE
  5
40CD
330
18
100
AcDbEntity
  8
1
100
AcDbLine
 10
-21.39999999999998
 20
-18.29999999999997
 30
0.0
 11
-23.10000000000002
 21
-19.99999999999999
 31
0.0
  0
LINE
  5
40CE
330
18
100
AcDbEntity
  8
1
100
AcDbLine
 10
-27.10000000000003
 20
-19.99999999999999
 30
0.0
 11
-27.70000000000005
 21
-19.99999999999999
 31
0.0
  0
LINE
  5
40CF
330
18
100
AcDbEntity
  8
1
100
AcDbLine
 10
-23.70000000000004
 20
-19.99999999999999
 30
0.0
 11
-25.39999999999998
 21
-18.29999999999997
 31
0.0
  0
LINE
  5
40D0
330
18
100
AcDbEntity
  8
1
100
AcDbLine
 10
-25.39999999999998
 20
-18.29999999999997
 30
0.0
 11
-27.10000000000003
 21
-19.99999999999999
 31
0.0
  0
LINE
  5
40D1
330
18
100
AcDbEntity
  8
1
100
AcDbLine
 10
-31.10000000000002
 20
-19.99999999999999
 30
0.0
 11
-31.70000000000005
 21
-19.99999999999999
 31
0.0
  0
LINE
  5
40D2
330
18
100
AcDbEntity
  8
1
100
AcDbLine
 10
-27.70000000000005
 20
-19.99999999999999
 30
0.0
 11
-29.39999999999998
 21
-18.29999999999997
 31
0.0
  0
LINE
  5
40D3
330
18
100
AcDbEntity
  8
1
100
AcDbLine
 10
-29.39999999999998
 20
-18.29999999999997
 30
0.0
 11
-31.10000000000002
 21
-19.99999999999999
 31
0.0
  0
LINE
  5
40D4
330
18
100
AcDbEntity
  8
1
100
AcDbLine
 10
-35.10000000000002
 20
-19.99999999999999
 30
0.0
 11
-35.70000000000005
 21
-19.99999999999999
 31
0.0
  0
LINE
  5
40D5
330
18
100
AcDbEntity
  8
1
100
AcDbLine
 10
-31.70000000000005
 20
-19.99999999999999
 30
0.0
 11
-33.39999999999998
 21
-18.29999999999997
 31
0.0
  0
LINE
  5
40D6
330
18
100
AcDbEntity
  8
1
100
AcDbLine
 10
-33.39999999999998
 20
-18.29999999999997
 30
0.0
 11
-35.10000000000002
 21
-19.99999999999999
 31
0.0
  0
LINE
  5
40D7
330
18
100
AcDbEntity
  8
1
100
AcDbLine
 10
-39.10000000000002
 20
-19.99999999999999
 30
0.0
 11
-39.70000000000005
 21
-19.99999999999999
 31
0.0
  0
LINE
  5
40D8
330
18
100
AcDbEntity
  8
1
100
AcDbLine
 10
-35.70000000000005
 20
-19.99999999999999
 30
0.0
 11
-37.39999999999998
 21
-18.29999999999997
 31
0.0
  0
LINE
  5
40D9
330
18
100
AcDbEntity
  8
1
100
AcDbLine
 10
-37.39999999999998
 20
-18.29999999999997
 30
0.0
 11
-39.10000000000002
 21
-19.99999999999999
 31
0.0
  0
LINE
  5
40DA
330
18
100
AcDbEntity
  8
1
100
AcDbLine
 10
-43.10000000000001
 20
-19.99999999999999
 30
0.0
 11
-43.70000000000003
 21
-19.99999999999999
 31
0.0
  0
LINE
  5
40DB
330
18
100
AcDbEntity
  8
1
100
AcDbLine
 10
-39.70000000000005
 20
-19.99999999999999
 30
0.0
 11
-41.39999999999997
 21
-18.29999999999997
 31
0.0
  0
LINE
  5
40DC
330
18
100
AcDbEntity
  8
1
100
AcDbLine
 10
-41.39999999999997
 20
-18.29999999999997
 30
0.0
 11
-43.10000000000001
 21
-19.99999999999999
 31
0.0
  0
LINE
  5
40DD
330
18
100
AcDbEntity
  8
1
100
AcDbLine
 10
-47.1
 20
-19.99999999999999
 30
0.0
 11
-47.70000000000004
 21
-19.99999999999999
 31
0.0
  0
LINE
  5
40DE
330
18
100
AcDbEntity
  8
1
100
AcDbLine
 10
-43.70000000000003
 20
-19.99999999999999
 30
0.0
 11
-45.39999999999998
 21
-18.29999999999997
 31
0.0
  0
LINE
  5
40DF
330
18
100
AcDbEntity
  8
1
100
AcDbLine
 10
-45.39999999999998
 20
-18.29999999999997
 30
0.0
 11
-47.1
 21
-19.99999999999999
 31
0.0
  0
LINE
  5
40E0
330
18
100
AcDbEntity
  8
1
100
AcDbLine
 10
-51.10000000000002
 20
-19.99999999999999
 30
0.0
 11
-51.70000000000005
 21
-19.99999999999999
 31
0.0
  0
LINE
  5
40E1
330
18
100
AcDbEntity
  8
1
100
AcDbLine
 10
-47.70000000000004
 20
-19.99999999999999
 30
0.0
 11
-49.40000000000011
 21
-18.29999999999997
 31
0.0
  0
LINE
  5
40E2
330
18
100
AcDbEntity
  8
1
100
AcDbLine
 10
-49.40000000000011
 20
-18.29999999999997
 30
0.0
 11
-51.10000000000002
 21
-19.99999999999999
 31
0.0
  0
LINE
  5
40E3
330
18
100
AcDbEntity
  8
1
100
AcDbLine
 10
-55.10000000000001
 20
-19.99999999999999
 30
0.0
 11
-55.70000000000003
 21
-19.99999999999999
 31
0.0
  0
LINE
  5
40E4
330
18
100
AcDbEntity
  8
1
100
AcDbLine
 10
-51.70000000000005
 20
-19.99999999999999
 30
0.0
 11
-53.4000000000001
 21
-18.29999999999997
 31
0.0
  0
LINE
  5
40E5
330
18
100
AcDbEntity
  8
1
100
AcDbLine
 10
-53.4000000000001
 20
-18.29999999999997
 30
0.0
 11
-55.10000000000001
 21
-19.99999999999999
 31
0.0
  0
LINE
  5
40E6
102
{ACAD_REACTORS
330
4526
102
}
330
18
100
AcDbEntity
  8
1
100
AcDbLine
 10
-59.10000000000001
 20
-19.99999999999999
 30
0.0
 11
-72.00000000000009
 21
-19.99999999999999
 31
0.0
  0
LINE
  5
40E7
330
18
100
AcDbEntity
  8
1
100
AcDbLine
 10
-55.70000000000003
 20
-19.99999999999999
 30
0.0
 11
-57.40000000000009
 21
-18.29999999999997
 31
0.0
  0
LINE
  5
40E8
330
18
100
AcDbEntity
  8
1
100
AcDbLine
 10
-57.40000000000009
 20
-18.29999999999997
 30
0.0
 11
-59.10000000000001
 21
-19.99999999999999
 31
0.0
  0
ARC
  5
40EA
330
18
100
AcDbEntity
  8
1
100
AcDbCircle
 10
44.0
 20
-29.99999999999999
 30
0.0
 40
9.000000000000008
100
AcDbArc
 50
233.0755657096987
 51
155.8794586621016
  0
ARC
  5
40EB
330
18
100
AcDbEntity
  8
1
100
AcDbCircle
 10
44.0
 20
-29.99999999999999
 30
0.0
 40
6.000000000000002
100
AcDbArc
 50
228.0348219479031
 51
160.9202024239981
  0
CIRCLE
  5
40EC
330
18
100
AcDbEntity
  8
1
100
AcDbCircle
 10
44.0
 20
-29.99999999999999
 30
0.0
 40
2.458499999999999
  0
LINE
  5
40ED
330
18
100
AcDbEntity
  8
1
100
AcDbLine
 10
38.5931491703999
 20
-37.19485678149998
 30
0.0
 11
39.28133889629999
 21
-36.46020412899999
 31
0.0
  0
LINE
  5
40EE
330
18
100
AcDbEntity
  8
1
100
AcDbLine
 10
36.74363865859993
 20
-26.63173337099999
 30
0.0
 11
35.78581046239992
 21
-26.32208071850002
 31
0.0
  0
ARC
  5
40EF
330
18
100
AcDbEntity
  8
1
100
AcDbCircle
 10
-10.04409117570003
 20
-45.19644273549999
 30
0.0
 40
50.33627019201353
100
AcDbArc
 50
21.07481067579924
 51
21.6424777372977
  0
ARC
  5
40F0
330
18
100
AcDbEntity
  8
1
100
AcDbCircle
 10
-9.089219200700084
 20
-42.60775369959996
 30
0.0
 40
48.75964782824911
100
AcDbArc
 50
7.243049527701325
 51
7.877196278399012
  0
ARC
  5
40F1
330
18
100
AcDbEntity
  8
1
100
AcDbCircle
 10
34.3175416345
 20
-32.5
 30
0.0
 40
6.350000000000001
100
AcDbArc
 50
76.63088867839727
 51
312.3241356935007
  0
POLYLINE
  5
40F2
330
18
100
AcDbEntity
  8
1
100
AcDb2dPolyline
 66
     1
 10
0.0
 20
0.0
 30
0.0
  0
VERTEX
  5
40F3
330
40F2
100
AcDbEntity
  8
1
100
AcDbVertex
100
AcDb2dVertex
 10
41.95394046349997
 20
-31.36303434419998
 30
0.0
  0
VERTEX
  5
40F4
330
40F2
100
AcDbEntity
  8
1
100
AcDbVertex
100
AcDb2dVertex
 10
41.9866896338999
 20
-31.36042635599999
 30
0.0
  0
VERTEX
  5
40F5
330
40F2
100
AcDbEntity
  8
1
100
AcDbVertex
100
AcDb2dVertex
 10
42.01944184690001
 20
-31.3577266608
 30
0.0
  0
VERTEX
  5
40F6
330
40F2
100
AcDbEntity
  8
1
100
AcDbVertex
100
AcDb2dVertex
 10
42.05219882499998
 20
-31.35493690649999
 30
0.0
  0
VERTEX
  5
40F7
330
40F2
100
AcDbEntity
  8
1
100
AcDbVertex
100
AcDb2dVertex
 10
42.08496229089996
 20
-31.352058741
 30
0.0
  0
VERTEX
  5
40F8
330
40F2
100
AcDbEntity
  8
1
100
AcDbVertex
100
AcDb2dVertex
 10
42.11773396709998
 20
-31.3490938124
 30
0.0
  0
VERTEX
  5
40F9
330
40F2
100
AcDbEntity
  8
1
100
AcDbVertex
100
AcDb2dVertex
 10
42.15051557629999
 20
-31.34604376859999
 30
0.0
  0
VERTEX
  5
40FA
330
40F2
100
AcDbEntity
  8
1
100
AcDbVertex
100
AcDb2dVertex
 10
42.18330884099997
 20
-31.3429102576
 30
0.0
  0
VERTEX
  5
40FB
330
40F2
100
AcDbEntity
  8
1
100
AcDbVertex
100
AcDb2dVertex
 10
42.21611548399994
 20
-31.33969492719998
 30
0.0
  0
VERTEX
  5
40FC
330
40F2
100
AcDbEntity
  8
1
100
AcDbVertex
100
AcDb2dVertex
 10
42.2489372276999
 20
-31.3363994256
 30
0.0
  0
VERTEX
  5
40FD
330
40F2
100
AcDbEntity
  8
1
100
AcDbVertex
100
AcDb2dVertex
 10
42.28177579479996
 20
-31.3330254006
 30
0.0
  0
VERTEX
  5
40FE
330
40F2
100
AcDbEntity
  8
1
100
AcDbVertex
100
AcDb2dVertex
 10
42.31463290779993
 20
-31.3295745002
 30
0.0
  0
VERTEX
  5
40FF
330
40F2
100
AcDbEntity
  8
1
100
AcDbVertex
100
AcDb2dVertex
 10
42.34751028940002
 20
-31.32604837249999
 30
0.0
  0
VERTEX
  5
4100
330
40F2
100
AcDbEntity
  8
1
100
AcDbVertex
100
AcDb2dVertex
 10
42.38040966219999
 20
-31.32244866519999
 30
0.0
  0
VERTEX
  5
4101
330
40F2
100
AcDbEntity
  8
1
100
AcDbVertex
100
AcDb2dVertex
 10
42.41333274879989
 20
-31.31877702649998
 30
0.0
  0
VERTEX
  5
4102
330
40F2
100
AcDbEntity
  8
1
100
AcDbVertex
100
AcDb2dVertex
 10
42.44628127179999
 20
-31.31503510429999
 30
0.0
  0
VERTEX
  5
4103
330
40F2
100
AcDbEntity
  8
1
100
AcDbVertex
100
AcDb2dVertex
 10
42.47925695369997
 20
-31.31122454649999
 30
0.0
  0
VERTEX
  5
4104
330
40F2
100
AcDbEntity
  8
1
100
AcDbVertex
100
AcDb2dVertex
 10
42.51226151729997
 20
-31.30734700119998
 30
0.0
  0
VERTEX
  5
4105
330
40F2
100
AcDbEntity
  8
1
100
AcDbVertex
100
AcDb2dVertex
 10
42.54529668499992
 20
-31.30340411619999
 30
0.0
  0
VERTEX
  5
4106
330
40F2
100
AcDbEntity
  8
1
100
AcDbVertex
100
AcDb2dVertex
 10
42.5783641795
 20
-31.29939753959999
 30
0.0
  0
VERTEX
  5
4107
330
40F2
100
AcDbEntity
  8
1
100
AcDbVertex
100
AcDb2dVertex
 10
42.61146572339998
 20
-31.29532891920001
 30
0.0
  0
VERTEX
  5
4108
330
40F2
100
AcDbEntity
  8
1
100
AcDbVertex
100
AcDb2dVertex
 10
42.64460303930002
 20
-31.2911999032
 30
0.0
  0
VERTEX
  5
4109
330
40F2
100
AcDbEntity
  8
1
100
AcDbVertex
100
AcDb2dVertex
 10
42.6777778498
 20
-31.28701213940001
 30
0.0
  0
VERTEX
  5
410A
330
40F2
100
AcDbEntity
  8
1
100
AcDbVertex
100
AcDb2dVertex
 10
42.71099187749996
 20
-31.2827672758
 30
0.0
  0
VERTEX
  5
410B
330
40F2
100
AcDbEntity
  8
1
100
AcDbVertex
100
AcDb2dVertex
 10
42.74424684500002
 20
-31.27846696030001
 30
0.0
  0
VERTEX
  5
410C
330
40F2
100
AcDbEntity
  8
1
100
AcDbVertex
100
AcDb2dVertex
 10
42.77754447489996
 20
-31.27411284099999
 30
0.0
  0
VERTEX
  5
410D
330
40F2
100
AcDbEntity
  8
1
100
AcDbVertex
100
AcDb2dVertex
 10
42.81088648979994
 20
-31.26970656579998
 30
0.0
  0
VERTEX
  5
410E
330
40F2
100
AcDbEntity
  8
1
100
AcDbVertex
100
AcDb2dVertex
 10
42.84427461229995
 20
-31.2652497827
 30
0.0
  0
VERTEX
  5
410F
330
40F2
100
AcDbEntity
  8
1
100
AcDbVertex
100
AcDb2dVertex
 10
42.87771056509996
 20
-31.2607441396
 30
0.0
  0
VERTEX
  5
4110
330
40F2
100
AcDbEntity
  8
1
100
AcDbVertex
100
AcDb2dVertex
 10
42.91119607059999
 20
-31.25619128449999
 30
0.0
  0
VERTEX
  5
4111
330
40F2
100
AcDbEntity
  8
1
100
AcDbVertex
100
AcDb2dVertex
 10
42.94473285149989
 20
-31.2515928653
 30
0.0
  0
VERTEX
  5
4112
330
40F2
100
AcDbEntity
  8
1
100
AcDbVertex
100
AcDb2dVertex
 10
42.97831877499993
 20
-31.24695210209997
 30
0.0
  0
VERTEX
  5
4113
330
40F2
100
AcDbEntity
  8
1
100
AcDbVertex
100
AcDb2dVertex
 10
43.0119561458
 20
-31.24227772689998
 30
0.0
  0
VERTEX
  5
4114
330
40F2
100
AcDbEntity
  8
1
100
AcDbVertex
100
AcDb2dVertex
 10
43.04565334319999
 20
-31.23757965579999
 30
0.0
  0
VERTEX
  5
4115
330
40F2
100
AcDbEntity
  8
1
100
AcDbVertex
100
AcDb2dVertex
 10
43.0794187463
 20
-31.2328678048
 30
0.0
  0
VERTEX
  5
4116
330
40F2
100
AcDbEntity
  8
1
100
AcDbVertex
100
AcDb2dVertex
 10
43.1132607341999
 20
-31.22815209
 30
0.0
  0
VERTEX
  5
4117
330
40F2
100
AcDbEntity
  8
1
100
AcDbVertex
100
AcDb2dVertex
 10
43.14718768629997
 20
-31.22344242760001
 30
0.0
  0
VERTEX
  5
4118
330
40F2
100
AcDbEntity
  8
1
100
AcDbVertex
100
AcDb2dVertex
 10
43.18120798159998
 20
-31.21874873369997
 30
0.0
  0
VERTEX
  5
4119
330
40F2
100
AcDbEntity
  8
1
100
AcDbVertex
100
AcDb2dVertex
 10
43.21532999929991
 20
-31.21408092430002
 30
0.0
  0
VERTEX
  5
411A
330
40F2
100
AcDbEntity
  8
1
100
AcDbVertex
100
AcDb2dVertex
 10
43.2495621186
 20
-31.20944891539999
 30
0.0
  0
VERTEX
  5
411B
330
40F2
100
AcDbEntity
  8
1
100
AcDbVertex
100
AcDb2dVertex
 10
43.28391271879989
 20
-31.20486262330001
 30
0.0
  0
VERTEX
  5
411C
330
40F2
100
AcDbEntity
  8
1
100
AcDbVertex
100
AcDb2dVertex
 10
43.31839017879997
 20
-31.200331964
 30
0.0
  0
VERTEX
  5
411D
330
40F2
100
AcDbEntity
  8
1
100
AcDbVertex
100
AcDb2dVertex
 10
43.35300287809991
 20
-31.19586685360002
 30
0.0
  0
VERTEX
  5
411E
330
40F2
100
AcDbEntity
  8
1
100
AcDbVertex
100
AcDb2dVertex
 10
43.38775919559997
 20
-31.19147720809999
 30
0.0
  0
VERTEX
  5
411F
330
40F2
100
AcDbEntity
  8
1
100
AcDbVertex
100
AcDb2dVertex
 10
43.42266751069995
 20
-31.1871729437
 30
0.0
  0
VERTEX
  5
4120
330
40F2
100
AcDbEntity
  8
1
100
AcDbVertex
100
AcDb2dVertex
 10
43.45773620239993
 20
-31.18296397649998
 30
0.0
  0
VERTEX
  5
4121
330
40F2
100
AcDbEntity
  8
1
100
AcDbVertex
100
AcDb2dVertex
 10
43.49298362859996
 20
-31.17887579
 30
0.0
  0
VERTEX
  5
4122
330
40F2
100
AcDbEntity
  8
1
100
AcDbVertex
100
AcDb2dVertex
 10
43.52841586119995
 20
-31.17494013559999
 30
0.0
  0
VERTEX
  5
4123
330
40F2
100
AcDbEntity
  8
1
100
AcDbVertex
100
AcDb2dVertex
 10
43.56402285019997
 20
-31.17117633129999
 30
0.0
  0
VERTEX
  5
4124
330
40F2
100
AcDbEntity
  8
1
100
AcDbVertex
100
AcDb2dVertex
 10
43.59979454569997
 20
-31.1676036947
 30
0.0
  0
VERTEX
  5
4125
330
40F2
100
AcDbEntity
  8
1
100
AcDbVertex
100
AcDb2dVertex
 10
43.63572089779995
 20
-31.16424154369999
 30
0.0
  0
VERTEX
  5
4126
330
40F2
100
AcDbEntity
  8
1
100
AcDbVertex
100
AcDb2dVertex
 10
43.6717918564999
 20
-31.16110919609999
 30
0.0
  0
VERTEX
  5
4127
330
40F2
100
AcDbEntity
  8
1
100
AcDbVertex
100
AcDb2dVertex
 10
43.70799737200003
 20
-31.15822596969999
 30
0.0
  0
VERTEX
  5
4128
330
40F2
100
AcDbEntity
  8
1
100
AcDbVertex
100
AcDb2dVertex
 10
43.74432739429994
 20
-31.1556111822
 30
0.0
  0
VERTEX
  5
4129
330
40F2
100
AcDbEntity
  8
1
100
AcDbVertex
100
AcDb2dVertex
 10
43.78077187349993
 20
-31.1532841515
 30
0.0
  0
VERTEX
  5
412A
330
40F2
100
AcDbEntity
  8
1
100
AcDbVertex
100
AcDb2dVertex
 10
43.81732075970001
 20
-31.1512641955
 30
0.0
  0
VERTEX
  5
412B
330
40F2
100
AcDbEntity
  8
1
100
AcDbVertex
100
AcDb2dVertex
 10
43.85396400299997
 20
-31.14957063179999
 30
0.0
  0
VERTEX
  5
412C
330
40F2
100
AcDbEntity
  8
1
100
AcDbVertex
100
AcDb2dVertex
 10
43.89069155339996
 20
-31.1482227783
 30
0.0
  0
VERTEX
  5
412D
330
40F2
100
AcDbEntity
  8
1
100
AcDbVertex
100
AcDb2dVertex
 10
43.92749336099996
 20
-31.14723995280001
 30
0.0
  0
VERTEX
  5
412E
330
40F2
100
AcDbEntity
  8
1
100
AcDbVertex
100
AcDb2dVertex
 10
43.96435937590001
 20
-31.1466414731
 30
0.0
  0
VERTEX
  5
412F
330
40F2
100
AcDbEntity
  8
1
100
AcDbVertex
100
AcDb2dVertex
 10
44.00127954829996
 20
-31.14644665699997
 30
0.0
  0
VERTEX
  5
4130
330
40F2
100
AcDbEntity
  8
1
100
AcDbVertex
100
AcDb2dVertex
 10
44.03829455089999
 20
-31.14666434789997
 30
0.0
  0
VERTEX
  5
4131
330
40F2
100
AcDbEntity
  8
1
100
AcDbVertex
100
AcDb2dVertex
 10
44.07540717849996
 20
-31.14727966930001
 30
0.0
  0
VERTEX
  5
4132
330
40F2
100
AcDbEntity
  8
1
100
AcDbVertex
100
AcDb2dVertex
 10
44.11255056399999
 20
-31.14827635949998
 30
0.0
  0
VERTEX
  5
4133
330
40F2
100
AcDbEntity
  8
1
100
AcDbVertex
100
AcDb2dVertex
 10
44.14965784029994
 20
-31.14963815679999
 30
0.0
  0
VERTEX
  5
4134
330
40F2
100
AcDbEntity
  8
1
100
AcDbVertex
100
AcDb2dVertex
 10
44.18666214019991
 20
-31.1513487994
 30
0.0
  0
VERTEX
  5
4135
330
40F2
100
AcDbEntity
  8
1
100
AcDbVertex
100
AcDb2dVertex
 10
44.22349659659994
 20
-31.15339202559999
 30
0.0
  0
VERTEX
  5
4136
330
40F2
100
AcDbEntity
  8
1
100
AcDbVertex
100
AcDb2dVertex
 10
44.2600943425
 20
-31.15575157369999
 30
0.0
  0
VERTEX
  5
4137
330
40F2
100
AcDbEntity
  8
1
100
AcDbVertex
100
AcDb2dVertex
 10
44.29640426959998
 20
-31.15840903779999
 30
0.0
  0
VERTEX
  5
4138
330
40F2
100
AcDbEntity
  8
1
100
AcDbVertex
100
AcDb2dVertex
 10
44.33248379859992
 20
-31.16133366799999
 30
0.0
  0
VERTEX
  5
4139
330
40F2
100
AcDbEntity
  8
1
100
AcDbVertex
100
AcDb2dVertex
 10
44.36835780619992
 20
-31.1645029084
 30
0.0
  0
VERTEX
  5
413A
330
40F2
100
AcDbEntity
  8
1
100
AcDbVertex
100
AcDb2dVertex
 10
44.40403871439992
 20
-31.1678961668
 30
0.0
  0
VERTEX
  5
413B
330
40F2
100
AcDbEntity
  8
1
100
AcDbVertex
100
AcDb2dVertex
 10
44.43953894469996
 20
-31.1714928508
 30
0.0
  0
VERTEX
  5
413C
330
40F2
100
AcDbEntity
  8
1
100
AcDbVertex
100
AcDb2dVertex
 10
44.47487091889991
 20
-31.17527236809999
 30
0.0
  0
VERTEX
  5
413D
330
40F2
100
AcDbEntity
  8
1
100
AcDbVertex
100
AcDb2dVertex
 10
44.51004705870002
 20
-31.17921412660001
 30
0.0
  0
VERTEX
  5
413E
330
40F2
100
AcDbEntity
  8
1
100
AcDbVertex
100
AcDb2dVertex
 10
44.54507978579999
 20
-31.18329753389999
 30
0.0
  0
VERTEX
  5
413F
330
40F2
100
AcDbEntity
  8
1
100
AcDbVertex
100
AcDb2dVertex
 10
44.57998597259996
 20
-31.1874980146
 30
0.0
  0
VERTEX
  5
4140
330
40F2
100
AcDbEntity
  8
1
100
AcDbVertex
100
AcDb2dVertex
 10
44.61477603969989
 20
-31.1917977031
 30
0.0
  0
VERTEX
  5
4141
330
40F2
100
AcDbEntity
  8
1
100
AcDbVertex
100
AcDb2dVertex
 10
44.64945273109992
 20
-31.1961860723
 30
0.0
  0
VERTEX
  5
4142
330
40F2
100
AcDbEntity
  8
1
100
AcDbVertex
100
AcDb2dVertex
 10
44.68401879049998
 20
-31.2006525948
 30
0.0
  0
VERTEX
  5
4143
330
40F2
100
AcDbEntity
  8
1
100
AcDbVertex
100
AcDb2dVertex
 10
44.71847696179996
 20
-31.20518674329999
 30
0.0
  0
VERTEX
  5
4144
330
40F2
100
AcDbEntity
  8
1
100
AcDbVertex
100
AcDb2dVertex
 10
44.75282998879992
 20
-31.20977799059999
 30
0.0
  0
VERTEX
  5
4145
330
40F2
100
AcDbEntity
  8
1
100
AcDbVertex
100
AcDb2dVertex
 10
44.7870806154999
 20
-31.2144158094
 30
0.0
  0
VERTEX
  5
4146
330
40F2
100
AcDbEntity
  8
1
100
AcDbVertex
100
AcDb2dVertex
 10
44.82123158579997
 20
-31.21908967239999
 30
0.0
  0
VERTEX
  5
4147
330
40F2
100
AcDbEntity
  8
1
100
AcDbVertex
100
AcDb2dVertex
 10
44.85528564329989
 20
-31.22378905229998
 30
0.0
  0
VERTEX
  5
4148
330
40F2
100
AcDbEntity
  8
1
100
AcDbVertex
100
AcDb2dVertex
 10
44.88924553219999
 20
-31.2285034218
 30
0.0
  0
VERTEX
  5
4149
330
40F2
100
AcDbEntity
  8
1
100
AcDbVertex
100
AcDb2dVertex
 10
44.92311399609991
 20
-31.2332222537
 30
0.0
  0
VERTEX
  5
414A
330
40F2
100
AcDbEntity
  8
1
100
AcDbVertex
100
AcDb2dVertex
 10
44.95689377889994
 20
-31.23793502059998
 30
0.0
  0
VERTEX
  5
414B
330
40F2
100
AcDbEntity
  8
1
100
AcDbVertex
100
AcDb2dVertex
 10
44.99058762459992
 20
-31.24263119530001
 30
0.0
  0
VERTEX
  5
414C
330
40F2
100
AcDbEntity
  8
1
100
AcDbVertex
100
AcDb2dVertex
 10
45.02419827689993
 20
-31.24730025049998
 30
0.0
  0
VERTEX
  5
414D
330
40F2
100
AcDbEntity
  8
1
100
AcDbVertex
100
AcDb2dVertex
 10
45.05772847979994
 20
-31.25193165889998
 30
0.0
  0
VERTEX
  5
414E
330
40F2
100
AcDbEntity
  8
1
100
AcDbVertex
100
AcDb2dVertex
 10
45.09119190499996
 20
-31.25651831639998
 30
0.0
  0
VERTEX
  5
414F
330
40F2
100
AcDbEntity
  8
1
100
AcDbVertex
100
AcDb2dVertex
 10
45.12460167059996
 20
-31.26105906509999
 30
0.0
  0
VERTEX
  5
4150
330
40F2
100
AcDbEntity
  8
1
100
AcDbVertex
100
AcDb2dVertex
 10
45.15795969069993
 20
-31.2655522976
 30
0.0
  0
VERTEX
  5
4151
330
40F2
100
AcDbEntity
  8
1
100
AcDbVertex
100
AcDb2dVertex
 10
45.19126787899995
 20
-31.26999640619998
 30
0.0
  0
VERTEX
  5
4152
330
40F2
100
AcDbEntity
  8
1
100
AcDbVertex
100
AcDb2dVertex
 10
45.22452814939993
 20
-31.2743897834
 30
0.0
  0
VERTEX
  5
4153
330
40F2
100
AcDbEntity
  8
1
100
AcDbVertex
100
AcDb2dVertex
 10
45.25774241569989
 20
-31.2787308215
 30
0.0
  0
VERTEX
  5
4154
330
40F2
100
AcDbEntity
  8
1
100
AcDbVertex
100
AcDb2dVertex
 10
45.29091259170002
 20
-31.2830179132
 30
0.0
  0
VERTEX
  5
4155
330
40F2
100
AcDbEntity
  8
1
100
AcDbVertex
100
AcDb2dVertex
 10
45.32404059129999
 20
-31.28724945059999
 30
0.0
  0
VERTEX
  5
4156
330
40F2
100
AcDbEntity
  8
1
100
AcDbVertex
100
AcDb2dVertex
 10
45.35712832820002
 20
-31.29142382629999
 30
0.0
  0
VERTEX
  5
4157
330
40F2
100
AcDbEntity
  8
1
100
AcDbVertex
100
AcDb2dVertex
 10
45.3901777164
 20
-31.2955394328
 30
0.0
  0
VERTEX
  5
4158
330
40F2
100
AcDbEntity
  8
1
100
AcDbVertex
100
AcDb2dVertex
 10
45.42319066959999
 20
-31.29959466229998
 30
0.0
  0
VERTEX
  5
4159
330
40F2
100
AcDbEntity
  8
1
100
AcDbVertex
100
AcDb2dVertex
 10
45.45616910169997
 20
-31.30358790740001
 30
0.0
  0
VERTEX
  5
415A
330
40F2
100
AcDbEntity
  8
1
100
AcDbVertex
100
AcDb2dVertex
 10
45.48911492649994
 20
-31.3075175605
 30
0.0
  0
VERTEX
  5
415B
330
40F2
100
AcDbEntity
  8
1
100
AcDbVertex
100
AcDb2dVertex
 10
45.52203005779995
 20
-31.31138201399999
 30
0.0
  0
VERTEX
  5
415C
330
40F2
100
AcDbEntity
  8
1
100
AcDbVertex
100
AcDb2dVertex
 10
45.55491640959997
 20
-31.3151796603
 30
0.0
  0
VERTEX
  5
415D
330
40F2
100
AcDbEntity
  8
1
100
AcDbVertex
100
AcDb2dVertex
 10
45.58777589549992
 20
-31.3189088919
 30
0.0
  0
VERTEX
  5
415E
330
40F2
100
AcDbEntity
  8
1
100
AcDbVertex
100
AcDb2dVertex
 10
45.62061042949994
 20
-31.32256810119999
 30
0.0
  0
VERTEX
  5
415F
330
40F2
100
AcDbEntity
  8
1
100
AcDbVertex
100
AcDb2dVertex
 10
45.65342192539993
 20
-31.32615568049998
 30
0.0
  0
VERTEX
  5
4160
330
40F2
100
AcDbEntity
  8
1
100
AcDbVertex
100
AcDb2dVertex
 10
45.68621229689996
 20
-31.32967002239999
 30
0.0
  0
VERTEX
  5
4161
330
40F2
100
AcDbEntity
  8
1
100
AcDbVertex
100
AcDb2dVertex
 10
45.71898345799989
 20
-31.33310951929999
 30
0.0
  0
VERTEX
  5
4162
330
40F2
100
AcDbEntity
  8
1
100
AcDbVertex
100
AcDb2dVertex
 10
45.75173732249993
 20
-31.33647256349999
 30
0.0
  0
VERTEX
  5
4163
330
40F2
100
AcDbEntity
  8
1
100
AcDbVertex
100
AcDb2dVertex
 10
45.78447580419992
 20
-31.33975754760002
 30
0.0
  0
VERTEX
  5
4164
330
40F2
100
AcDbEntity
  8
1
100
AcDbVertex
100
AcDb2dVertex
 10
45.81720081689991
 20
-31.34296286379997
 30
0.0
  0
VERTEX
  5
4165
330
40F2
100
AcDbEntity
  8
1
100
AcDbVertex
100
AcDb2dVertex
 10
45.84991427440002
 20
-31.34608690479999
 30
0.0
  0
VERTEX
  5
4166
330
40F2
100
AcDbEntity
  8
1
100
AcDbVertex
100
AcDb2dVertex
 10
45.88261809070004
 20
-31.34912806280001
 30
0.0
  0
VERTEX
  5
4167
330
40F2
100
AcDbEntity
  8
1
100
AcDbVertex
100
AcDb2dVertex
 10
45.91531417939996
 20
-31.3520847304
 30
0.0
  0
VERTEX
  5
4168
330
40F2
100
AcDbEntity
  8
1
100
AcDbVertex
100
AcDb2dVertex
 10
45.94800445459997
 20
-31.35495529979999
 30
0.0
  0
VERTEX
  5
4169
330
40F2
100
AcDbEntity
  8
1
100
AcDbVertex
100
AcDb2dVertex
 10
45.98069082990003
 20
-31.35773816369998
 30
0.0
  0
VERTEX
  5
416A
330
40F2
100
AcDbEntity
  8
1
100
AcDbVertex
100
AcDb2dVertex
 10
46.01337521919993
 20
-31.3604317143
 30
0.0
  0
VERTEX
  5
416B
330
40F2
100
AcDbEntity
  8
1
100
AcDbVertex
100
AcDb2dVertex
 10
46.04605953639996
 20
-31.36303434419998
 30
0.0
  0
SEQEND
  5
416C
330
40F2
100
AcDbEntity
  8
1
  0
LINE
  5
416D
330
18
100
AcDbEntity
  8
1
100
AcDbLine
 10
31.5
 20
25.00000000000001
 30
0.0
 11
54.0
 21
25.00000000000001
 31
0.0
  0
LINE
  5
416E
330
18
100
AcDbEntity
  8
1
100
AcDbLine
 10
55.0
 20
47.58578643760002
 30
0.0
 11
55.0
 21
49.00000000000002
 31
0.0
  0
LINE
  5
416F
330
18
100
AcDbEntity
  8
1
100
AcDbLine
 10
55.0
 20
26.00000000000001
 30
0.0
 11
55.0
 21
27.4142135624
 31
0.0
  0
LINE
  5
4170
330
18
100
AcDbEntity
  8
1
100
AcDbLine
 10
55.0
 20
27.4142135624
 30
0.0
 11
55.0
 21
47.58578643760002
 31
0.0
  0
LINE
  5
4171
330
18
100
AcDbEntity
  8
1
100
AcDbLine
 10
55.0
 20
-47.58578643759999
 30
0.0
 11
55.0
 21
-21.04619929169998
 31
0.0
  0
LINE
  5
4172
330
18
100
AcDbEntity
  8
1
100
AcDbLine
 10
55.0
 20
-48.99999999999998
 30
0.0
 11
55.0
 21
-47.58578643759999
 31
0.0
  0
LINE
  5
4173
330
18
100
AcDbEntity
  8
1
100
AcDbLine
 10
54.0
 20
27.00000000000001
 30
0.0
 11
31.5
 21
27.00000000000001
 31
0.0
  0
LINE
  5
4174
330
18
100
AcDbEntity
  8
1
100
AcDbLine
 10
54.0
 20
27.00000000000001
 30
0.0
 11
54.0
 21
25.00000000000001
 31
0.0
  0
LINE
  5
4175
330
18
100
AcDbEntity
  8
1
100
AcDbLine
 10
54.0
 20
-47.99999999999998
 30
0.0
 11
1.5
 21
-47.99999999999998
 31
0.0
  0
LINE
  5
4176
330
18
100
AcDbEntity
  8
1
100
AcDbLine
 10
54.0
 20
-47.99999999999998
 30
0.0
 11
54.0
 21
-50.0
 31
0.0
  0
LINE
  5
4177
330
18
100
AcDbEntity
  8
1
100
AcDbLine
 10
54.0
 20
50.0
 30
0.0
 11
1.5
 21
50.0
 31
0.0
  0
LINE
  5
4178
330
18
100
AcDbEntity
  8
1
100
AcDbLine
 10
54.0
 20
50.0
 30
0.0
 11
54.0
 21
48.0
 31
0.0
  0
LINE
  5
4179
330
18
100
AcDbEntity
  8
1
100
AcDbLine
 10
0.0
 20
-48.99999999999998
 30
0.0
 11
0.0
 21
48.73242271070004
 31
0.0
  0
POLYLINE
  5
417A
102
{ACAD_REACTORS
330
44C0
330
44D8
102
}
330
18
100
AcDbEntity
  8
1
100
AcDb2dPolyline
 66
     1
 10
0.0
 20
0.0
 30
0.0
  0
VERTEX
  5
417B
102
{ACAD_REACTORS
330
44C0
330
44D8
102
}
330
417A
100
AcDbEntity
  8
1
100
AcDbVertex
100
AcDb2dVertex
 10
0.0
 20
48.73242271070004
 30
0.0
  0
VERTEX
  5
417C
330
417A
100
AcDbEntity
  8
1
100
AcDbVertex
100
AcDb2dVertex
 10
0.2550500629999988
 20
48.8028436179
 30
0.0
  0
VERTEX
  5
417D
330
417A
100
AcDbEntity
  8
1
100
AcDbVertex
100
AcDb2dVertex
 10
0.5
 20
48.86254977780002
 30
0.0
  0
SEQEND
  5
417E
330
417A
100
AcDbEntity
  8
1
  0
LINE
  5
417F
330
18
100
AcDbEntity
  8
1
100
AcDbLine
 10
54.0
 20
48.0
 30
0.0
 11
54.0
 21
27.00000000000001
 31
0.0
  0
LINE
  5
4180
102
{ACAD_REACTORS
330
44C0
102
}
330
18
100
AcDbEntity
  8
1
100
AcDbLine
 10
54.0
 20
50.0
 30
0.0
 11
55.0
 21
49.00000000000002
 31
0.0
  0
LINE
  5
4181
330
18
100
AcDbEntity
  8
1
100
AcDbLine
 10
54.0
 20
48.0
 30
0.0
 11
55.0
 21
47.58578643760002
 31
0.0
  0
LINE
  5
4182
330
18
100
AcDbEntity
  8
1
100
AcDbLine
 10
54.0
 20
27.00000000000001
 30
0.0
 11
55.0
 21
27.4142135624
 31
0.0
  0
LINE
  5
4183
330
18
100
AcDbEntity
  8
1
100
AcDbLine
 10
54.0
 20
25.00000000000001
 30
0.0
 11
55.0
 21
26.00000000000001
 31
0.0
  0
LINE
  5
4184
330
18
100
AcDbEntity
  8
1
100
AcDbLine
 10
55.0
 20
-48.99999999999998
 30
0.0
 11
54.0
 21
-50.0
 31
0.0
  0
LINE
  5
4185
330
18
100
AcDbEntity
  8
1
100
AcDbLine
 10
55.0
 20
-47.58578643759999
 30
0.0
 11
54.0
 21
-47.99999999999998
 31
0.0
  0
LINE
  5
4186
102
{ACAD_REACTORS
330
44A8
102
}
330
18
100
AcDbEntity
  8
1
100
AcDbLine
 10
55.0
 20
-21.04619929169998
 30
0.0
 11
54.25372692409997
 21
-20.2026910234
 31
0.0
  0
LINE
  5
4187
330
18
100
AcDbEntity
  8
1
100
AcDbLine
 10
54.0
 20
-20.42716964360002
 30
0.0
 11
54.0
 21
-47.99999999999998
 31
0.0
  0
LINE
  5
4188
330
18
100
AcDbEntity
  8
1
100
AcDbLine
 10
29.5
 20
27.00000000000001
 30
0.0
 11
29.5
 21
-16.62269516329998
 31
0.0
  0
ARC
  5
4189
330
18
100
AcDbEntity
  8
1
100
AcDbCircle
 10
30.39999999999998
 20
-16.62269516329998
 30
0.0
 40
0.8999999999999909
100
AcDbArc
 50
180.0
 51
263.0000000000006
  0
LINE
  5
418A
330
18
100
AcDbEntity
  8
1
100
AcDbLine
 10
30.29031759089992
 20
-17.5159866998
 30
0.0
 11
54.0
 21
-20.42716964360002
 31
0.0
  0
LINE
  5
418B
330
18
100
AcDbEntity
  8
1
100
AcDbLine
 10
54.0
 20
-20.42716964360002
 30
0.0
 11
54.25372692409997
 21
-20.2026910234
 31
0.0
  0
LINE
  5
418C
330
18
100
AcDbEntity
  8
1
100
AcDbLine
 10
54.25372692409997
 20
-20.2026910234
 30
0.0
 11
54.00745384829995
 21
-19.92432994829998
 31
0.0
  0
LINE
  5
418D
330
18
100
AcDbEntity
  8
1
100
AcDbLine
 10
54.00745384829995
 20
-19.92432994829998
 30
0.0
 11
30.35125226259993
 21
-17.01971362399998
 31
0.0
  0
ARC
  5
418E
330
18
100
AcDbEntity
  8
1
100
AcDbCircle
 10
30.39999999999998
 20
-16.62269516329998
 30
0.0
 40
0.4000000000000006
100
AcDbArc
 50
180.0
 51
263.0000000000006
  0
LINE
  5
418F
330
18
100
AcDbEntity
  8
1
100
AcDbLine
 10
30.0
 20
-16.62269516329998
 30
0.0
 11
30.0
 21
26.50000000000001
 31
0.0
  0
LINE
  5
4190
330
18
100
AcDbEntity
  8
1
100
AcDbLine
 10
30.0
 20
26.50000000000001
 30
0.0
 11
29.5
 21
27.00000000000001
 31
0.0
  0
LINE
  5
4191
330
18
100
AcDbEntity
  8
1
100
AcDbLine
 10
0.5
 20
0.0000000000000107
 30
0.0
 11
0.5
 21
-47.58578643759999
 31
0.0
  0
LINE
  5
4192
330
18
100
AcDbEntity
  8
1
100
AcDbLine
 10
0.5
 20
47.58578643760002
 30
0.0
 11
0.5
 21
0.0000000000000107
 31
0.0
  0
LINE
  5
4193
330
18
100
AcDbEntity
  8
1
100
AcDbLine
 10
0.5
 20
49.00000000000002
 30
0.0
 11
0.5
 21
47.58578643760002
 31
0.0
  0
LINE
  5
4194
330
18
100
AcDbEntity
  8
1
100
AcDbLine
 10
0.5
 20
-47.58578643759999
 30
0.0
 11
0.5
 21
-48.99999999999998
 31
0.0
  0
LINE
  5
4195
330
18
100
AcDbEntity
  8
1
100
AcDbLine
 10
1.5
 20
-50.0
 30
0.0
 11
54.0
 21
-50.0
 31
0.0
  0
LINE
  5
4196
330
18
100
AcDbEntity
  8
1
100
AcDbLine
 10
1.5
 20
-50.0
 30
0.0
 11
1.5
 21
-47.99999999999998
 31
0.0
  0
LINE
  5
4197
330
18
100
AcDbEntity
  8
1
100
AcDbLine
 10
1.5
 20
48.0
 30
0.0
 11
54.0
 21
48.0
 31
0.0
  0
LINE
  5
4198
330
18
100
AcDbEntity
  8
1
100
AcDbLine
 10
1.5
 20
48.0
 30
0.0
 11
1.5
 21
50.0
 31
0.0
  0
LINE
  5
4199
330
18
100
AcDbEntity
  8
1
100
AcDbLine
 10
1.5
 20
-47.99999999999998
 30
0.0
 11
1.5
 21
48.0
 31
0.0
  0
LINE
  5
419A
330
18
100
AcDbEntity
  8
1
100
AcDbLine
 10
0.5
 20
49.00000000000002
 30
0.0
 11
1.5
 21
50.0
 31
0.0
  0
LINE
  5
419B
330
18
100
AcDbEntity
  8
1
100
AcDbLine
 10
0.5
 20
47.58578643760002
 30
0.0
 11
1.5
 21
48.0
 31
0.0
  0
LINE
  5
419C
330
18
100
AcDbEntity
  8
1
100
AcDbLine
 10
0.5
 20
-47.58578643759999
 30
0.0
 11
1.5
 21
-47.99999999999998
 31
0.0
  0
LINE
  5
419D
330
18
100
AcDbEntity
  8
1
100
AcDbLine
 10
0.5
 20
-48.99999999999998
 30
0.0
 11
1.5
 21
-50.0
 31
0.0
  0
LINE
  5
419E
330
18
100
AcDbEntity
  8
1
100
AcDbLine
 10
-75.0000000000001
 20
19.50000000000001
 30
0.0
 11
-75.0000000000001
 21
-19.49999999999999
 31
0.0
  0
LINE
  5
419F
102
{ACAD_REACTORS
330
4526
102
}
330
18
100
AcDbEntity
  8
1
100
AcDbLine
 10
-74.50000000000009
 20
20.00000000000001
 30
0.0
 11
-72.00000000000009
 21
20.00000000000001
 31
0.0
  0
LINE
  5
41A0
102
{ACAD_REACTORS
330
44A8
102
}
330
18
100
AcDbEntity
  8
1
100
AcDbLine
 10
-75.0000000000001
 20
19.50000000000001
 30
0.0
 11
-74.50000000000009
 21
20.00000000000001
 31
0.0
  0
LINE
  5
41A1
330
18
100
AcDbEntity
  8
1
100
AcDbLine
 10
-74.50000000000009
 20
-19.99999999999999
 30
0.0
 11
-75.0000000000001
 21
-19.49999999999999
 31
0.0
  0
LINE
  5
41A2
102
{ACAD_REACTORS
330
44D8
102
}
330
18
100
AcDbEntity
  8
1
100
AcDbLine
 10
30.0
 20
27.00000000000001
 30
0.0
 11
29.5
 21
27.00000000000001
 31
0.0
  0
LINE
  5
41A3
330
18
100
AcDbEntity
  8
1
100
AcDbLine
 10
30.0
 20
27.21213203440003
 30
0.0
 11
31.5
 21
27.21213203440003
 31
0.0
  0
LINE
  5
41A4
330
18
100
AcDbEntity
  8
1
100
AcDbLine
 10
30.0
 20
26.50000000000001
 30
0.0
 11
30.0
 21
27.00000000000001
 31
0.0
  0
LINE
  5
41A5
330
18
100
AcDbEntity
  8
1
100
AcDbLine
 10
31.5
 20
25.00000000000001
 30
0.0
 11
31.5
 21
27.00000000000001
 31
0.0
  0
LINE
  5
41A6
330
18
100
AcDbEntity
  8
1
100
AcDbLine
 10
31.5
 20
27.00000000000001
 30
0.0
 11
31.5
 21
27.21213203440003
 31
0.0
  0
LINE
  5
41A7
330
18
100
AcDbEntity
  8
1
100
AcDbLine
 10
31.5
 20
25.15000000000002
 30
0.0
 11
30.0
 21
25.15000000000002
 31
0.0
  0
LINE
  5
41A8
330
18
100
AcDbEntity
  8
1
100
AcDbLine
 10
30.0
 20
27.00000000000001
 30
0.0
 11
30.0
 21
27.21213203440003
 31
0.0
  0
LINE
  5
41A9
330
18
100
AcDbEntity
  8
1
100
AcDbLine
 10
0.0
 20
-24.99999999999996
 30
0.0
 11
-5.0
 21
-24.99999999999999
 31
0.0
  0
LINE
  5
41AA
330
18
100
AcDbEntity
  8
1
100
AcDbLine
 10
-5.0
 20
25.00000000000001
 30
0.0
 11
0.0
 21
24.99999999999998
 31
0.0
  0
LINE
  5
41AD
330
18
100
AcDbEntity
  8
1
100
AcDbLine
 10
0.5
 20
-48.99999999999998
 30
0.0
 11
0.0
 21
-48.99999999999998
 31
0.0
  0
ARC
  5
41AE
330
18
100
AcDbEntity
  8
1
100
AcDbCircle
 10
44.0
 20
-29.99999999999999
 30
0.0
 40
3.0
100
AcDbArc
 50
345.0000000000007
 51
285.0000000000012
  0
LINE
  5
41B2
330
18
100
AcDbEntity
  8
1
100
AcDbLine
 10
55.0
 20
25.00000000000001
 30
0.0
 11
55.0
 21
26.00000000000001
 31
0.0
  0
LINE
  5
41B3
330
18
100
AcDbEntity
  8
1
100
AcDbLine
 10
55.0999999999999
 20
25.00000000000001
 30
0.0
 11
55.0999999999999
 21
35.00000000000002
 31
0.0
  0
LINE
  5
41B4
330
18
100
AcDbEntity
  8
1
100
AcDbLine
 10
55.0
 20
35.00000000000002
 30
0.0
 11
55.0999999999999
 21
35.00000000000002
 31
0.0
  0
LINE
  5
41B5
330
18
100
AcDbEntity
  8
1
100
AcDbLine
 10
55.0
 20
25.00000000000001
 30
0.0
 11
55.0999999999999
 21
25.00000000000001
 31
0.0
  0
LINE
  5
41B6
330
18
100
AcDbEntity
  8
1
100
AcDbLine
 10
55.0
 20
35.35990154630001
 30
0.0
 11
55.0999999999999
 21
35.35990154630001
 31
0.0
  0
LINE
  5
41B7
330
18
100
AcDbEntity
  8
1
100
AcDbLine
 10
55.0999999999999
 20
35.30385719650001
 30
0.0
 11
55.0999999999999
 21
35.35990154630001
 31
0.0
  0
LINE
  5
41B8
330
18
100
AcDbEntity
  8
1
100
AcDbLine
 10
55.0
 20
35.2869742754
 30
0.0
 11
55.0999999999999
 21
35.2869742754
 31
0.0
  0
LINE
  5
41B9
330
18
100
AcDbEntity
  8
1
100
AcDbLine
 10
55.0
 20
35.30385719650001
 30
0.0
 11
55.0999999999999
 21
35.30385719650001
 31
0.0
  0
LINE
  5
41BA
330
18
100
AcDbEntity
  8
1
100
AcDbLine
 10
55.0999999999999
 20
35.00000000000002
 30
0.0
 11
55.0999999999999
 21
35.2869742754
 31
0.0
  0
LINE
  5
41BB
330
18
100
AcDbEntity
  8
1
100
AcDbLine
 10
55.0999999999999
 20
35.2869742754
 30
0.0
 11
55.0999999999999
 21
35.30385719650001
 31
0.0
  0
LINE
  5
41BC
330
18
100
AcDbEntity
  8
1
100
AcDbLine
 10
30.0
 20
-5.999999999999986
 30
0.0
 11
34.62373696329996
 21
-5.999999999999986
 31
0.0
  0
LINE
  5
41BD
330
18
100
AcDbEntity
  8
1
100
AcDbLine
 10
34.62373696329996
 20
-13.99999999999999
 30
0.0
 11
30.0
 21
-13.99999999999999
 31
0.0
  0
LINE
  5
41BE
330
18
100
AcDbEntity
  8
1
100
AcDbLine
 10
54.00745384829995
 20
-19.92432994829998
 30
0.0
 11
54.62373696329996
 21
-19.99999999999999
 31
0.0
  0
LINE
  5
41BF
330
18
100
AcDbEntity
  8
1
100
AcDbLine
 10
34.62373696329996
 20
0.0000000000000107
 30
0.0
 11
34.62373696329996
 21
-17.5443087819
 31
0.0
  0
LINE
  5
41C0
330
18
100
AcDbEntity
  8
1
100
AcDbLine
 10
54.62373696329996
 20
0.0000000000000107
 30
0.0
 11
34.62373696329996
 21
0.0000000000000107
 31
0.0
  0
LINE
  5
41C1
330
18
100
AcDbEntity
  8
1
100
AcDbLine
 10
54.62373696329996
 20
-19.99999999999999
 30
0.0
 11
54.62373696329996
 21
0.0000000000000107
 31
0.0
  0
CIRCLE
  5
41C2
330
18
100
AcDbEntity
  8
1
100
AcDbCircle
 10
44.0
 20
-29.99999999999999
 30
0.0
 40
2.509482018265936
  0
CIRCLE
  5
41C3
330
18
100
AcDbEntity
  8
1
100
AcDbCircle
 10
44.0
 20
-29.99999999999999
 30
0.0
 40
2.5
  0
CIRCLE
  5
41C4
330
18
100
AcDbEntity
  8
1
100
AcDbCircle
 10
34.3175416345
 20
-32.5
 30
0.0
 40
2.424871130596399
  0
CIRCLE
  5
41C5
330
18
100
AcDbEntity
  8
1
100
AcDbCircle
 10
34.3175416345
 20
-32.5
 30
0.0
 40
6.0
  0
LINE
  5
41C6
330
18
100
AcDbEntity
  8
1
100
AcDbLine
 10
36.37992638489993
 20
-33.5391835615
 30
0.0
 11
36.24869337309997
 21
-31.2335141945
 31
0.0
  0
LINE
  5
41C7
330
18
100
AcDbEntity
  8
1
100
AcDbLine
 10
34.44877464619992
 20
-34.80566936699999
 30
0.0
 11
36.37992638489993
 21
-33.5391835615
 31
0.0
  0
LINE
  5
41C8
330
18
100
AcDbEntity
  8
1
100
AcDbLine
 10
32.3863898958
 20
-33.76648580549999
 30
0.0
 11
34.44877464619992
 21
-34.80566936699999
 31
0.0
  0
LINE
  5
41C9
330
18
100
AcDbEntity
  8
1
100
AcDbLine
 10
32.25515688399993
 20
-31.46081643850001
 30
0.0
 11
32.3863898958
 21
-33.76648580549999
 31
0.0
  0
LINE
  5
41CA
330
18
100
AcDbEntity
  8
1
100
AcDbLine
 10
34.18630862269993
 20
-30.19433063299998
 30
0.0
 11
32.25515688399993
 21
-31.46081643850001
 31
0.0
  0
LINE
  5
41CB
330
18
100
AcDbEntity
  8
1
100
AcDbLine
 10
36.24869337309997
 20
-31.2335141945
 30
0.0
 11
34.18630862269993
 21
-30.19433063299998
 31
0.0
  0
CIRCLE
  5
41CC
330
18
100
AcDbEntity
  8
1
100
AcDbCircle
 10
34.3175416345
 20
-32.5
 30
0.0
 40
1.93669872981078
  0
CIRCLE
  5
41D0
330
18
100
AcDbEntity
  8
SKVIEW1
100
AcDbCircle
 10
-169.6107371494
 20
-32.04293993999999
 30
0.0
 40
8.0
  0
CIRCLE
  5
41D1
330
18
100
AcDbEntity
  8
SKVIEW1
100
AcDbCircle
 10
-206.6107371494001
 20
32.04293994000004
 30
0.0
 40
8.0
  0
CIRCLE
  5
41D2
330
18
100
AcDbEntity
  8
SKVIEW3
100
AcDbCircle
 10
-188.1107371494
 20
0.0000000000000107
 30
0.0
 40
25.0
  0
ARC
  5
41D3
330
18
100
AcDbEntity
  8
SKVIEW1
100
AcDbCircle
 10
-188.1107371494
 20
0.0000000000000107
 30
0.0
 40
2.000000000000003
100
AcDbArc
 50
351.3730734412998
 51
180.0
  0
ARC
  5
41D4
330
18
100
AcDbEntity
  8
SKVIEW1
100
AcDbCircle
 10
-188.1107371494
 20
0.0000000000000107
 30
0.0
 40
2.000000000000003
100
AcDbArc
 50
180.0
 51
188.6269265587001
  0
ARC
  5
41D5
330
18
100
AcDbEntity
  8
SKVIEW1
100
AcDbCircle
 10
-188.1107371494
 20
0.0000000000000107
 30
0.0
 40
4.250000000000006
100
AcDbArc
 50
355.9522258032008
 51
180.0
  0
ARC
  5
41D6
330
18
100
AcDbEntity
  8
SKVIEW1
100
AcDbCircle
 10
-188.1107371494
 20
0.0000000000000107
 30
0.0
 40
4.250000000000006
100
AcDbArc
 50
180.0
 51
184.0477741967992
  0
LINE
  5
41D7
330
18
100
AcDbEntity
  8
SKVIEW1
100
AcDbLine
 10
-139.1107371494
 20
32.66054574109999
 30
0.0
 11
-139.1107371494
 21
26.00000000000001
 31
0.0
  0
LINE
  5
41D8
330
18
100
AcDbEntity
  8
SKVIEW1
100
AcDbLine
 10
-140.6292954826
 20
34.63956949110001
 30
0.0
 11
-139.1107371494
 21
32.66054574109999
 31
0.0
  0
LINE
  5
41D9
330
18
100
AcDbEntity
  8
SKVIEW1
100
AcDbLine
 10
-139.1107371494
 20
26.00000000000001
 30
0.0
 11
-204.0107371494
 21
26.00000000000001
 31
0.0
  0
LINE
  5
41DA
330
18
100
AcDbEntity
  8
SKVIEW1
100
AcDbLine
 10
-204.2107371494
 20
26.00000000000001
 30
0.0
 11
-228.0107371494001
 21
26.00000000000001
 31
0.0
  0
LINE
  5
41DB
330
18
100
AcDbEntity
  8
SKVIEW1
100
AcDbLine
 10
-228.2107371494
 20
26.00000000000001
 30
0.0
 11
-235.6965235871
 21
26.00000000000001
 31
0.0
  0
LINE
  5
41DC
330
18
100
AcDbEntity
  8
SKVIEW1
100
AcDbLine
 10
-194.2231517605
 20
49.00000000000002
 30
0.0
 11
-140.6292954826
 21
34.63956949110001
 31
0.0
  0
LINE
  5
41DD
330
18
100
AcDbEntity
  8
SKVIEW1
100
AcDbLine
 10
-235.6965235871
 20
49.00000000000002
 30
0.0
 11
-194.2231517605
 21
49.00000000000002
 31
0.0
  0
LINE
  5
41DE
330
18
100
AcDbEntity
  8
SKVIEW1
100
AcDbLine
 10
-237.1107371494001
 20
47.58578643760002
 30
0.0
 11
-235.6965235871
 21
49.00000000000002
 31
0.0
  0
LINE
  5
41DF
330
18
100
AcDbEntity
  8
SKVIEW1
100
AcDbLine
 10
-235.6965235871
 20
26.00000000000001
 30
0.0
 11
-237.1107371494001
 21
27.4142135624
 31
0.0
  0
LINE
  5
41E0
330
18
100
AcDbEntity
  8
SKVIEW1
100
AcDbLine
 10
-237.1107371494001
 20
27.4142135624
 30
0.0
 11
-237.1107371494001
 21
47.58578643760002
 31
0.0
  0
LINE
  5
41E1
330
18
100
AcDbEntity
  8
SKVIEW1
100
AcDbLine
 10
-236.1107371494
 20
25.00000000000001
 30
0.0
 11
-228.2107371494
 21
25.00000000000001
 31
0.0
  0
LINE
  5
41E2
330
18
100
AcDbEntity
  8
SKVIEW1
100
AcDbLine
 10
-228.0107371494001
 20
25.00000000000001
 30
0.0
 11
-204.2107371494
 21
25.00000000000001
 31
0.0
  0
LINE
  5
41E3
330
18
100
AcDbEntity
  8
SKVIEW1
100
AcDbLine
 10
-204.0107371494
 20
25.00000000000001
 30
0.0
 11
-138.6107371494
 21
25.00000000000001
 31
0.0
  0
LINE
  5
41E4
330
18
100
AcDbEntity
  8
SKVIEW1
100
AcDbLine
 10
-237.1107371494001
 20
-47.58578643759999
 30
0.0
 11
-237.1107371494001
 21
-21.04619929169998
 31
0.0
  0
LINE
  5
41E5
330
18
100
AcDbEntity
  8
SKVIEW1
100
AcDbLine
 10
-235.6965235871
 20
-48.99999999999998
 30
0.0
 11
-237.1107371494001
 21
-47.58578643759999
 31
0.0
  0
LINE
  5
41E6
330
18
100
AcDbEntity
  8
SKVIEW1
100
AcDbLine
 10
-237.1107371494001
 20
-21.04619929169998
 30
0.0
 11
-139.1107371494
 21
-21.04619929169998
 31
0.0
  0
LINE
  5
41E7
330
18
100
AcDbEntity
  8
SKVIEW1
100
AcDbLine
 10
-168.0987961076
 20
-48.99999999999998
 30
0.0
 11
-235.6965235871
 21
-48.99999999999998
 31
0.0
  0
LINE
  5
41E8
330
18
100
AcDbEntity
  8
SKVIEW1
100
AcDbLine
 10
-140.6292954826
 20
-41.639569491
 30
0.0
 11
-168.0987961076
 21
-48.99999999999998
 31
0.0
  0
LINE
  5
41E9
330
18
100
AcDbEntity
  8
SKVIEW1
100
AcDbLine
 10
-139.1107371494
 20
-21.04619929169998
 30
0.0
 11
-139.1107371494
 21
-39.6605457411
 31
0.0
  0
LINE
  5
41EA
330
18
100
AcDbEntity
  8
SKVIEW1
100
AcDbLine
 10
-139.1107371494
 20
-39.6605457411
 30
0.0
 11
-140.6292954826
 21
-41.639569491
 31
0.0
  0
LINE
  5
41EB
330
18
100
AcDbEntity
  8
SKVIEW1
100
AcDbLine
 10
-238.1107371494
 20
27.00000000000001
 30
0.0
 11
-236.1107371494
 21
25.00000000000001
 31
0.0
  0
LINE
  5
41EC
330
18
100
AcDbEntity
  8
SKVIEW1
100
AcDbLine
 10
-238.1107371494
 20
-47.99999999999998
 30
0.0
 11
-236.1107371494
 21
-50.0
 31
0.0
  0
LINE
  5
41ED
330
18
100
AcDbEntity
  8
SKVIEW1
100
AcDbLine
 10
-236.1107371494
 20
50.0
 30
0.0
 11
-238.1107371494
 21
48.0
 31
0.0
  0
LINE
  5
41EE
330
18
100
AcDbEntity
  8
SKVIEW1
100
AcDbLine
 10
-138.1107371494
 20
33.00000000000002
 30
0.0
 11
-140.042588802
 21
35.51763809019997
 31
0.0
  0
LINE
  5
41EF
330
18
100
AcDbEntity
  8
SKVIEW1
100
AcDbLine
 10
-140.042588802
 20
-42.5176380902
 30
0.0
 11
-138.1107371494
 21
-40.0
 31
0.0
  0
LINE
  5
41F0
330
18
100
AcDbEntity
  8
SKVIEW1
100
AcDbLine
 10
-140.042588802
 20
35.51763809019997
 30
0.0
 11
-194.091499263
 21
50.0
 31
0.0
  0
LINE
  5
41F1
330
18
100
AcDbEntity
  8
SKVIEW1
100
AcDbLine
 10
-194.091499263
 20
50.0
 30
0.0
 11
-236.1107371494
 21
50.0
 31
0.0
  0
LINE
  5
41F2
330
18
100
AcDbEntity
  8
SKVIEW1
100
AcDbLine
 10
-238.1107371494
 20
48.0
 30
0.0
 11
-238.1107371494
 21
27.00000000000001
 31
0.0
  0
LINE
  5
41F3
330
18
100
AcDbEntity
  8
SKVIEW1
100
AcDbLine
 10
-138.1107371494
 20
-40.0
 30
0.0
 11
-138.1107371494
 21
-20.42716964360002
 31
0.0
  0
LINE
  5
41F4
330
18
100
AcDbEntity
  8
SKVIEW1
100
AcDbLine
 10
-167.9671436100001
 20
-50.0
 30
0.0
 11
-140.042588802
 21
-42.5176380902
 31
0.0
  0
LINE
  5
41F5
330
18
100
AcDbEntity
  8
SKVIEW1
100
AcDbLine
 10
-236.1107371494
 20
-50.0
 30
0.0
 11
-167.9671436100001
 21
-50.0
 31
0.0
  0
LINE
  5
41F6
102
{ACAD_REACTORS
330
431F
102
}
330
18
100
AcDbEntity
  8
SKVIEW1
100
AcDbLine
 10
-194.2231517605
 20
49.00000000000002
 30
0.0
 11
-194.091499263
 21
50.0
 31
0.0
  0
LINE
  5
41F7
330
18
100
AcDbEntity
  8
SKVIEW1
100
AcDbLine
 10
-236.1107371494
 20
50.0
 30
0.0
 11
-235.6965235871
 21
49.00000000000002
 31
0.0
  0
LINE
  5
41F8
330
18
100
AcDbEntity
  8
SKVIEW1
100
AcDbLine
 10
-140.6292954826
 20
34.63956949110001
 30
0.0
 11
-140.042588802
 21
35.51763809019997
 31
0.0
  0
LINE
  5
41F9
102
{ACAD_REACTORS
330
434F
330
4367
330
438A
102
}
330
18
100
AcDbEntity
  8
SKVIEW1
100
AcDbLine
 10
-238.1107371494
 20
48.0
 30
0.0
 11
-237.1107371494001
 21
47.58578643760002
 31
0.0
  0
LINE
  5
41FA
330
18
100
AcDbEntity
  8
SKVIEW1
100
AcDbLine
 10
-139.1107371494
 20
32.66054574109999
 30
0.0
 11
-138.1107371494
 21
33.00000000000002
 31
0.0
  0
LINE
  5
41FB
330
18
100
AcDbEntity
  8
SKVIEW1
100
AcDbLine
 10
-238.1107371494
 20
27.00000000000001
 30
0.0
 11
-237.1107371494001
 21
27.4142135624
 31
0.0
  0
LINE
  5
41FC
330
18
100
AcDbEntity
  8
SKVIEW1
100
AcDbLine
 10
-139.1107371494
 20
26.00000000000001
 30
0.0
 11
-138.3607371494
 21
25.25000000000001
 31
0.0
  0
LINE
  5
41FD
330
18
100
AcDbEntity
  8
SKVIEW1
100
AcDbLine
 10
-236.1107371494
 20
25.00000000000001
 30
0.0
 11
-235.6965235871
 21
26.00000000000001
 31
0.0
  0
LINE
  5
41FE
102
{ACAD_REACTORS
330
4337
102
}
330
18
100
AcDbEntity
  8
SKVIEW1
100
AcDbLine
 10
-167.9671436100001
 20
-50.0
 30
0.0
 11
-168.0987961076
 21
-48.99999999999998
 31
0.0
  0
LINE
  5
41FF
330
18
100
AcDbEntity
  8
SKVIEW1
100
AcDbLine
 10
-235.6965235871
 20
-48.99999999999998
 30
0.0
 11
-236.1107371494
 21
-50.0
 31
0.0
  0
LINE
  5
4200
330
18
100
AcDbEntity
  8
SKVIEW1
100
AcDbLine
 10
-140.042588802
 20
-42.5176380902
 30
0.0
 11
-140.6292954826
 21
-41.639569491
 31
0.0
  0
LINE
  5
4201
330
18
100
AcDbEntity
  8
SKVIEW1
100
AcDbLine
 10
-237.1107371494001
 20
-47.58578643759999
 30
0.0
 11
-238.1107371494
 21
-47.99999999999998
 31
0.0
  0
LINE
  5
4202
330
18
100
AcDbEntity
  8
SKVIEW1
100
AcDbLine
 10
-138.1107371494
 20
-40.0
 30
0.0
 11
-139.1107371494
 21
-39.6605457411
 31
0.0
  0
LINE
  5
4203
330
18
100
AcDbEntity
  8
SKVIEW1
100
AcDbLine
 10
-237.1107371494001
 20
-21.04619929169998
 30
0.0
 11
-237.8570102252
 21
-20.2026910234
 31
0.0
  0
LINE
  5
4204
330
18
100
AcDbEntity
  8
SKVIEW1
100
AcDbLine
 10
-238.1107371494
 20
-20.42716964360002
 30
0.0
 11
-238.1107371494
 21
-47.99999999999998
 31
0.0
  0
LINE
  5
4205
330
18
100
AcDbEntity
  8
SKVIEW1
100
AcDbLine
 10
-238.1107371494
 20
27.00000000000001
 30
0.0
 11
-238.1107371494
 21
-16.62269516329998
 31
0.0
  0
LINE
  5
4206
330
18
100
AcDbEntity
  8
SKVIEW1
100
AcDbLine
 10
-238.1107371494
 20
-16.62269516329998
 30
0.0
 11
-238.1107371494
 21
-17.5159866998
 31
0.0
  0
LINE
  5
4207
330
18
100
AcDbEntity
  8
SKVIEW1
100
AcDbLine
 10
-238.1107371494
 20
-17.5159866998
 30
0.0
 11
-238.1107371494
 21
-20.42716964360002
 31
0.0
  0
LINE
  5
4208
330
18
100
AcDbEntity
  8
SKVIEW1
100
AcDbLine
 10
-238.1107371494
 20
-20.42716964360002
 30
0.0
 11
-237.8570102252
 21
-20.2026910234
 31
0.0
  0
LINE
  5
4209
330
18
100
AcDbEntity
  8
SKVIEW1
100
AcDbLine
 10
-138.8226673748
 20
-19.92432994829998
 30
0.0
 11
-166.1107371494
 21
-19.92432994829998
 31
0.0
  0
LINE
  5
420A
330
18
100
AcDbEntity
  8
SKVIEW1
100
AcDbLine
 10
-229.1107371494001
 20
-19.92432994829998
 30
0.0
 11
-237.6107371494001
 21
-19.92432994829998
 31
0.0
  0
LINE
  5
420B
330
18
100
AcDbEntity
  8
SKVIEW1
100
AcDbLine
 10
-138.6163310212
 20
-20.48737482039998
 30
0.0
 11
-139.1107371494
 21
-21.04619929169998
 31
0.0
  0
LINE
  5
420C
330
18
100
AcDbEntity
  8
SKVIEW1
100
AcDbLine
 10
-138.8226673748
 20
-19.92432994829998
 30
0.0
 11
-138.6163310212
 21
-20.48737482039998
 31
0.0
  0
LINE
  5
420D
330
18
100
AcDbEntity
  8
SKVIEW1
100
AcDbLine
 10
-237.8570102252
 20
-20.2026910234
 30
0.0
 11
-237.6107371494001
 21
-19.92432994829998
 31
0.0
  0
LINE
  5
420E
330
18
100
AcDbEntity
  8
SKVIEW1
100
AcDbLine
 10
-138.6107371494
 20
-19.89830818869997
 30
0.0
 11
-138.8226673748
 21
-19.92432994829998
 31
0.0
  0
LINE
  5
420F
330
18
100
AcDbEntity
  8
SKVIEW1
100
AcDbLine
 10
-138.6107371494
 20
-17.01971362399998
 30
0.0
 11
-138.6107371494
 21
-19.89830818869997
 31
0.0
  0
LINE
  5
4210
330
18
100
AcDbEntity
  8
SKVIEW1
100
AcDbLine
 10
-237.6107371494001
 20
-19.92432994829998
 30
0.0
 11
-237.6107371494001
 21
-17.01971362399998
 31
0.0
  0
LINE
  5
4211
330
18
100
AcDbEntity
  8
SKVIEW1
100
AcDbLine
 10
-138.6107371494
 20
-16.62269516329998
 30
0.0
 11
-138.6107371494
 21
-17.01971362399998
 31
0.0
  0
LINE
  5
4212
330
18
100
AcDbEntity
  8
SKVIEW1
100
AcDbLine
 10
-237.6107371494001
 20
-17.01971362399998
 30
0.0
 11
-237.6107371494001
 21
-16.62269516329998
 31
0.0
  0
LINE
  5
4213
330
18
100
AcDbEntity
  8
SKVIEW1
100
AcDbLine
 10
-138.6107371494
 20
25.00000000000001
 30
0.0
 11
-138.6107371494
 21
-16.62269516329998
 31
0.0
  0
LINE
  5
4214
330
18
100
AcDbEntity
  8
SKVIEW1
100
AcDbLine
 10
-237.6107371494001
 20
-16.62269516329998
 30
0.0
 11
-237.6107371494001
 21
26.50000000000001
 31
0.0
  0
LINE
  5
4215
102
{ACAD_REACTORS
330
4367
102
}
330
18
100
AcDbEntity
  8
SKVIEW1
100
AcDbLine
 10
-138.1107371494
 20
25.50000000000001
 30
0.0
 11
-138.1107371494
 21
33.00000000000002
 31
0.0
  0
LINE
  5
4216
330
18
100
AcDbEntity
  8
SKVIEW1
100
AcDbLine
 10
-138.1107371494
 20
-16.62269516329998
 30
0.0
 11
-138.1107371494
 21
25.50000000000001
 31
0.0
  0
LINE
  5
4217
330
18
100
AcDbEntity
  8
SKVIEW1
100
AcDbLine
 10
-138.1107371494
 20
-17.5159866998
 30
0.0
 11
-138.1107371494
 21
-16.62269516329998
 31
0.0
  0
LINE
  5
4218
330
18
100
AcDbEntity
  8
SKVIEW1
100
AcDbLine
 10
-138.1107371494
 20
-20.42716964360002
 30
0.0
 11
-138.1107371494
 21
-17.5159866998
 31
0.0
  0
LINE
  5
4219
330
18
100
AcDbEntity
  8
SKVIEW1
100
AcDbLine
 10
-138.1107371494
 20
25.50000000000001
 30
0.0
 11
-138.3607371494
 21
25.25000000000001
 31
0.0
  0
LINE
  5
421A
330
18
100
AcDbEntity
  8
SKVIEW1
100
AcDbLine
 10
-138.3607371494
 20
25.25000000000001
 30
0.0
 11
-138.6107371494
 21
25.00000000000001
 31
0.0
  0
LINE
  5
421B
330
18
100
AcDbEntity
  8
SKVIEW1
100
AcDbLine
 10
-138.6163310212
 20
-20.48737482039998
 30
0.0
 11
-138.1125971259999
 21
-20.42552407530001
 31
0.0
  0
LINE
  5
421C
330
18
100
AcDbEntity
  8
SKVIEW1
100
AcDbLine
 10
-138.1125971259999
 20
-20.42552407530001
 30
0.0
 11
-138.1107371494
 21
-20.42716964360002
 31
0.0
  0
LINE
  5
421D
330
18
100
AcDbEntity
  8
SKVIEW1
100
AcDbLine
 10
-138.1125971259999
 20
-20.42552407530001
 30
0.0
 11
-138.6107371494
 21
-19.89830818869997
 31
0.0
  0
LINE
  5
421F
330
18
100
AcDbEntity
  8
SKVIEW1
100
AcDbLine
 10
-228.2107371494
 20
35.00000000000002
 30
0.0
 11
-228.0107371494001
 21
35.00000000000002
 31
0.0
  0
LINE
  5
4220
330
18
100
AcDbEntity
  8
SKVIEW1
100
AcDbLine
 10
-228.2107371494
 20
25.00000000000001
 30
0.0
 11
-228.2107371494
 21
35.00000000000002
 31
0.0
  0
LINE
  5
4221
330
18
100
AcDbEntity
  8
SKVIEW1
100
AcDbLine
 10
-228.0107371494001
 20
25.00000000000001
 30
0.0
 11
-228.2107371494
 21
25.00000000000001
 31
0.0
  0
LINE
  5
4222
102
{ACAD_REACTORS
330
438A
102
}
330
18
100
AcDbEntity
  8
SKVIEW1
100
AcDbLine
 10
-228.0107371494001
 20
35.00000000000002
 30
0.0
 11
-228.0107371494001
 21
25.00000000000001
 31
0.0
  0
LINE
  5
4223
330
18
100
AcDbEntity
  8
SKVIEW1
100
AcDbLine
 10
-218.4939353097
 20
35.30385719650001
 30
0.0
 11
-219.0605285169
 21
33.5727107126
 31
0.0
  0
LINE
  5
4224
330
18
100
AcDbEntity
  8
SKVIEW1
100
AcDbLine
 10
-218.3485305506
 20
35.2869742754
 30
0.0
 11
-218.4939353097
 21
35.30385719650001
 31
0.0
  0
LINE
  5
4225
330
18
100
AcDbEntity
  8
SKVIEW1
100
AcDbLine
 10
-218.9242015251001
 20
33.52809194050003
 30
0.0
 11
-218.3485305506
 21
35.2869742754
 31
0.0
  0
LINE
  5
4226
330
18
100
AcDbEntity
  8
SKVIEW1
100
AcDbLine
 10
-219.0605285169
 20
33.5727107126
 30
0.0
 11
-218.9242015251001
 21
33.52809194050003
 31
0.0
  0
ARC
  5
4227
330
18
100
AcDbEntity
  8
SKVIEW1
100
AcDbCircle
 10
-217.8286489846
 20
32.5423603156
 30
0.0
 40
2.988394944488113
100
AcDbArc
 50
180.0
 51
270.0
  0
LINE
  5
4228
330
18
100
AcDbEntity
  8
SKVIEW1
100
AcDbLine
 10
-211.2541801068001
 20
29.5539653711
 30
0.0
 11
-217.8286489846
 21
29.5539653711
 31
0.0
  0
LINE
  5
4229
330
18
100
AcDbEntity
  8
SKVIEW1
100
AcDbLine
 10
-211.2541801068001
 20
31.34700233780002
 30
0.0
 11
-211.2541801068001
 21
29.5539653711
 31
0.0
  0
LINE
  5
422A
330
18
100
AcDbEntity
  8
SKVIEW1
100
AcDbLine
 10
-217.8286489846
 20
31.34700233780002
 30
0.0
 11
-211.2541801068001
 21
31.34700233780002
 31
0.0
  0
ARC
  5
422B
330
18
100
AcDbEntity
  8
SKVIEW1
100
AcDbCircle
 10
-217.8286489846
 20
32.5423603156
 30
0.0
 40
1.195357977795245
100
AcDbArc
 50
180.0
 51
270.0
  0
LINE
  5
422C
330
18
100
AcDbEntity
  8
SKVIEW1
100
AcDbLine
 10
-219.0240069624
 20
33.14003930450001
 30
0.0
 11
-219.0240069624
 21
32.5423603156
 31
0.0
  0
LINE
  5
422D
330
18
100
AcDbEntity
  8
SKVIEW1
100
AcDbLine
 10
-220.8170439291001
 20
33.14003930450001
 30
0.0
 11
-219.0240069624
 21
33.14003930450001
 31
0.0
  0
LINE
  5
422E
330
18
100
AcDbEntity
  8
SKVIEW1
100
AcDbLine
 10
-220.8170439291001
 20
32.5423603156
 30
0.0
 11
-220.8170439291001
 21
33.14003930450001
 31
0.0
  0
LINE
  5
422F
330
18
100
AcDbEntity
  8
SKVIEW1
100
AcDbLine
 10
-213.9437355568001
 20
28.14344295730002
 30
0.0
 11
-213.9437355568001
 21
28.00000000000001
 31
0.0
  0
LINE
  5
4230
330
18
100
AcDbEntity
  8
SKVIEW1
100
AcDbLine
 10
-213.9437355568001
 20
28.00000000000001
 30
0.0
 11
-216.9321305013
 21
28.00000000000001
 31
0.0
  0
LINE
  5
4231
330
18
100
AcDbEntity
  8
SKVIEW1
100
AcDbLine
 10
-216.9321305013
 20
28.00000000000001
 30
0.0
 11
-216.9321305013
 21
28.14344295730002
 31
0.0
  0
LINE
  5
4232
330
18
100
AcDbEntity
  8
SKVIEW1
100
AcDbLine
 10
-216.9321305013
 20
28.14344295730002
 30
0.0
 11
-215.5813759864
 21
28.14344295730002
 31
0.0
  0
LINE
  5
4233
330
18
100
AcDbEntity
  8
SKVIEW1
100
AcDbLine
 10
-215.5813759864
 20
28.14344295730002
 30
0.0
 11
-215.5813759864
 21
29.41052241379999
 31
0.0
  0
LINE
  5
4234
330
18
100
AcDbEntity
  8
SKVIEW1
100
AcDbLine
 10
-215.5813759864
 20
29.41052241379999
 30
0.0
 11
-217.8286489846
 21
29.41052241379999
 31
0.0
  0
ARC
  5
4235
330
18
100
AcDbEntity
  8
SKVIEW1
100
AcDbCircle
 10
-217.8286489846
 20
32.5423603156
 30
0.0
 40
3.131837901823555
100
AcDbArc
 50
180.0
 51
270.0
  0
LINE
  5
4236
330
18
100
AcDbEntity
  8
SKVIEW1
100
AcDbLine
 10
-220.9604868865
 20
32.5423603156
 30
0.0
 11
-220.9604868865
 21
33.28348226190001
 31
0.0
  0
LINE
  5
4237
330
18
100
AcDbEntity
  8
SKVIEW1
100
AcDbLine
 10
-220.9604868865
 20
33.28348226190001
 30
0.0
 11
-218.8805640051
 21
33.28348226190001
 31
0.0
  0
LINE
  5
4238
330
18
100
AcDbEntity
  8
SKVIEW1
100
AcDbLine
 10
-218.8805640051
 20
33.28348226190001
 30
0.0
 11
-218.8805640051
 21
32.5423603156
 31
0.0
  0
ARC
  5
4239
330
18
100
AcDbEntity
  8
SKVIEW1
100
AcDbCircle
 10
-217.8286489846
 20
32.5423603156
 30
0.0
 40
1.05191502045981
100
AcDbArc
 50
180.0
 51
270.0
  0
LINE
  5
423A
330
18
100
AcDbEntity
  8
SKVIEW1
100
AcDbLine
 10
-217.8286489846
 20
31.49044529519999
 30
0.0
 11
-211.1107371494
 21
31.49044529519999
 31
0.0
  0
LINE
  5
423B
330
18
100
AcDbEntity
  8
SKVIEW1
100
AcDbLine
 10
-211.1107371494
 20
31.49044529519999
 30
0.0
 11
-211.1107371494
 21
29.41052241379999
 31
0.0
  0
LINE
  5
423C
330
18
100
AcDbEntity
  8
SKVIEW1
100
AcDbLine
 10
-211.1107371494
 20
29.41052241379999
 30
0.0
 11
-215.437933029
 21
29.41052241379999
 31
0.0
  0
LINE
  5
423D
330
18
100
AcDbEntity
  8
SKVIEW1
100
AcDbLine
 10
-215.437933029
 20
29.41052241379999
 30
0.0
 11
-215.437933029
 21
28.14344295730002
 31
0.0
  0
LINE
  5
423E
330
18
100
AcDbEntity
  8
SKVIEW1
100
AcDbLine
 10
-215.437933029
 20
28.14344295730002
 30
0.0
 11
-213.9437355568001
 21
28.14344295730002
 31
0.0
  0
LINE
  5
423F
330
18
100
AcDbEntity
  8
SKVIEW1
100
AcDbLine
 10
-219.8440761646
 20
33.55636818100002
 30
0.0
 11
-219.9871700774001
 21
33.54636183940002
 31
0.0
  0
LINE
  5
4240
330
18
100
AcDbEntity
  8
SKVIEW1
100
AcDbLine
 10
-219.9871700774001
 20
33.54636183940002
 30
0.0
 11
-220.1139851786
 21
35.35990154630001
 31
0.0
  0
LINE
  5
4241
330
18
100
AcDbEntity
  8
SKVIEW1
100
AcDbLine
 10
-220.1139851786
 20
35.35990154630001
 30
0.0
 11
-219.970191554
 21
35.35990154630001
 31
0.0
  0
LINE
  5
4242
330
18
100
AcDbEntity
  8
SKVIEW1
100
AcDbLine
 10
-219.970191554
 20
35.35990154630001
 30
0.0
 11
-219.8440761646
 21
33.55636818100002
 31
0.0
  0
LINE
  5
4243
330
18
100
AcDbEntity
  8
SKVIEW1
100
AcDbLine
 10
-220.7805223747
 20
33.5727107126
 30
0.0
 11
-220.9168493665
 21
33.52809194050003
 31
0.0
  0
LINE
  5
4244
330
18
100
AcDbEntity
  8
SKVIEW1
100
AcDbLine
 10
-220.9168493665
 20
33.52809194050003
 30
0.0
 11
-221.4925203409001
 21
35.2869742754
 31
0.0
  0
LINE
  5
4245
330
18
100
AcDbEntity
  8
SKVIEW1
100
AcDbLine
 10
-221.4925203409001
 20
35.2869742754
 30
0.0
 11
-221.3471155819
 21
35.30385719650001
 31
0.0
  0
LINE
  5
4246
330
18
100
AcDbEntity
  8
SKVIEW1
100
AcDbLine
 10
-221.3471155819
 20
35.30385719650001
 30
0.0
 11
-220.7805223747
 21
33.5727107126
 31
0.0
  0
LINE
  5
4247
330
18
100
AcDbEntity
  8
SKVIEW1
100
AcDbLine
 10
-204.2107371494
 20
35.00000000000002
 30
0.0
 11
-204.0107371494
 21
35.00000000000002
 31
0.0
  0
LINE
  5
4248
330
18
100
AcDbEntity
  8
SKVIEW1
100
AcDbLine
 10
-204.2107371494
 20
25.00000000000001
 30
0.0
 11
-204.2107371494
 21
35.00000000000002
 31
0.0
  0
LINE
  5
4249
330
18
100
AcDbEntity
  8
SKVIEW1
100
AcDbLine
 10
-204.0107371494
 20
25.00000000000001
 30
0.0
 11
-204.2107371494
 21
25.00000000000001
 31
0.0
  0
LINE
  5
424A
330
18
100
AcDbEntity
  8
SKVIEW1
100
AcDbLine
 10
-204.0107371494
 20
35.00000000000002
 30
0.0
 11
-204.0107371494
 21
25.00000000000001
 31
0.0
  0
ARC
  5
424B
330
18
100
AcDbEntity
  8
SKVIEW1
100
AcDbCircle
 10
-217.6107371494
 20
-9.999999999999987
 30
0.0
 40
3.43
100
AcDbArc
 50
1.001874584500334
 51
58.99812541549643
  0
CIRCLE
  5
424C
330
18
100
AcDbEntity
  8
SKVIEW1
100
AcDbCircle
 10
-217.6107371494
 20
-9.999999999999987
 30
0.0
 40
5.7
  0
CIRCLE
  5
424D
330
18
100
AcDbEntity
  8
SKVIEW1
100
AcDbCircle
 10
-217.6107371494
 20
-9.999999999999987
 30
0.0
 40
6.5
  0
ARC
  5
424E
330
18
100
AcDbEntity
  8
SKVIEW1
100
AcDbCircle
 10
-217.6107371494
 20
-9.999999999999987
 30
0.0
 40
3.000000000000028
100
AcDbArc
 50
149.9999999999995
 51
210.0000000000006
  0
ARC
  5
424F
330
18
100
AcDbEntity
  8
SKVIEW1
100
AcDbCircle
 10
-217.6107371494
 20
-9.999999999999987
 30
0.0
 40
3.000000000000001
100
AcDbArc
 50
210.0000000000006
 51
270.0
  0
ARC
  5
4250
330
18
100
AcDbEntity
  8
SKVIEW1
100
AcDbCircle
 10
-217.6107371494
 20
-9.999999999999987
 30
0.0
 40
3.000000000000028
100
AcDbArc
 50
270.0
 51
329.9999999999994
  0
ARC
  5
4251
330
18
100
AcDbEntity
  8
SKVIEW1
100
AcDbCircle
 10
-217.6107371494
 20
-9.999999999999987
 30
0.0
 40
3.000000000000028
100
AcDbArc
 50
329.9999999999994
 51
30.00000000000049
  0
ARC
  5
4252
330
18
100
AcDbEntity
  8
SKVIEW1
100
AcDbCircle
 10
-217.6107371494
 20
-9.999999999999987
 30
0.0
 40
2.999999999999998
100
AcDbArc
 50
30.00000000000049
 51
90.0
  0
ARC
  5
4253
330
18
100
AcDbEntity
  8
SKVIEW1
100
AcDbCircle
 10
-217.6107371494
 20
-9.999999999999987
 30
0.0
 40
3.000000000000028
100
AcDbArc
 50
90.0
 51
149.9999999999995
  0
ARC
  5
4254
330
18
100
AcDbEntity
  8
SKVIEW1
100
AcDbCircle
 10
-217.6107371494
 20
-9.999999999999987
 30
0.0
 40
3.429999999999998
100
AcDbArc
 50
61.00187458449694
 51
118.998125415503
  0
ARC
  5
4255
330
18
100
AcDbEntity
  8
SKVIEW1
100
AcDbCircle
 10
-217.6107371494
 20
-9.999999999999987
 30
0.0
 40
3.429999999999998
100
AcDbArc
 50
121.0018745845036
 51
178.9981254154997
  0
ARC
  5
4256
330
18
100
AcDbEntity
  8
SKVIEW1
100
AcDbCircle
 10
-217.6107371494
 20
-9.999999999999987
 30
0.0
 40
3.43
100
AcDbArc
 50
181.0018745845003
 51
238.9981254154964
  0
ARC
  5
4257
330
18
100
AcDbEntity
  8
SKVIEW1
100
AcDbCircle
 10
-217.6107371494
 20
-9.999999999999987
 30
0.0
 40
3.430000000000163
100
AcDbArc
 50
241.001874584497
 51
298.998125415503
  0
ARC
  5
4258
330
18
100
AcDbEntity
  8
SKVIEW1
100
AcDbCircle
 10
-217.6107371494
 20
-9.999999999999987
 30
0.0
 40
3.43
100
AcDbArc
 50
301.0018745845035
 51
358.9981254154996
  0
LINE
  5
4259
330
18
100
AcDbEntity
  8
SKVIEW1
100
AcDbLine
 10
-215.8786863419
 20
-12.99999999999999
 30
0.0
 11
-215.8440603607
 21
-12.94002604140001
 31
0.0
  0
LINE
  5
425A
330
18
100
AcDbEntity
  8
SKVIEW1
100
AcDbLine
 10
-215.8440603607
 20
-12.94002604140001
 30
0.0
 11
-214.1812615154
 21
-10.05997395859997
 31
0.0
  0
LINE
  5
425B
330
18
100
AcDbEntity
  8
SKVIEW1
100
AcDbLine
 10
-219.3427879570001
 20
-12.99999999999999
 30
0.0
 11
-219.2735359947
 21
-12.99999999999999
 31
0.0
  0
LINE
  5
425C
330
18
100
AcDbEntity
  8
SKVIEW1
100
AcDbLine
 10
-219.2735359947
 20
-12.99999999999999
 30
0.0
 11
-215.9479383041
 21
-12.99999999999999
 31
0.0
  0
LINE
  5
425D
330
18
100
AcDbEntity
  8
SKVIEW1
100
AcDbLine
 10
-221.0748387646
 20
-9.999999999999987
 30
0.0
 11
-221.0402127834001
 21
-10.05997395859997
 31
0.0
  0
LINE
  5
425E
330
18
100
AcDbEntity
  8
SKVIEW1
100
AcDbLine
 10
-221.0402127834001
 20
-10.05997395859997
 30
0.0
 11
-219.3774139381001
 21
-12.94002604140001
 31
0.0
  0
LINE
  5
425F
330
18
100
AcDbEntity
  8
SKVIEW1
100
AcDbLine
 10
-219.3427879570001
 20
-6.999999999999986
 30
0.0
 11
-219.3774139381001
 21
-7.059973958599973
 31
0.0
  0
LINE
  5
4260
330
18
100
AcDbEntity
  8
SKVIEW1
100
AcDbLine
 10
-219.3774139381001
 20
-7.059973958599973
 30
0.0
 11
-221.0402127834001
 21
-9.940026041400006
 31
0.0
  0
LINE
  5
4261
330
18
100
AcDbEntity
  8
SKVIEW1
100
AcDbLine
 10
-215.8786863419
 20
-6.999999999999986
 30
0.0
 11
-215.9479383041
 21
-6.999999999999986
 31
0.0
  0
LINE
  5
4262
330
18
100
AcDbEntity
  8
SKVIEW1
100
AcDbLine
 10
-215.9479383041
 20
-6.999999999999986
 30
0.0
 11
-219.2735359947
 21
-6.999999999999986
 31
0.0
  0
LINE
  5
4263
330
18
100
AcDbEntity
  8
SKVIEW1
100
AcDbLine
 10
-214.1466355343001
 20
-9.999999999999987
 30
0.0
 11
-214.1812615154
 21
-9.940026041400006
 31
0.0
  0
LINE
  5
4264
330
18
100
AcDbEntity
  8
SKVIEW1
100
AcDbLine
 10
-214.1812615154
 20
-9.940026041400006
 30
0.0
 11
-215.8440603607
 21
-7.059973958599973
 31
0.0
  0
LINE
  5
4265
330
18
100
AcDbEntity
  8
SKVIEW1
100
AcDbLine
 10
-214.1812615154
 20
-10.05997395859997
 30
0.0
 11
-214.1466355343001
 21
-9.999999999999987
 31
0.0
  0
LINE
  5
4266
330
18
100
AcDbEntity
  8
SKVIEW1
100
AcDbLine
 10
-215.9479383041
 20
-12.99999999999999
 30
0.0
 11
-215.8786863419
 21
-12.99999999999999
 31
0.0
  0
LINE
  5
4267
330
18
100
AcDbEntity
  8
SKVIEW1
100
AcDbLine
 10
-219.3774139381001
 20
-12.94002604140001
 30
0.0
 11
-219.3427879570001
 21
-12.99999999999999
 31
0.0
  0
LINE
  5
4268
330
18
100
AcDbEntity
  8
SKVIEW1
100
AcDbLine
 10
-221.0402127834001
 20
-9.940026041400006
 30
0.0
 11
-221.0748387646
 21
-9.999999999999987
 31
0.0
  0
LINE
  5
4269
330
18
100
AcDbEntity
  8
SKVIEW1
100
AcDbLine
 10
-219.2735359947
 20
-6.999999999999986
 30
0.0
 11
-219.3427879570001
 21
-6.999999999999986
 31
0.0
  0
LINE
  5
426A
330
18
100
AcDbEntity
  8
SKVIEW1
100
AcDbLine
 10
-215.8440603607
 20
-7.059973958599973
 30
0.0
 11
-215.8786863419
 21
-6.999999999999986
 31
0.0
  0
ARC
  5
426B
330
18
100
AcDbEntity
  8
SKVIEW1
100
AcDbCircle
 10
-197.6107371494
 20
-9.999999999999987
 30
0.0
 40
3.000000000000031
100
AcDbArc
 50
210.0000000000006
 51
270.0
  0
CIRCLE
  5
426C
330
18
100
AcDbEntity
  8
SKVIEW1
100
AcDbCircle
 10
-197.6107371494
 20
-9.999999999999987
 30
0.0
 40
3.495000000000004
  0
CIRCLE
  5
426D
330
18
100
AcDbEntity
  8
SKVIEW1
100
AcDbCircle
 10
-197.6107371494
 20
-9.999999999999987
 30
0.0
 40
6.000000000000002
  0
CIRCLE
  5
426E
330
18
100
AcDbEntity
  8
SKVIEW1
100
AcDbCircle
 10
-197.6107371494
 20
-9.999999999999987
 30
0.0
 40
6.500000000000002
  0
ARC
  5
426F
330
18
100
AcDbEntity
  8
SKVIEW1
100
AcDbCircle
 10
-197.6107371494
 20
-9.999999999999987
 30
0.0
 40
3.000000000000001
100
AcDbArc
 50
270.0
 51
329.9999999999994
  0
ARC
  5
4270
330
18
100
AcDbEntity
  8
SKVIEW1
100
AcDbCircle
 10
-197.6107371494
 20
-9.999999999999987
 30
0.0
 40
3.000000000000003
100
AcDbArc
 50
329.9999999999994
 51
30.00000000000049
  0
ARC
  5
4271
330
18
100
AcDbEntity
  8
SKVIEW1
100
AcDbCircle
 10
-197.6107371494
 20
-9.999999999999987
 30
0.0
 40
3.000000000000031
100
AcDbArc
 50
30.00000000000049
 51
90.0
  0
ARC
  5
4272
330
18
100
AcDbEntity
  8
SKVIEW1
100
AcDbCircle
 10
-197.6107371494
 20
-9.999999999999987
 30
0.0
 40
2.999999999999998
100
AcDbArc
 50
90.0
 51
149.9999999999995
  0
ARC
  5
4273
330
18
100
AcDbEntity
  8
SKVIEW1
100
AcDbCircle
 10
-197.6107371494
 20
-9.999999999999987
 30
0.0
 40
3.000000000000028
100
AcDbArc
 50
149.9999999999995
 51
210.0000000000006
  0
LINE
  5
4274
330
18
100
AcDbEntity
  8
SKVIEW1
100
AcDbLine
 10
-199.342787957
 20
-6.999999999999986
 30
0.0
 11
-201.0748387646
 21
-9.999999999999987
 31
0.0
  0
LINE
  5
4275
330
18
100
AcDbEntity
  8
SKVIEW1
100
AcDbLine
 10
-195.8786863419001
 20
-6.999999999999986
 30
0.0
 11
-199.342787957
 21
-6.999999999999986
 31
0.0
  0
LINE
  5
4276
330
18
100
AcDbEntity
  8
SKVIEW1
100
AcDbLine
 10
-194.1466355343001
 20
-9.999999999999987
 30
0.0
 11
-195.8786863419001
 21
-6.999999999999986
 31
0.0
  0
LINE
  5
4277
330
18
100
AcDbEntity
  8
SKVIEW1
100
AcDbLine
 10
-195.8786863419001
 20
-12.99999999999999
 30
0.0
 11
-194.1466355343001
 21
-9.999999999999987
 31
0.0
  0
LINE
  5
4278
330
18
100
AcDbEntity
  8
SKVIEW1
100
AcDbLine
 10
-199.342787957
 20
-12.99999999999999
 30
0.0
 11
-195.8786863419001
 21
-12.99999999999999
 31
0.0
  0
LINE
  5
4279
330
18
100
AcDbEntity
  8
SKVIEW1
100
AcDbLine
 10
-201.0748387646
 20
-9.999999999999987
 30
0.0
 11
-199.342787957
 21
-12.99999999999999
 31
0.0
  0
LINE
  5
427A
330
18
100
AcDbEntity
  8
SKVIEW1
100
AcDbLine
 10
-166.1107371494
 20
-19.99999999999999
 30
0.0
 11
-166.1107371494
 21
0.0000000000000107
 31
0.0
  0
LINE
  5
427B
330
18
100
AcDbEntity
  8
SKVIEW1
100
AcDbLine
 10
-229.1107371494001
 20
-19.99999999999999
 30
0.0
 11
-229.1107371494001
 21
0.0000000000000107
 31
0.0
  0
LINE
  5
427C
330
18
100
AcDbEntity
  8
SKVIEW1
100
AcDbLine
 10
-166.1107371494
 20
-19.99999999999999
 30
0.0
 11
-229.1107371494001
 21
-19.99999999999999
 31
0.0
  0
LINE
  5
427D
330
18
100
AcDbEntity
  8
SKVIEW1
100
AcDbLine
 10
-166.1107371494
 20
0.0000000000000107
 30
0.0
 11
-182.6107371494
 21
0.0000000000000107
 31
0.0
  0
CIRCLE
  5
427E
330
18
100
AcDbEntity
  8
SKVIEW1
100
AcDbCircle
 10
-177.6107371494
 20
-9.999999999999987
 30
0.0
 40
7.0
  0
CIRCLE
  5
427F
330
18
100
AcDbEntity
  8
SKVIEW1
100
AcDbCircle
 10
-217.6107371494
 20
-9.999999999999987
 30
0.0
 40
7.0
  0
CIRCLE
  5
4280
330
18
100
AcDbEntity
  8
SKVIEW1
100
AcDbCircle
 10
-197.6107371494
 20
-9.999999999999987
 30
0.0
 40
7.0
  0
LINE
  5
4281
330
18
100
AcDbEntity
  8
SKVIEW1
100
AcDbLine
 10
-212.6107371494001
 20
0.0000000000000107
 30
0.0
 11
-229.1107371494001
 21
0.0000000000000107
 31
0.0
  0
LINE
  5
4282
330
18
100
AcDbEntity
  8
SKVIEW1
100
AcDbLine
 10
-212.6107371494001
 20
-0.2999999999999723
 30
0.0
 11
-182.6107371494
 21
-0.2999999999999723
 31
0.0
  0
LINE
  5
4283
330
18
100
AcDbEntity
  8
SKVIEW1
100
AcDbLine
 10
-212.6107371494001
 20
0.0000000000000107
 30
0.0
 11
-212.6107371494001
 21
-0.2999999999999723
 31
0.0
  0
LINE
  5
4284
330
18
100
AcDbEntity
  8
SKVIEW1
100
AcDbLine
 10
-182.6107371494
 20
-0.2999999999999723
 30
0.0
 11
-182.6107371494
 21
0.0000000000000107
 31
0.0
  0
ARC
  5
4285
330
18
100
AcDbEntity
  8
SKVIEW1
100
AcDbCircle
 10
-177.6107371494
 20
-9.999999999999987
 30
0.0
 40
3.43
100
AcDbArc
 50
1.001874584500334
 51
58.99812541549643
  0
CIRCLE
  5
4286
330
18
100
AcDbEntity
  8
SKVIEW1
100
AcDbCircle
 10
-177.6107371494
 20
-9.999999999999987
 30
0.0
 40
5.7
  0
CIRCLE
  5
4287
330
18
100
AcDbEntity
  8
SKVIEW1
100
AcDbCircle
 10
-177.6107371494
 20
-9.999999999999987
 30
0.0
 40
6.5
  0
ARC
  5
4288
330
18
100
AcDbEntity
  8
SKVIEW1
100
AcDbCircle
 10
-177.6107371494
 20
-9.999999999999987
 30
0.0
 40
3.000000000000031
100
AcDbArc
 50
149.9999999999995
 51
210.0000000000006
  0
ARC
  5
4289
330
18
100
AcDbEntity
  8
SKVIEW1
100
AcDbCircle
 10
-177.6107371494
 20
-9.999999999999987
 30
0.0
 40
3.000000000000001
100
AcDbArc
 50
210.0000000000006
 51
270.0
  0
ARC
  5
428A
330
18
100
AcDbEntity
  8
SKVIEW1
100
AcDbCircle
 10
-177.6107371494
 20
-9.999999999999987
 30
0.0
 40
3.000000000000028
100
AcDbArc
 50
270.0
 51
329.9999999999994
  0
ARC
  5
428B
330
18
100
AcDbEntity
  8
SKVIEW1
100
AcDbCircle
 10
-177.6107371494
 20
-9.999999999999987
 30
0.0
 40
3.000000000000028
100
AcDbArc
 50
329.9999999999994
 51
30.00000000000049
  0
ARC
  5
428C
330
18
100
AcDbEntity
  8
SKVIEW1
100
AcDbCircle
 10
-177.6107371494
 20
-9.999999999999987
 30
0.0
 40
2.999999999999998
100
AcDbArc
 50
30.00000000000049
 51
90.0
  0
ARC
  5
428D
330
18
100
AcDbEntity
  8
SKVIEW1
100
AcDbCircle
 10
-177.6107371494
 20
-9.999999999999987
 30
0.0
 40
3.000000000000028
100
AcDbArc
 50
90.0
 51
149.9999999999995
  0
ARC
  5
428E
330
18
100
AcDbEntity
  8
SKVIEW1
100
AcDbCircle
 10
-177.6107371494
 20
-9.999999999999987
 30
0.0
 40
3.430000000000001
100
AcDbArc
 50
61.00187458449694
 51
118.998125415503
  0
ARC
  5
428F
330
18
100
AcDbEntity
  8
SKVIEW1
100
AcDbCircle
 10
-177.6107371494
 20
-9.999999999999987
 30
0.0
 40
3.430000000000001
100
AcDbArc
 50
121.0018745845036
 51
178.9981254154997
  0
ARC
  5
4290
330
18
100
AcDbEntity
  8
SKVIEW1
100
AcDbCircle
 10
-177.6107371494
 20
-9.999999999999987
 30
0.0
 40
3.43
100
AcDbArc
 50
181.0018745845003
 51
238.9981254154964
  0
ARC
  5
4291
330
18
100
AcDbEntity
  8
SKVIEW1
100
AcDbCircle
 10
-177.6107371494
 20
-9.999999999999987
 30
0.0
 40
3.430000000000163
100
AcDbArc
 50
241.001874584497
 51
298.998125415503
  0
ARC
  5
4292
330
18
100
AcDbEntity
  8
SKVIEW1
100
AcDbCircle
 10
-177.6107371494
 20
-9.999999999999987
 30
0.0
 40
3.430000000000001
100
AcDbArc
 50
301.0018745845035
 51
358.9981254154996
  0
LINE
  5
4293
330
18
100
AcDbEntity
  8
SKVIEW1
100
AcDbLine
 10
-175.8786863419001
 20
-12.99999999999999
 30
0.0
 11
-175.8440603607
 21
-12.94002604140001
 31
0.0
  0
LINE
  5
4294
330
18
100
AcDbEntity
  8
SKVIEW1
100
AcDbLine
 10
-175.8440603607
 20
-12.94002604140001
 30
0.0
 11
-174.1812615154
 21
-10.05997395859997
 31
0.0
  0
LINE
  5
4295
330
18
100
AcDbEntity
  8
SKVIEW1
100
AcDbLine
 10
-179.342787957
 20
-12.99999999999999
 30
0.0
 11
-179.2735359946999
 21
-12.99999999999999
 31
0.0
  0
LINE
  5
4296
330
18
100
AcDbEntity
  8
SKVIEW1
100
AcDbLine
 10
-179.2735359946999
 20
-12.99999999999999
 30
0.0
 11
-175.9479383041
 21
-12.99999999999999
 31
0.0
  0
LINE
  5
4297
330
18
100
AcDbEntity
  8
SKVIEW1
100
AcDbLine
 10
-181.0748387646
 20
-9.999999999999987
 30
0.0
 11
-181.0402127834001
 21
-10.05997395859997
 31
0.0
  0
LINE
  5
4298
330
18
100
AcDbEntity
  8
SKVIEW1
100
AcDbLine
 10
-181.0402127834001
 20
-10.05997395859997
 30
0.0
 11
-179.3774139380999
 21
-12.94002604140001
 31
0.0
  0
LINE
  5
4299
330
18
100
AcDbEntity
  8
SKVIEW1
100
AcDbLine
 10
-179.342787957
 20
-6.999999999999986
 30
0.0
 11
-179.3774139380999
 21
-7.059973958599973
 31
0.0
  0
LINE
  5
429A
330
18
100
AcDbEntity
  8
SKVIEW1
100
AcDbLine
 10
-179.3774139380999
 20
-7.059973958599973
 30
0.0
 11
-181.0402127834001
 21
-9.940026041400006
 31
0.0
  0
LINE
  5
429B
330
18
100
AcDbEntity
  8
SKVIEW1
100
AcDbLine
 10
-175.8786863419001
 20
-6.999999999999986
 30
0.0
 11
-175.9479383041
 21
-6.999999999999986
 31
0.0
  0
LINE
  5
429C
330
18
100
AcDbEntity
  8
SKVIEW1
100
AcDbLine
 10
-175.9479383041
 20
-6.999999999999986
 30
0.0
 11
-179.2735359946999
 21
-6.999999999999986
 31
0.0
  0
LINE
  5
429D
330
18
100
AcDbEntity
  8
SKVIEW1
100
AcDbLine
 10
-174.1466355343001
 20
-9.999999999999987
 30
0.0
 11
-174.1812615154
 21
-9.940026041400006
 31
0.0
  0
LINE
  5
429E
330
18
100
AcDbEntity
  8
SKVIEW1
100
AcDbLine
 10
-174.1812615154
 20
-9.940026041400006
 30
0.0
 11
-175.8440603607
 21
-7.059973958599973
 31
0.0
  0
LINE
  5
429F
330
18
100
AcDbEntity
  8
SKVIEW1
100
AcDbLine
 10
-174.1812615154
 20
-10.05997395859997
 30
0.0
 11
-174.1466355343001
 21
-9.999999999999987
 31
0.0
  0
LINE
  5
42A0
330
18
100
AcDbEntity
  8
SKVIEW1
100
AcDbLine
 10
-175.9479383041
 20
-12.99999999999999
 30
0.0
 11
-175.8786863419001
 21
-12.99999999999999
 31
0.0
  0
LINE
  5
42A1
330
18
100
AcDbEntity
  8
SKVIEW1
100
AcDbLine
 10
-179.3774139380999
 20
-12.94002604140001
 30
0.0
 11
-179.342787957
 21
-12.99999999999999
 31
0.0
  0
LINE
  5
42A2
330
18
100
AcDbEntity
  8
SKVIEW1
100
AcDbLine
 10
-181.0402127834001
 20
-9.940026041400006
 30
0.0
 11
-181.0748387646
 21
-9.999999999999987
 31
0.0
  0
LINE
  5
42A3
330
18
100
AcDbEntity
  8
SKVIEW1
100
AcDbLine
 10
-179.2735359946999
 20
-6.999999999999986
 30
0.0
 11
-179.342787957
 21
-6.999999999999986
 31
0.0
  0
LINE
  5
42A4
330
18
100
AcDbEntity
  8
SKVIEW1
100
AcDbLine
 10
-175.8440603607
 20
-7.059973958599973
 30
0.0
 11
-175.8786863419001
 21
-6.999999999999986
 31
0.0
  0
LINE
  5
42A5
330
18
100
AcDbEntity
  8
SKVIEW1
100
AcDbLine
 10
-238.8569204326
 20
-32.50948201829998
 30
0.0
 11
-238.8569204326
 21
-27.4905179817
 31
0.0
  0
ARC
  5
42A6
330
18
100
AcDbEntity
  8
SKVIEW1
100
AcDbCircle
 10
-233.4069204326
 20
-29.99999999999999
 30
0.0
 40
6.0
100
AcDbArc
 50
141.9652350004991
 51
155.2760371592991
  0
ARC
  5
42A7
330
18
100
AcDbEntity
  8
SKVIEW1
100
AcDbCircle
 10
-233.4069204326
 20
-29.99999999999999
 30
0.0
 40
6.000000000000002
100
AcDbArc
 50
204.7239628407009
 51
218.3745345430994
  0
LINE
  5
42A8
330
18
100
AcDbEntity
  8
SKVIEW1
100
AcDbLine
 10
-134.2607371494
 20
-35.0
 30
0.0
 11
-134.2607371494
 21
-20.99999999999999
 31
0.0
  0
LINE
  5
42A9
330
18
100
AcDbEntity
  8
SKVIEW1
100
AcDbLine
 10
-137.2607371494
 20
-35.0
 30
0.0
 11
-137.2607371494
 21
-20.99999999999999
 31
0.0
  0
LINE
  5
42AA
330
18
100
AcDbEntity
  8
SKVIEW1
100
AcDbLine
 10
-137.2607371494
 20
-20.99999999999999
 30
0.0
 11
-134.2607371494
 21
-20.99999999999999
 31
0.0
  0
LINE
  5
42AB
330
18
100
AcDbEntity
  8
SKVIEW1
100
AcDbLine
 10
-134.2607371494
 20
-35.0
 30
0.0
 11
-137.2607371494
 21
-35.0
 31
0.0
  0
LINE
  5
42AC
330
18
100
AcDbEntity
  8
SKVIEW1
100
AcDbLine
 10
-137.2607371494
 20
-34.64999999999999
 30
0.0
 11
-137.2607371494
 21
-21.34999999999998
 31
0.0
  0
LINE
  5
42AD
330
18
100
AcDbEntity
  8
SKVIEW1
100
AcDbLine
 10
-138.1107371494
 20
-21.34999999999998
 30
0.0
 11
-137.2607371494
 21
-21.34999999999998
 31
0.0
  0
LINE
  5
42AE
330
18
100
AcDbEntity
  8
SKVIEW1
100
AcDbLine
 10
-137.2607371494
 20
-34.64999999999999
 30
0.0
 11
-138.1107371494
 21
-34.64999999999999
 31
0.0
  0
LINE
  5
42D1
102
{ACAD_REACTORS
330
431F
330
4337
330
434F
102
}
330
18
100
AcDbEntity
  8
SKVIEW4
100
AcDbLine
 10
-244.948540654373
 20
-0.0000000000000036
 30
0.0
 11
-135.5493198927419
 21
-0.0000000000000036
 31
0.0
  0
LINE
  5
42D2
102
{ACAD_REACTORS
330
434F
102
}
330
18
100
AcDbEntity
  8
SKVIEW4
100
AcDbLine
 10
-188.1107371494
 20
-27.61044176160595
 30
0.0
 11
-188.1107371494
 21
25.37646407132838
 31
0.0
  0
DIMENSION
  5
4308
102
{ACAD_XDICTIONARY
360
4315
102
}
102
{ACAD_REACTORS
330
431F
102
}
330
18
100
AcDbEntity
  8
SKVIEW2
100
AcDbDimension
  2
*D2
 10
-116.7435245857253
 20
-0.0000000000000089
 30
0.0
 11
-119.5550143959854
 21
24.99999999999997
 31
0.0
 70
    32
 71
     5
 42
50.0
  3
AM_DIN
100
AcDbAlignedDimension
 13
-194.091499263
 23
50.0
 33
0.0
 14
-135.5493198927419
 24
-0.0000000000000036
 34
0.0
 50
90.0
100
AcDbRotatedDimension
  0
DIMENSION
  5
4320
102
{ACAD_XDICTIONARY
360
432D
102
}
102
{ACAD_REACTORS
330
4337
102
}
330
18
100
AcDbEntity
  8
SKVIEW2
100
AcDbDimension
  2
*D3
 10
-116.4959329636316
 20
-0.000000000000009
 30
0.0
 11
-119.3074227738916
 21
-25.00000000000002
 31
0.0
 70
    32
 71
     5
 42
50.0
  3
AM_DIN
100
AcDbAlignedDimension
 13
-167.9671436100001
 23
-50.0
 33
0.0
 14
-135.5493198927419
 24
-0.0000000000000036
 34
0.0
 50
90.0
100
AcDbRotatedDimension
  0
DIMENSION
  5
4338
102
{ACAD_XDICTIONARY
360
4345
102
}
102
{ACAD_REACTORS
330
434F
102
}
330
18
100
AcDbEntity
  8
SKVIEW2
100
AcDbDimension
  2
*D4
 10
-238.1107371494
 20
74.49739067266108
 30
0.0
 11
-211.4729710150963
 21
74.49739067266108
 31
0.0
 70
   160
 71
     5
 42
50.0
  3
AM_DIN
100
AcDbAlignedDimension
 13
-188.1107371494
 23
-0.0000000000000036
 33
0.0
 14
-238.1107371494
 24
48.0
 34
0.0
100
AcDbRotatedDimension
1001
ACAD
1000
DSTYLE
1002
{
1070
   279
1070
     0
1002
}
  0
DIMENSION
  5
4350
102
{ACAD_XDICTIONARY
360
435D
102
}
102
{ACAD_REACTORS
330
4367
102
}
330
18
100
AcDbEntity
  8
SKVIEW2
100
AcDbDimension
  2
*D5
 10
-138.1107371494
 20
84.49739067266108
 30
0.0
 11
-188.1107371494
 21
84.49739067266108
 31
0.0
 70
   160
 71
     5
 42
100.0
  3
AM_DIN
100
AcDbAlignedDimension
 13
-238.1107371494
 23
48.0
 33
0.0
 14
-138.1107371494
 24
33.00000000000002
 34
0.0
100
AcDbRotatedDimension
1001
ACAD
1000
DSTYLE
1002
{
1070
   279
1070
     0
1002
}
  0
DIMENSION
  5
4371
102
{ACAD_XDICTIONARY
360
437F
102
}
102
{ACAD_REACTORS
330
438A
102
}
330
18
100
AcDbEntity
  8
SKVIEW2
100
AcDbDimension
  2
*D6
 10
-228.0107371494001
 20
64.49739067266108
 30
0.0
 11
-204.3697961866559
 21
64.49739067266108
 31
0.0
 70
   160
 71
     5
 42
10.09999999999988
  3
AM_DIN
100
AcDbAlignedDimension
 13
-238.1107371494
 23
48.0
 33
0.0
 14
-228.0107371494001
 24
35.00000000000002
 34
0.0
100
AcDbRotatedDimension
1001
ACAD
1000
DSTYLE
1002
{
1070
   279
1070
     0
1002
}
  0
LINE
  5
442B
330
18
100
AcDbEntity
  8
4
100
AcDbLine
 10
-76.58339977230003
 20
-0.0000000000000036
 30
0.0
 11
63.53828818667864
 21
-0.0000000000000036
 31
0.0
  0
DIMENSION
  5
4491
102
{ACAD_XDICTIONARY
360
449E
102
}
102
{ACAD_REACTORS
330
44A8
102
}
330
18
100
AcDbEntity
  8
2
100
AcDbDimension
  2
*D7
 10
55.0
 20
85.60381145819858
 30
0.0
 11
-10.00000000000005
 21
85.60381145819858
 31
0.0
 70
   160
 71
     5
 42
130.0000000000001
  3
AM_DIN
100
AcDbAlignedDimension
 13
-75.0000000000001
 23
19.50000000000001
 33
0.0
 14
55.0
 24
-21.04619929169998
 34
0.0
100
AcDbRotatedDimension
1001
ACAD
1000
DSTYLE
1002
{
1070
   279
1070
     0
1002
}
  0
DIMENSION
  5
44A9
102
{ACAD_XDICTIONARY
360
44B6
102
}
102
{ACAD_REACTORS
330
44C0
102
}
330
18
100
AcDbEntity
  8
2
100
AcDbDimension
  2
*D8
 10
0.0000000000000016
 20
75.60381145819859
 30
0.0
 11
27.50000000000001
 21
75.60381145819859
 31
0.0
 70
   160
 71
     5
 42
55.0
  3
AM_DIN
100
AcDbAlignedDimension
 13
55.0
 23
49.00000000000002
 33
0.0
 14
0.0
 24
48.73242271070004
 34
0.0
100
AcDbRotatedDimension
1001
ACAD
1000
DSTYLE
1002
{
1070
   279
1070
     0
1002
}
  0
DIMENSION
  5
44C1
102
{ACAD_XDICTIONARY
360
44CE
102
}
102
{ACAD_REACTORS
330
44D8
102
}
330
18
100
AcDbEntity
  8
2
100
AcDbDimension
  2
*D9
 10
29.50000000000001
 20
65.6038114581986
 30
0.0
 11
14.75
 21
68.41530126845862
 31
0.0
 70
    32
 71
     5
 42
29.5
  3
AM_DIN
100
AcDbAlignedDimension
 13
0.0
 23
48.73242271070004
 33
0.0
 14
29.5
 24
27.00000000000001
 34
0.0
100
AcDbRotatedDimension
1001
ACAD
1000
DSTYLE
1002
{
1070
   279
1070
     0
1002
}
  0
DIMENSION
  5
450F
102
{ACAD_XDICTIONARY
360
451C
102
}
102
{ACAD_REACTORS
330
4526
102
}
330
18
100
AcDbEntity
  8
2
100
AcDbDimension
  2
*D10
 10
-87.48616769971659
 20
-19.99999999999999
 30
0.0
 11
-90.34930895059501
 21
-0.0000000000000014
 31
0.0
 70
    32
  1
%%c<>
 71
     5
 42
40.0
  3
AM_DIN
100
AcDbAlignedDimension
 13
-72.00000000000009
 23
20.00000000000001
 33
0.0
 14
-72.00000000000009
 24
-19.99999999999999
 34
0.0
 50
90.0
100
AcDbRotatedDimension
1001
ACAD_DSTYLE_DIMINSPECT
1070
   396
1000
100%
1070
   395
1000

1070
   394
1070
    33
1070
   393
1070
     0
  0
MTEXT
  5
4546
330
18
100
AcDbEntity
  8
SK6
100
AcDbMText
 10
-238.8569204326
 20
-65.36729251286556
 30
0.0
 40
3.5
 41
98.85817315445326
 71
     1
 72
     5
  1
ASHA-L-VDI50-25-JETI\P03200457
  7
STANDARD 3.5 mm
 73
     1
 44
1.0
1001
ACAD
1000
ACAD_MTEXT_COLUMN_INFO_BEGIN
1070
    75
1070
     2
1070
    79
1070
     0
1070
    76
1070
     1
1070
    78
1070
     0
1070
    48
1040
98.85817315445326
1070
    49
1040
25.0
1070
    50
1070
     1
1040
0.0
1000
ACAD_MTEXT_COLUMN_INFO_END
1000
MTEXTBEGIN
1070
    73
1070
     1
1070
    44
1040
1.0
1070
    74
1070
     0
1000
MTEXTEND
  0
VIEWPORT
  5
B5D
102
{ACAD_XDICTIONARY
360
B5E
102
}
330
B56
100
AcDbEntity
 67
     1
  8
0
100
AcDbViewport
 10
148.4886727696569
 20
104.9919908472322
 30
0.0
 40
360.5799308901367
 41
215.6936333192457
 68
     1
 69
     1
 12
148.4886727696569
 22
104.9919908472322
 13
0.0
 23
0.0
 14
10.0
 24
10.0
 15
10.0
 25
10.0
 16
0.0
 26
0.0
 36
1.0
 17
0.0
 27
0.0
 37
0.0
 42
50.0
 43
0.0
 44
0.0
 45
215.6936333192457
 50
0.0
 51
0.0
 72
  2000
 90
   819232
  1

281
     0
 71
     1
 74
     0
110
0.0
120
0.0
130
0.0
111
1.0
121
0.0
131
0.0
112
0.0
122
1.0
132
0.0
 79
     0
146
0.0
1001
GENIUS_GENODEF_13
1002
{
1000
HIER
1070
     0
1002
}
1002
{
1000
MANEDIT
1070
     0
1002
}
1002
{
1000
NOSEL
1070
     0
1002
}
1002
{
1000
BEHIND
1070
     0
1002
}
1002
{
1000
OTHER
1070
     0
1002
}
1002
{
1000
REACTOR
1002
}
1001
GENIUS_GENOBJ-N-SDF_13
1002
{
1000
OWNER
1000
GEN
1002
}
1001
GENIUS_GENSCREG_15
1000
PF
1040
1.0
1000
DF
1040
1.0
1000
MIN
1011
-31.80129267541145
1021
-2.854825812390629
1031
0.0
1000
MAX
1011
328.7786382147253
1021
212.8388075068551
1031
0.0
1000
FLAGS
1070
     4
  0
VIEWPORT
  5
B61
102
{ACAD_XDICTIONARY
360
B62
102
}
330
B56
100
AcDbEntity
 67
     1
  8
1
100
AcDbViewport
 10
148.5
 20
105.0
 30
0.0
 40
297.0
 41
210.0
 68
     2
 69
     2
 12
0.3212157160238718
 22
-0.0519849240370149
 13
0.0
 23
0.0
 14
5.0
 24
5.0
 15
5.0
 25
5.0
 16
0.0
 26
0.0
 36
1.0
 17
0.0
 27
0.0
 37
0.0
 42
50.0
 43
0.0
 44
0.0
 45
210.0000000373879
 50
0.0
 51
0.0
 72
  2000
 90
   819232
  1

281
     0
 71
     1
 74
     0
110
0.0
120
0.0
130
0.0
111
1.0
121
0.0
131
0.0
112
0.0
122
1.0
132
0.0
 79
     0
146
0.0
1001
GENIUS_GENOBJ-N-SDF_13
1002
{
1000
OWNER
1000
GEN
1002
}
1001
GENIUS_GENODEF_13
1002
{
1000
HIER
1070
     0
1002
}
1002
{
1000
MANEDIT
1070
     0
1002
}
1002
{
1000
NOSEL
1070
     0
1002
}
1002
{
1000
BEHIND
1070
     0
1002
}
1002
{
1000
OTHER
1070
     0
1002
}
1002
{
1000
REACTOR
1002
}
1001
GENIUS_GENSCREG_15
1000
PF
1040
0.0
1000
DF
1040
0.0
1000
MIN
1011
0.0
1021
0.0
1031
0.0
1000
MAX
1011
297.0
1021
210.0
1031
0.0
1000
FLAGS
1070
     4
  0
ENDSEC
  0
SECTION
  2
OBJECTS
  0
DICTIONARY
  5
C
330
0
100
AcDbDictionary
281
     1
  3
ACAD_2007HEADERVARS_RT
350
5242
  3
ACAD_BACKGROUND
350
B0F
  3
ACAD_CIP_PREVIOUS_PRODUCT_INFO
350
CF7
  3
ACAD_COLOR
350
387
  3
ACAD_DETAILVIEWSTYLE
350
CEF
  3
ACAD_FIELDLIST
350
D13
  3
ACAD_GROUP
350
D
  3
ACAD_LAYOUT
350
301
  3
ACAD_MATERIAL
350
386
  3
ACAD_MLEADERSTYLE
350
46F
  3
ACAD_MLINESTYLE
350
E
  3
ACAD_PLOTSETTINGS
350
302
  3
ACAD_PLOTSTYLENAME
350
2FF
  3
ACAD_SCALELIST
350
44D
  3
ACAD_SECTIONVIEWSTYLE
350
CED
  3
ACAD_TABLESTYLE
350
388
  3
ACAD_VISUALSTYLE
350
3F2
  3
ACDB_RECOMPOSE_DATA
350
5240
  3
AcDbVariableDictionary
350
357
  3
AcmDictionary
350
4D1
  3
AMG
350
478
  3
AMGSNAPSETTINGS
350
51E
  3
DWGPROPS
350
5241
  0
DICTIONARY
  5
A45
330
8
100
AcDbDictionary
280
     1
281
     1
  0
DICTIONARY
  5
43C
330
2
100
AcDbDictionary
280
     1
281
     1
  3
ACAD_LAYERFILTERS
360
B21
  3
ACAD_LAYERSTATES
360
567
  3
ACLYDICTIONARY
360
B20
  3
AMLAYER_GROUPCOLORS
360
E31
  0
DICTIONARY
  5
52D
330
F
100
AcDbDictionary
280
     1
281
     1
  3
ADSK_XREC_LAYER_RECONCILED
360
4DDF
  0
DICTIONARY
  5
52F
330
23
100
AcDbDictionary
280
     1
281
     1
  3
ADSK_XREC_LAYER_RECONCILED
360
4DE0
  0
DICTIONARY
  5
533
330
25
100
AcDbDictionary
280
     1
281
     1
  3
ADSK_XREC_LAYER_RECONCILED
360
4DE1
  0
DICTIONARY
  5
53D
330
2A
100
AcDbDictionary
280
     1
281
     1
  3
ADSK_XREC_LAYER_RECONCILED
360
4DE2
  0
DICTIONARY
  5
545
330
2E
100
AcDbDictionary
280
     1
281
     1
  3
ADSK_XREC_LAYER_RECONCILED
360
4DE3
  0
DICTIONARY
  5
54D
330
432
100
AcDbDictionary
280
     1
281
     1
  3
ADSK_XREC_LAYER_RECONCILED
360
4DE4
  0
DICTIONARY
  5
54F
330
434
100
AcDbDictionary
280
     1
281
     1
  3
ADSK_XREC_LAYER_RECONCILED
360
4DE5
  0
DICTIONARY
  5
551
330
435
100
AcDbDictionary
280
     1
281
     1
  3
ADSK_XREC_LAYER_RECONCILED
360
4DE6
  0
DICTIONARY
  5
553
330
436
100
AcDbDictionary
280
     1
281
     1
  3
ADSK_XREC_LAYER_RECONCILED
360
4DE7
  0
DICTIONARY
  5
4DE8
330
1693
100
AcDbDictionary
280
     1
281
     1
  3
ADSK_XREC_LAYER_RECONCILED
360
4DE9
  0
DICTIONARY
  5
DB1
330
18
100
AcDbDictionary
280
     1
281
     1
  3
ACAD_SORTENTS
360
DB2
  0
DICTIONARY
  5
4315
330
4308
100
AcDbDictionary
280
     1
281
     1
  3
ACAD_DIMASSOC
360
431F
  0
DICTIONARY
  5
432D
330
4320
100
AcDbDictionary
280
     1
281
     1
  3
ACAD_DIMASSOC
360
4337
  0
DICTIONARY
  5
4345
330
4338
100
AcDbDictionary
280
     1
281
     1
  3
ACAD_DIMASSOC
360
434F
  0
DICTIONARY
  5
435D
330
4350
100
AcDbDictionary
280
     1
281
     1
  3
ACAD_DIMASSOC
360
4367
  0
DICTIONARY
  5
437F
330
4371
100
AcDbDictionary
280
     1
281
     1
  3
ACAD_DIMASSOC
360
438A
  0
DICTIONARY
  5
449E
330
4491
100
AcDbDictionary
280
     1
281
     1
  3
ACAD_DIMASSOC
360
44A8
  0
DICTIONARY
  5
44B6
330
44A9
100
AcDbDictionary
280
     1
281
     1
  3
ACAD_DIMASSOC
360
44C0
  0
DICTIONARY
  5
44CE
330
44C1
100
AcDbDictionary
280
     1
281
     1
  3
ACAD_DIMASSOC
360
44D8
  0
DICTIONARY
  5
451C
330
450F
100
AcDbDictionary
280
     1
281
     1
  3
ACAD_DIMASSOC
360
4526
  0
DICTIONARY
  5
B5E
330
B5D
100
AcDbDictionary
280
     1
281
     1
  3
ACAD_XREC_ROUNDTRIP
360
5273
  3
ASDK_XREC_ANNOTATION_SCALE_INFO
360
B5F
  0
DICTIONARY
  5
B62
330
B61
100
AcDbDictionary
280
     1
281
     1
  3
ACAD_XREC_ROUNDTRIP
360
5274
  3
ASDK_XREC_ANNOTATION_SCALE_INFO
360
B63
  0
DICTIONARY
  5
5242
102
{ACAD_REACTORS
330
C
102
}
330
C
100
AcDbDictionary
281
     1
  3
DIMARCSYM
350
5243
  3
DIMJOGANG
350
5244
  3
DIMLTEX1
350
5246
  3
DIMLTEX2
350
5247
  3
DIMLTYPE
350
5245
  0
DICTIONARY
  5
B0F
102
{ACAD_REACTORS
330
C
102
}
330
C
100
AcDbDictionary
281
     1
  0
XRECORD
  5
CF7
102
{ACAD_REACTORS
330
C
102
}
330
C
100
AcDbXrecord
280
     1
300
AMECH_PP
300
2014
300
86138AMECH_PP_2014_0F
  0
DICTIONARY
  5
387
102
{ACAD_REACTORS
330
C
102
}
330
C
100
AcDbDictionary
281
     1
  0
DICTIONARY
  5
CEF
102
{ACAD_REACTORS
330
C
102
}
330
C
100
AcDbDictionary
281
     1
  3
Imperial24
350
16AB
  3
Metric50
350
CF0
  0
FIELDLIST
  5
D13
102
{ACAD_REACTORS
330
C
102
}
330
C
100
AcDbIdSet
 90
        3
330
5210
330
520E
330
520F
100
AcDbFieldList
  0
DICTIONARY
  5
D
102
{ACAD_REACTORS
330
C
102
}
330
C
100
AcDbDictionary
281
     1
  0
DICTIONARY
  5
301
102
{ACAD_REACTORS
330
C
102
}
330
C
100
AcDbDictionary
281
     1
  3
Layout1
350
B57
  3
Model
350
303
  0
DICTIONARY
  5
386
102
{ACAD_REACTORS
330
C
102
}
330
C
100
AcDbDictionary
281
     1
  3
ByBlock
350
3F0
  3
ByLayer
350
3EF
  3
Global
350
3F1
  0
DICTIONARY
  5
46F
102
{ACAD_REACTORS
330
C
102
}
330
C
100
AcDbDictionary
281
     1
  3
Standard
350
470
  0
DICTIONARY
  5
E
102
{ACAD_REACTORS
330
C
102
}
330
C
100
AcDbDictionary
281
     1
  3
STANDARD
350
1B
  0
DICTIONARY
  5
302
102
{ACAD_REACTORS
330
C
102
}
330
C
100
AcDbDictionary
281
     1
  3
DWG To PDF A4 - landscape
350
7EF
  3
DWG To PDF A4 - portrait
350
7F8
  0
ACDBDICTIONARYWDFLT
  5
2FF
102
{ACAD_REACTORS
330
C
102
}
330
C
100
AcDbDictionary
281
     1
  3
Normal
350
300
100
AcDbDictionaryWithDefault
340
300
  0
DICTIONARY
  5
44D
102
{ACAD_REACTORS
330
C
102
}
330
C
100
AcDbDictionary
281
     1
  3
A0
350
BFC
  3
A1
350
BFD
  3
A2
350
BFE
  3
A3
350
BFF
  3
A4
350
C00
  3
A5
350
C01
  3
A6
350
44E
  3
A7
350
C02
  3
A8
350
C03
  3
A9
350
C04
  3
B0
350
C05
  3
B1
350
C06
  3
B2
350
C07
  0
DICTIONARY
  5
CED
102
{ACAD_REACTORS
330
C
102
}
330
C
100
AcDbDictionary
281
     1
  3
Imperial24
350
16A7
  3
Metric50
350
CEE
  0
DICTIONARY
  5
388
102
{ACAD_REACTORS
330
C
102
}
330
C
100
AcDbDictionary
281
     1
  3
Standard
350
389
  0
DICTIONARY
  5
3F2
102
{ACAD_REACTORS
330
C
102
}
330
C
100
AcDbDictionary
281
     1
  3
2dWireframe
350
3F8
  3
3D Hidden
350
3FA
  3
3dWireframe
350
3F9
  3
Basic
350
3F7
  3
Brighten
350
3FE
  3
ColorChange
350
402
  3
Conceptual
350
3FB
  3
Dim
350
3FD
  3
EdgeColorOff
350
BDF
  3
Facepattern
350
401
  3
Flat
350
3F3
  3
FlatWithEdges
350
3F4
  3
Gouraud
350
3F5
  3
GouraudWithEdges
350
3F6
  3
Hidden
350
CE7
  3
JitterOff
350
BDD
  3
Linepattern
350
400
  3
OverhangOff
350
BDE
  3
Realistic
350
3FC
  3
Shaded
350
CEC
  3
Shaded with edges
350
CEB
  3
Shades of Gray
350
CE8
  3
Sketchy
350
CE9
  3
Thicken
350
3FF
  3
Wireframe
350
CE6
  3
X-Ray
350
CEA
  0
XRECORD
  5
5240
102
{ACAD_REACTORS
330
C
102
}
330
C
100
AcDbXrecord
280
     1
 90
        1
330
389
330
4546
  0
DICTIONARY
  5
357
102
{ACAD_REACTORS
330
C
102
}
330
C
100
AcDbDictionary
281
     1
  3
CANNOSCALE
350
57C
  3
CMLEADERSTYLE
350
57A
  3
CTABLESTYLE
350
38E
  3
CVIEWDETAILSTYLE
350
D2C
  3
CVIEWSECTIONSTYLE
350
D2D
  3
DIMASSOC
350
359
  3
HIDETEXT
350
358
  3
INDEXCTL
350
ACC
  3
LAYEREVAL
350
BF1
  3
LAYERNOTIFY
350
BF2
  3
LIGHTINGUNITS
350
57D
  3
MSLTSCALE
350
57B
  3
SOLIDHIST
350
4DEB
  3
SORTENTS
350
ACB
  3
XCLIPFRAME
350
523E
  0
DICTIONARY
  5
4D1
102
{ACAD_REACTORS
330
C
102
}
330
C
100
AcDbDictionary
281
     1
  3
AcmStdDictionary
350
4DC
  3
AMDTSECTSYM_ARROWCOLOR
350
4F3
  0
DICTIONARY
  5
478
102
{ACAD_REACTORS
330
C
102
}
330
C
100
AcDbDictionary
281
     1
  0
DICTIONARY
  5
51E
102
{ACAD_REACTORS
330
C
102
}
330
C
100
AcDbDictionary
281
     1
  0
XRECORD
  5
5241
102
{ACAD_REACTORS
330
C
102
}
330
C
100
AcDbXrecord
280
     1
  1
DWGPROPS COOKIE
  2

  3

  4
Philippe Vogel
  6
Secotools DIN Template metric
  7

  8
inpunbhem
  9

300
=
301
=
302
=
303
=
304
=
305
=
306
=
307
=
308
=
309
=
 40
0.1753733333333333
 41
2458061.5614564
 42
2458065.39633015
  1
HTTP://WWW.SECOTOOLS.COM/
 90
        0
  0
DICTIONARY
  5
B21
102
{ACAD_REACTORS
330
43C
102
}
330
43C
100
AcDbDictionary
281
     1
  0
DICTIONARY
  5
567
102
{ACAD_REACTORS
330
43C
102
}
330
43C
100
AcDbDictionary
281
     1
  3
BMG3.0
350
8E9
  0
DICTIONARY
  5
B20
102
{ACAD_REACTORS
330
43C
102
}
330
43C
100
AcDbDictionary
281
     1
1001
ACAD
1000
<All
  0
DICTIONARY
  5
E31
102
{ACAD_REACTORS
330
43C
102
}
330
43C
100
AcDbDictionary
280
     1
281
     1
  0
XRECORD
  5
4DDF
102
{ACAD_REACTORS
330
52D
102
}
330
52D
100
AcDbXrecord
280
     1
290
     1
  0
XRECORD
  5
4DE0
102
{ACAD_REACTORS
330
52F
102
}
330
52F
100
AcDbXrecord
280
     1
290
     1
  0
XRECORD
  5
4DE1
102
{ACAD_REACTORS
330
533
102
}
330
533
100
AcDbXrecord
280
     1
290
     1
  0
XRECORD
  5
4DE2
102
{ACAD_REACTORS
330
53D
102
}
330
53D
100
AcDbXrecord
280
     1
290
     1
  0
XRECORD
  5
4DE3
102
{ACAD_REACTORS
330
545
102
}
330
545
100
AcDbXrecord
280
     1
290
     1
  0
XRECORD
  5
4DE4
102
{ACAD_REACTORS
330
54D
102
}
330
54D
100
AcDbXrecord
280
     1
290
     1
  0
XRECORD
  5
4DE5
102
{ACAD_REACTORS
330
54F
102
}
330
54F
100
AcDbXrecord
280
     1
290
     1
  0
XRECORD
  5
4DE6
102
{ACAD_REACTORS
330
551
102
}
330
551
100
AcDbXrecord
280
     1
290
     1
  0
XRECORD
  5
4DE7
102
{ACAD_REACTORS
330
553
102
}
330
553
100
AcDbXrecord
280
     1
290
     1
  0
XRECORD
  5
4DE9
102
{ACAD_REACTORS
330
4DE8
102
}
330
4DE8
100
AcDbXrecord
280
     1
290
     1
  0
SORTENTSTABLE
  5
DB2
102
{ACAD_REACTORS
330
DB1
102
}
330
DB1
100
AcDbSortentsTable
330
18
  0
DIMASSOC
  5
431F
102
{ACAD_REACTORS
330
4315
102
}
330
4315
100
AcDbDimAssoc
330
4308
 90
        3
 70
     0
 71
     0
  1
AcDbOsnapPointRef
 72
     1
331
41F6
 73
     2
 91
        0
 40
0.9999999999999998
 10
0.0
 20
0.0
 30
2.000000000000000E+50
 75
     0
  1
AcDbOsnapPointRef
 72
     1
331
42D1
 73
     2
 91
        0
 40
1.0
 10
0.0
 20
0.0
 30
2.000000000000000E+50
 75
     0
  0
DIMASSOC
  5
4337
102
{ACAD_REACTORS
330
432D
102
}
330
432D
100
AcDbDimAssoc
330
4320
 90
        3
 70
     0
 71
     0
  1
AcDbOsnapPointRef
 72
    13
331
41FE
 73
     2
 91
        0
 40
0.0
 10
0.0
 20
0.0
 30
2.000000000000000E+50
 75
     0
  1
AcDbOsnapPointRef
 72
     1
331
42D1
 73
     2
 91
        0
 40
1.0
 10
0.0
 20
0.0
 30
2.000000000000000E+50
 75
     0
  0
DIMASSOC
  5
434F
102
{ACAD_REACTORS
330
4345
102
}
330
4345
100
AcDbDimAssoc
330
4338
 90
        3
 70
     0
 71
     0
  1
AcDbOsnapPointRef
 72
    11
331
42D2
 73
     2
 91
        0
 40
0.5210804693646503
 10
0.0
 20
0.0
 30
0.0
332
42D1
 74
     2
 92
        0
 75
     0
  1
AcDbOsnapPointRef
 72
    13
331
41F9
 73
     2
 91
        0
 40
0.0
 10
0.0
 20
0.0
 30
2.000000000000000E+50
 75
     0
  0
DIMASSOC
  5
4367
102
{ACAD_REACTORS
330
435D
102
}
330
435D
100
AcDbDimAssoc
330
4350
 90
        3
 70
     0
 71
     0
  1
AcDbOsnapPointRef
 72
    13
331
41F9
 73
     2
 91
        0
 40
0.0
 10
0.0
 20
0.0
 30
2.000000000000000E+50
 75
     0
  1
AcDbOsnapPointRef
 72
     1
331
4215
 73
     2
 91
        0
 40
1.0
 10
0.0
 20
0.0
 30
2.000000000000000E+50
 75
     0
  0
DIMASSOC
  5
438A
102
{ACAD_REACTORS
330
437F
102
}
330
437F
100
AcDbDimAssoc
330
4371
 90
        3
 70
     0
 71
     0
  1
AcDbOsnapPointRef
 72
    13
331
41F9
 73
     2
 91
        0
 40
0.0
 10
0.0
 20
0.0
 30
2.000000000000000E+50
 75
     0
  1
AcDbOsnapPointRef
 72
    13
331
4222
 73
     2
 91
        0
 40
0.0
 10
0.0
 20
0.0
 30
2.000000000000000E+50
 75
     0
  0
DIMASSOC
  5
44A8
102
{ACAD_REACTORS
330
449E
102
}
330
449E
100
AcDbDimAssoc
330
4491
 90
        3
 70
     0
 71
     0
  1
AcDbOsnapPointRef
 72
    13
331
41A0
 73
     2
 91
        0
 40
0.0
 10
0.0
 20
0.0
 30
2.000000000000000E+50
 75
     0
  1
AcDbOsnapPointRef
 72
    13
331
4186
 73
     2
 91
        0
 40
0.0
 10
0.0
 20
0.0
 30
2.000000000000000E+50
 75
     0
  0
DIMASSOC
  5
44C0
102
{ACAD_REACTORS
330
44B6
102
}
330
44B6
100
AcDbDimAssoc
330
44A9
 90
        3
 70
     0
 71
     0
  1
AcDbOsnapPointRef
 72
     1
331
4180
 73
     2
 91
        0
 40
0.9999999999999998
 10
0.0
 20
0.0
 30
2.000000000000000E+50
 75
     0
  1
AcDbOsnapPointRef
 72
    13
331
417A
331
417B
 73
     2
 91
        0
 40
0.0
 10
0.0
 20
0.0
 30
2.000000000000000E+50
 75
     0
  0
DIMASSOC
  5
44D8
102
{ACAD_REACTORS
330
44CE
102
}
330
44CE
100
AcDbDimAssoc
330
44C1
 90
        3
 70
     0
 71
     0
  1
AcDbOsnapPointRef
 72
    13
331
417A
331
417B
 73
     2
 91
        0
 40
0.0
 10
0.0
 20
0.0
 30
2.000000000000000E+50
 75
     0
  1
AcDbOsnapPointRef
 72
     1
331
41A2
 73
     2
 91
        0
 40
1.0
 10
0.0
 20
0.0
 30
2.000000000000000E+50
 75
     0
  0
DIMASSOC
  5
4526
102
{ACAD_REACTORS
330
451C
102
}
330
451C
100
AcDbDimAssoc
330
450F
 90
        3
 70
     0
 71
     0
  1
AcDbOsnapPointRef
 72
     1
331
419F
 73
     2
 91
        0
 40
1.0
 10
0.0
 20
0.0
 30
2.000000000000000E+50
 75
     0
  1
AcDbOsnapPointRef
 72
     1
331
40E6
 73
     2
 91
        0
 40
1.0
 10
0.0
 20
0.0
 30
2.000000000000000E+50
 75
     0
  0
XRECORD
  5
5273
102
{ACAD_REACTORS
330
B5E
102
}
330
B5E
100
AcDbXrecord
280
     1
102
SHADEPLOT
 70
     0
  0
XRECORD
  5
B5F
102
{ACAD_REACTORS
330
B5E
102
}
330
B5E
100
AcDbXrecord
280
     1
 90
        1
340
44E
  0
XRECORD
  5
5274
102
{ACAD_REACTORS
330
B62
102
}
330
B62
100
AcDbXrecord
280
     1
102
SHADEPLOT
 70
     0
  0
XRECORD
  5
B63
102
{ACAD_REACTORS
330
B62
102
}
330
B62
100
AcDbXrecord
280
     1
 90
        1
340
44E
  0
XRECORD
  5
5243
102
{ACAD_REACTORS
330
5242
102
}
330
5242
100
AcDbXrecord
280
     1
 70
     1
  0
XRECORD
  5
5244
102
{ACAD_REACTORS
330
5242
102
}
330
5242
100
AcDbXrecord
280
     1
 40
1.570796326794896
  0
XRECORD
  5
5246
102
{ACAD_REACTORS
330
5242
102
}
330
5242
100
AcDbXrecord
280
     1
340
12
  0
XRECORD
  5
5247
102
{ACAD_REACTORS
330
5242
102
}
330
5242
100
AcDbXrecord
280
     1
340
12
  0
XRECORD
  5
5245
102
{ACAD_REACTORS
330
5242
102
}
330
5242
100
AcDbXrecord
280
     1
340
12
  0
ACDBDETAILVIEWSTYLE
  5
16AB
102
{ACAD_XDICTIONARY
360
528F
102
}
102
{ACAD_REACTORS
330
CEF
330
5207
102
}
330
CEF
100
AcDbModelDocViewStyle
 70
     0
  3
Imperial24
290
     0
100
AcDbDetailViewStyle
 70
     0
 71
     0
 90
        3
 71
     1
340
10
 40
0.24
340
0
 40
0.24
300

 40
0.36
280
     3
 71
     2
340
14
 90
       25
 71
     3
340
10
 40
0.24
 90
        1
 40
0.75
 90
        1
300
%<\AcVar ViewType \f "%tc1">% %<\AcVar ViewDetailId>%\PSCALE %<\AcVar ViewScale \f "%sn">%
 71
     4
340
14
 90
       25
340
14
 90
       25
280
     0
  0
ACDBDETAILVIEWSTYLE
  5
CF0
102
{ACAD_XDICTIONARY
360
528B
102
}
102
{ACAD_REACTORS
330
CEF
330
5208
102
}
330
CEF
100
AcDbModelDocViewStyle
 70
     0
  3
Metric50
290
     0
100
AcDbDetailViewStyle
 70
     0
 71
     0
 90
        3
 71
     1
340
10
 40
5.0
340
0
 40
5.0
300

 40
0.0
280
     1
 71
     2
340
14
 90
       25
 71
     3
340
10
 40
5.0
 90
        0
 40
15.0
 90
        1
300
%<\AcVar ViewDetailId>% (%<\AcVar ViewScale \f "%sn">%)
 71
     4
340
14
 90
       25
340
14
 90
       25
280
     0
  0
LAYOUT
  5
B57
102
{ACAD_XDICTIONARY
360
5271
102
}
102
{ACAD_REACTORS
330
301
102
}
330
301
100
AcDbPlotSettings
  1

  2
DWG To PDF.pc3
  4
UserDefinedMetric (297.00 x 210.00mm)
  6

 40
0.0
 41
0.0
 42
0.0
 43
0.0
 44
297.0
 45
210.0
 46
0.0
 47
0.0
 48
0.0
 49
0.0
140
0.0
141
0.0
142
1.0
143
1.0
 70
   688
 72
     1
 73
     0
 74
     5
  7
monochrome.ctb
 75
    16
147
1.0
148
0.0
149
0.0
100
AcDbLayout
  1
Layout1
 70
     1
 71
     1
 10
0.0
 20
0.0
 11
297.0
 21
210.0
 12
0.0
 22
0.0
 32
0.0
 14
-0.0226558438690745
 24
-0.0160192835437556
 34
-0.000000000000013
 15
297.000001383183
 25
210.0000009780083
 35
0.0000000000000023
146
0.0
 13
0.0
 23
0.0
 33
0.0
 16
1.0
 26
0.0
 36
0.0
 17
0.0
 27
1.0
 37
0.0
 76
     0
330
B56
331
B5D
1001
ACAD_PSEXT
1000
DWG To PDF.pc3
1000
PDF
1000
Datei
1000

1070
     0
  0
LAYOUT
  5
303
102
{ACAD_XDICTIONARY
360
5248
102
}
102
{ACAD_REACTORS
330
301
102
}
330
301
100
AcDbPlotSettings
  1

  2
Default Windows System Printer.pc3
  4
A4
  6

 40
4.233333110809326
 41
4.995328426361083
 42
4.233322143554686
 43
4.995330810546875
 44
209.9733276367186
 45
296.9683227539062
 46
0.0
 47
97.55556227323861
 48
0.0
 49
0.0
140
0.0
141
0.0
142
1.0
143
6.090554118624327
 70
  3764
 72
     1
 73
     1
 74
     1
  7
monochrome.ctb
 75
     0
147
0.164188673234525
148
197.0402205952446
149
599.055175279564
100
AcDbLayout
  1
Model
 70
     1
 71
     0
 10
0.0
 20
0.0
 11
12.0
 21
9.0
 12
0.0
 22
0.0
 32
0.0
 14
0.0
 24
0.0
 34
0.0
 15
0.0
 25
0.0
 35
0.0
146
0.0
 13
0.0
 23
0.0
 33
0.0
 16
1.0
 26
0.0
 36
0.0
 17
0.0
 27
1.0
 37
0.0
 76
     0
330
18
331
AD1
1001
ACAD_PSEXT
1000
Default Windows System Printer.pc3
1000
HP LaserJet 5100 PCL 6
1000
HPLaserJet5100Series
1000

1070
     0
  0
MATERIAL
  5
3F0
102
{ACAD_XDICTIONARY
360
4DFE
102
}
102
{ACAD_REACTORS
330
386
102
}
330
386
100
AcDbMaterial
  1
ByBlock
 73
     1
 78
     1
172
     1
176
     1
270
     1
274
     1
  0
MATERIAL
  5
3EF
102
{ACAD_XDICTIONARY
360
4DFC
102
}
102
{ACAD_REACTORS
330
386
102
}
330
386
100
AcDbMaterial
  1
ByLayer
 73
     1
 78
     1
172
     1
176
     1
270
     1
274
     1
  0
MATERIAL
  5
3F1
102
{ACAD_XDICTIONARY
360
4E00
102
}
102
{ACAD_REACTORS
330
386
102
}
330
386
100
AcDbMaterial
  1
Global
 73
     1
 78
     1
172
     1
176
     1
270
     1
274
     1
  0
MLEADERSTYLE
  5
470
102
{ACAD_XDICTIONARY
360
526B
102
}
102
{ACAD_REACTORS
330
46F
102
}
330
46F
100
AcDbMLeaderStyle
170
     2
171
     1
172
     0
 90
        2
 40
0.0
 41
0.0
173
     1
 91
-1056964608
340
12
 92
       -2
290
     1
 42
2.0
291
     1
 43
0.36
  3
Standard
 44
5.0
300

342
10
174
     0
178
     6
175
     1
176
     0
 93
-1056964608
 45
3.5
292
     0
297
     0
 46
4.0
 94
-1056964608
 47
1.0
 49
1.0
140
1.0
293
     1
141
0.0
294
     1
177
     0
142
1.0
295
     0
296
     0
143
0.125
1001
ACAD_MLEADERVER
1070
     2
  0
MLINESTYLE
  5
1B
102
{ACAD_REACTORS
330
E
102
}
330
E
100
AcDbMlineStyle
  2
STANDARD
 70
     0
  3

 62
     0
 51
90.0
 52
90.0
 71
     2
 49
0.5
 62
   256
  6
BYLAYER
 49
-0.5
 62
   256
  6
BYLAYER
  0
PLOTSETTINGS
  5
7EF
102
{ACAD_XDICTIONARY
360
526D
102
}
102
{ACAD_REACTORS
330
302
102
}
330
302
100
AcDbPlotSettings
  1
DWG To PDF A4 - landscape
  2
DWG To PDF.pc3
  4
ISO_expand_A4_(297.00_x_210.00_MM)
  6

 40
5.793749809265136
 41
10.79374980926513
 42
5.79376220703125
 43
10.79374694824219
 44
297.0
 45
210.0
 46
99.7577788938406
 47
0.0
 48
0.0
 49
0.0
140
0.0
141
0.0
142
1.0
143
6.513831472368249
 70
 11956
 72
     1
 73
     0
 74
     1
  7
monochrome.ctb
 75
     0
147
0.153519476861201
148
197.0402205952446
149
599.055175279564
1001
ACAD_PSEXT
1000
DWG To PDF.pc3
1000
PDF
1000
Datei
1000

1070
     0
  0
PLOTSETTINGS
  5
7F8
102
{ACAD_XDICTIONARY
360
526F
102
}
102
{ACAD_REACTORS
330
302
102
}
330
302
100
AcDbPlotSettings
  1
DWG To PDF A4 - portrait
  2
DWG To PDF.pc3
  4
ISO_expand_A4_(210.00_x_297.00_MM)
  6

 40
5.793749809265136
 41
10.79374980926513
 42
5.793746948242187
 43
10.79376220703125
 44
210.0
 45
297.0
 46
36.42621619811505
 47
0.0
 48
0.0
 49
0.0
140
0.0
141
0.0
142
1.0
143
4.456178811620381
 70
 11956
 72
     1
 73
     0
 74
     1
  7
monochrome.ctb
 75
     0
147
0.2244075119679441
148
197.0402205952446
149
599.055175279564
1001
ACAD_PSEXT
1000
DWG To PDF.pc3
1000
PDF
1000
Datei
1000

1070
     0
  0
ACDBPLACEHOLDER
  5
300
102
{ACAD_REACTORS
330
2FF
102
}
330
2FF
  0
SCALE
  5
BFC
102
{ACAD_REACTORS
330
44D
102
}
330
44D
100
AcDbScale
 70
     0
300
100:1
140
100.0
141
1.0
290
     0
  0
SCALE
  5
BFD
102
{ACAD_REACTORS
330
44D
102
}
330
44D
100
AcDbScale
 70
     0
300
50:1
140
50.0
141
1.0
290
     0
  0
SCALE
  5
BFE
102
{ACAD_REACTORS
330
44D
102
}
330
44D
100
AcDbScale
 70
     0
300
20:1
140
20.0
141
1.0
290
     0
  0
SCALE
  5
BFF
102
{ACAD_REACTORS
330
44D
102
}
330
44D
100
AcDbScale
 70
     0
300
10:1
140
10.0
141
1.0
290
     0
  0
SCALE
  5
C00
102
{ACAD_REACTORS
330
44D
102
}
330
44D
100
AcDbScale
 70
     0
300
5:1
140
5.0
141
1.0
290
     0
  0
SCALE
  5
C01
102
{ACAD_REACTORS
330
44D
102
}
330
44D
100
AcDbScale
 70
     0
300
2:1
140
2.0
141
1.0
290
     0
  0
SCALE
  5
44E
102
{ACAD_REACTORS
330
44D
102
}
330
44D
100
AcDbScale
 70
     0
300
1:1
140
1.0
141
1.0
290
     1
  0
SCALE
  5
C02
102
{ACAD_REACTORS
330
44D
102
}
330
44D
100
AcDbScale
 70
     0
300
1:2
140
1.0
141
2.0
290
     0
  0
SCALE
  5
C03
102
{ACAD_REACTORS
330
44D
102
}
330
44D
100
AcDbScale
 70
     0
300
1:5
140
1.0
141
5.0
290
     0
  0
SCALE
  5
C04
102
{ACAD_REACTORS
330
44D
102
}
330
44D
100
AcDbScale
 70
     0
300
1:10
140
1.0
141
10.0
290
     0
  0
SCALE
  5
C05
102
{ACAD_REACTORS
330
44D
102
}
330
44D
100
AcDbScale
 70
     0
300
1:20
140
1.0
141
20.0
290
     0
  0
SCALE
  5
C06
102
{ACAD_REACTORS
330
44D
102
}
330
44D
100
AcDbScale
 70
     0
300
1:50
140
1.0
141
50.0
290
     0
  0
SCALE
  5
C07
102
{ACAD_REACTORS
330
44D
102
}
330
44D
100
AcDbScale
 70
     0
300
1:100
140
1.0
141
100.0
290
     0
  0
ACDBSECTIONVIEWSTYLE
  5
16A7
102
{ACAD_XDICTIONARY
360
528D
102
}
102
{ACAD_REACTORS
330
CED
330
5205
102
}
330
CED
100
AcDbModelDocViewStyle
 70
     0
  3
Imperial24
290
     0
100
AcDbSectionViewStyle
 70
     0
 71
     0
 90
       78
 71
     1
340
10
 40
0.24
340
0
340
0
 40
0.24
300
I, O, Q, S, X, Z
 40
0.48
 90
        3
 40
0.18
 90
        1
 71
     2
340
14
 90
       25
340
14
 90
       50
 40
0.24
 40
0.0
 40
0.24
 71
     3
340
10
 40
0.24
 90
        1
 40
0.75
 90
        1
300
%<\AcVar ViewType \f "%tc1">% %<\AcVar ViewSectionStartId>%-%<\AcVar ViewSectionEndId>%\PSCALE %<\AcVar ViewScale \f "%sn">%
 71
     4
300
ANSI31
 40
1.0
 90
        0
290
     0
290
     0
 90
        6
 40
0.0
 40
1.570796326794896
 40
0.2617993877991494
 40
1.308996938995747
 40
-0.2617993877991494
 40
1.832595714594044
  0
ACDBSECTIONVIEWSTYLE
  5
CEE
102
{ACAD_XDICTIONARY
360
5289
102
}
102
{ACAD_REACTORS
330
CED
330
5206
102
}
330
CED
100
AcDbModelDocViewStyle
 70
     0
  3
Metric50
290
     0
100
AcDbSectionViewStyle
 70
     0
 71
     0
 90
      102
 71
     1
340
10
 40
5.0
340
0
340
0
 40
5.0
300
I, O, Q, S, X, Z
 40
10.0
 90
        0
 40
2.5
 90
        0
 71
     2
340
14
 90
       25
340
14
 90
       50
 40
5.0
 40
2.5
 40
5.0
 71
     3
340
10
 40
5.0
 90
        0
 40
15.0
 90
        1
300
%<\AcVar ViewSectionStartId>%-%<\AcVar ViewSectionEndId>% (%<\AcVar ViewScale \f "%sn">%)
 71
     4
300
ANSI31
 40
1.0
 90
        0
290
     0
290
     0
 90
        6
 40
0.0
 40
1.570796326794896
 40
0.2617993877991494
 40
1.308996938995747
 40
-0.2617993877991494
 40
1.832595714594044
  0
TABLESTYLE
  5
389
102
{ACAD_XDICTIONARY
360
577
102
}
102
{ACAD_REACTORS
330
388
102
}
330
388
100
AcDbTableStyle
  3
Standard
 70
     0
 71
     0
 40
1.5
 41
1.5
280
     0
281
     0
  7
STANDARD
140
4.5
170
     2
 62
     0
 63
     7
283
     0
274
    -2
284
     1
 64
     0
275
    -2
285
     1
 65
     0
276
    -2
286
     1
 66
     0
277
    -2
287
     1
 67
     0
278
    -2
288
     1
 68
     0
279
    -2
289
     1
 69
     0
  7
STANDARD 5 mm
140
6.0
170
     5
 62
     0
 63
     7
283
     0
274
    -2
284
     1
 64
     0
275
    -2
285
     1
 65
     0
276
    -2
286
     1
 66
     0
277
    -2
287
     1
 67
     0
278
    -2
288
     1
 68
     0
279
    -2
289
     1
 69
     0
  7
STANDARD
140
4.5
170
     5
 62
     0
 63
     7
283
     0
274
    -2
284
     1
 64
     0
275
    -2
285
     1
 65
     0
276
    -2
286
     1
 66
     0
277
    -2
287
     1
 67
     0
278
    -2
288
     1
 68
     0
279
    -2
289
     1
 69
     0
  0
VISUALSTYLE
  5
3F8
102
{ACAD_XDICTIONARY
360
5255
102
}
102
{ACAD_REACTORS
330
3F2
102
}
330
3F2
100
AcDbVisualStyle
  2

 70
     4
 71
     0
 72
     2
 73
     0
 90
        0
 40
-0.6
 41
-30.0
 62
     5
 63
     7
 74
     1
 91
        4
 64
     7
 65
   257
 75
     1
175
     1
 42
1.0
 92
        0
 66
   257
 43
1.0
 76
     1
 77
     6
 78
     2
 67
     7
 79
     5
170
     0
171
     0
290
     0
174
     0
 93
        1
 44
0.0
173
     0
291
     0
 45
0.0
1001
ACAD
1000
AcDbSavedByObjectVersion
1070
     0
  0
VISUALSTYLE
  5
3FA
102
{ACAD_XDICTIONARY
360
5259
102
}
102
{ACAD_REACTORS
330
3F2
102
}
330
3F2
100
AcDbVisualStyle
  2

 70
     6
 71
     1
 72
     2
 73
     2
 90
        0
 40
-0.6
 41
-30.0
 62
     5
 63
     7
 74
     2
 91
        2
 64
     7
 65
   257
 75
     2
175
     1
 42
40.0
 92
        0
 66
   257
 43
1.0
 76
     1
 77
     6
 78
     2
 67
     7
 79
     3
170
     0
171
     0
290
     0
174
     0
 93
        1
 44
0.0
173
     0
291
     0
 45
0.0
1001
ACAD
1000
AcDbSavedByObjectVersion
1070
     0
  0
VISUALSTYLE
  5
3F9
102
{ACAD_XDICTIONARY
360
5257
102
}
102
{ACAD_REACTORS
330
3F2
102
}
330
3F2
100
AcDbVisualStyle
  2

 70
     5
 71
     0
 72
     2
 73
     0
 90
        0
 40
-0.6
 41
-30.0
 62
     5
 63
     7
 74
     1
 91
        4
 64
     7
 65
   257
 75
     1
175
     1
 42
1.0
 92
        0
 66
   257
 43
1.0
 76
     1
 77
     6
 78
     2
 67
     7
 79
     5
170
     0
171
     0
290
     0
174
     0
 93
        1
 44
0.0
173
     0
291
     0
 45
0.0
1001
ACAD
1000
AcDbSavedByObjectVersion
1070
     0
  0
VISUALSTYLE
  5
3F7
102
{ACAD_XDICTIONARY
360
5253
102
}
102
{ACAD_REACTORS
330
3F2
102
}
330
3F2
100
AcDbVisualStyle
  2

 70
     7
 71
     1
 72
     0
 73
     1
 90
        0
 40
-0.6
 41
-30.0
 62
     5
 63
     7
 74
     0
 91
        4
 64
     7
 65
   257
 75
     1
175
     1
 42
1.0
 92
        8
 66
     7
 43
1.0
 76
     1
 77
     6
 78
     2
 67
     7
 79
     5
170
     0
171
     0
290
     0
174
     0
 93
        1
 44
0.0
173
     0
291
     1
 45
0.0
1001
ACAD
1000
AcDbSavedByObjectVersion
1070
     0
  0
VISUALSTYLE
  5
3FE
102
{ACAD_XDICTIONARY
360
5261
102
}
102
{ACAD_REACTORS
330
3F2
102
}
330
3F2
100
AcDbVisualStyle
  2

 70
    12
 71
     2
 72
     2
 73
     0
 90
        0
 40
-0.6
 41
-30.0
 62
     5
 63
     7
 74
     1
 91
        4
 64
     7
 65
   257
 75
     1
175
     1
 42
1.0
 92
        8
 66
     7
 43
1.0
 76
     1
 77
     6
 78
     2
 67
     7
 79
     5
170
     0
171
     0
290
     0
174
     0
 93
        1
 44
50.0
173
     0
291
     1
 45
0.0
1001
ACAD
1000
AcDbSavedByObjectVersion
1070
     0
  0
VISUALSTYLE
  5
402
102
{ACAD_XDICTIONARY
360
5269
102
}
102
{ACAD_REACTORS
330
3F2
102
}
330
3F2
100
AcDbVisualStyle
  2

 70
    16
 71
     2
 72
     2
 73
     3
 90
        0
 40
-0.6
 41
-30.0
 62
     5
 63
     8
 74
     1
 91
        4
 64
     7
 65
   257
 75
     1
175
     1
 42
1.0
 92
        8
 66
     8
 43
1.0
 76
     1
 77
     6
 78
     2
 67
     7
 79
     5
170
     0
171
     0
290
     0
174
     0
 93
        1
 44
0.0
173
     0
291
     1
 45
0.0
1001
ACAD
1000
AcDbSavedByObjectVersion
1070
     0
  0
VISUALSTYLE
  5
3FB
102
{ACAD_XDICTIONARY
360
525B
102
}
102
{ACAD_REACTORS
330
3F2
102
}
330
3F2
100
AcDbVisualStyle
  2

 70
     9
 71
     3
 72
     2
 73
     0
 90
        0
 40
-0.6
 41
-30.0
 62
     5
 63
     7
 74
     2
 91
        2
 64
     7
 65
   257
 75
     1
175
     1
 42
40.0
 92
        8
 66
     7
 43
1.0
 76
     1
 77
     6
 78
     2
 67
     7
 79
     3
170
     0
171
     0
290
     0
174
     0
 93
        1
 44
0.0
173
     0
291
     0
 45
0.0
1001
ACAD
1000
AcDbSavedByObjectVersion
1070
     0
  0
VISUALSTYLE
  5
3FD
102
{ACAD_XDICTIONARY
360
525F
102
}
102
{ACAD_REACTORS
330
3F2
102
}
330
3F2
100
AcDbVisualStyle
  2

 70
    11
 71
     2
 72
     2
 73
     0
 90
        0
 40
-0.6
 41
-30.0
 62
     5
 63
     7
 74
     1
 91
        4
 64
     7
 65
   257
 75
     1
175
     1
 42
1.0
 92
        8
 66
     7
 43
1.0
 76
     1
 77
     6
 78
     2
 67
     7
 79
     5
170
     0
171
     0
290
     0
174
     0
 93
        1
 44
-50.0
173
     0
291
     1
 45
0.0
1001
ACAD
1000
AcDbSavedByObjectVersion
1070
     0
  0
VISUALSTYLE
  5
BDF
102
{ACAD_XDICTIONARY
360
5279
102
}
102
{ACAD_REACTORS
330
3F2
102
}
330
3F2
100
AcDbVisualStyle
  2

 70
    22
 71
     2
 72
     2
 73
     0
 90
        0
 40
-0.6
 41
-30.0
 62
     5
 63
     7
 74
     1
 91
        4
 64
     7
 65
   257
 75
     1
175
     1
 42
1.0
 92
        8
 66
     7
 43
1.0
 76
     1
 77
     6
 78
     2
 67
     7
 79
     5
170
     0
171
     0
290
     0
174
     0
 93
        1
 44
0.0
173
     0
291
     1
 45
0.0
1001
ACAD
1000
AcDbSavedByObjectVersion
1070
     0
  0
VISUALSTYLE
  5
401
102
{ACAD_XDICTIONARY
360
5267
102
}
102
{ACAD_REACTORS
330
3F2
102
}
330
3F2
100
AcDbVisualStyle
  2

 70
    15
 71
     2
 72
     2
 73
     0
 90
        0
 40
-0.6
 41
-30.0
 62
     5
 63
     7
 74
     1
 91
        4
 64
     7
 65
   257
 75
     1
175
     1
 42
1.0
 92
        8
 66
     7
 43
1.0
 76
     1
 77
     6
 78
     2
 67
     7
 79
     5
170
     0
171
     0
290
     0
174
     0
 93
        1
 44
0.0
173
     0
291
     1
 45
0.0
1001
ACAD
1000
AcDbSavedByObjectVersion
1070
     0
  0
VISUALSTYLE
  5
3F3
102
{ACAD_XDICTIONARY
360
524B
102
}
102
{ACAD_REACTORS
330
3F2
102
}
330
3F2
100
AcDbVisualStyle
  2

 70
     0
 71
     2
 72
     1
 73
     1
 90
        2
 40
-0.6
 41
30.0
 62
     5
 63
     7
 74
     0
 91
        4
 64
     7
 65
   257
 75
     1
175
     1
 42
1.0
 92
        8
 66
     7
 43
1.0
 76
     1
 77
     6
 78
     2
 67
     7
 79
     5
170
     0
171
     0
290
     0
174
     0
 93
       13
 44
0.0
173
     0
291
     1
 45
0.0
1001
ACAD
1000
AcDbSavedByObjectVersion
1070
     0
  0
VISUALSTYLE
  5
3F4
102
{ACAD_XDICTIONARY
360
524D
102
}
102
{ACAD_REACTORS
330
3F2
102
}
330
3F2
100
AcDbVisualStyle
  2

 70
     1
 71
     2
 72
     1
 73
     1
 90
        2
 40
-0.6
 41
30.0
 62
     5
 63
     7
 74
     1
 91
        4
 64
     7
 65
   257
 75
     1
175
     1
 42
1.0
 92
        0
 66
   257
 43
1.0
 76
     1
 77
     6
 78
     2
 67
     7
 79
     5
170
     0
171
     0
290
     0
174
     0
 93
       13
 44
0.0
173
     0
291
     1
 45
0.0
1001
ACAD
1000
AcDbSavedByObjectVersion
1070
     0
  0
VISUALSTYLE
  5
3F5
102
{ACAD_XDICTIONARY
360
524F
102
}
102
{ACAD_REACTORS
330
3F2
102
}
330
3F2
100
AcDbVisualStyle
  2

 70
     2
 71
     2
 72
     2
 73
     1
 90
        2
 40
-0.6
 41
30.0
 62
     5
 63
     7
 74
     0
 91
        4
 64
     7
 65
   257
 75
     1
175
     1
 42
1.0
 92
        0
 66
     7
 43
1.0
 76
     1
 77
     6
 78
     2
 67
     7
 79
     5
170
     0
171
     0
290
     0
174
     0
 93
       13
 44
0.0
173
     0
291
     1
 45
0.0
1001
ACAD
1000
AcDbSavedByObjectVersion
1070
     0
  0
VISUALSTYLE
  5
3F6
102
{ACAD_XDICTIONARY
360
5251
102
}
102
{ACAD_REACTORS
330
3F2
102
}
330
3F2
100
AcDbVisualStyle
  2

 70
     3
 71
     2
 72
     2
 73
     1
 90
        2
 40
-0.6
 41
30.0
 62
     5
 63
     7
 74
     1
 91
        4
 64
     7
 65
   257
 75
     1
175
     1
 42
1.0
 92
        0
 66
   257
 43
1.0
 76
     1
 77
     6
 78
     2
 67
     7
 79
     5
170
     0
171
     0
290
     0
174
     0
 93
       13
 44
0.0
173
     0
291
     1
 45
0.0
1001
ACAD
1000
AcDbSavedByObjectVersion
1070
     0
  0
VISUALSTYLE
  5
CE7
102
{ACAD_XDICTIONARY
360
527D
102
}
102
{ACAD_REACTORS
330
3F2
102
}
330
3F2
100
AcDbVisualStyle
  2

 70
     6
 71
     1
 72
     2
 73
     2
 90
        0
 40
-0.6
 41
-30.0
 62
     5
 63
     7
 74
     2
 91
        2
 64
     7
 65
   257
 75
     2
175
     1
 42
40.0
 92
        0
 66
   257
 43
1.0
 76
     1
 77
     6
 78
     2
 67
     7
 79
     3
170
     0
171
     0
290
     0
174
     0
 93
        1
 44
0.0
173
     0
291
     0
 45
0.0
1001
ACAD
1000
AcDbSavedByObjectVersion
1070
     0
  0
VISUALSTYLE
  5
BDD
102
{ACAD_XDICTIONARY
360
5275
102
}
102
{ACAD_REACTORS
330
3F2
102
}
330
3F2
100
AcDbVisualStyle
  2

 70
    20
 71
     2
 72
     2
 73
     0
 90
        0
 40
-0.6
 41
-30.0
 62
     5
 63
     7
 74
     1
 91
        4
 64
     7
 65
   257
 75
     1
175
     1
 42
1.0
 92
       10
 66
     7
 43
1.0
 76
     1
 77
     6
 78
     2
 67
     7
 79
     5
170
     0
171
     0
290
     0
174
     0
 93
        1
 44
0.0
173
     0
291
     1
 45
0.0
1001
ACAD
1000
AcDbSavedByObjectVersion
1070
     0
  0
VISUALSTYLE
  5
400
102
{ACAD_XDICTIONARY
360
5265
102
}
102
{ACAD_REACTORS
330
3F2
102
}
330
3F2
100
AcDbVisualStyle
  2

 70
    14
 71
     2
 72
     2
 73
     0
 90
        0
 40
-0.6
 41
-30.0
 62
     5
 63
     7
 74
     1
 91
        4
 64
     7
 65
   257
 75
     7
175
     7
 42
1.0
 92
        8
 66
     7
 43
1.0
 76
     1
 77
     6
 78
     2
 67
     7
 79
     5
170
     0
171
     0
290
     0
174
     0
 93
        1
 44
0.0
173
     0
291
     1
 45
0.0
1001
ACAD
1000
AcDbSavedByObjectVersion
1070
     0
  0
VISUALSTYLE
  5
BDE
102
{ACAD_XDICTIONARY
360
5277
102
}
102
{ACAD_REACTORS
330
3F2
102
}
330
3F2
100
AcDbVisualStyle
  2

 70
    21
 71
     2
 72
     2
 73
     0
 90
        0
 40
-0.6
 41
-30.0
 62
     5
 63
     7
 74
     1
 91
        4
 64
     7
 65
   257
 75
     1
175
     1
 42
1.0
 92
        9
 66
     7
 43
1.0
 76
     1
 77
     6
 78
     2
 67
     7
 79
     5
170
     0
171
     0
290
     0
174
     0
 93
        1
 44
0.0
173
     0
291
     1
 45
0.0
1001
ACAD
1000
AcDbSavedByObjectVersion
1070
     0
  0
VISUALSTYLE
  5
3FC
102
{ACAD_XDICTIONARY
360
525D
102
}
102
{ACAD_REACTORS
330
3F2
102
}
330
3F2
100
AcDbVisualStyle
  2

 70
     8
 71
     2
 72
     2
 73
     0
 90
        0
 40
-0.6
 41
-30.0
 62
     5
 63
     7
 74
     1
 91
        0
 64
     7
 65
   257
 75
     1
175
     1
 42
1.0
 92
        8
 66
     8
 43
1.0
 76
     1
 77
     6
 78
     2
 67
     7
 79
     5
170
     0
171
     0
290
     0
174
     0
 93
       13
 44
0.0
173
     0
291
     0
 45
0.0
1001
ACAD
1000
AcDbSavedByObjectVersion
1070
     0
  0
VISUALSTYLE
  5
CEC
102
{ACAD_XDICTIONARY
360
5287
102
}
102
{ACAD_REACTORS
330
3F2
102
}
330
3F2
100
AcDbVisualStyle
  2

 70
    27
 71
     2
 72
     2
 73
     1
 90
        2
 40
-0.6
 41
30.0
 62
     5
 63
     7
 74
     0
 91
        4
 64
     7
 65
   257
 75
     1
175
     1
 42
1.0
 92
        8
 66
   257
 43
1.0
 76
     1
 77
     6
 78
     2
 67
     8
 79
     3
170
     0
171
     0
290
     0
174
     0
 93
        5
 44
0.0
173
     0
291
     0
 45
0.0
1001
ACAD
1000
AcDbSavedByObjectVersion
1070
     0
  0
VISUALSTYLE
  5
CEB
102
{ACAD_XDICTIONARY
360
5285
102
}
102
{ACAD_REACTORS
330
3F2
102
}
330
3F2
100
AcDbVisualStyle
  2

 70
    26
 71
     2
 72
     2
 73
     1
 90
        2
 40
-0.6
 41
30.0
 62
     5
 63
     7
 74
     1
 91
       10
 64
     7
 65
   257
 75
     2
175
     1
 42
1.0
 92
        8
 66
   257
 43
1.0
 76
     1
 77
     6
 78
     2
 67
     7
 79
     3
170
     0
171
     0
290
     0
174
     0
 93
        5
 44
0.0
173
     0
291
     0
 45
0.0
1001
ACAD
1000
AcDbSavedByObjectVersion
1070
     0
  0
VISUALSTYLE
  5
CE8
102
{ACAD_XDICTIONARY
360
527F
102
}
102
{ACAD_REACTORS
330
3F2
102
}
330
3F2
100
AcDbVisualStyle
  2

 70
    23
 71
     2
 72
     2
 73
     3
 90
        0
 40
-0.6
 41
-30.0
 62
     5
 63
     7
 74
     2
 91
        2
 64
     7
 65
     7
 75
     1
175
     1
 42
40.0
 92
        8
 66
     7
 43
1.0
 76
     1
 77
     6
 78
     2
 67
     7
 79
     3
170
     0
171
     0
290
     0
174
     0
 93
        1
 44
0.0
173
     0
291
     0
 45
0.0
1001
ACAD
1000
AcDbSavedByObjectVersion
1070
     0
  0
VISUALSTYLE
  5
CE9
102
{ACAD_XDICTIONARY
360
5281
102
}
102
{ACAD_REACTORS
330
3F2
102
}
330
3F2
100
AcDbVisualStyle
  2

 70
    24
 71
     1
 72
     2
 73
     2
 90
        0
 40
-0.6
 41
-30.0
 62
     5
 63
     7
 74
     2
 91
        2
 64
     7
 65
     7
 75
     1
175
     1
 42
40.0
 92
       11
 66
     7
 43
1.0
 76
     1
 77
     6
 78
     2
 67
     7
 79
     6
170
     0
171
     0
290
     0
174
     0
 93
        1
 44
0.0
173
     0
291
     0
 45
0.0
1001
ACAD
1000
AcDbSavedByObjectVersion
1070
     0
  0
VISUALSTYLE
  5
3FF
102
{ACAD_XDICTIONARY
360
5263
102
}
102
{ACAD_REACTORS
330
3F2
102
}
330
3F2
100
AcDbVisualStyle
  2

 70
    13
 71
     2
 72
     2
 73
     0
 90
        0
 40
-0.6
 41
-30.0
 62
     5
 63
     7
 74
     1
 91
        4
 64
     7
 65
   257
 75
     1
175
     1
 42
1.0
 92
       12
 66
     7
 43
1.0
 76
     1
 77
     6
 78
     2
 67
     7
 79
     5
170
     0
171
     0
290
     0
174
     0
 93
        1
 44
0.0
173
     0
291
     1
 45
0.0
1001
ACAD
1000
AcDbSavedByObjectVersion
1070
     0
  0
VISUALSTYLE
  5
CE6
102
{ACAD_XDICTIONARY
360
527B
102
}
102
{ACAD_REACTORS
330
3F2
102
}
330
3F2
100
AcDbVisualStyle
  2

 70
     5
 71
     0
 72
     2
 73
     0
 90
        0
 40
-0.6
 41
-30.0
 62
     5
 63
     7
 74
     1
 91
        4
 64
     7
 65
   257
 75
     1
175
     1
 42
1.0
 92
        0
 66
   257
 43
1.0
 76
     1
 77
     6
 78
     2
 67
     7
 79
     3
170
     0
171
     0
290
     0
174
     0
 93
        1
 44
0.0
173
     0
291
     0
 45
0.0
1001
ACAD
1000
AcDbSavedByObjectVersion
1070
     0
  0
VISUALSTYLE
  5
CEA
102
{ACAD_XDICTIONARY
360
5283
102
}
102
{ACAD_REACTORS
330
3F2
102
}
330
3F2
100
AcDbVisualStyle
  2

 70
    25
 71
     2
 72
     2
 73
     1
 90
        1
 40
0.5
 41
-30.0
 62
     5
 63
     7
 74
     1
 91
        0
 64
     7
 65
   257
 75
     1
175
     1
 42
1.0
 92
        8
 66
     7
 43
1.0
 76
     1
 77
     6
 78
     2
 67
     7
 79
     3
170
     0
171
     0
290
     0
174
     0
 93
       13
 44
0.0
173
     0
291
     0
 45
0.0
1001
ACAD
1000
AcDbSavedByObjectVersion
1070
     0
  0
DICTIONARYVAR
  5
57C
102
{ACAD_REACTORS
330
357
102
}
330
357
100
DictionaryVariables
280
     0
  1
1:1
  0
DICTIONARYVAR
  5
57A
102
{ACAD_REACTORS
330
357
102
}
330
357
100
DictionaryVariables
280
     0
  1
STANDARD
  0
DICTIONARYVAR
  5
38E
102
{ACAD_REACTORS
330
357
102
}
330
357
100
DictionaryVariables
280
     0
  1
STANDARD
  0
DICTIONARYVAR
  5
D2C
102
{ACAD_REACTORS
330
357
102
}
330
357
100
DictionaryVariables
280
     0
  1
Metric50
  0
DICTIONARYVAR
  5
D2D
102
{ACAD_REACTORS
330
357
102
}
330
357
100
DictionaryVariables
280
     0
  1
Metric50
  0
DICTIONARYVAR
  5
359
102
{ACAD_REACTORS
330
357
102
}
330
357
100
DictionaryVariables
280
     0
  1
2
  0
DICTIONARYVAR
  5
358
102
{ACAD_REACTORS
330
357
102
}
330
357
100
DictionaryVariables
280
     0
  1
1
  0
DICTIONARYVAR
  5
ACC
102
{ACAD_REACTORS
330
357
102
}
330
357
100
DictionaryVariables
280
     0
  1
0
  0
DICTIONARYVAR
  5
BF1
102
{ACAD_REACTORS
330
357
102
}
330
357
100
DictionaryVariables
280
     0
  1
1
  0
DICTIONARYVAR
  5
BF2
102
{ACAD_REACTORS
330
357
102
}
330
357
100
DictionaryVariables
280
     0
  1
15
  0
DICTIONARYVAR
  5
57D
102
{ACAD_REACTORS
330
357
102
}
330
357
100
DictionaryVariables
280
     0
  1
0
  0
DICTIONARYVAR
  5
57B
102
{ACAD_REACTORS
330
357
102
}
330
357
100
DictionaryVariables
280
     0
  1
0
  0
DICTIONARYVAR
  5
4DEB
102
{ACAD_REACTORS
330
357
102
}
330
357
100
DictionaryVariables
280
     0
  1
1
  0
DICTIONARYVAR
  5
ACB
102
{ACAD_REACTORS
330
357
102
}
330
357
100
DictionaryVariables
280
     0
  1
127
  0
DICTIONARYVAR
  5
523E
102
{ACAD_REACTORS
330
357
102
}
330
357
100
DictionaryVariables
280
     0
  1
2
  0
DICTIONARY
  5
4DC
102
{ACAD_REACTORS
330
4D1
102
}
330
4D1
100
AcDbDictionary
281
     1
  0
XRECORD
  5
4F3
102
{ACAD_REACTORS
330
4D1
102
}
330
4D1
100
AcDbXrecord
280
     1
 90
-1023410169
  0
XRECORD
  5
8E9
102
{ACAD_REACTORS
330
567
102
}
330
567
100
AcDbXrecord
280
     1
 91
     1023
301

290
     0
302
1
  8
200
 90
        8
 62
     2
370
    50
331
14
  1
Color_2
  8
160
 90
        8
 62
     1
370
    35
331
14
  1
Color_1
  8
150
 90
        8
 62
    96
370
    50
331
14
  1
Color_96
 92
-1040154880
  8
140
 90
        8
 62
     5
370
    35
331
14
  1
Color_5
  8
130
 90
        8
 62
     6
370
    35
331
14
  1
Color_6
  8
120
 90
        8
 62
     3
370
    50
331
14
  1
Color_3
  8
110
 90
        8
 62
     7
370
    25
331
14
  1
Color_7
  8
100
 90
        8
 62
     4
370
    50
331
14
  1
Color_4
  8
INFTEXT69
 90
        8
 62
     5
370
    -3
331
14
  1
Color_5
  8
INFTEXT68
 90
        8
 62
     5
370
    -3
331
14
  1
Color_5
  8
INFTEXT67
 90
        8
 62
     5
370
    -3
331
14
  1
Color_5
  8
INFTEXT66
 90
        8
 62
     5
370
    -3
331
14
  1
Color_5
  8
INFTEXT65
 90
        8
 62
     5
370
    -3
331
14
  1
Color_5
  8
INFTEXT64
 90
        8
 62
     5
370
    -3
331
14
  1
Color_5
  8
INFTEXT63
 90
        8
 62
     5
370
    -3
331
14
  1
Color_5
  8
INFTEXT62
 90
        8
 62
     5
370
    -3
331
14
  1
Color_5
  8
RECON69
 90
        8
 62
     5
370
    35
331
14
  1
Color_5
  8
RECON68
 90
        8
 62
     5
370
    35
331
14
  1
Color_5
  8
RECON67
 90
        8
 62
     5
370
    35
331
14
  1
Color_5
  8
RECON66
 90
        8
 62
     5
370
    35
331
14
  1
Color_5
  8
RECON65
 90
        8
 62
     5
370
    35
331
14
  1
Color_5
  8
RECON64
 90
        8
 62
     5
370
    35
331
14
  1
Color_5
  8
RECON63
 90
        8
 62
     5
370
    35
331
14
  1
Color_5
  8
RECON62
 90
        8
 62
     5
370
    35
331
14
  1
Color_5
  8
RECON61
 90
        8
 62
     5
370
    35
331
14
  1
Color_5
  8
SK69
 90
        8
 62
     5
370
    35
331
14
  1
Color_5
  8
SK68
 90
        8
 62
     5
370
    35
331
14
  1
Color_5
  8
SK67
 90
        8
 62
     5
370
    35
331
14
  1
Color_5
  8
SK66
 90
        8
 62
     5
370
    35
331
14
  1
Color_5
  8
SK65
 90
        8
 62
     5
370
    35
331
14
  1
Color_5
  8
SK64
 90
        8
 62
     5
370
    35
331
14
  1
Color_5
  8
SK63
 90
        8
 62
     5
370
    35
331
14
  1
Color_5
  8
SK62
 90
        8
 62
     5
370
    35
331
14
  1
Color_5
  8
SK61
 90
        8
 62
     5
370
    35
331
14
  1
Color_5
  8
SKVIEW69
 90
        8
 62
     5
370
    35
331
14
  1
Color_5
  8
SKVIEW68
 90
        8
 62
     5
370
    35
331
14
  1
Color_5
  8
SKVIEW67
 90
        8
 62
     5
370
    35
331
14
  1
Color_5
  8
SKVIEW66
 90
        8
 62
     5
370
    35
331
14
  1
Color_5
  8
SKVIEW65
 90
        8
 62
     5
370
    35
331
14
  1
Color_5
  8
SKVIEW64
 90
        8
 62
     5
370
    35
331
14
  1
Color_5
  8
SKVIEW63
 90
        8
 62
     5
370
    35
331
14
  1
Color_5
  8
SKVIEW62
 90
        8
 62
     5
370
    35
331
14
  1
Color_5
  8
SKVIEW61
 90
        8
 62
     5
370
    35
331
14
  1
Color_5
  8
69
 90
        8
 62
     5
370
    35
331
14
  1
Color_5
  8
68
 90
        8
 62
     5
370
    35
331
14
  1
Color_5
  8
67
 90
        8
 62
     5
370
    35
331
14
  1
Color_5
  8
66
 90
        8
 62
     5
370
    35
331
14
  1
Color_5
  8
65
 90
        8
 62
     5
370
    35
331
14
  1
Color_5
  8
64
 90
        8
 62
     5
370
    35
331
14
  1
Color_5
  8
63
 90
        8
 62
     5
370
    35
331
14
  1
Color_5
  8
62
 90
        8
 62
     5
370
    35
331
14
  1
Color_5
  8
61
 90
        8
 62
     5
370
    35
331
14
  1
Color_5
  8
59
 90
        8
 62
     5
370
    -3
331
14
  1
Color_5
  8
58
 90
        8
 62
     5
370
    -3
331
14
  1
Color_5
  8
57
 90
        8
 62
     5
370
    -3
331
14
  1
Color_5
  8
56
 90
        8
 62
     5
370
    -3
331
14
  1
Color_5
  8
55
 90
        8
 62
     5
370
    -3
331
14
  1
Color_5
  8
54
 90
        8
 62
     5
370
    -3
331
14
  1
Color_5
  8
53
 90
        8
 62
     5
370
    -3
331
14
  1
Color_5
  8
52
 90
        8
 62
     5
370
    -3
331
14
  1
Color_5
  8
51
 90
        8
 62
     5
370
    -3
331
14
  1
Color_5
  8
FRAME59
 90
        8
 62
     7
370
    -3
331
14
  1
Color_7
  8
FRAME58
 90
        8
 62
     7
370
    -3
331
14
  1
Color_7
  8
FRAME57
 90
        8
 62
     7
370
    -3
331
14
  1
Color_7
  8
FRAME56
 90
        8
 62
     7
370
    -3
331
14
  1
Color_7
  8
FRAME55
 90
        8
 62
     7
370
    -3
331
14
  1
Color_7
  8
FRAME54
 90
        8
 62
     7
370
    -3
331
14
  1
Color_7
  8
FRAME53
 90
        8
 62
     7
370
    -3
331
14
  1
Color_7
  8
FRAME52
 90
        8
 62
     7
370
    -3
331
14
  1
Color_7
  8
RECON7
 90
        8
 62
     5
370
    25
331
14
  1
Color_5
  8
RECON6
 90
        8
 62
     5
370
    35
331
14
  1
Color_5
  8
RECON4
 90
        8
 62
     2
370
    25
331
14
  1
Color_2
  8
RECON3
 90
        8
 62
     1
370
    35
331
14
  1
Color_1
  8
RECON2
 90
        8
 62
     7
370
    25
331
14
  1
Color_7
  8
RECON1
 90
        8
 62
     4
370
    50
331
14
  1
Color_4
  8
SKVIEW7
 90
        8
 62
     5
370
    25
331
14
  1
Color_5
  8
SK7
 90
        8
 62
     5
370
    25
331
14
  1
Color_5
  8
7
 90
        8
 62
     5
370
    25
331
14
  1
Color_5
  8
INFMAINVIEW
 90
        8
 62
     9
370
    18
331
14
  1
Color_9
  8
INFTOTAL
 90
        8
 62
     9
370
    18
331
14
  1
Color_9
  8
INFTEXT61
 90
        8
 62
     5
370
    -3
331
14
  1
Color_5
  8
INFWKP
 90
        8
 62
    30
370
    25
331
14
  1
Color_30
  8
SKVIEW6
 90
        8
 62
     5
370
    35
331
14
  1
Color_5
  8
SKVIEW4
 90
        8
 62
     2
370
    25
331
14
  1
Color_2
  8
SKVIEW3
 90
        8
 62
     1
370
    35
331
14
  1
Color_1
  8
SKVIEW2
 90
        8
 62
     7
370
    25
331
14
  1
Color_7
  8
SKVIEW1
 90
        8
 62
     4
370
    50
331
14
  1
Color_4
  8
NOCUT
 90
        8
 62
     7
370
    25
331
14
  1
Color_7
  8
CUT
 90
        8
 62
     1
370
    25
331
14
  1
Color_1
  8
DEFPOINTS
 90
        0
 62
     7
370
    -3
331
14
  1
Color_7
  8
SK6
 90
        8
 62
     5
370
    35
331
14
  1
Color_5
  8
6
 90
        8
 62
     5
370
    35
331
14
  1
Color_5
  8
FRAME51
 90
        8
 62
     7
370
    -3
331
14
  1
Color_7
  8
SK4
 90
        8
 62
     2
370
    25
331
14
  1
Color_2
  8
4
 90
        8
 62
     2
370
    25
331
14
  1
Color_2
  8
SK3
 90
        8
 62
     1
370
    35
331
14
  1
Color_1
  8
3
 90
        8
 62
     1
370
    35
331
14
  1
Color_1
  8
SK2
 90
        8
 62
     7
370
    25
331
14
  1
Color_7
  8
2
 90
        8
 62
     7
370
    25
331
14
  1
Color_7
  8
SK1
 90
        8
 62
     4
370
    50
331
14
  1
Color_4
  8
1
 90
        8
 62
     4
370
    50
331
14
  1
Color_4
  8
0
 90
        0
 62
     7
370
    -3
331
14
  1
Color_7
  0
DICTIONARY
  5
528F
330
16AB
100
AcDbDictionary
280
     1
281
     1
  3
ACAD_XREC_ROUNDTRIP
360
5290
  0
DICTIONARY
  5
528B
330
CF0
100
AcDbDictionary
280
     1
281
     1
  3
ACAD_XREC_ROUNDTRIP
360
528C
  0
DICTIONARY
  5
5271
330
B57
100
AcDbDictionary
280
     1
281
     1
  3
ACAD_XREC_ROUNDTRIP
360
5272
  0
DICTIONARY
  5
5248
330
303
100
AcDbDictionary
280
     1
281
     1
  3
ACAD_XREC_ROUNDTRIP
360
5249
  0
DICTIONARY
  5
4DFE
330
3F0
100
AcDbDictionary
280
     1
281
     1
  3
ACAD_XREC_ROUNDTRIP
360
4DFF
  0
DICTIONARY
  5
4DFC
330
3EF
100
AcDbDictionary
280
     1
281
     1
  3
ACAD_XREC_ROUNDTRIP
360
4DFD
  0
DICTIONARY
  5
4E00
330
3F1
100
AcDbDictionary
280
     1
281
     1
  3
ACAD_XREC_ROUNDTRIP
360
4E01
  0
DICTIONARY
  5
526B
330
470
100
AcDbDictionary
280
     1
281
     1
  3
ACAD_XREC_ROUNDTRIP
360
526C
  0
DICTIONARY
  5
526D
330
7EF
100
AcDbDictionary
280
     1
281
     1
  3
ACAD_XREC_ROUNDTRIP
360
526E
  0
DICTIONARY
  5
526F
330
7F8
100
AcDbDictionary
280
     1
281
     1
  3
ACAD_XREC_ROUNDTRIP
360
5270
  0
DICTIONARY
  5
528D
330
16A7
100
AcDbDictionary
280
     1
281
     1
  3
ACAD_XREC_ROUNDTRIP
360
528E
  0
DICTIONARY
  5
5289
330
CEE
100
AcDbDictionary
280
     1
281
     1
  3
ACAD_XREC_ROUNDTRIP
360
528A
  0
DICTIONARY
  5
577
330
389
100
AcDbDictionary
280
     1
281
     1
  3
ACAD_ROUNDTRIP_2008_TABLESTYLE_CELLSTYLEMAP
360
523F
  3
ACAD_XREC_ROUNDTRIP
360
524A
  0
DICTIONARY
  5
5255
330
3F8
100
AcDbDictionary
280
     1
281
     1
  3
ACAD_XREC_ROUNDTRIP
360
5256
  0
DICTIONARY
  5
5259
330
3FA
100
AcDbDictionary
280
     1
281
     1
  3
ACAD_XREC_ROUNDTRIP
360
525A
  0
DICTIONARY
  5
5257
330
3F9
100
AcDbDictionary
280
     1
281
     1
  3
ACAD_XREC_ROUNDTRIP
360
5258
  0
DICTIONARY
  5
5253
330
3F7
100
AcDbDictionary
280
     1
281
     1
  3
ACAD_XREC_ROUNDTRIP
360
5254
  0
DICTIONARY
  5
5261
330
3FE
100
AcDbDictionary
280
     1
281
     1
  3
ACAD_XREC_ROUNDTRIP
360
5262
  0
DICTIONARY
  5
5269
330
402
100
AcDbDictionary
280
     1
281
     1
  3
ACAD_XREC_ROUNDTRIP
360
526A
  0
DICTIONARY
  5
525B
330
3FB
100
AcDbDictionary
280
     1
281
     1
  3
ACAD_XREC_ROUNDTRIP
360
525C
  0
DICTIONARY
  5
525F
330
3FD
100
AcDbDictionary
280
     1
281
     1
  3
ACAD_XREC_ROUNDTRIP
360
5260
  0
DICTIONARY
  5
5279
330
BDF
100
AcDbDictionary
280
     1
281
     1
  3
ACAD_XREC_ROUNDTRIP
360
527A
  0
DICTIONARY
  5
5267
330
401
100
AcDbDictionary
280
     1
281
     1
  3
ACAD_XREC_ROUNDTRIP
360
5268
  0
DICTIONARY
  5
524B
330
3F3
100
AcDbDictionary
280
     1
281
     1
  3
ACAD_XREC_ROUNDTRIP
360
524C
  0
DICTIONARY
  5
524D
330
3F4
100
AcDbDictionary
280
     1
281
     1
  3
ACAD_XREC_ROUNDTRIP
360
524E
  0
DICTIONARY
  5
524F
330
3F5
100
AcDbDictionary
280
     1
281
     1
  3
ACAD_XREC_ROUNDTRIP
360
5250
  0
DICTIONARY
  5
5251
330
3F6
100
AcDbDictionary
280
     1
281
     1
  3
ACAD_XREC_ROUNDTRIP
360
5252
  0
DICTIONARY
  5
527D
330
CE7
100
AcDbDictionary
280
     1
281
     1
  3
ACAD_XREC_ROUNDTRIP
360
527E
  0
DICTIONARY
  5
5275
330
BDD
100
AcDbDictionary
280
     1
281
     1
  3
ACAD_XREC_ROUNDTRIP
360
5276
  0
DICTIONARY
  5
5265
330
400
100
AcDbDictionary
280
     1
281
     1
  3
ACAD_XREC_ROUNDTRIP
360
5266
  0
DICTIONARY
  5
5277
330
BDE
100
AcDbDictionary
280
     1
281
     1
  3
ACAD_XREC_ROUNDTRIP
360
5278
  0
DICTIONARY
  5
525D
330
3FC
100
AcDbDictionary
280
     1
281
     1
  3
ACAD_XREC_ROUNDTRIP
360
525E
  0
DICTIONARY
  5
5287
330
CEC
100
AcDbDictionary
280
     1
281
     1
  3
ACAD_XREC_ROUNDTRIP
360
5288
  0
DICTIONARY
  5
5285
330
CEB
100
AcDbDictionary
280
     1
281
     1
  3
ACAD_XREC_ROUNDTRIP
360
5286
  0
DICTIONARY
  5
527F
330
CE8
100
AcDbDictionary
280
     1
281
     1
  3
ACAD_XREC_ROUNDTRIP
360
5280
  0
DICTIONARY
  5
5281
330
CE9
100
AcDbDictionary
280
     1
281
     1
  3
ACAD_XREC_ROUNDTRIP
360
5282
  0
DICTIONARY
  5
5263
330
3FF
100
AcDbDictionary
280
     1
281
     1
  3
ACAD_XREC_ROUNDTRIP
360
5264
  0
DICTIONARY
  5
527B
330
CE6
100
AcDbDictionary
280
     1
281
     1
  3
ACAD_XREC_ROUNDTRIP
360
527C
  0
DICTIONARY
  5
5283
330
CEA
100
AcDbDictionary
280
     1
281
     1
  3
ACAD_XREC_ROUNDTRIP
360
5284
  0
XRECORD
  5
5290
102
{ACAD_REACTORS
330
528F
102
}
330
528F
100
AcDbXrecord
280
     1
102
DISPLAYNAME
  1
Imperial24
102
FLAGS
 90
        0
  0
XRECORD
  5
528C
102
{ACAD_REACTORS
330
528B
102
}
330
528B
100
AcDbXrecord
280
     1
102
DISPLAYNAME
  1
Metric50
102
FLAGS
 90
        0
  0
XRECORD
  5
5272
102
{ACAD_REACTORS
330
5271
102
}
330
5271
100
AcDbXrecord
280
     1
102
SHADEPLOT
 70
     0
102
SHADEPLOTRESLEVEL
 70
     2
102
SHADEPLOTCUSTOMDPI
 70
   300
  0
XRECORD
  5
5249
102
{ACAD_REACTORS
330
5248
102
}
330
5248
100
AcDbXrecord
280
     1
102
SHADEPLOT
 70
     0
102
SHADEPLOTRESLEVEL
 70
     2
102
SHADEPLOTCUSTOMDPI
 70
   300
  0
XRECORD
  5
4DFF
102
{ACAD_REACTORS
330
4DFE
102
}
330
4DFE
100
AcDbXrecord
280
     1
102
MATERIAL
148
0.0
149
0.0
149
0.0
 93
        0
 94
      127
282
     0
 72
     1
 77
     1
171
     1
175
     1
179
     1
273
     0
  0
XRECORD
  5
4DFD
102
{ACAD_REACTORS
330
4DFC
102
}
330
4DFC
100
AcDbXrecord
280
     1
102
MATERIAL
148
0.0
149
0.0
149
0.0
 93
        0
 94
      127
282
     0
 72
     1
 77
     1
171
     1
175
     1
179
     1
273
     0
  0
XRECORD
  5
4E01
102
{ACAD_REACTORS
330
4E00
102
}
330
4E00
100
AcDbXrecord
280
     1
102
MATERIAL
148
0.0
149
0.0
149
0.0
 93
        0
 94
      127
282
     0
 72
     1
 77
     1
171
     1
175
     1
179
     1
273
     0
  0
XRECORD
  5
526C
102
{ACAD_REACTORS
330
526B
102
}
330
526B
100
AcDbXrecord
280
     1
102
ACAD_ROUNDTRIP_2012_MLEADER_STYLE
298
     1
  0
XRECORD
  5
526E
102
{ACAD_REACTORS
330
526D
102
}
330
526D
100
AcDbXrecord
280
     1
102
SHADEPLOT
 70
     0
102
SHADEPLOTRESLEVEL
 70
     2
102
SHADEPLOTCUSTOMDPI
 70
   300
  0
XRECORD
  5
5270
102
{ACAD_REACTORS
330
526F
102
}
330
526F
100
AcDbXrecord
280
     1
102
SHADEPLOT
 70
     0
102
SHADEPLOTRESLEVEL
 70
     2
102
SHADEPLOTCUSTOMDPI
 70
   300
  0
XRECORD
  5
528E
102
{ACAD_REACTORS
330
528D
102
}
330
528D
100
AcDbXrecord
280
     1
102
DISPLAYNAME
  1
Imperial24
102
FLAGS
 90
        0
  0
XRECORD
  5
528A
102
{ACAD_REACTORS
330
5289
102
}
330
5289
100
AcDbXrecord
280
     1
102
DISPLAYNAME
  1
Metric50
102
FLAGS
 90
        0
  0
CELLSTYLEMAP
  5
523F
102
{ACAD_REACTORS
330
577
102
}
330
577
100
AcDbCellStyleMap
 90
        3
300
CELLSTYLE
  1
TABLEFORMAT_BEGIN
 90
        5
170
     1
 91
        0
 92
    32768
 62
   257
 93
        1
300
CONTENTFORMAT
  1
CONTENTFORMAT_BEGIN
 90
        0
 91
        0
 92
        4
 93
        0
300

 40
0.0
140
1.0
 94
        5
 62
     0
340
1E
144
6.0
309
CONTENTFORMAT_END
171
     1
301
MARGIN
  1
CELLMARGIN_BEGIN
 40
1.5
 40
1.5
 40
1.5
 40
1.5
 40
0.18
 40
0.18
309
CELLMARGIN_END
 94
        6
 95
        1
302
GRIDFORMAT
  1
GRIDFORMAT_BEGIN
 90
        0
 91
        1
 62
     0
 92
       -2
340
0
 93
        0
 40
0.045
309
GRIDFORMAT_END
 95
        2
302
GRIDFORMAT
  1
GRIDFORMAT_BEGIN
 90
        0
 91
        1
 62
     0
 92
       -2
340
0
 93
        0
 40
0.045
309
GRIDFORMAT_END
 95
        4
302
GRIDFORMAT
  1
GRIDFORMAT_BEGIN
 90
        0
 91
        1
 62
     0
 92
       -2
340
0
 93
        0
 40
0.045
309
GRIDFORMAT_END
 95
        8
302
GRIDFORMAT
  1
GRIDFORMAT_BEGIN
 90
        0
 91
        1
 62
     0
 92
       -2
340
0
 93
        0
 40
0.045
309
GRIDFORMAT_END
 95
       16
302
GRIDFORMAT
  1
GRIDFORMAT_BEGIN
 90
        0
 91
        1
 62
     0
 92
       -2
340
0
 93
        0
 40
0.045
309
GRIDFORMAT_END
 95
       32
302
GRIDFORMAT
  1
GRIDFORMAT_BEGIN
 90
        0
 91
        1
 62
     0
 92
       -2
340
0
 93
        0
 40
0.045
309
GRIDFORMAT_END
309
TABLEFORMAT_END
  1
CELLSTYLE_BEGIN
 90
        1
 91
        1
300
_TITLE
309
CELLSTYLE_END
300
CELLSTYLE
  1
TABLEFORMAT_BEGIN
 90
        5
170
     1
 91
        0
 92
        0
 62
   257
 93
        1
300
CONTENTFORMAT
  1
CONTENTFORMAT_BEGIN
 90
        0
 91
        0
 92
        4
 93
        0
300

 40
0.0
140
1.0
 94
        5
 62
     0
340
10
144
4.5
309
CONTENTFORMAT_END
171
     1
301
MARGIN
  1
CELLMARGIN_BEGIN
 40
1.5
 40
1.5
 40
1.5
 40
1.5
 40
0.18
 40
0.18
309
CELLMARGIN_END
 94
        6
 95
        1
302
GRIDFORMAT
  1
GRIDFORMAT_BEGIN
 90
        0
 91
        1
 62
     0
 92
       -2
340
0
 93
        0
 40
0.045
309
GRIDFORMAT_END
 95
        2
302
GRIDFORMAT
  1
GRIDFORMAT_BEGIN
 90
        0
 91
        1
 62
     0
 92
       -2
340
0
 93
        0
 40
0.045
309
GRIDFORMAT_END
 95
        4
302
GRIDFORMAT
  1
GRIDFORMAT_BEGIN
 90
        0
 91
        1
 62
     0
 92
       -2
340
0
 93
        0
 40
0.045
309
GRIDFORMAT_END
 95
        8
302
GRIDFORMAT
  1
GRIDFORMAT_BEGIN
 90
        0
 91
        1
 62
     0
 92
       -2
340
0
 93
        0
 40
0.045
309
GRIDFORMAT_END
 95
       16
302
GRIDFORMAT
  1
GRIDFORMAT_BEGIN
 90
        0
 91
        1
 62
     0
 92
       -2
340
0
 93
        0
 40
0.045
309
GRIDFORMAT_END
 95
       32
302
GRIDFORMAT
  1
GRIDFORMAT_BEGIN
 90
        0
 91
        1
 62
     0
 92
       -2
340
0
 93
        0
 40
0.045
309
GRIDFORMAT_END
309
TABLEFORMAT_END
  1
CELLSTYLE_BEGIN
 90
        2
 91
        1
300
_HEADER
309
CELLSTYLE_END
300
CELLSTYLE
  1
TABLEFORMAT_BEGIN
 90
        5
170
     1
 91
        0
 92
        0
 62
   257
 93
        1
300
CONTENTFORMAT
  1
CONTENTFORMAT_BEGIN
 90
        0
 91
        0
 92
        4
 93
        0
300

 40
0.0
140
1.0
 94
        2
 62
     0
340
10
144
4.5
309
CONTENTFORMAT_END
171
     1
301
MARGIN
  1
CELLMARGIN_BEGIN
 40
1.5
 40
1.5
 40
1.5
 40
1.5
 40
0.18
 40
0.18
309
CELLMARGIN_END
 94
        6
 95
        1
302
GRIDFORMAT
  1
GRIDFORMAT_BEGIN
 90
        0
 91
        1
 62
     0
 92
       -2
340
0
 93
        0
 40
0.045
309
GRIDFORMAT_END
 95
        2
302
GRIDFORMAT
  1
GRIDFORMAT_BEGIN
 90
        0
 91
        1
 62
     0
 92
       -2
340
0
 93
        0
 40
0.045
309
GRIDFORMAT_END
 95
        4
302
GRIDFORMAT
  1
GRIDFORMAT_BEGIN
 90
        0
 91
        1
 62
     0
 92
       -2
340
0
 93
        0
 40
0.045
309
GRIDFORMAT_END
 95
        8
302
GRIDFORMAT
  1
GRIDFORMAT_BEGIN
 90
        0
 91
        1
 62
     0
 92
       -2
340
0
 93
        0
 40
0.045
309
GRIDFORMAT_END
 95
       16
302
GRIDFORMAT
  1
GRIDFORMAT_BEGIN
 90
        0
 91
        1
 62
     0
 92
       -2
340
0
 93
        0
 40
0.045
309
GRIDFORMAT_END
 95
       32
302
GRIDFORMAT
  1
GRIDFORMAT_BEGIN
 90
        0
 91
        1
 62
     0
 92
       -2
340
0
 93
        0
 40
0.045
309
GRIDFORMAT_END
309
TABLEFORMAT_END
  1
CELLSTYLE_BEGIN
 90
        3
 91
        2
300
_DATA
309
CELLSTYLE_END
  0
XRECORD
  5
524A
102
{ACAD_REACTORS
330
577
102
}
330
577
100
AcDbXrecord
280
     1
102
ACAD_ROUNDTRIP_PRE2007_TABLESTYLE
 90
        4
 91
        0
  1

 92
        4
 93
        0
  2

 94
        4
 95
        0
  3

  0
XRECORD
  5
5256
102
{ACAD_REACTORS
330
5255
102
}
330
5255
100
AcDbXrecord
280
     1
102
RTVSPost2010Prop28
280
     1
102
RTVSPost2010PropOp28
 70
     1
102
RTVSPost2010Prop29
280
     1
102
RTVSPost2010PropOp29
 70
     1
102
RTVSPost2010Prop30
280
     0
102
RTVSPost2010PropOp30
 70
     1
102
RTVSPost2010Prop31
280
     0
102
RTVSPost2010PropOp31
 70
     1
102
RTVSPost2010Prop32
280
     0
102
RTVSPost2010PropOp32
 70
     1
102
RTVSPost2010Prop33
280
     0
102
RTVSPost2010PropOp33
 70
     1
102
RTVSPost2010Prop34
280
     0
102
RTVSPost2010PropOp34
 70
     1
102
RTVSPost2010Prop35
280
     0
102
RTVSPost2010PropOp35
 70
     1
102
RTVSPost2010Prop36
280
     0
102
RTVSPost2010PropOp36
 70
     1
102
RTVSPost2010Prop37
 90
       50
102
RTVSPost2010PropOp37
 70
     1
102
RTVSPost2010Prop38
140
0.0
102
RTVSPost2010PropOp38
 70
     1
102
RTVSPost2010Prop39
140
1.0
102
RTVSPost2010PropOp39
 70
     1
102
RTVSPost2010Prop40
 90
        0
102
RTVSPost2010PropOp40
 70
     1
102
RTVSPost2010Prop41ColorIndex
 90
       18
102
RTVSPost2010Prop41ColorRGB
 90
        0
102
RTVSPost2010PropOp41
 70
     1
102
RTVSPost2010Prop42
 90
       50
102
RTVSPost2010PropOp42
 70
     1
102
RTVSPost2010Prop43
 90
        3
102
RTVSPost2010PropOp43
 70
     1
102
RTVSPost2010Prop44ColorIndex
 90
        5
102
RTVSPost2010Prop44ColorRGB
 90
      255
102
RTVSPost2010PropOp44
 70
     1
102
RTVSPost2010Prop45
280
     0
102
RTVSPost2010PropOp45
 70
     1
102
RTVSPost2010Prop46
 90
       50
102
RTVSPost2010PropOp46
 70
     1
102
RTVSPost2010Prop47
 90
       50
102
RTVSPost2010PropOp47
 70
     1
102
RTVSPost2010Prop48
 90
       50
102
RTVSPost2010PropOp48
 70
     1
102
RTVSPost2010Prop49
280
     0
102
RTVSPost2010PropOp49
 70
     1
102
RTVSPost2010Prop50
 90
       50
102
RTVSPost2010PropOp50
 70
     1
102
RTVSPost2010Prop51ColorIndex
 90
      256
102
RTVSPost2010Prop51ColorRGB
 90
-16777216
102
RTVSPost2010PropOp51
 70
     0
102
RTVSPost2010Prop52
140
1.0
102
RTVSPost2010PropOp52
 70
     0
102
RTVSPost2010Prop53
 90
        2
102
RTVSPost2010PropOp53
 70
     1
102
RTVSPost2010Prop54
  1
strokes_ogs.tif
102
RTVSPost2010PropOp54
 70
     1
102
RTVSPost2010Prop55
280
     0
102
RTVSPost2010PropOp55
 70
     1
102
RTVSPost2010Prop56
140
1.0
102
RTVSPost2010PropOp56
 70
     1
102
RTVSPost2010Prop57
140
1.0
102
RTVSPost2010PropOp57
 70
     1
102
RTVSPropertyOp0
 70
     1
102
RTVSPropertyOp1
 70
     1
102
RTVSPropertyOp2
 70
     1
102
RTVSPropertyOp3
 70
     1
102
RTVSPropertyOp4
 70
     1
102
RTVSPropertyOp5
 70
     1
102
RTVSPropertyOp6
 70
     1
102
RTVSPropertyOp7
 70
     1
102
RTVSPropertyOp8
 70
     1
102
RTVSPropertyOp9
 70
     1
102
RTVSPropertyOp10
 70
     1
102
RTVSPropertyOp11
 70
     1
102
RTVSPropertyOp12
 70
     1
102
RTVSPropertyOp13
 70
     1
102
RTVSPropertyOp14
 70
     1
102
RTVSPropertyOp15
 70
     1
102
RTVSPropertyOp16
 70
     1
102
RTVSPropertyOp17
 70
     1
102
RTVSPropertyOp18
 70
     1
102
RTVSPropertyOp19
 70
     1
102
RTVSPropertyOp20
 70
     1
102
RTVSPropertyOp21
 70
     1
102
RTVSPropertyOp22
 70
     1
102
RTVSPropertyOp23
 70
     1
102
RTVSPropertyOp24
 70
     1
102
RTVSPropertyOp25
 70
     1
102
RTVSPropertyOp26
 70
     1
102
RTVSPropertyOp27
 70
     1
102
RTVSPropertyOp28
 70
     1
102
RTVSPropertyOp29
 70
     1
102
RTVSPropertyOp30
 70
     1
102
RTVSPropertyOp31
 70
     1
102
RTVSPropertyOp32
 70
     1
102
RTVSPropertyOp33
 70
     1
102
RTVSPropertyOp34
 70
     1
102
RTVSPropertyOp35
 70
     1
102
RTVSPropertyOp36
 70
     1
102
RTVSPropertyOp37
 70
     1
102
RTVSPropertyOp38
 70
     1
102
RTVSPropertyOp39
 70
     1
102
RTVSPropertyOp40
 70
     1
102
RTVSPropertyOp41
 70
     1
102
RTVSPropertyOp42
 70
     1
102
RTVSPropertyOp43
 70
     1
102
RTVSPropertyOp44
 70
     1
102
RTVSPropertyOp45
 70
     1
102
RTVSPropertyOp46
 70
     1
102
RTVSPropertyOp47
 70
     1
102
RTVSPropertyOp48
 70
     1
102
RTVSPropertyOp49
 70
     1
102
RTVSPropertyOp50
 70
     1
102
RTVSPropertyOp51
 70
     0
102
RTVSPropertyOp52
 70
     0
102
RTVSPropertyOp53
 70
     1
102
RTVSPropertyOp54
 70
     1
102
RTVSPropertyOp55
 70
     1
102
RTVSPropertyOp56
 70
     1
102
RTVSPropertyOp57
 70
     1
102
RTVSPropertyOp58
 70
     1
102
RTVSPropertyOp59
 70
     1
102
RTVSPropertyOp60
 70
     1
102
RTVSPropertyOp61
 70
     1
102
RTVSPropertyOp62
 70
     1
  0
XRECORD
  5
525A
102
{ACAD_REACTORS
330
5259
102
}
330
5259
100
AcDbXrecord
280
     1
102
RTVSPost2010Prop28
280
     0
102
RTVSPost2010PropOp28
 70
     1
102
RTVSPost2010Prop29
280
     1
102
RTVSPost2010PropOp29
 70
     1
102
RTVSPost2010Prop30
280
     1
102
RTVSPost2010PropOp30
 70
     1
102
RTVSPost2010Prop31
280
     0
102
RTVSPost2010PropOp31
 70
     1
102
RTVSPost2010Prop32
280
     0
102
RTVSPost2010PropOp32
 70
     1
102
RTVSPost2010Prop33
280
     0
102
RTVSPost2010PropOp33
 70
     1
102
RTVSPost2010Prop34
280
     0
102
RTVSPost2010PropOp34
 70
     1
102
RTVSPost2010Prop35
280
     0
102
RTVSPost2010PropOp35
 70
     1
102
RTVSPost2010Prop36
280
     0
102
RTVSPost2010PropOp36
 70
     1
102
RTVSPost2010Prop37
 90
       50
102
RTVSPost2010PropOp37
 70
     1
102
RTVSPost2010Prop38
140
0.0
102
RTVSPost2010PropOp38
 70
     1
102
RTVSPost2010Prop39
140
1.0
102
RTVSPost2010PropOp39
 70
     1
102
RTVSPost2010Prop40
 90
        0
102
RTVSPost2010PropOp40
 70
     1
102
RTVSPost2010Prop41ColorIndex
 90
       18
102
RTVSPost2010Prop41ColorRGB
 90
        0
102
RTVSPost2010PropOp41
 70
     1
102
RTVSPost2010Prop42
 90
       50
102
RTVSPost2010PropOp42
 70
     1
102
RTVSPost2010Prop43
 90
        3
102
RTVSPost2010PropOp43
 70
     1
102
RTVSPost2010Prop44ColorIndex
 90
        5
102
RTVSPost2010Prop44ColorRGB
 90
      255
102
RTVSPost2010PropOp44
 70
     1
102
RTVSPost2010Prop45
280
     0
102
RTVSPost2010PropOp45
 70
     1
102
RTVSPost2010Prop46
 90
       50
102
RTVSPost2010PropOp46
 70
     1
102
RTVSPost2010Prop47
 90
       50
102
RTVSPost2010PropOp47
 70
     1
102
RTVSPost2010Prop48
 90
       50
102
RTVSPost2010PropOp48
 70
     1
102
RTVSPost2010Prop49
280
     0
102
RTVSPost2010PropOp49
 70
     1
102
RTVSPost2010Prop50
 90
       50
102
RTVSPost2010PropOp50
 70
     1
102
RTVSPost2010Prop51ColorIndex
 90
      256
102
RTVSPost2010Prop51ColorRGB
 90
-16777216
102
RTVSPost2010PropOp51
 70
     0
102
RTVSPost2010Prop52
140
1.0
102
RTVSPost2010PropOp52
 70
     0
102
RTVSPost2010Prop53
 90
        2
102
RTVSPost2010PropOp53
 70
     1
102
RTVSPost2010Prop54
  1
strokes_ogs.tif
102
RTVSPost2010PropOp54
 70
     1
102
RTVSPost2010Prop55
280
     0
102
RTVSPost2010PropOp55
 70
     1
102
RTVSPost2010Prop56
140
1.0
102
RTVSPost2010PropOp56
 70
     1
102
RTVSPost2010Prop57
140
1.0
102
RTVSPost2010PropOp57
 70
     1
102
RTVSPropertyOp0
 70
     1
102
RTVSPropertyOp1
 70
     1
102
RTVSPropertyOp2
 70
     1
102
RTVSPropertyOp3
 70
     1
102
RTVSPropertyOp4
 70
     1
102
RTVSPropertyOp5
 70
     1
102
RTVSPropertyOp6
 70
     1
102
RTVSPropertyOp7
 70
     1
102
RTVSPropertyOp8
 70
     1
102
RTVSPropertyOp9
 70
     1
102
RTVSPropertyOp10
 70
     1
102
RTVSPropertyOp11
 70
     1
102
RTVSPropertyOp12
 70
     1
102
RTVSPropertyOp13
 70
     1
102
RTVSPropertyOp14
 70
     1
102
RTVSPropertyOp15
 70
     1
102
RTVSPropertyOp16
 70
     1
102
RTVSPropertyOp17
 70
     1
102
RTVSPropertyOp18
 70
     1
102
RTVSPropertyOp19
 70
     1
102
RTVSPropertyOp20
 70
     1
102
RTVSPropertyOp21
 70
     1
102
RTVSPropertyOp22
 70
     1
102
RTVSPropertyOp23
 70
     1
102
RTVSPropertyOp24
 70
     1
102
RTVSPropertyOp25
 70
     1
102
RTVSPropertyOp26
 70
     1
102
RTVSPropertyOp27
 70
     1
102
RTVSPropertyOp28
 70
     1
102
RTVSPropertyOp29
 70
     1
102
RTVSPropertyOp30
 70
     1
102
RTVSPropertyOp31
 70
     1
102
RTVSPropertyOp32
 70
     1
102
RTVSPropertyOp33
 70
     1
102
RTVSPropertyOp34
 70
     1
102
RTVSPropertyOp35
 70
     1
102
RTVSPropertyOp36
 70
     1
102
RTVSPropertyOp37
 70
     1
102
RTVSPropertyOp38
 70
     1
102
RTVSPropertyOp39
 70
     1
102
RTVSPropertyOp40
 70
     1
102
RTVSPropertyOp41
 70
     1
102
RTVSPropertyOp42
 70
     1
102
RTVSPropertyOp43
 70
     1
102
RTVSPropertyOp44
 70
     1
102
RTVSPropertyOp45
 70
     1
102
RTVSPropertyOp46
 70
     1
102
RTVSPropertyOp47
 70
     1
102
RTVSPropertyOp48
 70
     1
102
RTVSPropertyOp49
 70
     1
102
RTVSPropertyOp50
 70
     1
102
RTVSPropertyOp51
 70
     0
102
RTVSPropertyOp52
 70
     0
102
RTVSPropertyOp53
 70
     1
102
RTVSPropertyOp54
 70
     1
102
RTVSPropertyOp55
 70
     1
102
RTVSPropertyOp56
 70
     1
102
RTVSPropertyOp57
 70
     1
102
RTVSPropertyOp58
 70
     1
102
RTVSPropertyOp59
 70
     1
102
RTVSPropertyOp60
 70
     1
102
RTVSPropertyOp61
 70
     1
102
RTVSPropertyOp62
 70
     1
  0
XRECORD
  5
5258
102
{ACAD_REACTORS
330
5257
102
}
330
5257
100
AcDbXrecord
280
     1
102
RTVSPost2010Prop28
280
     0
102
RTVSPost2010PropOp28
 70
     1
102
RTVSPost2010Prop29
280
     1
102
RTVSPost2010PropOp29
 70
     1
102
RTVSPost2010Prop30
280
     1
102
RTVSPost2010PropOp30
 70
     1
102
RTVSPost2010Prop31
280
     0
102
RTVSPost2010PropOp31
 70
     1
102
RTVSPost2010Prop32
280
     0
102
RTVSPost2010PropOp32
 70
     1
102
RTVSPost2010Prop33
280
     0
102
RTVSPost2010PropOp33
 70
     1
102
RTVSPost2010Prop34
280
     0
102
RTVSPost2010PropOp34
 70
     1
102
RTVSPost2010Prop35
280
     0
102
RTVSPost2010PropOp35
 70
     1
102
RTVSPost2010Prop36
280
     0
102
RTVSPost2010PropOp36
 70
     1
102
RTVSPost2010Prop37
 90
       50
102
RTVSPost2010PropOp37
 70
     1
102
RTVSPost2010Prop38
140
0.0
102
RTVSPost2010PropOp38
 70
     1
102
RTVSPost2010Prop39
140
1.0
102
RTVSPost2010PropOp39
 70
     1
102
RTVSPost2010Prop40
 90
        0
102
RTVSPost2010PropOp40
 70
     1
102
RTVSPost2010Prop41ColorIndex
 90
       18
102
RTVSPost2010Prop41ColorRGB
 90
        0
102
RTVSPost2010PropOp41
 70
     1
102
RTVSPost2010Prop42
 90
       50
102
RTVSPost2010PropOp42
 70
     1
102
RTVSPost2010Prop43
 90
        3
102
RTVSPost2010PropOp43
 70
     1
102
RTVSPost2010Prop44ColorIndex
 90
        5
102
RTVSPost2010Prop44ColorRGB
 90
      255
102
RTVSPost2010PropOp44
 70
     1
102
RTVSPost2010Prop45
280
     0
102
RTVSPost2010PropOp45
 70
     1
102
RTVSPost2010Prop46
 90
       50
102
RTVSPost2010PropOp46
 70
     1
102
RTVSPost2010Prop47
 90
       50
102
RTVSPost2010PropOp47
 70
     1
102
RTVSPost2010Prop48
 90
       50
102
RTVSPost2010PropOp48
 70
     1
102
RTVSPost2010Prop49
280
     0
102
RTVSPost2010PropOp49
 70
     1
102
RTVSPost2010Prop50
 90
       50
102
RTVSPost2010PropOp50
 70
     1
102
RTVSPost2010Prop51ColorIndex
 90
      256
102
RTVSPost2010Prop51ColorRGB
 90
-16777216
102
RTVSPost2010PropOp51
 70
     0
102
RTVSPost2010Prop52
140
1.0
102
RTVSPost2010PropOp52
 70
     0
102
RTVSPost2010Prop53
 90
        2
102
RTVSPost2010PropOp53
 70
     1
102
RTVSPost2010Prop54
  1
strokes_ogs.tif
102
RTVSPost2010PropOp54
 70
     1
102
RTVSPost2010Prop55
280
     0
102
RTVSPost2010PropOp55
 70
     1
102
RTVSPost2010Prop56
140
1.0
102
RTVSPost2010PropOp56
 70
     1
102
RTVSPost2010Prop57
140
1.0
102
RTVSPost2010PropOp57
 70
     1
102
RTVSPropertyOp0
 70
     1
102
RTVSPropertyOp1
 70
     1
102
RTVSPropertyOp2
 70
     1
102
RTVSPropertyOp3
 70
     1
102
RTVSPropertyOp4
 70
     1
102
RTVSPropertyOp5
 70
     1
102
RTVSPropertyOp6
 70
     1
102
RTVSPropertyOp7
 70
     1
102
RTVSPropertyOp8
 70
     1
102
RTVSPropertyOp9
 70
     1
102
RTVSPropertyOp10
 70
     1
102
RTVSPropertyOp11
 70
     1
102
RTVSPropertyOp12
 70
     1
102
RTVSPropertyOp13
 70
     1
102
RTVSPropertyOp14
 70
     1
102
RTVSPropertyOp15
 70
     1
102
RTVSPropertyOp16
 70
     1
102
RTVSPropertyOp17
 70
     1
102
RTVSPropertyOp18
 70
     1
102
RTVSPropertyOp19
 70
     1
102
RTVSPropertyOp20
 70
     1
102
RTVSPropertyOp21
 70
     1
102
RTVSPropertyOp22
 70
     1
102
RTVSPropertyOp23
 70
     1
102
RTVSPropertyOp24
 70
     1
102
RTVSPropertyOp25
 70
     1
102
RTVSPropertyOp26
 70
     1
102
RTVSPropertyOp27
 70
     1
102
RTVSPropertyOp28
 70
     1
102
RTVSPropertyOp29
 70
     1
102
RTVSPropertyOp30
 70
     1
102
RTVSPropertyOp31
 70
     1
102
RTVSPropertyOp32
 70
     1
102
RTVSPropertyOp33
 70
     1
102
RTVSPropertyOp34
 70
     1
102
RTVSPropertyOp35
 70
     1
102
RTVSPropertyOp36
 70
     1
102
RTVSPropertyOp37
 70
     1
102
RTVSPropertyOp38
 70
     1
102
RTVSPropertyOp39
 70
     1
102
RTVSPropertyOp40
 70
     1
102
RTVSPropertyOp41
 70
     1
102
RTVSPropertyOp42
 70
     1
102
RTVSPropertyOp43
 70
     1
102
RTVSPropertyOp44
 70
     1
102
RTVSPropertyOp45
 70
     1
102
RTVSPropertyOp46
 70
     1
102
RTVSPropertyOp47
 70
     1
102
RTVSPropertyOp48
 70
     1
102
RTVSPropertyOp49
 70
     1
102
RTVSPropertyOp50
 70
     1
102
RTVSPropertyOp51
 70
     0
102
RTVSPropertyOp52
 70
     0
102
RTVSPropertyOp53
 70
     1
102
RTVSPropertyOp54
 70
     1
102
RTVSPropertyOp55
 70
     1
102
RTVSPropertyOp56
 70
     1
102
RTVSPropertyOp57
 70
     1
102
RTVSPropertyOp58
 70
     1
102
RTVSPropertyOp59
 70
     1
102
RTVSPropertyOp60
 70
     1
102
RTVSPropertyOp61
 70
     1
102
RTVSPropertyOp62
 70
     1
  0
XRECORD
  5
5254
102
{ACAD_REACTORS
330
5253
102
}
330
5253
100
AcDbXrecord
280
     1
102
RTVSPost2010Prop28
280
     0
102
RTVSPost2010PropOp28
 70
     1
102
RTVSPost2010Prop29
280
     1
102
RTVSPost2010PropOp29
 70
     1
102
RTVSPost2010Prop30
280
     1
102
RTVSPost2010PropOp30
 70
     1
102
RTVSPost2010Prop31
280
     0
102
RTVSPost2010PropOp31
 70
     1
102
RTVSPost2010Prop32
280
     0
102
RTVSPost2010PropOp32
 70
     1
102
RTVSPost2010Prop33
280
     0
102
RTVSPost2010PropOp33
 70
     1
102
RTVSPost2010Prop34
280
     0
102
RTVSPost2010PropOp34
 70
     1
102
RTVSPost2010Prop35
280
     0
102
RTVSPost2010PropOp35
 70
     1
102
RTVSPost2010Prop36
280
     0
102
RTVSPost2010PropOp36
 70
     1
102
RTVSPost2010Prop37
 90
       50
102
RTVSPost2010PropOp37
 70
     1
102
RTVSPost2010Prop38
140
0.0
102
RTVSPost2010PropOp38
 70
     1
102
RTVSPost2010Prop39
140
1.0
102
RTVSPost2010PropOp39
 70
     1
102
RTVSPost2010Prop40
 90
        0
102
RTVSPost2010PropOp40
 70
     1
102
RTVSPost2010Prop41ColorIndex
 90
       18
102
RTVSPost2010Prop41ColorRGB
 90
        0
102
RTVSPost2010PropOp41
 70
     1
102
RTVSPost2010Prop42
 90
       50
102
RTVSPost2010PropOp42
 70
     1
102
RTVSPost2010Prop43
 90
        3
102
RTVSPost2010PropOp43
 70
     1
102
RTVSPost2010Prop44ColorIndex
 90
        5
102
RTVSPost2010Prop44ColorRGB
 90
      255
102
RTVSPost2010PropOp44
 70
     1
102
RTVSPost2010Prop45
280
     0
102
RTVSPost2010PropOp45
 70
     1
102
RTVSPost2010Prop46
 90
       50
102
RTVSPost2010PropOp46
 70
     1
102
RTVSPost2010Prop47
 90
       50
102
RTVSPost2010PropOp47
 70
     1
102
RTVSPost2010Prop48
 90
       50
102
RTVSPost2010PropOp48
 70
     1
102
RTVSPost2010Prop49
280
     0
102
RTVSPost2010PropOp49
 70
     1
102
RTVSPost2010Prop50
 90
       50
102
RTVSPost2010PropOp50
 70
     1
102
RTVSPost2010Prop51ColorIndex
 90
      256
102
RTVSPost2010Prop51ColorRGB
 90
-16777216
102
RTVSPost2010PropOp51
 70
     0
102
RTVSPost2010Prop52
140
1.0
102
RTVSPost2010PropOp52
 70
     0
102
RTVSPost2010Prop53
 90
        2
102
RTVSPost2010PropOp53
 70
     1
102
RTVSPost2010Prop54
  1
strokes_ogs.tif
102
RTVSPost2010PropOp54
 70
     1
102
RTVSPost2010Prop55
280
     0
102
RTVSPost2010PropOp55
 70
     1
102
RTVSPost2010Prop56
140
1.0
102
RTVSPost2010PropOp56
 70
     1
102
RTVSPost2010Prop57
140
1.0
102
RTVSPost2010PropOp57
 70
     1
102
RTVSPropertyOp0
 70
     1
102
RTVSPropertyOp1
 70
     1
102
RTVSPropertyOp2
 70
     1
102
RTVSPropertyOp3
 70
     1
102
RTVSPropertyOp4
 70
     1
102
RTVSPropertyOp5
 70
     1
102
RTVSPropertyOp6
 70
     1
102
RTVSPropertyOp7
 70
     1
102
RTVSPropertyOp8
 70
     1
102
RTVSPropertyOp9
 70
     1
102
RTVSPropertyOp10
 70
     1
102
RTVSPropertyOp11
 70
     1
102
RTVSPropertyOp12
 70
     1
102
RTVSPropertyOp13
 70
     1
102
RTVSPropertyOp14
 70
     1
102
RTVSPropertyOp15
 70
     1
102
RTVSPropertyOp16
 70
     1
102
RTVSPropertyOp17
 70
     1
102
RTVSPropertyOp18
 70
     1
102
RTVSPropertyOp19
 70
     1
102
RTVSPropertyOp20
 70
     1
102
RTVSPropertyOp21
 70
     1
102
RTVSPropertyOp22
 70
     1
102
RTVSPropertyOp23
 70
     1
102
RTVSPropertyOp24
 70
     1
102
RTVSPropertyOp25
 70
     1
102
RTVSPropertyOp26
 70
     1
102
RTVSPropertyOp27
 70
     1
102
RTVSPropertyOp28
 70
     1
102
RTVSPropertyOp29
 70
     1
102
RTVSPropertyOp30
 70
     1
102
RTVSPropertyOp31
 70
     1
102
RTVSPropertyOp32
 70
     1
102
RTVSPropertyOp33
 70
     1
102
RTVSPropertyOp34
 70
     1
102
RTVSPropertyOp35
 70
     1
102
RTVSPropertyOp36
 70
     1
102
RTVSPropertyOp37
 70
     1
102
RTVSPropertyOp38
 70
     1
102
RTVSPropertyOp39
 70
     1
102
RTVSPropertyOp40
 70
     1
102
RTVSPropertyOp41
 70
     1
102
RTVSPropertyOp42
 70
     1
102
RTVSPropertyOp43
 70
     1
102
RTVSPropertyOp44
 70
     1
102
RTVSPropertyOp45
 70
     1
102
RTVSPropertyOp46
 70
     1
102
RTVSPropertyOp47
 70
     1
102
RTVSPropertyOp48
 70
     1
102
RTVSPropertyOp49
 70
     1
102
RTVSPropertyOp50
 70
     1
102
RTVSPropertyOp51
 70
     0
102
RTVSPropertyOp52
 70
     0
102
RTVSPropertyOp53
 70
     1
102
RTVSPropertyOp54
 70
     1
102
RTVSPropertyOp55
 70
     1
102
RTVSPropertyOp56
 70
     1
102
RTVSPropertyOp57
 70
     1
102
RTVSPropertyOp58
 70
     1
102
RTVSPropertyOp59
 70
     1
102
RTVSPropertyOp60
 70
     1
102
RTVSPropertyOp61
 70
     1
102
RTVSPropertyOp62
 70
     1
  0
XRECORD
  5
5262
102
{ACAD_REACTORS
330
5261
102
}
330
5261
100
AcDbXrecord
280
     1
102
RTVSPost2010Prop28
280
     0
102
RTVSPost2010PropOp28
 70
     1
102
RTVSPost2010Prop29
280
     1
102
RTVSPost2010PropOp29
 70
     1
102
RTVSPost2010Prop30
280
     1
102
RTVSPost2010PropOp30
 70
     1
102
RTVSPost2010Prop31
280
     0
102
RTVSPost2010PropOp31
 70
     1
102
RTVSPost2010Prop32
280
     0
102
RTVSPost2010PropOp32
 70
     1
102
RTVSPost2010Prop33
280
     0
102
RTVSPost2010PropOp33
 70
     1
102
RTVSPost2010Prop34
280
     0
102
RTVSPost2010PropOp34
 70
     1
102
RTVSPost2010Prop35
280
     0
102
RTVSPost2010PropOp35
 70
     1
102
RTVSPost2010Prop36
280
     0
102
RTVSPost2010PropOp36
 70
     1
102
RTVSPost2010Prop37
 90
       50
102
RTVSPost2010PropOp37
 70
     1
102
RTVSPost2010Prop38
140
0.0
102
RTVSPost2010PropOp38
 70
     1
102
RTVSPost2010Prop39
140
1.0
102
RTVSPost2010PropOp39
 70
     1
102
RTVSPost2010Prop40
 90
        0
102
RTVSPost2010PropOp40
 70
     1
102
RTVSPost2010Prop41ColorIndex
 90
       18
102
RTVSPost2010Prop41ColorRGB
 90
        0
102
RTVSPost2010PropOp41
 70
     1
102
RTVSPost2010Prop42
 90
       50
102
RTVSPost2010PropOp42
 70
     1
102
RTVSPost2010Prop43
 90
        3
102
RTVSPost2010PropOp43
 70
     1
102
RTVSPost2010Prop44ColorIndex
 90
        5
102
RTVSPost2010Prop44ColorRGB
 90
      255
102
RTVSPost2010PropOp44
 70
     1
102
RTVSPost2010Prop45
280
     0
102
RTVSPost2010PropOp45
 70
     1
102
RTVSPost2010Prop46
 90
       50
102
RTVSPost2010PropOp46
 70
     1
102
RTVSPost2010Prop47
 90
       50
102
RTVSPost2010PropOp47
 70
     1
102
RTVSPost2010Prop48
 90
       50
102
RTVSPost2010PropOp48
 70
     1
102
RTVSPost2010Prop49
280
     0
102
RTVSPost2010PropOp49
 70
     1
102
RTVSPost2010Prop50
 90
       50
102
RTVSPost2010PropOp50
 70
     1
102
RTVSPost2010Prop51ColorIndex
 90
      256
102
RTVSPost2010Prop51ColorRGB
 90
-16777216
102
RTVSPost2010PropOp51
 70
     0
102
RTVSPost2010Prop52
140
1.0
102
RTVSPost2010PropOp52
 70
     0
102
RTVSPost2010Prop53
 90
        2
102
RTVSPost2010PropOp53
 70
     1
102
RTVSPost2010Prop54
  1
strokes_ogs.tif
102
RTVSPost2010PropOp54
 70
     1
102
RTVSPost2010Prop55
280
     0
102
RTVSPost2010PropOp55
 70
     1
102
RTVSPost2010Prop56
140
1.0
102
RTVSPost2010PropOp56
 70
     1
102
RTVSPost2010Prop57
140
1.0
102
RTVSPost2010PropOp57
 70
     1
102
RTVSPropertyOp0
 70
     1
102
RTVSPropertyOp1
 70
     1
102
RTVSPropertyOp2
 70
     1
102
RTVSPropertyOp3
 70
     1
102
RTVSPropertyOp4
 70
     1
102
RTVSPropertyOp5
 70
     1
102
RTVSPropertyOp6
 70
     1
102
RTVSPropertyOp7
 70
     1
102
RTVSPropertyOp8
 70
     1
102
RTVSPropertyOp9
 70
     1
102
RTVSPropertyOp10
 70
     1
102
RTVSPropertyOp11
 70
     1
102
RTVSPropertyOp12
 70
     1
102
RTVSPropertyOp13
 70
     1
102
RTVSPropertyOp14
 70
     1
102
RTVSPropertyOp15
 70
     1
102
RTVSPropertyOp16
 70
     1
102
RTVSPropertyOp17
 70
     1
102
RTVSPropertyOp18
 70
     1
102
RTVSPropertyOp19
 70
     1
102
RTVSPropertyOp20
 70
     1
102
RTVSPropertyOp21
 70
     1
102
RTVSPropertyOp22
 70
     1
102
RTVSPropertyOp23
 70
     1
102
RTVSPropertyOp24
 70
     1
102
RTVSPropertyOp25
 70
     1
102
RTVSPropertyOp26
 70
     1
102
RTVSPropertyOp27
 70
     1
102
RTVSPropertyOp28
 70
     1
102
RTVSPropertyOp29
 70
     1
102
RTVSPropertyOp30
 70
     1
102
RTVSPropertyOp31
 70
     1
102
RTVSPropertyOp32
 70
     1
102
RTVSPropertyOp33
 70
     1
102
RTVSPropertyOp34
 70
     1
102
RTVSPropertyOp35
 70
     1
102
RTVSPropertyOp36
 70
     1
102
RTVSPropertyOp37
 70
     1
102
RTVSPropertyOp38
 70
     1
102
RTVSPropertyOp39
 70
     1
102
RTVSPropertyOp40
 70
     1
102
RTVSPropertyOp41
 70
     1
102
RTVSPropertyOp42
 70
     1
102
RTVSPropertyOp43
 70
     1
102
RTVSPropertyOp44
 70
     1
102
RTVSPropertyOp45
 70
     1
102
RTVSPropertyOp46
 70
     1
102
RTVSPropertyOp47
 70
     1
102
RTVSPropertyOp48
 70
     1
102
RTVSPropertyOp49
 70
     1
102
RTVSPropertyOp50
 70
     1
102
RTVSPropertyOp51
 70
     0
102
RTVSPropertyOp52
 70
     0
102
RTVSPropertyOp53
 70
     1
102
RTVSPropertyOp54
 70
     1
102
RTVSPropertyOp55
 70
     1
102
RTVSPropertyOp56
 70
     1
102
RTVSPropertyOp57
 70
     1
102
RTVSPropertyOp58
 70
     1
102
RTVSPropertyOp59
 70
     1
102
RTVSPropertyOp60
 70
     1
102
RTVSPropertyOp61
 70
     1
102
RTVSPropertyOp62
 70
     1
  0
XRECORD
  5
526A
102
{ACAD_REACTORS
330
5269
102
}
330
5269
100
AcDbXrecord
280
     1
102
RTVSPost2010Prop28
280
     0
102
RTVSPost2010PropOp28
 70
     1
102
RTVSPost2010Prop29
280
     1
102
RTVSPost2010PropOp29
 70
     1
102
RTVSPost2010Prop30
280
     1
102
RTVSPost2010PropOp30
 70
     1
102
RTVSPost2010Prop31
280
     0
102
RTVSPost2010PropOp31
 70
     1
102
RTVSPost2010Prop32
280
     0
102
RTVSPost2010PropOp32
 70
     1
102
RTVSPost2010Prop33
280
     0
102
RTVSPost2010PropOp33
 70
     1
102
RTVSPost2010Prop34
280
     0
102
RTVSPost2010PropOp34
 70
     1
102
RTVSPost2010Prop35
280
     0
102
RTVSPost2010PropOp35
 70
     1
102
RTVSPost2010Prop36
280
     0
102
RTVSPost2010PropOp36
 70
     1
102
RTVSPost2010Prop37
 90
       50
102
RTVSPost2010PropOp37
 70
     1
102
RTVSPost2010Prop38
140
0.0
102
RTVSPost2010PropOp38
 70
     1
102
RTVSPost2010Prop39
140
1.0
102
RTVSPost2010PropOp39
 70
     1
102
RTVSPost2010Prop40
 90
        0
102
RTVSPost2010PropOp40
 70
     1
102
RTVSPost2010Prop41ColorIndex
 90
       18
102
RTVSPost2010Prop41ColorRGB
 90
        0
102
RTVSPost2010PropOp41
 70
     1
102
RTVSPost2010Prop42
 90
       50
102
RTVSPost2010PropOp42
 70
     1
102
RTVSPost2010Prop43
 90
        3
102
RTVSPost2010PropOp43
 70
     1
102
RTVSPost2010Prop44ColorIndex
 90
        5
102
RTVSPost2010Prop44ColorRGB
 90
      255
102
RTVSPost2010PropOp44
 70
     1
102
RTVSPost2010Prop45
280
     0
102
RTVSPost2010PropOp45
 70
     1
102
RTVSPost2010Prop46
 90
       50
102
RTVSPost2010PropOp46
 70
     1
102
RTVSPost2010Prop47
 90
       50
102
RTVSPost2010PropOp47
 70
     1
102
RTVSPost2010Prop48
 90
       50
102
RTVSPost2010PropOp48
 70
     1
102
RTVSPost2010Prop49
280
     0
102
RTVSPost2010PropOp49
 70
     1
102
RTVSPost2010Prop50
 90
       50
102
RTVSPost2010PropOp50
 70
     1
102
RTVSPost2010Prop51ColorIndex
 90
      256
102
RTVSPost2010Prop51ColorRGB
 90
-16777216
102
RTVSPost2010PropOp51
 70
     0
102
RTVSPost2010Prop52
140
1.0
102
RTVSPost2010PropOp52
 70
     0
102
RTVSPost2010Prop53
 90
        2
102
RTVSPost2010PropOp53
 70
     1
102
RTVSPost2010Prop54
  1
strokes_ogs.tif
102
RTVSPost2010PropOp54
 70
     1
102
RTVSPost2010Prop55
280
     0
102
RTVSPost2010PropOp55
 70
     1
102
RTVSPost2010Prop56
140
1.0
102
RTVSPost2010PropOp56
 70
     1
102
RTVSPost2010Prop57
140
1.0
102
RTVSPost2010PropOp57
 70
     1
102
RTVSPropertyOp0
 70
     1
102
RTVSPropertyOp1
 70
     1
102
RTVSPropertyOp2
 70
     1
102
RTVSPropertyOp3
 70
     1
102
RTVSPropertyOp4
 70
     1
102
RTVSPropertyOp5
 70
     1
102
RTVSPropertyOp6
 70
     1
102
RTVSPropertyOp7
 70
     1
102
RTVSPropertyOp8
 70
     1
102
RTVSPropertyOp9
 70
     1
102
RTVSPropertyOp10
 70
     1
102
RTVSPropertyOp11
 70
     1
102
RTVSPropertyOp12
 70
     1
102
RTVSPropertyOp13
 70
     1
102
RTVSPropertyOp14
 70
     1
102
RTVSPropertyOp15
 70
     1
102
RTVSPropertyOp16
 70
     1
102
RTVSPropertyOp17
 70
     1
102
RTVSPropertyOp18
 70
     1
102
RTVSPropertyOp19
 70
     1
102
RTVSPropertyOp20
 70
     1
102
RTVSPropertyOp21
 70
     1
102
RTVSPropertyOp22
 70
     1
102
RTVSPropertyOp23
 70
     1
102
RTVSPropertyOp24
 70
     1
102
RTVSPropertyOp25
 70
     1
102
RTVSPropertyOp26
 70
     1
102
RTVSPropertyOp27
 70
     1
102
RTVSPropertyOp28
 70
     1
102
RTVSPropertyOp29
 70
     1
102
RTVSPropertyOp30
 70
     1
102
RTVSPropertyOp31
 70
     1
102
RTVSPropertyOp32
 70
     1
102
RTVSPropertyOp33
 70
     1
102
RTVSPropertyOp34
 70
     1
102
RTVSPropertyOp35
 70
     1
102
RTVSPropertyOp36
 70
     1
102
RTVSPropertyOp37
 70
     1
102
RTVSPropertyOp38
 70
     1
102
RTVSPropertyOp39
 70
     1
102
RTVSPropertyOp40
 70
     1
102
RTVSPropertyOp41
 70
     1
102
RTVSPropertyOp42
 70
     1
102
RTVSPropertyOp43
 70
     1
102
RTVSPropertyOp44
 70
     1
102
RTVSPropertyOp45
 70
     1
102
RTVSPropertyOp46
 70
     1
102
RTVSPropertyOp47
 70
     1
102
RTVSPropertyOp48
 70
     1
102
RTVSPropertyOp49
 70
     1
102
RTVSPropertyOp50
 70
     1
102
RTVSPropertyOp51
 70
     0
102
RTVSPropertyOp52
 70
     0
102
RTVSPropertyOp53
 70
     1
102
RTVSPropertyOp54
 70
     1
102
RTVSPropertyOp55
 70
     1
102
RTVSPropertyOp56
 70
     1
102
RTVSPropertyOp57
 70
     1
102
RTVSPropertyOp58
 70
     1
102
RTVSPropertyOp59
 70
     1
102
RTVSPropertyOp60
 70
     1
102
RTVSPropertyOp61
 70
     1
102
RTVSPropertyOp62
 70
     1
  0
XRECORD
  5
525C
102
{ACAD_REACTORS
330
525B
102
}
330
525B
100
AcDbXrecord
280
     1
102
RTVSPost2010Prop28
280
     0
102
RTVSPost2010PropOp28
 70
     1
102
RTVSPost2010Prop29
280
     1
102
RTVSPost2010PropOp29
 70
     1
102
RTVSPost2010Prop30
280
     1
102
RTVSPost2010PropOp30
 70
     1
102
RTVSPost2010Prop31
280
     0
102
RTVSPost2010PropOp31
 70
     1
102
RTVSPost2010Prop32
280
     0
102
RTVSPost2010PropOp32
 70
     1
102
RTVSPost2010Prop33
280
     0
102
RTVSPost2010PropOp33
 70
     1
102
RTVSPost2010Prop34
280
     0
102
RTVSPost2010PropOp34
 70
     1
102
RTVSPost2010Prop35
280
     0
102
RTVSPost2010PropOp35
 70
     1
102
RTVSPost2010Prop36
280
     0
102
RTVSPost2010PropOp36
 70
     1
102
RTVSPost2010Prop37
 90
       50
102
RTVSPost2010PropOp37
 70
     1
102
RTVSPost2010Prop38
140
0.0
102
RTVSPost2010PropOp38
 70
     1
102
RTVSPost2010Prop39
140
1.0
102
RTVSPost2010PropOp39
 70
     1
102
RTVSPost2010Prop40
 90
        0
102
RTVSPost2010PropOp40
 70
     1
102
RTVSPost2010Prop41ColorIndex
 90
       18
102
RTVSPost2010Prop41ColorRGB
 90
        0
102
RTVSPost2010PropOp41
 70
     1
102
RTVSPost2010Prop42
 90
       50
102
RTVSPost2010PropOp42
 70
     1
102
RTVSPost2010Prop43
 90
        3
102
RTVSPost2010PropOp43
 70
     1
102
RTVSPost2010Prop44ColorIndex
 90
        5
102
RTVSPost2010Prop44ColorRGB
 90
      255
102
RTVSPost2010PropOp44
 70
     1
102
RTVSPost2010Prop45
280
     0
102
RTVSPost2010PropOp45
 70
     1
102
RTVSPost2010Prop46
 90
       50
102
RTVSPost2010PropOp46
 70
     1
102
RTVSPost2010Prop47
 90
       50
102
RTVSPost2010PropOp47
 70
     1
102
RTVSPost2010Prop48
 90
       50
102
RTVSPost2010PropOp48
 70
     1
102
RTVSPost2010Prop49
280
     0
102
RTVSPost2010PropOp49
 70
     1
102
RTVSPost2010Prop50
 90
       50
102
RTVSPost2010PropOp50
 70
     1
102
RTVSPost2010Prop51ColorIndex
 90
      256
102
RTVSPost2010Prop51ColorRGB
 90
-16777216
102
RTVSPost2010PropOp51
 70
     0
102
RTVSPost2010Prop52
140
1.0
102
RTVSPost2010PropOp52
 70
     0
102
RTVSPost2010Prop53
 90
        2
102
RTVSPost2010PropOp53
 70
     1
102
RTVSPost2010Prop54
  1
strokes_ogs.tif
102
RTVSPost2010PropOp54
 70
     1
102
RTVSPost2010Prop55
280
     0
102
RTVSPost2010PropOp55
 70
     1
102
RTVSPost2010Prop56
140
1.0
102
RTVSPost2010PropOp56
 70
     1
102
RTVSPost2010Prop57
140
1.0
102
RTVSPost2010PropOp57
 70
     1
102
RTVSPropertyOp0
 70
     1
102
RTVSPropertyOp1
 70
     1
102
RTVSPropertyOp2
 70
     1
102
RTVSPropertyOp3
 70
     1
102
RTVSPropertyOp4
 70
     1
102
RTVSPropertyOp5
 70
     1
102
RTVSPropertyOp6
 70
     1
102
RTVSPropertyOp7
 70
     1
102
RTVSPropertyOp8
 70
     1
102
RTVSPropertyOp9
 70
     1
102
RTVSPropertyOp10
 70
     1
102
RTVSPropertyOp11
 70
     1
102
RTVSPropertyOp12
 70
     1
102
RTVSPropertyOp13
 70
     1
102
RTVSPropertyOp14
 70
     1
102
RTVSPropertyOp15
 70
     1
102
RTVSPropertyOp16
 70
     1
102
RTVSPropertyOp17
 70
     1
102
RTVSPropertyOp18
 70
     1
102
RTVSPropertyOp19
 70
     1
102
RTVSPropertyOp20
 70
     1
102
RTVSPropertyOp21
 70
     1
102
RTVSPropertyOp22
 70
     1
102
RTVSPropertyOp23
 70
     1
102
RTVSPropertyOp24
 70
     1
102
RTVSPropertyOp25
 70
     1
102
RTVSPropertyOp26
 70
     1
102
RTVSPropertyOp27
 70
     1
102
RTVSPropertyOp28
 70
     1
102
RTVSPropertyOp29
 70
     1
102
RTVSPropertyOp30
 70
     1
102
RTVSPropertyOp31
 70
     1
102
RTVSPropertyOp32
 70
     1
102
RTVSPropertyOp33
 70
     1
102
RTVSPropertyOp34
 70
     1
102
RTVSPropertyOp35
 70
     1
102
RTVSPropertyOp36
 70
     1
102
RTVSPropertyOp37
 70
     1
102
RTVSPropertyOp38
 70
     1
102
RTVSPropertyOp39
 70
     1
102
RTVSPropertyOp40
 70
     1
102
RTVSPropertyOp41
 70
     1
102
RTVSPropertyOp42
 70
     1
102
RTVSPropertyOp43
 70
     1
102
RTVSPropertyOp44
 70
     1
102
RTVSPropertyOp45
 70
     1
102
RTVSPropertyOp46
 70
     1
102
RTVSPropertyOp47
 70
     1
102
RTVSPropertyOp48
 70
     1
102
RTVSPropertyOp49
 70
     1
102
RTVSPropertyOp50
 70
     1
102
RTVSPropertyOp51
 70
     0
102
RTVSPropertyOp52
 70
     0
102
RTVSPropertyOp53
 70
     1
102
RTVSPropertyOp54
 70
     1
102
RTVSPropertyOp55
 70
     1
102
RTVSPropertyOp56
 70
     1
102
RTVSPropertyOp57
 70
     1
102
RTVSPropertyOp58
 70
     1
102
RTVSPropertyOp59
 70
     1
102
RTVSPropertyOp60
 70
     1
102
RTVSPropertyOp61
 70
     1
102
RTVSPropertyOp62
 70
     1
  0
XRECORD
  5
5260
102
{ACAD_REACTORS
330
525F
102
}
330
525F
100
AcDbXrecord
280
     1
102
RTVSPost2010Prop28
280
     0
102
RTVSPost2010PropOp28
 70
     1
102
RTVSPost2010Prop29
280
     1
102
RTVSPost2010PropOp29
 70
     1
102
RTVSPost2010Prop30
280
     1
102
RTVSPost2010PropOp30
 70
     1
102
RTVSPost2010Prop31
280
     0
102
RTVSPost2010PropOp31
 70
     1
102
RTVSPost2010Prop32
280
     0
102
RTVSPost2010PropOp32
 70
     1
102
RTVSPost2010Prop33
280
     0
102
RTVSPost2010PropOp33
 70
     1
102
RTVSPost2010Prop34
280
     0
102
RTVSPost2010PropOp34
 70
     1
102
RTVSPost2010Prop35
280
     0
102
RTVSPost2010PropOp35
 70
     1
102
RTVSPost2010Prop36
280
     0
102
RTVSPost2010PropOp36
 70
     1
102
RTVSPost2010Prop37
 90
       50
102
RTVSPost2010PropOp37
 70
     1
102
RTVSPost2010Prop38
140
0.0
102
RTVSPost2010PropOp38
 70
     1
102
RTVSPost2010Prop39
140
1.0
102
RTVSPost2010PropOp39
 70
     1
102
RTVSPost2010Prop40
 90
        0
102
RTVSPost2010PropOp40
 70
     1
102
RTVSPost2010Prop41ColorIndex
 90
       18
102
RTVSPost2010Prop41ColorRGB
 90
        0
102
RTVSPost2010PropOp41
 70
     1
102
RTVSPost2010Prop42
 90
       50
102
RTVSPost2010PropOp42
 70
     1
102
RTVSPost2010Prop43
 90
        3
102
RTVSPost2010PropOp43
 70
     1
102
RTVSPost2010Prop44ColorIndex
 90
        5
102
RTVSPost2010Prop44ColorRGB
 90
      255
102
RTVSPost2010PropOp44
 70
     1
102
RTVSPost2010Prop45
280
     0
102
RTVSPost2010PropOp45
 70
     1
102
RTVSPost2010Prop46
 90
       50
102
RTVSPost2010PropOp46
 70
     1
102
RTVSPost2010Prop47
 90
       50
102
RTVSPost2010PropOp47
 70
     1
102
RTVSPost2010Prop48
 90
       50
102
RTVSPost2010PropOp48
 70
     1
102
RTVSPost2010Prop49
280
     0
102
RTVSPost2010PropOp49
 70
     1
102
RTVSPost2010Prop50
 90
       50
102
RTVSPost2010PropOp50
 70
     1
102
RTVSPost2010Prop51ColorIndex
 90
      256
102
RTVSPost2010Prop51ColorRGB
 90
-16777216
102
RTVSPost2010PropOp51
 70
     0
102
RTVSPost2010Prop52
140
1.0
102
RTVSPost2010PropOp52
 70
     0
102
RTVSPost2010Prop53
 90
        2
102
RTVSPost2010PropOp53
 70
     1
102
RTVSPost2010Prop54
  1
strokes_ogs.tif
102
RTVSPost2010PropOp54
 70
     1
102
RTVSPost2010Prop55
280
     0
102
RTVSPost2010PropOp55
 70
     1
102
RTVSPost2010Prop56
140
1.0
102
RTVSPost2010PropOp56
 70
     1
102
RTVSPost2010Prop57
140
1.0
102
RTVSPost2010PropOp57
 70
     1
102
RTVSPropertyOp0
 70
     1
102
RTVSPropertyOp1
 70
     1
102
RTVSPropertyOp2
 70
     1
102
RTVSPropertyOp3
 70
     1
102
RTVSPropertyOp4
 70
     1
102
RTVSPropertyOp5
 70
     1
102
RTVSPropertyOp6
 70
     1
102
RTVSPropertyOp7
 70
     1
102
RTVSPropertyOp8
 70
     1
102
RTVSPropertyOp9
 70
     1
102
RTVSPropertyOp10
 70
     1
102
RTVSPropertyOp11
 70
     1
102
RTVSPropertyOp12
 70
     1
102
RTVSPropertyOp13
 70
     1
102
RTVSPropertyOp14
 70
     1
102
RTVSPropertyOp15
 70
     1
102
RTVSPropertyOp16
 70
     1
102
RTVSPropertyOp17
 70
     1
102
RTVSPropertyOp18
 70
     1
102
RTVSPropertyOp19
 70
     1
102
RTVSPropertyOp20
 70
     1
102
RTVSPropertyOp21
 70
     1
102
RTVSPropertyOp22
 70
     1
102
RTVSPropertyOp23
 70
     1
102
RTVSPropertyOp24
 70
     1
102
RTVSPropertyOp25
 70
     1
102
RTVSPropertyOp26
 70
     1
102
RTVSPropertyOp27
 70
     1
102
RTVSPropertyOp28
 70
     1
102
RTVSPropertyOp29
 70
     1
102
RTVSPropertyOp30
 70
     1
102
RTVSPropertyOp31
 70
     1
102
RTVSPropertyOp32
 70
     1
102
RTVSPropertyOp33
 70
     1
102
RTVSPropertyOp34
 70
     1
102
RTVSPropertyOp35
 70
     1
102
RTVSPropertyOp36
 70
     1
102
RTVSPropertyOp37
 70
     1
102
RTVSPropertyOp38
 70
     1
102
RTVSPropertyOp39
 70
     1
102
RTVSPropertyOp40
 70
     1
102
RTVSPropertyOp41
 70
     1
102
RTVSPropertyOp42
 70
     1
102
RTVSPropertyOp43
 70
     1
102
RTVSPropertyOp44
 70
     1
102
RTVSPropertyOp45
 70
     1
102
RTVSPropertyOp46
 70
     1
102
RTVSPropertyOp47
 70
     1
102
RTVSPropertyOp48
 70
     1
102
RTVSPropertyOp49
 70
     1
102
RTVSPropertyOp50
 70
     1
102
RTVSPropertyOp51
 70
     0
102
RTVSPropertyOp52
 70
     0
102
RTVSPropertyOp53
 70
     1
102
RTVSPropertyOp54
 70
     1
102
RTVSPropertyOp55
 70
     1
102
RTVSPropertyOp56
 70
     1
102
RTVSPropertyOp57
 70
     1
102
RTVSPropertyOp58
 70
     1
102
RTVSPropertyOp59
 70
     1
102
RTVSPropertyOp60
 70
     1
102
RTVSPropertyOp61
 70
     1
102
RTVSPropertyOp62
 70
     1
  0
XRECORD
  5
527A
102
{ACAD_REACTORS
330
5279
102
}
330
5279
100
AcDbXrecord
280
     1
102
RTVSPost2010Prop28
280
     0
102
RTVSPost2010PropOp28
 70
     1
102
RTVSPost2010Prop29
280
     1
102
RTVSPost2010PropOp29
 70
     1
102
RTVSPost2010Prop30
280
     1
102
RTVSPost2010PropOp30
 70
     1
102
RTVSPost2010Prop31
280
     0
102
RTVSPost2010PropOp31
 70
     1
102
RTVSPost2010Prop32
280
     0
102
RTVSPost2010PropOp32
 70
     1
102
RTVSPost2010Prop33
280
     0
102
RTVSPost2010PropOp33
 70
     1
102
RTVSPost2010Prop34
280
     0
102
RTVSPost2010PropOp34
 70
     1
102
RTVSPost2010Prop35
280
     0
102
RTVSPost2010PropOp35
 70
     1
102
RTVSPost2010Prop36
280
     0
102
RTVSPost2010PropOp36
 70
     1
102
RTVSPost2010Prop37
 90
       50
102
RTVSPost2010PropOp37
 70
     1
102
RTVSPost2010Prop38
140
0.0
102
RTVSPost2010PropOp38
 70
     1
102
RTVSPost2010Prop39
140
1.0
102
RTVSPost2010PropOp39
 70
     1
102
RTVSPost2010Prop40
 90
        0
102
RTVSPost2010PropOp40
 70
     1
102
RTVSPost2010Prop41ColorIndex
 90
       18
102
RTVSPost2010Prop41ColorRGB
 90
        0
102
RTVSPost2010PropOp41
 70
     1
102
RTVSPost2010Prop42
 90
       50
102
RTVSPost2010PropOp42
 70
     1
102
RTVSPost2010Prop43
 90
        3
102
RTVSPost2010PropOp43
 70
     1
102
RTVSPost2010Prop44ColorIndex
 90
        5
102
RTVSPost2010Prop44ColorRGB
 90
      255
102
RTVSPost2010PropOp44
 70
     1
102
RTVSPost2010Prop45
280
     0
102
RTVSPost2010PropOp45
 70
     1
102
RTVSPost2010Prop46
 90
       50
102
RTVSPost2010PropOp46
 70
     1
102
RTVSPost2010Prop47
 90
       50
102
RTVSPost2010PropOp47
 70
     1
102
RTVSPost2010Prop48
 90
       50
102
RTVSPost2010PropOp48
 70
     1
102
RTVSPost2010Prop49
280
     0
102
RTVSPost2010PropOp49
 70
     1
102
RTVSPost2010Prop50
 90
       50
102
RTVSPost2010PropOp50
 70
     1
102
RTVSPost2010Prop51ColorIndex
 90
      256
102
RTVSPost2010Prop51ColorRGB
 90
-16777216
102
RTVSPost2010PropOp51
 70
     0
102
RTVSPost2010Prop52
140
1.0
102
RTVSPost2010PropOp52
 70
     0
102
RTVSPost2010Prop53
 90
        2
102
RTVSPost2010PropOp53
 70
     1
102
RTVSPost2010Prop54
  1
strokes_ogs.tif
102
RTVSPost2010PropOp54
 70
     1
102
RTVSPost2010Prop55
280
     0
102
RTVSPost2010PropOp55
 70
     1
102
RTVSPost2010Prop56
140
1.0
102
RTVSPost2010PropOp56
 70
     1
102
RTVSPost2010Prop57
140
1.0
102
RTVSPost2010PropOp57
 70
     1
102
RTVSPropertyOp0
 70
     0
102
RTVSPropertyOp1
 70
     0
102
RTVSPropertyOp2
 70
     0
102
RTVSPropertyOp3
 70
     0
102
RTVSPropertyOp4
 70
     0
102
RTVSPropertyOp5
 70
     0
102
RTVSPropertyOp6
 70
     0
102
RTVSPropertyOp7
 70
     0
102
RTVSPropertyOp8
 70
     0
102
RTVSPropertyOp9
 70
     0
102
RTVSPropertyOp10
 70
     0
102
RTVSPropertyOp11
 70
     0
102
RTVSPropertyOp12
 70
     0
102
RTVSPropertyOp13
 70
     0
102
RTVSPropertyOp14
 70
     2
102
RTVSPropertyOp15
 70
     0
102
RTVSPropertyOp16
 70
     0
102
RTVSPropertyOp17
 70
     0
102
RTVSPropertyOp18
 70
     0
102
RTVSPropertyOp19
 70
     0
102
RTVSPropertyOp20
 70
     0
102
RTVSPropertyOp21
 70
     0
102
RTVSPropertyOp22
 70
     0
102
RTVSPropertyOp23
 70
     0
102
RTVSPropertyOp24
 70
     0
102
RTVSPropertyOp25
 70
     0
102
RTVSPropertyOp26
 70
     0
102
RTVSPropertyOp27
 70
     0
102
RTVSPropertyOp28
 70
     1
102
RTVSPropertyOp29
 70
     1
102
RTVSPropertyOp30
 70
     1
102
RTVSPropertyOp31
 70
     1
102
RTVSPropertyOp32
 70
     1
102
RTVSPropertyOp33
 70
     1
102
RTVSPropertyOp34
 70
     1
102
RTVSPropertyOp35
 70
     1
102
RTVSPropertyOp36
 70
     1
102
RTVSPropertyOp37
 70
     1
102
RTVSPropertyOp38
 70
     1
102
RTVSPropertyOp39
 70
     1
102
RTVSPropertyOp40
 70
     1
102
RTVSPropertyOp41
 70
     1
102
RTVSPropertyOp42
 70
     1
102
RTVSPropertyOp43
 70
     1
102
RTVSPropertyOp44
 70
     1
102
RTVSPropertyOp45
 70
     1
102
RTVSPropertyOp46
 70
     1
102
RTVSPropertyOp47
 70
     1
102
RTVSPropertyOp48
 70
     1
102
RTVSPropertyOp49
 70
     1
102
RTVSPropertyOp50
 70
     1
102
RTVSPropertyOp51
 70
     0
102
RTVSPropertyOp52
 70
     0
102
RTVSPropertyOp53
 70
     1
102
RTVSPropertyOp54
 70
     1
102
RTVSPropertyOp55
 70
     1
102
RTVSPropertyOp56
 70
     1
102
RTVSPropertyOp57
 70
     1
102
RTVSPropertyOp58
 70
     1
102
RTVSPropertyOp59
 70
     1
102
RTVSPropertyOp60
 70
     1
102
RTVSPropertyOp61
 70
     1
102
RTVSPropertyOp62
 70
     1
  0
XRECORD
  5
5268
102
{ACAD_REACTORS
330
5267
102
}
330
5267
100
AcDbXrecord
280
     1
102
RTVSPost2010Prop28
280
     0
102
RTVSPost2010PropOp28
 70
     1
102
RTVSPost2010Prop29
280
     1
102
RTVSPost2010PropOp29
 70
     1
102
RTVSPost2010Prop30
280
     1
102
RTVSPost2010PropOp30
 70
     1
102
RTVSPost2010Prop31
280
     0
102
RTVSPost2010PropOp31
 70
     1
102
RTVSPost2010Prop32
280
     0
102
RTVSPost2010PropOp32
 70
     1
102
RTVSPost2010Prop33
280
     0
102
RTVSPost2010PropOp33
 70
     1
102
RTVSPost2010Prop34
280
     0
102
RTVSPost2010PropOp34
 70
     1
102
RTVSPost2010Prop35
280
     0
102
RTVSPost2010PropOp35
 70
     1
102
RTVSPost2010Prop36
280
     0
102
RTVSPost2010PropOp36
 70
     1
102
RTVSPost2010Prop37
 90
       50
102
RTVSPost2010PropOp37
 70
     1
102
RTVSPost2010Prop38
140
0.0
102
RTVSPost2010PropOp38
 70
     1
102
RTVSPost2010Prop39
140
1.0
102
RTVSPost2010PropOp39
 70
     1
102
RTVSPost2010Prop40
 90
        0
102
RTVSPost2010PropOp40
 70
     1
102
RTVSPost2010Prop41ColorIndex
 90
       18
102
RTVSPost2010Prop41ColorRGB
 90
        0
102
RTVSPost2010PropOp41
 70
     1
102
RTVSPost2010Prop42
 90
       50
102
RTVSPost2010PropOp42
 70
     1
102
RTVSPost2010Prop43
 90
        3
102
RTVSPost2010PropOp43
 70
     1
102
RTVSPost2010Prop44ColorIndex
 90
        5
102
RTVSPost2010Prop44ColorRGB
 90
      255
102
RTVSPost2010PropOp44
 70
     1
102
RTVSPost2010Prop45
280
     0
102
RTVSPost2010PropOp45
 70
     1
102
RTVSPost2010Prop46
 90
       50
102
RTVSPost2010PropOp46
 70
     1
102
RTVSPost2010Prop47
 90
       50
102
RTVSPost2010PropOp47
 70
     1
102
RTVSPost2010Prop48
 90
       50
102
RTVSPost2010PropOp48
 70
     1
102
RTVSPost2010Prop49
280
     0
102
RTVSPost2010PropOp49
 70
     1
102
RTVSPost2010Prop50
 90
       50
102
RTVSPost2010PropOp50
 70
     1
102
RTVSPost2010Prop51ColorIndex
 90
      256
102
RTVSPost2010Prop51ColorRGB
 90
-16777216
102
RTVSPost2010PropOp51
 70
     0
102
RTVSPost2010Prop52
140
1.0
102
RTVSPost2010PropOp52
 70
     0
102
RTVSPost2010Prop53
 90
        2
102
RTVSPost2010PropOp53
 70
     1
102
RTVSPost2010Prop54
  1
strokes_ogs.tif
102
RTVSPost2010PropOp54
 70
     1
102
RTVSPost2010Prop55
280
     0
102
RTVSPost2010PropOp55
 70
     1
102
RTVSPost2010Prop56
140
1.0
102
RTVSPost2010PropOp56
 70
     1
102
RTVSPost2010Prop57
140
1.0
102
RTVSPost2010PropOp57
 70
     1
102
RTVSPropertyOp0
 70
     1
102
RTVSPropertyOp1
 70
     1
102
RTVSPropertyOp2
 70
     1
102
RTVSPropertyOp3
 70
     1
102
RTVSPropertyOp4
 70
     1
102
RTVSPropertyOp5
 70
     1
102
RTVSPropertyOp6
 70
     1
102
RTVSPropertyOp7
 70
     1
102
RTVSPropertyOp8
 70
     1
102
RTVSPropertyOp9
 70
     1
102
RTVSPropertyOp10
 70
     1
102
RTVSPropertyOp11
 70
     1
102
RTVSPropertyOp12
 70
     1
102
RTVSPropertyOp13
 70
     1
102
RTVSPropertyOp14
 70
     1
102
RTVSPropertyOp15
 70
     1
102
RTVSPropertyOp16
 70
     1
102
RTVSPropertyOp17
 70
     1
102
RTVSPropertyOp18
 70
     1
102
RTVSPropertyOp19
 70
     1
102
RTVSPropertyOp20
 70
     1
102
RTVSPropertyOp21
 70
     1
102
RTVSPropertyOp22
 70
     1
102
RTVSPropertyOp23
 70
     1
102
RTVSPropertyOp24
 70
     1
102
RTVSPropertyOp25
 70
     1
102
RTVSPropertyOp26
 70
     1
102
RTVSPropertyOp27
 70
     1
102
RTVSPropertyOp28
 70
     1
102
RTVSPropertyOp29
 70
     1
102
RTVSPropertyOp30
 70
     1
102
RTVSPropertyOp31
 70
     1
102
RTVSPropertyOp32
 70
     1
102
RTVSPropertyOp33
 70
     1
102
RTVSPropertyOp34
 70
     1
102
RTVSPropertyOp35
 70
     1
102
RTVSPropertyOp36
 70
     1
102
RTVSPropertyOp37
 70
     1
102
RTVSPropertyOp38
 70
     1
102
RTVSPropertyOp39
 70
     1
102
RTVSPropertyOp40
 70
     1
102
RTVSPropertyOp41
 70
     1
102
RTVSPropertyOp42
 70
     1
102
RTVSPropertyOp43
 70
     1
102
RTVSPropertyOp44
 70
     1
102
RTVSPropertyOp45
 70
     1
102
RTVSPropertyOp46
 70
     1
102
RTVSPropertyOp47
 70
     1
102
RTVSPropertyOp48
 70
     1
102
RTVSPropertyOp49
 70
     1
102
RTVSPropertyOp50
 70
     1
102
RTVSPropertyOp51
 70
     0
102
RTVSPropertyOp52
 70
     0
102
RTVSPropertyOp53
 70
     1
102
RTVSPropertyOp54
 70
     1
102
RTVSPropertyOp55
 70
     1
102
RTVSPropertyOp56
 70
     1
102
RTVSPropertyOp57
 70
     1
102
RTVSPropertyOp58
 70
     1
102
RTVSPropertyOp59
 70
     1
102
RTVSPropertyOp60
 70
     1
102
RTVSPropertyOp61
 70
     1
102
RTVSPropertyOp62
 70
     1
  0
XRECORD
  5
524C
102
{ACAD_REACTORS
330
524B
102
}
330
524B
100
AcDbXrecord
280
     1
102
RTVSPost2010Prop28
280
     0
102
RTVSPost2010PropOp28
 70
     1
102
RTVSPost2010Prop29
280
     1
102
RTVSPost2010PropOp29
 70
     1
102
RTVSPost2010Prop30
280
     1
102
RTVSPost2010PropOp30
 70
     1
102
RTVSPost2010Prop31
280
     0
102
RTVSPost2010PropOp31
 70
     1
102
RTVSPost2010Prop32
280
     0
102
RTVSPost2010PropOp32
 70
     1
102
RTVSPost2010Prop33
280
     0
102
RTVSPost2010PropOp33
 70
     1
102
RTVSPost2010Prop34
280
     0
102
RTVSPost2010PropOp34
 70
     1
102
RTVSPost2010Prop35
280
     0
102
RTVSPost2010PropOp35
 70
     1
102
RTVSPost2010Prop36
280
     0
102
RTVSPost2010PropOp36
 70
     1
102
RTVSPost2010Prop37
 90
       50
102
RTVSPost2010PropOp37
 70
     1
102
RTVSPost2010Prop38
140
0.0
102
RTVSPost2010PropOp38
 70
     1
102
RTVSPost2010Prop39
140
1.0
102
RTVSPost2010PropOp39
 70
     1
102
RTVSPost2010Prop40
 90
        0
102
RTVSPost2010PropOp40
 70
     1
102
RTVSPost2010Prop41ColorIndex
 90
       18
102
RTVSPost2010Prop41ColorRGB
 90
        0
102
RTVSPost2010PropOp41
 70
     1
102
RTVSPost2010Prop42
 90
       50
102
RTVSPost2010PropOp42
 70
     1
102
RTVSPost2010Prop43
 90
        3
102
RTVSPost2010PropOp43
 70
     1
102
RTVSPost2010Prop44ColorIndex
 90
        5
102
RTVSPost2010Prop44ColorRGB
 90
      255
102
RTVSPost2010PropOp44
 70
     1
102
RTVSPost2010Prop45
280
     0
102
RTVSPost2010PropOp45
 70
     1
102
RTVSPost2010Prop46
 90
       50
102
RTVSPost2010PropOp46
 70
     1
102
RTVSPost2010Prop47
 90
       50
102
RTVSPost2010PropOp47
 70
     1
102
RTVSPost2010Prop48
 90
       50
102
RTVSPost2010PropOp48
 70
     1
102
RTVSPost2010Prop49
280
     0
102
RTVSPost2010PropOp49
 70
     1
102
RTVSPost2010Prop50
 90
       50
102
RTVSPost2010PropOp50
 70
     1
102
RTVSPost2010Prop51ColorIndex
 90
      256
102
RTVSPost2010Prop51ColorRGB
 90
-16777216
102
RTVSPost2010PropOp51
 70
     0
102
RTVSPost2010Prop52
140
1.0
102
RTVSPost2010PropOp52
 70
     0
102
RTVSPost2010Prop53
 90
        2
102
RTVSPost2010PropOp53
 70
     1
102
RTVSPost2010Prop54
  1
strokes_ogs.tif
102
RTVSPost2010PropOp54
 70
     1
102
RTVSPost2010Prop55
280
     0
102
RTVSPost2010PropOp55
 70
     1
102
RTVSPost2010Prop56
140
1.0
102
RTVSPost2010PropOp56
 70
     1
102
RTVSPost2010Prop57
140
1.0
102
RTVSPost2010PropOp57
 70
     1
102
RTVSPropertyOp0
 70
     1
102
RTVSPropertyOp1
 70
     1
102
RTVSPropertyOp2
 70
     1
102
RTVSPropertyOp3
 70
     1
102
RTVSPropertyOp4
 70
     1
102
RTVSPropertyOp5
 70
     1
102
RTVSPropertyOp6
 70
     1
102
RTVSPropertyOp7
 70
     1
102
RTVSPropertyOp8
 70
     1
102
RTVSPropertyOp9
 70
     1
102
RTVSPropertyOp10
 70
     1
102
RTVSPropertyOp11
 70
     1
102
RTVSPropertyOp12
 70
     1
102
RTVSPropertyOp13
 70
     1
102
RTVSPropertyOp14
 70
     1
102
RTVSPropertyOp15
 70
     1
102
RTVSPropertyOp16
 70
     1
102
RTVSPropertyOp17
 70
     1
102
RTVSPropertyOp18
 70
     1
102
RTVSPropertyOp19
 70
     1
102
RTVSPropertyOp20
 70
     1
102
RTVSPropertyOp21
 70
     1
102
RTVSPropertyOp22
 70
     1
102
RTVSPropertyOp23
 70
     1
102
RTVSPropertyOp24
 70
     1
102
RTVSPropertyOp25
 70
     1
102
RTVSPropertyOp26
 70
     1
102
RTVSPropertyOp27
 70
     1
102
RTVSPropertyOp28
 70
     1
102
RTVSPropertyOp29
 70
     1
102
RTVSPropertyOp30
 70
     1
102
RTVSPropertyOp31
 70
     1
102
RTVSPropertyOp32
 70
     1
102
RTVSPropertyOp33
 70
     1
102
RTVSPropertyOp34
 70
     1
102
RTVSPropertyOp35
 70
     1
102
RTVSPropertyOp36
 70
     1
102
RTVSPropertyOp37
 70
     1
102
RTVSPropertyOp38
 70
     1
102
RTVSPropertyOp39
 70
     1
102
RTVSPropertyOp40
 70
     1
102
RTVSPropertyOp41
 70
     1
102
RTVSPropertyOp42
 70
     1
102
RTVSPropertyOp43
 70
     1
102
RTVSPropertyOp44
 70
     1
102
RTVSPropertyOp45
 70
     1
102
RTVSPropertyOp46
 70
     1
102
RTVSPropertyOp47
 70
     1
102
RTVSPropertyOp48
 70
     1
102
RTVSPropertyOp49
 70
     1
102
RTVSPropertyOp50
 70
     1
102
RTVSPropertyOp51
 70
     0
102
RTVSPropertyOp52
 70
     0
102
RTVSPropertyOp53
 70
     1
102
RTVSPropertyOp54
 70
     1
102
RTVSPropertyOp55
 70
     1
102
RTVSPropertyOp56
 70
     1
102
RTVSPropertyOp57
 70
     1
102
RTVSPropertyOp58
 70
     1
102
RTVSPropertyOp59
 70
     1
102
RTVSPropertyOp60
 70
     1
102
RTVSPropertyOp61
 70
     1
102
RTVSPropertyOp62
 70
     1
  0
XRECORD
  5
524E
102
{ACAD_REACTORS
330
524D
102
}
330
524D
100
AcDbXrecord
280
     1
102
RTVSPost2010Prop28
280
     0
102
RTVSPost2010PropOp28
 70
     1
102
RTVSPost2010Prop29
280
     1
102
RTVSPost2010PropOp29
 70
     1
102
RTVSPost2010Prop30
280
     1
102
RTVSPost2010PropOp30
 70
     1
102
RTVSPost2010Prop31
280
     0
102
RTVSPost2010PropOp31
 70
     1
102
RTVSPost2010Prop32
280
     0
102
RTVSPost2010PropOp32
 70
     1
102
RTVSPost2010Prop33
280
     0
102
RTVSPost2010PropOp33
 70
     1
102
RTVSPost2010Prop34
280
     0
102
RTVSPost2010PropOp34
 70
     1
102
RTVSPost2010Prop35
280
     0
102
RTVSPost2010PropOp35
 70
     1
102
RTVSPost2010Prop36
280
     0
102
RTVSPost2010PropOp36
 70
     1
102
RTVSPost2010Prop37
 90
       50
102
RTVSPost2010PropOp37
 70
     1
102
RTVSPost2010Prop38
140
0.0
102
RTVSPost2010PropOp38
 70
     1
102
RTVSPost2010Prop39
140
1.0
102
RTVSPost2010PropOp39
 70
     1
102
RTVSPost2010Prop40
 90
        0
102
RTVSPost2010PropOp40
 70
     1
102
RTVSPost2010Prop41ColorIndex
 90
       18
102
RTVSPost2010Prop41ColorRGB
 90
        0
102
RTVSPost2010PropOp41
 70
     1
102
RTVSPost2010Prop42
 90
       50
102
RTVSPost2010PropOp42
 70
     1
102
RTVSPost2010Prop43
 90
        3
102
RTVSPost2010PropOp43
 70
     1
102
RTVSPost2010Prop44ColorIndex
 90
        5
102
RTVSPost2010Prop44ColorRGB
 90
      255
102
RTVSPost2010PropOp44
 70
     1
102
RTVSPost2010Prop45
280
     0
102
RTVSPost2010PropOp45
 70
     1
102
RTVSPost2010Prop46
 90
       50
102
RTVSPost2010PropOp46
 70
     1
102
RTVSPost2010Prop47
 90
       50
102
RTVSPost2010PropOp47
 70
     1
102
RTVSPost2010Prop48
 90
       50
102
RTVSPost2010PropOp48
 70
     1
102
RTVSPost2010Prop49
280
     0
102
RTVSPost2010PropOp49
 70
     1
102
RTVSPost2010Prop50
 90
       50
102
RTVSPost2010PropOp50
 70
     1
102
RTVSPost2010Prop51ColorIndex
 90
      256
102
RTVSPost2010Prop51ColorRGB
 90
-16777216
102
RTVSPost2010PropOp51
 70
     0
102
RTVSPost2010Prop52
140
1.0
102
RTVSPost2010PropOp52
 70
     0
102
RTVSPost2010Prop53
 90
        2
102
RTVSPost2010PropOp53
 70
     1
102
RTVSPost2010Prop54
  1
strokes_ogs.tif
102
RTVSPost2010PropOp54
 70
     1
102
RTVSPost2010Prop55
280
     0
102
RTVSPost2010PropOp55
 70
     1
102
RTVSPost2010Prop56
140
1.0
102
RTVSPost2010PropOp56
 70
     1
102
RTVSPost2010Prop57
140
1.0
102
RTVSPost2010PropOp57
 70
     1
102
RTVSPropertyOp0
 70
     1
102
RTVSPropertyOp1
 70
     1
102
RTVSPropertyOp2
 70
     1
102
RTVSPropertyOp3
 70
     1
102
RTVSPropertyOp4
 70
     1
102
RTVSPropertyOp5
 70
     1
102
RTVSPropertyOp6
 70
     1
102
RTVSPropertyOp7
 70
     1
102
RTVSPropertyOp8
 70
     1
102
RTVSPropertyOp9
 70
     1
102
RTVSPropertyOp10
 70
     1
102
RTVSPropertyOp11
 70
     1
102
RTVSPropertyOp12
 70
     1
102
RTVSPropertyOp13
 70
     1
102
RTVSPropertyOp14
 70
     1
102
RTVSPropertyOp15
 70
     1
102
RTVSPropertyOp16
 70
     1
102
RTVSPropertyOp17
 70
     1
102
RTVSPropertyOp18
 70
     1
102
RTVSPropertyOp19
 70
     1
102
RTVSPropertyOp20
 70
     1
102
RTVSPropertyOp21
 70
     1
102
RTVSPropertyOp22
 70
     1
102
RTVSPropertyOp23
 70
     1
102
RTVSPropertyOp24
 70
     1
102
RTVSPropertyOp25
 70
     1
102
RTVSPropertyOp26
 70
     1
102
RTVSPropertyOp27
 70
     1
102
RTVSPropertyOp28
 70
     1
102
RTVSPropertyOp29
 70
     1
102
RTVSPropertyOp30
 70
     1
102
RTVSPropertyOp31
 70
     1
102
RTVSPropertyOp32
 70
     1
102
RTVSPropertyOp33
 70
     1
102
RTVSPropertyOp34
 70
     1
102
RTVSPropertyOp35
 70
     1
102
RTVSPropertyOp36
 70
     1
102
RTVSPropertyOp37
 70
     1
102
RTVSPropertyOp38
 70
     1
102
RTVSPropertyOp39
 70
     1
102
RTVSPropertyOp40
 70
     1
102
RTVSPropertyOp41
 70
     1
102
RTVSPropertyOp42
 70
     1
102
RTVSPropertyOp43
 70
     1
102
RTVSPropertyOp44
 70
     1
102
RTVSPropertyOp45
 70
     1
102
RTVSPropertyOp46
 70
     1
102
RTVSPropertyOp47
 70
     1
102
RTVSPropertyOp48
 70
     1
102
RTVSPropertyOp49
 70
     1
102
RTVSPropertyOp50
 70
     1
102
RTVSPropertyOp51
 70
     0
102
RTVSPropertyOp52
 70
     0
102
RTVSPropertyOp53
 70
     1
102
RTVSPropertyOp54
 70
     1
102
RTVSPropertyOp55
 70
     1
102
RTVSPropertyOp56
 70
     1
102
RTVSPropertyOp57
 70
     1
102
RTVSPropertyOp58
 70
     1
102
RTVSPropertyOp59
 70
     1
102
RTVSPropertyOp60
 70
     1
102
RTVSPropertyOp61
 70
     1
102
RTVSPropertyOp62
 70
     1
  0
XRECORD
  5
5250
102
{ACAD_REACTORS
330
524F
102
}
330
524F
100
AcDbXrecord
280
     1
102
RTVSPost2010Prop28
280
     0
102
RTVSPost2010PropOp28
 70
     1
102
RTVSPost2010Prop29
280
     1
102
RTVSPost2010PropOp29
 70
     1
102
RTVSPost2010Prop30
280
     1
102
RTVSPost2010PropOp30
 70
     1
102
RTVSPost2010Prop31
280
     0
102
RTVSPost2010PropOp31
 70
     1
102
RTVSPost2010Prop32
280
     0
102
RTVSPost2010PropOp32
 70
     1
102
RTVSPost2010Prop33
280
     0
102
RTVSPost2010PropOp33
 70
     1
102
RTVSPost2010Prop34
280
     0
102
RTVSPost2010PropOp34
 70
     1
102
RTVSPost2010Prop35
280
     0
102
RTVSPost2010PropOp35
 70
     1
102
RTVSPost2010Prop36
280
     0
102
RTVSPost2010PropOp36
 70
     1
102
RTVSPost2010Prop37
 90
       50
102
RTVSPost2010PropOp37
 70
     1
102
RTVSPost2010Prop38
140
0.0
102
RTVSPost2010PropOp38
 70
     1
102
RTVSPost2010Prop39
140
1.0
102
RTVSPost2010PropOp39
 70
     1
102
RTVSPost2010Prop40
 90
        0
102
RTVSPost2010PropOp40
 70
     1
102
RTVSPost2010Prop41ColorIndex
 90
       18
102
RTVSPost2010Prop41ColorRGB
 90
        0
102
RTVSPost2010PropOp41
 70
     1
102
RTVSPost2010Prop42
 90
       50
102
RTVSPost2010PropOp42
 70
     1
102
RTVSPost2010Prop43
 90
        3
102
RTVSPost2010PropOp43
 70
     1
102
RTVSPost2010Prop44ColorIndex
 90
        5
102
RTVSPost2010Prop44ColorRGB
 90
      255
102
RTVSPost2010PropOp44
 70
     1
102
RTVSPost2010Prop45
280
     0
102
RTVSPost2010PropOp45
 70
     1
102
RTVSPost2010Prop46
 90
       50
102
RTVSPost2010PropOp46
 70
     1
102
RTVSPost2010Prop47
 90
       50
102
RTVSPost2010PropOp47
 70
     1
102
RTVSPost2010Prop48
 90
       50
102
RTVSPost2010PropOp48
 70
     1
102
RTVSPost2010Prop49
280
     0
102
RTVSPost2010PropOp49
 70
     1
102
RTVSPost2010Prop50
 90
       50
102
RTVSPost2010PropOp50
 70
     1
102
RTVSPost2010Prop51ColorIndex
 90
      256
102
RTVSPost2010Prop51ColorRGB
 90
-16777216
102
RTVSPost2010PropOp51
 70
     0
102
RTVSPost2010Prop52
140
1.0
102
RTVSPost2010PropOp52
 70
     0
102
RTVSPost2010Prop53
 90
        2
102
RTVSPost2010PropOp53
 70
     1
102
RTVSPost2010Prop54
  1
strokes_ogs.tif
102
RTVSPost2010PropOp54
 70
     1
102
RTVSPost2010Prop55
280
     0
102
RTVSPost2010PropOp55
 70
     1
102
RTVSPost2010Prop56
140
1.0
102
RTVSPost2010PropOp56
 70
     1
102
RTVSPost2010Prop57
140
1.0
102
RTVSPost2010PropOp57
 70
     1
102
RTVSPropertyOp0
 70
     1
102
RTVSPropertyOp1
 70
     1
102
RTVSPropertyOp2
 70
     1
102
RTVSPropertyOp3
 70
     1
102
RTVSPropertyOp4
 70
     1
102
RTVSPropertyOp5
 70
     1
102
RTVSPropertyOp6
 70
     1
102
RTVSPropertyOp7
 70
     1
102
RTVSPropertyOp8
 70
     1
102
RTVSPropertyOp9
 70
     1
102
RTVSPropertyOp10
 70
     1
102
RTVSPropertyOp11
 70
     1
102
RTVSPropertyOp12
 70
     1
102
RTVSPropertyOp13
 70
     1
102
RTVSPropertyOp14
 70
     1
102
RTVSPropertyOp15
 70
     1
102
RTVSPropertyOp16
 70
     1
102
RTVSPropertyOp17
 70
     1
102
RTVSPropertyOp18
 70
     1
102
RTVSPropertyOp19
 70
     1
102
RTVSPropertyOp20
 70
     1
102
RTVSPropertyOp21
 70
     1
102
RTVSPropertyOp22
 70
     1
102
RTVSPropertyOp23
 70
     1
102
RTVSPropertyOp24
 70
     1
102
RTVSPropertyOp25
 70
     1
102
RTVSPropertyOp26
 70
     1
102
RTVSPropertyOp27
 70
     1
102
RTVSPropertyOp28
 70
     1
102
RTVSPropertyOp29
 70
     1
102
RTVSPropertyOp30
 70
     1
102
RTVSPropertyOp31
 70
     1
102
RTVSPropertyOp32
 70
     1
102
RTVSPropertyOp33
 70
     1
102
RTVSPropertyOp34
 70
     1
102
RTVSPropertyOp35
 70
     1
102
RTVSPropertyOp36
 70
     1
102
RTVSPropertyOp37
 70
     1
102
RTVSPropertyOp38
 70
     1
102
RTVSPropertyOp39
 70
     1
102
RTVSPropertyOp40
 70
     1
102
RTVSPropertyOp41
 70
     1
102
RTVSPropertyOp42
 70
     1
102
RTVSPropertyOp43
 70
     1
102
RTVSPropertyOp44
 70
     1
102
RTVSPropertyOp45
 70
     1
102
RTVSPropertyOp46
 70
     1
102
RTVSPropertyOp47
 70
     1
102
RTVSPropertyOp48
 70
     1
102
RTVSPropertyOp49
 70
     1
102
RTVSPropertyOp50
 70
     1
102
RTVSPropertyOp51
 70
     0
102
RTVSPropertyOp52
 70
     0
102
RTVSPropertyOp53
 70
     1
102
RTVSPropertyOp54
 70
     1
102
RTVSPropertyOp55
 70
     1
102
RTVSPropertyOp56
 70
     1
102
RTVSPropertyOp57
 70
     1
102
RTVSPropertyOp58
 70
     1
102
RTVSPropertyOp59
 70
     1
102
RTVSPropertyOp60
 70
     1
102
RTVSPropertyOp61
 70
     1
102
RTVSPropertyOp62
 70
     1
  0
XRECORD
  5
5252
102
{ACAD_REACTORS
330
5251
102
}
330
5251
100
AcDbXrecord
280
     1
102
RTVSPost2010Prop28
280
     0
102
RTVSPost2010PropOp28
 70
     1
102
RTVSPost2010Prop29
280
     1
102
RTVSPost2010PropOp29
 70
     1
102
RTVSPost2010Prop30
280
     1
102
RTVSPost2010PropOp30
 70
     1
102
RTVSPost2010Prop31
280
     0
102
RTVSPost2010PropOp31
 70
     1
102
RTVSPost2010Prop32
280
     0
102
RTVSPost2010PropOp32
 70
     1
102
RTVSPost2010Prop33
280
     0
102
RTVSPost2010PropOp33
 70
     1
102
RTVSPost2010Prop34
280
     0
102
RTVSPost2010PropOp34
 70
     1
102
RTVSPost2010Prop35
280
     0
102
RTVSPost2010PropOp35
 70
     1
102
RTVSPost2010Prop36
280
     0
102
RTVSPost2010PropOp36
 70
     1
102
RTVSPost2010Prop37
 90
       50
102
RTVSPost2010PropOp37
 70
     1
102
RTVSPost2010Prop38
140
0.0
102
RTVSPost2010PropOp38
 70
     1
102
RTVSPost2010Prop39
140
1.0
102
RTVSPost2010PropOp39
 70
     1
102
RTVSPost2010Prop40
 90
        0
102
RTVSPost2010PropOp40
 70
     1
102
RTVSPost2010Prop41ColorIndex
 90
       18
102
RTVSPost2010Prop41ColorRGB
 90
        0
102
RTVSPost2010PropOp41
 70
     1
102
RTVSPost2010Prop42
 90
       50
102
RTVSPost2010PropOp42
 70
     1
102
RTVSPost2010Prop43
 90
        3
102
RTVSPost2010PropOp43
 70
     1
102
RTVSPost2010Prop44ColorIndex
 90
        5
102
RTVSPost2010Prop44ColorRGB
 90
      255
102
RTVSPost2010PropOp44
 70
     1
102
RTVSPost2010Prop45
280
     0
102
RTVSPost2010PropOp45
 70
     1
102
RTVSPost2010Prop46
 90
       50
102
RTVSPost2010PropOp46
 70
     1
102
RTVSPost2010Prop47
 90
       50
102
RTVSPost2010PropOp47
 70
     1
102
RTVSPost2010Prop48
 90
       50
102
RTVSPost2010PropOp48
 70
     1
102
RTVSPost2010Prop49
280
     0
102
RTVSPost2010PropOp49
 70
     1
102
RTVSPost2010Prop50
 90
       50
102
RTVSPost2010PropOp50
 70
     1
102
RTVSPost2010Prop51ColorIndex
 90
      256
102
RTVSPost2010Prop51ColorRGB
 90
-16777216
102
RTVSPost2010PropOp51
 70
     0
102
RTVSPost2010Prop52
140
1.0
102
RTVSPost2010PropOp52
 70
     0
102
RTVSPost2010Prop53
 90
        2
102
RTVSPost2010PropOp53
 70
     1
102
RTVSPost2010Prop54
  1
strokes_ogs.tif
102
RTVSPost2010PropOp54
 70
     1
102
RTVSPost2010Prop55
280
     0
102
RTVSPost2010PropOp55
 70
     1
102
RTVSPost2010Prop56
140
1.0
102
RTVSPost2010PropOp56
 70
     1
102
RTVSPost2010Prop57
140
1.0
102
RTVSPost2010PropOp57
 70
     1
102
RTVSPropertyOp0
 70
     1
102
RTVSPropertyOp1
 70
     1
102
RTVSPropertyOp2
 70
     1
102
RTVSPropertyOp3
 70
     1
102
RTVSPropertyOp4
 70
     1
102
RTVSPropertyOp5
 70
     1
102
RTVSPropertyOp6
 70
     1
102
RTVSPropertyOp7
 70
     1
102
RTVSPropertyOp8
 70
     1
102
RTVSPropertyOp9
 70
     1
102
RTVSPropertyOp10
 70
     1
102
RTVSPropertyOp11
 70
     1
102
RTVSPropertyOp12
 70
     1
102
RTVSPropertyOp13
 70
     1
102
RTVSPropertyOp14
 70
     1
102
RTVSPropertyOp15
 70
     1
102
RTVSPropertyOp16
 70
     1
102
RTVSPropertyOp17
 70
     1
102
RTVSPropertyOp18
 70
     1
102
RTVSPropertyOp19
 70
     1
102
RTVSPropertyOp20
 70
     1
102
RTVSPropertyOp21
 70
     1
102
RTVSPropertyOp22
 70
     1
102
RTVSPropertyOp23
 70
     1
102
RTVSPropertyOp24
 70
     1
102
RTVSPropertyOp25
 70
     1
102
RTVSPropertyOp26
 70
     1
102
RTVSPropertyOp27
 70
     1
102
RTVSPropertyOp28
 70
     1
102
RTVSPropertyOp29
 70
     1
102
RTVSPropertyOp30
 70
     1
102
RTVSPropertyOp31
 70
     1
102
RTVSPropertyOp32
 70
     1
102
RTVSPropertyOp33
 70
     1
102
RTVSPropertyOp34
 70
     1
102
RTVSPropertyOp35
 70
     1
102
RTVSPropertyOp36
 70
     1
102
RTVSPropertyOp37
 70
     1
102
RTVSPropertyOp38
 70
     1
102
RTVSPropertyOp39
 70
     1
102
RTVSPropertyOp40
 70
     1
102
RTVSPropertyOp41
 70
     1
102
RTVSPropertyOp42
 70
     1
102
RTVSPropertyOp43
 70
     1
102
RTVSPropertyOp44
 70
     1
102
RTVSPropertyOp45
 70
     1
102
RTVSPropertyOp46
 70
     1
102
RTVSPropertyOp47
 70
     1
102
RTVSPropertyOp48
 70
     1
102
RTVSPropertyOp49
 70
     1
102
RTVSPropertyOp50
 70
     1
102
RTVSPropertyOp51
 70
     0
102
RTVSPropertyOp52
 70
     0
102
RTVSPropertyOp53
 70
     1
102
RTVSPropertyOp54
 70
     1
102
RTVSPropertyOp55
 70
     1
102
RTVSPropertyOp56
 70
     1
102
RTVSPropertyOp57
 70
     1
102
RTVSPropertyOp58
 70
     1
102
RTVSPropertyOp59
 70
     1
102
RTVSPropertyOp60
 70
     1
102
RTVSPropertyOp61
 70
     1
102
RTVSPropertyOp62
 70
     1
  0
XRECORD
  5
527E
102
{ACAD_REACTORS
330
527D
102
}
330
527D
100
AcDbXrecord
280
     1
102
RTVSPost2010Prop28
280
     0
102
RTVSPost2010PropOp28
 70
     1
102
RTVSPost2010Prop29
280
     1
102
RTVSPost2010PropOp29
 70
     1
102
RTVSPost2010Prop30
280
     1
102
RTVSPost2010PropOp30
 70
     1
102
RTVSPost2010Prop31
280
     0
102
RTVSPost2010PropOp31
 70
     1
102
RTVSPost2010Prop32
280
     0
102
RTVSPost2010PropOp32
 70
     1
102
RTVSPost2010Prop33
280
     0
102
RTVSPost2010PropOp33
 70
     1
102
RTVSPost2010Prop34
280
     0
102
RTVSPost2010PropOp34
 70
     1
102
RTVSPost2010Prop35
280
     0
102
RTVSPost2010PropOp35
 70
     1
102
RTVSPost2010Prop36
280
     0
102
RTVSPost2010PropOp36
 70
     1
102
RTVSPost2010Prop37
 90
       50
102
RTVSPost2010PropOp37
 70
     1
102
RTVSPost2010Prop38
140
0.0
102
RTVSPost2010PropOp38
 70
     1
102
RTVSPost2010Prop39
140
1.0
102
RTVSPost2010PropOp39
 70
     1
102
RTVSPost2010Prop40
 90
        0
102
RTVSPost2010PropOp40
 70
     1
102
RTVSPost2010Prop41ColorIndex
 90
       18
102
RTVSPost2010Prop41ColorRGB
 90
        0
102
RTVSPost2010PropOp41
 70
     1
102
RTVSPost2010Prop42
 90
       50
102
RTVSPost2010PropOp42
 70
     1
102
RTVSPost2010Prop43
 90
        3
102
RTVSPost2010PropOp43
 70
     1
102
RTVSPost2010Prop44ColorIndex
 90
        5
102
RTVSPost2010Prop44ColorRGB
 90
      255
102
RTVSPost2010PropOp44
 70
     1
102
RTVSPost2010Prop45
280
     0
102
RTVSPost2010PropOp45
 70
     1
102
RTVSPost2010Prop46
 90
       50
102
RTVSPost2010PropOp46
 70
     1
102
RTVSPost2010Prop47
 90
       50
102
RTVSPost2010PropOp47
 70
     1
102
RTVSPost2010Prop48
 90
       50
102
RTVSPost2010PropOp48
 70
     1
102
RTVSPost2010Prop49
280
     0
102
RTVSPost2010PropOp49
 70
     1
102
RTVSPost2010Prop50
 90
       50
102
RTVSPost2010PropOp50
 70
     1
102
RTVSPost2010Prop51ColorIndex
 90
      256
102
RTVSPost2010Prop51ColorRGB
 90
-16777216
102
RTVSPost2010PropOp51
 70
     0
102
RTVSPost2010Prop52
140
1.0
102
RTVSPost2010PropOp52
 70
     0
102
RTVSPost2010Prop53
 90
        2
102
RTVSPost2010PropOp53
 70
     1
102
RTVSPost2010Prop54
  1
strokes_ogs.tif
102
RTVSPost2010PropOp54
 70
     1
102
RTVSPost2010Prop55
280
     0
102
RTVSPost2010PropOp55
 70
     1
102
RTVSPost2010Prop56
140
1.0
102
RTVSPost2010PropOp56
 70
     1
102
RTVSPost2010Prop57
140
1.0
102
RTVSPost2010PropOp57
 70
     1
102
RTVSPropertyOp0
 70
     1
102
RTVSPropertyOp1
 70
     1
102
RTVSPropertyOp2
 70
     1
102
RTVSPropertyOp3
 70
     1
102
RTVSPropertyOp4
 70
     1
102
RTVSPropertyOp5
 70
     1
102
RTVSPropertyOp6
 70
     1
102
RTVSPropertyOp7
 70
     1
102
RTVSPropertyOp8
 70
     1
102
RTVSPropertyOp9
 70
     1
102
RTVSPropertyOp10
 70
     1
102
RTVSPropertyOp11
 70
     1
102
RTVSPropertyOp12
 70
     1
102
RTVSPropertyOp13
 70
     1
102
RTVSPropertyOp14
 70
     1
102
RTVSPropertyOp15
 70
     1
102
RTVSPropertyOp16
 70
     1
102
RTVSPropertyOp17
 70
     1
102
RTVSPropertyOp18
 70
     1
102
RTVSPropertyOp19
 70
     1
102
RTVSPropertyOp20
 70
     1
102
RTVSPropertyOp21
 70
     1
102
RTVSPropertyOp22
 70
     1
102
RTVSPropertyOp23
 70
     1
102
RTVSPropertyOp24
 70
     1
102
RTVSPropertyOp25
 70
     1
102
RTVSPropertyOp26
 70
     1
102
RTVSPropertyOp27
 70
     1
102
RTVSPropertyOp28
 70
     1
102
RTVSPropertyOp29
 70
     1
102
RTVSPropertyOp30
 70
     1
102
RTVSPropertyOp31
 70
     1
102
RTVSPropertyOp32
 70
     1
102
RTVSPropertyOp33
 70
     1
102
RTVSPropertyOp34
 70
     1
102
RTVSPropertyOp35
 70
     1
102
RTVSPropertyOp36
 70
     1
102
RTVSPropertyOp37
 70
     1
102
RTVSPropertyOp38
 70
     1
102
RTVSPropertyOp39
 70
     1
102
RTVSPropertyOp40
 70
     1
102
RTVSPropertyOp41
 70
     1
102
RTVSPropertyOp42
 70
     1
102
RTVSPropertyOp43
 70
     1
102
RTVSPropertyOp44
 70
     1
102
RTVSPropertyOp45
 70
     1
102
RTVSPropertyOp46
 70
     1
102
RTVSPropertyOp47
 70
     1
102
RTVSPropertyOp48
 70
     1
102
RTVSPropertyOp49
 70
     1
102
RTVSPropertyOp50
 70
     1
102
RTVSPropertyOp51
 70
     0
102
RTVSPropertyOp52
 70
     0
102
RTVSPropertyOp53
 70
     1
102
RTVSPropertyOp54
 70
     1
102
RTVSPropertyOp55
 70
     1
102
RTVSPropertyOp56
 70
     1
102
RTVSPropertyOp57
 70
     1
102
RTVSPropertyOp58
 70
     1
102
RTVSPropertyOp59
 70
     1
102
RTVSPropertyOp60
 70
     1
102
RTVSPropertyOp61
 70
     1
102
RTVSPropertyOp62
 70
     1
  0
XRECORD
  5
5276
102
{ACAD_REACTORS
330
5275
102
}
330
5275
100
AcDbXrecord
280
     1
102
RTVSPost2010Prop28
280
     0
102
RTVSPost2010PropOp28
 70
     1
102
RTVSPost2010Prop29
280
     1
102
RTVSPost2010PropOp29
 70
     1
102
RTVSPost2010Prop30
280
     1
102
RTVSPost2010PropOp30
 70
     1
102
RTVSPost2010Prop31
280
     0
102
RTVSPost2010PropOp31
 70
     1
102
RTVSPost2010Prop32
280
     0
102
RTVSPost2010PropOp32
 70
     1
102
RTVSPost2010Prop33
280
     0
102
RTVSPost2010PropOp33
 70
     1
102
RTVSPost2010Prop34
280
     0
102
RTVSPost2010PropOp34
 70
     1
102
RTVSPost2010Prop35
280
     0
102
RTVSPost2010PropOp35
 70
     1
102
RTVSPost2010Prop36
280
     0
102
RTVSPost2010PropOp36
 70
     1
102
RTVSPost2010Prop37
 90
       50
102
RTVSPost2010PropOp37
 70
     1
102
RTVSPost2010Prop38
140
0.0
102
RTVSPost2010PropOp38
 70
     1
102
RTVSPost2010Prop39
140
1.0
102
RTVSPost2010PropOp39
 70
     1
102
RTVSPost2010Prop40
 90
        0
102
RTVSPost2010PropOp40
 70
     1
102
RTVSPost2010Prop41ColorIndex
 90
       18
102
RTVSPost2010Prop41ColorRGB
 90
        0
102
RTVSPost2010PropOp41
 70
     1
102
RTVSPost2010Prop42
 90
       50
102
RTVSPost2010PropOp42
 70
     1
102
RTVSPost2010Prop43
 90
        3
102
RTVSPost2010PropOp43
 70
     1
102
RTVSPost2010Prop44ColorIndex
 90
        5
102
RTVSPost2010Prop44ColorRGB
 90
      255
102
RTVSPost2010PropOp44
 70
     1
102
RTVSPost2010Prop45
280
     0
102
RTVSPost2010PropOp45
 70
     1
102
RTVSPost2010Prop46
 90
       50
102
RTVSPost2010PropOp46
 70
     1
102
RTVSPost2010Prop47
 90
       50
102
RTVSPost2010PropOp47
 70
     1
102
RTVSPost2010Prop48
 90
       50
102
RTVSPost2010PropOp48
 70
     1
102
RTVSPost2010Prop49
280
     0
102
RTVSPost2010PropOp49
 70
     1
102
RTVSPost2010Prop50
 90
       50
102
RTVSPost2010PropOp50
 70
     1
102
RTVSPost2010Prop51ColorIndex
 90
      256
102
RTVSPost2010Prop51ColorRGB
 90
-16777216
102
RTVSPost2010PropOp51
 70
     0
102
RTVSPost2010Prop52
140
1.0
102
RTVSPost2010PropOp52
 70
     0
102
RTVSPost2010Prop53
 90
        2
102
RTVSPost2010PropOp53
 70
     1
102
RTVSPost2010Prop54
  1
strokes_ogs.tif
102
RTVSPost2010PropOp54
 70
     1
102
RTVSPost2010Prop55
280
     0
102
RTVSPost2010PropOp55
 70
     1
102
RTVSPost2010Prop56
140
1.0
102
RTVSPost2010PropOp56
 70
     1
102
RTVSPost2010Prop57
140
1.0
102
RTVSPost2010PropOp57
 70
     1
102
RTVSPropertyOp0
 70
     0
102
RTVSPropertyOp1
 70
     0
102
RTVSPropertyOp2
 70
     0
102
RTVSPropertyOp3
 70
     0
102
RTVSPropertyOp4
 70
     0
102
RTVSPropertyOp5
 70
     0
102
RTVSPropertyOp6
 70
     0
102
RTVSPropertyOp7
 70
     0
102
RTVSPropertyOp8
 70
     0
102
RTVSPropertyOp9
 70
     0
102
RTVSPropertyOp10
 70
     0
102
RTVSPropertyOp11
 70
     0
102
RTVSPropertyOp12
 70
     0
102
RTVSPropertyOp13
 70
     0
102
RTVSPropertyOp14
 70
     2
102
RTVSPropertyOp15
 70
     0
102
RTVSPropertyOp16
 70
     0
102
RTVSPropertyOp17
 70
     0
102
RTVSPropertyOp18
 70
     0
102
RTVSPropertyOp19
 70
     0
102
RTVSPropertyOp20
 70
     0
102
RTVSPropertyOp21
 70
     0
102
RTVSPropertyOp22
 70
     0
102
RTVSPropertyOp23
 70
     0
102
RTVSPropertyOp24
 70
     0
102
RTVSPropertyOp25
 70
     0
102
RTVSPropertyOp26
 70
     0
102
RTVSPropertyOp27
 70
     0
102
RTVSPropertyOp28
 70
     1
102
RTVSPropertyOp29
 70
     1
102
RTVSPropertyOp30
 70
     1
102
RTVSPropertyOp31
 70
     1
102
RTVSPropertyOp32
 70
     1
102
RTVSPropertyOp33
 70
     1
102
RTVSPropertyOp34
 70
     1
102
RTVSPropertyOp35
 70
     1
102
RTVSPropertyOp36
 70
     1
102
RTVSPropertyOp37
 70
     1
102
RTVSPropertyOp38
 70
     1
102
RTVSPropertyOp39
 70
     1
102
RTVSPropertyOp40
 70
     1
102
RTVSPropertyOp41
 70
     1
102
RTVSPropertyOp42
 70
     1
102
RTVSPropertyOp43
 70
     1
102
RTVSPropertyOp44
 70
     1
102
RTVSPropertyOp45
 70
     1
102
RTVSPropertyOp46
 70
     1
102
RTVSPropertyOp47
 70
     1
102
RTVSPropertyOp48
 70
     1
102
RTVSPropertyOp49
 70
     1
102
RTVSPropertyOp50
 70
     1
102
RTVSPropertyOp51
 70
     0
102
RTVSPropertyOp52
 70
     0
102
RTVSPropertyOp53
 70
     1
102
RTVSPropertyOp54
 70
     1
102
RTVSPropertyOp55
 70
     1
102
RTVSPropertyOp56
 70
     1
102
RTVSPropertyOp57
 70
     1
102
RTVSPropertyOp58
 70
     1
102
RTVSPropertyOp59
 70
     1
102
RTVSPropertyOp60
 70
     1
102
RTVSPropertyOp61
 70
     1
102
RTVSPropertyOp62
 70
     1
  0
XRECORD
  5
5266
102
{ACAD_REACTORS
330
5265
102
}
330
5265
100
AcDbXrecord
280
     1
102
RTVSPost2010Prop28
280
     0
102
RTVSPost2010PropOp28
 70
     1
102
RTVSPost2010Prop29
280
     1
102
RTVSPost2010PropOp29
 70
     1
102
RTVSPost2010Prop30
280
     1
102
RTVSPost2010PropOp30
 70
     1
102
RTVSPost2010Prop31
280
     0
102
RTVSPost2010PropOp31
 70
     1
102
RTVSPost2010Prop32
280
     0
102
RTVSPost2010PropOp32
 70
     1
102
RTVSPost2010Prop33
280
     0
102
RTVSPost2010PropOp33
 70
     1
102
RTVSPost2010Prop34
280
     0
102
RTVSPost2010PropOp34
 70
     1
102
RTVSPost2010Prop35
280
     0
102
RTVSPost2010PropOp35
 70
     1
102
RTVSPost2010Prop36
280
     0
102
RTVSPost2010PropOp36
 70
     1
102
RTVSPost2010Prop37
 90
       50
102
RTVSPost2010PropOp37
 70
     1
102
RTVSPost2010Prop38
140
0.0
102
RTVSPost2010PropOp38
 70
     1
102
RTVSPost2010Prop39
140
1.0
102
RTVSPost2010PropOp39
 70
     1
102
RTVSPost2010Prop40
 90
        0
102
RTVSPost2010PropOp40
 70
     1
102
RTVSPost2010Prop41ColorIndex
 90
       18
102
RTVSPost2010Prop41ColorRGB
 90
        0
102
RTVSPost2010PropOp41
 70
     1
102
RTVSPost2010Prop42
 90
       50
102
RTVSPost2010PropOp42
 70
     1
102
RTVSPost2010Prop43
 90
        3
102
RTVSPost2010PropOp43
 70
     1
102
RTVSPost2010Prop44ColorIndex
 90
        5
102
RTVSPost2010Prop44ColorRGB
 90
      255
102
RTVSPost2010PropOp44
 70
     1
102
RTVSPost2010Prop45
280
     0
102
RTVSPost2010PropOp45
 70
     1
102
RTVSPost2010Prop46
 90
       50
102
RTVSPost2010PropOp46
 70
     1
102
RTVSPost2010Prop47
 90
       50
102
RTVSPost2010PropOp47
 70
     1
102
RTVSPost2010Prop48
 90
       50
102
RTVSPost2010PropOp48
 70
     1
102
RTVSPost2010Prop49
280
     0
102
RTVSPost2010PropOp49
 70
     1
102
RTVSPost2010Prop50
 90
       50
102
RTVSPost2010PropOp50
 70
     1
102
RTVSPost2010Prop51ColorIndex
 90
      256
102
RTVSPost2010Prop51ColorRGB
 90
-16777216
102
RTVSPost2010PropOp51
 70
     0
102
RTVSPost2010Prop52
140
1.0
102
RTVSPost2010PropOp52
 70
     0
102
RTVSPost2010Prop53
 90
        2
102
RTVSPost2010PropOp53
 70
     1
102
RTVSPost2010Prop54
  1
strokes_ogs.tif
102
RTVSPost2010PropOp54
 70
     1
102
RTVSPost2010Prop55
280
     0
102
RTVSPost2010PropOp55
 70
     1
102
RTVSPost2010Prop56
140
1.0
102
RTVSPost2010PropOp56
 70
     1
102
RTVSPost2010Prop57
140
1.0
102
RTVSPost2010PropOp57
 70
     1
102
RTVSPropertyOp0
 70
     1
102
RTVSPropertyOp1
 70
     1
102
RTVSPropertyOp2
 70
     1
102
RTVSPropertyOp3
 70
     1
102
RTVSPropertyOp4
 70
     1
102
RTVSPropertyOp5
 70
     1
102
RTVSPropertyOp6
 70
     1
102
RTVSPropertyOp7
 70
     1
102
RTVSPropertyOp8
 70
     1
102
RTVSPropertyOp9
 70
     1
102
RTVSPropertyOp10
 70
     1
102
RTVSPropertyOp11
 70
     1
102
RTVSPropertyOp12
 70
     1
102
RTVSPropertyOp13
 70
     1
102
RTVSPropertyOp14
 70
     1
102
RTVSPropertyOp15
 70
     1
102
RTVSPropertyOp16
 70
     1
102
RTVSPropertyOp17
 70
     1
102
RTVSPropertyOp18
 70
     1
102
RTVSPropertyOp19
 70
     1
102
RTVSPropertyOp20
 70
     1
102
RTVSPropertyOp21
 70
     1
102
RTVSPropertyOp22
 70
     1
102
RTVSPropertyOp23
 70
     1
102
RTVSPropertyOp24
 70
     1
102
RTVSPropertyOp25
 70
     1
102
RTVSPropertyOp26
 70
     1
102
RTVSPropertyOp27
 70
     1
102
RTVSPropertyOp28
 70
     1
102
RTVSPropertyOp29
 70
     1
102
RTVSPropertyOp30
 70
     1
102
RTVSPropertyOp31
 70
     1
102
RTVSPropertyOp32
 70
     1
102
RTVSPropertyOp33
 70
     1
102
RTVSPropertyOp34
 70
     1
102
RTVSPropertyOp35
 70
     1
102
RTVSPropertyOp36
 70
     1
102
RTVSPropertyOp37
 70
     1
102
RTVSPropertyOp38
 70
     1
102
RTVSPropertyOp39
 70
     1
102
RTVSPropertyOp40
 70
     1
102
RTVSPropertyOp41
 70
     1
102
RTVSPropertyOp42
 70
     1
102
RTVSPropertyOp43
 70
     1
102
RTVSPropertyOp44
 70
     1
102
RTVSPropertyOp45
 70
     1
102
RTVSPropertyOp46
 70
     1
102
RTVSPropertyOp47
 70
     1
102
RTVSPropertyOp48
 70
     1
102
RTVSPropertyOp49
 70
     1
102
RTVSPropertyOp50
 70
     1
102
RTVSPropertyOp51
 70
     0
102
RTVSPropertyOp52
 70
     0
102
RTVSPropertyOp53
 70
     1
102
RTVSPropertyOp54
 70
     1
102
RTVSPropertyOp55
 70
     1
102
RTVSPropertyOp56
 70
     1
102
RTVSPropertyOp57
 70
     1
102
RTVSPropertyOp58
 70
     1
102
RTVSPropertyOp59
 70
     1
102
RTVSPropertyOp60
 70
     1
102
RTVSPropertyOp61
 70
     1
102
RTVSPropertyOp62
 70
     1
  0
XRECORD
  5
5278
102
{ACAD_REACTORS
330
5277
102
}
330
5277
100
AcDbXrecord
280
     1
102
RTVSPost2010Prop28
280
     0
102
RTVSPost2010PropOp28
 70
     1
102
RTVSPost2010Prop29
280
     1
102
RTVSPost2010PropOp29
 70
     1
102
RTVSPost2010Prop30
280
     1
102
RTVSPost2010PropOp30
 70
     1
102
RTVSPost2010Prop31
280
     0
102
RTVSPost2010PropOp31
 70
     1
102
RTVSPost2010Prop32
280
     0
102
RTVSPost2010PropOp32
 70
     1
102
RTVSPost2010Prop33
280
     0
102
RTVSPost2010PropOp33
 70
     1
102
RTVSPost2010Prop34
280
     0
102
RTVSPost2010PropOp34
 70
     1
102
RTVSPost2010Prop35
280
     0
102
RTVSPost2010PropOp35
 70
     1
102
RTVSPost2010Prop36
280
     0
102
RTVSPost2010PropOp36
 70
     1
102
RTVSPost2010Prop37
 90
       50
102
RTVSPost2010PropOp37
 70
     1
102
RTVSPost2010Prop38
140
0.0
102
RTVSPost2010PropOp38
 70
     1
102
RTVSPost2010Prop39
140
1.0
102
RTVSPost2010PropOp39
 70
     1
102
RTVSPost2010Prop40
 90
        0
102
RTVSPost2010PropOp40
 70
     1
102
RTVSPost2010Prop41ColorIndex
 90
       18
102
RTVSPost2010Prop41ColorRGB
 90
        0
102
RTVSPost2010PropOp41
 70
     1
102
RTVSPost2010Prop42
 90
       50
102
RTVSPost2010PropOp42
 70
     1
102
RTVSPost2010Prop43
 90
        3
102
RTVSPost2010PropOp43
 70
     1
102
RTVSPost2010Prop44ColorIndex
 90
        5
102
RTVSPost2010Prop44ColorRGB
 90
      255
102
RTVSPost2010PropOp44
 70
     1
102
RTVSPost2010Prop45
280
     0
102
RTVSPost2010PropOp45
 70
     1
102
RTVSPost2010Prop46
 90
       50
102
RTVSPost2010PropOp46
 70
     1
102
RTVSPost2010Prop47
 90
       50
102
RTVSPost2010PropOp47
 70
     1
102
RTVSPost2010Prop48
 90
       50
102
RTVSPost2010PropOp48
 70
     1
102
RTVSPost2010Prop49
280
     0
102
RTVSPost2010PropOp49
 70
     1
102
RTVSPost2010Prop50
 90
       50
102
RTVSPost2010PropOp50
 70
     1
102
RTVSPost2010Prop51ColorIndex
 90
      256
102
RTVSPost2010Prop51ColorRGB
 90
-16777216
102
RTVSPost2010PropOp51
 70
     0
102
RTVSPost2010Prop52
140
1.0
102
RTVSPost2010PropOp52
 70
     0
102
RTVSPost2010Prop53
 90
        2
102
RTVSPost2010PropOp53
 70
     1
102
RTVSPost2010Prop54
  1
strokes_ogs.tif
102
RTVSPost2010PropOp54
 70
     1
102
RTVSPost2010Prop55
280
     0
102
RTVSPost2010PropOp55
 70
     1
102
RTVSPost2010Prop56
140
1.0
102
RTVSPost2010PropOp56
 70
     1
102
RTVSPost2010Prop57
140
1.0
102
RTVSPost2010PropOp57
 70
     1
102
RTVSPropertyOp0
 70
     0
102
RTVSPropertyOp1
 70
     0
102
RTVSPropertyOp2
 70
     0
102
RTVSPropertyOp3
 70
     0
102
RTVSPropertyOp4
 70
     0
102
RTVSPropertyOp5
 70
     0
102
RTVSPropertyOp6
 70
     0
102
RTVSPropertyOp7
 70
     0
102
RTVSPropertyOp8
 70
     0
102
RTVSPropertyOp9
 70
     0
102
RTVSPropertyOp10
 70
     0
102
RTVSPropertyOp11
 70
     0
102
RTVSPropertyOp12
 70
     0
102
RTVSPropertyOp13
 70
     0
102
RTVSPropertyOp14
 70
     2
102
RTVSPropertyOp15
 70
     0
102
RTVSPropertyOp16
 70
     0
102
RTVSPropertyOp17
 70
     0
102
RTVSPropertyOp18
 70
     0
102
RTVSPropertyOp19
 70
     0
102
RTVSPropertyOp20
 70
     0
102
RTVSPropertyOp21
 70
     0
102
RTVSPropertyOp22
 70
     0
102
RTVSPropertyOp23
 70
     0
102
RTVSPropertyOp24
 70
     0
102
RTVSPropertyOp25
 70
     0
102
RTVSPropertyOp26
 70
     0
102
RTVSPropertyOp27
 70
     0
102
RTVSPropertyOp28
 70
     1
102
RTVSPropertyOp29
 70
     1
102
RTVSPropertyOp30
 70
     1
102
RTVSPropertyOp31
 70
     1
102
RTVSPropertyOp32
 70
     1
102
RTVSPropertyOp33
 70
     1
102
RTVSPropertyOp34
 70
     1
102
RTVSPropertyOp35
 70
     1
102
RTVSPropertyOp36
 70
     1
102
RTVSPropertyOp37
 70
     1
102
RTVSPropertyOp38
 70
     1
102
RTVSPropertyOp39
 70
     1
102
RTVSPropertyOp40
 70
     1
102
RTVSPropertyOp41
 70
     1
102
RTVSPropertyOp42
 70
     1
102
RTVSPropertyOp43
 70
     1
102
RTVSPropertyOp44
 70
     1
102
RTVSPropertyOp45
 70
     1
102
RTVSPropertyOp46
 70
     1
102
RTVSPropertyOp47
 70
     1
102
RTVSPropertyOp48
 70
     1
102
RTVSPropertyOp49
 70
     1
102
RTVSPropertyOp50
 70
     1
102
RTVSPropertyOp51
 70
     0
102
RTVSPropertyOp52
 70
     0
102
RTVSPropertyOp53
 70
     1
102
RTVSPropertyOp54
 70
     1
102
RTVSPropertyOp55
 70
     1
102
RTVSPropertyOp56
 70
     1
102
RTVSPropertyOp57
 70
     1
102
RTVSPropertyOp58
 70
     1
102
RTVSPropertyOp59
 70
     1
102
RTVSPropertyOp60
 70
     1
102
RTVSPropertyOp61
 70
     1
102
RTVSPropertyOp62
 70
     1
  0
XRECORD
  5
525E
102
{ACAD_REACTORS
330
525D
102
}
330
525D
100
AcDbXrecord
280
     1
102
RTVSPost2010Prop28
280
     0
102
RTVSPost2010PropOp28
 70
     1
102
RTVSPost2010Prop29
280
     1
102
RTVSPost2010PropOp29
 70
     1
102
RTVSPost2010Prop30
280
     1
102
RTVSPost2010PropOp30
 70
     1
102
RTVSPost2010Prop31
280
     0
102
RTVSPost2010PropOp31
 70
     1
102
RTVSPost2010Prop32
280
     0
102
RTVSPost2010PropOp32
 70
     1
102
RTVSPost2010Prop33
280
     0
102
RTVSPost2010PropOp33
 70
     1
102
RTVSPost2010Prop34
280
     0
102
RTVSPost2010PropOp34
 70
     1
102
RTVSPost2010Prop35
280
     0
102
RTVSPost2010PropOp35
 70
     1
102
RTVSPost2010Prop36
280
     0
102
RTVSPost2010PropOp36
 70
     1
102
RTVSPost2010Prop37
 90
       50
102
RTVSPost2010PropOp37
 70
     1
102
RTVSPost2010Prop38
140
0.0
102
RTVSPost2010PropOp38
 70
     1
102
RTVSPost2010Prop39
140
1.0
102
RTVSPost2010PropOp39
 70
     1
102
RTVSPost2010Prop40
 90
        0
102
RTVSPost2010PropOp40
 70
     1
102
RTVSPost2010Prop41ColorIndex
 90
       18
102
RTVSPost2010Prop41ColorRGB
 90
        0
102
RTVSPost2010PropOp41
 70
     1
102
RTVSPost2010Prop42
 90
       50
102
RTVSPost2010PropOp42
 70
     1
102
RTVSPost2010Prop43
 90
        3
102
RTVSPost2010PropOp43
 70
     1
102
RTVSPost2010Prop44ColorIndex
 90
        5
102
RTVSPost2010Prop44ColorRGB
 90
      255
102
RTVSPost2010PropOp44
 70
     1
102
RTVSPost2010Prop45
280
     0
102
RTVSPost2010PropOp45
 70
     1
102
RTVSPost2010Prop46
 90
       50
102
RTVSPost2010PropOp46
 70
     1
102
RTVSPost2010Prop47
 90
       50
102
RTVSPost2010PropOp47
 70
     1
102
RTVSPost2010Prop48
 90
       50
102
RTVSPost2010PropOp48
 70
     1
102
RTVSPost2010Prop49
280
     0
102
RTVSPost2010PropOp49
 70
     1
102
RTVSPost2010Prop50
 90
       50
102
RTVSPost2010PropOp50
 70
     1
102
RTVSPost2010Prop51ColorIndex
 90
      256
102
RTVSPost2010Prop51ColorRGB
 90
-16777216
102
RTVSPost2010PropOp51
 70
     0
102
RTVSPost2010Prop52
140
1.0
102
RTVSPost2010PropOp52
 70
     0
102
RTVSPost2010Prop53
 90
        2
102
RTVSPost2010PropOp53
 70
     1
102
RTVSPost2010Prop54
  1
strokes_ogs.tif
102
RTVSPost2010PropOp54
 70
     1
102
RTVSPost2010Prop55
280
     0
102
RTVSPost2010PropOp55
 70
     1
102
RTVSPost2010Prop56
140
1.0
102
RTVSPost2010PropOp56
 70
     1
102
RTVSPost2010Prop57
140
1.0
102
RTVSPost2010PropOp57
 70
     1
102
RTVSPropertyOp0
 70
     1
102
RTVSPropertyOp1
 70
     1
102
RTVSPropertyOp2
 70
     1
102
RTVSPropertyOp3
 70
     1
102
RTVSPropertyOp4
 70
     1
102
RTVSPropertyOp5
 70
     1
102
RTVSPropertyOp6
 70
     1
102
RTVSPropertyOp7
 70
     1
102
RTVSPropertyOp8
 70
     1
102
RTVSPropertyOp9
 70
     1
102
RTVSPropertyOp10
 70
     1
102
RTVSPropertyOp11
 70
     1
102
RTVSPropertyOp12
 70
     1
102
RTVSPropertyOp13
 70
     1
102
RTVSPropertyOp14
 70
     1
102
RTVSPropertyOp15
 70
     1
102
RTVSPropertyOp16
 70
     1
102
RTVSPropertyOp17
 70
     1
102
RTVSPropertyOp18
 70
     1
102
RTVSPropertyOp19
 70
     1
102
RTVSPropertyOp20
 70
     1
102
RTVSPropertyOp21
 70
     1
102
RTVSPropertyOp22
 70
     1
102
RTVSPropertyOp23
 70
     1
102
RTVSPropertyOp24
 70
     1
102
RTVSPropertyOp25
 70
     1
102
RTVSPropertyOp26
 70
     1
102
RTVSPropertyOp27
 70
     1
102
RTVSPropertyOp28
 70
     1
102
RTVSPropertyOp29
 70
     1
102
RTVSPropertyOp30
 70
     1
102
RTVSPropertyOp31
 70
     1
102
RTVSPropertyOp32
 70
     1
102
RTVSPropertyOp33
 70
     1
102
RTVSPropertyOp34
 70
     1
102
RTVSPropertyOp35
 70
     1
102
RTVSPropertyOp36
 70
     1
102
RTVSPropertyOp37
 70
     1
102
RTVSPropertyOp38
 70
     1
102
RTVSPropertyOp39
 70
     1
102
RTVSPropertyOp40
 70
     1
102
RTVSPropertyOp41
 70
     1
102
RTVSPropertyOp42
 70
     1
102
RTVSPropertyOp43
 70
     1
102
RTVSPropertyOp44
 70
     1
102
RTVSPropertyOp45
 70
     1
102
RTVSPropertyOp46
 70
     1
102
RTVSPropertyOp47
 70
     1
102
RTVSPropertyOp48
 70
     1
102
RTVSPropertyOp49
 70
     1
102
RTVSPropertyOp50
 70
     1
102
RTVSPropertyOp51
 70
     0
102
RTVSPropertyOp52
 70
     0
102
RTVSPropertyOp53
 70
     1
102
RTVSPropertyOp54
 70
     1
102
RTVSPropertyOp55
 70
     1
102
RTVSPropertyOp56
 70
     1
102
RTVSPropertyOp57
 70
     1
102
RTVSPropertyOp58
 70
     1
102
RTVSPropertyOp59
 70
     1
102
RTVSPropertyOp60
 70
     1
102
RTVSPropertyOp61
 70
     1
102
RTVSPropertyOp62
 70
     1
  0
XRECORD
  5
5288
102
{ACAD_REACTORS
330
5287
102
}
330
5287
100
AcDbXrecord
280
     1
102
RTVSPost2010Prop28
280
     0
102
RTVSPost2010PropOp28
 70
     1
102
RTVSPost2010Prop29
280
     1
102
RTVSPost2010PropOp29
 70
     1
102
RTVSPost2010Prop30
280
     1
102
RTVSPost2010PropOp30
 70
     1
102
RTVSPost2010Prop31
280
     0
102
RTVSPost2010PropOp31
 70
     1
102
RTVSPost2010Prop32
280
     0
102
RTVSPost2010PropOp32
 70
     1
102
RTVSPost2010Prop33
280
     0
102
RTVSPost2010PropOp33
 70
     1
102
RTVSPost2010Prop34
280
     0
102
RTVSPost2010PropOp34
 70
     1
102
RTVSPost2010Prop35
280
     0
102
RTVSPost2010PropOp35
 70
     1
102
RTVSPost2010Prop36
280
     0
102
RTVSPost2010PropOp36
 70
     1
102
RTVSPost2010Prop37
 90
       50
102
RTVSPost2010PropOp37
 70
     1
102
RTVSPost2010Prop38
140
0.0
102
RTVSPost2010PropOp38
 70
     1
102
RTVSPost2010Prop39
140
1.0
102
RTVSPost2010PropOp39
 70
     1
102
RTVSPost2010Prop40
 90
        0
102
RTVSPost2010PropOp40
 70
     1
102
RTVSPost2010Prop41ColorIndex
 90
       18
102
RTVSPost2010Prop41ColorRGB
 90
        0
102
RTVSPost2010PropOp41
 70
     1
102
RTVSPost2010Prop42
 90
       50
102
RTVSPost2010PropOp42
 70
     1
102
RTVSPost2010Prop43
 90
        3
102
RTVSPost2010PropOp43
 70
     1
102
RTVSPost2010Prop44ColorIndex
 90
        5
102
RTVSPost2010Prop44ColorRGB
 90
      255
102
RTVSPost2010PropOp44
 70
     1
102
RTVSPost2010Prop45
280
     0
102
RTVSPost2010PropOp45
 70
     1
102
RTVSPost2010Prop46
 90
       50
102
RTVSPost2010PropOp46
 70
     1
102
RTVSPost2010Prop47
 90
       50
102
RTVSPost2010PropOp47
 70
     1
102
RTVSPost2010Prop48
 90
       50
102
RTVSPost2010PropOp48
 70
     1
102
RTVSPost2010Prop49
280
     0
102
RTVSPost2010PropOp49
 70
     1
102
RTVSPost2010Prop50
 90
       50
102
RTVSPost2010PropOp50
 70
     1
102
RTVSPost2010Prop51ColorIndex
 90
      256
102
RTVSPost2010Prop51ColorRGB
 90
-16777216
102
RTVSPost2010PropOp51
 70
     0
102
RTVSPost2010Prop52
140
1.0
102
RTVSPost2010PropOp52
 70
     0
102
RTVSPost2010Prop53
 90
        2
102
RTVSPost2010PropOp53
 70
     1
102
RTVSPost2010Prop54
  1
strokes_ogs.tif
102
RTVSPost2010PropOp54
 70
     1
102
RTVSPost2010Prop55
280
     0
102
RTVSPost2010PropOp55
 70
     1
102
RTVSPost2010Prop56
140
1.0
102
RTVSPost2010PropOp56
 70
     1
102
RTVSPost2010Prop57
140
1.0
102
RTVSPost2010PropOp57
 70
     1
102
RTVSPropertyOp0
 70
     1
102
RTVSPropertyOp1
 70
     1
102
RTVSPropertyOp2
 70
     1
102
RTVSPropertyOp3
 70
     1
102
RTVSPropertyOp4
 70
     1
102
RTVSPropertyOp5
 70
     1
102
RTVSPropertyOp6
 70
     1
102
RTVSPropertyOp7
 70
     1
102
RTVSPropertyOp8
 70
     1
102
RTVSPropertyOp9
 70
     1
102
RTVSPropertyOp10
 70
     1
102
RTVSPropertyOp11
 70
     1
102
RTVSPropertyOp12
 70
     1
102
RTVSPropertyOp13
 70
     1
102
RTVSPropertyOp14
 70
     1
102
RTVSPropertyOp15
 70
     1
102
RTVSPropertyOp16
 70
     1
102
RTVSPropertyOp17
 70
     1
102
RTVSPropertyOp18
 70
     1
102
RTVSPropertyOp19
 70
     1
102
RTVSPropertyOp20
 70
     1
102
RTVSPropertyOp21
 70
     1
102
RTVSPropertyOp22
 70
     1
102
RTVSPropertyOp23
 70
     1
102
RTVSPropertyOp24
 70
     1
102
RTVSPropertyOp25
 70
     1
102
RTVSPropertyOp26
 70
     1
102
RTVSPropertyOp27
 70
     1
102
RTVSPropertyOp28
 70
     1
102
RTVSPropertyOp29
 70
     1
102
RTVSPropertyOp30
 70
     1
102
RTVSPropertyOp31
 70
     1
102
RTVSPropertyOp32
 70
     1
102
RTVSPropertyOp33
 70
     1
102
RTVSPropertyOp34
 70
     1
102
RTVSPropertyOp35
 70
     1
102
RTVSPropertyOp36
 70
     1
102
RTVSPropertyOp37
 70
     1
102
RTVSPropertyOp38
 70
     1
102
RTVSPropertyOp39
 70
     1
102
RTVSPropertyOp40
 70
     1
102
RTVSPropertyOp41
 70
     1
102
RTVSPropertyOp42
 70
     1
102
RTVSPropertyOp43
 70
     1
102
RTVSPropertyOp44
 70
     1
102
RTVSPropertyOp45
 70
     1
102
RTVSPropertyOp46
 70
     1
102
RTVSPropertyOp47
 70
     1
102
RTVSPropertyOp48
 70
     1
102
RTVSPropertyOp49
 70
     1
102
RTVSPropertyOp50
 70
     1
102
RTVSPropertyOp51
 70
     0
102
RTVSPropertyOp52
 70
     0
102
RTVSPropertyOp53
 70
     1
102
RTVSPropertyOp54
 70
     1
102
RTVSPropertyOp55
 70
     1
102
RTVSPropertyOp56
 70
     1
102
RTVSPropertyOp57
 70
     1
102
RTVSPropertyOp58
 70
     1
102
RTVSPropertyOp59
 70
     1
102
RTVSPropertyOp60
 70
     1
102
RTVSPropertyOp61
 70
     1
102
RTVSPropertyOp62
 70
     1
  0
XRECORD
  5
5286
102
{ACAD_REACTORS
330
5285
102
}
330
5285
100
AcDbXrecord
280
     1
102
RTVSPost2010Prop28
280
     0
102
RTVSPost2010PropOp28
 70
     1
102
RTVSPost2010Prop29
280
     1
102
RTVSPost2010PropOp29
 70
     1
102
RTVSPost2010Prop30
280
     1
102
RTVSPost2010PropOp30
 70
     1
102
RTVSPost2010Prop31
280
     0
102
RTVSPost2010PropOp31
 70
     1
102
RTVSPost2010Prop32
280
     0
102
RTVSPost2010PropOp32
 70
     1
102
RTVSPost2010Prop33
280
     0
102
RTVSPost2010PropOp33
 70
     1
102
RTVSPost2010Prop34
280
     0
102
RTVSPost2010PropOp34
 70
     1
102
RTVSPost2010Prop35
280
     0
102
RTVSPost2010PropOp35
 70
     1
102
RTVSPost2010Prop36
280
     0
102
RTVSPost2010PropOp36
 70
     1
102
RTVSPost2010Prop37
 90
       50
102
RTVSPost2010PropOp37
 70
     1
102
RTVSPost2010Prop38
140
0.0
102
RTVSPost2010PropOp38
 70
     1
102
RTVSPost2010Prop39
140
1.0
102
RTVSPost2010PropOp39
 70
     1
102
RTVSPost2010Prop40
 90
        0
102
RTVSPost2010PropOp40
 70
     1
102
RTVSPost2010Prop41ColorIndex
 90
       18
102
RTVSPost2010Prop41ColorRGB
 90
        0
102
RTVSPost2010PropOp41
 70
     1
102
RTVSPost2010Prop42
 90
       50
102
RTVSPost2010PropOp42
 70
     1
102
RTVSPost2010Prop43
 90
        3
102
RTVSPost2010PropOp43
 70
     1
102
RTVSPost2010Prop44ColorIndex
 90
        5
102
RTVSPost2010Prop44ColorRGB
 90
      255
102
RTVSPost2010PropOp44
 70
     1
102
RTVSPost2010Prop45
280
     0
102
RTVSPost2010PropOp45
 70
     1
102
RTVSPost2010Prop46
 90
       50
102
RTVSPost2010PropOp46
 70
     1
102
RTVSPost2010Prop47
 90
       50
102
RTVSPost2010PropOp47
 70
     1
102
RTVSPost2010Prop48
 90
       50
102
RTVSPost2010PropOp48
 70
     1
102
RTVSPost2010Prop49
280
     0
102
RTVSPost2010PropOp49
 70
     1
102
RTVSPost2010Prop50
 90
       50
102
RTVSPost2010PropOp50
 70
     1
102
RTVSPost2010Prop51ColorIndex
 90
      256
102
RTVSPost2010Prop51ColorRGB
 90
-16777216
102
RTVSPost2010PropOp51
 70
     0
102
RTVSPost2010Prop52
140
1.0
102
RTVSPost2010PropOp52
 70
     0
102
RTVSPost2010Prop53
 90
        2
102
RTVSPost2010PropOp53
 70
     1
102
RTVSPost2010Prop54
  1
strokes_ogs.tif
102
RTVSPost2010PropOp54
 70
     1
102
RTVSPost2010Prop55
280
     0
102
RTVSPost2010PropOp55
 70
     1
102
RTVSPost2010Prop56
140
1.0
102
RTVSPost2010PropOp56
 70
     1
102
RTVSPost2010Prop57
140
1.0
102
RTVSPost2010PropOp57
 70
     1
102
RTVSPropertyOp0
 70
     1
102
RTVSPropertyOp1
 70
     1
102
RTVSPropertyOp2
 70
     1
102
RTVSPropertyOp3
 70
     1
102
RTVSPropertyOp4
 70
     1
102
RTVSPropertyOp5
 70
     1
102
RTVSPropertyOp6
 70
     1
102
RTVSPropertyOp7
 70
     1
102
RTVSPropertyOp8
 70
     1
102
RTVSPropertyOp9
 70
     1
102
RTVSPropertyOp10
 70
     1
102
RTVSPropertyOp11
 70
     1
102
RTVSPropertyOp12
 70
     1
102
RTVSPropertyOp13
 70
     1
102
RTVSPropertyOp14
 70
     1
102
RTVSPropertyOp15
 70
     1
102
RTVSPropertyOp16
 70
     1
102
RTVSPropertyOp17
 70
     1
102
RTVSPropertyOp18
 70
     1
102
RTVSPropertyOp19
 70
     1
102
RTVSPropertyOp20
 70
     1
102
RTVSPropertyOp21
 70
     1
102
RTVSPropertyOp22
 70
     1
102
RTVSPropertyOp23
 70
     1
102
RTVSPropertyOp24
 70
     1
102
RTVSPropertyOp25
 70
     1
102
RTVSPropertyOp26
 70
     1
102
RTVSPropertyOp27
 70
     1
102
RTVSPropertyOp28
 70
     1
102
RTVSPropertyOp29
 70
     1
102
RTVSPropertyOp30
 70
     1
102
RTVSPropertyOp31
 70
     1
102
RTVSPropertyOp32
 70
     1
102
RTVSPropertyOp33
 70
     1
102
RTVSPropertyOp34
 70
     1
102
RTVSPropertyOp35
 70
     1
102
RTVSPropertyOp36
 70
     1
102
RTVSPropertyOp37
 70
     1
102
RTVSPropertyOp38
 70
     1
102
RTVSPropertyOp39
 70
     1
102
RTVSPropertyOp40
 70
     1
102
RTVSPropertyOp41
 70
     1
102
RTVSPropertyOp42
 70
     1
102
RTVSPropertyOp43
 70
     1
102
RTVSPropertyOp44
 70
     1
102
RTVSPropertyOp45
 70
     1
102
RTVSPropertyOp46
 70
     1
102
RTVSPropertyOp47
 70
     1
102
RTVSPropertyOp48
 70
     1
102
RTVSPropertyOp49
 70
     1
102
RTVSPropertyOp50
 70
     1
102
RTVSPropertyOp51
 70
     0
102
RTVSPropertyOp52
 70
     0
102
RTVSPropertyOp53
 70
     1
102
RTVSPropertyOp54
 70
     1
102
RTVSPropertyOp55
 70
     1
102
RTVSPropertyOp56
 70
     1
102
RTVSPropertyOp57
 70
     1
102
RTVSPropertyOp58
 70
     1
102
RTVSPropertyOp59
 70
     1
102
RTVSPropertyOp60
 70
     1
102
RTVSPropertyOp61
 70
     1
102
RTVSPropertyOp62
 70
     1
  0
XRECORD
  5
5280
102
{ACAD_REACTORS
330
527F
102
}
330
527F
100
AcDbXrecord
280
     1
102
RTVSPost2010Prop28
280
     0
102
RTVSPost2010PropOp28
 70
     1
102
RTVSPost2010Prop29
280
     1
102
RTVSPost2010PropOp29
 70
     1
102
RTVSPost2010Prop30
280
     1
102
RTVSPost2010PropOp30
 70
     1
102
RTVSPost2010Prop31
280
     0
102
RTVSPost2010PropOp31
 70
     1
102
RTVSPost2010Prop32
280
     0
102
RTVSPost2010PropOp32
 70
     1
102
RTVSPost2010Prop33
280
     0
102
RTVSPost2010PropOp33
 70
     1
102
RTVSPost2010Prop34
280
     0
102
RTVSPost2010PropOp34
 70
     1
102
RTVSPost2010Prop35
280
     0
102
RTVSPost2010PropOp35
 70
     1
102
RTVSPost2010Prop36
280
     0
102
RTVSPost2010PropOp36
 70
     1
102
RTVSPost2010Prop37
 90
       50
102
RTVSPost2010PropOp37
 70
     1
102
RTVSPost2010Prop38
140
0.0
102
RTVSPost2010PropOp38
 70
     1
102
RTVSPost2010Prop39
140
1.0
102
RTVSPost2010PropOp39
 70
     1
102
RTVSPost2010Prop40
 90
        0
102
RTVSPost2010PropOp40
 70
     1
102
RTVSPost2010Prop41ColorIndex
 90
       18
102
RTVSPost2010Prop41ColorRGB
 90
        0
102
RTVSPost2010PropOp41
 70
     1
102
RTVSPost2010Prop42
 90
       50
102
RTVSPost2010PropOp42
 70
     1
102
RTVSPost2010Prop43
 90
        3
102
RTVSPost2010PropOp43
 70
     1
102
RTVSPost2010Prop44ColorIndex
 90
        5
102
RTVSPost2010Prop44ColorRGB
 90
      255
102
RTVSPost2010PropOp44
 70
     1
102
RTVSPost2010Prop45
280
     0
102
RTVSPost2010PropOp45
 70
     1
102
RTVSPost2010Prop46
 90
       50
102
RTVSPost2010PropOp46
 70
     1
102
RTVSPost2010Prop47
 90
       50
102
RTVSPost2010PropOp47
 70
     1
102
RTVSPost2010Prop48
 90
       50
102
RTVSPost2010PropOp48
 70
     1
102
RTVSPost2010Prop49
280
     0
102
RTVSPost2010PropOp49
 70
     1
102
RTVSPost2010Prop50
 90
       50
102
RTVSPost2010PropOp50
 70
     1
102
RTVSPost2010Prop51ColorIndex
 90
      256
102
RTVSPost2010Prop51ColorRGB
 90
-16777216
102
RTVSPost2010PropOp51
 70
     0
102
RTVSPost2010Prop52
140
1.0
102
RTVSPost2010PropOp52
 70
     0
102
RTVSPost2010Prop53
 90
        2
102
RTVSPost2010PropOp53
 70
     1
102
RTVSPost2010Prop54
  1
strokes_ogs.tif
102
RTVSPost2010PropOp54
 70
     1
102
RTVSPost2010Prop55
280
     0
102
RTVSPost2010PropOp55
 70
     1
102
RTVSPost2010Prop56
140
1.0
102
RTVSPost2010PropOp56
 70
     1
102
RTVSPost2010Prop57
140
1.0
102
RTVSPost2010PropOp57
 70
     1
102
RTVSPropertyOp0
 70
     1
102
RTVSPropertyOp1
 70
     1
102
RTVSPropertyOp2
 70
     1
102
RTVSPropertyOp3
 70
     1
102
RTVSPropertyOp4
 70
     1
102
RTVSPropertyOp5
 70
     1
102
RTVSPropertyOp6
 70
     1
102
RTVSPropertyOp7
 70
     1
102
RTVSPropertyOp8
 70
     1
102
RTVSPropertyOp9
 70
     1
102
RTVSPropertyOp10
 70
     1
102
RTVSPropertyOp11
 70
     1
102
RTVSPropertyOp12
 70
     1
102
RTVSPropertyOp13
 70
     1
102
RTVSPropertyOp14
 70
     1
102
RTVSPropertyOp15
 70
     1
102
RTVSPropertyOp16
 70
     1
102
RTVSPropertyOp17
 70
     1
102
RTVSPropertyOp18
 70
     1
102
RTVSPropertyOp19
 70
     1
102
RTVSPropertyOp20
 70
     1
102
RTVSPropertyOp21
 70
     1
102
RTVSPropertyOp22
 70
     1
102
RTVSPropertyOp23
 70
     1
102
RTVSPropertyOp24
 70
     1
102
RTVSPropertyOp25
 70
     1
102
RTVSPropertyOp26
 70
     1
102
RTVSPropertyOp27
 70
     1
102
RTVSPropertyOp28
 70
     1
102
RTVSPropertyOp29
 70
     1
102
RTVSPropertyOp30
 70
     1
102
RTVSPropertyOp31
 70
     1
102
RTVSPropertyOp32
 70
     1
102
RTVSPropertyOp33
 70
     1
102
RTVSPropertyOp34
 70
     1
102
RTVSPropertyOp35
 70
     1
102
RTVSPropertyOp36
 70
     1
102
RTVSPropertyOp37
 70
     1
102
RTVSPropertyOp38
 70
     1
102
RTVSPropertyOp39
 70
     1
102
RTVSPropertyOp40
 70
     1
102
RTVSPropertyOp41
 70
     1
102
RTVSPropertyOp42
 70
     1
102
RTVSPropertyOp43
 70
     1
102
RTVSPropertyOp44
 70
     1
102
RTVSPropertyOp45
 70
     1
102
RTVSPropertyOp46
 70
     1
102
RTVSPropertyOp47
 70
     1
102
RTVSPropertyOp48
 70
     1
102
RTVSPropertyOp49
 70
     1
102
RTVSPropertyOp50
 70
     1
102
RTVSPropertyOp51
 70
     0
102
RTVSPropertyOp52
 70
     0
102
RTVSPropertyOp53
 70
     1
102
RTVSPropertyOp54
 70
     1
102
RTVSPropertyOp55
 70
     1
102
RTVSPropertyOp56
 70
     1
102
RTVSPropertyOp57
 70
     1
102
RTVSPropertyOp58
 70
     1
102
RTVSPropertyOp59
 70
     1
102
RTVSPropertyOp60
 70
     1
102
RTVSPropertyOp61
 70
     1
102
RTVSPropertyOp62
 70
     1
  0
XRECORD
  5
5282
102
{ACAD_REACTORS
330
5281
102
}
330
5281
100
AcDbXrecord
280
     1
102
RTVSPost2010Prop28
280
     0
102
RTVSPost2010PropOp28
 70
     1
102
RTVSPost2010Prop29
280
     1
102
RTVSPost2010PropOp29
 70
     1
102
RTVSPost2010Prop30
280
     1
102
RTVSPost2010PropOp30
 70
     1
102
RTVSPost2010Prop31
280
     0
102
RTVSPost2010PropOp31
 70
     1
102
RTVSPost2010Prop32
280
     0
102
RTVSPost2010PropOp32
 70
     1
102
RTVSPost2010Prop33
280
     0
102
RTVSPost2010PropOp33
 70
     1
102
RTVSPost2010Prop34
280
     0
102
RTVSPost2010PropOp34
 70
     1
102
RTVSPost2010Prop35
280
     0
102
RTVSPost2010PropOp35
 70
     1
102
RTVSPost2010Prop36
280
     0
102
RTVSPost2010PropOp36
 70
     1
102
RTVSPost2010Prop37
 90
       50
102
RTVSPost2010PropOp37
 70
     1
102
RTVSPost2010Prop38
140
0.0
102
RTVSPost2010PropOp38
 70
     1
102
RTVSPost2010Prop39
140
1.0
102
RTVSPost2010PropOp39
 70
     1
102
RTVSPost2010Prop40
 90
        0
102
RTVSPost2010PropOp40
 70
     1
102
RTVSPost2010Prop41ColorIndex
 90
       18
102
RTVSPost2010Prop41ColorRGB
 90
        0
102
RTVSPost2010PropOp41
 70
     1
102
RTVSPost2010Prop42
 90
       50
102
RTVSPost2010PropOp42
 70
     1
102
RTVSPost2010Prop43
 90
        3
102
RTVSPost2010PropOp43
 70
     1
102
RTVSPost2010Prop44ColorIndex
 90
        5
102
RTVSPost2010Prop44ColorRGB
 90
      255
102
RTVSPost2010PropOp44
 70
     1
102
RTVSPost2010Prop45
280
     0
102
RTVSPost2010PropOp45
 70
     1
102
RTVSPost2010Prop46
 90
       50
102
RTVSPost2010PropOp46
 70
     1
102
RTVSPost2010Prop47
 90
       50
102
RTVSPost2010PropOp47
 70
     1
102
RTVSPost2010Prop48
 90
       50
102
RTVSPost2010PropOp48
 70
     1
102
RTVSPost2010Prop49
280
     0
102
RTVSPost2010PropOp49
 70
     1
102
RTVSPost2010Prop50
 90
       50
102
RTVSPost2010PropOp50
 70
     1
102
RTVSPost2010Prop51ColorIndex
 90
      256
102
RTVSPost2010Prop51ColorRGB
 90
-16777216
102
RTVSPost2010PropOp51
 70
     0
102
RTVSPost2010Prop52
140
1.0
102
RTVSPost2010PropOp52
 70
     0
102
RTVSPost2010Prop53
 90
        2
102
RTVSPost2010PropOp53
 70
     1
102
RTVSPost2010Prop54
  1
strokes_ogs.tif
102
RTVSPost2010PropOp54
 70
     1
102
RTVSPost2010Prop55
280
     0
102
RTVSPost2010PropOp55
 70
     1
102
RTVSPost2010Prop56
140
1.0
102
RTVSPost2010PropOp56
 70
     1
102
RTVSPost2010Prop57
140
1.0
102
RTVSPost2010PropOp57
 70
     1
102
RTVSPropertyOp0
 70
     1
102
RTVSPropertyOp1
 70
     1
102
RTVSPropertyOp2
 70
     1
102
RTVSPropertyOp3
 70
     1
102
RTVSPropertyOp4
 70
     1
102
RTVSPropertyOp5
 70
     1
102
RTVSPropertyOp6
 70
     1
102
RTVSPropertyOp7
 70
     1
102
RTVSPropertyOp8
 70
     1
102
RTVSPropertyOp9
 70
     1
102
RTVSPropertyOp10
 70
     1
102
RTVSPropertyOp11
 70
     1
102
RTVSPropertyOp12
 70
     1
102
RTVSPropertyOp13
 70
     1
102
RTVSPropertyOp14
 70
     1
102
RTVSPropertyOp15
 70
     1
102
RTVSPropertyOp16
 70
     1
102
RTVSPropertyOp17
 70
     1
102
RTVSPropertyOp18
 70
     1
102
RTVSPropertyOp19
 70
     1
102
RTVSPropertyOp20
 70
     1
102
RTVSPropertyOp21
 70
     1
102
RTVSPropertyOp22
 70
     1
102
RTVSPropertyOp23
 70
     1
102
RTVSPropertyOp24
 70
     1
102
RTVSPropertyOp25
 70
     1
102
RTVSPropertyOp26
 70
     1
102
RTVSPropertyOp27
 70
     1
102
RTVSPropertyOp28
 70
     1
102
RTVSPropertyOp29
 70
     1
102
RTVSPropertyOp30
 70
     1
102
RTVSPropertyOp31
 70
     1
102
RTVSPropertyOp32
 70
     1
102
RTVSPropertyOp33
 70
     1
102
RTVSPropertyOp34
 70
     1
102
RTVSPropertyOp35
 70
     1
102
RTVSPropertyOp36
 70
     1
102
RTVSPropertyOp37
 70
     1
102
RTVSPropertyOp38
 70
     1
102
RTVSPropertyOp39
 70
     1
102
RTVSPropertyOp40
 70
     1
102
RTVSPropertyOp41
 70
     1
102
RTVSPropertyOp42
 70
     1
102
RTVSPropertyOp43
 70
     1
102
RTVSPropertyOp44
 70
     1
102
RTVSPropertyOp45
 70
     1
102
RTVSPropertyOp46
 70
     1
102
RTVSPropertyOp47
 70
     1
102
RTVSPropertyOp48
 70
     1
102
RTVSPropertyOp49
 70
     1
102
RTVSPropertyOp50
 70
     1
102
RTVSPropertyOp51
 70
     0
102
RTVSPropertyOp52
 70
     0
102
RTVSPropertyOp53
 70
     1
102
RTVSPropertyOp54
 70
     1
102
RTVSPropertyOp55
 70
     1
102
RTVSPropertyOp56
 70
     1
102
RTVSPropertyOp57
 70
     1
102
RTVSPropertyOp58
 70
     1
102
RTVSPropertyOp59
 70
     1
102
RTVSPropertyOp60
 70
     1
102
RTVSPropertyOp61
 70
     1
102
RTVSPropertyOp62
 70
     1
  0
XRECORD
  5
5264
102
{ACAD_REACTORS
330
5263
102
}
330
5263
100
AcDbXrecord
280
     1
102
RTVSPost2010Prop28
280
     0
102
RTVSPost2010PropOp28
 70
     1
102
RTVSPost2010Prop29
280
     1
102
RTVSPost2010PropOp29
 70
     1
102
RTVSPost2010Prop30
280
     1
102
RTVSPost2010PropOp30
 70
     1
102
RTVSPost2010Prop31
280
     0
102
RTVSPost2010PropOp31
 70
     1
102
RTVSPost2010Prop32
280
     0
102
RTVSPost2010PropOp32
 70
     1
102
RTVSPost2010Prop33
280
     0
102
RTVSPost2010PropOp33
 70
     1
102
RTVSPost2010Prop34
280
     0
102
RTVSPost2010PropOp34
 70
     1
102
RTVSPost2010Prop35
280
     0
102
RTVSPost2010PropOp35
 70
     1
102
RTVSPost2010Prop36
280
     0
102
RTVSPost2010PropOp36
 70
     1
102
RTVSPost2010Prop37
 90
       50
102
RTVSPost2010PropOp37
 70
     1
102
RTVSPost2010Prop38
140
0.0
102
RTVSPost2010PropOp38
 70
     1
102
RTVSPost2010Prop39
140
1.0
102
RTVSPost2010PropOp39
 70
     1
102
RTVSPost2010Prop40
 90
        0
102
RTVSPost2010PropOp40
 70
     1
102
RTVSPost2010Prop41ColorIndex
 90
       18
102
RTVSPost2010Prop41ColorRGB
 90
        0
102
RTVSPost2010PropOp41
 70
     1
102
RTVSPost2010Prop42
 90
       50
102
RTVSPost2010PropOp42
 70
     1
102
RTVSPost2010Prop43
 90
        3
102
RTVSPost2010PropOp43
 70
     1
102
RTVSPost2010Prop44ColorIndex
 90
        5
102
RTVSPost2010Prop44ColorRGB
 90
      255
102
RTVSPost2010PropOp44
 70
     1
102
RTVSPost2010Prop45
280
     0
102
RTVSPost2010PropOp45
 70
     1
102
RTVSPost2010Prop46
 90
       50
102
RTVSPost2010PropOp46
 70
     1
102
RTVSPost2010Prop47
 90
       50
102
RTVSPost2010PropOp47
 70
     1
102
RTVSPost2010Prop48
 90
       50
102
RTVSPost2010PropOp48
 70
     1
102
RTVSPost2010Prop49
280
     0
102
RTVSPost2010PropOp49
 70
     1
102
RTVSPost2010Prop50
 90
       50
102
RTVSPost2010PropOp50
 70
     1
102
RTVSPost2010Prop51ColorIndex
 90
      256
102
RTVSPost2010Prop51ColorRGB
 90
-16777216
102
RTVSPost2010PropOp51
 70
     0
102
RTVSPost2010Prop52
140
1.0
102
RTVSPost2010PropOp52
 70
     0
102
RTVSPost2010Prop53
 90
        2
102
RTVSPost2010PropOp53
 70
     1
102
RTVSPost2010Prop54
  1
strokes_ogs.tif
102
RTVSPost2010PropOp54
 70
     1
102
RTVSPost2010Prop55
280
     0
102
RTVSPost2010PropOp55
 70
     1
102
RTVSPost2010Prop56
140
1.0
102
RTVSPost2010PropOp56
 70
     1
102
RTVSPost2010Prop57
140
1.0
102
RTVSPost2010PropOp57
 70
     1
102
RTVSPropertyOp0
 70
     1
102
RTVSPropertyOp1
 70
     1
102
RTVSPropertyOp2
 70
     1
102
RTVSPropertyOp3
 70
     1
102
RTVSPropertyOp4
 70
     1
102
RTVSPropertyOp5
 70
     1
102
RTVSPropertyOp6
 70
     1
102
RTVSPropertyOp7
 70
     1
102
RTVSPropertyOp8
 70
     1
102
RTVSPropertyOp9
 70
     1
102
RTVSPropertyOp10
 70
     1
102
RTVSPropertyOp11
 70
     1
102
RTVSPropertyOp12
 70
     1
102
RTVSPropertyOp13
 70
     1
102
RTVSPropertyOp14
 70
     1
102
RTVSPropertyOp15
 70
     1
102
RTVSPropertyOp16
 70
     1
102
RTVSPropertyOp17
 70
     1
102
RTVSPropertyOp18
 70
     1
102
RTVSPropertyOp19
 70
     1
102
RTVSPropertyOp20
 70
     1
102
RTVSPropertyOp21
 70
     1
102
RTVSPropertyOp22
 70
     1
102
RTVSPropertyOp23
 70
     1
102
RTVSPropertyOp24
 70
     1
102
RTVSPropertyOp25
 70
     1
102
RTVSPropertyOp26
 70
     1
102
RTVSPropertyOp27
 70
     1
102
RTVSPropertyOp28
 70
     1
102
RTVSPropertyOp29
 70
     1
102
RTVSPropertyOp30
 70
     1
102
RTVSPropertyOp31
 70
     1
102
RTVSPropertyOp32
 70
     1
102
RTVSPropertyOp33
 70
     1
102
RTVSPropertyOp34
 70
     1
102
RTVSPropertyOp35
 70
     1
102
RTVSPropertyOp36
 70
     1
102
RTVSPropertyOp37
 70
     1
102
RTVSPropertyOp38
 70
     1
102
RTVSPropertyOp39
 70
     1
102
RTVSPropertyOp40
 70
     1
102
RTVSPropertyOp41
 70
     1
102
RTVSPropertyOp42
 70
     1
102
RTVSPropertyOp43
 70
     1
102
RTVSPropertyOp44
 70
     1
102
RTVSPropertyOp45
 70
     1
102
RTVSPropertyOp46
 70
     1
102
RTVSPropertyOp47
 70
     1
102
RTVSPropertyOp48
 70
     1
102
RTVSPropertyOp49
 70
     1
102
RTVSPropertyOp50
 70
     1
102
RTVSPropertyOp51
 70
     0
102
RTVSPropertyOp52
 70
     0
102
RTVSPropertyOp53
 70
     1
102
RTVSPropertyOp54
 70
     1
102
RTVSPropertyOp55
 70
     1
102
RTVSPropertyOp56
 70
     1
102
RTVSPropertyOp57
 70
     1
102
RTVSPropertyOp58
 70
     1
102
RTVSPropertyOp59
 70
     1
102
RTVSPropertyOp60
 70
     1
102
RTVSPropertyOp61
 70
     1
102
RTVSPropertyOp62
 70
     1
  0
XRECORD
  5
527C
102
{ACAD_REACTORS
330
527B
102
}
330
527B
100
AcDbXrecord
280
     1
102
RTVSPost2010Prop28
280
     0
102
RTVSPost2010PropOp28
 70
     1
102
RTVSPost2010Prop29
280
     1
102
RTVSPost2010PropOp29
 70
     1
102
RTVSPost2010Prop30
280
     1
102
RTVSPost2010PropOp30
 70
     1
102
RTVSPost2010Prop31
280
     0
102
RTVSPost2010PropOp31
 70
     1
102
RTVSPost2010Prop32
280
     0
102
RTVSPost2010PropOp32
 70
     1
102
RTVSPost2010Prop33
280
     0
102
RTVSPost2010PropOp33
 70
     1
102
RTVSPost2010Prop34
280
     0
102
RTVSPost2010PropOp34
 70
     1
102
RTVSPost2010Prop35
280
     0
102
RTVSPost2010PropOp35
 70
     1
102
RTVSPost2010Prop36
280
     0
102
RTVSPost2010PropOp36
 70
     1
102
RTVSPost2010Prop37
 90
       50
102
RTVSPost2010PropOp37
 70
     1
102
RTVSPost2010Prop38
140
0.0
102
RTVSPost2010PropOp38
 70
     1
102
RTVSPost2010Prop39
140
1.0
102
RTVSPost2010PropOp39
 70
     1
102
RTVSPost2010Prop40
 90
        0
102
RTVSPost2010PropOp40
 70
     1
102
RTVSPost2010Prop41ColorIndex
 90
       18
102
RTVSPost2010Prop41ColorRGB
 90
        0
102
RTVSPost2010PropOp41
 70
     1
102
RTVSPost2010Prop42
 90
       50
102
RTVSPost2010PropOp42
 70
     1
102
RTVSPost2010Prop43
 90
        3
102
RTVSPost2010PropOp43
 70
     1
102
RTVSPost2010Prop44ColorIndex
 90
        5
102
RTVSPost2010Prop44ColorRGB
 90
      255
102
RTVSPost2010PropOp44
 70
     1
102
RTVSPost2010Prop45
280
     0
102
RTVSPost2010PropOp45
 70
     1
102
RTVSPost2010Prop46
 90
       50
102
RTVSPost2010PropOp46
 70
     1
102
RTVSPost2010Prop47
 90
       50
102
RTVSPost2010PropOp47
 70
     1
102
RTVSPost2010Prop48
 90
       50
102
RTVSPost2010PropOp48
 70
     1
102
RTVSPost2010Prop49
280
     0
102
RTVSPost2010PropOp49
 70
     1
102
RTVSPost2010Prop50
 90
       50
102
RTVSPost2010PropOp50
 70
     1
102
RTVSPost2010Prop51ColorIndex
 90
      256
102
RTVSPost2010Prop51ColorRGB
 90
-16777216
102
RTVSPost2010PropOp51
 70
     0
102
RTVSPost2010Prop52
140
1.0
102
RTVSPost2010PropOp52
 70
     0
102
RTVSPost2010Prop53
 90
        2
102
RTVSPost2010PropOp53
 70
     1
102
RTVSPost2010Prop54
  1
strokes_ogs.tif
102
RTVSPost2010PropOp54
 70
     1
102
RTVSPost2010Prop55
280
     0
102
RTVSPost2010PropOp55
 70
     1
102
RTVSPost2010Prop56
140
1.0
102
RTVSPost2010PropOp56
 70
     1
102
RTVSPost2010Prop57
140
1.0
102
RTVSPost2010PropOp57
 70
     1
102
RTVSPropertyOp0
 70
     1
102
RTVSPropertyOp1
 70
     1
102
RTVSPropertyOp2
 70
     1
102
RTVSPropertyOp3
 70
     1
102
RTVSPropertyOp4
 70
     1
102
RTVSPropertyOp5
 70
     1
102
RTVSPropertyOp6
 70
     1
102
RTVSPropertyOp7
 70
     1
102
RTVSPropertyOp8
 70
     1
102
RTVSPropertyOp9
 70
     1
102
RTVSPropertyOp10
 70
     1
102
RTVSPropertyOp11
 70
     1
102
RTVSPropertyOp12
 70
     1
102
RTVSPropertyOp13
 70
     1
102
RTVSPropertyOp14
 70
     1
102
RTVSPropertyOp15
 70
     1
102
RTVSPropertyOp16
 70
     1
102
RTVSPropertyOp17
 70
     1
102
RTVSPropertyOp18
 70
     1
102
RTVSPropertyOp19
 70
     1
102
RTVSPropertyOp20
 70
     1
102
RTVSPropertyOp21
 70
     1
102
RTVSPropertyOp22
 70
     1
102
RTVSPropertyOp23
 70
     1
102
RTVSPropertyOp24
 70
     1
102
RTVSPropertyOp25
 70
     1
102
RTVSPropertyOp26
 70
     1
102
RTVSPropertyOp27
 70
     1
102
RTVSPropertyOp28
 70
     1
102
RTVSPropertyOp29
 70
     1
102
RTVSPropertyOp30
 70
     1
102
RTVSPropertyOp31
 70
     1
102
RTVSPropertyOp32
 70
     1
102
RTVSPropertyOp33
 70
     1
102
RTVSPropertyOp34
 70
     1
102
RTVSPropertyOp35
 70
     1
102
RTVSPropertyOp36
 70
     1
102
RTVSPropertyOp37
 70
     1
102
RTVSPropertyOp38
 70
     1
102
RTVSPropertyOp39
 70
     1
102
RTVSPropertyOp40
 70
     1
102
RTVSPropertyOp41
 70
     1
102
RTVSPropertyOp42
 70
     1
102
RTVSPropertyOp43
 70
     1
102
RTVSPropertyOp44
 70
     1
102
RTVSPropertyOp45
 70
     1
102
RTVSPropertyOp46
 70
     1
102
RTVSPropertyOp47
 70
     1
102
RTVSPropertyOp48
 70
     1
102
RTVSPropertyOp49
 70
     1
102
RTVSPropertyOp50
 70
     1
102
RTVSPropertyOp51
 70
     0
102
RTVSPropertyOp52
 70
     0
102
RTVSPropertyOp53
 70
     1
102
RTVSPropertyOp54
 70
     1
102
RTVSPropertyOp55
 70
     1
102
RTVSPropertyOp56
 70
     1
102
RTVSPropertyOp57
 70
     1
102
RTVSPropertyOp58
 70
     1
102
RTVSPropertyOp59
 70
     1
102
RTVSPropertyOp60
 70
     1
102
RTVSPropertyOp61
 70
     1
102
RTVSPropertyOp62
 70
     1
  0
XRECORD
  5
5284
102
{ACAD_REACTORS
330
5283
102
}
330
5283
100
AcDbXrecord
280
     1
102
RTVSPost2010Prop28
280
     0
102
RTVSPost2010PropOp28
 70
     1
102
RTVSPost2010Prop29
280
     1
102
RTVSPost2010PropOp29
 70
     1
102
RTVSPost2010Prop30
280
     1
102
RTVSPost2010PropOp30
 70
     1
102
RTVSPost2010Prop31
280
     0
102
RTVSPost2010PropOp31
 70
     1
102
RTVSPost2010Prop32
280
     0
102
RTVSPost2010PropOp32
 70
     1
102
RTVSPost2010Prop33
280
     0
102
RTVSPost2010PropOp33
 70
     1
102
RTVSPost2010Prop34
280
     0
102
RTVSPost2010PropOp34
 70
     1
102
RTVSPost2010Prop35
280
     0
102
RTVSPost2010PropOp35
 70
     1
102
RTVSPost2010Prop36
280
     0
102
RTVSPost2010PropOp36
 70
     1
102
RTVSPost2010Prop37
 90
       50
102
RTVSPost2010PropOp37
 70
     1
102
RTVSPost2010Prop38
140
0.0
102
RTVSPost2010PropOp38
 70
     1
102
RTVSPost2010Prop39
140
1.0
102
RTVSPost2010PropOp39
 70
     1
102
RTVSPost2010Prop40
 90
        0
102
RTVSPost2010PropOp40
 70
     1
102
RTVSPost2010Prop41ColorIndex
 90
       18
102
RTVSPost2010Prop41ColorRGB
 90
        0
102
RTVSPost2010PropOp41
 70
     1
102
RTVSPost2010Prop42
 90
       50
102
RTVSPost2010PropOp42
 70
     1
102
RTVSPost2010Prop43
 90
        3
102
RTVSPost2010PropOp43
 70
     1
102
RTVSPost2010Prop44ColorIndex
 90
        5
102
RTVSPost2010Prop44ColorRGB
 90
      255
102
RTVSPost2010PropOp44
 70
     1
102
RTVSPost2010Prop45
280
     0
102
RTVSPost2010PropOp45
 70
     1
102
RTVSPost2010Prop46
 90
       50
102
RTVSPost2010PropOp46
 70
     1
102
RTVSPost2010Prop47
 90
       50
102
RTVSPost2010PropOp47
 70
     1
102
RTVSPost2010Prop48
 90
       50
102
RTVSPost2010PropOp48
 70
     1
102
RTVSPost2010Prop49
280
     0
102
RTVSPost2010PropOp49
 70
     1
102
RTVSPost2010Prop50
 90
       50
102
RTVSPost2010PropOp50
 70
     1
102
RTVSPost2010Prop51ColorIndex
 90
      256
102
RTVSPost2010Prop51ColorRGB
 90
-16777216
102
RTVSPost2010PropOp51
 70
     0
102
RTVSPost2010Prop52
140
1.0
102
RTVSPost2010PropOp52
 70
     0
102
RTVSPost2010Prop53
 90
        2
102
RTVSPost2010PropOp53
 70
     1
102
RTVSPost2010Prop54
  1
strokes_ogs.tif
102
RTVSPost2010PropOp54
 70
     1
102
RTVSPost2010Prop55
280
     0
102
RTVSPost2010PropOp55
 70
     1
102
RTVSPost2010Prop56
140
1.0
102
RTVSPost2010PropOp56
 70
     1
102
RTVSPost2010Prop57
140
1.0
102
RTVSPost2010PropOp57
 70
     1
102
RTVSPropertyOp0
 70
     1
102
RTVSPropertyOp1
 70
     1
102
RTVSPropertyOp2
 70
     1
102
RTVSPropertyOp3
 70
     1
102
RTVSPropertyOp4
 70
     1
102
RTVSPropertyOp5
 70
     1
102
RTVSPropertyOp6
 70
     1
102
RTVSPropertyOp7
 70
     1
102
RTVSPropertyOp8
 70
     1
102
RTVSPropertyOp9
 70
     1
102
RTVSPropertyOp10
 70
     1
102
RTVSPropertyOp11
 70
     1
102
RTVSPropertyOp12
 70
     1
102
RTVSPropertyOp13
 70
     1
102
RTVSPropertyOp14
 70
     1
102
RTVSPropertyOp15
 70
     1
102
RTVSPropertyOp16
 70
     1
102
RTVSPropertyOp17
 70
     1
102
RTVSPropertyOp18
 70
     1
102
RTVSPropertyOp19
 70
     1
102
RTVSPropertyOp20
 70
     1
102
RTVSPropertyOp21
 70
     1
102
RTVSPropertyOp22
 70
     1
102
RTVSPropertyOp23
 70
     1
102
RTVSPropertyOp24
 70
     1
102
RTVSPropertyOp25
 70
     1
102
RTVSPropertyOp26
 70
     1
102
RTVSPropertyOp27
 70
     1
102
RTVSPropertyOp28
 70
     1
102
RTVSPropertyOp29
 70
     1
102
RTVSPropertyOp30
 70
     1
102
RTVSPropertyOp31
 70
     1
102
RTVSPropertyOp32
 70
     1
102
RTVSPropertyOp33
 70
     1
102
RTVSPropertyOp34
 70
     1
102
RTVSPropertyOp35
 70
     1
102
RTVSPropertyOp36
 70
     1
102
RTVSPropertyOp37
 70
     1
102
RTVSPropertyOp38
 70
     1
102
RTVSPropertyOp39
 70
     1
102
RTVSPropertyOp40
 70
     1
102
RTVSPropertyOp41
 70
     1
102
RTVSPropertyOp42
 70
     1
102
RTVSPropertyOp43
 70
     1
102
RTVSPropertyOp44
 70
     1
102
RTVSPropertyOp45
 70
     1
102
RTVSPropertyOp46
 70
     1
102
RTVSPropertyOp47
 70
     1
102
RTVSPropertyOp48
 70
     1
102
RTVSPropertyOp49
 70
     1
102
RTVSPropertyOp50
 70
     1
102
RTVSPropertyOp51
 70
     0
102
RTVSPropertyOp52
 70
     0
102
RTVSPropertyOp53
 70
     1
102
RTVSPropertyOp54
 70
     1
102
RTVSPropertyOp55
 70
     1
102
RTVSPropertyOp56
 70
     1
102
RTVSPropertyOp57
 70
     1
102
RTVSPropertyOp58
 70
     1
102
RTVSPropertyOp59
 70
     1
102
RTVSPropertyOp60
 70
     1
102
RTVSPropertyOp61
 70
     1
102
RTVSPropertyOp62
 70
     1
  0
ENDSEC
  0
EOF
