  0
SECTION
  2
HEADER
  9
$ACADVER
  1
AC1015
  9
$ACADMAINTVER
 70
    20
  9
$DWGCODEPAGE
  3
ANSI_1252
  9
$INSBASE
 10
0.0
 20
0.0
 30
0.0
  9
$EXTMIN
 10
173.4063732500729
 20
-8.519939951605579
 30
-0.0015258207003583
  9
$EXTMAX
 10
313.4362801507073
 20
96.50865792808998
 30
0.0000000349246037
  9
$LIMMIN
 10
0.0
 20
0.0
  9
$LIMMAX
 10
420.0
 20
297.0
  9
$ORTHOMODE
 70
     0
  9
$REGENMODE
 70
     1
  9
$FILLMODE
 70
     1
  9
$QTEXTMODE
 70
     0
  9
$MIRRTEXT
 70
     0
  9
$LTSCALE
 40
1.0
  9
$ATTMODE
 70
     1
  9
$TEXTSIZE
 40
2.5
  9
$TRACEWID
 40
1.0
  9
$TEXTSTYLE
  7
Standard
  9
$CLAYER
  8
5
  9
$CELTYPE
  6
ByLayer
  9
$CECOLOR
 62
   256
  9
$CELTSCALE
 40
1.0
  9
$DISPSILH
 70
     0
  9
$DIMSCALE
 40
1.0
  9
$DIMASZ
 40
3.5
  9
$DIMEXO
 40
1.5
  9
$DIMDLI
 40
3.75
  9
$DIMRND
 40
0.0
  9
$DIMDLE
 40
0.0
  9
$DIMEXE
 40
1.25
  9
$DIMTP
 40
0.0
  9
$DIMTM
 40
0.0
  9
$DIMTXT
 40
3.5
  9
$DIMCEN
 40
1.5
  9
$DIMTSZ
 40
0.0
  9
$DIMTOL
 70
     0
  9
$DIMLIM
 70
     0
  9
$DIMTIH
 70
     0
  9
$DIMTOH
 70
     0
  9
$DIMSE1
 70
     0
  9
$DIMSE2
 70
     0
  9
$DIMTAD
 70
     1
  9
$DIMZIN
 70
     8
  9
$DIMBLK
  1

  9
$DIMASO
 70
     1
  9
$DIMSHO
 70
     1
  9
$DIMPOST
  1

  9
$DIMAPOST
  1

  9
$DIMALT
 70
     0
  9
$DIMALTD
 70
     3
  9
$DIMALTF
 40
0.03937007874016
  9
$DIMLFAC
 40
1.0
  9
$DIMTOFL
 70
     1
  9
$DIMTVP
 40
0.0
  9
$DIMTIX
 70
     0
  9
$DIMSOXD
 70
     0
  9
$DIMSAH
 70
     0
  9
$DIMBLK1
  1

  9
$DIMBLK2
  1

  9
$DIMSTYLE
  2
WINTOOL
  9
$DIMCLRD
 70
     0
  9
$DIMCLRE
 70
     0
  9
$DIMCLRT
 70
     0
  9
$DIMTFAC
 40
1.0
  9
$DIMGAP
 40
1.0
  9
$DIMJUST
 70
     0
  9
$DIMSD1
 70
     0
  9
$DIMSD2
 70
     0
  9
$DIMTOLJ
 70
     0
  9
$DIMTZIN
 70
     8
  9
$DIMALTZ
 70
     0
  9
$DIMALTTZ
 70
     0
  9
$DIMUPT
 70
     0
  9
$DIMDEC
 70
     2
  9
$DIMTDEC
 70
     2
  9
$DIMALTU
 70
     2
  9
$DIMALTTD
 70
     3
  9
$DIMTXSTY
  7
Standard
  9
$DIMAUNIT
 70
     0
  9
$DIMADEC
 70
     0
  9
$DIMALTRND
 40
0.0
  9
$DIMAZIN
 70
     0
  9
$DIMDSEP
 70
    46
  9
$DIMATFIT
 70
     3
  9
$DIMFRAC
 70
     0
  9
$DIMLDRBLK
  1
Dot
  9
$DIMLUNIT
 70
     2
  9
$DIMLWD
 70
    -2
  9
$DIMLWE
 70
    -2
  9
$DIMTMOVE
 70
     0
  9
$LUNITS
 70
     2
  9
$LUPREC
 70
     4
  9
$SKETCHINC
 40
1.0
  9
$FILLETRAD
 40
5.0
  9
$AUNITS
 70
     0
  9
$AUPREC
 70
     0
  9
$MENU
  1
.
  9
$ELEVATION
 40
0.0
  9
$PELEVATION
 40
0.0
  9
$THICKNESS
 40
0.0
  9
$LIMCHECK
 70
     0
  9
$CHAMFERA
 40
0.5
  9
$CHAMFERB
 40
0.5
  9
$CHAMFERC
 40
0.0
  9
$CHAMFERD
 40
0.0
  9
$SKPOLY
 70
     0
  9
$TDCREATE
 40
2455022.532455602
  9
$TDUCREATE
 40
2455022.490788935
  9
$TDUPDATE
 40
2455131.641268067
  9
$TDUUPDATE
 40
2455131.599601401
  9
$TDINDWG
 40
0.1075273148
  9
$TDUSRTIMER
 40
0.1075048032
  9
$USRTIMER
 70
     1
  9
$ANGBASE
 50
0.0
  9
$ANGDIR
 70
     0
  9
$PDMODE
 70
     0
  9
$PDSIZE
 40
0.0
  9
$PLINEWID
 40
0.0
  9
$SPLFRAME
 70
     0
  9
$SPLINETYPE
 70
     6
  9
$SPLINESEGS
 70
     8
  9
$HANDSEED
  5
5E2E
  9
$SURFTAB1
 70
     6
  9
$SURFTAB2
 70
     6
  9
$SURFTYPE
 70
     6
  9
$SURFU
 70
     6
  9
$SURFV
 70
     6
  9
$UCSBASE
  2

  9
$UCSNAME
  2

  9
$UCSORG
 10
232.4675451406188
 20
42.83844290247635
 30
0.0
  9
$UCSXDIR
 10
1.0
 20
0.0
 30
0.0
  9
$UCSYDIR
 10
0.0
 20
1.0
 30
0.0
  9
$UCSORTHOREF
  2

  9
$UCSORTHOVIEW
 70
     0
  9
$UCSORGTOP
 10
0.0
 20
0.0
 30
0.0
  9
$UCSORGBOTTOM
 10
0.0
 20
0.0
 30
0.0
  9
$UCSORGLEFT
 10
0.0
 20
0.0
 30
0.0
  9
$UCSORGRIGHT
 10
0.0
 20
0.0
 30
0.0
  9
$UCSORGFRONT
 10
0.0
 20
0.0
 30
0.0
  9
$UCSORGBACK
 10
0.0
 20
0.0
 30
0.0
  9
$PUCSBASE
  2

  9
$PUCSNAME
  2

  9
$PUCSORG
 10
0.0
 20
0.0
 30
0.0
  9
$PUCSXDIR
 10
1.0
 20
0.0
 30
0.0
  9
$PUCSYDIR
 10
0.0
 20
1.0
 30
0.0
  9
$PUCSORTHOREF
  2

  9
$PUCSORTHOVIEW
 70
     0
  9
$PUCSORGTOP
 10
0.0
 20
0.0
 30
0.0
  9
$PUCSORGBOTTOM
 10
0.0
 20
0.0
 30
0.0
  9
$PUCSORGLEFT
 10
0.0
 20
0.0
 30
0.0
  9
$PUCSORGRIGHT
 10
0.0
 20
0.0
 30
0.0
  9
$PUCSORGFRONT
 10
0.0
 20
0.0
 30
0.0
  9
$PUCSORGBACK
 10
0.0
 20
0.0
 30
0.0
  9
$USERI1
 70
     0
  9
$USERI2
 70
     0
  9
$USERI3
 70
     0
  9
$USERI4
 70
     0
  9
$USERI5
 70
     0
  9
$USERR1
 40
0.0
  9
$USERR2
 40
0.0
  9
$USERR3
 40
0.0
  9
$USERR4
 40
0.0
  9
$USERR5
 40
0.0
  9
$WORLDVIEW
 70
     1
  9
$SHADEDGE
 70
     3
  9
$SHADEDIF
 70
    70
  9
$TILEMODE
 70
     1
  9
$MAXACTVP
 70
    64
  9
$PINSBASE
 10
0.0
 20
0.0
 30
0.0
  9
$PLIMCHECK
 70
     0
  9
$PEXTMIN
 10
28.55595059394835
 20
19.94958353042602
 30
0.0
  9
$PEXTMAX
 10
257.0035553455353
 20
179.5462517738342
 30
0.0
  9
$PLIMMIN
 10
-5.365753173828125
 20
-5.027083396911621
  9
$PLIMMAX
 10
291.687255859375
 20
204.8615732192993
  9
$UNITMODE
 70
     0
  9
$VISRETAIN
 70
     1
  9
$PLINEGEN
 70
     0
  9
$PSLTSCALE
 70
     1
  9
$TREEDEPTH
 70
  3020
  9
$CMLSTYLE
  2
Standard
  9
$CMLJUST
 70
     0
  9
$CMLSCALE
 40
20.0
  9
$PROXYGRAPHICS
 70
     1
  9
$MEASUREMENT
 70
     1
  9
$CELWEIGHT
370
    -1
  9
$ENDCAPS
280
     0
  9
$JOINSTYLE
280
     0
  9
$LWDISPLAY
290
     0
  9
$INSUNITS
 70
     4
  9
$HYPERLINKBASE
  1

  9
$STYLESHEET
  1

  9
$XEDIT
290
     1
  9
$CEPSNTYPE
380
     0
  9
$PSTYLEMODE
290
     1
  9
$FINGERPRINTGUID
  2
{630D1315-27FE-46E7-91A1-127381A1145C}
  9
$VERSIONGUID
  2
{EE1DA6E5-2331-404F-9F7E-88041B1C9E01}
  9
$EXTNAMES
290
     1
  9
$PSVPSCALE
 40
0.0
  9
$OLESTARTUP
290
     0
  0
ENDSEC
  0
SECTION
  2
CLASSES
  0
CLASS
  1
ACDBDICTIONARYWDFLT
  2
AcDbDictionaryWithDefault
  3
ObjectDBX Classes
 90
        0
280
     0
281
     0
  0
CLASS
  1
DICTIONARYVAR
  2
AcDbDictionaryVar
  3
ObjectDBX Classes
 90
        0
280
     0
281
     0
  0
CLASS
  1
TABLESTYLE
  2
AcDbTableStyle
  3
ObjectDBX Classes
 90
     4095
280
     0
281
     0
  0
CLASS
  1
SORTENTSTABLE
  2
AcDbSortentsTable
  3
ObjectDBX Classes
 90
        0
280
     0
281
     0
  0
CLASS
  1
DIMASSOC
  2
AcDbDimAssoc
  3
"AcDbDimAssoc|Product Desc:     AcDim ARX App For Dimension|Company:          Autodesk, Inc.|WEB Address:      www.autodesk.com"
 90
        0
280
     0
281
     0
  0
CLASS
  1
PLOTSETTINGS
  2
AcDbPlotSettings
  3
ObjectDBX Classes
 90
    32768
280
     0
281
     0
  0
CLASS
  1
ACDBPLACEHOLDER
  2
AcDbPlaceHolder
  3
ObjectDBX Classes
 90
        0
280
     0
281
     0
  0
CLASS
  1
LAYOUT
  2
AcDbLayout
  3
ObjectDBX Classes
 90
        0
280
     0
281
     0
  0
CLASS
  1
MATERIAL
  2
AcDbMaterial
  3
ObjectDBX Classes
 90
     1153
280
     0
281
     0
  0
CLASS
  1
VISUALSTYLE
  2
AcDbVisualStyle
  3
ObjectDBX Classes
 90
     4095
280
     0
281
     0
  0
CLASS
  1
SCALE
  2
AcDbScale
  3
ObjectDBX Classes
 90
     1153
280
     0
281
     0
  0
CLASS
  1
MLEADERSTYLE
  2
AcDbMLeaderStyle
  3
ACDB_MLEADERSTYLE_CLASS
 90
     4095
280
     0
281
     0
  0
CLASS
  1
CELLSTYLEMAP
  2
AcDbCellStyleMap
  3
ObjectDBX Classes
 90
     1152
280
     0
281
     0
  0
ENDSEC
  0
SECTION
  2
TABLES
  0
TABLE
  2
VPORT
  5
8
330
0
100
AcDbSymbolTable
 70
     1
  0
VPORT
  5
5D76
330
8
100
AcDbSymbolTableRecord
100
AcDbViewportTableRecord
  2
*Active
 70
     0
 10
0.0
 20
0.0
 11
1.0
 21
1.0
 12
243.42132670039
 22
43.99435898824219
 13
0.0
 23
0.0
 14
10.0
 24
10.0
 15
10.0
 25
10.0
 16
0.0
 26
0.0
 36
1.0
 17
0.0
 27
0.0
 37
0.0
 40
108.0226103880898
 41
1.597350993377483
 42
50.0
 43
0.0
 44
0.0
 50
0.0
 51
0.0
 71
     0
 72
  1000
 73
     1
 74
     3
 75
     0
 76
     0
 77
     0
 78
     0
281
     0
 65
     1
110
232.4675451406188
120
42.83844290247635
130
0.0
111
1.0
121
0.0
131
0.0
112
0.0
122
1.0
132
0.0
 79
     0
146
0.0
  0
ENDTAB
  0
TABLE
  2
LTYPE
  5
5
330
0
100
AcDbSymbolTable
 70
     7
  0
LTYPE
  5
14
330
5
100
AcDbSymbolTableRecord
100
AcDbLinetypeTableRecord
  2
ByBlock
 70
     0
  3

 72
    65
 73
     0
 40
0.0
  0
LTYPE
  5
15
330
5
100
AcDbSymbolTableRecord
100
AcDbLinetypeTableRecord
  2
ByLayer
 70
     0
  3

 72
    65
 73
     0
 40
0.0
  0
LTYPE
  5
16
330
5
100
AcDbSymbolTableRecord
100
AcDbLinetypeTableRecord
  2
Continuous
 70
     0
  3
Solid line
 72
    65
 73
     0
 40
0.0
  0
LTYPE
  5
130
330
5
100
AcDbSymbolTableRecord
100
AcDbLinetypeTableRecord
  2
CENTER
 70
     0
  3
Center line
 72
    65
 73
     4
 40
2.0
 49
1.25
 74
     0
 49
-0.25
 74
     0
 49
0.25
 74
     0
 49
-0.25
 74
     0
  0
LTYPE
  5
1E40
330
5
100
AcDbSymbolTableRecord
100
AcDbLinetypeTableRecord
  2
CACHE2
 70
     0
  3
Caché (x.5) _ _ _ _ _ _ _ _ _ _ _ _ _ _ _ _ _
 72
    65
 73
     2
 40
4.762499999999998
 49
3.174999999999998
 74
     0
 49
-1.587499999999999
 74
     0
  0
LTYPE
  5
1E41
330
5
100
AcDbSymbolTableRecord
100
AcDbLinetypeTableRecord
  2
AXES2
 70
     0
  3
Centre (x.5) ___ _ ___ _ ___ _ ___ _ ___ _ ___
 72
    65
 73
     4
 40
28.575
 49
19.05
 74
     0
 49
-3.174999999999998
 74
     0
 49
3.174999999999998
 74
     0
 49
-3.174999999999998
 74
     0
  0
LTYPE
  5
3781
330
5
100
AcDbSymbolTableRecord
100
AcDbLinetypeTableRecord
  2
DASHDOT
 70
     0
  3

 72
    65
 73
     4
 40
2.54
 49
1.27
 74
     0
 49
-0.635
 74
     0
 49
0.0
 74
     0
 49
-0.635
 74
     0
  0
LTYPE
  5
3782
330
5
100
AcDbSymbolTableRecord
100
AcDbLinetypeTableRecord
  2
DASHED
 70
     0
  3

 72
    65
 73
     2
 40
1.905
 49
1.27
 74
     0
 49
-0.635
 74
     0
  0
LTYPE
  5
5A2D
330
5
100
AcDbSymbolTableRecord
100
AcDbLinetypeTableRecord
  2
HIDDEN
 70
     0
  3
- - - - - - - - - - - - - - - - - - - -
 72
    65
 73
     2
 40
0.2
 49
0.1
 74
     0
 49
-0.1
 74
     0
  0
ENDTAB
  0
TABLE
  2
LAYER
  5
2
102
{ACAD_XDICTIONARY
360
1E47
102
}
330
0
100
AcDbSymbolTable
 70
    20
  0
LAYER
  5
10
102
{ACAD_XDICTIONARY
360
5DF2
102
}
330
2
100
AcDbSymbolTableRecord
100
AcDbLayerTableRecord
  2
0
 70
     0
 62
     7
  6
Continuous
370
    -3
390
F
  0
LAYER
  5
131
330
2
100
AcDbSymbolTableRecord
100
AcDbLayerTableRecord
  2
DEFPOINTS
 70
     0
 62
    -7
  6
Continuous
290
     0
370
    -3
390
F
  0
LAYER
  5
1E42
102
{ACAD_XDICTIONARY
360
5DF4
102
}
330
2
100
AcDbSymbolTableRecord
100
AcDbLayerTableRecord
  2
2
 70
     0
 62
   150
  6
Continuous
370
    -3
390
F
1001
AcAecLayerStandard
1000

1000

  0
LAYER
  5
1E43
102
{ACAD_XDICTIONARY
360
5DF6
102
}
330
2
100
AcDbSymbolTableRecord
100
AcDbLayerTableRecord
  2
1
 70
     0
 62
   250
  6
Continuous
370
    -3
390
F
1001
AcAecLayerStandard
1000

1000

  0
LAYER
  5
1E44
102
{ACAD_XDICTIONARY
360
5DF8
102
}
330
2
100
AcDbSymbolTableRecord
100
AcDbLayerTableRecord
  2
3
 70
     0
 62
   254
  6
CACHE2
370
    15
390
F
1001
AcAecLayerStandard
1000

1000

  0
LAYER
  5
3629
102
{ACAD_XDICTIONARY
360
5DFA
102
}
330
2
100
AcDbSymbolTableRecord
100
AcDbLayerTableRecord
  2
SK1
 70
     0
 62
   253
  6
Continuous
370
    -3
390
F
  0
LAYER
  5
362A
102
{ACAD_XDICTIONARY
360
5DFC
102
}
330
2
100
AcDbSymbolTableRecord
100
AcDbLayerTableRecord
  2
SK3
 70
     0
 62
     9
  6
CACHE2
370
    -3
390
F
  0
LAYER
  5
3783
102
{ACAD_XDICTIONARY
360
5DFE
102
}
330
2
100
AcDbSymbolTableRecord
100
AcDbLayerTableRecord
  2
4
 70
     0
 62
     2
  6
AXES2
370
    -3
390
F
  0
LAYER
  5
3784
102
{ACAD_XDICTIONARY
360
5E00
102
}
330
2
100
AcDbSymbolTableRecord
100
AcDbLayerTableRecord
  2
3L
 70
     0
 62
     9
  6
DASHED
370
    -3
390
F
  0
LAYER
  5
3785
102
{ACAD_XDICTIONARY
360
5E02
102
}
330
2
100
AcDbSymbolTableRecord
100
AcDbLayerTableRecord
  2
6
 70
     0
 62
     5
  6
Continuous
370
    -3
390
F
  0
LAYER
  5
39C1
102
{ACAD_XDICTIONARY
360
5E04
102
}
330
2
100
AcDbSymbolTableRecord
100
AcDbLayerTableRecord
  2
SK4
 70
     0
 62
     2
  6
AXES2
370
    -3
390
F
  0
LAYER
  5
39C2
102
{ACAD_XDICTIONARY
360
5E06
102
}
330
2
100
AcDbSymbolTableRecord
100
AcDbLayerTableRecord
  2
SK2
 70
     0
 62
   160
  6
Continuous
370
    -3
390
F
  0
LAYER
  5
3B9E
102
{ACAD_XDICTIONARY
360
5E08
102
}
330
2
100
AcDbSymbolTableRecord
100
AcDbLayerTableRecord
  2
5
 70
     0
 62
   211
  6
Continuous
370
    -3
390
F
1001
AcAecLayerStandard
1000

1000

  0
LAYER
  5
3BA1
102
{ACAD_XDICTIONARY
360
5E0A
102
}
330
2
100
AcDbSymbolTableRecord
100
AcDbLayerTableRecord
  2
SK6
 70
     0
 62
     5
  6
Continuous
370
    -3
390
F
1001
AcAecLayerStandard
1000

1000

  0
LAYER
  5
3BA2
102
{ACAD_XDICTIONARY
360
5E0C
102
}
330
2
100
AcDbSymbolTableRecord
100
AcDbLayerTableRecord
  2
1L
 70
     0
 62
   250
  6
Continuous
370
    -3
390
F
1001
AcAecLayerStandard
1000

1000

  0
LAYER
  5
3BA3
102
{ACAD_XDICTIONARY
360
5E0E
102
}
330
2
100
AcDbSymbolTableRecord
100
AcDbLayerTableRecord
  2
2L
 70
     0
 62
     5
  6
Continuous
370
    -3
390
F
1001
AcAecLayerStandard
1000

1000

  0
LAYER
  5
3FEC
102
{ACAD_XDICTIONARY
360
5E10
102
}
330
2
100
AcDbSymbolTableRecord
100
AcDbLayerTableRecord
  2
- Default
 70
     0
 62
     3
  6
Continuous
370
    15
390
F
  0
LAYER
  5
5A2E
102
{ACAD_XDICTIONARY
360
5E12
102
}
330
2
100
AcDbSymbolTableRecord
100
AcDbLayerTableRecord
  2
DEFAULT_2
 70
     0
 62
     8
  6
HIDDEN
370
    -3
390
F
  0
LAYER
  5
5A2F
102
{ACAD_XDICTIONARY
360
5E14
102
}
330
2
100
AcDbSymbolTableRecord
100
AcDbLayerTableRecord
  2
01_AXES
 70
     0
 62
     7
  6
Continuous
370
    -3
390
F
  0
LAYER
  5
5D06
102
{ACAD_XDICTIONARY
360
5E16
102
}
330
2
100
AcDbSymbolTableRecord
100
AcDbLayerTableRecord
  2
7
 70
     0
 62
   100
  6
Continuous
370
    -3
390
F
1001
AcAecLayerStandard
1000

1000

  0
ENDTAB
  0
TABLE
  2
STYLE
  5
3
330
0
100
AcDbSymbolTable
 70
     3
  0
STYLE
  5
11
330
3
100
AcDbSymbolTableRecord
100
AcDbTextStyleTableRecord
  2
Standard
 70
     0
 40
0.0
 41
1.0
 50
0.0
 71
     0
 42
2.5
  3
txt
  4

  0
STYLE
  5
500B
330
3
100
AcDbSymbolTableRecord
100
AcDbTextStyleTableRecord
  2
Roman
 70
     0
 40
0.0
 41
1.0
 50
0.0
 71
     0
 42
0.25
  3
romans
  4

  0
STYLE
  5
500C
330
3
100
AcDbSymbolTableRecord
100
AcDbTextStyleTableRecord
  2
ISO Proportional
 70
     0
 40
0.0
 41
1.0
 50
0.0
 71
     0
 42
2.5
  3
isocp.shx
  4

  0
ENDTAB
  0
TABLE
  2
VIEW
  5
6
330
0
100
AcDbSymbolTable
 70
     0
  0
ENDTAB
  0
TABLE
  2
UCS
  5
7
330
0
100
AcDbSymbolTable
 70
     0
  0
ENDTAB
  0
TABLE
  2
APPID
  5
9
330
0
100
AcDbSymbolTable
 70
    13
  0
APPID
  5
12
330
9
100
AcDbSymbolTableRecord
100
AcDbRegAppTableRecord
  2
ACAD
 70
     0
  0
APPID
  5
9E
330
9
100
AcDbSymbolTableRecord
100
AcDbRegAppTableRecord
  2
ACAD_PSEXT
 70
     0
  0
APPID
  5
298
330
9
100
AcDbSymbolTableRecord
100
AcDbRegAppTableRecord
  2
ACAD_DSTYLE_DIMTEXT_FILL
 70
     0
  0
APPID
  5
299
330
9
100
AcDbSymbolTableRecord
100
AcDbRegAppTableRecord
  2
ACAD_DSTYLE_DIMEXT_LENGTH
 70
     0
  0
APPID
  5
29A
330
9
100
AcDbSymbolTableRecord
100
AcDbRegAppTableRecord
  2
ACAD_DSTYLE_DIMEXT_ENABLED
 70
     0
  0
APPID
  5
29B
330
9
100
AcDbSymbolTableRecord
100
AcDbRegAppTableRecord
  2
ACAD_DSTYLE_DIM_LINETYPE
 70
     0
  0
APPID
  5
29C
330
9
100
AcDbSymbolTableRecord
100
AcDbRegAppTableRecord
  2
ACAD_DSTYLE_DIM_EXT1_LINETYPE
 70
     0
  0
APPID
  5
29D
330
9
100
AcDbSymbolTableRecord
100
AcDbRegAppTableRecord
  2
ACAD_DSTYLE_DIM_EXT2_LINETYPE
 70
     0
  0
APPID
  5
359
330
9
100
AcDbSymbolTableRecord
100
AcDbRegAppTableRecord
  2
ACAD_DSTYLE_DIMJOGGED_JOGANGLE_SYMBOL
 70
     0
  0
APPID
  5
4AD
330
9
100
AcDbSymbolTableRecord
100
AcDbRegAppTableRecord
  2
ACAD_DSTYLE_DIMARC_LENGTH_SYMBOL
 70
     0
  0
APPID
  5
1E46
330
9
100
AcDbSymbolTableRecord
100
AcDbRegAppTableRecord
  2
AcAecLayerStandard
 70
     0
  0
APPID
  5
360D
330
9
100
AcDbSymbolTableRecord
100
AcDbRegAppTableRecord
  2
ACAD_EXEMPT_FROM_CAD_STANDARDS
 70
     0
  0
APPID
  5
5DD2
330
9
100
AcDbSymbolTableRecord
100
AcDbRegAppTableRecord
  2
ACAD_MLEADERVER
 70
     0
  0
ENDTAB
  0
TABLE
  2
DIMSTYLE
  5
A
330
0
100
AcDbSymbolTable
 70
     4
100
AcDbDimStyleTable
 71
     2
340
4B2
340
27
  0
DIMSTYLE
105
27
330
A
100
AcDbSymbolTableRecord
100
AcDbDimStyleTableRecord
  2
ISO-25
 70
     0
 41
2.5
 42
0.625
 43
3.75
 44
1.25
 73
     0
 74
     0
 77
     1
 78
     8
140
2.5
141
2.5
143
0.03937007874016
147
0.625
171
     3
172
     1
271
     2
272
     2
274
     3
278
    44
283
     0
284
     8
340
11
  0
DIMSTYLE
105
13A
330
A
100
AcDbSymbolTableRecord
100
AcDbDimStyleTableRecord
  2
Standard
 70
     0
340
11
  0
DIMSTYLE
105
4B2
102
{ACAD_REACTORS
330
5BB3
330
5BDD
330
5C7C
102
}
330
A
100
AcDbSymbolTableRecord
100
AcDbDimStyleTableRecord
  2
WINTOOL
 70
     0
 41
3.5
 42
1.5
 43
3.75
 44
1.25
 73
     0
 74
     0
 77
     1
 78
     8
140
3.5
141
1.5
143
0.03937007874016
147
1.0
171
     3
172
     1
271
     2
272
     2
274
     3
283
     0
284
     8
340
11
1001
ACAD_DSTYLE_DIMEXT_LENGTH
1070
   378
1040
1.25
1001
ACAD_DSTYLE_DIMJOGGED_JOGANGLE_SYMBOL
1070
   384
1040
1.570796326794896
  0
DIMSTYLE
105
4594
330
A
100
AcDbSymbolTableRecord
100
AcDbDimStyleTableRecord
  2
WINTOOL Old
 70
     0
 41
3.5
 42
1.5
 43
3.75
 44
1.25
 73
     0
 74
     0
 77
     1
 78
     8
140
3.5
141
1.5
143
0.03937007874016
147
1.0
171
     3
172
     1
271
     2
272
     2
274
     3
283
     0
284
     8
340
11
1001
ACAD_DSTYLE_DIMEXT_LENGTH
1070
   378
1040
1.25
1001
ACAD_DSTYLE_DIMJOGGED_JOGANGLE_SYMBOL
1070
   384
1040
1.570796326794896
  0
ENDTAB
  0
TABLE
  2
BLOCK_RECORD
  5
1
330
0
100
AcDbSymbolTable
 70
     6
  0
BLOCK_RECORD
  5
1F
102
{ACAD_XDICTIONARY
360
3615
102
}
330
1
100
AcDbSymbolTableRecord
100
AcDbBlockTableRecord
  2
*Model_Space
340
22
  0
BLOCK_RECORD
  5
59F3
330
1
100
AcDbSymbolTableRecord
100
AcDbBlockTableRecord
  2
*Paper_Space
340
59F4
  0
BLOCK_RECORD
  5
3FE7
330
1
100
AcDbSymbolTableRecord
100
AcDbBlockTableRecord
  2
_Dot
340
0
  0
BLOCK_RECORD
  5
5B72
330
1
100
AcDbSymbolTableRecord
100
AcDbBlockTableRecord
  2
*D1
340
0
  0
BLOCK_RECORD
  5
5B95
330
1
100
AcDbSymbolTableRecord
100
AcDbBlockTableRecord
  2
*D2
340
0
  0
BLOCK_RECORD
  5
5BB4
330
1
100
AcDbSymbolTableRecord
100
AcDbBlockTableRecord
  2
*D3
340
0
  0
BLOCK_RECORD
  5
5BDE
330
1
100
AcDbSymbolTableRecord
100
AcDbBlockTableRecord
  2
*D4
340
0
  0
BLOCK_RECORD
  5
5C7D
330
1
100
AcDbSymbolTableRecord
100
AcDbBlockTableRecord
  2
*D5
340
0
  0
ENDTAB
  0
ENDSEC
  0
SECTION
  2
BLOCKS
  0
BLOCK
  5
20
330
1F
100
AcDbEntity
  8
0
100
AcDbBlockBegin
  2
*Model_Space
 70
     0
 10
0.0
 20
0.0
 30
0.0
  3
*Model_Space
  1

  0
ENDBLK
  5
21
330
1F
100
AcDbEntity
  8
0
100
AcDbBlockEnd
  0
BLOCK
  5
59F5
330
59F3
100
AcDbEntity
 67
     1
  8
0
100
AcDbBlockBegin
  2
*Paper_Space
 70
     0
 10
0.0
 20
0.0
 30
0.0
  3
*Paper_Space
  1

  0
ENDBLK
  5
59F6
330
59F3
100
AcDbEntity
 67
     1
  8
0
100
AcDbBlockEnd
  0
BLOCK
  5
3FE8
330
3FE7
100
AcDbEntity
  8
0
 48
0.5
100
AcDbBlockBegin
  2
_Dot
 70
     0
 10
0.0
 20
0.0
 30
0.0
  3
_Dot
  1

  0
LWPOLYLINE
  5
3FE9
330
3FE7
100
AcDbEntity
  8
0
  6
ByBlock
 62
     0
100
AcDbPolyline
 90
        2
 70
     1
 43
0.5
 10
-0.25
 20
0.0
 42
1.0
 10
0.25
 20
0.0
 42
1.0
  0
LINE
  5
3FEA
330
3FE7
100
AcDbEntity
  8
0
  6
ByBlock
 62
     0
370
    -2
100
AcDbLine
 10
-0.5
 20
0.0
 30
0.0
 11
-1.0
 21
0.0
 31
0.0
  0
ENDBLK
  5
3FEB
330
3FE7
100
AcDbEntity
  8
0
 48
0.5
100
AcDbBlockEnd
  0
BLOCK
  5
5B7E
330
5B72
100
AcDbEntity
  8
0
100
AcDbBlockBegin
  2
*D1
 70
     1
 10
0.0
 20
0.0
 30
0.0
  3
*D1
  1

  0
LINE
  5
5B81
330
5B72
100
AcDbEntity
  8
6
 62
     0
370
    -2
100
AcDbLine
 10
220.8675451406189
 20
72.18503990247637
 30
0.0
 11
220.8675451406189
 21
76.93503990247638
 31
0.0
  0
LINE
  5
5B82
330
5B72
100
AcDbEntity
  8
6
 62
     0
370
    -2
100
AcDbLine
 10
226.0675451406188
 20
72.18503990247637
 30
0.0
 11
226.0675451406188
 21
76.93503990247638
 31
0.0
  0
LINE
  5
5B83
330
5B72
100
AcDbEntity
  8
6
 62
     0
370
    -2
100
AcDbLine
 10
217.3675451406189
 20
75.68503990247638
 30
0.0
 11
213.8675451406188
 21
75.68503990247638
 31
0.0
  0
LINE
  5
5B84
330
5B72
100
AcDbEntity
  8
6
 62
     0
370
    -2
100
AcDbLine
 10
229.5675451406188
 20
75.68503990247638
 30
0.0
 11
242.0675451406188
 21
75.68503990247638
 31
0.0
  0
LINE
  5
5B85
330
5B72
100
AcDbEntity
  8
6
 62
     0
370
    -2
100
AcDbLine
 10
220.8675451406189
 20
75.68503990247638
 30
0.0
 11
226.0675451406188
 21
75.68503990247638
 31
0.0
  0
SOLID
  5
5B86
330
5B72
100
AcDbEntity
  8
6
 62
     0
100
AcDbTrace
 10
217.3675451406189
 20
76.2683732358097
 30
0.0
 11
217.3675451406189
 21
75.10170656914304
 31
0.0
 12
220.8675451406189
 22
75.68503990247638
 32
0.0
 13
220.8675451406189
 23
75.68503990247638
 33
0.0
  0
SOLID
  5
5B87
330
5B72
100
AcDbEntity
  8
6
 62
     0
100
AcDbTrace
 10
229.5675451406188
 20
76.2683732358097
 30
0.0
 11
229.5675451406188
 21
75.10170656914304
 31
0.0
 12
226.0675451406188
 22
75.68503990247638
 32
0.0
 13
226.0675451406188
 23
75.68503990247638
 33
0.0
  0
MTEXT
  5
5B88
330
5B72
100
AcDbEntity
  8
6
 62
     0
100
AcDbMText
 10
237.5675451406188
 20
78.43503990247637
 30
0.0
 40
3.5
 41
0.0
 71
     5
 72
     1
  1
5.2
 73
     1
 44
1.0
1001
ACAD
1000
MTEXTBEGIN
1070
    73
1070
     1
1070
    44
1040
1.0
1070
    74
1070
     0
1000
MTEXTEND
  0
POINT
  5
5B89
330
5B72
100
AcDbEntity
  8
DEFPOINTS
 62
     0
100
AcDbPoint
 10
220.8675451406189
 20
70.68503990247638
 30
0.0
  0
POINT
  5
5B8A
330
5B72
100
AcDbEntity
  8
DEFPOINTS
 62
     0
100
AcDbPoint
 10
226.0675451406188
 20
70.68503990247638
 30
0.0
  0
POINT
  5
5B8B
330
5B72
100
AcDbEntity
  8
DEFPOINTS
 62
     0
100
AcDbPoint
 10
226.0675451406188
 20
75.68503990247638
 30
0.0
  0
ENDBLK
  5
5B7F
330
5B72
100
AcDbEntity
  8
0
100
AcDbBlockEnd
  0
BLOCK
  5
5BA0
330
5B95
100
AcDbEntity
  8
0
100
AcDbBlockBegin
  2
*D2
 70
     1
 10
0.0
 20
0.0
 30
0.0
  3
*D2
  1

  0
LINE
  5
5BA3
330
5B95
100
AcDbEntity
  8
6
 62
     0
370
    -2
100
AcDbLine
 10
243.5764876186188
 20
84.47601749716131
 30
0.0
 11
254.3105697351226
 21
84.47601749716131
 31
0.0
  0
LINE
  5
5BA4
330
5B95
100
AcDbEntity
  8
6
 62
     0
370
    -2
100
AcDbLine
 10
243.5764876186188
 20
74.80407901894783
 30
0.0
 11
254.3105697351226
 21
74.80407901894783
 31
0.0
  0
LINE
  5
5BA5
330
5B95
100
AcDbEntity
  8
6
 62
     0
370
    -2
100
AcDbLine
 10
253.0605697351226
 20
80.97601749716131
 30
0.0
 11
253.0605697351226
 21
78.30407901894783
 31
0.0
  0
LINE
  5
5BA6
330
5B95
100
AcDbEntity
  8
6
 62
     0
370
    -2
100
AcDbLine
 10
253.0605697351226
 20
74.80407901894783
 30
0.0
 11
253.0605697351226
 21
58.80407901894783
 31
0.0
  0
SOLID
  5
5BA7
330
5B95
100
AcDbEntity
  8
6
 62
     0
100
AcDbTrace
 10
252.4772364017893
 20
80.97601749716131
 30
0.0
 11
253.6439030684559
 21
80.97601749716131
 31
0.0
 12
253.0605697351226
 22
84.47601749716131
 32
0.0
 13
253.0605697351226
 23
84.47601749716131
 33
0.0
  0
SOLID
  5
5BA8
330
5B95
100
AcDbEntity
  8
6
 62
     0
100
AcDbTrace
 10
252.4772364017893
 20
78.30407901894783
 30
0.0
 11
253.6439030684559
 21
78.30407901894783
 31
0.0
 12
253.0605697351226
 22
74.80407901894783
 32
0.0
 13
253.0605697351226
 23
74.80407901894783
 33
0.0
  0
MTEXT
  5
5BA9
330
5B95
100
AcDbEntity
  8
6
 62
     0
100
AcDbMText
 10
250.3105697351226
 20
65.05407901894789
 30
0.0
 40
3.5
 41
0.0
 71
     5
 72
     1
  1
9.67
 11
0.0000000000000001
 21
1.0
 31
0.0
 73
     1
 44
1.0
1001
ACAD
1000
MTEXTBEGIN
1070
    73
1070
     1
1070
    44
1040
1.0
1070
    74
1070
     0
1000
MTEXTEND
  0
POINT
  5
5BAA
330
5B95
100
AcDbEntity
  8
DEFPOINTS
 62
     0
100
AcDbPoint
 10
242.0764876186189
 20
84.47601749716131
 30
0.0
  0
POINT
  5
5BAB
330
5B95
100
AcDbEntity
  8
DEFPOINTS
 62
     0
100
AcDbPoint
 10
242.0764876186189
 20
74.80407901894783
 30
0.0
  0
POINT
  5
5BAC
330
5B95
100
AcDbEntity
  8
DEFPOINTS
 62
     0
100
AcDbPoint
 10
253.0605697351226
 20
74.80407901894783
 30
0.0
  0
ENDBLK
  5
5BA1
330
5B95
100
AcDbEntity
  8
0
100
AcDbBlockEnd
  0
BLOCK
  5
5BBE
330
5BB4
100
AcDbEntity
  8
0
100
AcDbBlockBegin
  2
*D3
 70
     1
 10
0.0
 20
0.0
 30
0.0
  3
*D3
  1

  0
LINE
  5
5DD4
330
5BB4
100
AcDbEntity
  8
2
 62
     0
370
    -2
100
AcDbLine
 10
244.6675763755704
 20
85.18507725280725
 30
0.0
 11
205.4045297693007
 21
85.18507725280725
 31
0.0
  0
LINE
  5
5DD5
330
5BB4
100
AcDbEntity
  8
2
 62
     0
370
    -2
100
AcDbLine
 10
210.4675451755188
 20
66.68503990247636
 30
0.0
 11
205.4045297693007
 21
66.68503990247636
 31
0.0
  0
LINE
  5
5DD6
330
5BB4
100
AcDbEntity
  8
2
 62
     0
370
    -2
100
AcDbLine
 10
206.6545297693007
 20
81.68507725280726
 30
0.0
 11
206.6545297693007
 21
70.18503990247636
 31
0.0
  0
SOLID
  5
5DD7
330
5BB4
100
AcDbEntity
  8
2
 62
     0
100
AcDbTrace
 10
206.0711964359673
 20
81.68507725280726
 30
0.0
 11
207.2378631026341
 21
81.68507725280726
 31
0.0
 12
206.6545297693007
 22
85.18507725280725
 32
0.0
 13
206.6545297693007
 23
85.18507725280725
 33
0.0
  0
SOLID
  5
5DD8
330
5BB4
100
AcDbEntity
  8
2
 62
     0
100
AcDbTrace
 10
206.0711964359673
 20
70.18503990247636
 30
0.0
 11
207.2378631026341
 21
70.18503990247636
 31
0.0
 12
206.6545297693007
 22
66.68503990247636
 32
0.0
 13
206.6545297693007
 23
66.68503990247636
 33
0.0
  0
MTEXT
  5
5DD9
330
5BB4
100
AcDbEntity
  8
2
 62
     0
100
AcDbMText
 10
203.9045297693007
 20
75.93505857764184
 30
0.0
 40
3.5
 41
0.0
 71
     5
 72
     1
  1
18.5
 11
0.0000000000000001
 21
1.0
 31
0.0
 73
     1
 44
1.0
1001
ACAD
1000
MTEXTBEGIN
1070
    73
1070
     1
1070
    44
1040
1.0
1070
    74
1070
     0
1000
MTEXTEND
  0
POINT
  5
5DDA
330
5BB4
100
AcDbEntity
  8
DEFPOINTS
 62
     0
100
AcDbPoint
 10
246.1675763755704
 20
85.18507725280725
 30
0.0
  0
POINT
  5
5DDB
330
5BB4
100
AcDbEntity
  8
DEFPOINTS
 62
     0
100
AcDbPoint
 10
211.9675451755188
 20
66.68503990247636
 30
0.0
  0
POINT
  5
5DDC
330
5BB4
100
AcDbEntity
  8
DEFPOINTS
 62
     0
100
AcDbPoint
 10
206.6545297693007
 20
66.68503990247636
 30
0.0
  0
ENDBLK
  5
5BBF
330
5BB4
100
AcDbEntity
  8
0
100
AcDbBlockEnd
  0
BLOCK
  5
5BE8
330
5BDE
100
AcDbEntity
  8
0
100
AcDbBlockBegin
  2
*D4
 70
     1
 10
0.0
 20
0.0
 30
0.0
  3
*D4
  1

  0
LINE
  5
5DDD
330
5BDE
100
AcDbEntity
  8
2
 62
     0
370
    -2
100
AcDbLine
 10
246.9675451406188
 20
85.88504002837634
 30
0.0
 11
246.9675451406188
 21
89.67164728671866
 31
0.0
  0
LINE
  5
5DDE
330
5BDE
100
AcDbEntity
  8
2
 62
     0
370
    -2
100
AcDbLine
 10
232.4675451406188
 20
67.38503990247636
 30
0.0
 11
232.4675451406188
 21
89.67164728671866
 31
0.0
  0
LINE
  5
5DDF
330
5BDE
100
AcDbEntity
  8
2
 62
     0
370
    -2
100
AcDbLine
 10
243.4675451406188
 20
88.42164728671866
 30
0.0
 11
235.9675451406188
 21
88.42164728671866
 31
0.0
  0
SOLID
  5
5DE0
330
5BDE
100
AcDbEntity
  8
2
 62
     0
100
AcDbTrace
 10
243.4675451406188
 20
89.00498062005198
 30
0.0
 11
243.4675451406188
 21
87.83831395338532
 31
0.0
 12
246.9675451406188
 22
88.42164728671866
 32
0.0
 13
246.9675451406188
 23
88.42164728671866
 33
0.0
  0
SOLID
  5
5DE1
330
5BDE
100
AcDbEntity
  8
2
 62
     0
100
AcDbTrace
 10
235.9675451406188
 20
89.00498062005198
 30
0.0
 11
235.9675451406188
 21
87.83831395338532
 31
0.0
 12
232.4675451406188
 22
88.42164728671866
 32
0.0
 13
232.4675451406188
 23
88.42164728671866
 33
0.0
  0
MTEXT
  5
5DE2
330
5BDE
100
AcDbEntity
  8
2
 62
     0
100
AcDbMText
 10
239.7175451406188
 20
91.17164728671864
 30
0.0
 40
3.5
 41
0.0
 71
     5
 72
     1
  1
14.5
 73
     1
 44
1.0
1001
ACAD
1000
MTEXTBEGIN
1070
    73
1070
     1
1070
    44
1040
1.0
1070
    74
1070
     0
1000
MTEXTEND
  0
POINT
  5
5DE3
330
5BDE
100
AcDbEntity
  8
DEFPOINTS
 62
     0
100
AcDbPoint
 10
246.9675451406188
 20
84.38504002837634
 30
0.0
  0
POINT
  5
5DE4
330
5BDE
100
AcDbEntity
  8
DEFPOINTS
 62
     0
100
AcDbPoint
 10
232.4675451406188
 20
65.88503990247636
 30
0.0
  0
POINT
  5
5DE5
330
5BDE
100
AcDbEntity
  8
DEFPOINTS
 62
     0
100
AcDbPoint
 10
232.4675451406188
 20
88.42164728671866
 30
0.0
  0
ENDBLK
  5
5BE9
330
5BDE
100
AcDbEntity
  8
0
100
AcDbBlockEnd
  0
BLOCK
  5
5C87
330
5C7D
100
AcDbEntity
  8
0
100
AcDbBlockBegin
  2
*D5
 70
     1
 10
0.0
 20
0.0
 30
0.0
  3
*D5
  1

  0
LINE
  5
5DE6
330
5C7D
100
AcDbEntity
  8
2
 62
     0
370
    -2
100
AcDbLine
 10
248.4675451406188
 20
0.3384429024763444
 30
0.0
 11
254.6946541769922
 21
0.3384429024763427
 31
0.0
  0
LINE
  5
5DE7
330
5C7D
100
AcDbEntity
  8
2
 62
     0
370
    -2
100
AcDbLine
 10
248.4675451406188
 20
85.33844290247634
 30
0.0
 11
254.6946541769922
 21
85.33844290247634
 31
0.0
  0
LINE
  5
5DE8
330
5C7D
100
AcDbEntity
  8
2
 62
     0
370
    -2
100
AcDbLine
 10
253.4446541769922
 20
3.838442902476343
 30
0.0
 11
253.4446541769922
 21
81.83844290247634
 31
0.0
  0
SOLID
  5
5DE9
330
5C7D
100
AcDbEntity
  8
2
 62
     0
100
AcDbTrace
 10
252.8613208436588
 20
3.838442902476343
 30
0.0
 11
254.0279875103255
 21
3.838442902476343
 31
0.0
 12
253.4446541769922
 22
0.3384429024763431
 32
0.0
 13
253.4446541769922
 23
0.3384429024763431
 33
0.0
  0
SOLID
  5
5DEA
330
5C7D
100
AcDbEntity
  8
2
 62
     0
100
AcDbTrace
 10
252.8613208436588
 20
81.83844290247634
 30
0.0
 11
254.0279875103256
 21
81.83844290247634
 31
0.0
 12
253.4446541769922
 22
85.33844290247634
 32
0.0
 13
253.4446541769922
 23
85.33844290247634
 33
0.0
  0
MTEXT
  5
5DEB
330
5C7D
100
AcDbEntity
  8
2
 62
     0
100
AcDbMText
 10
250.1113208436589
 20
42.83844290247638
 30
0.0
 40
3.5
 41
0.0
 71
     5
 72
     1
  1
Cap. Ø 114-205
 11
0.0000000000000001
 21
1.0
 31
0.0
 73
     1
 44
1.0
1001
ACAD
1000
MTEXTBEGIN
1070
    73
1070
     1
1070
    44
1040
1.0
1070
    74
1070
     0
1000
MTEXTEND
  0
POINT
  5
5DEC
330
5C7D
100
AcDbEntity
  8
DEFPOINTS
 62
     0
100
AcDbPoint
 10
246.9675451406188
 20
0.3384429024763449
 30
0.0
  0
POINT
  5
5DED
330
5C7D
100
AcDbEntity
  8
DEFPOINTS
 62
     0
100
AcDbPoint
 10
246.9675451406188
 20
85.33844290247634
 30
0.0
  0
POINT
  5
5DEE
330
5C7D
100
AcDbEntity
  8
DEFPOINTS
 62
     0
100
AcDbPoint
 10
253.4446541769922
 20
85.33844290247634
 30
0.0
  0
ENDBLK
  5
5C88
330
5C7D
100
AcDbEntity
  8
0
100
AcDbBlockEnd
  0
ENDSEC
  0
SECTION
  2
ENTITIES
  0
LINE
  5
5ACA
330
1F
100
AcDbEntity
  8
5
  6
Continuous
 62
     4
100
AcDbLine
 10
241.8675451406189
 20
45.48503990247638
 30
0.0
 11
242.3675451406189
 21
45.98503990247638
 31
0.0
  0
LINE
  5
5ACE
330
1F
100
AcDbEntity
  8
5
  6
Continuous
 62
     4
100
AcDbLine
 10
246.9675451406188
 20
84.39214654887637
 30
0.0
 11
246.9675451406188
 21
76.33278051207634
 31
0.0
  0
LINE
  5
5AD0
330
1F
100
AcDbEntity
  8
5
  6
Continuous
 62
     4
100
AcDbLine
 10
246.8675451406189
 20
74.98503990247638
 30
0.0
 11
246.8675451406189
 21
75.69615978167639
 31
0.0
  0
LINE
  5
5AD4
330
1F
100
AcDbEntity
  8
5
  6
Continuous
 62
     4
100
AcDbLine
 10
238.0986989975188
 20
83.77462603967638
 30
0.0
 11
246.0356251549188
 21
85.17412026517638
 31
0.0
  0
LINE
  5
5AD8
330
1F
100
AcDbEntity
  8
5
  6
Continuous
 62
     4
100
AcDbLine
 10
246.7500743637188
 20
75.78613287177637
 30
0.0
 11
246.8675451406189
 21
75.69615978167639
 31
0.0
  0
LINE
  5
5ADE
330
1F
100
AcDbEntity
  8
5
  6
Continuous
 62
     4
100
AcDbLine
 10
237.5835880913188
 20
83.44464649737636
 30
0.0
 11
237.4891147842188
 21
83.53136959397636
 31
0.0
  0
LINE
  5
5ADF
330
1F
100
AcDbEntity
  8
5
  6
Continuous
 62
     4
100
AcDbLine
 10
237.4891147842188
 20
83.53136959397636
 30
0.0
 11
232.4675451406188
 21
82.64593138027635
 31
0.0
  0
LINE
  5
5AE2
330
1F
100
AcDbEntity
  8
5
  6
Continuous
 62
     4
100
AcDbLine
 10
234.0919007936189
 20
82.05959813347636
 30
0.0
 11
232.2960005202188
 21
81.74293246067634
 31
0.0
  0
LINE
  5
5AE4
330
1F
100
AcDbEntity
  8
5
  6
Continuous
 62
     4
100
AcDbLine
 10
242.3675451406189
 20
45.98503990247638
 30
0.0
 11
242.3675451406189
 21
70.48503990247637
 31
0.0
  0
LINE
  5
5AE7
330
1F
100
AcDbEntity
  8
5
  6
Continuous
 62
     4
100
AcDbLine
 10
246.8675451406189
 20
74.98503990247638
 30
0.0
 11
242.3675451406189
 21
70.48503990247637
 31
0.0
  0
LINE
  5
5AE8
330
1F
100
AcDbEntity
  8
5
  6
Continuous
 62
     4
100
AcDbLine
 10
213.7207507958188
 20
75.68503990247638
 30
0.0
 11
224.5353163567188
 21
75.68503990247638
 31
0.0
  0
LINE
  5
5AE9
330
1F
100
AcDbEntity
  8
5
  6
Continuous
 62
     4
100
AcDbLine
 10
213.7207507958188
 20
75.68503990247638
 30
0.0
 11
211.4675455651188
 21
75.68503990247638
 31
0.0
  0
LINE
  5
5AEA
330
1F
100
AcDbEntity
  8
5
  6
Continuous
 62
     4
100
AcDbLine
 10
237.4891147842188
 20
83.53136959397636
 30
0.0
 11
237.4891147842188
 21
83.26031672737633
 31
0.0
  0
LINE
  5
5AEC
330
1F
100
AcDbEntity
  8
5
  6
Continuous
 62
     4
100
AcDbLine
 10
237.4425451406188
 20
74.93328628667637
 30
0.0
 11
237.4425451406188
 21
82.99265232347636
 31
0.0
  0
LINE
  5
5AED
330
1F
100
AcDbEntity
  8
5
  6
Continuous
 62
     4
100
AcDbLine
 10
235.9675451406188
 20
45.48503990247638
 30
0.0
 11
235.9675451406188
 21
83.2630758127763
 31
0.0
  0
LINE
  5
5AF0
330
1F
100
AcDbEntity
  8
5
  6
Continuous
 62
     4
100
AcDbLine
 10
246.8675451406189
 20
75.69615978167639
 30
0.0
 11
246.5669014681188
 21
75.64314819057637
 31
0.0
  0
LINE
  5
5AF2
330
1F
100
AcDbEntity
  8
5
  6
Continuous
 62
     4
100
AcDbLine
 10
246.3113912836188
 20
75.55080679577635
 30
0.0
 11
238.3744651263189
 21
74.15131257037637
 31
0.0
  0
LINE
  5
5AF3
330
1F
100
AcDbEntity
  8
5
  6
Continuous
 62
     4
100
AcDbLine
 10
234.0919007936189
 20
45.48503990247638
 30
0.0
 11
234.0919007936189
 21
82.05959813347636
 31
0.0
  0
LINE
  5
5AF4
330
1F
100
AcDbEntity
  8
SK1
  6
CACHE2
100
AcDbLine
 10
219.0675451406188
 20
70.68503990247638
 30
0.0
 11
227.8675451406189
 21
70.68503990247638
 31
0.0
  0
LINE
  5
5AF5
330
1F
100
AcDbEntity
  8
5
  6
Continuous
 62
     4
100
AcDbLine
 10
232.9675451406188
 20
67.18503990247636
 30
0.0
 11
232.9675451406188
 21
45.48503990247638
 31
0.0
  0
LINE
  5
5AF6
330
1F
100
AcDbEntity
  8
5
  6
Continuous
 62
     4
100
AcDbLine
 10
232.4675451406188
 20
65.88503990247636
 30
0.0
 11
232.4675451406188
 21
45.98503990247638
 31
0.0
  0
LINE
  5
5AFD
330
1F
100
AcDbEntity
  8
5
  6
Continuous
 62
     4
100
AcDbLine
 10
232.2332305655188
 20
66.45072532747633
 30
0.0
 11
232.9675451406188
 21
67.18503990247636
 31
0.0
  0
LINE
  5
5AFE
330
1F
100
AcDbEntity
  8
5
  6
Continuous
 62
     4
100
AcDbLine
 10
232.9675451406188
 20
67.18503990247636
 30
0.0
 11
211.4675451406188
 21
67.18503993897633
 31
0.0
  0
LINE
  5
5AFF
330
1F
100
AcDbEntity
  8
01_AXES
  6
HIDDEN
 62
     8
100
AcDbLine
 10
220.8675451406189
 20
66.68503990247636
 30
0.0
 11
226.0675451406188
 21
66.68503990247636
 31
0.0
  0
LINE
  5
5B01
330
1F
100
AcDbEntity
  8
5
  6
Continuous
 62
     4
100
AcDbLine
 10
231.6675451406188
 20
66.68503990247636
 30
0.0
 11
211.9675457441189
 21
66.68503990247636
 31
0.0
  0
LINE
  5
5B02
330
1F
100
AcDbEntity
  8
SK1
  6
CACHE2
100
AcDbLine
 10
227.8675451406189
 20
76.4120589914764
 30
0.0
 11
227.8675451406189
 21
70.68503990247638
 31
0.0
  0
LINE
  5
5B03
330
1F
100
AcDbEntity
  8
SK1
  6
CACHE2
100
AcDbLine
 10
226.0675451406188
 20
70.68503990247638
 30
0.0
 11
226.0675451406188
 21
66.68503990247636
 31
0.0
  0
LINE
  5
5B04
330
1F
100
AcDbEntity
  8
5
  6
Continuous
 62
     4
100
AcDbLine
 10
234.0919007936189
 20
82.05959813347636
 30
0.0
 11
235.9675451406188
 21
83.2630758127763
 31
0.0
  0
LINE
  5
5B05
330
1F
100
AcDbEntity
  8
SK1
  6
CACHE2
100
AcDbLine
 10
220.8675451406189
 20
70.68503990247638
 30
0.0
 11
220.8675451406189
 21
66.68503990247636
 31
0.0
  0
LINE
  5
5B06
330
1F
100
AcDbEntity
  8
SK1
  6
CACHE2
100
AcDbLine
 10
219.0675451406188
 20
75.68503990247638
 30
0.0
 11
219.0675451406188
 21
70.68503990247638
 31
0.0
  0
LINE
  5
5B07
102
{ACAD_REACTORS
330
5BCA
102
}
330
1F
100
AcDbEntity
  8
5
  6
Continuous
 62
     4
100
AcDbLine
 10
211.9675451755188
 20
66.68503990247636
 30
0.0
 11
211.4675451406188
 21
67.18503993897633
 31
0.0
  0
LINE
  5
5B08
330
1F
100
AcDbEntity
  8
5
  6
Continuous
 62
     4
100
AcDbLine
 10
232.9675451406188
 20
45.48503990247638
 30
0.0
 11
232.4675451406188
 21
45.98503990247638
 31
0.0
  0
LINE
  5
5B0B
330
1F
100
AcDbEntity
  8
5
  6
Continuous
 62
     4
100
AcDbLine
 10
211.4675451406188
 20
75.68503990247638
 30
0.0
 11
211.4675451406188
 21
67.18503993897633
 31
0.0
  0
LINE
  5
5B0D
330
1F
100
AcDbEntity
  8
5
  6
Continuous
 62
     4
100
AcDbLine
 10
232.9675451406188
 20
45.48503990247638
 30
0.0
 11
234.0919007936189
 21
45.48503990247638
 31
0.0
  0
LINE
  5
5B0E
330
1F
100
AcDbEntity
  8
5
  6
Continuous
 62
     4
100
AcDbLine
 10
234.0919007936189
 20
45.48503990247638
 30
0.0
 11
235.9675451406188
 21
45.48503990247638
 31
0.0
  0
LINE
  5
5B0F
330
1F
100
AcDbEntity
  8
5
  6
Continuous
 62
     4
100
AcDbLine
 10
241.8675451406189
 20
45.48503990247638
 30
0.0
 11
235.9675451406188
 21
45.48503990247638
 31
0.0
  0
ARC
  5
5B4B
330
1F
100
AcDbEntity
  8
5
  6
Continuous
 62
     4
100
AcDbCircle
 10
224.5353163567188
 20
83.68503990247637
 30
0.0
 40
8.0
100
AcDbArc
 50
270.0
 51
352.5368470201975
  0
ARC
  5
5B4D
330
1F
100
AcDbEntity
  8
5
  6
Continuous
 62
     4
100
AcDbCircle
 10
238.4447376239188
 20
75.18135642547633
 30
0.0
 40
2.0
100
AcDbArc
 50
120.0929916467
 51
339.9070084126997
  0
ARC
  5
5B4E
102
{ACAD_REACTORS
330
5BF4
102
}
330
1F
100
AcDbEntity
  8
5
  6
Continuous
 62
     4
100
AcDbCircle
 10
231.6675451406188
 20
65.88503990247636
 30
0.0
 40
0.8
100
AcDbArc
 50
0.0
 51
90.0
  0
SPLINE
  5
5B59
330
1F
100
AcDbEntity
  8
5
  6
Continuous
 62
     4
100
AcDbSpline
210
0.0
220
0.0
230
1.0
 70
     8
 71
     3
 72
    29
 73
    25
 74
    23
 42
0.0000000001
 43
0.0000000001
 44
0.0000000001
 12
0.9848077530153435
 22
0.1736481776491486
 32
0.0
 13
0.0000000000000001
 23
1.0
 33
0.0
 40
0.0
 40
0.0
 40
0.0
 40
0.0
 40
0.0506778018440385
 40
0.1013240528504749
 40
0.1518344110732974
 40
0.2022889534602752
 40
0.2527596660823957
 40
0.303182900838978
 40
0.3534559474301443
 40
0.4036934981695454
 40
0.4539813648665214
 40
0.5042490595590811
 40
0.5544124614990276
 40
0.6045839731165778
 40
0.6548546799087845
 40
0.7051382954466952
 40
0.7553693207712965
 40
0.8056514455534113
 40
0.8560774405526341
 40
0.9065418684139345
 40
0.9569926708476637
 40
1.007535906634195
 40
1.058201543649142
 40
1.108901647605024
 40
1.108901647605024
 40
1.108901647605024
 40
1.108901647605024
 10
246.3113912836188
 20
75.55080679577635
 30
0.0
 10
246.3280272476727
 20
75.55374016508884
 30
0.0
 10
246.3611131016541
 20
75.56065792143963
 30
0.0
 10
246.4099298074643
 20
75.57413806220752
 30
0.0
 10
246.4577269878465
 20
75.59065720454154
 30
0.0
 10
246.5043279584663
 20
75.61014654682338
 30
0.0
 10
246.5495736014731
 20
75.63253878334563
 30
0.0
 10
246.5932535711104
 20
75.65772873389768
 30
0.0
 10
246.6351816837155
 20
75.68559731722526
 30
0.0
 10
246.6752214658554
 20
75.71604233849182
 30
0.0
 10
246.7132454847448
 20
75.7489678905221
 30
0.0
 10
246.7490815329642
 20
75.78422707147261
 30
0.0
 10
246.782579184129
 20
75.82166268089401
 30
0.0
 10
246.8136335206239
 20
75.86114999493742
 30
0.0
 10
246.8421389911429
 20
75.90256377451933
 30
0.0
 10
246.8679638952647
 20
75.94572314478535
 30
0.0
 10
246.8909974225303
 20
75.99043871269302
 30
0.0
 10
246.9111667800766
 20
76.0365689795296
 30
0.0
 10
246.9283936648631
 20
76.08395985372734
 30
0.0
 10
246.9425923337764
 20
76.13240294204747
 30
0.0
 10
246.9536995915428
 20
76.18168664066525
 30
0.0
 10
246.9616740765937
 20
76.23164164586339
 30
0.0
 10
246.9664768689007
 20
76.28208210646935
 30
0.0
 10
246.9675451406188
 20
76.31588047742439
 30
0.0
 10
246.9675451406188
 20
76.33278051207634
 30
0.0
 11
246.3113912836188
 21
75.55080679577635
 31
0.0
 11
246.3609961062188
 21
75.56117989437638
 31
0.0
 11
246.4098149873188
 21
75.57466171877631
 31
0.0
 11
246.4575542145188
 21
75.59116209677637
 31
0.0
 11
246.5041015762188
 21
75.61063012097631
 31
0.0
 11
246.5493353652188
 21
75.63301755417637
 31
0.0
 11
246.5930151764188
 21
75.65820835997634
 31
0.0
 11
246.6348829385188
 21
75.68603765587636
 31
0.0
 11
246.6748727294188
 21
75.71644535437639
 31
0.0
 11
246.7128886062188
 21
75.74936438607635
 31
0.0
 11
246.7487202953188
 21
75.78461961527636
 31
0.0
 11
246.7821703946189
 21
75.82200220147638
 31
0.0
 11
246.8131851490188
 21
75.86143905717637
 31
0.0
 11
246.8416878908188
 21
75.90284844827634
 31
0.0
 11
246.8675069363188
 21
75.94599724757637
 31
0.0
 11
246.8905096593189
 21
75.99065181777631
 31
0.0
 11
246.9106537209189
 21
76.03672251187635
 31
0.0
 11
246.9278817846188
 21
76.08411422837633
 31
0.0
 11
246.9420766964188
 21
76.13254111097638
 31
0.0
 11
246.9531697668188
 21
76.18175723897633
 31
0.0
 11
246.9611384569188
 21
76.23166834657637
 31
0.0
 11
246.9659420091188
 21
76.28210575987634
 31
0.0
 11
246.9675451406188
 21
76.33278051207634
 31
0.0
  0
SPLINE
  5
5B5A
330
1F
100
AcDbEntity
  8
5
  6
Continuous
 62
     4
100
AcDbSpline
210
0.0
220
0.0
230
1.0
 70
     8
 71
     3
 72
    35
 73
    31
 74
    29
 42
0.0000000001
 43
0.0000000001
 44
0.0000000001
 12
-0.0000000000000001
 22
-1.0
 32
0.0
 13
0.9848077530149371
 23
0.1736481776514535
 33
0.0
 40
0.0
 40
0.0
 40
0.0
 40
0.0
 40
0.050243274995476
 40
0.1004253385594181
 40
0.1504486838581295
 40
0.2002920353570603
 40
0.2500166934167544
 40
0.299622751331357
 40
0.3491358190699349
 40
0.3985455697515739
 40
0.4478818384262218
 40
0.4971382893661358
 40
0.5463449057550793
 40
0.5955002702369962
 40
0.6446314492788047
 40
0.6937433826181503
 40
0.7428580117719492
 40
0.7919866561720147
 40
0.84114470593233
 40
0.8903491021495776
 40
0.9396080548505818
 40
0.9889425582565749
 40
1.038354484325374
 40
1.087866309482623
 40
1.137474187259762
 40
1.187199430965543
 40
1.237035288316375
 40
1.286998457657261
 40
1.337079391483617
 40
1.387281980487225
 40
1.387281980487225
 40
1.387281980487225
 40
1.387281980487225
 10
237.4425451406188
 20
74.93328628667637
 30
0.0
 10
237.4425451406188
 20
74.91653852834454
 30
0.0
 10
237.4435830025237
 20
74.88305406401959
 30
0.0
 10
237.4482499744967
 20
74.83309119754321
 30
0.0
 10
237.4559939777084
 20
74.78364498075601
 30
0.0
 10
237.4667642695661
 20
74.73492542424171
 30
0.0
 10
237.4805050310538
 20
74.68710351339183
 30
0.0
 10
237.4971581939993
 20
74.64033317310958
 30
0.0
 10
237.5166504974694
 20
74.59478724501102
 30
0.0
 10
237.5389028989267
 20
74.55062497709871
 30
0.0
 10
237.5638227448886
 20
74.50801014627138
 30
0.0
 10
237.5913151475509
 20
74.46708940957234
 30
0.0
 10
237.6212715796893
 20
74.42801244151695
 30
0.0
 10
237.6535822580095
 20
74.39091385782801
 30
0.0
 10
237.6881248582568
 20
74.35592829492015
 30
0.0
 10
237.7247754369146
 20
74.3231780287062
 30
0.0
 10
237.7633997779873
 20
74.29278193472741
 30
0.0
 10
237.8038602002225
 20
74.26484937435768
 30
0.0
 10
237.8460119320501
 20
74.23948307964846
 30
0.0
 10
237.8897039438709
 20
74.2167784030176
 30
0.0
 10
237.9347817912481
 20
74.19682149458113
 30
0.0
 10
237.9810818897952
 20
74.17969202035649
 30
0.0
 10
238.0284407862709
 20
74.1654588523682
 30
0.0
 10
238.0766834144603
 20
74.15418406052584
 30
0.0
 10
238.1256375454304
 20
74.14591820483067
 30
0.0
 10
238.1751186714582
 20
74.14070352477121
 30
0.0
 10
238.2249464973614
 20
74.13857068067719
 30
0.0
 10
238.2749296694689
 20
74.13954017977271
 30
0.0
 10
238.3248761516873
 20
74.1436202281976
 30
0.0
 10
238.3579851600281
 20
74.14840670767842
 30
0.0
 10
238.3744651263189
 20
74.15131257037637
 30
0.0
 11
237.4425451406188
 21
74.93328628667637
 31
0.0
 11
237.4441036104188
 21
74.88306718817637
 31
0.0
 11
237.4487723294188
 21
74.83310277517637
 31
0.0
 11
237.4565141287188
 21
74.78368213557637
 31
0.0
 11
237.4672746918188
 21
74.73501417927639
 31
0.0
 11
237.4810081013188
 21
74.68722364587637
 31
0.0
 11
237.4976490437188
 21
74.64049207177634
 31
0.0
 11
237.5171313415188
 21
74.59497302137634
 31
0.0
 11
237.5393659485188
 21
74.55084881357635
 31
0.0
 11
237.5642716120188
 21
74.50826037227637
 31
0.0
 11
237.5917413338188
 21
74.46737501617633
 31
0.0
 11
237.6216791391188
 21
74.42832352567638
 31
0.0
 11
237.6539632648188
 21
74.39125622087636
 31
0.0
 11
237.6884824441189
 21
74.35629482767637
 31
0.0
 11
237.7251037795188
 21
74.32357083357636
 31
0.0
 11
237.7636999414189
 21
74.29319678077637
 31
0.0
 11
237.8041296258189
 21
74.26528505707636
 31
0.0
 11
237.8462488253188
 21
74.23993773197634
 31
0.0
 11
237.8899096642189
 21
74.21724844477637
 31
0.0
 11
237.9349514617188
 21
74.19730650657635
 31
0.0
 11
237.9812205436188
 21
74.18018735687637
 31
0.0
 11
238.0285412112189
 21
74.16596438757636
 31
0.0
 11
238.0767535303188
 21
74.15469526527636
 31
0.0
 11
238.1256687702188
 21
74.14643446367637
 31
0.0
 11
238.1751199893188
 21
74.14122132727634
 31
0.0
 11
238.2249101844188
 21
74.13908845367638
 31
0.0
 11
238.2748639921188
 21
74.14005560767634
 31
0.0
 11
238.3247787917188
 21
74.14413147737633
 31
0.0
 11
238.3744651263189
 21
74.15131257037637
 31
0.0
  0
SPLINE
  5
5B5B
330
1F
100
AcDbEntity
  8
5
  6
Continuous
 62
     4
100
AcDbSpline
210
0.0
220
0.0
230
1.0
 70
     8
 71
     3
 72
    29
 73
    25
 74
    23
 42
0.0000000001
 43
0.0000000001
 44
0.0000000001
 12
-0.9848077530153435
 22
-0.1736481776491486
 32
0.0
 13
-0.0000000000000001
 23
-1.0
 33
0.0
 40
0.0
 40
0.0
 40
0.0
 40
0.0
 40
0.0506778018235532
 40
0.1013240527336059
 40
0.1518344109890602
 40
0.2022889533373898
 40
0.2527596659594725
 40
0.3031829007162134
 40
0.3534559474459207
 40
0.4036934981247896
 40
0.4539813647461513
 40
0.5042490595100141
 40
0.5544124613832337
 40
0.6045839730008078
 40
0.6548546798754707
 40
0.705138295413301
 40
0.755369320694879
 40
0.8056514454368716
 40
0.8560774404361296
 40
0.9065418683255231
 40
0.9569926707592772
 40
1.007535906545744
 40
1.058201543650801
 40
1.108901647506745
 40
1.108901647506745
 40
1.108901647506745
 40
1.108901647506745
 10
238.0986989975188
 20
83.77462603967638
 30
0.0
 10
238.0820630334716
 20
83.77169267036506
 30
0.0
 10
238.0489771795003
 20
83.76477491416128
 30
0.0
 10
238.0001604737225
 20
83.75129477335212
 30
0.0
 10
237.9523632934366
 20
83.73477563086103
 30
0.0
 10
237.9057623227432
 20
83.71528628876337
 30
0.0
 10
237.8605166797719
 20
83.69289405219253
 30
0.0
 10
237.8168367100746
 20
83.66770410165043
 30
0.0
 10
237.7749085975056
 20
83.63983551822702
 30
0.0
 10
237.7348688152451
 20
83.60939049711411
 30
0.0
 10
237.6968447965017
 20
83.57646494494874
 30
0.0
 10
237.6610087481606
 20
83.5412057641572
 30
0.0
 10
237.6275110971246
 20
83.50377015461422
 30
0.0
 10
237.5964567605769
 20
83.46428284060989
 30
0.0
 10
237.5679512901146
 20
83.42286906095006
 30
0.0
 10
237.5421263860264
 20
83.37970969065748
 30
0.0
 10
237.5190928585367
 20
83.33499412289288
 30
0.0
 10
237.4989235011893
 20
83.28886385599393
 30
0.0
 10
237.4816966163946
 20
83.24147298181179
 30
0.0
 10
237.4674979473302
 20
83.19302989352307
 30
0.0
 10
237.4563906896136
 20
83.14374619488422
 30
0.0
 10
237.4484162044971
 20
83.09379118966408
 30
0.0
 10
237.4436134123858
 20
83.04335072904226
 30
0.0
 10
237.4425451406188
 20
83.00955235809501
 30
0.0
 10
237.4425451406188
 20
82.99265232347636
 30
0.0
 11
238.0986989975188
 21
83.77462603967638
 31
0.0
 11
238.0490941749188
 21
83.76425294117629
 31
0.0
 11
238.0002752939188
 21
83.75077111677638
 31
0.0
 11
237.9525360667188
 21
83.73427073867635
 31
0.0
 11
237.9059887050189
 21
83.71480271457636
 31
0.0
 11
237.8607549160189
 21
83.69241528137639
 31
0.0
 11
237.8170751048188
 21
83.66722447557634
 31
0.0
 11
237.7752073426188
 21
83.63939517957636
 31
0.0
 11
237.7352175517188
 21
83.60898748117637
 31
0.0
 11
237.6972016750189
 21
83.57606844947635
 31
0.0
 11
237.6613699858189
 21
83.54081322027633
 31
0.0
 11
237.6279198866188
 21
83.50343063407638
 31
0.0
 11
237.5969051322188
 21
83.4639937783764
 31
0.0
 11
237.5684023904188
 21
83.42258438717633
 31
0.0
 11
237.5425833449189
 21
83.37943558787634
 31
0.0
 11
237.5195806218188
 21
83.33478101777631
 31
0.0
 11
237.4994365603188
 21
83.28871032367635
 31
0.0
 11
237.4822084966188
 21
83.24131860717637
 31
0.0
 11
237.4680135847189
 21
83.19289172457633
 31
0.0
 11
237.4569205143188
 21
83.14367559657638
 31
0.0
 11
237.4489518242189
 21
83.09376448897637
 31
0.0
 11
237.4441482721188
 21
83.04332707557637
 31
0.0
 11
237.4425451406188
 21
82.99265232347636
 31
0.0
  0
LINE
  5
5B6F
330
1F
100
AcDbEntity
  8
4
  6
CENTER
 62
     2
100
AcDbLine
 10
242.0764876186189
 20
77.46721725679049
 30
0.0
 11
242.0764876186189
 21
81.80487426226648
 31
0.0
  0
ARC
  5
5B91
330
1F
100
AcDbEntity
  8
5
 62
     4
100
AcDbCircle
 10
246.1675763755704
 20
84.38507725280725
 30
0.0
 40
0.800000000000004
100
AcDbArc
 50
0.5063076255065057
 51
99.49369237360386
  0
LINE
  5
5BAF
330
1F
100
AcDbEntity
  8
4
  6
CENTER
 62
     2
100
AcDbLine
 10
244.9482502014975
 20
79.63907901894781
 30
0.0
 11
238.668992100729
 21
79.63907901894781
 31
0.0
  0
LINE
  5
5BB0
330
1F
100
AcDbEntity
  8
4
  6
CENTER
100
AcDbLine
 10
223.4675451406188
 20
77.21115780678577
 30
0.0
 11
223.4675451406188
 21
66.68503990247636
 31
0.0
  0
DIMENSION
  5
5BB3
102
{ACAD_XDICTIONARY
360
5BC0
102
}
102
{ACAD_REACTORS
330
5BCA
102
}
330
1F
100
AcDbEntity
  8
2
 62
     7
100
AcDbDimension
  2
*D3
 10
206.6545297693007
 20
66.68503990247636
 30
0.0
 11
203.9045297693007
 21
75.93505857764184
 31
0.0
 70
    32
 71
     5
 42
18.5000373503309
  3
WINTOOL
100
AcDbAlignedDimension
 13
246.1675763755704
 23
85.18507725280725
 33
0.0
 14
211.9675451755188
 24
66.68503990247636
 34
0.0
 50
90.0
100
AcDbRotatedDimension
1001
ACAD
1000
DSTYLE
1002
{
1070
   341
1005
3FE7
1002
}
  0
DIMENSION
  5
5BDD
102
{ACAD_XDICTIONARY
360
5BEA
102
}
102
{ACAD_REACTORS
330
5BF4
102
}
330
1F
100
AcDbEntity
  8
2
 62
     7
100
AcDbDimension
  2
*D4
 10
232.4675451406188
 20
88.42164728671866
 30
0.0
 11
239.7175451406188
 21
91.17164728671864
 31
0.0
 70
    32
 71
     5
 42
14.5
  3
WINTOOL
100
AcDbAlignedDimension
 13
246.9675451406188
 23
84.38504002837634
 33
0.0
 14
232.4675451406188
 24
65.88503990247636
 34
0.0
100
AcDbRotatedDimension
1001
ACAD
1000
DSTYLE
1002
{
1070
   341
1005
3FE7
1002
}
  0
LINE
  5
5C47
330
1F
100
AcDbEntity
  8
01_AXES
  6
Continuous
 62
     3
100
AcDbLine
 10
246.9675451406188
 20
41.88504002837635
 30
0.0
 11
246.9675451406188
 21
37.16271641777633
 31
0.0
  0
LINE
  5
5C48
330
1F
100
AcDbEntity
  8
7
  6
Continuous
 62
     3
100
AcDbLine
 10
246.9675451406188
 20
41.89214654887638
 30
0.0
 11
246.9675451406188
 21
33.83278051207634
 31
0.0
  0
LINE
  5
5C4A
330
1F
100
AcDbEntity
  8
7
  6
Continuous
 62
     3
100
AcDbLine
 10
246.8675451406189
 20
32.4850399024764
 30
0.0
 11
246.8675451406189
 21
33.19615978167639
 31
0.0
  0
LINE
  5
5C4B
330
1F
100
AcDbEntity
  8
7
  6
Continuous
 62
     3
100
AcDbLine
 10
238.0986989975188
 20
41.27462603967638
 30
0.0
 11
246.0356251549188
 21
42.67412026517638
 31
0.0
  0
LINE
  5
5C4C
330
1F
100
AcDbEntity
  8
7
  6
Continuous
 62
     3
100
AcDbLine
 10
246.7500743637188
 20
33.28613287177637
 30
0.0
 11
246.8675451406189
 21
33.19615978167639
 31
0.0
  0
LINE
  5
5C4D
330
1F
100
AcDbEntity
  8
7
  6
Continuous
 62
     3
100
AcDbLine
 10
237.5835880913188
 20
40.94464649737637
 30
0.0
 11
237.4891147842188
 21
41.03136959397637
 31
0.0
  0
LINE
  5
5C4E
330
1F
100
AcDbEntity
  8
7
  6
Continuous
 62
     3
100
AcDbLine
 10
237.4891147842188
 20
41.03136959397637
 30
0.0
 11
232.4675451406188
 21
40.14593138027635
 31
0.0
  0
LINE
  5
5C4F
330
1F
100
AcDbEntity
  8
7
  6
Continuous
 62
     3
100
AcDbLine
 10
234.0919007936189
 20
39.55959813347636
 30
0.0
 11
232.2960005202188
 21
39.24293246067634
 31
0.0
  0
LINE
  5
5C50
330
1F
100
AcDbEntity
  8
7
  6
Continuous
 62
     3
100
AcDbLine
 10
242.3675451406189
 20
21.36309597528725
 30
0.0
 11
242.3675451406189
 21
27.98503990247639
 31
0.0
  0
LINE
  5
5C51
330
1F
100
AcDbEntity
  8
7
  6
Continuous
 62
     3
100
AcDbLine
 10
246.8675451406189
 20
32.4850399024764
 30
0.0
 11
242.3675451406189
 21
27.98503990247639
 31
0.0
  0
LINE
  5
5C54
330
1F
100
AcDbEntity
  8
7
  6
Continuous
 62
     3
100
AcDbLine
 10
237.4891147842188
 20
41.03136959397637
 30
0.0
 11
237.4891147842188
 21
40.76031672737634
 31
0.0
  0
LINE
  5
5C55
330
1F
100
AcDbEntity
  8
7
  6
Continuous
 62
     3
100
AcDbLine
 10
237.4425451406188
 20
32.43328628667638
 30
0.0
 11
237.4425451406188
 21
40.49265232347635
 31
0.0
  0
LINE
  5
5C56
330
1F
100
AcDbEntity
  8
7
  6
Continuous
 62
     3
100
AcDbLine
 10
235.9675451406188
 20
21.87405785762635
 30
0.0
 11
235.9675451406188
 21
40.76307581277632
 31
0.0
  0
LINE
  5
5C57
330
1F
100
AcDbEntity
  8
7
  6
Continuous
 62
     3
100
AcDbLine
 10
246.8675451406189
 20
33.19615978167639
 30
0.0
 11
246.5669014681188
 21
33.14314819057637
 31
0.0
  0
LINE
  5
5C58
330
1F
100
AcDbEntity
  8
7
  6
Continuous
 62
     3
100
AcDbLine
 10
246.3113912836188
 20
33.05080679577634
 30
0.0
 11
238.3744651263189
 21
31.65131257037638
 31
0.0
  0
LINE
  5
5C59
330
1F
100
AcDbEntity
  8
7
  6
Continuous
 62
     3
100
AcDbLine
 10
234.0919007936189
 20
21.36309597528725
 30
0.0
 11
234.0919007936189
 21
39.55959813347636
 31
0.0
  0
LINE
  5
5C64
330
1F
100
AcDbEntity
  8
7
  6
Continuous
 62
     3
100
AcDbLine
 10
234.0919007936189
 20
39.55959813347636
 30
0.0
 11
235.9675451406188
 21
40.76307581277632
 31
0.0
  0
ARC
  5
5C6D
330
1F
100
AcDbEntity
  8
7
  6
Continuous
 62
     3
100
AcDbCircle
 10
224.5353163567188
 20
41.18503990247638
 30
0.0
 40
8.0
100
AcDbArc
 50
270.0
 51
352.5368470201974
  0
ARC
  5
5C6E
330
1F
100
AcDbEntity
  8
7
  6
Continuous
 62
     3
100
AcDbCircle
 10
238.4447376239188
 20
32.68135642547634
 30
0.0
 40
2.0
100
AcDbArc
 50
120.0929916466999
 51
339.9070084126998
  0
SPLINE
  5
5C70
330
1F
100
AcDbEntity
  8
7
  6
Continuous
 62
     3
100
AcDbSpline
210
0.0
220
0.0
230
1.0
 70
     8
 71
     3
 72
    29
 73
    25
 74
    23
 42
0.0000000001
 43
0.0000000001
 44
0.0000000001
 12
0.9848077530153435
 22
0.1736481776491486
 32
0.0
 13
0.0000000000000001
 23
1.0
 33
0.0
 40
0.0
 40
0.0
 40
0.0
 40
0.0
 40
0.0506778018440414
 40
0.1013240528504816
 40
0.1518344110732994
 40
0.2022889534602882
 40
0.2527596660823961
 40
0.3031829008389856
 40
0.353455947430144
 40
0.4036934981695451
 40
0.4539813648665258
 40
0.5042490595590904
 40
0.5544124614990264
 40
0.6045839731165766
 40
0.6548546799087949
 40
0.7051382954466995
 40
0.7553693207713072
 40
0.8056514455534088
 40
0.8560774405526384
 40
0.9065418684139318
 40
0.9569926708476542
 40
1.0075359066342
 40
1.058201543649146
 40
1.108901647605021
 40
1.108901647605021
 40
1.108901647605021
 40
1.108901647605021
 10
246.3113912836188
 20
33.05080679577634
 30
0.0
 10
246.3280272476727
 20
33.05374016508884
 30
0.0
 10
246.3611131016541
 20
33.06065792143962
 30
0.0
 10
246.4099298074643
 20
33.07413806220755
 30
0.0
 10
246.4577269878466
 20
33.09065720454153
 30
0.0
 10
246.5043279584663
 20
33.11014654682343
 30
0.0
 10
246.5495736014732
 20
33.13253878334565
 30
0.0
 10
246.5932535711104
 20
33.1577287338977
 30
0.0
 10
246.6351816837156
 20
33.18559731722527
 30
0.0
 10
246.6752214658553
 20
33.2160423384918
 30
0.0
 10
246.7132454847449
 20
33.24896789052213
 30
0.0
 10
246.7490815329641
 20
33.28422707147261
 30
0.0
 10
246.782579184129
 20
33.32166268089401
 30
0.0
 10
246.8136335206239
 20
33.36114999493741
 30
0.0
 10
246.842138991143
 20
33.40256377451936
 30
0.0
 10
246.8679638952647
 20
33.44572314478536
 30
0.0
 10
246.8909974225302
 20
33.49043871269304
 30
0.0
 10
246.9111667800768
 20
33.53656897952963
 30
0.0
 10
246.9283936648631
 20
33.58395985372732
 30
0.0
 10
246.9425923337764
 20
33.63240294204748
 30
0.0
 10
246.9536995915428
 20
33.68168664066524
 30
0.0
 10
246.9616740765937
 20
33.73164164586338
 30
0.0
 10
246.9664768689007
 20
33.78208210646937
 30
0.0
 10
246.9675451406188
 20
33.81588047742438
 30
0.0
 10
246.9675451406188
 20
33.83278051207634
 30
0.0
 11
246.3113912836188
 21
33.05080679577634
 31
0.0
 11
246.3609961062188
 21
33.06117989437638
 31
0.0
 11
246.4098149873188
 21
33.07466171877633
 31
0.0
 11
246.4575542145188
 21
33.09116209677637
 31
0.0
 11
246.5041015762188
 21
33.11063012097634
 31
0.0
 11
246.5493353652188
 21
33.13301755417638
 31
0.0
 11
246.5930151764188
 21
33.15820835997636
 31
0.0
 11
246.6348829385188
 21
33.18603765587636
 31
0.0
 11
246.6748727294188
 21
33.21644535437639
 31
0.0
 11
246.7128886062188
 21
33.24936438607636
 31
0.0
 11
246.7487202953188
 21
33.28461961527637
 31
0.0
 11
246.7821703946189
 21
33.32200220147638
 31
0.0
 11
246.8131851490188
 21
33.36143905717637
 31
0.0
 11
246.8416878908188
 21
33.40284844827636
 31
0.0
 11
246.8675069363188
 21
33.44599724757638
 31
0.0
 11
246.8905096593189
 21
33.49065181777632
 31
0.0
 11
246.9106537209189
 21
33.53672251187635
 31
0.0
 11
246.9278817846188
 21
33.58411422837634
 31
0.0
 11
246.9420766964188
 21
33.63254111097638
 31
0.0
 11
246.9531697668188
 21
33.68175723897632
 31
0.0
 11
246.9611384569188
 21
33.73166834657638
 31
0.0
 11
246.9659420091188
 21
33.78210575987635
 31
0.0
 11
246.9675451406188
 21
33.83278051207634
 31
0.0
  0
SPLINE
  5
5C71
330
1F
100
AcDbEntity
  8
7
  6
Continuous
 62
     3
100
AcDbSpline
210
0.0
220
0.0
230
1.0
 70
     8
 71
     3
 72
    35
 73
    31
 74
    29
 42
0.0000000001
 43
0.0000000001
 44
0.0000000001
 12
-0.0000000000000001
 22
-1.0
 32
0.0
 13
0.9848077530149371
 23
0.1736481776514535
 33
0.0
 40
0.0
 40
0.0
 40
0.0
 40
0.0
 40
0.050243274995476
 40
0.1004253385594181
 40
0.1504486838581085
 40
0.20029203535706
 40
0.2500166934167542
 40
0.2996227513313432
 40
0.3491358190699277
 40
0.3985455697515731
 40
0.4478818384262148
 40
0.4971382893661377
 40
0.5463449057550755
 40
0.5955002702369924
 40
0.6446314492788061
 40
0.6937433826181469
 40
0.7428580117719435
 40
0.7919866561720031
 40
0.841144705932322
 40
0.8903491021495744
 40
0.9396080548505757
 40
0.9889425582565651
 40
1.038354484325368
 40
1.087866309482619
 40
1.137474187259757
 40
1.187199430965537
 40
1.237035288316369
 40
1.286998457657255
 40
1.33707939148361
 40
1.387281980487219
 40
1.387281980487219
 40
1.387281980487219
 40
1.387281980487219
 10
237.4425451406188
 20
32.43328628667638
 30
0.0
 10
237.4425451406188
 20
32.41653852834455
 30
0.0
 10
237.4435830025237
 20
32.3830540640196
 30
0.0
 10
237.4482499744967
 20
32.3330911975432
 30
0.0
 10
237.4559939777085
 20
32.28364498075604
 30
0.0
 10
237.4667642695659
 20
32.23492542424171
 30
0.0
 10
237.4805050310539
 20
32.18710351339183
 30
0.0
 10
237.4971581939993
 20
32.1403331731096
 30
0.0
 10
237.5166504974694
 20
32.09478724501103
 30
0.0
 10
237.5389028989265
 20
32.05062497709869
 30
0.0
 10
237.5638227448886
 20
32.00801014627139
 30
0.0
 10
237.591315147551
 20
31.96708940957234
 30
0.0
 10
237.6212715796892
 20
31.92801244151695
 30
0.0
 10
237.6535822580095
 20
31.89091385782802
 30
0.0
 10
237.6881248582569
 20
31.85592829492015
 30
0.0
 10
237.7247754369146
 20
31.82317802870619
 30
0.0
 10
237.7633997779874
 20
31.79278193472744
 30
0.0
 10
237.8038602002225
 20
31.76484937435768
 30
0.0
 10
237.8460119320501
 20
31.73948307964846
 30
0.0
 10
237.889703943871
 20
31.71677840301763
 30
0.0
 10
237.9347817912481
 20
31.69682149458113
 30
0.0
 10
237.9810818897952
 20
31.67969202035655
 30
0.0
 10
238.0284407862708
 20
31.66545885236818
 30
0.0
 10
238.0766834144602
 20
31.65418406052583
 30
0.0
 10
238.1256375454305
 20
31.6459182048307
 30
0.0
 10
238.1751186714581
 20
31.6407035247712
 30
0.0
 10
238.2249464973615
 20
31.63857068067722
 30
0.0
 10
238.2749296694689
 20
31.63954017977269
 30
0.0
 10
238.3248761516873
 20
31.6436202281976
 30
0.0
 10
238.3579851600281
 20
31.64840670767842
 30
0.0
 10
238.3744651263189
 20
31.65131257037638
 30
0.0
 11
237.4425451406188
 21
32.43328628667638
 31
0.0
 11
237.4441036104188
 21
32.38306718817637
 31
0.0
 11
237.4487723294188
 21
32.33310277517637
 31
0.0
 11
237.4565141287188
 21
32.28368213557639
 31
0.0
 11
237.4672746918188
 21
32.23501417927639
 31
0.0
 11
237.4810081013188
 21
32.18722364587637
 31
0.0
 11
237.4976490437188
 21
32.14049207177635
 31
0.0
 11
237.5171313415188
 21
32.09497302137636
 31
0.0
 11
237.5393659485188
 21
32.05084881357635
 31
0.0
 11
237.5642716120188
 21
32.00826037227638
 31
0.0
 11
237.5917413338188
 21
31.96737501617633
 31
0.0
 11
237.6216791391188
 21
31.92832352567638
 31
0.0
 11
237.6539632648188
 21
31.89125622087636
 31
0.0
 11
237.6884824441189
 21
31.85629482767638
 31
0.0
 11
237.7251037795188
 21
31.82357083357636
 31
0.0
 11
237.7636999414189
 21
31.79319678077638
 31
0.0
 11
237.8041296258189
 21
31.76528505707637
 31
0.0
 11
237.8462488253188
 21
31.73993773197635
 31
0.0
 11
237.8899096642189
 21
31.71724844477637
 31
0.0
 11
237.9349514617188
 21
31.69730650657636
 31
0.0
 11
237.9812205436188
 21
31.68018735687639
 31
0.0
 11
238.0285412112189
 21
31.66596438757637
 31
0.0
 11
238.0767535303188
 21
31.65469526527636
 31
0.0
 11
238.1256687702188
 21
31.64643446367637
 31
0.0
 11
238.1751199893188
 21
31.64122132727636
 31
0.0
 11
238.2249101844188
 21
31.63908845367638
 31
0.0
 11
238.2748639921188
 21
31.64005560767634
 31
0.0
 11
238.3247787917188
 21
31.64413147737633
 31
0.0
 11
238.3744651263189
 21
31.65131257037638
 31
0.0
  0
SPLINE
  5
5C72
330
1F
100
AcDbEntity
  8
7
  6
Continuous
 62
     3
100
AcDbSpline
210
0.0
220
0.0
230
1.0
 70
     8
 71
     3
 72
    29
 73
    25
 74
    23
 42
0.0000000001
 43
0.0000000001
 44
0.0000000001
 12
-0.9848077530153435
 22
-0.1736481776491486
 32
0.0
 13
-0.0000000000000001
 23
-1.0
 33
0.0
 40
0.0
 40
0.0
 40
0.0
 40
0.0
 40
0.0506778018235503
 40
0.1013240527336125
 40
0.1518344109890621
 40
0.2022889533373972
 40
0.2527596659594736
 40
0.3031829007162287
 40
0.3534559474459241
 40
0.4036934981247974
 40
0.4539813647461497
 40
0.5042490595100276
 40
0.5544124613832472
 40
0.6045839730008157
 40
0.6548546798754551
 40
0.7051382954132977
 40
0.7553693206948631
 40
0.8056514454368556
 40
0.8560774404361271
 40
0.9065418683255273
 40
0.9569926707592815
 40
1.007535906545755
 40
1.058201543650812
 40
1.108901647506756
 40
1.108901647506756
 40
1.108901647506756
 40
1.108901647506756
 10
238.0986989975188
 20
41.27462603967638
 30
0.0
 10
238.0820630334716
 20
41.27169267036507
 30
0.0
 10
238.0489771795004
 20
41.26477491416132
 30
0.0
 10
238.0001604737224
 20
41.25129477335208
 30
0.0
 10
237.9523632934366
 20
41.23477563086104
 30
0.0
 10
237.9057623227432
 20
41.21528628876335
 30
0.0
 10
237.8605166797719
 20
41.19289405219253
 30
0.0
 10
237.8168367100746
 20
41.1677041016504
 30
0.0
 10
237.7749085975056
 20
41.13983551822701
 30
0.0
 10
237.734868815245
 20
41.10939049711411
 30
0.0
 10
237.6968447965017
 20
41.07646494494874
 30
0.0
 10
237.6610087481605
 20
41.04120576415716
 30
0.0
 10
237.6275110971246
 20
41.0037701546142
 30
0.0
 10
237.5964567605769
 20
40.9642828406099
 30
0.0
 10
237.5679512901146
 20
40.92286906095004
 30
0.0
 10
237.5421263860264
 20
40.87970969065746
 30
0.0
 10
237.5190928585367
 20
40.83499412289289
 30
0.0
 10
237.4989235011894
 20
40.78886385599393
 30
0.0
 10
237.4816966163945
 20
40.74147298181176
 30
0.0
 10
237.4674979473302
 20
40.69302989352306
 30
0.0
 10
237.4563906896135
 20
40.6437461948842
 30
0.0
 10
237.4484162044971
 20
40.59379118966404
 30
0.0
 10
237.4436134123858
 20
40.54335072904226
 30
0.0
 10
237.4425451406188
 20
40.509552358095
 30
0.0
 10
237.4425451406188
 20
40.49265232347635
 30
0.0
 11
238.0986989975188
 21
41.27462603967638
 31
0.0
 11
238.0490941749188
 21
41.26425294117631
 31
0.0
 11
238.0002752939188
 21
41.25077111677636
 31
0.0
 11
237.9525360667188
 21
41.23427073867634
 31
0.0
 11
237.9059887050189
 21
41.21480271457635
 31
0.0
 11
237.8607549160189
 21
41.19241528137638
 31
0.0
 11
237.8170751048188
 21
41.16722447557632
 31
0.0
 11
237.7752073426188
 21
41.13939517957635
 31
0.0
 11
237.7352175517188
 21
41.10898748117636
 31
0.0
 11
237.6972016750189
 21
41.07606844947635
 31
0.0
 11
237.6613699858189
 21
41.04081322027631
 31
0.0
 11
237.6279198866188
 21
41.00343063407636
 31
0.0
 11
237.5969051322188
 21
40.96399377837639
 31
0.0
 11
237.5684023904188
 21
40.92258438717634
 31
0.0
 11
237.5425833449189
 21
40.87943558787634
 31
0.0
 11
237.5195806218188
 21
40.83478101777632
 31
0.0
 11
237.4994365603188
 21
40.78871032367636
 31
0.0
 11
237.4822084966188
 21
40.74131860717637
 31
0.0
 11
237.4680135847189
 21
40.69289172457632
 31
0.0
 11
237.4569205143188
 21
40.64367559657636
 31
0.0
 11
237.4489518242189
 21
40.59376448897636
 31
0.0
 11
237.4441482721188
 21
40.54332707557636
 31
0.0
 11
237.4425451406188
 21
40.49265232347635
 31
0.0
  0
ARC
  5
5C74
330
1F
100
AcDbEntity
  8
7
 62
     3
100
AcDbCircle
 10
246.1675763755704
 20
41.88507725280724
 30
0.0
 40
0.800000000000004
100
AcDbArc
 50
0.5063076255065987
 51
99.49369237360349
  0
DIMENSION
  5
5C7C
330
1F
100
AcDbEntity
  8
2
 62
     7
100
AcDbDimension
  2
*D5
 10
253.4446541769922
 20
85.33844290247634
 30
0.0
 11
253.4446541769922
 21
42.83844290247638
 31
0.0
 70
   160
  1
Cap. Ø 114-205
 71
     5
 42
85.0
  3
WINTOOL
100
AcDbAlignedDimension
 13
246.9675451406188
 23
0.3384429024763449
 33
0.0
 14
246.9675451406188
 24
85.33844290247634
 34
0.0
 50
90.0
100
AcDbRotatedDimension
1001
ACAD
1000
DSTYLE
1002
{
1070
   341
1005
3FE7
1002
}
  0
MTEXT
  5
5CD3
330
1F
100
AcDbEntity
  8
SK6
 62
     5
100
AcDbMText
 10
203.2281010623957
 20
56.25830090093007
 30
0.0
 40
2.5
 41
17.19241635299698
 71
     1
 72
     5
  1
A7256B
 73
     1
 44
1.0
1001
ACAD
1000
MTEXTBEGIN
1070
    73
1070
     1
1070
    44
1040
1.0
1070
    74
1070
     0
1000
MTEXTEND
  0
MTEXT
  5
5CD4
330
1F
100
AcDbEntity
  8
SK6
 62
     5
100
AcDbMText
 10
203.060780777654
 20
50.57103917978941
 30
0.0
 40
2.5
 41
19.74373931397918
 71
     1
 72
     5
  1
02689979
 73
     1
 44
1.0
1001
ACAD
1000
MTEXTBEGIN
1070
    73
1070
     1
1070
    44
1040
1.0
1070
    74
1070
     0
1000
MTEXTEND
  0
POINT
  5
5CE6
330
1F
100
AcDbEntity
  8
5
100
AcDbPoint
 10
173.4221183822506
 20
-8.51061721878807
 30
0.0
  0
POINT
  5
5CE7
330
1F
100
AcDbEntity
  8
5
100
AcDbPoint
 10
313.4221183822507
 20
96.48938278121192
 30
0.0
  0
VIEWPORT
  5
59FA
102
{ACAD_XDICTIONARY
360
5E27
102
}
330
59F3
100
AcDbEntity
 67
     1
  8
0
100
AcDbViewport
 10
142.7797529697417
 20
96.46546413302631
 30
0.0
 40
230.3476309289795
 41
164.1226870368979
 68
     1
 69
     1
 12
142.7797529697417
 22
96.46546413302631
 13
0.0
 23
0.0
 14
10.0
 24
10.0
 15
10.0
 25
10.0
 16
0.0
 26
0.0
 36
1.0
 17
0.0
 27
0.0
 37
0.0
 42
50.0
 43
0.0
 44
0.0
 45
164.1226870368979
 50
0.0
 51
0.0
 72
   100
 90
    32800
  1

281
     0
 71
     1
 74
     0
110
0.0
120
0.0
130
0.0
111
1.0
121
0.0
131
0.0
112
0.0
122
1.0
132
0.0
 79
     0
146
0.0
  0
VIEWPORT
  5
59FC
102
{ACAD_XDICTIONARY
360
5E29
102
}
330
59F3
100
AcDbEntity
 67
     1
  8
- Default
100
AcDbViewport
 10
142.7797529697418
 20
99.74791765213012
 30
0.0
 40
228.447604751587
 41
159.5966682434081
 68
     2
 69
     2
 12
398.5543632245868
 22
298.9609757892988
 13
0.0
 23
0.0
 14
10.0
 24
10.0
 15
10.0
 25
10.0
 16
0.0
 26
0.0
 36
1.0
 17
0.0
 27
0.0
 37
0.0
 42
50.0
 43
0.0
 44
0.0
 45
641.1957259021303
 50
0.0
 51
0.0
 72
  1000
 90
    32864
  1

281
     0
 71
     1
 74
     0
110
316.3512076211408
120
315.8786602293522
130
0.0
111
1.0
121
0.0
131
0.0
112
0.0
122
1.0
132
0.0
 79
     0
146
0.0
  0
ENDSEC
  0
SECTION
  2
OBJECTS
  0
DICTIONARY
  5
C
330
0
100
AcDbDictionary
281
     1
  3
ACAD_2007HEADERVARS_RT
350
5E20
  3
ACAD_COLOR
350
6B
  3
ACAD_GROUP
350
D
  3
ACAD_LAYOUT
350
1A
  3
ACAD_MATERIAL
350
6A
  3
ACAD_MLEADERSTYLE
350
5DD0
  3
ACAD_MLINESTYLE
350
17
  3
ACAD_PLOTSETTINGS
350
19
  3
ACAD_PLOTSTYLENAME
350
E
  3
ACAD_SCALELIST
350
5DAE
  3
ACAD_TABLESTYLE
350
7E
  3
ACAD_VISUALSTYLE
350
5D9D
  3
AcadDim
350
58C6
  3
ACDB_RECOMPOSE_DATA
350
5E1E
  3
AcDbVariableDictionary
350
5E
  3
DWGPROPS
350
5E1F
  0
DICTIONARY
  5
1E47
330
2
100
AcDbDictionary
280
     1
281
     1
  3
ACAD_LAYERFILTERS
360
5D0A
  3
ACAD_LAYERSTATES
360
1E48
  3
ACLYDICTIONARY
360
5D09
  0
DICTIONARY
  5
5DF2
330
10
100
AcDbDictionary
280
     1
281
     1
  3
ADSK_XREC_LAYER_RECONCILED
360
5DF3
  0
DICTIONARY
  5
5DF4
330
1E42
100
AcDbDictionary
280
     1
281
     1
  3
ADSK_XREC_LAYER_RECONCILED
360
5DF5
  0
DICTIONARY
  5
5DF6
330
1E43
100
AcDbDictionary
280
     1
281
     1
  3
ADSK_XREC_LAYER_RECONCILED
360
5DF7
  0
DICTIONARY
  5
5DF8
330
1E44
100
AcDbDictionary
280
     1
281
     1
  3
ADSK_XREC_LAYER_RECONCILED
360
5DF9
  0
DICTIONARY
  5
5DFA
330
3629
100
AcDbDictionary
280
     1
281
     1
  3
ADSK_XREC_LAYER_RECONCILED
360
5DFB
  0
DICTIONARY
  5
5DFC
330
362A
100
AcDbDictionary
280
     1
281
     1
  3
ADSK_XREC_LAYER_RECONCILED
360
5DFD
  0
DICTIONARY
  5
5DFE
330
3783
100
AcDbDictionary
280
     1
281
     1
  3
ADSK_XREC_LAYER_RECONCILED
360
5DFF
  0
DICTIONARY
  5
5E00
330
3784
100
AcDbDictionary
280
     1
281
     1
  3
ADSK_XREC_LAYER_RECONCILED
360
5E01
  0
DICTIONARY
  5
5E02
330
3785
100
AcDbDictionary
280
     1
281
     1
  3
ADSK_XREC_LAYER_RECONCILED
360
5E03
  0
DICTIONARY
  5
5E04
330
39C1
100
AcDbDictionary
280
     1
281
     1
  3
ADSK_XREC_LAYER_RECONCILED
360
5E05
  0
DICTIONARY
  5
5E06
330
39C2
100
AcDbDictionary
280
     1
281
     1
  3
ADSK_XREC_LAYER_RECONCILED
360
5E07
  0
DICTIONARY
  5
5E08
330
3B9E
100
AcDbDictionary
280
     1
281
     1
  3
ADSK_XREC_LAYER_RECONCILED
360
5E09
  0
DICTIONARY
  5
5E0A
330
3BA1
100
AcDbDictionary
280
     1
281
     1
  3
ADSK_XREC_LAYER_RECONCILED
360
5E0B
  0
DICTIONARY
  5
5E0C
330
3BA2
100
AcDbDictionary
280
     1
281
     1
  3
ADSK_XREC_LAYER_RECONCILED
360
5E0D
  0
DICTIONARY
  5
5E0E
330
3BA3
100
AcDbDictionary
280
     1
281
     1
  3
ADSK_XREC_LAYER_RECONCILED
360
5E0F
  0
DICTIONARY
  5
5E10
330
3FEC
100
AcDbDictionary
280
     1
281
     1
  3
ADSK_XREC_LAYER_RECONCILED
360
5E11
  0
DICTIONARY
  5
5E12
330
5A2E
100
AcDbDictionary
280
     1
281
     1
  3
ADSK_XREC_LAYER_RECONCILED
360
5E13
  0
DICTIONARY
  5
5E14
330
5A2F
100
AcDbDictionary
280
     1
281
     1
  3
ADSK_XREC_LAYER_RECONCILED
360
5E15
  0
DICTIONARY
  5
5E16
330
5D06
100
AcDbDictionary
280
     1
281
     1
  3
ADSK_XREC_LAYER_RECONCILED
360
5E17
  0
DICTIONARY
  5
3615
330
1F
100
AcDbDictionary
280
     1
281
     1
  3
ACAD_SORTENTS
360
3616
  0
DICTIONARY
  5
5BC0
330
5BB3
100
AcDbDictionary
280
     1
281
     1
  3
ACAD_DIMASSOC
360
5BCA
  0
DICTIONARY
  5
5BEA
330
5BDD
100
AcDbDictionary
280
     1
281
     1
  3
ACAD_DIMASSOC
360
5BF4
  0
DICTIONARY
  5
5E27
330
59FA
100
AcDbDictionary
280
     1
281
     1
  3
ACAD_XREC_ROUNDTRIP
360
5E28
  0
DICTIONARY
  5
5E29
330
59FC
100
AcDbDictionary
280
     1
281
     1
  3
ACAD_XREC_ROUNDTRIP
360
5E2A
  0
DICTIONARY
  5
5E20
102
{ACAD_REACTORS
330
C
102
}
330
C
100
AcDbDictionary
281
     1
  3
DIMFXL
350
5E21
  3
DIMJOGANG
350
5E22
  0
DICTIONARY
  5
6B
102
{ACAD_REACTORS
330
C
102
}
330
C
100
AcDbDictionary
281
     1
  0
DICTIONARY
  5
D
102
{ACAD_REACTORS
330
C
102
}
330
C
100
AcDbDictionary
281
     1
  0
DICTIONARY
  5
1A
102
{ACAD_REACTORS
330
C
102
}
330
C
100
AcDbDictionary
281
     1
  3
Model
350
22
  3
Présentation1
350
59F4
  0
DICTIONARY
  5
6A
102
{ACAD_REACTORS
330
C
102
}
330
C
100
AcDbDictionary
281
     1
  3
ByBlock
350
5D8D
  3
ByLayer
350
5D85
  3
Global
350
5D95
  0
DICTIONARY
  5
5DD0
102
{ACAD_REACTORS
330
C
102
}
330
C
100
AcDbDictionary
281
     1
  3
Standard
350
5DD1
  0
DICTIONARY
  5
17
102
{ACAD_REACTORS
330
C
102
}
330
C
100
AcDbDictionary
281
     1
  3
Standard
350
18
  0
DICTIONARY
  5
19
102
{ACAD_REACTORS
330
C
102
}
330
C
100
AcDbDictionary
281
     1
  0
ACDBDICTIONARYWDFLT
  5
E
102
{ACAD_REACTORS
330
C
102
}
330
C
100
AcDbDictionary
281
     1
  3
Normal
350
F
100
AcDbDictionaryWithDefault
340
F
  0
DICTIONARY
  5
5DAE
102
{ACAD_REACTORS
330
C
102
}
330
C
100
AcDbDictionary
281
     1
  3
A0
350
5DAF
  3
A1
350
5DB0
  3
A2
350
5DB1
  3
A3
350
5DB2
  3
A4
350
5DB3
  3
A5
350
5DB4
  3
A6
350
5DB5
  3
A7
350
5DB6
  3
A8
350
5DB7
  3
A9
350
5DB8
  3
B0
350
5DB9
  3
B1
350
5DBA
  3
B2
350
5DBB
  3
B3
350
5DBC
  3
B4
350
5DBD
  3
B5
350
5DBE
  3
B6
350
5DBF
  3
B7
350
5DC0
  3
B8
350
5DC1
  3
B9
350
5DC2
  3
C0
350
5DC3
  3
C1
350
5DC4
  3
C2
350
5DC5
  3
C3
350
5DC6
  3
C4
350
5DC7
  3
C5
350
5DC8
  3
C6
350
5DC9
  3
C7
350
5DCA
  3
C8
350
5DCB
  3
C9
350
5DCC
  3
D0
350
5DCD
  3
D1
350
5DCE
  3
D2
350
5DCF
  0
DICTIONARY
  5
7E
102
{ACAD_REACTORS
330
C
102
}
330
C
100
AcDbDictionary
281
     1
  3
Standard
350
7F
  0
DICTIONARY
  5
5D9D
102
{ACAD_REACTORS
330
C
102
}
330
C
100
AcDbDictionary
281
     1
  3
2dWireframe
350
5DA3
  3
3D Hidden
350
5DA5
  3
3dWireframe
350
5DA4
  3
Basic
350
5DA2
  3
Brighten
350
5DA9
  3
ColorChange
350
5DAD
  3
Conceptual
350
5DA6
  3
Dim
350
5DA8
  3
Facepattern
350
5DAC
  3
Flat
350
5D9E
  3
FlatWithEdges
350
5D9F
  3
Gouraud
350
5DA0
  3
GouraudWithEdges
350
5DA1
  3
Linepattern
350
5DAB
  3
Realistic
350
5DA7
  3
Thicken
350
5DAA
  0
XRECORD
  5
58C6
102
{ACAD_REACTORS
330
C
102
}
330
C
100
AcDbXrecord
280
     1
 90
   990106
  3

 60
     3
 61
     0
 62
     1
 63
     3
 64
     0
 65
     0
 66
     0
 67
     3
 68
     1
 69
     0
 70
     0
 71
     0
 72
     0
 40
0.0
170
     0
  0
XRECORD
  5
5E1E
102
{ACAD_REACTORS
330
C
102
}
330
C
100
AcDbXrecord
280
     1
 90
        1
330
7F
  0
DICTIONARY
  5
5E
102
{ACAD_REACTORS
330
C
102
}
330
C
100
AcDbDictionary
281
     1
  3
CANNOSCALE
350
5E19
  3
CMLEADERSTYLE
350
5E18
  3
CTABLESTYLE
350
84
  3
DIMASSOC
350
5F
  3
HIDETEXT
350
63
  3
INDEXCTL
350
5E1B
  3
PROJECTNAME
350
5B5D
  3
SORTENTS
350
5E1A
  0
XRECORD
  5
5E1F
102
{ACAD_REACTORS
330
C
102
}
330
C
100
AcDbXrecord
280
     1
  1
DWGPROPS COOKIE
  2

  3

  4

  6

  7

  8
sefagings
  9

300
=
301
=
302
=
303
=
304
=
305
=
306
=
307
=
308
=
309
=
 40
0.1075273148148148
 41
2455022.532455602
 42
2455131.641268067
  1

 90
        0
  0
DICTIONARY
  5
5D0A
102
{ACAD_REACTORS
330
1E47
102
}
330
1E47
100
AcDbDictionary
281
     1
  0
DICTIONARY
  5
1E48
102
{ACAD_REACTORS
330
1E47
102
}
330
1E47
100
AcDbDictionary
281
     1
  0
DICTIONARY
  5
5D09
102
{ACAD_REACTORS
330
1E47
102
}
330
1E47
100
AcDbDictionary
281
     1
1001
ACAD
1000
<All
  0
XRECORD
  5
5DF3
102
{ACAD_REACTORS
330
5DF2
102
}
330
5DF2
100
AcDbXrecord
280
     1
290
     1
  0
XRECORD
  5
5DF5
102
{ACAD_REACTORS
330
5DF4
102
}
330
5DF4
100
AcDbXrecord
280
     1
290
     1
  0
XRECORD
  5
5DF7
102
{ACAD_REACTORS
330
5DF6
102
}
330
5DF6
100
AcDbXrecord
280
     1
290
     1
  0
XRECORD
  5
5DF9
102
{ACAD_REACTORS
330
5DF8
102
}
330
5DF8
100
AcDbXrecord
280
     1
290
     1
  0
XRECORD
  5
5DFB
102
{ACAD_REACTORS
330
5DFA
102
}
330
5DFA
100
AcDbXrecord
280
     1
290
     1
  0
XRECORD
  5
5DFD
102
{ACAD_REACTORS
330
5DFC
102
}
330
5DFC
100
AcDbXrecord
280
     1
290
     1
  0
XRECORD
  5
5DFF
102
{ACAD_REACTORS
330
5DFE
102
}
330
5DFE
100
AcDbXrecord
280
     1
290
     1
  0
XRECORD
  5
5E01
102
{ACAD_REACTORS
330
5E00
102
}
330
5E00
100
AcDbXrecord
280
     1
290
     1
  0
XRECORD
  5
5E03
102
{ACAD_REACTORS
330
5E02
102
}
330
5E02
100
AcDbXrecord
280
     1
290
     1
  0
XRECORD
  5
5E05
102
{ACAD_REACTORS
330
5E04
102
}
330
5E04
100
AcDbXrecord
280
     1
290
     1
  0
XRECORD
  5
5E07
102
{ACAD_REACTORS
330
5E06
102
}
330
5E06
100
AcDbXrecord
280
     1
290
     1
  0
XRECORD
  5
5E09
102
{ACAD_REACTORS
330
5E08
102
}
330
5E08
100
AcDbXrecord
280
     1
290
     1
  0
XRECORD
  5
5E0B
102
{ACAD_REACTORS
330
5E0A
102
}
330
5E0A
100
AcDbXrecord
280
     1
290
     1
  0
XRECORD
  5
5E0D
102
{ACAD_REACTORS
330
5E0C
102
}
330
5E0C
100
AcDbXrecord
280
     1
290
     1
  0
XRECORD
  5
5E0F
102
{ACAD_REACTORS
330
5E0E
102
}
330
5E0E
100
AcDbXrecord
280
     1
290
     1
  0
XRECORD
  5
5E11
102
{ACAD_REACTORS
330
5E10
102
}
330
5E10
100
AcDbXrecord
280
     1
290
     1
  0
XRECORD
  5
5E13
102
{ACAD_REACTORS
330
5E12
102
}
330
5E12
100
AcDbXrecord
280
     1
290
     1
  0
XRECORD
  5
5E15
102
{ACAD_REACTORS
330
5E14
102
}
330
5E14
100
AcDbXrecord
280
     1
290
     1
  0
XRECORD
  5
5E17
102
{ACAD_REACTORS
330
5E16
102
}
330
5E16
100
AcDbXrecord
280
     1
290
     1
  0
SORTENTSTABLE
  5
3616
102
{ACAD_REACTORS
330
3615
102
}
330
3615
100
AcDbSortentsTable
330
1F
331
5C51
  5
5C54
331
5ADF
  5
5AE2
331
5B04
  5
5B07
331
5B08
  5
5B0E
331
5BB0
  5
5B06
331
5B4D
  5
5B5A
331
5AEC
  5
5AED
331
5B59
  5
5B5C
331
5BDD
  5
5C47
331
5B05
  5
5B08
331
5AD4
  5
5AD8
331
5B5A
  5
5B71
331
5AED
  5
5AF0
331
5B4E
  5
5B5B
331
5B91
  5
5BB0
331
5B06
  5
5B0B
331
5C47
  5
5C48
331
5B6F
  5
5BAF
331
5AE2
  5
5AE4
331
5C54
  5
5C55
331
5B5B
  5
5B91
331
5B0B
  5
5B0F
331
5C48
  5
5C4A
331
5B07
  5
5B0D
331
5ACA
  5
5ACA
331
5C6D
  5
5C6E
331
5BB3
  5
5BDD
331
5C55
  5
5C56
331
5C6E
  5
5C70
331
5AF0
  5
5AF2
331
5AE4
  5
5AE7
331
5C56
  5
5C57
331
5B0D
  5
5B4A
331
5C4A
  5
5C4B
331
5CD3
  5
5CD4
331
5AD8
  5
5ADE
331
5AFD
  5
5AFE
331
5C57
  5
5C58
331
5B0E
  5
5B4D
331
5CD4
  5
5CDF
331
5C4B
  5
5C4C
331
5C70
  5
5C71
331
5AFE
  5
5AFF
331
5C64
  5
5C6D
331
5AF2
  5
5AF3
331
5C58
  5
5C59
331
5B0F
  5
5B4E
331
5C4C
  5
5C4D
331
5C71
  5
5C72
331
5AFF
  5
5B01
331
5ACE
  5
5ACF
331
5AF3
  5
5AF4
331
5C59
  5
5C64
331
5AE7
  5
5AE8
331
5C7C
  5
5CD3
331
5C4D
  5
5C4E
331
5C72
  5
5C73
331
5AF4
  5
5AF5
331
5AE8
  5
5AE9
331
5C4E
  5
5C4F
331
5B01
  5
5B02
331
5AD0
  5
5AD4
331
5AF5
  5
5AF6
331
5C4F
  5
5C50
331
5AE9
  5
5AEA
331
5B02
  5
5B03
331
5C74
  5
5C75
331
5AF6
  5
5AFD
331
5AEA
  5
5AEC
331
5B4B
  5
5B59
331
5C50
  5
5C51
331
5BAF
  5
5BB1
331
5ADE
  5
5ADF
331
5B03
  5
5B05
  0
DIMASSOC
  5
5BCA
102
{ACAD_REACTORS
330
5BC0
102
}
330
5BC0
100
AcDbDimAssoc
330
5BB3
 90
        2
 70
     0
 71
     0
  1
AcDbOsnapPointRef
 72
    13
331
5B07
 73
     2
 91
        0
 40
0.0
 10
0.0
 20
0.0
 30
2.000000000000000E+50
 75
     0
  0
DIMASSOC
  5
5BF4
102
{ACAD_REACTORS
330
5BEA
102
}
330
5BEA
100
AcDbDimAssoc
330
5BDD
 90
        2
 70
     0
 71
     0
  1
AcDbOsnapPointRef
 72
    13
331
5B4E
 73
     2
 91
        0
 40
0.0
 10
0.0
 20
0.0
 30
2.000000000000000E+50
 75
     0
  0
XRECORD
  5
5E28
102
{ACAD_REACTORS
330
5E27
102
}
330
5E27
100
AcDbXrecord
280
     1
102
SHADEPLOT
 70
     0
  0
XRECORD
  5
5E2A
102
{ACAD_REACTORS
330
5E29
102
}
330
5E29
100
AcDbXrecord
280
     1
102
SHADEPLOT
 70
     0
  0
XRECORD
  5
5E21
102
{ACAD_REACTORS
330
5E20
102
}
330
5E20
100
AcDbXrecord
280
     1
 40
1.25
  0
XRECORD
  5
5E22
102
{ACAD_REACTORS
330
5E20
102
}
330
5E20
100
AcDbXrecord
280
     1
 40
1.570796326794896
  0
LAYOUT
  5
22
102
{ACAD_XDICTIONARY
360
5E23
102
}
102
{ACAD_REACTORS
330
1A
102
}
330
1A
100
AcDbPlotSettings
  1

  2
none_device
  4
ISO_A4_(210.00_x_297.00_MM)
  6

 40
7.5
 41
20.0
 42
7.5
 43
20.0
 44
210.0
 45
297.0
 46
11.54999923706054
 47
-13.65000009536743
 48
0.0
 49
0.0
140
0.0
141
0.0
142
1.0
143
8.704084754739808
 70
 11952
 72
     1
 73
     0
 74
     0
  7

 75
     0
147
0.1148885871608098
148
0.0
149
0.0
100
AcDbLayout
  1
Model
 70
     1
 71
     0
 10
0.0
 20
0.0
 11
12.0
 21
9.0
 12
0.0
 22
0.0
 32
0.0
 14
0.0
 24
0.0
 34
0.0
 15
0.0
 25
0.0
 35
0.0
146
0.0
 13
0.0
 23
0.0
 33
0.0
 16
1.0
 26
0.0
 36
0.0
 17
0.0
 27
1.0
 37
0.0
 76
     0
330
1F
331
5D76
1001
ACAD_PSEXT
1000
None
1000
None
1000
Not applicable
1000
The layout will not be plotted unless a new plotter configuration name is selected.
1070
     0
  0
LAYOUT
  5
59F4
102
{ACAD_XDICTIONARY
360
5A01
102
}
102
{ACAD_REACTORS
330
1A
102
}
330
1A
100
AcDbPlotSettings
  1

  2
HP LaserJet 4250 PS
  4
A4
  6

 40
5.027083396911621
 41
6.127749919891357
 42
5.365737915039061
 43
5.365753173828125
 44
209.8886566162109
 45
297.0530090332031
 46
0.0
 47
0.0
 48
0.0
 49
0.0
140
0.0
141
0.0
142
1.0
143
1.0
 70
   688
 72
     1
 73
     1
 74
     5
  7

 75
    16
147
1.0
148
0.0
149
0.0
100
AcDbLayout
  1
Présentation1
 70
     1
 71
     1
 10
-5.365753173828125
 20
-5.027083396911621
 11
291.687255859375
 21
204.8615732192993
 12
0.0
 22
0.0
 32
0.0
 14
28.55595059394835
 24
19.94958353042602
 34
0.0
 15
257.0035553455353
 25
179.5462517738342
 35
0.0
146
0.0
 13
0.0
 23
0.0
 33
0.0
 16
1.0
 26
0.0
 36
0.0
 17
0.0
 27
1.0
 37
0.0
 76
     0
330
59F3
331
59FA
1001
ACAD_PSEXT
1000
HP LaserJet 4250 PS
1000
HP LaserJet 4250 PS
1000
IP_172.17.109.77
1000

1070
     0
  0
MATERIAL
  5
5D8D
102
{ACAD_XDICTIONARY
360
5D8E
102
}
102
{ACAD_REACTORS
330
6A
102
}
330
6A
100
AcDbMaterial
  1
ByBlock
 72
     0
 43
0.0008202099737533
 43
0.0
 43
0.0
 43
0.0
 43
0.0
 43
0.0008202099737533
 43
0.0
 43
0.0
 43
0.0
 43
0.0
 43
1.0
 43
0.0
 43
0.0
 43
0.0
 43
0.0
 43
1.0
 77
     0
 47
0.0008202099737533
 47
0.0
 47
0.0
 47
0.0
 47
0.0
 47
0.0008202099737533
 47
0.0
 47
0.0
 47
0.0
 47
0.0
 47
1.0
 47
0.0
 47
0.0
 47
0.0
 47
0.0
 47
1.0
171
     0
 49
0.0008202099737533
 49
0.0
 49
0.0
 49
0.0
 49
0.0
 49
0.0008202099737533
 49
0.0
 49
0.0
 49
0.0
 49
0.0
 49
1.0
 49
0.0
 49
0.0
 49
0.0
 49
0.0
 49
1.0
175
     0
142
0.0008202099737533
142
0.0
142
0.0
142
0.0
142
0.0
142
0.0008202099737533
142
0.0
142
0.0
142
0.0
142
0.0
142
1.0
142
0.0
142
0.0
142
0.0
142
0.0
142
1.0
179
     0
144
0.0008202099737533
144
0.0
144
0.0
144
0.0
144
0.0
144
0.0008202099737533
144
0.0
144
0.0
144
0.0
144
0.0
144
1.0
144
0.0
144
0.0
144
0.0
144
0.0
144
1.0
147
0.0008202099737533
147
0.0
147
0.0
147
0.0
147
0.0
147
0.0008202099737533
147
0.0
147
0.0
147
0.0
147
0.0
147
1.0
147
0.0
147
0.0
147
0.0
147
0.0
147
1.0
  0
MATERIAL
  5
5D85
102
{ACAD_XDICTIONARY
360
5D86
102
}
102
{ACAD_REACTORS
330
6A
102
}
330
6A
100
AcDbMaterial
  1
ByLayer
 72
     0
 43
0.0008202099737533
 43
0.0
 43
0.0
 43
0.0
 43
0.0
 43
0.0008202099737533
 43
0.0
 43
0.0
 43
0.0
 43
0.0
 43
1.0
 43
0.0
 43
0.0
 43
0.0
 43
0.0
 43
1.0
 77
     0
 47
0.0008202099737533
 47
0.0
 47
0.0
 47
0.0
 47
0.0
 47
0.0008202099737533
 47
0.0
 47
0.0
 47
0.0
 47
0.0
 47
1.0
 47
0.0
 47
0.0
 47
0.0
 47
0.0
 47
1.0
171
     0
 49
0.0008202099737533
 49
0.0
 49
0.0
 49
0.0
 49
0.0
 49
0.0008202099737533
 49
0.0
 49
0.0
 49
0.0
 49
0.0
 49
1.0
 49
0.0
 49
0.0
 49
0.0
 49
0.0
 49
1.0
175
     0
142
0.0008202099737533
142
0.0
142
0.0
142
0.0
142
0.0
142
0.0008202099737533
142
0.0
142
0.0
142
0.0
142
0.0
142
1.0
142
0.0
142
0.0
142
0.0
142
0.0
142
1.0
179
     0
144
0.0008202099737533
144
0.0
144
0.0
144
0.0
144
0.0
144
0.0008202099737533
144
0.0
144
0.0
144
0.0
144
0.0
144
1.0
144
0.0
144
0.0
144
0.0
144
0.0
144
1.0
147
0.0008202099737533
147
0.0
147
0.0
147
0.0
147
0.0
147
0.0008202099737533
147
0.0
147
0.0
147
0.0
147
0.0
147
1.0
147
0.0
147
0.0
147
0.0
147
0.0
147
1.0
  0
MATERIAL
  5
5D95
102
{ACAD_XDICTIONARY
360
5D96
102
}
102
{ACAD_REACTORS
330
6A
102
}
330
6A
100
AcDbMaterial
  1
Global
 72
     0
 43
0.0008202099737533
 43
0.0
 43
0.0
 43
0.0
 43
0.0
 43
0.0008202099737533
 43
0.0
 43
0.0
 43
0.0
 43
0.0
 43
1.0
 43
0.0
 43
0.0
 43
0.0
 43
0.0
 43
1.0
 77
     0
 47
0.0008202099737533
 47
0.0
 47
0.0
 47
0.0
 47
0.0
 47
0.0008202099737533
 47
0.0
 47
0.0
 47
0.0
 47
0.0
 47
1.0
 47
0.0
 47
0.0
 47
0.0
 47
0.0
 47
1.0
171
     0
 49
0.0008202099737533
 49
0.0
 49
0.0
 49
0.0
 49
0.0
 49
0.0008202099737533
 49
0.0
 49
0.0
 49
0.0
 49
0.0
 49
1.0
 49
0.0
 49
0.0
 49
0.0
 49
0.0
 49
1.0
175
     0
142
0.0008202099737533
142
0.0
142
0.0
142
0.0
142
0.0
142
0.0008202099737533
142
0.0
142
0.0
142
0.0
142
0.0
142
1.0
142
0.0
142
0.0
142
0.0
142
0.0
142
1.0
179
     0
144
0.0008202099737533
144
0.0
144
0.0
144
0.0
144
0.0
144
0.0008202099737533
144
0.0
144
0.0
144
0.0
144
0.0
144
1.0
144
0.0
144
0.0
144
0.0
144
0.0
144
1.0
147
0.0008202099737533
147
0.0
147
0.0
147
0.0
147
0.0
147
0.0008202099737533
147
0.0
147
0.0
147
0.0
147
0.0
147
1.0
147
0.0
147
0.0
147
0.0
147
0.0
147
1.0
  0
MLEADERSTYLE
  5
5DD1
102
{ACAD_REACTORS
330
5DD0
102
}
330
5DD0
100
AcDbMLeaderStyle
170
     2
171
     1
172
     0
 90
        2
 40
0.0
 41
0.0
173
     1
 91
-1056964608
340
14
 92
       -2
290
     1
 42
2.0
291
     1
 43
0.36
  3
Standard
 44
4.0
300

342
11
174
     1
178
     6
175
     1
176
     0
 93
-1056964608
 45
4.0
292
     0
297
     0
 46
4.0
 94
-1056964608
 47
1.0
 49
1.0
140
1.0
293
     1
141
0.0
294
     1
177
     0
142
1.0
295
     0
296
     0
143
0.125
1001
ACAD_MLEADERVER
1070
     2
  0
MLINESTYLE
  5
18
102
{ACAD_REACTORS
330
17
102
}
330
17
100
AcDbMlineStyle
  2
STANDARD
 70
     0
  3

 62
   256
 51
90.0
 52
90.0
 71
     2
 49
0.5
 62
   256
  6
BYLAYER
 49
-0.5
 62
   256
  6
BYLAYER
  0
ACDBPLACEHOLDER
  5
F
102
{ACAD_REACTORS
330
E
102
}
330
E
  0
SCALE
  5
5DAF
102
{ACAD_REACTORS
330
5DAE
102
}
330
5DAE
100
AcDbScale
 70
     0
300
1:1
140
1.0
141
1.0
290
     1
  0
SCALE
  5
5DB0
102
{ACAD_REACTORS
330
5DAE
102
}
330
5DAE
100
AcDbScale
 70
     0
300
1:2
140
1.0
141
2.0
290
     0
  0
SCALE
  5
5DB1
102
{ACAD_REACTORS
330
5DAE
102
}
330
5DAE
100
AcDbScale
 70
     0
300
1:4
140
1.0
141
4.0
290
     0
  0
SCALE
  5
5DB2
102
{ACAD_REACTORS
330
5DAE
102
}
330
5DAE
100
AcDbScale
 70
     0
300
1:5
140
1.0
141
5.0
290
     0
  0
SCALE
  5
5DB3
102
{ACAD_REACTORS
330
5DAE
102
}
330
5DAE
100
AcDbScale
 70
     0
300
1:8
140
1.0
141
8.0
290
     0
  0
SCALE
  5
5DB4
102
{ACAD_REACTORS
330
5DAE
102
}
330
5DAE
100
AcDbScale
 70
     0
300
1:10
140
1.0
141
10.0
290
     0
  0
SCALE
  5
5DB5
102
{ACAD_REACTORS
330
5DAE
102
}
330
5DAE
100
AcDbScale
 70
     0
300
1:16
140
1.0
141
16.0
290
     0
  0
SCALE
  5
5DB6
102
{ACAD_REACTORS
330
5DAE
102
}
330
5DAE
100
AcDbScale
 70
     0
300
1:20
140
1.0
141
20.0
290
     0
  0
SCALE
  5
5DB7
102
{ACAD_REACTORS
330
5DAE
102
}
330
5DAE
100
AcDbScale
 70
     0
300
1:30
140
1.0
141
30.0
290
     0
  0
SCALE
  5
5DB8
102
{ACAD_REACTORS
330
5DAE
102
}
330
5DAE
100
AcDbScale
 70
     0
300
1:40
140
1.0
141
40.0
290
     0
  0
SCALE
  5
5DB9
102
{ACAD_REACTORS
330
5DAE
102
}
330
5DAE
100
AcDbScale
 70
     0
300
1:50
140
1.0
141
50.0
290
     0
  0
SCALE
  5
5DBA
102
{ACAD_REACTORS
330
5DAE
102
}
330
5DAE
100
AcDbScale
 70
     0
300
1:100
140
1.0
141
100.0
290
     0
  0
SCALE
  5
5DBB
102
{ACAD_REACTORS
330
5DAE
102
}
330
5DAE
100
AcDbScale
 70
     0
300
2:1
140
2.0
141
1.0
290
     0
  0
SCALE
  5
5DBC
102
{ACAD_REACTORS
330
5DAE
102
}
330
5DAE
100
AcDbScale
 70
     0
300
4:1
140
4.0
141
1.0
290
     0
  0
SCALE
  5
5DBD
102
{ACAD_REACTORS
330
5DAE
102
}
330
5DAE
100
AcDbScale
 70
     0
300
8:1
140
8.0
141
1.0
290
     0
  0
SCALE
  5
5DBE
102
{ACAD_REACTORS
330
5DAE
102
}
330
5DAE
100
AcDbScale
 70
     0
300
10:1
140
10.0
141
1.0
290
     0
  0
SCALE
  5
5DBF
102
{ACAD_REACTORS
330
5DAE
102
}
330
5DAE
100
AcDbScale
 70
     0
300
100:1
140
100.0
141
1.0
290
     0
  0
SCALE
  5
5DC0
102
{ACAD_REACTORS
330
5DAE
102
}
330
5DAE
100
AcDbScale
 70
     0
300
1/128" = 1'-0"
140
0.0078125
141
12.0
290
     0
  0
SCALE
  5
5DC1
102
{ACAD_REACTORS
330
5DAE
102
}
330
5DAE
100
AcDbScale
 70
     0
300
1/64" = 1'-0"
140
0.015625
141
12.0
290
     0
  0
SCALE
  5
5DC2
102
{ACAD_REACTORS
330
5DAE
102
}
330
5DAE
100
AcDbScale
 70
     0
300
1/32" = 1'-0"
140
0.03125
141
12.0
290
     0
  0
SCALE
  5
5DC3
102
{ACAD_REACTORS
330
5DAE
102
}
330
5DAE
100
AcDbScale
 70
     0
300
1/16" = 1'-0"
140
0.0625
141
12.0
290
     0
  0
SCALE
  5
5DC4
102
{ACAD_REACTORS
330
5DAE
102
}
330
5DAE
100
AcDbScale
 70
     0
300
3/32" = 1'-0"
140
0.09375
141
12.0
290
     0
  0
SCALE
  5
5DC5
102
{ACAD_REACTORS
330
5DAE
102
}
330
5DAE
100
AcDbScale
 70
     0
300
1/8" = 1'-0"
140
0.125
141
12.0
290
     0
  0
SCALE
  5
5DC6
102
{ACAD_REACTORS
330
5DAE
102
}
330
5DAE
100
AcDbScale
 70
     0
300
3/16" = 1'-0"
140
0.1875
141
12.0
290
     0
  0
SCALE
  5
5DC7
102
{ACAD_REACTORS
330
5DAE
102
}
330
5DAE
100
AcDbScale
 70
     0
300
1/4" = 1'-0"
140
0.25
141
12.0
290
     0
  0
SCALE
  5
5DC8
102
{ACAD_REACTORS
330
5DAE
102
}
330
5DAE
100
AcDbScale
 70
     0
300
3/8" = 1'-0"
140
0.375
141
12.0
290
     0
  0
SCALE
  5
5DC9
102
{ACAD_REACTORS
330
5DAE
102
}
330
5DAE
100
AcDbScale
 70
     0
300
1/2" = 1'-0"
140
0.5
141
12.0
290
     0
  0
SCALE
  5
5DCA
102
{ACAD_REACTORS
330
5DAE
102
}
330
5DAE
100
AcDbScale
 70
     0
300
3/4" = 1'-0"
140
0.75
141
12.0
290
     0
  0
SCALE
  5
5DCB
102
{ACAD_REACTORS
330
5DAE
102
}
330
5DAE
100
AcDbScale
 70
     0
300
1" = 1'-0"
140
1.0
141
12.0
290
     0
  0
SCALE
  5
5DCC
102
{ACAD_REACTORS
330
5DAE
102
}
330
5DAE
100
AcDbScale
 70
     0
300
1-1/2" = 1'-0"
140
1.5
141
12.0
290
     0
  0
SCALE
  5
5DCD
102
{ACAD_REACTORS
330
5DAE
102
}
330
5DAE
100
AcDbScale
 70
     0
300
3" = 1'-0"
140
3.0
141
12.0
290
     0
  0
SCALE
  5
5DCE
102
{ACAD_REACTORS
330
5DAE
102
}
330
5DAE
100
AcDbScale
 70
     0
300
6" = 1'-0"
140
6.0
141
12.0
290
     0
  0
SCALE
  5
5DCF
102
{ACAD_REACTORS
330
5DAE
102
}
330
5DAE
100
AcDbScale
 70
     0
300
1'-0" = 1'-0"
140
12.0
141
12.0
290
     0
  0
TABLESTYLE
  5
7F
102
{ACAD_XDICTIONARY
360
5E1C
102
}
102
{ACAD_REACTORS
330
7E
102
}
330
7E
100
AcDbTableStyle
  3
Standard
 70
     0
 71
     0
 40
1.5
 41
1.5
280
     0
281
     0
  7
Standard
140
4.5
170
     2
 62
     0
 63
     7
283
     0
274
    -2
284
     1
 64
     0
275
    -2
285
     1
 65
     0
276
    -2
286
     1
 66
     0
277
    -2
287
     1
 67
     0
278
    -2
288
     1
 68
     0
279
    -2
289
     1
 69
     0
  7
Standard
140
6.0
170
     5
 62
     0
 63
     7
283
     0
274
    -2
284
     1
 64
     0
275
    -2
285
     1
 65
     0
276
    -2
286
     1
 66
     0
277
    -2
287
     1
 67
     0
278
    -2
288
     1
 68
     0
279
    -2
289
     1
 69
     0
  7
Standard
140
4.5
170
     5
 62
     0
 63
     7
283
     0
274
    -2
284
     1
 64
     0
275
    -2
285
     1
 65
     0
276
    -2
286
     1
 66
     0
277
    -2
287
     1
 67
     0
278
    -2
288
     1
 68
     0
279
    -2
289
     1
 69
     0
  0
VISUALSTYLE
  5
5DA3
102
{ACAD_REACTORS
330
5D9D
102
}
330
5D9D
100
AcDbVisualStyle
  2
2dWireframe
 70
     4
 71
     0
 72
     2
 73
     0
 90
        0
 40
-0.6
 41
-30.0
 62
     5
 63
     7
 74
     1
 91
        4
 64
     7
 65
   257
 75
     1
175
     1
 42
1.0
 92
        0
 66
   257
 43
1.0
 76
     1
 77
     6
 78
     2
 67
     7
 79
     5
170
     0
171
     0
290
     0
174
     0
 93
        1
 44
0.0
173
     0
291
     0
 45
0.0
1001
ACAD
1000
AcDbSavedByObjectVersion
1070
     0
  0
VISUALSTYLE
  5
5DA5
102
{ACAD_REACTORS
330
5D9D
102
}
330
5D9D
100
AcDbVisualStyle
  2
3D Hidden
 70
     6
 71
     1
 72
     2
 73
     2
 90
        0
 40
-0.6
 41
-30.0
 62
     5
 63
     7
 74
     2
 91
        2
 64
     7
 65
   257
 75
     2
175
     1
 42
40.0
 92
        0
 66
   257
 43
1.0
 76
     1
 77
     6
 78
     2
 67
     7
 79
     3
170
     0
171
     0
290
     0
174
     0
 93
        1
 44
0.0
173
     0
291
     0
 45
0.0
1001
ACAD
1000
AcDbSavedByObjectVersion
1070
     0
  0
VISUALSTYLE
  5
5DA4
102
{ACAD_REACTORS
330
5D9D
102
}
330
5D9D
100
AcDbVisualStyle
  2
3dWireframe
 70
     5
 71
     0
 72
     2
 73
     0
 90
        0
 40
-0.6
 41
-30.0
 62
     5
 63
     7
 74
     1
 91
        4
 64
     7
 65
   257
 75
     1
175
     1
 42
1.0
 92
        0
 66
   257
 43
1.0
 76
     1
 77
     6
 78
     2
 67
     7
 79
     5
170
     0
171
     0
290
     0
174
     0
 93
        1
 44
0.0
173
     0
291
     0
 45
0.0
1001
ACAD
1000
AcDbSavedByObjectVersion
1070
     0
  0
VISUALSTYLE
  5
5DA2
102
{ACAD_REACTORS
330
5D9D
102
}
330
5D9D
100
AcDbVisualStyle
  2
Basic
 70
     7
 71
     1
 72
     0
 73
     1
 90
        0
 40
-0.6
 41
-30.0
 62
     5
 63
     7
 74
     0
 91
        4
 64
     7
 65
   257
 75
     1
175
     1
 42
1.0
 92
        8
 66
     7
 43
1.0
 76
     1
 77
     6
 78
     2
 67
     7
 79
     5
170
     0
171
     0
290
     0
174
     0
 93
        1
 44
0.0
173
     0
291
     1
 45
0.0
1001
ACAD
1000
AcDbSavedByObjectVersion
1070
     0
  0
VISUALSTYLE
  5
5DA9
102
{ACAD_REACTORS
330
5D9D
102
}
330
5D9D
100
AcDbVisualStyle
  2
Brighten
 70
    12
 71
     2
 72
     2
 73
     0
 90
        0
 40
-0.6
 41
-30.0
 62
     5
 63
     7
 74
     1
 91
        4
 64
     7
 65
   257
 75
     1
175
     1
 42
1.0
 92
        8
 66
     7
 43
1.0
 76
     1
 77
     6
 78
     2
 67
     7
 79
     5
170
     0
171
     0
290
     0
174
     0
 93
        1
 44
50.0
173
     0
291
     1
 45
0.0
1001
ACAD
1000
AcDbSavedByObjectVersion
1070
     0
  0
VISUALSTYLE
  5
5DAD
102
{ACAD_REACTORS
330
5D9D
102
}
330
5D9D
100
AcDbVisualStyle
  2
ColorChange
 70
    16
 71
     2
 72
     2
 73
     3
 90
        0
 40
-0.6
 41
-30.0
 62
     5
 63
     8
 74
     1
 91
        4
 64
     7
 65
   257
 75
     1
175
     1
 42
1.0
 92
        8
 66
     8
 43
1.0
 76
     1
 77
     6
 78
     2
 67
     7
 79
     5
170
     0
171
     0
290
     0
174
     0
 93
        1
 44
0.0
173
     0
291
     1
 45
0.0
1001
ACAD
1000
AcDbSavedByObjectVersion
1070
     0
  0
VISUALSTYLE
  5
5DA6
102
{ACAD_REACTORS
330
5D9D
102
}
330
5D9D
100
AcDbVisualStyle
  2
Conceptual
 70
     9
 71
     3
 72
     2
 73
     0
 90
        0
 40
-0.6
 41
-30.0
 62
     5
 63
     7
 74
     2
 91
        2
 64
     7
 65
   257
 75
     1
175
     1
 42
40.0
 92
        8
 66
     7
 43
1.0
 76
     1
 77
     6
 78
     2
 67
     7
 79
     3
170
     0
171
     0
290
     0
174
     0
 93
        1
 44
0.0
173
     0
291
     0
 45
0.0
1001
ACAD
1000
AcDbSavedByObjectVersion
1070
     0
  0
VISUALSTYLE
  5
5DA8
102
{ACAD_REACTORS
330
5D9D
102
}
330
5D9D
100
AcDbVisualStyle
  2
Dim
 70
    11
 71
     2
 72
     2
 73
     0
 90
        0
 40
-0.6
 41
-30.0
 62
     5
 63
     7
 74
     1
 91
        4
 64
     7
 65
   257
 75
     1
175
     1
 42
1.0
 92
        8
 66
     7
 43
1.0
 76
     1
 77
     6
 78
     2
 67
     7
 79
     5
170
     0
171
     0
290
     0
174
     0
 93
        1
 44
-50.0
173
     0
291
     1
 45
0.0
1001
ACAD
1000
AcDbSavedByObjectVersion
1070
     0
  0
VISUALSTYLE
  5
5DAC
102
{ACAD_REACTORS
330
5D9D
102
}
330
5D9D
100
AcDbVisualStyle
  2
Facepattern
 70
    15
 71
     2
 72
     2
 73
     0
 90
        0
 40
-0.6
 41
-30.0
 62
     5
 63
     7
 74
     1
 91
        4
 64
     7
 65
   257
 75
     1
175
     1
 42
1.0
 92
        8
 66
     7
 43
1.0
 76
     1
 77
     6
 78
     2
 67
     7
 79
     5
170
     0
171
     0
290
     0
174
     0
 93
        1
 44
0.0
173
     0
291
     1
 45
0.0
1001
ACAD
1000
AcDbSavedByObjectVersion
1070
     0
  0
VISUALSTYLE
  5
5D9E
102
{ACAD_REACTORS
330
5D9D
102
}
330
5D9D
100
AcDbVisualStyle
  2
Flat
 70
     0
 71
     2
 72
     1
 73
     1
 90
        2
 40
-0.6
 41
30.0
 62
     5
 63
     7
 74
     0
 91
        4
 64
     7
 65
   257
 75
     1
175
     1
 42
1.0
 92
        8
 66
     7
 43
1.0
 76
     1
 77
     6
 78
     2
 67
     7
 79
     5
170
     0
171
     0
290
     0
174
     0
 93
       13
 44
0.0
173
     0
291
     1
 45
0.0
1001
ACAD
1000
AcDbSavedByObjectVersion
1070
     0
  0
VISUALSTYLE
  5
5D9F
102
{ACAD_REACTORS
330
5D9D
102
}
330
5D9D
100
AcDbVisualStyle
  2
FlatWithEdges
 70
     1
 71
     2
 72
     1
 73
     1
 90
        2
 40
-0.6
 41
30.0
 62
     5
 63
     7
 74
     1
 91
        4
 64
     7
 65
   257
 75
     1
175
     1
 42
1.0
 92
        0
 66
   257
 43
1.0
 76
     1
 77
     6
 78
     2
 67
     7
 79
     5
170
     0
171
     0
290
     0
174
     0
 93
       13
 44
0.0
173
     0
291
     1
 45
0.0
1001
ACAD
1000
AcDbSavedByObjectVersion
1070
     0
  0
VISUALSTYLE
  5
5DA0
102
{ACAD_REACTORS
330
5D9D
102
}
330
5D9D
100
AcDbVisualStyle
  2
Gouraud
 70
     2
 71
     2
 72
     2
 73
     1
 90
        2
 40
-0.6
 41
30.0
 62
     5
 63
     7
 74
     0
 91
        4
 64
     7
 65
   257
 75
     1
175
     1
 42
1.0
 92
        0
 66
     7
 43
1.0
 76
     1
 77
     6
 78
     2
 67
     7
 79
     5
170
     0
171
     0
290
     0
174
     0
 93
       13
 44
0.0
173
     0
291
     1
 45
0.0
1001
ACAD
1000
AcDbSavedByObjectVersion
1070
     0
  0
VISUALSTYLE
  5
5DA1
102
{ACAD_REACTORS
330
5D9D
102
}
330
5D9D
100
AcDbVisualStyle
  2
GouraudWithEdges
 70
     3
 71
     2
 72
     2
 73
     1
 90
        2
 40
-0.6
 41
30.0
 62
     5
 63
     7
 74
     1
 91
        4
 64
     7
 65
   257
 75
     1
175
     1
 42
1.0
 92
        0
 66
   257
 43
1.0
 76
     1
 77
     6
 78
     2
 67
     7
 79
     5
170
     0
171
     0
290
     0
174
     0
 93
       13
 44
0.0
173
     0
291
     1
 45
0.0
1001
ACAD
1000
AcDbSavedByObjectVersion
1070
     0
  0
VISUALSTYLE
  5
5DAB
102
{ACAD_REACTORS
330
5D9D
102
}
330
5D9D
100
AcDbVisualStyle
  2
Linepattern
 70
    14
 71
     2
 72
     2
 73
     0
 90
        0
 40
-0.6
 41
-30.0
 62
     5
 63
     7
 74
     1
 91
        4
 64
     7
 65
   257
 75
     7
175
     7
 42
1.0
 92
        8
 66
     7
 43
1.0
 76
     1
 77
     6
 78
     2
 67
     7
 79
     5
170
     0
171
     0
290
     0
174
     0
 93
        1
 44
0.0
173
     0
291
     1
 45
0.0
1001
ACAD
1000
AcDbSavedByObjectVersion
1070
     0
  0
VISUALSTYLE
  5
5DA7
102
{ACAD_REACTORS
330
5D9D
102
}
330
5D9D
100
AcDbVisualStyle
  2
Realistic
 70
     8
 71
     2
 72
     2
 73
     0
 90
        0
 40
-0.6
 41
-30.0
 62
     5
 63
     7
 74
     1
 91
        0
 64
     7
 65
   257
 75
     1
175
     1
 42
1.0
 92
        8
 66
     8
 43
1.0
 76
     1
 77
     6
 78
     2
 67
     7
 79
     5
170
     0
171
     0
290
     0
174
     0
 93
       13
 44
0.0
173
     0
291
     0
 45
0.0
1001
ACAD
1000
AcDbSavedByObjectVersion
1070
     0
  0
VISUALSTYLE
  5
5DAA
102
{ACAD_REACTORS
330
5D9D
102
}
330
5D9D
100
AcDbVisualStyle
  2
Thicken
 70
    13
 71
     2
 72
     2
 73
     0
 90
        0
 40
-0.6
 41
-30.0
 62
     5
 63
     7
 74
     1
 91
        4
 64
     7
 65
   257
 75
     1
175
     1
 42
1.0
 92
       12
 66
     7
 43
1.0
 76
     1
 77
     6
 78
     2
 67
     7
 79
     5
170
     0
171
     0
290
     0
174
     0
 93
        1
 44
0.0
173
     0
291
     1
 45
0.0
1001
ACAD
1000
AcDbSavedByObjectVersion
1070
     0
  0
DICTIONARYVAR
  5
5E19
102
{ACAD_REACTORS
330
5E
102
}
330
5E
100
DictionaryVariables
280
     0
  1
1:1
  0
DICTIONARYVAR
  5
5E18
102
{ACAD_REACTORS
330
5E
102
}
330
5E
100
DictionaryVariables
280
     0
  1
STANDARD
  0
DICTIONARYVAR
  5
84
102
{ACAD_REACTORS
330
5E
102
}
330
5E
100
DictionaryVariables
280
     0
  1
STANDARD
  0
DICTIONARYVAR
  5
5F
102
{ACAD_REACTORS
330
5E
102
}
330
5E
100
DictionaryVariables
280
     0
  1
2
  0
DICTIONARYVAR
  5
63
102
{ACAD_REACTORS
330
5E
102
}
330
5E
100
DictionaryVariables
280
     0
  1
1
  0
DICTIONARYVAR
  5
5E1B
102
{ACAD_REACTORS
330
5E
102
}
330
5E
100
DictionaryVariables
280
     0
  1
0
  0
DICTIONARYVAR
  5
5B5D
102
{ACAD_REACTORS
330
5E
102
}
330
5E
100
DictionaryVariables
280
     0
  1

  0
DICTIONARYVAR
  5
5E1A
102
{ACAD_REACTORS
330
5E
102
}
330
5E
100
DictionaryVariables
280
     0
  1
127
  0
DICTIONARY
  5
5E23
330
22
100
AcDbDictionary
280
     1
281
     1
  3
ACAD_XREC_ROUNDTRIP
360
5E24
  0
DICTIONARY
  5
5A01
330
59F4
100
AcDbDictionary
280
     1
281
     1
  3
ACAD_XREC_ROUNDTRIP
360
5E26
  3
ADSK_XREC_LAYOUTTHUMBNAIL
360
5A02
  0
DICTIONARY
  5
5D8E
330
5D8D
100
AcDbDictionary
280
     1
281
     1
  3
ACAD_XREC_ROUNDTRIP
360
5E2C
  3
BUMPTILE
360
5D90
  3
DIFFUSETILE
360
5D8F
  3
OPACITYTILE
360
5D93
  3
REFLECTIONTILE
360
5D92
  3
REFRACTIONTILE
360
5D94
  3
SPECULARTILE
360
5D91
  0
DICTIONARY
  5
5D86
330
5D85
100
AcDbDictionary
280
     1
281
     1
  3
ACAD_XREC_ROUNDTRIP
360
5E2B
  3
BUMPTILE
360
5D88
  3
DIFFUSETILE
360
5D87
  3
OPACITYTILE
360
5D8B
  3
REFLECTIONTILE
360
5D8A
  3
REFRACTIONTILE
360
5D8C
  3
SPECULARTILE
360
5D89
  0
DICTIONARY
  5
5D96
330
5D95
100
AcDbDictionary
280
     1
281
     1
  3
ACAD_XREC_ROUNDTRIP
360
5E2D
  3
BUMPTILE
360
5D98
  3
DIFFUSETILE
360
5D97
  3
OPACITYTILE
360
5D9B
  3
REFLECTIONTILE
360
5D9A
  3
REFRACTIONTILE
360
5D9C
  3
SPECULARTILE
360
5D99
  0
DICTIONARY
  5
5E1C
330
7F
100
AcDbDictionary
280
     1
281
     1
  3
ACAD_ROUNDTRIP_2008_TABLESTYLE_CELLSTYLEMAP
360
5E1D
  3
ACAD_XREC_ROUNDTRIP
360
5E25
  0
XRECORD
  5
5E24
102
{ACAD_REACTORS
330
5E23
102
}
330
5E23
100
AcDbXrecord
280
     1
102
SHADEPLOT
 70
     0
102
SHADEPLOTRESLEVEL
 70
     2
102
SHADEPLOTCUSTOMDPI
 70
   300
  0
XRECORD
  5
5E26
102
{ACAD_REACTORS
330
5A01
102
}
330
5A01
100
AcDbXrecord
280
     1
102
SHADEPLOT
 70
     0
102
SHADEPLOTRESLEVEL
 70
     2
102
SHADEPLOTCUSTOMDPI
 70
   300
  0
XRECORD
  5
5A02
102
{ACAD_REACTORS
330
5A01
102
}
330
5A01
100
AcDbXrecord
280
     1
310
28000000B40000007F00000001000800000000004C59000000000000000000000001000000000000FFFFFF0000000000FFFFFF000000000000000000000000000000000000000000000000000000000000000000330000006600000099000000CC000000FF00000000330000333300006633000099330000CC330000FF3300
310
0000660000336600006666000099660000CC660000FF66000000990000339900006699000099990000CC990000FF99000000CC000033CC000066CC000099CC0000CCCC0000FFCC000000FF000033FF000066FF000099FF0000CCFF0000FFFF000000003300330033006600330099003300CC003300FF003300003333003333
310
33006633330099333300CC333300FF33330000663300336633006666330099663300CC663300FF66330000993300339933006699330099993300CC993300FF99330000CC330033CC330066CC330099CC3300CCCC3300FFCC330000FF330033FF330066FF330099FF3300CCFF3300FFFF330000006600330066006600660099
310
006600CC006600FF00660000336600333366006633660099336600CC336600FF33660000666600336666006666660099666600CC666600FF66660000996600339966006699660099996600CC996600FF99660000CC660033CC660066CC660099CC6600CCCC6600FFCC660000FF660033FF660066FF660099FF6600CCFF6600
310
FFFF660000009900330099006600990099009900CC009900FF00990000339900333399006633990099339900CC339900FF33990000669900336699006666990099669900CC669900FF66990000999900339999006699990099999900CC999900FF99990000CC990033CC990066CC990099CC9900CCCC9900FFCC990000FF99
310
0033FF990066FF990099FF9900CCFF9900FFFF99000000CC003300CC006600CC009900CC00CC00CC00FF00CC000033CC003333CC006633CC009933CC00CC33CC00FF33CC000066CC003366CC006666CC009966CC00CC66CC00FF66CC000099CC003399CC006699CC009999CC00CC99CC00FF99CC0000CCCC0033CCCC0066CC
310
CC0099CCCC00CCCCCC00FFCCCC0000FFCC0033FFCC0066FFCC0099FFCC00CCFFCC00FFFFCC000000FF003300FF006600FF009900FF00CC00FF00FF00FF000033FF003333FF006633FF009933FF00CC33FF00FF33FF000066FF003366FF006666FF009966FF00CC66FF00FF66FF000099FF003399FF006699FF009999FF00CC
310
99FF00FF99FF0000CCFF0033CCFF0066CCFF0099CCFF00CCCCFF00FFCCFF0000FFFF0033FFFF0066FFFF0099FFFF00CCFFFF00FFFFFF00000000000D0D0D001A1A1A00282828003535350043434300505050005D5D5D006B6B6B00787878008686860093939300A1A1A100AEAEAE00BBBBBB00C9C9C900D6D6D600E4E4E400
310
F1F1F100FFFFFF0000000000000000000000000000000000000000000000000000000000000000000000000000000000EFEFE2E2E2E2E2E2E2E2E2E2E2E2E2E2E2E2E2E2E2E2E2E2E2E2E2E2E2E2E2E2E2E2E2E2E2E2E2E2E2E2E2E2E2E2E2E2E2E2E2E2E2E2E2E2E2E2E2E2E2E2E2E2E2E2E2E2E2E2E2E2E2E2E2E2E2E2E2
310
E2E2E2E2E2E2E2E2E2E2E2E2E2E2E2E2E2E2E2E2E2E2E2E2E2E2E2E2E2E2E2E2E2E2E2E2E2E2E2E2E2E2E2E2E2E2E2E2E2E2E2E2E2E2E2E2E2E2E2E2E2E2E2E2E2E2E2E2E2E2E2E2E2E2E2E2E2E2E2E2E2E2E2E2E2E2E2E2E2E2E2E2E2E2E2E2E2E2E2E2E2E2E2E2E2E2E2E2E2E2E2E2E2E2E2E2E2E2E2E2E2E2E2E2E2E2E2
310
E2E2E2E2E2E2E2E2E2E2E2E2E2E2E2E2E2E2E2E2E2E2E2E2E2E2E2E2E2E2E2E2E2E2E2E2E2E2E2E2E2E2E2E2E2E2E2E2E2E2E2E2E2E2E2E2E2E2E2E2E2E2E2E2E2E2E2E2E2E2E2E2E2E2E2E2E2E2E2E2E2E2E2E2E2E2E2E2E2E2E2E2E2E2E2E2E2E2E2E2E2E2E2E2E2E2E2E2E2E2E2E2E2E2E2E2E2E2E2E2E2E2E2E2E2E2E2
310
E2E2E2E2E2E2E2E2E2E2E2E2E2E2E2E2E2E2E2E2E2E2E2E2E2E2E2E2F5F5F5F5F5F5F5F5F5F5F5F5F5F5F5F5F5F5F5F5F5F5F5F5F5F5F5F5F5F5F5F5F5F5F5F5F5F5F5F5F5F5F5F5F5F5F5F5F5F5F5F5F5F5F5F5F5F5F5F5F5F5F5F5F5F5F5F5F5F5F5F5F5F5F5F5F5F5F5F5F5F5F5F5F5F5F5F5F5F5F5F5F5F5F5F5F5F5F5
310
F5F5F5F5F5F5F5F5F5F5F5F5F5F5F5F5F5F5F5F5F5F5F5F5F5F5F5F5F5F5F5F5F5F5F5F5F5F5F5F5F5F5F5F5F5F5F5F5F5F5F5F5F5F5F5F5F5F5F5F5F5F5F5F5F5F5F5F5F5F5F5F5F5F5F5F5F5F5E2E2E2F5F5F5F5F5F5F5F5F5F5F5F5F5F5F5F5F5F5F5F5F5F5F5F5F5F5F5F5F5F5F5F5F5F5F5F5F5F5F5F5F5F5F5F5F5F5
310
F5F5F5F5F5F5F5F5F5F5F5F5F5F5F5F5F5F5F5F5F5F5F5F5F5F5F5F5F5F5F5F5F5F5F5F5F5F5F5F5F5F5F5F5F5F5F5F5F5F5F5F5F5F5F5F5F5F5F5F5F5F5F5F5F5F5F5F5F5F5F5F5F5F5F5F5F5F5F5F5F5F5F5F5F5F5F5F5F5F5F5F5F5F5F5F5F5F5F5F5F5F5F5F5F5F5F5F5F5F5F5F5F5F5F5F5F5F5F5F5F5F5F5F5F5F5F5
310
F5F5F5F5E2E2E2F5F5F5E2E2E2E2E2E2E2E2F5F5F5F5F5F5F5F5F5E2E2E2E2E2E2E2E2E2E2E2E2E2E2E2E2F5F5F5F5F5F5F5F5E2E2E2E2E2E2E2E2E2E2E2E2E2E2E2E2F5F5F5F5F5F5F5F5F5E2E2E2E2E2E2E2E2E2E2E2E2E2E2E2F5F5F5F5F5F5F5F5F5E2E2E2E2E2E2E2E2E2E2E2E2E2E2E2F5F5F5F5F5F5F5F5F5E2E2E2
310
E2E2E2E2E2E2E2E2E2E2E2E2E2F5F5F5F5F5F5F5F5E2E2E2E2E2E2E2E2E2E2E2E2E2E2E2E2F5F5F5F5F5F5F5F5F5E2E2E2E2E2E2E2E2F5F5F5E2E2E2F5F5F5E2F5F5F5F5F5F5F5F5F5F5F5F5F5F5F5F5F5F5F5F5F5F5F5F5F5F5F5F5F5F5F5F5F5F5F5F5F5F5F5F5F5F5F5F5F5F5F5F5F5F5F5F5F5F5F5F5F5F5F5F5F5F5F5
310
F5F5F5F5F5F5F5F5F5F5F5F5F5F5F5F5F5F5F5F5F5F5F5F5F5F5F5F5F5F5F5F5F5F5F5F5F5F5F5F5F5F5F5F5F5F5F5F5F5F5F5F5F5F5F5F5F5F5F5F5F5F5F5F5F5F5F5F5F5F5F5F5F5F5F5F5F5F5F5F5F5F5F5F5F5F5F5F5F5F5F5F5F5F5F5F5F5F5F5F5F5F5F5F5F5F5E2F5F5F5E2E2E2F5F5F5E2F5F5F5F5F5F5F5F5F5F5
310
F5F5F5F5F5F5F5F5F5F5F5F5F5F5F5F5F5F5F5F5F5F5F5F5F5F5F5F5F5F5F5F5F5F5F5F5F5F5F5F5F5F5F5F5F5F5F5F5F5F5F5F5F5F5F5F5F5F5F5F5F5F5F5F5F5F5F5F5F5F5F5F5F5F5F5F5F5F5F5F5F5F5F5F5F5F5F5F5F5F5F5F5F5F5F5F5F5F5F5F5F5F5F5F5F5F5F5F5F5F5F5F5F5F5F5F5F5F5F5F5F5F5F5F5F5F5F5
310
F5F5F5F5F5F5F5F5F5F5F5F5F5F5F5F5F5F5F5F5F5F5F5F5F5F5F5F5F5F5F5F5E2F5F5F5E2E2E2F5F5F5E2F5F5F5F5F5F5F5F5F5F5F5F5F5F5F5F5F5F5F5F5F5F5F5F5F5F5F5F5F5F5F5F5F5F5F5F5F5F5F5F5F5F5F5F5F5F5F5F5F5F5F5F5F5F5F5F5F5F5F5F5F5F5F5F5F5F5F5F5F5F5F5F5F5F5F5F5F5F5F5F5F5F5F5F5
310
F5F5F5F5F5F5F5F5F5F5F5F5F5F5F5F5F5F5F5F5F5F5F5F5F5F5F5F5F5F5F5F5F5F5F5F5F5F5F5F5F5F5F5F5F5F5F5F5F5F5F5F5F5F5F5F5F5F5F5F5F5F5F5F5F5F5F5F5F5F5F5F5F5F5F5F5F5F5F5F5F5F5F5F5F5E2F5F5F5E2E2E2F5F5F5E2F5F5F5F5F5F5F5F5F5F5F5F5F5F5F5F5F5F5F5F5F5F5F5F5F5F5F5F5F5F5F5
310
F5F5F5F5F5F5F5F5F5F5F5F5F5F5F5F5F5F5F5F5F5F5F5F5F5F5F5F5F5F5F5F5F5F5F5F5F5F5F5F5F5F5F5F5F5F5F5F5F5F5F5F5F5F5F5F5F5F5F5F5F5F5F5F5F5F5F5F5F5F5F5F5F5F5F5F5F5F5F5F5F5F5F5F5F5F5F5F5F5F5F5F5F5F5F5F5F5F5F5F5F5F5F5F5F5F5F5F5F5F5F5F5F5F5F5F5F5F5F5F5F5F5F5F5F5F5F5
310
F5F5F5F5F5F5F5F5F5F5F5E2F5F5F5E2E2E2F5F5F5E2F5F5F5F5F5F5F5F5F5F5F5F5F5F5F5F5F5F5F5F5F5F5F5F5F5F5F5F5F5F5F5F5F5F5F5F5F5F5F5F5F5F5F5F5F5F5F5F5F5F5F5F5F5F5F5F5F5F5F5F5F5F5F5F5F5F5F5F5F5F5F5F5F5F5F5F5F5F5F5F5F5F5F5F5F5F5F5F5F5F5F5F5F5F5F5F5F5F5F5F5F5F5F5F5F5
310
F5F5F5F5F5F5F5F5F5F5F5F5F5F5F5F5F5F5F5F5F5F5F5F5F5F5F5F5F5F5F5F5F5F5F5F5F5F5F5F5F5F5F5F5F5F5F5F5F5F5F5F5F5F5F5F5F5F5F5F5F5F5F5F5E2F5F5F5E2E2E2F5F5F5E2F5F5F5F5F5F5F5F5F5F5F5F5F5F5F5F5F5F5F5F5F5F5F5F5F5F5F5F5F5F5F5F5F5F5F5F5F5F5F5F5F5F5F5F5F5F5F5F5F5F5F5F5
310
F5F5F5F5F5F5F5F5F5F5F5F5F5F5F5F5F5F5F5F5F5F5F5F5F5F5F5F5F5F5F5F5F5F5F5F5F5F5F5F5F5F5F5F5F5F5F5F5F5F5F5F5F5F5F5F5F5F5F5F5F5F5F5F5F5F5F5F5F5F5F5F5F5F5F5F5F5F5F5F5F5F5F5F5F5F5F5F5F5F5F5F5F5F5F5F5F5F5F5F5F5F5F5F5F5F5F5F5F5F5F5F5F5F5F5F5F5E2F5F5F5E2E2E2F5F5F5
310
E2F5F5F5F5F5F5F5F5F5F5F5F5F5F5F5F5F5F5F5F5F5F5F5F5F5F5F5F5F5F5F5F5F5F5F5F5F5F5F5F5F5F5F5F5F5F5F5F5F5F5F5F5F5F5F5F5F5F5F5F5F5F5F5F5F5F5F5F5F5F5F5F5F5F5F5F5F5F5F5F5F5F5F5F5F5F5F5F5F5F5F5F5F5F5F5F5F5F5F5F5F5F5F5F5F5F5F5F5F5F5F5F5F5F5F5F5F5F5F5F5F5F5F5F5F5F5
310
F5F5F5F5F5F5F5F5F5F5F5F5F5F5F5F5F5F5F5F5F5F5F5F5F5F5F5F5F5F5F5F5F5F5F5F5F5F5F5F5F5F5F5E2F5F5F5E2E2E2F5F5F5F5F5F5F5F5F5F5F5F5F5F5F5F5F5F5F5F5F5F5F5F5F5F5F5F5F5F5F5F5F5F5F5F5F5F5F5F5F5F5F5F5F5F5F5F5F5F5F5F5F5F5F5F5F5F5F5F5F5F5F5F5F5F5F5F5F5F5F5F5F5F5F5F5F5
310
F5F5F5F5F5F5F5F5F5F5F5F5F5F5F5F5F5F5F5F5F5F5F5F5F5F5F5F5F5F5F5F5F5F5F5F5F5F5F5F5F5F5F5F5F5F5F5F5F5F5F5F5F5F5F5F5F5F5F5F5F5F5F5F5F5F5F5F5F5F5F5F5F5F5F5F5F5F5F5F5F5F5F5F5F5F5F5F5F5F5F5F5F5F5F5F5F5F5F5F5E2E2E2F5F5F5F5F5F5F5F5F5F5F5F5F5F5F5F5F5F5F5F5F5F5F5F5
310
F5F5F5F5F5F5F5F5F5F5F5F5F5F5F5F5F5F5F5F5F5F5F5F5F5F5F5F5F5F5F5F5F5F5F5F5F5F5F5F5F5F5F5F5F5F5F5F5F5F5F5F5F5F5F5F5F5F5F5F5F5F5F5F5F5F5F5F5F5F5F5F5F5F5F5F5F5F5F5F5F5F5F5F5F5F5F5F5F5F5F5F5F5F5F5F5F5F5F5F5F5F5F5F5F5F5F5F5F5F5F5F5F5F5F5F5F5F5F5F5F5F5F5F5F5F5F5
310
F5F5F5F5F5F5F5F5F5F5F5F5F5F5F5F5F5F5F5F5F5F5F5F5F5F5E2E2E2F5F5F5F5F5F5F5F5F5F5F5F5F5F5F5F5F5F5F5F5F5F5F5F5F5F5F5F5F5F5F5F5F5F5F5F5F5F5F5F5F5F5F5F5F5F5F5F5F5F5F5F5F5F5F5F5F5F5F5F5F5F5F5F5F5F5F5F5F5F5F5F5F5F5F5F5F5F5F5F5F5F5F5F5F5F5F5F5F5F5F5F5F5F5F5F5F5F5
310
F5F5F5F5F5F5F5F5F5F5F5F5F5F5F5F5F5F5F5F5F5F5F5F5F5F5F5F5F5F5F5F5F5F5F5F5F5F5F5F5F5F5F5F5F5F5F5F5F5F5F5F5F5F5F5F5F5F5F5F5F5F5F5F5F5F5F5F5F5F5F5F5F5F5F5F5F5F5F5E2E2E2F5F5F5F5F5F5F5F5F5F5F5F5F5F5F5F5F5F5F5F5F5F5F5F5F5F5F5F5F5F5F5F5F5F5F5F5F5F5F5F5F5F5F5F5F5
310
F5F5F5F5F5F5F5F5F5F5F5F5F5F5F5F5F5F5F5F5F5F5F5F5F5F5F5F5F5F5F5F5F5F5F5F5F5F5F5F5F5F5F5F5F5F5F5F5F5F5F5F5F5F5F5F5F5F5F5F5F5F5F5F5F5F5F5F5F5F5F5F5F5F5F5F5F5F5F5F5F5F5F5F5F5F5F5F5F5F5F5F5F5F5F5F5F5F5F5F5F5F5F5F5F5F5F5F5F5F5F5F5F5F5F5F5F5F5F5F5F5F5F5F5F5F5F5
310
F5F5F5F5F5E2E2E2F5F5F5F5F5F5F5F5F5F5F5F5F5F5F5F5F5F5F5F5F5F5F5F5F5F5F5F5F5F5F5F5F5F5F5F5F5F5F5F5F5F5F5F5F5F5F5F5F5F5F5F5F5F5F5F5F5F5F5F5F5F5F5F5F5F5F5F5F5F5F5F5F5F5F5F5F5F5F5F5F5F5F5F5F5F5F5F5F5F5F5F5F5F5F5F5F5F5F5F5F5F5F5F5F5F5F5F5F5F5F5F5F5F5F5F5F5F5F5
310
F5F5F5F5F5F5F5F5F5F5F5F5F5F5F5F5F5F5F5F5F5F5F5F5F5F5F5F5F5F5F5F5F5F5F5F5F5F5F5F5F5F5F5F5F5F5F5F5F5F5F5F5F5F5F5F5F5F5E2E2E2F5F5F5F5F5F5F5F5F5F5F5F5F5F5F5F5F5F5F5F5F5F5F5F5F5F5F5F5F5F5F5F5F5F5F5F5F5F5F5F5F5F5F5F5F5F5F5F5F5F5F5F5F5F5F5F5F5F5F5F5F5F5F5F5F5F5
310
F5F5F5F5F5F5F5F5F5F5F5F5F5F5F5F5F5F5F5F5F5F5F5F5F5F5F5F5F5F5F5F5F5F5F5F5F5F5F5F5F5F5F5F5F5F5F5F5F5F5F5F5F5F5F5F5F5F5F5F5F5F5F5F5F5F5F5F5F5F5F5F5F5F5F5F5F5F5F5F5F5F5F5F5F5F5F5F5F5F5F5F5F5F5F5F5F5F5F5F5F5F5F5F5F5F5F5F5F5F5F5E2E2E2F5F5F5F5F5F5F5F5F5F5F5F5F5
310
F5F5F5F5F5F5F5F5F5F5F5F5F5F5F5F5F5F5F5F5F5F5F5F5F5F5F5F5F5F5F5F5F5F5F5F5F5F5F5F5F5F5F5F5F5F5F5F5F5F5F5F5F5F5F5F5F5F5F5F5F5F5F5F5F5F5F5F5F5F5F5F5F5F5F5F5F5F5F5F5F5F5F5F5F5F5F5F5F5F5F5F5F5F5F5F5F5F5F5F5F5F5F5F5F5F5F5F5F5F5F5F5F5F5F5F5F5F5F5F5F5F5F5F5F5F5F5
310
F5F5F5F5F5F5F5F5F5F5F5F5F5F5F5F5F5F5F5F5F5F5F5F5F5F5F5F5F5F5F5F5F5F5F5F5F5E2E2E2F5F5F5F5F5F5F5F5F5F5F5F5F5F5F5F5F5F5F5F5F5F5F5F5F5F5F5F5F5F5F5F5F5F5F5F5F5F5F5F5F5F5F5F5F5F5F5F5F5F5F5F5F5F5F5F5F5F5F5F5F5F5F5F5F5F5F5F5F5F5F5F5F5F5F5F5F5F5F5F5F5F5F5F5F5F5F5
310
F5F5F5F5F5F5F5F5F5F5F5F5F5F5F5F5F5F5F5F5F5F5F5F5F5F5F5F5F5F5F5F5F5F5F5F5F5F5F5F5F5F5F5F5F5F5F5F5F5F5F5F5F5F5F5F5F5F5F5F5F5F5F5F5F5F5F5F5F5F5F5F5F5F5F5F5F5F5F5F5F5F5F5F5F5F5F5F5F5F5E2E2E2F5F5F5F5F5F5F5F5F5F5F5F5F5F5F5F5F5F5F5F5F5F5F5F5F5F5F5F5F5F5F5F5F5F5
310
F5F5F5F5F5F5F5F5F5F5F5F5F5F5F5F5F5F5F5F5F5F5F5F5F5F5F5F5F5F5F5F5F5F5F5F5F5F5F5F5F5F5F5F5F5F5F5F5F5F5F5F5F5F5F5F5F5F5F5F5F5F5F5F5F5F5F5F5F5F5F5F5F5F5F5F5F5F5F5F5F5F5F5F5F5F5F5F5F5F5F5F5F5F5F5F5F5F5F5F5F5F5F5F5F5F5F5F5F5F5F5F5F5F5F5F5F5F5F5F5F5F5F5F5F5F5F5
310
F5F5F5F5F5F5F5F5F5F5F5F5F5F5F5F5E2E2E2F5F5F5E2F5F5F5F5F5F5F5F5F5F5F5F5F5F5F5F5F5F5F5F5F5F5F5F5F5F5F5F5F5F5F5F5F5F5F5F5F5F5F5F5F5F5F5F5F5F5F5F5F5F5F5F5F5F5F5F5F5F5F5F5F5F5F5F5F5F5F5F5F5F5F5F5F5F5F5F5F5F5F5F5F5F5F5F5F5F5F5F5F5F5F5F5F5F5F5F5F5F5F5F5F5F5F5F5
310
F5F5F5F5F5F5F5F5F5F5F5F5F5F5F5F5F5F5F5F5F5F5F5F5F5F5F5F5F5F5F5F5F5F5F5F5F5F5F5F5F5F5F5F5F5F5F5F5F5F5F5F5F5F5F5F5F5F5F5F5F5F5F5F5F5E2F5F5F5E2E2E2F5F5F5E2F5F5F5F5F5F5F5F5F5F5F5F5F5F5F5F5F5F5F5F5F5F5F5F5F5F5F5F5F5F5F5F5F5F5F5F5F5F5F5F5F5F5F5F5F5F5F5F5F5F5F5
310
F5F5F5F5F5F5F5F5F5F5F5F5F5F5F5F5F5F5F5F5F5F5F5F5F5F5F5F5F5F5F5F5F5F5F5F5F5F5F5F5F5F5F5F5F5F5F5F5F5F5F5F5F5F5F5F5F5F5F5F5F5F5F5F5F5F5F5F5F5F5F5F5F5F5F5F5F5F5F5F5F5F5F5F5F5F5F5F5F5F5F5F5F5F5F5F5F5F5F5F5F5F5F5F5F5F5F5F5F5F5F5F5F5F5F5F5F5F5E2F5F5F5E2E2E2F5F5
310
F5E2F5F5F5F5F5F5F5F5F5F5F5F5F5F5F5F5F5F5F5F5F5F5F5F5F5F5F5F5F5F5F5F5F5F5F5F5F5F5F5F5F5F5F5F5F5F5F5F5F5F5F5F5F5F5F5F5F5F5F5F5F5F5F5F5F5F5F5F5F5F5F5F5F5F5F5F5F5F5F5F5F5F5F5F5F5F5F5F5F5F5F5F5F5F5F5F5F5F5F5F5F5F5F5F5F5F5F5F5F5F5F5F5F5F5F5F5F5F5F5F5F5F5F5F5F5
310
F5F5F5F5F5F5F5F5F5F5F5F5F5F5F5F5F5F5F5F5F5F5F5F5F5F5F5F5F5F5F5F5F5F5F5F5F5F5F5F5F5F5F5F5E2F5F5F5E2E2E2F5F5F5E2F5F5F5F5F5F5F5F5F5F5F5F5F5F5F5F5F5F5F5F5F5F5F5F5F5F5F5F5F5F5F5F5F5F5F5F5F5F5F5F5F5F5F5F5F5F5F5F5F5F5F5F5F5F5F5F5F5F5F5F5F5F5F5F5F5F5F5F5F5F5F5F5
310
F5F5F5F5F5F5F5F5F5F5F5F5F5F5F5F5F5F5F5F5F5F5F5F5F5F5F5F5F5F5F5F5F5F5F5F5F5F5F5F5F5F5F5F5F5F5F5F5F5F5F5F5F5F5F5F5F5F5F5F5F5F5F5F5F5F5F5F5F5F5F5F5F5F5F5F5F5F5F5F5F5F5F5F5F5F5F5F5F5F5F5F5F5F5F5F5F5E2F5F5F5E2E2E2F5F5F5E2F5F5F5F5F5F5F5F5F5F5F5F5F5F5F5F5F5F5F5
310
F5F5F5F5F5F5F5F5F5F5F5F5F5F5F5F5F5F5F5F5F5F5F5F5F5F5F5F5F5F5F5F5F5F5F5F5F5F5F5F5F5F5F5F5F5F5F5F5F5F5F5F5F5F5F5F5F5F5F5F5F5F5F5F5F5F5F5F5F5F5F5F5F5F5F5F5F5F5F5F5F5F5F5F5F5F5F5F5F5F5F5F5F5F5F5F5F5F5F5F5F5F5F5F5F5F5F5F5F5F5F5F5F5F5F5F5F5F5F5F5F5F5F5F5F5F5F5
310
F5F5F5F5F5F5F5F5F5F5F5F5F5F5F5F5F5F5F5F5F5F5F5E2F5F5F5E2E2E2F5F5F5E2F5F5F5F5F5F5F5F5F5F5F5F5F5F5F5F5F5F5F5F5F5F5F5F5F5F5F5F5F5F5F5F5F5F5F5F5F5F5F5F5F5F5F5F5F5F5F5F5F5F5F5F5F5F5F5F5F5F5F5F5F5F5F5F5F5F5F5F5F5F5F5F5F5F5F5F5F5F5F5F5F5F5F5F5F5F5F5F5F5F5F5F5F5
310
F5F5F5F5F5F5F5F5F5F5F5F5F5F5F5F5F5F5F5F5F5F5F5F5F5F5F5F5F5F5F5F5F5F5F5F5F5F5F5F5F5F5F5F5F5F5F5F5F5F5F5F5F5F5F5F5F5F5F5F5F5F5F5F5F5F5F5F5F5F5F5F5F5F5F5F5E2F5F5F5E2E2E2F5F5F5E2F5F5F5F5F5F5F5F5F5F5F5F5F5F5F5F5F5F5F5F5F5F5F5F5F5F5F5F5F5F5F5F5F5F5F5F5F5F5F5F5
310
F5F5F5F5F5F5F5F5F5F5F5F5F5F5F5F5F5F5F5F5F5F5F5F5F5F5F5F5F5F5F5F5F5F5F5F5F5F5F5F5F5F5F5F5F5F5F5F5F5F5F5F5F5F5F5F5F5F5F5F5F5F5F5F5F5F5F5F5F5F5F5F5F5F5F5F5F5F5F5F5F5F5F5F5F5F5F5F5F5F5F5F5F5F5F5F5F5F5F5F5F5F5F5F5F5F5F5F5F5F5F5F5F5F5F5F5F5F5F5F5F5F5F5F5F5F5F5
310
F5F5E2F5F5F5E2E2E2F5F5F5E2F5F5F5F5F5F5F5F5F5F5F5F5F5F5F5F5F5F5F5F5F5F5F5F5F5F5F5F5F5F5F5F5F5F5F5F5F5F5F5F5F5F5F5F5F5F5F5F5F5F5F5F5F5F5F5F5F5F5F5F5F5F5F5F5F5F5F5F5F5F5F5F5F5F5F5F5F5F5F5F5F5F5F5F5F5F5F5F5F5F5F5F5F5F5F5F5F5F5F5F5F5F5F5F5F5F5F5F5F5F5F5F5F5F5
310
F5F5F5F5F5F5F5F5F5F5F5F5F5F5F5F5F5F5F5F5F5F5F5F5F5F5F5F5F5F5F5F5F5F5F5F5F5F5F5F5F5F5F5F5F5F5F5F5F5F5F5F5F5F5F5E2F5F5F5E2E2E2F5F5F5E2F5F5F5F5F5F5F5F5F5F5F5F5F5F5F5F5F5F5F5F5F5F5F5F5F5F5F5F5F5F5F5F5F5F5F5F5F5F5F5F5F5F5F5F5F5F5F5F5F5F5F5F5F5F5F5F5F5F5F5F5F5
310
F5F5F5F5F5F5F5F5F5F5F5F5F5F5F5F5F5F5F5F5F5F5F5F5F5F5F5F5F5F5F5F5F5F5F5F5F5F5F5F5F5F5F5F5F5F5F5F5F5F5F5F5F5F5F5F5F5F5F5F5F5F5F5F5F5F5F5F5F5F5F5F5F5F5F5F5F5F5F5F5F5F5F5F5F5F5F5F5F5F5F5F5F5F5F5F5F5F5F5F5F5F5F5F5F5F5F5F5E2F5F5F5E2E2E2F5F5F5E2F5F5F5F5F5F5F5F5
310
F5F5F5F5F5F5F5F5F5F5F5F5F5F5F5F5F5F5F5F5F5F5F5F5F5F5F5F5F5F5F5F5F5F5F5F5F5F5F5F5F5F5F5F5F5F5F5F5F5F5F5F5F5F5F5F5F5F5F5F5F5F5F5F5F5F5F5F5F5F5F5F5F5F5F5F5F5F5F5F5F5F5F5F5F5F5F5F5F5F5F5F5F5F5F5F5F5F5F5F5F5F5F5F5F5F5F5F5F5F5F5F5F5F5F5F5F5F5F5F5F5F5F5F5F5F5F5
310
F5F5F5F5F5F5F5F5F5F5F5F5F5F5F5F5F5F5F5F5F5F5F5F5F5F5F5F5F5F5F5F5F5F5E2F5F5F5E2E2E2F5F5F5E2F5F5F5F5F5F5F5F5F5F5F5F5F5F5F5F5F5F5F5F5F5F5F5F5F5F5F5F5F5F5F5F5F5F5F5F5F5F5F5F5F5F5F5F5F5F5F5F5F5F5F5F5F5F5F5F5F5F5F5F5F5F5F5F5F5F5F5F5F5F5F5F5F5F5F5F5F5F5F5F5F5F5
310
F5F5F5F5F5F5F5F5F5F5F5F5F5F5F5F5F5F5F5F5F5F5F5F5F5F5F5F5F5F5F5F5F5F5F5F5F5F5F5F5F5F5F5F5F5F5F5F5F5F5F5F5F5F5F5F5F5F5F5F5F5F5F5F5F5F5F5F5F5F5F5F5F5F5F5F5F5F5F5F5F5F5F5F5F5F5F5E2F5F5F5E2E2E2F5F5F5E2F5F5F5F5F5F5F5F5F5F5F5F5F5F5F5F5F5F5F5F5F5F5F5F5F5F5F5F5F5
310
F5F5F5F5F5F5F5F5F5F5F5F5F5F5F5F5F5F5F5F5F5F5F5F5F5F5F5F5F5F5F5F5F5F5F5F5F5F5F5F5F5F5F5F5F5F5F5F5F5F5F5F5F5F5F5F5F5F5F5F5F5F5F5F5F5F5F5F5F5F5F5F5F5F5F5F5F5F5F5F5F5F5F5F5F5F5F5F5F5F5F5F5F5F5F5F5F5F5F5F5F5F5F5F5F5F5F5F5F5F5F5F5F5F5F5F5F5F5F5F5F5F5F5F5F5F5F5
310
F5F5F5F5F5F5F5F5F5F5F5F5F5E2F5F5F5E2E2E2F5F5F5E2F5F5F5F5F5F5F5F5F5F5F5F5F5F5F5F5F5F5F5F5F5F5F5F5F5F5F5F5F5F5F5F5F5F5F5F5F5F5F5F5F5F5F5F5F5F5F5F5F5F5F5F5F5F5F5F5F5F5F5F5F5F5F5F5F5F5F5F5F5F5F5F5F5F5F5F5F5F5F5F5F5F5F5F5F5F5F5F5F5F5F5F5F5F5F5F5F5F5F5F5F5F5F5
310
F5F5F5F5F5F5F5F5F5F5F5F5F5F5F5F5F5F5F5F5F5F5F5F5F5F5F5F5F5F5F5F5F5F5F5F5F5F5F5F5F5F5F5F5F5F5F5F5F5F5F5F5F5F5F5F5F5F5F5F5F5F5F5F5F5F5E2F5F5F5E2E2E2F5F5F5E2F5F5F5F5F5F5F5F5F5F5F5F5F5F5F5F5F5F5F5F5F5F5F5F5F5F5F5F5F5F5F5F5F5F5F5F5F5F5F5F5F5F5F5F5F5F5F5F5F5F5
310
F5F5F5F5F5F5F5F5F5F5F5F5F5F5F5F5F5F5F5F5F5F5F5F5F5F5F5F5F5F5F5F5F5F5F5F5F5F5F5F5F5F5F5F5F5F5F5F5F5F5F5F5F5F5F5F5F5F5F5F5F5F5F5F5F5F5F5F5F5F5F5F5F5F5F5F5F5F5F5F5F5F5F5F5F5F5F5F5F5F5F5F5F5F5F5F5F5F5F5F5F5F5F5F5F5F5F5F5F5F5F5F5F5F5F5F5F5F5F5E2F5F5F5E2E2E2F5
310
F5F5E2F5F5F5F5F5F5F5F5F5F5F5F5F5F5F5F5F5F5F5F5F5F5F5F5F5F5F5F5F5F5F5F5F5F5F5F5F5F5F5F5F5F5F5F5F5F5F5F5F5F5F5F5F5F5F5F5F5F5F5F5F5F5F5F5F5F5F5F5F5F5F5F5F5F5F5F5F5F5F5F5F5F5F5F5F5F5F5F5F5F5F5F5F5F5F5F5F5F5F5F5F5F5F5F5F5F5F5F5F5F5F5F5F5F5F5F5F5F5F5F5F5F5F5F5
310
F5F5F5F5F5F5F5F5F5F5F5F5F5F5F5F5F5F5F5F5F5F5F5F5F5F5F5F5F5F5F5F5F5F5F5F5F5F5F5F5F5F5F5F5F5E2F5F5F5E2E2E2F5F5F5F5F5F5F5F5F5F5F5F5F5F5F5F5F5F5F5F5F5F5F5F5F5F5F5F5F5F5F5F5F5F5F5F5F5F5F5F5F5F5F5F5F5F5F5F5F5F5F5F5F5F5F5F5F5F5F5F5F5F5F5F5F5F5F5F5F5F5F5F5F5F5F5
310
F5F5F5F5F5F5F5F5F5F5F5F5F5F5F5F5F5F5F5F5F5F5F5F5F5F5F5F5F5F5F5F5F5F5F5F5F5F5F5F5F5F5F5F5F5F5F5F5F5F5F5F5F5F5F5F5F5F5F5F5F5F5F5F5F5F5F5F5F5F5F5F5F5F5F5F5F5F5F5F5F5F5F5F5F5F5F5F5F5F5F5F5F5F5F5F5F5F5F5F5F5F5E2E2E2F5F5F5F5F5F5F5F5F5F5F5F5F5F5F5F5F5F5F5F5F5F5
310
F5F5F5F5F5F5F5F5F5F5F5F5F5F5F5F5F5F5F5F5F5F5F5F5F5F5F5F5F5F5F5F5F5F5F5F5F5F5F5F5F5F5F5F5F5F5F5F5F5F5F5F5F5F5F5F5F5F5F5F5F5F5F5F5F5F5F5F5F5F5F5F5F5F5F5F5F5F5F5F5F5F5F5F5F5F5F5F5F5F5F5F5F5F5F5F5F5F5F5F5F5F5F5F5F5F5F5F5F5F5F5F5F5F5F5F5F5F5F5F5F5F5F5F5F5F5F5
310
F5F5F5F5F5F5F5F5F5F5F5F5F5F5F5F5F5F5F5F5F5F5F5F5F5F5F5F5E2E2E2F5F5F5F5F5F5F5F5F5F5F5F5F5F5F5F5F5F5F5F5F5F5F5F5F5F5F5F5F5F5F5F5F5F5F5F5F5F5F5F5F5F5F5F5F5F5F5F5F5F5F5F5F5F5F5F5F5F5F5F5F5F5F5F5F5F5F5F5F5F5F5F5F5F5F5F5F5F5F5F5F5F5F5F5F5F5F5F5F5F5F5F5F5F5F5F5
310
F5F5F5F5F5F5F5F5F5F5F5F5F5F5F5F5F5F5F5F5F5F5F5F5F5F5F5F5F5F5F5F5F5F5F5F5F5F5F5F5F5F5F5F5F5F5F5F5F5F5F5F5F5F5F5F5F5F5F5F5F5F5F5F5F5F5F5F5F5F5F5F5F5F5F5F5F5F5F5F5F5E2E2E2F5F5F5F5F5F5F5F5F5F5F5F5F5F5F5F5F5F5F5F5F5F5F5F5F5F5F5F5F5F5F5F5F5F5F5F5F5F5F5F5F5F5F5
310
F5F5F5F5F5F5F5F5F5F5F5F5F5F5F5F5F5F5F5F5F5F5F5F5F5F5F5F5F5F5F5F5F5F5F5F5F5F5F5F5F5F5F5F5F5F5F5F5F5F5F5F5F5F5F5F5F5F5F5F5F5F5F5F5F5F5F5F5F5F5F5F5F5F5F5F5F5F5F5F5F5F5F5F5F5F5F5F5F5F5F5F5F5F5F5F5F5F5F5F5F5F5F5F5F5F5F5F5F5F5F5F5F5F5F5F5F5F5F5F5F5F5F5F5F5F5F5
310
F5F5F5F5F5F5F5E2E2E2F5F5F5F5F5F5F5F5F5F5F5F5F5F5F5F5F5F5F5F5F5F5F5F5F5F5F5F5F5F5F5F5F5F5F5F5F5F5F5F5F5F5F5F5F5F5F5F5F5F5F5F5F5F5F5F5F5F5F5F5F5F5F5F5F5F5F5F5F5F5F5F5F5F5F5F5F5F5F5F5F5F5F5F5F5F5F5F5F5F5F5F5F5F5F5F5F5F5F5F5F5F5F5F5F5F5F5F5F5F5F5F5F5F5F5F5F5
310
F5F5F5F5F5F5F5F5F5F5F5F5F5F5F5F5F5F5F5F5F5F5F5F5F5F5F5F5F5F5F5F5F5F5F5F5F5F5F5F5F5F5F5F5F5F5F5F5F5F5F5F5F5F5F5F5F5F5F5F5E2E2E2F5F5F5F5F5F5F5F5F5F5F5F5F5F5F5F5F5F5F5F5F5F5F5F5F5F5F5F5F5F5F5F5F5F5F5F5F5F5F5F5F5F5F5F5F5F5F5F5F5F5F5F5F5F5F5F5F5F5F5F5F5F5F5F5
310
F5F5F5F5F5F5F5F5F5F5F5F5F5F5F5F5F5F5F5F5F5F5F5F5F5F5F5F5F5F5F5F5F5F5F5F5F5F5F5F5F5F5F5F5F5F5F5F5F5F5F5F5F5F5F5F5F5F5F5F5F5F5F5F5F5F5F5F5F5F5F5F5F5F5F5F5F5F5F5F5F5F5F5F5F5F5F5F5F5F5F5F5F5F5F5F5F5F5F5F5F5F5F5F5F5F5F5F5F5F5F5F5F5E2E2E2F5F5F5F5F5F5F5F5F5F5F5
310
F5F5F5F5F5F5F5F5F5F5F5F5F5F5F5F5F5F5F5F5F5F5F5F5F5F5F5F5F5F5F5F5F5F5F5F5F5F5F5F5F5F5F5F5F5F5F5F5F5F5F5F5F5F5F5F5F5F5F5F5F5F5F5F5F5F5F5F5F5F5F5F5F5F5F5F5F5F5F5F5F5F5F5F5F5F5F5F5F5F5F5F5F5F5F5F5F5F5F5F5F5F5F5F5F5F5F5F5F5F5F5F5F5F5F5F5F5F5F5F5F5F5F5F5F5F5F5
310
F5F5F5F5F5F5F5F5F5F5F5F5F5F5F5F5F5F5F5F5F5F5F5F5F5F5F5F5F5F5F5F5F5F5F5F5F5F5F5E2E2E2F5F5F5F5F5F5F5F5F5F5F5F5F5F5F5F5F5F5F5F5F5F5F5F5F5F5F5F5F5F5F5F5F5F5F5F5F5F5F5F5F5F5F5F5F5F5F5F5F5F5F5F5F5F5F5F5F5F5F5F5F5F5F5F5F5F5F5F5F5F5F5F5F5F5F5F5F5F5F5F5F5F5F5F5F5
310
F5F5F5F5F5F5F5F5F5F5F5F5F5F5F5F5F5F5F5F5F5F5F5F5F5F5F5F5F5F5F5F5F5F5F5F5F5F5F5F5F5F5F5F5F5F5F5F5F5F5F5F5F5F5F5F5F5F5F5F5F5F5F5F5F5F5F5F5F5F5F5F5F5F5F5F5F5F5F5F5F5F5F5F5F5F5F5F5F5F5F5F5E2E2E2F5F5F5E2F5F5F5F5F5F5F5F5F5F5F5F5F5F5F5F5F5F5F5F5F5F5F5F5F5F5F5F5
310
F5F5F5F5F5F5F5F5F5F5F5F5F5F5F5F5F5F5F5F5F5F5F5F5F5F5F5F5F5F5F5F5F5F5F5F5F5F5F5F5F5F5F5F5F5F5F5F5F5F5F5F5F5F5F5F5F5F5F5F5F5F5F5F5F5F5F5F5F5F5F5F5F5F5F5F5F5F5F5F5F5F5F5F5F5F5F5F5F5F5F5F5F5F5F5F5F5F5F5F5F5F5F5F5F5F5F5F5F5F5F5F5F5F5F5F5F5F5F5F5F5F5F5F5F5F5F5
310
F5F5F5F5F5F5F5F5F5F5F5F5F5F5E2F5F5F5E2E2E2F5F5F5E2F5F5F5F5F5F5F5F5F5F5F5F5F5F5F5F5F5F5F5F5F5F5F5F5F5F5F5F5F5F5F5F5F5F5F5F5F5F5F5F5F5F5F5F5F5F5F5F5F5F5F5F5F5F5F5F5F5F5F5F5F5F5F5F5F5F5F5F5F5F5F5F5F5F5F5F5F5F5F5F5F5F5F5F5F5F5F5F5F5F5F5F5F5F5F5F5F5F5F5F5F5F5
310
F5F5F5F5F5F5F5F5F5F5F5F5F5F5F5F5F5F5F5F5F5F5F5F5F5F5F5F5F5F5F5F5F5F5F5F5F5F5F5F5F5F5F5F5F5F5F5F5F5F5F5F5F5F5F5F5F5F5F5F5F5F5F5F5F5F5F5E2F5F5F5E2E2E2F5F5F5E2F5F5F5F5F5F5F5F5F5F5F5F5F5F5F5F5F5F5F5F5F5F5F5F5F5F5F5F5F5F5F5F5F5F5F5F5F5F5F5F5F5F5F5F5F5F5F5F5F5
310
F5F5F5F5F5F5F5F5F5F5F5F5F5F5F5F5F5F5F5F5F5F5F5F5F5F5F5F5F5F5F5F5F5F5F5F5F5F5F5F5F5F5F5F5F5F5F5F5F5F5F5F5F5F5F5F5F5F5F5F5F5F5F5F5F5F5F5F5F5F5F5F5F5F5F5F5F5F5F5F5F5F5F5F5F5F5F5F5F5F5F5F5F5F5F5F5F5F5F5F5F5F5F5F5F5F5F5F5F5F5F5F5F5F5F5F5F5F5F5F5E2F5F5F5E2E2E2
310
F5F5F5E2F5F5F5F5F5F5F5F5F5F5F5F5F5F5F5F5F5F5F5F5F5F5F5F5F5F5F5F5F5F5F5F5F5F5F5F5F5F5F5F5F5F5F5F5F5F5F5F5F5F5F5F5F5F5F5F5F5F5F5F5F5F5F5F5F5F5F5F5F5F5F5F5F5F5F5F5F5F5F5F5F5F5F5F5F5F5F5F5F5F5F5F5F5F5F5F5F5F5F5F5F5F5F5F5F5F5F5F5F5F5F5F5F5F5F5F5F5F5F5F5F5F5F5
310
F5F5F5F5F5F5F5F5F5F5F5F5F5F5F5F5F5F5F5F5F5F5F5F5F5F5F5F5F5F5F5F5F5F5F5F5F5F5F5F5F5F5F5F5F5F5E2F5F5F5E2E2E2F5F5F5E2F5F5F5F5F5F5F5F5F5F5F5F5F5F5F5F5F5F5F5F5F5F5F5F5F5F5F5F5F5F5F5F5F5F5F5F5F5F5F5F5F5F5F5F5F5F5F5F5F5F5F5F5F5F5F5F5F5F5F5F5F5F5F5F5F5F5F5F5F5F5
310
F5F5F5F5F5F5F5F5F5F5F5F5F5F5F5F5F5F5F5F5F5F5F5F5F5F5F5F5F5F5F5F5F5F5F5F5F5F5F5F5F5F5F5F5F5F5F5F5F5F5F5F5F5F5F5F5F5F5F5F5F5F5F5F5F5F5F5F5F5F5F5F5F5F5F5F5F5F5F5F5F5F5F5F5F5F5F5F5F5F5F5F5F5F5F5F5F5F5F5E2F5F5F5E2E2E2F5F5F5E2F5F5F5F5F5F5F5F5F5F5F5F5F5F5F5F5F5
310
F5F5F5F5F5F5F5F5F5F5F5F5F5F5F5F5F5F5F5F5F5F5F5F5F5F5F5F5F5F5F5F5F5F5F5F5F5F5F5F5F5F5F5F5F5F5F5F5F5F5F5F5F5F5F5F5F5F5F5F5F5F5F5F5F5F5F5F5F5F5F5F5F5F5F5F5F5F5F5F5F5F5F5F5F5F5F5F5F5F5F5F5F5F5F5F5F5F5F5F5F5F5F5F5F5F5F5F5F5F5F5F5F5F5F5F5F5F5F5F5F5F5F5F5F5F5F5
310
F5F5F5F5F5F5F5F5F5F5F5F5F5F5F5F5F5F5F5F5F5F5F5F5F5E2F5F5F5E2E2E2F5F5F5E2F5F5F5F5F5F5F5F5F5F5F5F5F5F5F5F5F5F5F5F5F5F5F5F5F5F5F5F5F5F5F5F5F5F5F5F5F5F5F5F5F5F5F5F5F5F5F5F5F5F5F5F5F5F5F5F5F5F5F5F5F5F5F5F5F5F5F5F5F5F5F5F5F5F5F5F5F5F5F5F5F5F5F5F5F5F5F5F5F5F5F5
310
F5F5F5F5F5F5F5F5F5F5F5F5F5F5F5F5F5F5F5F5F5F5F5F5F5F5F5F5F5F5F5F5F5F5F5F5F5F5F5F5F5F5F5F5F5F5F5F5F5F5F5F5F5F5F5F5F5F5F5F5F5F5F5F5F5F5F5F5F5F5F5F5F5F5F5F5F5F5E2F5F5F5E2E2E2F5F5F5E2F5F5F5F5F5F5F5F5F5F5F5F5F5F5F5F5F5F5F5F5F5F5F5F5F5F5F5F5F5F5F5F5F5F5F5F5F5F5
310
F5F5F5F5F5F5F5F5F5F5F5F5F5F5F5F5F5F5F5F5F5F5F5F5F5F5F5F5F5F5F5F5F5F5F5F5F5F5F5F5F5F5F5F5F5F5F5F5F5F5F5F5F5F5F5F5F5F5F5F5F5F5F5F5F5F5F5F5F5F5F5F5F5F5F5F5F5F5F5F5F5F5F5F5F5F5F5F5F5F5F5F5F5F5F5F5F5F5F5F5F5F5F5F5F5F5F5F5F5F5F5F5F5F5F5F5F5F5F5F5F5F5F5F5F5F5F5
310
F5F5F5F5E2F5F5F5E2E2E2F5F5F5E2F5F5F5F5F5F5F5F5F5F5F5F5F5F5F5F5F5F5F5F5F5F5F5F5F5F5F5F5F5F5F5F5F5F5F5F5F5F5F5F5F5F5F5F5F5F5F5F5F5F5F5F5F5F5F5F5F5F5F5F5F5F5F5F5F5F5F5F5F5F5F5F5F5F5F5F5F5F5F5F5F5F5F5F5F5F5F5F5F5F5F5F5F5F5F5F5F5F5F5F5F5F5F5F5F5F5F5F5F5F5F5F5
310
F5F5F5F5F5F5F5F5F5F5F5F5F5F5F5F5F5F5F5F5F5F5F5F5F5F5F5F5F5F5F5F5F5F5F5F5F5F5F5F5F5F5F5F5F5F5F5F5F5F5F5F5F5F5F5F5F5E2F5F5F5E2E2E2F5F5F5E2F5F5F5F5F5F5F5F5F5F5F5F5F5F5F5F5F5F5F5F5F5F5F5F5F5F5F5F5F5F5F5F5F5F5F5F5F5F5F5F5F5F5F5F5F5F5F5F5F5F5F5F5F5F5F5F5F5F5F5
310
F5F5F5F5F5F5F5F5F5F5F5F5F5F5F5F5F5F5F5F5F5F5F5F5F5F5F5F5F5F5F5F5F5F5F5F5F5F5F5F5F5F5F5F5F5F5F5F5F5F5F5F5F5F5F5F5F5F5F5F5F5F5F5F5F5F5F5F5F5F5F5F5F5F5F5F5F5F5F5F5F5F5F5F5F5F5F5F5F5F5F5F5F5F5F5F5F5F5F5F5F5F5F5F5F5F5F5F5F5F5E2F5F5F5E2E2E2F5F5F5E2F5F5F5F5F5F5
310
F5F5F5F5F5F5F5F5F5F5F5F5F5F5F5F5F5F5F5F5F5F5F5F5F5F5F5F5F5F5F5F5F5F5F5F5F5F5F5F5F5F5F5F5F5F5F5F5F5F5F5F5F5F5F5F5F5F5F5F5F5F5F5F5F5F5F5F5F5F5F5F5F5F5F5F5F5F5F5F5F5F5F5F5F5F5F5F5F5F5F5F5F5F5F5F5F5F5F5F5F5F5F5F5F5F5F5F5F5F5F5F5F5F5F5F5F5F5F5F5F5F5F5F5F5F5F5
310
F5F5F5F5F5F5F5F5F5F5F5F5F5F5F5F5F5F5F5F5F5F5F5F5F5F5F5F5F5F5F5F5F5F5F5F5E2F5F5F5E2E2E2F5F5F5E2F5F5F5F5F5F5F5F5F5F5F5F5F5F5F5F5F5F5F5F5F5F5F5F5F5F5F5F5F5F5F5F5F5F5F5F5F5F5F5F5F5F5F5F5F5F5F5F5F5F5F5F5F5F5F5F5F5F5F5F5F5F5F5F5F5F5F5F5F5F5F5F5F5F5F5F5F5F5F5F5
310
F5F5F5F5F5F5F5F5F5F5F5F5F5F5F5F5F5F5F5F5F5F5F5F5F5F5F5F5F5F5F5F5F5F5F5F5F5F5F5F5F5F5F5F5F5F5F5F5F5F5F5F5F5F5F5F5F5F5F5F5F5F5F5F5F5F5F5F5F5F5F5F5F5F5F5F5F5F5F5F5F5F5F5F5F5F5F5F5F5E2F5F5F5E2E2E2F5F5F5E2F5F5F5F5F5F5F5F5F5F5F5F5F5F5F5F5F5F5F5F5F5F5F5F5F5F5F5
310
F5F5F5F5F5F5F5F5F5F5F5F5F5F5F5F5F5F5F5F5F5F5F5F5F5F5F5F5F5F5F5F5F5F5F5F5F5F5F5F5F5F5F5F5F5F5F5F5F5F5F5F5F5F5F5F5F5F5F5F5F5F5F5F5F5F5F5F5F5F5F5F5F5F5F5F5F5F5F5F5F5F5F5F5F5F5F5F5F5F5F5F5F5F5F5F5F5F5F5F5F5F5F5F5F5F5F5F5F5F5F5F5F5F5F5F5F5F5F5F5F5F5F5F5F5F5F5
310
F5F5F5F5F5F5F5F5F5F5F5F5F5F5F5E2F5F5F5E2E2E2F5F5F5E2F5F5F5F5F5F5F5F5F5F5F5F5F5F5F5F5F5F5F5F5F5F5F5F5F5F5F5F5F5F5F5F5F5F5F5F5F5F5F5F5F5F5F5F5F5F5F5F5F5F5F5F5F5F5F5F5F5F5F5F5F5F5F5F5F5F5F5F5F5F5F5F5F5F5F5F5F5F5F5F5F5F5F5F5F5F5F5F5F5F5F5F5F5F5F5F5F5F5F5F5F5
310
F5F5F5F5F5F5F5F5F5F5F5F5F5F5F5F5F5F5F5F5F5F5F5F5F5F5F5F5F5F5F5F5F5F5F5F5F5F5F5F5F5F5F5F5F5F5F5F5F5F5F5F5F5F5F5F5F5F5F5F5F5F5F5F5F5F5F5F5E2F5F5F5E2E2E2F5F5F5E2F5F5F5F5F5F5F5F5F5F5F5F5F5F5F5F5F5F5F5F5F5F5F5F5F5F5F5F5F5F5F5F5F5F5F5F5F5F5F5F5F5F5F5F5F5F5F5F5
310
F5F5F5F5F5F5F5F5F5F5F5F5F5F5F5F5F5F5F5F5F5F5F5F5F5F5F5F5F5F5F5F5F5F5F5F5F5F5F5F5F5F5F5F5F5F5F5F5F5F5F5F5F5F5F5F5F5F5F5F5F5F5F5F5F5F5F5F5F5F5F5F5F5F5F5F5F5F5F5F5F5F5F5F5F5F5F5F5F5F5F5F5F5F5F5F5F5F5F5F5F5F5F5F5F5F5F5F5F5F5F5F5F5F5F5F5F5F5F5F5F5E2F5F5F5E2E2
310
E2F5F5F5E2F5F5F5F5F5F5F5F5F5F5F5F5F5F5F5F5F5F5F5F5F5F5F5F5F5F5F5F5F5F5F5F5F5F5F5F5F5F5F5F5F5F5F5F5F5F5F5F5F5F5F5F5F5F5F5F5F5F5F5F5F5F5F5F5F5F5F5F5F5F5F5F5F5F5F5F5F5F5F5F5F5F5F5F5F5F5F5F5F5F5F5F5F5F5F5F5F5F5F5F5F5F5F5F5F5F5F5F5F5F5F5F5F5F5F5F5F5F5F5F5F5F5
310
F5F5F5F5F5F5F5F5F5F5F5F5F5F5F5F5F5F5F5F5F5F5F5F5F5F5F5F5F5F5F5F5F5F5F5F5F5F5F5F5F5F5F5F5F5F5F5E2F5F5F5E2E2E2F5F5F5F5F5F5F5F5F5F5F5F5F5F5F5F5F5F5F5F5F5F5F5F5F5F5F5F5F5F5F5F5F5F5F5F5F5F5F5F5F5F5F5F5F5F5F5F5F5F5F5F5F5F5F5F5F5F5F5F5F5F5F5F5F5F5F5F5F5F5F5F5F5
310
F5F5F5F5F5F5F5F5F5F5F5F5F5F5F5F5F5F5F5F5F5F5F5F5F5F5F5F5F5F5F5F5F5F5F5F5F5F5F5F5F5F5F5F5F5F5F5F5F5F5F5F5F5F5F5F5F5F5F5F5F5F5F5F5F5F5F5F5F5F5F5F5F5F5F5F5F5F5F5F5F5F5F5F5F5F5F5F5F5F5F5F5F5F5F5F5F5F5F5F5F5F5F5F5E2E2E2F5F5F5F5F5F5F5F5F5F5F5F5F5F5F5F5F5F5F5F5
310
F5F5F5F5F5F5F5F5F5F5F5F5F5F5F5F5F5F5F5F5F5F5F5F5F5F5F5F5F5F5F5F5F5F5F5F5F5F5F5F5F5F5F5F5F5F5F5F5F5F5F5F5F5F5F5F5F5F5F5F5F5F5F5F5F5F5F5F5F5F5F5F5F5F5F5F5F5F5F5F5F5F5F5F5F5F5F5F5F5F5F5F5F5F5F5F5F5F5F5F5F5F5F5F5F5F5F5F5F5F5F5F5F5F5F5F5F5F5F5F5F5F5F5F5F5F5F5
310
F5F5F5F5F5F5F5F5F5F5F5F5F5F5F5F5F5F5F5F5F5F5F5F5F5F5F5F5F5F5E2E2E2F5F5F5F5F5F5F5F5F5F5F5F5F5F5F5F5F5F5F5F5F5F5F5F5F5F5F5F5F5F5F5F5F5F5F5F5F5F5F5F5F5F5F5F5F5F5F5F5F5F5F5F5F5F5F5F5F5F5F5F5F5F5F5F5F5F5F5F5F5F5F5F5F5F5F5F5F5F5F5F5F5F5F5F5F5F5F5F5F5F5F5F5F5F5
310
F5F5F5F5F5F5F5F5F5F5F5F5F5F5F5F5F5F5F5F5F5F5F5F5F5F5F5F5F5F5F5F5F5F5F5F5F5F5F5F5F5F5F5F5F5F5F5F5F5F5F5F5F5F5F5F5F5F5F5F5F5F5F5F5F5F5F5F5F5F5F5F5F5F5F5F5F5F5F5F5F5F5F5E2E2E2F5F5F5F5F5F5F5F5F5F5F5F5F5F5F5F5F5F5F5F5F5F5F5F5F5F5F5F5F5F5F5F5F5F5F5F5F5F5F5F5F5
310
F5F5F5F5F5F5F5F5F5F5F5F5F5F5F5F5F5F5F5F5F5F5F5F5F5F5F5F5F5F5F5F5F5F5F5F5F5F5F5F5F5F5F5F5F5F5F5F5F5F5F5F5F5F5F5F5F5F5F5F5F5F5F5F5F5F5F5F5F5F5F5F5F5F5F5F5F5F5F5F5F5F5F5F5F5F5F5F5F5F5F5F5F5F5F5F5F5F5F5F5F5F5F5F5F5F5F5F5F5F5F5F5F5F5F5F5F5F5F5F5F5F5F5F5F5F5F5
310
F5F5F5F5F5F5F5F5F5E2E2E2F5F5F5F5F5F5F5F5F5F5F5F5F5F5F5F5F5F5F5F5F5F5F5F5F5F5F5F5F5F5F5F5F5F5F5F5F5F5F5F5F5F5F5F5F5F5F5F5F5F5F5F5F5F5F5F5F5F5F5F5F5F5F5F5F5F5F5F5F5F5F5F5F5F5F5F5F5F5F5F5F5F5F5F5F5F5F5F5F5F5F5F5F5F5F5F5F5F5F5F5F5F5F5F5F5F5F5F5F5F5F5F5F5F5F5
310
F5F5F5F5F5F5F5F5F5F5F5F5F5F5F5F5F5F5F5F5F5F5F5F5F5F5F5F5F5F5F5F5F5F5F5F5F5F5F5F5F5F5F5F5F5F5F5F5F5F5F5F5F5F5F5F5F5F5F5F5F5F5E2E2E2F5F5F5F5F5F5F5F5F5F5F5F5F5F5F5F5F5F5F5F5F5F5F5F5F5F5F5F5F5F5F5F5F5F5F5F5F5F5F5F5F5F5F5F5F5F5F5F5F5F5F5F5F5F5F5F5F5F5F5F5F5F5
310
F5F5F5F5F5F5F5F5F5F5F5F5F5F5F5F5F5F5F5F5F5F5F5F5F5F5F5F5F5F5F5F5F5F5F5F5F5F5F5F5F5F5F5F5F5F5F5F5F5F5F5F5F5F5F5F5F5F5F5F5F5F5F5F5F5F5F5F5F5F5F5F5F5F5F5F5F5F5F5F5F5F5F5F5F5F5F5F5F5F5F5F5F5F5F5F5F5F5F5F5F5F5F5F5F5F5F5F5F5F5F5F5F5F5F5E2E2E2F5F5F5F5F5F5F5F5F5
310
F5F5F5F5F5F5F5F5F5F5F5F5F5F5F5F5F5F5F5F5F5F5F5F5F5F5F5F5F5F5F5F5F5F5F5F5F5F5F5F5F5F5F5F5F5F5F5F5F5F5F5F5F5F5F5F5F5F5F5F5F5F5F5F5F5F5F5F5F5F5F5F5F5F5F5F5F5F5F5F5F5F5F5F5F5F5F5F5F5F5F5F5F5F5F5F5F5F5F5F5F5F5F5F5F5F5F5F5F5F5F5F5F5F5F5F5F5F5F5F5F5F5F5F5F5F5F5
310
F5F5F5F5F5F5F5F5F5F5F5F5F5F5F5F5F5F5F5F5F5F5F5F5F5F5F5F5F5F5F5F5F5F5F5F5F5F5F5F5F5E2E2E2F5F5F5F5F5F5F5F5F5F5F5F5F5F5F5F5F5F5F5F5F5F5F5F5F5F5F5F5F5F5F5F5F5F5F5F5F5F5F5F5F5F5F5F5F5F5F5F5F5F5F5F5F5F5F5F5F5F5F5F5F5F5F5F5F5F5F5F5F5F5F5F5F5F5F5F5F5F5F5F5F5F5F5
310
F5F5F5F5F5F5F5F5F5F5F5F5F5F5F5F5F5F5F5F5F5F5F5F5F5F5F5F5F5F5F5F5F5F5F5F5F5F5F5F5F5F5F5F5F5F5F5F5F5F5F5F5F5F5F5F5F5F5F5F5F5F5F5F5F5F5F5F5F5F5F5F5F5F5F5F5F5F5F5F5F5F5F5F5F5F5F5F5F5F5F5F5F5F5E2E2E2F5F5F5E2F5F5F5F5F5F5F5F5F5F5F5F5F5F5F5F5F5F5F5F5F5F5F5F5F5F5
310
F5F5F5F5F5F5F5F5F5F5F5F5F5F5F5F5F5F5F5F5F5F5F5F5F5F5F5F5F5F5F5F5F5F5F5F5F5F5F5F5F5F5F5F5F5F5F5F5F5F5F5F5F5F5F5F5F5F5F5F5F5F5F5F5F5F5F5F5F5F5F5F5F5F5F5F5F5F5F5F5F5F5F5F5F5F5F5F5F5F5F5F5F5F5F5F5F5F5F5F5F5F5F5F5F5F5F5F5F5F5F5F5F5F5F5F5F5F5F5F5F5F5F5F5F5F5F5
310
F5F5F5F5F5F5F5F5F5F5F5F5F5F5F5F5E2F5F5F5E2E2E2F5F5F5E2F5F5F5F5F5F5F5F5F5F5F5F5F5F5F5F5F5F5F5F5F5F5F5F5F5F5F5F5F5F5F5F5F5F5F5F5F5F5F5F5F5F5F5F5F5F5F5F5F5F5F5F5F5F5F5F5F5F5F5F5F5F5F5F5F5F5F5F5F5F5F5F5F5F5F5F5F5F5F5F5F5F5F5F5F5F5F5F5F5F5F5F5F5F5F5F5F5F5F5F5
310
F5F5F5F5F5F5F5F5F5F5F5F5F5F5F5F5F5F5F5F5F5F5F5F5F5F5F5F5F5F5F5F5F5F5F5F5F5F5F5F5F5F5F5F5F5F5F5F5F5F5F5F5F5F5F5F5F5F5F5F5F5F5F5F5F5F5F5F5F5E2F5F5F5E2E2E2F5F5F5E2F5F5F5F5F5F5F5F5F5F5F5F5F5F5F5F5F5F5F5F5F5F5F5F5F5F5F5F5F5F5F5F5F5F5F5F5F5F5F5F5F5F5F5F5F5F5F5
310
F5F5F5F5F5F5F5F5F5F5F5F5F5F5F5F5F5F5F5F5F5F5F5F5F5F5F5F5F5F5F5F5F5F5F5F5F5F5F5F5F5F5F5F5F5F5F5F5F5F5F5F5F5F5F5F5F5F5F5F5F5F5F5F5F5F5F5F5F5F5F5F5F5F5F5F5F5F5F5F5F5F5F5F5F5F5F5F5F5F5F5F5F5F5F5F5F5F5F5F5F5F5F5F5F5F5F5F5F5F5F5F5F5F5F5F5F5F5F5F5F5F5E2F5F5F5E2
310
E2E2F5F5F5E2F5F5F5F5F5F5F5F5F5F5F5F5F5F5F5F5F5F5F5F5F5F5F5F5F5F5F5F5F5F5F5F5F5F5F5F5F5F5F5F5F5F5F5F5F5F5F5F5F5F5F5F5F5F5F5F5F5F5F5F5F5F5F5F5F5F5F5F5F5F5F5F5F5F5F5F5F5F5F5F5F5F5F5F5F5F5F5F5F5F5F5F5F5F5F5F5F5F5F5F5F5F5F5F5F5F5F5F5F5F5F5F5F5F5F5F5F5F5F5F5F5
310
F5F5F5F5F5F5F5F5F5F5F5F5F5F5F5F5F5F5F5F5F5F5F5F5F5F5F5F5F5F5F5F5F5F5F5F5F5F5F5F5F5F5F5F5F5F5F5F5E2F5F5F5E2E2E2F5F5F5E2F5F5F5F5F5F5F5F5F5F5F5F5F5F5F5F5F5F5F5F5F5F5F5F5F5F5F5F5F5F5F5F5F5F5F5F5F5F5F5F5F5F5F5F5F5F5F5F5F5F5F5F5F5F5F5F5F5F5F5F5F5F5F5F5F5F5F5F5
310
F5F5F5F5F5F5F5F5F5F5F5F5F5F5F5F5F5F5F5F5F5F5F5F5F5F5F5F5F5F5F5F5F5F5F5F5F5F5F5F5F5F5F5F5F5F5F5F5F5F5F5F5F5F5F5F5F5F5F5F5F5F5F5F5F5F5F5F5F5F5F5F5F5F5F5F5F5F5F5F5F5F5F5F5F5F5F5F5F5F5F5F5F5F5F5F5F5F5F5F5F5E2F5F5F5E2E2E2F5F5F5E2F5F5F5F5F5F5F5F5F5F5F5F5F5F5F5
310
F5F5F5F5F5F5F5F5F5F5F5F5F5F5F5F5F5F5F5F5F5F5F5F5F5F5F5F5F5F5F5F5F5F5F5F5F5F5F5F5F5F5F5F5F5F5F5F5F5F5F5F5F5F5F5F5F5F5F5F5F5F5F5F5F5F5F5F5F5F5F5F5F5F5F5F5F5F5F5F5F5F5F5F5F5F5F5F5F5F5F5F5F5F5F5F5F5F5F5F5F5F5F5F5F5F5F5F5F5F5F5F5F5F5F5F5F5F5F5F5F5F5F5F5F5F5F5
310
F5F5F5F5F5F5F5F5F5F5F5F5F5F5F5F5F5F5F5F5F5F5F5F5F5F5F5E2F5F5F5E2E2E2F5F5F5E2F5F5F5F5F5F5F5F5F5F5F5F5F5F5F5F5F5F5F5F5F5F5F5F5F5F5F5F5F5F5F5F5F5F5F5F5F5F5F5F5F5F5F5F5F5F5F5F5F5F5F5F5F5F5F5F5F5F5F5F5F5F5F5F5F5F5F5F5F5F5F5F5F5F5F5F5F5F5F5F5F5F5F5F5F5F5F5F5F5
310
F5F5F5F5F5F5F5F5F5F5F5F5F5F5F5F5F5F5F5F5F5F5F5F5F5F5F5F5F5F5F5F5F5F5F5F5F5F5F5F5F5F5F5F5F5F5F5F5F5F5F5F5F5F5F5F5F5F5F5F5F5F5F5F5F5F5F5F5F5F5F5F5F5F5F5F5F5F5F5F5E2F5F5F5E2E2E2F5F5F5E2F5F5F5F5F5F5F5F5F5F5F5F5F5F5F5F5F5F5F5F5F5F5F5F5F5F5F5F5F5F5F5F5F5F5F5F5
310
F5F5F5F5F5F5F5F5F5F5F5F5F5F5F5F5F5F5F5F5F5F5F5F5F5F5F5F5F5F5F5F5F5F5F5F5F5F5F5F5F5F5F5F5F5F5F5F5F5F5F5F5F5F5F5F5F5F5F5F5F5F5F5F5F5F5F5F5F5F5F5F5F5F5F5F5F5F5F5F5F5F5F5F5F5F5F5F5F5F5F5F5F5F5F5F5F5F5F5F5F5F5F5F5F5F5F5F5F5F5F5F5F5F5F5F5F5F5F5F5F5F5F5F5F5F5F5
310
F5F5F5F5F5F5E2F5F5F5E2E2E2F5F5F5E2F5F5F5F5F5F5F5F5F5F5F5F5F5F5F5F5F5F5F5F5F5F5F5F5F5F5F5F5F5F5F5F5F5F5F5F5F5F5F5F5F5F5F5F5F5F5F5F5F5F5F5F5F5F5F5F5F5F5F5F5F5F5F5F5F5F5F5F5F5F5F5F5F5F5F5F5F5F5F5F5F5F5F5F5F5F5F5F5F5F5F5F5F5F5F5F5F5F5F5F5F5F5F5F5F5F5F5F5F5F5
310
F5F5F5F5F5F5F5F5F5F5F5F5F5F5F5F5F5F5F5F5F5F5F5F5F5F5F5F5F5F5F5F5F5F5F5F5F5F5F5F5F5F5F5F5F5F5F5F5F5F5F5F5F5F5F5F5F5F5F5E2F5F5F5E2E2E2F5F5F5E2F5F5F5F5F5F5F5F5F5F5F5F5F5F5F5F5F5F5F5F5F5F5F5F5F5F5F5F5F5F5F5F5F5F5F5F5F5F5F5F5F5F5F5F5F5F5F5F5F5F5F5F5F5F5F5F5F5
310
F5F5F5F5F5F5F5F5F5F5F5F5F5F5F5F5F5F5F5F5F5F5F5F5F5F5F5F5F5F5F5F5F5F5F5F5F5F5F5F5F5F5F5F5F5F5F5F5F5F5F5F5F5F5F5F5F5F5F5F5F5F5F5F5F5F5F5F5F5F5F5F5F5F5F5F5F5F5F5F5F5F5F5F5F5F5F5F5F5F5F5F5F5F5F5F5F5F5F5F5F5F5F5F5F5F5F5F5F5F5F5F5E2F5F5F5E2E2E2F5F5F5E2F5F5F5F5
310
F5F5F5F5F5F5F5F5F5F5F5F5F5F5F5F5F5F5F5F5F5F5F5F5F5F5F5F5F5F5F5F5F5F5F5F5F5F5F5F5F5F5F5F5F5F5F5F5F5F5F5F5F5F5F5F5F5F5F5F5F5F5F5F5F5F5F5F5F5F5F5F5F5F5F5F5F5F5F5F5F5F5F5F5F5F5F5F5F5F5F5F5F5F5F5F5F5F5F5F5F5F5F5F5F5F5F5F5F5F5F5F5F5F5F5F5F5F5F5F5F5F5F5F5F5F5F5
310
F5F5F5F5F5F5F5F5F5F5F5F5F5F5F5F5F5F5F5F5F5F5F5F5F5F5F5F5F5F5F5F5F5F5F5F5F5F5E2F5F5F5E2E2E2F5F5F5E2F5F5F5F5F5F5F5F5F5F5F5F5F5F5F5F5F5F5F5F5F5F5F5F5F5F5F5F5F5F5F5F5F5F5F5F5F5F5F5F5F5F5F5F5F5F5F5F5F5F5F5F5F5F5F5F5F5F5F5F5F5F5F5F5F5F5F5F5F5F5F5F5F5F5F5F5F5F5
310
F5F5F5F5F5F5F5F5F5F5F5F5F5F5F5F5F5F5F5F5F5F5F5F5F5F5F5F5F5F5F5F5F5F5F5F5F5F5F5F5F5F5F5F5F5F5F5F5F5F5F5F5F5F5F5F5F5F5F5F5F5F5F5F5F5F5F5F5F5F5F5F5F5F5F5F5F5F5F5F5F5F5F5F5F5F5F5F5F5F5F5E2F5F5F5E2E2E2F5F5F5E2F5F5F5F5F5F5F5F5F5F5F5F5F5F5F5F5F5F5F5F5F5F5F5F5F5
310
F5F5F5F5F5F5F5F5F5F5F5F5F5F5F5F5F5F5F5F5F5F5F5F5F5F5F5F5F5F5F5F5F5F5F5F5F5F5F5F5F5F5F5F5F5F5F5F5F5F5F5F5F5F5F5F5F5F5F5F5F5F5F5F5F5F5F5F5F5F5F5F5F5F5F5F5F5F5F5F5F5F5F5F5F5F5F5F5F5F5F5F5F5F5F5F5F5F5F5F5F5F5F5F5F5F5F5F5F5F5F5F5F5F5F5F5F5F5F5F5F5F5F5F5F5F5F5
310
F5F5F5F5F5F5F5F5F5F5F5F5F5F5F5F5F5E2F5F5F5E2E2E2F5F5F5E2F5F5F5F5F5F5F5F5F5F5F5F5F5F5F5F5F5F5F5F5F5F5F5F5F5F5F5F5F5F5F5F5F5F5F5F5F5F5F5F5F5F5F5F5F5F5F5F5F5F5F5F5F5F5F5F5F5F5F5F5F5F5F5F5F5F5F5F5F5F5F5F5F5F5F5F5F5F5F5F5F5F5F5F5F5F5F5F5F5F5F5F5F5F5F5F5F5F5F5
310
F5F5F5F5F5F5F5F5F5F5F5F5F5F5F5F5F5F5F5F5F5F5F5F5F5F5F5F5F5F5F5F5F5F5F5F5F5F5F5F5F5F5F5F5F5F5F5F5F5F5F5F5F5F5F5F5F5F5F5F5F5F5F5F5F5F5F5F5F5F5E2F5F5F5E2E2E2F5F5F5E2F5F5F5F5F5F5F5F5F5F5F5F5F5F5F5F5F5F5F5F5F5F5F5F5F5F5F5F5F5F5F5F5F5F5F5F5F5F5F5F5F5F5F5F5F5F5
310
F5F5F5F5F5F5F5F5F5F5F5F5F5F5F5F5F5F5F5F5F5F5F5F5F5F5F5F5F5F5F5F5F5F5F5F5F5F5F5F5F5F5F5F5F5F5F5F5F5F5F5F5F5F5F5F5F5F5F5F5F5F5F5F5F5F5F5F5F5F5F5F5F5F5F5F5F5F5F5F5F5F5F5F5F5F5F5F5F5F5F5F5F5F5F5F5F5F5F5F5F5F5F5F5F5F5F5F5F5F5F5F5F5F5F5F5F5F5F5F5F5F5F5E2F5F5F5
310
E2E2E2F5F5F5E2F5F5F5F5F5F5F5F5F5F5F5F5F5F5F5F5F5F5F5F5F5F5F5F5F5F5F5F5F5F5F5F5F5F5F5F5F5F5F5F5F5F5F5F5F5F5F5F5F5F5F5F5F5F5F5F5F5F5F5F5F5F5F5F5F5F5F5F5F5F5F5F5F5F5F5F5F5F5F5F5F5F5F5F5F5F5F5F5F5F5F5F5F5F5F5F5F5F5F5F5F5F5F5F5F5F5F5F5F5F5F5F5F5F5F5F5F5F5F5F5
310
F5F5F5F5F5F5F5F5F5F5F5F5F5F5F5F5F5F5F5F5F5F5F5F5F5F5F5F5F5F5F5F5F5F5F5F5F5F5F5F5F5F5F5F5F5F5F5F5F5E2F5F5F5E2E2E2F5F5F5F5F5F5F5F5F5F5F5F5F5F5F5F5F5F5F5F5F5F5F5F5F5F5F5F5F5F5F5F5F5F5F5F5F5F5F5F5F5F5F5F5F5F5F5F5F5F5F5F5F5F5F5F5F5F5F5F5F5F5F5F5F5F5F5F5F5F5F5
310
F5F5F5F5F5F5F5F5F5F5F5F5F5F5F5F5F5F5F5F5F5F5F5F5F5F5F5F5F5F5F5F5F5F5F5F5F5F5F5F5F5F5F5F5F5F5F5F5F5F5F5F5F5F5F5F5F5F5F5F5F5F5F5F5F5F5F5F5F5F5F5F5F5F5F5F5F5F5F5F5F5F5F5F5F5F5F5F5F5F5F5F5F5F5F5F5F5F5F5F5F5F5F5F5F5F5E2E2E2F5F5F5F5F5F5F5F5F5F5F5F5F5F5F5F5F5F5
310
F5F5F5F5F5F5F5F5F5F5F5F5F5F5F5F5F5F5F5F5F5F5F5F5F5F5F5F5F5F5F5F5F5F5F5F5F5F5F5F5F5F5F5F5F5F5F5F5F5F5F5F5F5F5F5F5F5F5F5F5F5F5F5F5F5F5F5F5F5F5F5F5F5F5F5F5F5F5F5F5F5F5F5F5F5F5F5F5F5F5F5F5F5F5F5F5F5F5F5F5F5F5F5F5F5F5F5F5F5F5F5F5F5F5F5F5F5F5F5F5F5F5F5F5F5F5F5
310
F5F5F5F5F5F5F5F5F5F5F5F5F5F5F5F5F5F5F5F5F5F5F5F5F5F5F5F5F5F5F5F5E2E2E2F5F5F5F5F5F5F5F5F5F5F5F5F5F5F5F5F5F5F5F5F5F5F5F5F5F5F5F5F5F5F5F5F5F5F5F5F5F5F5F5F5F5F5F5F5F5F5F5F5F5F5F5F5F5F5F5F5F5F5F5F5F5F5F5F5F5F5F5F5F5F5F5F5F5F5F5F5F5F5F5F5F5F5F5F5F5F5F5F5F5F5F5
310
F5F5F5F5F5F5F5F5F5F5F5F5F5F5F5F5F5F5F5F5F5F5F5F5F5F5F5F5F5F5F5F5F5F5F5F5F5F5F5F5F5F5F5F5F5F5F5F5F5F5F5F5F5F5F5F5F5F5F5F5F5F5F5F5F5F5F5F5F5F5F5F5F5F5F5F5F5F5F5F5F5F5F5F5F5E2E2E2F5F5F5F5F5F5F5F5F5F5F5F5F5F5F5F5F5F5F5F5F5F5F5F5F5F5F5F5F5F5F5F5F5F5F5F5F5F5F5
310
F5F5F5F5F5F5F5F5F5F5F5F5F5F5F5F5F5F5F5F5F5F5F5F5F5F5F5F5F5F5F5F5F5F5F5F5F5F5F5F5F5F5F5F5F5F5F5F5F5F5F5F5F5F5F5F5F5F5F5F5F5F5F5F5F5F5F5F5F5F5F5F5F5F5F5F5F5F5F5F5F5F5F5F5F5F5F5F5F5F5F5F5F5F5F5F5F5F5F5F5F5F5F5F5F5F5F5F5F5F5F5F5F5F5F5F5F5F5F5F5F5F5F5F5F5F5F5
310
F5F5F5F5F5F5F5F5F5F5F5E2E2E2F5F5F5F5F5F5F5F5F5F5F5F5F5F5F5F5F5F5F5F5F5F5F5F5F5F5F5F5F5F5F5F5F5F5F5F5F5F5F5F5F5F5F5F5F5F5F5F5F5F5F5F5F5F5F5F5F5F5F5F5F5F5F5F5F5F5F5F5F5F5F5F5F5F5F5F5F5F5F5F5F5F5F5F5F5F5F5F5F5F5F5F5F5F5F5F5F5F5F5F5F5F5F5F5F5F5F5F5F5F5F5F5F5
310
F5F5F5F5F5F5F5F5F5F5F5F5F5F5F5F5F5F5F5F5F5F5F5F5F5F5F5F5F5F5F5F5F5F5F5F5F5F5F5F5F5F5F5F5F5F5F5F5F5F5F5F5F5F5F5F5F5F5F5F5F5F5F5F5E2E2E2F5F5F5F5F5F5F5F5F5F5F5F5F5F5F5F5F5F5F5F5F5F5F5F5F5F5F5F5F5F5F5F5F5F5F5F5F5F5F5F5F5F5F5F5F5F5F5F5F5F5F5F5F5F5F5F5F5F5F5F5
310
F5F5F5F5F5F5F5F5F5F5F5F5F5F5F5F5F5F5F5F5F5F5F5F5F5F5F5F5F5F5F5F5F5F5F5F5F5F5F5F5F5F5F5F5F5F5F5F5F5F5F5F5F5F5F5F5F5F5F5F5F5F5F5F5F5F5F5F5F5F5F5F5F5F5F5F5F5F5F5F5F5F5F5F5F5F5F5F5F5F5F5F5F5F5F5F5F5F5F5F5F5F5F5F5F5F5F5F5F5F5F5F5F5F5F5F5F5E2E2E2F5F5F5F5F5F5F5
310
F5F5F5F5F5F5F5F5F5F5F5F5F5F5F5F5F5F5F5F5F5F5F5F5F5F5F5F5F5F5F5F5F5F5F5F5F5F5F5F5F5F5F5F5F5F5F5F5F5F5F5F5F5F5F5F5F5F5F5F5F5F5F5F5F5F5F5F5F5F5F5F5F5F5F5F5F5F5F5F5F5F5F5F5F5F5F5F5F5F5F5F5F5F5F5F5F5F5F5F5F5F5F5F5F5F5F5F5F5F5F5F5F5F5F5F5F5F5F5F5F5F5F5F5F5F5F5
310
F5F5F5F5F5F5F5F5F5F5F5F5F5F5F5F5F5F5F5F5F5F5F5F5F5F5F5F5F5F5F5F5F5F5F5F5F5F5F5F5F5F5F5E2E2E2F5F5F5F5F5F5F5F5F5F5F5F5F5F5F5F5F5F5F5F5F5F5F5F5F5F5F5F5F5F5F5F5F5F5F5F5F5F5F5F5F5F5F5F5F5F5F5F5F5F5F5F5F5F5F5F5F5F5F5F5F5F5F5F5F5F5F5F5F5F5F5F5F5F5F5F5F5F5F5F5F5
310
F5F5F5F5F5F5F5F5F5F5F5F5F5F5F5F5F5F5F5F5F5F5F5F5F5F5F5F5F5F5F5F5F5F5F5F5F5F5F5F5F5F5F5F5F5F5F5F5F5F5F5F5F5F5F5F5F5F5F5F5F5F5F5F5F5F5F5F5F5F5F5F5F5F5F5F5F5F5F5F5F5F5F5F5F5F5F5F5F5F5F5F5F5F5F5F5E2E2E2F5F5F5E2F5F5F5F5F5F5F5F5F5F5F5F5F5F5F5F5F5F5F5F5F5F5F5F5
310
F5F5F5F5F5F5F5F5F5F5F5F5F5F5F5F5F5F5F5F5F5F5F5F5F5F5F5F5F5F5F5F5F5F5F5F5F5F5F5F5F5F5F5F5F5F5F5F5F5F5F5F5F5F5F5F5F5F5F5F5F5F5F5F5F5F5F5F5F5F5F5F5F5F5F5F5F5F5F5F5F5F5F5F5F5F5F5F5F5F5F5F5F5F5F5F5F5F5F5F5F5F5F5F5F5F5F5F5F5F5F5F5F5F5F5F5F5F5F5F5F5F5F5F5F5F5F5
310
F5F5F5F5F5F5F5F5F5F5F5F5F5F5F5F5F5F5E2F5F5F5E2E2E2F5F5F5E2F5F5F5F5F5F5F5F5F5F5F5F5F5F5F5F5F5F5F5F5F5F5F5F5F5F5F5F5F5F5F5F5F5F5F5F5F5F5F5F5F5F5F5F5F5F5F5F5F5F5F5F5F5F5F5F5F5F5F5F5F5F5F5F5F5F5F5F5F5F5F5F5F5F5F5F5F5F5F5F5F5F5F5F5F5F5F5F5F5F5F5F5F5F5F5F5F5F5
310
F5F5F5F5F5F5F5F5F5F5F5F5F5F5F5F5F5F5F5F5F5F5F5F5F5F5F5F5F5F5F5F5F5F5F5F5F5F5F5F5F5F5F5F5F5F5F5F5F5F5F5F5F5F5F5F5F5F5F5F5F5F5F5F5F5F5F5F5F5F5F5E2F5F5F5E2E2E2F5F5F5E2F5F5F5F5F5F5F5F5F5F5F5F5F5F5F5F5F5F5F5F5F5F5F5F5F5F5F5F5F5F5F5F5F5F5F5F5F5F5F5F5F5F5F5F5F5
310
F5F5F5F5F5F5F5F5F5F5F5F5F5F5F5F5F5F5F5F5F5F5F5F5F5F5F5F5F5F5F5F5F5F5F5F5F5F5F5F5F5F5F5F5F5F5F5F5F5F5F5F5F5F5F5F5F5F5F5F5F5F5F5F5F5F5F5F5F5F5F5F5F5F5F5F5F5F5F5F5F5F5F5F5F5F5F5F5F5F5F5F5F5F5F5F5F5F5F5F5F5F5F5F5F5F5F5F5F5F5F5F5F5F5F5F5F5F5F5F5F5F5F5F5E2F5F5
310
F5E2E2E2F5F5F5E2F5F5F5F5F5F5F5F5F5F5F5F5F5F5F5F5F5F5F5F5F5F5F5F5F5F5F5F5F5F5F5F5F5F5F5F5F5F5F5F5F5F5F5F5F5F5F5F5F5F5F5F5F5F5F5F5F5F5F5F5F5F5F5F5F5F5F5F5F5F5F5F5F5F5F5F5F5F5F5F5F5F5F5F5F5F5F5F5F5F5F5F5F5F5F5F5F5F5F5F5F5F5F5F5F5F5F5F5F5F5F5F5F5F5F5F5F5F5F5
310
F5F5F5F5F5F5F5F5F5F5F5F5F5F5F5F5F5F5F5F5F5F5F5F5F5F5F5F5F5F5F5F5F5F5F5F5F5F5F5F5F5F5F5F5F5F5F5F5F5F5E2F5F5F5E2E2E2F5F5F5E2F5F5F5F5F5F5F5F5F5F5F5F5F5F5F5F5F5F5F5F5F5F5F5F5F5F5F5F5F5F5F5F5F5F5F5F5F5F5F5F5F5F5F5F5F5F5F5F5F5F5F5F5F5F5F5F5F5F5F5F5F5F5F5F5F5F5
310
F5F5F5F5F5F5F5F5F5F5F5F5F5F5F5F5F5F5F5F5F5F5F5F5F5F5F5F5F5F5F5F5F5F5F5F5F5F5F5F5F5F5F5F5F5F5F5F5F5F5F5F5F5F5F5F5F5F5F5F5F5F5F5F5F5F5F5F5F5F5F5F5F5F5F5F5F5F5F5F5F5F5F5F5F5F5F5F5F5F5F5F5F5F5F5F5F5F5F5F5F5F5F5E2F5F5F5E2E2E2F5F5F5E2F5F5F5F5F5F5F5F5F5F5F5F5F5
310
F5F5F5F5F5F5F5F5F5F5F5F5F5F5F5F5F5F5F5F5F5F5F5F5F5F5F5F5F5F5F5F5F5F5F5F5F5F5F5F5F5F5F5F5F5F5F5F5F5F5F5F5F5F5F5F5F5F5F5F5F5F5F5F5F5F5F5F5F5F5F5F5F5F5F5F5F5F5F5F5F5F5F5F5F5F5F5F5F5F5F5F5F5F5F5F5F5F5F5F5F5F5F5F5F5F5F5F5F5F5F5F5F5F5F5F5F5F5F5F5F5F5F5F5F5F5F5
310
F5F5F5F5F5F5F5F5F5F5F5F5F5F5F5F5F5F5F5F5F5F5F5F5F5F5F5F5F5E2F5F5F5E2E2E2F5F5F5E2F5F5F5F5F5F5F5F5F5F5F5F5F5F5F5F5F5F5F5F5F5F5F5F5F5F5F5F5F5F5F5F5F5F5F5F5F5F5F5F5F5F5F5F5F5F5F5F5F5F5F5F5F5F5F5F5F5F5F5F5F5F5F5F5F5F5F5F5F5F5F5F5F5F5F5F5F5F5F5F5F5F5F5F5F5F5F5
310
F5F5F5F5F5F5F5F5F5F5F5F5F5F5F5F5F5F5F5F5F5F5F5F5F5F5F5F5F5F5F5F5F5F5F5F5F5F5F5F5F5F5F5F5F5F5F5F5F5F5F5F5F5F5F5F5F5F5F5F5F5F5F5F5F5F5F5F5F5F5F5F5F5F5F5F5F5F5F5F5F5F5E2F5F5F5E2E2E2F5F5F5E2F5F5F5F5F5F5F5F5F5F5F5F5F5F5F5F5F5F5F5F5F5F5F5F5F5F5F5F5F5F5F5F5F5F5
310
F5F5F5F5F5F5F5F5F5F5F5F5F5F5F5F5F5F5F5F5F5F5F5F5F5F5F5F5F5F5F5F5F5F5F5F5F5F5F5F5F5F5F5F5F5F5F5F5F5F5F5F5F5F5F5F5F5F5F5F5F5F5F5F5F5F5F5F5F5F5F5F5F5F5F5F5F5F5F5F5F5F5F5F5F5F5F5F5F5F5F5F5F5F5F5F5F5F5F5F5F5F5F5F5F5F5F5F5F5F5F5F5F5F5F5F5F5F5F5F5F5F5F5F5F5F5F5
310
F5F5F5F5F5F5F5F5E2F5F5F5E2E2E2F5F5F5E2F5F5F5F5F5F5F5F5F5F5F5F5F5F5F5F5F5F5F5F5F5F5F5F5F5F5F5F5F5F5F5F5F5F5F5F5F5F5F5F5F5F5F5F5F5F5F5F5F5F5F5F5F5F5F5F5F5F5F5F5F5F5F5F5F5F5F5F5F5F5F5F5F5F5F5F5F5F5F5F5F5F5F5F5F5F5F5F5F5F5F5F5F5F5F5F5F5F5F5F5F5F5F5F5F5F5F5F5
310
F5F5F5F5F5F5F5F5F5F5F5F5F5F5F5F5F5F5F5F5F5F5F5F5F5F5F5F5F5F5F5F5F5F5F5F5F5F5F5F5F5F5F5F5F5F5F5F5F5F5F5F5F5F5F5F5F5F5F5F5F5E2F5F5F5E2E2E2F5F5F5E2F5F5F5F5F5F5F5F5F5F5F5F5F5F5F5F5F5F5F5F5F5F5F5F5F5F5F5F5F5F5F5F5F5F5F5F5F5F5F5F5F5F5F5F5F5F5F5F5F5F5F5F5F5F5F5
310
F5F5F5F5F5F5F5F5F5F5F5F5F5F5F5F5F5F5F5F5F5F5F5F5F5F5F5F5F5F5F5F5F5F5F5F5F5F5F5F5F5F5F5F5F5F5F5F5F5F5F5F5F5F5F5F5F5F5F5F5F5F5F5F5F5F5F5F5F5F5F5F5F5F5F5F5F5F5F5F5F5F5F5F5F5F5F5F5F5F5F5F5F5F5F5F5F5F5F5F5F5F5F5F5F5F5F5F5F5F5F5F5F5F5E2F5F5F5E2E2E2F5F5F5E2F5F5
310
F5F5F5F5F5F5F5F5F5F5F5F5F5F5F5F5F5F5F5F5F5F5F5F5F5F5F5F5F5F5F5F5F5F5F5F5F5F5F5F5F5F5F5F5F5F5F5F5F5F5F5F5F5F5F5F5F5F5F5F5F5F5F5F5F5F5F5F5F5F5F5F5F5F5F5F5F5F5F5F5F5F5F5F5F5F5F5F5F5F5F5F5F5F5F5F5F5F5F5F5F5F5F5F5F5F5F5F5F5F5F5F5F5F5F5F5F5F5F5F5F5F5F5F5F5F5F5
310
F5F5F5F5F5F5F5F5F5F5F5F5F5F5F5F5F5F5F5F5F5F5F5F5F5F5F5F5F5F5F5F5F5F5F5F5F5F5F5F5E2F5F5F5E2E2E2F5F5F5E2F5F5F5F5F5F5F5F5F5F5F5F5F5F5F5F5F5F5F5F5F5F5F5F5F5F5F5F5F5F5F5F5F5F5F5F5F5F5F5F5F5F5F5F5F5F5F5F5F5F5F5F5F5F5F5F5F5F5F5F5F5F5F5F5F5F5F5F5F5F5F5F5F5F5F5F5
310
F5F5F5F5F5F5F5F5F5F5F5F5F5F5F5F5F5F5F5F5F5F5F5F5F5F5F5F5F5F5F5F5F5F5F5F5F5F5F5F5F5F5F5F5F5F5F5F5F5F5F5F5F5F5F5F5F5F5F5F5F5F5F5F5F5F5F5F5F5F5F5F5F5F5F5F5F5F5F5F5F5F5F5F5F5F5F5F5F5F5F5F5F5E2F5F5F5E2E2E2F5F5F5E2F5F5F5F5F5F5F5F5F5F5F5F5F5F5F5F5F5F5F5F5F5F5F5
310
F5F5F5F5F5F5F5F5F5F5F5F5F5F5F5F5F5F5F5F5F5F5F5F5F5F5F5F5F5F5F5F5F5F5F5F5F5F5F5F5F5F5F5F5F5F5F5F5F5F5F5F5F5F5F5F5F5F5F5F5F5F5F5F5F5F5F5F5F5F5F5F5F5F5F5F5F5F5F5F5F5F5F5F5F5F5F5F5F5F5F5F5F5F5F5F5F5F5F5F5F5F5F5F5F5F5F5F5F5F5F5F5F5F5F5F5F5F5F5F5F5F5F5F5F5F5F5
310
F5F5F5F5F5F5F5F5F5F5F5F5F5F5F5F5F5F5F5E2F5F5F5E2E2E2F5F5F5E2F5F5F5F5F5F5F5F5F5F5F5F5F5F5F5F5F5F5F5F5F5F5F5F5F5F5F5F5F5F5F5F5F5F5F5F5F5F5F5F5F5F5F5F5F5F5F5F5F5F5F5F5F5F5F5F5F5F5F5F5F5F5F5F5F5F5F5F5F5F5F5F5F5F5F5F5F5F5F5F5F5F5F5F5F5F5F5F5F5F5F5F5F5F5F5F5F5
310
F5F5F5F5F5F5F5F5F5F5F5F5F5F5F5F5F5F5F5F5F5F5F5F5F5F5F5F5F5F5F5F5F5F5F5F5F5F5F5F5F5F5F5F5F5F5F5F5F5F5F5F5F5F5F5F5F5F5F5F5F5F5F5F5F5F5F5F5F5F5F5F5E2F5F5F5E2E2E2F5F5F5E2F5F5F5F5F5F5F5F5F5F5F5F5F5F5F5F5F5F5F5F5F5F5F5F5F5F5F5F5F5F5F5F5F5F5F5F5F5F5F5F5F5F5F5F5
310
F5F5F5F5F5F5F5F5F5F5F5F5F5F5F5F5F5F5F5F5F5F5F5F5F5F5F5F5F5F5F5F5F5F5F5F5F5F5F5F5F5F5F5F5F5F5F5F5F5F5F5F5F5F5F5F5F5F5F5F5F5F5F5F5F5F5F5F5F5F5F5F5F5F5F5F5F5F5F5F5F5F5F5F5F5F5F5F5F5F5F5F5F5F5F5F5F5F5F5F5F5F5F5F5F5F5F5F5F5F5F5F5F5F5F5F5F5F5F5F5F5F5F5F5F5E2F5
310
F5F5E2E2E2F5F5F5F5F5F5F5F5F5F5F5F5F5F5F5F5F5F5F5F5F5F5F5F5F5F5F5F5F5F5F5F5F5F5F5F5F5F5F5F5F5F5F5F5F5F5F5F5F5F5F5F5F5F5F5F5F5F5F5F5F5F5F5F5F5F5F5F5F5F5F5F5F5F5F5F5F5F5F5F5F5F5F5F5F5F5F5F5F5F5F5F5F5F5F5F5F5F5F5F5F5F5F5F5F5F5F5F5F5F5F5F5F5F5F5F5F5F5F5F5F5F5
310
F5F5F5F5F5F5F5F5F5F5F5F5F5F5F5F5F5F5F5F5F5F5F5F5F5F5F5F5F5F5F5F5F5F5F5F5F5F5F5F5F5F5F5F5F5F5F5F5F5F5F5F5F5F5F5E2E2E2F5F5F5F5F5F5F5F5F5F5F5F5F5F5F5F5F5F5F5F5F5F5F5F5F5F5F5F5F5F5F5F5F5F5F5F5F5F5F5F5F5F5F5F5F5F5F5F5F5F5F5F5F5F5F5F5F5F5F5F5F5F5F5F5F5F5F5F5F5
310
F5F5F5F5F5F5F5F5F5F5F5F5F5F5F5F5F5F5F5F5F5F5F5F5F5F5F5F5F5F5F5F5F5F5F5F5F5F5F5F5F5F5F5F5F5F5F5F5F5F5F5F5F5F5F5F5F5F5F5F5F5F5F5F5F5F5F5F5F5F5F5F5F5F5F5F5F5F5F5F5F5F5F5F5F5F5F5F5F5F5F5F5F5F5F5F5F5F5F5F5F5F5F5F5F5F5F5F5E2E2E2F5F5F5F5F5F5F5F5F5F5F5F5F5F5F5F5
310
F5F5F5F5F5F5F5F5F5F5F5F5F5F5F5F5F5F5F5F5F5F5F5F5F5F5F5F5F5F5F5F5F5F5F5F5F5F5F5F5F5F5F5F5F5F5F5F5F5F5F5F5F5F5F5F5F5F5F5F5F5F5F5F5F5F5F5F5F5F5F5F5F5F5F5F5F5F5F5F5F5F5F5F5F5F5F5F5F5F5F5F5F5F5F5F5F5F5F5F5F5F5F5F5F5F5F5F5F5F5F5F5F5F5F5F5F5F5F5F5F5F5F5F5F5F5F5
310
F5F5F5F5F5F5F5F5F5F5F5F5F5F5F5F5F5F5F5F5F5F5F5F5F5F5F5F5F5F5F5F5F5F5E2E2E2F5F5F5F5F5F5F5F5F5F5F5F5F5F5F5F5F5F5F5F5F5F5F5F5F5F5F5F5F5F5F5F5F5F5F5F5F5F5F5F5F5F5F5F5F5F5F5F5F5F5F5F5F5F5F5F5F5F5F5F5F5F5F5F5F5F5F5F5F5F5F5F5F5F5F5F5F5F5F5F5F5F5F5F5F5F5F5F5F5F5
310
F5F5F5F5F5F5F5F5F5F5F5F5F5F5F5F5F5F5F5F5F5F5F5F5F5F5F5F5F5F5F5F5F5F5F5F5F5F5F5F5F5F5F5F5F5F5F5F5F5F5F5F5F5F5F5F5F5F5F5F5F5F5F5F5F5F5F5F5F5F5F5F5F5F5F5F5F5F5F5F5F5F5F5F5F5F5F5E2E2E2F5F5F5F5F5F5F5F5F5F5F5F5F5F5F5F5F5F5F5F5F5F5F5F5F5F5F5F5F5F5F5F5F5F5F5F5F5
310
F5F5F5F5F5F5F5F5F5F5F5F5F5F5F5F5F5F5F5F5F5F5F5F5F5F5F5F5F5F5F5F5F5F5F5F5F5F5F5F5F5F5F5F5F5F5F5F5F5F5F5F5F5F5F5F5F5F5F5F5F5F5F5F5F5F5F5F5F5F5F5F5F5F5F5F5F5F5F5F5F5F5F5F5F5F5F5F5F5F5F5F5F5F5F5F5F5F5F5F5F5F5F5F5F5F5F5F5F5F5F5F5F5F5F5F5F5F5F5F5F5F5F5F5F5F5F5
310
F5F5F5F5F5F5F5F5F5F5F5F5F5E2E2E2F5F5F5F5F5F5F5F5F5F5F5F5F5F5F5F5F5F5F5F5F5F5F5F5F5F5F5F5F5F5F5F5F5F5F5F5F5F5F5F5F5F5F5F5F5F5F5F5F5F5F5F5F5F5F5F5F5F5F5F5F5F5F5F5F5F5F5F5F5F5F5F5F5F5F5F5F5F5F5F5F5F5F5F5F5F5F5F5F5F5F5F5F5F5F5F5F5F5F5F5F5F5F5F5F5F5F5F5F5F5F5
310
F5F5F5F5F5F5F5F5F5F5F5F5F5F5F5F5F5F5F5F5F5F5F5F5F5F5F5F5F5F5F5F5F5F5F5F5F5F5F5F5F5F5F5F5F5F5F5F5F5F5F5F5F5F5F5F5F5F5F5F5F5F5F5F5F5F5E2E2E2F5F5F5F5F5F5F5F5F5F5F5F5F5F5F5F5F5F5F5F5F5F5F5F5F5F5F5F5F5F5F5F5F5F5F5F5F5F5F5F5F5F5F5F5F5F5F5F5F5F5F5F5F5F5F5F5F5F5
310
F5F5F5F5F5F5F5F5F5F5F5F5F5F5F5F5F5F5F5F5F5F5F5F5F5F5F5F5F5F5F5F5F5F5F5F5F5F5F5F5F5F5F5F5F5F5F5F5F5F5F5F5F5F5F5F5F5F5F5F5F5F5F5F5F5F5F5F5F5F5F5F5F5F5F5F5F5F5F5F5F5F5F5F5F5F5F5F5F5F5F5F5F5F5F5F5F5F5F5F5F5F5F5F5F5F5F5F5F5F5F5F5F5F5F5F5F5F5F5E2E2E2F5F5F5F5F5
310
F5F5F5F5F5F5F5F5F5F5F5F5F5F5F5F5F5F5F5F5F5F5F5F5F5F5F5F5F5F5F5F5F5F5F5F5F5F5F5F5F5F5F5F5F5F5F5F5F5F5F5F5F5F5F5F5F5F5F5F5F5F5F5F5F5F5F5F5F5F5F5F5F5F5F5F5F5F5F5F5F5F5F5F5F5F5F5F5F5F5F5F5F5F5F5F5F5F5F5F5F5F5F5F5F5F5F5F5F5F5F5F5F5F5F5F5F5F5F5F5F5F5F5F5F5F5F5
310
F5F5F5F5F5F5F5F5F5F5F5F5F5F5F5F5F5F5F5F5F5F5F5F5F5F5F5F5F5F5F5F5F5F5F5F5F5F5F5F5F5F5F5F5F5E2E2E2F5F5F5F5F5F5F5F5F5F5F5F5F5F5F5F5F5F5F5F5F5F5F5F5F5F5F5F5F5F5F5F5F5F5F5F5F5F5F5F5F5F5F5F5F5F5F5F5F5F5F5F5F5F5F5F5F5F5F5F5F5F5F5F5F5F5F5F5F5F5F5F5F5F5F5F5F5F5F5
310
F5F5F5F5F5F5F5F5F5F5F5F5F5F5F5F5F5F5F5F5F5F5F5F5F5F5F5F5F5F5F5F5F5F5F5F5F5F5F5F5F5F5F5F5F5F5F5F5F5F5F5F5F5F5F5F5F5F5F5F5F5F5F5F5F5F5F5F5F5F5F5F5F5F5F5F5F5F5F5F5F5F5F5F5F5F5F5F5F5F5F5F5F5F5F5F5F5F5E2E2E2F5F5F5E2F5F5F5F5F5F5F5F5F5F5F5F5F5F5F5F5F5F5F5F5F5F5
310
F5F5F5F5F5F5F5F5F5F5F5F5F5F5F5F5F5F5F5F5F5F5F5F5F5F5F5F5F5F5F5F5F5F5F5F5F5F5F5F5F5F5F5F5F5F5F5F5F5F5F5F5F5F5F5F5F5F5F5F5F5F5F5F5F5F5F5F5F5F5F5F5F5F5F5F5F5F5F5F5F5F5F5F5F5F5F5F5F5F5F5F5F5F5F5F5F5F5F5F5F5F5F5F5F5F5F5F5F5F5F5F5F5F5F5F5F5F5F5F5F5F5F5F5F5F5F5
310
F5F5F5F5F5F5F5F5F5F5F5F5F5F5F5F5F5F5F5F5E2F5F5F5E2E2E2F5F5F5E2F5F5F5F5F5F5F5F5F5F5F5F5F5F5F5F5F5F5F5F5F5F5F5F5F5F5F5F5F5F5F5F5F5F5F5F5F5F5F5F5F5F5F5F5F5F5F5F5F5F5F5F5F5F5F5F5F5F5F5F5F5F5F5F5F5F5F5F5F5F5F5F5F5F5F5F5F5F5F5F5F5F5F5F5F5F5F5F5F5F5F5F5F5F5F5F5
310
F5F5F5F5F5F5F5F5F5F5F5F5F5F5F5F5F5F5F5F5F5F5F5F5F5F5F5F5F5F5F5F5F5F5F5F5F5F5F5F5F5F5F5F5F5F5F5F5F5F5F5F5F5F5F5F5F5F5F5F5F5F5F5F5F5F5F5F5F5F5F5F5F5E2F5F5F5E2E2E2F5F5F5E2F5F5F5F5F5F5F5F5F5F5F5F5F5F5F5F5F5F5F5F5F5F5F5F5F5F5F5F5F5F5F5F5F5F5F5F5F5F5F5F5F5F5F5
310
F5F5F5F5F5F5F5F5F5F5F5F5F5F5F5F5F5F5F5F5F5F5F5F5F5F5F5F5F5F5F5F5F5F5F5F5F5F5F5F5F5F5F5F5F5F5F5F5F5F5F5F5F5F5F5F5F5F5F5F5F5F5F5F5F5F5F5F5F5F5F5F5F5F5F5F5F5F5F5F5F5F5F5F5F5F5F5F5F5F5F5F5F5F5F5F5F5F5F5F5F5F5F5F5F5F5F5F5F5F5F5F5F5F5F5F5F5F5F5F5F5F5F5F5F5F5E2
310
F5F5F5E2E2E2F5F5F5E2F5F5F5F5F5F5F5F5F5F5F5F5F5F5F5F5F5F5F5F5F5F5F5F5F5F5F5F5F5F5F5F5F5F5F5F5F5F5F5F5F5F5F5F5F5F5F5F5F5F5F5F5F5F5F5F5F5F5F5F5F5F5F5F5F5F5F5F5F5F5F5F5F5F5F5F5F5F5F5F5F5F5F5F5F5F5F5F5F5F5F5F5F5F5F5F5F5F5F5F5F5F5F5F5F5F5F5F5F5F5F5F5F5F5F5F5F5
310
F5F5F5F5F5F5F5F5F5F5F5F5F5F5F5F5F5F5F5F5F5F5F5F5F5F5F5F5F5F5F5F5F5F5F5F5F5F5F5F5F5F5F5F5F5F5F5F5F5F5F5F5E2F5F5F5E2E2E2F5F5F5E2F5F5F5F5F5F5F5F5F5F5F5F5F5F5F5F5F5F5F5F5F5F5F5F5F5F5F5F5F5F5F5F5F5F5F5F5F5F5F5F5F5F5F5F5F5F5F5F5F5F5F5F5F5F5F5F5F5F5F5F5F5F5F5F5
310
F5F5F5F5F5F5F5F5F5F5F5F5F5F5F5F5F5F5F5F5F5F5F5F5F5F5F5F5F5F5F5F5F5F5F5F5F5F5F5F5F5F5F5F5F5F5F5F5F5F5F5F5F5F5F5F5F5F5F5F5F5F5F5F5F5F5F5F5F5F5F5F5F5F5F5F5F5F5F5F5F5F5F5F5F5F5F5F5F5F5F5F5F5F5F5F5F5F5F5F5F5F5F5F5F5E2F5F5F5E2E2E2F5F5F5E2F5F5F5F5F5F5F5F5F5F5F5
310
F5F5F5F5F5F5F5F5F5F5F5F5F5F5F5F5F5F5F5F5F5F5F5F5F5F5F5F5F5F5F5F5F5F5F5F5F5F5F5F5F5F5F5F5F5F5F5F5F5F5F5F5F5F5F5F5F5F5F5F5F5F5F5F5F5F5F5F5F5F5F5F5F5F5F5F5F5F5F5F5F5F5F5F5F5F5F5F5F5F5F5F5F5F5F5F5F5F5F5F5F5F5F5F5F5F5F5F5F5F5F5F5F5F5F5F5F5F5F5F5F5F5F5F5F5F5F5
310
F5F5F5F5F5F5F5F5F5F5F5F5F5F5F5F5F5F5F5F5F5F5F5F5F5F5F5F5F5F5F5E2F5F5F5E2E2E2F5F5F5E2F5F5F5F5F5F5F5F5F5F5F5F5F5F5F5F5F5F5F5F5F5F5F5F5F5F5F5F5F5F5F5F5F5F5F5F5F5F5F5F5F5F5F5F5F5F5F5F5F5F5F5F5F5F5F5F5F5F5F5F5F5F5F5F5F5F5F5F5F5F5F5F5F5F5F5F5F5F5F5F5F5F5F5F5F5
310
F5F5F5F5F5F5F5F5F5F5F5F5F5F5F5F5F5F5F5F5F5F5F5F5F5F5F5F5F5F5F5F5F5F5F5F5F5F5F5F5F5F5F5F5F5F5F5F5F5F5F5F5F5F5F5F5F5F5F5F5F5F5F5F5F5F5F5F5F5F5F5F5F5F5F5F5F5F5F5F5F5F5F5F5E2F5F5F5E2E2E2F5F5F5E2E2E2E2E2E2E2E2F5F5F5F5F5F5F5F5F5E2E2E2E2E2E2E2E2E2E2E2E2E2E2E2E2
310
F5F5F5F5F5F5F5F5E2E2E2E2E2E2E2E2E2E2E2E2E2E2E2E2F5F5F5F5F5F5F5F5F5E2E2E2E2E2E2E2E2E2E2E2E2E2E2E2F5F5F5F5F5F5F5F5F5E2E2E2E2E2E2E2E2E2E2E2E2E2E2E2F5F5F5F5F5F5F5F5F5E2E2E2E2E2E2E2E2E2E2E2E2E2E2E2E2F5F5F5F5F5F5F5F5E2E2E2E2E2E2E2E2E2E2E2E2E2E2E2E2F5F5F5F5F5F5
310
F5F5F5E2E2E2E2E2E2E2E2F5F5F5E2E2E2F5F5F5F5F5F5F5F5F5F5F5F5F5F5F5F5F5F5F5F5F5F5F5F5F5F5F5F5F5F5F5F5F5F5F5F5F5F5F5F5F5F5F5F5F5F5F5F5F5F5F5F5F5F5F5F5F5F5F5F5F5F5F5F5F5F5F5F5F5F5F5F5F5F5F5F5F5F5F5F5F5F5F5F5F5F5F5F5F5F5F5F5F5F5F5F5F5F5F5F5F5F5F5F5F5F5F5F5F5F5
310
F5F5F5F5F5F5F5F5F5F5F5F5F5F5F5F5F5F5F5F5F5F5F5F5F5F5F5F5F5F5F5F5F5F5F5F5F5F5F5F5F5F5F5F5F5F5F5F5F5F5F5F5F5F5F5F5F5F5F5F5F5F5F5F5F5F5F5E2E2E2F5F5F5F5F5F5F5F5F5F5F5F5F5F5F5F5F5F5F5F5F5F5F5F5F5F5F5F5F5F5F5F5F5F5F5F5F5F5F5F5F5F5F5F5F5F5F5F5F5F5F5F5F5F5F5F5F5
310
F5F5F5F5F5F5F5F5F5F5F5F5F5F5F5F5F5F5F5F5F5F5F5F5F5F5F5F5F5F5F5F5F5F5F5F5F5F5F5F5F5F5F5F5F5F5F5F5F5F5F5F5F5F5F5F5F5F5F5F5F5F5F5F5F5F5F5F5F5F5F5F5F5F5F5F5F5F5F5F5F5F5F5F5F5F5F5F5F5F5F5F5F5F5F5F5F5F5F5F5F5F5F5F5F5F5F5F5F5F5F5F5F5F5F5F5F5F5F5F5E2EFE2E2E2E2E2
310
E2E2E2E2E2E2E2E2E2E2E2E2E2E2E2E2E2E2E2E2E2E2E2E2E2E2E2E2E2E2E2E2E2E2E2E2E2E2E2E2E2E2E2E2E2E2E2E2E2E2E2E2E2E2E2E2E2E2E2E2E2E2E2E2E2E2E2E2E2E2E2E2E2E2E2E2E2E2E2E2E2E2E2E2E2E2E2E2E2E2E2E2E2E2E2E2E2E2E2E2E2E2E2E2E2E2E2E2E2E2E2E2E2E2E2E2E2E2E2E2E2E2E2E2E2E2E2
310
E2E2E2E2E2E2E2E2E2E2E2E2E2E2E2E2E2E2E2E2E2E2E2E2E2E2E2E2E2E2E2E2E2E2E2E2E2E2E2E2E2E2E2E2E2E2E2EF
  0
XRECORD
  5
5E2C
102
{ACAD_REACTORS
330
5D8E
102
}
330
5D8E
100
AcDbXrecord
280
     1
102
MATERIAL
148
0.0
149
0.0
149
0.0
 93
        0
 94
      127
282
     0
 72
     0
 77
     0
171
     0
175
     0
179
     0
273
     0
  0
XRECORD
  5
5D90
102
{ACAD_REACTORS
330
5D8E
102
}
330
5D8E
100
AcDbXrecord
280
     1
270
     1
271
     1
  0
XRECORD
  5
5D8F
102
{ACAD_REACTORS
330
5D8E
102
}
330
5D8E
100
AcDbXrecord
280
     1
270
     1
271
     1
  0
XRECORD
  5
5D93
102
{ACAD_REACTORS
330
5D8E
102
}
330
5D8E
100
AcDbXrecord
280
     1
270
     1
271
     1
  0
XRECORD
  5
5D92
102
{ACAD_REACTORS
330
5D8E
102
}
330
5D8E
100
AcDbXrecord
280
     1
270
     1
271
     1
  0
XRECORD
  5
5D94
102
{ACAD_REACTORS
330
5D8E
102
}
330
5D8E
100
AcDbXrecord
280
     1
270
     1
271
     1
  0
XRECORD
  5
5D91
102
{ACAD_REACTORS
330
5D8E
102
}
330
5D8E
100
AcDbXrecord
280
     1
270
     1
271
     1
  0
XRECORD
  5
5E2B
102
{ACAD_REACTORS
330
5D86
102
}
330
5D86
100
AcDbXrecord
280
     1
102
MATERIAL
148
0.0
149
0.0
149
0.0
 93
        0
 94
      127
282
     0
 72
     0
 77
     0
171
     0
175
     0
179
     0
273
     0
  0
XRECORD
  5
5D88
102
{ACAD_REACTORS
330
5D86
102
}
330
5D86
100
AcDbXrecord
280
     1
270
     1
271
     1
  0
XRECORD
  5
5D87
102
{ACAD_REACTORS
330
5D86
102
}
330
5D86
100
AcDbXrecord
280
     1
270
     1
271
     1
  0
XRECORD
  5
5D8B
102
{ACAD_REACTORS
330
5D86
102
}
330
5D86
100
AcDbXrecord
280
     1
270
     1
271
     1
  0
XRECORD
  5
5D8A
102
{ACAD_REACTORS
330
5D86
102
}
330
5D86
100
AcDbXrecord
280
     1
270
     1
271
     1
  0
XRECORD
  5
5D8C
102
{ACAD_REACTORS
330
5D86
102
}
330
5D86
100
AcDbXrecord
280
     1
270
     1
271
     1
  0
XRECORD
  5
5D89
102
{ACAD_REACTORS
330
5D86
102
}
330
5D86
100
AcDbXrecord
280
     1
270
     1
271
     1
  0
XRECORD
  5
5E2D
102
{ACAD_REACTORS
330
5D96
102
}
330
5D96
100
AcDbXrecord
280
     1
102
MATERIAL
148
0.0
149
0.0
149
0.0
 93
        0
 94
      127
282
     0
 72
     0
 77
     0
171
     0
175
     0
179
     0
273
     0
  0
XRECORD
  5
5D98
102
{ACAD_REACTORS
330
5D96
102
}
330
5D96
100
AcDbXrecord
280
     1
270
     1
271
     1
  0
XRECORD
  5
5D97
102
{ACAD_REACTORS
330
5D96
102
}
330
5D96
100
AcDbXrecord
280
     1
270
     1
271
     1
  0
XRECORD
  5
5D9B
102
{ACAD_REACTORS
330
5D96
102
}
330
5D96
100
AcDbXrecord
280
     1
270
     1
271
     1
  0
XRECORD
  5
5D9A
102
{ACAD_REACTORS
330
5D96
102
}
330
5D96
100
AcDbXrecord
280
     1
270
     1
271
     1
  0
XRECORD
  5
5D9C
102
{ACAD_REACTORS
330
5D96
102
}
330
5D96
100
AcDbXrecord
280
     1
270
     1
271
     1
  0
XRECORD
  5
5D99
102
{ACAD_REACTORS
330
5D96
102
}
330
5D96
100
AcDbXrecord
280
     1
270
     1
271
     1
  0
CELLSTYLEMAP
  5
5E1D
102
{ACAD_REACTORS
330
5E1C
102
}
330
5E1C
100
AcDbCellStyleMap
 90
        3
300
CELLSTYLE
  1
TABLEFORMAT_BEGIN
 90
        5
170
     1
 91
        0
 92
    32768
 62
   257
 93
        1
300
CONTENTFORMAT
  1
CONTENTFORMAT_BEGIN
 90
        0
 91
        0
 92
        4
 93
        0
300

 40
0.0
140
1.0
 94
        5
 62
     0
340
11
144
6.0
309
CONTENTFORMAT_END
171
     1
301
MARGIN
  1
CELLMARGIN_BEGIN
 40
1.5
 40
1.5
 40
1.5
 40
1.5
 40
0.18
 40
0.18
309
CELLMARGIN_END
 94
        6
 95
        1
302
GRIDFORMAT
  1
GRIDFORMAT_BEGIN
 90
        0
 91
        1
 62
     0
 92
       -2
340
0
 93
        0
 40
0.045
309
GRIDFORMAT_END
 95
        2
302
GRIDFORMAT
  1
GRIDFORMAT_BEGIN
 90
        0
 91
        1
 62
     0
 92
       -2
340
0
 93
        0
 40
0.045
309
GRIDFORMAT_END
 95
        4
302
GRIDFORMAT
  1
GRIDFORMAT_BEGIN
 90
        0
 91
        1
 62
     0
 92
       -2
340
0
 93
        0
 40
0.045
309
GRIDFORMAT_END
 95
        8
302
GRIDFORMAT
  1
GRIDFORMAT_BEGIN
 90
        0
 91
        1
 62
     0
 92
       -2
340
0
 93
        0
 40
0.045
309
GRIDFORMAT_END
 95
       16
302
GRIDFORMAT
  1
GRIDFORMAT_BEGIN
 90
        0
 91
        1
 62
     0
 92
       -2
340
0
 93
        0
 40
0.045
309
GRIDFORMAT_END
 95
       32
302
GRIDFORMAT
  1
GRIDFORMAT_BEGIN
 90
        0
 91
        1
 62
     0
 92
       -2
340
0
 93
        0
 40
0.045
309
GRIDFORMAT_END
309
TABLEFORMAT_END
  1
CELLSTYLE_BEGIN
 90
        1
 91
        1
300
_TITLE
309
CELLSTYLE_END
300
CELLSTYLE
  1
TABLEFORMAT_BEGIN
 90
        5
170
     1
 91
        0
 92
        0
 62
   257
 93
        1
300
CONTENTFORMAT
  1
CONTENTFORMAT_BEGIN
 90
        0
 91
        0
 92
        4
 93
        0
300

 40
0.0
140
1.0
 94
        5
 62
     0
340
11
144
4.5
309
CONTENTFORMAT_END
171
     1
301
MARGIN
  1
CELLMARGIN_BEGIN
 40
1.5
 40
1.5
 40
1.5
 40
1.5
 40
0.18
 40
0.18
309
CELLMARGIN_END
 94
        6
 95
        1
302
GRIDFORMAT
  1
GRIDFORMAT_BEGIN
 90
        0
 91
        1
 62
     0
 92
       -2
340
0
 93
        0
 40
0.045
309
GRIDFORMAT_END
 95
        2
302
GRIDFORMAT
  1
GRIDFORMAT_BEGIN
 90
        0
 91
        1
 62
     0
 92
       -2
340
0
 93
        0
 40
0.045
309
GRIDFORMAT_END
 95
        4
302
GRIDFORMAT
  1
GRIDFORMAT_BEGIN
 90
        0
 91
        1
 62
     0
 92
       -2
340
0
 93
        0
 40
0.045
309
GRIDFORMAT_END
 95
        8
302
GRIDFORMAT
  1
GRIDFORMAT_BEGIN
 90
        0
 91
        1
 62
     0
 92
       -2
340
0
 93
        0
 40
0.045
309
GRIDFORMAT_END
 95
       16
302
GRIDFORMAT
  1
GRIDFORMAT_BEGIN
 90
        0
 91
        1
 62
     0
 92
       -2
340
0
 93
        0
 40
0.045
309
GRIDFORMAT_END
 95
       32
302
GRIDFORMAT
  1
GRIDFORMAT_BEGIN
 90
        0
 91
        1
 62
     0
 92
       -2
340
0
 93
        0
 40
0.045
309
GRIDFORMAT_END
309
TABLEFORMAT_END
  1
CELLSTYLE_BEGIN
 90
        2
 91
        1
300
_HEADER
309
CELLSTYLE_END
300
CELLSTYLE
  1
TABLEFORMAT_BEGIN
 90
        5
170
     1
 91
        0
 92
        0
 62
   257
 93
        1
300
CONTENTFORMAT
  1
CONTENTFORMAT_BEGIN
 90
        0
 91
        0
 92
        4
 93
        0
300

 40
0.0
140
1.0
 94
        2
 62
     0
340
11
144
4.5
309
CONTENTFORMAT_END
171
     1
301
MARGIN
  1
CELLMARGIN_BEGIN
 40
1.5
 40
1.5
 40
1.5
 40
1.5
 40
0.18
 40
0.18
309
CELLMARGIN_END
 94
        6
 95
        1
302
GRIDFORMAT
  1
GRIDFORMAT_BEGIN
 90
        0
 91
        1
 62
     0
 92
       -2
340
0
 93
        0
 40
0.045
309
GRIDFORMAT_END
 95
        2
302
GRIDFORMAT
  1
GRIDFORMAT_BEGIN
 90
        0
 91
        1
 62
     0
 92
       -2
340
0
 93
        0
 40
0.045
309
GRIDFORMAT_END
 95
        4
302
GRIDFORMAT
  1
GRIDFORMAT_BEGIN
 90
        0
 91
        1
 62
     0
 92
       -2
340
0
 93
        0
 40
0.045
309
GRIDFORMAT_END
 95
        8
302
GRIDFORMAT
  1
GRIDFORMAT_BEGIN
 90
        0
 91
        1
 62
     0
 92
       -2
340
0
 93
        0
 40
0.045
309
GRIDFORMAT_END
 95
       16
302
GRIDFORMAT
  1
GRIDFORMAT_BEGIN
 90
        0
 91
        1
 62
     0
 92
       -2
340
0
 93
        0
 40
0.045
309
GRIDFORMAT_END
 95
       32
302
GRIDFORMAT
  1
GRIDFORMAT_BEGIN
 90
        0
 91
        1
 62
     0
 92
       -2
340
0
 93
        0
 40
0.045
309
GRIDFORMAT_END
309
TABLEFORMAT_END
  1
CELLSTYLE_BEGIN
 90
        3
 91
        2
300
_DATA
309
CELLSTYLE_END
  0
XRECORD
  5
5E25
102
{ACAD_REACTORS
330
5E1C
102
}
330
5E1C
100
AcDbXrecord
280
     1
102
ACAD_ROUNDTRIP_PRE2007_TABLESTYLE
 90
        4
 91
        0
  1

 92
        4
 93
        0
  2

 94
        4
 95
        0
  3

  0
ENDSEC
  0
EOF
