  0
SECTION
  2
HEADER
  9
$ACADVER
  1
AC1015
  9
$ACADMAINTVER
 70
    20
  9
$DWGCODEPAGE
  3
ANSI_1252
  9
$INSBASE
 10
0.0
 20
0.0
 30
0.0
  9
$EXTMIN
 10
362.5830405542895
 20
265.4261794865902
 30
-0.0015258207003583
  9
$EXTMAX
 10
366.315263267275
 20
270.7408152226601
 30
0.0000000349246037
  9
$LIMMIN
 10
-170.0
 20
-170.0
  9
$LIMMAX
 10
519.0
 20
260.0
  9
$ORTHOMODE
 70
     0
  9
$REGENMODE
 70
     1
  9
$FILLMODE
 70
     1
  9
$QTEXTMODE
 70
     0
  9
$MIRRTEXT
 70
     0
  9
$LTSCALE
 40
1.0
  9
$ATTMODE
 70
     1
  9
$TEXTSIZE
 40
0.2
  9
$TRACEWID
 40
0.05
  9
$TEXTSTYLE
  7
STANDARD
  9
$CLAYER
  8
1
  9
$CELTYPE
  6
BYLAYER
  9
$CECOLOR
 62
   256
  9
$CELTSCALE
 40
1.0
  9
$DISPSILH
 70
     0
  9
$DIMSCALE
 40
1.0
  9
$DIMASZ
 40
0.19685
  9
$DIMEXO
 40
0.03937
  9
$DIMDLI
 40
0.5905510000000001
  9
$DIMRND
 40
0.0
  9
$DIMDLE
 40
0.0
  9
$DIMEXE
 40
0.07874
  9
$DIMTP
 40
0.0
  9
$DIMTM
 40
0.000000001
  9
$DIMTXT
 40
0.1377952755905512
  9
$DIMCEN
 40
0.003543
  9
$DIMTSZ
 40
0.0
  9
$DIMTOL
 70
     0
  9
$DIMLIM
 70
     0
  9
$DIMTIH
 70
     0
  9
$DIMTOH
 70
     0
  9
$DIMSE1
 70
     0
  9
$DIMSE2
 70
     0
  9
$DIMTAD
 70
     1
  9
$DIMZIN
 70
    11
  9
$DIMBLK
  1

  9
$DIMASO
 70
     1
  9
$DIMSHO
 70
     1
  9
$DIMPOST
  1

  9
$DIMAPOST
  1

  9
$DIMALT
 70
     0
  9
$DIMALTD
 70
     2
  9
$DIMALTF
 40
25.4
  9
$DIMLFAC
 40
1.0
  9
$DIMTOFL
 70
     1
  9
$DIMTVP
 40
0.0
  9
$DIMTIX
 70
     0
  9
$DIMSOXD
 70
     0
  9
$DIMSAH
 70
     0
  9
$DIMBLK1
  1

  9
$DIMBLK2
  1

  9
$DIMSTYLE
  2
AM_DIN
  9
$DIMCLRD
 70
     0
  9
$DIMCLRE
 70
     0
  9
$DIMCLRT
 70
     0
  9
$DIMTFAC
 40
0.7071069999999999
  9
$DIMGAP
 40
0.090551
  9
$DIMJUST
 70
     0
  9
$DIMSD1
 70
     0
  9
$DIMSD2
 70
     0
  9
$DIMTOLJ
 70
     1
  9
$DIMTZIN
 70
     8
  9
$DIMALTZ
 70
     9
  9
$DIMALTTZ
 70
     8
  9
$DIMUPT
 70
     0
  9
$DIMDEC
 70
     3
  9
$DIMTDEC
 70
     3
  9
$DIMALTU
 70
     2
  9
$DIMALTTD
 70
     2
  9
$DIMTXSTY
  7
STANDARD 3.5 mm
  9
$DIMAUNIT
 70
     0
  9
$DIMADEC
 70
     0
  9
$DIMALTRND
 40
0.0
  9
$DIMAZIN
 70
     2
  9
$DIMDSEP
 70
    46
  9
$DIMATFIT
 70
     3
  9
$DIMFRAC
 70
     0
  9
$DIMLDRBLK
  1

  9
$DIMLUNIT
 70
     3
  9
$DIMLWD
 70
    -1
  9
$DIMLWE
 70
    -2
  9
$DIMTMOVE
 70
     0
  9
$LUNITS
 70
     2
  9
$LUPREC
 70
     4
  9
$SKETCHINC
 40
0.1
  9
$FILLETRAD
 40
0.0
  9
$AUNITS
 70
     0
  9
$AUPREC
 70
     0
  9
$MENU
  1
c:\tdm21\cad\caduti13\tdm13
  9
$ELEVATION
 40
0.0
  9
$PELEVATION
 40
0.0
  9
$THICKNESS
 40
0.0
  9
$LIMCHECK
 70
     0
  9
$CHAMFERA
 40
0.0
  9
$CHAMFERB
 40
0.0
  9
$CHAMFERC
 40
0.0
  9
$CHAMFERD
 40
0.0
  9
$SKPOLY
 70
     0
  9
$TDCREATE
 40
2457164.758772280
  9
$TDUCREATE
 40
2457164.529605614
  9
$TDUPDATE
 40
2457164.760005532
  9
$TDUUPDATE
 40
2457164.530838866
  9
$TDINDWG
 40
0.0012346759
  9
$TDUSRTIMER
 40
0.0012344907
  9
$USRTIMER
 70
     1
  9
$ANGBASE
 50
0.0
  9
$ANGDIR
 70
     0
  9
$PDMODE
 70
     1
  9
$PDSIZE
 40
0.0
  9
$PLINEWID
 40
0.0
  9
$SPLFRAME
 70
     0
  9
$SPLINETYPE
 70
     6
  9
$SPLINESEGS
 70
     8
  9
$HANDSEED
  5
246A
  9
$SURFTAB1
 70
     6
  9
$SURFTAB2
 70
     6
  9
$SURFTYPE
 70
     6
  9
$SURFU
 70
     6
  9
$SURFV
 70
     6
  9
$UCSBASE
  2

  9
$UCSNAME
  2

  9
$UCSORG
 10
363.6173669771555
 20
267.6638972388114
 30
0.0
  9
$UCSXDIR
 10
1.0
 20
0.0
 30
0.0
  9
$UCSYDIR
 10
0.0
 20
1.0
 30
0.0
  9
$UCSORTHOREF
  2

  9
$UCSORTHOVIEW
 70
     0
  9
$UCSORGTOP
 10
0.0
 20
0.0
 30
0.0
  9
$UCSORGBOTTOM
 10
0.0
 20
0.0
 30
0.0
  9
$UCSORGLEFT
 10
0.0
 20
0.0
 30
0.0
  9
$UCSORGRIGHT
 10
0.0
 20
0.0
 30
0.0
  9
$UCSORGFRONT
 10
0.0
 20
0.0
 30
0.0
  9
$UCSORGBACK
 10
0.0
 20
0.0
 30
0.0
  9
$PUCSBASE
  2

  9
$PUCSNAME
  2

  9
$PUCSORG
 10
0.0
 20
0.0
 30
0.0
  9
$PUCSXDIR
 10
1.0
 20
0.0
 30
0.0
  9
$PUCSYDIR
 10
0.0
 20
1.0
 30
0.0
  9
$PUCSORTHOREF
  2

  9
$PUCSORTHOVIEW
 70
     0
  9
$PUCSORGTOP
 10
0.0
 20
0.0
 30
0.0
  9
$PUCSORGBOTTOM
 10
0.0
 20
0.0
 30
0.0
  9
$PUCSORGLEFT
 10
0.0
 20
0.0
 30
0.0
  9
$PUCSORGRIGHT
 10
0.0
 20
0.0
 30
0.0
  9
$PUCSORGFRONT
 10
0.0
 20
0.0
 30
0.0
  9
$PUCSORGBACK
 10
0.0
 20
0.0
 30
0.0
  9
$USERI1
 70
     0
  9
$USERI2
 70
     0
  9
$USERI3
 70
     0
  9
$USERI4
 70
     0
  9
$USERI5
 70
     0
  9
$USERR1
 40
0.0
  9
$USERR2
 40
0.0
  9
$USERR3
 40
0.0
  9
$USERR4
 40
0.0
  9
$USERR5
 40
0.0
  9
$WORLDVIEW
 70
     1
  9
$SHADEDGE
 70
     3
  9
$SHADEDIF
 70
    70
  9
$TILEMODE
 70
     1
  9
$MAXACTVP
 70
    64
  9
$PINSBASE
 10
0.0
 20
0.0
 30
0.0
  9
$PLIMCHECK
 70
     0
  9
$PEXTMIN
 10
0.0
 20
0.0
 30
0.0
  9
$PEXTMAX
 10
297.0
 20
210.0
 30
0.0
  9
$PLIMMIN
 10
-6.352894443934569
 20
-4.429974890987324
  9
$PLIMMAX
 10
303.3743962297308
 20
214.4139451502602
  9
$UNITMODE
 70
     0
  9
$VISRETAIN
 70
     0
  9
$PLINEGEN
 70
     0
  9
$PSLTSCALE
 70
     1
  9
$TREEDEPTH
 70
  3020
  9
$CMLSTYLE
  2
STANDARD
  9
$CMLJUST
 70
     0
  9
$CMLSCALE
 40
1.0
  9
$PROXYGRAPHICS
 70
     1
  9
$MEASUREMENT
 70
     0
  9
$CELWEIGHT
370
    -1
  9
$ENDCAPS
280
     0
  9
$JOINSTYLE
280
     0
  9
$LWDISPLAY
290
     0
  9
$INSUNITS
 70
     0
  9
$HYPERLINKBASE
  1
http://www.secotools.com/
  9
$STYLESHEET
  1
monochrome.ctb
  9
$XEDIT
290
     1
  9
$CEPSNTYPE
380
     0
  9
$PSTYLEMODE
290
     1
  9
$FINGERPRINTGUID
  2
{5904F09F-3182-4778-871C-52CE1685C97F}
  9
$VERSIONGUID
  2
{9AA91E5B-EBBC-4D6D-9BDE-53C4C04C16D6}
  9
$EXTNAMES
290
     1
  9
$PSVPSCALE
 40
0.0
  9
$OLESTARTUP
290
     0
  0
ENDSEC
  0
SECTION
  2
CLASSES
  0
CLASS
  1
ACDBDICTIONARYWDFLT
  2
AcDbDictionaryWithDefault
  3
ObjectDBX Classes
 90
        0
280
     0
281
     0
  0
CLASS
  1
ACDBPLACEHOLDER
  2
AcDbPlaceHolder
  3
ObjectDBX Classes
 90
        0
280
     0
281
     0
  0
CLASS
  1
LAYOUT
  2
AcDbLayout
  3
ObjectDBX Classes
 90
        0
280
     0
281
     0
  0
CLASS
  1
DICTIONARYVAR
  2
AcDbDictionaryVar
  3
ObjectDBX Classes
 90
        0
280
     0
281
     0
  0
CLASS
  1
TABLESTYLE
  2
AcDbTableStyle
  3
ObjectDBX Classes
 90
     4095
280
     0
281
     0
  0
CLASS
  1
MATERIAL
  2
AcDbMaterial
  3
ObjectDBX Classes
 90
     1153
280
     0
281
     0
  0
CLASS
  1
VISUALSTYLE
  2
AcDbVisualStyle
  3
ObjectDBX Classes
 90
     4095
280
     0
281
     0
  0
CLASS
  1
SCALE
  2
AcDbScale
  3
ObjectDBX Classes
 90
     1153
280
     0
281
     0
  0
CLASS
  1
MLEADERSTYLE
  2
AcDbMLeaderStyle
  3
ACDB_MLEADERSTYLE_CLASS
 90
     4095
280
     0
281
     0
  0
CLASS
  1
ACME_DOCUMENT
  2
AcMeDbDoc
  3
AcMeServices
 90
     1024
280
     0
281
     0
  0
CLASS
  1
AMGSETTINGSOBJ
  2
AmgSettingsObj
  3
"AcadM|Product Description: AutoCAD Mechanical|Company: Autodesk, Inc."
 90
     1024
280
     0
281
     0
  0
CLASS
  1
ACMESCOPE
  2
AcMeScope
  3
AcMeServices
 90
     1024
280
     0
281
     0
  0
CLASS
  1
ACMECOMMANDHISTORY
  2
AcMeCommandHistory
  3
AcMeServices
 90
     1024
280
     0
281
     0
  0
CLASS
  1
ACIMSYSVARMAN
  2
AcImSysVarManager
  3
AcMeServices
 90
     1024
280
     0
281
     0
  0
CLASS
  1
ACIMINTSYSVAR
  2
AcImIntSysVar
  3
AcMeServices
 90
     1024
280
     0
281
     0
  0
CLASS
  1
ACMEDRAWINGMAN
  2
AcMeDrawingMan
  3
AcMeServices
 90
    33792
280
     0
281
     0
  0
CLASS
  1
ACMEVIEW
  2
AcMeView
  3
AcMeServices
 90
    33792
280
     0
281
     0
  0
CLASS
  1
ACDBENTITYCACHE
  2
AcMeEntityCache
  3
AcMeServices
 90
     1024
280
     0
281
     0
  0
CLASS
  1
GSMANAGER
  2
AcMeGSManager
  3
AcMeServices
 90
    33792
280
     0
281
     0
  0
CLASS
  1
AMDTINTERNALREACTOR
  2
AmdtInternalReactor
  3
AcMeServices
 90
     1024
280
     0
281
     0
  0
CLASS
  1
ACMESTATEMGR
  2
AcMeStateMgr
  3
AcMeServices
 90
     1024
280
     0
281
     0
  0
CLASS
  1
ACGREFMASTER
  2
AcGrefMaster
  3
AcAttribServices
 90
     1024
280
     0
281
     0
  0
CLASS
  1
AM_DRAWING_MGR
  2
AcDmDwgMgr
  3
AcMechDwgViewMgmt
 90
     1024
280
     0
281
     0
  0
CLASS
  1
AM_DWG_DOCUMENT
  2
AcDmDwgDocument
  3
AcMechDwgViewMgmt
 90
     1024
280
     0
281
     0
  0
CLASS
  1
AM_DWG_SHEET
  2
AcDmSheet
  3
AcMechDwgViewMgmt
 90
     1024
280
     0
281
     0
  0
CLASS
  1
AM_VIEWDIMPARMAP
  2
AcDmViewDimParMap
  3
AcMechDwgViewMgmt
 90
     1024
280
     0
281
     0
  0
CLASS
  1
ACIMREALSYSVAR
  2
AcImRealSysVar
  3
AcMeServices
 90
     1024
280
     0
281
     0
  0
CLASS
  1
AM_DWGMGR_NAME
  2
AcDmDwgMgrName
  3
AcMechDwgViewMgmt
 90
     1024
280
     0
281
     0
  0
CLASS
  1
ACME_DATABASE
  2
AcMeDbDatabase
  3
AcMeServices
 90
     1024
280
     0
281
     0
  0
CLASS
  1
ACRFINSADJUSTERMGR
  2
AcRfInsAdjusterMgr
  3
AcMeServices
 90
     1024
280
     0
281
     0
  0
CLASS
  1
ACGREFACADMASTER
  2
AcGrefacadMaster
  3
AcGrefServices
 90
     1024
280
     0
281
     0
  0
CLASS
  1
AMDTMENUSTATEMGR
  2
AmdtMenuStateMgr
  3
McadcomServices
 90
     1024
280
     0
281
     0
  0
CLASS
  1
AMDTMCOMMENUSTATE
  2
AmdtMcomMenuState
  3
McadcomServices
 90
     1024
280
     0
281
     0
  0
CLASS
  1
AMIMASTER
  2
AmiMaster
  3
AmiServices
 90
     1024
280
     0
281
     0
  0
CLASS
  1
MAPIAMMOUDLE
  2
MApiAmModule
  3
MApiAmServices
 90
     1024
280
     0
281
     0
  0
CLASS
  1
ACIMSTRSYSVAR
  2
AcImStrSysVar
  3
AcMeServices
 90
     1024
280
     0
281
     0
  0
CLASS
  1
AMDTADMENUSTATE
  2
AmdtAdMenuState
  3
DesignerServices
 90
    33792
280
     0
281
     0
  0
CLASS
  1
ADAPPL
  2
AcAdAppl
  3
DesignerAssemblies
 90
    33792
280
     0
281
     0
  0
CLASS
  1
DEPMGR
  2
AcAdDepMgr
  3
DesignerAssemblies
 90
    33792
280
     0
281
     0
  0
CLASS
  1
PARAMMGR
  2
AcAdParamMgr
  3
DesignerAssemblies
 90
    33792
280
     0
281
     0
  0
CLASS
  1
PARAMSCOPE
  2
AcAdParamScope
  3
DesignerAssemblies
 90
    33792
280
     0
281
     0
  0
CLASS
  1
NAMEDAPPL
  2
AcAdNamedAppl
  3
DesignerAssemblies
 90
    33792
280
     0
281
     0
  0
CLASS
  1
AMDTDMMENUSTATE
  2
AmdtDmMenuState
  3
AcMechDwgViewMgmt
 90
    33792
280
     0
281
     0
  0
CLASS
  1
AMDTAMMENUSTATE
  2
AmdtAmMenuState
  3
DesignerAssemblies
 90
     1024
280
     0
281
     0
  0
CLASS
  1
ACAMPROJECT
  2
AcAmProject
  3
DesignerAssemblies
 90
     1024
280
     0
281
     0
  0
CLASS
  1
ACAMGRCOMPDEF
  2
AcAmGrCompDef
  3
DesignerAssemblies
 90
     1024
280
     0
281
     0
  0
CLASS
  1
ACCMCONTEXT
  2
AcCmContext
  3
DesignerAssemblies
 90
     1024
280
     0
281
     0
  0
CLASS
  1
ACAMCOMPDEF
  2
AcAmCompDef
  3
DesignerAssemblies
 90
     1024
280
     0
281
     0
  0
CLASS
  1
ACAMCOMPDEFMGR
  2
AcAmCompDefMgr
  3
DesignerAssemblies
 90
     1024
280
     0
281
     0
  0
CLASS
  1
AMCONTEXTMGR
  2
AcAmContextMgr
  3
DesignerAssemblies
 90
     1024
280
     0
281
     0
  0
CLASS
  1
ACAMCONTEXTMODELER
  2
AcAmContextModeler
  3
DesignerAssemblies
 90
     1024
280
     0
281
     0
  0
CLASS
  1
ACMDATADICTIONARY
  2
AcmDataDictionary
  3
"AcmSymBB|Product Description: AutoCAD Mechanical|Company: Autodesk, Inc."
 90
     1024
280
     0
281
     0
  0
CLASS
  1
CATALOGSTATE
  2
AcAmCatalogState
  3
DesignerAssemblies
 90
    33792
280
     0
281
     0
  0
CLASS
  1
ACAMGRCOMPDEFSET
  2
AcAmGrCompDefSet
  3
DesignerAssemblies
 90
     1024
280
     0
281
     0
  0
CLASS
  1
AMDTBROWSERDBTAB
  2
AmdtBrowserDbTab
  3
McadcomServices
 90
     1024
280
     0
281
     0
  0
CLASS
  1
CBROWSERAPPOBJECT
  2
CBrowserAppObject
  3
McadcomServices
 90
     1024
280
     0
281
     0
  0
CLASS
  1
DM_PLACEHOLDER
  2
AcDmSelsetPlaceholder
  3
McadcomServices
 90
     1024
280
     0
281
     0
  0
CLASS
  1
ACMSTANDARDDIN
  2
AcmStandardDIN
  3
"Amdt_StdImp|Product Description: AutoCAD Mechanical|Company: Autodesk, Inc."
 90
     1024
280
     0
281
     0
  0
CLASS
  1
AMGOBJPROPCFG
  2
AmgObjPropCfg
  3
"AmgLay|Product Description: AutoCAD Mechanical|Company: Autodesk, Inc."
 90
     1024
280
     0
281
     0
  0
CLASS
  1
AMDTEDGESTANDARDDIN13715
  2
AmdtEdgeStdDIN13715
  3
"Amdt_StdImp|Product Description: AutoCAD Mechanical|Company: Autodesk, Inc."
 90
     1024
280
     0
281
     0
  0
CLASS
  1
ACMSURFSTANDARDDIN2002
  2
AcmSurfTextStdDIN2002
  3
"Amdt_StdImp|Product Description: AutoCAD Mechanical|Company: Autodesk, Inc."
 90
     1024
280
     0
281
     0
  0
CLASS
  1
ACMFCFSTANDARDDIN
  2
AcmFCFStdDIN
  3
"Amdt_StdImp|Product Description: AutoCAD Mechanical|Company: Autodesk, Inc."
 90
     1024
280
     0
281
     0
  0
CLASS
  1
ACMWELDSTANDARDDIN
  2
AcmWeldingStdDIN
  3
"Amdt_StdImp|Product Description: AutoCAD Mechanical|Company: Autodesk, Inc."
 90
     1024
280
     0
281
     0
  0
CLASS
  1
ACMIDSTANDARDDIN
  2
AcmIdStdDIN
  3
"Amdt_StdImp|Product Description: AutoCAD Mechanical|Company: Autodesk, Inc."
 90
     1024
280
     0
281
     0
  0
CLASS
  1
ACMDATUMSTANDARDDIN
  2
AcmDatumStdDIN
  3
"Amdt_StdImp|Product Description: AutoCAD Mechanical|Company: Autodesk, Inc."
 90
     1024
280
     0
281
     0
  0
CLASS
  1
ACMBOMSTANDARDDIN
  2
AcmBOMStdDIN
  3
"Amdt_StdImp|Product Description: AutoCAD Mechanical|Company: Autodesk, Inc."
 90
     1024
280
     0
281
     0
  0
CLASS
  1
ACMDETAILSTANDARDDIN
  2
AmdtDetailSymStdDIN
  3
"Amdt_StdImp|Product Description: AutoCAD Mechanical|Company: Autodesk, Inc."
 90
     1024
280
     0
281
     0
  0
CLASS
  1
ACMSECTIONSTANDARDDIN
  2
AmdtSectionSymStdDIN
  3
"Amdt_StdImp|Product Description: AutoCAD Mechanical|Company: Autodesk, Inc."
 90
     1024
280
     0
281
     0
  0
CLASS
  1
ACMCENTERLINESTANDARDDIN
  2
AmdtCenterLineStdDIN
  3
"Amdt_StdImp|Product Description: AutoCAD Mechanical|Company: Autodesk, Inc."
 90
     1024
280
     0
281
     0
  0
CLASS
  1
ACMTHREADLINESTANDARDDIN
  2
AmdtThreadLineStdDIN
  3
"Amdt_StdImp|Product Description: AutoCAD Mechanical|Company: Autodesk, Inc."
 90
     1024
280
     0
281
     0
  0
CLASS
  1
ACMNOTESTANDARDDIN
  2
AmdtNoteStdDIN
  3
"Amdt_StdImp|Product Description: AutoCAD Mechanical|Company: Autodesk, Inc."
 90
     1024
280
     0
281
     0
  0
CLASS
  1
ACMTAPERSTANDARDDIN
  2
AcmTaperStdDIN
  3
"Amdt_StdImp|Product Description: AutoCAD Mechanical|Company: Autodesk, Inc."
 90
     1024
280
     0
281
     0
  0
CLASS
  1
ACMANOOTATIONVIEWSTANDARDDIN
  2
AmdtAnViewStdDIN
  3
"Amdt_StdImp|Product Description: AutoCAD Mechanical|Company: Autodesk, Inc."
 90
     1024
280
     0
281
     0
  0
CLASS
  1
AMDTNOTETEMPLATEDB
  2
AmdtNoteTemplateDB
  3
AcmSymBB|Product Description: AutoCAD Mechanical|Company: Autodesk, Inc.
 90
     1024
280
     0
281
     0
  0
CLASS
  1
ACAMGLAYSTD
  2
AcAmgLayStd
  3
"AmgLay|Product Description: AutoCAD Mechanical|Company: Autodesk, Inc."
 90
     1024
280
     0
281
     0
  0
CLASS
  1
ACAMGDIMSTD
  2
AcAmgDimStd
  3
"AmgDim|Product Description: AutoCAD Mechanical|Company: Autodesk, Inc."
 90
     1024
280
     0
281
     0
  0
CLASS
  1
ACAMGHOLECHARTSTDDIN
  2
AcAmgHoleChartStdDIN
  3
AmgDim|Product Description: AutoCAD Mechanical|Company: Autodesk, Inc.
 90
     1024
280
     0
281
     0
  0
CLASS
  1
ACAMGTITLESTD
  2
AcAmgTitleStd
  3
"AmgTitle|Product Description: AutoCAD Mechanical|Company: Autodesk, Inc."
 90
     1024
280
     0
281
     0
  0
CLASS
  1
ACAMGFILTERDAT
  2
AcAmgFilterDat
  3
"AcadM|Product Description: AutoCAD Mechanical|Company: Autodesk, Inc."
 90
     1024
280
     0
281
     0
  0
CLASS
  1
CAMSSTRUCTBTNSTATE
  2
StructBtnState
  3
DesignerAssemblies
 90
     1024
280
     0
281
     0
  0
CLASS
  1
CELLSTYLEMAP
  2
AcDbCellStyleMap
  3
ObjectDBX Classes
 90
     1152
280
     0
281
     0
  0
CLASS
  1
SORTENTSTABLE
  2
AcDbSortentsTable
  3
ObjectDBX Classes
 90
        0
280
     0
281
     0
  0
CLASS
  1
PLOTSETTINGS
  2
AcDbPlotSettings
  3
ObjectDBX Classes
 90
        0
280
     0
281
     0
  0
CLASS
  1
DIMASSOC
  2
AcDbDimAssoc
  3
"AcDbDimAssoc|Product Desc:     AcDim ARX App For Dimension|Company:          Autodesk, Inc.|WEB Address:      www.autodesk.com"
 90
        0
280
     0
281
     0
  0
CLASS
  1
ACDBSECTIONVIEWSTYLE
  2
AcDbSectionViewStyle
  3
ObjectDBX Classes
 90
     1025
280
     0
281
     0
  0
CLASS
  1
ACDBDETAILVIEWSTYLE
  2
AcDbDetailViewStyle
  3
ObjectDBX Classes
 90
     1025
280
     0
281
     0
  0
CLASS
  1
ACMSECTIONSTANDARDCUSTOM
  2
AmdtSectionSymStdCustom
  3
"Amdt_StdImp|Product Description: AutoCAD Mechanical|Company: Autodesk, Inc."
 90
     1024
280
     0
281
     0
  0
CLASS
  1
ACMDETAILTANDARDCUSTOM
  2
AmdtDetailSymStdCustom
  3
"Amdt_StdImp|Product Description: AutoCAD Mechanical|Company: Autodesk, Inc."
 90
     1024
280
     0
281
     0
  0
CLASS
  1
FIELD
  2
AcDbField
  3
ObjectDBX Classes
 90
     1152
280
     0
281
     0
  0
CLASS
  1
FIELDLIST
  2
AcDbFieldList
  3
ObjectDBX Classes
 90
     1152
280
     0
281
     0
  0
ENDSEC
  0
SECTION
  2
TABLES
  0
TABLE
  2
VPORT
  5
8
102
{ACAD_XDICTIONARY
360
ACA
102
}
330
0
100
AcDbSymbolTable
 70
     1
  0
VPORT
  5
B56
330
8
100
AcDbSymbolTableRecord
100
AcDbViewportTableRecord
  2
*Active
 70
     0
 10
0.0
 20
0.0
 11
1.0
 21
1.0
 12
364.4491519107822
 22
268.0834973546251
 13
0.0
 23
0.0
 14
0.5
 24
0.5
 15
0.5
 25
0.5
 16
0.0
 26
0.0
 36
1.0
 17
0.0
 27
0.0
 37
0.0
 40
5.361255347789892
 41
1.459736456808199
 42
50.0
 43
0.0
 44
0.0
 50
0.0
 51
0.0
 71
     0
 72
  2000
 73
     1
 74
     3
 75
     0
 76
     0
 77
     0
 78
     0
281
     0
 65
     1
110
363.6173669771555
120
267.6638972388114
130
0.0
111
1.0
121
0.0
131
0.0
112
0.0
122
1.0
132
0.0
 79
     0
146
0.0
1001
ACAD_NAV_VCDISPLAY
1070
     3
  0
ENDTAB
  0
TABLE
  2
LTYPE
  5
5
330
0
100
AcDbSymbolTable
 70
    11
  0
LTYPE
  5
12
330
5
100
AcDbSymbolTableRecord
100
AcDbLinetypeTableRecord
  2
BYBLOCK
 70
     0
  3

 72
    65
 73
     0
 40
0.0
  0
LTYPE
  5
13
330
5
100
AcDbSymbolTableRecord
100
AcDbLinetypeTableRecord
  2
BYLAYER
 70
     0
  3

 72
    65
 73
     0
 40
0.0
  0
LTYPE
  5
14
330
5
100
AcDbSymbolTableRecord
100
AcDbLinetypeTableRecord
  2
CONTINUOUS
 70
     0
  3
ISO Voll Linie _______________________
 72
    65
 73
     2
 40
9999.0
 49
9999.0
 74
     0
 49
0.0
 74
     0
  0
LTYPE
  5
4EF
330
5
100
AcDbSymbolTableRecord
100
AcDbLinetypeTableRecord
  2
ACDINWELD
 70
     0
  3
_ _ _ _ _
 72
    65
 73
     2
 40
2.0
 49
2.0
 74
     0
 49
-1.0
 74
     0
  0
LTYPE
  5
4F0
330
5
100
AcDbSymbolTableRecord
100
AcDbLinetypeTableRecord
  2
ACDINTGB
 70
     0
  3
__ . . __ . .
 72
    65
 73
     6
 40
9.0
 49
4.0
 74
     0
 49
-1.0
 74
     0
 49
1.0
 74
     0
 49
-1.0
 74
     0
 49
1.0
 74
     0
 49
-1.0
 74
     0
  0
LTYPE
  5
4F1
330
5
100
AcDbSymbolTableRecord
100
AcDbLinetypeTableRecord
  2
ACDINTGL
 70
     0
  3
_ _ _ _ _
 72
    65
 73
     2
 40
3.0
 49
2.0
 74
     0
 49
-1.0
 74
     0
  0
LTYPE
  5
9BE
330
5
100
AcDbSymbolTableRecord
100
AcDbLinetypeTableRecord
  2
DASH
 70
     0
  3
ISO Strichlinie __ __ __ __ __ __ __ __ __ __ __ __ __
 72
    65
 73
     2
 40
3.75
 49
3.0
 74
     0
 49
-0.75
 74
     0
  0
LTYPE
  5
9C2
330
5
100
AcDbSymbolTableRecord
100
AcDbLinetypeTableRecord
  2
LONGDASH_DASH
 70
     0
  3
ISO Lang gestrichelt punktiert ____ _ ____ _ ____ _ ____ . _
 72
    65
 73
     4
 40
10.5
 49
6.0
 74
     0
 49
-0.75
 74
     0
 49
3.0
 74
     0
 49
-0.75
 74
     0
  0
LTYPE
  5
EB5
330
5
100
AcDbSymbolTableRecord
100
AcDbLinetypeTableRecord
  2
HIDDEN
 70
     0
  3
Hidden __ __ __ __ __ __ __ __ __ __ __ __ __ _
 72
    65
 73
     2
 40
0.375
 49
0.25
 74
     0
 49
-0.125
 74
     0
  0
LTYPE
  5
EB6
330
5
100
AcDbSymbolTableRecord
100
AcDbLinetypeTableRecord
  2
PHANTOM2
 70
     0
  3
Phantom (.5x) ___ _ _ ___ _ _ ___ _ _ ___ _ _
 72
    65
 73
     6
 40
1.25
 49
0.625
 74
     0
 49
-0.125
 74
     0
 49
0.125
 74
     0
 49
-0.125
 74
     0
 49
0.125
 74
     0
 49
-0.125
 74
     0
  0
LTYPE
  5
EB7
330
5
100
AcDbSymbolTableRecord
100
AcDbLinetypeTableRecord
  2
CENTER
 70
     0
  3
Center ____ _ ____ _ ____ _ ____ _ ____ _ ____
 72
    65
 73
     4
 40
2.0
 49
1.25
 74
     0
 49
-0.25
 74
     0
 49
0.25
 74
     0
 49
-0.25
 74
     0
  0
ENDTAB
  0
TABLE
  2
LAYER
  5
2
102
{ACAD_XDICTIONARY
360
43C
102
}
330
0
100
AcDbSymbolTable
 70
   102
  0
LAYER
  5
F
102
{ACAD_XDICTIONARY
360
52D
102
}
330
2
100
AcDbSymbolTableRecord
100
AcDbLayerTableRecord
  2
0
 70
     0
 62
     7
  6
CONTINUOUS
290
     0
370
    -3
390
300
  0
LAYER
  5
23
102
{ACAD_XDICTIONARY
360
52F
102
}
330
2
100
AcDbSymbolTableRecord
100
AcDbLayerTableRecord
  2
1
 70
     0
 62
     4
  6
CONTINUOUS
370
    50
390
300
  0
LAYER
  5
25
102
{ACAD_XDICTIONARY
360
533
102
}
330
2
100
AcDbSymbolTableRecord
100
AcDbLayerTableRecord
  2
2
 70
     0
 62
     7
  6
CONTINUOUS
370
    25
390
300
  0
LAYER
  5
27
102
{ACAD_XDICTIONARY
360
537
102
}
330
2
100
AcDbSymbolTableRecord
100
AcDbLayerTableRecord
  2
SK2
 70
     0
 62
     7
  6
CONTINUOUS
370
    25
390
300
  0
LAYER
  5
28
102
{ACAD_XDICTIONARY
360
539
102
}
330
2
100
AcDbSymbolTableRecord
100
AcDbLayerTableRecord
  2
3
 70
     0
 62
     1
  6
DASH
370
    35
390
300
  0
LAYER
  5
29
102
{ACAD_XDICTIONARY
360
53B
102
}
330
2
100
AcDbSymbolTableRecord
100
AcDbLayerTableRecord
  2
SK3
 70
     0
 62
     1
  6
DASH
370
    35
390
300
  0
LAYER
  5
2A
102
{ACAD_XDICTIONARY
360
53D
102
}
330
2
100
AcDbSymbolTableRecord
100
AcDbLayerTableRecord
  2
4
 70
     0
 62
     2
  6
LONGDASH_DASH
370
    25
390
300
  0
LAYER
  5
2B
102
{ACAD_XDICTIONARY
360
53F
102
}
330
2
100
AcDbSymbolTableRecord
100
AcDbLayerTableRecord
  2
SK4
 70
     0
 62
     2
  6
LONGDASH_DASH
370
    25
390
300
  0
LAYER
  5
2E
102
{ACAD_XDICTIONARY
360
545
102
}
330
2
100
AcDbSymbolTableRecord
100
AcDbLayerTableRecord
  2
SK6
 70
     0
 62
     5
  6
CONTINUOUS
370
    35
390
300
  0
LAYER
  5
2F
330
2
100
AcDbSymbolTableRecord
100
AcDbLayerTableRecord
  2
DEFPOINTS
 70
     0
 62
     7
  6
CONTINUOUS
290
     0
370
    -3
390
300
  0
ENDTAB
  0
TABLE
  2
STYLE
  5
3
330
0
100
AcDbSymbolTable
 70
     8
  0
STYLE
  5
10
330
3
100
AcDbSymbolTableRecord
100
AcDbTextStyleTableRecord
  2
STANDARD
 70
     0
 40
0.0
 41
1.0
 50
0.0
 71
     0
 42
0.2
  3
monos.ttf
  4

1001
ACAD
1000
Monospac821 BT
1071
       49
  0
STYLE
  5
1E
330
3
100
AcDbSymbolTableRecord
100
AcDbTextStyleTableRecord
  2
STANDARD 5 mm
 70
     0
 40
0.1969
 41
1.0
 50
0.0
 71
     0
 42
3.5
  3
monos.ttf
  4

1001
ACAD
1000
Monospac821 BT
1071
       49
  0
STYLE
  5
4DF
330
3
100
AcDbSymbolTableRecord
100
AcDbTextStyleTableRecord
  2
ACDINTS
 70
     0
 40
1.0
 41
1.0
 50
0.0
 71
     0
 42
3.5
  3
monos.ttf
  4

1001
ACAD
1000
Monospac821 BT
1071
       49
  0
STYLE
  5
4EE
330
3
100
AcDbSymbolTableRecord
100
AcDbTextStyleTableRecord
  2
ACDINGDT
 70
     0
 40
0.0
 41
1.0
 50
0.0
 71
     0
 42
3.5
  3
monos.ttf
  4

1001
ACAD
1000
Monospac821 BT
1071
       49
  0
STYLE
  5
7DE
330
3
100
AcDbSymbolTableRecord
100
AcDbTextStyleTableRecord
  2
STANDARD 3.5 mm
 70
     0
 40
0.1377952755905512
 41
1.0
 50
0.0
 71
     0
 42
3.5
  3
monos.ttf
  4

1001
ACAD
1000
Monospac821 BT
1071
       49
  0
ENDTAB
  0
TABLE
  2
VIEW
  5
6
330
0
100
AcDbSymbolTable
 70
     6
  0
VIEW
  5
758
330
6
100
AcDbSymbolTableRecord
100
AcDbViewTableRecord
  2
AM_VIEW1
 70
     1
 40
148.5265045166015
 10
121.0318359737553
 20
219.614756822586
 41
248.4136475334483
 11
0.0
 21
0.0
 31
1.0
 12
0.0
 22
0.0
 32
0.0
 42
50.0
 43
0.0
 44
0.0
 50
0.0
 71
     0
281
     0
 72
     0
  0
VIEW
  5
759
330
6
100
AcDbSymbolTableRecord
100
AcDbViewTableRecord
  2
AM_VIEW2
 70
     1
 40
148.5265045166015
 10
292.4378600711665
 20
219.614756822586
 41
248.4136475334483
 11
0.0
 21
0.0
 31
1.0
 12
0.0
 22
0.0
 32
0.0
 42
50.0
 43
0.0
 44
0.0
 50
0.0
 71
     0
281
     0
 72
     0
  0
VIEW
  5
75A
330
6
100
AcDbSymbolTableRecord
100
AcDbViewTableRecord
  2
AM_VIEW3
 70
     1
 40
148.5265045166015
 10
121.0318359737553
 20
71.0882523059845
 41
248.4136475334483
 11
0.0
 21
0.0
 31
1.0
 12
0.0
 22
0.0
 32
0.0
 42
50.0
 43
0.0
 44
0.0
 50
0.0
 71
     0
281
     0
 72
     0
  0
VIEW
  5
75B
330
6
100
AcDbSymbolTableRecord
100
AcDbViewTableRecord
  2
AM_VIEW4
 70
     1
 40
148.5265045166015
 10
292.4378600711665
 20
71.0882523059845
 41
248.4136475334483
 11
0.0
 21
0.0
 31
1.0
 12
0.0
 22
0.0
 32
0.0
 42
50.0
 43
0.0
 44
0.0
 50
0.0
 71
     0
281
     0
 72
     0
  0
VIEW
  5
75C
330
6
100
AcDbSymbolTableRecord
100
AcDbViewTableRecord
  2
AM_VIEW5
 70
     1
 40
148.5265045166015
 10
206.7348480224609
 20
145.3515045642852
 41
248.4136475334483
 11
0.0
 21
0.0
 31
1.0
 12
0.0
 22
0.0
 32
0.0
 42
50.0
 43
0.0
 44
0.0
 50
0.0
 71
     0
281
     0
 72
     0
  0
VIEW
  5
75D
330
6
100
AcDbSymbolTableRecord
100
AcDbViewTableRecord
  2
AM_VIEW6
 70
     1
 40
297.0500385031128
 10
206.7348480224609
 20
145.3515045642852
 41
496.8223267939459
 11
0.0
 21
0.0
 31
1.0
 12
0.0
 22
0.0
 32
0.0
 42
50.0
 43
0.0
 44
0.0
 50
0.0
 71
     0
281
     0
 72
     0
  0
ENDTAB
  0
TABLE
  2
UCS
  5
7
330
0
100
AcDbSymbolTable
 70
     0
  0
ENDTAB
  0
TABLE
  2
APPID
  5
9
330
0
100
AcDbSymbolTable
 70
    34
  0
APPID
  5
11
330
9
100
AcDbSymbolTableRecord
100
AcDbRegAppTableRecord
  2
ACAD
 70
     0
  0
APPID
  5
3A6
330
9
100
AcDbSymbolTableRecord
100
AcDbRegAppTableRecord
  2
ACAD_PSEXT
 70
     0
  0
APPID
  5
3A8
330
9
100
AcDbSymbolTableRecord
100
AcDbRegAppTableRecord
  2
ACAD_EXEMPT_FROM_CAD_STANDARDS
 70
     0
  0
APPID
  5
433
330
9
100
AcDbSymbolTableRecord
100
AcDbRegAppTableRecord
  2
AcAecLayerStandard
 70
     0
  0
APPID
  5
471
330
9
100
AcDbSymbolTableRecord
100
AcDbRegAppTableRecord
  2
ACAD_MLEADERVER
 70
     0
  0
APPID
  5
47D
330
9
100
AcDbSymbolTableRecord
100
AcDbRegAppTableRecord
  2
MCAD_NO_VIS
 70
     0
  0
APPID
  5
47E
330
9
100
AcDbSymbolTableRecord
100
AcDbRegAppTableRecord
  2
ACAD_TEMP_GRAPHIC
 70
     0
  0
APPID
  5
4AC
330
9
100
AcDbSymbolTableRecord
100
AcDbRegAppTableRecord
  2
AD_DRAW
 70
     0
  0
APPID
  5
4AF
330
9
100
AcDbSymbolTableRecord
100
AcDbRegAppTableRecord
  2
ACATTRIBSERVICES
 70
     0
  0
APPID
  5
4D0
330
9
100
AcDbSymbolTableRecord
100
AcDbRegAppTableRecord
  2
DESIGNERASSEMBLIES
 70
     0
  0
APPID
  5
4D6
330
9
100
AcDbSymbolTableRecord
100
AcDbRegAppTableRecord
  2
ACADM_DIM_EDIT
 70
     0
  0
APPID
  5
4D7
330
9
100
AcDbSymbolTableRecord
100
AcDbRegAppTableRecord
  2
AMDT_DM_ADJ
 70
     0
  0
APPID
  5
5CD
330
9
100
AcDbSymbolTableRecord
100
AcDbRegAppTableRecord
  2
AcDbAttr
 70
     0
  0
APPID
  5
5CE
330
9
100
AcDbSymbolTableRecord
100
AcDbRegAppTableRecord
  2
ACAUTHENVIRON
 70
     0
  0
APPID
  5
5CF
330
9
100
AcDbSymbolTableRecord
100
AcDbRegAppTableRecord
  2
AcDbDynamicBlockTrueName
 70
     0
  0
APPID
  5
5D0
330
9
100
AcDbSymbolTableRecord
100
AcDbRegAppTableRecord
  2
ACDBBLOCKREPETAG
 70
     0
  0
APPID
  5
723
330
9
100
AcDbSymbolTableRecord
100
AcDbRegAppTableRecord
  2
GENIUS_GENTRA_14
 70
     0
  0
APPID
  5
752
330
9
100
AcDbSymbolTableRecord
100
AcDbRegAppTableRecord
  2
GENIUS_GENOENT_13
 70
     0
  0
APPID
  5
753
330
9
100
AcDbSymbolTableRecord
100
AcDbRegAppTableRecord
  2
GENIUS_GENOBJ-N-TIT_13
 70
     0
  0
APPID
  5
754
330
9
100
AcDbSymbolTableRecord
100
AcDbRegAppTableRecord
  2
GENIUS_GENODEF_13
 70
     0
  0
APPID
  5
755
330
9
100
AcDbSymbolTableRecord
100
AcDbRegAppTableRecord
  2
GENIUS_GENOLIS_13
 70
     0
  0
APPID
  5
756
330
9
100
AcDbSymbolTableRecord
100
AcDbRegAppTableRecord
  2
GENIUS_GENTITLE_13
 70
     0
  0
APPID
  5
757
330
9
100
AcDbSymbolTableRecord
100
AcDbRegAppTableRecord
  2
GENIUS_GENOREF_13
 70
     0
  0
APPID
  5
75E
330
9
100
AcDbSymbolTableRecord
100
AcDbRegAppTableRecord
  2
GENIUS_GENSCREG_15
 70
     0
  0
APPID
  5
75F
330
9
100
AcDbSymbolTableRecord
100
AcDbRegAppTableRecord
  2
GENIUS_GENOBJ-N-SDF_13
 70
     0
  0
APPID
  5
7BE
330
9
100
AcDbSymbolTableRecord
100
AcDbRegAppTableRecord
  2
AcadAnnoPO
 70
     0
  0
APPID
  5
7BF
330
9
100
AcDbSymbolTableRecord
100
AcDbRegAppTableRecord
  2
ACAD_DSTYLE_DIMJAG
 70
     0
  0
APPID
  5
7C0
330
9
100
AcDbSymbolTableRecord
100
AcDbRegAppTableRecord
  2
ACAD_DSTYLE_DIMTALN
 70
     0
  0
APPID
  5
8F4
330
9
100
AcDbSymbolTableRecord
100
AcDbRegAppTableRecord
  2
ACAD_DSTYLE_DIMBREAK
 70
     0
  0
APPID
  5
AD8
330
9
100
AcDbSymbolTableRecord
100
AcDbRegAppTableRecord
  2
ACAD_DSTYLE_DIMARC_LENGTH_SYMBOL
 70
     0
  0
APPID
  5
AEA
330
9
100
AcDbSymbolTableRecord
100
AcDbRegAppTableRecord
  2
ACAD_DSTYLE_DIMJOGGED_JOGANGLE_SYMBOL
 70
     0
  0
APPID
  5
EDF
330
9
100
AcDbSymbolTableRecord
100
AcDbRegAppTableRecord
  2
ACAD_NAV_VCDISPLAY
 70
     0
  0
APPID
  5
F57
330
9
100
AcDbSymbolTableRecord
100
AcDbRegAppTableRecord
  2
ACAD_DSTYLE_DIMINSPECT
 70
     0
  0
APPID
  5
2349
330
9
100
AcDbSymbolTableRecord
100
AcDbRegAppTableRecord
  2
GENIUS_GENDTOL_13
 70
     0
  0
ENDTAB
  0
TABLE
  2
DIMSTYLE
  5
A
330
0
100
AcDbSymbolTable
 70
     8
100
AcDbDimStyleTable
 71
     4
340
3F
340
4FC
340
506
340
501
  0
DIMSTYLE
105
3F
102
{ACAD_REACTORS
330
15C2
330
15BE
330
15BA
330
15B7
330
15B1
330
15B0
330
15AD
102
}
330
A
100
AcDbSymbolTableRecord
100
AcDbDimStyleTableRecord
  2
STANDARD
 70
     0
  3
"
 42
0.0
 48
0.000000001
 73
     0
 74
     0
 77
     1
 78
     9
 79
     2
140
0.1377952755905512
141
0.0
146
0.7071069999999999
172
     1
271
     3
272
     3
283
     0
285
     9
286
     8
340
7DE
1001
ACAD_DSTYLE_DIMBREAK
1070
   391
1040
0.147638
1001
ACAD_DSTYLE_DIMJAG
1070
   388
1040
1.5
1001
ACAD_DSTYLE_DIMTALN
1070
   392
1070
     0
1001
ACAD_DSTYLE_DIMARC_LENGTH_SYMBOL
1070
   379
1070
     1
1001
ACAD_DSTYLE_DIMJOGGED_JOGANGLE_SYMBOL
1070
   384
1040
1.570796326794896
  0
DIMSTYLE
105
4FC
330
A
100
AcDbSymbolTableRecord
100
AcDbDimStyleTableRecord
  2
AM_DIN
 70
     0
 41
0.19685
 42
0.03937
 43
0.5905510000000001
 44
0.07874
 48
0.000000001
 73
     0
 74
     0
 77
     1
 78
    11
 79
     2
140
0.1377952755905512
141
0.003543
146
0.7071069999999999
147
0.090551
172
     1
271
     3
272
     3
277
     3
284
     8
285
     9
286
     8
340
7DE
371
    -1
1001
ACAD_DSTYLE_DIMBREAK
1070
   391
1040
0.147638
1001
ACAD_DSTYLE_DIMJAG
1070
   388
1040
1.5
1001
ACAD_DSTYLE_DIMTALN
1070
   392
1070
     0
1001
ACAD_DSTYLE_DIMARC_LENGTH_SYMBOL
1070
   379
1070
     1
1001
ACAD_DSTYLE_DIMJOGGED_JOGANGLE_SYMBOL
1070
   384
1040
1.570796326794896
  0
DIMSTYLE
105
4FD
330
A
100
AcDbSymbolTableRecord
100
AcDbDimStyleTableRecord
  2
AM_DIN$3
 70
     0
 41
0.19685
 42
0.03937
 43
0.5905510000000001
 44
0.07874
 48
0.000000001
 73
     0
 77
     1
 78
    11
 79
     2
140
0.1377952755905512
141
0.003543
146
0.7071069999999999
147
0.090551
271
     3
272
     3
277
     3
284
     8
285
     9
286
     8
288
     1
289
     0
340
7DE
371
    -1
1001
ACAD_DSTYLE_DIMBREAK
1070
   391
1040
0.147638
1001
ACAD_DSTYLE_DIMJAG
1070
   388
1040
1.5
1001
ACAD_DSTYLE_DIMTALN
1070
   392
1070
     0
1001
ACAD_DSTYLE_DIMARC_LENGTH_SYMBOL
1070
   379
1070
     1
1001
ACAD_DSTYLE_DIMJOGGED_JOGANGLE_SYMBOL
1070
   384
1040
1.570796326794896
  0
DIMSTYLE
105
4FE
330
A
100
AcDbSymbolTableRecord
100
AcDbDimStyleTableRecord
  2
AM_DIN$4
 70
     0
 41
0.19685
 42
0.03937
 43
0.5905510000000001
 44
0.07874
 48
0.000000001
 73
     0
 77
     1
 78
    11
 79
     2
140
0.1377952755905512
141
0.003543
146
0.7071069999999999
147
0.090551
271
     3
272
     3
277
     3
284
     8
285
     9
286
     8
288
     1
289
     0
340
7DE
371
    -1
1001
ACAD_DSTYLE_DIMBREAK
1070
   391
1040
0.147638
1001
ACAD_DSTYLE_DIMJAG
1070
   388
1040
1.5
1001
ACAD_DSTYLE_DIMTALN
1070
   392
1070
     0
1001
ACAD_DSTYLE_DIMARC_LENGTH_SYMBOL
1070
   379
1070
     1
1001
ACAD_DSTYLE_DIMJOGGED_JOGANGLE_SYMBOL
1070
   384
1040
1.570796326794896
  0
DIMSTYLE
105
4FF
330
A
100
AcDbSymbolTableRecord
100
AcDbDimStyleTableRecord
  2
AM_DIN$6
 70
     0
 41
0.19685
 42
0.03937
 43
0.5905510000000001
 44
0.07874
 48
0.000000001
 73
     0
 74
     0
 78
    11
 79
     2
140
0.1377952755905512
141
0.003543
146
0.7071069999999999
147
0.090551
172
     1
271
     3
272
     3
277
     3
284
     8
285
     9
286
     8
340
7DE
371
    -1
1001
ACAD_DSTYLE_DIMBREAK
1070
   391
1040
0.147638
1001
ACAD_DSTYLE_DIMJAG
1070
   388
1040
1.5
1001
ACAD_DSTYLE_DIMTALN
1070
   392
1070
     0
1001
ACAD_DSTYLE_DIMARC_LENGTH_SYMBOL
1070
   379
1070
     1
1001
ACAD_DSTYLE_DIMJOGGED_JOGANGLE_SYMBOL
1070
   384
1040
1.570796326794896
  0
DIMSTYLE
105
500
330
A
100
AcDbSymbolTableRecord
100
AcDbDimStyleTableRecord
  2
AM_DIN$7
 70
     0
 41
0.19685
 42
0.03937
 43
0.5905510000000001
 44
0.07874
 48
0.000000001
 73
     0
 74
     0
 77
     1
 78
    11
 79
     2
140
5.0
141
0.003543
146
0.7071069999999999
147
0.090551
172
     1
271
     3
272
     3
277
     3
284
     8
285
     9
286
     8
340
7DE
371
    -1
1001
ACAD_DSTYLE_DIMBREAK
1070
   391
1040
0.147638
1001
ACAD_DSTYLE_DIMJAG
1070
   388
1040
1.5
1001
ACAD_DSTYLE_DIMTALN
1070
   392
1070
     0
1001
ACAD_DSTYLE_DIMARC_LENGTH_SYMBOL
1070
   379
1070
     1
1001
ACAD_DSTYLE_DIMJOGGED_JOGANGLE_SYMBOL
1070
   384
1040
1.570796326794896
  0
DIMSTYLE
105
501
330
A
100
AcDbSymbolTableRecord
100
AcDbDimStyleTableRecord
  2
AM_DIN$SF
 70
     0
 41
0.19685
 42
0.03937
 43
0.5905510000000001
 44
0.07874
 48
0.000000001
 73
     0
 74
     0
 75
     1
 76
     1
 77
     1
 78
    11
 79
     2
140
0.1378
141
0.003543
146
0.7071069999999999
147
0.090551
172
     1
271
     3
272
     3
277
     3
284
     8
285
     9
286
     8
340
7DE
371
    -1
1001
ACAD_DSTYLE_DIMBREAK
1070
   391
1040
0.147638
1001
ACAD_DSTYLE_DIMJAG
1070
   388
1040
1.5
1001
ACAD_DSTYLE_DIMTALN
1070
   392
1070
     0
1001
ACAD_DSTYLE_DIMARC_LENGTH_SYMBOL
1070
   379
1070
     1
1001
ACAD_DSTYLE_DIMJOGGED_JOGANGLE_SYMBOL
1070
   384
1040
1.570796326794896
  0
DIMSTYLE
105
506
330
A
100
AcDbSymbolTableRecord
100
AcDbDimStyleTableRecord
  2
AM_DIN$SH
 70
     0
 41
0.19685
 42
0.03937
 43
0.5905510000000001
 44
0.07874
 48
0.000000001
 73
     0
 74
     0
 75
     1
 76
     1
 77
     1
 78
    11
 79
     2
140
0.1378
141
0.003543
144
2.0
146
0.7071069999999999
147
0.090551
172
     1
271
     3
272
     3
277
     3
284
     8
285
     9
286
     8
340
7DE
371
    -1
1001
ACAD_DSTYLE_DIMBREAK
1070
   391
1040
0.147638
1001
ACAD_DSTYLE_DIMJAG
1070
   388
1040
1.5
1001
ACAD_DSTYLE_DIMTALN
1070
   392
1070
     0
1001
ACAD_DSTYLE_DIMARC_LENGTH_SYMBOL
1070
   379
1070
     1
1001
ACAD_DSTYLE_DIMJOGGED_JOGANGLE_SYMBOL
1070
   384
1040
1.570796326794896
  0
ENDTAB
  0
TABLE
  2
BLOCK_RECORD
  5
1
330
0
100
AcDbSymbolTable
 70
    19
  0
BLOCK_RECORD
  5
18
330
1
100
AcDbSymbolTableRecord
100
AcDbBlockTableRecord
  2
*MODEL_SPACE
340
303
  0
BLOCK_RECORD
  5
B76
330
1
100
AcDbSymbolTableRecord
100
AcDbBlockTableRecord
  2
*Paper_Space
340
B77
  0
BLOCK_RECORD
  5
EC6
330
1
100
AcDbSymbolTableRecord
100
AcDbBlockTableRecord
  2
_ACMFILLED15
340
0
  0
BLOCK_RECORD
  5
ED1
330
1
100
AcDbSymbolTableRecord
100
AcDbBlockTableRecord
  2
_ACMFILLED30
340
0
  0
BLOCK_RECORD
  5
15C5
330
1
100
AcDbSymbolTableRecord
100
AcDbBlockTableRecord
  2
*D12
340
0
  0
BLOCK_RECORD
  5
15D1
330
1
100
AcDbSymbolTableRecord
100
AcDbBlockTableRecord
  2
*D13
340
0
  0
BLOCK_RECORD
  5
15DD
330
1
100
AcDbSymbolTableRecord
100
AcDbBlockTableRecord
  2
*D14
340
0
  0
BLOCK_RECORD
  5
15FB
330
1
100
AcDbSymbolTableRecord
100
AcDbBlockTableRecord
  2
*D15
340
0
  0
BLOCK_RECORD
  5
1607
330
1
100
AcDbSymbolTableRecord
100
AcDbBlockTableRecord
  2
*D16
340
0
  0
BLOCK_RECORD
  5
1614
330
1
100
AcDbSymbolTableRecord
100
AcDbBlockTableRecord
  2
*D17
340
0
  0
BLOCK_RECORD
  5
1622
330
1
100
AcDbSymbolTableRecord
100
AcDbBlockTableRecord
  2
*D18
340
0
  0
ENDTAB
  0
ENDSEC
  0
SECTION
  2
BLOCKS
  0
BLOCK
  5
32
330
18
100
AcDbEntity
  8
0
100
AcDbBlockBegin
  2
*MODEL_SPACE
 70
     0
 10
0.0
 20
0.0
 30
0.0
  3
*MODEL_SPACE
  1

  0
ENDBLK
  5
33
330
18
100
AcDbEntity
  8
0
100
AcDbBlockEnd
  0
BLOCK
  5
B78
330
B76
100
AcDbEntity
 67
     1
  8
0
100
AcDbBlockBegin
  2
*Paper_Space
 70
     0
 10
0.0
 20
0.0
 30
0.0
  3
*Paper_Space
  1

  0
ENDBLK
  5
B79
330
B76
100
AcDbEntity
 67
     1
  8
0
100
AcDbBlockEnd
  0
BLOCK
  5
EC8
330
EC6
100
AcDbEntity
  8
0
100
AcDbBlockBegin
  2
_ACMFILLED15
 70
     0
 10
0.0
 20
0.0
 30
0.0
  3
_ACMFILLED15
  1

  0
TRACE
  5
EC7
330
EC6
100
AcDbEntity
  8
1
 62
     0
100
AcDbTrace
 10
-1.0
 20
-0.131652497
 30
0.0
 11
-1.0
 21
0.131652497
 31
0.0
 12
0.0
 22
0.0
 32
0.0
 13
0.0
 23
0.0
 33
0.0
  0
ENDBLK
  5
EC9
330
EC6
100
AcDbEntity
  8
0
100
AcDbBlockEnd
  0
BLOCK
  5
ED3
330
ED1
100
AcDbEntity
  8
0
100
AcDbBlockBegin
  2
_ACMFILLED30
 70
     0
 10
0.0
 20
0.0
 30
0.0
  3
_ACMFILLED30
  1

  0
TRACE
  5
ED2
330
ED1
100
AcDbEntity
  8
1
 62
     0
100
AcDbTrace
 10
-1.0
 20
-0.26794919
 30
0.0
 11
-1.0
 21
0.26794919
 31
0.0
 12
0.0
 22
0.0
 32
0.0
 13
0.0
 23
0.0
 33
0.0
  0
ENDBLK
  5
ED4
330
ED1
100
AcDbEntity
  8
0
100
AcDbBlockEnd
  0
BLOCK
  5
15C6
330
15C5
100
AcDbEntity
  8
0
100
AcDbBlockBegin
  2
*D12
 70
     1
 10
0.0
 20
0.0
 30
0.0
  3
*D12
  1

  0
LINE
  5
2263
330
15C5
100
AcDbEntity
  8
2
 62
     0
 48
0.04
370
    -2
100
AcDbLine
 10
365.1852174911866
 20
268.6488952688114
 30
0.0
 11
365.866568469259
 21
268.6488952688114
 31
0.0
  0
LINE
  5
2264
330
15C5
100
AcDbEntity
  8
2
 62
     0
 48
0.04
370
    -2
100
AcDbLine
 10
365.1856288742941
 20
266.6788992088115
 30
0.0
 11
365.866568469259
 21
266.6788992088115
 31
0.0
  0
LINE
  5
2265
330
15C5
100
AcDbEntity
  8
2
 62
     0
 48
0.04
370
    -2
100
AcDbLine
 10
365.686568469259
 20
268.4688952688114
 30
0.0
 11
365.686568469259
 21
266.8588992088114
 31
0.0
  0
SOLID
  5
2266
330
15C5
100
AcDbEntity
  8
2
 62
     0
 48
0.04
100
AcDbTrace
 10
365.656568469259
 20
268.4688952688114
 30
0.0
 11
365.716568469259
 21
268.4688952688114
 31
0.0
 12
365.686568469259
 22
268.6488952688114
 32
0.0
 13
365.686568469259
 23
268.6488952688114
 33
0.0
  0
SOLID
  5
2267
330
15C5
100
AcDbEntity
  8
2
 62
     0
 48
0.04
100
AcDbTrace
 10
365.656568469259
 20
266.8588992088114
 30
0.0
 11
365.716568469259
 21
266.8588992088114
 31
0.0
 12
365.686568469259
 22
266.6788992088115
 32
0.0
 13
365.686568469259
 23
266.6788992088115
 33
0.0
  0
MTEXT
  5
2268
330
15C5
100
AcDbEntity
  8
2
 62
     0
 48
0.04
100
AcDbMText
 10
365.5232164515078
 20
267.6638972388115
 30
0.0
 40
0.1377952755905512
 41
0.0
 71
     5
 72
     1
  1
\A1;%%c1.97"
  7
STANDARD 3.5 mm
 11
0.0000000000000001
 21
1.0
 31
0.0
 73
     1
 44
1.0
1001
ACAD
1000
MTEXTBEGIN
1070
    73
1070
     1
1070
    44
1040
1.0
1070
    74
1070
     0
1000
MTEXTEND
  0
POINT
  5
2269
330
15C5
100
AcDbEntity
  8
DEFPOINTS
 62
     0
 48
0.04
100
AcDbPoint
 10
365.1852174911866
 20
268.6488952688114
 30
0.0
  0
POINT
  5
226A
330
15C5
100
AcDbEntity
  8
DEFPOINTS
 62
     0
 48
0.04
100
AcDbPoint
 10
365.1856288742941
 20
266.6788992088115
 30
0.0
  0
POINT
  5
226B
330
15C5
100
AcDbEntity
  8
DEFPOINTS
 62
     0
 48
0.04
100
AcDbPoint
 10
365.686568469259
 20
266.6788992088115
 30
0.0
  0
ENDBLK
  5
15C7
330
15C5
100
AcDbEntity
  8
0
100
AcDbBlockEnd
  0
BLOCK
  5
15D2
330
15D1
100
AcDbEntity
  8
0
100
AcDbBlockBegin
  2
*D13
 70
     1
 10
0.0
 20
0.0
 30
0.0
  3
*D13
  1

  0
LINE
  5
225A
330
15D1
100
AcDbEntity
  8
2
 62
     0
 48
0.04
370
    -2
100
AcDbLine
 10
364.7011006992514
 20
266.1889001888114
 30
0.0
 11
366.2723297741615
 21
266.1889001888114
 31
0.0
  0
LINE
  5
225B
330
15D1
100
AcDbEntity
  8
2
 62
     0
 48
0.04
370
    -2
100
AcDbLine
 10
364.6984322783183
 20
269.1388942888115
 30
0.0
 11
366.2723297741615
 21
269.1388942888115
 31
0.0
  0
LINE
  5
225C
330
15D1
100
AcDbEntity
  8
2
 62
     0
 48
0.04
370
    -2
100
AcDbLine
 10
366.0923297741615
 20
266.3689001888114
 30
0.0
 11
366.0923297741615
 21
268.9588942888114
 31
0.0
  0
SOLID
  5
225D
330
15D1
100
AcDbEntity
  8
2
 62
     0
 48
0.04
100
AcDbTrace
 10
366.0623297741615
 20
266.3689001888114
 30
0.0
 11
366.1223297741615
 21
266.3689001888114
 31
0.0
 12
366.0923297741615
 22
266.1889001888114
 32
0.0
 13
366.0923297741615
 23
266.1889001888114
 33
0.0
  0
SOLID
  5
225E
330
15D1
100
AcDbEntity
  8
2
 62
     0
 48
0.04
100
AcDbTrace
 10
366.0623297741615
 20
268.9588942888114
 30
0.0
 11
366.1223297741615
 21
268.9588942888114
 31
0.0
 12
366.0923297741615
 22
269.1388942888115
 32
0.0
 13
366.0923297741615
 23
269.1388942888115
 33
0.0
  0
MTEXT
  5
225F
330
15D1
100
AcDbEntity
  8
2
 62
     0
 48
0.04
100
AcDbMText
 10
365.9289777564104
 20
267.6638972388114
 30
0.0
 40
0.1377952755905512
 41
0.0
 71
     5
 72
     1
  1
\A1;%%c2.95"
  7
STANDARD 3.5 mm
 11
0.0000000000000001
 21
1.0
 31
0.0
 73
     1
 44
1.0
1001
ACAD
1000
MTEXTBEGIN
1070
    73
1070
     1
1070
    44
1040
1.0
1070
    74
1070
     0
1000
MTEXTEND
  0
POINT
  5
2260
330
15D1
100
AcDbEntity
  8
DEFPOINTS
 62
     0
 48
0.04
100
AcDbPoint
 10
364.7011006992514
 20
266.1889001888114
 30
0.0
  0
POINT
  5
2261
330
15D1
100
AcDbEntity
  8
DEFPOINTS
 62
     0
 48
0.04
100
AcDbPoint
 10
364.6984322783183
 20
269.1388942888115
 30
0.0
  0
POINT
  5
2262
330
15D1
100
AcDbEntity
  8
DEFPOINTS
 62
     0
 48
0.04
100
AcDbPoint
 10
366.0923297741615
 20
269.1388942888115
 30
0.0
  0
ENDBLK
  5
15D3
330
15D1
100
AcDbEntity
  8
0
100
AcDbBlockEnd
  0
BLOCK
  5
15DE
330
15DD
100
AcDbEntity
  8
0
100
AcDbBlockBegin
  2
*D14
 70
     1
 10
0.0
 20
0.0
 30
0.0
  3
*D14
  1

  0
LINE
  5
226C
330
15DD
100
AcDbEntity
  8
SK2
 62
     0
 48
0.04
370
    -2
100
AcDbLine
 10
363.6559433743286
 20
268.5890922552157
 30
0.0
 11
362.7206340764876
 21
268.5890922552157
 31
0.0
  0
LINE
  5
226D
330
15DD
100
AcDbEntity
  8
SK2
 62
     0
 48
0.04
370
    -2
100
AcDbLine
 10
363.6559433743286
 20
266.7387022552156
 30
0.0
 11
362.7206340764876
 21
266.7387022552156
 31
0.0
  0
LINE
  5
226E
330
15DD
100
AcDbEntity
  8
SK2
 62
     0
 48
0.04
370
    -2
100
AcDbLine
 10
362.9006340764876
 20
268.4090922552156
 30
0.0
 11
362.9006340764876
 21
266.9187022552157
 31
0.0
  0
SOLID
  5
226F
330
15DD
100
AcDbEntity
  8
SK2
 62
     0
 48
0.04
100
AcDbTrace
 10
362.8706340764876
 20
268.4090922552156
 30
0.0
 11
362.9306340764876
 21
268.4090922552156
 31
0.0
 12
362.9006340764876
 22
268.5890922552157
 32
0.0
 13
362.9006340764876
 23
268.5890922552157
 33
0.0
  0
SOLID
  5
2270
330
15DD
100
AcDbEntity
  8
SK2
 62
     0
 48
0.04
100
AcDbTrace
 10
362.8706340764876
 20
266.9187022552157
 30
0.0
 11
362.9306340764876
 21
266.9187022552157
 31
0.0
 12
362.9006340764876
 22
266.7387022552156
 32
0.0
 13
362.9006340764876
 23
266.7387022552156
 33
0.0
  0
MTEXT
  5
2271
330
15DD
100
AcDbEntity
  8
SK2
 62
     0
 48
0.04
100
AcDbMText
 10
362.7372820587364
 20
267.6703615566658
 30
0.0
 40
0.1377952755905512
 41
0.0
 71
     5
 72
     1
  1
\A1;%%c1.85"
  7
STANDARD 3.5 mm
 11
0.0000000000000001
 21
1.0
 31
0.0
 73
     1
 44
1.0
1001
ACAD
1000
MTEXTBEGIN
1070
    73
1070
     1
1070
    44
1040
1.0
1070
    74
1070
     0
1000
MTEXTEND
  0
POINT
  5
2272
330
15DD
100
AcDbEntity
  8
DEFPOINTS
 62
     0
 48
0.04
100
AcDbPoint
 10
363.6559433743286
 20
268.5890922552157
 30
0.0
  0
POINT
  5
2273
330
15DD
100
AcDbEntity
  8
DEFPOINTS
 62
     0
 48
0.04
100
AcDbPoint
 10
363.6559433743286
 20
266.7387022552156
 30
0.0
  0
POINT
  5
2274
330
15DD
100
AcDbEntity
  8
DEFPOINTS
 62
     0
 48
0.04
100
AcDbPoint
 10
362.9006340764876
 20
266.7387022552156
 30
0.0
  0
ENDBLK
  5
15DF
330
15DD
100
AcDbEntity
  8
0
100
AcDbBlockEnd
  0
BLOCK
  5
15FC
330
15FB
100
AcDbEntity
  8
0
100
AcDbBlockBegin
  2
*D15
 70
     1
 10
0.0
 20
0.0
 30
0.0
  3
*D15
  1

  0
LINE
  5
2251
330
15FB
100
AcDbEntity
  8
2
 62
     0
 48
0.04
370
    -2
100
AcDbLine
 10
363.6165701283979
 20
268.549724652318
 30
0.0
 11
363.6165701283979
 21
270.6276225619552
 31
0.0
  0
LINE
  5
2252
330
15FB
100
AcDbEntity
  8
2
 62
     0
 48
0.04
370
    -2
100
AcDbLine
 10
365.1865721516484
 20
268.6670989228808
 30
0.0
 11
365.1865721516484
 21
270.6276225619552
 31
0.0
  0
LINE
  5
2253
330
15FB
100
AcDbEntity
  8
2
 62
     0
 48
0.04
370
    -2
100
AcDbLine
 10
363.796570128398
 20
270.4476225619552
 30
0.0
 11
365.0065721516484
 21
270.4476225619552
 31
0.0
  0
SOLID
  5
2254
330
15FB
100
AcDbEntity
  8
2
 62
     0
 48
0.04
100
AcDbTrace
 10
363.796570128398
 20
270.4776225619552
 30
0.0
 11
363.796570128398
 21
270.4176225619552
 31
0.0
 12
363.6165701283979
 22
270.4476225619552
 32
0.0
 13
363.6165701283979
 23
270.4476225619552
 33
0.0
  0
SOLID
  5
2255
330
15FB
100
AcDbEntity
  8
2
 62
     0
 48
0.04
100
AcDbTrace
 10
365.0065721516484
 20
270.4776225619552
 30
0.0
 11
365.0065721516484
 21
270.4176225619552
 31
0.0
 12
365.1865721516484
 22
270.4476225619552
 32
0.0
 13
365.1865721516484
 23
270.4476225619552
 33
0.0
  0
MTEXT
  5
2256
330
15FB
100
AcDbEntity
  8
2
 62
     0
 48
0.04
100
AcDbMText
 10
364.4110872110728
 20
270.6089410584222
 30
0.0
 40
0.1377952755905512
 41
0.0
 71
     5
 72
     1
  1
1.57"
  7
STANDARD 3.5 mm
 73
     1
 44
1.0
1001
ACAD
1000
MTEXTBEGIN
1070
    73
1070
     1
1070
    44
1040
1.0
1070
    74
1070
     0
1000
MTEXTEND
  0
POINT
  5
2257
330
15FB
100
AcDbEntity
  8
DEFPOINTS
 62
     0
 48
0.04
100
AcDbPoint
 10
363.6165701283979
 20
268.549724652318
 30
0.0
  0
POINT
  5
2258
330
15FB
100
AcDbEntity
  8
DEFPOINTS
 62
     0
 48
0.04
100
AcDbPoint
 10
365.1865721516484
 20
268.6670989228808
 30
0.0
  0
POINT
  5
2259
330
15FB
100
AcDbEntity
  8
DEFPOINTS
 62
     0
 48
0.04
100
AcDbPoint
 10
365.1865721516484
 20
270.4476225619552
 30
0.0
  0
ENDBLK
  5
15FD
330
15FB
100
AcDbEntity
  8
0
100
AcDbBlockEnd
  0
BLOCK
  5
1608
330
1607
100
AcDbEntity
  8
0
100
AcDbBlockBegin
  2
*D16
 70
     1
 10
0.0
 20
0.0
 30
0.0
  3
*D16
  1

  0
LINE
  5
2246
330
1607
100
AcDbEntity
  8
2
 62
     0
 48
0.04
370
    -2
100
AcDbLine
 10
365.1865721516484
 20
268.6358450152998
 30
0.0
 11
365.1865721516484
 21
269.8181983520157
 31
0.0
  0
LINE
  5
2247
330
1607
100
AcDbEntity
  8
2
 62
     0
 48
0.04
370
    -2
100
AcDbLine
 10
364.6765731716483
 20
269.1591070046649
 30
0.0
 11
364.6765731716483
 21
269.8181983520157
 31
0.0
  0
LINE
  5
2248
330
1607
100
AcDbEntity
  8
2
 62
     0
 48
0.04
370
    -2
100
AcDbLine
 10
364.4965731716483
 20
269.6381983520157
 30
0.0
 11
364.3165731716483
 21
269.6381983520157
 31
0.0
  0
LINE
  5
2249
330
1607
100
AcDbEntity
  8
2
 62
     0
 48
0.04
370
    -2
100
AcDbLine
 10
365.3665721516484
 20
269.6381983520157
 30
0.0
 11
366.3140856323784
 21
269.6381983520157
 31
0.0
  0
LINE
  5
224A
330
1607
100
AcDbEntity
  8
2
 62
     0
 48
0.04
370
    -2
100
AcDbLine
 10
364.6765731716483
 20
269.6381983520157
 30
0.0
 11
365.1865721516484
 21
269.6381983520157
 31
0.0
  0
SOLID
  5
224B
330
1607
100
AcDbEntity
  8
2
 62
     0
 48
0.04
100
AcDbTrace
 10
364.4965731716483
 20
269.6681983520156
 30
0.0
 11
364.4965731716483
 21
269.6081983520157
 31
0.0
 12
364.6765731716483
 22
269.6381983520157
 32
0.0
 13
364.6765731716483
 23
269.6381983520157
 33
0.0
  0
SOLID
  5
224C
330
1607
100
AcDbEntity
  8
2
 62
     0
 48
0.04
100
AcDbTrace
 10
365.3665721516484
 20
269.6681983520156
 30
0.0
 11
365.3665721516484
 21
269.6081983520157
 31
0.0
 12
365.1865721516484
 22
269.6381983520157
 32
0.0
 13
365.1865721516484
 23
269.6381983520157
 33
0.0
  0
MTEXT
  5
224D
330
1607
100
AcDbEntity
  8
2
 62
     0
 48
0.04
100
AcDbMText
 10
365.9508675226954
 20
269.7995168484826
 30
0.0
 40
0.1377952755905512
 41
0.0
 71
     5
 72
     1
  1
0.51"
  7
STANDARD 3.5 mm
 73
     1
 44
1.0
1001
ACAD
1000
MTEXTBEGIN
1070
    73
1070
     1
1070
    44
1040
1.0
1070
    74
1070
     0
1000
MTEXTEND
  0
POINT
  5
224E
330
1607
100
AcDbEntity
  8
DEFPOINTS
 62
     0
 48
0.04
100
AcDbPoint
 10
365.1865721516484
 20
268.6358450152998
 30
0.0
  0
POINT
  5
224F
330
1607
100
AcDbEntity
  8
DEFPOINTS
 62
     0
 48
0.04
100
AcDbPoint
 10
364.6765731716483
 20
269.1591070046649
 30
0.0
  0
POINT
  5
2250
330
1607
100
AcDbEntity
  8
DEFPOINTS
 62
     0
 48
0.04
100
AcDbPoint
 10
364.6765731716483
 20
269.6381983520157
 30
0.0
  0
ENDBLK
  5
1609
330
1607
100
AcDbEntity
  8
0
100
AcDbBlockEnd
  0
BLOCK
  5
1615
330
1614
100
AcDbEntity
  8
0
100
AcDbBlockBegin
  2
*D17
 70
     1
 10
0.0
 20
0.0
 30
0.0
  3
*D17
  1

  0
LINE
  5
233E
330
1614
100
AcDbEntity
  8
2
 62
     0
 48
0.04
370
    -2
100
AcDbLine
 10
365.1865721516484
 20
268.6670989228808
 30
0.0
 11
365.1865721516454
 21
270.3517823295391
 31
0.0
  0
LINE
  5
233F
330
1614
100
AcDbEntity
  8
2
 62
     0
 48
0.04
370
    -2
100
AcDbLine
 10
364.6421225502973
 20
269.1933390460748
 30
0.0
 11
363.9824450451612
 21
269.8530165512109
 31
0.0
  0
ARC
  5
2340
330
1614
100
AcDbEntity
  8
2
 62
     0
 48
0.04
370
    -2
100
AcDbCircle
 10
365.1865721516484
 20
268.6488894447238
 30
0.0
 40
1.522892884815237
100
AcDbArc
 50
96.77608594288653
 51
128.2239140572197
  0
SOLID
  5
2341
330
1614
100
AcDbEntity
  8
2
 62
     0
 48
0.04
100
AcDbTrace
 10
365.0051138172379
 20
270.1910922460053
 30
0.0
 11
365.0086597002438
 21
270.131197115037
 31
0.0
 12
365.1865721516457
 22
270.171782329539
 32
0.0
 13
365.1865721516457
 23
270.171782329539
 33
0.0
  0
SOLID
  5
2342
330
1614
100
AcDbEntity
  8
2
 62
     0
 48
0.04
100
AcDbTrace
 10
364.2642254470086
 20
269.8228423510511
 30
0.0
 11
364.2243805116596
 21
269.8677019222376
 31
0.0
 12
364.1097242657748
 22
269.7257373305973
 32
0.0
 13
364.1097242657748
 23
269.7257373305973
 33
0.0
  0
MTEXT
  5
2343
330
1614
100
AcDbEntity
  8
2
 62
     0
 48
0.04
100
AcDbMText
 10
364.5462522996225
 20
270.206159764303
 30
0.0
 40
0.1377952755905512
 41
0.0
 71
     5
 72
     1
  1
45\U+00B0
  7
STANDARD 3.5 mm
 11
0.9248680731954676
 21
0.3802881107577558
 31
0.0
 73
     1
 44
1.0
1001
ACAD
1000
MTEXTBEGIN
1070
    73
1070
     1
1070
    44
1040
1.0
1070
    74
1070
     0
1000
MTEXTEND
  0
POINT
  5
2344
330
1614
100
AcDbEntity
  8
DEFPOINTS
 62
     0
 48
0.04
100
AcDbPoint
 10
364.4251257092399
 20
269.9677533702159
 30
0.0
  0
POINT
  5
2345
330
1614
100
AcDbEntity
  8
DEFPOINTS
 62
     0
 48
0.04
100
AcDbPoint
 10
365.1865721516484
 20
268.6358450152998
 30
0.0
  0
POINT
  5
2346
330
1614
100
AcDbEntity
  8
DEFPOINTS
 62
     0
 48
0.04
100
AcDbPoint
 10
364.6421225502973
 20
269.1933390460748
 30
0.0
  0
POINT
  5
2347
330
1614
100
AcDbEntity
  8
DEFPOINTS
 62
     0
 48
0.04
100
AcDbPoint
 10
365.1773432689698
 20
268.6581183274023
 30
0.0
  0
POINT
  5
2348
330
1614
100
AcDbEntity
  8
DEFPOINTS
 62
     0
 48
0.04
100
AcDbPoint
 10
365.1865721516484
 20
268.6670989228808
 30
0.0
  0
ENDBLK
  5
1616
330
1614
100
AcDbEntity
  8
0
100
AcDbBlockEnd
  0
BLOCK
  5
1623
330
1622
100
AcDbEntity
  8
0
100
AcDbBlockBegin
  2
*D18
 70
     1
 10
0.0
 20
0.0
 30
0.0
  3
*D18
  1

  0
LINE
  5
2232
330
1622
100
AcDbEntity
  8
SK2
 62
     0
 48
0.04
370
    -2
100
AcDbLine
 10
363.6173669771555
 20
268.0388964888115
 30
0.0
 11
363.1875912176275
 21
268.0388964888115
 31
0.0
  0
LINE
  5
2233
330
1622
100
AcDbEntity
  8
SK2
 62
     0
 48
0.04
370
    -2
100
AcDbLine
 10
363.6173669771555
 20
267.2888979888115
 30
0.0
 11
363.1875912176275
 21
267.2888979888115
 31
0.0
  0
LINE
  5
2234
330
1622
100
AcDbEntity
  8
SK2
 62
     0
 48
0.04
370
    -2
100
AcDbLine
 10
363.3675912176275
 20
267.8588964888115
 30
0.0
 11
363.3675912176275
 21
267.4688979888115
 31
0.0
  0
SOLID
  5
2235
330
1622
100
AcDbEntity
  8
SK2
 62
     0
 48
0.04
100
AcDbTrace
 10
363.3375912176275
 20
267.8588964888115
 30
0.0
 11
363.3975912176274
 21
267.8588964888115
 31
0.0
 12
363.3675912176275
 22
268.0388964888115
 32
0.0
 13
363.3675912176275
 23
268.0388964888115
 33
0.0
  0
SOLID
  5
2236
330
1622
100
AcDbEntity
  8
SK2
 62
     0
 48
0.04
100
AcDbTrace
 10
363.3375912176275
 20
267.4688979888115
 30
0.0
 11
363.3975912176274
 21
267.4688979888115
 31
0.0
 12
363.3675912176275
 22
267.2888979888115
 32
0.0
 13
363.3675912176275
 23
267.2888979888115
 33
0.0
  0
MTEXT
  5
2237
330
1622
100
AcDbEntity
  8
SK2
 62
     0
 48
0.04
100
AcDbMText
 10
363.2042391998763
 20
267.6638972388115
 30
0.0
 40
0.1377952755905512
 41
0.0
 71
     5
 72
     1
  1
\A1;%%c0.75"
  7
STANDARD 3.5 mm
 11
0.0000000000000001
 21
1.0
 31
0.0
 73
     1
 44
1.0
1001
ACAD
1000
MTEXTBEGIN
1070
    73
1070
     1
1070
    44
1040
1.0
1070
    74
1070
     0
1000
MTEXTEND
  0
POINT
  5
2238
330
1622
100
AcDbEntity
  8
DEFPOINTS
 62
     0
 48
0.04
100
AcDbPoint
 10
363.6173669771555
 20
268.0388964888115
 30
0.0
  0
POINT
  5
2239
330
1622
100
AcDbEntity
  8
DEFPOINTS
 62
     0
 48
0.04
100
AcDbPoint
 10
363.6173669771555
 20
267.2888979888115
 30
0.0
  0
POINT
  5
223A
330
1622
100
AcDbEntity
  8
DEFPOINTS
 62
     0
 48
0.04
100
AcDbPoint
 10
363.3675912176275
 20
267.2888979888115
 30
0.0
  0
ENDBLK
  5
1624
330
1622
100
AcDbEntity
  8
0
100
AcDbBlockEnd
  0
ENDSEC
  0
SECTION
  2
ENTITIES
  0
LINE
  5
1295
330
18
100
AcDbEntity
  8
1
 48
0.04
100
AcDbLine
 10
365.123564606422
 20
267.8513765126725
 30
0.0
 11
365.0999417874702
 21
267.9757975498627
 31
0.0
  0
LINE
  5
1296
330
18
100
AcDbEntity
  8
1
 48
0.04
100
AcDbLine
 10
365.1550767792542
 20
267.5018662066634
 30
0.0
 11
365.1865663471459
 21
267.6638972388114
 31
0.0
  0
LINE
  5
1297
330
18
100
AcDbEntity
  8
1
 48
0.04
100
AcDbLine
 10
365.1865663471459
 20
267.6638972388114
 30
0.0
 11
365.1550767792542
 21
267.8259283037678
 31
0.0
  0
LINE
  5
1298
330
18
100
AcDbEntity
  8
1
 48
0.04
100
AcDbLine
 10
363.844914639877
 20
268.5890922552157
 30
0.0
 11
363.6559433743286
 21
268.5890922552157
 31
0.0
  0
LINE
  5
1299
330
18
100
AcDbEntity
  8
1
 48
0.04
100
AcDbLine
 10
363.6559433743286
 20
266.7387022552156
 30
0.0
 11
363.844914639877
 21
266.7387022552156
 31
0.0
  0
LINE
  5
129A
330
18
100
AcDbEntity
  8
1
 48
0.04
100
AcDbLine
 10
363.6165701283979
 20
266.7780698581132
 30
0.0
 11
363.6559433743286
 21
266.7387022552156
 31
0.0
  0
LINE
  5
129B
330
18
100
AcDbEntity
  8
1
 48
0.04
100
AcDbLine
 10
363.6559433743286
 20
268.5890922552157
 30
0.0
 11
363.6165701283979
 21
268.549724652318
 31
0.0
  0
LINE
  5
129C
330
18
100
AcDbEntity
  8
1
 48
0.04
100
AcDbLine
 10
364.3733875705667
 20
269.0808311405926
 30
0.0
 11
364.3719521076347
 21
269.0812154245805
 31
0.0
  0
LINE
  5
129D
330
18
100
AcDbEntity
  8
1
 48
0.04
100
AcDbLine
 10
364.1885418542906
 20
268.3967075780405
 30
0.0
 11
364.1899773172225
 21
268.3963232612443
 31
0.0
  0
LINE
  5
129E
330
18
100
AcDbEntity
  8
1
 48
0.04
100
AcDbLine
 10
364.6333742086793
 20
267.6446259857282
 30
0.0
 11
364.6319274268729
 21
267.6563413488134
 31
0.0
  0
LINE
  5
129F
330
18
100
AcDbEntity
  8
1
 48
0.04
100
AcDbLine
 10
363.928555216178
 20
267.5699089475358
 30
0.0
 11
363.930001965176
 21
267.558193617259
 31
0.0
  0
LINE
  5
12A0
330
18
100
AcDbEntity
  8
1
 48
0.04
100
AcDbLine
 10
364.6316900914022
 20
267.6566917089864
 30
0.0
 11
364.6229191120354
 21
267.663535559764
 31
0.0
  0
LINE
  5
12A1
330
18
100
AcDbEntity
  8
1
 48
0.04
100
AcDbLine
 10
363.9355516585059
 20
267.5790698539235
 30
0.0
 11
363.9287021646952
 21
267.5703101934312
 31
0.0
  0
LINE
  5
12A2
330
18
100
AcDbEntity
  8
1
 48
0.04
100
AcDbLine
 10
363.930228047389
 20
267.5578375812446
 30
0.0
 11
364.1275520188847
 21
267.4038767096923
 31
0.0
  0
LINE
  5
12A3
330
18
100
AcDbEntity
  8
1
 48
0.04
100
AcDbLine
 10
364.4790573011126
 20
267.4470702889865
 30
0.0
 11
364.6332272601621
 21
267.6442247398329
 31
0.0
  0
LINE
  5
12A4
330
18
100
AcDbEntity
  8
1
 48
0.04
100
AcDbLine
 10
364.1134009324541
 20
267.6796476657904
 30
0.0
 11
364.1181820249998
 21
267.6407830474243
 31
0.0
  0
LINE
  5
12A5
330
18
100
AcDbEntity
  8
1
 48
0.04
100
AcDbLine
 10
364.345051506699
 20
268.3040812590341
 30
0.0
 11
364.3022365355514
 21
268.3374809607992
 31
0.0
  0
LINE
  5
12A6
330
18
100
AcDbEntity
  8
1
 48
0.04
100
AcDbLine
 10
364.4307944080798
 20
267.679195566981
 30
0.0
 11
364.4307379121328
 21
267.6796533416317
 31
0.0
  0
POLYLINE
  5
12A7
330
18
100
AcDbEntity
  8
1
 48
0.04
100
AcDb2dPolyline
 66
     1
 10
0.0
 20
0.0
 30
0.0
  0
VERTEX
  5
12A8
330
12A7
100
AcDbEntity
  8
1
 48
0.04
100
AcDbVertex
100
AcDb2dVertex
 10
364.1178429508928
 20
267.6408056523647
 30
0.0
  0
VERTEX
  5
12A9
330
12A7
100
AcDbEntity
  8
1
 48
0.04
100
AcDbVertex
100
AcDb2dVertex
 10
364.1183176546426
 20
267.6373865648966
 30
0.0
  0
VERTEX
  5
12AA
330
12A7
100
AcDbEntity
  8
1
 48
0.04
100
AcDbVertex
100
AcDb2dVertex
 10
364.1184193932788
 20
267.6339787634946
 30
0.0
  0
VERTEX
  5
12AB
330
12A7
100
AcDbEntity
  8
1
 48
0.04
100
AcDbVertex
100
AcDb2dVertex
 10
364.1179333706547
 20
267.6293446522744
 30
0.0
  0
VERTEX
  5
12AC
330
12A7
100
AcDbEntity
  8
1
 48
0.04
100
AcDbVertex
100
AcDb2dVertex
 10
364.1168369818297
 20
267.6247952521663
 30
0.0
  0
VERTEX
  5
12AD
330
12A7
100
AcDbEntity
  8
1
 48
0.04
100
AcDbVertex
100
AcDb2dVertex
 10
364.1154241566465
 20
267.6208675371336
 30
0.0
  0
VERTEX
  5
12AE
330
12A7
100
AcDbEntity
  8
1
 48
0.04
100
AcDbVertex
100
AcDb2dVertex
 10
364.1136270146671
 20
267.617137623532
 30
0.0
  0
VERTEX
  5
12AF
330
12A7
100
AcDbEntity
  8
1
 48
0.04
100
AcDbVertex
100
AcDb2dVertex
 10
364.1116603192301
 20
267.6139559043429
 30
0.0
  0
VERTEX
  5
12B0
330
12A7
100
AcDbEntity
  8
1
 48
0.04
100
AcDbVertex
100
AcDb2dVertex
 10
364.1094449694478
 20
267.6110171636576
 30
0.0
  0
VERTEX
  5
12B1
330
12A7
100
AcDbEntity
  8
1
 48
0.04
100
AcDbVertex
100
AcDb2dVertex
 10
364.1072522246062
 20
267.6085983694112
 30
0.0
  0
VERTEX
  5
12B2
330
12A7
100
AcDbEntity
  8
1
 48
0.04
100
AcDbVertex
100
AcDb2dVertex
 10
364.1049464550621
 20
267.6064508344505
 30
0.0
  0
VERTEX
  5
12B3
330
12A7
100
AcDbEntity
  8
1
 48
0.04
100
AcDbVertex
100
AcDb2dVertex
 10
364.1028667677311
 20
267.6047893549222
 30
0.0
  0
VERTEX
  5
12B4
330
12A7
100
AcDbEntity
  8
1
 48
0.04
100
AcDbVertex
100
AcDb2dVertex
 10
364.1008548624132
 20
267.6033991018711
 30
0.0
  0
VERTEX
  5
12B5
330
12A7
100
AcDbEntity
  8
1
 48
0.04
100
AcDbVertex
100
AcDb2dVertex
 10
364.0991481401956
 20
267.6023535987684
 30
0.0
  0
VERTEX
  5
12B6
330
12A7
100
AcDbEntity
  8
1
 48
0.04
100
AcDbVertex
100
AcDb2dVertex
 10
364.0976448624422
 20
267.6015454311364
 30
0.0
  0
VERTEX
  5
12B7
330
12A7
100
AcDbEntity
  8
1
 48
0.04
100
AcDbVertex
100
AcDb2dVertex
 10
364.0963337430869
 20
267.6009181358364
 30
0.0
  0
VERTEX
  5
12B8
330
12A7
100
AcDbEntity
  8
1
 48
0.04
100
AcDbVertex
100
AcDb2dVertex
 10
364.0953390928982
 20
267.6004886419676
 30
0.0
  0
VERTEX
  5
12B9
330
12A7
100
AcDbEntity
  8
1
 48
0.04
100
AcDbVertex
100
AcDb2dVertex
 10
364.0945139961671
 20
267.6001664969597
 30
0.0
  0
VERTEX
  5
12BA
330
12A7
100
AcDbEntity
  8
1
 48
0.04
100
AcDbVertex
100
AcDb2dVertex
 10
364.0940166874769
 20
267.599985657436
 30
0.0
  0
VERTEX
  5
12BB
330
12A7
100
AcDbEntity
  8
1
 48
0.04
100
AcDbVertex
100
AcDb2dVertex
 10
364.0937453953829
 20
267.5998952376742
 30
0.0
  0
SEQEND
  5
12BC
330
12A7
100
AcDbEntity
  8
1
 48
0.04
  0
POLYLINE
  5
12BD
330
18
100
AcDbEntity
  8
1
 48
0.04
100
AcDb2dPolyline
 66
     1
 10
0.0
 20
0.0
 30
0.0
  0
VERTEX
  5
12BE
330
12BD
100
AcDbEntity
  8
1
 48
0.04
100
AcDbVertex
100
AcDb2dVertex
 10
364.4643975871174
 20
267.6454454394263
 30
0.0
  0
VERTEX
  5
12BF
330
12BD
100
AcDbEntity
  8
1
 48
0.04
100
AcDbVertex
100
AcDb2dVertex
 10
364.4642619574746
 20
267.6454567583007
 30
0.0
  0
VERTEX
  5
12C0
330
12BD
100
AcDbEntity
  8
1
 48
0.04
100
AcDbVertex
100
AcDb2dVertex
 10
364.463809825857
 20
267.6454906493072
 30
0.0
  0
VERTEX
  5
12C1
330
12BD
100
AcDbEntity
  8
1
 48
0.04
100
AcDbVertex
100
AcDb2dVertex
 10
364.4629621241854
 20
267.6455923879434
 30
0.0
  0
VERTEX
  5
12C2
330
12BD
100
AcDbEntity
  8
1
 48
0.04
100
AcDbVertex
100
AcDb2dVertex
 10
364.4618544492944
 20
267.6457675844341
 30
0.0
  0
VERTEX
  5
12C3
330
12BD
100
AcDbEntity
  8
1
 48
0.04
100
AcDbVertex
100
AcDb2dVertex
 10
364.4603398854749
 20
267.6460727675346
 30
0.0
  0
VERTEX
  5
12C4
330
12BD
100
AcDbEntity
  8
1
 48
0.04
100
AcDbVertex
100
AcDb2dVertex
 10
364.4584975336146
 20
267.6465418282512
 30
0.0
  0
VERTEX
  5
12C5
330
12BD
100
AcDbEntity
  8
1
 48
0.04
100
AcDbVertex
100
AcDb2dVertex
 10
364.4563161076473
 20
267.6472312953396
 30
0.0
  0
VERTEX
  5
12C6
330
12BD
100
AcDbEntity
  8
1
 48
0.04
100
AcDbVertex
100
AcDb2dVertex
 10
364.4537503648838
 20
267.6482485504688
 30
0.0
  0
VERTEX
  5
12C7
330
12BD
100
AcDbEntity
  8
1
 48
0.04
100
AcDbVertex
100
AcDb2dVertex
 10
364.4510377064114
 20
267.6495596698241
 30
0.0
  0
VERTEX
  5
12C8
330
12BD
100
AcDbEntity
  8
1
 48
0.04
100
AcDbVertex
100
AcDb2dVertex
 10
364.4478729163214
 20
267.6514585176314
 30
0.0
  0
VERTEX
  5
12C9
330
12BD
100
AcDbEntity
  8
1
 48
0.04
100
AcDbVertex
100
AcDb2dVertex
 10
364.4447985459933
 20
267.6537303961689
 30
0.0
  0
VERTEX
  5
12CA
330
12BD
100
AcDbEntity
  8
1
 48
0.04
100
AcDbVertex
100
AcDb2dVertex
 10
364.4416450747776
 20
267.6566126080989
 30
0.0
  0
VERTEX
  5
12CB
330
12BD
100
AcDbEntity
  8
1
 48
0.04
100
AcDbVertex
100
AcDb2dVertex
 10
364.4387967866625
 20
267.6598621421094
 30
0.0
  0
VERTEX
  5
12CC
330
12BD
100
AcDbEntity
  8
1
 48
0.04
100
AcDbVertex
100
AcDb2dVertex
 10
364.4362084389585
 20
267.6636598705324
 30
0.0
  0
VERTEX
  5
12CD
330
12BD
100
AcDbEntity
  8
1
 48
0.04
100
AcDbVertex
100
AcDb2dVertex
 10
364.4340156941168
 20
267.6677514959898
 30
0.0
  0
VERTEX
  5
12CE
330
12BD
100
AcDbEntity
  8
1
 48
0.04
100
AcDbVertex
100
AcDb2dVertex
 10
364.4321846611309
 20
267.6722104435276
 30
0.0
  0
VERTEX
  5
12CF
330
12BD
100
AcDbEntity
  8
1
 48
0.04
100
AcDbVertex
100
AcDb2dVertex
 10
364.4311448010612
 20
267.6768671924965
 30
0.0
  0
VERTEX
  5
12D0
330
12BD
100
AcDbEntity
  8
1
 48
0.04
100
AcDbVertex
100
AcDb2dVertex
 10
364.4310656673654
 20
267.6779918292951
 30
0.0
  0
VERTEX
  5
12D1
330
12BD
100
AcDbEntity
  8
1
 48
0.04
100
AcDbVertex
100
AcDb2dVertex
 10
364.4310317763589
 20
267.6791277521597
 30
0.0
  0
SEQEND
  5
12D2
330
12BD
100
AcDbEntity
  8
1
 48
0.04
  0
LINE
  5
12D3
330
18
100
AcDbEntity
  8
1
 48
0.04
100
AcDbLine
 10
364.536916237435
 20
268.9832429223252
 30
0.0
 11
364.5894289905085
 21
269.1792218834591
 31
0.0
  0
LINE
  5
12D4
102
{ACAD_REACTORS
330
15C0
102
}
330
18
100
AcDbEntity
  8
1
 48
0.04
100
AcDbLine
 10
364.6421225502973
 20
269.1933390460748
 30
0.0
 11
365.1773432689698
 21
268.6581183274023
 31
0.0
  0
LINE
  5
12D5
330
18
100
AcDbEntity
  8
1
 48
0.04
100
AcDbLine
 10
365.1632260735457
 20
268.6054247676135
 30
0.0
 11
364.432094241369
 21
268.4095249073671
 31
0.0
  0
LINE
  5
12D6
330
18
100
AcDbEntity
  8
1
 48
0.04
100
AcDbLine
 10
365.1455146269711
 20
267.4764179649504
 30
0.0
 11
365.1550767792542
 21
267.5018662066634
 31
0.0
  0
LINE
  5
12D7
330
18
100
AcDbEntity
  8
1
 48
0.04
100
AcDbLine
 10
365.1550767792542
 20
267.5018662066634
 30
0.0
 11
365.1632260735457
 21
267.6638972388114
 31
0.0
  0
LINE
  5
12D8
330
18
100
AcDbEntity
  8
1
 48
0.04
100
AcDbLine
 10
365.1455146269711
 20
267.4764179649504
 30
0.0
 11
365.1401796969799
 21
267.4764179649504
 31
0.0
  0
LINE
  5
12D9
330
18
100
AcDbEntity
  8
1
 48
0.04
100
AcDbLine
 10
364.5789626077985
 20
266.1876067987959
 30
0.0
 11
364.5894289905085
 21
266.1485726269722
 31
0.0
  0
LINE
  5
12DA
330
18
100
AcDbEntity
  8
1
 48
0.04
100
AcDbLine
 10
364.6198447745157
 20
266.1567219212637
 30
0.0
 11
364.5894289905085
 21
266.1485726269722
 31
0.0
  0
LINE
  5
12DB
330
18
100
AcDbEntity
  8
1
 48
0.04
100
AcDbLine
 10
364.6224104844708
 20
266.1662784305137
 30
0.0
 11
364.6198447745157
 21
266.1567219212637
 31
0.0
  0
LINE
  5
12DC
330
18
100
AcDbEntity
  8
1
 48
0.04
100
AcDbLine
 10
364.6135151943356
 20
266.199486006689
 30
0.0
 11
364.6224104844708
 21
266.1662784305137
 31
0.0
  0
LINE
  5
12DD
330
18
100
AcDbEntity
  8
1
 48
0.04
100
AcDbLine
 10
364.6198447745157
 20
266.1567219212637
 30
0.0
 11
364.6421225502973
 21
266.1344497885151
 31
0.0
  0
LINE
  5
12DE
330
18
100
AcDbEntity
  8
1
 48
0.04
100
AcDbLine
 10
365.1550767792542
 20
266.6919426399362
 30
0.0
 11
365.1773432689698
 21
266.6696761502205
 31
0.0
  0
LINE
  5
12DF
330
18
100
AcDbEntity
  8
1
 48
0.04
100
AcDbLine
 10
364.6224104844708
 20
266.1662784305137
 30
0.0
 11
365.1455146269711
 21
266.6893825402056
 31
0.0
  0
LINE
  5
12E0
330
18
100
AcDbEntity
  8
1
 48
0.04
100
AcDbLine
 10
364.6421225502973
 20
266.1344497885151
 30
0.0
 11
365.1773432689698
 21
266.6696761502205
 31
0.0
  0
LINE
  5
12E1
330
18
100
AcDbEntity
  8
1
 48
0.04
100
AcDbLine
 10
365.1550767792542
 20
266.6919426399362
 30
0.0
 11
365.1632260735457
 21
266.7223697428177
 31
0.0
  0
LINE
  5
12E2
330
18
100
AcDbEntity
  8
1
 48
0.04
100
AcDbLine
 10
365.1455146269711
 20
266.6893825402056
 30
0.0
 11
365.1550767792542
 21
266.6919426399362
 31
0.0
  0
LINE
  5
12E3
330
18
100
AcDbEntity
  8
1
 48
0.04
100
AcDbLine
 10
365.1632260735457
 20
266.7223697428177
 30
0.0
 11
365.1401796969799
 21
266.7285410556061
 31
0.0
  0
LINE
  5
12E4
330
18
100
AcDbEntity
  8
1
 48
0.04
100
AcDbLine
 10
365.1455146269711
 20
266.6893825402056
 30
0.0
 11
365.1401796969799
 21
266.6908123601047
 31
0.0
  0
LINE
  5
12E5
330
18
100
AcDbEntity
  8
1
 48
0.04
100
AcDbLine
 10
364.6198447745157
 20
267.8259283037678
 30
0.0
 11
364.5894289905085
 21
267.6638972388114
 31
0.0
  0
LINE
  5
12E6
330
18
100
AcDbEntity
  8
1
 48
0.04
100
AcDbLine
 10
364.6224104844708
 20
267.8513765126725
 30
0.0
 11
364.6198447745157
 21
267.8259283037678
 31
0.0
  0
LINE
  5
12E7
330
18
100
AcDbEntity
  8
1
 48
0.04
100
AcDbLine
 10
364.6198447745157
 20
267.8259283037678
 30
0.0
 11
364.6421225502973
 21
267.6638972388114
 31
0.0
  0
LINE
  5
12E8
330
18
100
AcDbEntity
  8
1
 48
0.04
100
AcDbLine
 10
365.1550767792542
 20
267.8259283037678
 30
0.0
 11
365.1773432689698
 21
267.6638972388114
 31
0.0
  0
LINE
  5
12E9
330
18
100
AcDbEntity
  8
1
 48
0.04
100
AcDbLine
 10
365.1455146269711
 20
267.8513765126725
 30
0.0
 11
365.1550767792542
 21
267.8259283037678
 31
0.0
  0
LINE
  5
12EA
330
18
100
AcDbEntity
  8
1
 48
0.04
100
AcDbLine
 10
365.1166472977899
 20
266.6605152438328
 30
0.0
 11
364.6513456284733
 21
266.1952078986749
 31
0.0
  0
LINE
  5
12EB
330
18
100
AcDbEntity
  8
1
 48
0.04
100
AcDbLine
 10
364.6227043815052
 20
266.2087147278981
 30
0.0
 11
364.6346401181536
 21
266.2119134089946
 31
0.0
  0
LINE
  5
12EC
330
18
100
AcDbEntity
  8
1
 48
0.04
100
AcDbLine
 10
364.6513456284733
 20
266.1952078986749
 30
0.0
 11
364.6346401181536
 21
266.2119134089946
 31
0.0
  0
LINE
  5
12ED
330
18
100
AcDbEntity
  8
1
 48
0.04
100
AcDbLine
 10
365.1166472977899
 20
266.6605152438328
 30
0.0
 11
365.0999417874702
 21
266.6772207541526
 31
0.0
  0
LINE
  5
12EE
330
18
100
AcDbEntity
  8
1
 48
0.04
100
AcDbLine
 10
365.1014789890384
 20
266.6829512541978
 30
0.0
 11
365.0999417874702
 21
266.6772207541526
 31
0.0
  0
LINE
  5
12EF
330
18
100
AcDbEntity
  8
1
 48
0.04
100
AcDbLine
 10
365.09972705694
 20
267.9763796352817
 30
0.0
 11
364.6346966141006
 21
267.9763796352817
 31
0.0
  0
LINE
  5
12F0
330
18
100
AcDbEntity
  8
1
 48
0.04
100
AcDbLine
 10
364.6513456284733
 20
267.8513765126725
 30
0.0
 11
364.6346401181536
 21
267.9757975498627
 31
0.0
  0
LINE
  5
12F1
330
18
100
AcDbEntity
  8
1
 48
0.04
100
AcDbLine
 10
364.6227948012671
 20
267.9112303924055
 30
0.0
 11
364.6346401181536
 21
267.9757975498627
 31
0.0
  0
LINE
  5
12F2
330
18
100
AcDbEntity
  8
1
 48
0.04
100
AcDbLine
 10
365.0999417874702
 20
267.9757975498627
 30
0.0
 11
365.09972705694
 21
267.9763796352817
 31
0.0
  0
LINE
  5
12F3
330
18
100
AcDbEntity
  8
1
 48
0.04
100
AcDbLine
 10
365.1166472977899
 20
267.8513765126725
 30
0.0
 11
365.0999417874702
 21
267.9757975498627
 31
0.0
  0
LINE
  5
12F4
330
18
100
AcDbEntity
  8
1
 48
0.04
100
AcDbLine
 10
364.6346401181536
 20
267.9757975498627
 30
0.0
 11
364.6346966141006
 21
267.9763796352817
 31
0.0
  0
LINE
  5
12F5
330
18
100
AcDbEntity
  8
1
 48
0.04
100
AcDbLine
 10
365.0811339520706
 20
267.3418470470251
 30
0.0
 11
365.0811339520706
 21
267.6638972388114
 31
0.0
  0
LINE
  5
12F6
330
18
100
AcDbEntity
  8
1
 48
0.04
100
AcDbLine
 10
365.0811339520706
 20
268.395351215996
 30
0.0
 11
365.0811339520706
 21
268.4629531769335
 31
0.0
  0
POLYLINE
  5
12F7
330
18
100
AcDbEntity
  8
1
 48
0.04
100
AcDb2dPolyline
 66
     1
 10
0.0
 20
0.0
 30
0.0
  0
VERTEX
  5
12F8
330
12F7
100
AcDbEntity
  8
1
 48
0.04
100
AcDbVertex
100
AcDb2dVertex
 10
364.6228852210289
 20
267.909371111446
 30
0.0
  0
VERTEX
  5
12F9
330
12F7
100
AcDbEntity
  8
1
 48
0.04
100
AcDbVertex
100
AcDb2dVertex
 10
364.6037948074694
 20
267.7949077965928
 30
0.0
  0
VERTEX
  5
12FA
330
12F7
100
AcDbEntity
  8
1
 48
0.04
100
AcDbVertex
100
AcDb2dVertex
 10
364.5821386839546
 20
267.6796476657904
 30
0.0
  0
SEQEND
  5
12FB
330
12F7
100
AcDbEntity
  8
1
 48
0.04
  0
POLYLINE
  5
12FC
330
18
100
AcDbEntity
  8
1
 48
0.04
100
AcDb2dPolyline
 66
     1
 10
0.0
 20
0.0
 30
0.0
  0
VERTEX
  5
12FD
330
12FC
100
AcDbEntity
  8
1
 48
0.04
100
AcDbVertex
100
AcDb2dVertex
 10
363.8694190515069
 20
266.7319827480147
 30
0.0
  0
VERTEX
  5
12FE
330
12FC
100
AcDbEntity
  8
1
 48
0.04
100
AcDbVertex
100
AcDb2dVertex
 10
363.8735332819047
 20
266.7291796697805
 30
0.0
  0
VERTEX
  5
12FF
330
12FC
100
AcDbEntity
  8
1
 48
0.04
100
AcDbVertex
100
AcDb2dVertex
 10
363.8807557408289
 20
266.7223753858507
 30
0.0
  0
VERTEX
  5
1300
330
12FC
100
AcDbEntity
  8
1
 48
0.04
100
AcDbVertex
100
AcDb2dVertex
 10
363.8889276728692
 20
266.7087724938326
 30
0.0
  0
VERTEX
  5
1301
330
12FC
100
AcDbEntity
  8
1
 48
0.04
100
AcDbVertex
100
AcDb2dVertex
 10
363.8921263539657
 20
266.6932311543509
 30
0.0
  0
VERTEX
  5
1302
330
12FC
100
AcDbEntity
  8
1
 48
0.04
100
AcDbVertex
100
AcDb2dVertex
 10
363.8921602777806
 20
266.6915866039218
 30
0.0
  0
SEQEND
  5
1303
330
12FC
100
AcDbEntity
  8
1
 48
0.04
  0
LINE
  5
1304
330
18
100
AcDbEntity
  8
1
 48
0.04
100
AcDbLine
 10
364.0968875805325
 20
266.1876067987959
 30
0.0
 11
364.5821386839546
 21
266.1876067987959
 31
0.0
  0
POLYLINE
  5
1305
330
18
100
AcDbEntity
  8
1
 48
0.04
100
AcDb2dPolyline
 66
     1
 10
0.0
 20
0.0
 30
0.0
  0
VERTEX
  5
1306
330
1305
100
AcDbEntity
  8
1
 48
0.04
100
AcDbVertex
100
AcDb2dVertex
 10
363.8921602777806
 20
266.3923453876139
 30
0.0
  0
VERTEX
  5
1307
330
1305
100
AcDbEntity
  8
1
 48
0.04
100
AcDbVertex
100
AcDb2dVertex
 10
363.993828802631
 20
266.2906655766974
 30
0.0
  0
VERTEX
  5
1308
330
1305
100
AcDbEntity
  8
1
 48
0.04
100
AcDbVertex
100
AcDb2dVertex
 10
364.0968875805325
 20
266.1876067987959
 30
0.0
  0
SEQEND
  5
1309
330
1305
100
AcDbEntity
  8
1
 48
0.04
  0
POLYLINE
  5
130A
330
18
100
AcDbEntity
  8
1
 48
0.04
100
AcDb2dPolyline
 66
     1
 10
0.0
 20
0.0
 30
0.0
  0
VERTEX
  5
130B
330
130A
100
AcDbEntity
  8
1
 48
0.04
100
AcDbVertex
100
AcDb2dVertex
 10
364.6228852210289
 20
266.2080704706907
 30
0.0
  0
VERTEX
  5
130C
330
130A
100
AcDbEntity
  8
1
 48
0.04
100
AcDbVertex
100
AcDb2dVertex
 10
364.6037948074694
 20
266.1933429418741
 30
0.0
  0
VERTEX
  5
130D
330
130A
100
AcDbEntity
  8
1
 48
0.04
100
AcDbVertex
100
AcDb2dVertex
 10
364.5821386839546
 20
266.1876067987959
 30
0.0
  0
SEQEND
  5
130E
330
130A
100
AcDbEntity
  8
1
 48
0.04
  0
POLYLINE
  5
130F
330
18
100
AcDbEntity
  8
1
 48
0.04
100
AcDb2dPolyline
 66
     1
 10
0.0
 20
0.0
 30
0.0
  0
VERTEX
  5
1310
330
130F
100
AcDbEntity
  8
1
 48
0.04
100
AcDbVertex
100
AcDb2dVertex
 10
365.0811339520706
 20
267.6481468118326
 30
0.0
  0
VERTEX
  5
1311
330
130F
100
AcDbEntity
  8
1
 48
0.04
100
AcDbVertex
100
AcDb2dVertex
 10
365.1401910158543
 20
267.6481468118326
 30
0.0
  0
SEQEND
  5
1312
330
130F
100
AcDbEntity
  8
1
 48
0.04
  0
LINE
  5
1313
330
18
100
AcDbEntity
  8
1
 48
0.04
100
AcDbLine
 10
364.6075699309518
 20
268.456544495866
 30
0.0
 11
364.5440483094056
 21
268.3930115554455
 31
0.0
  0
POLYLINE
  5
1314
330
18
100
AcDbEntity
  8
1
 48
0.04
100
AcDb2dPolyline
 66
     1
 10
0.0
 20
0.0
 30
0.0
  0
VERTEX
  5
1315
330
1314
100
AcDbEntity
  8
1
 48
0.04
100
AcDbVertex
100
AcDb2dVertex
 10
365.0811339520706
 20
268.4629531769335
 30
0.0
  0
VERTEX
  5
1316
330
1314
100
AcDbEntity
  8
1
 48
0.04
100
AcDbVertex
100
AcDb2dVertex
 10
365.0856437853307
 20
268.4674516913192
 30
0.0
  0
VERTEX
  5
1317
330
1314
100
AcDbEntity
  8
1
 48
0.04
100
AcDbVertex
100
AcDb2dVertex
 10
365.1401910158543
 20
268.5220215267832
 30
0.0
  0
SEQEND
  5
1318
330
1314
100
AcDbEntity
  8
1
 48
0.04
  0
LINE
  5
1319
330
18
100
AcDbEntity
  8
1
 48
0.04
100
AcDbLine
 10
364.1762444385947
 20
268.379629069799
 30
0.0
 11
364.1813532863729
 21
268.3987194505502
 31
0.0
  0
POLYLINE
  5
131A
330
18
100
AcDbEntity
  8
1
 48
0.04
100
AcDb2dPolyline
 66
     1
 10
0.0
 20
0.0
 30
0.0
  0
VERTEX
  5
131B
330
131A
100
AcDbEntity
  8
1
 48
0.04
100
AcDbVertex
100
AcDb2dVertex
 10
363.8694190515069
 20
268.5958060865752
 30
0.0
  0
VERTEX
  5
131C
330
131A
100
AcDbEntity
  8
1
 48
0.04
100
AcDbVertex
100
AcDb2dVertex
 10
363.8755677921632
 20
268.6002593910799
 30
0.0
  0
VERTEX
  5
131D
330
131A
100
AcDbEntity
  8
1
 48
0.04
100
AcDbVertex
100
AcDb2dVertex
 10
363.8857402778388
 20
268.6124324960074
 30
0.0
  0
VERTEX
  5
131E
330
131A
100
AcDbEntity
  8
1
 48
0.04
100
AcDbVertex
100
AcDb2dVertex
 10
363.8913125433007
 20
268.6272843355924
 30
0.0
  0
VERTEX
  5
131F
330
131A
100
AcDbEntity
  8
1
 48
0.04
100
AcDbVertex
100
AcDb2dVertex
 10
363.8921602777806
 20
268.6362135495425
 30
0.0
  0
SEQEND
  5
1320
330
131A
100
AcDbEntity
  8
1
 48
0.04
  0
LINE
  5
1321
330
18
100
AcDbEntity
  8
1
 48
0.04
100
AcDbLine
 10
364.3647296487106
 20
269.0830690953152
 30
0.0
 11
364.3698384964888
 21
269.1021594760665
 31
0.0
  0
POLYLINE
  5
1322
330
18
100
AcDbEntity
  8
1
 48
0.04
100
AcDb2dPolyline
 66
     1
 10
0.0
 20
0.0
 30
0.0
  0
VERTEX
  5
1323
330
1322
100
AcDbEntity
  8
1
 48
0.04
100
AcDbVertex
100
AcDb2dVertex
 10
364.3698384964888
 20
269.1021594760665
 30
0.0
  0
VERTEX
  5
1324
330
1322
100
AcDbEntity
  8
1
 48
0.04
100
AcDbVertex
100
AcDb2dVertex
 10
364.4175249471356
 20
269.085793072662
 30
0.0
  0
VERTEX
  5
1325
330
1322
100
AcDbEntity
  8
1
 48
0.04
100
AcDbVertex
100
AcDb2dVertex
 10
364.462600445138
 20
269.0632553236608
 30
0.0
  0
VERTEX
  5
1326
330
1322
100
AcDbEntity
  8
1
 48
0.04
100
AcDbVertex
100
AcDb2dVertex
 10
364.5042624987052
 20
269.0349644368656
 30
0.0
  0
VERTEX
  5
1327
330
1322
100
AcDbEntity
  8
1
 48
0.04
100
AcDbVertex
100
AcDb2dVertex
 10
364.5417877497426
 20
269.0014177865834
 30
0.0
  0
SEQEND
  5
1328
330
1322
100
AcDbEntity
  8
1
 48
0.04
  0
LINE
  5
1329
330
18
100
AcDbEntity
  8
1
 48
0.04
100
AcDbLine
 10
364.0968875805325
 20
269.1401933546684
 30
0.0
 11
364.5789626077985
 21
269.1401933546684
 31
0.0
  0
LINE
  5
132A
330
18
100
AcDbEntity
  8
1
 48
0.04
100
AcDbLine
 10
363.8921602777806
 20
268.6362135495425
 30
0.0
 11
363.8921602777806
 21
268.9354547330421
 31
0.0
  0
POLYLINE
  5
132B
330
18
100
AcDbEntity
  8
1
 48
0.04
100
AcDb2dPolyline
 66
     1
 10
0.0
 20
0.0
 30
0.0
  0
VERTEX
  5
132C
330
132B
100
AcDbEntity
  8
1
 48
0.04
100
AcDbVertex
100
AcDb2dVertex
 10
363.8921602777806
 20
268.9354547330421
 30
0.0
  0
VERTEX
  5
132D
330
132B
100
AcDbEntity
  8
1
 48
0.04
100
AcDbVertex
100
AcDb2dVertex
 10
363.993828802631
 20
269.0371232907008
 30
0.0
  0
VERTEX
  5
132E
330
132B
100
AcDbEntity
  8
1
 48
0.04
100
AcDbVertex
100
AcDb2dVertex
 10
364.0968875805325
 20
269.1401933546684
 30
0.0
  0
SEQEND
  5
132F
330
132B
100
AcDbEntity
  8
1
 48
0.04
  0
POLYLINE
  5
1330
330
18
100
AcDbEntity
  8
1
 48
0.04
100
AcDb2dPolyline
 66
     1
 10
0.0
 20
0.0
 30
0.0
  0
VERTEX
  5
1331
330
1330
100
AcDbEntity
  8
1
 48
0.04
100
AcDbVertex
100
AcDb2dVertex
 10
364.3868152660941
 20
268.3842518949531
 30
0.0
  0
VERTEX
  5
1332
330
1330
100
AcDbEntity
  8
1
 48
0.04
100
AcDbVertex
100
AcDb2dVertex
 10
364.3349920129173
 20
268.3719431603828
 30
0.0
  0
VERTEX
  5
1333
330
1330
100
AcDbEntity
  8
1
 48
0.04
100
AcDbVertex
100
AcDb2dVertex
 10
364.2819141363323
 20
268.3670264381943
 30
0.0
  0
VERTEX
  5
1334
330
1330
100
AcDbEntity
  8
1
 48
0.04
100
AcDbVertex
100
AcDb2dVertex
 10
364.2286441341575
 20
268.3696034998322
 30
0.0
  0
VERTEX
  5
1335
330
1330
100
AcDbEntity
  8
1
 48
0.04
100
AcDbVertex
100
AcDb2dVertex
 10
364.1762444385947
 20
268.379629069799
 30
0.0
  0
SEQEND
  5
1336
330
1330
100
AcDbEntity
  8
1
 48
0.04
  0
POLYLINE
  5
1337
330
18
100
AcDbEntity
  8
1
 48
0.04
100
AcDb2dPolyline
 66
     1
 10
0.0
 20
0.0
 30
0.0
  0
VERTEX
  5
1338
330
1337
100
AcDbEntity
  8
1
 48
0.04
100
AcDbVertex
100
AcDb2dVertex
 10
364.6387317108026
 20
268.2709301788058
 30
0.0
  0
VERTEX
  5
1339
330
1337
100
AcDbEntity
  8
1
 48
0.04
100
AcDbVertex
100
AcDb2dVertex
 10
364.6387317108026
 20
267.9763005343943
 30
0.0
  0
SEQEND
  5
133A
330
1337
100
AcDbEntity
  8
1
 48
0.04
  0
LINE
  5
133B
330
18
100
AcDbEntity
  8
1
 48
0.04
100
AcDbLine
 10
364.6387317108026
 20
267.9763005343943
 30
0.0
 11
364.6194265667128
 21
267.9763005343943
 31
0.0
  0
LINE
  5
133C
330
18
100
AcDbEntity
  8
1
 48
0.04
100
AcDbLine
 10
364.6228852210289
 20
267.909371111446
 30
0.0
 11
364.6194265667128
 21
267.9763005343943
 31
0.0
  0
POLYLINE
  5
133D
330
18
100
AcDbEntity
  8
1
 48
0.04
100
AcDb2dPolyline
 66
     1
 10
0.0
 20
0.0
 30
0.0
  0
VERTEX
  5
133E
330
133D
100
AcDbEntity
  8
1
 48
0.04
100
AcDbVertex
100
AcDb2dVertex
 10
364.6387317108026
 20
268.2709301788058
 30
0.0
  0
VERTEX
  5
133F
330
133D
100
AcDbEntity
  8
1
 48
0.04
100
AcDbVertex
100
AcDb2dVertex
 10
364.5652749390516
 20
268.2708397590439
 30
0.0
  0
VERTEX
  5
1340
330
133D
100
AcDbEntity
  8
1
 48
0.04
100
AcDbVertex
100
AcDb2dVertex
 10
364.4915468752066
 20
268.2762763948631
 30
0.0
  0
VERTEX
  5
1341
330
133D
100
AcDbEntity
  8
1
 48
0.04
100
AcDbVertex
100
AcDb2dVertex
 10
364.4170276056371
 20
268.2875113783572
 30
0.0
  0
VERTEX
  5
1342
330
133D
100
AcDbEntity
  8
1
 48
0.04
100
AcDbVertex
100
AcDb2dVertex
 10
364.3432995746004
 20
268.3044768618964
 30
0.0
  0
VERTEX
  5
1343
330
133D
100
AcDbEntity
  8
1
 48
0.04
100
AcDbVertex
100
AcDb2dVertex
 10
364.279393636258
 20
268.324155003908
 30
0.0
  0
VERTEX
  5
1344
330
133D
100
AcDbEntity
  8
1
 48
0.04
100
AcDbVertex
100
AcDb2dVertex
 10
364.2169909428607
 20
268.3481281830329
 30
0.0
  0
VERTEX
  5
1345
330
133D
100
AcDbEntity
  8
1
 48
0.04
100
AcDbVertex
100
AcDb2dVertex
 10
364.155752485918
 20
268.3765773044113
 30
0.0
  0
VERTEX
  5
1346
330
133D
100
AcDbEntity
  8
1
 48
0.04
100
AcDbVertex
100
AcDb2dVertex
 10
364.0968875805325
 20
268.4089823887959
 30
0.0
  0
SEQEND
  5
1347
330
133D
100
AcDbEntity
  8
1
 48
0.04
  0
POLYLINE
  5
1348
330
18
100
AcDbEntity
  8
1
 48
0.04
100
AcDb2dPolyline
 66
     1
 10
0.0
 20
0.0
 30
0.0
  0
VERTEX
  5
1349
330
1348
100
AcDbEntity
  8
1
 48
0.04
100
AcDbVertex
100
AcDb2dVertex
 10
364.0968875805325
 20
268.4089823887959
 30
0.0
  0
VERTEX
  5
134A
330
1348
100
AcDbEntity
  8
1
 48
0.04
100
AcDbVertex
100
AcDb2dVertex
 10
364.0968875805325
 20
267.6796476657904
 30
0.0
  0
SEQEND
  5
134B
330
1348
100
AcDbEntity
  8
1
 48
0.04
  0
LINE
  5
134C
330
18
100
AcDbEntity
  8
1
 48
0.04
100
AcDbLine
 10
365.1066104417572
 20
267.9763005343943
 30
0.0
 11
365.0997609479465
 21
267.9763005343943
 31
0.0
  0
LINE
  5
134D
330
18
100
AcDbEntity
  8
1
 48
0.04
100
AcDbLine
 10
365.1401910158543
 20
268.5992534548252
 30
0.0
 11
365.1401910158543
 21
267.8513765126725
 31
0.0
  0
LINE
  5
134E
330
18
100
AcDbEntity
  8
1
 48
0.04
100
AcDbLine
 10
365.1401910158543
 20
267.8543208963908
 30
0.0
 11
365.1216205487338
 21
267.909371111446
 31
0.0
  0
POLYLINE
  5
134F
330
18
100
AcDbEntity
  8
1
 48
0.04
100
AcDb2dPolyline
 66
     1
 10
0.0
 20
0.0
 30
0.0
  0
VERTEX
  5
1350
330
134F
100
AcDbEntity
  8
1
 48
0.04
100
AcDbVertex
100
AcDb2dVertex
 10
364.6387317108026
 20
266.3180861240722
 30
0.0
  0
VERTEX
  5
1351
330
134F
100
AcDbEntity
  8
1
 48
0.04
100
AcDbVertex
100
AcDb2dVertex
 10
364.6387317108026
 20
266.220950004614
 30
0.0
  0
SEQEND
  5
1352
330
134F
100
AcDbEntity
  8
1
 48
0.04
  0
POLYLINE
  5
1353
330
18
100
AcDbEntity
  8
1
 48
0.04
100
AcDb2dPolyline
 66
     1
 10
0.0
 20
0.0
 30
0.0
  0
VERTEX
  5
1354
330
1353
100
AcDbEntity
  8
1
 48
0.04
100
AcDbVertex
100
AcDb2dVertex
 10
364.6387317108026
 20
266.3180861240722
 30
0.0
  0
VERTEX
  5
1355
330
1353
100
AcDbEntity
  8
1
 48
0.04
100
AcDbVertex
100
AcDb2dVertex
 10
364.5652749390516
 20
266.3180465572243
 30
0.0
  0
VERTEX
  5
1356
330
1353
100
AcDbEntity
  8
1
 48
0.04
100
AcDbVertex
100
AcDb2dVertex
 10
364.4915468752066
 20
266.3205162043845
 30
0.0
  0
VERTEX
  5
1357
330
1353
100
AcDbEntity
  8
1
 48
0.04
100
AcDbVertex
100
AcDb2dVertex
 10
364.4170276056371
 20
266.3256928997926
 30
0.0
  0
VERTEX
  5
1358
330
1353
100
AcDbEntity
  8
1
 48
0.04
100
AcDbVertex
100
AcDb2dVertex
 10
364.3432995746004
 20
266.3337348124148
 30
0.0
  0
VERTEX
  5
1359
330
1353
100
AcDbEntity
  8
1
 48
0.04
100
AcDbVertex
100
AcDb2dVertex
 10
364.279393636258
 20
266.343393060301
 30
0.0
  0
VERTEX
  5
135A
330
1353
100
AcDbEntity
  8
1
 48
0.04
100
AcDbVertex
100
AcDb2dVertex
 10
364.2169909428607
 20
266.355645266116
 30
0.0
  0
VERTEX
  5
135B
330
1353
100
AcDbEntity
  8
1
 48
0.04
100
AcDbVertex
100
AcDb2dVertex
 10
364.155752485918
 20
266.3709266323782
 30
0.0
  0
VERTEX
  5
135C
330
1353
100
AcDbEntity
  8
1
 48
0.04
100
AcDbVertex
100
AcDb2dVertex
 10
364.0968875805325
 20
266.389327546041
 30
0.0
  0
SEQEND
  5
135D
330
1353
100
AcDbEntity
  8
1
 48
0.04
  0
POLYLINE
  5
135E
330
18
100
AcDbEntity
  8
1
 48
0.04
100
AcDb2dPolyline
 66
     1
 10
0.0
 20
0.0
 30
0.0
  0
VERTEX
  5
135F
330
135E
100
AcDbEntity
  8
1
 48
0.04
100
AcDbVertex
100
AcDb2dVertex
 10
364.0968875805325
 20
266.389327546041
 30
0.0
  0
VERTEX
  5
1360
330
135E
100
AcDbEntity
  8
1
 48
0.04
100
AcDbVertex
100
AcDb2dVertex
 10
364.0968875805325
 20
266.1876067987959
 30
0.0
  0
SEQEND
  5
1361
330
135E
100
AcDbEntity
  8
1
 48
0.04
  0
LINE
  5
1362
330
18
100
AcDbEntity
  8
1
 48
0.04
100
AcDbLine
 10
364.6387317108026
 20
266.220950004614
 30
0.0
 11
364.6194265667128
 21
266.220950004614
 31
0.0
  0
LINE
  5
1363
330
18
100
AcDbEntity
  8
1
 48
0.04
100
AcDbLine
 10
364.6228852210289
 20
266.2080704706907
 30
0.0
 11
364.6194265667128
 21
266.220950004614
 31
0.0
  0
LINE
  5
1364
330
18
100
AcDbEntity
  8
1
 48
0.04
100
AcDbLine
 10
365.1066104417572
 20
267.9763005343943
 30
0.0
 11
365.1216205487338
 21
267.909371111446
 31
0.0
  0
POLYLINE
  5
1365
330
18
100
AcDbEntity
  8
1
 48
0.04
100
AcDb2dPolyline
 66
     1
 10
0.0
 20
0.0
 30
0.0
  0
VERTEX
  5
1366
330
1365
100
AcDbEntity
  8
1
 48
0.04
100
AcDbVertex
100
AcDb2dVertex
 10
365.1401910158543
 20
268.4311358538092
 30
0.0
  0
VERTEX
  5
1367
330
1365
100
AcDbEntity
  8
1
 48
0.04
100
AcDbVertex
100
AcDb2dVertex
 10
365.0942338923655
 20
268.4028110760075
 30
0.0
  0
VERTEX
  5
1368
330
1365
100
AcDbEntity
  8
1
 48
0.04
100
AcDbVertex
100
AcDb2dVertex
 10
365.0423428243673
 20
268.3747801624319
 30
0.0
  0
VERTEX
  5
1369
330
1365
100
AcDbEntity
  8
1
 48
0.04
100
AcDbVertex
100
AcDb2dVertex
 10
364.9843143345873
 20
268.347981267324
 30
0.0
  0
VERTEX
  5
136A
330
1365
100
AcDbEntity
  8
1
 48
0.04
100
AcDbVertex
100
AcDb2dVertex
 10
364.9214369374401
 20
268.323872425748
 30
0.0
  0
VERTEX
  5
136B
330
1365
100
AcDbEntity
  8
1
 48
0.04
100
AcDbVertex
100
AcDb2dVertex
 10
364.8557903858737
 20
268.3037986808741
 30
0.0
  0
VERTEX
  5
136C
330
1365
100
AcDbEntity
  8
1
 48
0.04
100
AcDbVertex
100
AcDb2dVertex
 10
364.7867077521233
 20
268.2879069812194
 30
0.0
  0
VERTEX
  5
136D
330
1365
100
AcDbEntity
  8
1
 48
0.04
100
AcDbVertex
100
AcDb2dVertex
 10
364.7139291285861
 20
268.2767172076063
 30
0.0
  0
VERTEX
  5
136E
330
1365
100
AcDbEntity
  8
1
 48
0.04
100
AcDbVertex
100
AcDb2dVertex
 10
364.6387317108026
 20
268.2709301788058
 30
0.0
  0
SEQEND
  5
136F
330
1365
100
AcDbEntity
  8
1
 48
0.04
  0
POLYLINE
  5
1370
330
18
100
AcDbEntity
  8
1
 48
0.04
100
AcDb2dPolyline
 66
     1
 10
0.0
 20
0.0
 30
0.0
  0
VERTEX
  5
1371
330
1370
100
AcDbEntity
  8
1
 48
0.04
100
AcDbVertex
100
AcDb2dVertex
 10
365.1066104417572
 20
266.6881392356718
 30
0.0
  0
VERTEX
  5
1372
330
1370
100
AcDbEntity
  8
1
 48
0.04
100
AcDbVertex
100
AcDb2dVertex
 10
365.0188104251774
 20
266.5994519505725
 30
0.0
  0
VERTEX
  5
1373
330
1370
100
AcDbEntity
  8
1
 48
0.04
100
AcDbVertex
100
AcDb2dVertex
 10
364.9321293695547
 20
266.5124713876908
 30
0.0
  0
VERTEX
  5
1374
330
1370
100
AcDbEntity
  8
1
 48
0.04
100
AcDbVertex
100
AcDb2dVertex
 10
364.6387317108026
 20
266.220950004614
 30
0.0
  0
SEQEND
  5
1375
330
1370
100
AcDbEntity
  8
1
 48
0.04
  0
LINE
  5
1376
330
18
100
AcDbEntity
  8
1
 48
0.04
100
AcDbLine
 10
365.1066104417572
 20
266.6881392356718
 30
0.0
 11
365.1216205487338
 21
266.6841154578442
 31
0.0
  0
LINE
  5
1377
330
18
100
AcDbEntity
  8
1
 48
0.04
100
AcDbLine
 10
365.1401910158543
 20
266.6902189558112
 30
0.0
 11
365.1216205487338
 21
266.6841154578442
 31
0.0
  0
POLYLINE
  5
1378
330
18
100
AcDbEntity
  8
1
 48
0.04
100
AcDb2dPolyline
 66
     1
 10
0.0
 20
0.0
 30
0.0
  0
VERTEX
  5
1379
330
1378
100
AcDbEntity
  8
1
 48
0.04
100
AcDbVertex
100
AcDb2dVertex
 10
365.1401910158543
 20
267.0348917061359
 30
0.0
  0
VERTEX
  5
137A
330
1378
100
AcDbEntity
  8
1
 48
0.04
100
AcDbVertex
100
AcDb2dVertex
 10
365.0942338923655
 20
266.9370265527414
 30
0.0
  0
VERTEX
  5
137B
330
1378
100
AcDbEntity
  8
1
 48
0.04
100
AcDbVertex
100
AcDb2dVertex
 10
365.0423428243673
 20
266.8420775022836
 30
0.0
  0
VERTEX
  5
137C
330
1378
100
AcDbEntity
  8
1
 48
0.04
100
AcDbVertex
100
AcDb2dVertex
 10
364.9843143345873
 20
266.7486430484535
 30
0.0
  0
VERTEX
  5
137D
330
1378
100
AcDbEntity
  8
1
 48
0.04
100
AcDbVertex
100
AcDb2dVertex
 10
364.9214369374401
 20
266.6576499938102
 30
0.0
  0
VERTEX
  5
137E
330
1378
100
AcDbEntity
  8
1
 48
0.04
100
AcDbVertex
100
AcDb2dVertex
 10
364.8557903858737
 20
266.5706355071137
 30
0.0
  0
VERTEX
  5
137F
330
1378
100
AcDbEntity
  8
1
 48
0.04
100
AcDbVertex
100
AcDb2dVertex
 10
364.7867077521233
 20
266.485440767337
 30
0.0
  0
VERTEX
  5
1380
330
1378
100
AcDbEntity
  8
1
 48
0.04
100
AcDbVertex
100
AcDb2dVertex
 10
364.7139291285861
 20
266.4009637754304
 30
0.0
  0
VERTEX
  5
1381
330
1378
100
AcDbEntity
  8
1
 48
0.04
100
AcDbVertex
100
AcDb2dVertex
 10
364.6387317108026
 20
266.3180861240722
 30
0.0
  0
SEQEND
  5
1382
330
1378
100
AcDbEntity
  8
1
 48
0.04
  0
POLYLINE
  5
1383
330
18
100
AcDbEntity
  8
1
 48
0.04
100
AcDb2dPolyline
 66
     1
 10
0.0
 20
0.0
 30
0.0
  0
VERTEX
  5
1384
330
1383
100
AcDbEntity
  8
1
 48
0.04
100
AcDbVertex
100
AcDb2dVertex
 10
363.8921602777806
 20
268.5714033807732
 30
0.0
  0
VERTEX
  5
1385
330
1383
100
AcDbEntity
  8
1
 48
0.04
100
AcDbVertex
100
AcDb2dVertex
 10
363.8921602777806
 20
267.6796476657904
 30
0.0
  0
SEQEND
  5
1386
330
1383
100
AcDbEntity
  8
1
 48
0.04
  0
POLYLINE
  5
1387
330
18
100
AcDbEntity
  8
1
 48
0.04
100
AcDb2dPolyline
 66
     1
 10
0.0
 20
0.0
 30
0.0
  0
VERTEX
  5
1388
330
1387
100
AcDbEntity
  8
1
 48
0.04
100
AcDbVertex
100
AcDb2dVertex
 10
364.0968875805325
 20
268.4089823887959
 30
0.0
  0
VERTEX
  5
1389
330
1387
100
AcDbEntity
  8
1
 48
0.04
100
AcDbVertex
100
AcDb2dVertex
 10
364.0384522018241
 20
268.4466771604826
 30
0.0
  0
VERTEX
  5
138A
330
1387
100
AcDbEntity
  8
1
 48
0.04
100
AcDbVertex
100
AcDb2dVertex
 10
363.9846735392763
 20
268.4869150699922
 30
0.0
  0
VERTEX
  5
138B
330
1387
100
AcDbEntity
  8
1
 48
0.04
100
AcDbVertex
100
AcDb2dVertex
 10
363.9357211791552
 20
268.5289162304748
 30
0.0
  0
VERTEX
  5
138C
330
1387
100
AcDbEntity
  8
1
 48
0.04
100
AcDbVertex
100
AcDb2dVertex
 10
363.8921602777806
 20
268.5714033807732
 30
0.0
  0
SEQEND
  5
138D
330
1387
100
AcDbEntity
  8
1
 48
0.04
  0
POLYLINE
  5
138E
330
18
100
AcDbEntity
  8
1
 48
0.04
100
AcDb2dPolyline
 66
     1
 10
0.0
 20
0.0
 30
0.0
  0
VERTEX
  5
138F
330
138E
100
AcDbEntity
  8
1
 48
0.04
100
AcDbVertex
100
AcDb2dVertex
 10
365.1401910158543
 20
267.2792465521966
 30
0.0
  0
VERTEX
  5
1390
330
138E
100
AcDbEntity
  8
1
 48
0.04
100
AcDbVertex
100
AcDb2dVertex
 10
365.1097865179132
 20
267.3093684719777
 30
0.0
  0
VERTEX
  5
1391
330
138E
100
AcDbEntity
  8
1
 48
0.04
100
AcDbVertex
100
AcDb2dVertex
 10
365.0811339520706
 20
267.3418470470251
 30
0.0
  0
SEQEND
  5
1392
330
138E
100
AcDbEntity
  8
1
 48
0.04
  0
POLYLINE
  5
1393
330
18
100
AcDbEntity
  8
1
 48
0.04
100
AcDb2dPolyline
 66
     1
 10
0.0
 20
0.0
 30
0.0
  0
VERTEX
  5
1394
330
1393
100
AcDbEntity
  8
1
 48
0.04
100
AcDbVertex
100
AcDb2dVertex
 10
364.0968875805325
 20
266.389327546041
 30
0.0
  0
VERTEX
  5
1395
330
1393
100
AcDbEntity
  8
1
 48
0.04
100
AcDbVertex
100
AcDb2dVertex
 10
364.0384522018241
 20
266.4816091479075
 30
0.0
  0
VERTEX
  5
1396
330
1393
100
AcDbEntity
  8
1
 48
0.04
100
AcDbVertex
100
AcDb2dVertex
 10
363.9846735392763
 20
266.5759704371049
 30
0.0
  0
VERTEX
  5
1397
330
1393
100
AcDbEntity
  8
1
 48
0.04
100
AcDbVertex
100
AcDb2dVertex
 10
363.9357211791552
 20
266.6731856574505
 30
0.0
  0
VERTEX
  5
1398
330
1393
100
AcDbEntity
  8
1
 48
0.04
100
AcDbVertex
100
AcDb2dVertex
 10
363.8921602777806
 20
266.7730909641364
 30
0.0
  0
SEQEND
  5
1399
330
1393
100
AcDbEntity
  8
1
 48
0.04
  0
POLYLINE
  5
139A
102
{ACAD_REACTORS
330
15B9
102
}
330
18
100
AcDbEntity
  8
1
 48
0.04
100
AcDb2dPolyline
 66
     1
 10
0.0
 20
0.0
 30
0.0
  0
VERTEX
  5
139B
102
{ACAD_REACTORS
330
15B9
102
}
330
139A
100
AcDbEntity
  8
1
 48
0.04
100
AcDbVertex
100
AcDb2dVertex
 10
363.6165701283979
 20
267.8645838018283
 30
0.0
  0
VERTEX
  5
139C
330
139A
100
AcDbEntity
  8
1
 48
0.04
100
AcDbVertex
100
AcDb2dVertex
 10
363.6165701283979
 20
268.549724652318
 30
0.0
  0
SEQEND
  5
139D
330
139A
100
AcDbEntity
  8
1
 48
0.04
  0
LINE
  5
139E
330
18
100
AcDbEntity
  8
1
 48
0.04
100
AcDbLine
 10
363.6165701283979
 20
267.8645838018283
 30
0.0
 11
363.6173669771555
 21
267.863786985879
 31
0.0
  0
POLYLINE
  5
139F
102
{ACAD_REACTORS
330
15AF
102
}
330
18
100
AcDbEntity
  8
1
 48
0.04
100
AcDb2dPolyline
 66
     1
 10
0.0
 20
0.0
 30
0.0
  0
VERTEX
  5
13A0
102
{ACAD_REACTORS
330
15AF
102
}
330
139F
100
AcDbEntity
  8
1
 48
0.04
100
AcDbVertex
100
AcDb2dVertex
 10
363.6559433743286
 20
268.5890922552157
 30
0.0
  0
VERTEX
  5
13A1
330
139F
100
AcDbEntity
  8
1
 48
0.04
100
AcDbVertex
100
AcDb2dVertex
 10
363.6559433743286
 20
268.5853397038652
 30
0.0
  0
VERTEX
  5
13A2
330
139F
100
AcDbEntity
  8
1
 48
0.04
100
AcDbVertex
100
AcDb2dVertex
 10
363.6559433743286
 20
268.5740934343051
 30
0.0
  0
VERTEX
  5
13A3
330
139F
100
AcDbEntity
  8
1
 48
0.04
100
AcDbVertex
100
AcDb2dVertex
 10
363.6559433743286
 20
268.5554664712376
 30
0.0
  0
VERTEX
  5
13A4
330
139F
100
AcDbEntity
  8
1
 48
0.04
100
AcDbVertex
100
AcDb2dVertex
 10
363.6559433743286
 20
268.5295943786887
 30
0.0
  0
VERTEX
  5
13A5
330
139F
100
AcDbEntity
  8
1
 48
0.04
100
AcDbVertex
100
AcDb2dVertex
 10
363.6559433743286
 20
268.4967033044883
 30
0.0
  0
VERTEX
  5
13A6
330
139F
100
AcDbEntity
  8
1
 48
0.04
100
AcDbVertex
100
AcDb2dVertex
 10
363.6559433743286
 20
268.4570418045562
 30
0.0
  0
VERTEX
  5
13A7
330
139F
100
AcDbEntity
  8
1
 48
0.04
100
AcDbVertex
100
AcDb2dVertex
 10
363.6559433743286
 20
268.4109377653586
 30
0.0
  0
VERTEX
  5
13A8
330
139F
100
AcDbEntity
  8
1
 48
0.04
100
AcDbVertex
100
AcDb2dVertex
 10
363.6559433743286
 20
268.3587641192004
 30
0.0
  0
VERTEX
  5
13A9
330
139F
100
AcDbEntity
  8
1
 48
0.04
100
AcDbVertex
100
AcDb2dVertex
 10
363.6559433743286
 20
268.300950392759
 30
0.0
  0
VERTEX
  5
13AA
330
139F
100
AcDbEntity
  8
1
 48
0.04
100
AcDbVertex
100
AcDb2dVertex
 10
363.6559433743286
 20
268.2379712569756
 30
0.0
  0
VERTEX
  5
13AB
330
139F
100
AcDbEntity
  8
1
 48
0.04
100
AcDbVertex
100
AcDb2dVertex
 10
363.6559433743286
 20
268.1703241189655
 30
0.0
  0
VERTEX
  5
13AC
330
139F
100
AcDbEntity
  8
1
 48
0.04
100
AcDbVertex
100
AcDb2dVertex
 10
363.6559433743286
 20
268.0985683935907
 30
0.0
  0
VERTEX
  5
13AD
330
139F
100
AcDbEntity
  8
1
 48
0.04
100
AcDbVertex
100
AcDb2dVertex
 10
363.6559433743286
 20
268.0232805560454
 30
0.0
  0
VERTEX
  5
13AE
330
139F
100
AcDbEntity
  8
1
 48
0.04
100
AcDbVertex
100
AcDb2dVertex
 10
363.6559433743286
 20
267.9450709397221
 30
0.0
  0
VERTEX
  5
13AF
330
139F
100
AcDbEntity
  8
1
 48
0.04
100
AcDbVertex
100
AcDb2dVertex
 10
363.6559433743286
 20
267.8645838018283
 30
0.0
  0
SEQEND
  5
13B0
330
139F
100
AcDbEntity
  8
1
 48
0.04
  0
POLYLINE
  5
13B1
330
18
100
AcDbEntity
  8
1
 48
0.04
100
AcDb2dPolyline
 66
     1
 10
0.0
 20
0.0
 30
0.0
  0
VERTEX
  5
13B2
330
13B1
100
AcDbEntity
  8
1
 48
0.04
100
AcDbVertex
100
AcDb2dVertex
 10
363.6165701283979
 20
266.7780698581132
 30
0.0
  0
VERTEX
  5
13B3
330
13B1
100
AcDbEntity
  8
1
 48
0.04
100
AcDbVertex
100
AcDb2dVertex
 10
363.6165701283979
 20
267.4632106757946
 30
0.0
  0
SEQEND
  5
13B4
330
13B1
100
AcDbEntity
  8
1
 48
0.04
  0
LINE
  5
13B5
330
18
100
AcDbEntity
  8
1
 48
0.04
100
AcDbLine
 10
363.6173669771555
 20
267.4640075245522
 30
0.0
 11
363.6165701283979
 21
267.4632106757946
 31
0.0
  0
POLYLINE
  5
13B6
330
18
100
AcDbEntity
  8
1
 48
0.04
100
AcDb2dPolyline
 66
     1
 10
0.0
 20
0.0
 30
0.0
  0
VERTEX
  5
13B7
330
13B6
100
AcDbEntity
  8
1
 48
0.04
100
AcDbVertex
100
AcDb2dVertex
 10
363.844914639877
 20
266.7387022552156
 30
0.0
  0
VERTEX
  5
13B8
330
13B6
100
AcDbEntity
  8
1
 48
0.04
100
AcDbVertex
100
AcDb2dVertex
 10
363.844914639877
 20
268.5890922552157
 30
0.0
  0
SEQEND
  5
13B9
330
13B6
100
AcDbEntity
  8
1
 48
0.04
  0
POLYLINE
  5
13BA
102
{ACAD_REACTORS
330
15AF
102
}
330
18
100
AcDbEntity
  8
1
 48
0.04
100
AcDb2dPolyline
 66
     1
 10
0.0
 20
0.0
 30
0.0
  0
VERTEX
  5
13BB
330
13BA
100
AcDbEntity
  8
1
 48
0.04
100
AcDbVertex
100
AcDb2dVertex
 10
363.6559433743286
 20
267.4632106757946
 30
0.0
  0
VERTEX
  5
13BC
330
13BA
100
AcDbEntity
  8
1
 48
0.04
100
AcDbVertex
100
AcDb2dVertex
 10
363.6559433743286
 20
267.3827178948678
 30
0.0
  0
VERTEX
  5
13BD
330
13BA
100
AcDbEntity
  8
1
 48
0.04
100
AcDbVertex
100
AcDb2dVertex
 10
363.6559433743286
 20
267.3045139543859
 30
0.0
  0
VERTEX
  5
13BE
330
13BA
100
AcDbEntity
  8
1
 48
0.04
100
AcDbVertex
100
AcDb2dVertex
 10
363.6559433743286
 20
267.2292260840322
 30
0.0
  0
VERTEX
  5
13BF
330
13BA
100
AcDbEntity
  8
1
 48
0.04
100
AcDbVertex
100
AcDb2dVertex
 10
363.6559433743286
 20
267.1574703914657
 30
0.0
  0
VERTEX
  5
13C0
330
13BA
100
AcDbEntity
  8
1
 48
0.04
100
AcDbVertex
100
AcDb2dVertex
 10
363.6559433743286
 20
267.0898232206473
 30
0.0
  0
VERTEX
  5
13C1
330
13BA
100
AcDbEntity
  8
1
 48
0.04
100
AcDbVertex
100
AcDb2dVertex
 10
363.6559433743286
 20
267.0268384746393
 30
0.0
  0
VERTEX
  5
13C2
330
13BA
100
AcDbEntity
  8
1
 48
0.04
100
AcDbVertex
100
AcDb2dVertex
 10
363.6559433743286
 20
266.9690303584224
 30
0.0
  0
VERTEX
  5
13C3
330
13BA
100
AcDbEntity
  8
1
 48
0.04
100
AcDbVertex
100
AcDb2dVertex
 10
363.6559433743286
 20
266.9168567122643
 30
0.0
  0
VERTEX
  5
13C4
330
13BA
100
AcDbEntity
  8
1
 48
0.04
100
AcDbVertex
100
AcDb2dVertex
 10
363.6559433743286
 20
266.8707583160997
 30
0.0
  0
VERTEX
  5
13C5
330
13BA
100
AcDbEntity
  8
1
 48
0.04
100
AcDbVertex
100
AcDb2dVertex
 10
363.6559433743286
 20
266.831096848976
 30
0.0
  0
VERTEX
  5
13C6
330
13BA
100
AcDbEntity
  8
1
 48
0.04
100
AcDbVertex
100
AcDb2dVertex
 10
363.6559433743286
 20
266.7981944559011
 30
0.0
  0
VERTEX
  5
13C7
330
13BA
100
AcDbEntity
  8
1
 48
0.04
100
AcDbVertex
100
AcDb2dVertex
 10
363.6559433743286
 20
266.7723280391937
 30
0.0
  0
VERTEX
  5
13C8
330
13BA
100
AcDbEntity
  8
1
 48
0.04
100
AcDbVertex
100
AcDb2dVertex
 10
363.6559433743286
 20
266.7536954002847
 30
0.0
  0
VERTEX
  5
13C9
102
{ACAD_REACTORS
330
15AF
102
}
330
13BA
100
AcDbEntity
  8
1
 48
0.04
100
AcDbVertex
100
AcDb2dVertex
 10
363.6559433743286
 20
266.7424604167907
 30
0.0
  0
VERTEX
  5
13CA
330
13BA
100
AcDbEntity
  8
1
 48
0.04
100
AcDbVertex
100
AcDb2dVertex
 10
363.6559433743286
 20
266.7387022552156
 30
0.0
  0
SEQEND
  5
13CB
330
13BA
100
AcDbEntity
  8
1
 48
0.04
  0
POLYLINE
  5
13CC
330
18
100
AcDbEntity
  8
1
 48
0.04
100
AcDb2dPolyline
 66
     1
 10
0.0
 20
0.0
 30
0.0
  0
VERTEX
  5
13CD
330
13CC
100
AcDbEntity
  8
1
 48
0.04
100
AcDbVertex
100
AcDb2dVertex
 10
363.8920924301509
 20
268.5714711955946
 30
0.0
  0
VERTEX
  5
13CE
330
13CC
100
AcDbEntity
  8
1
 48
0.04
100
AcDbVertex
100
AcDb2dVertex
 10
363.8895380062617
 20
268.574138644186
 30
0.0
  0
VERTEX
  5
13CF
330
13CC
100
AcDbEntity
  8
1
 48
0.04
100
AcDbVertex
100
AcDb2dVertex
 10
363.8852429691485
 20
268.5786597635122
 30
0.0
  0
VERTEX
  5
13D0
330
13CC
100
AcDbEntity
  8
1
 48
0.04
100
AcDbVertex
100
AcDb2dVertex
 10
363.8788342880811
 20
268.5855092573229
 30
0.0
  0
VERTEX
  5
13D1
330
13CC
100
AcDbEntity
  8
1
 48
0.04
100
AcDbVertex
100
AcDb2dVertex
 10
363.8734654670833
 20
268.5913414960043
 30
0.0
  0
VERTEX
  5
13D2
330
13CC
100
AcDbEntity
  8
1
 48
0.04
100
AcDbVertex
100
AcDb2dVertex
 10
363.8695886049645
 20
268.5956139609853
 30
0.0
  0
SEQEND
  5
13D3
330
13CC
100
AcDbEntity
  8
1
 48
0.04
  0
POLYLINE
  5
13D4
330
18
100
AcDbEntity
  8
1
 48
0.04
100
AcDb2dPolyline
 66
     1
 10
0.0
 20
0.0
 30
0.0
  0
VERTEX
  5
13D5
330
13D4
100
AcDbEntity
  8
1
 48
0.04
100
AcDbVertex
100
AcDb2dVertex
 10
363.8921602777806
 20
267.3145056005377
 30
0.0
  0
VERTEX
  5
13D6
330
13D4
100
AcDbEntity
  8
1
 48
0.04
100
AcDbVertex
100
AcDb2dVertex
 10
363.8920924301509
 20
267.3216546016075
 30
0.0
  0
VERTEX
  5
13D7
330
13D4
100
AcDbEntity
  8
1
 48
0.04
100
AcDbVertex
100
AcDb2dVertex
 10
363.8895380062617
 20
267.3687307188618
 30
0.0
  0
VERTEX
  5
13D8
330
13D4
100
AcDbEntity
  8
1
 48
0.04
100
AcDbVertex
100
AcDb2dVertex
 10
363.8852429691485
 20
267.4157389884864
 30
0.0
  0
VERTEX
  5
13D9
330
13D4
100
AcDbEntity
  8
1
 48
0.04
100
AcDbVertex
100
AcDb2dVertex
 10
363.8788342880811
 20
267.4812047005291
 30
0.0
  0
VERTEX
  5
13DA
330
13D4
100
AcDbEntity
  8
1
 48
0.04
100
AcDbVertex
100
AcDb2dVertex
 10
363.8734654670833
 20
267.5468851759105
 30
0.0
  0
VERTEX
  5
13DB
330
13D4
100
AcDbEntity
  8
1
 48
0.04
100
AcDbVertex
100
AcDb2dVertex
 10
363.87014244241
 20
267.6130686358234
 30
0.0
  0
VERTEX
  5
13DC
330
13D4
100
AcDbEntity
  8
1
 48
0.04
100
AcDbVertex
100
AcDb2dVertex
 10
363.8694190515069
 20
267.6796476657904
 30
0.0
  0
SEQEND
  5
13DD
330
13D4
100
AcDbEntity
  8
1
 48
0.04
  0
LINE
  5
13DE
330
18
100
AcDbEntity
  8
1
 48
0.04
100
AcDbLine
 10
363.8695886049645
 20
266.7321749064128
 30
0.0
 11
363.8694190515069
 21
266.7319827480147
 31
0.0
  0
LINE
  5
13DF
330
18
100
AcDbEntity
  8
1
 48
0.04
100
AcDbLine
 10
363.6173669771555
 20
267.863786985879
 30
0.0
 11
363.6559433743286
 21
267.825216231739
 31
0.0
  0
LINE
  5
13E0
330
18
100
AcDbEntity
  8
1
 48
0.04
100
AcDbLine
 10
363.6173669771555
 20
267.4640075245522
 30
0.0
 11
363.6559433743286
 21
267.5025782786922
 31
0.0
  0
LINE
  5
13E1
330
18
100
AcDbEntity
  8
1
 48
0.04
100
AcDbLine
 10
363.7693272622643
 20
267.825216231739
 30
0.0
 11
363.6559433743286
 21
267.825216231739
 31
0.0
  0
LINE
  5
13E2
330
18
100
AcDbEntity
  8
1
 48
0.04
100
AcDbLine
 10
363.7693272622643
 20
267.5025782786922
 30
0.0
 11
363.6559433743286
 21
267.5025782786922
 31
0.0
  0
POLYLINE
  5
13E3
330
18
100
AcDbEntity
  8
1
 48
0.04
100
AcDb2dPolyline
 66
     1
 10
0.0
 20
0.0
 30
0.0
  0
VERTEX
  5
13E4
330
13E3
100
AcDbEntity
  8
1
 48
0.04
100
AcDbVertex
100
AcDb2dVertex
 10
363.6559433743286
 20
267.5025782786922
 30
0.0
  0
VERTEX
  5
13E5
330
13E3
100
AcDbEntity
  8
1
 48
0.04
100
AcDbVertex
100
AcDb2dVertex
 10
363.6559433743286
 20
267.4632106757946
 30
0.0
  0
SEQEND
  5
13E6
330
13E3
100
AcDbEntity
  8
1
 48
0.04
  0
POLYLINE
  5
13E7
330
18
100
AcDbEntity
  8
1
 48
0.04
100
AcDb2dPolyline
 66
     1
 10
0.0
 20
0.0
 30
0.0
  0
VERTEX
  5
13E8
330
13E7
100
AcDbEntity
  8
1
 48
0.04
100
AcDbVertex
100
AcDb2dVertex
 10
363.6559433743286
 20
267.8645838018283
 30
0.0
  0
VERTEX
  5
13E9
330
13E7
100
AcDbEntity
  8
1
 48
0.04
100
AcDbVertex
100
AcDb2dVertex
 10
363.6559433743286
 20
267.825216231739
 30
0.0
  0
SEQEND
  5
13EA
330
13E7
100
AcDbEntity
  8
1
 48
0.04
  0
POLYLINE
  5
13EB
330
18
100
AcDbEntity
  8
1
 48
0.04
100
AcDb2dPolyline
 66
     1
 10
0.0
 20
0.0
 30
0.0
  0
VERTEX
  5
13EC
330
13EB
100
AcDbEntity
  8
1
 48
0.04
100
AcDbVertex
100
AcDb2dVertex
 10
364.654216521529
 20
266.5788413301605
 30
0.0
  0
VERTEX
  5
13ED
330
13EB
100
AcDbEntity
  8
1
 48
0.04
100
AcDbVertex
100
AcDb2dVertex
 10
364.6586359350272
 20
266.5528166788698
 30
0.0
  0
VERTEX
  5
13EE
330
13EB
100
AcDbEntity
  8
1
 48
0.04
100
AcDbVertex
100
AcDb2dVertex
 10
364.6714080544729
 20
266.5297307354562
 30
0.0
  0
VERTEX
  5
13EF
330
13EB
100
AcDbEntity
  8
1
 48
0.04
100
AcDbVertex
100
AcDb2dVertex
 10
364.691052305478
 20
266.5121775234648
 30
0.0
  0
VERTEX
  5
13F0
330
13EB
100
AcDbEntity
  8
1
 48
0.04
100
AcDbVertex
100
AcDb2dVertex
 10
364.7153306677032
 20
266.5020954247428
 30
0.0
  0
VERTEX
  5
13F1
330
13EB
100
AcDbEntity
  8
1
 48
0.04
100
AcDbVertex
100
AcDb2dVertex
 10
364.74158704424
 20
266.5005752178903
 30
0.0
  0
VERTEX
  5
13F2
330
13EB
100
AcDbEntity
  8
1
 48
0.04
100
AcDbVertex
100
AcDb2dVertex
 10
364.767040928986
 20
266.5078598486029
 30
0.0
  0
VERTEX
  5
13F3
330
13EB
100
AcDbEntity
  8
1
 48
0.04
100
AcDbVertex
100
AcDb2dVertex
 10
364.7888213960775
 20
266.5233503023622
 30
0.0
  0
VERTEX
  5
13F4
330
13EB
100
AcDbEntity
  8
1
 48
0.04
100
AcDbVertex
100
AcDb2dVertex
 10
364.8041931821015
 20
266.5453059659443
 30
0.0
  0
VERTEX
  5
13F5
330
13EB
100
AcDbEntity
  8
1
 48
0.04
100
AcDbVertex
100
AcDb2dVertex
 10
364.8112913302573
 20
266.5708615565183
 30
0.0
  0
VERTEX
  5
13F6
330
13EB
100
AcDbEntity
  8
1
 48
0.04
100
AcDbVertex
100
AcDb2dVertex
 10
364.8096184990463
 20
266.596829711862
 30
0.0
  0
VERTEX
  5
13F7
330
13EB
100
AcDbEntity
  8
1
 48
0.04
100
AcDbVertex
100
AcDb2dVertex
 10
364.7997059537819
 20
266.6206107653971
 30
0.0
  0
VERTEX
  5
13F8
330
13EB
100
AcDbEntity
  8
1
 48
0.04
100
AcDbVertex
100
AcDb2dVertex
 10
364.7824918158975
 20
266.6400402530636
 30
0.0
  0
VERTEX
  5
13F9
330
13EB
100
AcDbEntity
  8
1
 48
0.04
100
AcDbVertex
100
AcDb2dVertex
 10
364.7594793631466
 20
266.6529762829338
 30
0.0
  0
VERTEX
  5
13FA
330
13EB
100
AcDbEntity
  8
1
 48
0.04
100
AcDbVertex
100
AcDb2dVertex
 10
364.7331212479736
 20
266.6575765359558
 30
0.0
  0
VERTEX
  5
13FB
330
13EB
100
AcDbEntity
  8
1
 48
0.04
100
AcDbVertex
100
AcDb2dVertex
 10
364.7067292746024
 20
266.6530836646031
 30
0.0
  0
VERTEX
  5
13FC
330
13EB
100
AcDbEntity
  8
1
 48
0.04
100
AcDbVertex
100
AcDb2dVertex
 10
364.6835020585129
 20
266.640108067885
 30
0.0
  0
VERTEX
  5
13FD
330
13EB
100
AcDbEntity
  8
1
 48
0.04
100
AcDbVertex
100
AcDb2dVertex
 10
364.6660053424686
 20
266.6202773343231
 30
0.0
  0
VERTEX
  5
13FE
330
13EB
100
AcDbEntity
  8
1
 48
0.04
100
AcDbVertex
100
AcDb2dVertex
 10
364.6560701922637
 20
266.5958237756072
 30
0.0
  0
VERTEX
  5
13FF
330
13EB
100
AcDbEntity
  8
1
 48
0.04
100
AcDbVertex
100
AcDb2dVertex
 10
364.654216521529
 20
266.5788413301605
 30
0.0
  0
SEQEND
  5
1400
330
13EB
100
AcDbEntity
  8
1
 48
0.04
  0
LINE
  5
1401
330
18
100
AcDbEntity
  8
1
 48
0.04
100
AcDbLine
 10
365.1125444190748
 20
267.909371111446
 30
0.0
 11
365.1216205487338
 21
267.909371111446
 31
0.0
  0
LINE
  5
1402
330
18
100
AcDbEntity
  8
1
 48
0.04
100
AcDbLine
 10
364.3731954121686
 20
268.3970127283326
 30
0.0
 11
364.3851876775724
 21
268.3855630143083
 31
0.0
  0
LINE
  5
1403
330
18
100
AcDbEntity
  8
1
 48
0.04
100
AcDbLine
 10
364.3851876775724
 20
268.3855630143083
 30
0.0
 11
364.3868152660941
 21
268.3842518949531
 31
0.0
  0
POLYLINE
  5
1404
330
18
100
AcDbEntity
  8
1
 48
0.04
100
AcDb2dPolyline
 66
     1
 10
0.0
 20
0.0
 30
0.0
  0
VERTEX
  5
1405
330
1404
100
AcDbEntity
  8
1
 48
0.04
100
AcDbVertex
100
AcDb2dVertex
 10
364.5440483094056
 20
268.3930115554455
 30
0.0
  0
VERTEX
  5
1406
330
1404
100
AcDbEntity
  8
1
 48
0.04
100
AcDbVertex
100
AcDb2dVertex
 10
364.5583463115452
 20
268.4157188579042
 30
0.0
  0
VERTEX
  5
1407
330
1404
100
AcDbEntity
  8
1
 48
0.04
100
AcDbVertex
100
AcDb2dVertex
 10
364.5627883299838
 20
268.4445409443962
 30
0.0
  0
SEQEND
  5
1408
330
1404
100
AcDbEntity
  8
1
 48
0.04
  0
POLYLINE
  5
1409
330
18
100
AcDbEntity
  8
1
 48
0.04
100
AcDb2dPolyline
 66
     1
 10
0.0
 20
0.0
 30
0.0
  0
VERTEX
  5
140A
330
1409
100
AcDbEntity
  8
1
 48
0.04
100
AcDbVertex
100
AcDb2dVertex
 10
364.5413017271184
 20
268.999620644604
 30
0.0
  0
VERTEX
  5
140B
330
1409
100
AcDbEntity
  8
1
 48
0.04
100
AcDbVertex
100
AcDb2dVertex
 10
364.5040929452477
 20
269.0339019718555
 30
0.0
  0
VERTEX
  5
140C
330
1409
100
AcDbEntity
  8
1
 48
0.04
100
AcDbVertex
100
AcDb2dVertex
 10
364.462600445138
 20
269.0627466960962
 30
0.0
  0
VERTEX
  5
140D
330
1409
100
AcDbEntity
  8
1
 48
0.04
100
AcDbVertex
100
AcDb2dVertex
 10
364.4175701570166
 20
269.0856461241448
 30
0.0
  0
VERTEX
  5
140E
330
1409
100
AcDbEntity
  8
1
 48
0.04
100
AcDbVertex
100
AcDb2dVertex
 10
364.3698384964888
 20
269.1021594760665
 30
0.0
  0
SEQEND
  5
140F
330
1409
100
AcDbEntity
  8
1
 48
0.04
  0
POLYLINE
  5
1410
330
18
100
AcDbEntity
  8
1
 48
0.04
100
AcDb2dPolyline
 66
     1
 10
0.0
 20
0.0
 30
0.0
  0
VERTEX
  5
1411
330
1410
100
AcDbEntity
  8
1
 48
0.04
100
AcDbVertex
100
AcDb2dVertex
 10
364.1762444385947
 20
268.379629069799
 30
0.0
  0
VERTEX
  5
1412
330
1410
100
AcDbEntity
  8
1
 48
0.04
100
AcDbVertex
100
AcDb2dVertex
 10
364.2282146074803
 20
268.3697843393559
 30
0.0
  0
VERTEX
  5
1413
330
1410
100
AcDbEntity
  8
1
 48
0.04
100
AcDbVertex
100
AcDb2dVertex
 10
364.2810777535351
 20
268.3674785698119
 30
0.0
  0
VERTEX
  5
1414
330
1410
100
AcDbEntity
  8
1
 48
0.04
100
AcDbVertex
100
AcDb2dVertex
 10
364.3337600272579
 20
268.3727795759883
 30
0.0
  0
VERTEX
  5
1415
330
1410
100
AcDbEntity
  8
1
 48
0.04
100
AcDbVertex
100
AcDb2dVertex
 10
364.3851876775724
 20
268.3855630143083
 30
0.0
  0
SEQEND
  5
1416
330
1410
100
AcDbEntity
  8
1
 48
0.04
  0
POLYLINE
  5
1417
330
18
100
AcDbEntity
  8
1
 48
0.04
100
AcDb2dPolyline
 66
     1
 10
0.0
 20
0.0
 30
0.0
  0
VERTEX
  5
1418
330
1417
100
AcDbEntity
  8
1
 48
0.04
100
AcDbVertex
100
AcDb2dVertex
 10
364.0161969981745
 20
266.5602200101261
 30
0.0
  0
VERTEX
  5
1419
330
1417
100
AcDbEntity
  8
1
 48
0.04
100
AcDbVertex
100
AcDb2dVertex
 10
364.0178359055707
 20
266.5387955790489
 30
0.0
  0
VERTEX
  5
141A
330
1417
100
AcDbEntity
  8
1
 48
0.04
100
AcDbVertex
100
AcDb2dVertex
 10
364.0225604693611
 20
266.5180719011263
 30
0.0
  0
VERTEX
  5
141B
330
1417
100
AcDbEntity
  8
1
 48
0.04
100
AcDbVertex
100
AcDb2dVertex
 10
364.0300768253196
 20
266.4987837189439
 30
0.0
  0
VERTEX
  5
141C
330
1417
100
AcDbEntity
  8
1
 48
0.04
100
AcDbVertex
100
AcDb2dVertex
 10
364.0399667656435
 20
266.4811061633759
 30
0.0
  0
VERTEX
  5
141D
330
1417
100
AcDbEntity
  8
1
 48
0.04
100
AcDbVertex
100
AcDb2dVertex
 10
364.0569435352488
 20
266.459540459623
 30
0.0
  0
VERTEX
  5
141E
330
1417
100
AcDbEntity
  8
1
 48
0.04
100
AcDbVertex
100
AcDb2dVertex
 10
364.0768929693543
 20
266.4415520779215
 30
0.0
  0
VERTEX
  5
141F
330
1417
100
AcDbEntity
  8
1
 48
0.04
100
AcDbVertex
100
AcDb2dVertex
 10
364.0996228439453
 20
266.4269206118997
 30
0.0
  0
VERTEX
  5
1420
330
1417
100
AcDbEntity
  8
1
 48
0.04
100
AcDbVertex
100
AcDb2dVertex
 10
364.1242516319603
 20
266.416030378354
 30
0.0
  0
VERTEX
  5
1421
330
1417
100
AcDbEntity
  8
1
 48
0.04
100
AcDbVertex
100
AcDb2dVertex
 10
364.1560463501441
 20
266.4079375800095
 30
0.0
  0
VERTEX
  5
1422
330
1417
100
AcDbEntity
  8
1
 48
0.04
100
AcDbVertex
100
AcDb2dVertex
 10
364.189186111498
 20
266.4056826961878
 30
0.0
  0
VERTEX
  5
1423
330
1417
100
AcDbEntity
  8
1
 48
0.04
100
AcDbVertex
100
AcDb2dVertex
 10
364.223670916022
 20
266.4098364606252
 30
0.0
  0
VERTEX
  5
1424
330
1417
100
AcDbEntity
  8
1
 48
0.04
100
AcDbVertex
100
AcDb2dVertex
 10
364.2573531959471
 20
266.4208058278667
 30
0.0
  0
VERTEX
  5
1425
330
1417
100
AcDbEntity
  8
1
 48
0.04
100
AcDbVertex
100
AcDb2dVertex
 10
364.2856440499339
 20
266.4366749225809
 30
0.0
  0
VERTEX
  5
1426
330
1417
100
AcDbEntity
  8
1
 48
0.04
100
AcDbVertex
100
AcDb2dVertex
 10
364.3107814655135
 20
266.4579750100813
 30
0.0
  0
VERTEX
  5
1427
330
1417
100
AcDbEntity
  8
1
 48
0.04
100
AcDbVertex
100
AcDb2dVertex
 10
364.3289337248313
 20
266.4805353640229
 30
0.0
  0
VERTEX
  5
1428
330
1417
100
AcDbEntity
  8
1
 48
0.04
100
AcDbVertex
100
AcDb2dVertex
 10
364.3428587618573
 20
266.5061813743587
 30
0.0
  0
VERTEX
  5
1429
330
1417
100
AcDbEntity
  8
1
 48
0.04
100
AcDbVertex
100
AcDb2dVertex
 10
364.351166290732
 20
266.5314092097002
 30
0.0
  0
VERTEX
  5
142A
330
1417
100
AcDbEntity
  8
1
 48
0.04
100
AcDbVertex
100
AcDb2dVertex
 10
364.3550657577913
 20
266.5577503301574
 30
0.0
  0
VERTEX
  5
142B
330
1417
100
AcDbEntity
  8
1
 48
0.04
100
AcDbVertex
100
AcDb2dVertex
 10
364.3544554243987
 20
266.5830459803202
 30
0.0
  0
VERTEX
  5
142C
330
1417
100
AcDbEntity
  8
1
 48
0.04
100
AcDbVertex
100
AcDb2dVertex
 10
364.3496856507275
 20
266.6078668939249
 30
0.0
  0
VERTEX
  5
142D
330
1417
100
AcDbEntity
  8
1
 48
0.04
100
AcDbVertex
100
AcDb2dVertex
 10
364.3410842248183
 20
266.6310432242922
 30
0.0
  0
VERTEX
  5
142E
330
1417
100
AcDbEntity
  8
1
 48
0.04
100
AcDbVertex
100
AcDb2dVertex
 10
364.3289450437057
 20
266.6524394073957
 30
0.0
  0
VERTEX
  5
142F
330
1417
100
AcDbEntity
  8
1
 48
0.04
100
AcDbVertex
100
AcDb2dVertex
 10
364.3134828051115
 20
266.6716654505981
 30
0.0
  0
VERTEX
  5
1430
330
1417
100
AcDbEntity
  8
1
 48
0.04
100
AcDbVertex
100
AcDb2dVertex
 10
364.295387074549
 20
266.6880940257909
 30
0.0
  0
VERTEX
  5
1431
330
1417
100
AcDbEntity
  8
1
 48
0.04
100
AcDbVertex
100
AcDb2dVertex
 10
364.2742395457905
 20
266.7019512479955
 30
0.0
  0
VERTEX
  5
1432
330
1417
100
AcDbEntity
  8
1
 48
0.04
100
AcDbVertex
100
AcDb2dVertex
 10
364.2515322761401
 20
266.7122876440957
 30
0.0
  0
VERTEX
  5
1433
330
1417
100
AcDbEntity
  8
1
 48
0.04
100
AcDbVertex
100
AcDb2dVertex
 10
364.2256941074061
 20
266.7194988169538
 30
0.0
  0
VERTEX
  5
1434
330
1417
100
AcDbEntity
  8
1
 48
0.04
100
AcDbVertex
100
AcDb2dVertex
 10
364.1994490497438
 20
266.7226296832289
 30
0.0
  0
VERTEX
  5
1435
330
1417
100
AcDbEntity
  8
1
 48
0.04
100
AcDbVertex
100
AcDb2dVertex
 10
364.1699826732361
 20
266.7214655123908
 30
0.0
  0
VERTEX
  5
1436
330
1417
100
AcDbEntity
  8
1
 48
0.04
100
AcDbVertex
100
AcDb2dVertex
 10
364.1414205599637
 20
266.7156558786498
 30
0.0
  0
VERTEX
  5
1437
330
1417
100
AcDbEntity
  8
1
 48
0.04
100
AcDbVertex
100
AcDb2dVertex
 10
364.1107334838626
 20
266.7037540330079
 30
0.0
  0
VERTEX
  5
1438
330
1417
100
AcDbEntity
  8
1
 48
0.04
100
AcDbVertex
100
AcDb2dVertex
 10
364.0826121505252
 20
266.6865172901831
 30
0.0
  0
VERTEX
  5
1439
330
1417
100
AcDbEntity
  8
1
 48
0.04
100
AcDbVertex
100
AcDb2dVertex
 10
364.0608543211825
 20
266.6672969228221
 30
0.0
  0
VERTEX
  5
143A
330
1417
100
AcDbEntity
  8
1
 48
0.04
100
AcDbVertex
100
AcDb2dVertex
 10
364.0422838212536
 20
266.6442166224414
 30
0.0
  0
VERTEX
  5
143B
330
1417
100
AcDbEntity
  8
1
 48
0.04
100
AcDbVertex
100
AcDb2dVertex
 10
364.0310262656274
 20
266.6244424176349
 30
0.0
  0
VERTEX
  5
143C
330
1417
100
AcDbEntity
  8
1
 48
0.04
100
AcDbVertex
100
AcDb2dVertex
 10
364.0225717882354
 20
266.6027580133384
 30
0.0
  0
VERTEX
  5
143D
330
1417
100
AcDbEntity
  8
1
 48
0.04
100
AcDbVertex
100
AcDb2dVertex
 10
364.0178472244451
 20
266.5818365667929
 30
0.0
  0
VERTEX
  5
143E
330
1417
100
AcDbEntity
  8
1
 48
0.04
100
AcDbVertex
100
AcDb2dVertex
 10
364.0161969981745
 20
266.5602200101261
 30
0.0
  0
SEQEND
  5
143F
330
1417
100
AcDbEntity
  8
1
 48
0.04
  0
POLYLINE
  5
1440
330
18
100
AcDbEntity
  8
1
 48
0.04
100
AcDb2dPolyline
 66
     1
 10
0.0
 20
0.0
 30
0.0
  0
VERTEX
  5
1441
330
1440
100
AcDbEntity
  8
1
 48
0.04
100
AcDbVertex
100
AcDb2dVertex
 10
364.0834824899455
 20
266.5654249206992
 30
0.0
  0
VERTEX
  5
1442
330
1440
100
AcDbEntity
  8
1
 48
0.04
100
AcDbVertex
100
AcDb2dVertex
 10
364.0870315640234
 20
266.5380269782648
 30
0.0
  0
VERTEX
  5
1443
330
1440
100
AcDbEntity
  8
1
 48
0.04
100
AcDbVertex
100
AcDb2dVertex
 10
364.0972266546394
 20
266.5123470441141
 30
0.0
  0
VERTEX
  5
1444
330
1440
100
AcDbEntity
  8
1
 48
0.04
100
AcDbVertex
100
AcDb2dVertex
 10
364.113446142335
 20
266.4900014535111
 30
0.0
  0
VERTEX
  5
1445
330
1440
100
AcDbEntity
  8
1
 48
0.04
100
AcDbVertex
100
AcDb2dVertex
 10
364.1346388809744
 20
266.4724030316388
 30
0.0
  0
VERTEX
  5
1446
330
1440
100
AcDbEntity
  8
1
 48
0.04
100
AcDbVertex
100
AcDb2dVertex
 10
364.1595050044601
 20
266.4606424586727
 30
0.0
  0
VERTEX
  5
1447
330
1440
100
AcDbEntity
  8
1
 48
0.04
100
AcDbVertex
100
AcDb2dVertex
 10
364.1864734530256
 20
266.4554657960731
 30
0.0
  0
VERTEX
  5
1448
330
1440
100
AcDbEntity
  8
1
 48
0.04
100
AcDbVertex
100
AcDb2dVertex
 10
364.2138374716451
 20
266.4572007662641
 30
0.0
  0
VERTEX
  5
1449
330
1440
100
AcDbEntity
  8
1
 48
0.04
100
AcDbVertex
100
AcDb2dVertex
 10
364.2398790848432
 20
266.4657343773519
 30
0.0
  0
VERTEX
  5
144A
330
1440
100
AcDbEntity
  8
1
 48
0.04
100
AcDbVertex
100
AcDb2dVertex
 10
364.2629819901643
 20
266.4805353640229
 30
0.0
  0
VERTEX
  5
144B
330
1440
100
AcDbEntity
  8
1
 48
0.04
100
AcDbVertex
100
AcDb2dVertex
 10
364.2816768008616
 20
266.5006656376522
 30
0.0
  0
VERTEX
  5
144C
330
1440
100
AcDbEntity
  8
1
 48
0.04
100
AcDbVertex
100
AcDb2dVertex
 10
364.2947880272225
 20
266.52486489899
 30
0.0
  0
VERTEX
  5
144D
330
1440
100
AcDbEntity
  8
1
 48
0.04
100
AcDbVertex
100
AcDb2dVertex
 10
364.3015018585821
 20
266.5516185842169
 30
0.0
  0
VERTEX
  5
144E
330
1440
100
AcDbEntity
  8
1
 48
0.04
100
AcDbVertex
100
AcDb2dVertex
 10
364.3014001527541
 20
266.5792369330228
 30
0.0
  0
VERTEX
  5
144F
330
1440
100
AcDbEntity
  8
1
 48
0.04
100
AcDbVertex
100
AcDb2dVertex
 10
364.2944715252477
 20
266.6059849752167
 30
0.0
  0
VERTEX
  5
1450
330
1440
100
AcDbEntity
  8
1
 48
0.04
100
AcDbVertex
100
AcDb2dVertex
 10
364.2811568544226
 20
266.6301842365545
 30
0.0
  0
VERTEX
  5
1451
330
1440
100
AcDbEntity
  8
1
 48
0.04
100
AcDbVertex
100
AcDb2dVertex
 10
364.2623038091421
 20
266.6503201204085
 30
0.0
  0
VERTEX
  5
1452
330
1440
100
AcDbEntity
  8
1
 48
0.04
100
AcDbVertex
100
AcDb2dVertex
 10
364.239087911927
 20
266.6651154640465
 30
0.0
  0
VERTEX
  5
1453
330
1440
100
AcDbEntity
  8
1
 48
0.04
100
AcDbVertex
100
AcDb2dVertex
 10
364.2129671650331
 20
266.6736490751342
 30
0.0
  0
VERTEX
  5
1454
330
1440
100
AcDbEntity
  8
1
 48
0.04
100
AcDbVertex
100
AcDb2dVertex
 10
364.1855918275392
 20
266.6753840453253
 30
0.0
  0
VERTEX
  5
1455
330
1440
100
AcDbEntity
  8
1
 48
0.04
100
AcDbVertex
100
AcDb2dVertex
 10
364.1586685888546
 20
266.6702130257586
 30
0.0
  0
VERTEX
  5
1456
330
1440
100
AcDbEntity
  8
1
 48
0.04
100
AcDbVertex
100
AcDb2dVertex
 10
364.1339042040052
 20
266.6584524856009
 30
0.0
  0
VERTEX
  5
1457
330
1440
100
AcDbEntity
  8
1
 48
0.04
100
AcDbVertex
100
AcDb2dVertex
 10
364.1128358089425
 20
266.6408483878873
 30
0.0
  0
VERTEX
  5
1458
330
1440
100
AcDbEntity
  8
1
 48
0.04
100
AcDbVertex
100
AcDb2dVertex
 10
364.0968084468367
 20
266.6185027972842
 30
0.0
  0
VERTEX
  5
1459
330
1440
100
AcDbEntity
  8
1
 48
0.04
100
AcDbVertex
100
AcDb2dVertex
 10
364.0868168006848
 20
266.5928228631335
 30
0.0
  0
VERTEX
  5
145A
330
1440
100
AcDbEntity
  8
1
 48
0.04
100
AcDbVertex
100
AcDb2dVertex
 10
364.0834824899455
 20
266.5654249206992
 30
0.0
  0
SEQEND
  5
145B
330
1440
100
AcDbEntity
  8
1
 48
0.04
  0
POLYLINE
  5
145C
330
18
100
AcDbEntity
  8
1
 48
0.04
100
AcDb2dPolyline
 66
     1
 10
0.0
 20
0.0
 30
0.0
  0
VERTEX
  5
145D
330
145C
100
AcDbEntity
  8
1
 48
0.04
100
AcDbVertex
100
AcDb2dVertex
 10
364.2394156671595
 20
266.4148548886416
 30
0.0
  0
VERTEX
  5
145E
330
145C
100
AcDbEntity
  8
1
 48
0.04
100
AcDbVertex
100
AcDb2dVertex
 10
364.207146245226
 20
266.4097742888368
 30
0.0
  0
VERTEX
  5
145F
330
145C
100
AcDbEntity
  8
1
 48
0.04
100
AcDbVertex
100
AcDb2dVertex
 10
364.1745151114367
 20
266.4115601447501
 30
0.0
  0
VERTEX
  5
1460
330
145C
100
AcDbEntity
  8
1
 48
0.04
100
AcDbVertex
100
AcDb2dVertex
 10
364.1429351237832
 20
266.4201389329105
 30
0.0
  0
VERTEX
  5
1461
330
145C
100
AcDbEntity
  8
1
 48
0.04
100
AcDbVertex
100
AcDb2dVertex
 10
364.1137965353164
 20
266.435137753821
 30
0.0
  0
VERTEX
  5
1462
330
145C
100
AcDbEntity
  8
1
 48
0.04
100
AcDbVertex
100
AcDb2dVertex
 10
364.0883539694447
 20
266.4558952899418
 30
0.0
  0
VERTEX
  5
1463
330
145C
100
AcDbEntity
  8
1
 48
0.04
100
AcDbVertex
100
AcDb2dVertex
 10
364.0677377059997
 20
266.4815074092712
 30
0.0
  0
VERTEX
  5
1464
330
145C
100
AcDbEntity
  8
1
 48
0.04
100
AcDbVertex
100
AcDb2dVertex
 10
364.0528519425998
 20
266.5108550852352
 30
0.0
  0
VERTEX
  5
1465
330
145C
100
AcDbEntity
  8
1
 48
0.04
100
AcDbVertex
100
AcDb2dVertex
 10
364.0443296503864
 20
266.5426554792603
 30
0.0
  0
VERTEX
  5
1466
330
145C
100
AcDbEntity
  8
1
 48
0.04
100
AcDbVertex
100
AcDb2dVertex
 10
364.0425551133475
 20
266.5755183054873
 30
0.0
  0
VERTEX
  5
1467
330
145C
100
AcDbEntity
  8
1
 48
0.04
100
AcDbVertex
100
AcDb2dVertex
 10
364.0475961463044
 20
266.6080025235677
 30
0.0
  0
VERTEX
  5
1468
330
145C
100
AcDbEntity
  8
1
 48
0.04
100
AcDbVertex
100
AcDb2dVertex
 10
364.0592493047928
 20
266.6387008857348
 30
0.0
  0
VERTEX
  5
1469
330
145C
100
AcDbEntity
  8
1
 48
0.04
100
AcDbVertex
100
AcDb2dVertex
 10
364.0769833891162
 20
266.6662570627524
 30
0.0
  0
VERTEX
  5
146A
330
145C
100
AcDbEntity
  8
1
 48
0.04
100
AcDbVertex
100
AcDb2dVertex
 10
364.1000410517481
 20
266.6894786358089
 30
0.0
  0
VERTEX
  5
146B
330
145C
100
AcDbEntity
  8
1
 48
0.04
100
AcDbVertex
100
AcDb2dVertex
 10
364.1274051031759
 20
266.7073483169667
 30
0.0
  0
VERTEX
  5
146C
330
145C
100
AcDbEntity
  8
1
 48
0.04
100
AcDbVertex
100
AcDb2dVertex
 10
364.1578887020044
 20
266.719080609151
 30
0.0
  0
SEQEND
  5
146D
330
145C
100
AcDbEntity
  8
1
 48
0.04
  0
POLYLINE
  5
146E
330
18
100
AcDbEntity
  8
1
 48
0.04
100
AcDb2dPolyline
 66
     1
 10
0.0
 20
0.0
 30
0.0
  0
VERTEX
  5
146F
330
146E
100
AcDbEntity
  8
1
 48
0.04
100
AcDbVertex
100
AcDb2dVertex
 10
364.6333742086793
 20
267.6446259857282
 30
0.0
  0
VERTEX
  5
1470
330
146E
100
AcDbEntity
  8
1
 48
0.04
100
AcDbVertex
100
AcDb2dVertex
 10
364.6299946552507
 20
267.6425519414301
 30
0.0
  0
VERTEX
  5
1471
330
146E
100
AcDbEntity
  8
1
 48
0.04
100
AcDbVertex
100
AcDb2dVertex
 10
364.6195169864747
 20
267.6396358056853
 30
0.0
  0
VERTEX
  5
1472
330
146E
100
AcDbEntity
  8
1
 48
0.04
100
AcDbVertex
100
AcDb2dVertex
 10
364.6021785050136
 20
267.6359454589316
 30
0.0
  0
VERTEX
  5
1473
330
146E
100
AcDbEntity
  8
1
 48
0.04
100
AcDbVertex
100
AcDb2dVertex
 10
364.5783070317167
 20
267.6315543262152
 30
0.0
  0
VERTEX
  5
1474
330
146E
100
AcDbEntity
  8
1
 48
0.04
100
AcDbVertex
100
AcDb2dVertex
 10
364.5483885563998
 20
267.6265471842648
 30
0.0
  0
VERTEX
  5
1475
330
146E
100
AcDbEntity
  8
1
 48
0.04
100
AcDbVertex
100
AcDb2dVertex
 10
364.5130560830125
 20
267.6210257717169
 30
0.0
  0
VERTEX
  5
1476
330
146E
100
AcDbEntity
  8
1
 48
0.04
100
AcDbVertex
100
AcDb2dVertex
 10
364.4730102990926
 20
267.6151087891149
 30
0.0
  0
VERTEX
  5
1477
330
146E
100
AcDbEntity
  8
1
 48
0.04
100
AcDbVertex
100
AcDb2dVertex
 10
364.4290650809218
 20
267.6089148385777
 30
0.0
  0
VERTEX
  5
1478
330
146E
100
AcDbEntity
  8
1
 48
0.04
100
AcDbVertex
100
AcDb2dVertex
 10
364.3821246261186
 20
267.6025626862656
 30
0.0
  0
VERTEX
  5
1479
330
146E
100
AcDbEntity
  8
1
 48
0.04
100
AcDbVertex
100
AcDb2dVertex
 10
364.3331270561166
 20
267.596187929013
 30
0.0
  0
VERTEX
  5
147A
330
146E
100
AcDbEntity
  8
1
 48
0.04
100
AcDbVertex
100
AcDb2dVertex
 10
364.2830896260448
 20
267.5899205206214
 30
0.0
  0
VERTEX
  5
147B
330
146E
100
AcDbEntity
  8
1
 48
0.04
100
AcDbVertex
100
AcDb2dVertex
 10
364.2330295910326
 20
267.5838904805088
 30
0.0
  0
VERTEX
  5
147C
330
146E
100
AcDbEntity
  8
1
 48
0.04
100
AcDbVertex
100
AcDb2dVertex
 10
364.183952920143
 20
267.5782108333776
 30
0.0
  0
VERTEX
  5
147D
330
146E
100
AcDbEntity
  8
1
 48
0.04
100
AcDbVertex
100
AcDb2dVertex
 10
364.1368768356971
 20
267.5730059228044
 30
0.0
  0
VERTEX
  5
147E
330
146E
100
AcDbEntity
  8
1
 48
0.04
100
AcDbVertex
100
AcDb2dVertex
 10
364.0927394591281
 20
267.568383064842
 30
0.0
  0
VERTEX
  5
147F
330
146E
100
AcDbEntity
  8
1
 48
0.04
100
AcDbVertex
100
AcDb2dVertex
 10
364.0524450208631
 20
267.5644271018358
 30
0.0
  0
VERTEX
  5
1480
330
146E
100
AcDbEntity
  8
1
 48
0.04
100
AcDbVertex
100
AcDb2dVertex
 10
364.0168186504415
 20
267.5612284207392
 30
0.0
  0
VERTEX
  5
1481
330
146E
100
AcDbEntity
  8
1
 48
0.04
100
AcDbVertex
100
AcDb2dVertex
 10
363.9865950248325
 20
267.5588435174995
 30
0.0
  0
VERTEX
  5
1482
330
146E
100
AcDbEntity
  8
1
 48
0.04
100
AcDbVertex
100
AcDb2dVertex
 10
363.9623618396798
 20
267.55732895368
 30
0.0
  0
VERTEX
  5
1483
330
146E
100
AcDbEntity
  8
1
 48
0.04
100
AcDbVertex
100
AcDb2dVertex
 10
363.9446390742308
 20
267.556707301413
 30
0.0
  0
VERTEX
  5
1484
330
146E
100
AcDbEntity
  8
1
 48
0.04
100
AcDbVertex
100
AcDb2dVertex
 10
363.9337771214669
 20
267.557001165639
 30
0.0
  0
VERTEX
  5
1485
330
146E
100
AcDbEntity
  8
1
 48
0.04
100
AcDbVertex
100
AcDb2dVertex
 10
363.930001965176
 20
267.558193617259
 30
0.0
  0
SEQEND
  5
1486
330
146E
100
AcDbEntity
  8
1
 48
0.04
  0
POLYLINE
  5
1487
330
18
100
AcDbEntity
  8
1
 48
0.04
100
AcDb2dPolyline
 66
     1
 10
0.0
 20
0.0
 30
0.0
  0
VERTEX
  5
1488
330
1487
100
AcDbEntity
  8
1
 48
0.04
100
AcDbVertex
100
AcDb2dVertex
 10
364.1275520188847
 20
267.4038767096923
 30
0.0
  0
VERTEX
  5
1489
330
1487
100
AcDbEntity
  8
1
 48
0.04
100
AcDbVertex
100
AcDb2dVertex
 10
364.132547874769
 20
267.4033059103394
 30
0.0
  0
VERTEX
  5
148A
330
1487
100
AcDbEntity
  8
1
 48
0.04
100
AcDbVertex
100
AcDb2dVertex
 10
364.1446983419477
 20
267.4036732652282
 30
0.0
  0
VERTEX
  5
148B
330
1487
100
AcDbEntity
  8
1
 48
0.04
100
AcDbVertex
100
AcDb2dVertex
 10
364.1634948912812
 20
267.404961779643
 30
0.0
  0
VERTEX
  5
148C
330
1487
100
AcDbEntity
  8
1
 48
0.04
100
AcDbVertex
100
AcDb2dVertex
 10
364.1881462514283
 20
267.4071206006698
 30
0.0
  0
VERTEX
  5
148D
330
1487
100
AcDbEntity
  8
1
 48
0.04
100
AcDbVertex
100
AcDb2dVertex
 10
364.217623914002
 20
267.4100536655138
 30
0.0
  0
VERTEX
  5
148E
330
1487
100
AcDbEntity
  8
1
 48
0.04
100
AcDbVertex
100
AcDb2dVertex
 10
364.2506958605345
 20
267.4136423064396
 30
0.0
  0
VERTEX
  5
148F
330
1487
100
AcDbEntity
  8
1
 48
0.04
100
AcDbVertex
100
AcDb2dVertex
 10
364.2859718379748
 20
267.4177339318969
 30
0.0
  0
VERTEX
  5
1490
330
1487
100
AcDbEntity
  8
1
 48
0.04
100
AcDbVertex
100
AcDb2dVertex
 10
364.3219712063183
 20
267.4221589556199
 30
0.0
  0
VERTEX
  5
1491
330
1487
100
AcDbEntity
  8
1
 48
0.04
100
AcDbVertex
100
AcDb2dVertex
 10
364.3571906878116
 20
267.426725284827
 30
0.0
  0
VERTEX
  5
1492
330
1487
100
AcDbEntity
  8
1
 48
0.04
100
AcDbVertex
100
AcDb2dVertex
 10
364.3901496096418
 20
267.4312520471862
 30
0.0
  0
VERTEX
  5
1493
330
1487
100
AcDbEntity
  8
1
 48
0.04
100
AcDbVertex
100
AcDb2dVertex
 10
364.4194577187578
 20
267.4355471171077
 30
0.0
  0
VERTEX
  5
1494
330
1487
100
AcDbEntity
  8
1
 48
0.04
100
AcDbVertex
100
AcDb2dVertex
 10
364.4439056344408
 20
267.4394239792265
 30
0.0
  0
VERTEX
  5
1495
330
1487
100
AcDbEntity
  8
1
 48
0.04
100
AcDbVertex
100
AcDb2dVertex
 10
364.4624648154952
 20
267.442724366151
 30
0.0
  0
VERTEX
  5
1496
330
1487
100
AcDbEntity
  8
1
 48
0.04
100
AcDbVertex
100
AcDb2dVertex
 10
364.4743440233884
 20
267.4453070708219
 30
0.0
  0
VERTEX
  5
1497
330
1487
100
AcDbEntity
  8
1
 48
0.04
100
AcDbVertex
100
AcDb2dVertex
 10
364.4790573011126
 20
267.4470702889865
 30
0.0
  0
SEQEND
  5
1498
330
1487
100
AcDbEntity
  8
1
 48
0.04
  0
POLYLINE
  5
1499
330
18
100
AcDbEntity
  8
1
 48
0.04
100
AcDb2dPolyline
 66
     1
 10
0.0
 20
0.0
 30
0.0
  0
VERTEX
  5
149A
330
1499
100
AcDbEntity
  8
1
 48
0.04
100
AcDbVertex
100
AcDb2dVertex
 10
364.1181820249998
 20
267.6407830474243
 30
0.0
  0
VERTEX
  5
149B
330
1499
100
AcDbEntity
  8
1
 48
0.04
100
AcDbVertex
100
AcDb2dVertex
 10
364.1217310990777
 20
267.6401444332499
 30
0.0
  0
VERTEX
  5
149C
330
1499
100
AcDbEntity
  8
1
 48
0.04
100
AcDbVertex
100
AcDb2dVertex
 10
364.1319601135086
 20
267.6403705154629
 30
0.0
  0
VERTEX
  5
149D
330
1499
100
AcDbEntity
  8
1
 48
0.04
100
AcDbVertex
100
AcDb2dVertex
 10
364.1484169694832
 20
267.6414555526052
 30
0.0
  0
VERTEX
  5
149E
330
1499
100
AcDbEntity
  8
1
 48
0.04
100
AcDbVertex
100
AcDb2dVertex
 10
364.1703782760984
 20
267.6433487901878
 30
0.0
  0
VERTEX
  5
149F
330
1499
100
AcDbEntity
  8
1
 48
0.04
100
AcDbVertex
100
AcDb2dVertex
 10
364.1968945930463
 20
267.6459653858653
 30
0.0
  0
VERTEX
  5
14A0
330
1499
100
AcDbEntity
  8
1
 48
0.04
100
AcDbVertex
100
AcDb2dVertex
 10
364.2267904634227
 20
267.6492036338097
 30
0.0
  0
VERTEX
  5
14A1
330
1499
100
AcDbEntity
  8
1
 48
0.04
100
AcDbVertex
100
AcDb2dVertex
 10
364.2587773400046
 20
267.6529052994378
 30
0.0
  0
VERTEX
  5
14A2
330
1499
100
AcDbEntity
  8
1
 48
0.04
100
AcDbVertex
100
AcDb2dVertex
 10
364.2914536836749
 20
267.6569234342324
 30
0.0
  0
VERTEX
  5
14A3
330
1499
100
AcDbEntity
  8
1
 48
0.04
100
AcDbVertex
100
AcDb2dVertex
 10
364.3233840643098
 20
267.6610715556368
 30
0.0
  0
VERTEX
  5
14A4
330
1499
100
AcDbEntity
  8
1
 48
0.04
100
AcDbVertex
100
AcDb2dVertex
 10
364.35317819605
 20
267.6651744671602
 30
0.0
  0
VERTEX
  5
14A5
330
1499
100
AcDbEntity
  8
1
 48
0.04
100
AcDbVertex
100
AcDb2dVertex
 10
364.3795362784147
 20
267.6690456534376
 30
0.0
  0
VERTEX
  5
14A6
330
1499
100
AcDbEntity
  8
1
 48
0.04
100
AcDbVertex
100
AcDb2dVertex
 10
364.4012941405657
 20
267.6725269126941
 30
0.0
  0
VERTEX
  5
14A7
330
1499
100
AcDbEntity
  8
1
 48
0.04
100
AcDbVertex
100
AcDb2dVertex
 10
364.4175249471356
 20
267.6754599775381
 30
0.0
  0
VERTEX
  5
14A8
330
1499
100
AcDbEntity
  8
1
 48
0.04
100
AcDbVertex
100
AcDb2dVertex
 10
364.427493988347
 20
267.6777148941682
 30
0.0
  0
VERTEX
  5
14A9
330
1499
100
AcDbEntity
  8
1
 48
0.04
100
AcDbVertex
100
AcDb2dVertex
 10
364.4307944080798
 20
267.679195566981
 30
0.0
  0
SEQEND
  5
14AA
330
1499
100
AcDbEntity
  8
1
 48
0.04
  0
POLYLINE
  5
14AB
330
18
100
AcDbEntity
  8
1
 48
0.04
100
AcDb2dPolyline
 66
     1
 10
0.0
 20
0.0
 30
0.0
  0
VERTEX
  5
14AC
330
14AB
100
AcDbEntity
  8
1
 48
0.04
100
AcDbVertex
100
AcDb2dVertex
 10
364.6231564803144
 20
267.6631908098157
 30
0.0
  0
VERTEX
  5
14AD
330
14AB
100
AcDbEntity
  8
1
 48
0.04
100
AcDbVertex
100
AcDb2dVertex
 10
364.6228739021545
 20
267.6635751266119
 30
0.0
  0
VERTEX
  5
14AE
330
14AB
100
AcDbEntity
  8
1
 48
0.04
100
AcDbVertex
100
AcDb2dVertex
 10
364.6221392251852
 20
267.6638972388114
 30
0.0
  0
SEQEND
  5
14AF
330
14AB
100
AcDbEntity
  8
1
 48
0.04
  0
POLYLINE
  5
14B0
330
18
100
AcDbEntity
  8
1
 48
0.04
100
AcDb2dPolyline
 66
     1
 10
0.0
 20
0.0
 30
0.0
  0
VERTEX
  5
14B1
330
14B0
100
AcDbEntity
  8
1
 48
0.04
100
AcDbVertex
100
AcDb2dVertex
 10
364.5888073382415
 20
267.6638972388114
 30
0.0
  0
VERTEX
  5
14B2
330
14B0
100
AcDbEntity
  8
1
 48
0.04
100
AcDbVertex
100
AcDb2dVertex
 10
364.5626639864071
 20
267.6621792305279
 30
0.0
  0
VERTEX
  5
14B3
330
14B0
100
AcDbEntity
  8
1
 48
0.04
100
AcDbVertex
100
AcDb2dVertex
 10
364.5300441386839
 20
267.6595174249694
 30
0.0
  0
VERTEX
  5
14B4
330
14B0
100
AcDbEntity
  8
1
 48
0.04
100
AcDbVertex
100
AcDb2dVertex
 10
364.4916825048494
 20
267.6559739939246
 30
0.0
  0
VERTEX
  5
14B5
330
14B0
100
AcDbEntity
  8
1
 48
0.04
100
AcDbVertex
100
AcDb2dVertex
 10
364.4484606447734
 20
267.6516280710891
 30
0.0
  0
SEQEND
  5
14B6
330
14B0
100
AcDbEntity
  8
1
 48
0.04
  0
POLYLINE
  5
14B7
330
18
100
AcDbEntity
  8
1
 48
0.04
100
AcDb2dPolyline
 66
     1
 10
0.0
 20
0.0
 30
0.0
  0
VERTEX
  5
14B8
330
14B7
100
AcDbEntity
  8
1
 48
0.04
100
AcDbVertex
100
AcDb2dVertex
 10
364.1074782740108
 20
267.6097230062097
 30
0.0
  0
VERTEX
  5
14B9
330
14B7
100
AcDbEntity
  8
1
 48
0.04
100
AcDbVertex
100
AcDb2dVertex
 10
364.0676585723038
 20
267.6039416204422
 30
0.0
  0
VERTEX
  5
14BA
330
14B7
100
AcDbEntity
  8
1
 48
0.04
100
AcDbVertex
100
AcDb2dVertex
 10
364.0319531009948
 20
267.5984993415901
 30
0.0
  0
VERTEX
  5
14BB
330
14B7
100
AcDbEntity
  8
1
 48
0.04
100
AcDbVertex
100
AcDb2dVertex
 10
364.00108518537
 20
267.5934865566067
 30
0.0
  0
VERTEX
  5
14BC
330
14B7
100
AcDbEntity
  8
1
 48
0.04
100
AcDbVertex
100
AcDb2dVertex
 10
363.9756426194983
 20
267.5890162901945
 30
0.0
  0
VERTEX
  5
14BD
330
14B7
100
AcDbEntity
  8
1
 48
0.04
100
AcDbVertex
100
AcDb2dVertex
 10
363.9561114260039
 20
267.5851620658245
 30
0.0
  0
VERTEX
  5
14BE
330
14B7
100
AcDbEntity
  8
1
 48
0.04
100
AcDbVertex
100
AcDb2dVertex
 10
363.9428984610067
 20
267.5820085946089
 30
0.0
  0
VERTEX
  5
14BF
330
14B7
100
AcDbEntity
  8
1
 48
0.04
100
AcDbVertex
100
AcDb2dVertex
 10
363.9362298067198
 20
267.579618048336
 30
0.0
  0
VERTEX
  5
14C0
330
14B7
100
AcDbEntity
  8
1
 48
0.04
100
AcDbVertex
100
AcDb2dVertex
 10
363.9362637305346
 20
267.5780243508208
 30
0.0
  0
VERTEX
  5
14C1
330
14B7
100
AcDbEntity
  8
1
 48
0.04
100
AcDbVertex
100
AcDb2dVertex
 10
363.9429888807685
 20
267.5772783549772
 30
0.0
  0
VERTEX
  5
14C2
330
14B7
100
AcDbEntity
  8
1
 48
0.04
100
AcDbVertex
100
AcDb2dVertex
 10
363.9562696605872
 20
267.5773744505804
 30
0.0
  0
VERTEX
  5
14C3
330
14B7
100
AcDbEntity
  8
1
 48
0.04
100
AcDbVertex
100
AcDb2dVertex
 10
363.9758573828369
 20
267.5783295339213
 30
0.0
  0
VERTEX
  5
14C4
330
14B7
100
AcDbEntity
  8
1
 48
0.04
100
AcDbVertex
100
AcDb2dVertex
 10
364.0013564446556
 20
267.5801040709602
 30
0.0
  0
VERTEX
  5
14C5
330
14B7
100
AcDbEntity
  8
1
 48
0.04
100
AcDbVertex
100
AcDb2dVertex
 10
364.0322808562273
 20
267.5826867428228
 30
0.0
  0
VERTEX
  5
14C6
330
14B7
100
AcDbEntity
  8
1
 48
0.04
100
AcDbVertex
100
AcDb2dVertex
 10
364.0680202841596
 20
267.5860097674961
 30
0.0
  0
VERTEX
  5
14C7
330
14B7
100
AcDbEntity
  8
1
 48
0.04
100
AcDbVertex
100
AcDb2dVertex
 10
364.1078851957475
 20
267.5900166162246
 30
0.0
  0
VERTEX
  5
14C8
330
14B7
100
AcDbEntity
  8
1
 48
0.04
100
AcDbVertex
100
AcDb2dVertex
 10
364.1510844180747
 20
267.5946224794713
 30
0.0
  0
VERTEX
  5
14C9
330
14B7
100
AcDbEntity
  8
1
 48
0.04
100
AcDbVertex
100
AcDb2dVertex
 10
364.1967928872184
 20
267.599742646124
 30
0.0
  0
VERTEX
  5
14CA
330
14B7
100
AcDbEntity
  8
1
 48
0.04
100
AcDbVertex
100
AcDb2dVertex
 10
364.2441063399433
 20
267.6052753447379
 30
0.0
  0
VERTEX
  5
14CB
330
14B7
100
AcDbEntity
  8
1
 48
0.04
100
AcDbVertex
100
AcDb2dVertex
 10
364.2920979408823
 20
267.6111189022938
 30
0.0
  0
VERTEX
  5
14CC
330
14B7
100
AcDbEntity
  8
1
 48
0.04
100
AcDbVertex
100
AcDb2dVertex
 10
364.3398522063505
 20
267.6171489424064
 30
0.0
  0
VERTEX
  5
14CD
330
14B7
100
AcDbEntity
  8
1
 48
0.04
100
AcDbVertex
100
AcDb2dVertex
 10
364.3864196960401
 20
267.6232524403734
 30
0.0
  0
VERTEX
  5
14CE
330
14B7
100
AcDbEntity
  8
1
 48
0.04
100
AcDbVertex
100
AcDb2dVertex
 10
364.4308961467161
 20
267.6293163714925
 30
0.0
  0
VERTEX
  5
14CF
330
14B7
100
AcDbEntity
  8
1
 48
0.04
100
AcDbVertex
100
AcDb2dVertex
 10
364.4724225706406
 20
267.6352107819623
 30
0.0
  0
VERTEX
  5
14D0
330
14B7
100
AcDbEntity
  8
1
 48
0.04
100
AcDbVertex
100
AcDb2dVertex
 10
364.5101738710825
 20
267.6408282573052
 30
0.0
  0
VERTEX
  5
14D1
330
14B7
100
AcDbEntity
  8
1
 48
0.04
100
AcDbVertex
100
AcDb2dVertex
 10
364.5434266571387
 20
267.6460614486602
 30
0.0
  0
VERTEX
  5
14D2
330
14B7
100
AcDbEntity
  8
1
 48
0.04
100
AcDbVertex
100
AcDb2dVertex
 10
364.5715253527275
 20
267.6508029743579
 30
0.0
  0
VERTEX
  5
14D3
330
14B7
100
AcDbEntity
  8
1
 48
0.04
100
AcDbVertex
100
AcDb2dVertex
 10
364.5939274720859
 20
267.6549567387954
 30
0.0
  0
VERTEX
  5
14D4
330
14B7
100
AcDbEntity
  8
1
 48
0.04
100
AcDbVertex
100
AcDb2dVertex
 10
364.6101808835963
 20
267.6584493169262
 30
0.0
  0
VERTEX
  5
14D5
330
14B7
100
AcDbEntity
  8
1
 48
0.04
100
AcDbVertex
100
AcDb2dVertex
 10
364.6199916902245
 20
267.6612128283125
 30
0.0
  0
VERTEX
  5
14D6
330
14B7
100
AcDbEntity
  8
1
 48
0.04
100
AcDbVertex
100
AcDb2dVertex
 10
364.6231564803144
 20
267.6631908098157
 30
0.0
  0
SEQEND
  5
14D7
330
14B7
100
AcDbEntity
  8
1
 48
0.04
  0
POLYLINE
  5
14D8
330
18
100
AcDbEntity
  8
1
 48
0.04
100
AcDb2dPolyline
 66
     1
 10
0.0
 20
0.0
 30
0.0
  0
VERTEX
  5
14D9
330
14D8
100
AcDbEntity
  8
1
 48
0.04
100
AcDbVertex
100
AcDb2dVertex
 10
364.0839006977483
 20
267.5969282490153
 30
0.0
  0
VERTEX
  5
14DA
330
14D8
100
AcDbEntity
  8
1
 48
0.04
100
AcDbVertex
100
AcDb2dVertex
 10
364.0865794324058
 20
267.5983523930729
 30
0.0
  0
VERTEX
  5
14DB
330
14D8
100
AcDbEntity
  8
1
 48
0.04
100
AcDbVertex
100
AcDb2dVertex
 10
364.0947965743271
 20
267.6004264701792
 30
0.0
  0
SEQEND
  5
14DC
330
14D8
100
AcDbEntity
  8
1
 48
0.04
  0
POLYLINE
  5
14DD
330
18
100
AcDbEntity
  8
1
 48
0.04
100
AcDb2dPolyline
 66
     1
 10
0.0
 20
0.0
 30
0.0
  0
VERTEX
  5
14DE
330
14DD
100
AcDbEntity
  8
1
 48
0.04
100
AcDbVertex
100
AcDb2dVertex
 10
364.4596617044526
 20
267.64556413997
 30
0.0
  0
VERTEX
  5
14DF
330
14DD
100
AcDbEntity
  8
1
 48
0.04
100
AcDbVertex
100
AcDb2dVertex
 10
364.470433270263
 20
267.6457393364606
 30
0.0
  0
VERTEX
  5
14E0
330
14DD
100
AcDbEntity
  8
1
 48
0.04
100
AcDbVertex
100
AcDb2dVertex
 10
364.4746153154823
 20
267.6450611554384
 30
0.0
  0
VERTEX
  5
14E1
330
14DD
100
AcDbEntity
  8
1
 48
0.04
100
AcDbVertex
100
AcDb2dVertex
 10
364.4720721776592
 20
267.6435465916189
 30
0.0
  0
VERTEX
  5
14E2
330
14DD
100
AcDbEntity
  8
1
 48
0.04
100
AcDbVertex
100
AcDb2dVertex
 10
364.462883023298
 20
267.6412577839823
 30
0.0
  0
VERTEX
  5
14E3
330
14DD
100
AcDbEntity
  8
1
 48
0.04
100
AcDbVertex
100
AcDb2dVertex
 10
364.4473642887568
 20
267.63826254735
 30
0.0
  0
VERTEX
  5
14E4
330
14DD
100
AcDbEntity
  8
1
 48
0.04
100
AcDbVertex
100
AcDb2dVertex
 10
364.4260585582234
 20
267.6346739064242
 30
0.0
  0
VERTEX
  5
14E5
330
14DD
100
AcDbEntity
  8
1
 48
0.04
100
AcDbVertex
100
AcDb2dVertex
 10
364.3996891569843
 20
267.6306162047818
 30
0.0
  0
VERTEX
  5
14E6
330
14DD
100
AcDbEntity
  8
1
 48
0.04
100
AcDbVertex
100
AcDb2dVertex
 10
364.3691716343409
 20
267.6262194290323
 30
0.0
  0
VERTEX
  5
14E7
330
14DD
100
AcDbEntity
  8
1
 48
0.04
100
AcDbVertex
100
AcDb2dVertex
 10
364.3355571692373
 20
267.6216417809508
 30
0.0
  0
VERTEX
  5
14E8
330
14DD
100
AcDbEntity
  8
1
 48
0.04
100
AcDbVertex
100
AcDb2dVertex
 10
364.3000098997031
 20
267.6170415607371
 30
0.0
  0
VERTEX
  5
14E9
330
14DD
100
AcDbEntity
  8
1
 48
0.04
100
AcDbVertex
100
AcDb2dVertex
 10
364.2637505581401
 20
267.6125712943249
 30
0.0
  0
VERTEX
  5
14EA
330
14DD
100
AcDbEntity
  8
1
 48
0.04
100
AcDbVertex
100
AcDb2dVertex
 10
364.2280224818906
 20
267.608394924947
 30
0.0
  0
VERTEX
  5
14EB
330
14DD
100
AcDbEntity
  8
1
 48
0.04
100
AcDbVertex
100
AcDb2dVertex
 10
364.1940576238055
 20
267.604642406405
 30
0.0
  0
VERTEX
  5
14EC
330
14DD
100
AcDbEntity
  8
1
 48
0.04
100
AcDbVertex
100
AcDb2dVertex
 10
364.1630314735975
 20
267.6014606544076
 30
0.0
  0
VERTEX
  5
14ED
330
14DD
100
AcDbEntity
  8
1
 48
0.04
100
AcDbVertex
100
AcDb2dVertex
 10
364.136006529085
 20
267.5989457973663
 30
0.0
  0
VERTEX
  5
14EE
330
14DD
100
AcDbEntity
  8
1
 48
0.04
100
AcDbVertex
100
AcDb2dVertex
 10
364.1139208788931
 20
267.5971882222348
 30
0.0
  0
VERTEX
  5
14EF
330
14DD
100
AcDbEntity
  8
1
 48
0.04
100
AcDbVertex
100
AcDb2dVertex
 10
364.0975431566143
 20
267.5962501008014
 30
0.0
  0
VERTEX
  5
14F0
330
14DD
100
AcDbEntity
  8
1
 48
0.04
100
AcDbVertex
100
AcDb2dVertex
 10
364.0874158480113
 20
267.5961596482312
 30
0.0
  0
VERTEX
  5
14F1
330
14DD
100
AcDbEntity
  8
1
 48
0.04
100
AcDbVertex
100
AcDb2dVertex
 10
364.0839006977483
 20
267.5969282490153
 30
0.0
  0
SEQEND
  5
14F2
330
14DD
100
AcDbEntity
  8
1
 48
0.04
  0
POLYLINE
  5
14F3
330
18
100
AcDbEntity
  8
1
 48
0.04
100
AcDb2dPolyline
 66
     1
 10
0.0
 20
0.0
 30
0.0
  0
VERTEX
  5
14F4
330
14F3
100
AcDbEntity
  8
1
 48
0.04
100
AcDbVertex
100
AcDb2dVertex
 10
363.928555216178
 20
267.5699089475358
 30
0.0
  0
VERTEX
  5
14F5
330
14F3
100
AcDbEntity
  8
1
 48
0.04
100
AcDbVertex
100
AcDb2dVertex
 10
363.9285891399929
 20
267.5701011059339
 30
0.0
  0
VERTEX
  5
14F6
330
14F3
100
AcDbEntity
  8
1
 48
0.04
100
AcDbVertex
100
AcDb2dVertex
 10
363.9287021646952
 20
267.5703101934312
 30
0.0
  0
SEQEND
  5
14F7
330
14F3
100
AcDbEntity
  8
1
 48
0.04
  0
POLYLINE
  5
14F8
330
18
100
AcDbEntity
  8
1
 48
0.04
100
AcDb2dPolyline
 66
     1
 10
0.0
 20
0.0
 30
0.0
  0
VERTEX
  5
14F9
330
14F8
100
AcDbEntity
  8
1
 48
0.04
100
AcDbVertex
100
AcDb2dVertex
 10
364.6317013774683
 20
267.6566917089864
 30
0.0
  0
VERTEX
  5
14FA
330
14F8
100
AcDbEntity
  8
1
 48
0.04
100
AcDbVertex
100
AcDb2dVertex
 10
364.6301302848935
 20
267.654894567007
 30
0.0
  0
VERTEX
  5
14FB
330
14F8
100
AcDbEntity
  8
1
 48
0.04
100
AcDbVertex
100
AcDb2dVertex
 10
364.6219018897145
 20
267.6522949332369
 30
0.0
  0
VERTEX
  5
14FC
330
14F8
100
AcDbEntity
  8
1
 48
0.04
100
AcDbVertex
100
AcDb2dVertex
 10
364.607185646964
 20
267.6489606224976
 30
0.0
  0
VERTEX
  5
14FD
330
14F8
100
AcDbEntity
  8
1
 48
0.04
100
AcDbVertex
100
AcDb2dVertex
 10
364.586241595478
 20
267.6449368118617
 30
0.0
  0
VERTEX
  5
14FE
330
14F8
100
AcDbEntity
  8
1
 48
0.04
100
AcDbVertex
100
AcDb2dVertex
 10
364.5594879102511
 20
267.6403139867076
 30
0.0
  0
VERTEX
  5
14FF
330
14F8
100
AcDbEntity
  8
1
 48
0.04
100
AcDbVertex
100
AcDb2dVertex
 10
364.5274218999734
 20
267.6351712151145
 30
0.0
  0
VERTEX
  5
1500
330
14F8
100
AcDbEntity
  8
1
 48
0.04
100
AcDbVertex
100
AcDb2dVertex
 10
364.4906539636541
 20
267.6296102357186
 30
0.0
  0
VERTEX
  5
1501
330
14F8
100
AcDbEntity
  8
1
 48
0.04
100
AcDbVertex
100
AcDb2dVertex
 10
364.4498848216394
 20
267.6237328199645
 30
0.0
  0
VERTEX
  5
1502
330
14F8
100
AcDbEntity
  8
1
 48
0.04
100
AcDbVertex
100
AcDb2dVertex
 10
364.4058830747132
 20
267.617657569971
 30
0.0
  0
VERTEX
  5
1503
330
14F8
100
AcDbEntity
  8
1
 48
0.04
100
AcDbVertex
100
AcDb2dVertex
 10
364.3595077434217
 20
267.6114919002156
 30
0.0
  0
VERTEX
  5
1504
330
14F8
100
AcDbEntity
  8
1
 48
0.04
100
AcDbVertex
100
AcDb2dVertex
 10
364.3116178483107
 20
267.6053601214668
 30
0.0
  0
VERTEX
  5
1505
330
14F8
100
AcDbEntity
  8
1
 48
0.04
100
AcDbVertex
100
AcDb2dVertex
 10
364.2631289058732
 20
267.5993752912352
 30
0.0
  0
VERTEX
  5
1506
330
14F8
100
AcDbEntity
  8
1
 48
0.04
100
AcDbVertex
100
AcDb2dVertex
 10
364.2149677514766
 20
267.5936561100643
 30
0.0
  0
VERTEX
  5
1507
330
14F8
100
AcDbEntity
  8
1
 48
0.04
100
AcDbVertex
100
AcDb2dVertex
 10
364.1680386155479
 20
267.5882985751327
 30
0.0
  0
VERTEX
  5
1508
330
14F8
100
AcDbEntity
  8
1
 48
0.04
100
AcDbVertex
100
AcDb2dVertex
 10
364.1232569817715
 20
267.5834214197921
 30
0.0
  0
VERTEX
  5
1509
330
14F8
100
AcDbEntity
  8
1
 48
0.04
100
AcDbVertex
100
AcDb2dVertex
 10
364.0814592657532
 20
267.5791037777384
 30
0.0
  0
VERTEX
  5
150A
330
14F8
100
AcDbEntity
  8
1
 48
0.04
100
AcDbVertex
100
AcDb2dVertex
 10
364.0434367060256
 20
267.5754360031169
 30
0.0
  0
VERTEX
  5
150B
330
14F8
100
AcDbEntity
  8
1
 48
0.04
100
AcDbVertex
100
AcDb2dVertex
 10
364.0099126606838
 20
267.5724859763654
 30
0.0
  0
VERTEX
  5
150C
330
14F8
100
AcDbEntity
  8
1
 48
0.04
100
AcDbVertex
100
AcDb2dVertex
 10
363.9815426730012
 20
267.5703045503981
 30
0.0
  0
VERTEX
  5
150D
330
14F8
100
AcDbEntity
  8
1
 48
0.04
100
AcDbVertex
100
AcDb2dVertex
 10
363.9588466894168
 20
267.5689369022876
 30
0.0
  0
VERTEX
  5
150E
330
14F8
100
AcDbEntity
  8
1
 48
0.04
100
AcDbVertex
100
AcDb2dVertex
 10
363.9422542037993
 20
267.5684169886569
 30
0.0
  0
VERTEX
  5
150F
330
14F8
100
AcDbEntity
  8
1
 48
0.04
100
AcDbVertex
100
AcDb2dVertex
 10
363.9320930041898
 20
267.5687391008564
 30
0.0
  0
VERTEX
  5
1510
330
14F8
100
AcDbEntity
  8
1
 48
0.04
100
AcDbVertex
100
AcDb2dVertex
 10
363.928555216178
 20
267.5699089475358
 30
0.0
  0
SEQEND
  5
1511
330
14F8
100
AcDbEntity
  8
1
 48
0.04
  0
POLYLINE
  5
1512
330
18
100
AcDbEntity
  8
1
 48
0.04
100
AcDb2dPolyline
 66
     1
 10
0.0
 20
0.0
 30
0.0
  0
VERTEX
  5
1513
330
1512
100
AcDbEntity
  8
1
 48
0.04
100
AcDbVertex
100
AcDb2dVertex
 10
364.3023156692472
 20
268.3373792549712
 30
0.0
  0
VERTEX
  5
1514
330
1512
100
AcDbEntity
  8
1
 48
0.04
100
AcDbVertex
100
AcDb2dVertex
 10
364.2964269346187
 20
268.3378087488401
 30
0.0
  0
VERTEX
  5
1515
330
1512
100
AcDbEntity
  8
1
 48
0.04
100
AcDbVertex
100
AcDb2dVertex
 10
364.2796535766692
 20
268.3367914937108
 30
0.0
  0
VERTEX
  5
1516
330
1512
100
AcDbEntity
  8
1
 48
0.04
100
AcDbVertex
100
AcDb2dVertex
 10
364.2537702308626
 20
268.3344179093455
 30
0.0
  0
SEQEND
  5
1517
330
1512
100
AcDbEntity
  8
1
 48
0.04
  0
POLYLINE
  5
1518
330
18
100
AcDbEntity
  8
1
 48
0.04
100
AcDb2dPolyline
 66
     1
 10
0.0
 20
0.0
 30
0.0
  0
VERTEX
  5
1519
330
1518
100
AcDbEntity
  8
1
 48
0.04
100
AcDbVertex
100
AcDb2dVertex
 10
364.264360924341
 20
268.3299533187746
 30
0.0
  0
VERTEX
  5
151A
330
1518
100
AcDbEntity
  8
1
 48
0.04
100
AcDbVertex
100
AcDb2dVertex
 10
364.2849319779051
 20
268.3332650245735
 30
0.0
  0
VERTEX
  5
151B
330
1518
100
AcDbEntity
  8
1
 48
0.04
100
AcDbVertex
100
AcDb2dVertex
 10
364.2979414984381
 20
268.3358081623965
 30
0.0
  0
VERTEX
  5
151C
330
1518
100
AcDbEntity
  8
1
 48
0.04
100
AcDbVertex
100
AcDb2dVertex
 10
364.3023156692472
 20
268.3373792549712
 30
0.0
  0
SEQEND
  5
151D
330
1518
100
AcDbEntity
  8
1
 48
0.04
  0
POLYLINE
  5
151E
330
18
100
AcDbEntity
  8
1
 48
0.04
100
AcDb2dPolyline
 66
     1
 10
0.0
 20
0.0
 30
0.0
  0
VERTEX
  5
151F
330
151E
100
AcDbEntity
  8
1
 48
0.04
100
AcDbVertex
100
AcDb2dVertex
 10
363.930001965176
 20
268.7385828603557
 30
0.0
  0
VERTEX
  5
1520
330
151E
100
AcDbEntity
  8
1
 48
0.04
100
AcDbVertex
100
AcDb2dVertex
 10
363.9332232840214
 20
268.6892914261276
 30
0.0
  0
VERTEX
  5
1521
330
151E
100
AcDbEntity
  8
1
 48
0.04
100
AcDbVertex
100
AcDb2dVertex
 10
363.9432375351137
 20
268.6409607182733
 30
0.0
  0
VERTEX
  5
1522
330
151E
100
AcDbEntity
  8
1
 48
0.04
100
AcDbVertex
100
AcDb2dVertex
 10
363.9598300207311
 20
268.5945401771008
 30
0.0
  0
VERTEX
  5
1523
330
151E
100
AcDbEntity
  8
1
 48
0.04
100
AcDbVertex
100
AcDb2dVertex
 10
363.9826842717071
 20
268.5509114280965
 30
0.0
  0
VERTEX
  5
1524
330
151E
100
AcDbEntity
  8
1
 48
0.04
100
AcDbVertex
100
AcDb2dVertex
 10
364.0113707285562
 20
268.5109448106807
 30
0.0
  0
VERTEX
  5
1525
330
151E
100
AcDbEntity
  8
1
 48
0.04
100
AcDbVertex
100
AcDb2dVertex
 10
364.0453129817008
 20
268.4753975411465
 30
0.0
  0
VERTEX
  5
1526
330
151E
100
AcDbEntity
  8
1
 48
0.04
100
AcDbVertex
100
AcDb2dVertex
 10
364.083855455059
 20
268.4449817571394
 30
0.0
  0
VERTEX
  5
1527
330
151E
100
AcDbEntity
  8
1
 48
0.04
100
AcDbVertex
100
AcDb2dVertex
 10
364.1262522184039
 20
268.4202738682369
 30
0.0
  0
VERTEX
  5
1528
330
151E
100
AcDbEntity
  8
1
 48
0.04
100
AcDbVertex
100
AcDb2dVertex
 10
364.1716667905132
 20
268.4017712159378
 30
0.0
  0
VERTEX
  5
1529
330
151E
100
AcDbEntity
  8
1
 48
0.04
100
AcDbVertex
100
AcDb2dVertex
 10
364.2192288975833
 20
268.3898128743489
 30
0.0
  0
VERTEX
  5
152A
330
151E
100
AcDbEntity
  8
1
 48
0.04
100
AcDbVertex
100
AcDb2dVertex
 10
364.2680004181808
 20
268.3846587838814
 30
0.0
  0
VERTEX
  5
152B
330
151E
100
AcDbEntity
  8
1
 48
0.04
100
AcDbVertex
100
AcDb2dVertex
 10
364.3170431980637
 20
268.3863768249734
 30
0.0
  0
VERTEX
  5
152C
330
151E
100
AcDbEntity
  8
1
 48
0.04
100
AcDbVertex
100
AcDb2dVertex
 10
364.3653965108584
 20
268.394955645942
 30
0.0
  0
VERTEX
  5
152D
330
151E
100
AcDbEntity
  8
1
 48
0.04
100
AcDbVertex
100
AcDb2dVertex
 10
364.412122202323
 20
268.4102256933298
 30
0.0
  0
VERTEX
  5
152E
330
151E
100
AcDbEntity
  8
1
 48
0.04
100
AcDbVertex
100
AcDb2dVertex
 10
364.4563047887729
 20
268.4318818168446
 30
0.0
  0
VERTEX
  5
152F
330
151E
100
AcDbEntity
  8
1
 48
0.04
100
AcDbVertex
100
AcDb2dVertex
 10
364.4970852496621
 20
268.4595058414918
 30
0.0
  0
VERTEX
  5
1530
330
151E
100
AcDbEntity
  8
1
 48
0.04
100
AcDbVertex
100
AcDb2dVertex
 10
364.5336836325236
 20
268.4925664691499
 30
0.0
  0
VERTEX
  5
1531
330
151E
100
AcDbEntity
  8
1
 48
0.04
100
AcDbVertex
100
AcDb2dVertex
 10
364.5653766448795
 20
268.5304194754198
 30
0.0
  0
VERTEX
  5
1532
330
151E
100
AcDbEntity
  8
1
 48
0.04
100
AcDbVertex
100
AcDb2dVertex
 10
364.5915426016544
 20
268.5723188972661
 30
0.0
  0
VERTEX
  5
1533
330
151E
100
AcDbEntity
  8
1
 48
0.04
100
AcDbVertex
100
AcDb2dVertex
 10
364.6116728424753
 20
268.6174509240238
 30
0.0
  0
VERTEX
  5
1534
330
151E
100
AcDbEntity
  8
1
 48
0.04
100
AcDbVertex
100
AcDb2dVertex
 10
364.6253944350371
 20
268.6649452162725
 30
0.0
  0
VERTEX
  5
1535
330
151E
100
AcDbEntity
  8
1
 48
0.04
100
AcDbVertex
100
AcDb2dVertex
 10
364.6324134494971
 20
268.7138749714533
 30
0.0
  0
VERTEX
  5
1536
330
151E
100
AcDbEntity
  8
1
 48
0.04
100
AcDbVertex
100
AcDb2dVertex
 10
364.6326056078952
 20
268.7632794303837
 30
0.0
  0
VERTEX
  5
1537
330
151E
100
AcDbEntity
  8
1
 48
0.04
100
AcDbVertex
100
AcDb2dVertex
 10
364.6259708774231
 20
268.8122091855644
 30
0.0
  0
VERTEX
  5
1538
330
151E
100
AcDbEntity
  8
1
 48
0.04
100
AcDbVertex
100
AcDb2dVertex
 10
364.6126448877236
 20
268.8597034778131
 30
0.0
  0
VERTEX
  5
1539
330
151E
100
AcDbEntity
  8
1
 48
0.04
100
AcDbVertex
100
AcDb2dVertex
 10
364.5928650070757
 20
268.9048355045708
 30
0.0
  0
VERTEX
  5
153A
330
151E
100
AcDbEntity
  8
1
 48
0.04
100
AcDbVertex
100
AcDb2dVertex
 10
364.5670268711501
 20
268.9467349264171
 30
0.0
  0
VERTEX
  5
153B
330
151E
100
AcDbEntity
  8
1
 48
0.04
100
AcDbVertex
100
AcDb2dVertex
 10
364.5356503279607
 20
268.984587932687
 30
0.0
  0
VERTEX
  5
153C
330
151E
100
AcDbEntity
  8
1
 48
0.04
100
AcDbVertex
100
AcDb2dVertex
 10
364.4993118855103
 20
269.0176485931534
 30
0.0
  0
VERTEX
  5
153D
330
151E
100
AcDbEntity
  8
1
 48
0.04
100
AcDbVertex
100
AcDb2dVertex
 10
364.4587461879597
 20
269.0452725849923
 30
0.0
  0
VERTEX
  5
153E
330
151E
100
AcDbEntity
  8
1
 48
0.04
100
AcDbVertex
100
AcDb2dVertex
 10
364.4147331549675
 20
269.0669287085071
 30
0.0
  0
VERTEX
  5
153F
330
151E
100
AcDbEntity
  8
1
 48
0.04
100
AcDbVertex
100
AcDb2dVertex
 10
364.3681317742712
 20
269.0821987887032
 30
0.0
  0
VERTEX
  5
1540
330
151E
100
AcDbEntity
  8
1
 48
0.04
100
AcDbVertex
100
AcDb2dVertex
 10
364.319846276298
 20
269.0907775768636
 30
0.0
  0
VERTEX
  5
1541
330
151E
100
AcDbEntity
  8
1
 48
0.04
100
AcDbVertex
100
AcDb2dVertex
 10
364.2708261013555
 20
269.0925069040216
 30
0.0
  0
VERTEX
  5
1542
330
151E
100
AcDbEntity
  8
1
 48
0.04
100
AcDbVertex
100
AcDb2dVertex
 10
364.2220094036854
 20
269.087341527488
 30
0.0
  0
VERTEX
  5
1543
330
151E
100
AcDbEntity
  8
1
 48
0.04
100
AcDbVertex
100
AcDb2dVertex
 10
364.1743455579791
 20
269.075383185899
 30
0.0
  0
VERTEX
  5
1544
330
151E
100
AcDbEntity
  8
1
 48
0.04
100
AcDbVertex
100
AcDb2dVertex
 10
364.1287840373526
 20
269.0568805335999
 30
0.0
  0
VERTEX
  5
1545
330
151E
100
AcDbEntity
  8
1
 48
0.04
100
AcDbVertex
100
AcDb2dVertex
 10
364.0861951484179
 20
269.0321726446975
 30
0.0
  0
VERTEX
  5
1546
330
151E
100
AcDbEntity
  8
1
 48
0.04
100
AcDbVertex
100
AcDb2dVertex
 10
364.0474039879062
 20
269.0017568606904
 30
0.0
  0
VERTEX
  5
1547
330
151E
100
AcDbEntity
  8
1
 48
0.04
100
AcDbVertex
100
AcDb2dVertex
 10
364.0131904754761
 20
268.9662096239645
 30
0.0
  0
VERTEX
  5
1548
330
151E
100
AcDbEntity
  8
1
 48
0.04
100
AcDbVertex
100
AcDb2dVertex
 10
363.9841875166522
 20
268.9262429737404
 30
0.0
  0
VERTEX
  5
1549
330
151E
100
AcDbEntity
  8
1
 48
0.04
100
AcDbVertex
100
AcDb2dVertex
 10
363.9609829055031
 20
268.8826255436104
 30
0.0
  0
VERTEX
  5
154A
330
151E
100
AcDbEntity
  8
1
 48
0.04
100
AcDbVertex
100
AcDb2dVertex
 10
363.9440061358978
 20
268.8361936835636
 30
0.0
  0
VERTEX
  5
154B
330
151E
100
AcDbEntity
  8
1
 48
0.04
100
AcDbVertex
100
AcDb2dVertex
 10
363.9336188868837
 20
268.7878629757094
 30
0.0
  0
VERTEX
  5
154C
330
151E
100
AcDbEntity
  8
1
 48
0.04
100
AcDbVertex
100
AcDb2dVertex
 10
363.930001965176
 20
268.7385828603557
 30
0.0
  0
SEQEND
  5
154D
330
151E
100
AcDbEntity
  8
1
 48
0.04
  0
POLYLINE
  5
154E
330
18
100
AcDbEntity
  8
1
 48
0.04
100
AcDb2dPolyline
 66
     1
 10
0.0
 20
0.0
 30
0.0
  0
VERTEX
  5
154F
330
154E
100
AcDbEntity
  8
1
 48
0.04
100
AcDbVertex
100
AcDb2dVertex
 10
364.479125115934
 20
268.7327958315552
 30
0.0
  0
VERTEX
  5
1550
330
154E
100
AcDbEntity
  8
1
 48
0.04
100
AcDbVertex
100
AcDb2dVertex
 10
364.4756099328627
 20
268.6982432122097
 30
0.0
  0
VERTEX
  5
1551
330
154E
100
AcDbEntity
  8
1
 48
0.04
100
AcDbVertex
100
AcDb2dVertex
 10
364.4654713381937
 20
268.6650243499684
 30
0.0
  0
VERTEX
  5
1552
330
154E
100
AcDbEntity
  8
1
 48
0.04
100
AcDbVertex
100
AcDb2dVertex
 10
364.4490936159148
 20
268.6344164075631
 30
0.0
  0
VERTEX
  5
1553
330
154E
100
AcDbEntity
  8
1
 48
0.04
100
AcDbVertex
100
AcDb2dVertex
 10
364.4271209904252
 20
268.6075835886403
 30
0.0
  0
VERTEX
  5
1554
330
154E
100
AcDbEntity
  8
1
 48
0.04
100
AcDbVertex
100
AcDb2dVertex
 10
364.4003899101388
 20
268.5855657860782
 30
0.0
  0
VERTEX
  5
1555
330
154E
100
AcDbEntity
  8
1
 48
0.04
100
AcDbVertex
100
AcDb2dVertex
 10
364.3699176301846
 20
268.5691993498654
 30
0.0
  0
VERTEX
  5
1556
330
154E
100
AcDbEntity
  8
1
 48
0.04
100
AcDbVertex
100
AcDb2dVertex
 10
364.336890893533
 20
268.5591285700178
 30
0.0
  0
VERTEX
  5
1557
330
154E
100
AcDbEntity
  8
1
 48
0.04
100
AcDbVertex
100
AcDb2dVertex
 10
364.3025756424667
 20
268.5557151255827
 30
0.0
  0
VERTEX
  5
1558
330
154E
100
AcDbEntity
  8
1
 48
0.04
100
AcDbVertex
100
AcDb2dVertex
 10
364.2682829963407
 20
268.5591285700178
 30
0.0
  0
VERTEX
  5
1559
330
154E
100
AcDbEntity
  8
1
 48
0.04
100
AcDbVertex
100
AcDb2dVertex
 10
364.2353353605766
 20
268.5691993498654
 30
0.0
  0
VERTEX
  5
155A
330
154E
100
AcDbEntity
  8
1
 48
0.04
100
AcDbVertex
100
AcDb2dVertex
 10
364.2049987102652
 20
268.5855657860782
 30
0.0
  0
VERTEX
  5
155B
330
154E
100
AcDbEntity
  8
1
 48
0.04
100
AcDbVertex
100
AcDb2dVertex
 10
364.1784371506281
 20
268.6075835886403
 30
0.0
  0
VERTEX
  5
155C
330
154E
100
AcDbEntity
  8
1
 48
0.04
100
AcDbVertex
100
AcDb2dVertex
 10
364.156679288477
 20
268.6344164075631
 30
0.0
  0
VERTEX
  5
155D
330
154E
100
AcDbEntity
  8
1
 48
0.04
100
AcDbVertex
100
AcDb2dVertex
 10
364.1405502205433
 20
268.6650243499684
 30
0.0
  0
VERTEX
  5
155E
330
154E
100
AcDbEntity
  8
1
 48
0.04
100
AcDbVertex
100
AcDb2dVertex
 10
364.1306829179682
 20
268.6982432122097
 30
0.0
  0
VERTEX
  5
155F
330
154E
100
AcDbEntity
  8
1
 48
0.04
100
AcDbVertex
100
AcDb2dVertex
 10
364.1274389941824
 20
268.7327958315552
 30
0.0
  0
VERTEX
  5
1560
330
154E
100
AcDbEntity
  8
1
 48
0.04
100
AcDbVertex
100
AcDb2dVertex
 10
364.1309541772538
 20
268.7673371320262
 30
0.0
  0
VERTEX
  5
1561
330
154E
100
AcDbEntity
  8
1
 48
0.04
100
AcDbVertex
100
AcDb2dVertex
 10
364.1410927719228
 20
268.8005560270759
 30
0.0
  0
VERTEX
  5
1562
330
154E
100
AcDbEntity
  8
1
 48
0.04
100
AcDbVertex
100
AcDb2dVertex
 10
364.1574704942017
 20
268.8311639694811
 30
0.0
  0
VERTEX
  5
1563
330
154E
100
AcDbEntity
  8
1
 48
0.04
100
AcDbVertex
100
AcDb2dVertex
 10
364.1794431196913
 20
268.8579967555956
 30
0.0
  0
VERTEX
  5
1564
330
154E
100
AcDbEntity
  8
1
 48
0.04
100
AcDbVertex
100
AcDb2dVertex
 10
364.2061741999777
 20
268.8800258770321
 30
0.0
  0
VERTEX
  5
1565
330
154E
100
AcDbEntity
  8
1
 48
0.04
100
AcDbVertex
100
AcDb2dVertex
 10
364.2366351938658
 20
268.8963810271788
 30
0.0
  0
VERTEX
  5
1566
330
154E
100
AcDbEntity
  8
1
 48
0.04
100
AcDbVertex
100
AcDb2dVertex
 10
364.2696619305174
 20
268.9064630930925
 30
0.0
  0
VERTEX
  5
1567
330
154E
100
AcDbEntity
  8
1
 48
0.04
100
AcDbVertex
100
AcDb2dVertex
 10
364.3039884676498
 20
268.9098652514616
 30
0.0
  0
VERTEX
  5
1568
330
154E
100
AcDbEntity
  8
1
 48
0.04
100
AcDbVertex
100
AcDb2dVertex
 10
364.3382811137757
 20
268.9064630930925
 30
0.0
  0
VERTEX
  5
1569
330
154E
100
AcDbEntity
  8
1
 48
0.04
100
AcDbVertex
100
AcDb2dVertex
 10
364.3712287495398
 20
268.8963810271788
 30
0.0
  0
VERTEX
  5
156A
330
154E
100
AcDbEntity
  8
1
 48
0.04
100
AcDbVertex
100
AcDb2dVertex
 10
364.4015541137851
 20
268.8800258770321
 30
0.0
  0
VERTEX
  5
156B
330
154E
100
AcDbEntity
  8
1
 48
0.04
100
AcDbVertex
100
AcDb2dVertex
 10
364.4281156406139
 20
268.8579967555956
 30
0.0
  0
VERTEX
  5
156C
330
154E
100
AcDbEntity
  8
1
 48
0.04
100
AcDbVertex
100
AcDb2dVertex
 10
364.4498848216394
 20
268.8311639694811
 30
0.0
  0
VERTEX
  5
156D
330
154E
100
AcDbEntity
  8
1
 48
0.04
100
AcDbVertex
100
AcDb2dVertex
 10
364.4660025706987
 20
268.8005560270759
 30
0.0
  0
VERTEX
  5
156E
330
154E
100
AcDbEntity
  8
1
 48
0.04
100
AcDbVertex
100
AcDb2dVertex
 10
364.4758812249566
 20
268.7673371320262
 30
0.0
  0
VERTEX
  5
156F
330
154E
100
AcDbEntity
  8
1
 48
0.04
100
AcDbVertex
100
AcDb2dVertex
 10
364.479125115934
 20
268.7327958315552
 30
0.0
  0
SEQEND
  5
1570
330
154E
100
AcDbEntity
  8
1
 48
0.04
  0
LINE
  5
1571
330
18
100
AcDbEntity
  8
1
 48
0.04
100
AcDbLine
 10
364.2738665478687
 20
268.6230119034197
 30
0.0
 11
364.3828819080284
 21
268.6526364817023
 31
0.0
  0
LINE
  5
1572
330
18
100
AcDbEntity
  8
1
 48
0.04
100
AcDbLine
 10
364.1942610682697
 20
268.7031712204642
 30
0.0
 11
364.2738665478687
 21
268.6230119034197
 31
0.0
  0
LINE
  5
1573
330
18
100
AcDbEntity
  8
SK4
 48
0.04
100
AcDbLine
 10
363.4669167543606
 20
267.6638972388114
 30
0.0
 11
365.3736906384063
 21
267.6638972388114
 31
0.0
  0
LINE
  5
1574
330
18
100
AcDbEntity
  8
1
 48
0.04
100
AcDbLine
 10
364.2236822020881
 20
268.812955181408
 30
0.0
 11
364.1942610682697
 21
268.7031712204642
 31
0.0
  0
LINE
  5
1575
330
18
100
AcDbEntity
  8
1
 48
0.04
100
AcDbLine
 10
364.2236822020881
 20
268.812955181408
 30
0.0
 11
364.3326975622477
 21
268.8425684736245
 31
0.0
  0
POLYLINE
  5
1576
330
18
100
AcDbEntity
  8
1
 48
0.04
100
AcDb2dPolyline
 66
     1
 10
0.0
 20
0.0
 30
0.0
  0
VERTEX
  5
1577
330
1576
100
AcDbEntity
  8
1
 48
0.04
100
AcDbVertex
100
AcDb2dVertex
 10
363.928555216178
 20
268.7389671443436
 30
0.0
  0
VERTEX
  5
1578
330
1576
100
AcDbEntity
  8
1
 48
0.04
100
AcDbVertex
100
AcDb2dVertex
 10
363.9320816853155
 20
268.6875620989695
 30
0.0
  0
VERTEX
  5
1579
330
1576
100
AcDbEntity
  8
1
 48
0.04
100
AcDbVertex
100
AcDb2dVertex
 10
363.9429775618942
 20
268.6372420907378
 30
0.0
  0
VERTEX
  5
157A
330
1576
100
AcDbEntity
  8
1
 48
0.04
100
AcDbVertex
100
AcDb2dVertex
 10
363.961016829318
 20
268.5890809363412
 30
0.0
  0
VERTEX
  5
157B
330
1576
100
AcDbEntity
  8
1
 48
0.04
100
AcDbVertex
100
AcDb2dVertex
 10
363.9858151379823
 20
268.5440958581007
 30
0.0
  0
VERTEX
  5
157C
330
1576
100
AcDbEntity
  8
1
 48
0.04
100
AcDbVertex
100
AcDb2dVertex
 10
364.0168525742563
 20
268.5032362963241
 30
0.0
  0
VERTEX
  5
157D
330
1576
100
AcDbEntity
  8
1
 48
0.04
100
AcDbVertex
100
AcDb2dVertex
 10
364.0534622759923
 20
268.4673725576234
 30
0.0
  0
VERTEX
  5
157E
330
1576
100
AcDbEntity
  8
1
 48
0.04
100
AcDbVertex
100
AcDb2dVertex
 10
364.0948869940889
 20
268.4372506378423
 30
0.0
  0
VERTEX
  5
157F
330
1576
100
AcDbEntity
  8
1
 48
0.04
100
AcDbVertex
100
AcDb2dVertex
 10
364.1402337513769
 20
268.4135373991286
 30
0.0
  0
VERTEX
  5
1580
330
1576
100
AcDbEntity
  8
1
 48
0.04
100
AcDbVertex
100
AcDb2dVertex
 10
364.1885418542906
 20
268.3967075780405
 30
0.0
  0
SEQEND
  5
1581
330
1576
100
AcDbEntity
  8
1
 48
0.04
  0
POLYLINE
  5
1582
330
18
100
AcDbEntity
  8
1
 48
0.04
100
AcDb2dPolyline
 66
     1
 10
0.0
 20
0.0
 30
0.0
  0
VERTEX
  5
1583
330
1582
100
AcDbEntity
  8
1
 48
0.04
100
AcDbVertex
100
AcDb2dVertex
 10
364.3719747125752
 20
269.0812154245805
 30
0.0
  0
VERTEX
  5
1584
330
1582
100
AcDbEntity
  8
1
 48
0.04
100
AcDbVertex
100
AcDb2dVertex
 10
364.3272157165477
 20
269.0901220335901
 30
0.0
  0
VERTEX
  5
1585
330
1582
100
AcDbEntity
  8
1
 48
0.04
100
AcDbVertex
100
AcDb2dVertex
 10
364.2816541959212
 20
269.093105951348
 30
0.0
  0
SEQEND
  5
1586
330
1582
100
AcDbEntity
  8
1
 48
0.04
  0
POLYLINE
  5
1587
330
18
100
AcDbEntity
  8
1
 48
0.04
100
AcDb2dPolyline
 66
     1
 10
0.0
 20
0.0
 30
0.0
  0
VERTEX
  5
1588
330
1587
100
AcDbEntity
  8
1
 48
0.04
100
AcDbVertex
100
AcDb2dVertex
 10
364.2816541959212
 20
269.093105951348
 30
0.0
  0
VERTEX
  5
1589
330
1587
100
AcDbEntity
  8
1
 48
0.04
100
AcDbVertex
100
AcDb2dVertex
 10
364.2315941609089
 20
269.0895003813231
 30
0.0
  0
VERTEX
  5
158A
330
1587
100
AcDbEntity
  8
1
 48
0.04
100
AcDbVertex
100
AcDb2dVertex
 10
364.182517457211
 20
269.0787627393277
 30
0.0
  0
VERTEX
  5
158B
330
1587
100
AcDbEntity
  8
1
 48
0.04
100
AcDbVertex
100
AcDb2dVertex
 10
364.135430086699
 20
269.0611077887001
 30
0.0
  0
VERTEX
  5
158C
330
1587
100
AcDbEntity
  8
1
 48
0.04
100
AcDbVertex
100
AcDb2dVertex
 10
364.0912927101301
 20
269.0368859224218
 30
0.0
  0
VERTEX
  5
158D
330
1587
100
AcDbEntity
  8
1
 48
0.04
100
AcDbVertex
100
AcDb2dVertex
 10
364.0510095907395
 20
269.0066057680574
 30
0.0
  0
VERTEX
  5
158E
330
1587
100
AcDbEntity
  8
1
 48
0.04
100
AcDbVertex
100
AcDb2dVertex
 10
364.0153832203178
 20
268.9708776589995
 30
0.0
  0
VERTEX
  5
158F
330
1587
100
AcDbEntity
  8
1
 48
0.04
100
AcDbVertex
100
AcDb2dVertex
 10
363.9851482758344
 20
268.9304249861513
 30
0.0
  0
VERTEX
  5
1590
330
1587
100
AcDbEntity
  8
1
 48
0.04
100
AcDbVertex
100
AcDb2dVertex
 10
363.9609264095561
 20
268.8860841651182
 30
0.0
  0
VERTEX
  5
1591
330
1587
100
AcDbEntity
  8
1
 48
0.04
100
AcDbVertex
100
AcDb2dVertex
 10
363.9432036441072
 20
268.8387368213867
 30
0.0
  0
VERTEX
  5
1592
330
1587
100
AcDbEntity
  8
1
 48
0.04
100
AcDbVertex
100
AcDb2dVertex
 10
363.9323416585349
 20
268.7893662534627
 30
0.0
  0
VERTEX
  5
1593
330
1587
100
AcDbEntity
  8
1
 48
0.04
100
AcDbVertex
100
AcDb2dVertex
 10
363.928555216178
 20
268.7389671443436
 30
0.0
  0
SEQEND
  5
1594
330
1587
100
AcDbEntity
  8
1
 48
0.04
  0
LINE
  5
1595
330
18
100
AcDbEntity
  8
1
 48
0.04
100
AcDbLine
 10
364.3326975622477
 20
268.8425684736245
 30
0.0
 11
364.4123030418467
 21
268.7624091237716
 31
0.0
  0
LINE
  5
1596
330
18
100
AcDbEntity
  8
1
 48
0.04
100
AcDbLine
 10
364.3828819080284
 20
268.6526364817023
 30
0.0
 11
364.4123030418467
 21
268.7624091237716
 31
0.0
  0
LINE
  5
1597
330
18
100
AcDbEntity
  8
1
 48
0.04
100
AcDbLine
 10
364.4123030418467
 20
268.7624091237716
 30
0.0
 11
364.3907034470873
 21
268.7681961525722
 31
0.0
  0
LINE
  5
1598
330
18
100
AcDbEntity
  8
1
 48
0.04
100
AcDbLine
 10
364.3612822804606
 20
268.6584235105028
 30
0.0
 11
364.3907034470873
 21
268.7681961525722
 31
0.0
  0
LINE
  5
1599
330
18
100
AcDbEntity
  8
1
 48
0.04
100
AcDbLine
 10
364.3828819080284
 20
268.6526364817023
 30
0.0
 11
364.3612822804606
 21
268.6584235105028
 31
0.0
  0
LINE
  5
159A
330
18
100
AcDbEntity
  8
1
 48
0.04
100
AcDbLine
 10
364.3612822804606
 20
268.6584235105028
 30
0.0
 11
364.2647565272033
 21
268.6321897389066
 31
0.0
  0
LINE
  5
159B
330
18
100
AcDbEntity
  8
1
 48
0.04
100
AcDbLine
 10
364.3907034470873
 20
268.7681961525722
 30
0.0
 11
364.3202079881537
 21
268.8391776341299
 31
0.0
  0
SPLINE
  5
159C
330
18
100
AcDbEntity
  8
1
 48
0.04
100
AcDbSpline
210
0.0
220
0.0
230
1.0
 70
     8
 71
     3
 72
     8
 73
     4
 74
     0
 42
0.00000001
 43
0.0000000001
 40
0.0
 40
0.0
 40
0.0
 40
0.0
 40
1.0
 40
1.0
 40
1.0
 40
1.0
 10
363.7693272625348
 20
267.5025782676137
 30
0.0
 10
363.7910681666089
 20
267.5025782676137
 30
0.0
 10
363.8086948574867
 20
267.5202049584915
 30
0.0
 10
363.8086948574867
 20
267.5419458625656
 30
0.0
  0
SPLINE
  5
159D
330
18
100
AcDbEntity
  8
1
 48
0.04
100
AcDbSpline
210
0.0
220
0.0
230
1.0
 70
     8
 71
     3
 72
     8
 73
     4
 74
     0
 42
0.00000001
 43
0.0000000001
 40
0.0
 40
0.0
 40
0.0
 40
0.0
 40
1.0
 40
1.0
 40
1.0
 40
1.0
 10
363.8086948574867
 20
267.7858486278446
 30
0.0
 10
363.8086948574867
 20
267.8075895319186
 30
0.0
 10
363.7910681666089
 20
267.8252162227964
 30
0.0
 10
363.7693272625348
 20
267.8252162227964
 30
0.0
  0
SPLINE
  5
159E
330
18
100
AcDbEntity
  8
1
 48
0.04
100
AcDbSpline
210
0.0
220
0.0
230
1.0
 70
     8
 71
     3
 72
     8
 73
     4
 74
     0
 42
0.00000001
 43
0.0000000001
 40
0.0
 40
0.0
 40
0.0
 40
0.0
 40
1.0
 40
1.0
 40
1.0
 40
1.0
 10
364.3868152796504
 20
268.38425189501
 30
0.0
 10
364.4338122534689
 20
268.3467040482026
 30
0.0
 10
364.5015159266706
 20
268.3504791778936
 30
0.0
 10
364.5440483010042
 20
268.3930115522273
 30
0.0
  0
SPLINE
  5
159F
330
18
100
AcDbEntity
  8
1
 48
0.04
100
AcDbSpline
210
0.0
220
0.0
230
1.0
 70
     8
 71
     3
 72
     8
 73
     4
 74
     0
 42
0.00000001
 43
0.0000000001
 40
0.0
 40
0.0
 40
0.0
 40
0.0
 40
1.0
 40
1.0
 40
1.0
 40
1.0
 10
365.1166473134252
 20
266.6605152450147
 30
0.0
 10
365.122897752704
 20
266.6667600329019
 30
0.0
 10
365.1251357038383
 20
266.6759718014593
 30
0.0
 10
365.1224569441473
 20
266.6843867237797
 30
0.0
  0
SPLINE
  5
15A0
330
18
100
AcDbEntity
  8
1
 48
0.04
100
AcDbSpline
210
0.0
220
0.0
230
1.0
 70
     8
 71
     3
 72
    11
 73
     7
 74
     0
 42
0.00000001
 43
0.0000000001
 40
0.0
 40
0.0
 40
0.0
 40
0.0
 40
1.0
 40
1.0
 40
1.0
 40
2.0
 40
2.0
 40
2.0
 40
2.0
 10
364.6142272837939
 20
266.2000228907994
 30
0.0
 10
364.6207942010109
 20
266.1887540156438
 30
0.0
 10
364.6352504611153
 20
266.1849336748188
 30
0.0
 10
364.6465193362709
 20
266.1915005920358
 30
0.0
 10
364.6482825704978
 20
266.1925234939431
 30
0.0
 10
364.6498988685392
 20
266.1937724515206
 30
0.0
 10
364.651345624828
 20
266.1952079050258
 30
0.0
  0
SPLINE
  5
15A1
330
18
100
AcDbEntity
  8
1
 48
0.04
100
AcDbSpline
210
0.0
220
0.0
230
1.0
 70
     8
 71
     3
 72
    11
 73
     7
 74
     0
 42
0.00000001
 43
0.0000000001
 40
0.0
 40
0.0
 40
0.0
 40
0.0
 40
1.0
 40
1.0
 40
1.0
 40
2.0
 40
2.0
 40
2.0
 40
2.0
 10
364.5894289767814
 20
266.1485726202795
 30
0.0
 10
364.5939274846168
 20
266.1317710325976
 30
0.0
 10
364.6111981378142
 20
266.1217963261535
 30
0.0
 10
364.6280053768878
 20
266.1263004853806
 30
0.0
 10
364.6333402907028
 20
266.1277302874942
 30
0.0
 10
364.6382117903939
 20
266.1305446805872
 30
0.0
 10
364.642122553487
 20
266.1344497922886
 30
0.0
  0
SPLINE
  5
15A2
330
18
100
AcDbEntity
  8
1
 48
0.04
100
AcDbSpline
210
0.0
220
0.0
230
1.0
 70
     8
 71
     3
 72
     8
 73
     4
 74
     0
 42
0.00000001
 43
0.0000000001
 40
0.0
 40
0.0
 40
0.0
 40
0.0
 40
1.0
 40
1.0
 40
1.0
 40
1.0
 10
364.4127777733639
 20
268.4104969583113
 30
0.0
 10
364.4189603959418
 20
268.408145979342
 30
0.0
 10
364.4257194604785
 20
268.4078068958368
 30
0.0
 10
364.4320942303759
 20
268.4095249189297
 30
0.0
  0
SPLINE
  5
15A3
330
18
100
AcDbEntity
  8
1
 48
0.04
100
AcDbSpline
210
0.0
220
0.0
230
1.0
 70
     8
 71
     3
 72
    11
 73
     7
 74
     0
 42
0.00000001
 43
0.0000000001
 40
0.0
 40
0.0
 40
0.0
 40
0.0
 40
1.0
 40
1.0
 40
1.0
 40
2.0
 40
2.0
 40
2.0
 40
2.0
 10
364.642122553487
 20
269.1933390467299
 30
0.0
 10
364.6298251250323
 20
269.2056364751845
 30
0.0
 10
364.609875712144
 20
269.2056364751845
 30
0.0
 10
364.5975782836893
 20
269.1933390467299
 30
0.0
 10
364.5936675205962
 20
269.1894282836368
 30
0.0
 10
364.5908531275031
 20
269.1845680867291
 30
0.0
 10
364.5894289767814
 20
269.1792218701307
 30
0.0
  0
SPLINE
  5
15A4
330
18
100
AcDbEntity
  8
1
 48
0.04
100
AcDbSpline
210
0.0
220
0.0
230
1.0
 70
     9
 71
     3
 72
    17
 73
    13
 74
     0
 42
0.00000001
 43
0.0000000001
 40
0.0
 40
0.0
 40
0.0
 40
0.0
 40
1.0
 40
1.0
 40
1.0
 40
2.0
 40
2.0
 40
2.0
 40
3.0
 40
3.0
 40
3.0
 40
4.0
 40
4.0
 40
4.0
 40
4.0
 10
364.6739059807063
 20
266.5788413313994
 30
0.0
 10
364.6739059807063
 20
266.5462214982007
 30
0.0
 10
364.7003431913271
 20
266.5197842875798
 30
0.0
 10
364.7329517217423
 20
266.5197842875798
 30
0.0
 10
364.765571554941
 20
266.5197842875798
 30
0.0
 10
364.7920087655619
 20
266.5462214982007
 30
0.0
 10
364.7920087655619
 20
266.5788413313994
 30
0.0
 10
364.7920087655619
 20
266.6114555132064
 30
0.0
 10
364.765571554941
 20
266.6378927238272
 30
0.0
 10
364.7329517217423
 20
266.6378927238272
 30
0.0
 10
364.7003431913271
 20
266.6378927238272
 30
0.0
 10
364.6739059807063
 20
266.6114555132064
 30
0.0
 10
364.6739059807063
 20
266.5788413313994
 30
0.0
  0
SPLINE
  5
15A5
330
18
100
AcDbEntity
  8
1
 48
0.04
100
AcDbSpline
210
0.0
220
0.0
230
1.0
 70
     8
 71
     3
 72
     8
 73
     4
 74
     0
 42
0.00000001
 43
0.0000000001
 40
0.0
 40
0.0
 40
0.0
 40
0.0
 40
1.0
 40
1.0
 40
1.0
 40
1.0
 10
363.8693512451724
 20
266.731892322856
 30
0.0
 10
363.8619818303263
 20
266.7363456195574
 30
0.0
 10
363.8535273482637
 20
266.7387022499184
 30
0.0
 10
363.8449146272321
 20
266.7387022499184
 30
0.0
  0
SPLINE
  5
15A6
330
18
100
AcDbEntity
  8
1
 48
0.04
100
AcDbSpline
210
0.0
220
0.0
230
1.0
 70
     8
 71
     3
 72
     8
 73
     4
 74
     0
 42
0.00000001
 43
0.0000000001
 40
0.0
 40
0.0
 40
0.0
 40
0.0
 40
1.0
 40
1.0
 40
1.0
 40
1.0
 10
363.8449146272321
 20
268.5890922404918
 30
0.0
 10
363.8535499538308
 20
268.5890922404918
 30
0.0
 10
363.8620044358934
 20
268.5914545222445
 30
0.0
 10
363.8693851535229
 20
268.5959191217294
 30
0.0
  0
ARC
  5
15A7
102
{ACAD_REACTORS
330
15BC
102
}
330
18
100
AcDbEntity
  8
1
 48
0.04
100
AcDbCircle
 10
365.1550801104252
 20
268.6358450152998
 30
0.0
 40
0.0314920412231368
100
AcDbArc
 50
284.9910227771518
 51
45.01306246332201
  0
ARC
  5
15A8
330
18
100
AcDbEntity
  8
1
 48
0.04
100
AcDbCircle
 10
365.1550680624229
 20
266.6919462527344
 30
0.0
 40
0.0314982839902554
100
AcDbArc
 50
315.0065649922052
 51
74.98934971213954
  0
LINE
  5
15A9
330
18
100
AcDbEntity
  8
1
 48
0.04
100
AcDbLine
 10
363.8086948574867
 20
267.7858486278446
 30
0.0
 11
363.8086948574867
 21
267.5419458625656
 31
0.0
  0
LINE
  5
15AA
330
18
100
AcDbEntity
  8
4
 48
0.04
100
AcDbLine
 10
363.6173669771555
 20
267.6638972388114
 30
0.0
 11
365.3736906384063
 21
267.6638972388114
 31
0.0
  0
LINE
  5
15AB
102
{ACAD_REACTORS
330
15C4
102
}
330
18
100
AcDbEntity
  8
SK3
 48
0.04
100
AcDbLine
 10
363.6173669771555
 20
267.2888979888115
 30
0.0
 11
364.0968875805325
 21
267.2888979888115
 31
0.0
  0
LINE
  5
15AC
102
{ACAD_REACTORS
330
15C4
102
}
330
18
100
AcDbEntity
  8
SK3
 48
0.04
100
AcDbLine
 10
363.6173669771555
 20
268.0388964888115
 30
0.0
 11
364.0968875805325
 21
268.0388964888115
 31
0.0
  0
DIMENSION
  5
15AD
102
{ACAD_XDICTIONARY
360
15AE
102
}
102
{ACAD_REACTORS
330
15AF
102
}
330
18
100
AcDbEntity
  8
SK2
 48
0.04
100
AcDbDimension
  2
*D14
 10
362.9006340764876
 20
266.7387022552156
 30
0.0
 11
362.9006340764876
 21
267.6703615566658
 31
0.0
 70
   160
  1
%%c<>
 71
     5
 42
1.850390000000004
  3
STANDARD
100
AcDbAlignedDimension
 13
363.6559433743286
 23
268.5890922552157
 33
0.0
 14
363.6559433743286
 24
266.7387022552156
 34
0.0
 50
90.0
100
AcDbRotatedDimension
1001
ACAD
1000
DSTYLE
1002
{
1070
   286
1070
     8
1070
   274
1070
     3
1070
   284
1070
     8
1070
   283
1070
     1
1070
   146
1040
0.7071069999999999
1070
   272
1070
     2
1070
    47
1040
0.0
1070
    48
1040
0.000000001
1070
    72
1070
     0
1070
    71
1070
     0
1002
}
  0
DIMENSION
  5
15B0
330
18
100
AcDbEntity
  8
2
 48
0.04
100
AcDbDimension
  2
*D12
 10
365.686568469259
 20
266.6788992088115
 30
0.0
 11
365.5232164515078
 21
267.6638972388115
 31
0.0
 70
    32
  1
%%c<>
 71
     5
 42
1.969996059999971
  3
STANDARD
100
AcDbAlignedDimension
 13
365.1852174911866
 23
268.6488952688114
 33
0.0
 14
365.1856288742941
 24
266.6788992088115
 34
0.0
 50
90.0
100
AcDbRotatedDimension
1001
ACAD
1000
DSTYLE
1002
{
1070
   286
1070
     8
1070
   274
1070
     3
1070
   284
1070
     8
1070
   283
1070
     1
1070
   146
1040
0.7071069999999999
1070
   272
1070
     2
1070
    47
1040
0.0
1070
    48
1040
0.000000001
1070
    72
1070
     0
1070
    71
1070
     0
1002
}
  0
DIMENSION
  5
15B1
330
18
100
AcDbEntity
  8
2
 48
0.04
100
AcDbDimension
  2
*D13
 10
366.0923297741615
 20
269.1388942888115
 30
0.0
 11
366.0923297741614
 21
267.6638972388114
 31
0.0
 70
   160
  1
%%c<>
 71
     5
 42
2.949994100000026
  3
STANDARD
100
AcDbAlignedDimension
 13
364.7011006992514
 23
266.1889001888114
 33
0.0
 14
364.6984322783183
 24
269.1388942888115
 34
0.0
 50
90.0
100
AcDbRotatedDimension
1001
ACAD
1000
DSTYLE
1002
{
1070
   286
1070
     8
1070
   274
1070
     3
1070
   284
1070
     8
1070
   283
1070
     1
1070
   146
1040
0.7071069999999999
1070
   272
1070
     2
1070
    47
1040
0.0
1070
    48
1040
0.000000001
1070
    72
1070
     0
1070
    71
1070
     0
1002
}
  0
LINE
  5
15B2
330
18
100
AcDbEntity
  8
1
 48
0.04
100
AcDbLine
 10
363.8921602777806
 20
267.3145056005377
 30
0.0
 11
363.8921602777806
 21
266.3923453876139
 31
0.0
  0
LINE
  5
15B3
330
18
100
AcDbEntity
  8
1
 48
0.04
100
AcDbLine
 10
365.1401910158543
 20
267.6481468118326
 30
0.0
 11
365.1401910158543
 21
266.6902189558112
 31
0.0
  0
LINE
  5
15B4
330
18
100
AcDbEntity
  8
1
 48
0.04
100
AcDbLine
 10
363.8694190515069
 20
267.6796476657904
 30
0.0
 11
364.5821386839546
 21
267.6796476657904
 31
0.0
  0
LINE
  5
15B5
330
18
100
AcDbEntity
  8
1
 48
0.04
100
AcDbLine
 10
365.1455146269711
 20
267.8513765126725
 30
0.0
 11
364.6135151943356
 21
267.8513765126725
 31
0.0
  0
LINE
  5
15B6
330
18
100
AcDbEntity
  8
1
 48
0.04
100
AcDbLine
 10
364.5894289905085
 20
267.6638972388114
 30
0.0
 11
365.1865663471459
 21
267.6638972388114
 31
0.0
  0
DIMENSION
  5
15B7
102
{ACAD_XDICTIONARY
360
15B8
102
}
102
{ACAD_REACTORS
330
15B9
102
}
330
18
100
AcDbEntity
  8
2
 48
0.04
100
AcDbDimension
  2
*D15
 10
365.1865721516484
 20
270.4476225619552
 30
0.0
 11
364.4110872110728
 21
270.4476225619552
 31
0.0
 70
   160
 71
     5
 42
1.570002023250424
  3
STANDARD
100
AcDbAlignedDimension
 13
363.6165701283979
 23
268.549724652318
 33
0.0
 14
365.1865721516484
 24
268.6670989228808
 34
0.0
100
AcDbRotatedDimension
1001
ACAD
1000
DSTYLE
1002
{
1070
   286
1070
     8
1070
   274
1070
     2
1070
   284
1070
     0
1070
   283
1070
     0
1070
   146
1040
0.7071069999999999
1070
   272
1070
     3
1070
    47
1040
0.0
1070
    48
1040
0.000000001
1070
    72
1070
     0
1070
    71
1070
     0
1002
}
  0
DIMENSION
  5
15BA
102
{ACAD_XDICTIONARY
360
15BB
102
}
102
{ACAD_REACTORS
330
15BC
102
}
330
18
100
AcDbEntity
  8
2
 48
0.04
100
AcDbDimension
  2
*D16
 10
364.6765731716483
 20
269.6381983520157
 30
0.0
 11
365.9508675226954
 21
269.6381983520157
 31
0.0
 70
   160
 71
     5
 42
0.5099989800000344
  3
STANDARD
100
AcDbAlignedDimension
 13
365.1865721516484
 23
268.6358450152998
 33
0.0
 14
364.6765731716483
 24
269.1591070046649
 34
0.0
100
AcDbRotatedDimension
1001
ACAD
1000
DSTYLE
1002
{
1070
   286
1070
     8
1070
   274
1070
     2
1070
   284
1070
     0
1070
   283
1070
     0
1070
   146
1040
0.7071069999999999
1070
   272
1070
     3
1070
    47
1040
0.0
1070
    48
1040
0.000000001
1070
    72
1070
     0
1070
    71
1070
     0
1002
}
  0
LINE
  5
15BD
102
{ACAD_REACTORS
330
15C0
102
}
330
18
100
AcDbEntity
  8
3
 48
0.04
100
AcDbLine
 10
365.1865721516484
 20
268.6358450152998
 30
0.0
 11
365.1865721516484
 21
268.6670989228808
 31
0.0
  0
DIMENSION
  5
15BE
102
{ACAD_XDICTIONARY
360
15BF
102
}
102
{ACAD_REACTORS
330
15C0
102
}
330
18
100
AcDbEntity
  8
2
 48
0.04
100
AcDbDimension
  2
*D17
 10
365.1865721516484
 20
268.6670989228808
 30
0.0
 11
364.6074340935955
 21
270.0573644527859
 31
0.0
 70
   162
 71
     5
 42
0.785398163395745
  3
STANDARD
100
AcDb2LineAngularDimension
 13
364.6421225502973
 23
269.1933390460748
 33
0.0
 14
365.1773432689698
 24
268.6581183274023
 34
0.0
 15
365.1865721516484
 25
268.6358450152998
 35
0.0
 16
364.4251257092399
 26
269.9677533702159
 36
0.0
1001
ACAD_DSTYLE_DIMINSPECT
1070
   396
1000
100%
1070
   395
1000

1070
   394
1070
    33
1070
   393
1070
     0
1001
ACAD
1000
DSTYLE
1002
{
1070
     3
1000

1002
}
  0
MTEXT
  5
15C1
330
18
100
AcDbEntity
  8
SK6
 48
0.04
100
AcDbMText
 10
363.6165701283979
 20
265.8583129794303
 30
0.0
 40
0.1377952755905512
 41
1.648304826762429
 71
     1
 72
     5
  1
R220.47-02.00\P42821
  7
STANDARD 3.5 mm
 73
     1
 44
1.0
1001
ACAD
1000
ACAD_MTEXT_COLUMN_INFO_BEGIN
1070
    75
1070
     2
1070
    79
1070
     0
1070
    76
1070
     1
1070
    78
1070
     0
1070
    48
1040
1.648304826762429
1070
    49
1040
25.0
1070
    50
1070
     1
1040
0.0
1000
ACAD_MTEXT_COLUMN_INFO_END
1000
MTEXTBEGIN
1070
    73
1070
     1
1070
    44
1040
1.0
1070
    74
1070
     0
1000
MTEXTEND
  0
DIMENSION
  5
15C2
102
{ACAD_XDICTIONARY
360
15C3
102
}
102
{ACAD_REACTORS
330
15C4
102
}
330
18
100
AcDbEntity
  8
SK2
 48
0.04
100
AcDbDimension
  2
*D18
 10
363.3675912176275
 20
267.2888979888115
 30
0.0
 11
363.3675912176274
 21
267.6638972388115
 31
0.0
 70
   160
  1
%%c<>
 71
     5
 42
0.7499985000000038
  3
STANDARD
100
AcDbAlignedDimension
 13
363.6173669771555
 23
268.0388964888115
 33
0.0
 14
363.6173669771555
 24
267.2888979888115
 34
0.0
 50
90.0
100
AcDbRotatedDimension
1001
ACAD_DSTYLE_DIMINSPECT
1070
   396
1000
100%
1070
   395
1000

1070
   394
1070
    33
1070
   393
1070
     0
1001
ACAD
1000
DSTYLE
1002
{
1070
   286
1070
     8
1070
   274
1070
     3
1070
   284
1070
     8
1070
   283
1070
     1
1070
   146
1040
0.7071069999999999
1070
   272
1070
     2
1070
    47
1040
0.0
1070
    48
1040
0.000000001
1070
    72
1070
     0
1070
    71
1070
     0
1002
}
  0
VIEWPORT
  5
B7D
102
{ACAD_XDICTIONARY
360
B7E
102
}
330
B76
100
AcDbEntity
 67
     1
  8
0
100
AcDbViewport
 10
148.5107508928981
 20
104.9919851296364
 30
0.0
 40
478.4423408046921
 41
231.5368674036399
 68
     1
 69
     1
 12
148.5107508928981
 22
104.9919851296364
 13
0.0
 23
0.0
 14
10.0
 24
10.0
 15
10.0
 25
10.0
 16
0.0
 26
0.0
 36
1.0
 17
0.0
 27
0.0
 37
0.0
 42
50.0
 43
0.0
 44
0.0
 45
231.5368674036399
 50
0.0
 51
0.0
 72
  2000
 90
   819232
  1

281
     0
 71
     1
 74
     0
110
0.0
120
0.0
130
0.0
111
1.0
121
0.0
131
0.0
112
0.0
122
1.0
132
0.0
 79
     0
146
0.0
  0
VIEWPORT
  5
B81
102
{ACAD_XDICTIONARY
360
B82
102
}
330
B76
100
AcDbEntity
 67
     1
  8
1
100
AcDbViewport
 10
148.5
 20
105.0
 30
0.0
 40
297.0
 41
210.0
 68
     2
 69
     2
 12
0.0947728278484874
 22
0.1902310545302228
 13
0.0
 23
0.0
 14
5.0
 24
5.0
 15
5.0
 25
5.0
 16
0.0
 26
0.0
 36
1.0
 17
0.0
 27
0.0
 37
0.0
 42
50.0
 43
0.0
 44
0.0
 45
210.0000006422834
 50
0.0
 51
0.0
 72
  2000
 90
   819232
  1

281
     0
 71
     1
 74
     0
110
0.0
120
0.0
130
0.0
111
1.0
121
0.0
131
0.0
112
0.0
122
1.0
132
0.0
 79
     0
146
0.0
  0
ENDSEC
  0
SECTION
  2
OBJECTS
  0
DICTIONARY
  5
C
330
0
100
AcDbDictionary
281
     1
  3
ACAD_2007HEADERVARS_RT
350
2416
  3
ACAD_CIP_PREVIOUS_PRODUCT_INFO
350
EB2
  3
ACAD_COLOR
350
387
  3
ACAD_DETAILVIEWSTYLE
350
EAA
  3
ACAD_FIELDLIST
350
ECE
  3
ACAD_GROUP
350
D
  3
ACAD_LAYOUT
350
301
  3
ACAD_MATERIAL
350
386
  3
ACAD_MLEADERSTYLE
350
46F
  3
ACAD_MLINESTYLE
350
E
  3
ACAD_PLOTSETTINGS
350
302
  3
ACAD_PLOTSTYLENAME
350
2FF
  3
ACAD_SCALELIST
350
44D
  3
ACAD_SECTIONVIEWSTYLE
350
EA8
  3
ACAD_TABLESTYLE
350
388
  3
ACAD_VISUALSTYLE
350
3F2
  3
ACDB_RECOMPOSE_DATA
350
2414
  3
AcDbVariableDictionary
350
357
  3
AcDsDecomposeData
350
241E
  3
AcmDictionary
350
4D1
  3
AMG
350
478
  3
AMGSNAPSETTINGS
350
51E
  3
DWGPROPS
350
2415
  0
DICTIONARY
  5
ACA
330
8
100
AcDbDictionary
280
     1
281
     1
  0
DICTIONARY
  5
43C
330
2
100
AcDbDictionary
280
     1
281
     1
  3
ACAD_LAYERFILTERS
360
B75
  3
ACAD_LAYERSTATES
360
567
  3
ACLYDICTIONARY
360
B74
  0
DICTIONARY
  5
52D
330
F
100
AcDbDictionary
280
     1
281
     1
  3
ADSK_XREC_LAYER_RECONCILED
360
2408
  0
DICTIONARY
  5
52F
330
23
100
AcDbDictionary
280
     1
281
     1
  3
ADSK_XREC_LAYER_RECONCILED
360
2409
  0
DICTIONARY
  5
533
330
25
100
AcDbDictionary
280
     1
281
     1
  3
ADSK_XREC_LAYER_RECONCILED
360
240A
  0
DICTIONARY
  5
537
330
27
100
AcDbDictionary
280
     1
281
     1
  3
ADSK_XREC_LAYER_RECONCILED
360
240B
  0
DICTIONARY
  5
539
330
28
100
AcDbDictionary
280
     1
281
     1
  3
ADSK_XREC_LAYER_RECONCILED
360
240C
  0
DICTIONARY
  5
53B
330
29
100
AcDbDictionary
280
     1
281
     1
  3
ADSK_XREC_LAYER_RECONCILED
360
240D
  0
DICTIONARY
  5
53D
330
2A
100
AcDbDictionary
280
     1
281
     1
  3
ADSK_XREC_LAYER_RECONCILED
360
240E
  0
DICTIONARY
  5
53F
330
2B
100
AcDbDictionary
280
     1
281
     1
  3
ADSK_XREC_LAYER_RECONCILED
360
240F
  0
DICTIONARY
  5
545
330
2E
100
AcDbDictionary
280
     1
281
     1
  3
ADSK_XREC_LAYER_RECONCILED
360
2410
  0
DICTIONARY
  5
15AE
330
15AD
100
AcDbDictionary
280
     1
281
     1
  3
ACAD_DIMASSOC
360
15AF
  0
DICTIONARY
  5
15B8
330
15B7
100
AcDbDictionary
280
     1
281
     1
  3
ACAD_DIMASSOC
360
15B9
  0
DICTIONARY
  5
15BB
330
15BA
100
AcDbDictionary
280
     1
281
     1
  3
ACAD_DIMASSOC
360
15BC
  0
DICTIONARY
  5
15BF
330
15BE
100
AcDbDictionary
280
     1
281
     1
  3
ACAD_DIMASSOC
360
15C0
  0
DICTIONARY
  5
15C3
330
15C2
100
AcDbDictionary
280
     1
281
     1
  3
ACAD_DIMASSOC
360
15C4
  0
DICTIONARY
  5
B7E
330
B7D
100
AcDbDictionary
280
     1
281
     1
  3
ACAD_XREC_ROUNDTRIP
360
2450
  3
ASDK_XREC_ANNOTATION_SCALE_INFO
360
B7F
  0
DICTIONARY
  5
B82
330
B81
100
AcDbDictionary
280
     1
281
     1
  3
ACAD_XREC_ROUNDTRIP
360
2451
  3
ASDK_XREC_ANNOTATION_SCALE_INFO
360
B83
  0
DICTIONARY
  5
2416
102
{ACAD_REACTORS
330
C
102
}
330
C
100
AcDbDictionary
281
     1
  3
DIMARCSYM
350
2417
  3
DIMJOGANG
350
2418
  0
XRECORD
  5
EB2
102
{ACAD_REACTORS
330
C
102
}
330
C
100
AcDbXrecord
280
     1
300
AMECH_PP
300
2014
300
86138AMECH_PP_2014_0F
  0
DICTIONARY
  5
387
102
{ACAD_REACTORS
330
C
102
}
330
C
100
AcDbDictionary
281
     1
  0
DICTIONARY
  5
EAA
102
{ACAD_REACTORS
330
C
102
}
330
C
100
AcDbDictionary
281
     1
  3
Imperial24
350
EAB
  3
Metric50
350
F5A
  0
FIELDLIST
  5
ECE
102
{ACAD_REACTORS
330
C
102
}
330
C
100
AcDbIdSet
 90
        6
330
ECC
330
ECD
330
ECF
330
ED7
330
ED8
330
ED9
100
AcDbFieldList
  0
DICTIONARY
  5
D
102
{ACAD_REACTORS
330
C
102
}
330
C
100
AcDbDictionary
281
     1
  0
DICTIONARY
  5
301
102
{ACAD_REACTORS
330
C
102
}
330
C
100
AcDbDictionary
281
     1
  3
Layout1
350
B77
  3
Model
350
303
  0
DICTIONARY
  5
386
102
{ACAD_REACTORS
330
C
102
}
330
C
100
AcDbDictionary
281
     1
  3
ByBlock
350
3F0
  3
ByLayer
350
3EF
  3
Global
350
3F1
  0
DICTIONARY
  5
46F
102
{ACAD_REACTORS
330
C
102
}
330
C
100
AcDbDictionary
281
     1
  3
Standard
350
470
  0
DICTIONARY
  5
E
102
{ACAD_REACTORS
330
C
102
}
330
C
100
AcDbDictionary
281
     1
  3
STANDARD
350
1B
  0
DICTIONARY
  5
302
102
{ACAD_REACTORS
330
C
102
}
330
C
100
AcDbDictionary
281
     1
  3
DWG To PDF ANSI A - landscape
350
7EF
  3
DWG To PDF ANSI A - portrait
350
7F8
  0
ACDBDICTIONARYWDFLT
  5
2FF
102
{ACAD_REACTORS
330
C
102
}
330
C
100
AcDbDictionary
281
     1
  3
Normal
350
300
100
AcDbDictionaryWithDefault
340
300
  0
DICTIONARY
  5
44D
102
{ACAD_REACTORS
330
C
102
}
330
C
100
AcDbDictionary
281
     1
  3
A0
350
CF4
  3
A1
350
CF5
  3
A2
350
CF6
  3
A3
350
CF7
  3
A4
350
CF8
  3
A5
350
CF9
  3
A6
350
44E
  3
A7
350
CFA
  3
A8
350
CFB
  3
A9
350
CFC
  3
B0
350
CFD
  3
B1
350
CFE
  3
B2
350
CFF
  3
B3
350
D00
  3
B4
350
D01
  3
B5
350
D02
  3
B6
350
D03
  3
B7
350
D04
  3
B8
350
D05
  3
B9
350
D06
  3
C0
350
D07
  3
C1
350
D08
  3
C2
350
D09
  3
C3
350
D0A
  3
C4
350
D0B
  3
C5
350
D0C
  3
C6
350
D0D
  3
C7
350
D0E
  3
C8
350
D0F
  0
DICTIONARY
  5
EA8
102
{ACAD_REACTORS
330
C
102
}
330
C
100
AcDbDictionary
281
     1
  3
Imperial24
350
EA9
  3
Metric50
350
F58
  0
DICTIONARY
  5
388
102
{ACAD_REACTORS
330
C
102
}
330
C
100
AcDbDictionary
281
     1
  3
Standard
350
389
  0
DICTIONARY
  5
3F2
102
{ACAD_REACTORS
330
C
102
}
330
C
100
AcDbDictionary
281
     1
  3
2dWireframe
350
3F8
  3
3D Hidden
350
3FA
  3
3dWireframe
350
3F9
  3
Basic
350
3F7
  3
Brighten
350
3FE
  3
ColorChange
350
402
  3
Conceptual
350
3FB
  3
Dim
350
3FD
  3
EdgeColorOff
350
C40
  3
Facepattern
350
401
  3
Flat
350
3F3
  3
FlatWithEdges
350
3F4
  3
Gouraud
350
3F5
  3
GouraudWithEdges
350
3F6
  3
Hidden
350
EA2
  3
JitterOff
350
C3E
  3
Linepattern
350
400
  3
OverhangOff
350
C3F
  3
Realistic
350
3FC
  3
Shaded
350
EA7
  3
Shaded with edges
350
EA6
  3
Shades of Gray
350
EA3
  3
Sketchy
350
EA4
  3
Thicken
350
3FF
  3
Wireframe
350
EA1
  3
X-Ray
350
EA5
  0
XRECORD
  5
2414
102
{ACAD_REACTORS
330
C
102
}
330
C
100
AcDbXrecord
280
     1
 90
        1
330
389
330
15C1
  0
DICTIONARY
  5
357
102
{ACAD_REACTORS
330
C
102
}
330
C
100
AcDbDictionary
281
     1
  3
CANNOSCALE
350
57C
  3
CMLEADERSTYLE
350
57A
  3
CTABLESTYLE
350
38E
  3
CVIEWDETAILSTYLE
350
EE7
  3
CVIEWSECTIONSTYLE
350
EE8
  3
DIMASSOC
350
359
  3
HIDETEXT
350
358
  3
INDEXCTL
350
B51
  3
LAYEREVAL
350
C52
  3
LAYERNOTIFY
350
C53
  3
LIGHTINGUNITS
350
57D
  3
MSLTSCALE
350
57B
  3
SOLIDHIST
350
2412
  3
SORTENTS
350
B50
  3
XCLIPFRAME
350
2411
  0
DICTIONARY
  5
241E
102
{ACAD_REACTORS
330
C
102
}
330
C
100
AcDbDictionary
281
     1
  3
AcDsRecords
350
2420
  3
AcDsSchemas
350
241F
1001
ACAD
1070
     2
  0
DICTIONARY
  5
4D1
102
{ACAD_REACTORS
330
C
102
}
330
C
100
AcDbDictionary
281
     1
  3
AcmStdDictionary
350
4DC
  3
AMDTSECTSYM_ARROWCOLOR
350
4F3
  0
DICTIONARY
  5
478
102
{ACAD_REACTORS
330
C
102
}
330
C
100
AcDbDictionary
281
     1
  0
DICTIONARY
  5
51E
102
{ACAD_REACTORS
330
C
102
}
330
C
100
AcDbDictionary
281
     1
  0
XRECORD
  5
2415
102
{ACAD_REACTORS
330
C
102
}
330
C
100
AcDbXrecord
280
     1
  1
DWGPROPS COOKIE
  2

  3

  4
Philippe Vogel
  6
Secotools DIN Template inch
  7

  8
Gururaj1027
  9

300
=
301
=
302
=
303
=
304
=
305
=
306
=
307
=
308
=
309
=
 40
0.0012336226851852
 41
2457164.75877228
 42
2457164.760005532
  1
http://www.secotools.com/
 90
        0
  0
DICTIONARY
  5
B75
102
{ACAD_REACTORS
330
43C
102
}
330
43C
100
AcDbDictionary
281
     1
  0
DICTIONARY
  5
567
102
{ACAD_REACTORS
330
43C
102
}
330
43C
100
AcDbDictionary
281
     1
  3
BMG3.0
350
9A5
  0
DICTIONARY
  5
B74
102
{ACAD_REACTORS
330
43C
102
}
330
43C
100
AcDbDictionary
281
     1
1001
ACAD
1000
<All
  0
XRECORD
  5
2408
102
{ACAD_REACTORS
330
52D
102
}
330
52D
100
AcDbXrecord
280
     1
290
     1
  0
XRECORD
  5
2409
102
{ACAD_REACTORS
330
52F
102
}
330
52F
100
AcDbXrecord
280
     1
290
     1
  0
XRECORD
  5
240A
102
{ACAD_REACTORS
330
533
102
}
330
533
100
AcDbXrecord
280
     1
290
     1
  0
XRECORD
  5
240B
102
{ACAD_REACTORS
330
537
102
}
330
537
100
AcDbXrecord
280
     1
290
     1
  0
XRECORD
  5
240C
102
{ACAD_REACTORS
330
539
102
}
330
539
100
AcDbXrecord
280
     1
290
     1
  0
XRECORD
  5
240D
102
{ACAD_REACTORS
330
53B
102
}
330
53B
100
AcDbXrecord
280
     1
290
     1
  0
XRECORD
  5
240E
102
{ACAD_REACTORS
330
53D
102
}
330
53D
100
AcDbXrecord
280
     1
290
     1
  0
XRECORD
  5
240F
102
{ACAD_REACTORS
330
53F
102
}
330
53F
100
AcDbXrecord
280
     1
290
     1
  0
XRECORD
  5
2410
102
{ACAD_REACTORS
330
545
102
}
330
545
100
AcDbXrecord
280
     1
290
     1
  0
DIMASSOC
  5
15AF
102
{ACAD_REACTORS
330
15AE
102
}
330
15AE
100
AcDbDimAssoc
330
15AD
 90
        3
 70
     0
 71
     0
  1
AcDbOsnapPointRef
 72
    13
331
139F
331
13A0
 73
     2
 91
        0
 40
0.0
 10
0.0
 20
0.0
 30
2.000000000000000E+50
 75
     0
  1
AcDbOsnapPointRef
 72
     1
331
13BA
331
13C9
 73
     2
 91
        0
 40
1.0
 10
0.0
 20
0.0
 30
2.000000000000000E+50
 75
     0
  0
DIMASSOC
  5
15B9
102
{ACAD_REACTORS
330
15B8
102
}
330
15B8
100
AcDbDimAssoc
330
15B7
 90
        1
 70
     0
 71
     0
  1
AcDbOsnapPointRef
 72
     1
331
139A
331
139B
 73
     2
 91
        0
 40
1.0
 10
0.0
 20
0.0
 30
2.000000000000000E+50
 75
     0
  0
DIMASSOC
  5
15BC
102
{ACAD_REACTORS
330
15BB
102
}
330
15BB
100
AcDbDimAssoc
330
15BA
 90
        1
 70
     0
 71
     0
  1
AcDbOsnapPointRef
 72
     5
331
15A7
 73
     2
 91
        0
 40
6.283185307179586
 10
0.0
 20
0.0
 30
0.0
 75
     0
  0
DIMASSOC
  5
15C0
102
{ACAD_REACTORS
330
15BF
102
}
330
15BF
100
AcDbDimAssoc
330
15BE
 90
       15
 70
     0
 71
     0
  1
AcDbOsnapPointRef
 72
    13
331
12D4
 73
     2
 91
        0
 40
0.0
 10
0.0
 20
0.0
 30
2.000000000000000E+50
 75
     0
  1
AcDbOsnapPointRef
 72
     1
331
12D4
 73
     2
 91
        0
 40
0.9999999999999998
 10
0.0
 20
0.0
 30
2.000000000000000E+50
 75
     0
  1
AcDbOsnapPointRef
 72
    13
331
15BD
 73
     2
 91
        0
 40
0.0
 10
0.0
 20
0.0
 30
2.000000000000000E+50
 75
     0
  1
AcDbOsnapPointRef
 72
     1
331
15BD
 73
     2
 91
        0
 40
1.0
 10
0.0
 20
0.0
 30
2.000000000000000E+50
 75
     0
  0
DIMASSOC
  5
15C4
102
{ACAD_REACTORS
330
15C3
102
}
330
15C3
100
AcDbDimAssoc
330
15C2
 90
        3
 70
     0
 71
     0
  1
AcDbOsnapPointRef
 72
    13
331
15AC
 73
     2
 91
        0
 40
0.0
 10
0.0
 20
0.0
 30
2.000000000000000E+50
 75
     0
  1
AcDbOsnapPointRef
 72
     8
331
15AB
 73
     2
 91
        0
 40
0.0
 10
0.0
 20
0.0
 30
0.0
 75
     1
  1
AcDbOsnapPointRef
 72
    13
331
15AC
 73
     2
 91
        0
 40
0.0
 10
0.0
 20
0.0
 30
2.000000000000000E+50
 75
     0
  0
XRECORD
  5
2450
102
{ACAD_REACTORS
330
B7E
102
}
330
B7E
100
AcDbXrecord
280
     1
102
SHADEPLOT
 70
     0
  0
XRECORD
  5
B7F
102
{ACAD_REACTORS
330
B7E
102
}
330
B7E
100
AcDbXrecord
280
     1
 90
        1
340
44E
  0
XRECORD
  5
2451
102
{ACAD_REACTORS
330
B82
102
}
330
B82
100
AcDbXrecord
280
     1
102
SHADEPLOT
 70
     0
  0
XRECORD
  5
B83
102
{ACAD_REACTORS
330
B82
102
}
330
B82
100
AcDbXrecord
280
     1
 90
        1
340
44E
  0
XRECORD
  5
2417
102
{ACAD_REACTORS
330
2416
102
}
330
2416
100
AcDbXrecord
280
     1
 70
     1
  0
XRECORD
  5
2418
102
{ACAD_REACTORS
330
2416
102
}
330
2416
100
AcDbXrecord
280
     1
 40
1.570796326794896
  0
ACDBDETAILVIEWSTYLE
  5
EAB
102
{ACAD_XDICTIONARY
360
EE2
102
}
102
{ACAD_REACTORS
330
EAA
330
EC0
102
}
330
EAA
100
AcDbModelDocViewStyle
 70
     0
  3
Imperial24
290
     0
100
AcDbDetailViewStyle
 70
     0
 71
     0
 90
        3
 71
     1
340
10
 40
0.24
340
0
 40
0.24
300

 40
0.36
280
     3
 71
     2
340
14
 90
       25
 71
     3
340
10
 40
0.24
 90
        1
 40
0.75
 90
        1
300
%<\AcVar ViewType \f "%tc1">% %<\AcVar ViewDetailId>%\PSCALE %<\AcVar ViewScale \f "%sn">%
 71
     4
340
14
 90
       25
340
14
 90
       25
280
     0
  0
ACDBDETAILVIEWSTYLE
  5
F5A
102
{ACAD_XDICTIONARY
360
F5B
102
}
102
{ACAD_REACTORS
330
EAA
330
1291
102
}
330
EAA
100
AcDbModelDocViewStyle
 70
     0
  3
Metric50
290
     0
100
AcDbDetailViewStyle
 70
     0
 71
     0
 90
        3
 71
     1
340
10
 40
5.0
340
0
 40
5.0
300

 40
0.0
280
     1
 71
     2
340
14
 90
       25
 71
     3
340
10
 40
5.0
 90
        0
 40
15.0
 90
        1
300
%<\AcVar ViewDetailId>% (%<\AcVar ViewScale \f "%sn">%)
 71
     4
340
14
 90
       25
340
14
 90
       25
280
     0
  0
LAYOUT
  5
B77
102
{ACAD_XDICTIONARY
360
B8D
102
}
102
{ACAD_REACTORS
330
301
102
}
330
301
100
AcDbPlotSettings
  1

  2
Default Windows System Printer.pc3
  4
A4
  6
AM_VIEW1
 40
4.233333110809326
 41
4.614340305328369
 42
4.233322143554687
 43
4.571990966796875
 44
209.8886566162109
 45
297.0530090332031
 46
0.0
 47
1.499209346090081
 48
0.0
 49
0.0
140
0.0
141
0.0
142
1.0
143
26.48373503677169
 70
   692
 72
     0
 73
     1
 74
     1
  7
monochrome.ctb
 75
     0
147
0.0377590244960364
148
0.575458434274492
149
0.4068898020113921
100
AcDbLayout
  1
Layout1
 70
     1
 71
     1
 10
-6.352894443934569
 20
-4.429974890987324
 11
303.3743962297308
 21
214.4139451502602
 12
0.0
 22
0.0
 32
0.0
 14
0.0
 24
0.0
 34
0.0
 15
297.0
 25
210.0
 35
0.0
146
0.0
 13
0.0
 23
0.0
 33
0.0
 16
1.0
 26
0.0
 36
0.0
 17
0.0
 27
1.0
 37
0.0
 76
     0
330
B76
331
B7D
1001
ACAD_PSEXT
1000
Default Windows System Printer.pc3
1000
HP Universal Printing PS
1000
Freiheitstraße, Ex Steinhof, Höfermann
1000
HP 5100 Universal PS
1070
     0
  0
LAYOUT
  5
303
102
{ACAD_XDICTIONARY
360
C50
102
}
102
{ACAD_REACTORS
330
301
102
}
330
301
100
AcDbPlotSettings
  1

  2
Default Windows System Printer.pc3
  4
A4
  6

 40
4.233333110809326
 41
4.614340305328369
 42
4.233322143554687
 43
4.571990966796875
 44
209.8886566162109
 45
297.0530090332031
 46
10.88322750438971
 47
-0.0000000000000226
 48
0.0
 49
0.0
140
0.0
141
0.0
142
1.0
143
60.7941153040473
 70
  3764
 72
     0
 73
     1
 74
     2
  7
monochrome.ctb
 75
     0
147
0.0164489604791309
148
4318.0
149
4318.0
100
AcDbLayout
  1
Model
 70
     1
 71
     0
 10
0.0
 20
0.0
 11
12.0
 21
9.0
 12
0.0
 22
0.0
 32
0.0
 14
0.0
 24
0.0
 34
0.0
 15
0.0
 25
0.0
 35
0.0
146
0.0
 13
0.0
 23
0.0
 33
0.0
 16
1.0
 26
0.0
 36
0.0
 17
0.0
 27
1.0
 37
0.0
 76
     0
330
18
331
B56
1001
ACAD_PSEXT
1000
Default Windows System Printer.pc3
1000
HP Universal Printing PS
1000
Freiheitstraße, Ex Steinhof, Höfermann
1000
HP 5100 Universal PS
1070
     0
  0
MATERIAL
  5
3F0
102
{ACAD_XDICTIONARY
360
2425
102
}
102
{ACAD_REACTORS
330
386
102
}
330
386
100
AcDbMaterial
  1
ByBlock
 73
     1
 78
     1
172
     1
176
     1
270
     1
274
     1
  0
MATERIAL
  5
3EF
102
{ACAD_XDICTIONARY
360
2423
102
}
102
{ACAD_REACTORS
330
386
102
}
330
386
100
AcDbMaterial
  1
ByLayer
 73
     1
 78
     1
172
     1
176
     1
270
     1
274
     1
  0
MATERIAL
  5
3F1
102
{ACAD_XDICTIONARY
360
2427
102
}
102
{ACAD_REACTORS
330
386
102
}
330
386
100
AcDbMaterial
  1
Global
 73
     1
 78
     1
172
     1
176
     1
270
     1
274
     1
  0
MLEADERSTYLE
  5
470
102
{ACAD_XDICTIONARY
360
2449
102
}
102
{ACAD_REACTORS
330
46F
102
}
330
46F
100
AcDbMLeaderStyle
170
     2
171
     1
172
     0
 90
        2
 40
0.0
 41
0.0
173
     1
 91
-1056964608
340
12
 92
       -2
290
     1
 42
2.0
291
     1
 43
0.36
  3
Standard
 44
5.0
300

342
10
174
     0
178
     6
175
     1
176
     0
 93
-1056964608
 45
0.1378
292
     0
297
     0
 46
4.0
 94
-1056964608
 47
1.0
 49
1.0
140
1.0
293
     1
141
0.0
294
     1
177
     0
142
1.0
295
     0
296
     0
143
0.125
1001
ACAD_MLEADERVER
1070
     2
  0
MLINESTYLE
  5
1B
102
{ACAD_REACTORS
330
E
102
}
330
E
100
AcDbMlineStyle
  2
STANDARD
 70
     0
  3

 62
     0
 51
90.0
 52
90.0
 71
     2
 49
0.5
 62
   256
  6
BYLAYER
 49
-0.5
 62
   256
  6
BYLAYER
  0
PLOTSETTINGS
  5
7EF
102
{ACAD_XDICTIONARY
360
244B
102
}
102
{ACAD_REACTORS
330
302
102
}
330
302
100
AcDbPlotSettings
  1
DWG To PDF ANSI A - landscape
  2
DWG To PDF.pc3
  4
ANSI_expand_A_(11.00_x_8.50_Inches)
  6

 40
5.793749809265136
 41
10.79374980926513
 42
5.79376220703125
 43
10.79374694824219
 44
279.3999938964844
 45
215.8999938964844
 46
0.0
 47
13.58631590731085
 48
0.0
 49
0.0
140
0.0
141
0.0
142
1.0
143
65.34646883198405
 70
 11956
 72
     0
 73
     0
 74
     2
  7
monochrome.ctb
 75
     0
147
0.0153030457173005
148
4318.0
149
4318.0
1001
ACAD_PSEXT
1000
DWG To PDF.pc3
1000
DWG To PDF
1000
Datei
1000

1070
     0
  0
PLOTSETTINGS
  5
7F8
102
{ACAD_XDICTIONARY
360
244D
102
}
102
{ACAD_REACTORS
330
302
102
}
330
302
100
AcDbPlotSettings
  1
DWG To PDF ANSI A - portrait
  2
DWG To PDF.pc3
  4
ANSI_A_(8.50_x_11.00_Inches)
  6

 40
5.793749809265136
 41
17.79375076293945
 42
5.793746948242187
 43
17.79376220703125
 44
215.8999938964844
 45
279.3999938964844
 46
0.0
 47
58.15125224136993
 48
0.0
 49
0.0
140
0.0
141
0.0
142
1.0
143
85.65604280239291
 70
 11956
 72
     0
 73
     0
 74
     2
  7
monochrome.ctb
 75
     0
147
0.0116745995645279
148
4318.0
149
4318.0
1001
ACAD_PSEXT
1000
DWG To PDF.pc3
1000
DWG To PDF
1000
Datei
1000

1070
     0
  0
ACDBPLACEHOLDER
  5
300
102
{ACAD_REACTORS
330
2FF
102
}
330
2FF
  0
SCALE
  5
CF4
102
{ACAD_REACTORS
330
44D
102
}
330
44D
100
AcDbScale
 70
     0
300
100:1
140
100.0
141
1.0
290
     0
  0
SCALE
  5
CF5
102
{ACAD_REACTORS
330
44D
102
}
330
44D
100
AcDbScale
 70
     0
300
50:1
140
50.0
141
1.0
290
     0
  0
SCALE
  5
CF6
102
{ACAD_REACTORS
330
44D
102
}
330
44D
100
AcDbScale
 70
     0
300
20:1
140
20.0
141
1.0
290
     0
  0
SCALE
  5
CF7
102
{ACAD_REACTORS
330
44D
102
}
330
44D
100
AcDbScale
 70
     0
300
10:1
140
10.0
141
1.0
290
     0
  0
SCALE
  5
CF8
102
{ACAD_REACTORS
330
44D
102
}
330
44D
100
AcDbScale
 70
     0
300
5:1
140
5.0
141
1.0
290
     0
  0
SCALE
  5
CF9
102
{ACAD_REACTORS
330
44D
102
}
330
44D
100
AcDbScale
 70
     0
300
2:1
140
2.0
141
1.0
290
     0
  0
SCALE
  5
44E
102
{ACAD_REACTORS
330
44D
102
}
330
44D
100
AcDbScale
 70
     0
300
1:1
140
1.0
141
1.0
290
     1
  0
SCALE
  5
CFA
102
{ACAD_REACTORS
330
44D
102
}
330
44D
100
AcDbScale
 70
     0
300
1:2
140
1.0
141
2.0
290
     0
  0
SCALE
  5
CFB
102
{ACAD_REACTORS
330
44D
102
}
330
44D
100
AcDbScale
 70
     0
300
1:5
140
1.0
141
5.0
290
     0
  0
SCALE
  5
CFC
102
{ACAD_REACTORS
330
44D
102
}
330
44D
100
AcDbScale
 70
     0
300
1:10
140
1.0
141
10.0
290
     0
  0
SCALE
  5
CFD
102
{ACAD_REACTORS
330
44D
102
}
330
44D
100
AcDbScale
 70
     0
300
1:20
140
1.0
141
20.0
290
     0
  0
SCALE
  5
CFE
102
{ACAD_REACTORS
330
44D
102
}
330
44D
100
AcDbScale
 70
     0
300
1:50
140
1.0
141
50.0
290
     0
  0
SCALE
  5
CFF
102
{ACAD_REACTORS
330
44D
102
}
330
44D
100
AcDbScale
 70
     0
300
1:100
140
1.0
141
100.0
290
     0
  0
SCALE
  5
D00
102
{ACAD_REACTORS
330
44D
102
}
330
44D
100
AcDbScale
 70
     0
300
1/128" = 1'-0"
140
0.0078125
141
12.0
290
     0
  0
SCALE
  5
D01
102
{ACAD_REACTORS
330
44D
102
}
330
44D
100
AcDbScale
 70
     0
300
1/64" = 1'-0"
140
0.015625
141
12.0
290
     0
  0
SCALE
  5
D02
102
{ACAD_REACTORS
330
44D
102
}
330
44D
100
AcDbScale
 70
     0
300
1/32" = 1'-0"
140
0.03125
141
12.0
290
     0
  0
SCALE
  5
D03
102
{ACAD_REACTORS
330
44D
102
}
330
44D
100
AcDbScale
 70
     0
300
1/16" = 1'-0"
140
0.0625
141
12.0
290
     0
  0
SCALE
  5
D04
102
{ACAD_REACTORS
330
44D
102
}
330
44D
100
AcDbScale
 70
     0
300
3/32" = 1'-0"
140
0.09375
141
12.0
290
     0
  0
SCALE
  5
D05
102
{ACAD_REACTORS
330
44D
102
}
330
44D
100
AcDbScale
 70
     0
300
1/8" = 1'-0"
140
0.125
141
12.0
290
     0
  0
SCALE
  5
D06
102
{ACAD_REACTORS
330
44D
102
}
330
44D
100
AcDbScale
 70
     0
300
3/16" = 1'-0"
140
0.1875
141
12.0
290
     0
  0
SCALE
  5
D07
102
{ACAD_REACTORS
330
44D
102
}
330
44D
100
AcDbScale
 70
     0
300
1/4" = 1'-0"
140
0.25
141
12.0
290
     0
  0
SCALE
  5
D08
102
{ACAD_REACTORS
330
44D
102
}
330
44D
100
AcDbScale
 70
     0
300
3/8" = 1'-0"
140
0.375
141
12.0
290
     0
  0
SCALE
  5
D09
102
{ACAD_REACTORS
330
44D
102
}
330
44D
100
AcDbScale
 70
     0
300
1/2" = 1'-0"
140
0.5
141
12.0
290
     0
  0
SCALE
  5
D0A
102
{ACAD_REACTORS
330
44D
102
}
330
44D
100
AcDbScale
 70
     0
300
3/4" = 1'-0"
140
0.75
141
12.0
290
     0
  0
SCALE
  5
D0B
102
{ACAD_REACTORS
330
44D
102
}
330
44D
100
AcDbScale
 70
     0
300
1" = 1'-0"
140
1.0
141
12.0
290
     0
  0
SCALE
  5
D0C
102
{ACAD_REACTORS
330
44D
102
}
330
44D
100
AcDbScale
 70
     0
300
1-1/2" = 1'-0"
140
1.5
141
12.0
290
     0
  0
SCALE
  5
D0D
102
{ACAD_REACTORS
330
44D
102
}
330
44D
100
AcDbScale
 70
     0
300
3" = 1'-0"
140
3.0
141
12.0
290
     0
  0
SCALE
  5
D0E
102
{ACAD_REACTORS
330
44D
102
}
330
44D
100
AcDbScale
 70
     0
300
6" = 1'-0"
140
6.0
141
12.0
290
     0
  0
SCALE
  5
D0F
102
{ACAD_REACTORS
330
44D
102
}
330
44D
100
AcDbScale
 70
     0
300
1'-0" = 1'-0"
140
12.0
141
12.0
290
     0
  0
ACDBSECTIONVIEWSTYLE
  5
EA9
102
{ACAD_XDICTIONARY
360
EE0
102
}
102
{ACAD_REACTORS
330
EA8
330
EBF
102
}
330
EA8
100
AcDbModelDocViewStyle
 70
     0
  3
Imperial24
290
     0
100
AcDbSectionViewStyle
 70
     0
 71
     0
 90
       78
 71
     1
340
10
 40
0.24
340
0
340
0
 40
0.24
300
I, O, Q, S, X, Z
 40
0.48
 90
        3
 40
0.18
 90
        1
 71
     2
340
14
 90
       25
340
14
 90
       50
 40
0.24
 40
0.0
 40
0.24
 71
     3
340
10
 40
0.24
 90
        1
 40
0.75
 90
        1
300
%<\AcVar ViewType \f "%tc1">% %<\AcVar ViewSectionStartId>%-%<\AcVar ViewSectionEndId>%\PSCALE %<\AcVar ViewScale \f "%sn">%
 71
     4
300
ANSI31
 40
1.0
 90
        0
290
     0
290
     0
 90
        6
 40
0.0
 40
1.570796326794896
 40
0.2617993877991494
 40
1.308996938995747
 40
-0.2617993877991494
 40
1.832595714594046
  0
ACDBSECTIONVIEWSTYLE
  5
F58
102
{ACAD_XDICTIONARY
360
F59
102
}
102
{ACAD_REACTORS
330
EA8
330
1292
102
}
330
EA8
100
AcDbModelDocViewStyle
 70
     0
  3
Metric50
290
     0
100
AcDbSectionViewStyle
 70
     0
 71
     0
 90
      102
 71
     1
340
10
 40
5.0
340
0
340
0
 40
5.0
300
I, O, Q, S, X, Z
 40
10.0
 90
        0
 40
2.5
 90
        0
 71
     2
340
14
 90
       25
340
14
 90
       50
 40
5.0
 40
2.5
 40
5.0
 71
     3
340
10
 40
5.0
 90
        0
 40
15.0
 90
        1
300
%<\AcVar ViewSectionStartId>%-%<\AcVar ViewSectionEndId>% (%<\AcVar ViewScale \f "%sn">%)
 71
     4
300
ANSI31
 40
1.0
 90
        0
290
     0
290
     0
 90
        6
 40
0.0
 40
1.570796326794896
 40
0.2617993877991494
 40
1.308996938995747
 40
-0.2617993877991494
 40
1.832595714594046
  0
TABLESTYLE
  5
389
102
{ACAD_XDICTIONARY
360
577
102
}
102
{ACAD_REACTORS
330
388
102
}
330
388
100
AcDbTableStyle
  3
Standard
 70
     0
 71
     0
 40
1.5
 41
1.5
280
     0
281
     0
  7
STANDARD
140
4.5
170
     2
 62
     0
 63
     7
283
     0
274
    -2
284
     1
 64
     0
275
    -2
285
     1
 65
     0
276
    -2
286
     1
 66
     0
277
    -2
287
     1
 67
     0
278
    -2
288
     1
 68
     0
279
    -2
289
     1
 69
     0
  7
STANDARD 5 mm
140
6.0
170
     5
 62
     0
 63
     7
283
     0
274
    -2
284
     1
 64
     0
275
    -2
285
     1
 65
     0
276
    -2
286
     1
 66
     0
277
    -2
287
     1
 67
     0
278
    -2
288
     1
 68
     0
279
    -2
289
     1
 69
     0
  7
STANDARD
140
4.5
170
     5
 62
     0
 63
     7
283
     0
274
    -2
284
     1
 64
     0
275
    -2
285
     1
 65
     0
276
    -2
286
     1
 66
     0
277
    -2
287
     1
 67
     0
278
    -2
288
     1
 68
     0
279
    -2
289
     1
 69
     0
  0
VISUALSTYLE
  5
3F8
102
{ACAD_XDICTIONARY
360
2433
102
}
102
{ACAD_REACTORS
330
3F2
102
}
330
3F2
100
AcDbVisualStyle
  2
2dWireframe
 70
     4
 71
     0
 72
     2
 73
     0
 90
        0
 40
-0.6
 41
-30.0
 62
     5
 63
     7
 74
     1
 91
        4
 64
     7
 65
   257
 75
     1
175
     1
 42
1.0
 92
        0
 66
   257
 43
1.0
 76
     1
 77
     6
 78
     2
 67
     7
 79
     5
170
     0
171
     0
290
     0
174
     0
 93
        1
 44
0.0
173
     0
291
     0
 45
0.0
1001
ACAD
1000
AcDbSavedByObjectVersion
1070
     0
  0
VISUALSTYLE
  5
3FA
102
{ACAD_XDICTIONARY
360
2437
102
}
102
{ACAD_REACTORS
330
3F2
102
}
330
3F2
100
AcDbVisualStyle
  2
3D Hidden
 70
     6
 71
     1
 72
     2
 73
     2
 90
        0
 40
-0.6
 41
-30.0
 62
     5
 63
     7
 74
     2
 91
        2
 64
     7
 65
   257
 75
     2
175
     1
 42
40.0
 92
        0
 66
   257
 43
1.0
 76
     1
 77
     6
 78
     2
 67
     7
 79
     3
170
     0
171
     0
290
     0
174
     0
 93
        1
 44
0.0
173
     0
291
     0
 45
0.0
1001
ACAD
1000
AcDbSavedByObjectVersion
1070
     0
  0
VISUALSTYLE
  5
3F9
102
{ACAD_XDICTIONARY
360
2435
102
}
102
{ACAD_REACTORS
330
3F2
102
}
330
3F2
100
AcDbVisualStyle
  2
3dWireframe
 70
     5
 71
     0
 72
     2
 73
     0
 90
        0
 40
-0.6
 41
-30.0
 62
     5
 63
     7
 74
     1
 91
        4
 64
     7
 65
   257
 75
     1
175
     1
 42
1.0
 92
        0
 66
   257
 43
1.0
 76
     1
 77
     6
 78
     2
 67
     7
 79
     5
170
     0
171
     0
290
     0
174
     0
 93
        1
 44
0.0
173
     0
291
     0
 45
0.0
1001
ACAD
1000
AcDbSavedByObjectVersion
1070
     0
  0
VISUALSTYLE
  5
3F7
102
{ACAD_XDICTIONARY
360
2431
102
}
102
{ACAD_REACTORS
330
3F2
102
}
330
3F2
100
AcDbVisualStyle
  2
Basic
 70
     7
 71
     1
 72
     0
 73
     1
 90
        0
 40
-0.6
 41
-30.0
 62
     5
 63
     7
 74
     0
 91
        4
 64
     7
 65
   257
 75
     1
175
     1
 42
1.0
 92
        8
 66
     7
 43
1.0
 76
     1
 77
     6
 78
     2
 67
     7
 79
     5
170
     0
171
     0
290
     0
174
     0
 93
        1
 44
0.0
173
     0
291
     1
 45
0.0
1001
ACAD
1000
AcDbSavedByObjectVersion
1070
     0
  0
VISUALSTYLE
  5
3FE
102
{ACAD_XDICTIONARY
360
243F
102
}
102
{ACAD_REACTORS
330
3F2
102
}
330
3F2
100
AcDbVisualStyle
  2
Brighten
 70
    12
 71
     2
 72
     2
 73
     0
 90
        0
 40
-0.6
 41
-30.0
 62
     5
 63
     7
 74
     1
 91
        4
 64
     7
 65
   257
 75
     1
175
     1
 42
1.0
 92
        8
 66
     7
 43
1.0
 76
     1
 77
     6
 78
     2
 67
     7
 79
     5
170
     0
171
     0
290
     0
174
     0
 93
        1
 44
50.0
173
     0
291
     1
 45
0.0
1001
ACAD
1000
AcDbSavedByObjectVersion
1070
     0
  0
VISUALSTYLE
  5
402
102
{ACAD_XDICTIONARY
360
2447
102
}
102
{ACAD_REACTORS
330
3F2
102
}
330
3F2
100
AcDbVisualStyle
  2
ColorChange
 70
    16
 71
     2
 72
     2
 73
     3
 90
        0
 40
-0.6
 41
-30.0
 62
     5
 63
     8
 74
     1
 91
        4
 64
     7
 65
   257
 75
     1
175
     1
 42
1.0
 92
        8
 66
     8
 43
1.0
 76
     1
 77
     6
 78
     2
 67
     7
 79
     5
170
     0
171
     0
290
     0
174
     0
 93
        1
 44
0.0
173
     0
291
     1
 45
0.0
1001
ACAD
1000
AcDbSavedByObjectVersion
1070
     0
  0
VISUALSTYLE
  5
3FB
102
{ACAD_XDICTIONARY
360
2439
102
}
102
{ACAD_REACTORS
330
3F2
102
}
330
3F2
100
AcDbVisualStyle
  2
Conceptual
 70
     9
 71
     3
 72
     2
 73
     0
 90
        0
 40
-0.6
 41
-30.0
 62
     5
 63
     7
 74
     2
 91
        2
 64
     7
 65
   257
 75
     1
175
     1
 42
40.0
 92
        8
 66
     7
 43
1.0
 76
     1
 77
     6
 78
     2
 67
     7
 79
     3
170
     0
171
     0
290
     0
174
     0
 93
        1
 44
0.0
173
     0
291
     0
 45
0.0
1001
ACAD
1000
AcDbSavedByObjectVersion
1070
     0
  0
VISUALSTYLE
  5
3FD
102
{ACAD_XDICTIONARY
360
243D
102
}
102
{ACAD_REACTORS
330
3F2
102
}
330
3F2
100
AcDbVisualStyle
  2
Dim
 70
    11
 71
     2
 72
     2
 73
     0
 90
        0
 40
-0.6
 41
-30.0
 62
     5
 63
     7
 74
     1
 91
        4
 64
     7
 65
   257
 75
     1
175
     1
 42
1.0
 92
        8
 66
     7
 43
1.0
 76
     1
 77
     6
 78
     2
 67
     7
 79
     5
170
     0
171
     0
290
     0
174
     0
 93
        1
 44
-50.0
173
     0
291
     1
 45
0.0
1001
ACAD
1000
AcDbSavedByObjectVersion
1070
     0
  0
VISUALSTYLE
  5
C40
102
{ACAD_XDICTIONARY
360
2456
102
}
102
{ACAD_REACTORS
330
3F2
102
}
330
3F2
100
AcDbVisualStyle
  2
EdgeColorOff
 70
    22
 71
     2
 72
     2
 73
     0
 90
        0
 40
-0.6
 41
-30.0
 62
     5
 63
     7
 74
     1
 91
        4
 64
     7
 65
   257
 75
     1
175
     1
 42
1.0
 92
        8
 66
     7
 43
1.0
 76
     1
 77
     6
 78
     2
 67
     7
 79
     5
170
     0
171
     0
290
     0
174
     0
 93
        1
 44
0.0
173
     0
291
     1
 45
0.0
1001
ACAD
1000
AcDbSavedByObjectVersion
1070
     0
  0
VISUALSTYLE
  5
401
102
{ACAD_XDICTIONARY
360
2445
102
}
102
{ACAD_REACTORS
330
3F2
102
}
330
3F2
100
AcDbVisualStyle
  2
Facepattern
 70
    15
 71
     2
 72
     2
 73
     0
 90
        0
 40
-0.6
 41
-30.0
 62
     5
 63
     7
 74
     1
 91
        4
 64
     7
 65
   257
 75
     1
175
     1
 42
1.0
 92
        8
 66
     7
 43
1.0
 76
     1
 77
     6
 78
     2
 67
     7
 79
     5
170
     0
171
     0
290
     0
174
     0
 93
        1
 44
0.0
173
     0
291
     1
 45
0.0
1001
ACAD
1000
AcDbSavedByObjectVersion
1070
     0
  0
VISUALSTYLE
  5
3F3
102
{ACAD_XDICTIONARY
360
2429
102
}
102
{ACAD_REACTORS
330
3F2
102
}
330
3F2
100
AcDbVisualStyle
  2
Flat
 70
     0
 71
     2
 72
     1
 73
     1
 90
        2
 40
-0.6
 41
30.0
 62
     5
 63
     7
 74
     0
 91
        4
 64
     7
 65
   257
 75
     1
175
     1
 42
1.0
 92
        8
 66
     7
 43
1.0
 76
     1
 77
     6
 78
     2
 67
     7
 79
     5
170
     0
171
     0
290
     0
174
     0
 93
       13
 44
0.0
173
     0
291
     1
 45
0.0
1001
ACAD
1000
AcDbSavedByObjectVersion
1070
     0
  0
VISUALSTYLE
  5
3F4
102
{ACAD_XDICTIONARY
360
242B
102
}
102
{ACAD_REACTORS
330
3F2
102
}
330
3F2
100
AcDbVisualStyle
  2
FlatWithEdges
 70
     1
 71
     2
 72
     1
 73
     1
 90
        2
 40
-0.6
 41
30.0
 62
     5
 63
     7
 74
     1
 91
        4
 64
     7
 65
   257
 75
     1
175
     1
 42
1.0
 92
        0
 66
   257
 43
1.0
 76
     1
 77
     6
 78
     2
 67
     7
 79
     5
170
     0
171
     0
290
     0
174
     0
 93
       13
 44
0.0
173
     0
291
     1
 45
0.0
1001
ACAD
1000
AcDbSavedByObjectVersion
1070
     0
  0
VISUALSTYLE
  5
3F5
102
{ACAD_XDICTIONARY
360
242D
102
}
102
{ACAD_REACTORS
330
3F2
102
}
330
3F2
100
AcDbVisualStyle
  2
Gouraud
 70
     2
 71
     2
 72
     2
 73
     1
 90
        2
 40
-0.6
 41
30.0
 62
     5
 63
     7
 74
     0
 91
        4
 64
     7
 65
   257
 75
     1
175
     1
 42
1.0
 92
        0
 66
     7
 43
1.0
 76
     1
 77
     6
 78
     2
 67
     7
 79
     5
170
     0
171
     0
290
     0
174
     0
 93
       13
 44
0.0
173
     0
291
     1
 45
0.0
1001
ACAD
1000
AcDbSavedByObjectVersion
1070
     0
  0
VISUALSTYLE
  5
3F6
102
{ACAD_XDICTIONARY
360
242F
102
}
102
{ACAD_REACTORS
330
3F2
102
}
330
3F2
100
AcDbVisualStyle
  2
GouraudWithEdges
 70
     3
 71
     2
 72
     2
 73
     1
 90
        2
 40
-0.6
 41
30.0
 62
     5
 63
     7
 74
     1
 91
        4
 64
     7
 65
   257
 75
     1
175
     1
 42
1.0
 92
        0
 66
   257
 43
1.0
 76
     1
 77
     6
 78
     2
 67
     7
 79
     5
170
     0
171
     0
290
     0
174
     0
 93
       13
 44
0.0
173
     0
291
     1
 45
0.0
1001
ACAD
1000
AcDbSavedByObjectVersion
1070
     0
  0
VISUALSTYLE
  5
EA2
102
{ACAD_XDICTIONARY
360
245A
102
}
102
{ACAD_REACTORS
330
3F2
102
}
330
3F2
100
AcDbVisualStyle
  2
Hidden
 70
     6
 71
     1
 72
     2
 73
     2
 90
        0
 40
-0.6
 41
-30.0
 62
     5
 63
     7
 74
     2
 91
        2
 64
     7
 65
   257
 75
     2
175
     1
 42
40.0
 92
        0
 66
   257
 43
1.0
 76
     1
 77
     6
 78
     2
 67
     7
 79
     3
170
     0
171
     0
290
     0
174
     0
 93
        1
 44
0.0
173
     0
291
     0
 45
0.0
1001
ACAD
1000
AcDbSavedByObjectVersion
1070
     0
  0
VISUALSTYLE
  5
C3E
102
{ACAD_XDICTIONARY
360
2452
102
}
102
{ACAD_REACTORS
330
3F2
102
}
330
3F2
100
AcDbVisualStyle
  2
JitterOff
 70
    20
 71
     2
 72
     2
 73
     0
 90
        0
 40
-0.6
 41
-30.0
 62
     5
 63
     7
 74
     1
 91
        4
 64
     7
 65
   257
 75
     1
175
     1
 42
1.0
 92
       10
 66
     7
 43
1.0
 76
     1
 77
     6
 78
     2
 67
     7
 79
     5
170
     0
171
     0
290
     0
174
     0
 93
        1
 44
0.0
173
     0
291
     1
 45
0.0
1001
ACAD
1000
AcDbSavedByObjectVersion
1070
     0
  0
VISUALSTYLE
  5
400
102
{ACAD_XDICTIONARY
360
2443
102
}
102
{ACAD_REACTORS
330
3F2
102
}
330
3F2
100
AcDbVisualStyle
  2
Linepattern
 70
    14
 71
     2
 72
     2
 73
     0
 90
        0
 40
-0.6
 41
-30.0
 62
     5
 63
     7
 74
     1
 91
        4
 64
     7
 65
   257
 75
     7
175
     7
 42
1.0
 92
        8
 66
     7
 43
1.0
 76
     1
 77
     6
 78
     2
 67
     7
 79
     5
170
     0
171
     0
290
     0
174
     0
 93
        1
 44
0.0
173
     0
291
     1
 45
0.0
1001
ACAD
1000
AcDbSavedByObjectVersion
1070
     0
  0
VISUALSTYLE
  5
C3F
102
{ACAD_XDICTIONARY
360
2454
102
}
102
{ACAD_REACTORS
330
3F2
102
}
330
3F2
100
AcDbVisualStyle
  2
OverhangOff
 70
    21
 71
     2
 72
     2
 73
     0
 90
        0
 40
-0.6
 41
-30.0
 62
     5
 63
     7
 74
     1
 91
        4
 64
     7
 65
   257
 75
     1
175
     1
 42
1.0
 92
        9
 66
     7
 43
1.0
 76
     1
 77
     6
 78
     2
 67
     7
 79
     5
170
     0
171
     0
290
     0
174
     0
 93
        1
 44
0.0
173
     0
291
     1
 45
0.0
1001
ACAD
1000
AcDbSavedByObjectVersion
1070
     0
  0
VISUALSTYLE
  5
3FC
102
{ACAD_XDICTIONARY
360
243B
102
}
102
{ACAD_REACTORS
330
3F2
102
}
330
3F2
100
AcDbVisualStyle
  2
Realistic
 70
     8
 71
     2
 72
     2
 73
     0
 90
        0
 40
-0.6
 41
-30.0
 62
     5
 63
     7
 74
     1
 91
        0
 64
     7
 65
   257
 75
     1
175
     1
 42
1.0
 92
        8
 66
     8
 43
1.0
 76
     1
 77
     6
 78
     2
 67
     7
 79
     5
170
     0
171
     0
290
     0
174
     0
 93
       13
 44
0.0
173
     0
291
     0
 45
0.0
1001
ACAD
1000
AcDbSavedByObjectVersion
1070
     0
  0
VISUALSTYLE
  5
EA7
102
{ACAD_XDICTIONARY
360
2464
102
}
102
{ACAD_REACTORS
330
3F2
102
}
330
3F2
100
AcDbVisualStyle
  2
Shaded
 70
    27
 71
     2
 72
     2
 73
     1
 90
        2
 40
-0.6
 41
30.0
 62
     5
 63
     7
 74
     0
 91
        4
 64
     7
 65
   257
 75
     1
175
     1
 42
1.0
 92
        8
 66
   257
 43
1.0
 76
     1
 77
     6
 78
     2
 67
     8
 79
     3
170
     0
171
     0
290
     0
174
     0
 93
        5
 44
0.0
173
     0
291
     0
 45
0.0
1001
ACAD
1000
AcDbSavedByObjectVersion
1070
     0
  0
VISUALSTYLE
  5
EA6
102
{ACAD_XDICTIONARY
360
2462
102
}
102
{ACAD_REACTORS
330
3F2
102
}
330
3F2
100
AcDbVisualStyle
  2
Shaded with edges
 70
    26
 71
     2
 72
     2
 73
     1
 90
        2
 40
-0.6
 41
30.0
 62
     5
 63
     7
 74
     1
 91
       10
 64
     7
 65
   257
 75
     2
175
     1
 42
1.0
 92
        8
 66
   257
 43
1.0
 76
     1
 77
     6
 78
     2
 67
     7
 79
     3
170
     0
171
     0
290
     0
174
     0
 93
        5
 44
0.0
173
     0
291
     0
 45
0.0
1001
ACAD
1000
AcDbSavedByObjectVersion
1070
     0
  0
VISUALSTYLE
  5
EA3
102
{ACAD_XDICTIONARY
360
245C
102
}
102
{ACAD_REACTORS
330
3F2
102
}
330
3F2
100
AcDbVisualStyle
  2
Shades of Gray
 70
    23
 71
     2
 72
     2
 73
     3
 90
        0
 40
-0.6
 41
-30.0
 62
     5
 63
     7
 74
     2
 91
        2
 64
     7
 65
     7
 75
     1
175
     1
 42
40.0
 92
        8
 66
     7
 43
1.0
 76
     1
 77
     6
 78
     2
 67
     7
 79
     3
170
     0
171
     0
290
     0
174
     0
 93
        1
 44
0.0
173
     0
291
     0
 45
0.0
1001
ACAD
1000
AcDbSavedByObjectVersion
1070
     0
  0
VISUALSTYLE
  5
EA4
102
{ACAD_XDICTIONARY
360
245E
102
}
102
{ACAD_REACTORS
330
3F2
102
}
330
3F2
100
AcDbVisualStyle
  2
Sketchy
 70
    24
 71
     1
 72
     2
 73
     2
 90
        0
 40
-0.6
 41
-30.0
 62
     5
 63
     7
 74
     2
 91
        2
 64
     7
 65
     7
 75
     1
175
     1
 42
40.0
 92
       11
 66
     7
 43
1.0
 76
     1
 77
     6
 78
     2
 67
     7
 79
     6
170
     0
171
     0
290
     0
174
     0
 93
        1
 44
0.0
173
     0
291
     0
 45
0.0
1001
ACAD
1000
AcDbSavedByObjectVersion
1070
     0
  0
VISUALSTYLE
  5
3FF
102
{ACAD_XDICTIONARY
360
2441
102
}
102
{ACAD_REACTORS
330
3F2
102
}
330
3F2
100
AcDbVisualStyle
  2
Thicken
 70
    13
 71
     2
 72
     2
 73
     0
 90
        0
 40
-0.6
 41
-30.0
 62
     5
 63
     7
 74
     1
 91
        4
 64
     7
 65
   257
 75
     1
175
     1
 42
1.0
 92
       12
 66
     7
 43
1.0
 76
     1
 77
     6
 78
     2
 67
     7
 79
     5
170
     0
171
     0
290
     0
174
     0
 93
        1
 44
0.0
173
     0
291
     1
 45
0.0
1001
ACAD
1000
AcDbSavedByObjectVersion
1070
     0
  0
VISUALSTYLE
  5
EA1
102
{ACAD_XDICTIONARY
360
2458
102
}
102
{ACAD_REACTORS
330
3F2
102
}
330
3F2
100
AcDbVisualStyle
  2
Wireframe
 70
     5
 71
     0
 72
     2
 73
     0
 90
        0
 40
-0.6
 41
-30.0
 62
     5
 63
     7
 74
     1
 91
        4
 64
     7
 65
   257
 75
     1
175
     1
 42
1.0
 92
        0
 66
   257
 43
1.0
 76
     1
 77
     6
 78
     2
 67
     7
 79
     3
170
     0
171
     0
290
     0
174
     0
 93
        1
 44
0.0
173
     0
291
     0
 45
0.0
1001
ACAD
1000
AcDbSavedByObjectVersion
1070
     0
  0
VISUALSTYLE
  5
EA5
102
{ACAD_XDICTIONARY
360
2460
102
}
102
{ACAD_REACTORS
330
3F2
102
}
330
3F2
100
AcDbVisualStyle
  2
X-Ray
 70
    25
 71
     2
 72
     2
 73
     1
 90
        1
 40
0.5
 41
-30.0
 62
     5
 63
     7
 74
     1
 91
        0
 64
     7
 65
   257
 75
     1
175
     1
 42
1.0
 92
        8
 66
     7
 43
1.0
 76
     1
 77
     6
 78
     2
 67
     7
 79
     3
170
     0
171
     0
290
     0
174
     0
 93
       13
 44
0.0
173
     0
291
     0
 45
0.0
1001
ACAD
1000
AcDbSavedByObjectVersion
1070
     0
  0
DICTIONARYVAR
  5
57C
102
{ACAD_REACTORS
330
357
102
}
330
357
100
DictionaryVariables
280
     0
  1
1:1
  0
DICTIONARYVAR
  5
57A
102
{ACAD_REACTORS
330
357
102
}
330
357
100
DictionaryVariables
280
     0
  1
STANDARD
  0
DICTIONARYVAR
  5
38E
102
{ACAD_REACTORS
330
357
102
}
330
357
100
DictionaryVariables
280
     0
  1
STANDARD
  0
DICTIONARYVAR
  5
EE7
102
{ACAD_REACTORS
330
357
102
}
330
357
100
DictionaryVariables
280
     0
  1
Metric50
  0
DICTIONARYVAR
  5
EE8
102
{ACAD_REACTORS
330
357
102
}
330
357
100
DictionaryVariables
280
     0
  1
Metric50
  0
DICTIONARYVAR
  5
359
102
{ACAD_REACTORS
330
357
102
}
330
357
100
DictionaryVariables
280
     0
  1
2
  0
DICTIONARYVAR
  5
358
102
{ACAD_REACTORS
330
357
102
}
330
357
100
DictionaryVariables
280
     0
  1
1
  0
DICTIONARYVAR
  5
B51
102
{ACAD_REACTORS
330
357
102
}
330
357
100
DictionaryVariables
280
     0
  1
0
  0
DICTIONARYVAR
  5
C52
102
{ACAD_REACTORS
330
357
102
}
330
357
100
DictionaryVariables
280
     0
  1
1
  0
DICTIONARYVAR
  5
C53
102
{ACAD_REACTORS
330
357
102
}
330
357
100
DictionaryVariables
280
     0
  1
15
  0
DICTIONARYVAR
  5
57D
102
{ACAD_REACTORS
330
357
102
}
330
357
100
DictionaryVariables
280
     0
  1
0
  0
DICTIONARYVAR
  5
57B
102
{ACAD_REACTORS
330
357
102
}
330
357
100
DictionaryVariables
280
     0
  1
0
  0
DICTIONARYVAR
  5
2412
102
{ACAD_REACTORS
330
357
102
}
330
357
100
DictionaryVariables
280
     0
  1
1
  0
DICTIONARYVAR
  5
B50
102
{ACAD_REACTORS
330
357
102
}
330
357
100
DictionaryVariables
280
     0
  1
127
  0
DICTIONARYVAR
  5
2411
102
{ACAD_REACTORS
330
357
102
}
330
357
100
DictionaryVariables
280
     0
  1
0
  0
DICTIONARY
  5
2420
102
{ACAD_REACTORS
330
241E
102
}
330
241E
100
AcDbDictionary
281
     1
  0
DICTIONARY
  5
241F
102
{ACAD_REACTORS
330
241E
102
}
330
241E
100
AcDbDictionary
281
     1
  3
8796074190352
350
2419
  3
8796074190368
350
241A
  3
8796074190384
350
241B
  3
8796074190400
350
241C
  3
8796074190416
350
241D
  0
DICTIONARY
  5
4DC
102
{ACAD_REACTORS
330
4D1
102
}
330
4D1
100
AcDbDictionary
281
     1
  0
XRECORD
  5
4F3
102
{ACAD_REACTORS
330
4D1
102
}
330
4D1
100
AcDbXrecord
280
     1
 90
-1023410169
  0
XRECORD
  5
9A5
102
{ACAD_REACTORS
330
567
102
}
330
567
100
AcDbXrecord
280
     1
 91
     1023
301

290
     0
302
1
  8
200
 90
        8
 62
     2
370
    50
331
14
  1
Color_2
  8
160
 90
        8
 62
     1
370
    35
331
14
  1
Color_1
  8
150
 90
        8
 62
    96
370
    50
331
14
  1
Color_96
 92
-1040154880
  8
140
 90
        8
 62
     5
370
    35
331
14
  1
Color_5
  8
130
 90
        8
 62
     6
370
    35
331
14
  1
Color_6
  8
120
 90
        8
 62
     3
370
    50
331
14
  1
Color_3
  8
110
 90
        8
 62
     7
370
    25
331
14
  1
Color_7
  8
100
 90
        8
 62
     4
370
    50
331
14
  1
Color_4
  8
INFTEXT69
 90
        8
 62
     5
370
    -3
331
14
  1
Color_5
  8
INFTEXT68
 90
        8
 62
     5
370
    -3
331
14
  1
Color_5
  8
INFTEXT67
 90
        8
 62
     5
370
    -3
331
14
  1
Color_5
  8
INFTEXT66
 90
        8
 62
     5
370
    -3
331
14
  1
Color_5
  8
INFTEXT65
 90
        8
 62
     5
370
    -3
331
14
  1
Color_5
  8
INFTEXT64
 90
        8
 62
     5
370
    -3
331
14
  1
Color_5
  8
INFTEXT63
 90
        8
 62
     5
370
    -3
331
14
  1
Color_5
  8
INFTEXT62
 90
        8
 62
     5
370
    -3
331
14
  1
Color_5
  8
RECON69
 90
        8
 62
     5
370
    35
331
14
  1
Color_5
  8
RECON68
 90
        8
 62
     5
370
    35
331
14
  1
Color_5
  8
RECON67
 90
        8
 62
     5
370
    35
331
14
  1
Color_5
  8
RECON66
 90
        8
 62
     5
370
    35
331
14
  1
Color_5
  8
RECON65
 90
        8
 62
     5
370
    35
331
14
  1
Color_5
  8
RECON64
 90
        8
 62
     5
370
    35
331
14
  1
Color_5
  8
RECON63
 90
        8
 62
     5
370
    35
331
14
  1
Color_5
  8
RECON62
 90
        8
 62
     5
370
    35
331
14
  1
Color_5
  8
RECON61
 90
        8
 62
     5
370
    35
331
14
  1
Color_5
  8
SK69
 90
        8
 62
     5
370
    35
331
14
  1
Color_5
  8
SK68
 90
        8
 62
     5
370
    35
331
14
  1
Color_5
  8
SK67
 90
        8
 62
     5
370
    35
331
14
  1
Color_5
  8
SK66
 90
        8
 62
     5
370
    35
331
14
  1
Color_5
  8
SK65
 90
        8
 62
     5
370
    35
331
14
  1
Color_5
  8
SK64
 90
        8
 62
     5
370
    35
331
14
  1
Color_5
  8
SK63
 90
        8
 62
     5
370
    35
331
14
  1
Color_5
  8
SK62
 90
        8
 62
     5
370
    35
331
14
  1
Color_5
  8
SK61
 90
        8
 62
     5
370
    35
331
14
  1
Color_5
  8
SKVIEW69
 90
        8
 62
     5
370
    35
331
14
  1
Color_5
  8
SKVIEW68
 90
        8
 62
     5
370
    35
331
14
  1
Color_5
  8
SKVIEW67
 90
        8
 62
     5
370
    35
331
14
  1
Color_5
  8
SKVIEW66
 90
        8
 62
     5
370
    35
331
14
  1
Color_5
  8
SKVIEW65
 90
        8
 62
     5
370
    35
331
14
  1
Color_5
  8
SKVIEW64
 90
        8
 62
     5
370
    35
331
14
  1
Color_5
  8
SKVIEW63
 90
        8
 62
     5
370
    35
331
14
  1
Color_5
  8
SKVIEW62
 90
        8
 62
     5
370
    35
331
14
  1
Color_5
  8
SKVIEW61
 90
        8
 62
     5
370
    35
331
14
  1
Color_5
  8
69
 90
        8
 62
     5
370
    35
331
14
  1
Color_5
  8
68
 90
        8
 62
     5
370
    35
331
14
  1
Color_5
  8
67
 90
        8
 62
     5
370
    35
331
14
  1
Color_5
  8
66
 90
        8
 62
     5
370
    35
331
14
  1
Color_5
  8
65
 90
        8
 62
     5
370
    35
331
14
  1
Color_5
  8
64
 90
        8
 62
     5
370
    35
331
14
  1
Color_5
  8
63
 90
        8
 62
     5
370
    35
331
14
  1
Color_5
  8
62
 90
        8
 62
     5
370
    35
331
14
  1
Color_5
  8
61
 90
        8
 62
     5
370
    35
331
14
  1
Color_5
  8
59
 90
        8
 62
     5
370
    -3
331
14
  1
Color_5
  8
58
 90
        8
 62
     5
370
    -3
331
14
  1
Color_5
  8
57
 90
        8
 62
     5
370
    -3
331
14
  1
Color_5
  8
56
 90
        8
 62
     5
370
    -3
331
14
  1
Color_5
  8
55
 90
        8
 62
     5
370
    -3
331
14
  1
Color_5
  8
54
 90
        8
 62
     5
370
    -3
331
14
  1
Color_5
  8
53
 90
        8
 62
     5
370
    -3
331
14
  1
Color_5
  8
52
 90
        8
 62
     5
370
    -3
331
14
  1
Color_5
  8
51
 90
        8
 62
     5
370
    -3
331
14
  1
Color_5
  8
FRAME59
 90
        8
 62
     7
370
    -3
331
14
  1
Color_7
  8
FRAME58
 90
        8
 62
     7
370
    -3
331
14
  1
Color_7
  8
FRAME57
 90
        8
 62
     7
370
    -3
331
14
  1
Color_7
  8
FRAME56
 90
        8
 62
     7
370
    -3
331
14
  1
Color_7
  8
FRAME55
 90
        8
 62
     7
370
    -3
331
14
  1
Color_7
  8
FRAME54
 90
        8
 62
     7
370
    -3
331
14
  1
Color_7
  8
FRAME53
 90
        8
 62
     7
370
    -3
331
14
  1
Color_7
  8
FRAME52
 90
        8
 62
     7
370
    -3
331
14
  1
Color_7
  8
RECON7
 90
        8
 62
     5
370
    25
331
14
  1
Color_5
  8
RECON6
 90
        8
 62
     5
370
    35
331
14
  1
Color_5
  8
RECON4
 90
        8
 62
     2
370
    25
331
14
  1
Color_2
  8
RECON3
 90
        8
 62
     1
370
    35
331
14
  1
Color_1
  8
RECON2
 90
        8
 62
     7
370
    25
331
14
  1
Color_7
  8
RECON1
 90
        8
 62
     4
370
    50
331
14
  1
Color_4
  8
SKVIEW7
 90
        8
 62
     5
370
    25
331
14
  1
Color_5
  8
SK7
 90
        8
 62
     5
370
    25
331
14
  1
Color_5
  8
7
 90
        8
 62
     5
370
    25
331
14
  1
Color_5
  8
INFMAINVIEW
 90
        8
 62
     9
370
    18
331
14
  1
Color_9
  8
INFTOTAL
 90
        8
 62
     9
370
    18
331
14
  1
Color_9
  8
INFTEXT61
 90
        8
 62
     5
370
    -3
331
14
  1
Color_5
  8
INFWKP
 90
        8
 62
    30
370
    25
331
14
  1
Color_30
  8
SKVIEW6
 90
        8
 62
     5
370
    35
331
14
  1
Color_5
  8
SKVIEW4
 90
        8
 62
     2
370
    25
331
14
  1
Color_2
  8
SKVIEW3
 90
        8
 62
     1
370
    35
331
14
  1
Color_1
  8
SKVIEW2
 90
        8
 62
     7
370
    25
331
14
  1
Color_7
  8
SKVIEW1
 90
        8
 62
     4
370
    50
331
14
  1
Color_4
  8
NOCUT
 90
        8
 62
     7
370
    25
331
14
  1
Color_7
  8
CUT
 90
        8
 62
     1
370
    25
331
14
  1
Color_1
  8
DEFPOINTS
 90
        0
 62
     7
370
    -3
331
14
  1
Color_7
  8
SK6
 90
        8
 62
     5
370
    35
331
14
  1
Color_5
  8
6
 90
        8
 62
     5
370
    35
331
14
  1
Color_5
  8
FRAME51
 90
        8
 62
     7
370
    -3
331
14
  1
Color_7
  8
SK4
 90
        8
 62
     2
370
    25
331
14
  1
Color_2
  8
4
 90
        8
 62
     2
370
    25
331
14
  1
Color_2
  8
SK3
 90
        8
 62
     1
370
    35
331
14
  1
Color_1
  8
3
 90
        8
 62
     1
370
    35
331
14
  1
Color_1
  8
SK2
 90
        8
 62
     7
370
    25
331
14
  1
Color_7
  8
2
 90
        8
 62
     7
370
    25
331
14
  1
Color_7
  8
SK1
 90
        8
 62
     4
370
    50
331
14
  1
Color_4
  8
1
 90
        8
 62
     4
370
    50
331
14
  1
Color_4
  8
0
 90
        0
 62
     7
370
    -3
331
14
  1
Color_7
  0
DICTIONARY
  5
EE2
330
EAB
100
AcDbDictionary
280
     1
281
     1
  3
ACAD_XREC_ROUNDTRIP
360
2467
  0
DICTIONARY
  5
F5B
330
F5A
100
AcDbDictionary
280
     1
281
     1
  3
ACAD_XREC_ROUNDTRIP
360
2469
  0
DICTIONARY
  5
B8D
330
B77
100
AcDbDictionary
280
     1
281
     1
  3
ACAD_XREC_ROUNDTRIP
360
244F
  0
DICTIONARY
  5
C50
330
303
100
AcDbDictionary
280
     1
281
     1
  3
ACAD_XREC_ROUNDTRIP
360
2421
  0
DICTIONARY
  5
2425
330
3F0
100
AcDbDictionary
280
     1
281
     1
  3
ACAD_XREC_ROUNDTRIP
360
2426
  0
DICTIONARY
  5
2423
330
3EF
100
AcDbDictionary
280
     1
281
     1
  3
ACAD_XREC_ROUNDTRIP
360
2424
  0
DICTIONARY
  5
2427
330
3F1
100
AcDbDictionary
280
     1
281
     1
  3
ACAD_XREC_ROUNDTRIP
360
2428
  0
DICTIONARY
  5
2449
330
470
100
AcDbDictionary
280
     1
281
     1
  3
ACAD_XREC_ROUNDTRIP
360
244A
  0
DICTIONARY
  5
244B
330
7EF
100
AcDbDictionary
280
     1
281
     1
  3
ACAD_XREC_ROUNDTRIP
360
244C
  0
DICTIONARY
  5
244D
330
7F8
100
AcDbDictionary
280
     1
281
     1
  3
ACAD_XREC_ROUNDTRIP
360
244E
  0
DICTIONARY
  5
EE0
330
EA9
100
AcDbDictionary
280
     1
281
     1
  3
ACAD_XREC_ROUNDTRIP
360
2466
  0
DICTIONARY
  5
F59
330
F58
100
AcDbDictionary
280
     1
281
     1
  3
ACAD_XREC_ROUNDTRIP
360
2468
  0
DICTIONARY
  5
577
330
389
100
AcDbDictionary
280
     1
281
     1
  3
ACAD_ROUNDTRIP_2008_TABLESTYLE_CELLSTYLEMAP
360
2413
  3
ACAD_XREC_ROUNDTRIP
360
2422
  0
DICTIONARY
  5
2433
330
3F8
100
AcDbDictionary
280
     1
281
     1
  3
ACAD_XREC_ROUNDTRIP
360
2434
  0
DICTIONARY
  5
2437
330
3FA
100
AcDbDictionary
280
     1
281
     1
  3
ACAD_XREC_ROUNDTRIP
360
2438
  0
DICTIONARY
  5
2435
330
3F9
100
AcDbDictionary
280
     1
281
     1
  3
ACAD_XREC_ROUNDTRIP
360
2436
  0
DICTIONARY
  5
2431
330
3F7
100
AcDbDictionary
280
     1
281
     1
  3
ACAD_XREC_ROUNDTRIP
360
2432
  0
DICTIONARY
  5
243F
330
3FE
100
AcDbDictionary
280
     1
281
     1
  3
ACAD_XREC_ROUNDTRIP
360
2440
  0
DICTIONARY
  5
2447
330
402
100
AcDbDictionary
280
     1
281
     1
  3
ACAD_XREC_ROUNDTRIP
360
2448
  0
DICTIONARY
  5
2439
330
3FB
100
AcDbDictionary
280
     1
281
     1
  3
ACAD_XREC_ROUNDTRIP
360
243A
  0
DICTIONARY
  5
243D
330
3FD
100
AcDbDictionary
280
     1
281
     1
  3
ACAD_XREC_ROUNDTRIP
360
243E
  0
DICTIONARY
  5
2456
330
C40
100
AcDbDictionary
280
     1
281
     1
  3
ACAD_XREC_ROUNDTRIP
360
2457
  0
DICTIONARY
  5
2445
330
401
100
AcDbDictionary
280
     1
281
     1
  3
ACAD_XREC_ROUNDTRIP
360
2446
  0
DICTIONARY
  5
2429
330
3F3
100
AcDbDictionary
280
     1
281
     1
  3
ACAD_XREC_ROUNDTRIP
360
242A
  0
DICTIONARY
  5
242B
330
3F4
100
AcDbDictionary
280
     1
281
     1
  3
ACAD_XREC_ROUNDTRIP
360
242C
  0
DICTIONARY
  5
242D
330
3F5
100
AcDbDictionary
280
     1
281
     1
  3
ACAD_XREC_ROUNDTRIP
360
242E
  0
DICTIONARY
  5
242F
330
3F6
100
AcDbDictionary
280
     1
281
     1
  3
ACAD_XREC_ROUNDTRIP
360
2430
  0
DICTIONARY
  5
245A
330
EA2
100
AcDbDictionary
280
     1
281
     1
  3
ACAD_XREC_ROUNDTRIP
360
245B
  0
DICTIONARY
  5
2452
330
C3E
100
AcDbDictionary
280
     1
281
     1
  3
ACAD_XREC_ROUNDTRIP
360
2453
  0
DICTIONARY
  5
2443
330
400
100
AcDbDictionary
280
     1
281
     1
  3
ACAD_XREC_ROUNDTRIP
360
2444
  0
DICTIONARY
  5
2454
330
C3F
100
AcDbDictionary
280
     1
281
     1
  3
ACAD_XREC_ROUNDTRIP
360
2455
  0
DICTIONARY
  5
243B
330
3FC
100
AcDbDictionary
280
     1
281
     1
  3
ACAD_XREC_ROUNDTRIP
360
243C
  0
DICTIONARY
  5
2464
330
EA7
100
AcDbDictionary
280
     1
281
     1
  3
ACAD_XREC_ROUNDTRIP
360
2465
  0
DICTIONARY
  5
2462
330
EA6
100
AcDbDictionary
280
     1
281
     1
  3
ACAD_XREC_ROUNDTRIP
360
2463
  0
DICTIONARY
  5
245C
330
EA3
100
AcDbDictionary
280
     1
281
     1
  3
ACAD_XREC_ROUNDTRIP
360
245D
  0
DICTIONARY
  5
245E
330
EA4
100
AcDbDictionary
280
     1
281
     1
  3
ACAD_XREC_ROUNDTRIP
360
245F
  0
DICTIONARY
  5
2441
330
3FF
100
AcDbDictionary
280
     1
281
     1
  3
ACAD_XREC_ROUNDTRIP
360
2442
  0
DICTIONARY
  5
2458
330
EA1
100
AcDbDictionary
280
     1
281
     1
  3
ACAD_XREC_ROUNDTRIP
360
2459
  0
DICTIONARY
  5
2460
330
EA5
100
AcDbDictionary
280
     1
281
     1
  3
ACAD_XREC_ROUNDTRIP
360
2461
  0
XRECORD
  5
2419
102
{ACAD_REACTORS
330
241F
102
}
330
241F
100
AcDbXrecord
280
     1
  1
AcDb_Thumbnail_Schema
102
{ATTRRECORD
341
241A
  2
AcDbDs::TreatedAsObjectData
280
     1
291
     1
102
ATTRRECORD}
102
{ATTRRECORD
341
241B
  2
AcDbDs::Legacy
280
     1
291
     1
102
ATTRRECORD}
  2
AcDbDs::ID
280
    10
 91
        8
102
{ATTRRECORD
341
241C
  2
AcDs:Indexable
280
     1
291
     1
102
ATTRRECORD}
102
{ATTRRECORD
341
241D
  2
AcDbDs::HandleAttribute
280
     7
282
     1
102
ATTRRECORD}
  2
Thumbnail_Data
280
    15
 91
        0
  0
XRECORD
  5
241A
102
{ACAD_REACTORS
330
241F
102
}
330
241F
100
AcDbXrecord
280
     1
  1
AcDbDs::TreatedAsObjectDataSchema
  2
AcDbDs::TreatedAsObjectData
280
     1
 91
        0
  0
XRECORD
  5
241B
102
{ACAD_REACTORS
330
241F
102
}
330
241F
100
AcDbXrecord
280
     1
  1
AcDbDs::LegacySchema
  2
AcDbDs::Legacy
280
     1
 91
        0
  0
XRECORD
  5
241C
102
{ACAD_REACTORS
330
241F
102
}
330
241F
100
AcDbXrecord
280
     1
  1
AcDbDs::IndexedPropertySchema
  2
AcDs:Indexable
280
     1
 91
        0
  0
XRECORD
  5
241D
102
{ACAD_REACTORS
330
241F
102
}
330
241F
100
AcDbXrecord
280
     1
  1
AcDbDs::HandleAttributeSchema
  2
AcDbDs::HandleAttribute
280
     7
 91
        1
284
     1
  0
XRECORD
  5
2467
102
{ACAD_REACTORS
330
EE2
102
}
330
EE2
100
AcDbXrecord
280
     1
102
DISPLAYNAME
  1
Imperial24
102
FLAGS
 90
        0
  0
XRECORD
  5
2469
102
{ACAD_REACTORS
330
F5B
102
}
330
F5B
100
AcDbXrecord
280
     1
102
DISPLAYNAME
  1
Metric50
102
FLAGS
 90
        0
  0
XRECORD
  5
244F
102
{ACAD_REACTORS
330
B8D
102
}
330
B8D
100
AcDbXrecord
280
     1
102
SHADEPLOT
 70
     0
102
SHADEPLOTRESLEVEL
 70
     2
102
SHADEPLOTCUSTOMDPI
 70
   300
  0
XRECORD
  5
2421
102
{ACAD_REACTORS
330
C50
102
}
330
C50
100
AcDbXrecord
280
     1
102
SHADEPLOT
 70
     0
102
SHADEPLOTRESLEVEL
 70
     2
102
SHADEPLOTCUSTOMDPI
 70
   300
  0
XRECORD
  5
2426
102
{ACAD_REACTORS
330
2425
102
}
330
2425
100
AcDbXrecord
280
     1
102
MATERIAL
148
0.0
149
0.0
149
0.0
 93
        0
 94
       63
282
     0
 72
     1
 77
     1
171
     1
175
     1
179
     1
273
     0
  0
XRECORD
  5
2424
102
{ACAD_REACTORS
330
2423
102
}
330
2423
100
AcDbXrecord
280
     1
102
MATERIAL
148
0.0
149
0.0
149
0.0
 93
        0
 94
       63
282
     0
 72
     1
 77
     1
171
     1
175
     1
179
     1
273
     0
  0
XRECORD
  5
2428
102
{ACAD_REACTORS
330
2427
102
}
330
2427
100
AcDbXrecord
280
     1
102
MATERIAL
148
0.0
149
0.0
149
0.0
 93
        0
 94
       63
282
     0
 72
     1
 77
     1
171
     1
175
     1
179
     1
273
     0
  0
XRECORD
  5
244A
102
{ACAD_REACTORS
330
2449
102
}
330
2449
100
AcDbXrecord
280
     1
102
ACAD_ROUNDTRIP_2012_MLEADER_STYLE
298
     1
  0
XRECORD
  5
244C
102
{ACAD_REACTORS
330
244B
102
}
330
244B
100
AcDbXrecord
280
     1
102
SHADEPLOT
 70
     0
102
SHADEPLOTRESLEVEL
 70
     2
102
SHADEPLOTCUSTOMDPI
 70
   300
  0
XRECORD
  5
244E
102
{ACAD_REACTORS
330
244D
102
}
330
244D
100
AcDbXrecord
280
     1
102
SHADEPLOT
 70
     0
102
SHADEPLOTRESLEVEL
 70
     2
102
SHADEPLOTCUSTOMDPI
 70
   300
  0
XRECORD
  5
2466
102
{ACAD_REACTORS
330
EE0
102
}
330
EE0
100
AcDbXrecord
280
     1
102
DISPLAYNAME
  1
Imperial24
102
FLAGS
 90
        0
  0
XRECORD
  5
2468
102
{ACAD_REACTORS
330
F59
102
}
330
F59
100
AcDbXrecord
280
     1
102
DISPLAYNAME
  1
Metric50
102
FLAGS
 90
        0
  0
CELLSTYLEMAP
  5
2413
102
{ACAD_REACTORS
330
577
102
}
330
577
100
AcDbCellStyleMap
 90
        3
300
CELLSTYLE
  1
TABLEFORMAT_BEGIN
 90
        5
170
     1
 91
        0
 92
    32768
 62
   257
 93
        1
300
CONTENTFORMAT
  1
CONTENTFORMAT_BEGIN
 90
        0
 91
        0
 92
        4
 93
        0
300

 40
0.0
140
1.0
 94
        5
 62
     0
340
1E
144
6.0
309
CONTENTFORMAT_END
171
     1
301
MARGIN
  1
CELLMARGIN_BEGIN
 40
1.5
 40
1.5
 40
1.5
 40
1.5
 40
0.18
 40
0.18
309
CELLMARGIN_END
 94
        6
 95
        1
302
GRIDFORMAT
  1
GRIDFORMAT_BEGIN
 90
        0
 91
        1
 62
     0
 92
       -2
340
0
 93
        0
 40
0.045
309
GRIDFORMAT_END
 95
        2
302
GRIDFORMAT
  1
GRIDFORMAT_BEGIN
 90
        0
 91
        1
 62
     0
 92
       -2
340
0
 93
        0
 40
0.045
309
GRIDFORMAT_END
 95
        4
302
GRIDFORMAT
  1
GRIDFORMAT_BEGIN
 90
        0
 91
        1
 62
     0
 92
       -2
340
0
 93
        0
 40
0.045
309
GRIDFORMAT_END
 95
        8
302
GRIDFORMAT
  1
GRIDFORMAT_BEGIN
 90
        0
 91
        1
 62
     0
 92
       -2
340
0
 93
        0
 40
0.045
309
GRIDFORMAT_END
 95
       16
302
GRIDFORMAT
  1
GRIDFORMAT_BEGIN
 90
        0
 91
        1
 62
     0
 92
       -2
340
0
 93
        0
 40
0.045
309
GRIDFORMAT_END
 95
       32
302
GRIDFORMAT
  1
GRIDFORMAT_BEGIN
 90
        0
 91
        1
 62
     0
 92
       -2
340
0
 93
        0
 40
0.045
309
GRIDFORMAT_END
309
TABLEFORMAT_END
  1
CELLSTYLE_BEGIN
 90
        1
 91
        1
300
_TITLE
309
CELLSTYLE_END
300
CELLSTYLE
  1
TABLEFORMAT_BEGIN
 90
        5
170
     1
 91
        0
 92
        0
 62
   257
 93
        1
300
CONTENTFORMAT
  1
CONTENTFORMAT_BEGIN
 90
        0
 91
        0
 92
        4
 93
        0
300

 40
0.0
140
1.0
 94
        5
 62
     0
340
10
144
4.5
309
CONTENTFORMAT_END
171
     1
301
MARGIN
  1
CELLMARGIN_BEGIN
 40
1.5
 40
1.5
 40
1.5
 40
1.5
 40
0.18
 40
0.18
309
CELLMARGIN_END
 94
        6
 95
        1
302
GRIDFORMAT
  1
GRIDFORMAT_BEGIN
 90
        0
 91
        1
 62
     0
 92
       -2
340
0
 93
        0
 40
0.045
309
GRIDFORMAT_END
 95
        2
302
GRIDFORMAT
  1
GRIDFORMAT_BEGIN
 90
        0
 91
        1
 62
     0
 92
       -2
340
0
 93
        0
 40
0.045
309
GRIDFORMAT_END
 95
        4
302
GRIDFORMAT
  1
GRIDFORMAT_BEGIN
 90
        0
 91
        1
 62
     0
 92
       -2
340
0
 93
        0
 40
0.045
309
GRIDFORMAT_END
 95
        8
302
GRIDFORMAT
  1
GRIDFORMAT_BEGIN
 90
        0
 91
        1
 62
     0
 92
       -2
340
0
 93
        0
 40
0.045
309
GRIDFORMAT_END
 95
       16
302
GRIDFORMAT
  1
GRIDFORMAT_BEGIN
 90
        0
 91
        1
 62
     0
 92
       -2
340
0
 93
        0
 40
0.045
309
GRIDFORMAT_END
 95
       32
302
GRIDFORMAT
  1
GRIDFORMAT_BEGIN
 90
        0
 91
        1
 62
     0
 92
       -2
340
0
 93
        0
 40
0.045
309
GRIDFORMAT_END
309
TABLEFORMAT_END
  1
CELLSTYLE_BEGIN
 90
        2
 91
        1
300
_HEADER
309
CELLSTYLE_END
300
CELLSTYLE
  1
TABLEFORMAT_BEGIN
 90
        5
170
     1
 91
        0
 92
        0
 62
   257
 93
        1
300
CONTENTFORMAT
  1
CONTENTFORMAT_BEGIN
 90
        0
 91
        0
 92
        4
 93
        0
300

 40
0.0
140
1.0
 94
        2
 62
     0
340
10
144
4.5
309
CONTENTFORMAT_END
171
     1
301
MARGIN
  1
CELLMARGIN_BEGIN
 40
1.5
 40
1.5
 40
1.5
 40
1.5
 40
0.18
 40
0.18
309
CELLMARGIN_END
 94
        6
 95
        1
302
GRIDFORMAT
  1
GRIDFORMAT_BEGIN
 90
        0
 91
        1
 62
     0
 92
       -2
340
0
 93
        0
 40
0.045
309
GRIDFORMAT_END
 95
        2
302
GRIDFORMAT
  1
GRIDFORMAT_BEGIN
 90
        0
 91
        1
 62
     0
 92
       -2
340
0
 93
        0
 40
0.045
309
GRIDFORMAT_END
 95
        4
302
GRIDFORMAT
  1
GRIDFORMAT_BEGIN
 90
        0
 91
        1
 62
     0
 92
       -2
340
0
 93
        0
 40
0.045
309
GRIDFORMAT_END
 95
        8
302
GRIDFORMAT
  1
GRIDFORMAT_BEGIN
 90
        0
 91
        1
 62
     0
 92
       -2
340
0
 93
        0
 40
0.045
309
GRIDFORMAT_END
 95
       16
302
GRIDFORMAT
  1
GRIDFORMAT_BEGIN
 90
        0
 91
        1
 62
     0
 92
       -2
340
0
 93
        0
 40
0.045
309
GRIDFORMAT_END
 95
       32
302
GRIDFORMAT
  1
GRIDFORMAT_BEGIN
 90
        0
 91
        1
 62
     0
 92
       -2
340
0
 93
        0
 40
0.045
309
GRIDFORMAT_END
309
TABLEFORMAT_END
  1
CELLSTYLE_BEGIN
 90
        3
 91
        2
300
_DATA
309
CELLSTYLE_END
  0
XRECORD
  5
2422
102
{ACAD_REACTORS
330
577
102
}
330
577
100
AcDbXrecord
280
     1
102
ACAD_ROUNDTRIP_PRE2007_TABLESTYLE
 90
        4
 91
        0
  1

 92
        4
 93
        0
  2

 94
        4
 95
        0
  3

  0
XRECORD
  5
2434
102
{ACAD_REACTORS
330
2433
102
}
330
2433
100
AcDbXrecord
280
     1
102
RTVSPost2010Prop28
280
     1
102
RTVSPost2010PropOp28
 70
     1
102
RTVSPost2010Prop29
280
     1
102
RTVSPost2010PropOp29
 70
     1
102
RTVSPost2010Prop30
280
     0
102
RTVSPost2010PropOp30
 70
     1
102
RTVSPost2010Prop31
280
     0
102
RTVSPost2010PropOp31
 70
     1
102
RTVSPost2010Prop32
280
     0
102
RTVSPost2010PropOp32
 70
     1
102
RTVSPost2010Prop33
280
     0
102
RTVSPost2010PropOp33
 70
     1
102
RTVSPost2010Prop34
280
     0
102
RTVSPost2010PropOp34
 70
     1
102
RTVSPost2010Prop35
280
     0
102
RTVSPost2010PropOp35
 70
     1
102
RTVSPost2010Prop36
280
     0
102
RTVSPost2010PropOp36
 70
     1
102
RTVSPost2010Prop37
 90
       50
102
RTVSPost2010PropOp37
 70
     1
102
RTVSPost2010Prop38
140
0.0
102
RTVSPost2010PropOp38
 70
     1
102
RTVSPost2010Prop39
140
1.0
102
RTVSPost2010PropOp39
 70
     1
102
RTVSPost2010Prop40
 90
        0
102
RTVSPost2010PropOp40
 70
     1
102
RTVSPost2010Prop41ColorIndex
 90
       18
102
RTVSPost2010Prop41ColorRGB
 90
        0
102
RTVSPost2010PropOp41
 70
     1
102
RTVSPost2010Prop42
 90
       50
102
RTVSPost2010PropOp42
 70
     1
102
RTVSPost2010Prop43
 90
        3
102
RTVSPost2010PropOp43
 70
     1
102
RTVSPost2010Prop44ColorIndex
 90
        5
102
RTVSPost2010Prop44ColorRGB
 90
      255
102
RTVSPost2010PropOp44
 70
     1
102
RTVSPost2010Prop45
280
     0
102
RTVSPost2010PropOp45
 70
     1
102
RTVSPost2010Prop46
 90
       50
102
RTVSPost2010PropOp46
 70
     1
102
RTVSPost2010Prop47
 90
       50
102
RTVSPost2010PropOp47
 70
     1
102
RTVSPost2010Prop48
 90
       50
102
RTVSPost2010PropOp48
 70
     1
102
RTVSPost2010Prop49
280
     0
102
RTVSPost2010PropOp49
 70
     1
102
RTVSPost2010Prop50
 90
       50
102
RTVSPost2010PropOp50
 70
     1
102
RTVSPost2010Prop51ColorIndex
 90
      256
102
RTVSPost2010Prop51ColorRGB
 90
-16777216
102
RTVSPost2010PropOp51
 70
     0
102
RTVSPost2010Prop52
140
1.0
102
RTVSPost2010PropOp52
 70
     0
102
RTVSPost2010Prop53
 90
        2
102
RTVSPost2010PropOp53
 70
     1
102
RTVSPost2010Prop54
  1
strokes_ogs.tif
102
RTVSPost2010PropOp54
 70
     1
102
RTVSPost2010Prop55
280
     0
102
RTVSPost2010PropOp55
 70
     1
102
RTVSPost2010Prop56
140
1.0
102
RTVSPost2010PropOp56
 70
     1
102
RTVSPost2010Prop57
140
1.0
102
RTVSPost2010PropOp57
 70
     1
102
RTVSPropertyOp0
 70
     1
102
RTVSPropertyOp1
 70
     1
102
RTVSPropertyOp2
 70
     1
102
RTVSPropertyOp3
 70
     1
102
RTVSPropertyOp4
 70
     1
102
RTVSPropertyOp5
 70
     1
102
RTVSPropertyOp6
 70
     1
102
RTVSPropertyOp7
 70
     1
102
RTVSPropertyOp8
 70
     1
102
RTVSPropertyOp9
 70
     1
102
RTVSPropertyOp10
 70
     1
102
RTVSPropertyOp11
 70
     1
102
RTVSPropertyOp12
 70
     1
102
RTVSPropertyOp13
 70
     1
102
RTVSPropertyOp14
 70
     1
102
RTVSPropertyOp15
 70
     1
102
RTVSPropertyOp16
 70
     1
102
RTVSPropertyOp17
 70
     1
102
RTVSPropertyOp18
 70
     1
102
RTVSPropertyOp19
 70
     1
102
RTVSPropertyOp20
 70
     1
102
RTVSPropertyOp21
 70
     1
102
RTVSPropertyOp22
 70
     1
102
RTVSPropertyOp23
 70
     1
102
RTVSPropertyOp24
 70
     1
102
RTVSPropertyOp25
 70
     1
102
RTVSPropertyOp26
 70
     1
102
RTVSPropertyOp27
 70
     1
102
RTVSPropertyOp28
 70
     1
102
RTVSPropertyOp29
 70
     1
102
RTVSPropertyOp30
 70
     1
102
RTVSPropertyOp31
 70
     1
102
RTVSPropertyOp32
 70
     1
102
RTVSPropertyOp33
 70
     1
102
RTVSPropertyOp34
 70
     1
102
RTVSPropertyOp35
 70
     1
102
RTVSPropertyOp36
 70
     1
102
RTVSPropertyOp37
 70
     1
102
RTVSPropertyOp38
 70
     1
102
RTVSPropertyOp39
 70
     1
102
RTVSPropertyOp40
 70
     1
102
RTVSPropertyOp41
 70
     1
102
RTVSPropertyOp42
 70
     1
102
RTVSPropertyOp43
 70
     1
102
RTVSPropertyOp44
 70
     1
102
RTVSPropertyOp45
 70
     1
102
RTVSPropertyOp46
 70
     1
102
RTVSPropertyOp47
 70
     1
102
RTVSPropertyOp48
 70
     1
102
RTVSPropertyOp49
 70
     1
102
RTVSPropertyOp50
 70
     1
102
RTVSPropertyOp51
 70
     0
102
RTVSPropertyOp52
 70
     0
102
RTVSPropertyOp53
 70
     1
102
RTVSPropertyOp54
 70
     1
102
RTVSPropertyOp55
 70
     1
102
RTVSPropertyOp56
 70
     1
102
RTVSPropertyOp57
 70
     1
102
RTVSPropertyOp58
 70
     1
102
RTVSPropertyOp59
 70
     1
102
RTVSPropertyOp60
 70
     1
102
RTVSPropertyOp61
 70
     1
102
RTVSPropertyOp62
 70
     1
  0
XRECORD
  5
2438
102
{ACAD_REACTORS
330
2437
102
}
330
2437
100
AcDbXrecord
280
     1
102
RTVSPost2010Prop28
280
     0
102
RTVSPost2010PropOp28
 70
     1
102
RTVSPost2010Prop29
280
     1
102
RTVSPost2010PropOp29
 70
     1
102
RTVSPost2010Prop30
280
     1
102
RTVSPost2010PropOp30
 70
     1
102
RTVSPost2010Prop31
280
     0
102
RTVSPost2010PropOp31
 70
     1
102
RTVSPost2010Prop32
280
     0
102
RTVSPost2010PropOp32
 70
     1
102
RTVSPost2010Prop33
280
     0
102
RTVSPost2010PropOp33
 70
     1
102
RTVSPost2010Prop34
280
     0
102
RTVSPost2010PropOp34
 70
     1
102
RTVSPost2010Prop35
280
     0
102
RTVSPost2010PropOp35
 70
     1
102
RTVSPost2010Prop36
280
     0
102
RTVSPost2010PropOp36
 70
     1
102
RTVSPost2010Prop37
 90
       50
102
RTVSPost2010PropOp37
 70
     1
102
RTVSPost2010Prop38
140
0.0
102
RTVSPost2010PropOp38
 70
     1
102
RTVSPost2010Prop39
140
1.0
102
RTVSPost2010PropOp39
 70
     1
102
RTVSPost2010Prop40
 90
        0
102
RTVSPost2010PropOp40
 70
     1
102
RTVSPost2010Prop41ColorIndex
 90
       18
102
RTVSPost2010Prop41ColorRGB
 90
        0
102
RTVSPost2010PropOp41
 70
     1
102
RTVSPost2010Prop42
 90
       50
102
RTVSPost2010PropOp42
 70
     1
102
RTVSPost2010Prop43
 90
        3
102
RTVSPost2010PropOp43
 70
     1
102
RTVSPost2010Prop44ColorIndex
 90
        5
102
RTVSPost2010Prop44ColorRGB
 90
      255
102
RTVSPost2010PropOp44
 70
     1
102
RTVSPost2010Prop45
280
     0
102
RTVSPost2010PropOp45
 70
     1
102
RTVSPost2010Prop46
 90
       50
102
RTVSPost2010PropOp46
 70
     1
102
RTVSPost2010Prop47
 90
       50
102
RTVSPost2010PropOp47
 70
     1
102
RTVSPost2010Prop48
 90
       50
102
RTVSPost2010PropOp48
 70
     1
102
RTVSPost2010Prop49
280
     0
102
RTVSPost2010PropOp49
 70
     1
102
RTVSPost2010Prop50
 90
       50
102
RTVSPost2010PropOp50
 70
     1
102
RTVSPost2010Prop51ColorIndex
 90
      256
102
RTVSPost2010Prop51ColorRGB
 90
-16777216
102
RTVSPost2010PropOp51
 70
     0
102
RTVSPost2010Prop52
140
1.0
102
RTVSPost2010PropOp52
 70
     0
102
RTVSPost2010Prop53
 90
        2
102
RTVSPost2010PropOp53
 70
     1
102
RTVSPost2010Prop54
  1
strokes_ogs.tif
102
RTVSPost2010PropOp54
 70
     1
102
RTVSPost2010Prop55
280
     0
102
RTVSPost2010PropOp55
 70
     1
102
RTVSPost2010Prop56
140
1.0
102
RTVSPost2010PropOp56
 70
     1
102
RTVSPost2010Prop57
140
1.0
102
RTVSPost2010PropOp57
 70
     1
102
RTVSPropertyOp0
 70
     1
102
RTVSPropertyOp1
 70
     1
102
RTVSPropertyOp2
 70
     1
102
RTVSPropertyOp3
 70
     1
102
RTVSPropertyOp4
 70
     1
102
RTVSPropertyOp5
 70
     1
102
RTVSPropertyOp6
 70
     1
102
RTVSPropertyOp7
 70
     1
102
RTVSPropertyOp8
 70
     1
102
RTVSPropertyOp9
 70
     1
102
RTVSPropertyOp10
 70
     1
102
RTVSPropertyOp11
 70
     1
102
RTVSPropertyOp12
 70
     1
102
RTVSPropertyOp13
 70
     1
102
RTVSPropertyOp14
 70
     1
102
RTVSPropertyOp15
 70
     1
102
RTVSPropertyOp16
 70
     1
102
RTVSPropertyOp17
 70
     1
102
RTVSPropertyOp18
 70
     1
102
RTVSPropertyOp19
 70
     1
102
RTVSPropertyOp20
 70
     1
102
RTVSPropertyOp21
 70
     1
102
RTVSPropertyOp22
 70
     1
102
RTVSPropertyOp23
 70
     1
102
RTVSPropertyOp24
 70
     1
102
RTVSPropertyOp25
 70
     1
102
RTVSPropertyOp26
 70
     1
102
RTVSPropertyOp27
 70
     1
102
RTVSPropertyOp28
 70
     1
102
RTVSPropertyOp29
 70
     1
102
RTVSPropertyOp30
 70
     1
102
RTVSPropertyOp31
 70
     1
102
RTVSPropertyOp32
 70
     1
102
RTVSPropertyOp33
 70
     1
102
RTVSPropertyOp34
 70
     1
102
RTVSPropertyOp35
 70
     1
102
RTVSPropertyOp36
 70
     1
102
RTVSPropertyOp37
 70
     1
102
RTVSPropertyOp38
 70
     1
102
RTVSPropertyOp39
 70
     1
102
RTVSPropertyOp40
 70
     1
102
RTVSPropertyOp41
 70
     1
102
RTVSPropertyOp42
 70
     1
102
RTVSPropertyOp43
 70
     1
102
RTVSPropertyOp44
 70
     1
102
RTVSPropertyOp45
 70
     1
102
RTVSPropertyOp46
 70
     1
102
RTVSPropertyOp47
 70
     1
102
RTVSPropertyOp48
 70
     1
102
RTVSPropertyOp49
 70
     1
102
RTVSPropertyOp50
 70
     1
102
RTVSPropertyOp51
 70
     0
102
RTVSPropertyOp52
 70
     0
102
RTVSPropertyOp53
 70
     1
102
RTVSPropertyOp54
 70
     1
102
RTVSPropertyOp55
 70
     1
102
RTVSPropertyOp56
 70
     1
102
RTVSPropertyOp57
 70
     1
102
RTVSPropertyOp58
 70
     1
102
RTVSPropertyOp59
 70
     1
102
RTVSPropertyOp60
 70
     1
102
RTVSPropertyOp61
 70
     1
102
RTVSPropertyOp62
 70
     1
  0
XRECORD
  5
2436
102
{ACAD_REACTORS
330
2435
102
}
330
2435
100
AcDbXrecord
280
     1
102
RTVSPost2010Prop28
280
     0
102
RTVSPost2010PropOp28
 70
     1
102
RTVSPost2010Prop29
280
     1
102
RTVSPost2010PropOp29
 70
     1
102
RTVSPost2010Prop30
280
     1
102
RTVSPost2010PropOp30
 70
     1
102
RTVSPost2010Prop31
280
     0
102
RTVSPost2010PropOp31
 70
     1
102
RTVSPost2010Prop32
280
     0
102
RTVSPost2010PropOp32
 70
     1
102
RTVSPost2010Prop33
280
     0
102
RTVSPost2010PropOp33
 70
     1
102
RTVSPost2010Prop34
280
     0
102
RTVSPost2010PropOp34
 70
     1
102
RTVSPost2010Prop35
280
     0
102
RTVSPost2010PropOp35
 70
     1
102
RTVSPost2010Prop36
280
     0
102
RTVSPost2010PropOp36
 70
     1
102
RTVSPost2010Prop37
 90
       50
102
RTVSPost2010PropOp37
 70
     1
102
RTVSPost2010Prop38
140
0.0
102
RTVSPost2010PropOp38
 70
     1
102
RTVSPost2010Prop39
140
1.0
102
RTVSPost2010PropOp39
 70
     1
102
RTVSPost2010Prop40
 90
        0
102
RTVSPost2010PropOp40
 70
     1
102
RTVSPost2010Prop41ColorIndex
 90
       18
102
RTVSPost2010Prop41ColorRGB
 90
        0
102
RTVSPost2010PropOp41
 70
     1
102
RTVSPost2010Prop42
 90
       50
102
RTVSPost2010PropOp42
 70
     1
102
RTVSPost2010Prop43
 90
        3
102
RTVSPost2010PropOp43
 70
     1
102
RTVSPost2010Prop44ColorIndex
 90
        5
102
RTVSPost2010Prop44ColorRGB
 90
      255
102
RTVSPost2010PropOp44
 70
     1
102
RTVSPost2010Prop45
280
     0
102
RTVSPost2010PropOp45
 70
     1
102
RTVSPost2010Prop46
 90
       50
102
RTVSPost2010PropOp46
 70
     1
102
RTVSPost2010Prop47
 90
       50
102
RTVSPost2010PropOp47
 70
     1
102
RTVSPost2010Prop48
 90
       50
102
RTVSPost2010PropOp48
 70
     1
102
RTVSPost2010Prop49
280
     0
102
RTVSPost2010PropOp49
 70
     1
102
RTVSPost2010Prop50
 90
       50
102
RTVSPost2010PropOp50
 70
     1
102
RTVSPost2010Prop51ColorIndex
 90
      256
102
RTVSPost2010Prop51ColorRGB
 90
-16777216
102
RTVSPost2010PropOp51
 70
     0
102
RTVSPost2010Prop52
140
1.0
102
RTVSPost2010PropOp52
 70
     0
102
RTVSPost2010Prop53
 90
        2
102
RTVSPost2010PropOp53
 70
     1
102
RTVSPost2010Prop54
  1
strokes_ogs.tif
102
RTVSPost2010PropOp54
 70
     1
102
RTVSPost2010Prop55
280
     0
102
RTVSPost2010PropOp55
 70
     1
102
RTVSPost2010Prop56
140
1.0
102
RTVSPost2010PropOp56
 70
     1
102
RTVSPost2010Prop57
140
1.0
102
RTVSPost2010PropOp57
 70
     1
102
RTVSPropertyOp0
 70
     1
102
RTVSPropertyOp1
 70
     1
102
RTVSPropertyOp2
 70
     1
102
RTVSPropertyOp3
 70
     1
102
RTVSPropertyOp4
 70
     1
102
RTVSPropertyOp5
 70
     1
102
RTVSPropertyOp6
 70
     1
102
RTVSPropertyOp7
 70
     1
102
RTVSPropertyOp8
 70
     1
102
RTVSPropertyOp9
 70
     1
102
RTVSPropertyOp10
 70
     1
102
RTVSPropertyOp11
 70
     1
102
RTVSPropertyOp12
 70
     1
102
RTVSPropertyOp13
 70
     1
102
RTVSPropertyOp14
 70
     1
102
RTVSPropertyOp15
 70
     1
102
RTVSPropertyOp16
 70
     1
102
RTVSPropertyOp17
 70
     1
102
RTVSPropertyOp18
 70
     1
102
RTVSPropertyOp19
 70
     1
102
RTVSPropertyOp20
 70
     1
102
RTVSPropertyOp21
 70
     1
102
RTVSPropertyOp22
 70
     1
102
RTVSPropertyOp23
 70
     1
102
RTVSPropertyOp24
 70
     1
102
RTVSPropertyOp25
 70
     1
102
RTVSPropertyOp26
 70
     1
102
RTVSPropertyOp27
 70
     1
102
RTVSPropertyOp28
 70
     1
102
RTVSPropertyOp29
 70
     1
102
RTVSPropertyOp30
 70
     1
102
RTVSPropertyOp31
 70
     1
102
RTVSPropertyOp32
 70
     1
102
RTVSPropertyOp33
 70
     1
102
RTVSPropertyOp34
 70
     1
102
RTVSPropertyOp35
 70
     1
102
RTVSPropertyOp36
 70
     1
102
RTVSPropertyOp37
 70
     1
102
RTVSPropertyOp38
 70
     1
102
RTVSPropertyOp39
 70
     1
102
RTVSPropertyOp40
 70
     1
102
RTVSPropertyOp41
 70
     1
102
RTVSPropertyOp42
 70
     1
102
RTVSPropertyOp43
 70
     1
102
RTVSPropertyOp44
 70
     1
102
RTVSPropertyOp45
 70
     1
102
RTVSPropertyOp46
 70
     1
102
RTVSPropertyOp47
 70
     1
102
RTVSPropertyOp48
 70
     1
102
RTVSPropertyOp49
 70
     1
102
RTVSPropertyOp50
 70
     1
102
RTVSPropertyOp51
 70
     0
102
RTVSPropertyOp52
 70
     0
102
RTVSPropertyOp53
 70
     1
102
RTVSPropertyOp54
 70
     1
102
RTVSPropertyOp55
 70
     1
102
RTVSPropertyOp56
 70
     1
102
RTVSPropertyOp57
 70
     1
102
RTVSPropertyOp58
 70
     1
102
RTVSPropertyOp59
 70
     1
102
RTVSPropertyOp60
 70
     1
102
RTVSPropertyOp61
 70
     1
102
RTVSPropertyOp62
 70
     1
  0
XRECORD
  5
2432
102
{ACAD_REACTORS
330
2431
102
}
330
2431
100
AcDbXrecord
280
     1
102
RTVSPost2010Prop28
280
     0
102
RTVSPost2010PropOp28
 70
     1
102
RTVSPost2010Prop29
280
     1
102
RTVSPost2010PropOp29
 70
     1
102
RTVSPost2010Prop30
280
     1
102
RTVSPost2010PropOp30
 70
     1
102
RTVSPost2010Prop31
280
     0
102
RTVSPost2010PropOp31
 70
     1
102
RTVSPost2010Prop32
280
     0
102
RTVSPost2010PropOp32
 70
     1
102
RTVSPost2010Prop33
280
     0
102
RTVSPost2010PropOp33
 70
     1
102
RTVSPost2010Prop34
280
     0
102
RTVSPost2010PropOp34
 70
     1
102
RTVSPost2010Prop35
280
     0
102
RTVSPost2010PropOp35
 70
     1
102
RTVSPost2010Prop36
280
     0
102
RTVSPost2010PropOp36
 70
     1
102
RTVSPost2010Prop37
 90
       50
102
RTVSPost2010PropOp37
 70
     1
102
RTVSPost2010Prop38
140
0.0
102
RTVSPost2010PropOp38
 70
     1
102
RTVSPost2010Prop39
140
1.0
102
RTVSPost2010PropOp39
 70
     1
102
RTVSPost2010Prop40
 90
        0
102
RTVSPost2010PropOp40
 70
     1
102
RTVSPost2010Prop41ColorIndex
 90
       18
102
RTVSPost2010Prop41ColorRGB
 90
        0
102
RTVSPost2010PropOp41
 70
     1
102
RTVSPost2010Prop42
 90
       50
102
RTVSPost2010PropOp42
 70
     1
102
RTVSPost2010Prop43
 90
        3
102
RTVSPost2010PropOp43
 70
     1
102
RTVSPost2010Prop44ColorIndex
 90
        5
102
RTVSPost2010Prop44ColorRGB
 90
      255
102
RTVSPost2010PropOp44
 70
     1
102
RTVSPost2010Prop45
280
     0
102
RTVSPost2010PropOp45
 70
     1
102
RTVSPost2010Prop46
 90
       50
102
RTVSPost2010PropOp46
 70
     1
102
RTVSPost2010Prop47
 90
       50
102
RTVSPost2010PropOp47
 70
     1
102
RTVSPost2010Prop48
 90
       50
102
RTVSPost2010PropOp48
 70
     1
102
RTVSPost2010Prop49
280
     0
102
RTVSPost2010PropOp49
 70
     1
102
RTVSPost2010Prop50
 90
       50
102
RTVSPost2010PropOp50
 70
     1
102
RTVSPost2010Prop51ColorIndex
 90
      256
102
RTVSPost2010Prop51ColorRGB
 90
-16777216
102
RTVSPost2010PropOp51
 70
     0
102
RTVSPost2010Prop52
140
1.0
102
RTVSPost2010PropOp52
 70
     0
102
RTVSPost2010Prop53
 90
        2
102
RTVSPost2010PropOp53
 70
     1
102
RTVSPost2010Prop54
  1
strokes_ogs.tif
102
RTVSPost2010PropOp54
 70
     1
102
RTVSPost2010Prop55
280
     0
102
RTVSPost2010PropOp55
 70
     1
102
RTVSPost2010Prop56
140
1.0
102
RTVSPost2010PropOp56
 70
     1
102
RTVSPost2010Prop57
140
1.0
102
RTVSPost2010PropOp57
 70
     1
102
RTVSPropertyOp0
 70
     1
102
RTVSPropertyOp1
 70
     1
102
RTVSPropertyOp2
 70
     1
102
RTVSPropertyOp3
 70
     1
102
RTVSPropertyOp4
 70
     1
102
RTVSPropertyOp5
 70
     1
102
RTVSPropertyOp6
 70
     1
102
RTVSPropertyOp7
 70
     1
102
RTVSPropertyOp8
 70
     1
102
RTVSPropertyOp9
 70
     1
102
RTVSPropertyOp10
 70
     1
102
RTVSPropertyOp11
 70
     1
102
RTVSPropertyOp12
 70
     1
102
RTVSPropertyOp13
 70
     1
102
RTVSPropertyOp14
 70
     1
102
RTVSPropertyOp15
 70
     1
102
RTVSPropertyOp16
 70
     1
102
RTVSPropertyOp17
 70
     1
102
RTVSPropertyOp18
 70
     1
102
RTVSPropertyOp19
 70
     1
102
RTVSPropertyOp20
 70
     1
102
RTVSPropertyOp21
 70
     1
102
RTVSPropertyOp22
 70
     1
102
RTVSPropertyOp23
 70
     1
102
RTVSPropertyOp24
 70
     1
102
RTVSPropertyOp25
 70
     1
102
RTVSPropertyOp26
 70
     1
102
RTVSPropertyOp27
 70
     1
102
RTVSPropertyOp28
 70
     1
102
RTVSPropertyOp29
 70
     1
102
RTVSPropertyOp30
 70
     1
102
RTVSPropertyOp31
 70
     1
102
RTVSPropertyOp32
 70
     1
102
RTVSPropertyOp33
 70
     1
102
RTVSPropertyOp34
 70
     1
102
RTVSPropertyOp35
 70
     1
102
RTVSPropertyOp36
 70
     1
102
RTVSPropertyOp37
 70
     1
102
RTVSPropertyOp38
 70
     1
102
RTVSPropertyOp39
 70
     1
102
RTVSPropertyOp40
 70
     1
102
RTVSPropertyOp41
 70
     1
102
RTVSPropertyOp42
 70
     1
102
RTVSPropertyOp43
 70
     1
102
RTVSPropertyOp44
 70
     1
102
RTVSPropertyOp45
 70
     1
102
RTVSPropertyOp46
 70
     1
102
RTVSPropertyOp47
 70
     1
102
RTVSPropertyOp48
 70
     1
102
RTVSPropertyOp49
 70
     1
102
RTVSPropertyOp50
 70
     1
102
RTVSPropertyOp51
 70
     0
102
RTVSPropertyOp52
 70
     0
102
RTVSPropertyOp53
 70
     1
102
RTVSPropertyOp54
 70
     1
102
RTVSPropertyOp55
 70
     1
102
RTVSPropertyOp56
 70
     1
102
RTVSPropertyOp57
 70
     1
102
RTVSPropertyOp58
 70
     1
102
RTVSPropertyOp59
 70
     1
102
RTVSPropertyOp60
 70
     1
102
RTVSPropertyOp61
 70
     1
102
RTVSPropertyOp62
 70
     1
  0
XRECORD
  5
2440
102
{ACAD_REACTORS
330
243F
102
}
330
243F
100
AcDbXrecord
280
     1
102
RTVSPost2010Prop28
280
     0
102
RTVSPost2010PropOp28
 70
     1
102
RTVSPost2010Prop29
280
     1
102
RTVSPost2010PropOp29
 70
     1
102
RTVSPost2010Prop30
280
     1
102
RTVSPost2010PropOp30
 70
     1
102
RTVSPost2010Prop31
280
     0
102
RTVSPost2010PropOp31
 70
     1
102
RTVSPost2010Prop32
280
     0
102
RTVSPost2010PropOp32
 70
     1
102
RTVSPost2010Prop33
280
     0
102
RTVSPost2010PropOp33
 70
     1
102
RTVSPost2010Prop34
280
     0
102
RTVSPost2010PropOp34
 70
     1
102
RTVSPost2010Prop35
280
     0
102
RTVSPost2010PropOp35
 70
     1
102
RTVSPost2010Prop36
280
     0
102
RTVSPost2010PropOp36
 70
     1
102
RTVSPost2010Prop37
 90
       50
102
RTVSPost2010PropOp37
 70
     1
102
RTVSPost2010Prop38
140
0.0
102
RTVSPost2010PropOp38
 70
     1
102
RTVSPost2010Prop39
140
1.0
102
RTVSPost2010PropOp39
 70
     1
102
RTVSPost2010Prop40
 90
        0
102
RTVSPost2010PropOp40
 70
     1
102
RTVSPost2010Prop41ColorIndex
 90
       18
102
RTVSPost2010Prop41ColorRGB
 90
        0
102
RTVSPost2010PropOp41
 70
     1
102
RTVSPost2010Prop42
 90
       50
102
RTVSPost2010PropOp42
 70
     1
102
RTVSPost2010Prop43
 90
        3
102
RTVSPost2010PropOp43
 70
     1
102
RTVSPost2010Prop44ColorIndex
 90
        5
102
RTVSPost2010Prop44ColorRGB
 90
      255
102
RTVSPost2010PropOp44
 70
     1
102
RTVSPost2010Prop45
280
     0
102
RTVSPost2010PropOp45
 70
     1
102
RTVSPost2010Prop46
 90
       50
102
RTVSPost2010PropOp46
 70
     1
102
RTVSPost2010Prop47
 90
       50
102
RTVSPost2010PropOp47
 70
     1
102
RTVSPost2010Prop48
 90
       50
102
RTVSPost2010PropOp48
 70
     1
102
RTVSPost2010Prop49
280
     0
102
RTVSPost2010PropOp49
 70
     1
102
RTVSPost2010Prop50
 90
       50
102
RTVSPost2010PropOp50
 70
     1
102
RTVSPost2010Prop51ColorIndex
 90
      256
102
RTVSPost2010Prop51ColorRGB
 90
-16777216
102
RTVSPost2010PropOp51
 70
     0
102
RTVSPost2010Prop52
140
1.0
102
RTVSPost2010PropOp52
 70
     0
102
RTVSPost2010Prop53
 90
        2
102
RTVSPost2010PropOp53
 70
     1
102
RTVSPost2010Prop54
  1
strokes_ogs.tif
102
RTVSPost2010PropOp54
 70
     1
102
RTVSPost2010Prop55
280
     0
102
RTVSPost2010PropOp55
 70
     1
102
RTVSPost2010Prop56
140
1.0
102
RTVSPost2010PropOp56
 70
     1
102
RTVSPost2010Prop57
140
1.0
102
RTVSPost2010PropOp57
 70
     1
102
RTVSPropertyOp0
 70
     1
102
RTVSPropertyOp1
 70
     1
102
RTVSPropertyOp2
 70
     1
102
RTVSPropertyOp3
 70
     1
102
RTVSPropertyOp4
 70
     1
102
RTVSPropertyOp5
 70
     1
102
RTVSPropertyOp6
 70
     1
102
RTVSPropertyOp7
 70
     1
102
RTVSPropertyOp8
 70
     1
102
RTVSPropertyOp9
 70
     1
102
RTVSPropertyOp10
 70
     1
102
RTVSPropertyOp11
 70
     1
102
RTVSPropertyOp12
 70
     1
102
RTVSPropertyOp13
 70
     1
102
RTVSPropertyOp14
 70
     1
102
RTVSPropertyOp15
 70
     1
102
RTVSPropertyOp16
 70
     1
102
RTVSPropertyOp17
 70
     1
102
RTVSPropertyOp18
 70
     1
102
RTVSPropertyOp19
 70
     1
102
RTVSPropertyOp20
 70
     1
102
RTVSPropertyOp21
 70
     1
102
RTVSPropertyOp22
 70
     1
102
RTVSPropertyOp23
 70
     1
102
RTVSPropertyOp24
 70
     1
102
RTVSPropertyOp25
 70
     1
102
RTVSPropertyOp26
 70
     1
102
RTVSPropertyOp27
 70
     1
102
RTVSPropertyOp28
 70
     1
102
RTVSPropertyOp29
 70
     1
102
RTVSPropertyOp30
 70
     1
102
RTVSPropertyOp31
 70
     1
102
RTVSPropertyOp32
 70
     1
102
RTVSPropertyOp33
 70
     1
102
RTVSPropertyOp34
 70
     1
102
RTVSPropertyOp35
 70
     1
102
RTVSPropertyOp36
 70
     1
102
RTVSPropertyOp37
 70
     1
102
RTVSPropertyOp38
 70
     1
102
RTVSPropertyOp39
 70
     1
102
RTVSPropertyOp40
 70
     1
102
RTVSPropertyOp41
 70
     1
102
RTVSPropertyOp42
 70
     1
102
RTVSPropertyOp43
 70
     1
102
RTVSPropertyOp44
 70
     1
102
RTVSPropertyOp45
 70
     1
102
RTVSPropertyOp46
 70
     1
102
RTVSPropertyOp47
 70
     1
102
RTVSPropertyOp48
 70
     1
102
RTVSPropertyOp49
 70
     1
102
RTVSPropertyOp50
 70
     1
102
RTVSPropertyOp51
 70
     0
102
RTVSPropertyOp52
 70
     0
102
RTVSPropertyOp53
 70
     1
102
RTVSPropertyOp54
 70
     1
102
RTVSPropertyOp55
 70
     1
102
RTVSPropertyOp56
 70
     1
102
RTVSPropertyOp57
 70
     1
102
RTVSPropertyOp58
 70
     1
102
RTVSPropertyOp59
 70
     1
102
RTVSPropertyOp60
 70
     1
102
RTVSPropertyOp61
 70
     1
102
RTVSPropertyOp62
 70
     1
  0
XRECORD
  5
2448
102
{ACAD_REACTORS
330
2447
102
}
330
2447
100
AcDbXrecord
280
     1
102
RTVSPost2010Prop28
280
     0
102
RTVSPost2010PropOp28
 70
     1
102
RTVSPost2010Prop29
280
     1
102
RTVSPost2010PropOp29
 70
     1
102
RTVSPost2010Prop30
280
     1
102
RTVSPost2010PropOp30
 70
     1
102
RTVSPost2010Prop31
280
     0
102
RTVSPost2010PropOp31
 70
     1
102
RTVSPost2010Prop32
280
     0
102
RTVSPost2010PropOp32
 70
     1
102
RTVSPost2010Prop33
280
     0
102
RTVSPost2010PropOp33
 70
     1
102
RTVSPost2010Prop34
280
     0
102
RTVSPost2010PropOp34
 70
     1
102
RTVSPost2010Prop35
280
     0
102
RTVSPost2010PropOp35
 70
     1
102
RTVSPost2010Prop36
280
     0
102
RTVSPost2010PropOp36
 70
     1
102
RTVSPost2010Prop37
 90
       50
102
RTVSPost2010PropOp37
 70
     1
102
RTVSPost2010Prop38
140
0.0
102
RTVSPost2010PropOp38
 70
     1
102
RTVSPost2010Prop39
140
1.0
102
RTVSPost2010PropOp39
 70
     1
102
RTVSPost2010Prop40
 90
        0
102
RTVSPost2010PropOp40
 70
     1
102
RTVSPost2010Prop41ColorIndex
 90
       18
102
RTVSPost2010Prop41ColorRGB
 90
        0
102
RTVSPost2010PropOp41
 70
     1
102
RTVSPost2010Prop42
 90
       50
102
RTVSPost2010PropOp42
 70
     1
102
RTVSPost2010Prop43
 90
        3
102
RTVSPost2010PropOp43
 70
     1
102
RTVSPost2010Prop44ColorIndex
 90
        5
102
RTVSPost2010Prop44ColorRGB
 90
      255
102
RTVSPost2010PropOp44
 70
     1
102
RTVSPost2010Prop45
280
     0
102
RTVSPost2010PropOp45
 70
     1
102
RTVSPost2010Prop46
 90
       50
102
RTVSPost2010PropOp46
 70
     1
102
RTVSPost2010Prop47
 90
       50
102
RTVSPost2010PropOp47
 70
     1
102
RTVSPost2010Prop48
 90
       50
102
RTVSPost2010PropOp48
 70
     1
102
RTVSPost2010Prop49
280
     0
102
RTVSPost2010PropOp49
 70
     1
102
RTVSPost2010Prop50
 90
       50
102
RTVSPost2010PropOp50
 70
     1
102
RTVSPost2010Prop51ColorIndex
 90
      256
102
RTVSPost2010Prop51ColorRGB
 90
-16777216
102
RTVSPost2010PropOp51
 70
     0
102
RTVSPost2010Prop52
140
1.0
102
RTVSPost2010PropOp52
 70
     0
102
RTVSPost2010Prop53
 90
        2
102
RTVSPost2010PropOp53
 70
     1
102
RTVSPost2010Prop54
  1
strokes_ogs.tif
102
RTVSPost2010PropOp54
 70
     1
102
RTVSPost2010Prop55
280
     0
102
RTVSPost2010PropOp55
 70
     1
102
RTVSPost2010Prop56
140
1.0
102
RTVSPost2010PropOp56
 70
     1
102
RTVSPost2010Prop57
140
1.0
102
RTVSPost2010PropOp57
 70
     1
102
RTVSPropertyOp0
 70
     1
102
RTVSPropertyOp1
 70
     1
102
RTVSPropertyOp2
 70
     1
102
RTVSPropertyOp3
 70
     1
102
RTVSPropertyOp4
 70
     1
102
RTVSPropertyOp5
 70
     1
102
RTVSPropertyOp6
 70
     1
102
RTVSPropertyOp7
 70
     1
102
RTVSPropertyOp8
 70
     1
102
RTVSPropertyOp9
 70
     1
102
RTVSPropertyOp10
 70
     1
102
RTVSPropertyOp11
 70
     1
102
RTVSPropertyOp12
 70
     1
102
RTVSPropertyOp13
 70
     1
102
RTVSPropertyOp14
 70
     1
102
RTVSPropertyOp15
 70
     1
102
RTVSPropertyOp16
 70
     1
102
RTVSPropertyOp17
 70
     1
102
RTVSPropertyOp18
 70
     1
102
RTVSPropertyOp19
 70
     1
102
RTVSPropertyOp20
 70
     1
102
RTVSPropertyOp21
 70
     1
102
RTVSPropertyOp22
 70
     1
102
RTVSPropertyOp23
 70
     1
102
RTVSPropertyOp24
 70
     1
102
RTVSPropertyOp25
 70
     1
102
RTVSPropertyOp26
 70
     1
102
RTVSPropertyOp27
 70
     1
102
RTVSPropertyOp28
 70
     1
102
RTVSPropertyOp29
 70
     1
102
RTVSPropertyOp30
 70
     1
102
RTVSPropertyOp31
 70
     1
102
RTVSPropertyOp32
 70
     1
102
RTVSPropertyOp33
 70
     1
102
RTVSPropertyOp34
 70
     1
102
RTVSPropertyOp35
 70
     1
102
RTVSPropertyOp36
 70
     1
102
RTVSPropertyOp37
 70
     1
102
RTVSPropertyOp38
 70
     1
102
RTVSPropertyOp39
 70
     1
102
RTVSPropertyOp40
 70
     1
102
RTVSPropertyOp41
 70
     1
102
RTVSPropertyOp42
 70
     1
102
RTVSPropertyOp43
 70
     1
102
RTVSPropertyOp44
 70
     1
102
RTVSPropertyOp45
 70
     1
102
RTVSPropertyOp46
 70
     1
102
RTVSPropertyOp47
 70
     1
102
RTVSPropertyOp48
 70
     1
102
RTVSPropertyOp49
 70
     1
102
RTVSPropertyOp50
 70
     1
102
RTVSPropertyOp51
 70
     0
102
RTVSPropertyOp52
 70
     0
102
RTVSPropertyOp53
 70
     1
102
RTVSPropertyOp54
 70
     1
102
RTVSPropertyOp55
 70
     1
102
RTVSPropertyOp56
 70
     1
102
RTVSPropertyOp57
 70
     1
102
RTVSPropertyOp58
 70
     1
102
RTVSPropertyOp59
 70
     1
102
RTVSPropertyOp60
 70
     1
102
RTVSPropertyOp61
 70
     1
102
RTVSPropertyOp62
 70
     1
  0
XRECORD
  5
243A
102
{ACAD_REACTORS
330
2439
102
}
330
2439
100
AcDbXrecord
280
     1
102
RTVSPost2010Prop28
280
     0
102
RTVSPost2010PropOp28
 70
     1
102
RTVSPost2010Prop29
280
     1
102
RTVSPost2010PropOp29
 70
     1
102
RTVSPost2010Prop30
280
     1
102
RTVSPost2010PropOp30
 70
     1
102
RTVSPost2010Prop31
280
     0
102
RTVSPost2010PropOp31
 70
     1
102
RTVSPost2010Prop32
280
     0
102
RTVSPost2010PropOp32
 70
     1
102
RTVSPost2010Prop33
280
     0
102
RTVSPost2010PropOp33
 70
     1
102
RTVSPost2010Prop34
280
     0
102
RTVSPost2010PropOp34
 70
     1
102
RTVSPost2010Prop35
280
     0
102
RTVSPost2010PropOp35
 70
     1
102
RTVSPost2010Prop36
280
     0
102
RTVSPost2010PropOp36
 70
     1
102
RTVSPost2010Prop37
 90
       50
102
RTVSPost2010PropOp37
 70
     1
102
RTVSPost2010Prop38
140
0.0
102
RTVSPost2010PropOp38
 70
     1
102
RTVSPost2010Prop39
140
1.0
102
RTVSPost2010PropOp39
 70
     1
102
RTVSPost2010Prop40
 90
        0
102
RTVSPost2010PropOp40
 70
     1
102
RTVSPost2010Prop41ColorIndex
 90
       18
102
RTVSPost2010Prop41ColorRGB
 90
        0
102
RTVSPost2010PropOp41
 70
     1
102
RTVSPost2010Prop42
 90
       50
102
RTVSPost2010PropOp42
 70
     1
102
RTVSPost2010Prop43
 90
        3
102
RTVSPost2010PropOp43
 70
     1
102
RTVSPost2010Prop44ColorIndex
 90
        5
102
RTVSPost2010Prop44ColorRGB
 90
      255
102
RTVSPost2010PropOp44
 70
     1
102
RTVSPost2010Prop45
280
     0
102
RTVSPost2010PropOp45
 70
     1
102
RTVSPost2010Prop46
 90
       50
102
RTVSPost2010PropOp46
 70
     1
102
RTVSPost2010Prop47
 90
       50
102
RTVSPost2010PropOp47
 70
     1
102
RTVSPost2010Prop48
 90
       50
102
RTVSPost2010PropOp48
 70
     1
102
RTVSPost2010Prop49
280
     0
102
RTVSPost2010PropOp49
 70
     1
102
RTVSPost2010Prop50
 90
       50
102
RTVSPost2010PropOp50
 70
     1
102
RTVSPost2010Prop51ColorIndex
 90
      256
102
RTVSPost2010Prop51ColorRGB
 90
-16777216
102
RTVSPost2010PropOp51
 70
     0
102
RTVSPost2010Prop52
140
1.0
102
RTVSPost2010PropOp52
 70
     0
102
RTVSPost2010Prop53
 90
        2
102
RTVSPost2010PropOp53
 70
     1
102
RTVSPost2010Prop54
  1
strokes_ogs.tif
102
RTVSPost2010PropOp54
 70
     1
102
RTVSPost2010Prop55
280
     0
102
RTVSPost2010PropOp55
 70
     1
102
RTVSPost2010Prop56
140
1.0
102
RTVSPost2010PropOp56
 70
     1
102
RTVSPost2010Prop57
140
1.0
102
RTVSPost2010PropOp57
 70
     1
102
RTVSPropertyOp0
 70
     1
102
RTVSPropertyOp1
 70
     1
102
RTVSPropertyOp2
 70
     1
102
RTVSPropertyOp3
 70
     1
102
RTVSPropertyOp4
 70
     1
102
RTVSPropertyOp5
 70
     1
102
RTVSPropertyOp6
 70
     1
102
RTVSPropertyOp7
 70
     1
102
RTVSPropertyOp8
 70
     1
102
RTVSPropertyOp9
 70
     1
102
RTVSPropertyOp10
 70
     1
102
RTVSPropertyOp11
 70
     1
102
RTVSPropertyOp12
 70
     1
102
RTVSPropertyOp13
 70
     1
102
RTVSPropertyOp14
 70
     1
102
RTVSPropertyOp15
 70
     1
102
RTVSPropertyOp16
 70
     1
102
RTVSPropertyOp17
 70
     1
102
RTVSPropertyOp18
 70
     1
102
RTVSPropertyOp19
 70
     1
102
RTVSPropertyOp20
 70
     1
102
RTVSPropertyOp21
 70
     1
102
RTVSPropertyOp22
 70
     1
102
RTVSPropertyOp23
 70
     1
102
RTVSPropertyOp24
 70
     1
102
RTVSPropertyOp25
 70
     1
102
RTVSPropertyOp26
 70
     1
102
RTVSPropertyOp27
 70
     1
102
RTVSPropertyOp28
 70
     1
102
RTVSPropertyOp29
 70
     1
102
RTVSPropertyOp30
 70
     1
102
RTVSPropertyOp31
 70
     1
102
RTVSPropertyOp32
 70
     1
102
RTVSPropertyOp33
 70
     1
102
RTVSPropertyOp34
 70
     1
102
RTVSPropertyOp35
 70
     1
102
RTVSPropertyOp36
 70
     1
102
RTVSPropertyOp37
 70
     1
102
RTVSPropertyOp38
 70
     1
102
RTVSPropertyOp39
 70
     1
102
RTVSPropertyOp40
 70
     1
102
RTVSPropertyOp41
 70
     1
102
RTVSPropertyOp42
 70
     1
102
RTVSPropertyOp43
 70
     1
102
RTVSPropertyOp44
 70
     1
102
RTVSPropertyOp45
 70
     1
102
RTVSPropertyOp46
 70
     1
102
RTVSPropertyOp47
 70
     1
102
RTVSPropertyOp48
 70
     1
102
RTVSPropertyOp49
 70
     1
102
RTVSPropertyOp50
 70
     1
102
RTVSPropertyOp51
 70
     0
102
RTVSPropertyOp52
 70
     0
102
RTVSPropertyOp53
 70
     1
102
RTVSPropertyOp54
 70
     1
102
RTVSPropertyOp55
 70
     1
102
RTVSPropertyOp56
 70
     1
102
RTVSPropertyOp57
 70
     1
102
RTVSPropertyOp58
 70
     1
102
RTVSPropertyOp59
 70
     1
102
RTVSPropertyOp60
 70
     1
102
RTVSPropertyOp61
 70
     1
102
RTVSPropertyOp62
 70
     1
  0
XRECORD
  5
243E
102
{ACAD_REACTORS
330
243D
102
}
330
243D
100
AcDbXrecord
280
     1
102
RTVSPost2010Prop28
280
     0
102
RTVSPost2010PropOp28
 70
     1
102
RTVSPost2010Prop29
280
     1
102
RTVSPost2010PropOp29
 70
     1
102
RTVSPost2010Prop30
280
     1
102
RTVSPost2010PropOp30
 70
     1
102
RTVSPost2010Prop31
280
     0
102
RTVSPost2010PropOp31
 70
     1
102
RTVSPost2010Prop32
280
     0
102
RTVSPost2010PropOp32
 70
     1
102
RTVSPost2010Prop33
280
     0
102
RTVSPost2010PropOp33
 70
     1
102
RTVSPost2010Prop34
280
     0
102
RTVSPost2010PropOp34
 70
     1
102
RTVSPost2010Prop35
280
     0
102
RTVSPost2010PropOp35
 70
     1
102
RTVSPost2010Prop36
280
     0
102
RTVSPost2010PropOp36
 70
     1
102
RTVSPost2010Prop37
 90
       50
102
RTVSPost2010PropOp37
 70
     1
102
RTVSPost2010Prop38
140
0.0
102
RTVSPost2010PropOp38
 70
     1
102
RTVSPost2010Prop39
140
1.0
102
RTVSPost2010PropOp39
 70
     1
102
RTVSPost2010Prop40
 90
        0
102
RTVSPost2010PropOp40
 70
     1
102
RTVSPost2010Prop41ColorIndex
 90
       18
102
RTVSPost2010Prop41ColorRGB
 90
        0
102
RTVSPost2010PropOp41
 70
     1
102
RTVSPost2010Prop42
 90
       50
102
RTVSPost2010PropOp42
 70
     1
102
RTVSPost2010Prop43
 90
        3
102
RTVSPost2010PropOp43
 70
     1
102
RTVSPost2010Prop44ColorIndex
 90
        5
102
RTVSPost2010Prop44ColorRGB
 90
      255
102
RTVSPost2010PropOp44
 70
     1
102
RTVSPost2010Prop45
280
     0
102
RTVSPost2010PropOp45
 70
     1
102
RTVSPost2010Prop46
 90
       50
102
RTVSPost2010PropOp46
 70
     1
102
RTVSPost2010Prop47
 90
       50
102
RTVSPost2010PropOp47
 70
     1
102
RTVSPost2010Prop48
 90
       50
102
RTVSPost2010PropOp48
 70
     1
102
RTVSPost2010Prop49
280
     0
102
RTVSPost2010PropOp49
 70
     1
102
RTVSPost2010Prop50
 90
       50
102
RTVSPost2010PropOp50
 70
     1
102
RTVSPost2010Prop51ColorIndex
 90
      256
102
RTVSPost2010Prop51ColorRGB
 90
-16777216
102
RTVSPost2010PropOp51
 70
     0
102
RTVSPost2010Prop52
140
1.0
102
RTVSPost2010PropOp52
 70
     0
102
RTVSPost2010Prop53
 90
        2
102
RTVSPost2010PropOp53
 70
     1
102
RTVSPost2010Prop54
  1
strokes_ogs.tif
102
RTVSPost2010PropOp54
 70
     1
102
RTVSPost2010Prop55
280
     0
102
RTVSPost2010PropOp55
 70
     1
102
RTVSPost2010Prop56
140
1.0
102
RTVSPost2010PropOp56
 70
     1
102
RTVSPost2010Prop57
140
1.0
102
RTVSPost2010PropOp57
 70
     1
102
RTVSPropertyOp0
 70
     1
102
RTVSPropertyOp1
 70
     1
102
RTVSPropertyOp2
 70
     1
102
RTVSPropertyOp3
 70
     1
102
RTVSPropertyOp4
 70
     1
102
RTVSPropertyOp5
 70
     1
102
RTVSPropertyOp6
 70
     1
102
RTVSPropertyOp7
 70
     1
102
RTVSPropertyOp8
 70
     1
102
RTVSPropertyOp9
 70
     1
102
RTVSPropertyOp10
 70
     1
102
RTVSPropertyOp11
 70
     1
102
RTVSPropertyOp12
 70
     1
102
RTVSPropertyOp13
 70
     1
102
RTVSPropertyOp14
 70
     1
102
RTVSPropertyOp15
 70
     1
102
RTVSPropertyOp16
 70
     1
102
RTVSPropertyOp17
 70
     1
102
RTVSPropertyOp18
 70
     1
102
RTVSPropertyOp19
 70
     1
102
RTVSPropertyOp20
 70
     1
102
RTVSPropertyOp21
 70
     1
102
RTVSPropertyOp22
 70
     1
102
RTVSPropertyOp23
 70
     1
102
RTVSPropertyOp24
 70
     1
102
RTVSPropertyOp25
 70
     1
102
RTVSPropertyOp26
 70
     1
102
RTVSPropertyOp27
 70
     1
102
RTVSPropertyOp28
 70
     1
102
RTVSPropertyOp29
 70
     1
102
RTVSPropertyOp30
 70
     1
102
RTVSPropertyOp31
 70
     1
102
RTVSPropertyOp32
 70
     1
102
RTVSPropertyOp33
 70
     1
102
RTVSPropertyOp34
 70
     1
102
RTVSPropertyOp35
 70
     1
102
RTVSPropertyOp36
 70
     1
102
RTVSPropertyOp37
 70
     1
102
RTVSPropertyOp38
 70
     1
102
RTVSPropertyOp39
 70
     1
102
RTVSPropertyOp40
 70
     1
102
RTVSPropertyOp41
 70
     1
102
RTVSPropertyOp42
 70
     1
102
RTVSPropertyOp43
 70
     1
102
RTVSPropertyOp44
 70
     1
102
RTVSPropertyOp45
 70
     1
102
RTVSPropertyOp46
 70
     1
102
RTVSPropertyOp47
 70
     1
102
RTVSPropertyOp48
 70
     1
102
RTVSPropertyOp49
 70
     1
102
RTVSPropertyOp50
 70
     1
102
RTVSPropertyOp51
 70
     0
102
RTVSPropertyOp52
 70
     0
102
RTVSPropertyOp53
 70
     1
102
RTVSPropertyOp54
 70
     1
102
RTVSPropertyOp55
 70
     1
102
RTVSPropertyOp56
 70
     1
102
RTVSPropertyOp57
 70
     1
102
RTVSPropertyOp58
 70
     1
102
RTVSPropertyOp59
 70
     1
102
RTVSPropertyOp60
 70
     1
102
RTVSPropertyOp61
 70
     1
102
RTVSPropertyOp62
 70
     1
  0
XRECORD
  5
2457
102
{ACAD_REACTORS
330
2456
102
}
330
2456
100
AcDbXrecord
280
     1
102
RTVSPost2010Prop28
280
     0
102
RTVSPost2010PropOp28
 70
     1
102
RTVSPost2010Prop29
280
     1
102
RTVSPost2010PropOp29
 70
     1
102
RTVSPost2010Prop30
280
     1
102
RTVSPost2010PropOp30
 70
     1
102
RTVSPost2010Prop31
280
     0
102
RTVSPost2010PropOp31
 70
     1
102
RTVSPost2010Prop32
280
     0
102
RTVSPost2010PropOp32
 70
     1
102
RTVSPost2010Prop33
280
     0
102
RTVSPost2010PropOp33
 70
     1
102
RTVSPost2010Prop34
280
     0
102
RTVSPost2010PropOp34
 70
     1
102
RTVSPost2010Prop35
280
     0
102
RTVSPost2010PropOp35
 70
     1
102
RTVSPost2010Prop36
280
     0
102
RTVSPost2010PropOp36
 70
     1
102
RTVSPost2010Prop37
 90
       50
102
RTVSPost2010PropOp37
 70
     1
102
RTVSPost2010Prop38
140
0.0
102
RTVSPost2010PropOp38
 70
     1
102
RTVSPost2010Prop39
140
1.0
102
RTVSPost2010PropOp39
 70
     1
102
RTVSPost2010Prop40
 90
        0
102
RTVSPost2010PropOp40
 70
     1
102
RTVSPost2010Prop41ColorIndex
 90
       18
102
RTVSPost2010Prop41ColorRGB
 90
        0
102
RTVSPost2010PropOp41
 70
     1
102
RTVSPost2010Prop42
 90
       50
102
RTVSPost2010PropOp42
 70
     1
102
RTVSPost2010Prop43
 90
        3
102
RTVSPost2010PropOp43
 70
     1
102
RTVSPost2010Prop44ColorIndex
 90
        5
102
RTVSPost2010Prop44ColorRGB
 90
      255
102
RTVSPost2010PropOp44
 70
     1
102
RTVSPost2010Prop45
280
     0
102
RTVSPost2010PropOp45
 70
     1
102
RTVSPost2010Prop46
 90
       50
102
RTVSPost2010PropOp46
 70
     1
102
RTVSPost2010Prop47
 90
       50
102
RTVSPost2010PropOp47
 70
     1
102
RTVSPost2010Prop48
 90
       50
102
RTVSPost2010PropOp48
 70
     1
102
RTVSPost2010Prop49
280
     0
102
RTVSPost2010PropOp49
 70
     1
102
RTVSPost2010Prop50
 90
       50
102
RTVSPost2010PropOp50
 70
     1
102
RTVSPost2010Prop51ColorIndex
 90
      256
102
RTVSPost2010Prop51ColorRGB
 90
-16777216
102
RTVSPost2010PropOp51
 70
     0
102
RTVSPost2010Prop52
140
1.0
102
RTVSPost2010PropOp52
 70
     0
102
RTVSPost2010Prop53
 90
        2
102
RTVSPost2010PropOp53
 70
     1
102
RTVSPost2010Prop54
  1
strokes_ogs.tif
102
RTVSPost2010PropOp54
 70
     1
102
RTVSPost2010Prop55
280
     0
102
RTVSPost2010PropOp55
 70
     1
102
RTVSPost2010Prop56
140
1.0
102
RTVSPost2010PropOp56
 70
     1
102
RTVSPost2010Prop57
140
1.0
102
RTVSPost2010PropOp57
 70
     1
102
RTVSPropertyOp0
 70
     0
102
RTVSPropertyOp1
 70
     0
102
RTVSPropertyOp2
 70
     0
102
RTVSPropertyOp3
 70
     0
102
RTVSPropertyOp4
 70
     0
102
RTVSPropertyOp5
 70
     0
102
RTVSPropertyOp6
 70
     0
102
RTVSPropertyOp7
 70
     0
102
RTVSPropertyOp8
 70
     0
102
RTVSPropertyOp9
 70
     0
102
RTVSPropertyOp10
 70
     0
102
RTVSPropertyOp11
 70
     0
102
RTVSPropertyOp12
 70
     0
102
RTVSPropertyOp13
 70
     0
102
RTVSPropertyOp14
 70
     2
102
RTVSPropertyOp15
 70
     0
102
RTVSPropertyOp16
 70
     0
102
RTVSPropertyOp17
 70
     0
102
RTVSPropertyOp18
 70
     0
102
RTVSPropertyOp19
 70
     0
102
RTVSPropertyOp20
 70
     0
102
RTVSPropertyOp21
 70
     0
102
RTVSPropertyOp22
 70
     0
102
RTVSPropertyOp23
 70
     0
102
RTVSPropertyOp24
 70
     0
102
RTVSPropertyOp25
 70
     0
102
RTVSPropertyOp26
 70
     0
102
RTVSPropertyOp27
 70
     0
102
RTVSPropertyOp28
 70
     1
102
RTVSPropertyOp29
 70
     1
102
RTVSPropertyOp30
 70
     1
102
RTVSPropertyOp31
 70
     1
102
RTVSPropertyOp32
 70
     1
102
RTVSPropertyOp33
 70
     1
102
RTVSPropertyOp34
 70
     1
102
RTVSPropertyOp35
 70
     1
102
RTVSPropertyOp36
 70
     1
102
RTVSPropertyOp37
 70
     1
102
RTVSPropertyOp38
 70
     1
102
RTVSPropertyOp39
 70
     1
102
RTVSPropertyOp40
 70
     1
102
RTVSPropertyOp41
 70
     1
102
RTVSPropertyOp42
 70
     1
102
RTVSPropertyOp43
 70
     1
102
RTVSPropertyOp44
 70
     1
102
RTVSPropertyOp45
 70
     1
102
RTVSPropertyOp46
 70
     1
102
RTVSPropertyOp47
 70
     1
102
RTVSPropertyOp48
 70
     1
102
RTVSPropertyOp49
 70
     1
102
RTVSPropertyOp50
 70
     1
102
RTVSPropertyOp51
 70
     0
102
RTVSPropertyOp52
 70
     0
102
RTVSPropertyOp53
 70
     1
102
RTVSPropertyOp54
 70
     1
102
RTVSPropertyOp55
 70
     1
102
RTVSPropertyOp56
 70
     1
102
RTVSPropertyOp57
 70
     1
102
RTVSPropertyOp58
 70
     1
102
RTVSPropertyOp59
 70
     1
102
RTVSPropertyOp60
 70
     1
102
RTVSPropertyOp61
 70
     1
102
RTVSPropertyOp62
 70
     1
  0
XRECORD
  5
2446
102
{ACAD_REACTORS
330
2445
102
}
330
2445
100
AcDbXrecord
280
     1
102
RTVSPost2010Prop28
280
     0
102
RTVSPost2010PropOp28
 70
     1
102
RTVSPost2010Prop29
280
     1
102
RTVSPost2010PropOp29
 70
     1
102
RTVSPost2010Prop30
280
     1
102
RTVSPost2010PropOp30
 70
     1
102
RTVSPost2010Prop31
280
     0
102
RTVSPost2010PropOp31
 70
     1
102
RTVSPost2010Prop32
280
     0
102
RTVSPost2010PropOp32
 70
     1
102
RTVSPost2010Prop33
280
     0
102
RTVSPost2010PropOp33
 70
     1
102
RTVSPost2010Prop34
280
     0
102
RTVSPost2010PropOp34
 70
     1
102
RTVSPost2010Prop35
280
     0
102
RTVSPost2010PropOp35
 70
     1
102
RTVSPost2010Prop36
280
     0
102
RTVSPost2010PropOp36
 70
     1
102
RTVSPost2010Prop37
 90
       50
102
RTVSPost2010PropOp37
 70
     1
102
RTVSPost2010Prop38
140
0.0
102
RTVSPost2010PropOp38
 70
     1
102
RTVSPost2010Prop39
140
1.0
102
RTVSPost2010PropOp39
 70
     1
102
RTVSPost2010Prop40
 90
        0
102
RTVSPost2010PropOp40
 70
     1
102
RTVSPost2010Prop41ColorIndex
 90
       18
102
RTVSPost2010Prop41ColorRGB
 90
        0
102
RTVSPost2010PropOp41
 70
     1
102
RTVSPost2010Prop42
 90
       50
102
RTVSPost2010PropOp42
 70
     1
102
RTVSPost2010Prop43
 90
        3
102
RTVSPost2010PropOp43
 70
     1
102
RTVSPost2010Prop44ColorIndex
 90
        5
102
RTVSPost2010Prop44ColorRGB
 90
      255
102
RTVSPost2010PropOp44
 70
     1
102
RTVSPost2010Prop45
280
     0
102
RTVSPost2010PropOp45
 70
     1
102
RTVSPost2010Prop46
 90
       50
102
RTVSPost2010PropOp46
 70
     1
102
RTVSPost2010Prop47
 90
       50
102
RTVSPost2010PropOp47
 70
     1
102
RTVSPost2010Prop48
 90
       50
102
RTVSPost2010PropOp48
 70
     1
102
RTVSPost2010Prop49
280
     0
102
RTVSPost2010PropOp49
 70
     1
102
RTVSPost2010Prop50
 90
       50
102
RTVSPost2010PropOp50
 70
     1
102
RTVSPost2010Prop51ColorIndex
 90
      256
102
RTVSPost2010Prop51ColorRGB
 90
-16777216
102
RTVSPost2010PropOp51
 70
     0
102
RTVSPost2010Prop52
140
1.0
102
RTVSPost2010PropOp52
 70
     0
102
RTVSPost2010Prop53
 90
        2
102
RTVSPost2010PropOp53
 70
     1
102
RTVSPost2010Prop54
  1
strokes_ogs.tif
102
RTVSPost2010PropOp54
 70
     1
102
RTVSPost2010Prop55
280
     0
102
RTVSPost2010PropOp55
 70
     1
102
RTVSPost2010Prop56
140
1.0
102
RTVSPost2010PropOp56
 70
     1
102
RTVSPost2010Prop57
140
1.0
102
RTVSPost2010PropOp57
 70
     1
102
RTVSPropertyOp0
 70
     1
102
RTVSPropertyOp1
 70
     1
102
RTVSPropertyOp2
 70
     1
102
RTVSPropertyOp3
 70
     1
102
RTVSPropertyOp4
 70
     1
102
RTVSPropertyOp5
 70
     1
102
RTVSPropertyOp6
 70
     1
102
RTVSPropertyOp7
 70
     1
102
RTVSPropertyOp8
 70
     1
102
RTVSPropertyOp9
 70
     1
102
RTVSPropertyOp10
 70
     1
102
RTVSPropertyOp11
 70
     1
102
RTVSPropertyOp12
 70
     1
102
RTVSPropertyOp13
 70
     1
102
RTVSPropertyOp14
 70
     1
102
RTVSPropertyOp15
 70
     1
102
RTVSPropertyOp16
 70
     1
102
RTVSPropertyOp17
 70
     1
102
RTVSPropertyOp18
 70
     1
102
RTVSPropertyOp19
 70
     1
102
RTVSPropertyOp20
 70
     1
102
RTVSPropertyOp21
 70
     1
102
RTVSPropertyOp22
 70
     1
102
RTVSPropertyOp23
 70
     1
102
RTVSPropertyOp24
 70
     1
102
RTVSPropertyOp25
 70
     1
102
RTVSPropertyOp26
 70
     1
102
RTVSPropertyOp27
 70
     1
102
RTVSPropertyOp28
 70
     1
102
RTVSPropertyOp29
 70
     1
102
RTVSPropertyOp30
 70
     1
102
RTVSPropertyOp31
 70
     1
102
RTVSPropertyOp32
 70
     1
102
RTVSPropertyOp33
 70
     1
102
RTVSPropertyOp34
 70
     1
102
RTVSPropertyOp35
 70
     1
102
RTVSPropertyOp36
 70
     1
102
RTVSPropertyOp37
 70
     1
102
RTVSPropertyOp38
 70
     1
102
RTVSPropertyOp39
 70
     1
102
RTVSPropertyOp40
 70
     1
102
RTVSPropertyOp41
 70
     1
102
RTVSPropertyOp42
 70
     1
102
RTVSPropertyOp43
 70
     1
102
RTVSPropertyOp44
 70
     1
102
RTVSPropertyOp45
 70
     1
102
RTVSPropertyOp46
 70
     1
102
RTVSPropertyOp47
 70
     1
102
RTVSPropertyOp48
 70
     1
102
RTVSPropertyOp49
 70
     1
102
RTVSPropertyOp50
 70
     1
102
RTVSPropertyOp51
 70
     0
102
RTVSPropertyOp52
 70
     0
102
RTVSPropertyOp53
 70
     1
102
RTVSPropertyOp54
 70
     1
102
RTVSPropertyOp55
 70
     1
102
RTVSPropertyOp56
 70
     1
102
RTVSPropertyOp57
 70
     1
102
RTVSPropertyOp58
 70
     1
102
RTVSPropertyOp59
 70
     1
102
RTVSPropertyOp60
 70
     1
102
RTVSPropertyOp61
 70
     1
102
RTVSPropertyOp62
 70
     1
  0
XRECORD
  5
242A
102
{ACAD_REACTORS
330
2429
102
}
330
2429
100
AcDbXrecord
280
     1
102
RTVSPost2010Prop28
280
     0
102
RTVSPost2010PropOp28
 70
     1
102
RTVSPost2010Prop29
280
     1
102
RTVSPost2010PropOp29
 70
     1
102
RTVSPost2010Prop30
280
     1
102
RTVSPost2010PropOp30
 70
     1
102
RTVSPost2010Prop31
280
     0
102
RTVSPost2010PropOp31
 70
     1
102
RTVSPost2010Prop32
280
     0
102
RTVSPost2010PropOp32
 70
     1
102
RTVSPost2010Prop33
280
     0
102
RTVSPost2010PropOp33
 70
     1
102
RTVSPost2010Prop34
280
     0
102
RTVSPost2010PropOp34
 70
     1
102
RTVSPost2010Prop35
280
     0
102
RTVSPost2010PropOp35
 70
     1
102
RTVSPost2010Prop36
280
     0
102
RTVSPost2010PropOp36
 70
     1
102
RTVSPost2010Prop37
 90
       50
102
RTVSPost2010PropOp37
 70
     1
102
RTVSPost2010Prop38
140
0.0
102
RTVSPost2010PropOp38
 70
     1
102
RTVSPost2010Prop39
140
1.0
102
RTVSPost2010PropOp39
 70
     1
102
RTVSPost2010Prop40
 90
        0
102
RTVSPost2010PropOp40
 70
     1
102
RTVSPost2010Prop41ColorIndex
 90
       18
102
RTVSPost2010Prop41ColorRGB
 90
        0
102
RTVSPost2010PropOp41
 70
     1
102
RTVSPost2010Prop42
 90
       50
102
RTVSPost2010PropOp42
 70
     1
102
RTVSPost2010Prop43
 90
        3
102
RTVSPost2010PropOp43
 70
     1
102
RTVSPost2010Prop44ColorIndex
 90
        5
102
RTVSPost2010Prop44ColorRGB
 90
      255
102
RTVSPost2010PropOp44
 70
     1
102
RTVSPost2010Prop45
280
     0
102
RTVSPost2010PropOp45
 70
     1
102
RTVSPost2010Prop46
 90
       50
102
RTVSPost2010PropOp46
 70
     1
102
RTVSPost2010Prop47
 90
       50
102
RTVSPost2010PropOp47
 70
     1
102
RTVSPost2010Prop48
 90
       50
102
RTVSPost2010PropOp48
 70
     1
102
RTVSPost2010Prop49
280
     0
102
RTVSPost2010PropOp49
 70
     1
102
RTVSPost2010Prop50
 90
       50
102
RTVSPost2010PropOp50
 70
     1
102
RTVSPost2010Prop51ColorIndex
 90
      256
102
RTVSPost2010Prop51ColorRGB
 90
-16777216
102
RTVSPost2010PropOp51
 70
     0
102
RTVSPost2010Prop52
140
1.0
102
RTVSPost2010PropOp52
 70
     0
102
RTVSPost2010Prop53
 90
        2
102
RTVSPost2010PropOp53
 70
     1
102
RTVSPost2010Prop54
  1
strokes_ogs.tif
102
RTVSPost2010PropOp54
 70
     1
102
RTVSPost2010Prop55
280
     0
102
RTVSPost2010PropOp55
 70
     1
102
RTVSPost2010Prop56
140
1.0
102
RTVSPost2010PropOp56
 70
     1
102
RTVSPost2010Prop57
140
1.0
102
RTVSPost2010PropOp57
 70
     1
102
RTVSPropertyOp0
 70
     1
102
RTVSPropertyOp1
 70
     1
102
RTVSPropertyOp2
 70
     1
102
RTVSPropertyOp3
 70
     1
102
RTVSPropertyOp4
 70
     1
102
RTVSPropertyOp5
 70
     1
102
RTVSPropertyOp6
 70
     1
102
RTVSPropertyOp7
 70
     1
102
RTVSPropertyOp8
 70
     1
102
RTVSPropertyOp9
 70
     1
102
RTVSPropertyOp10
 70
     1
102
RTVSPropertyOp11
 70
     1
102
RTVSPropertyOp12
 70
     1
102
RTVSPropertyOp13
 70
     1
102
RTVSPropertyOp14
 70
     1
102
RTVSPropertyOp15
 70
     1
102
RTVSPropertyOp16
 70
     1
102
RTVSPropertyOp17
 70
     1
102
RTVSPropertyOp18
 70
     1
102
RTVSPropertyOp19
 70
     1
102
RTVSPropertyOp20
 70
     1
102
RTVSPropertyOp21
 70
     1
102
RTVSPropertyOp22
 70
     1
102
RTVSPropertyOp23
 70
     1
102
RTVSPropertyOp24
 70
     1
102
RTVSPropertyOp25
 70
     1
102
RTVSPropertyOp26
 70
     1
102
RTVSPropertyOp27
 70
     1
102
RTVSPropertyOp28
 70
     1
102
RTVSPropertyOp29
 70
     1
102
RTVSPropertyOp30
 70
     1
102
RTVSPropertyOp31
 70
     1
102
RTVSPropertyOp32
 70
     1
102
RTVSPropertyOp33
 70
     1
102
RTVSPropertyOp34
 70
     1
102
RTVSPropertyOp35
 70
     1
102
RTVSPropertyOp36
 70
     1
102
RTVSPropertyOp37
 70
     1
102
RTVSPropertyOp38
 70
     1
102
RTVSPropertyOp39
 70
     1
102
RTVSPropertyOp40
 70
     1
102
RTVSPropertyOp41
 70
     1
102
RTVSPropertyOp42
 70
     1
102
RTVSPropertyOp43
 70
     1
102
RTVSPropertyOp44
 70
     1
102
RTVSPropertyOp45
 70
     1
102
RTVSPropertyOp46
 70
     1
102
RTVSPropertyOp47
 70
     1
102
RTVSPropertyOp48
 70
     1
102
RTVSPropertyOp49
 70
     1
102
RTVSPropertyOp50
 70
     1
102
RTVSPropertyOp51
 70
     0
102
RTVSPropertyOp52
 70
     0
102
RTVSPropertyOp53
 70
     1
102
RTVSPropertyOp54
 70
     1
102
RTVSPropertyOp55
 70
     1
102
RTVSPropertyOp56
 70
     1
102
RTVSPropertyOp57
 70
     1
102
RTVSPropertyOp58
 70
     1
102
RTVSPropertyOp59
 70
     1
102
RTVSPropertyOp60
 70
     1
102
RTVSPropertyOp61
 70
     1
102
RTVSPropertyOp62
 70
     1
  0
XRECORD
  5
242C
102
{ACAD_REACTORS
330
242B
102
}
330
242B
100
AcDbXrecord
280
     1
102
RTVSPost2010Prop28
280
     0
102
RTVSPost2010PropOp28
 70
     1
102
RTVSPost2010Prop29
280
     1
102
RTVSPost2010PropOp29
 70
     1
102
RTVSPost2010Prop30
280
     1
102
RTVSPost2010PropOp30
 70
     1
102
RTVSPost2010Prop31
280
     0
102
RTVSPost2010PropOp31
 70
     1
102
RTVSPost2010Prop32
280
     0
102
RTVSPost2010PropOp32
 70
     1
102
RTVSPost2010Prop33
280
     0
102
RTVSPost2010PropOp33
 70
     1
102
RTVSPost2010Prop34
280
     0
102
RTVSPost2010PropOp34
 70
     1
102
RTVSPost2010Prop35
280
     0
102
RTVSPost2010PropOp35
 70
     1
102
RTVSPost2010Prop36
280
     0
102
RTVSPost2010PropOp36
 70
     1
102
RTVSPost2010Prop37
 90
       50
102
RTVSPost2010PropOp37
 70
     1
102
RTVSPost2010Prop38
140
0.0
102
RTVSPost2010PropOp38
 70
     1
102
RTVSPost2010Prop39
140
1.0
102
RTVSPost2010PropOp39
 70
     1
102
RTVSPost2010Prop40
 90
        0
102
RTVSPost2010PropOp40
 70
     1
102
RTVSPost2010Prop41ColorIndex
 90
       18
102
RTVSPost2010Prop41ColorRGB
 90
        0
102
RTVSPost2010PropOp41
 70
     1
102
RTVSPost2010Prop42
 90
       50
102
RTVSPost2010PropOp42
 70
     1
102
RTVSPost2010Prop43
 90
        3
102
RTVSPost2010PropOp43
 70
     1
102
RTVSPost2010Prop44ColorIndex
 90
        5
102
RTVSPost2010Prop44ColorRGB
 90
      255
102
RTVSPost2010PropOp44
 70
     1
102
RTVSPost2010Prop45
280
     0
102
RTVSPost2010PropOp45
 70
     1
102
RTVSPost2010Prop46
 90
       50
102
RTVSPost2010PropOp46
 70
     1
102
RTVSPost2010Prop47
 90
       50
102
RTVSPost2010PropOp47
 70
     1
102
RTVSPost2010Prop48
 90
       50
102
RTVSPost2010PropOp48
 70
     1
102
RTVSPost2010Prop49
280
     0
102
RTVSPost2010PropOp49
 70
     1
102
RTVSPost2010Prop50
 90
       50
102
RTVSPost2010PropOp50
 70
     1
102
RTVSPost2010Prop51ColorIndex
 90
      256
102
RTVSPost2010Prop51ColorRGB
 90
-16777216
102
RTVSPost2010PropOp51
 70
     0
102
RTVSPost2010Prop52
140
1.0
102
RTVSPost2010PropOp52
 70
     0
102
RTVSPost2010Prop53
 90
        2
102
RTVSPost2010PropOp53
 70
     1
102
RTVSPost2010Prop54
  1
strokes_ogs.tif
102
RTVSPost2010PropOp54
 70
     1
102
RTVSPost2010Prop55
280
     0
102
RTVSPost2010PropOp55
 70
     1
102
RTVSPost2010Prop56
140
1.0
102
RTVSPost2010PropOp56
 70
     1
102
RTVSPost2010Prop57
140
1.0
102
RTVSPost2010PropOp57
 70
     1
102
RTVSPropertyOp0
 70
     1
102
RTVSPropertyOp1
 70
     1
102
RTVSPropertyOp2
 70
     1
102
RTVSPropertyOp3
 70
     1
102
RTVSPropertyOp4
 70
     1
102
RTVSPropertyOp5
 70
     1
102
RTVSPropertyOp6
 70
     1
102
RTVSPropertyOp7
 70
     1
102
RTVSPropertyOp8
 70
     1
102
RTVSPropertyOp9
 70
     1
102
RTVSPropertyOp10
 70
     1
102
RTVSPropertyOp11
 70
     1
102
RTVSPropertyOp12
 70
     1
102
RTVSPropertyOp13
 70
     1
102
RTVSPropertyOp14
 70
     1
102
RTVSPropertyOp15
 70
     1
102
RTVSPropertyOp16
 70
     1
102
RTVSPropertyOp17
 70
     1
102
RTVSPropertyOp18
 70
     1
102
RTVSPropertyOp19
 70
     1
102
RTVSPropertyOp20
 70
     1
102
RTVSPropertyOp21
 70
     1
102
RTVSPropertyOp22
 70
     1
102
RTVSPropertyOp23
 70
     1
102
RTVSPropertyOp24
 70
     1
102
RTVSPropertyOp25
 70
     1
102
RTVSPropertyOp26
 70
     1
102
RTVSPropertyOp27
 70
     1
102
RTVSPropertyOp28
 70
     1
102
RTVSPropertyOp29
 70
     1
102
RTVSPropertyOp30
 70
     1
102
RTVSPropertyOp31
 70
     1
102
RTVSPropertyOp32
 70
     1
102
RTVSPropertyOp33
 70
     1
102
RTVSPropertyOp34
 70
     1
102
RTVSPropertyOp35
 70
     1
102
RTVSPropertyOp36
 70
     1
102
RTVSPropertyOp37
 70
     1
102
RTVSPropertyOp38
 70
     1
102
RTVSPropertyOp39
 70
     1
102
RTVSPropertyOp40
 70
     1
102
RTVSPropertyOp41
 70
     1
102
RTVSPropertyOp42
 70
     1
102
RTVSPropertyOp43
 70
     1
102
RTVSPropertyOp44
 70
     1
102
RTVSPropertyOp45
 70
     1
102
RTVSPropertyOp46
 70
     1
102
RTVSPropertyOp47
 70
     1
102
RTVSPropertyOp48
 70
     1
102
RTVSPropertyOp49
 70
     1
102
RTVSPropertyOp50
 70
     1
102
RTVSPropertyOp51
 70
     0
102
RTVSPropertyOp52
 70
     0
102
RTVSPropertyOp53
 70
     1
102
RTVSPropertyOp54
 70
     1
102
RTVSPropertyOp55
 70
     1
102
RTVSPropertyOp56
 70
     1
102
RTVSPropertyOp57
 70
     1
102
RTVSPropertyOp58
 70
     1
102
RTVSPropertyOp59
 70
     1
102
RTVSPropertyOp60
 70
     1
102
RTVSPropertyOp61
 70
     1
102
RTVSPropertyOp62
 70
     1
  0
XRECORD
  5
242E
102
{ACAD_REACTORS
330
242D
102
}
330
242D
100
AcDbXrecord
280
     1
102
RTVSPost2010Prop28
280
     0
102
RTVSPost2010PropOp28
 70
     1
102
RTVSPost2010Prop29
280
     1
102
RTVSPost2010PropOp29
 70
     1
102
RTVSPost2010Prop30
280
     1
102
RTVSPost2010PropOp30
 70
     1
102
RTVSPost2010Prop31
280
     0
102
RTVSPost2010PropOp31
 70
     1
102
RTVSPost2010Prop32
280
     0
102
RTVSPost2010PropOp32
 70
     1
102
RTVSPost2010Prop33
280
     0
102
RTVSPost2010PropOp33
 70
     1
102
RTVSPost2010Prop34
280
     0
102
RTVSPost2010PropOp34
 70
     1
102
RTVSPost2010Prop35
280
     0
102
RTVSPost2010PropOp35
 70
     1
102
RTVSPost2010Prop36
280
     0
102
RTVSPost2010PropOp36
 70
     1
102
RTVSPost2010Prop37
 90
       50
102
RTVSPost2010PropOp37
 70
     1
102
RTVSPost2010Prop38
140
0.0
102
RTVSPost2010PropOp38
 70
     1
102
RTVSPost2010Prop39
140
1.0
102
RTVSPost2010PropOp39
 70
     1
102
RTVSPost2010Prop40
 90
        0
102
RTVSPost2010PropOp40
 70
     1
102
RTVSPost2010Prop41ColorIndex
 90
       18
102
RTVSPost2010Prop41ColorRGB
 90
        0
102
RTVSPost2010PropOp41
 70
     1
102
RTVSPost2010Prop42
 90
       50
102
RTVSPost2010PropOp42
 70
     1
102
RTVSPost2010Prop43
 90
        3
102
RTVSPost2010PropOp43
 70
     1
102
RTVSPost2010Prop44ColorIndex
 90
        5
102
RTVSPost2010Prop44ColorRGB
 90
      255
102
RTVSPost2010PropOp44
 70
     1
102
RTVSPost2010Prop45
280
     0
102
RTVSPost2010PropOp45
 70
     1
102
RTVSPost2010Prop46
 90
       50
102
RTVSPost2010PropOp46
 70
     1
102
RTVSPost2010Prop47
 90
       50
102
RTVSPost2010PropOp47
 70
     1
102
RTVSPost2010Prop48
 90
       50
102
RTVSPost2010PropOp48
 70
     1
102
RTVSPost2010Prop49
280
     0
102
RTVSPost2010PropOp49
 70
     1
102
RTVSPost2010Prop50
 90
       50
102
RTVSPost2010PropOp50
 70
     1
102
RTVSPost2010Prop51ColorIndex
 90
      256
102
RTVSPost2010Prop51ColorRGB
 90
-16777216
102
RTVSPost2010PropOp51
 70
     0
102
RTVSPost2010Prop52
140
1.0
102
RTVSPost2010PropOp52
 70
     0
102
RTVSPost2010Prop53
 90
        2
102
RTVSPost2010PropOp53
 70
     1
102
RTVSPost2010Prop54
  1
strokes_ogs.tif
102
RTVSPost2010PropOp54
 70
     1
102
RTVSPost2010Prop55
280
     0
102
RTVSPost2010PropOp55
 70
     1
102
RTVSPost2010Prop56
140
1.0
102
RTVSPost2010PropOp56
 70
     1
102
RTVSPost2010Prop57
140
1.0
102
RTVSPost2010PropOp57
 70
     1
102
RTVSPropertyOp0
 70
     1
102
RTVSPropertyOp1
 70
     1
102
RTVSPropertyOp2
 70
     1
102
RTVSPropertyOp3
 70
     1
102
RTVSPropertyOp4
 70
     1
102
RTVSPropertyOp5
 70
     1
102
RTVSPropertyOp6
 70
     1
102
RTVSPropertyOp7
 70
     1
102
RTVSPropertyOp8
 70
     1
102
RTVSPropertyOp9
 70
     1
102
RTVSPropertyOp10
 70
     1
102
RTVSPropertyOp11
 70
     1
102
RTVSPropertyOp12
 70
     1
102
RTVSPropertyOp13
 70
     1
102
RTVSPropertyOp14
 70
     1
102
RTVSPropertyOp15
 70
     1
102
RTVSPropertyOp16
 70
     1
102
RTVSPropertyOp17
 70
     1
102
RTVSPropertyOp18
 70
     1
102
RTVSPropertyOp19
 70
     1
102
RTVSPropertyOp20
 70
     1
102
RTVSPropertyOp21
 70
     1
102
RTVSPropertyOp22
 70
     1
102
RTVSPropertyOp23
 70
     1
102
RTVSPropertyOp24
 70
     1
102
RTVSPropertyOp25
 70
     1
102
RTVSPropertyOp26
 70
     1
102
RTVSPropertyOp27
 70
     1
102
RTVSPropertyOp28
 70
     1
102
RTVSPropertyOp29
 70
     1
102
RTVSPropertyOp30
 70
     1
102
RTVSPropertyOp31
 70
     1
102
RTVSPropertyOp32
 70
     1
102
RTVSPropertyOp33
 70
     1
102
RTVSPropertyOp34
 70
     1
102
RTVSPropertyOp35
 70
     1
102
RTVSPropertyOp36
 70
     1
102
RTVSPropertyOp37
 70
     1
102
RTVSPropertyOp38
 70
     1
102
RTVSPropertyOp39
 70
     1
102
RTVSPropertyOp40
 70
     1
102
RTVSPropertyOp41
 70
     1
102
RTVSPropertyOp42
 70
     1
102
RTVSPropertyOp43
 70
     1
102
RTVSPropertyOp44
 70
     1
102
RTVSPropertyOp45
 70
     1
102
RTVSPropertyOp46
 70
     1
102
RTVSPropertyOp47
 70
     1
102
RTVSPropertyOp48
 70
     1
102
RTVSPropertyOp49
 70
     1
102
RTVSPropertyOp50
 70
     1
102
RTVSPropertyOp51
 70
     0
102
RTVSPropertyOp52
 70
     0
102
RTVSPropertyOp53
 70
     1
102
RTVSPropertyOp54
 70
     1
102
RTVSPropertyOp55
 70
     1
102
RTVSPropertyOp56
 70
     1
102
RTVSPropertyOp57
 70
     1
102
RTVSPropertyOp58
 70
     1
102
RTVSPropertyOp59
 70
     1
102
RTVSPropertyOp60
 70
     1
102
RTVSPropertyOp61
 70
     1
102
RTVSPropertyOp62
 70
     1
  0
XRECORD
  5
2430
102
{ACAD_REACTORS
330
242F
102
}
330
242F
100
AcDbXrecord
280
     1
102
RTVSPost2010Prop28
280
     0
102
RTVSPost2010PropOp28
 70
     1
102
RTVSPost2010Prop29
280
     1
102
RTVSPost2010PropOp29
 70
     1
102
RTVSPost2010Prop30
280
     1
102
RTVSPost2010PropOp30
 70
     1
102
RTVSPost2010Prop31
280
     0
102
RTVSPost2010PropOp31
 70
     1
102
RTVSPost2010Prop32
280
     0
102
RTVSPost2010PropOp32
 70
     1
102
RTVSPost2010Prop33
280
     0
102
RTVSPost2010PropOp33
 70
     1
102
RTVSPost2010Prop34
280
     0
102
RTVSPost2010PropOp34
 70
     1
102
RTVSPost2010Prop35
280
     0
102
RTVSPost2010PropOp35
 70
     1
102
RTVSPost2010Prop36
280
     0
102
RTVSPost2010PropOp36
 70
     1
102
RTVSPost2010Prop37
 90
       50
102
RTVSPost2010PropOp37
 70
     1
102
RTVSPost2010Prop38
140
0.0
102
RTVSPost2010PropOp38
 70
     1
102
RTVSPost2010Prop39
140
1.0
102
RTVSPost2010PropOp39
 70
     1
102
RTVSPost2010Prop40
 90
        0
102
RTVSPost2010PropOp40
 70
     1
102
RTVSPost2010Prop41ColorIndex
 90
       18
102
RTVSPost2010Prop41ColorRGB
 90
        0
102
RTVSPost2010PropOp41
 70
     1
102
RTVSPost2010Prop42
 90
       50
102
RTVSPost2010PropOp42
 70
     1
102
RTVSPost2010Prop43
 90
        3
102
RTVSPost2010PropOp43
 70
     1
102
RTVSPost2010Prop44ColorIndex
 90
        5
102
RTVSPost2010Prop44ColorRGB
 90
      255
102
RTVSPost2010PropOp44
 70
     1
102
RTVSPost2010Prop45
280
     0
102
RTVSPost2010PropOp45
 70
     1
102
RTVSPost2010Prop46
 90
       50
102
RTVSPost2010PropOp46
 70
     1
102
RTVSPost2010Prop47
 90
       50
102
RTVSPost2010PropOp47
 70
     1
102
RTVSPost2010Prop48
 90
       50
102
RTVSPost2010PropOp48
 70
     1
102
RTVSPost2010Prop49
280
     0
102
RTVSPost2010PropOp49
 70
     1
102
RTVSPost2010Prop50
 90
       50
102
RTVSPost2010PropOp50
 70
     1
102
RTVSPost2010Prop51ColorIndex
 90
      256
102
RTVSPost2010Prop51ColorRGB
 90
-16777216
102
RTVSPost2010PropOp51
 70
     0
102
RTVSPost2010Prop52
140
1.0
102
RTVSPost2010PropOp52
 70
     0
102
RTVSPost2010Prop53
 90
        2
102
RTVSPost2010PropOp53
 70
     1
102
RTVSPost2010Prop54
  1
strokes_ogs.tif
102
RTVSPost2010PropOp54
 70
     1
102
RTVSPost2010Prop55
280
     0
102
RTVSPost2010PropOp55
 70
     1
102
RTVSPost2010Prop56
140
1.0
102
RTVSPost2010PropOp56
 70
     1
102
RTVSPost2010Prop57
140
1.0
102
RTVSPost2010PropOp57
 70
     1
102
RTVSPropertyOp0
 70
     1
102
RTVSPropertyOp1
 70
     1
102
RTVSPropertyOp2
 70
     1
102
RTVSPropertyOp3
 70
     1
102
RTVSPropertyOp4
 70
     1
102
RTVSPropertyOp5
 70
     1
102
RTVSPropertyOp6
 70
     1
102
RTVSPropertyOp7
 70
     1
102
RTVSPropertyOp8
 70
     1
102
RTVSPropertyOp9
 70
     1
102
RTVSPropertyOp10
 70
     1
102
RTVSPropertyOp11
 70
     1
102
RTVSPropertyOp12
 70
     1
102
RTVSPropertyOp13
 70
     1
102
RTVSPropertyOp14
 70
     1
102
RTVSPropertyOp15
 70
     1
102
RTVSPropertyOp16
 70
     1
102
RTVSPropertyOp17
 70
     1
102
RTVSPropertyOp18
 70
     1
102
RTVSPropertyOp19
 70
     1
102
RTVSPropertyOp20
 70
     1
102
RTVSPropertyOp21
 70
     1
102
RTVSPropertyOp22
 70
     1
102
RTVSPropertyOp23
 70
     1
102
RTVSPropertyOp24
 70
     1
102
RTVSPropertyOp25
 70
     1
102
RTVSPropertyOp26
 70
     1
102
RTVSPropertyOp27
 70
     1
102
RTVSPropertyOp28
 70
     1
102
RTVSPropertyOp29
 70
     1
102
RTVSPropertyOp30
 70
     1
102
RTVSPropertyOp31
 70
     1
102
RTVSPropertyOp32
 70
     1
102
RTVSPropertyOp33
 70
     1
102
RTVSPropertyOp34
 70
     1
102
RTVSPropertyOp35
 70
     1
102
RTVSPropertyOp36
 70
     1
102
RTVSPropertyOp37
 70
     1
102
RTVSPropertyOp38
 70
     1
102
RTVSPropertyOp39
 70
     1
102
RTVSPropertyOp40
 70
     1
102
RTVSPropertyOp41
 70
     1
102
RTVSPropertyOp42
 70
     1
102
RTVSPropertyOp43
 70
     1
102
RTVSPropertyOp44
 70
     1
102
RTVSPropertyOp45
 70
     1
102
RTVSPropertyOp46
 70
     1
102
RTVSPropertyOp47
 70
     1
102
RTVSPropertyOp48
 70
     1
102
RTVSPropertyOp49
 70
     1
102
RTVSPropertyOp50
 70
     1
102
RTVSPropertyOp51
 70
     0
102
RTVSPropertyOp52
 70
     0
102
RTVSPropertyOp53
 70
     1
102
RTVSPropertyOp54
 70
     1
102
RTVSPropertyOp55
 70
     1
102
RTVSPropertyOp56
 70
     1
102
RTVSPropertyOp57
 70
     1
102
RTVSPropertyOp58
 70
     1
102
RTVSPropertyOp59
 70
     1
102
RTVSPropertyOp60
 70
     1
102
RTVSPropertyOp61
 70
     1
102
RTVSPropertyOp62
 70
     1
  0
XRECORD
  5
245B
102
{ACAD_REACTORS
330
245A
102
}
330
245A
100
AcDbXrecord
280
     1
102
RTVSPost2010Prop28
280
     0
102
RTVSPost2010PropOp28
 70
     1
102
RTVSPost2010Prop29
280
     1
102
RTVSPost2010PropOp29
 70
     1
102
RTVSPost2010Prop30
280
     1
102
RTVSPost2010PropOp30
 70
     1
102
RTVSPost2010Prop31
280
     0
102
RTVSPost2010PropOp31
 70
     1
102
RTVSPost2010Prop32
280
     0
102
RTVSPost2010PropOp32
 70
     1
102
RTVSPost2010Prop33
280
     0
102
RTVSPost2010PropOp33
 70
     1
102
RTVSPost2010Prop34
280
     0
102
RTVSPost2010PropOp34
 70
     1
102
RTVSPost2010Prop35
280
     0
102
RTVSPost2010PropOp35
 70
     1
102
RTVSPost2010Prop36
280
     0
102
RTVSPost2010PropOp36
 70
     1
102
RTVSPost2010Prop37
 90
       50
102
RTVSPost2010PropOp37
 70
     1
102
RTVSPost2010Prop38
140
0.0
102
RTVSPost2010PropOp38
 70
     1
102
RTVSPost2010Prop39
140
1.0
102
RTVSPost2010PropOp39
 70
     1
102
RTVSPost2010Prop40
 90
        0
102
RTVSPost2010PropOp40
 70
     1
102
RTVSPost2010Prop41ColorIndex
 90
       18
102
RTVSPost2010Prop41ColorRGB
 90
        0
102
RTVSPost2010PropOp41
 70
     1
102
RTVSPost2010Prop42
 90
       50
102
RTVSPost2010PropOp42
 70
     1
102
RTVSPost2010Prop43
 90
        3
102
RTVSPost2010PropOp43
 70
     1
102
RTVSPost2010Prop44ColorIndex
 90
        5
102
RTVSPost2010Prop44ColorRGB
 90
      255
102
RTVSPost2010PropOp44
 70
     1
102
RTVSPost2010Prop45
280
     0
102
RTVSPost2010PropOp45
 70
     1
102
RTVSPost2010Prop46
 90
       50
102
RTVSPost2010PropOp46
 70
     1
102
RTVSPost2010Prop47
 90
       50
102
RTVSPost2010PropOp47
 70
     1
102
RTVSPost2010Prop48
 90
       50
102
RTVSPost2010PropOp48
 70
     1
102
RTVSPost2010Prop49
280
     0
102
RTVSPost2010PropOp49
 70
     1
102
RTVSPost2010Prop50
 90
       50
102
RTVSPost2010PropOp50
 70
     1
102
RTVSPost2010Prop51ColorIndex
 90
      256
102
RTVSPost2010Prop51ColorRGB
 90
-16777216
102
RTVSPost2010PropOp51
 70
     0
102
RTVSPost2010Prop52
140
1.0
102
RTVSPost2010PropOp52
 70
     0
102
RTVSPost2010Prop53
 90
        2
102
RTVSPost2010PropOp53
 70
     1
102
RTVSPost2010Prop54
  1
strokes_ogs.tif
102
RTVSPost2010PropOp54
 70
     1
102
RTVSPost2010Prop55
280
     0
102
RTVSPost2010PropOp55
 70
     1
102
RTVSPost2010Prop56
140
1.0
102
RTVSPost2010PropOp56
 70
     1
102
RTVSPost2010Prop57
140
1.0
102
RTVSPost2010PropOp57
 70
     1
102
RTVSPropertyOp0
 70
     1
102
RTVSPropertyOp1
 70
     1
102
RTVSPropertyOp2
 70
     1
102
RTVSPropertyOp3
 70
     1
102
RTVSPropertyOp4
 70
     1
102
RTVSPropertyOp5
 70
     1
102
RTVSPropertyOp6
 70
     1
102
RTVSPropertyOp7
 70
     1
102
RTVSPropertyOp8
 70
     1
102
RTVSPropertyOp9
 70
     1
102
RTVSPropertyOp10
 70
     1
102
RTVSPropertyOp11
 70
     1
102
RTVSPropertyOp12
 70
     1
102
RTVSPropertyOp13
 70
     1
102
RTVSPropertyOp14
 70
     1
102
RTVSPropertyOp15
 70
     1
102
RTVSPropertyOp16
 70
     1
102
RTVSPropertyOp17
 70
     1
102
RTVSPropertyOp18
 70
     1
102
RTVSPropertyOp19
 70
     1
102
RTVSPropertyOp20
 70
     1
102
RTVSPropertyOp21
 70
     1
102
RTVSPropertyOp22
 70
     1
102
RTVSPropertyOp23
 70
     1
102
RTVSPropertyOp24
 70
     1
102
RTVSPropertyOp25
 70
     1
102
RTVSPropertyOp26
 70
     1
102
RTVSPropertyOp27
 70
     1
102
RTVSPropertyOp28
 70
     1
102
RTVSPropertyOp29
 70
     1
102
RTVSPropertyOp30
 70
     1
102
RTVSPropertyOp31
 70
     1
102
RTVSPropertyOp32
 70
     1
102
RTVSPropertyOp33
 70
     1
102
RTVSPropertyOp34
 70
     1
102
RTVSPropertyOp35
 70
     1
102
RTVSPropertyOp36
 70
     1
102
RTVSPropertyOp37
 70
     1
102
RTVSPropertyOp38
 70
     1
102
RTVSPropertyOp39
 70
     1
102
RTVSPropertyOp40
 70
     1
102
RTVSPropertyOp41
 70
     1
102
RTVSPropertyOp42
 70
     1
102
RTVSPropertyOp43
 70
     1
102
RTVSPropertyOp44
 70
     1
102
RTVSPropertyOp45
 70
     1
102
RTVSPropertyOp46
 70
     1
102
RTVSPropertyOp47
 70
     1
102
RTVSPropertyOp48
 70
     1
102
RTVSPropertyOp49
 70
     1
102
RTVSPropertyOp50
 70
     1
102
RTVSPropertyOp51
 70
     0
102
RTVSPropertyOp52
 70
     0
102
RTVSPropertyOp53
 70
     1
102
RTVSPropertyOp54
 70
     1
102
RTVSPropertyOp55
 70
     1
102
RTVSPropertyOp56
 70
     1
102
RTVSPropertyOp57
 70
     1
102
RTVSPropertyOp58
 70
     1
102
RTVSPropertyOp59
 70
     1
102
RTVSPropertyOp60
 70
     1
102
RTVSPropertyOp61
 70
     1
102
RTVSPropertyOp62
 70
     1
  0
XRECORD
  5
2453
102
{ACAD_REACTORS
330
2452
102
}
330
2452
100
AcDbXrecord
280
     1
102
RTVSPost2010Prop28
280
     0
102
RTVSPost2010PropOp28
 70
     1
102
RTVSPost2010Prop29
280
     1
102
RTVSPost2010PropOp29
 70
     1
102
RTVSPost2010Prop30
280
     1
102
RTVSPost2010PropOp30
 70
     1
102
RTVSPost2010Prop31
280
     0
102
RTVSPost2010PropOp31
 70
     1
102
RTVSPost2010Prop32
280
     0
102
RTVSPost2010PropOp32
 70
     1
102
RTVSPost2010Prop33
280
     0
102
RTVSPost2010PropOp33
 70
     1
102
RTVSPost2010Prop34
280
     0
102
RTVSPost2010PropOp34
 70
     1
102
RTVSPost2010Prop35
280
     0
102
RTVSPost2010PropOp35
 70
     1
102
RTVSPost2010Prop36
280
     0
102
RTVSPost2010PropOp36
 70
     1
102
RTVSPost2010Prop37
 90
       50
102
RTVSPost2010PropOp37
 70
     1
102
RTVSPost2010Prop38
140
0.0
102
RTVSPost2010PropOp38
 70
     1
102
RTVSPost2010Prop39
140
1.0
102
RTVSPost2010PropOp39
 70
     1
102
RTVSPost2010Prop40
 90
        0
102
RTVSPost2010PropOp40
 70
     1
102
RTVSPost2010Prop41ColorIndex
 90
       18
102
RTVSPost2010Prop41ColorRGB
 90
        0
102
RTVSPost2010PropOp41
 70
     1
102
RTVSPost2010Prop42
 90
       50
102
RTVSPost2010PropOp42
 70
     1
102
RTVSPost2010Prop43
 90
        3
102
RTVSPost2010PropOp43
 70
     1
102
RTVSPost2010Prop44ColorIndex
 90
        5
102
RTVSPost2010Prop44ColorRGB
 90
      255
102
RTVSPost2010PropOp44
 70
     1
102
RTVSPost2010Prop45
280
     0
102
RTVSPost2010PropOp45
 70
     1
102
RTVSPost2010Prop46
 90
       50
102
RTVSPost2010PropOp46
 70
     1
102
RTVSPost2010Prop47
 90
       50
102
RTVSPost2010PropOp47
 70
     1
102
RTVSPost2010Prop48
 90
       50
102
RTVSPost2010PropOp48
 70
     1
102
RTVSPost2010Prop49
280
     0
102
RTVSPost2010PropOp49
 70
     1
102
RTVSPost2010Prop50
 90
       50
102
RTVSPost2010PropOp50
 70
     1
102
RTVSPost2010Prop51ColorIndex
 90
      256
102
RTVSPost2010Prop51ColorRGB
 90
-16777216
102
RTVSPost2010PropOp51
 70
     0
102
RTVSPost2010Prop52
140
1.0
102
RTVSPost2010PropOp52
 70
     0
102
RTVSPost2010Prop53
 90
        2
102
RTVSPost2010PropOp53
 70
     1
102
RTVSPost2010Prop54
  1
strokes_ogs.tif
102
RTVSPost2010PropOp54
 70
     1
102
RTVSPost2010Prop55
280
     0
102
RTVSPost2010PropOp55
 70
     1
102
RTVSPost2010Prop56
140
1.0
102
RTVSPost2010PropOp56
 70
     1
102
RTVSPost2010Prop57
140
1.0
102
RTVSPost2010PropOp57
 70
     1
102
RTVSPropertyOp0
 70
     0
102
RTVSPropertyOp1
 70
     0
102
RTVSPropertyOp2
 70
     0
102
RTVSPropertyOp3
 70
     0
102
RTVSPropertyOp4
 70
     0
102
RTVSPropertyOp5
 70
     0
102
RTVSPropertyOp6
 70
     0
102
RTVSPropertyOp7
 70
     0
102
RTVSPropertyOp8
 70
     0
102
RTVSPropertyOp9
 70
     0
102
RTVSPropertyOp10
 70
     0
102
RTVSPropertyOp11
 70
     0
102
RTVSPropertyOp12
 70
     0
102
RTVSPropertyOp13
 70
     0
102
RTVSPropertyOp14
 70
     2
102
RTVSPropertyOp15
 70
     0
102
RTVSPropertyOp16
 70
     0
102
RTVSPropertyOp17
 70
     0
102
RTVSPropertyOp18
 70
     0
102
RTVSPropertyOp19
 70
     0
102
RTVSPropertyOp20
 70
     0
102
RTVSPropertyOp21
 70
     0
102
RTVSPropertyOp22
 70
     0
102
RTVSPropertyOp23
 70
     0
102
RTVSPropertyOp24
 70
     0
102
RTVSPropertyOp25
 70
     0
102
RTVSPropertyOp26
 70
     0
102
RTVSPropertyOp27
 70
     0
102
RTVSPropertyOp28
 70
     1
102
RTVSPropertyOp29
 70
     1
102
RTVSPropertyOp30
 70
     1
102
RTVSPropertyOp31
 70
     1
102
RTVSPropertyOp32
 70
     1
102
RTVSPropertyOp33
 70
     1
102
RTVSPropertyOp34
 70
     1
102
RTVSPropertyOp35
 70
     1
102
RTVSPropertyOp36
 70
     1
102
RTVSPropertyOp37
 70
     1
102
RTVSPropertyOp38
 70
     1
102
RTVSPropertyOp39
 70
     1
102
RTVSPropertyOp40
 70
     1
102
RTVSPropertyOp41
 70
     1
102
RTVSPropertyOp42
 70
     1
102
RTVSPropertyOp43
 70
     1
102
RTVSPropertyOp44
 70
     1
102
RTVSPropertyOp45
 70
     1
102
RTVSPropertyOp46
 70
     1
102
RTVSPropertyOp47
 70
     1
102
RTVSPropertyOp48
 70
     1
102
RTVSPropertyOp49
 70
     1
102
RTVSPropertyOp50
 70
     1
102
RTVSPropertyOp51
 70
     0
102
RTVSPropertyOp52
 70
     0
102
RTVSPropertyOp53
 70
     1
102
RTVSPropertyOp54
 70
     1
102
RTVSPropertyOp55
 70
     1
102
RTVSPropertyOp56
 70
     1
102
RTVSPropertyOp57
 70
     1
102
RTVSPropertyOp58
 70
     1
102
RTVSPropertyOp59
 70
     1
102
RTVSPropertyOp60
 70
     1
102
RTVSPropertyOp61
 70
     1
102
RTVSPropertyOp62
 70
     1
  0
XRECORD
  5
2444
102
{ACAD_REACTORS
330
2443
102
}
330
2443
100
AcDbXrecord
280
     1
102
RTVSPost2010Prop28
280
     0
102
RTVSPost2010PropOp28
 70
     1
102
RTVSPost2010Prop29
280
     1
102
RTVSPost2010PropOp29
 70
     1
102
RTVSPost2010Prop30
280
     1
102
RTVSPost2010PropOp30
 70
     1
102
RTVSPost2010Prop31
280
     0
102
RTVSPost2010PropOp31
 70
     1
102
RTVSPost2010Prop32
280
     0
102
RTVSPost2010PropOp32
 70
     1
102
RTVSPost2010Prop33
280
     0
102
RTVSPost2010PropOp33
 70
     1
102
RTVSPost2010Prop34
280
     0
102
RTVSPost2010PropOp34
 70
     1
102
RTVSPost2010Prop35
280
     0
102
RTVSPost2010PropOp35
 70
     1
102
RTVSPost2010Prop36
280
     0
102
RTVSPost2010PropOp36
 70
     1
102
RTVSPost2010Prop37
 90
       50
102
RTVSPost2010PropOp37
 70
     1
102
RTVSPost2010Prop38
140
0.0
102
RTVSPost2010PropOp38
 70
     1
102
RTVSPost2010Prop39
140
1.0
102
RTVSPost2010PropOp39
 70
     1
102
RTVSPost2010Prop40
 90
        0
102
RTVSPost2010PropOp40
 70
     1
102
RTVSPost2010Prop41ColorIndex
 90
       18
102
RTVSPost2010Prop41ColorRGB
 90
        0
102
RTVSPost2010PropOp41
 70
     1
102
RTVSPost2010Prop42
 90
       50
102
RTVSPost2010PropOp42
 70
     1
102
RTVSPost2010Prop43
 90
        3
102
RTVSPost2010PropOp43
 70
     1
102
RTVSPost2010Prop44ColorIndex
 90
        5
102
RTVSPost2010Prop44ColorRGB
 90
      255
102
RTVSPost2010PropOp44
 70
     1
102
RTVSPost2010Prop45
280
     0
102
RTVSPost2010PropOp45
 70
     1
102
RTVSPost2010Prop46
 90
       50
102
RTVSPost2010PropOp46
 70
     1
102
RTVSPost2010Prop47
 90
       50
102
RTVSPost2010PropOp47
 70
     1
102
RTVSPost2010Prop48
 90
       50
102
RTVSPost2010PropOp48
 70
     1
102
RTVSPost2010Prop49
280
     0
102
RTVSPost2010PropOp49
 70
     1
102
RTVSPost2010Prop50
 90
       50
102
RTVSPost2010PropOp50
 70
     1
102
RTVSPost2010Prop51ColorIndex
 90
      256
102
RTVSPost2010Prop51ColorRGB
 90
-16777216
102
RTVSPost2010PropOp51
 70
     0
102
RTVSPost2010Prop52
140
1.0
102
RTVSPost2010PropOp52
 70
     0
102
RTVSPost2010Prop53
 90
        2
102
RTVSPost2010PropOp53
 70
     1
102
RTVSPost2010Prop54
  1
strokes_ogs.tif
102
RTVSPost2010PropOp54
 70
     1
102
RTVSPost2010Prop55
280
     0
102
RTVSPost2010PropOp55
 70
     1
102
RTVSPost2010Prop56
140
1.0
102
RTVSPost2010PropOp56
 70
     1
102
RTVSPost2010Prop57
140
1.0
102
RTVSPost2010PropOp57
 70
     1
102
RTVSPropertyOp0
 70
     1
102
RTVSPropertyOp1
 70
     1
102
RTVSPropertyOp2
 70
     1
102
RTVSPropertyOp3
 70
     1
102
RTVSPropertyOp4
 70
     1
102
RTVSPropertyOp5
 70
     1
102
RTVSPropertyOp6
 70
     1
102
RTVSPropertyOp7
 70
     1
102
RTVSPropertyOp8
 70
     1
102
RTVSPropertyOp9
 70
     1
102
RTVSPropertyOp10
 70
     1
102
RTVSPropertyOp11
 70
     1
102
RTVSPropertyOp12
 70
     1
102
RTVSPropertyOp13
 70
     1
102
RTVSPropertyOp14
 70
     1
102
RTVSPropertyOp15
 70
     1
102
RTVSPropertyOp16
 70
     1
102
RTVSPropertyOp17
 70
     1
102
RTVSPropertyOp18
 70
     1
102
RTVSPropertyOp19
 70
     1
102
RTVSPropertyOp20
 70
     1
102
RTVSPropertyOp21
 70
     1
102
RTVSPropertyOp22
 70
     1
102
RTVSPropertyOp23
 70
     1
102
RTVSPropertyOp24
 70
     1
102
RTVSPropertyOp25
 70
     1
102
RTVSPropertyOp26
 70
     1
102
RTVSPropertyOp27
 70
     1
102
RTVSPropertyOp28
 70
     1
102
RTVSPropertyOp29
 70
     1
102
RTVSPropertyOp30
 70
     1
102
RTVSPropertyOp31
 70
     1
102
RTVSPropertyOp32
 70
     1
102
RTVSPropertyOp33
 70
     1
102
RTVSPropertyOp34
 70
     1
102
RTVSPropertyOp35
 70
     1
102
RTVSPropertyOp36
 70
     1
102
RTVSPropertyOp37
 70
     1
102
RTVSPropertyOp38
 70
     1
102
RTVSPropertyOp39
 70
     1
102
RTVSPropertyOp40
 70
     1
102
RTVSPropertyOp41
 70
     1
102
RTVSPropertyOp42
 70
     1
102
RTVSPropertyOp43
 70
     1
102
RTVSPropertyOp44
 70
     1
102
RTVSPropertyOp45
 70
     1
102
RTVSPropertyOp46
 70
     1
102
RTVSPropertyOp47
 70
     1
102
RTVSPropertyOp48
 70
     1
102
RTVSPropertyOp49
 70
     1
102
RTVSPropertyOp50
 70
     1
102
RTVSPropertyOp51
 70
     0
102
RTVSPropertyOp52
 70
     0
102
RTVSPropertyOp53
 70
     1
102
RTVSPropertyOp54
 70
     1
102
RTVSPropertyOp55
 70
     1
102
RTVSPropertyOp56
 70
     1
102
RTVSPropertyOp57
 70
     1
102
RTVSPropertyOp58
 70
     1
102
RTVSPropertyOp59
 70
     1
102
RTVSPropertyOp60
 70
     1
102
RTVSPropertyOp61
 70
     1
102
RTVSPropertyOp62
 70
     1
  0
XRECORD
  5
2455
102
{ACAD_REACTORS
330
2454
102
}
330
2454
100
AcDbXrecord
280
     1
102
RTVSPost2010Prop28
280
     0
102
RTVSPost2010PropOp28
 70
     1
102
RTVSPost2010Prop29
280
     1
102
RTVSPost2010PropOp29
 70
     1
102
RTVSPost2010Prop30
280
     1
102
RTVSPost2010PropOp30
 70
     1
102
RTVSPost2010Prop31
280
     0
102
RTVSPost2010PropOp31
 70
     1
102
RTVSPost2010Prop32
280
     0
102
RTVSPost2010PropOp32
 70
     1
102
RTVSPost2010Prop33
280
     0
102
RTVSPost2010PropOp33
 70
     1
102
RTVSPost2010Prop34
280
     0
102
RTVSPost2010PropOp34
 70
     1
102
RTVSPost2010Prop35
280
     0
102
RTVSPost2010PropOp35
 70
     1
102
RTVSPost2010Prop36
280
     0
102
RTVSPost2010PropOp36
 70
     1
102
RTVSPost2010Prop37
 90
       50
102
RTVSPost2010PropOp37
 70
     1
102
RTVSPost2010Prop38
140
0.0
102
RTVSPost2010PropOp38
 70
     1
102
RTVSPost2010Prop39
140
1.0
102
RTVSPost2010PropOp39
 70
     1
102
RTVSPost2010Prop40
 90
        0
102
RTVSPost2010PropOp40
 70
     1
102
RTVSPost2010Prop41ColorIndex
 90
       18
102
RTVSPost2010Prop41ColorRGB
 90
        0
102
RTVSPost2010PropOp41
 70
     1
102
RTVSPost2010Prop42
 90
       50
102
RTVSPost2010PropOp42
 70
     1
102
RTVSPost2010Prop43
 90
        3
102
RTVSPost2010PropOp43
 70
     1
102
RTVSPost2010Prop44ColorIndex
 90
        5
102
RTVSPost2010Prop44ColorRGB
 90
      255
102
RTVSPost2010PropOp44
 70
     1
102
RTVSPost2010Prop45
280
     0
102
RTVSPost2010PropOp45
 70
     1
102
RTVSPost2010Prop46
 90
       50
102
RTVSPost2010PropOp46
 70
     1
102
RTVSPost2010Prop47
 90
       50
102
RTVSPost2010PropOp47
 70
     1
102
RTVSPost2010Prop48
 90
       50
102
RTVSPost2010PropOp48
 70
     1
102
RTVSPost2010Prop49
280
     0
102
RTVSPost2010PropOp49
 70
     1
102
RTVSPost2010Prop50
 90
       50
102
RTVSPost2010PropOp50
 70
     1
102
RTVSPost2010Prop51ColorIndex
 90
      256
102
RTVSPost2010Prop51ColorRGB
 90
-16777216
102
RTVSPost2010PropOp51
 70
     0
102
RTVSPost2010Prop52
140
1.0
102
RTVSPost2010PropOp52
 70
     0
102
RTVSPost2010Prop53
 90
        2
102
RTVSPost2010PropOp53
 70
     1
102
RTVSPost2010Prop54
  1
strokes_ogs.tif
102
RTVSPost2010PropOp54
 70
     1
102
RTVSPost2010Prop55
280
     0
102
RTVSPost2010PropOp55
 70
     1
102
RTVSPost2010Prop56
140
1.0
102
RTVSPost2010PropOp56
 70
     1
102
RTVSPost2010Prop57
140
1.0
102
RTVSPost2010PropOp57
 70
     1
102
RTVSPropertyOp0
 70
     0
102
RTVSPropertyOp1
 70
     0
102
RTVSPropertyOp2
 70
     0
102
RTVSPropertyOp3
 70
     0
102
RTVSPropertyOp4
 70
     0
102
RTVSPropertyOp5
 70
     0
102
RTVSPropertyOp6
 70
     0
102
RTVSPropertyOp7
 70
     0
102
RTVSPropertyOp8
 70
     0
102
RTVSPropertyOp9
 70
     0
102
RTVSPropertyOp10
 70
     0
102
RTVSPropertyOp11
 70
     0
102
RTVSPropertyOp12
 70
     0
102
RTVSPropertyOp13
 70
     0
102
RTVSPropertyOp14
 70
     2
102
RTVSPropertyOp15
 70
     0
102
RTVSPropertyOp16
 70
     0
102
RTVSPropertyOp17
 70
     0
102
RTVSPropertyOp18
 70
     0
102
RTVSPropertyOp19
 70
     0
102
RTVSPropertyOp20
 70
     0
102
RTVSPropertyOp21
 70
     0
102
RTVSPropertyOp22
 70
     0
102
RTVSPropertyOp23
 70
     0
102
RTVSPropertyOp24
 70
     0
102
RTVSPropertyOp25
 70
     0
102
RTVSPropertyOp26
 70
     0
102
RTVSPropertyOp27
 70
     0
102
RTVSPropertyOp28
 70
     1
102
RTVSPropertyOp29
 70
     1
102
RTVSPropertyOp30
 70
     1
102
RTVSPropertyOp31
 70
     1
102
RTVSPropertyOp32
 70
     1
102
RTVSPropertyOp33
 70
     1
102
RTVSPropertyOp34
 70
     1
102
RTVSPropertyOp35
 70
     1
102
RTVSPropertyOp36
 70
     1
102
RTVSPropertyOp37
 70
     1
102
RTVSPropertyOp38
 70
     1
102
RTVSPropertyOp39
 70
     1
102
RTVSPropertyOp40
 70
     1
102
RTVSPropertyOp41
 70
     1
102
RTVSPropertyOp42
 70
     1
102
RTVSPropertyOp43
 70
     1
102
RTVSPropertyOp44
 70
     1
102
RTVSPropertyOp45
 70
     1
102
RTVSPropertyOp46
 70
     1
102
RTVSPropertyOp47
 70
     1
102
RTVSPropertyOp48
 70
     1
102
RTVSPropertyOp49
 70
     1
102
RTVSPropertyOp50
 70
     1
102
RTVSPropertyOp51
 70
     0
102
RTVSPropertyOp52
 70
     0
102
RTVSPropertyOp53
 70
     1
102
RTVSPropertyOp54
 70
     1
102
RTVSPropertyOp55
 70
     1
102
RTVSPropertyOp56
 70
     1
102
RTVSPropertyOp57
 70
     1
102
RTVSPropertyOp58
 70
     1
102
RTVSPropertyOp59
 70
     1
102
RTVSPropertyOp60
 70
     1
102
RTVSPropertyOp61
 70
     1
102
RTVSPropertyOp62
 70
     1
  0
XRECORD
  5
243C
102
{ACAD_REACTORS
330
243B
102
}
330
243B
100
AcDbXrecord
280
     1
102
RTVSPost2010Prop28
280
     0
102
RTVSPost2010PropOp28
 70
     1
102
RTVSPost2010Prop29
280
     1
102
RTVSPost2010PropOp29
 70
     1
102
RTVSPost2010Prop30
280
     1
102
RTVSPost2010PropOp30
 70
     1
102
RTVSPost2010Prop31
280
     0
102
RTVSPost2010PropOp31
 70
     1
102
RTVSPost2010Prop32
280
     0
102
RTVSPost2010PropOp32
 70
     1
102
RTVSPost2010Prop33
280
     0
102
RTVSPost2010PropOp33
 70
     1
102
RTVSPost2010Prop34
280
     0
102
RTVSPost2010PropOp34
 70
     1
102
RTVSPost2010Prop35
280
     0
102
RTVSPost2010PropOp35
 70
     1
102
RTVSPost2010Prop36
280
     0
102
RTVSPost2010PropOp36
 70
     1
102
RTVSPost2010Prop37
 90
       50
102
RTVSPost2010PropOp37
 70
     1
102
RTVSPost2010Prop38
140
0.0
102
RTVSPost2010PropOp38
 70
     1
102
RTVSPost2010Prop39
140
1.0
102
RTVSPost2010PropOp39
 70
     1
102
RTVSPost2010Prop40
 90
        0
102
RTVSPost2010PropOp40
 70
     1
102
RTVSPost2010Prop41ColorIndex
 90
       18
102
RTVSPost2010Prop41ColorRGB
 90
        0
102
RTVSPost2010PropOp41
 70
     1
102
RTVSPost2010Prop42
 90
       50
102
RTVSPost2010PropOp42
 70
     1
102
RTVSPost2010Prop43
 90
        3
102
RTVSPost2010PropOp43
 70
     1
102
RTVSPost2010Prop44ColorIndex
 90
        5
102
RTVSPost2010Prop44ColorRGB
 90
      255
102
RTVSPost2010PropOp44
 70
     1
102
RTVSPost2010Prop45
280
     0
102
RTVSPost2010PropOp45
 70
     1
102
RTVSPost2010Prop46
 90
       50
102
RTVSPost2010PropOp46
 70
     1
102
RTVSPost2010Prop47
 90
       50
102
RTVSPost2010PropOp47
 70
     1
102
RTVSPost2010Prop48
 90
       50
102
RTVSPost2010PropOp48
 70
     1
102
RTVSPost2010Prop49
280
     0
102
RTVSPost2010PropOp49
 70
     1
102
RTVSPost2010Prop50
 90
       50
102
RTVSPost2010PropOp50
 70
     1
102
RTVSPost2010Prop51ColorIndex
 90
      256
102
RTVSPost2010Prop51ColorRGB
 90
-16777216
102
RTVSPost2010PropOp51
 70
     0
102
RTVSPost2010Prop52
140
1.0
102
RTVSPost2010PropOp52
 70
     0
102
RTVSPost2010Prop53
 90
        2
102
RTVSPost2010PropOp53
 70
     1
102
RTVSPost2010Prop54
  1
strokes_ogs.tif
102
RTVSPost2010PropOp54
 70
     1
102
RTVSPost2010Prop55
280
     0
102
RTVSPost2010PropOp55
 70
     1
102
RTVSPost2010Prop56
140
1.0
102
RTVSPost2010PropOp56
 70
     1
102
RTVSPost2010Prop57
140
1.0
102
RTVSPost2010PropOp57
 70
     1
102
RTVSPropertyOp0
 70
     1
102
RTVSPropertyOp1
 70
     1
102
RTVSPropertyOp2
 70
     1
102
RTVSPropertyOp3
 70
     1
102
RTVSPropertyOp4
 70
     1
102
RTVSPropertyOp5
 70
     1
102
RTVSPropertyOp6
 70
     1
102
RTVSPropertyOp7
 70
     1
102
RTVSPropertyOp8
 70
     1
102
RTVSPropertyOp9
 70
     1
102
RTVSPropertyOp10
 70
     1
102
RTVSPropertyOp11
 70
     1
102
RTVSPropertyOp12
 70
     1
102
RTVSPropertyOp13
 70
     1
102
RTVSPropertyOp14
 70
     1
102
RTVSPropertyOp15
 70
     1
102
RTVSPropertyOp16
 70
     1
102
RTVSPropertyOp17
 70
     1
102
RTVSPropertyOp18
 70
     1
102
RTVSPropertyOp19
 70
     1
102
RTVSPropertyOp20
 70
     1
102
RTVSPropertyOp21
 70
     1
102
RTVSPropertyOp22
 70
     1
102
RTVSPropertyOp23
 70
     1
102
RTVSPropertyOp24
 70
     1
102
RTVSPropertyOp25
 70
     1
102
RTVSPropertyOp26
 70
     1
102
RTVSPropertyOp27
 70
     1
102
RTVSPropertyOp28
 70
     1
102
RTVSPropertyOp29
 70
     1
102
RTVSPropertyOp30
 70
     1
102
RTVSPropertyOp31
 70
     1
102
RTVSPropertyOp32
 70
     1
102
RTVSPropertyOp33
 70
     1
102
RTVSPropertyOp34
 70
     1
102
RTVSPropertyOp35
 70
     1
102
RTVSPropertyOp36
 70
     1
102
RTVSPropertyOp37
 70
     1
102
RTVSPropertyOp38
 70
     1
102
RTVSPropertyOp39
 70
     1
102
RTVSPropertyOp40
 70
     1
102
RTVSPropertyOp41
 70
     1
102
RTVSPropertyOp42
 70
     1
102
RTVSPropertyOp43
 70
     1
102
RTVSPropertyOp44
 70
     1
102
RTVSPropertyOp45
 70
     1
102
RTVSPropertyOp46
 70
     1
102
RTVSPropertyOp47
 70
     1
102
RTVSPropertyOp48
 70
     1
102
RTVSPropertyOp49
 70
     1
102
RTVSPropertyOp50
 70
     1
102
RTVSPropertyOp51
 70
     0
102
RTVSPropertyOp52
 70
     0
102
RTVSPropertyOp53
 70
     1
102
RTVSPropertyOp54
 70
     1
102
RTVSPropertyOp55
 70
     1
102
RTVSPropertyOp56
 70
     1
102
RTVSPropertyOp57
 70
     1
102
RTVSPropertyOp58
 70
     1
102
RTVSPropertyOp59
 70
     1
102
RTVSPropertyOp60
 70
     1
102
RTVSPropertyOp61
 70
     1
102
RTVSPropertyOp62
 70
     1
  0
XRECORD
  5
2465
102
{ACAD_REACTORS
330
2464
102
}
330
2464
100
AcDbXrecord
280
     1
102
RTVSPost2010Prop28
280
     0
102
RTVSPost2010PropOp28
 70
     1
102
RTVSPost2010Prop29
280
     1
102
RTVSPost2010PropOp29
 70
     1
102
RTVSPost2010Prop30
280
     1
102
RTVSPost2010PropOp30
 70
     1
102
RTVSPost2010Prop31
280
     0
102
RTVSPost2010PropOp31
 70
     1
102
RTVSPost2010Prop32
280
     0
102
RTVSPost2010PropOp32
 70
     1
102
RTVSPost2010Prop33
280
     0
102
RTVSPost2010PropOp33
 70
     1
102
RTVSPost2010Prop34
280
     0
102
RTVSPost2010PropOp34
 70
     1
102
RTVSPost2010Prop35
280
     0
102
RTVSPost2010PropOp35
 70
     1
102
RTVSPost2010Prop36
280
     0
102
RTVSPost2010PropOp36
 70
     1
102
RTVSPost2010Prop37
 90
       50
102
RTVSPost2010PropOp37
 70
     1
102
RTVSPost2010Prop38
140
0.0
102
RTVSPost2010PropOp38
 70
     1
102
RTVSPost2010Prop39
140
1.0
102
RTVSPost2010PropOp39
 70
     1
102
RTVSPost2010Prop40
 90
        0
102
RTVSPost2010PropOp40
 70
     1
102
RTVSPost2010Prop41ColorIndex
 90
       18
102
RTVSPost2010Prop41ColorRGB
 90
        0
102
RTVSPost2010PropOp41
 70
     1
102
RTVSPost2010Prop42
 90
       50
102
RTVSPost2010PropOp42
 70
     1
102
RTVSPost2010Prop43
 90
        3
102
RTVSPost2010PropOp43
 70
     1
102
RTVSPost2010Prop44ColorIndex
 90
        5
102
RTVSPost2010Prop44ColorRGB
 90
      255
102
RTVSPost2010PropOp44
 70
     1
102
RTVSPost2010Prop45
280
     0
102
RTVSPost2010PropOp45
 70
     1
102
RTVSPost2010Prop46
 90
       50
102
RTVSPost2010PropOp46
 70
     1
102
RTVSPost2010Prop47
 90
       50
102
RTVSPost2010PropOp47
 70
     1
102
RTVSPost2010Prop48
 90
       50
102
RTVSPost2010PropOp48
 70
     1
102
RTVSPost2010Prop49
280
     0
102
RTVSPost2010PropOp49
 70
     1
102
RTVSPost2010Prop50
 90
       50
102
RTVSPost2010PropOp50
 70
     1
102
RTVSPost2010Prop51ColorIndex
 90
      256
102
RTVSPost2010Prop51ColorRGB
 90
-16777216
102
RTVSPost2010PropOp51
 70
     0
102
RTVSPost2010Prop52
140
1.0
102
RTVSPost2010PropOp52
 70
     0
102
RTVSPost2010Prop53
 90
        2
102
RTVSPost2010PropOp53
 70
     1
102
RTVSPost2010Prop54
  1
strokes_ogs.tif
102
RTVSPost2010PropOp54
 70
     1
102
RTVSPost2010Prop55
280
     0
102
RTVSPost2010PropOp55
 70
     1
102
RTVSPost2010Prop56
140
1.0
102
RTVSPost2010PropOp56
 70
     1
102
RTVSPost2010Prop57
140
1.0
102
RTVSPost2010PropOp57
 70
     1
102
RTVSPropertyOp0
 70
     1
102
RTVSPropertyOp1
 70
     1
102
RTVSPropertyOp2
 70
     1
102
RTVSPropertyOp3
 70
     1
102
RTVSPropertyOp4
 70
     1
102
RTVSPropertyOp5
 70
     1
102
RTVSPropertyOp6
 70
     1
102
RTVSPropertyOp7
 70
     1
102
RTVSPropertyOp8
 70
     1
102
RTVSPropertyOp9
 70
     1
102
RTVSPropertyOp10
 70
     1
102
RTVSPropertyOp11
 70
     1
102
RTVSPropertyOp12
 70
     1
102
RTVSPropertyOp13
 70
     1
102
RTVSPropertyOp14
 70
     1
102
RTVSPropertyOp15
 70
     1
102
RTVSPropertyOp16
 70
     1
102
RTVSPropertyOp17
 70
     1
102
RTVSPropertyOp18
 70
     1
102
RTVSPropertyOp19
 70
     1
102
RTVSPropertyOp20
 70
     1
102
RTVSPropertyOp21
 70
     1
102
RTVSPropertyOp22
 70
     1
102
RTVSPropertyOp23
 70
     1
102
RTVSPropertyOp24
 70
     1
102
RTVSPropertyOp25
 70
     1
102
RTVSPropertyOp26
 70
     1
102
RTVSPropertyOp27
 70
     1
102
RTVSPropertyOp28
 70
     1
102
RTVSPropertyOp29
 70
     1
102
RTVSPropertyOp30
 70
     1
102
RTVSPropertyOp31
 70
     1
102
RTVSPropertyOp32
 70
     1
102
RTVSPropertyOp33
 70
     1
102
RTVSPropertyOp34
 70
     1
102
RTVSPropertyOp35
 70
     1
102
RTVSPropertyOp36
 70
     1
102
RTVSPropertyOp37
 70
     1
102
RTVSPropertyOp38
 70
     1
102
RTVSPropertyOp39
 70
     1
102
RTVSPropertyOp40
 70
     1
102
RTVSPropertyOp41
 70
     1
102
RTVSPropertyOp42
 70
     1
102
RTVSPropertyOp43
 70
     1
102
RTVSPropertyOp44
 70
     1
102
RTVSPropertyOp45
 70
     1
102
RTVSPropertyOp46
 70
     1
102
RTVSPropertyOp47
 70
     1
102
RTVSPropertyOp48
 70
     1
102
RTVSPropertyOp49
 70
     1
102
RTVSPropertyOp50
 70
     1
102
RTVSPropertyOp51
 70
     0
102
RTVSPropertyOp52
 70
     0
102
RTVSPropertyOp53
 70
     1
102
RTVSPropertyOp54
 70
     1
102
RTVSPropertyOp55
 70
     1
102
RTVSPropertyOp56
 70
     1
102
RTVSPropertyOp57
 70
     1
102
RTVSPropertyOp58
 70
     1
102
RTVSPropertyOp59
 70
     1
102
RTVSPropertyOp60
 70
     1
102
RTVSPropertyOp61
 70
     1
102
RTVSPropertyOp62
 70
     1
  0
XRECORD
  5
2463
102
{ACAD_REACTORS
330
2462
102
}
330
2462
100
AcDbXrecord
280
     1
102
RTVSPost2010Prop28
280
     0
102
RTVSPost2010PropOp28
 70
     1
102
RTVSPost2010Prop29
280
     1
102
RTVSPost2010PropOp29
 70
     1
102
RTVSPost2010Prop30
280
     1
102
RTVSPost2010PropOp30
 70
     1
102
RTVSPost2010Prop31
280
     0
102
RTVSPost2010PropOp31
 70
     1
102
RTVSPost2010Prop32
280
     0
102
RTVSPost2010PropOp32
 70
     1
102
RTVSPost2010Prop33
280
     0
102
RTVSPost2010PropOp33
 70
     1
102
RTVSPost2010Prop34
280
     0
102
RTVSPost2010PropOp34
 70
     1
102
RTVSPost2010Prop35
280
     0
102
RTVSPost2010PropOp35
 70
     1
102
RTVSPost2010Prop36
280
     0
102
RTVSPost2010PropOp36
 70
     1
102
RTVSPost2010Prop37
 90
       50
102
RTVSPost2010PropOp37
 70
     1
102
RTVSPost2010Prop38
140
0.0
102
RTVSPost2010PropOp38
 70
     1
102
RTVSPost2010Prop39
140
1.0
102
RTVSPost2010PropOp39
 70
     1
102
RTVSPost2010Prop40
 90
        0
102
RTVSPost2010PropOp40
 70
     1
102
RTVSPost2010Prop41ColorIndex
 90
       18
102
RTVSPost2010Prop41ColorRGB
 90
        0
102
RTVSPost2010PropOp41
 70
     1
102
RTVSPost2010Prop42
 90
       50
102
RTVSPost2010PropOp42
 70
     1
102
RTVSPost2010Prop43
 90
        3
102
RTVSPost2010PropOp43
 70
     1
102
RTVSPost2010Prop44ColorIndex
 90
        5
102
RTVSPost2010Prop44ColorRGB
 90
      255
102
RTVSPost2010PropOp44
 70
     1
102
RTVSPost2010Prop45
280
     0
102
RTVSPost2010PropOp45
 70
     1
102
RTVSPost2010Prop46
 90
       50
102
RTVSPost2010PropOp46
 70
     1
102
RTVSPost2010Prop47
 90
       50
102
RTVSPost2010PropOp47
 70
     1
102
RTVSPost2010Prop48
 90
       50
102
RTVSPost2010PropOp48
 70
     1
102
RTVSPost2010Prop49
280
     0
102
RTVSPost2010PropOp49
 70
     1
102
RTVSPost2010Prop50
 90
       50
102
RTVSPost2010PropOp50
 70
     1
102
RTVSPost2010Prop51ColorIndex
 90
      256
102
RTVSPost2010Prop51ColorRGB
 90
-16777216
102
RTVSPost2010PropOp51
 70
     0
102
RTVSPost2010Prop52
140
1.0
102
RTVSPost2010PropOp52
 70
     0
102
RTVSPost2010Prop53
 90
        2
102
RTVSPost2010PropOp53
 70
     1
102
RTVSPost2010Prop54
  1
strokes_ogs.tif
102
RTVSPost2010PropOp54
 70
     1
102
RTVSPost2010Prop55
280
     0
102
RTVSPost2010PropOp55
 70
     1
102
RTVSPost2010Prop56
140
1.0
102
RTVSPost2010PropOp56
 70
     1
102
RTVSPost2010Prop57
140
1.0
102
RTVSPost2010PropOp57
 70
     1
102
RTVSPropertyOp0
 70
     1
102
RTVSPropertyOp1
 70
     1
102
RTVSPropertyOp2
 70
     1
102
RTVSPropertyOp3
 70
     1
102
RTVSPropertyOp4
 70
     1
102
RTVSPropertyOp5
 70
     1
102
RTVSPropertyOp6
 70
     1
102
RTVSPropertyOp7
 70
     1
102
RTVSPropertyOp8
 70
     1
102
RTVSPropertyOp9
 70
     1
102
RTVSPropertyOp10
 70
     1
102
RTVSPropertyOp11
 70
     1
102
RTVSPropertyOp12
 70
     1
102
RTVSPropertyOp13
 70
     1
102
RTVSPropertyOp14
 70
     1
102
RTVSPropertyOp15
 70
     1
102
RTVSPropertyOp16
 70
     1
102
RTVSPropertyOp17
 70
     1
102
RTVSPropertyOp18
 70
     1
102
RTVSPropertyOp19
 70
     1
102
RTVSPropertyOp20
 70
     1
102
RTVSPropertyOp21
 70
     1
102
RTVSPropertyOp22
 70
     1
102
RTVSPropertyOp23
 70
     1
102
RTVSPropertyOp24
 70
     1
102
RTVSPropertyOp25
 70
     1
102
RTVSPropertyOp26
 70
     1
102
RTVSPropertyOp27
 70
     1
102
RTVSPropertyOp28
 70
     1
102
RTVSPropertyOp29
 70
     1
102
RTVSPropertyOp30
 70
     1
102
RTVSPropertyOp31
 70
     1
102
RTVSPropertyOp32
 70
     1
102
RTVSPropertyOp33
 70
     1
102
RTVSPropertyOp34
 70
     1
102
RTVSPropertyOp35
 70
     1
102
RTVSPropertyOp36
 70
     1
102
RTVSPropertyOp37
 70
     1
102
RTVSPropertyOp38
 70
     1
102
RTVSPropertyOp39
 70
     1
102
RTVSPropertyOp40
 70
     1
102
RTVSPropertyOp41
 70
     1
102
RTVSPropertyOp42
 70
     1
102
RTVSPropertyOp43
 70
     1
102
RTVSPropertyOp44
 70
     1
102
RTVSPropertyOp45
 70
     1
102
RTVSPropertyOp46
 70
     1
102
RTVSPropertyOp47
 70
     1
102
RTVSPropertyOp48
 70
     1
102
RTVSPropertyOp49
 70
     1
102
RTVSPropertyOp50
 70
     1
102
RTVSPropertyOp51
 70
     0
102
RTVSPropertyOp52
 70
     0
102
RTVSPropertyOp53
 70
     1
102
RTVSPropertyOp54
 70
     1
102
RTVSPropertyOp55
 70
     1
102
RTVSPropertyOp56
 70
     1
102
RTVSPropertyOp57
 70
     1
102
RTVSPropertyOp58
 70
     1
102
RTVSPropertyOp59
 70
     1
102
RTVSPropertyOp60
 70
     1
102
RTVSPropertyOp61
 70
     1
102
RTVSPropertyOp62
 70
     1
  0
XRECORD
  5
245D
102
{ACAD_REACTORS
330
245C
102
}
330
245C
100
AcDbXrecord
280
     1
102
RTVSPost2010Prop28
280
     0
102
RTVSPost2010PropOp28
 70
     1
102
RTVSPost2010Prop29
280
     1
102
RTVSPost2010PropOp29
 70
     1
102
RTVSPost2010Prop30
280
     1
102
RTVSPost2010PropOp30
 70
     1
102
RTVSPost2010Prop31
280
     0
102
RTVSPost2010PropOp31
 70
     1
102
RTVSPost2010Prop32
280
     0
102
RTVSPost2010PropOp32
 70
     1
102
RTVSPost2010Prop33
280
     0
102
RTVSPost2010PropOp33
 70
     1
102
RTVSPost2010Prop34
280
     0
102
RTVSPost2010PropOp34
 70
     1
102
RTVSPost2010Prop35
280
     0
102
RTVSPost2010PropOp35
 70
     1
102
RTVSPost2010Prop36
280
     0
102
RTVSPost2010PropOp36
 70
     1
102
RTVSPost2010Prop37
 90
       50
102
RTVSPost2010PropOp37
 70
     1
102
RTVSPost2010Prop38
140
0.0
102
RTVSPost2010PropOp38
 70
     1
102
RTVSPost2010Prop39
140
1.0
102
RTVSPost2010PropOp39
 70
     1
102
RTVSPost2010Prop40
 90
        0
102
RTVSPost2010PropOp40
 70
     1
102
RTVSPost2010Prop41ColorIndex
 90
       18
102
RTVSPost2010Prop41ColorRGB
 90
        0
102
RTVSPost2010PropOp41
 70
     1
102
RTVSPost2010Prop42
 90
       50
102
RTVSPost2010PropOp42
 70
     1
102
RTVSPost2010Prop43
 90
        3
102
RTVSPost2010PropOp43
 70
     1
102
RTVSPost2010Prop44ColorIndex
 90
        5
102
RTVSPost2010Prop44ColorRGB
 90
      255
102
RTVSPost2010PropOp44
 70
     1
102
RTVSPost2010Prop45
280
     0
102
RTVSPost2010PropOp45
 70
     1
102
RTVSPost2010Prop46
 90
       50
102
RTVSPost2010PropOp46
 70
     1
102
RTVSPost2010Prop47
 90
       50
102
RTVSPost2010PropOp47
 70
     1
102
RTVSPost2010Prop48
 90
       50
102
RTVSPost2010PropOp48
 70
     1
102
RTVSPost2010Prop49
280
     0
102
RTVSPost2010PropOp49
 70
     1
102
RTVSPost2010Prop50
 90
       50
102
RTVSPost2010PropOp50
 70
     1
102
RTVSPost2010Prop51ColorIndex
 90
      256
102
RTVSPost2010Prop51ColorRGB
 90
-16777216
102
RTVSPost2010PropOp51
 70
     0
102
RTVSPost2010Prop52
140
1.0
102
RTVSPost2010PropOp52
 70
     0
102
RTVSPost2010Prop53
 90
        2
102
RTVSPost2010PropOp53
 70
     1
102
RTVSPost2010Prop54
  1
strokes_ogs.tif
102
RTVSPost2010PropOp54
 70
     1
102
RTVSPost2010Prop55
280
     0
102
RTVSPost2010PropOp55
 70
     1
102
RTVSPost2010Prop56
140
1.0
102
RTVSPost2010PropOp56
 70
     1
102
RTVSPost2010Prop57
140
1.0
102
RTVSPost2010PropOp57
 70
     1
102
RTVSPropertyOp0
 70
     1
102
RTVSPropertyOp1
 70
     1
102
RTVSPropertyOp2
 70
     1
102
RTVSPropertyOp3
 70
     1
102
RTVSPropertyOp4
 70
     1
102
RTVSPropertyOp5
 70
     1
102
RTVSPropertyOp6
 70
     1
102
RTVSPropertyOp7
 70
     1
102
RTVSPropertyOp8
 70
     1
102
RTVSPropertyOp9
 70
     1
102
RTVSPropertyOp10
 70
     1
102
RTVSPropertyOp11
 70
     1
102
RTVSPropertyOp12
 70
     1
102
RTVSPropertyOp13
 70
     1
102
RTVSPropertyOp14
 70
     1
102
RTVSPropertyOp15
 70
     1
102
RTVSPropertyOp16
 70
     1
102
RTVSPropertyOp17
 70
     1
102
RTVSPropertyOp18
 70
     1
102
RTVSPropertyOp19
 70
     1
102
RTVSPropertyOp20
 70
     1
102
RTVSPropertyOp21
 70
     1
102
RTVSPropertyOp22
 70
     1
102
RTVSPropertyOp23
 70
     1
102
RTVSPropertyOp24
 70
     1
102
RTVSPropertyOp25
 70
     1
102
RTVSPropertyOp26
 70
     1
102
RTVSPropertyOp27
 70
     1
102
RTVSPropertyOp28
 70
     1
102
RTVSPropertyOp29
 70
     1
102
RTVSPropertyOp30
 70
     1
102
RTVSPropertyOp31
 70
     1
102
RTVSPropertyOp32
 70
     1
102
RTVSPropertyOp33
 70
     1
102
RTVSPropertyOp34
 70
     1
102
RTVSPropertyOp35
 70
     1
102
RTVSPropertyOp36
 70
     1
102
RTVSPropertyOp37
 70
     1
102
RTVSPropertyOp38
 70
     1
102
RTVSPropertyOp39
 70
     1
102
RTVSPropertyOp40
 70
     1
102
RTVSPropertyOp41
 70
     1
102
RTVSPropertyOp42
 70
     1
102
RTVSPropertyOp43
 70
     1
102
RTVSPropertyOp44
 70
     1
102
RTVSPropertyOp45
 70
     1
102
RTVSPropertyOp46
 70
     1
102
RTVSPropertyOp47
 70
     1
102
RTVSPropertyOp48
 70
     1
102
RTVSPropertyOp49
 70
     1
102
RTVSPropertyOp50
 70
     1
102
RTVSPropertyOp51
 70
     0
102
RTVSPropertyOp52
 70
     0
102
RTVSPropertyOp53
 70
     1
102
RTVSPropertyOp54
 70
     1
102
RTVSPropertyOp55
 70
     1
102
RTVSPropertyOp56
 70
     1
102
RTVSPropertyOp57
 70
     1
102
RTVSPropertyOp58
 70
     1
102
RTVSPropertyOp59
 70
     1
102
RTVSPropertyOp60
 70
     1
102
RTVSPropertyOp61
 70
     1
102
RTVSPropertyOp62
 70
     1
  0
XRECORD
  5
245F
102
{ACAD_REACTORS
330
245E
102
}
330
245E
100
AcDbXrecord
280
     1
102
RTVSPost2010Prop28
280
     0
102
RTVSPost2010PropOp28
 70
     1
102
RTVSPost2010Prop29
280
     1
102
RTVSPost2010PropOp29
 70
     1
102
RTVSPost2010Prop30
280
     1
102
RTVSPost2010PropOp30
 70
     1
102
RTVSPost2010Prop31
280
     0
102
RTVSPost2010PropOp31
 70
     1
102
RTVSPost2010Prop32
280
     0
102
RTVSPost2010PropOp32
 70
     1
102
RTVSPost2010Prop33
280
     0
102
RTVSPost2010PropOp33
 70
     1
102
RTVSPost2010Prop34
280
     0
102
RTVSPost2010PropOp34
 70
     1
102
RTVSPost2010Prop35
280
     0
102
RTVSPost2010PropOp35
 70
     1
102
RTVSPost2010Prop36
280
     0
102
RTVSPost2010PropOp36
 70
     1
102
RTVSPost2010Prop37
 90
       50
102
RTVSPost2010PropOp37
 70
     1
102
RTVSPost2010Prop38
140
0.0
102
RTVSPost2010PropOp38
 70
     1
102
RTVSPost2010Prop39
140
1.0
102
RTVSPost2010PropOp39
 70
     1
102
RTVSPost2010Prop40
 90
        0
102
RTVSPost2010PropOp40
 70
     1
102
RTVSPost2010Prop41ColorIndex
 90
       18
102
RTVSPost2010Prop41ColorRGB
 90
        0
102
RTVSPost2010PropOp41
 70
     1
102
RTVSPost2010Prop42
 90
       50
102
RTVSPost2010PropOp42
 70
     1
102
RTVSPost2010Prop43
 90
        3
102
RTVSPost2010PropOp43
 70
     1
102
RTVSPost2010Prop44ColorIndex
 90
        5
102
RTVSPost2010Prop44ColorRGB
 90
      255
102
RTVSPost2010PropOp44
 70
     1
102
RTVSPost2010Prop45
280
     0
102
RTVSPost2010PropOp45
 70
     1
102
RTVSPost2010Prop46
 90
       50
102
RTVSPost2010PropOp46
 70
     1
102
RTVSPost2010Prop47
 90
       50
102
RTVSPost2010PropOp47
 70
     1
102
RTVSPost2010Prop48
 90
       50
102
RTVSPost2010PropOp48
 70
     1
102
RTVSPost2010Prop49
280
     0
102
RTVSPost2010PropOp49
 70
     1
102
RTVSPost2010Prop50
 90
       50
102
RTVSPost2010PropOp50
 70
     1
102
RTVSPost2010Prop51ColorIndex
 90
      256
102
RTVSPost2010Prop51ColorRGB
 90
-16777216
102
RTVSPost2010PropOp51
 70
     0
102
RTVSPost2010Prop52
140
1.0
102
RTVSPost2010PropOp52
 70
     0
102
RTVSPost2010Prop53
 90
        2
102
RTVSPost2010PropOp53
 70
     1
102
RTVSPost2010Prop54
  1
strokes_ogs.tif
102
RTVSPost2010PropOp54
 70
     1
102
RTVSPost2010Prop55
280
     0
102
RTVSPost2010PropOp55
 70
     1
102
RTVSPost2010Prop56
140
1.0
102
RTVSPost2010PropOp56
 70
     1
102
RTVSPost2010Prop57
140
1.0
102
RTVSPost2010PropOp57
 70
     1
102
RTVSPropertyOp0
 70
     1
102
RTVSPropertyOp1
 70
     1
102
RTVSPropertyOp2
 70
     1
102
RTVSPropertyOp3
 70
     1
102
RTVSPropertyOp4
 70
     1
102
RTVSPropertyOp5
 70
     1
102
RTVSPropertyOp6
 70
     1
102
RTVSPropertyOp7
 70
     1
102
RTVSPropertyOp8
 70
     1
102
RTVSPropertyOp9
 70
     1
102
RTVSPropertyOp10
 70
     1
102
RTVSPropertyOp11
 70
     1
102
RTVSPropertyOp12
 70
     1
102
RTVSPropertyOp13
 70
     1
102
RTVSPropertyOp14
 70
     1
102
RTVSPropertyOp15
 70
     1
102
RTVSPropertyOp16
 70
     1
102
RTVSPropertyOp17
 70
     1
102
RTVSPropertyOp18
 70
     1
102
RTVSPropertyOp19
 70
     1
102
RTVSPropertyOp20
 70
     1
102
RTVSPropertyOp21
 70
     1
102
RTVSPropertyOp22
 70
     1
102
RTVSPropertyOp23
 70
     1
102
RTVSPropertyOp24
 70
     1
102
RTVSPropertyOp25
 70
     1
102
RTVSPropertyOp26
 70
     1
102
RTVSPropertyOp27
 70
     1
102
RTVSPropertyOp28
 70
     1
102
RTVSPropertyOp29
 70
     1
102
RTVSPropertyOp30
 70
     1
102
RTVSPropertyOp31
 70
     1
102
RTVSPropertyOp32
 70
     1
102
RTVSPropertyOp33
 70
     1
102
RTVSPropertyOp34
 70
     1
102
RTVSPropertyOp35
 70
     1
102
RTVSPropertyOp36
 70
     1
102
RTVSPropertyOp37
 70
     1
102
RTVSPropertyOp38
 70
     1
102
RTVSPropertyOp39
 70
     1
102
RTVSPropertyOp40
 70
     1
102
RTVSPropertyOp41
 70
     1
102
RTVSPropertyOp42
 70
     1
102
RTVSPropertyOp43
 70
     1
102
RTVSPropertyOp44
 70
     1
102
RTVSPropertyOp45
 70
     1
102
RTVSPropertyOp46
 70
     1
102
RTVSPropertyOp47
 70
     1
102
RTVSPropertyOp48
 70
     1
102
RTVSPropertyOp49
 70
     1
102
RTVSPropertyOp50
 70
     1
102
RTVSPropertyOp51
 70
     0
102
RTVSPropertyOp52
 70
     0
102
RTVSPropertyOp53
 70
     1
102
RTVSPropertyOp54
 70
     1
102
RTVSPropertyOp55
 70
     1
102
RTVSPropertyOp56
 70
     1
102
RTVSPropertyOp57
 70
     1
102
RTVSPropertyOp58
 70
     1
102
RTVSPropertyOp59
 70
     1
102
RTVSPropertyOp60
 70
     1
102
RTVSPropertyOp61
 70
     1
102
RTVSPropertyOp62
 70
     1
  0
XRECORD
  5
2442
102
{ACAD_REACTORS
330
2441
102
}
330
2441
100
AcDbXrecord
280
     1
102
RTVSPost2010Prop28
280
     0
102
RTVSPost2010PropOp28
 70
     1
102
RTVSPost2010Prop29
280
     1
102
RTVSPost2010PropOp29
 70
     1
102
RTVSPost2010Prop30
280
     1
102
RTVSPost2010PropOp30
 70
     1
102
RTVSPost2010Prop31
280
     0
102
RTVSPost2010PropOp31
 70
     1
102
RTVSPost2010Prop32
280
     0
102
RTVSPost2010PropOp32
 70
     1
102
RTVSPost2010Prop33
280
     0
102
RTVSPost2010PropOp33
 70
     1
102
RTVSPost2010Prop34
280
     0
102
RTVSPost2010PropOp34
 70
     1
102
RTVSPost2010Prop35
280
     0
102
RTVSPost2010PropOp35
 70
     1
102
RTVSPost2010Prop36
280
     0
102
RTVSPost2010PropOp36
 70
     1
102
RTVSPost2010Prop37
 90
       50
102
RTVSPost2010PropOp37
 70
     1
102
RTVSPost2010Prop38
140
0.0
102
RTVSPost2010PropOp38
 70
     1
102
RTVSPost2010Prop39
140
1.0
102
RTVSPost2010PropOp39
 70
     1
102
RTVSPost2010Prop40
 90
        0
102
RTVSPost2010PropOp40
 70
     1
102
RTVSPost2010Prop41ColorIndex
 90
       18
102
RTVSPost2010Prop41ColorRGB
 90
        0
102
RTVSPost2010PropOp41
 70
     1
102
RTVSPost2010Prop42
 90
       50
102
RTVSPost2010PropOp42
 70
     1
102
RTVSPost2010Prop43
 90
        3
102
RTVSPost2010PropOp43
 70
     1
102
RTVSPost2010Prop44ColorIndex
 90
        5
102
RTVSPost2010Prop44ColorRGB
 90
      255
102
RTVSPost2010PropOp44
 70
     1
102
RTVSPost2010Prop45
280
     0
102
RTVSPost2010PropOp45
 70
     1
102
RTVSPost2010Prop46
 90
       50
102
RTVSPost2010PropOp46
 70
     1
102
RTVSPost2010Prop47
 90
       50
102
RTVSPost2010PropOp47
 70
     1
102
RTVSPost2010Prop48
 90
       50
102
RTVSPost2010PropOp48
 70
     1
102
RTVSPost2010Prop49
280
     0
102
RTVSPost2010PropOp49
 70
     1
102
RTVSPost2010Prop50
 90
       50
102
RTVSPost2010PropOp50
 70
     1
102
RTVSPost2010Prop51ColorIndex
 90
      256
102
RTVSPost2010Prop51ColorRGB
 90
-16777216
102
RTVSPost2010PropOp51
 70
     0
102
RTVSPost2010Prop52
140
1.0
102
RTVSPost2010PropOp52
 70
     0
102
RTVSPost2010Prop53
 90
        2
102
RTVSPost2010PropOp53
 70
     1
102
RTVSPost2010Prop54
  1
strokes_ogs.tif
102
RTVSPost2010PropOp54
 70
     1
102
RTVSPost2010Prop55
280
     0
102
RTVSPost2010PropOp55
 70
     1
102
RTVSPost2010Prop56
140
1.0
102
RTVSPost2010PropOp56
 70
     1
102
RTVSPost2010Prop57
140
1.0
102
RTVSPost2010PropOp57
 70
     1
102
RTVSPropertyOp0
 70
     1
102
RTVSPropertyOp1
 70
     1
102
RTVSPropertyOp2
 70
     1
102
RTVSPropertyOp3
 70
     1
102
RTVSPropertyOp4
 70
     1
102
RTVSPropertyOp5
 70
     1
102
RTVSPropertyOp6
 70
     1
102
RTVSPropertyOp7
 70
     1
102
RTVSPropertyOp8
 70
     1
102
RTVSPropertyOp9
 70
     1
102
RTVSPropertyOp10
 70
     1
102
RTVSPropertyOp11
 70
     1
102
RTVSPropertyOp12
 70
     1
102
RTVSPropertyOp13
 70
     1
102
RTVSPropertyOp14
 70
     1
102
RTVSPropertyOp15
 70
     1
102
RTVSPropertyOp16
 70
     1
102
RTVSPropertyOp17
 70
     1
102
RTVSPropertyOp18
 70
     1
102
RTVSPropertyOp19
 70
     1
102
RTVSPropertyOp20
 70
     1
102
RTVSPropertyOp21
 70
     1
102
RTVSPropertyOp22
 70
     1
102
RTVSPropertyOp23
 70
     1
102
RTVSPropertyOp24
 70
     1
102
RTVSPropertyOp25
 70
     1
102
RTVSPropertyOp26
 70
     1
102
RTVSPropertyOp27
 70
     1
102
RTVSPropertyOp28
 70
     1
102
RTVSPropertyOp29
 70
     1
102
RTVSPropertyOp30
 70
     1
102
RTVSPropertyOp31
 70
     1
102
RTVSPropertyOp32
 70
     1
102
RTVSPropertyOp33
 70
     1
102
RTVSPropertyOp34
 70
     1
102
RTVSPropertyOp35
 70
     1
102
RTVSPropertyOp36
 70
     1
102
RTVSPropertyOp37
 70
     1
102
RTVSPropertyOp38
 70
     1
102
RTVSPropertyOp39
 70
     1
102
RTVSPropertyOp40
 70
     1
102
RTVSPropertyOp41
 70
     1
102
RTVSPropertyOp42
 70
     1
102
RTVSPropertyOp43
 70
     1
102
RTVSPropertyOp44
 70
     1
102
RTVSPropertyOp45
 70
     1
102
RTVSPropertyOp46
 70
     1
102
RTVSPropertyOp47
 70
     1
102
RTVSPropertyOp48
 70
     1
102
RTVSPropertyOp49
 70
     1
102
RTVSPropertyOp50
 70
     1
102
RTVSPropertyOp51
 70
     0
102
RTVSPropertyOp52
 70
     0
102
RTVSPropertyOp53
 70
     1
102
RTVSPropertyOp54
 70
     1
102
RTVSPropertyOp55
 70
     1
102
RTVSPropertyOp56
 70
     1
102
RTVSPropertyOp57
 70
     1
102
RTVSPropertyOp58
 70
     1
102
RTVSPropertyOp59
 70
     1
102
RTVSPropertyOp60
 70
     1
102
RTVSPropertyOp61
 70
     1
102
RTVSPropertyOp62
 70
     1
  0
XRECORD
  5
2459
102
{ACAD_REACTORS
330
2458
102
}
330
2458
100
AcDbXrecord
280
     1
102
RTVSPost2010Prop28
280
     0
102
RTVSPost2010PropOp28
 70
     1
102
RTVSPost2010Prop29
280
     1
102
RTVSPost2010PropOp29
 70
     1
102
RTVSPost2010Prop30
280
     1
102
RTVSPost2010PropOp30
 70
     1
102
RTVSPost2010Prop31
280
     0
102
RTVSPost2010PropOp31
 70
     1
102
RTVSPost2010Prop32
280
     0
102
RTVSPost2010PropOp32
 70
     1
102
RTVSPost2010Prop33
280
     0
102
RTVSPost2010PropOp33
 70
     1
102
RTVSPost2010Prop34
280
     0
102
RTVSPost2010PropOp34
 70
     1
102
RTVSPost2010Prop35
280
     0
102
RTVSPost2010PropOp35
 70
     1
102
RTVSPost2010Prop36
280
     0
102
RTVSPost2010PropOp36
 70
     1
102
RTVSPost2010Prop37
 90
       50
102
RTVSPost2010PropOp37
 70
     1
102
RTVSPost2010Prop38
140
0.0
102
RTVSPost2010PropOp38
 70
     1
102
RTVSPost2010Prop39
140
1.0
102
RTVSPost2010PropOp39
 70
     1
102
RTVSPost2010Prop40
 90
        0
102
RTVSPost2010PropOp40
 70
     1
102
RTVSPost2010Prop41ColorIndex
 90
       18
102
RTVSPost2010Prop41ColorRGB
 90
        0
102
RTVSPost2010PropOp41
 70
     1
102
RTVSPost2010Prop42
 90
       50
102
RTVSPost2010PropOp42
 70
     1
102
RTVSPost2010Prop43
 90
        3
102
RTVSPost2010PropOp43
 70
     1
102
RTVSPost2010Prop44ColorIndex
 90
        5
102
RTVSPost2010Prop44ColorRGB
 90
      255
102
RTVSPost2010PropOp44
 70
     1
102
RTVSPost2010Prop45
280
     0
102
RTVSPost2010PropOp45
 70
     1
102
RTVSPost2010Prop46
 90
       50
102
RTVSPost2010PropOp46
 70
     1
102
RTVSPost2010Prop47
 90
       50
102
RTVSPost2010PropOp47
 70
     1
102
RTVSPost2010Prop48
 90
       50
102
RTVSPost2010PropOp48
 70
     1
102
RTVSPost2010Prop49
280
     0
102
RTVSPost2010PropOp49
 70
     1
102
RTVSPost2010Prop50
 90
       50
102
RTVSPost2010PropOp50
 70
     1
102
RTVSPost2010Prop51ColorIndex
 90
      256
102
RTVSPost2010Prop51ColorRGB
 90
-16777216
102
RTVSPost2010PropOp51
 70
     0
102
RTVSPost2010Prop52
140
1.0
102
RTVSPost2010PropOp52
 70
     0
102
RTVSPost2010Prop53
 90
        2
102
RTVSPost2010PropOp53
 70
     1
102
RTVSPost2010Prop54
  1
strokes_ogs.tif
102
RTVSPost2010PropOp54
 70
     1
102
RTVSPost2010Prop55
280
     0
102
RTVSPost2010PropOp55
 70
     1
102
RTVSPost2010Prop56
140
1.0
102
RTVSPost2010PropOp56
 70
     1
102
RTVSPost2010Prop57
140
1.0
102
RTVSPost2010PropOp57
 70
     1
102
RTVSPropertyOp0
 70
     1
102
RTVSPropertyOp1
 70
     1
102
RTVSPropertyOp2
 70
     1
102
RTVSPropertyOp3
 70
     1
102
RTVSPropertyOp4
 70
     1
102
RTVSPropertyOp5
 70
     1
102
RTVSPropertyOp6
 70
     1
102
RTVSPropertyOp7
 70
     1
102
RTVSPropertyOp8
 70
     1
102
RTVSPropertyOp9
 70
     1
102
RTVSPropertyOp10
 70
     1
102
RTVSPropertyOp11
 70
     1
102
RTVSPropertyOp12
 70
     1
102
RTVSPropertyOp13
 70
     1
102
RTVSPropertyOp14
 70
     1
102
RTVSPropertyOp15
 70
     1
102
RTVSPropertyOp16
 70
     1
102
RTVSPropertyOp17
 70
     1
102
RTVSPropertyOp18
 70
     1
102
RTVSPropertyOp19
 70
     1
102
RTVSPropertyOp20
 70
     1
102
RTVSPropertyOp21
 70
     1
102
RTVSPropertyOp22
 70
     1
102
RTVSPropertyOp23
 70
     1
102
RTVSPropertyOp24
 70
     1
102
RTVSPropertyOp25
 70
     1
102
RTVSPropertyOp26
 70
     1
102
RTVSPropertyOp27
 70
     1
102
RTVSPropertyOp28
 70
     1
102
RTVSPropertyOp29
 70
     1
102
RTVSPropertyOp30
 70
     1
102
RTVSPropertyOp31
 70
     1
102
RTVSPropertyOp32
 70
     1
102
RTVSPropertyOp33
 70
     1
102
RTVSPropertyOp34
 70
     1
102
RTVSPropertyOp35
 70
     1
102
RTVSPropertyOp36
 70
     1
102
RTVSPropertyOp37
 70
     1
102
RTVSPropertyOp38
 70
     1
102
RTVSPropertyOp39
 70
     1
102
RTVSPropertyOp40
 70
     1
102
RTVSPropertyOp41
 70
     1
102
RTVSPropertyOp42
 70
     1
102
RTVSPropertyOp43
 70
     1
102
RTVSPropertyOp44
 70
     1
102
RTVSPropertyOp45
 70
     1
102
RTVSPropertyOp46
 70
     1
102
RTVSPropertyOp47
 70
     1
102
RTVSPropertyOp48
 70
     1
102
RTVSPropertyOp49
 70
     1
102
RTVSPropertyOp50
 70
     1
102
RTVSPropertyOp51
 70
     0
102
RTVSPropertyOp52
 70
     0
102
RTVSPropertyOp53
 70
     1
102
RTVSPropertyOp54
 70
     1
102
RTVSPropertyOp55
 70
     1
102
RTVSPropertyOp56
 70
     1
102
RTVSPropertyOp57
 70
     1
102
RTVSPropertyOp58
 70
     1
102
RTVSPropertyOp59
 70
     1
102
RTVSPropertyOp60
 70
     1
102
RTVSPropertyOp61
 70
     1
102
RTVSPropertyOp62
 70
     1
  0
XRECORD
  5
2461
102
{ACAD_REACTORS
330
2460
102
}
330
2460
100
AcDbXrecord
280
     1
102
RTVSPost2010Prop28
280
     0
102
RTVSPost2010PropOp28
 70
     1
102
RTVSPost2010Prop29
280
     1
102
RTVSPost2010PropOp29
 70
     1
102
RTVSPost2010Prop30
280
     1
102
RTVSPost2010PropOp30
 70
     1
102
RTVSPost2010Prop31
280
     0
102
RTVSPost2010PropOp31
 70
     1
102
RTVSPost2010Prop32
280
     0
102
RTVSPost2010PropOp32
 70
     1
102
RTVSPost2010Prop33
280
     0
102
RTVSPost2010PropOp33
 70
     1
102
RTVSPost2010Prop34
280
     0
102
RTVSPost2010PropOp34
 70
     1
102
RTVSPost2010Prop35
280
     0
102
RTVSPost2010PropOp35
 70
     1
102
RTVSPost2010Prop36
280
     0
102
RTVSPost2010PropOp36
 70
     1
102
RTVSPost2010Prop37
 90
       50
102
RTVSPost2010PropOp37
 70
     1
102
RTVSPost2010Prop38
140
0.0
102
RTVSPost2010PropOp38
 70
     1
102
RTVSPost2010Prop39
140
1.0
102
RTVSPost2010PropOp39
 70
     1
102
RTVSPost2010Prop40
 90
        0
102
RTVSPost2010PropOp40
 70
     1
102
RTVSPost2010Prop41ColorIndex
 90
       18
102
RTVSPost2010Prop41ColorRGB
 90
        0
102
RTVSPost2010PropOp41
 70
     1
102
RTVSPost2010Prop42
 90
       50
102
RTVSPost2010PropOp42
 70
     1
102
RTVSPost2010Prop43
 90
        3
102
RTVSPost2010PropOp43
 70
     1
102
RTVSPost2010Prop44ColorIndex
 90
        5
102
RTVSPost2010Prop44ColorRGB
 90
      255
102
RTVSPost2010PropOp44
 70
     1
102
RTVSPost2010Prop45
280
     0
102
RTVSPost2010PropOp45
 70
     1
102
RTVSPost2010Prop46
 90
       50
102
RTVSPost2010PropOp46
 70
     1
102
RTVSPost2010Prop47
 90
       50
102
RTVSPost2010PropOp47
 70
     1
102
RTVSPost2010Prop48
 90
       50
102
RTVSPost2010PropOp48
 70
     1
102
RTVSPost2010Prop49
280
     0
102
RTVSPost2010PropOp49
 70
     1
102
RTVSPost2010Prop50
 90
       50
102
RTVSPost2010PropOp50
 70
     1
102
RTVSPost2010Prop51ColorIndex
 90
      256
102
RTVSPost2010Prop51ColorRGB
 90
-16777216
102
RTVSPost2010PropOp51
 70
     0
102
RTVSPost2010Prop52
140
1.0
102
RTVSPost2010PropOp52
 70
     0
102
RTVSPost2010Prop53
 90
        2
102
RTVSPost2010PropOp53
 70
     1
102
RTVSPost2010Prop54
  1
strokes_ogs.tif
102
RTVSPost2010PropOp54
 70
     1
102
RTVSPost2010Prop55
280
     0
102
RTVSPost2010PropOp55
 70
     1
102
RTVSPost2010Prop56
140
1.0
102
RTVSPost2010PropOp56
 70
     1
102
RTVSPost2010Prop57
140
1.0
102
RTVSPost2010PropOp57
 70
     1
102
RTVSPropertyOp0
 70
     1
102
RTVSPropertyOp1
 70
     1
102
RTVSPropertyOp2
 70
     1
102
RTVSPropertyOp3
 70
     1
102
RTVSPropertyOp4
 70
     1
102
RTVSPropertyOp5
 70
     1
102
RTVSPropertyOp6
 70
     1
102
RTVSPropertyOp7
 70
     1
102
RTVSPropertyOp8
 70
     1
102
RTVSPropertyOp9
 70
     1
102
RTVSPropertyOp10
 70
     1
102
RTVSPropertyOp11
 70
     1
102
RTVSPropertyOp12
 70
     1
102
RTVSPropertyOp13
 70
     1
102
RTVSPropertyOp14
 70
     1
102
RTVSPropertyOp15
 70
     1
102
RTVSPropertyOp16
 70
     1
102
RTVSPropertyOp17
 70
     1
102
RTVSPropertyOp18
 70
     1
102
RTVSPropertyOp19
 70
     1
102
RTVSPropertyOp20
 70
     1
102
RTVSPropertyOp21
 70
     1
102
RTVSPropertyOp22
 70
     1
102
RTVSPropertyOp23
 70
     1
102
RTVSPropertyOp24
 70
     1
102
RTVSPropertyOp25
 70
     1
102
RTVSPropertyOp26
 70
     1
102
RTVSPropertyOp27
 70
     1
102
RTVSPropertyOp28
 70
     1
102
RTVSPropertyOp29
 70
     1
102
RTVSPropertyOp30
 70
     1
102
RTVSPropertyOp31
 70
     1
102
RTVSPropertyOp32
 70
     1
102
RTVSPropertyOp33
 70
     1
102
RTVSPropertyOp34
 70
     1
102
RTVSPropertyOp35
 70
     1
102
RTVSPropertyOp36
 70
     1
102
RTVSPropertyOp37
 70
     1
102
RTVSPropertyOp38
 70
     1
102
RTVSPropertyOp39
 70
     1
102
RTVSPropertyOp40
 70
     1
102
RTVSPropertyOp41
 70
     1
102
RTVSPropertyOp42
 70
     1
102
RTVSPropertyOp43
 70
     1
102
RTVSPropertyOp44
 70
     1
102
RTVSPropertyOp45
 70
     1
102
RTVSPropertyOp46
 70
     1
102
RTVSPropertyOp47
 70
     1
102
RTVSPropertyOp48
 70
     1
102
RTVSPropertyOp49
 70
     1
102
RTVSPropertyOp50
 70
     1
102
RTVSPropertyOp51
 70
     0
102
RTVSPropertyOp52
 70
     0
102
RTVSPropertyOp53
 70
     1
102
RTVSPropertyOp54
 70
     1
102
RTVSPropertyOp55
 70
     1
102
RTVSPropertyOp56
 70
     1
102
RTVSPropertyOp57
 70
     1
102
RTVSPropertyOp58
 70
     1
102
RTVSPropertyOp59
 70
     1
102
RTVSPropertyOp60
 70
     1
102
RTVSPropertyOp61
 70
     1
102
RTVSPropertyOp62
 70
     1
  0
ENDSEC
  0
EOF
