  0
SECTION
  2
HEADER
  9
$ACADVER
  1
AC1015
  9
$ACADMAINTVER
 70
    20
  9
$DWGCODEPAGE
  3
ANSI_1252
  9
$INSBASE
 10
0.0
 20
0.0
 30
0.0
  9
$EXTMIN
 10
292.87982392041
 20
321.054300247841
 30
-0.0000000000000053
  9
$EXTMAX
 10
295.9812482928173
 20
326.7388511963811
 30
0.0000000000000099
  9
$LIMMIN
 10
-170.0
 20
-170.0
  9
$LIMMAX
 10
519.0
 20
260.0
  9
$ORTHOMODE
 70
     1
  9
$REGENMODE
 70
     1
  9
$FILLMODE
 70
     1
  9
$QTEXTMODE
 70
     0
  9
$MIRRTEXT
 70
     0
  9
$LTSCALE
 40
1.0
  9
$ATTMODE
 70
     1
  9
$TEXTSIZE
 40
0.2
  9
$TRACEWID
 40
0.05
  9
$TEXTSTYLE
  7
STANDARD
  9
$CLAYER
  8
1
  9
$CELTYPE
  6
BYLAYER
  9
$CECOLOR
 62
   256
  9
$CELTSCALE
 40
1.0
  9
$DISPSILH
 70
     0
  9
$DIMSCALE
 40
1.0
  9
$DIMASZ
 40
0.19685
  9
$DIMEXO
 40
0.03937
  9
$DIMDLI
 40
0.5905510000000001
  9
$DIMRND
 40
0.0
  9
$DIMDLE
 40
0.0
  9
$DIMEXE
 40
0.07874
  9
$DIMTP
 40
0.0
  9
$DIMTM
 40
0.000000001
  9
$DIMTXT
 40
0.1377952755905512
  9
$DIMCEN
 40
0.003543
  9
$DIMTSZ
 40
0.0
  9
$DIMTOL
 70
     0
  9
$DIMLIM
 70
     0
  9
$DIMTIH
 70
     0
  9
$DIMTOH
 70
     0
  9
$DIMSE1
 70
     0
  9
$DIMSE2
 70
     0
  9
$DIMTAD
 70
     1
  9
$DIMZIN
 70
    11
  9
$DIMBLK
  1

  9
$DIMASO
 70
     1
  9
$DIMSHO
 70
     1
  9
$DIMPOST
  1

  9
$DIMAPOST
  1

  9
$DIMALT
 70
     0
  9
$DIMALTD
 70
     2
  9
$DIMALTF
 40
25.4
  9
$DIMLFAC
 40
1.0
  9
$DIMTOFL
 70
     1
  9
$DIMTVP
 40
0.0
  9
$DIMTIX
 70
     0
  9
$DIMSOXD
 70
     0
  9
$DIMSAH
 70
     0
  9
$DIMBLK1
  1

  9
$DIMBLK2
  1

  9
$DIMSTYLE
  2
AM_DIN
  9
$DIMCLRD
 70
     0
  9
$DIMCLRE
 70
     0
  9
$DIMCLRT
 70
     0
  9
$DIMTFAC
 40
0.7071069999999999
  9
$DIMGAP
 40
0.090551
  9
$DIMJUST
 70
     0
  9
$DIMSD1
 70
     0
  9
$DIMSD2
 70
     0
  9
$DIMTOLJ
 70
     1
  9
$DIMTZIN
 70
     8
  9
$DIMALTZ
 70
     9
  9
$DIMALTTZ
 70
     8
  9
$DIMUPT
 70
     0
  9
$DIMDEC
 70
     3
  9
$DIMTDEC
 70
     3
  9
$DIMALTU
 70
     2
  9
$DIMALTTD
 70
     2
  9
$DIMTXSTY
  7
STANDARD 3.5 mm
  9
$DIMAUNIT
 70
     0
  9
$DIMADEC
 70
     0
  9
$DIMALTRND
 40
0.0
  9
$DIMAZIN
 70
     2
  9
$DIMDSEP
 70
    46
  9
$DIMATFIT
 70
     3
  9
$DIMFRAC
 70
     0
  9
$DIMLDRBLK
  1

  9
$DIMLUNIT
 70
     3
  9
$DIMLWD
 70
    -1
  9
$DIMLWE
 70
    -2
  9
$DIMTMOVE
 70
     0
  9
$LUNITS
 70
     2
  9
$LUPREC
 70
     4
  9
$SKETCHINC
 40
0.1
  9
$FILLETRAD
 40
0.0
  9
$AUNITS
 70
     0
  9
$AUPREC
 70
     0
  9
$MENU
  1
c:\tdm21\cad\caduti13\tdm13
  9
$ELEVATION
 40
0.0
  9
$PELEVATION
 40
0.0
  9
$THICKNESS
 40
0.0
  9
$LIMCHECK
 70
     0
  9
$CHAMFERA
 40
0.0
  9
$CHAMFERB
 40
0.0
  9
$CHAMFERC
 40
0.0
  9
$CHAMFERD
 40
0.0
  9
$SKPOLY
 70
     0
  9
$TDCREATE
 40
2456946.800076158
  9
$TDUCREATE
 40
2456946.570909491
  9
$TDUPDATE
 40
2457015.357247072
  9
$TDUUPDATE
 40
2457015.128080406
  9
$TDINDWG
 40
0.0775681134
  9
$TDUSRTIMER
 40
0.0775675810
  9
$USRTIMER
 70
     1
  9
$ANGBASE
 50
0.0
  9
$ANGDIR
 70
     0
  9
$PDMODE
 70
     1
  9
$PDSIZE
 40
0.0
  9
$PLINEWID
 40
0.0
  9
$SPLFRAME
 70
     0
  9
$SPLINETYPE
 70
     6
  9
$SPLINESEGS
 70
     8
  9
$HANDSEED
  5
1C46
  9
$SURFTAB1
 70
     6
  9
$SURFTAB2
 70
     6
  9
$SURFTYPE
 70
     6
  9
$SURFU
 70
     6
  9
$SURFV
 70
     6
  9
$UCSBASE
  2

  9
$UCSNAME
  2

  9
$UCSORG
 10
293.4794402550859
 20
323.7698221304821
 30
0.0
  9
$UCSXDIR
 10
1.0
 20
0.0
 30
0.0
  9
$UCSYDIR
 10
0.0
 20
1.0
 30
0.0
  9
$UCSORTHOREF
  2

  9
$UCSORTHOVIEW
 70
     0
  9
$UCSORGTOP
 10
0.0
 20
0.0
 30
0.0
  9
$UCSORGBOTTOM
 10
0.0
 20
0.0
 30
0.0
  9
$UCSORGLEFT
 10
0.0
 20
0.0
 30
0.0
  9
$UCSORGRIGHT
 10
0.0
 20
0.0
 30
0.0
  9
$UCSORGFRONT
 10
0.0
 20
0.0
 30
0.0
  9
$UCSORGBACK
 10
0.0
 20
0.0
 30
0.0
  9
$PUCSBASE
  2

  9
$PUCSNAME
  2

  9
$PUCSORG
 10
0.0
 20
0.0
 30
0.0
  9
$PUCSXDIR
 10
1.0
 20
0.0
 30
0.0
  9
$PUCSYDIR
 10
0.0
 20
1.0
 30
0.0
  9
$PUCSORTHOREF
  2

  9
$PUCSORTHOVIEW
 70
     0
  9
$PUCSORGTOP
 10
0.0
 20
0.0
 30
0.0
  9
$PUCSORGBOTTOM
 10
0.0
 20
0.0
 30
0.0
  9
$PUCSORGLEFT
 10
0.0
 20
0.0
 30
0.0
  9
$PUCSORGRIGHT
 10
0.0
 20
0.0
 30
0.0
  9
$PUCSORGFRONT
 10
0.0
 20
0.0
 30
0.0
  9
$PUCSORGBACK
 10
0.0
 20
0.0
 30
0.0
  9
$USERI1
 70
     0
  9
$USERI2
 70
     0
  9
$USERI3
 70
     0
  9
$USERI4
 70
     0
  9
$USERI5
 70
     0
  9
$USERR1
 40
0.0
  9
$USERR2
 40
0.0
  9
$USERR3
 40
0.0
  9
$USERR4
 40
0.0
  9
$USERR5
 40
0.0
  9
$WORLDVIEW
 70
     1
  9
$SHADEDGE
 70
     3
  9
$SHADEDIF
 70
    70
  9
$TILEMODE
 70
     1
  9
$MAXACTVP
 70
    64
  9
$PINSBASE
 10
0.0
 20
0.0
 30
0.0
  9
$PLIMCHECK
 70
     0
  9
$PEXTMIN
 10
0.0
 20
0.0
 30
0.0
  9
$PEXTMAX
 10
297.0
 20
210.0
 30
0.0
  9
$PLIMMIN
 10
-6.352894443934567
 20
-4.429974890987324
  9
$PLIMMAX
 10
303.3743962297308
 20
214.4139451502602
  9
$UNITMODE
 70
     0
  9
$VISRETAIN
 70
     0
  9
$PLINEGEN
 70
     0
  9
$PSLTSCALE
 70
     1
  9
$TREEDEPTH
 70
  3020
  9
$CMLSTYLE
  2
STANDARD
  9
$CMLJUST
 70
     0
  9
$CMLSCALE
 40
1.0
  9
$PROXYGRAPHICS
 70
     1
  9
$MEASUREMENT
 70
     0
  9
$CELWEIGHT
370
    -1
  9
$ENDCAPS
280
     0
  9
$JOINSTYLE
280
     0
  9
$LWDISPLAY
290
     0
  9
$INSUNITS
 70
     0
  9
$HYPERLINKBASE
  1
HTTP://WWW.SECOTOOLS.COM/
  9
$STYLESHEET
  1
MONOCHROME.CTB
  9
$XEDIT
290
     1
  9
$CEPSNTYPE
380
     0
  9
$PSTYLEMODE
290
     1
  9
$FINGERPRINTGUID
  2
{5B0DA111-4DAD-4EFE-A1E8-611EE0D863A9}
  9
$VERSIONGUID
  2
{467C280B-1DBD-4563-A49B-71989FAC6FD7}
  9
$EXTNAMES
290
     1
  9
$PSVPSCALE
 40
0.0
  9
$OLESTARTUP
290
     0
  0
ENDSEC
  0
SECTION
  2
CLASSES
  0
CLASS
  1
ACDBDICTIONARYWDFLT
  2
AcDbDictionaryWithDefault
  3
ObjectDBX Classes
 90
        0
280
     0
281
     0
  0
CLASS
  1
ACDBPLACEHOLDER
  2
AcDbPlaceHolder
  3
ObjectDBX Classes
 90
        0
280
     0
281
     0
  0
CLASS
  1
LAYOUT
  2
AcDbLayout
  3
ObjectDBX Classes
 90
        0
280
     0
281
     0
  0
CLASS
  1
DICTIONARYVAR
  2
AcDbDictionaryVar
  3
ObjectDBX Classes
 90
        0
280
     0
281
     0
  0
CLASS
  1
TABLESTYLE
  2
AcDbTableStyle
  3
ObjectDBX Classes
 90
     4095
280
     0
281
     0
  0
CLASS
  1
MATERIAL
  2
AcDbMaterial
  3
ObjectDBX Classes
 90
     1153
280
     0
281
     0
  0
CLASS
  1
VISUALSTYLE
  2
AcDbVisualStyle
  3
ObjectDBX Classes
 90
     4095
280
     0
281
     0
  0
CLASS
  1
SCALE
  2
AcDbScale
  3
ObjectDBX Classes
 90
     1153
280
     0
281
     0
  0
CLASS
  1
MLEADERSTYLE
  2
AcDbMLeaderStyle
  3
ACDB_MLEADERSTYLE_CLASS
 90
     4095
280
     0
281
     0
  0
CLASS
  1
ACME_DOCUMENT
  2
AcMeDbDoc
  3
AcMeServices
 90
     1024
280
     0
281
     0
  0
CLASS
  1
AMGSETTINGSOBJ
  2
AmgSettingsObj
  3
"AcadM|Product Description: AutoCAD Mechanical|Company: Autodesk, Inc."
 90
     1024
280
     0
281
     0
  0
CLASS
  1
ACMESCOPE
  2
AcMeScope
  3
AcMeServices
 90
     1024
280
     0
281
     0
  0
CLASS
  1
ACMECOMMANDHISTORY
  2
AcMeCommandHistory
  3
AcMeServices
 90
     1024
280
     0
281
     0
  0
CLASS
  1
ACIMSYSVARMAN
  2
AcImSysVarManager
  3
AcMeServices
 90
     1024
280
     0
281
     0
  0
CLASS
  1
ACIMINTSYSVAR
  2
AcImIntSysVar
  3
AcMeServices
 90
     1024
280
     0
281
     0
  0
CLASS
  1
ACMEDRAWINGMAN
  2
AcMeDrawingMan
  3
AcMeServices
 90
    33792
280
     0
281
     0
  0
CLASS
  1
ACMEVIEW
  2
AcMeView
  3
AcMeServices
 90
    33792
280
     0
281
     0
  0
CLASS
  1
ACDBENTITYCACHE
  2
AcMeEntityCache
  3
AcMeServices
 90
     1024
280
     0
281
     0
  0
CLASS
  1
GSMANAGER
  2
AcMeGSManager
  3
AcMeServices
 90
    33792
280
     0
281
     0
  0
CLASS
  1
AMDTINTERNALREACTOR
  2
AmdtInternalReactor
  3
AcMeServices
 90
    33792
280
     0
281
     0
  0
CLASS
  1
ACMESTATEMGR
  2
AcMeStateMgr
  3
AcMeServices
 90
     1024
280
     0
281
     0
  0
CLASS
  1
ACGREFMASTER
  2
AcGrefMaster
  3
AcAttribServices
 90
     1024
280
     0
281
     0
  0
CLASS
  1
AM_DRAWING_MGR
  2
AcDmDwgMgr
  3
AcMechDwgViewMgmt
 90
    33792
280
     0
281
     0
  0
CLASS
  1
AM_DWG_DOCUMENT
  2
AcDmDwgDocument
  3
AcMechDwgViewMgmt
 90
    33792
280
     0
281
     0
  0
CLASS
  1
AM_DWG_SHEET
  2
AcDmSheet
  3
AcMechDwgViewMgmt
 90
    33792
280
     0
281
     0
  0
CLASS
  1
AM_VIEWDIMPARMAP
  2
AcDmViewDimParMap
  3
AcMechDwgViewMgmt
 90
    33792
280
     0
281
     0
  0
CLASS
  1
ACIMREALSYSVAR
  2
AcImRealSysVar
  3
AcMeServices
 90
    33792
280
     0
281
     0
  0
CLASS
  1
AM_DWGMGR_NAME
  2
AcDmDwgMgrName
  3
AcMechDwgViewMgmt
 90
    33792
280
     0
281
     0
  0
CLASS
  1
ACME_DATABASE
  2
AcMeDbDatabase
  3
AcMeServices
 90
     1024
280
     0
281
     0
  0
CLASS
  1
ACRFINSADJUSTERMGR
  2
AcRfInsAdjusterMgr
  3
AcMeServices
 90
     1024
280
     0
281
     0
  0
CLASS
  1
ACGREFACADMASTER
  2
AcGrefacadMaster
  3
AcGrefServices
 90
     1024
280
     0
281
     0
  0
CLASS
  1
AMDTMENUSTATEMGR
  2
AmdtMenuStateMgr
  3
McadcomServices
 90
     1024
280
     0
281
     0
  0
CLASS
  1
AMDTMCOMMENUSTATE
  2
AmdtMcomMenuState
  3
McadcomServices
 90
     1024
280
     0
281
     0
  0
CLASS
  1
AMIMASTER
  2
AmiMaster
  3
AmiServices
 90
     1024
280
     0
281
     0
  0
CLASS
  1
MAPIAMMOUDLE
  2
MApiAmModule
  3
MApiAmServices
 90
     1024
280
     0
281
     0
  0
CLASS
  1
ACIMSTRSYSVAR
  2
AcImStrSysVar
  3
AcMeServices
 90
     1024
280
     0
281
     0
  0
CLASS
  1
AMDTADMENUSTATE
  2
AmdtAdMenuState
  3
DesignerServices
 90
    33792
280
     0
281
     0
  0
CLASS
  1
ADAPPL
  2
AcAdAppl
  3
DesignerAssemblies
 90
    33792
280
     0
281
     0
  0
CLASS
  1
DEPMGR
  2
AcAdDepMgr
  3
DesignerAssemblies
 90
    33792
280
     0
281
     0
  0
CLASS
  1
PARAMMGR
  2
AcAdParamMgr
  3
DesignerAssemblies
 90
    33792
280
     0
281
     0
  0
CLASS
  1
PARAMSCOPE
  2
AcAdParamScope
  3
DesignerAssemblies
 90
    33792
280
     0
281
     0
  0
CLASS
  1
NAMEDAPPL
  2
AcAdNamedAppl
  3
DesignerAssemblies
 90
    33792
280
     0
281
     0
  0
CLASS
  1
AMDTDMMENUSTATE
  2
AmdtDmMenuState
  3
AcMechDwgViewMgmt
 90
    33792
280
     0
281
     0
  0
CLASS
  1
AMDTAMMENUSTATE
  2
AmdtAmMenuState
  3
DesignerAssemblies
 90
     1024
280
     0
281
     0
  0
CLASS
  1
ACAMPROJECT
  2
AcAmProject
  3
DesignerAssemblies
 90
     1024
280
     0
281
     0
  0
CLASS
  1
ACAMGRCOMPDEF
  2
AcAmGrCompDef
  3
DesignerAssemblies
 90
     1024
280
     0
281
     0
  0
CLASS
  1
ACCMCONTEXT
  2
AcCmContext
  3
DesignerAssemblies
 90
    33792
280
     0
281
     0
  0
CLASS
  1
ACAMCOMPDEF
  2
AcAmCompDef
  3
DesignerAssemblies
 90
     1024
280
     0
281
     0
  0
CLASS
  1
ACAMCOMPDEFMGR
  2
AcAmCompDefMgr
  3
DesignerAssemblies
 90
     1024
280
     0
281
     0
  0
CLASS
  1
AMCONTEXTMGR
  2
AcAmContextMgr
  3
DesignerAssemblies
 90
     1024
280
     0
281
     0
  0
CLASS
  1
ACAMCONTEXTMODELER
  2
AcAmContextModeler
  3
DesignerAssemblies
 90
     1024
280
     0
281
     0
  0
CLASS
  1
ACMDATADICTIONARY
  2
AcmDataDictionary
  3
"AcmSymBB|Product Description: AutoCAD Mechanical|Company: Autodesk, Inc."
 90
     1024
280
     0
281
     0
  0
CLASS
  1
CATALOGSTATE
  2
AcAmCatalogState
  3
DesignerAssemblies
 90
    33792
280
     0
281
     0
  0
CLASS
  1
ACAMGRCOMPDEFSET
  2
AcAmGrCompDefSet
  3
DesignerAssemblies
 90
     1024
280
     0
281
     0
  0
CLASS
  1
AMDTBROWSERDBTAB
  2
AmdtBrowserDbTab
  3
McadcomServices
 90
     1024
280
     0
281
     0
  0
CLASS
  1
CBROWSERAPPOBJECT
  2
CBrowserAppObject
  3
McadcomServices
 90
     1024
280
     0
281
     0
  0
CLASS
  1
DM_PLACEHOLDER
  2
AcDmSelsetPlaceholder
  3
McadcomServices
 90
     1024
280
     0
281
     0
  0
CLASS
  1
ACMSTANDARDDIN
  2
AcmStandardDIN
  3
"Amdt_StdImp|Product Description: AutoCAD Mechanical|Company: Autodesk, Inc."
 90
    33792
280
     0
281
     0
  0
CLASS
  1
AMGOBJPROPCFG
  2
AmgObjPropCfg
  3
"AmgLay|Product Description: AutoCAD Mechanical|Company: Autodesk, Inc."
 90
     1024
280
     0
281
     0
  0
CLASS
  1
AMDTEDGESTANDARDDIN13715
  2
AmdtEdgeStdDIN13715
  3
"Amdt_StdImp|Product Description: AutoCAD Mechanical|Company: Autodesk, Inc."
 90
    33792
280
     0
281
     0
  0
CLASS
  1
ACMSURFSTANDARDDIN2002
  2
AcmSurfTextStdDIN2002
  3
"Amdt_StdImp|Product Description: AutoCAD Mechanical|Company: Autodesk, Inc."
 90
    33792
280
     0
281
     0
  0
CLASS
  1
ACMFCFSTANDARDDIN
  2
AcmFCFStdDIN
  3
"Amdt_StdImp|Product Description: AutoCAD Mechanical|Company: Autodesk, Inc."
 90
    33792
280
     0
281
     0
  0
CLASS
  1
ACMWELDSTANDARDDIN
  2
AcmWeldingStdDIN
  3
"Amdt_StdImp|Product Description: AutoCAD Mechanical|Company: Autodesk, Inc."
 90
    33792
280
     0
281
     0
  0
CLASS
  1
ACMIDSTANDARDDIN
  2
AcmIdStdDIN
  3
"Amdt_StdImp|Product Description: AutoCAD Mechanical|Company: Autodesk, Inc."
 90
    33792
280
     0
281
     0
  0
CLASS
  1
ACMDATUMSTANDARDDIN
  2
AcmDatumStdDIN
  3
"Amdt_StdImp|Product Description: AutoCAD Mechanical|Company: Autodesk, Inc."
 90
    33792
280
     0
281
     0
  0
CLASS
  1
ACMBOMSTANDARDDIN
  2
AcmBOMStdDIN
  3
"Amdt_StdImp|Product Description: AutoCAD Mechanical|Company: Autodesk, Inc."
 90
    33792
280
     0
281
     0
  0
CLASS
  1
ACMDETAILSTANDARDDIN
  2
AmdtDetailSymStdDIN
  3
"Amdt_StdImp|Product Description: AutoCAD Mechanical|Company: Autodesk, Inc."
 90
    33792
280
     0
281
     0
  0
CLASS
  1
ACMSECTIONSTANDARDDIN
  2
AmdtSectionSymStdDIN
  3
"Amdt_StdImp|Product Description: AutoCAD Mechanical|Company: Autodesk, Inc."
 90
    33792
280
     0
281
     0
  0
CLASS
  1
ACMCENTERLINESTANDARDDIN
  2
AmdtCenterLineStdDIN
  3
"Amdt_StdImp|Product Description: AutoCAD Mechanical|Company: Autodesk, Inc."
 90
    33792
280
     0
281
     0
  0
CLASS
  1
ACMTHREADLINESTANDARDDIN
  2
AmdtThreadLineStdDIN
  3
"Amdt_StdImp|Product Description: AutoCAD Mechanical|Company: Autodesk, Inc."
 90
    33792
280
     0
281
     0
  0
CLASS
  1
ACMNOTESTANDARDDIN
  2
AmdtNoteStdDIN
  3
"Amdt_StdImp|Product Description: AutoCAD Mechanical|Company: Autodesk, Inc."
 90
    33792
280
     0
281
     0
  0
CLASS
  1
ACMTAPERSTANDARDDIN
  2
AcmTaperStdDIN
  3
"Amdt_StdImp|Product Description: AutoCAD Mechanical|Company: Autodesk, Inc."
 90
    33792
280
     0
281
     0
  0
CLASS
  1
ACMANOOTATIONVIEWSTANDARDDIN
  2
AmdtAnViewStdDIN
  3
"Amdt_StdImp|Product Description: AutoCAD Mechanical|Company: Autodesk, Inc."
 90
    33792
280
     0
281
     0
  0
CLASS
  1
AMDTNOTETEMPLATEDB
  2
AmdtNoteTemplateDB
  3
AcmSymBB|Product Description: AutoCAD Mechanical|Company: Autodesk, Inc.
 90
     1024
280
     0
281
     0
  0
CLASS
  1
ACAMGLAYSTD
  2
AcAmgLayStd
  3
"AmgLay|Product Description: AutoCAD Mechanical|Company: Autodesk, Inc."
 90
     1024
280
     0
281
     0
  0
CLASS
  1
ACAMGDIMSTD
  2
AcAmgDimStd
  3
"AmgDim|Product Description: AutoCAD Mechanical|Company: Autodesk, Inc."
 90
     1024
280
     0
281
     0
  0
CLASS
  1
ACAMGHOLECHARTSTDDIN
  2
AcAmgHoleChartStdDIN
  3
AmgDim|Product Description: AutoCAD Mechanical|Company: Autodesk, Inc.
 90
    33792
280
     0
281
     0
  0
CLASS
  1
ACAMGTITLESTD
  2
AcAmgTitleStd
  3
"AmgTitle|Product Description: AutoCAD Mechanical|Company: Autodesk, Inc."
 90
     1024
280
     0
281
     0
  0
CLASS
  1
ACAMGFILTERDAT
  2
AcAmgFilterDat
  3
"AcadM|Product Description: AutoCAD Mechanical|Company: Autodesk, Inc."
 90
    33792
280
     0
281
     0
  0
CLASS
  1
CAMSSTRUCTBTNSTATE
  2
StructBtnState
  3
DesignerAssemblies
 90
    33792
280
     0
281
     0
  0
CLASS
  1
CELLSTYLEMAP
  2
AcDbCellStyleMap
  3
ObjectDBX Classes
 90
     1152
280
     0
281
     0
  0
CLASS
  1
SORTENTSTABLE
  2
AcDbSortentsTable
  3
ObjectDBX Classes
 90
        0
280
     0
281
     0
  0
CLASS
  1
PLOTSETTINGS
  2
AcDbPlotSettings
  3
ObjectDBX Classes
 90
        0
280
     0
281
     0
  0
CLASS
  1
DIMASSOC
  2
AcDbDimAssoc
  3
"AcDbDimAssoc|Product Desc:     AcDim ARX App For Dimension|Company:          Autodesk, Inc.|WEB Address:      www.autodesk.com"
 90
        0
280
     0
281
     0
  0
CLASS
  1
ACDBSECTIONVIEWSTYLE
  2
AcDbSectionViewStyle
  3
ObjectDBX Classes
 90
     1025
280
     0
281
     0
  0
CLASS
  1
ACDBDETAILVIEWSTYLE
  2
AcDbDetailViewStyle
  3
ObjectDBX Classes
 90
     1025
280
     0
281
     0
  0
CLASS
  1
ACMSECTIONSTANDARDCUSTOM
  2
AmdtSectionSymStdCustom
  3
"Amdt_StdImp|Product Description: AutoCAD Mechanical|Company: Autodesk, Inc."
 90
     1024
280
     0
281
     0
  0
CLASS
  1
ACMDETAILTANDARDCUSTOM
  2
AmdtDetailSymStdCustom
  3
"Amdt_StdImp|Product Description: AutoCAD Mechanical|Company: Autodesk, Inc."
 90
     1024
280
     0
281
     0
  0
CLASS
  1
FIELD
  2
AcDbField
  3
ObjectDBX Classes
 90
     1152
280
     0
281
     0
  0
CLASS
  1
FIELDLIST
  2
AcDbFieldList
  3
ObjectDBX Classes
 90
     1152
280
     0
281
     0
  0
CLASS
  1
ACMSTANDARDANSI
  2
AcmStandardANSI
  3
"Amdt_StdImp|Product Description: AutoCAD Mechanical|Company: Autodesk, Inc."
 90
     1024
280
     0
281
     0
  0
CLASS
  1
ACMSURFSTANDARDANSI
  2
AcmSurfTextStdANSI
  3
"Amdt_StdImp|Product Description: AutoCAD Mechanical|Company: Autodesk, Inc."
 90
     1024
280
     0
281
     0
  0
CLASS
  1
ACMFCFSTANDARDANSI
  2
AcmFCFStdANSI
  3
"Amdt_StdImp|Product Description: AutoCAD Mechanical|Company: Autodesk, Inc."
 90
     1024
280
     0
281
     0
  0
CLASS
  1
ACMWELDSTANDARDANSI
  2
AcmWeldingStdANSI
  3
"Amdt_StdImp|Product Description: AutoCAD Mechanical|Company: Autodesk, Inc."
 90
     1024
280
     0
281
     0
  0
CLASS
  1
ACMIDSTANDARDANSI
  2
AcmIdStdANSI
  3
"Amdt_StdImp|Product Description: AutoCAD Mechanical|Company: Autodesk, Inc."
 90
     1024
280
     0
281
     0
  0
CLASS
  1
ACMDATUMSTANDARDANSI
  2
AcmDatumStdANSI
  3
"Amdt_StdImp|Product Description: AutoCAD Mechanical|Company: Autodesk, Inc."
 90
     1024
280
     0
281
     0
  0
CLASS
  1
ACMBOMSTANDARDANSI
  2
AcmBOMStdANSI
  3
"Amdt_StdImp|Product Description: AutoCAD Mechanical|Company: Autodesk, Inc."
 90
     1024
280
     0
281
     0
  0
CLASS
  1
ACMDETAILSTANDARDANSI
  2
AmdtDetailSymStdANSI
  3
"Amdt_StdImp|Product Description: AutoCAD Mechanical|Company: Autodesk, Inc."
 90
     1024
280
     0
281
     0
  0
CLASS
  1
ACMSECTIONSTANDARDANSI
  2
AmdtSectionSymStdANSI
  3
"Amdt_StdImp|Product Description: AutoCAD Mechanical|Company: Autodesk, Inc."
 90
     1024
280
     0
281
     0
  0
CLASS
  1
ACMCENTERLINESTANDARDANSI
  2
AmdtCenterLineStdANSI
  3
"Amdt_StdImp|Product Description: AutoCAD Mechanical|Company: Autodesk, Inc."
 90
     1024
280
     0
281
     0
  0
CLASS
  1
ACMTHREADLINESTANDARDANSI
  2
AmdtThreadLineStdANSI
  3
"Amdt_StdImp|Product Description: AutoCAD Mechanical|Company: Autodesk, Inc."
 90
     1024
280
     0
281
     0
  0
CLASS
  1
ACMNOTESTANDARDANSI
  2
AmdtNoteStdANSI
  3
"Amdt_StdImp|Product Description: AutoCAD Mechanical|Company: Autodesk, Inc."
 90
     1024
280
     0
281
     0
  0
CLASS
  1
ACMTAPERSTANDARDANSI
  2
AcmTaperStdANSI
  3
"Amdt_StdImp|Product Description: AutoCAD Mechanical|Company: Autodesk, Inc."
 90
     1024
280
     0
281
     0
  0
CLASS
  1
ACMANOOTATIONVIEWSTANDARDANSI
  2
AmdtAnViewStdANSI
  3
"Amdt_StdImp|Product Description: AutoCAD Mechanical|Company: Autodesk, Inc."
 90
     1024
280
     0
281
     0
  0
CLASS
  1
ACAMGHOLECHARTSTDANSI
  2
AcAmgHoleChartStdANSI
  3
AmgDim|Product Description: AutoCAD Mechanical|Company: Autodesk, Inc.
 90
     1024
280
     0
281
     0
  0
ENDSEC
  0
SECTION
  2
TABLES
  0
TABLE
  2
VPORT
  5
8
102
{ACAD_XDICTIONARY
360
ACA
102
}
330
0
100
AcDbSymbolTable
 70
     1
  0
VPORT
  5
B56
330
8
100
AcDbSymbolTableRecord
100
AcDbViewportTableRecord
  2
*Active
 70
     0
 10
0.0
 20
0.0
 11
1.0
 21
1.0
 12
294.4305361066136
 22
323.8965757221111
 13
0.0
 23
0.0
 14
0.5
 24
0.5
 15
0.5
 25
0.5
 16
0.0
 26
0.0
 36
1.0
 17
0.0
 27
0.0
 37
0.0
 40
5.729786101976856
 41
1.589641434262948
 42
50.0
 43
0.0
 44
0.0
 50
0.0
 51
0.0
 71
     0
 72
  2000
 73
     1
 74
     3
 75
     0
 76
     0
 77
     0
 78
     0
281
     0
 65
     0
110
293.4794402550859
120
323.7698221304821
130
0.0
111
1.0
121
0.0
131
0.0
112
0.0
122
1.0
132
0.0
 79
     0
146
0.0
1001
ACAD_NAV_VCDISPLAY
1070
     3
  0
ENDTAB
  0
TABLE
  2
LTYPE
  5
5
330
0
100
AcDbSymbolTable
 70
    10
  0
LTYPE
  5
12
330
5
100
AcDbSymbolTableRecord
100
AcDbLinetypeTableRecord
  2
BYBLOCK
 70
     0
  3

 72
    65
 73
     0
 40
0.0
  0
LTYPE
  5
13
330
5
100
AcDbSymbolTableRecord
100
AcDbLinetypeTableRecord
  2
BYLAYER
 70
     0
  3

 72
    65
 73
     0
 40
0.0
  0
LTYPE
  5
156A
330
5
100
AcDbSymbolTableRecord
100
AcDbLinetypeTableRecord
  2
Continuous
 70
     0
  3
Solid line
 72
    65
 73
     0
 40
0.0
  0
LTYPE
  5
9BE
330
5
100
AcDbSymbolTableRecord
100
AcDbLinetypeTableRecord
  2
DASH
 70
     0
  3
ISO Strichlinie __ __ __ __ __ __ __ __ __ __ __ __ __
 72
    65
 73
     2
 40
3.75
 49
3.0
 74
     0
 49
-0.75
 74
     0
  0
LTYPE
  5
9C2
330
5
100
AcDbSymbolTableRecord
100
AcDbLinetypeTableRecord
  2
LONGDASH_DASH
 70
     0
  3
ISO Lang gestrichelt punktiert ____ _ ____ _ ____ _ ____ . _
 72
    65
 73
     4
 40
10.5
 49
6.0
 74
     0
 49
-0.75
 74
     0
 49
3.0
 74
     0
 49
-0.75
 74
     0
  0
LTYPE
  5
EB5
330
5
100
AcDbSymbolTableRecord
100
AcDbLinetypeTableRecord
  2
HIDDEN
 70
     0
  3
Hidden __ __ __ __ __ __ __ __ __ __ __ __ __ _
 72
    65
 73
     2
 40
0.375
 49
0.25
 74
     0
 49
-0.125
 74
     0
  0
LTYPE
  5
EB6
330
5
100
AcDbSymbolTableRecord
100
AcDbLinetypeTableRecord
  2
PHANTOM2
 70
     0
  3
Phantom (.5x) ___ _ _ ___ _ _ ___ _ _ ___ _ _
 72
    65
 73
     6
 40
1.25
 49
0.625
 74
     0
 49
-0.125
 74
     0
 49
0.125
 74
     0
 49
-0.125
 74
     0
 49
0.125
 74
     0
 49
-0.125
 74
     0
  0
LTYPE
  5
EB7
330
5
100
AcDbSymbolTableRecord
100
AcDbLinetypeTableRecord
  2
CENTER
 70
     0
  3
Center ____ _ ____ _ ____ _ ____ _ ____ _ ____
 72
    65
 73
     4
 40
2.0
 49
1.25
 74
     0
 49
-0.25
 74
     0
 49
0.25
 74
     0
 49
-0.25
 74
     0
  0
LTYPE
  5
15AD
330
5
100
AcDbSymbolTableRecord
100
AcDbLinetypeTableRecord
  2
CENTER2
 70
     0
  3
Center (.5x) ___ _ ___ _ ___ _ ___ _ ___ _ ___
 72
    65
 73
     4
 40
1.125
 49
0.75
 74
     0
 49
-0.125
 74
     0
 49
0.125
 74
     0
 49
-0.125
 74
     0
  0
LTYPE
  5
15AE
330
5
100
AcDbSymbolTableRecord
100
AcDbLinetypeTableRecord
  2
HIDDEN2
 70
     0
  3
Hidden (.5x) _ _ _ _ _ _ _ _ _ _ _ _ _ _ _ _ _
 72
    65
 73
     2
 40
0.1875
 49
0.125
 74
     0
 49
-0.0625
 74
     0
  0
LTYPE
  5
15C0
330
5
100
AcDbSymbolTableRecord
100
AcDbLinetypeTableRecord
  2
ACANSTGB
 70
     0
  3
__ . . __ . .
 72
    65
 73
     6
 40
0.35433070866
 49
0.15748031496
 74
     0
 49
-0.03937007874
 74
     0
 49
0.03937007874
 74
     0
 49
-0.03937007874
 74
     0
 49
0.03937007874
 74
     0
 49
-0.03937007874
 74
     0
  0
LTYPE
  5
15C1
330
5
100
AcDbSymbolTableRecord
100
AcDbLinetypeTableRecord
  2
ACANSTGL
 70
     0
  3
_ _ _ _ _
 72
    65
 73
     2
 40
0.11811023622
 49
0.07874015748
 74
     0
 49
-0.03937007874
 74
     0
  0
ENDTAB
  0
TABLE
  2
LAYER
  5
2
102
{ACAD_XDICTIONARY
360
43C
102
}
330
0
100
AcDbSymbolTable
 70
     9
  0
LAYER
  5
F
102
{ACAD_XDICTIONARY
360
52D
102
}
330
2
100
AcDbSymbolTableRecord
100
AcDbLayerTableRecord
  2
0
 70
     0
 62
     7
  6
Continuous
290
     0
370
    -3
390
300
  0
LAYER
  5
23
102
{ACAD_XDICTIONARY
360
52F
102
}
330
2
100
AcDbSymbolTableRecord
100
AcDbLayerTableRecord
  2
1
 70
     0
 62
     4
  6
Continuous
370
    50
390
300
  0
LAYER
  5
25
102
{ACAD_XDICTIONARY
360
533
102
}
330
2
100
AcDbSymbolTableRecord
100
AcDbLayerTableRecord
  2
2
 70
     0
 62
     7
  6
Continuous
370
    25
390
300
  0
LAYER
  5
27
102
{ACAD_XDICTIONARY
360
537
102
}
330
2
100
AcDbSymbolTableRecord
100
AcDbLayerTableRecord
  2
SK2
 70
     0
 62
     7
  6
Continuous
370
    25
390
300
  0
LAYER
  5
28
102
{ACAD_XDICTIONARY
360
539
102
}
330
2
100
AcDbSymbolTableRecord
100
AcDbLayerTableRecord
  2
3
 70
     0
 62
     1
  6
DASH
370
    35
390
300
  0
LAYER
  5
2B
102
{ACAD_XDICTIONARY
360
53F
102
}
330
2
100
AcDbSymbolTableRecord
100
AcDbLayerTableRecord
  2
SK4
 70
     0
 62
     2
  6
LONGDASH_DASH
370
    25
390
300
  0
LAYER
  5
2E
102
{ACAD_XDICTIONARY
360
545
102
}
330
2
100
AcDbSymbolTableRecord
100
AcDbLayerTableRecord
  2
SK6
 70
     0
 62
     5
  6
Continuous
370
    35
390
300
  0
LAYER
  5
2F
330
2
100
AcDbSymbolTableRecord
100
AcDbLayerTableRecord
  2
DEFPOINTS
 70
     0
 62
     7
  6
Continuous
290
     0
370
    -3
390
300
  0
LAYER
  5
15E0
102
{ACAD_XDICTIONARY
360
15E1
102
}
330
2
100
AcDbSymbolTableRecord
100
AcDbLayerTableRecord
  2
SK3
 70
     0
 62
     1
  6
DASH
370
    35
390
300
  0
ENDTAB
  0
TABLE
  2
STYLE
  5
3
330
0
100
AcDbSymbolTable
 70
     5
  0
STYLE
  5
10
330
3
100
AcDbSymbolTableRecord
100
AcDbTextStyleTableRecord
  2
STANDARD
 70
     0
 40
0.0
 41
1.0
 50
0.0
 71
     0
 42
0.2
  3
monos.ttf
  4

1001
ACAD
1000
Monospac821 BT
1071
       49
  0
STYLE
  5
1E
330
3
100
AcDbSymbolTableRecord
100
AcDbTextStyleTableRecord
  2
STANDARD 5 mm
 70
     0
 40
0.1969
 41
1.0
 50
0.0
 71
     0
 42
3.5
  3
monos.ttf
  4

1001
ACAD
1000
Monospac821 BT
1071
       49
  0
STYLE
  5
7DE
330
3
100
AcDbSymbolTableRecord
100
AcDbTextStyleTableRecord
  2
STANDARD 3.5 mm
 70
     0
 40
0.1377952755905512
 41
1.0
 50
0.0
 71
     0
 42
3.5
  3
monos.ttf
  4

1001
ACAD
1000
Monospac821 BT
1071
       49
  0
STYLE
  5
15BF
330
3
100
AcDbSymbolTableRecord
100
AcDbTextStyleTableRecord
  2
ACANSGDT
 70
     0
 40
0.0
 41
1.0
 50
0.0
 71
     0
 42
0.2
  3
amgdt.shx
  4

  0
STYLE
  5
1A58
330
3
100
AcDbSymbolTableRecord
100
AcDbTextStyleTableRecord
  2
ACANSTS
 70
     0
 40
0.0
 41
1.0
 50
0.0
 71
     0
 42
0.2
  3
romans.shx
  4

  0
ENDTAB
  0
TABLE
  2
VIEW
  5
6
330
0
100
AcDbSymbolTable
 70
     6
  0
VIEW
  5
758
330
6
100
AcDbSymbolTableRecord
100
AcDbViewTableRecord
  2
AM_VIEW1
 70
     1
 40
148.5265045166015
 10
121.0318359737553
 20
219.614756822586
 41
248.4136475334483
 11
0.0
 21
0.0
 31
1.0
 12
0.0
 22
0.0
 32
0.0
 42
50.0
 43
0.0
 44
0.0
 50
0.0
 71
     0
281
     0
 72
     0
  0
VIEW
  5
759
330
6
100
AcDbSymbolTableRecord
100
AcDbViewTableRecord
  2
AM_VIEW2
 70
     1
 40
148.5265045166015
 10
292.4378600711665
 20
219.614756822586
 41
248.4136475334483
 11
0.0
 21
0.0
 31
1.0
 12
0.0
 22
0.0
 32
0.0
 42
50.0
 43
0.0
 44
0.0
 50
0.0
 71
     0
281
     0
 72
     0
  0
VIEW
  5
75A
330
6
100
AcDbSymbolTableRecord
100
AcDbViewTableRecord
  2
AM_VIEW3
 70
     1
 40
148.5265045166015
 10
121.0318359737553
 20
71.0882523059845
 41
248.4136475334483
 11
0.0
 21
0.0
 31
1.0
 12
0.0
 22
0.0
 32
0.0
 42
50.0
 43
0.0
 44
0.0
 50
0.0
 71
     0
281
     0
 72
     0
  0
VIEW
  5
75B
330
6
100
AcDbSymbolTableRecord
100
AcDbViewTableRecord
  2
AM_VIEW4
 70
     1
 40
148.5265045166015
 10
292.4378600711665
 20
71.0882523059845
 41
248.4136475334483
 11
0.0
 21
0.0
 31
1.0
 12
0.0
 22
0.0
 32
0.0
 42
50.0
 43
0.0
 44
0.0
 50
0.0
 71
     0
281
     0
 72
     0
  0
VIEW
  5
75C
330
6
100
AcDbSymbolTableRecord
100
AcDbViewTableRecord
  2
AM_VIEW5
 70
     1
 40
148.5265045166015
 10
206.7348480224609
 20
145.3515045642852
 41
248.4136475334483
 11
0.0
 21
0.0
 31
1.0
 12
0.0
 22
0.0
 32
0.0
 42
50.0
 43
0.0
 44
0.0
 50
0.0
 71
     0
281
     0
 72
     0
  0
VIEW
  5
75D
330
6
100
AcDbSymbolTableRecord
100
AcDbViewTableRecord
  2
AM_VIEW6
 70
     1
 40
297.0500385031128
 10
206.7348480224609
 20
145.3515045642852
 41
496.8223267939458
 11
0.0
 21
0.0
 31
1.0
 12
0.0
 22
0.0
 32
0.0
 42
50.0
 43
0.0
 44
0.0
 50
0.0
 71
     0
281
     0
 72
     0
  0
ENDTAB
  0
TABLE
  2
UCS
  5
7
330
0
100
AcDbSymbolTable
 70
     0
  0
ENDTAB
  0
TABLE
  2
APPID
  5
9
330
0
100
AcDbSymbolTable
 70
    36
  0
APPID
  5
11
330
9
100
AcDbSymbolTableRecord
100
AcDbRegAppTableRecord
  2
ACAD
 70
     0
  0
APPID
  5
3A6
330
9
100
AcDbSymbolTableRecord
100
AcDbRegAppTableRecord
  2
ACAD_PSEXT
 70
     0
  0
APPID
  5
3A8
330
9
100
AcDbSymbolTableRecord
100
AcDbRegAppTableRecord
  2
ACAD_EXEMPT_FROM_CAD_STANDARDS
 70
     0
  0
APPID
  5
433
330
9
100
AcDbSymbolTableRecord
100
AcDbRegAppTableRecord
  2
AcAecLayerStandard
 70
     0
  0
APPID
  5
471
330
9
100
AcDbSymbolTableRecord
100
AcDbRegAppTableRecord
  2
ACAD_MLEADERVER
 70
     0
  0
APPID
  5
47D
330
9
100
AcDbSymbolTableRecord
100
AcDbRegAppTableRecord
  2
MCAD_NO_VIS
 70
     0
  0
APPID
  5
47E
330
9
100
AcDbSymbolTableRecord
100
AcDbRegAppTableRecord
  2
ACAD_TEMP_GRAPHIC
 70
     0
  0
APPID
  5
4AC
330
9
100
AcDbSymbolTableRecord
100
AcDbRegAppTableRecord
  2
AD_DRAW
 70
     0
  0
APPID
  5
4AF
330
9
100
AcDbSymbolTableRecord
100
AcDbRegAppTableRecord
  2
ACATTRIBSERVICES
 70
     0
  0
APPID
  5
4D0
330
9
100
AcDbSymbolTableRecord
100
AcDbRegAppTableRecord
  2
DESIGNERASSEMBLIES
 70
     0
  0
APPID
  5
4D6
330
9
100
AcDbSymbolTableRecord
100
AcDbRegAppTableRecord
  2
ACADM_DIM_EDIT
 70
     0
  0
APPID
  5
4D7
330
9
100
AcDbSymbolTableRecord
100
AcDbRegAppTableRecord
  2
AMDT_DM_ADJ
 70
     0
  0
APPID
  5
5CD
330
9
100
AcDbSymbolTableRecord
100
AcDbRegAppTableRecord
  2
AcDbAttr
 70
     0
  0
APPID
  5
5CE
330
9
100
AcDbSymbolTableRecord
100
AcDbRegAppTableRecord
  2
ACAUTHENVIRON
 70
     0
  0
APPID
  5
5CF
330
9
100
AcDbSymbolTableRecord
100
AcDbRegAppTableRecord
  2
AcDbDynamicBlockTrueName
 70
     0
  0
APPID
  5
5D0
330
9
100
AcDbSymbolTableRecord
100
AcDbRegAppTableRecord
  2
ACDBBLOCKREPETAG
 70
     0
  0
APPID
  5
723
330
9
100
AcDbSymbolTableRecord
100
AcDbRegAppTableRecord
  2
GENIUS_GENTRA_14
 70
     0
  0
APPID
  5
752
330
9
100
AcDbSymbolTableRecord
100
AcDbRegAppTableRecord
  2
GENIUS_GENOENT_13
 70
     0
  0
APPID
  5
753
330
9
100
AcDbSymbolTableRecord
100
AcDbRegAppTableRecord
  2
GENIUS_GENOBJ-N-TIT_13
 70
     0
  0
APPID
  5
754
330
9
100
AcDbSymbolTableRecord
100
AcDbRegAppTableRecord
  2
GENIUS_GENODEF_13
 70
     0
  0
APPID
  5
755
330
9
100
AcDbSymbolTableRecord
100
AcDbRegAppTableRecord
  2
GENIUS_GENOLIS_13
 70
     0
  0
APPID
  5
756
330
9
100
AcDbSymbolTableRecord
100
AcDbRegAppTableRecord
  2
GENIUS_GENTITLE_13
 70
     0
  0
APPID
  5
757
330
9
100
AcDbSymbolTableRecord
100
AcDbRegAppTableRecord
  2
GENIUS_GENOREF_13
 70
     0
  0
APPID
  5
75E
330
9
100
AcDbSymbolTableRecord
100
AcDbRegAppTableRecord
  2
GENIUS_GENSCREG_15
 70
     0
  0
APPID
  5
75F
330
9
100
AcDbSymbolTableRecord
100
AcDbRegAppTableRecord
  2
GENIUS_GENOBJ-N-SDF_13
 70
     0
  0
APPID
  5
7BE
330
9
100
AcDbSymbolTableRecord
100
AcDbRegAppTableRecord
  2
AcadAnnoPO
 70
     0
  0
APPID
  5
7BF
330
9
100
AcDbSymbolTableRecord
100
AcDbRegAppTableRecord
  2
ACAD_DSTYLE_DIMJAG
 70
     0
  0
APPID
  5
7C0
330
9
100
AcDbSymbolTableRecord
100
AcDbRegAppTableRecord
  2
ACAD_DSTYLE_DIMTALN
 70
     0
  0
APPID
  5
8F4
330
9
100
AcDbSymbolTableRecord
100
AcDbRegAppTableRecord
  2
ACAD_DSTYLE_DIMBREAK
 70
     0
  0
APPID
  5
AD8
330
9
100
AcDbSymbolTableRecord
100
AcDbRegAppTableRecord
  2
ACAD_DSTYLE_DIMARC_LENGTH_SYMBOL
 70
     0
  0
APPID
  5
AEA
330
9
100
AcDbSymbolTableRecord
100
AcDbRegAppTableRecord
  2
ACAD_DSTYLE_DIMJOGGED_JOGANGLE_SYMBOL
 70
     0
  0
APPID
  5
EDF
330
9
100
AcDbSymbolTableRecord
100
AcDbRegAppTableRecord
  2
ACAD_NAV_VCDISPLAY
 70
     0
  0
APPID
  5
F3E
330
9
100
AcDbSymbolTableRecord
100
AcDbRegAppTableRecord
  2
ACAD_DSTYLE_DIMINSPECT
 70
     0
  0
APPID
  5
176D
330
9
100
AcDbSymbolTableRecord
100
AcDbRegAppTableRecord
  2
ACAD_DSTYLE_DIM_LINETYPE
 70
     0
  0
APPID
  5
176E
330
9
100
AcDbSymbolTableRecord
100
AcDbRegAppTableRecord
  2
ACAD_DSTYLE_DIM_EXT1_LINETYPE
 70
     0
  0
APPID
  5
176F
330
9
100
AcDbSymbolTableRecord
100
AcDbRegAppTableRecord
  2
ACAD_DSTYLE_DIM_EXT2_LINETYPE
 70
     0
  0
ENDTAB
  0
TABLE
  2
DIMSTYLE
  5
A
330
0
100
AcDbSymbolTable
 70
     8
100
AcDbDimStyleTable
 71
     2
340
4FC
340
3F
  0
DIMSTYLE
105
3F
102
{ACAD_REACTORS
330
13D4
330
13D8
330
13DB
330
13DE
330
13E1
330
1606
102
}
330
A
100
AcDbSymbolTableRecord
100
AcDbDimStyleTableRecord
  2
STANDARD
 70
     0
  3
"
 42
0.0
 48
0.000000001
 73
     0
 74
     0
 77
     1
 78
     9
 79
     2
140
0.1377952755905512
141
0.0
146
0.7071069999999999
172
     1
271
     3
272
     3
283
     0
285
     9
286
     8
340
7DE
1001
ACAD_DSTYLE_DIMBREAK
1070
   391
1040
0.147638
1001
ACAD_DSTYLE_DIMJAG
1070
   388
1040
1.5
1001
ACAD_DSTYLE_DIMTALN
1070
   392
1070
     0
1001
ACAD_DSTYLE_DIMARC_LENGTH_SYMBOL
1070
   379
1070
     1
1001
ACAD_DSTYLE_DIMJOGGED_JOGANGLE_SYMBOL
1070
   384
1040
1.570796326794896
  0
DIMSTYLE
105
4FC
330
A
100
AcDbSymbolTableRecord
100
AcDbDimStyleTableRecord
  2
AM_DIN
 70
     0
 41
0.19685
 42
0.03937
 43
0.5905510000000001
 44
0.07874
 48
0.000000001
 73
     0
 74
     0
 77
     1
 78
    11
 79
     2
140
0.1377952755905512
141
0.003543
146
0.7071069999999999
147
0.090551
172
     1
271
     3
272
     3
277
     3
284
     8
285
     9
286
     8
340
7DE
371
    -1
1001
ACAD_DSTYLE_DIMBREAK
1070
   391
1040
0.147638
1001
ACAD_DSTYLE_DIMJAG
1070
   388
1040
1.5
1001
ACAD_DSTYLE_DIMTALN
1070
   392
1070
     0
1001
ACAD_DSTYLE_DIMARC_LENGTH_SYMBOL
1070
   379
1070
     1
1001
ACAD_DSTYLE_DIMJOGGED_JOGANGLE_SYMBOL
1070
   384
1040
1.570796326794896
  0
DIMSTYLE
105
15AB
102
{ACAD_REACTORS
330
1BCC
102
}
330
A
100
AcDbSymbolTableRecord
100
AcDbDimStyleTableRecord
  2
AM_ANSI
 70
     0
  4
mm
 41
0.12
 42
0.05
 43
0.5
 44
0.1
 47
0.1
 48
0.1
 78
     7
 79
     2
140
0.12
141
0.0
146
0.71
147
0.06
176
   256
177
   256
178
     2
274
     4
284
     7
340
10
371
    -1
372
    -1
1001
ACAD_DSTYLE_DIMJAG
1070
   388
1040
1.5
1001
ACAD_DSTYLE_DIMBREAK
1070
   391
1040
0.125
1001
ACAD_DSTYLE_DIMARC_LENGTH_SYMBOL
1070
   379
1070
     1
1001
ACAD_DSTYLE_DIM_LINETYPE
1070
   380
1005
12
1001
ACAD_DSTYLE_DIM_EXT1_LINETYPE
1070
   381
1005
12
1001
ACAD_DSTYLE_DIM_EXT2_LINETYPE
1070
   382
1005
12
  0
DIMSTYLE
105
15AF
330
A
100
AcDbSymbolTableRecord
100
AcDbDimStyleTableRecord
  2
AM_ANSI$3
 70
     0
  4
mm
 41
0.12
 42
0.05
 43
0.5
 44
0.1
 47
0.1
 48
0.1
 78
     7
 79
     2
140
0.12
141
0.0
146
0.71
147
0.06
176
   256
177
   256
178
     2
274
     4
284
     7
288
     1
289
     0
340
10
371
    -1
372
    -1
1001
ACAD_DSTYLE_DIMBREAK
1070
   391
1040
0.125
1001
ACAD_DSTYLE_DIMJAG
1070
   388
1040
1.5
1001
ACAD_DSTYLE_DIMARC_LENGTH_SYMBOL
1070
   379
1070
     1
1001
ACAD_DSTYLE_DIM_LINETYPE
1070
   380
1005
12
1001
ACAD_DSTYLE_DIM_EXT1_LINETYPE
1070
   381
1005
12
1001
ACAD_DSTYLE_DIM_EXT2_LINETYPE
1070
   382
1005
12
  0
DIMSTYLE
105
15B0
330
A
100
AcDbSymbolTableRecord
100
AcDbDimStyleTableRecord
  2
AM_ANSI$4
 70
     0
  4
mm
 41
0.12
 42
0.05
 43
0.5
 44
0.1
 47
0.1
 48
0.1
 78
     7
 79
     2
140
0.12
141
0.0
146
0.71
147
0.06
176
   256
177
   256
178
     2
274
     4
284
     7
288
     1
289
     0
340
10
371
    -1
372
    -1
1001
ACAD_DSTYLE_DIMBREAK
1070
   391
1040
0.125
1001
ACAD_DSTYLE_DIMJAG
1070
   388
1040
1.5
1001
ACAD_DSTYLE_DIMARC_LENGTH_SYMBOL
1070
   379
1070
     1
1001
ACAD_DSTYLE_DIM_LINETYPE
1070
   380
1005
12
1001
ACAD_DSTYLE_DIM_EXT1_LINETYPE
1070
   381
1005
12
1001
ACAD_DSTYLE_DIM_EXT2_LINETYPE
1070
   382
1005
12
  0
DIMSTYLE
105
15B1
330
A
100
AcDbSymbolTableRecord
100
AcDbDimStyleTableRecord
  2
AM_ANSI$7
 70
     0
  4
mm
 41
0.12
 42
0.05
 43
0.5
 44
0.1
 47
0.1
 48
0.1
 78
     7
 79
     2
140
0.12
141
0.0
146
0.71
147
0.06
176
   256
177
   256
178
     2
274
     4
284
     7
340
10
371
    -1
372
    -1
1001
ACAD_DSTYLE_DIMBREAK
1070
   391
1040
0.125
1001
ACAD_DSTYLE_DIMJAG
1070
   388
1040
1.5
1001
ACAD_DSTYLE_DIMARC_LENGTH_SYMBOL
1070
   379
1070
     1
1001
ACAD_DSTYLE_DIM_LINETYPE
1070
   380
1005
12
1001
ACAD_DSTYLE_DIM_EXT1_LINETYPE
1070
   381
1005
12
1001
ACAD_DSTYLE_DIM_EXT2_LINETYPE
1070
   382
1005
12
  0
DIMSTYLE
105
15B2
330
A
100
AcDbSymbolTableRecord
100
AcDbDimStyleTableRecord
  2
AM_ANSI$SF
 70
     0
  4
mm
 41
0.12
 42
0.05
 43
0.5
 44
0.1
 47
0.1
 48
0.1
 75
     1
 76
     1
 78
     7
 79
     2
140
0.12
141
0.0
146
0.71
147
0.06
176
   256
177
   256
178
     2
274
     4
284
     7
340
10
371
    -1
372
    -1
1001
ACAD_DSTYLE_DIMBREAK
1070
   391
1040
0.125
1001
ACAD_DSTYLE_DIMJAG
1070
   388
1040
1.5
1001
ACAD_DSTYLE_DIMARC_LENGTH_SYMBOL
1070
   379
1070
     1
1001
ACAD_DSTYLE_DIM_LINETYPE
1070
   380
1005
12
1001
ACAD_DSTYLE_DIM_EXT1_LINETYPE
1070
   381
1005
12
1001
ACAD_DSTYLE_DIM_EXT2_LINETYPE
1070
   382
1005
12
  0
DIMSTYLE
105
15B7
330
A
100
AcDbSymbolTableRecord
100
AcDbDimStyleTableRecord
  2
AM_ANSI$SH
 70
     0
  4
mm
 41
0.12
 42
0.05
 43
0.5
 44
0.1
 47
0.1
 48
0.1
 75
     1
 76
     1
 78
     7
 79
     2
140
0.12
141
0.0
146
0.71
147
0.06
173
     1
176
   256
177
   256
178
     2
274
     4
284
     7
340
10
343
15B3
371
    -1
372
    -1
1001
ACAD_DSTYLE_DIMBREAK
1070
   391
1040
0.125
1001
ACAD_DSTYLE_DIMJAG
1070
   388
1040
1.5
1001
ACAD_DSTYLE_DIMARC_LENGTH_SYMBOL
1070
   379
1070
     1
1001
ACAD_DSTYLE_DIM_LINETYPE
1070
   380
1005
12
1001
ACAD_DSTYLE_DIM_EXT1_LINETYPE
1070
   381
1005
12
1001
ACAD_DSTYLE_DIM_EXT2_LINETYPE
1070
   382
1005
12
  0
ENDTAB
  0
TABLE
  2
BLOCK_RECORD
  5
1
330
0
100
AcDbSymbolTable
 70
     9
  0
BLOCK_RECORD
  5
18
102
{ACAD_XDICTIONARY
360
1963
102
}
330
1
100
AcDbSymbolTableRecord
100
AcDbBlockTableRecord
  2
*MODEL_SPACE
340
303
  0
BLOCK_RECORD
  5
B76
330
1
100
AcDbSymbolTableRecord
100
AcDbBlockTableRecord
  2
*Paper_Space
340
B77
  0
BLOCK_RECORD
  5
13F4
330
1
100
AcDbSymbolTableRecord
100
AcDbBlockTableRecord
  2
*D0
340
0
  0
BLOCK_RECORD
  5
1400
330
1
100
AcDbSymbolTableRecord
100
AcDbBlockTableRecord
  2
*D1
340
0
  0
BLOCK_RECORD
  5
1415
330
1
100
AcDbSymbolTableRecord
100
AcDbBlockTableRecord
  2
*D2
340
0
  0
BLOCK_RECORD
  5
1421
330
1
100
AcDbSymbolTableRecord
100
AcDbBlockTableRecord
  2
*D3
340
0
  0
BLOCK_RECORD
  5
142D
330
1
100
AcDbSymbolTableRecord
100
AcDbBlockTableRecord
  2
*D4
340
0
  0
BLOCK_RECORD
  5
15B3
330
1
100
AcDbSymbolTableRecord
100
AcDbBlockTableRecord
  2
GENAXEH
340
0
  0
BLOCK_RECORD
  5
15C3
330
1
100
AcDbSymbolTableRecord
100
AcDbBlockTableRecord
  2
_ACMFILLEDHALF
340
0
  0
BLOCK_RECORD
  5
1607
330
1
100
AcDbSymbolTableRecord
100
AcDbBlockTableRecord
  2
*D7
340
0
  0
ENDTAB
  0
ENDSEC
  0
SECTION
  2
BLOCKS
  0
BLOCK
  5
32
330
18
100
AcDbEntity
  8
0
100
AcDbBlockBegin
  2
*MODEL_SPACE
 70
     0
 10
0.0
 20
0.0
 30
0.0
  3
*MODEL_SPACE
  1

  0
ENDBLK
  5
33
330
18
100
AcDbEntity
  8
0
100
AcDbBlockEnd
  0
BLOCK
  5
B78
330
B76
100
AcDbEntity
 67
     1
  8
0
100
AcDbBlockBegin
  2
*Paper_Space
 70
     0
 10
0.0
 20
0.0
 30
0.0
  3
*Paper_Space
  1

  0
ENDBLK
  5
B79
330
B76
100
AcDbEntity
 67
     1
  8
0
100
AcDbBlockEnd
  0
BLOCK
  5
13F5
330
13F4
100
AcDbEntity
  8
0
100
AcDbBlockBegin
  2
*D0
 70
     1
 10
0.0
 20
0.0
 30
0.0
  3
*D0
  1

  0
LINE
  5
18A5
330
13F4
100
AcDbEntity
  8
2
 62
     0
 48
0.04
370
    -2
100
AcDbLine
 10
294.0419402550859
 20
325.7698221304821
 30
0.0
 11
295.4026184908148
 21
325.7698221304821
 31
0.0
  0
LINE
  5
18A6
330
13F4
100
AcDbEntity
  8
2
 62
     0
 48
0.04
370
    -2
100
AcDbLine
 10
294.0419402550859
 20
321.7698221304821
 30
0.0
 11
295.4026184908148
 21
321.7698221304821
 31
0.0
  0
LINE
  5
18A7
330
13F4
100
AcDbEntity
  8
2
 62
     0
 48
0.04
370
    -2
100
AcDbLine
 10
295.2226184908147
 20
325.5898221304822
 30
0.0
 11
295.2226184908147
 21
321.9498221304821
 31
0.0
  0
SOLID
  5
18A8
330
13F4
100
AcDbEntity
  8
2
 62
     0
 48
0.04
100
AcDbTrace
 10
295.1926184908148
 20
325.5898221304822
 30
0.0
 11
295.2526184908147
 21
325.5898221304822
 31
0.0
 12
295.2226184908147
 22
325.7698221304821
 32
0.0
 13
295.2226184908147
 23
325.7698221304821
 33
0.0
  0
SOLID
  5
18A9
330
13F4
100
AcDbEntity
  8
2
 62
     0
 48
0.04
100
AcDbTrace
 10
295.1926184908148
 20
321.9498221304821
 30
0.0
 11
295.2526184908147
 21
321.9498221304821
 31
0.0
 12
295.2226184908147
 22
321.7698221304821
 32
0.0
 13
295.2226184908147
 23
321.7698221304821
 33
0.0
  0
MTEXT
  5
18AA
330
13F4
100
AcDbEntity
  8
2
 62
     0
 48
0.04
100
AcDbMText
 10
295.0592664730637
 20
323.7698221304821
 30
0.0
 40
0.1377952755905512
 41
0.0
 71
     5
 72
     1
  1
\A1;%%c4"
  7
STANDARD 3.5 mm
 11
0.0000000000000001
 21
1.0
 31
0.0
 73
     1
 44
1.0
1001
ACAD
1000
MTEXTBEGIN
1070
    73
1070
     1
1070
    44
1040
1.0
1070
    74
1070
     0
1000
MTEXTEND
  0
POINT
  5
18AB
330
13F4
100
AcDbEntity
  8
DEFPOINTS
 62
     0
 48
0.04
100
AcDbPoint
 10
294.0419402550859
 20
325.7698221304821
 30
0.0
  0
POINT
  5
18AC
330
13F4
100
AcDbEntity
  8
DEFPOINTS
 62
     0
 48
0.04
100
AcDbPoint
 10
294.0419402550859
 20
321.7698221304821
 30
0.0
  0
POINT
  5
18AD
330
13F4
100
AcDbEntity
  8
DEFPOINTS
 62
     0
 48
0.04
100
AcDbPoint
 10
295.2226184908147
 20
321.7698221304821
 30
0.0
  0
ENDBLK
  5
13F6
330
13F4
100
AcDbEntity
  8
0
100
AcDbBlockEnd
  0
BLOCK
  5
1401
330
1400
100
AcDbEntity
  8
0
100
AcDbBlockBegin
  2
*D1
 70
     1
 10
0.0
 20
0.0
 30
0.0
  3
*D1
  1

  0
LINE
  5
1B3B
330
1400
100
AcDbEntity
  8
2
 62
     0
 48
0.04
370
    -2
100
AcDbLine
 10
294.1044402550859
 20
324.5545443527043
 30
0.0
 11
294.9258162209069
 21
324.5545443527043
 31
0.0
  0
LINE
  5
1B3C
330
1400
100
AcDbEntity
  8
2
 62
     0
 48
0.04
370
    -2
100
AcDbLine
 10
294.1044402550859
 20
322.9850999082599
 30
0.0
 11
294.9258162209069
 21
322.9850999082599
 31
0.0
  0
LINE
  5
1B3D
330
1400
100
AcDbEntity
  8
2
 62
     0
 48
0.04
370
    -2
100
AcDbLine
 10
294.7458162209069
 20
324.3745443527043
 30
0.0
 11
294.7458162209069
 21
323.1650999082599
 31
0.0
  0
SOLID
  5
1B3E
330
1400
100
AcDbEntity
  8
2
 62
     0
 48
0.04
100
AcDbTrace
 10
294.7158162209068
 20
324.3745443527043
 30
0.0
 11
294.7758162209069
 21
324.3745443527043
 31
0.0
 12
294.7458162209069
 22
324.5545443527043
 32
0.0
 13
294.7458162209069
 23
324.5545443527043
 33
0.0
  0
SOLID
  5
1B3F
330
1400
100
AcDbEntity
  8
2
 62
     0
 48
0.04
100
AcDbTrace
 10
294.7158162209068
 20
323.1650999082599
 30
0.0
 11
294.7758162209069
 21
323.1650999082599
 31
0.0
 12
294.7458162209069
 22
322.9850999082599
 32
0.0
 13
294.7458162209069
 23
322.9850999082599
 33
0.0
  0
MTEXT
  5
1B40
330
1400
100
AcDbEntity
  8
2
 62
     0
 48
0.04
100
AcDbMText
 10
294.5824642031557
 20
323.7698221304821
 30
0.0
 40
0.1377952755905512
 41
0.0
 71
     5
 72
     1
  1
\A1;%%c1.57"
  7
STANDARD 3.5 mm
 11
0.0000000000000001
 21
1.0
 31
0.0
 73
     1
 44
1.0
1001
ACAD
1000
MTEXTBEGIN
1070
    73
1070
     1
1070
    44
1040
1.0
1070
    74
1070
     0
1000
MTEXTEND
  0
POINT
  5
1B41
330
1400
100
AcDbEntity
  8
DEFPOINTS
 62
     0
 48
0.04
100
AcDbPoint
 10
294.1044402550859
 20
324.5545443527043
 30
0.0
  0
POINT
  5
1B42
330
1400
100
AcDbEntity
  8
DEFPOINTS
 62
     0
 48
0.04
100
AcDbPoint
 10
294.1044402550859
 20
322.9850999082599
 30
0.0
  0
POINT
  5
1B43
330
1400
100
AcDbEntity
  8
DEFPOINTS
 62
     0
 48
0.04
100
AcDbPoint
 10
294.7458162209069
 20
322.9850999082599
 30
0.0
  0
ENDBLK
  5
1402
330
1400
100
AcDbEntity
  8
0
100
AcDbBlockEnd
  0
BLOCK
  5
1416
330
1415
100
AcDbEntity
  8
0
100
AcDbBlockBegin
  2
*D2
 70
     1
 10
0.0
 20
0.0
 30
0.0
  3
*D2
  1

  0
LINE
  5
148F
330
1415
100
AcDbEntity
  8
SK2
 62
     0
 48
0.04
370
    -2
100
AcDbLine
 10
293.4794402550859
 20
324.5452850934451
 30
0.0
 11
293.4794402550859
 21
326.5965049701299
 31
0.0
  0
LINE
  5
1490
330
1415
100
AcDbEntity
  8
SK2
 62
     0
 48
0.04
370
    -2
100
AcDbLine
 10
294.1044402550859
 20
324.5545443527043
 30
0.0
 11
294.1044402550859
 21
326.5965049701299
 31
0.0
  0
LINE
  5
1491
330
1415
100
AcDbEntity
  8
SK2
 62
     0
 48
0.04
370
    -2
100
AcDbLine
 10
293.6594402550859
 20
326.4165049701298
 30
0.0
 11
293.9244402550859
 21
326.4165049701298
 31
0.0
  0
LINE
  5
1492
330
1415
100
AcDbEntity
  8
SK2
 62
     0
 48
0.04
370
    -2
100
AcDbLine
 10
294.1044402550859
 20
326.4165049701298
 30
0.0
 11
295.1302732241376
 21
326.4165049701298
 31
0.0
  0
SOLID
  5
1493
330
1415
100
AcDbEntity
  8
SK2
 62
     0
 48
0.04
100
AcDbTrace
 10
293.6594402550859
 20
326.4465049701298
 30
0.0
 11
293.6594402550859
 21
326.3865049701299
 31
0.0
 12
293.4794402550859
 22
326.4165049701298
 32
0.0
 13
293.4794402550859
 23
326.4165049701298
 33
0.0
  0
SOLID
  5
1494
330
1415
100
AcDbEntity
  8
SK2
 62
     0
 48
0.04
100
AcDbTrace
 10
293.9244402550859
 20
326.4465049701298
 30
0.0
 11
293.9244402550859
 21
326.3865049701299
 31
0.0
 12
294.1044402550859
 22
326.4165049701298
 32
0.0
 13
294.1044402550859
 23
326.4165049701298
 33
0.0
  0
MTEXT
  5
1495
330
1415
100
AcDbEntity
  8
SK2
 62
     0
 48
0.04
100
AcDbMText
 10
294.7073567396117
 20
326.5778234665968
 30
0.0
 40
0.1377952755905512
 41
0.0
 71
     5
 72
     1
  1
\A1;0.625"
  7
STANDARD 3.5 mm
 73
     1
 44
1.0
1001
ACAD
1000
MTEXTBEGIN
1070
    73
1070
     1
1070
    44
1040
1.0
1070
    74
1070
     0
1000
MTEXTEND
  0
POINT
  5
1496
330
1415
100
AcDbEntity
  8
DEFPOINTS
 62
     0
 48
0.04
100
AcDbPoint
 10
293.4794402550859
 20
324.5452850934451
 30
0.0
  0
POINT
  5
1497
330
1415
100
AcDbEntity
  8
DEFPOINTS
 62
     0
 48
0.04
100
AcDbPoint
 10
294.1044402550859
 20
324.5545443527043
 30
0.0
  0
POINT
  5
1498
330
1415
100
AcDbEntity
  8
DEFPOINTS
 62
     0
 48
0.04
100
AcDbPoint
 10
294.1044402550859
 20
326.4165049701298
 30
0.0
  0
ENDBLK
  5
1417
330
1415
100
AcDbEntity
  8
0
100
AcDbBlockEnd
  0
BLOCK
  5
1422
330
1421
100
AcDbEntity
  8
0
100
AcDbBlockBegin
  2
*D3
 70
     1
 10
0.0
 20
0.0
 30
0.0
  3
*D3
  1

  0
LINE
  5
1484
330
1421
100
AcDbEntity
  8
2
 62
     0
 48
0.04
370
    -2
100
AcDbLine
 10
293.5419402550859
 20
325.658711019371
 30
0.0
 11
293.5419402550859
 21
326.3111519642529
 31
0.0
  0
LINE
  5
1485
330
1421
100
AcDbEntity
  8
2
 62
     0
 48
0.04
370
    -2
100
AcDbLine
 10
294.0419402550859
 20
325.6563962045562
 30
0.0
 11
294.0419402550859
 21
326.3111519642529
 31
0.0
  0
LINE
  5
1486
330
1421
100
AcDbEntity
  8
2
 62
     0
 48
0.04
370
    -2
100
AcDbLine
 10
293.3619402550858
 20
326.1311519642529
 30
0.0
 11
293.1819402550859
 21
326.1311519642529
 31
0.0
  0
LINE
  5
1487
330
1421
100
AcDbEntity
  8
2
 62
     0
 48
0.04
370
    -2
100
AcDbLine
 10
294.2219402550859
 20
326.1311519642529
 30
0.0
 11
295.0089797247656
 21
326.1311519642529
 31
0.0
  0
LINE
  5
1488
330
1421
100
AcDbEntity
  8
2
 62
     0
 48
0.04
370
    -2
100
AcDbLine
 10
293.5419402550859
 20
326.1311519642529
 30
0.0
 11
294.0419402550859
 21
326.1311519642529
 31
0.0
  0
SOLID
  5
1489
330
1421
100
AcDbEntity
  8
2
 62
     0
 48
0.04
100
AcDbTrace
 10
293.3619402550858
 20
326.1611519642528
 30
0.0
 11
293.3619402550858
 21
326.1011519642529
 31
0.0
 12
293.5419402550859
 22
326.1311519642529
 32
0.0
 13
293.5419402550859
 23
326.1311519642529
 33
0.0
  0
SOLID
  5
148A
330
1421
100
AcDbEntity
  8
2
 62
     0
 48
0.04
100
AcDbTrace
 10
294.2219402550859
 20
326.1611519642528
 30
0.0
 11
294.2219402550859
 21
326.1011519642529
 31
0.0
 12
294.0419402550859
 22
326.1311519642529
 32
0.0
 13
294.0419402550859
 23
326.1311519642529
 33
0.0
  0
MTEXT
  5
148B
330
1421
100
AcDbEntity
  8
2
 62
     0
 48
0.04
100
AcDbMText
 10
294.7054599899258
 20
326.2924704607198
 30
0.0
 40
0.1377952755905512
 41
0.0
 71
     5
 72
     1
  1
\A1;0.5"
  7
STANDARD 3.5 mm
 73
     1
 44
1.0
1001
ACAD
1000
MTEXTBEGIN
1070
    73
1070
     1
1070
    44
1040
1.0
1070
    74
1070
     0
1000
MTEXTEND
  0
POINT
  5
148C
330
1421
100
AcDbEntity
  8
DEFPOINTS
 62
     0
 48
0.04
100
AcDbPoint
 10
293.5419402550859
 20
325.658711019371
 30
0.0
  0
POINT
  5
148D
330
1421
100
AcDbEntity
  8
DEFPOINTS
 62
     0
 48
0.04
100
AcDbPoint
 10
294.0419402550859
 20
325.6563962045562
 30
0.0
  0
POINT
  5
148E
330
1421
100
AcDbEntity
  8
DEFPOINTS
 62
     0
 48
0.04
100
AcDbPoint
 10
294.0419402550859
 20
326.1311519642529
 30
0.0
  0
ENDBLK
  5
1423
330
1421
100
AcDbEntity
  8
0
100
AcDbBlockEnd
  0
BLOCK
  5
142E
330
142D
100
AcDbEntity
  8
0
100
AcDbBlockBegin
  2
*D4
 70
     1
 10
0.0
 20
0.0
 30
0.0
  3
*D4
  1

  0
LINE
  5
1B32
330
142D
100
AcDbEntity
  8
2
 62
     0
 48
0.04
370
    -2
100
AcDbLine
 10
294.0419402550859
 20
325.7698221304821
 30
0.0
 11
294.9258162209069
 21
325.7698221304821
 31
0.0
  0
LINE
  5
1B33
330
142D
100
AcDbEntity
  8
2
 62
     0
 48
0.04
370
    -2
100
AcDbLine
 10
294.0225126101747
 20
324.6233871485173
 30
0.0
 11
294.9258162209069
 21
324.6233871485173
 31
0.0
  0
LINE
  5
1B34
330
142D
100
AcDbEntity
  8
2
 62
     0
 48
0.04
370
    -2
100
AcDbLine
 10
294.7458162209069
 20
325.5898221304822
 30
0.0
 11
294.7458162209069
 21
324.8033871485173
 31
0.0
  0
SOLID
  5
1B35
330
142D
100
AcDbEntity
  8
2
 62
     0
 48
0.04
100
AcDbTrace
 10
294.7158162209068
 20
325.5898221304822
 30
0.0
 11
294.7758162209069
 21
325.5898221304822
 31
0.0
 12
294.7458162209069
 22
325.7698221304821
 32
0.0
 13
294.7458162209069
 23
325.7698221304821
 33
0.0
  0
SOLID
  5
1B36
330
142D
100
AcDbEntity
  8
2
 62
     0
 48
0.04
100
AcDbTrace
 10
294.7158162209068
 20
324.8033871485173
 30
0.0
 11
294.7758162209069
 21
324.8033871485173
 31
0.0
 12
294.7458162209069
 22
324.6233871485173
 32
0.0
 13
294.7458162209069
 23
324.6233871485173
 33
0.0
  0
MTEXT
  5
1B37
330
142D
100
AcDbEntity
  8
2
 62
     0
 48
0.04
100
AcDbMText
 10
294.5864828285506
 20
325.1966046394997
 30
0.0
 40
0.1377952755905512
 41
0.0
 71
     5
 72
     1
  1
\A1;1.1"
  7
STANDARD 3.5 mm
 11
0.0000000000000001
 21
1.0
 31
0.0
 73
     1
 44
1.0
1001
ACAD
1000
MTEXTBEGIN
1070
    73
1070
     1
1070
    44
1040
1.0
1070
    74
1070
     0
1000
MTEXTEND
  0
POINT
  5
1B38
330
142D
100
AcDbEntity
  8
DEFPOINTS
 62
     0
 48
0.04
100
AcDbPoint
 10
294.0419402550859
 20
325.7698221304821
 30
0.0
  0
POINT
  5
1B39
330
142D
100
AcDbEntity
  8
DEFPOINTS
 62
     0
 48
0.04
100
AcDbPoint
 10
294.0225126101747
 20
324.6233871485173
 30
0.0
  0
POINT
  5
1B3A
330
142D
100
AcDbEntity
  8
DEFPOINTS
 62
     0
 48
0.04
100
AcDbPoint
 10
294.7458162209069
 20
324.6233871485173
 30
0.0
  0
ENDBLK
  5
142F
330
142D
100
AcDbEntity
  8
0
100
AcDbBlockEnd
  0
BLOCK
  5
15B5
330
15B3
100
AcDbEntity
  8
0
100
AcDbBlockBegin
  2
GENAXEH
 70
     0
 10
0.0
 20
0.0
 30
0.0
  3
GENAXEH
  1

  0
LINE
  5
15B4
330
15B3
100
AcDbEntity
  8
0
100
AcDbLine
 10
-1.0
 20
0.0
 30
0.0
 11
1.0
 21
0.0
 31
0.0
  0
ENDBLK
  5
15B6
330
15B3
100
AcDbEntity
  8
0
100
AcDbBlockEnd
  0
BLOCK
  5
15C6
330
15C3
100
AcDbEntity
  8
0
100
AcDbBlockBegin
  2
_ACMFILLEDHALF
 70
     0
 10
0.0
 20
0.0
 30
0.0
  3
_ACMFILLEDHALF
  1

  0
TRACE
  5
15C4
330
15C3
100
AcDbEntity
  8
1
 62
     0
100
AcDbTrace
 10
-0.8
 20
0.0
 30
0.0
 11
-1.0
 21
0.166666666
 31
0.0
 12
0.0
 22
0.0
 32
0.0
 13
0.0
 23
0.0
 33
0.0
  0
LINE
  5
15C5
330
15C3
100
AcDbEntity
  8
1
 62
     0
100
AcDbLine
 10
-1.0
 20
0.0
 30
0.0
 11
-0.8
 21
0.0
 31
0.0
  0
ENDBLK
  5
15C7
330
15C3
100
AcDbEntity
  8
0
100
AcDbBlockEnd
  0
BLOCK
  5
1608
330
1607
100
AcDbEntity
  8
0
100
AcDbBlockBegin
  2
*D7
 70
     1
 10
0.0
 20
0.0
 30
0.0
  3
*D7
  1

  0
LINE
  5
16C1
330
1607
100
AcDbEntity
  8
SK2
 62
     0
370
    -2
100
AcDbLine
 10
293.4794402550859
 20
323.2698221304821
 30
0.0
 11
292.9936164457662
 21
323.2698221304821
 31
0.0
  0
LINE
  5
16C2
330
1607
100
AcDbEntity
  8
SK2
 62
     0
370
    -2
100
AcDbLine
 10
293.4794402550859
 20
324.2698221304821
 30
0.0
 11
292.9936164457662
 21
324.2698221304821
 31
0.0
  0
LINE
  5
16C3
330
1607
100
AcDbEntity
  8
SK2
 62
     0
370
    -2
100
AcDbLine
 10
293.1736164457662
 20
323.4498221304821
 30
0.0
 11
293.1736164457662
 21
324.0898221304822
 31
0.0
  0
SOLID
  5
16C4
330
1607
100
AcDbEntity
  8
SK2
 62
     0
100
AcDbTrace
 10
293.1436164457661
 20
323.4498221304821
 30
0.0
 11
293.2036164457662
 21
323.4498221304821
 31
0.0
 12
293.1736164457662
 22
323.2698221304821
 32
0.0
 13
293.1736164457662
 23
323.2698221304821
 33
0.0
  0
SOLID
  5
16C5
330
1607
100
AcDbEntity
  8
SK2
 62
     0
100
AcDbTrace
 10
293.1436164457661
 20
324.0898221304822
 30
0.0
 11
293.2036164457662
 21
324.0898221304822
 31
0.0
 12
293.1736164457662
 22
324.2698221304821
 32
0.0
 13
293.1736164457662
 23
324.2698221304821
 33
0.0
  0
MTEXT
  5
16C6
330
1607
100
AcDbEntity
  8
SK2
 62
     0
100
AcDbMText
 10
293.010264428015
 20
323.7698221304821
 30
0.0
 40
0.1377952755905512
 41
0.0
 71
     5
 72
     1
  1
\A1;%%c1"
  7
STANDARD 3.5 mm
 11
0.0000000000000001
 21
1.0
 31
0.0
 73
     1
 44
1.0
1001
ACAD
1000
MTEXTBEGIN
1070
    73
1070
     1
1070
    44
1040
1.0
1070
    74
1070
     0
1000
MTEXTEND
  0
POINT
  5
16C7
330
1607
100
AcDbEntity
  8
DEFPOINTS
 62
     0
100
AcDbPoint
 10
293.4794402550859
 20
323.2698221304821
 30
0.0
  0
POINT
  5
16C8
330
1607
100
AcDbEntity
  8
DEFPOINTS
 62
     0
100
AcDbPoint
 10
293.4794402550859
 20
324.2698221304821
 30
0.0
  0
POINT
  5
16C9
330
1607
100
AcDbEntity
  8
DEFPOINTS
 62
     0
100
AcDbPoint
 10
293.1736164457662
 20
324.2698221304821
 30
0.0
  0
ENDBLK
  5
1609
330
1607
100
AcDbEntity
  8
0
100
AcDbBlockEnd
  0
ENDSEC
  0
SECTION
  2
ENTITIES
  0
LWPOLYLINE
  5
119F
330
18
100
AcDbEntity
  8
1
 48
0.04
100
AcDbPolyline
 90
        2
 70
     0
 43
0.0
 10
293.5495306943624
 20
321.8704896584752
 10
293.5720328476784
 20
321.8438962045562
  0
LWPOLYLINE
  5
11A1
330
18
100
AcDbEntity
  8
1
 48
0.04
100
AcDbPolyline
 90
        2
 70
     0
 43
0.0
 10
294.0373106254562
 20
322.2003776860376
 10
294.0141624773081
 20
322.2860258341858
  0
LWPOLYLINE
  5
11A9
330
18
100
AcDbEntity
  8
1
 48
0.04
100
AcDbPolyline
 90
        2
 70
     0
 43
0.0
 10
293.7294402550859
 20
324.9225999082599
 10
293.7039772921229
 20
324.7443591675191
  0
LWPOLYLINE
  5
11AA
330
18
100
AcDbEntity
  8
1
 48
0.04
100
AcDbPolyline
 90
        2
 70
     0
 43
0.0
 10
294.0141624773081
 20
324.6193591675191
 10
294.0373106254562
 20
324.7790813897414
  0
LWPOLYLINE
  5
11AB
330
18
100
AcDbEntity
  8
1
 48
0.04
100
AcDbPolyline
 90
        2
 70
     0
 43
0.0
 10
293.8799032180488
 20
325.559173982334
 10
293.8544402550859
 20
325.6540813897414
  0
LWPOLYLINE
  5
11AC
330
18
100
AcDbEntity
  8
1
 48
0.04
100
AcDbPolyline
 90
        2
 70
     0
 43
0.0
 10
293.5488846995303
 20
325.334636945297
 10
293.5697180328637
 20
325.2536184267784
  0
LWPOLYLINE
  5
11B3
330
18
100
AcDbEntity
  8
1
 48
0.04
100
AcDbPolyline
 90
        2
 70
     0
 43
0.0
 10
294.0187921069377
 20
322.4665813897413
 10
294.0419402550859
 20
322.6054702786303
  0
LWPOLYLINE
  5
11B5
330
18
100
AcDbEntity
  8
1
 48
0.04
100
AcDbPolyline
 90
        2
 70
     0
 43
0.0
 10
293.5419402550859
 20
323.7744517601117
 10
293.5674032180488
 20
323.5776925008525
  0
LWPOLYLINE
  5
11B6
330
18
100
AcDbEntity
  8
1
 48
0.04
100
AcDbPolyline
 90
        2
 70
     0
 43
0.0
 10
293.5674379460941
 20
322.9066740289187
 10
293.5488846995303
 20
322.758248056408
  0
LWPOLYLINE
  5
11B9
330
18
100
AcDbEntity
  8
1
 48
0.04
100
AcDbPolyline
 90
        2
 70
     0
 43
0.0
 10
293.7595328476784
 20
323.7883406490007
 10
293.7595328476784
 20
323.7860258341858
  0
LWPOLYLINE
  5
11BD
330
18
100
AcDbEntity
  8
1
 48
0.04
100
AcDbPolyline
 90
        2
 70
     0
 43
0.0
 10
294.039625440271
 20
325.6656554638154
 10
294.0173453476784
 20
325.6899610193709
  0
LWPOLYLINE
  5
11BE
330
18
100
AcDbEntity
  8
1
 48
0.04
100
AcDbPolyline
 90
        2
 70
     0
 43
0.0
 10
293.5697180328637
 20
322.309173982334
 10
294.0141624773081
 20
322.2999147230747
  0
LWPOLYLINE
  5
11BF
330
18
100
AcDbEntity
  8
1
 48
0.04
100
AcDbPolyline
 90
        2
 70
     0
 43
0.0
 10
293.4817550699007
 20
324.5545443527043
 10
293.4794402550859
 20
324.5452850934451
  0
LWPOLYLINE
  5
11C0
330
18
100
AcDbEntity
  8
1
 48
0.04
100
AcDbPolyline
 90
        2
 70
     0
 43
0.0
 10
293.4794402550859
 20
322.9943591675191
 10
293.4817550699007
 20
322.9850999082599
  0
LWPOLYLINE
  5
11CC
330
18
100
AcDbEntity
  8
1
 48
0.04
100
AcDbPolyline
 90
        2
 70
     0
 43
0.0
 10
293.7687921069377
 20
322.7003776860377
 10
293.7664772921229
 20
322.7073221304821
  0
LWPOLYLINE
  5
11CD
330
18
100
AcDbEntity
  8
1
 48
0.04
100
AcDbPolyline
 90
        3
 70
     0
 43
0.0
 10
293.9632365513822
 20
322.7281554638154
 10
293.9632365513822
 20
322.721211019371
 10
293.9609217365673
 20
322.7119517601118
  0
LWPOLYLINE
  5
11CE
330
18
100
AcDbEntity
  8
1
 48
0.04
100
AcDbPolyline
 90
        2
 70
     0
 43
0.0
 10
294.0141624773081
 20
321.8670443527043
 10
294.0257365513822
 20
321.8670443527043
  0
LWPOLYLINE
  5
11CF
330
18
100
AcDbEntity
  8
1
 48
0.04
100
AcDbPolyline
 90
        3
 70
     0
 43
0.0
 10
294.0257365513822
 20
321.8670443527043
 10
294.0373106254562
 20
321.871673982334
 10
294.0419402550859
 20
321.8809332415932
  0
LWPOLYLINE
  5
11D0
330
18
100
AcDbEntity
  8
1
 48
0.04
100
AcDbPolyline
 90
        2
 70
     0
 43
0.0
 10
294.0419402550859
 20
321.8809332415932
 10
294.0419402550859
 20
321.9341739823339
  0
LWPOLYLINE
  5
11D1
330
18
100
AcDbEntity
  8
1
 48
0.04
100
AcDbPolyline
 90
        2
 70
     0
 43
0.0
 10
294.0187921069377
 20
321.9550073156673
 10
294.0419402550859
 20
321.9341739823339
  0
LWPOLYLINE
  5
11D2
330
18
100
AcDbEntity
  8
1
 48
0.04
100
AcDbPolyline
 90
        2
 70
     0
 43
0.0
 10
294.0187921069377
 20
321.9550073156673
 10
294.0164772921229
 20
322.1286184267784
  0
LWPOLYLINE
  5
11D3
330
18
100
AcDbEntity
  8
1
 48
0.04
100
AcDbPolyline
 90
        2
 70
     0
 43
0.0
 10
294.0164772921229
 20
322.1286184267784
 10
294.039625440271
 20
322.1494517601117
  0
LWPOLYLINE
  5
11D4
330
18
100
AcDbEntity
  8
1
 48
0.04
100
AcDbPolyline
 90
        2
 70
     0
 43
0.0
 10
294.0373106254562
 20
322.2003776860376
 10
294.039625440271
 20
322.1494517601117
  0
LWPOLYLINE
  5
11D5
330
18
100
AcDbEntity
  8
1
 48
0.04
100
AcDbPolyline
 90
        3
 70
     0
 43
0.0
 10
294.0373106254562
 20
322.2003776860376
 10
294.0326809958266
 20
322.2119517601117
 10
294.0211069217525
 20
322.2142665749266
  0
LWPOLYLINE
  5
11D6
330
18
100
AcDbEntity
  8
1
 48
0.04
100
AcDbPolyline
 90
        2
 70
     0
 43
0.0
 10
294.0141624773081
 20
322.2142665749266
 10
294.0211069217525
 20
322.2142665749266
  0
LWPOLYLINE
  5
11D7
330
18
100
AcDbEntity
  8
1
 48
0.04
100
AcDbPolyline
 90
        2
 70
     0
 43
0.0
 10
294.0257365513822
 20
322.1378776860376
 10
294.0257365513822
 20
322.1008406490006
  0
LWPOLYLINE
  5
11D8
330
18
100
AcDbEntity
  8
1
 48
0.04
100
AcDbPolyline
 90
        2
 70
     0
 43
0.0
 10
294.028051366197
 20
322.0105628712229
 10
294.0257365513822
 20
322.1008406490006
  0
LWPOLYLINE
  5
11D9
330
18
100
AcDbEntity
  8
1
 48
0.04
100
AcDbPolyline
 90
        2
 70
     0
 43
0.0
 10
294.0419402550859
 20
321.9341739823339
 10
294.028051366197
 20
322.0105628712229
  0
LWPOLYLINE
  5
11DA
330
18
100
AcDbEntity
  8
1
 48
0.04
100
AcDbPolyline
 90
        2
 70
     0
 43
0.0
 10
294.0211069217525
 20
322.2142665749266
 10
294.0141624773081
 20
322.2374147230746
  0
LWPOLYLINE
  5
11DB
330
18
100
AcDbEntity
  8
1
 48
0.04
100
AcDbPolyline
 90
        2
 70
     0
 43
0.0
 10
294.0187921069377
 20
321.9550073156673
 10
294.028051366197
 20
322.0105628712229
  0
LWPOLYLINE
  5
11DC
330
18
100
AcDbEntity
  8
1
 48
0.04
100
AcDbPolyline
 90
        2
 70
     0
 43
0.0
 10
293.5488846995303
 20
325.334636945297
 10
293.5488846995303
 20
325.3392665749266
  0
LWPOLYLINE
  5
11DD
330
18
100
AcDbEntity
  8
1
 48
0.04
100
AcDbPolyline
 90
        2
 70
     0
 43
0.0
 10
293.5488846995303
 20
325.3392665749266
 10
293.5465698847155
 20
325.3901925008525
  0
LWPOLYLINE
  5
11DE
330
18
100
AcDbEntity
  8
1
 48
0.04
100
AcDbPolyline
 90
        2
 70
     0
 43
0.0
 10
293.5591738984209
 20
325.400695845607
 10
293.5465698847155
 20
325.3901925008525
  0
LWPOLYLINE
  5
11DF
330
18
100
AcDbEntity
  8
1
 48
0.04
100
AcDbPolyline
 90
        2
 70
     0
 43
0.0
 10
293.5419402550859
 20
325.658711019371
 10
293.5419402550859
 20
325.6054702786303
  0
LWPOLYLINE
  5
11E0
330
18
100
AcDbEntity
  8
1
 48
0.04
100
AcDbPolyline
 90
        3
 70
     0
 43
0.0
 10
293.5419402550859
 20
325.658711019371
 10
293.5465698847155
 20
325.6679702786303
 10
293.5581439587896
 20
325.6725999082599
  0
LWPOLYLINE
  5
11E1
330
18
100
AcDbEntity
  8
1
 48
0.04
100
AcDbPolyline
 90
        2
 70
     0
 43
0.0
 10
293.8382365513822
 20
325.6656554638154
 10
293.5581439587896
 20
325.6725999082599
  0
LWPOLYLINE
  5
11E2
330
18
100
AcDbEntity
  8
1
 48
0.04
100
AcDbPolyline
 90
        3
 70
     0
 43
0.0
 10
293.8382365513822
 20
325.6656554638154
 10
293.8498106254562
 20
325.6633406490006
 10
293.8544402550859
 20
325.6540813897414
  0
LWPOLYLINE
  5
11E3
330
18
100
AcDbEntity
  8
1
 48
0.04
100
AcDbPolyline
 90
        2
 70
     0
 43
0.0
 10
293.5674032180488
 20
325.5661184267784
 10
293.5674032180488
 20
325.4063962045562
  0
LWPOLYLINE
  5
11E4
102
{ACAD_REACTORS
330
13DD
102
}
330
18
100
AcDbEntity
  8
1
 48
0.04
100
AcDbPolyline
 90
        2
 70
     0
 43
0.0
 10
293.5674032180488
 20
325.5661184267784
 10
293.5419402550859
 20
325.658711019371
  0
LWPOLYLINE
  5
11E5
330
18
100
AcDbEntity
  8
1
 48
0.04
100
AcDbPolyline
 90
        2
 70
     0
 43
0.0
 10
293.5419402550859
 20
325.6054702786303
 10
293.5581439587896
 20
325.5290813897413
  0
LWPOLYLINE
  5
11E6
330
18
100
AcDbEntity
  8
1
 48
0.04
100
AcDbPolyline
 90
        2
 70
     0
 43
0.0
 10
293.5581439587896
 20
325.5290813897413
 10
293.5581439587896
 20
325.4388036119636
  0
LWPOLYLINE
  5
11E7
330
18
100
AcDbEntity
  8
1
 48
0.04
100
AcDbPolyline
 90
        2
 70
     0
 43
0.0
 10
293.5674032180488
 20
325.4063962045562
 10
293.5581439587896
 20
325.4388036119636
  0
LWPOLYLINE
  5
11E9
330
18
100
AcDbEntity
  8
1
 48
0.04
100
AcDbPolyline
 90
        2
 70
     0
 43
0.0
 10
293.5697180328637
 20
325.3253776860376
 10
293.5674032180488
 20
325.4063962045562
  0
LWPOLYLINE
  5
11EA
330
18
100
AcDbEntity
  8
1
 48
0.04
100
AcDbPolyline
 90
        2
 70
     0
 43
0.0
 10
293.5604587736044
 20
325.3531554638154
 10
293.5581439587896
 20
325.4388036119636
  0
LWPOLYLINE
  5
11EB
330
18
100
AcDbEntity
  8
1
 48
0.04
100
AcDbPolyline
 90
        2
 70
     0
 43
0.0
 10
293.5465698847155
 20
325.3901925008525
 10
293.5604587736044
 20
325.3531554638154
  0
LWPOLYLINE
  5
11EC
330
18
100
AcDbEntity
  8
1
 48
0.04
100
AcDbPolyline
 90
        2
 70
     0
 43
0.0
 10
293.8799032180488
 20
325.5554702786302
 10
293.8799032180488
 20
325.559173982334
  0
LWPOLYLINE
  5
11ED
330
18
100
AcDbEntity
  8
1
 48
0.04
100
AcDbPolyline
 90
        2
 70
     0
 43
0.0
 10
293.5581439587896
 20
325.6725999082599
 10
293.5836069217525
 20
325.5800073156673
  0
LWPOLYLINE
  5
11EE
330
18
100
AcDbEntity
  8
1
 48
0.04
100
AcDbPolyline
 90
        2
 70
     0
 43
0.0
 10
293.8636995143451
 20
325.5730628712229
 10
293.5836069217525
 20
325.5800073156673
  0
LWPOLYLINE
  5
11EF
330
18
100
AcDbEntity
  8
1
 48
0.04
100
AcDbPolyline
 90
        2
 70
     0
 43
0.0
 10
293.8636995143451
 20
325.5730628712229
 10
293.8382365513822
 20
325.6656554638154
  0
LWPOLYLINE
  5
11F0
330
18
100
AcDbEntity
  8
1
 48
0.04
100
AcDbPolyline
 90
        3
 70
     0
 43
0.0
 10
293.8799032180488
 20
325.559173982334
 10
293.8752735884192
 20
325.5684332415932
 10
293.8636995143451
 20
325.5730628712229
  0
LWPOLYLINE
  5
11F1
330
18
100
AcDbEntity
  8
1
 48
0.04
100
AcDbPolyline
 90
        3
 70
     0
 43
0.0
 10
293.5836069217525
 20
325.5800073156673
 10
293.5720328476784
 20
325.5753776860377
 10
293.5674032180488
 20
325.5661184267784
  0
LWPOLYLINE
  5
11F2
330
18
100
AcDbEntity
  8
1
 48
0.04
100
AcDbPolyline
 90
        2
 70
     0
 43
0.0
 10
293.7456439587896
 20
324.9295443527044
 10
294.0257365513822
 20
324.9457480564081
  0
LWPOLYLINE
  5
11F3
330
18
100
AcDbEntity
  8
1
 48
0.04
100
AcDbPolyline
 90
        3
 70
     0
 43
0.0
 10
294.0257365513822
 20
324.9457480564081
 10
294.0373106254562
 20
324.9434332415932
 10
294.0419402550859
 20
324.9388036119636
  0
LWPOLYLINE
  5
11F4
330
18
100
AcDbEntity
  8
1
 48
0.04
100
AcDbPolyline
 90
        2
 70
     0
 43
0.0
 10
294.0419402550859
 20
324.9388036119636
 10
294.0419402550859
 20
324.9133406490007
  0
LWPOLYLINE
  5
11F5
330
18
100
AcDbEntity
  8
1
 48
0.04
100
AcDbPolyline
 90
        2
 70
     0
 43
0.0
 10
294.0298788515771
 20
324.8088084852578
 10
294.039625440271
 20
324.8068591675191
  0
LWPOLYLINE
  5
11F6
330
18
100
AcDbEntity
  8
1
 48
0.04
100
AcDbPolyline
 90
        2
 70
     0
 43
0.0
 10
294.0373106254562
 20
324.7790813897414
 10
294.039625440271
 20
324.8068591675191
  0
LWPOLYLINE
  5
11F7
330
18
100
AcDbEntity
  8
1
 48
0.04
100
AcDbPolyline
 90
        3
 70
     0
 43
0.0
 10
293.7294402550859
 20
324.9225999082599
 10
293.7340698847155
 20
324.9272295378895
 10
293.7456439587896
 20
324.9295443527044
  0
LWPOLYLINE
  5
11F8
330
18
100
AcDbEntity
  8
1
 48
0.04
100
AcDbPolyline
 90
        2
 70
     0
 43
0.0
 10
294.0141624773081
 20
324.6425073156673
 10
294.0164772921229
 20
324.6818591675191
  0
LWPOLYLINE
  5
11F9
330
18
100
AcDbEntity
  8
1
 48
0.04
100
AcDbPolyline
 90
        2
 70
     0
 43
0.0
 10
294.039625440271
 20
324.8068591675191
 10
294.0234217365674
 20
324.7073221304821
  0
LWPOLYLINE
  5
11FA
330
18
100
AcDbEntity
  8
1
 48
0.04
100
AcDbPolyline
 90
        2
 70
     0
 43
0.0
 10
294.0234217365674
 20
324.7073221304821
 10
294.0257365513822
 20
324.7443591675191
  0
LWPOLYLINE
  5
11FB
330
18
100
AcDbEntity
  8
1
 48
0.04
100
AcDbPolyline
 90
        2
 70
     0
 43
0.0
 10
294.0164772921229
 20
324.6818591675191
 10
294.0257365513822
 20
324.7443591675191
  0
LWPOLYLINE
  5
11FC
330
18
100
AcDbEntity
  8
1
 48
0.04
100
AcDbPolyline
 90
        2
 70
     0
 43
0.0
 10
294.0419402550859
 20
324.9388036119636
 10
294.0187921069377
 20
324.7605628712229
  0
LWPOLYLINE
  5
11FD
330
18
100
AcDbEntity
  8
1
 48
0.04
100
AcDbPolyline
 90
        2
 70
     0
 43
0.0
 10
294.0187921069377
 20
324.7605628712229
 10
294.0164772921229
 20
324.6818591675191
  0
LWPOLYLINE
  5
11FE
330
18
100
AcDbEntity
  8
1
 48
0.04
100
AcDbPolyline
 90
        2
 70
     0
 43
0.0
 10
294.028051366197
 20
324.7929702786302
 10
294.0257365513822
 20
324.7443591675191
  0
LWPOLYLINE
  5
11FF
330
18
100
AcDbEntity
  8
1
 48
0.04
100
AcDbPolyline
 90
        2
 70
     0
 43
0.0
 10
294.0419402550859
 20
324.9133406490007
 10
294.028051366197
 20
324.7929702786302
  0
LWPOLYLINE
  5
1200
330
18
100
AcDbEntity
  8
1
 48
0.04
100
AcDbPolyline
 90
        2
 70
     0
 43
0.0
 10
293.7201809958266
 20
324.7513036119636
 10
294.002588403234
 20
324.7675073156673
  0
LWPOLYLINE
  5
1201
330
18
100
AcDbEntity
  8
1
 48
0.04
100
AcDbPolyline
 90
        2
 70
     0
 43
0.0
 10
294.002588403234
 20
324.7675073156673
 10
294.0257365513822
 20
324.9457480564081
  0
LWPOLYLINE
  5
1202
330
18
100
AcDbEntity
  8
1
 48
0.04
100
AcDbPolyline
 90
        2
 70
     0
 43
0.0
 10
293.7456439587896
 20
324.9295443527044
 10
293.7201809958266
 20
324.7513036119636
  0
LWPOLYLINE
  5
1203
330
18
100
AcDbEntity
  8
1
 48
0.04
100
AcDbPolyline
 90
        2
 70
     0
 43
0.0
 10
293.7039772921229
 20
324.7281554638154
 10
293.7039772921229
 20
324.7443591675191
  0
LWPOLYLINE
  5
1204
330
18
100
AcDbEntity
  8
1
 48
0.04
100
AcDbPolyline
 90
        3
 70
     0
 43
0.0
 10
294.0187921069377
 20
324.7605628712229
 10
294.0141624773081
 20
324.7651925008525
 10
294.002588403234
 20
324.7675073156673
  0
LWPOLYLINE
  5
1205
330
18
100
AcDbEntity
  8
1
 48
0.04
100
AcDbPolyline
 90
        3
 70
     0
 43
0.0
 10
293.7201809958266
 20
324.7513036119636
 10
293.7109217365673
 20
324.7489887971488
 10
293.7039772921229
 20
324.7443591675191
  0
LWPOLYLINE
  5
1206
330
18
100
AcDbEntity
  8
1
 48
0.04
100
AcDbPolyline
 90
        2
 70
     0
 43
0.0
 10
293.5697180328637
 20
322.7675073156673
 10
293.5650884032341
 20
322.7675073156673
  0
LWPOLYLINE
  5
1207
330
18
100
AcDbEntity
  8
1
 48
0.04
100
AcDbPolyline
 90
        3
 70
     0
 43
0.0
 10
293.5650884032341
 20
322.7675073156673
 10
293.55351432916
 20
322.7651925008525
 10
293.5488846995303
 20
322.758248056408
  0
LWPOLYLINE
  5
1208
330
18
100
AcDbEntity
  8
1
 48
0.04
100
AcDbPolyline
 90
        2
 70
     0
 43
0.0
 10
293.5488846995303
 20
322.758248056408
 10
293.5465698847155
 20
322.7327850934451
  0
LWPOLYLINE
  5
1209
330
18
100
AcDbEntity
  8
1
 48
0.04
100
AcDbPolyline
 90
        2
 70
     0
 43
0.0
 10
293.5697180328637
 20
322.7235258341858
 10
293.5465698847155
 20
322.7327850934451
  0
LWPOLYLINE
  5
120A
330
18
100
AcDbEntity
  8
1
 48
0.04
100
AcDbPolyline
 90
        2
 70
     0
 43
0.0
 10
293.5697180328637
 20
322.7235258341858
 10
293.5650884032341
 20
322.6378776860376
  0
LWPOLYLINE
  5
120B
330
18
100
AcDbEntity
  8
1
 48
0.04
100
AcDbPolyline
 90
        2
 70
     0
 43
0.0
 10
293.5650884032341
 20
322.6378776860376
 10
293.5419402550859
 20
322.6263036119636
  0
LWPOLYLINE
  5
120C
330
18
100
AcDbEntity
  8
1
 48
0.04
100
AcDbPolyline
 90
        2
 70
     0
 43
0.0
 10
293.5419402550859
 20
322.6008406490006
 10
293.5419402550859
 20
322.6263036119636
  0
LWPOLYLINE
  5
120D
330
18
100
AcDbEntity
  8
1
 48
0.04
100
AcDbPolyline
 90
        3
 70
     0
 43
0.0
 10
293.5419402550859
 20
322.6008406490006
 10
293.5465698847155
 20
322.596211019371
 10
293.5581439587896
 20
322.5938962045562
  0
LWPOLYLINE
  5
120E
330
18
100
AcDbEntity
  8
1
 48
0.04
100
AcDbPolyline
 90
        2
 70
     0
 43
0.0
 10
293.5697180328637
 20
322.5938962045562
 10
293.5581439587896
 20
322.5938962045562
  0
LWPOLYLINE
  5
120F
330
18
100
AcDbEntity
  8
1
 48
0.04
100
AcDbPolyline
 90
        2
 70
     0
 43
0.0
 10
293.5419402550859
 20
322.6263036119636
 10
293.5556533352547
 20
322.7291517132295
  0
LWPOLYLINE
  5
1210
330
18
100
AcDbEntity
  8
1
 48
0.04
100
AcDbPolyline
 90
        2
 70
     0
 43
0.0
 10
293.5697180328637
 20
322.8114887971488
 10
293.5650884032341
 20
322.7675073156673
  0
LWPOLYLINE
  5
1211
330
18
100
AcDbEntity
  8
1
 48
0.04
100
AcDbPolyline
 90
        2
 70
     0
 43
0.0
 10
293.5650884032341
 20
322.6378776860376
 10
293.5581439587896
 20
322.7281554638154
  0
LWPOLYLINE
  5
1212
330
18
100
AcDbEntity
  8
1
 48
0.04
100
AcDbPolyline
 90
        2
 70
     0
 43
0.0
 10
293.8451809958266
 20
323.8184332415932
 10
293.5650884032341
 20
323.8369517601118
  0
LWPOLYLINE
  5
1213
330
18
100
AcDbEntity
  8
1
 48
0.04
100
AcDbPolyline
 90
        2
 70
     0
 43
0.0
 10
293.5650884032341
 20
323.8369517601118
 10
293.5488846995303
 20
323.8369517601118
  0
LWPOLYLINE
  5
1214
330
18
100
AcDbEntity
  8
1
 48
0.04
100
AcDbPolyline
 90
        2
 70
     0
 43
0.0
 10
293.5488846995303
 20
323.8369517601118
 10
293.5465698847155
 20
323.8253776860377
  0
LWPOLYLINE
  5
1215
330
18
100
AcDbEntity
  8
1
 48
0.04
100
AcDbPolyline
 90
        2
 70
     0
 43
0.0
 10
293.5697180328637
 20
323.8207480564081
 10
293.5465698847155
 20
323.8253776860377
  0
LWPOLYLINE
  5
1216
330
18
100
AcDbEntity
  8
1
 48
0.04
100
AcDbPolyline
 90
        2
 70
     0
 43
0.0
 10
293.5697180328637
 20
323.8207480564081
 10
293.5650884032341
 20
323.7860258341858
  0
LWPOLYLINE
  5
1217
330
18
100
AcDbEntity
  8
1
 48
0.04
100
AcDbPolyline
 90
        2
 70
     0
 43
0.0
 10
293.5650884032341
 20
323.7860258341858
 10
293.5419402550859
 20
323.783711019371
  0
LWPOLYLINE
  5
1218
330
18
100
AcDbEntity
  8
1
 48
0.04
100
AcDbPolyline
 90
        2
 70
     0
 43
0.0
 10
293.5419402550859
 20
323.7744517601117
 10
293.5419402550859
 20
323.783711019371
  0
LWPOLYLINE
  5
1219
330
18
100
AcDbEntity
  8
1
 48
0.04
100
AcDbPolyline
 90
        3
 70
     0
 43
0.0
 10
293.5419402550859
 20
323.7744517601117
 10
293.5465698847155
 20
323.772136945297
 10
293.5581439587896
 20
323.7698221304821
  0
LWPOLYLINE
  5
121A
330
18
100
AcDbEntity
  8
1
 48
0.04
100
AcDbPolyline
 90
        2
 70
     0
 43
0.0
 10
293.8382365513822
 20
323.7489887971488
 10
293.5581439587896
 20
323.7698221304821
  0
LWPOLYLINE
  5
121B
330
18
100
AcDbEntity
  8
1
 48
0.04
100
AcDbPolyline
 90
        3
 70
     0
 43
0.0
 10
293.8382365513822
 20
323.7489887971488
 10
293.8498106254562
 20
323.7489887971488
 10
293.8544402550859
 20
323.7513036119636
  0
LWPOLYLINE
  5
121C
330
18
100
AcDbEntity
  8
1
 48
0.04
100
AcDbPolyline
 90
        2
 70
     0
 43
0.0
 10
293.8590698847155
 20
323.783711019371
 10
293.8544402550859
 20
323.7513036119636
  0
LWPOLYLINE
  5
121D
330
18
100
AcDbEntity
  8
1
 48
0.04
100
AcDbPolyline
 90
        2
 70
     0
 43
0.0
 10
293.8590698847155
 20
323.783711019371
 10
293.8613846995303
 20
323.8138036119636
  0
LWPOLYLINE
  5
121E
330
18
100
AcDbEntity
  8
1
 48
0.04
100
AcDbPolyline
 90
        3
 70
     0
 43
0.0
 10
293.8613846995303
 20
323.8138036119636
 10
293.8567550699007
 20
323.8161184267783
 10
293.8451809958266
 20
323.8184332415932
  0
LWPOLYLINE
  5
121F
330
18
100
AcDbEntity
  8
1
 48
0.04
100
AcDbPolyline
 90
       21
 70
     0
 43
0.0
 10
293.8220328476784
 20
323.7860258341858
 10
293.8174032180488
 20
323.7906554638154
 10
293.8058291439747
 20
323.795285093445
 10
293.7873106254562
 20
323.7999147230746
 10
293.7641624773081
 20
323.8045443527044
 10
293.7363846995303
 20
323.809173982334
 10
293.7086069217525
 20
323.8114887971488
 10
293.6808291439747
 20
323.8114887971488
 10
293.6553661810118
 20
323.809173982334
 10
293.6368476624933
 20
323.8068591675191
 10
293.6252735884192
 20
323.8045443527044
 10
293.6206439587896
 20
323.7999147230746
 10
293.6229587736043
 20
323.795285093445
 10
293.6345328476784
 20
323.7883406490007
 10
293.653051366197
 20
323.783711019371
 10
293.6785143291599
 20
323.7790813897413
 10
293.7340698847155
 20
323.7744517601117
 10
293.7849958106414
 20
323.7744517601117
 10
293.8058291439747
 20
323.7767665749266
 10
293.8174032180488
 20
323.7813962045562
 10
293.8220328476784
 20
323.7860258341858
  0
LWPOLYLINE
  5
1220
330
18
100
AcDbEntity
  8
1
 48
0.04
100
AcDbPolyline
 90
        2
 70
     0
 43
0.0
 10
293.5465698847155
 20
323.8253776860377
 10
293.5510977642433
 20
323.7846267702867
  0
LWPOLYLINE
  5
1221
330
18
100
AcDbEntity
  8
1
 48
0.04
100
AcDbPolyline
 90
        2
 70
     0
 43
0.0
 10
293.8706439587896
 20
323.7374147230747
 10
293.8613846995303
 20
323.8138036119636
  0
LWPOLYLINE
  5
1222
330
18
100
AcDbEntity
  8
1
 48
0.04
100
AcDbPolyline
 90
        2
 70
     0
 43
0.0
 10
293.8683291439748
 20
323.7142665749266
 10
293.8590698847155
 20
323.783711019371
  0
LWPOLYLINE
  5
1223
330
18
100
AcDbEntity
  8
1
 48
0.04
100
AcDbPolyline
 90
        2
 70
     0
 43
0.0
 10
293.8544402550859
 20
323.7513036119636
 10
293.8799032180488
 20
323.5545443527044
  0
LWPOLYLINE
  5
1224
330
18
100
AcDbEntity
  8
1
 48
0.04
100
AcDbPolyline
 90
        2
 70
     0
 43
0.0
 10
293.8822180328637
 20
323.5661184267784
 10
293.8799032180488
 20
323.5545443527044
  0
LWPOLYLINE
  5
1225
330
18
100
AcDbEntity
  8
1
 48
0.04
100
AcDbPolyline
 90
        2
 70
     0
 43
0.0
 10
293.8822180328637
 20
323.5661184267784
 10
293.8683291439748
 20
323.6888036119637
  0
LWPOLYLINE
  5
1226
330
18
100
AcDbEntity
  8
1
 48
0.04
100
AcDbPolyline
 90
        2
 70
     0
 43
0.0
 10
293.5581439587896
 20
323.7698221304821
 10
293.5836069217525
 20
323.5730628712229
  0
LWPOLYLINE
  5
1227
330
18
100
AcDbEntity
  8
1
 48
0.04
100
AcDbPolyline
 90
        2
 70
     0
 43
0.0
 10
293.8636995143451
 20
323.5545443527044
 10
293.5836069217525
 20
323.5730628712229
  0
LWPOLYLINE
  5
1228
330
18
100
AcDbEntity
  8
1
 48
0.04
100
AcDbPolyline
 90
        2
 70
     0
 43
0.0
 10
293.8636995143451
 20
323.5545443527044
 10
293.8382365513822
 20
323.7489887971488
  0
LWPOLYLINE
  5
1229
330
18
100
AcDbEntity
  8
1
 48
0.04
100
AcDbPolyline
 90
        2
 70
     0
 43
0.0
 10
293.8799032180488
 20
323.5545443527044
 10
293.8636995143451
 20
323.5545443527044
  0
LWPOLYLINE
  5
122A
330
18
100
AcDbEntity
  8
1
 48
0.04
100
AcDbPolyline
 90
        3
 70
     0
 43
0.0
 10
293.5836069217525
 20
323.5730628712229
 10
293.5720328476784
 20
323.5753776860377
 10
293.5674032180488
 20
323.5776925008525
  0
LWPOLYLINE
  5
122C
330
18
100
AcDbEntity
  8
1
 48
0.04
100
AcDbPolyline
 90
        2
 70
     0
 43
0.0
 10
293.7456439587896
 20
322.5776925008525
 10
294.0257365513822
 20
322.5938962045562
  0
LWPOLYLINE
  5
122D
330
18
100
AcDbEntity
  8
1
 48
0.04
100
AcDbPolyline
 90
        3
 70
     0
 43
0.0
 10
294.0257365513822
 20
322.5938962045562
 10
294.0373106254562
 20
322.5985258341858
 10
294.0419402550859
 20
322.6054702786303
  0
LWPOLYLINE
  5
122E
330
18
100
AcDbEntity
  8
1
 48
0.04
100
AcDbPolyline
 90
        2
 70
     0
 43
0.0
 10
294.0419402550859
 20
322.6054702786303
 10
294.0419402550859
 20
322.6494517601117
  0
LWPOLYLINE
  5
122F
330
18
100
AcDbEntity
  8
1
 48
0.04
100
AcDbPolyline
 90
        2
 70
     0
 43
0.0
 10
294.0187921069377
 20
322.6633406490007
 10
294.0419402550859
 20
322.6494517601117
  0
LWPOLYLINE
  5
1230
330
18
100
AcDbEntity
  8
1
 48
0.04
100
AcDbPolyline
 90
        2
 70
     0
 43
0.0
 10
294.0187921069377
 20
322.6633406490007
 10
294.0164772921229
 20
322.8068591675191
  0
LWPOLYLINE
  5
1231
330
18
100
AcDbEntity
  8
1
 48
0.04
100
AcDbPolyline
 90
        2
 70
     0
 43
0.0
 10
294.0164772921229
 20
322.8068591675191
 10
294.039625440271
 20
322.8253776860376
  0
LWPOLYLINE
  5
1232
330
18
100
AcDbEntity
  8
1
 48
0.04
100
AcDbPolyline
 90
        2
 70
     0
 43
0.0
 10
294.0373106254562
 20
322.8670443527044
 10
294.039625440271
 20
322.8253776860376
  0
LWPOLYLINE
  5
1233
330
18
100
AcDbEntity
  8
1
 48
0.04
100
AcDbPolyline
 90
        3
 70
     0
 43
0.0
 10
294.0373106254562
 20
322.8670443527044
 10
294.0326809958266
 20
322.8739887971488
 10
294.0211069217525
 20
322.8763036119636
  0
LWPOLYLINE
  5
1234
330
18
100
AcDbEntity
  8
1
 48
0.04
100
AcDbPolyline
 90
        2
 70
     0
 43
0.0
 10
293.74101432916
 20
322.8600999082599
 10
294.0211069217525
 20
322.8763036119636
  0
LWPOLYLINE
  5
1235
330
18
100
AcDbEntity
  8
1
 48
0.04
100
AcDbPolyline
 90
        3
 70
     0
 43
0.0
 10
293.74101432916
 20
322.8600999082599
 10
293.7294402550859
 20
322.857785093445
 10
293.7248106254562
 20
322.8485258341858
  0
LWPOLYLINE
  5
1236
330
18
100
AcDbEntity
  8
1
 48
0.04
100
AcDbPolyline
 90
        2
 70
     0
 43
0.0
 10
293.7248106254562
 20
322.7188962045562
 10
293.7248106254562
 20
322.8485258341858
  0
LWPOLYLINE
  5
1237
330
18
100
AcDbEntity
  8
1
 48
0.04
100
AcDbPolyline
 90
        2
 70
     0
 43
0.0
 10
293.7248106254562
 20
322.7188962045562
 10
293.7294402550859
 20
322.5869517601117
  0
LWPOLYLINE
  5
1238
330
18
100
AcDbEntity
  8
1
 48
0.04
100
AcDbPolyline
 90
        3
 70
     0
 43
0.0
 10
293.7294402550859
 20
322.5869517601117
 10
293.7340698847155
 20
322.5800073156673
 10
293.7456439587896
 20
322.5776925008525
  0
LWPOLYLINE
  5
1239
330
18
100
AcDbEntity
  8
1
 48
0.04
100
AcDbPolyline
 90
       23
 70
     0
 43
0.0
 10
293.7641624773081
 20
322.7258406490006
 10
293.7664772921229
 20
322.7050073156673
 10
293.7757365513822
 20
322.6864887971488
 10
293.7942550699006
 20
322.670285093445
 10
293.8174032180488
 20
322.6610258341858
 10
293.8428661810118
 20
322.6540813897413
 10
293.8729587736044
 20
322.6540813897413
 10
293.9007365513821
 20
322.6610258341858
 10
293.9238846995303
 20
322.670285093445
 10
293.9447180328636
 20
322.6864887971488
 10
293.9586069217525
 20
322.7050073156673
 10
293.9655513661969
 20
322.7258406490006
 10
293.9632365513822
 20
322.746673982334
 10
293.9516624773081
 20
322.7651925008525
 10
293.9354587736044
 20
322.7813962045562
 10
293.9123106254562
 20
322.7929702786302
 10
293.8845328476784
 20
322.7975999082599
 10
293.8567550699007
 20
322.7975999082599
 10
293.8289772921229
 20
322.7929702786302
 10
293.80351432916
 20
322.7813962045562
 10
293.7826809958266
 20
322.7651925008525
 10
293.7687921069377
 20
322.746673982334
 10
293.7641624773081
 20
322.7258406490006
  0
LWPOLYLINE
  5
123A
330
18
100
AcDbEntity
  8
1
 48
0.04
100
AcDbPolyline
 90
        2
 70
     0
 43
0.0
 10
294.039625440271
 20
322.8253776860376
 10
294.0234217365674
 20
322.7235258341858
  0
LWPOLYLINE
  5
123B
330
18
100
AcDbEntity
  8
1
 48
0.04
100
AcDbPolyline
 90
        2
 70
     0
 43
0.0
 10
294.0234217365674
 20
322.7235258341858
 10
294.0257196549237
 20
322.6591841202091
  0
LWPOLYLINE
  5
123C
330
18
100
AcDbEntity
  8
1
 48
0.04
100
AcDbPolyline
 90
        2
 70
     0
 43
0.0
 10
293.7201809958266
 20
322.4388036119636
 10
294.002588403234
 20
322.4550073156673
  0
LWPOLYLINE
  5
123D
330
18
100
AcDbEntity
  8
1
 48
0.04
100
AcDbPolyline
 90
        2
 70
     0
 43
0.0
 10
294.002588403234
 20
322.4550073156673
 10
294.0257365513822
 20
322.5938962045562
  0
LWPOLYLINE
  5
123E
330
18
100
AcDbEntity
  8
1
 48
0.04
100
AcDbPolyline
 90
        2
 70
     0
 43
0.0
 10
293.7456439587896
 20
322.5776925008525
 10
293.7201809958266
 20
322.4388036119636
  0
LWPOLYLINE
  5
1240
330
18
100
AcDbEntity
  8
1
 48
0.04
100
AcDbPolyline
 90
        2
 70
     0
 43
0.0
 10
293.7039772921229
 20
322.4503776860377
 10
293.7294402550859
 20
322.5869517601117
  0
LWPOLYLINE
  5
1244
330
18
100
AcDbEntity
  8
1
 48
0.04
100
AcDbPolyline
 90
        2
 70
     0
 43
0.0
 10
293.7248106254562
 20
322.8485258341858
 10
293.7088258907215
 20
322.759468026378
  0
LWPOLYLINE
  5
1247
330
18
100
AcDbEntity
  8
1
 48
0.04
100
AcDbPolyline
 90
        3
 70
     0
 43
0.0
 10
294.0187921069377
 20
322.4665813897413
 10
294.0118476624933
 20
322.4596369452968
 10
294.002588403234
 20
322.4550073156673
  0
LWPOLYLINE
  5
1248
330
18
100
AcDbEntity
  8
1
 48
0.04
100
AcDbPolyline
 90
        3
 70
     0
 43
0.0
 10
293.7201809958266
 20
322.4388036119636
 10
293.7109217365673
 20
322.4411184267784
 10
293.7039772921229
 20
322.4503776860377
  0
LWPOLYLINE
  5
124B
330
18
100
AcDbEntity
  8
1
 48
0.04
100
AcDbPolyline
 90
        2
 70
     0
 43
0.0
 10
293.7664772921229
 20
322.7235258341858
 10
293.7664772921229
 20
322.7073221304821
  0
LWPOLYLINE
  5
124C
330
18
100
AcDbEntity
  8
1
 48
0.04
100
AcDbPolyline
 90
       11
 70
     0
 43
0.0
 10
293.9632365513822
 20
322.7281554638154
 10
293.9586069217525
 20
322.7489887971488
 10
293.9447180328636
 20
322.7675073156673
 10
293.9238846995303
 20
322.7813962045562
 10
293.8961069217525
 20
322.7906554638154
 10
293.8683291439748
 20
322.7929702786302
 10
293.8382365513822
 20
322.7906554638154
 10
293.8104587736043
 20
322.7790813897414
 10
293.7873106254562
 20
322.7628776860377
 10
293.7734217365673
 20
322.7443591675191
 10
293.7664772921229
 20
322.7235258341858
  0
LWPOLYLINE
  5
1250
330
18
100
AcDbEntity
  8
1
 48
0.04
100
AcDbPolyline
 90
        2
 70
     0
 43
0.0
 10
294.0164772921229
 20
322.8068591675191
 10
294.0234217365674
 20
322.7235258341858
  0
LWPOLYLINE
  5
1251
330
18
100
AcDbEntity
  8
1
 48
0.04
100
AcDbPolyline
 90
        2
 70
     0
 43
0.0
 10
293.5697180328637
 20
324.6633406490007
 10
293.5650884032341
 20
324.6633406490007
  0
LWPOLYLINE
  5
1252
330
18
100
AcDbEntity
  8
1
 48
0.04
100
AcDbPolyline
 90
        3
 70
     0
 43
0.0
 10
293.5650884032341
 20
324.6633406490007
 10
293.55351432916
 20
324.6656554638154
 10
293.5488846995303
 20
324.6725999082599
  0
LWPOLYLINE
  5
1253
330
18
100
AcDbEntity
  8
1
 48
0.04
100
AcDbPolyline
 90
        2
 70
     0
 43
0.0
 10
293.5488846995303
 20
324.6725999082599
 10
293.5465698847155
 20
324.7142665749266
  0
LWPOLYLINE
  5
1254
330
18
100
AcDbEntity
  8
1
 48
0.04
100
AcDbPolyline
 90
        2
 70
     0
 43
0.0
 10
293.5581439587896
 20
324.8809332415932
 10
293.5419402550859
 20
324.8901925008525
  0
LWPOLYLINE
  5
1255
330
18
100
AcDbEntity
  8
1
 48
0.04
100
AcDbPolyline
 90
        2
 70
     0
 43
0.0
 10
293.5419402550859
 20
324.934173982334
 10
293.5419402550859
 20
324.8901925008525
  0
LWPOLYLINE
  5
1256
330
18
100
AcDbEntity
  8
1
 48
0.04
100
AcDbPolyline
 90
        2
 70
     0
 43
0.0
 10
293.5674032180488
 20
325.070748056408
 10
293.5674032180488
 20
324.9411184267783
  0
LWPOLYLINE
  5
1257
330
18
100
AcDbEntity
  8
1
 48
0.04
100
AcDbPolyline
 90
        2
 70
     0
 43
0.0
 10
293.5674032180488
 20
325.070748056408
 10
293.5419402550859
 20
324.934173982334
  0
LWPOLYLINE
  5
1258
330
18
100
AcDbEntity
  8
1
 48
0.04
100
AcDbPolyline
 90
        2
 70
     0
 43
0.0
 10
293.5419402550859
 20
324.8901925008525
 10
293.5581439587896
 20
324.9596369452969
  0
LWPOLYLINE
  5
1259
330
18
100
AcDbEntity
  8
1
 48
0.04
100
AcDbPolyline
 90
        2
 70
     0
 43
0.0
 10
293.5581439587896
 20
324.9596369452969
 10
293.5581439587896
 20
324.8925073156673
  0
LWPOLYLINE
  5
125A
330
18
100
AcDbEntity
  8
1
 48
0.04
100
AcDbPolyline
 90
        2
 70
     0
 43
0.0
 10
293.5674032180488
 20
324.9411184267783
 10
293.5581439587896
 20
324.8925073156673
  0
LWPOLYLINE
  5
125B
330
18
100
AcDbEntity
  8
1
 48
0.04
100
AcDbPolyline
 90
        2
 70
     0
 43
0.0
 10
293.5488846995303
 20
324.6725999082599
 10
293.5697180328637
 20
324.7975999082599
  0
LWPOLYLINE
  5
125C
330
18
100
AcDbEntity
  8
1
 48
0.04
100
AcDbPolyline
 90
        2
 70
     0
 43
0.0
 10
293.5697180328637
 20
324.8763036119636
 10
293.5674032180488
 20
324.9411184267783
  0
LWPOLYLINE
  5
125D
330
18
100
AcDbEntity
  8
1
 48
0.04
100
AcDbPolyline
 90
        2
 70
     0
 43
0.0
 10
293.5604587736044
 20
324.8161184267784
 10
293.5581439587896
 20
324.8925073156673
  0
LWPOLYLINE
  5
125E
330
18
100
AcDbEntity
  8
1
 48
0.04
100
AcDbPolyline
 90
        2
 70
     0
 43
0.0
 10
293.5465698847155
 20
324.7142665749266
 10
293.5604587736044
 20
324.8161184267784
  0
LWPOLYLINE
  5
125F
330
18
100
AcDbEntity
  8
1
 48
0.04
100
AcDbPolyline
 90
        2
 70
     0
 43
0.0
 10
293.5697180328637
 20
324.6957480564081
 10
293.5650884032341
 20
324.6633406490007
  0
LWPOLYLINE
  5
1260
330
18
100
AcDbEntity
  8
1
 48
0.04
100
AcDbPolyline
 90
        2
 70
     0
 43
0.0
 10
293.5697180328637
 20
325.0776925008525
 10
293.5674032180488
 20
325.070748056408
  0
LWPOLYLINE
  5
1261
330
18
100
AcDbEntity
  8
1
 48
0.04
100
AcDbPolyline
 90
        2
 70
     0
 43
0.0
 10
293.8451809958266
 20
322.2513036119636
 10
293.5650884032341
 20
322.2582480564081
  0
LWPOLYLINE
  5
1262
330
18
100
AcDbEntity
  8
1
 48
0.04
100
AcDbPolyline
 90
        3
 70
     0
 43
0.0
 10
293.5650884032341
 20
322.2582480564081
 10
293.55351432916
 20
322.2536184267783
 10
293.5488846995303
 20
322.2420443527044
  0
LWPOLYLINE
  5
1263
330
18
100
AcDbEntity
  8
1
 48
0.04
100
AcDbPolyline
 90
        2
 70
     0
 43
0.0
 10
293.5488846995303
 20
322.2420443527044
 10
293.5465698847155
 20
322.184173982334
  0
LWPOLYLINE
  5
1264
330
18
100
AcDbEntity
  8
1
 48
0.04
100
AcDbPolyline
 90
        2
 70
     0
 43
0.0
 10
293.5697180328637
 20
322.1610258341858
 10
293.5465698847155
 20
322.184173982334
  0
LWPOLYLINE
  5
1265
330
18
100
AcDbEntity
  8
1
 48
0.04
100
AcDbPolyline
 90
        2
 70
     0
 43
0.0
 10
293.5697180328637
 20
322.1610258341858
 10
293.5650884032341
 20
321.9642665749266
  0
LWPOLYLINE
  5
1266
330
18
100
AcDbEntity
  8
1
 48
0.04
100
AcDbPolyline
 90
        2
 70
     0
 43
0.0
 10
293.5650884032341
 20
321.9642665749266
 10
293.5419402550859
 20
321.9411184267784
  0
LWPOLYLINE
  5
1267
330
18
100
AcDbEntity
  8
1
 48
0.04
100
AcDbPolyline
 90
        2
 70
     0
 43
0.0
 10
293.5419402550859
 20
321.883248056408
 10
293.5419402550859
 20
321.9411184267784
  0
LWPOLYLINE
  5
1268
330
18
100
AcDbEntity
  8
1
 48
0.04
100
AcDbPolyline
 90
        3
 70
     0
 43
0.0
 10
293.5419402550859
 20
321.883248056408
 10
293.5465698847155
 20
321.871673982334
 10
293.5581439587896
 20
321.8670443527043
  0
LWPOLYLINE
  5
1269
330
18
100
AcDbEntity
  8
1
 48
0.04
100
AcDbPolyline
 90
        2
 70
     0
 43
0.0
 10
293.8382365513822
 20
321.8600999082599
 10
293.5581439587896
 20
321.8670443527043
  0
LWPOLYLINE
  5
126A
330
18
100
AcDbEntity
  8
1
 48
0.04
100
AcDbPolyline
 90
        3
 70
     0
 43
0.0
 10
293.8382365513822
 20
321.8600999082599
 10
293.8498106254562
 20
321.8647295378895
 10
293.8544402550859
 20
321.8763036119636
  0
LWPOLYLINE
  5
126B
330
18
100
AcDbEntity
  8
1
 48
0.04
100
AcDbPolyline
 90
        2
 70
     0
 43
0.0
 10
293.8590698847155
 20
322.0545443527043
 10
293.8544402550859
 20
321.8763036119636
  0
LWPOLYLINE
  5
126C
330
18
100
AcDbEntity
  8
1
 48
0.04
100
AcDbPolyline
 90
        2
 70
     0
 43
0.0
 10
293.8590698847155
 20
322.0545443527043
 10
293.8613846995303
 20
322.2350999082599
  0
LWPOLYLINE
  5
126D
330
18
100
AcDbEntity
  8
1
 48
0.04
100
AcDbPolyline
 90
        3
 70
     0
 43
0.0
 10
293.8613846995303
 20
322.2350999082599
 10
293.8567550699007
 20
322.246673982334
 10
293.8451809958266
 20
322.2513036119636
  0
LWPOLYLINE
  5
126E
330
18
100
AcDbEntity
  8
1
 48
0.04
100
AcDbPolyline
 90
       22
 70
     0
 43
0.0
 10
293.7363846995303
 20
321.9596369452968
 10
293.7641624773081
 20
321.9665813897413
 10
293.7873106254562
 20
321.982785093445
 10
293.8058291439747
 20
322.0036184267784
 10
293.8174032180488
 20
322.0313962045562
 10
293.8220328476784
 20
322.059173982334
 10
293.8174032180488
 20
322.0869517601117
 10
293.8058291439747
 20
322.1124147230747
 10
293.7849958106414
 20
322.133248056408
 10
293.7618476624933
 20
322.1494517601117
 10
293.7340698847155
 20
322.1563962045562
 10
293.7062921069377
 20
322.1563962045562
 10
293.6785143291599
 20
322.1494517601117
 10
293.653051366197
 20
322.133248056408
 10
293.6345328476784
 20
322.1124147230747
 10
293.6229587736043
 20
322.0869517601117
 10
293.6206439587896
 20
322.059173982334
 10
293.6252735884192
 20
322.0313962045562
 10
293.6368476624933
 20
322.0036184267784
 10
293.6553661810118
 20
321.982785093445
 10
293.6808291439747
 20
321.9665813897413
 10
293.7062921069377
 20
321.9596369452968
  0
LWPOLYLINE
  5
126F
330
18
100
AcDbEntity
  8
1
 48
0.04
100
AcDbPolyline
 90
        2
 70
     0
 43
0.0
 10
293.5581439587896
 20
321.9573221304821
 10
293.5581439587896
 20
322.045285093445
  0
LWPOLYLINE
  5
1270
330
18
100
AcDbEntity
  8
1
 48
0.04
100
AcDbPolyline
 90
        2
 70
     0
 43
0.0
 10
293.5604587736044
 20
322.1425073156674
 10
293.5581439587896
 20
322.045285093445
  0
LWPOLYLINE
  5
1271
330
18
100
AcDbEntity
  8
1
 48
0.04
100
AcDbPolyline
 90
        2
 70
     0
 43
0.0
 10
293.5465698847155
 20
322.184173982334
 10
293.5604587736044
 20
322.1425073156674
  0
LWPOLYLINE
  5
1273
330
18
100
AcDbEntity
  8
1
 48
0.04
100
AcDbPolyline
 90
        2
 70
     0
 43
0.0
 10
293.8683291439748
 20
322.045285093445
 10
293.8590698847155
 20
322.0545443527043
  0
LWPOLYLINE
  5
1274
330
18
100
AcDbEntity
  8
1
 48
0.04
100
AcDbPolyline
 90
        2
 70
     0
 43
0.0
 10
293.8706439587896
 20
322.1425073156674
 10
293.8683291439748
 20
322.045285093445
  0
LWPOLYLINE
  5
1275
330
18
100
AcDbEntity
  8
1
 48
0.04
100
AcDbPolyline
 90
        2
 70
     0
 43
0.0
 10
293.877588403234
 20
322.1448221304821
 10
293.8706439587896
 20
322.1425073156674
  0
LWPOLYLINE
  5
1276
330
18
100
AcDbEntity
  8
1
 48
0.04
100
AcDbPolyline
 90
        2
 70
     0
 43
0.0
 10
293.8544402550859
 20
321.8763036119636
 10
293.8799032180488
 20
321.8485258341858
  0
LWPOLYLINE
  5
1277
330
18
100
AcDbEntity
  8
1
 48
0.04
100
AcDbPolyline
 90
        2
 70
     0
 43
0.0
 10
293.8799032180488
 20
321.8757249082599
 10
293.8799032180488
 20
321.8485258341858
  0
LWPOLYLINE
  5
1278
330
18
100
AcDbEntity
  8
1
 48
0.04
100
AcDbPolyline
 90
        2
 70
     0
 43
0.0
 10
293.8740848997305
 20
321.9227250333851
 10
293.8683291439748
 20
321.945748056408
  0
LWPOLYLINE
  5
1279
330
18
100
AcDbEntity
  8
1
 48
0.04
100
AcDbPolyline
 90
        2
 70
     0
 43
0.0
 10
293.8683291439748
 20
321.945748056408
 10
293.8683291439748
 20
322.045285093445
  0
LWPOLYLINE
  5
127A
330
18
100
AcDbEntity
  8
1
 48
0.04
100
AcDbPolyline
 90
        2
 70
     0
 43
0.0
 10
293.5581439587896
 20
321.8670443527043
 10
293.5836069217525
 20
321.8392665749266
  0
LWPOLYLINE
  5
127B
330
18
100
AcDbEntity
  8
1
 48
0.04
100
AcDbPolyline
 90
        2
 70
     0
 43
0.0
 10
293.8636995143451
 20
321.8323221304821
 10
293.5836069217525
 20
321.8392665749266
  0
LWPOLYLINE
  5
127C
330
18
100
AcDbEntity
  8
1
 48
0.04
100
AcDbPolyline
 90
        2
 70
     0
 43
0.0
 10
293.8636995143451
 20
321.8323221304821
 10
293.8382365513822
 20
321.8600999082599
  0
LWPOLYLINE
  5
127E
330
18
100
AcDbEntity
  8
1
 48
0.04
100
AcDbPolyline
 90
        3
 70
     0
 43
0.0
 10
293.8799032180488
 20
321.8485258341858
 10
293.8752735884192
 20
321.8369517601118
 10
293.8636995143451
 20
321.8323221304821
  0
LWPOLYLINE
  5
127F
330
18
100
AcDbEntity
  8
1
 48
0.04
100
AcDbPolyline
 90
        2
 70
     0
 43
0.0
 10
293.5836069217525
 20
321.8392665749266
 10
293.5720328476784
 20
321.8438962045562
  0
LWPOLYLINE
  5
1285
330
18
100
AcDbEntity
  8
1
 48
0.04
100
AcDbPolyline
 90
        2
 70
     0
 43
0.0
 10
293.5697180328637
 20
322.1610258341858
 10
293.5604587736044
 20
322.1425073156674
  0
LWPOLYLINE
  5
1286
330
18
100
AcDbEntity
  8
1
 48
0.04
100
AcDbPolyline
 90
        2
 70
     0
 43
0.0
 10
294.039625440271
 20
325.6656554638154
 10
294.0419402550859
 20
325.6563962045562
  0
LWPOLYLINE
  5
1287
330
18
100
AcDbEntity
  8
1
 48
0.04
100
AcDbPolyline
 90
        2
 70
     0
 43
0.0
 10
294.0419402550859
 20
325.6563962045562
 10
294.0419402550859
 20
325.5985258341858
  0
LWPOLYLINE
  5
1288
330
18
100
AcDbEntity
  8
1
 48
0.04
100
AcDbPolyline
 90
        2
 70
     0
 43
0.0
 10
294.028051366197
 20
325.5823221304821
 10
294.0419402550859
 20
325.5985258341858
  0
LWPOLYLINE
  5
1289
330
18
100
AcDbEntity
  8
1
 48
0.04
100
AcDbPolyline
 90
        2
 70
     0
 43
0.0
 10
294.0373106254562
 20
325.2975999082599
 10
294.039625440271
 20
325.3554702786303
  0
LWPOLYLINE
  5
128A
330
18
100
AcDbEntity
  8
1
 48
0.04
100
AcDbPolyline
 90
        3
 70
     0
 43
0.0
 10
294.0373106254562
 20
325.2975999082599
 10
294.0326809958266
 20
325.2860258341858
 10
294.0211069217525
 20
325.2813962045562
  0
LWPOLYLINE
  5
128B
330
18
100
AcDbEntity
  8
1
 48
0.04
100
AcDbPolyline
 90
        2
 70
     0
 43
0.0
 10
294.0141624773081
 20
325.2813962045562
 10
294.0211069217525
 20
325.2813962045562
  0
LWPOLYLINE
  5
128C
330
18
100
AcDbEntity
  8
1
 48
0.04
100
AcDbPolyline
 90
        2
 70
     0
 43
0.0
 10
294.0141624773081
 20
325.4156554638154
 10
294.0164772921229
 20
325.5036184267784
  0
LWPOLYLINE
  5
128D
330
18
100
AcDbEntity
  8
1
 48
0.04
100
AcDbPolyline
 90
        2
 70
     0
 43
0.0
 10
294.0141624773081
 20
325.3230628712229
 10
294.0373106254562
 20
325.2975999082599
  0
LWPOLYLINE
  5
128E
330
18
100
AcDbEntity
  8
1
 48
0.04
100
AcDbPolyline
 90
        2
 70
     0
 43
0.0
 10
294.039625440271
 20
325.3554702786303
 10
294.0234217365674
 20
325.3948221304821
  0
LWPOLYLINE
  5
128F
330
18
100
AcDbEntity
  8
1
 48
0.04
100
AcDbPolyline
 90
        2
 70
     0
 43
0.0
 10
294.0234217365674
 20
325.3948221304821
 10
294.0257365513822
 20
325.4943591675191
  0
LWPOLYLINE
  5
1290
330
18
100
AcDbEntity
  8
1
 48
0.04
100
AcDbPolyline
 90
        2
 70
     0
 43
0.0
 10
294.0164772921229
 20
325.5036184267784
 10
294.0257365513822
 20
325.4943591675191
  0
LWPOLYLINE
  5
1291
102
{ACAD_REACTORS
330
13DD
102
}
330
18
100
AcDbEntity
  8
1
 48
0.04
100
AcDbPolyline
 90
        2
 70
     0
 43
0.0
 10
294.0419402550859
 20
325.6563962045562
 10
294.0187921069377
 20
325.684173982334
  0
LWPOLYLINE
  5
1292
330
18
100
AcDbEntity
  8
1
 48
0.04
100
AcDbPolyline
 90
        2
 70
     0
 43
0.0
 10
294.0187921069377
 20
325.684173982334
 10
294.0164772921229
 20
325.5036184267784
  0
LWPOLYLINE
  5
1293
330
18
100
AcDbEntity
  8
1
 48
0.04
100
AcDbPolyline
 90
        2
 70
     0
 43
0.0
 10
294.028051366197
 20
325.5915813897413
 10
294.0257365513822
 20
325.4943591675191
  0
LWPOLYLINE
  5
1294
330
18
100
AcDbEntity
  8
1
 48
0.04
100
AcDbPolyline
 90
        2
 70
     0
 43
0.0
 10
294.0419402550859
 20
325.5985258341858
 10
294.028051366197
 20
325.5915813897413
  0
LWPOLYLINE
  5
1295
330
18
100
AcDbEntity
  8
1
 48
0.04
100
AcDbPolyline
 90
        2
 70
     0
 43
0.0
 10
294.0211069217525
 20
325.2813962045562
 10
294.0141624773081
 20
325.2883406490007
  0
LWPOLYLINE
  5
1296
330
18
100
AcDbEntity
  8
1
 48
0.04
100
AcDbPolyline
 90
        3
 70
     0
 43
0.0
 10
294.0187921069377
 20
325.684173982334
 10
294.0164772921229
 20
325.6934332415932
 10
294.0049032180487
 20
325.701149290976
  0
LWPOLYLINE
  5
1298
330
18
100
AcDbEntity
  8
1
 48
0.04
100
AcDbPolyline
 90
       21
 70
     0
 43
0.0
 10
293.9470328476783
 20
322.721211019371
 10
293.9424032180488
 20
322.7026925008525
 10
293.9285143291599
 20
322.6864887971488
 10
293.9076809958266
 20
322.6725999082599
 10
293.8845328476784
 20
322.6656554638154
 10
293.8590698847155
 20
322.6633406490007
 10
293.8336069217525
 20
322.6656554638154
 10
293.8127735884192
 20
322.6725999082599
 10
293.7942550699006
 20
322.6864887971488
 10
293.7849958106414
 20
322.7026925008525
 10
293.7826809958266
 20
322.721211019371
 10
293.7873106254562
 20
322.7397295378895
 10
293.8011995143451
 20
322.7559332415932
 10
293.8197180328637
 20
322.7698221304821
 10
293.8451809958266
 20
322.7790813897414
 10
293.8706439587896
 20
322.7813962045562
 10
293.8961069217525
 20
322.7790813897414
 10
293.9169402550859
 20
322.7698221304821
 10
293.9354587736044
 20
322.7559332415932
 10
293.9447180328636
 20
322.7397295378895
 10
293.9470328476783
 20
322.721211019371
  0
LWPOLYLINE
  5
1299
330
18
100
AcDbEntity
  8
1
 48
0.04
100
AcDbPolyline
 90
        3
 70
     0
 43
0.0
 10
293.8428661810118
 20
322.6957480564081
 10
293.8428661810118
 20
322.6980628712229
 10
293.8544402550859
 20
322.6980628712229
  0
LWPOLYLINE
  5
129A
330
18
100
AcDbEntity
  8
1
 48
0.04
100
AcDbPolyline
 90
        2
 70
     0
 43
0.0
 10
293.8428661810118
 20
322.6957480564081
 10
293.8382365513822
 20
322.6957480564081
  0
LWPOLYLINE
  5
129B
330
18
100
AcDbEntity
  8
1
 48
0.04
100
AcDbPolyline
 90
        3
 70
     0
 43
0.0
 10
293.8382365513822
 20
322.6957480564081
 10
293.8289772921229
 20
322.6980628712229
 10
293.8243476624933
 20
322.7026925008525
  0
LWPOLYLINE
  5
129C
330
18
100
AcDbEntity
  8
1
 48
0.04
100
AcDbPolyline
 90
        3
 70
     0
 43
0.0
 10
293.8243476624933
 20
322.7026925008525
 10
293.8243476624933
 20
322.7050073156673
 10
293.8266624773081
 20
322.7073221304821
  0
LWPOLYLINE
  5
129D
330
18
100
AcDbEntity
  8
1
 48
0.04
100
AcDbPolyline
 90
        2
 70
     0
 43
0.0
 10
293.8220328476784
 20
322.7235258341858
 10
293.8266624773081
 20
322.7165813897414
  0
LWPOLYLINE
  5
129E
330
18
100
AcDbEntity
  8
1
 48
0.04
100
AcDbPolyline
 90
        3
 70
     0
 43
0.0
 10
293.8220328476784
 20
322.7235258341858
 10
293.8174032180488
 20
322.7235258341858
 10
293.815088403234
 20
322.7258406490006
  0
LWPOLYLINE
  5
129F
330
18
100
AcDbEntity
  8
1
 48
0.04
100
AcDbPolyline
 90
        3
 70
     0
 43
0.0
 10
293.815088403234
 20
322.7258406490006
 10
293.815088403234
 20
322.7327850934451
 10
293.8197180328637
 20
322.7397295378895
  0
LWPOLYLINE
  5
12A0
330
18
100
AcDbEntity
  8
1
 48
0.04
100
AcDbPolyline
 90
        3
 70
     0
 43
0.0
 10
293.840551366197
 20
322.7513036119636
 10
293.8359217365674
 20
322.7443591675191
 10
293.8266624773081
 20
322.7397295378895
  0
LWPOLYLINE
  5
12A1
330
18
100
AcDbEntity
  8
1
 48
0.04
100
AcDbPolyline
 90
        3
 70
     0
 43
0.0
 10
293.840551366197
 20
322.7559332415932
 10
293.8498106254562
 20
322.7605628712229
 10
293.8613846995303
 20
322.7605628712229
  0
LWPOLYLINE
  5
12A2
330
18
100
AcDbEntity
  8
1
 48
0.04
100
AcDbPolyline
 90
        2
 70
     0
 43
0.0
 10
293.8613846995303
 20
322.7605628712229
 10
293.8636995143451
 20
322.758248056408
  0
LWPOLYLINE
  5
12A3
330
18
100
AcDbEntity
  8
1
 48
0.04
100
AcDbPolyline
 90
        2
 70
     0
 43
0.0
 10
293.8636995143451
 20
322.7559332415932
 10
293.8636995143451
 20
322.758248056408
  0
LWPOLYLINE
  5
12A4
330
18
100
AcDbEntity
  8
1
 48
0.04
100
AcDbPolyline
 90
        3
 70
     0
 43
0.0
 10
293.8822180328637
 20
322.7536184267784
 10
293.8729587736044
 20
322.7536184267784
 10
293.8636995143451
 20
322.7559332415932
  0
LWPOLYLINE
  5
12A5
330
18
100
AcDbEntity
  8
1
 48
0.04
100
AcDbPolyline
 90
        3
 70
     0
 43
0.0
 10
293.8868476624933
 20
322.7559332415932
 10
293.8845328476784
 20
322.7559332415932
 10
293.8822180328637
 20
322.7536184267784
  0
LWPOLYLINE
  5
12A6
330
18
100
AcDbEntity
  8
1
 48
0.04
100
AcDbPolyline
 90
        3
 70
     0
 43
0.0
 10
293.8868476624933
 20
322.7559332415932
 10
293.8868476624933
 20
322.758248056408
 10
293.8914772921229
 20
322.758248056408
  0
LWPOLYLINE
  5
12A7
330
18
100
AcDbEntity
  8
1
 48
0.04
100
AcDbPolyline
 90
        2
 70
     0
 43
0.0
 10
293.8914772921229
 20
322.758248056408
 10
293.9053661810118
 20
322.7489887971488
  0
LWPOLYLINE
  5
12A8
330
18
100
AcDbEntity
  8
1
 48
0.04
100
AcDbPolyline
 90
        2
 70
     0
 43
0.0
 10
293.9053661810118
 20
322.746673982334
 10
293.903051366197
 20
322.7443591675191
  0
LWPOLYLINE
  5
12A9
330
18
100
AcDbEntity
  8
1
 48
0.04
100
AcDbPolyline
 90
        2
 70
     0
 43
0.0
 10
293.9007365513821
 20
322.7443591675191
 10
293.903051366197
 20
322.7443591675191
  0
LWPOLYLINE
  5
12AA
330
18
100
AcDbEntity
  8
1
 48
0.04
100
AcDbPolyline
 90
        3
 70
     0
 43
0.0
 10
293.9076809958266
 20
322.7304702786303
 10
293.9007365513821
 20
322.7350999082599
 10
293.9007365513821
 20
322.7443591675191
  0
LWPOLYLINE
  5
12AB
330
18
100
AcDbEntity
  8
1
 48
0.04
100
AcDbPolyline
 90
        2
 70
     0
 43
0.0
 10
293.9099958106414
 20
322.7281554638154
 10
293.9076809958266
 20
322.7304702786303
  0
LWPOLYLINE
  5
12AC
330
18
100
AcDbEntity
  8
1
 48
0.04
100
AcDbPolyline
 90
        2
 70
     0
 43
0.0
 10
293.9099958106414
 20
322.7281554638154
 10
293.9146254402711
 20
322.7281554638154
  0
LWPOLYLINE
  5
12AD
330
18
100
AcDbEntity
  8
1
 48
0.04
100
AcDbPolyline
 90
        2
 70
     0
 43
0.0
 10
293.9146254402711
 20
322.7281554638154
 10
293.9146254402711
 20
322.7188962045562
  0
LWPOLYLINE
  5
12AF
330
18
100
AcDbEntity
  8
1
 48
0.04
100
AcDbPolyline
 90
        2
 70
     0
 43
0.0
 10
293.9007365513821
 20
322.7119517601118
 10
293.9076809958266
 20
322.7119517601118
  0
LWPOLYLINE
  5
12B0
330
18
100
AcDbEntity
  8
1
 48
0.04
100
AcDbPolyline
 90
        3
 70
     0
 43
0.0
 10
293.8868476624933
 20
322.7026925008525
 10
293.8914772921229
 20
322.7073221304821
 10
293.9007365513821
 20
322.7119517601118
  0
LWPOLYLINE
  5
12B1
330
18
100
AcDbEntity
  8
1
 48
0.04
100
AcDbPolyline
 90
        2
 70
     0
 43
0.0
 10
293.8891624773081
 20
322.7003776860377
 10
293.8868476624933
 20
322.7003776860377
  0
LWPOLYLINE
  5
12B2
330
18
100
AcDbEntity
  8
1
 48
0.04
100
AcDbPolyline
 90
        2
 70
     0
 43
0.0
 10
293.8891624773081
 20
322.6980628712229
 10
293.8868476624933
 20
322.6957480564081
  0
LWPOLYLINE
  5
12B3
330
18
100
AcDbEntity
  8
1
 48
0.04
100
AcDbPolyline
 90
        2
 70
     0
 43
0.0
 10
293.8868476624933
 20
322.6957480564081
 10
293.877588403234
 20
322.6911184267784
  0
LWPOLYLINE
  5
12B4
330
18
100
AcDbEntity
  8
1
 48
0.04
100
AcDbPolyline
 90
        3
 70
     0
 43
0.0
 10
293.877588403234
 20
322.6911184267784
 10
293.8660143291599
 20
322.6911184267784
 10
293.8660143291599
 20
322.6957480564081
  0
LWPOLYLINE
  5
12B5
330
18
100
AcDbEntity
  8
1
 48
0.04
100
AcDbPolyline
 90
        2
 70
     0
 43
0.0
 10
293.8636995143451
 20
322.6957480564081
 10
293.8660143291599
 20
322.6957480564081
  0
LWPOLYLINE
  5
12B6
330
18
100
AcDbEntity
  8
1
 48
0.04
100
AcDbPolyline
 90
        2
 70
     0
 43
0.0
 10
293.8544402550859
 20
322.6980628712229
 10
293.8636995143451
 20
322.6957480564081
  0
LWPOLYLINE
  5
12B7
330
18
100
AcDbEntity
  8
1
 48
0.04
100
AcDbPolyline
 90
       18
 70
     0
 43
0.0
 10
293.9238846995303
 20
322.7258406490006
 10
293.9169402550859
 20
322.7119517601118
 10
293.9053661810118
 20
322.6980628712229
 10
293.8868476624933
 20
322.6888036119636
 10
293.8660143291599
 20
322.684173982334
 10
293.8451809958266
 20
322.684173982334
 10
293.8266624773081
 20
322.6911184267784
 10
293.8127735884192
 20
322.7026925008525
 10
293.8058291439747
 20
322.7188962045562
 10
293.8081439587896
 20
322.7350999082599
 10
293.8174032180488
 20
322.7489887971488
 10
293.8312921069377
 20
322.7605628712229
 10
293.8521254402711
 20
322.7675073156673
 10
293.8729587736044
 20
322.7675073156673
 10
293.8937921069377
 20
322.7651925008525
 10
293.9099958106414
 20
322.7559332415932
 10
293.9215698847155
 20
322.7420443527043
 10
293.9238846995303
 20
322.7258406490006
  0
LWPOLYLINE
  5
12B9
330
18
100
AcDbEntity
  8
1
 48
0.04
100
AcDbPolyline
 90
        2
 70
     0
 43
0.0
 10
293.8266624773081
 20
322.7073221304821
 10
293.8266624773081
 20
322.7165813897414
  0
LWPOLYLINE
  5
12BA
330
18
100
AcDbEntity
  8
1
 48
0.04
100
AcDbPolyline
 90
        2
 70
     0
 43
0.0
 10
293.8891624773081
 20
322.6980628712229
 10
293.8891624773081
 20
322.7003776860377
  0
LWPOLYLINE
  5
12C0
330
18
100
AcDbEntity
  8
1
 48
0.04
100
AcDbPolyline
 90
        2
 70
     0
 43
0.0
 10
293.9053661810118
 20
322.746673982334
 10
293.9053661810118
 20
322.7489887971488
  0
LWPOLYLINE
  5
12D0
330
18
100
AcDbEntity
  8
1
 48
0.04
100
AcDbPolyline
 90
       21
 70
     0
 43
0.0
 10
293.80351432916
 20
322.0568591675191
 10
293.7988846995303
 20
322.0313962045562
 10
293.7873106254562
 20
322.0105628712229
 10
293.7687921069377
 20
321.9920443527044
 10
293.7456439587896
 20
321.9804702786303
 10
293.7201809958266
 20
321.9758406490007
 10
293.6947180328636
 20
321.9804702786303
 10
293.6715698847155
 20
321.9920443527044
 10
293.653051366197
 20
322.0105628712229
 10
293.6414772921229
 20
322.0313962045562
 10
293.6368476624933
 20
322.0568591675191
 10
293.6414772921229
 20
322.0823221304821
 10
293.653051366197
 20
322.1054702786303
 10
293.6715698847155
 20
322.1239887971488
 10
293.6947180328636
 20
322.1355628712229
 10
293.7201809958266
 20
322.1401925008525
 10
293.7456439587896
 20
322.1355628712229
 10
293.7687921069377
 20
322.1239887971488
 10
293.7873106254562
 20
322.1054702786303
 10
293.7988846995303
 20
322.0823221304821
 10
293.80351432916
 20
322.0568591675191
  0
LWPOLYLINE
  5
12D1
330
18
100
AcDbEntity
  8
1
 48
0.04
100
AcDbPolyline
 90
        2
 70
     0
 43
0.0
 10
293.727125440271
 20
322.0128776860377
 10
293.727125440271
 20
322.0175073156673
  0
LWPOLYLINE
  5
12D2
330
18
100
AcDbEntity
  8
1
 48
0.04
100
AcDbPolyline
 90
        2
 70
     0
 43
0.0
 10
293.7248106254562
 20
322.0105628712229
 10
293.7224958106414
 20
322.0105628712229
  0
LWPOLYLINE
  5
12D3
330
18
100
AcDbEntity
  8
1
 48
0.04
100
AcDbPolyline
 90
        3
 70
     0
 43
0.0
 10
293.7224958106414
 20
322.0105628712229
 10
293.7132365513822
 20
322.0082480564081
 10
293.7039772921229
 20
322.0128776860377
  0
LWPOLYLINE
  5
12D4
330
18
100
AcDbEntity
  8
1
 48
0.04
100
AcDbPolyline
 90
        3
 70
     0
 43
0.0
 10
293.7039772921229
 20
322.0128776860377
 10
293.7016624773081
 20
322.0151925008525
 10
293.7039772921229
 20
322.0175073156673
  0
LWPOLYLINE
  5
12D5
330
18
100
AcDbEntity
  8
1
 48
0.04
100
AcDbPolyline
 90
        3
 70
     0
 43
0.0
 10
293.7016624773081
 20
322.0198221304821
 10
293.7039772921229
 20
322.0198221304821
 10
293.7039772921229
 20
322.0175073156673
  0
LWPOLYLINE
  5
12D6
330
18
100
AcDbEntity
  8
1
 48
0.04
100
AcDbPolyline
 90
        3
 70
     0
 43
0.0
 10
293.6877735884192
 20
322.0313962045562
 10
293.6970328476784
 20
322.0290813897414
 10
293.7016624773081
 20
322.0198221304821
  0
LWPOLYLINE
  5
12D7
330
18
100
AcDbEntity
  8
1
 48
0.04
100
AcDbPolyline
 90
        3
 70
     0
 43
0.0
 10
293.6854587736044
 20
322.0313962045562
 10
293.6854587736044
 20
322.033711019371
 10
293.6877735884192
 20
322.0313962045562
  0
LWPOLYLINE
  5
12D8
330
18
100
AcDbEntity
  8
1
 48
0.04
100
AcDbPolyline
 90
        2
 70
     0
 43
0.0
 10
293.6854587736044
 20
322.0313962045562
 10
293.6785143291599
 20
322.0313962045562
  0
LWPOLYLINE
  5
12D9
330
18
100
AcDbEntity
  8
1
 48
0.04
100
AcDbPolyline
 90
        3
 70
     0
 43
0.0
 10
293.6785143291599
 20
322.0313962045562
 10
293.6738846995303
 20
322.0406554638154
 10
293.6715698847155
 20
322.0499147230747
  0
LWPOLYLINE
  5
12DA
330
18
100
AcDbEntity
  8
1
 48
0.04
100
AcDbPolyline
 90
        2
 70
     0
 43
0.0
 10
293.6715698847155
 20
322.0499147230747
 10
293.6761995143451
 20
322.0545443527043
  0
LWPOLYLINE
  5
12DB
330
18
100
AcDbEntity
  8
1
 48
0.04
100
AcDbPolyline
 90
        2
 70
     0
 43
0.0
 10
293.6785143291599
 20
322.0545443527043
 10
293.6761995143451
 20
322.0545443527043
  0
LWPOLYLINE
  5
12DC
330
18
100
AcDbEntity
  8
1
 48
0.04
100
AcDbPolyline
 90
        3
 70
     0
 43
0.0
 10
293.6808291439747
 20
322.0753776860377
 10
293.6831439587896
 20
322.0638036119636
 10
293.6785143291599
 20
322.0545443527043
  0
LWPOLYLINE
  5
12DD
330
18
100
AcDbEntity
  8
1
 48
0.04
100
AcDbPolyline
 90
        2
 70
     0
 43
0.0
 10
293.6785143291599
 20
322.0776925008525
 10
293.6808291439747
 20
322.0753776860377
  0
LWPOLYLINE
  5
12DE
330
18
100
AcDbEntity
  8
1
 48
0.04
100
AcDbPolyline
 90
        3
 70
     0
 43
0.0
 10
293.6785143291599
 20
322.0776925008525
 10
293.6761995143451
 20
322.0776925008525
 10
293.6761995143451
 20
322.0800073156673
  0
LWPOLYLINE
  5
12DF
330
18
100
AcDbEntity
  8
1
 48
0.04
100
AcDbPolyline
 90
        3
 70
     0
 43
0.0
 10
293.6761995143451
 20
322.0800073156673
 10
293.6808291439747
 20
322.0892665749266
 10
293.6877735884192
 20
322.096211019371
  0
LWPOLYLINE
  5
12E0
330
18
100
AcDbEntity
  8
1
 48
0.04
100
AcDbPolyline
 90
        3
 70
     0
 43
0.0
 10
293.6877735884192
 20
322.096211019371
 10
293.6924032180488
 20
322.096211019371
 10
293.6924032180488
 20
322.0938962045562
  0
LWPOLYLINE
  5
12E1
330
18
100
AcDbEntity
  8
1
 48
0.04
100
AcDbPolyline
 90
        2
 70
     0
 43
0.0
 10
293.7132365513822
 20
322.1008406490006
 10
293.7062921069377
 20
322.0938962045562
  0
LWPOLYLINE
  5
12E2
330
18
100
AcDbEntity
  8
1
 48
0.04
100
AcDbPolyline
 90
        2
 70
     0
 43
0.0
 10
293.715551366197
 20
322.1054702786303
 10
293.7178661810118
 20
322.1077850934451
  0
LWPOLYLINE
  5
12E3
330
18
100
AcDbEntity
  8
1
 48
0.04
100
AcDbPolyline
 90
        3
 70
     0
 43
0.0
 10
293.7178661810118
 20
322.1077850934451
 10
293.727125440271
 20
322.1077850934451
 10
293.7363846995303
 20
322.1054702786303
  0
LWPOLYLINE
  5
12E4
330
18
100
AcDbEntity
  8
1
 48
0.04
100
AcDbPolyline
 90
        2
 70
     0
 43
0.0
 10
293.7363846995303
 20
322.1054702786303
 10
293.7386995143451
 20
322.1031554638154
  0
LWPOLYLINE
  5
12E5
330
18
100
AcDbEntity
  8
1
 48
0.04
100
AcDbPolyline
 90
        3
 70
     0
 43
0.0
 10
293.7549032180488
 20
322.0846369452968
 10
293.7456439587896
 20
322.0892665749266
 10
293.7386995143451
 20
322.096211019371
  0
LWPOLYLINE
  5
12E6
330
18
100
AcDbEntity
  8
1
 48
0.04
100
AcDbPolyline
 90
        2
 70
     0
 43
0.0
 10
293.7572180328636
 20
322.0846369452968
 10
293.7549032180488
 20
322.0846369452968
  0
LWPOLYLINE
  5
12E7
330
18
100
AcDbEntity
  8
1
 48
0.04
100
AcDbPolyline
 90
        3
 70
     0
 43
0.0
 10
293.7572180328636
 20
322.0846369452968
 10
293.7595328476784
 20
322.0869517601117
 10
293.7687921069377
 20
322.0776925008525
  0
LWPOLYLINE
  5
12E8
330
18
100
AcDbEntity
  8
1
 48
0.04
100
AcDbPolyline
 90
        3
 70
     0
 43
0.0
 10
293.7618476624933
 20
322.0614887971488
 10
293.7641624773081
 20
322.0638036119636
 10
293.7687921069377
 20
322.0638036119636
  0
LWPOLYLINE
  5
12E9
330
18
100
AcDbEntity
  8
1
 48
0.04
100
AcDbPolyline
 90
        3
 70
     0
 43
0.0
 10
293.7595328476784
 20
322.0429702786303
 10
293.7595328476784
 20
322.0522295378895
 10
293.7618476624933
 20
322.0614887971488
  0
LWPOLYLINE
  5
12EB
330
18
100
AcDbEntity
  8
1
 48
0.04
100
AcDbPolyline
 90
        2
 70
     0
 43
0.0
 10
293.7641624773081
 20
322.0383406490006
 10
293.7641624773081
 20
322.0360258341858
  0
LWPOLYLINE
  5
12EC
330
18
100
AcDbEntity
  8
1
 48
0.04
100
AcDbPolyline
 90
        3
 70
     0
 43
0.0
 10
293.7641624773081
 20
322.0360258341858
 10
293.7595328476784
 20
322.0267665749266
 10
293.752588403234
 20
322.0221369452968
  0
LWPOLYLINE
  5
12ED
330
18
100
AcDbEntity
  8
1
 48
0.04
100
AcDbPolyline
 90
        3
 70
     0
 43
0.0
 10
293.752588403234
 20
322.0221369452968
 10
293.7502735884192
 20
322.0198221304821
 10
293.7479587736044
 20
322.0221369452968
  0
LWPOLYLINE
  5
12EE
330
18
100
AcDbEntity
  8
1
 48
0.04
100
AcDbPolyline
 90
        2
 70
     0
 43
0.0
 10
293.7456439587896
 20
322.0244517601117
 10
293.7479587736044
 20
322.0221369452968
  0
LWPOLYLINE
  5
12EF
330
18
100
AcDbEntity
  8
1
 48
0.04
100
AcDbPolyline
 90
        3
 70
     0
 43
0.0
 10
293.727125440271
 20
322.0175073156673
 10
293.7363846995303
 20
322.0221369452968
 10
293.7456439587896
 20
322.0244517601117
  0
LWPOLYLINE
  5
12F0
330
18
100
AcDbEntity
  8
1
 48
0.04
100
AcDbPolyline
 90
       18
 70
     0
 43
0.0
 10
293.7803661810118
 20
322.059173982334
 10
293.7757365513822
 20
322.0383406490006
 10
293.7641624773081
 20
322.0198221304821
 10
293.7479587736044
 20
322.0059332415932
 10
293.727125440271
 20
322.0013036119636
 10
293.7039772921229
 20
322.0013036119636
 10
293.6854587736044
 20
322.0128776860377
 10
293.6715698847155
 20
322.0267665749266
 10
293.6623106254562
 20
322.0475999082599
 10
293.6623106254562
 20
322.0684332415932
 10
293.6692550699007
 20
322.0892665749266
 10
293.6854587736044
 20
322.1054702786303
 10
293.7039772921229
 20
322.1147295378895
 10
293.7248106254562
 20
322.1170443527043
 10
293.7456439587896
 20
322.1100999082599
 10
293.7641624773081
 20
322.0985258341858
 10
293.7757365513822
 20
322.0800073156673
 10
293.7803661810118
 20
322.059173982334
  0
LWPOLYLINE
  5
12F1
330
18
100
AcDbEntity
  8
1
 48
0.04
100
AcDbPolyline
 90
        2
 70
     0
 43
0.0
 10
293.7248106254562
 20
322.0105628712229
 10
293.727125440271
 20
322.0128776860377
  0
LWPOLYLINE
  5
12FA
330
18
100
AcDbEntity
  8
1
 48
0.04
100
AcDbPolyline
 90
        2
 70
     0
 43
0.0
 10
293.7687921069377
 20
322.0638036119636
 10
293.7687921069377
 20
322.0776925008525
  0
LWPOLYLINE
  5
1314
330
18
100
AcDbEntity
  8
1
 48
0.04
100
AcDbPolyline
 90
        2
 70
     0
 43
0.0
 10
293.727125440271
 20
323.783711019371
 10
293.7155513661972
 20
323.783711019371
  0
LWPOLYLINE
  5
1315
330
18
100
AcDbEntity
  8
1
 48
0.04
100
AcDbPolyline
 90
        3
 70
     0
 43
0.0
 10
293.6877735884192
 20
323.7906554638154
 10
293.6970328476784
 20
323.7883406490007
 10
293.7016624773081
 20
323.7860258341858
  0
LWPOLYLINE
  5
1316
330
18
100
AcDbEntity
  8
1
 48
0.04
100
AcDbPolyline
 90
        3
 70
     0
 43
0.0
 10
293.6785143291599
 20
323.7906554638154
 10
293.6738846995303
 20
323.7929702786303
 10
293.6715698847155
 20
323.795285093445
  0
LWPOLYLINE
  5
1317
330
18
100
AcDbEntity
  8
1
 48
0.04
100
AcDbPolyline
 90
        2
 70
     0
 43
0.0
 10
293.6808291439747
 20
323.7975999082599
 10
293.6831439587896
 20
323.795285093445
  0
LWPOLYLINE
  5
1318
330
18
100
AcDbEntity
  8
1
 48
0.04
100
AcDbPolyline
 90
        2
 70
     0
 43
0.0
 10
293.6785143291599
 20
323.7975999082599
 10
293.6808291439747
 20
323.7975999082599
  0
LWPOLYLINE
  5
1319
330
18
100
AcDbEntity
  8
1
 48
0.04
100
AcDbPolyline
 90
        2
 70
     0
 43
0.0
 10
293.6785143291599
 20
323.7975999082599
 10
293.6761995143451
 20
323.7999147230746
  0
LWPOLYLINE
  5
131A
330
18
100
AcDbEntity
  8
1
 48
0.04
100
AcDbPolyline
 90
        3
 70
     0
 43
0.0
 10
293.6761995143451
 20
323.7999147230746
 10
293.6808291439747
 20
323.7999147230746
 10
293.6877735884192
 20
323.8022295378895
  0
LWPOLYLINE
  5
131B
330
18
100
AcDbEntity
  8
1
 48
0.04
100
AcDbPolyline
 90
        2
 70
     0
 43
0.0
 10
293.6877735884192
 20
323.8022295378895
 10
293.6924032180488
 20
323.7999147230746
  0
LWPOLYLINE
  5
131C
330
18
100
AcDbEntity
  8
1
 48
0.04
100
AcDbPolyline
 90
        2
 70
     0
 43
0.0
 10
293.715551366197
 20
323.7999147230746
 10
293.7178661810118
 20
323.8022295378895
  0
LWPOLYLINE
  5
131D
330
18
100
AcDbEntity
  8
1
 48
0.04
100
AcDbPolyline
 90
        3
 70
     0
 43
0.0
 10
293.7178661810118
 20
323.8022295378895
 10
293.727125440271
 20
323.7999147230746
 10
293.7386995143451
 20
323.7999147230746
  0
LWPOLYLINE
  5
131E
330
18
100
AcDbEntity
  8
1
 48
0.04
100
AcDbPolyline
 90
        3
 70
     0
 43
0.0
 10
293.7618476624933
 20
323.795285093445
 10
293.7456439587896
 20
323.795285093445
 10
293.7386995143451
 20
323.7975999082599
  0
LWPOLYLINE
  5
131F
330
18
100
AcDbEntity
  8
1
 48
0.04
100
AcDbPolyline
 90
        3
 70
     0
 43
0.0
 10
293.7618476624933
 20
323.795285093445
 10
293.7687921069377
 20
323.7929702786303
 10
293.7687921069377
 20
323.7906554638154
  0
LWPOLYLINE
  5
1320
330
18
100
AcDbEntity
  8
1
 48
0.04
100
AcDbPolyline
 90
        2
 70
     0
 43
0.0
 10
293.7595328476784
 20
323.7883406490007
 10
293.7618476624933
 20
323.7906554638154
  0
LWPOLYLINE
  5
1321
330
18
100
AcDbEntity
  8
1
 48
0.04
100
AcDbPolyline
 90
        2
 70
     0
 43
0.0
 10
293.7641624773081
 20
323.7860258341858
 10
293.7595328476784
 20
323.783711019371
  0
LWPOLYLINE
  5
1322
330
18
100
AcDbEntity
  8
1
 48
0.04
100
AcDbPolyline
 90
        2
 70
     0
 43
0.0
 10
293.7456439587896
 20
323.783711019371
 10
293.7595328476784
 20
323.783711019371
  0
LWPOLYLINE
  5
1323
330
18
100
AcDbEntity
  8
1
 48
0.04
100
AcDbPolyline
 90
        3
 70
     0
 43
0.0
 10
293.727125440271
 20
323.783711019371
 10
293.7363846995303
 20
323.7860258341858
 10
293.7456439587896
 20
323.783711019371
  0
LWPOLYLINE
  5
1324
330
18
100
AcDbEntity
  8
1
 48
0.04
100
AcDbPolyline
 90
       17
 70
     0
 43
0.0
 10
293.6623106254562
 20
323.7975999082599
 10
293.6669402550858
 20
323.7999147230746
 10
293.6785143291599
 20
323.8022295378895
 10
293.6947180328636
 20
323.8045443527044
 10
293.715551366197
 20
323.8022295378895
 10
293.7363846995303
 20
323.8022295378895
 10
293.7572180328636
 20
323.7975999082599
 10
293.7711069217525
 20
323.795285093445
 10
293.7780513661969
 20
323.7906554638154
 10
293.7780513661969
 20
323.7860258341858
 10
293.7711069217525
 20
323.783711019371
 10
293.7549032180488
 20
323.7813962045562
 10
293.7363846995303
 20
323.7813962045562
 10
293.6947180328636
 20
323.7860258341858
 10
293.6761995143451
 20
323.7883406490007
 10
293.664625440271
 20
323.7929702786303
 10
293.6623106254562
 20
323.7975999082599
  0
LWPOLYLINE
  5
1325
330
18
100
AcDbEntity
  8
1
 48
0.04
100
AcDbPolyline
 90
        2
 70
     0
 43
0.0
 10
293.7016624773081
 20
323.7860258341858
 10
293.7039772921229
 20
323.7860258341858
  0
LWPOLYLINE
  5
132B
330
18
100
AcDbEntity
  8
1
 48
0.04
100
AcDbPolyline
 90
        2
 70
     0
 43
0.0
 10
293.7386995143451
 20
323.7975999082599
 10
293.7386995143451
 20
323.7999147230746
  0
LWPOLYLINE
  5
1334
330
18
100
AcDbEntity
  8
1
 48
0.04
100
AcDbPolyline
 90
        2
 70
     0
 43
0.0
 10
294.0141624773081
 20
324.9457480564081
 10
294.0141624773081
 20
325.6749147230747
  0
LWPOLYLINE
  5
1335
330
18
100
AcDbEntity
  8
1
 48
0.04
100
AcDbPolyline
 90
        2
 70
     0
 43
0.0
 10
294.0141624773081
 20
322.8763036119636
 10
294.0141624773081
 20
324.7651925008525
  0
LWPOLYLINE
  5
1336
330
18
100
AcDbEntity
  8
1
 48
0.04
100
AcDbPolyline
 90
        7
 70
     0
 43
0.0
 10
293.5697180328637
 20
325.4017665749266
 10
293.5743476624933
 20
325.4225999082599
 10
293.5812921069377
 20
325.4434332415932
 10
293.5928661810118
 20
325.4642665749266
 10
293.6067550699007
 20
325.4781554638153
 10
293.6183291439747
 20
325.4827850934451
 10
293.6299032180488
 20
325.4850999082599
  0
LWPOLYLINE
  5
1337
330
18
100
AcDbEntity
  8
1
 48
0.04
100
AcDbPolyline
 90
        2
 70
     0
 43
0.0
 10
293.6299032180488
 20
325.4850999082599
 10
293.6299032180488
 20
325.559173982334
  0
LWPOLYLINE
  5
1338
330
18
100
AcDbEntity
  8
1
 48
0.04
100
AcDbPolyline
 90
        4
 70
     0
 43
0.0
 10
293.5766624773081
 20
325.5429702786303
 10
293.5998106254563
 20
325.5545443527044
 10
293.61601432916
 20
325.559173982334
 10
293.6299032180488
 20
325.559173982334
  0
LWPOLYLINE
  5
1339
330
18
100
AcDbEntity
  8
1
 48
0.04
100
AcDbPolyline
 90
        2
 70
     0
 43
0.0
 10
293.5720328476784
 20
325.533711019371
 10
293.5766624773081
 20
325.5429702786303
  0
LWPOLYLINE
  5
133A
330
18
100
AcDbEntity
  8
1
 48
0.04
100
AcDbPolyline
 90
        3
 70
     0
 43
0.0
 10
293.5697180328637
 20
325.5221369452968
 10
293.5720328476784
 20
325.5313962045562
 10
293.5720328476784
 20
325.533711019371
  0
LWPOLYLINE
  5
133B
330
18
100
AcDbEntity
  8
1
 48
0.04
100
AcDbPolyline
 90
        2
 70
     0
 43
0.0
 10
293.9562921069377
 20
325.4897295378895
 10
293.9562921069377
 20
325.6286184267783
  0
LWPOLYLINE
  5
133C
330
18
100
AcDbEntity
  8
1
 48
0.04
100
AcDbPolyline
 90
        6
 70
     0
 43
0.0
 10
293.9562921069377
 20
325.4897295378895
 10
293.9701809958266
 20
325.4874147230747
 10
293.9817550699006
 20
325.4804702786302
 10
293.9956439587896
 20
325.4665813897414
 10
294.0095328476784
 20
325.4364887971488
 10
294.0141624773081
 20
325.4017665749266
  0
LWPOLYLINE
  5
133D
330
18
100
AcDbEntity
  8
1
 48
0.04
100
AcDbPolyline
 90
        5
 70
     0
 43
0.0
 10
293.9562921069377
 20
325.6286184267783
 10
293.9748106254563
 20
325.6239887971488
 10
293.9933291439747
 20
325.6170443527043
 10
294.0049032180488
 20
325.6031554638154
 10
294.0141624773081
 20
325.5869517601117
  0
LWPOLYLINE
  5
133E
330
18
100
AcDbEntity
  8
1
 48
0.04
100
AcDbPolyline
 90
        2
 70
     0
 43
0.0
 10
293.9562921069377
 20
325.4897295378895
 10
293.6299032180488
 20
325.4850999082599
  0
LWPOLYLINE
  5
133F
330
18
100
AcDbEntity
  8
1
 48
0.04
100
AcDbPolyline
 90
        2
 70
     0
 43
0.0
 10
293.9562921069377
 20
325.6286184267783
 10
293.8729587736044
 20
325.6309332415932
  0
LWPOLYLINE
  5
1340
330
18
100
AcDbEntity
  8
1
 48
0.04
100
AcDbPolyline
 90
        2
 70
     0
 43
0.0
 10
293.8729587736044
 20
325.6309332415932
 10
293.9007365513821
 20
325.5730628712229
  0
LWPOLYLINE
  5
1341
330
18
100
AcDbEntity
  8
1
 48
0.04
100
AcDbPolyline
 90
        6
 70
     0
 43
0.0
 10
293.9007365513821
 20
325.5730628712229
 10
293.8984217365673
 20
325.5661184267784
 10
293.8961069217525
 20
325.5614887971488
 10
293.8868476624933
 20
325.5568591675191
 10
293.8636995143451
 20
325.5522295378895
 10
293.8567550699007
 20
325.5522295378895
  0
LWPOLYLINE
  5
1342
330
18
100
AcDbEntity
  8
1
 48
0.04
100
AcDbPolyline
 90
        2
 70
     0
 43
0.0
 10
293.8567550699007
 20
325.5522295378895
 10
293.7965698847155
 20
325.5545443527044
  0
LWPOLYLINE
  5
1343
330
18
100
AcDbEntity
  8
1
 48
0.04
100
AcDbPolyline
 90
        2
 70
     0
 43
0.0
 10
293.7965698847155
 20
325.5545443527044
 10
293.7873106254562
 20
325.5545443527044
  0
LWPOLYLINE
  5
1344
330
18
100
AcDbEntity
  8
1
 48
0.04
100
AcDbPolyline
 90
        3
 70
     0
 43
0.0
 10
293.7873106254562
 20
325.5545443527044
 10
293.7109217365673
 20
325.5568591675191
 10
293.6299032180488
 20
325.559173982334
  0
LWPOLYLINE
  5
1345
330
18
100
AcDbEntity
  8
1
 48
0.04
100
AcDbPolyline
 90
       20
 70
     0
 43
0.0
 10
293.6854587736044
 20
325.1540813897414
 10
293.6692550699007
 20
325.1563962045562
 10
293.6553661810118
 20
325.1633406490006
 10
293.6461069217525
 20
325.1749147230747
 10
293.6391624773081
 20
325.1888036119636
 10
293.6368476624933
 20
325.2050073156673
 10
293.6391624773081
 20
325.2235258341858
 10
293.6484217365673
 20
325.2420443527043
 10
293.664625440271
 20
325.258248056408
 10
293.6785143291599
 20
325.2651925008525
 10
293.6947180328636
 20
325.2651925008525
 10
293.7062921069377
 20
325.2605628712229
 10
293.7178661810118
 20
325.2536184267784
 10
293.727125440271
 20
325.2420443527043
 10
293.7340698847155
 20
325.2258406490006
 10
293.7340698847155
 20
325.2050073156673
 10
293.7294402550859
 20
325.184173982334
 10
293.7178661810118
 20
325.1679702786303
 10
293.7016624773081
 20
325.158711019371
 10
293.6854587736044
 20
325.1540813897414
  0
LWPOLYLINE
  5
1346
330
18
100
AcDbEntity
  8
1
 48
0.04
100
AcDbPolyline
 90
        2
 70
     0
 43
0.0
 10
293.9562921069377
 20
321.8161184267783
 10
293.9562921069377
 20
321.8855628712229
  0
LWPOLYLINE
  5
1347
330
18
100
AcDbEntity
  8
1
 48
0.04
100
AcDbPolyline
 90
        6
 70
     0
 43
0.0
 10
293.9562921069377
 20
321.8161184267783
 10
293.9701809958266
 20
321.8161184267783
 10
293.9817550699006
 20
321.8207480564081
 10
293.9956439587896
 20
321.8276925008525
 10
294.0095328476784
 20
321.8438962045562
 10
294.0141624773081
 20
321.8600999082599
  0
LWPOLYLINE
  5
1348
330
18
100
AcDbEntity
  8
1
 48
0.04
100
AcDbPolyline
 90
        2
 70
     0
 43
0.0
 10
294.0141624773081
 20
321.8600999082599
 10
294.0141624773081
 20
322.4619517601117
  0
LWPOLYLINE
  5
1349
330
18
100
AcDbEntity
  8
1
 48
0.04
100
AcDbPolyline
 90
        5
 70
     0
 43
0.0
 10
293.9562921069377
 20
321.8855628712229
 10
293.9748106254563
 20
321.8878776860377
 10
293.9933291439747
 20
321.8971369452968
 10
294.0049032180488
 20
321.9110258341858
 10
294.0141624773081
 20
321.9295443527043
  0
LWPOLYLINE
  5
134A
330
18
100
AcDbEntity
  8
1
 48
0.04
100
AcDbPolyline
 90
        2
 70
     0
 43
0.0
 10
293.9562921069377
 20
321.8161184267783
 10
293.6299032180488
 20
321.8138036119636
  0
LWPOLYLINE
  5
134B
330
18
100
AcDbEntity
  8
1
 48
0.04
100
AcDbPolyline
 90
        2
 70
     0
 43
0.0
 10
293.9562921069377
 20
321.8855628712229
 10
293.8729587736044
 20
321.8855628712229
  0
LWPOLYLINE
  5
134C
330
18
100
AcDbEntity
  8
1
 48
0.04
100
AcDbPolyline
 90
        2
 70
     0
 43
0.0
 10
293.8729587736044
 20
321.8855628712229
 10
293.9007365513821
 20
321.846211019371
  0
LWPOLYLINE
  5
134D
330
18
100
AcDbEntity
  8
1
 48
0.04
100
AcDbPolyline
 90
        4
 70
     0
 43
0.0
 10
293.9007365513821
 20
321.846211019371
 10
293.8984217365673
 20
321.8438962045562
 10
293.8868476624933
 20
321.8392665749266
 10
293.8752735884192
 20
321.8369517601118
  0
LWPOLYLINE
  5
134E
330
18
100
AcDbEntity
  8
1
 48
0.04
100
AcDbPolyline
 90
        2
 70
     0
 43
0.0
 10
293.6299032180488
 20
321.8138036119636
 10
293.6299032180488
 20
321.8381187328697
  0
LWPOLYLINE
  5
134F
330
18
100
AcDbEntity
  8
1
 48
0.04
100
AcDbPolyline
 90
        6
 70
     0
 43
0.0
 10
293.5778198847155
 20
321.8415813897414
 10
293.5812921069377
 20
321.8346369452969
 10
293.5951809958266
 20
321.8230628712229
 10
293.6090698847155
 20
321.8161184267783
 10
293.6206439587896
 20
321.8138036119636
 10
293.6299032180488
 20
321.8138036119636
  0
LWPOLYLINE
  5
1350
330
18
100
AcDbEntity
  8
1
 48
0.04
100
AcDbPolyline
 90
        2
 70
     0
 43
0.0
 10
293.9562921069377
 20
323.3878776860377
 10
293.9562921069377
 20
323.7281554638154
  0
LWPOLYLINE
  5
1351
330
18
100
AcDbEntity
  8
1
 48
0.04
100
AcDbPolyline
 90
        6
 70
     0
 43
0.0
 10
293.9562921069377
 20
323.3878776860377
 10
293.9701809958266
 20
323.3878776860377
 10
293.9817550699006
 20
323.3832480564081
 10
293.9956439587896
 20
323.371673982334
 10
294.0095328476784
 20
323.3485258341858
 10
294.0141624773081
 20
323.3230628712229
  0
LWPOLYLINE
  5
1352
330
18
100
AcDbEntity
  8
1
 48
0.04
100
AcDbPolyline
 90
        5
 70
     0
 43
0.0
 10
293.9562921069377
 20
323.7281554638154
 10
293.9748106254563
 20
323.7258406490007
 10
293.9933291439747
 20
323.7281554638154
 10
294.0049032180488
 20
323.7281554638154
 10
294.0141624773081
 20
323.7304702786303
  0
LWPOLYLINE
  5
1353
330
18
100
AcDbEntity
  8
1
 48
0.04
100
AcDbPolyline
 90
        2
 70
     0
 43
0.0
 10
293.9562921069377
 20
323.3878776860377
 10
293.6299032180488
 20
323.3809332415932
  0
LWPOLYLINE
  5
1354
330
18
100
AcDbEntity
  8
1
 48
0.04
100
AcDbPolyline
 90
        2
 70
     0
 43
0.0
 10
293.9562921069377
 20
323.7281554638154
 10
293.8729587736044
 20
323.732785093445
  0
LWPOLYLINE
  5
1355
330
18
100
AcDbEntity
  8
1
 48
0.04
100
AcDbPolyline
 90
        2
 70
     0
 43
0.0
 10
293.8729587736044
 20
323.732785093445
 10
293.9007365513821
 20
323.5730628712229
  0
LWPOLYLINE
  5
1356
330
18
100
AcDbEntity
  8
1
 48
0.04
100
AcDbPolyline
 90
        7
 70
     0
 43
0.0
 10
293.9007365513821
 20
323.5730628712229
 10
293.8984217365673
 20
323.5614887971488
 10
293.8961069217525
 20
323.5475999082599
 10
293.8868476624933
 20
323.5383406490007
 10
293.8752735884192
 20
323.5313962045562
 10
293.8636995143451
 20
323.5290813897413
 10
293.8567550699007
 20
323.5290813897413
  0
LWPOLYLINE
  5
1357
330
18
100
AcDbEntity
  8
1
 48
0.04
100
AcDbPolyline
 90
        2
 70
     0
 43
0.0
 10
293.8567550699007
 20
323.5290813897413
 10
293.7965698847155
 20
323.533711019371
  0
LWPOLYLINE
  5
1358
330
18
100
AcDbEntity
  8
1
 48
0.04
100
AcDbPolyline
 90
        3
 70
     0
 43
0.0
 10
293.7873106254562
 20
323.533711019371
 10
293.7109217365673
 20
323.5383406490007
 10
293.6299032180488
 20
323.545285093445
  0
LWPOLYLINE
  5
1359
330
18
100
AcDbEntity
  8
1
 48
0.04
100
AcDbPolyline
 90
        2
 70
     0
 43
0.0
 10
293.6299032180488
 20
323.3809332415932
 10
293.6299032180488
 20
323.545285093445
  0
LWPOLYLINE
  5
135A
330
18
100
AcDbEntity
  8
1
 48
0.04
100
AcDbPolyline
 90
        7
 70
     0
 43
0.0
 10
293.5697180328637
 20
323.3045443527043
 10
293.5720328476784
 20
323.3184332415932
 10
293.5812921069377
 20
323.3485258341858
 10
293.5928661810118
 20
323.3647295378895
 10
293.6067550699007
 20
323.3739887971488
 10
293.6183291439747
 20
323.3786184267783
 10
293.6299032180488
 20
323.3809332415932
  0
LWPOLYLINE
  5
135B
330
18
100
AcDbEntity
  8
1
 48
0.04
100
AcDbPolyline
 90
        7
 70
     0
 43
0.0
 10
293.5771768806003
 20
323.5743488794533
 10
293.5789772921229
 20
323.5707480564081
 10
293.5836069217525
 20
323.559173982334
 10
293.590551366197
 20
323.5522295378895
 10
293.5998106254563
 20
323.5475999082599
 10
293.61601432916
 20
323.545285093445
 10
293.6299032180488
 20
323.545285093445
  0
LWPOLYLINE
  5
135C
330
18
100
AcDbEntity
  8
1
 48
0.04
100
AcDbPolyline
 90
       17
 70
     0
 43
0.0
 10
293.6854587736044
 20
323.1980628712229
 10
293.6553661810118
 20
323.1980628712229
 10
293.6461069217525
 20
323.2003776860377
 10
293.6391624773081
 20
323.2026925008525
 10
293.6368476624933
 20
323.2073221304821
 10
293.6391624773081
 20
323.2142665749266
 10
293.6484217365673
 20
323.221211019371
 10
293.664625440271
 20
323.2281554638154
 10
293.6785143291599
 20
323.2327850934451
 10
293.6947180328636
 20
323.2327850934451
 10
293.7178661810118
 20
323.2281554638154
 10
293.727125440271
 20
323.2235258341858
 10
293.7340698847155
 20
323.2188962045562
 10
293.7340698847155
 20
323.2119517601117
 10
293.7294402550859
 20
323.2073221304821
 10
293.7178661810118
 20
323.2026925008525
 10
293.6854587736044
 20
323.1980628712229
  0
LWPOLYLINE
  5
135D
330
18
100
AcDbEntity
  8
1
 48
0.04
100
AcDbPolyline
 90
        2
 70
     0
 43
0.0
 10
293.7086069217525
 20
322.7790813897414
 10
293.7123462379918
 20
322.7790813897414
  0
LWPOLYLINE
  5
135F
330
18
100
AcDbEntity
  8
1
 48
0.04
100
AcDbPolyline
 90
        2
 70
     0
 43
0.0
 10
293.7086069217525
 20
322.7605628712229
 10
293.7086069217525
 20
322.7883406490006
  0
LWPOLYLINE
  5
1360
330
18
100
AcDbEntity
  8
1
 48
0.04
100
AcDbPolyline
 90
        6
 70
     0
 43
0.0
 10
293.9562921069377
 20
324.7374147230747
 10
293.9748106254563
 20
324.7374147230747
 10
293.9933291439747
 20
324.7350999082599
 10
294.0002735884192
 20
324.7374147230747
 10
294.0072180328637
 20
324.7420443527043
 10
294.0095328476784
 20
324.7489887971488
  0
LWPOLYLINE
  5
1361
330
18
100
AcDbEntity
  8
1
 48
0.04
100
AcDbPolyline
 90
        2
 70
     0
 43
0.0
 10
293.9562921069377
 20
324.5892665749266
 10
293.9562921069377
 20
324.7374147230747
  0
LWPOLYLINE
  5
1362
330
18
100
AcDbEntity
  8
1
 48
0.04
100
AcDbPolyline
 90
        6
 70
     0
 43
0.0
 10
293.9562921069377
 20
324.5892665749266
 10
293.9701809958266
 20
324.5869517601117
 10
293.9817550699006
 20
324.5776925008525
 10
293.9956439587896
 20
324.5614887971488
 10
294.0095328476784
 20
324.5244517601117
 10
294.0141624773081
 20
324.4804702786303
  0
LWPOLYLINE
  5
1363
330
18
100
AcDbEntity
  8
1
 48
0.04
100
AcDbPolyline
 90
        6
 70
     0
 43
0.0
 10
293.9562921069377
 20
325.7258406490006
 10
293.9701809958266
 20
325.7235258341858
 10
293.9817550699006
 20
325.721211019371
 10
293.9956439587896
 20
325.7119517601117
 10
294.0095328476784
 20
325.695748056408
 10
294.0141624773081
 20
325.6749147230747
  0
LWPOLYLINE
  5
1364
330
18
100
AcDbEntity
  8
1
 48
0.04
100
AcDbPolyline
 90
        3
 70
     0
 43
0.0
 10
293.9562921069377
 20
322.4388036119636
 10
293.9748106254563
 20
322.4411184267784
 10
293.9949899976536
 20
322.4545713415766
  0
LWPOLYLINE
  5
1365
330
18
100
AcDbEntity
  8
1
 48
0.04
100
AcDbPolyline
 90
        2
 70
     0
 43
0.0
 10
293.9562921069377
 20
322.320748056408
 10
293.9562921069377
 20
322.4388036119636
  0
LWPOLYLINE
  5
1366
330
18
100
AcDbEntity
  8
1
 48
0.04
100
AcDbPolyline
 90
        6
 70
     0
 43
0.0
 10
293.9562921069377
 20
322.320748056408
 10
293.9701809958266
 20
322.320748056408
 10
293.9817550699006
 20
322.3184332415932
 10
293.9956439587896
 20
322.3161184267784
 10
294.0095328476784
 20
322.3114887971488
 10
294.0141624773081
 20
322.3045443527043
  0
LWPOLYLINE
  5
1367
330
18
100
AcDbEntity
  8
1
 48
0.04
100
AcDbPolyline
 90
        2
 70
     0
 43
0.0
 10
293.5697180328637
 20
325.6725999082599
 10
293.5697180328637
 20
325.6772295378895
  0
LWPOLYLINE
  5
1368
330
18
100
AcDbEntity
  8
1
 48
0.04
100
AcDbPolyline
 90
        2
 70
     0
 43
0.0
 10
293.5697180328637
 20
322.2581332722024
 10
293.5697180328637
 20
323.5765350934451
  0
LWPOLYLINE
  5
1369
330
18
100
AcDbEntity
  8
1
 48
0.04
100
AcDbPolyline
 90
        2
 70
     0
 43
0.0
 10
293.5697180328637
 20
323.8369517601118
 10
293.5697180328637
 20
325.5221369452968
  0
LWPOLYLINE
  5
136A
330
18
100
AcDbEntity
  8
1
 48
0.04
100
AcDbPolyline
 90
        2
 70
     0
 43
0.0
 10
293.9562921069377
 20
325.7258406490006
 10
293.6299032180488
 20
325.7235258341858
  0
LWPOLYLINE
  5
136B
330
18
100
AcDbEntity
  8
1
 48
0.04
100
AcDbPolyline
 90
        7
 70
     0
 43
0.0
 10
293.5697180328637
 20
325.6772295378895
 10
293.5720328476784
 20
325.6864887971488
 10
293.5812921069377
 20
325.7050073156673
 10
293.5951809958266
 20
325.7142665749266
 10
293.6067550699007
 20
325.721211019371
 10
293.6206439587896
 20
325.7235258341858
 10
293.6299032180488
 20
325.7235258341858
  0
LWPOLYLINE
  5
136C
330
18
100
AcDbEntity
  8
1
 48
0.04
100
AcDbPolyline
 90
        2
 70
     0
 43
0.0
 10
293.6854587736044
 20
322.4596369452968
 10
293.7109217365673
 20
322.5823221304821
  0
LWPOLYLINE
  5
136D
330
18
100
AcDbEntity
  8
1
 48
0.04
100
AcDbPolyline
 90
        2
 70
     0
 43
0.0
 10
293.7109217365673
 20
322.5823221304821
 10
293.6299032180488
 20
322.5776925008525
  0
LWPOLYLINE
  5
136E
330
18
100
AcDbEntity
  8
1
 48
0.04
100
AcDbPolyline
 90
        2
 70
     0
 43
0.0
 10
293.6299032180488
 20
322.3253776860377
 10
293.6299032180488
 20
322.5776925008525
  0
LWPOLYLINE
  5
136F
330
18
100
AcDbEntity
  8
1
 48
0.04
100
AcDbPolyline
 90
        2
 70
     0
 43
0.0
 10
293.9562921069377
 20
322.320748056408
 10
293.6299032180488
 20
322.3253776860377
  0
LWPOLYLINE
  5
1370
330
18
100
AcDbEntity
  8
1
 48
0.04
100
AcDbPolyline
 90
        3
 70
     0
 43
0.0
 10
293.9562921069377
 20
322.4388036119636
 10
293.877588403234
 20
322.434173982334
 10
293.7965698847155
 20
322.4295443527044
  0
LWPOLYLINE
  5
1371
330
18
100
AcDbEntity
  8
1
 48
0.04
100
AcDbPolyline
 90
        2
 70
     0
 43
0.0
 10
293.7965698847155
 20
322.4295443527044
 10
293.789625440271
 20
322.4295443527044
  0
LWPOLYLINE
  5
1372
330
18
100
AcDbEntity
  8
1
 48
0.04
100
AcDbPolyline
 90
        2
 70
     0
 43
0.0
 10
293.789625440271
 20
322.4295443527044
 10
293.727125440271
 20
322.4272295378895
  0
LWPOLYLINE
  5
1373
330
18
100
AcDbEntity
  8
1
 48
0.04
100
AcDbPolyline
 90
        7
 70
     0
 43
0.0
 10
293.727125440271
 20
322.4272295378895
 10
293.7178661810118
 20
322.4272295378895
 10
293.7062921069377
 20
322.4295443527044
 10
293.6947180328636
 20
322.434173982334
 10
293.6877735884192
 20
322.4434332415932
 10
293.6854587736044
 20
322.4526925008525
 10
293.6854587736044
 20
322.4596369452968
  0
LWPOLYLINE
  5
1374
330
18
100
AcDbEntity
  8
1
 48
0.04
100
AcDbPolyline
 90
        6
 70
     0
 43
0.0
 10
293.5697180328637
 20
322.6124147230747
 10
293.5766624773081
 20
322.5985258341858
 10
293.5882365513821
 20
322.5892665749266
 10
293.6044402550859
 20
322.5823221304821
 10
293.6229587736043
 20
322.5776925008525
 10
293.6299032180488
 20
322.5776925008525
  0
LWPOLYLINE
  5
1375
330
18
100
AcDbEntity
  8
1
 48
0.04
100
AcDbPolyline
 90
        5
 70
     0
 43
0.0
 10
293.5697180328637
 20
322.3138036119636
 10
293.5789772921229
 20
322.320748056408
 10
293.590551366197
 20
322.3230628712229
 10
293.6044402550859
 20
322.3253776860377
 10
293.6299032180488
 20
322.3253776860377
  0
LWPOLYLINE
  5
1376
330
18
100
AcDbEntity
  8
1
 48
0.04
100
AcDbPolyline
 90
        2
 70
     0
 43
0.0
 10
293.8752735884192
 20
322.2397295378895
 10
293.8752735884192
 20
322.2281554638154
  0
LWPOLYLINE
  5
1377
330
18
100
AcDbEntity
  8
1
 48
0.04
100
AcDbPolyline
 90
        2
 70
     0
 43
0.0
 10
293.8613846995303
 20
322.2489887971488
 10
293.8683291439748
 20
322.2489887971488
  0
LWPOLYLINE
  5
137B
330
18
100
AcDbEntity
  8
1
 48
0.04
100
AcDbPolyline
 90
        2
 70
     0
 43
0.0
 10
293.8683291439748
 20
322.2397295378895
 10
293.8752735884192
 20
322.2397295378895
  0
LWPOLYLINE
  5
137D
330
18
100
AcDbEntity
  8
1
 48
0.04
100
AcDbPolyline
 90
        5
 70
     0
 43
0.0
 10
293.8171717365673
 20
322.2519980564081
 10
293.8289772921229
 20
322.2559332415932
 10
293.840551366197
 20
322.2559332415932
 10
293.8544402550859
 20
322.2536184267783
 10
293.8613846995303
 20
322.2489887971488
  0
LWPOLYLINE
  5
1380
330
18
100
AcDbEntity
  8
1
 48
0.04
100
AcDbPolyline
 90
        2
 70
     0
 43
0.0
 10
293.8752735884192
 20
322.2281554638154
 10
293.877588403234
 20
322.221211019371
  0
LWPOLYLINE
  5
1381
330
18
100
AcDbEntity
  8
1
 48
0.04
100
AcDbPolyline
 90
        6
 70
     0
 43
0.0
 10
293.5697180328637
 20
324.8670443527043
 10
293.5766624773081
 20
324.8739887971488
 10
293.5882365513821
 20
324.883248056408
 10
293.6044402550859
 20
324.8878776860376
 10
293.6229587736043
 20
324.8925073156673
 10
293.6299032180488
 20
324.8925073156673
  0
LWPOLYLINE
  5
1382
330
18
100
AcDbEntity
  8
1
 48
0.04
100
AcDbPolyline
 90
        8
 70
     0
 43
0.0
 10
293.5697180328637
 20
324.5013036119636
 10
293.5720328476784
 20
324.5267665749266
 10
293.5789772921229
 20
324.5522295378895
 10
293.5882365513821
 20
324.570748056408
 10
293.602125440271
 20
324.5869517601117
 10
293.6136995143451
 20
324.5938962045562
 10
293.6252735884192
 20
324.596211019371
 10
293.6299032180488
 20
324.596211019371
  0
LWPOLYLINE
  5
1383
330
18
100
AcDbEntity
  8
1
 48
0.04
100
AcDbPolyline
 90
        2
 70
     0
 43
0.0
 10
293.6299032180488
 20
324.596211019371
 10
293.6299032180488
 20
324.8925073156673
  0
LWPOLYLINE
  5
1384
330
18
100
AcDbEntity
  8
1
 48
0.04
100
AcDbPolyline
 90
        2
 70
     0
 43
0.0
 10
293.6854587736044
 20
324.7628776860377
 10
293.7109217365673
 20
324.8971369452968
  0
LWPOLYLINE
  5
1385
330
18
100
AcDbEntity
  8
1
 48
0.04
100
AcDbPolyline
 90
        2
 70
     0
 43
0.0
 10
293.7109217365673
 20
324.8971369452968
 10
293.6299032180488
 20
324.8925073156673
  0
LWPOLYLINE
  5
1386
330
18
100
AcDbEntity
  8
1
 48
0.04
100
AcDbPolyline
 90
        2
 70
     0
 43
0.0
 10
293.9562921069377
 20
324.5892665749266
 10
293.6299032180488
 20
324.596211019371
  0
LWPOLYLINE
  5
1387
330
18
100
AcDbEntity
  8
1
 48
0.04
100
AcDbPolyline
 90
        3
 70
     0
 43
0.0
 10
293.9562921069377
 20
324.7374147230747
 10
293.877588403234
 20
324.732785093445
 10
293.7965698847155
 20
324.7281554638154
  0
LWPOLYLINE
  5
1388
330
18
100
AcDbEntity
  8
1
 48
0.04
100
AcDbPolyline
 90
        2
 70
     0
 43
0.0
 10
293.7965698847155
 20
324.7281554638154
 10
293.789625440271
 20
324.7258406490006
  0
LWPOLYLINE
  5
1389
330
18
100
AcDbEntity
  8
1
 48
0.04
100
AcDbPolyline
 90
        2
 70
     0
 43
0.0
 10
293.789625440271
 20
324.7258406490006
 10
293.727125440271
 20
324.7235258341858
  0
LWPOLYLINE
  5
138A
330
18
100
AcDbEntity
  8
1
 48
0.04
100
AcDbPolyline
 90
        6
 70
     0
 43
0.0
 10
293.727125440271
 20
324.7235258341858
 10
293.7178661810118
 20
324.7235258341858
 10
293.7062921069377
 20
324.7258406490006
 10
293.6947180328636
 20
324.732785093445
 10
293.6877735884192
 20
324.7420443527043
 10
293.6854587736044
 20
324.7536184267783
  0
LWPOLYLINE
  5
138B
330
18
100
AcDbEntity
  8
1
 48
0.04
100
AcDbPolyline
 90
        2
 70
     0
 43
0.0
 10
293.8752735884192
 20
323.7999147230746
 10
293.8752735884192
 20
323.8045443527044
  0
LWPOLYLINE
  5
138C
330
18
100
AcDbEntity
  8
1
 48
0.04
100
AcDbPolyline
 90
        2
 70
     0
 43
0.0
 10
293.8616770971911
 20
323.8113913312619
 10
293.8683291439748
 20
323.809173982334
  0
LWPOLYLINE
  5
138E
330
18
100
AcDbEntity
  8
1
 48
0.04
100
AcDbPolyline
 90
        2
 70
     0
 43
0.0
 10
293.8683291439748
 20
323.809173982334
 10
293.8683291439748
 20
323.8068591675191
  0
LWPOLYLINE
  5
1390
330
18
100
AcDbEntity
  8
1
 48
0.04
100
AcDbPolyline
 90
        2
 70
     0
 43
0.0
 10
293.8683291439748
 20
323.8068591675191
 10
293.8752735884192
 20
323.8045443527044
  0
LWPOLYLINE
  5
1392
330
18
100
AcDbEntity
  8
1
 48
0.04
100
AcDbPolyline
 90
        2
 70
     0
 43
0.0
 10
293.8752735884192
 20
323.7999147230746
 10
293.877588403234
 20
323.7975999082599
  0
LWPOLYLINE
  5
1393
330
18
100
AcDbEntity
  8
1
 48
0.04
100
AcDbPolyline
 90
        2
 70
     0
 43
0.0
 10
293.4794402550859
 20
322.9943591675191
 10
293.4794402550859
 20
323.7698221304821
  0
LWPOLYLINE
  5
1394
102
{ACAD_REACTORS
330
13DA
102
}
330
18
100
AcDbEntity
  8
1
 48
0.04
100
AcDbPolyline
 90
        2
 70
     0
 43
0.0
 10
293.4794402550859
 20
323.7698221304821
 10
293.4794402550859
 20
324.5452850934451
  0
LWPOLYLINE
  5
1395
330
18
100
AcDbEntity
  8
1
 48
0.04
100
AcDbPolyline
 90
        2
 70
     0
 43
0.0
 10
293.5118476624932
 20
322.9503776860377
 10
293.5118476624932
 20
324.5892665749266
  0
LWPOLYLINE
  5
1396
330
18
100
AcDbEntity
  8
1
 48
0.04
100
AcDbPolyline
 90
        2
 70
     0
 43
0.0
 10
293.4817550699007
 20
322.9850999082599
 10
293.4817550699007
 20
324.5545443527043
  0
LWPOLYLINE
  5
1397
330
18
100
AcDbEntity
  8
1
 48
0.04
100
AcDbPolyline
 90
        2
 70
     0
 43
0.0
 10
294.0720328476784
 20
322.9503776860377
 10
294.0720328476784
 20
324.5892665749266
  0
LWPOLYLINE
  5
1398
102
{ACAD_REACTORS
330
13DA
102
}
330
18
100
AcDbEntity
  8
1
 48
0.04
100
AcDbPolyline
 90
        2
 70
     0
 43
0.0
 10
294.1044402550859
 20
322.9850999082599
 10
294.1044402550859
 20
324.5545443527043
  0
LWPOLYLINE
  5
1399
330
18
100
AcDbEntity
  8
1
 48
0.04
100
AcDbPolyline
 90
        3
 70
     0
 43
0.0
 10
293.8567550699007
 20
323.533711019371
 10
293.8428661810118
 20
323.5406554638154
 10
293.8312921069377
 20
323.5499147230747
  0
LWPOLYLINE
  5
139A
330
18
100
AcDbEntity
  8
1
 48
0.04
100
AcDbPolyline
 90
        3
 70
     0
 43
0.0
 10
293.81835118983
 20
323.557542589036
 10
293.8243476624933
 20
323.5545443527044
 10
293.8312921069377
 20
323.5499147230747
  0
LWPOLYLINE
  5
139B
330
18
100
AcDbEntity
  8
1
 48
0.04
100
AcDbPolyline
 90
        3
 70
     0
 43
0.0
 10
293.7873106254562
 20
323.533711019371
 10
293.7826809958266
 20
323.5429702786303
 10
293.7826809958266
 20
323.5599009489701
  0
LWPOLYLINE
  5
139C
330
18
100
AcDbEntity
  8
1
 48
0.04
100
AcDbPolyline
 90
        4
 70
     0
 43
0.0
 10
293.8683291439748
 20
323.6888036119637
 10
293.8683291439748
 20
323.7142665749266
 10
293.8706439587896
 20
323.7350999082599
 10
293.8706439587896
 20
323.7489887971488
  0
LWPOLYLINE
  5
139D
330
18
100
AcDbEntity
  8
1
 48
0.04
100
AcDbPolyline
 90
        2
 70
     0
 43
0.0
 10
293.8706439587896
 20
323.7489887971488
 10
293.8729587736044
 20
323.7744517601117
  0
LWPOLYLINE
  5
139E
330
18
100
AcDbEntity
  8
1
 48
0.04
100
AcDbPolyline
 90
        5
 70
     0
 43
0.0
 10
293.8368682145873
 20
323.5563183229363
 10
293.8521254402711
 20
323.5475999082599
 10
293.8729587736044
 20
323.5475999082599
 10
293.8891624773081
 20
323.5568591675191
 10
293.9007365513821
 20
323.5730628712229
  0
LWPOLYLINE
  5
139F
330
18
100
AcDbEntity
  8
1
 48
0.04
100
AcDbPolyline
 90
        2
 70
     0
 43
0.0
 10
293.8312921069377
 20
323.5499147230747
 10
293.8312921069377
 20
323.5566869912107
  0
LWPOLYLINE
  5
13A0
330
18
100
AcDbEntity
  8
1
 48
0.04
100
AcDbPolyline
 90
        2
 70
     0
 43
0.0
 10
293.8590698847155
 20
323.533711019371
 10
293.8567550699007
 20
323.5290813897413
  0
LWPOLYLINE
  5
13A1
330
18
100
AcDbEntity
  8
1
 48
0.04
100
AcDbPolyline
 90
        2
 70
     0
 43
0.0
 10
293.8729587736044
 20
323.732785093445
 10
293.8752735884192
 20
323.746673982334
  0
LWPOLYLINE
  5
13A2
330
18
100
AcDbEntity
  8
1
 48
0.04
100
AcDbPolyline
 90
        2
 70
     0
 43
0.0
 10
293.8752735884192
 20
323.746673982334
 10
293.8706439587896
 20
323.7489887971488
  0
LWPOLYLINE
  5
13A3
330
18
100
AcDbEntity
  8
1
 48
0.04
100
AcDbPolyline
 90
        2
 70
     0
 43
0.0
 10
293.8790733787757
 20
323.5938962045562
 10
293.8971133629763
 20
323.5938962045562
  0
LWPOLYLINE
  5
13A4
330
18
100
AcDbEntity
  8
1
 48
0.04
100
AcDbPolyline
 90
        2
 70
     0
 43
0.0
 10
293.8729587736044
 20
323.7744517601117
 10
293.877588403234
 20
323.7767665749266
  0
LWPOLYLINE
  5
13A6
330
18
100
AcDbEntity
  8
1
 48
0.04
100
AcDbPolyline
 90
        2
 70
     0
 43
0.0
 10
293.8706439587896
 20
321.9781554638154
 10
293.8729587736044
 20
322.1147295378895
  0
LWPOLYLINE
  5
13A9
330
18
100
AcDbEntity
  8
1
 48
0.04
100
AcDbPolyline
 90
        2
 70
     0
 43
0.0
 10
293.8729587736044
 20
321.8855628712229
 10
293.8752735884192
 20
321.9619517601117
  0
LWPOLYLINE
  5
13AB
330
18
100
AcDbEntity
  8
1
 48
0.04
100
AcDbPolyline
 90
        2
 70
     0
 43
0.0
 10
293.8752735884192
 20
321.9619517601117
 10
293.8706439587896
 20
321.9781554638154
  0
LWPOLYLINE
  5
13AC
330
18
100
AcDbEntity
  8
1
 48
0.04
100
AcDbPolyline
 90
        2
 70
     0
 43
0.0
 10
293.8683291439748
 20
321.9781554638154
 10
293.8706439587896
 20
321.9781554638154
  0
LWPOLYLINE
  5
13AD
330
18
100
AcDbEntity
  8
1
 48
0.04
100
AcDbPolyline
 90
        2
 70
     0
 43
0.0
 10
293.8729587736044
 20
322.1147295378895
 10
293.877588403234
 20
322.1309332415932
  0
LWPOLYLINE
  5
13B0
330
18
100
AcDbEntity
  8
1
 48
0.04
100
AcDbPolyline
 90
        2
 70
     0
 43
0.0
 10
293.8729587736044
 20
325.6309332415932
 10
293.8729587736044
 20
325.5850578207177
  0
LWPOLYLINE
  5
13B1
330
18
100
AcDbEntity
  8
1
 48
0.04
100
AcDbPolyline
 90
        2
 70
     0
 43
0.0
 10
293.5697180328637
 20
324.2188962045562
 10
294.0141624773081
 20
324.1864887971488
  0
LWPOLYLINE
  5
13B2
330
18
100
AcDbEntity
  8
1
 48
0.04
100
AcDbPolyline
 90
        2
 70
     0
 43
0.0
 10
293.5697180328637
 20
324.2675073156673
 10
294.0141624773081
 20
324.2374147230747
  0
LWPOLYLINE
  5
13B3
330
18
100
AcDbEntity
  8
1
 48
0.04
100
AcDbPolyline
 90
       20
 70
     0
 43
0.0
 10
293.9007365513821
 20
324.2721369452969
 10
293.9146254402711
 20
324.2721369452969
 10
293.9285143291599
 20
324.2767665749266
 10
293.940088403234
 20
324.2860258341858
 10
293.9470328476783
 20
324.2952850934451
 10
293.9493476624932
 20
324.309173982334
 10
293.9447180328636
 20
324.3253776860377
 10
293.9354587736044
 20
324.3415813897414
 10
293.9215698847155
 20
324.3554702786302
 10
293.9053661810118
 20
324.3624147230747
 10
293.8914772921229
 20
324.3624147230747
 10
293.877588403234
 20
324.3600999082599
 10
293.8660143291599
 20
324.3531554638154
 10
293.8567550699007
 20
324.3415813897414
 10
293.8498106254562
 20
324.3276925008525
 10
293.8498106254562
 20
324.3114887971488
 10
293.8544402550859
 20
324.2952850934451
 10
293.8683291439748
 20
324.283711019371
 10
293.8822180328637
 20
324.2744517601118
 10
293.9007365513821
 20
324.2721369452969
  0
LWPOLYLINE
  5
13B4
330
18
100
AcDbEntity
  8
1
 48
0.04
100
AcDbPolyline
 90
        2
 70
     0
 43
0.0
 10
294.0141624773081
 20
324.471211019371
 10
293.5697180328637
 20
324.5013036119636
  0
LWPOLYLINE
  5
13B5
330
18
100
AcDbEntity
  8
1
 48
0.04
100
AcDbPolyline
 90
        2
 70
     0
 43
0.0
 10
293.877588403234
 20
323.7813962045562
 10
294.0141624773081
 20
323.772136945297
  0
LWPOLYLINE
  5
13B6
330
18
100
AcDbEntity
  8
1
 48
0.04
100
AcDbPolyline
 90
        2
 70
     0
 43
0.0
 10
294.0141624773081
 20
322.3022295378895
 10
293.5697180328637
 20
322.3138036119636
  0
LWPOLYLINE
  5
13B7
330
18
100
AcDbEntity
  8
1
 48
0.04
100
AcDbPolyline
 90
        2
 70
     0
 43
0.0
 10
293.877588403234
 20
322.1679702786303
 10
294.0141624773081
 20
322.1656554638154
  0
LWPOLYLINE
  5
13B8
330
18
100
AcDbEntity
  8
1
 48
0.04
100
AcDbPolyline
 90
        2
 70
     0
 43
0.0
 10
294.0141624773081
 20
325.6702850934451
 10
293.5697180328637
 20
325.6772295378895
  0
LWPOLYLINE
  5
13BC
330
18
100
AcDbEntity
  8
1
 48
0.04
100
AcDbPolyline
 90
        2
 70
     0
 43
0.0
 10
293.7109217365673
 20
322.7489887971488
 10
293.7132365513822
 20
322.6494517601117
  0
LWPOLYLINE
  5
13C0
330
18
100
AcDbEntity
  8
1
 48
0.04
100
AcDbPolyline
 90
        2
 70
     0
 43
0.0
 10
293.7109217365673
 20
322.6378776860376
 10
293.7109217365673
 20
322.5823221304821
  0
LWPOLYLINE
  5
13C1
330
18
100
AcDbEntity
  8
1
 48
0.04
100
AcDbPolyline
 90
        2
 70
     0
 43
0.0
 10
293.7132365513822
 20
322.6494517601117
 10
293.7109217365673
 20
322.6378776860376
  0
LWPOLYLINE
  5
13C3
330
18
100
AcDbEntity
  8
1
 48
0.04
100
AcDbPolyline
 90
        2
 70
     0
 43
0.0
 10
293.7086069217525
 20
322.7605628712229
 10
293.7109217365673
 20
322.7489887971488
  0
LWPOLYLINE
  5
13C4
330
18
100
AcDbEntity
  8
1
 48
0.04
100
AcDbPolyline
 90
        2
 70
     0
 43
0.0
 10
293.8017213512109
 20
324.7284498333294
 10
293.80351432916
 20
324.7374147230747
  0
LWPOLYLINE
  5
13C5
330
18
100
AcDbEntity
  8
1
 48
0.04
100
AcDbPolyline
 90
        2
 70
     0
 43
0.0
 10
293.80351432916
 20
324.7374147230747
 10
293.7626517560607
 20
324.7248416236595
  0
LWPOLYLINE
  5
13C7
330
18
100
AcDbEntity
  8
1
 48
0.04
100
AcDbPolyline
 90
        3
 70
     0
 43
0.0
 10
293.715551366197
 20
324.825377686038
 10
293.715551366197
 20
324.8415813897413
 10
293.7132365513822
 20
324.857785093445
  0
LWPOLYLINE
  5
13C8
330
18
100
AcDbEntity
  8
1
 48
0.04
100
AcDbPolyline
 90
        2
 70
     0
 43
0.0
 10
293.6854587736044
 20
324.7628776860377
 10
293.6854587736044
 20
324.7536184267783
  0
LWPOLYLINE
  5
13C9
330
18
100
AcDbEntity
  8
1
 48
0.04
100
AcDbPolyline
 90
        2
 70
     0
 43
0.0
 10
293.6877735884192
 20
324.7443591675191
 10
293.7109217365673
 20
324.8624147230747
  0
LWPOLYLINE
  5
13CA
330
18
100
AcDbEntity
  8
1
 48
0.04
100
AcDbPolyline
 90
        2
 70
     0
 43
0.0
 10
293.7109217365673
 20
324.8624147230747
 10
293.7109217365673
 20
324.8971369452968
  0
LWPOLYLINE
  5
13CB
330
18
100
AcDbEntity
  8
1
 48
0.04
100
AcDbPolyline
 90
        2
 70
     0
 43
0.0
 10
294.0095328476784
 20
324.7489887971488
 10
293.80351432916
 20
324.7374147230747
  0
LWPOLYLINE
  5
13CC
330
18
100
AcDbEntity
  8
1
 48
0.04
100
AcDbPolyline
 90
        2
 70
     0
 43
0.0
 10
293.7132365513822
 20
324.857785093445
 10
293.7109217365673
 20
324.8624147230747
  0
LWPOLYLINE
  5
13CD
330
18
100
AcDbEntity
  8
1
 48
0.04
100
AcDbPolyline
 90
        2
 70
     0
 43
0.0
 10
293.5697180328637
 20
323.1818591675191
 10
294.0141624773081
 20
323.2073221304821
  0
LWPOLYLINE
  5
13CE
330
18
100
AcDbEntity
  8
1
 48
0.04
100
AcDbPolyline
 90
        2
 70
     0
 43
0.0
 10
293.5697180328637
 20
323.1864887971488
 10
294.0141624773081
 20
323.2119517601117
  0
LWPOLYLINE
  5
13CF
330
18
100
AcDbEntity
  8
1
 48
0.04
100
AcDbPolyline
 90
        2
 70
     0
 43
0.0
 10
294.0141624773081
 20
323.3230628712229
 10
293.5697180328637
 20
323.2975999082599
  0
LWPOLYLINE
  5
13D0
330
18
100
AcDbEntity
  8
1
 48
0.04
100
AcDbPolyline
 90
        2
 70
     0
 43
0.0
 10
293.5697180328637
 20
322.7813962045562
 10
293.7140570678883
 20
322.7886131563075
  0
LWPOLYLINE
  5
13D1
330
18
100
AcDbEntity
  8
1
 48
0.04
100
AcDbPolyline
 90
        2
 70
     0
 43
0.0
 10
293.5697180328637
 20
325.1100999082599
 10
294.0141624773081
 20
325.1332480564081
  0
LWPOLYLINE
  5
13D2
330
18
100
AcDbEntity
  8
1
 48
0.04
100
AcDbPolyline
 90
        2
 70
     0
 43
0.0
 10
293.5697180328637
 20
325.033711019371
 10
294.0141624773081
 20
325.0591739823339
  0
LWPOLYLINE
  5
13D3
330
18
100
AcDbEntity
  8
1
 48
0.04
100
AcDbPolyline
 90
        2
 70
     0
 43
0.0
 10
294.0141624773081
 20
325.4017665749266
 10
293.5697180328637
 20
325.3763036119636
  0
DIMENSION
  5
13D4
330
18
100
AcDbEntity
  8
2
 48
0.04
100
AcDbDimension
  2
*D0
 10
295.2226184908147
 20
321.7698221304821
 30
0.0
 11
295.2226184908147
 21
323.7698221304821
 31
0.0
 70
   160
  1
%%c<>
 71
     5
 42
4.0
  3
STANDARD
100
AcDbAlignedDimension
 13
294.0419402550859
 23
325.7698221304821
 33
0.0
 14
294.0419402550859
 24
321.7698221304821
 34
0.0
 50
90.0
100
AcDbRotatedDimension
1001
ACAD_DSTYLE_DIMINSPECT
1070
   396
1000
100%
1070
   395
1000

1070
   394
1070
    33
1070
   393
1070
     0
1001
ACAD
1000
DSTYLE
1002
{
1070
   272
1070
     2
1070
   274
1070
     3
1070
   283
1070
     1
1070
   284
1070
     8
1002
}
  0
LINE
  5
13D5
102
{ACAD_REACTORS
330
13E0
102
}
330
18
100
AcDbEntity
  8
3
 48
0.04
100
AcDbLine
 10
293.5419402550859
 20
325.7698221304821
 30
0.0
 11
294.0419402550859
 21
325.7698221304821
 31
0.0
  0
LINE
  5
13D6
330
18
100
AcDbEntity
  8
3
 48
0.04
100
AcDbLine
 10
293.5419402550859
 20
321.7698221304821
 30
0.0
 11
294.0419402550859
 21
321.7698221304821
 31
0.0
  0
DIMENSION
  5
13D8
102
{ACAD_XDICTIONARY
360
13D9
102
}
102
{ACAD_REACTORS
330
13DA
102
}
330
18
100
AcDbEntity
  8
SK2
 48
0.04
100
AcDbDimension
  2
*D2
 10
294.1044402550859
 20
326.4165049701298
 30
0.0
 11
294.7073567396117
 21
326.5778234665968
 31
0.0
 70
    32
 71
     5
 42
0.625
  3
STANDARD
100
AcDbAlignedDimension
 13
293.4794402550859
 23
324.5452850934451
 33
0.0
 14
294.1044402550859
 24
324.5545443527043
 34
0.0
100
AcDbRotatedDimension
1001
ACAD_DSTYLE_DIMINSPECT
1070
   396
1000
100%
1070
   395
1000

1070
   394
1070
    33
1070
   393
1070
     0
1001
ACAD
1000
DSTYLE
1002
{
1070
   286
1070
     8
1070
   274
1070
     3
1070
   284
1070
     8
1070
   283
1070
     1
1070
   146
1040
0.7071069999999999
1070
   272
1070
     2
1070
    47
1040
0.0
1070
    48
1040
0.000000001
1070
    72
1070
     0
1070
    71
1070
     0
1002
}
  0
DIMENSION
  5
13DB
102
{ACAD_XDICTIONARY
360
13DC
102
}
102
{ACAD_REACTORS
330
13DD
102
}
330
18
100
AcDbEntity
  8
2
 48
0.04
100
AcDbDimension
  2
*D3
 10
294.0419402550859
 20
326.1311519642529
 30
0.0
 11
294.7054599899258
 21
326.2924704607198
 31
0.0
 70
    32
 71
     5
 42
0.5
  3
STANDARD
100
AcDbAlignedDimension
 13
293.5419402550859
 23
325.658711019371
 33
0.0
 14
294.0419402550859
 24
325.6563962045562
 34
0.0
100
AcDbRotatedDimension
1001
ACAD_DSTYLE_DIMINSPECT
1070
   396
1000
100%
1070
   395
1000

1070
   394
1070
    33
1070
   393
1070
     0
1001
ACAD
1000
DSTYLE
1002
{
1070
   286
1070
     8
1070
   274
1070
     3
1070
   284
1070
     8
1070
   283
1070
     1
1070
   146
1040
0.7071069999999999
1070
   272
1070
     2
1070
    47
1040
0.0
1070
    48
1040
0.000000001
1070
    72
1070
     0
1070
    71
1070
     0
1002
}
  0
DIMENSION
  5
13DE
102
{ACAD_XDICTIONARY
360
13DF
102
}
102
{ACAD_REACTORS
330
13E0
102
}
330
18
100
AcDbEntity
  8
2
 48
0.04
100
AcDbDimension
  2
*D4
 10
294.7458162209069
 20
324.6233871485173
 30
0.0
 11
294.5864828285506
 21
325.1966046394997
 31
0.0
 70
    32
 71
     5
 42
1.14643498196483
  3
STANDARD
100
AcDbAlignedDimension
 13
294.0419402550859
 23
325.7698221304821
 33
0.0
 14
294.0225126101747
 24
324.6233871485173
 34
0.0
 50
90.0
100
AcDbRotatedDimension
1001
ACAD_DSTYLE_DIMINSPECT
1070
   396
1000
100%
1070
   395
1000

1070
   394
1070
    33
1070
   393
1070
     0
1001
ACAD
1000
DSTYLE
1002
{
1070
   271
1070
     1
1070
   272
1070
     2
1070
   274
1070
     3
1070
   283
1070
     1
1070
   284
1070
     8
1002
}
  0
DIMENSION
  5
13E1
330
18
100
AcDbEntity
  8
2
 48
0.04
100
AcDbDimension
  2
*D1
 10
294.7458162209069
 20
322.9850999082599
 30
0.0
 11
294.5824642031557
 21
323.7698221304821
 31
0.0
 70
    32
  1
%%c<>
 71
     5
 42
1.569444444444456
  3
STANDARD
100
AcDbAlignedDimension
 13
294.1044402550859
 23
324.5545443527043
 33
0.0
 14
294.1044402550859
 24
322.9850999082599
 34
0.0
 50
90.0
100
AcDbRotatedDimension
1001
ACAD_DSTYLE_DIMINSPECT
1070
   396
1000
100%
1070
   395
1000

1070
   394
1070
    33
1070
   393
1070
     0
1001
ACAD
1000
DSTYLE
1002
{
1070
   271
1070
     2
1070
   272
1070
     2
1070
   274
1070
     3
1070
   283
1070
     1
1070
   284
1070
     8
1002
}
  0
MTEXT
  5
13E2
330
18
100
AcDbEntity
  8
SK6
 48
0.04
100
AcDbMText
 10
293.4817550699007
 20
321.4976285068098
 30
0.0
 40
0.1377952755905512
 41
2.76828942194305
 71
     1
 72
     5
  1
335.18-04.00-0.50F-5N\P21509
  7
STANDARD 3.5 mm
 73
     1
 44
1.0
1001
ACAD
1000
ACAD_MTEXT_COLUMN_INFO_BEGIN
1070
    75
1070
     2
1070
    79
1070
     0
1070
    76
1070
     1
1070
    78
1070
     0
1070
    48
1040
2.76828942194305
1070
    49
1040
25.0
1070
    50
1070
     1
1040
0.0
1000
ACAD_MTEXT_COLUMN_INFO_END
1000
MTEXTBEGIN
1070
    73
1070
     1
1070
    44
1040
1.0
1070
    74
1070
     0
1000
MTEXTEND
  0
LINE
  5
13E3
330
18
100
AcDbEntity
  8
1
 48
0.04
100
AcDbLine
 10
293.877588403234
 20
323.7975999082599
 30
0.0
 11
293.877588403234
 21
323.7767665749266
 31
0.0
  0
LINE
  5
13E4
330
18
100
AcDbEntity
  8
1
 48
0.04
100
AcDbLine
 10
293.877588403234
 20
322.221211019371
 30
0.0
 11
293.877588403234
 21
322.1309332415932
 31
0.0
  0
LINE
  5
13E5
330
18
100
AcDbEntity
  8
1
 48
0.04
100
AcDbLine
 10
293.8683291439748
 20
322.2489887971488
 30
0.0
 11
293.8683291439748
 21
322.2397295378895
 31
0.0
  0
LINE
  5
13E6
330
18
100
AcDbEntity
  8
1
 48
0.04
100
AcDbLine
 10
293.8590698847155
 20
323.533711019371
 30
0.0
 11
293.7873106254562
 21
323.533711019371
 31
0.0
  0
LINE
  5
13E7
330
18
100
AcDbEntity
  8
1
 48
0.04
100
AcDbLine
 10
293.7641624773081
 20
323.7860258341858
 30
0.0
 11
293.7595328476784
 21
323.7860258341858
 31
0.0
  0
LINE
  5
13E8
330
18
100
AcDbEntity
  8
1
 48
0.04
100
AcDbLine
 10
293.7618476624933
 20
323.7906554638154
 30
0.0
 11
293.7687921069377
 21
323.7906554638154
 31
0.0
  0
LINE
  5
13E9
330
18
100
AcDbEntity
  8
1
 48
0.04
100
AcDbLine
 10
293.715551366197
 20
323.7999147230746
 30
0.0
 11
293.6924032180488
 21
323.7999147230746
 31
0.0
  0
LINE
  5
13EA
330
18
100
AcDbEntity
  8
1
 48
0.04
100
AcDbLine
 10
293.6715698847155
 20
323.795285093445
 30
0.0
 11
293.6831439587896
 21
323.795285093445
 31
0.0
  0
LINE
  5
13EB
330
18
100
AcDbEntity
  8
1
 48
0.04
100
AcDbLine
 10
293.6877735884192
 20
323.7906554638154
 30
0.0
 11
293.6785143291599
 21
323.7906554638154
 31
0.0
  0
LINE
  5
13ED
330
18
100
AcDbEntity
  8
1
 48
0.04
100
AcDbLine
 10
293.7386995143451
 20
322.096211019371
 30
0.0
 11
293.7386995143451
 21
322.1031554638154
 31
0.0
  0
LINE
  5
13EE
330
18
100
AcDbEntity
  8
1
 48
0.04
100
AcDbLine
 10
293.715551366197
 20
322.1054702786303
 30
0.0
 11
293.7132365513822
 21
322.1008406490006
 31
0.0
  0
LINE
  5
13EF
330
18
100
AcDbEntity
  8
1
 48
0.04
100
AcDbLine
 10
293.7062921069377
 20
322.0938962045562
 30
0.0
 11
293.6924032180488
 21
322.0938962045562
 31
0.0
  0
LINE
  5
13F0
330
18
100
AcDbEntity
  8
1
 48
0.04
100
AcDbLine
 10
293.840551366197
 20
322.7559332415932
 30
0.0
 11
293.840551366197
 21
322.7513036119636
 31
0.0
  0
LINE
  5
13F1
330
18
100
AcDbEntity
  8
1
 48
0.04
100
AcDbLine
 10
293.8197180328637
 20
322.7397295378895
 30
0.0
 11
293.8266624773081
 21
322.7397295378895
 31
0.0
  0
LINE
  5
13F3
330
18
100
AcDbEntity
  8
1
 48
0.04
100
AcDbLine
 10
293.8868476624933
 20
322.7026925008525
 30
0.0
 11
293.8868476624933
 21
322.7003776860377
 31
0.0
  0
LINE
  5
14A5
330
18
100
AcDbEntity
  8
1
 48
0.04
100
AcDbLine
 10
293.7641624773081
 20
322.0383406490006
 30
0.0
 11
293.7595328476784
 21
322.0429702786303
 31
0.0
  0
LINE
  5
14A6
330
18
100
AcDbEntity
  8
1
 48
0.04
100
AcDbLine
 10
293.9146254402711
 20
322.7188962045562
 30
0.0
 11
293.9076809958266
 21
322.7119517601118
 31
0.0
  0
LINE
  5
1603
330
18
100
AcDbEntity
  8
SK4
 48
0.04
100
AcDbLine
 10
293.2943442256414
 20
323.7698221304821
 30
0.0
 11
294.31286274416
 21
323.7698221304821
 31
0.0
  0
LINE
  5
1604
330
18
100
AcDbEntity
  8
SK3
 48
0.04
100
AcDbLine
 10
293.4794402550859
 20
323.2698221304821
 30
0.0
 11
294.1044402550859
 21
323.2698221304821
 31
0.0
  0
LINE
  5
1605
330
18
100
AcDbEntity
  8
SK3
 48
0.04
100
AcDbLine
 10
293.4794402550859
 20
324.2698221304821
 30
0.0
 11
294.1044402550859
 21
324.2698221304821
 31
0.0
  0
DIMENSION
  5
1606
330
18
100
AcDbEntity
  8
SK2
100
AcDbDimension
  2
*D7
 10
293.1736164457662
 20
324.2698221304821
 30
0.0
 11
293.010264428015
 21
323.7698221304821
 31
0.0
 70
    32
  1
%%c<>
 71
     5
 42
-1.0
  3
STANDARD
100
AcDbAlignedDimension
 13
293.4794402550859
 23
323.2698221304821
 33
0.0
 14
293.4794402550859
 24
324.2698221304821
 34
0.0
 50
90.0
100
AcDbRotatedDimension
1001
ACAD
1000
DSTYLE
1002
{
1070
   286
1070
     8
1070
   274
1070
     2
1070
   284
1070
     8
1070
   283
1070
     1
1070
   146
1040
0.7071069999999999
1070
   272
1070
     3
1070
    47
1040
0.0
1070
    48
1040
0.000000001
1070
    72
1070
     0
1070
    71
1070
     0
1002
}
1001
ACAD_DSTYLE_DIMINSPECT
1070
   396
1000
100%
1070
   395
1000

1070
   394
1070
    33
1070
   393
1070
     0
  0
LWPOLYLINE
  5
1962
330
18
100
AcDbEntity
  8
1
 48
0.04
100
AcDbPolyline
 90
        2
 70
     0
 43
0.0
 10
293.7113846995302
 20
323.784173982334
 10
293.7039772921229
 20
323.7860258341858
  0
LINE
  5
1965
330
18
100
AcDbEntity
  8
1
100
AcDbLine
 10
293.7062921069377
 20
321.9596369452968
 30
0.0
 11
293.7363846995303
 21
321.9596369452968
 31
0.0
  0
ARC
  5
1A6F
330
18
100
AcDbEntity
  8
1
100
AcDbCircle
 10
293.5181307312764
 20
324.5534200140801
 30
0.0
 40
0.0363930333698861
100
AcDbArc
 50
99.94163036570551
 51
178.229603194663
  0
ARC
  5
1A70
330
18
100
AcDbEntity
  8
1
100
AcDbCircle
 10
293.4928866058485
 20
324.6705914659943
 30
0.0
 40
0.0835060451479446
100
AcDbArc
 50
283.1241658158423
 51
336.9363527276988
  0
ARC
  5
1A71
330
18
100
AcDbEntity
  8
1
100
AcDbCircle
 10
294.0648673986095
 20
324.5500942545609
 30
0.0
 40
0.0398222845048942
100
AcDbArc
 50
6.416144219295047
 51
79.63398775910555
  0
ARC
  5
1A72
330
18
100
AcDbEntity
  8
1
100
AcDbCircle
 10
294.0947899987979
 20
324.6752901364247
 30
0.0
 40
0.0889828132837853
100
AcDbArc
 50
207.9905613807813
 51
255.1821047502393
  0
ARC
  5
1A73
330
18
100
AcDbEntity
  8
1
100
AcDbCircle
 10
293.5181307312764
 20
322.9862242468842
 30
0.0
 40
0.0363930333698861
100
AcDbArc
 50
181.7703968053349
 51
260.0583696342947
  0
ARC
  5
1A74
330
18
100
AcDbEntity
  8
1
100
AcDbCircle
 10
293.4928866058485
 20
322.8690527949699
 30
0.0
 40
0.0835060451479446
100
AcDbArc
 50
23.0636472723015
 51
76.87583418415812
  0
ARC
  5
1A75
330
18
100
AcDbEntity
  8
1
100
AcDbCircle
 10
294.0648673986095
 20
322.9895500064033
 30
0.0
 40
0.0398222845048942
100
AcDbArc
 50
280.3660122408945
 51
353.5838557807082
  0
ARC
  5
1A76
330
18
100
AcDbEntity
  8
1
100
AcDbCircle
 10
294.0947899987979
 20
322.8643541245395
 30
0.0
 40
0.0889828132837853
100
AcDbArc
 50
104.8178952497603
 51
154.9721402821406
  0
VIEWPORT
  5
B7D
102
{ACAD_XDICTIONARY
360
B7E
102
}
330
B76
100
AcDbEntity
 67
     1
  8
0
100
AcDbViewport
 10
148.5107508928981
 20
104.9919851296364
 30
0.0
 40
478.4423408046921
 41
231.5368674036399
 68
     1
 69
     1
 12
148.5107508928981
 22
104.9919851296364
 13
0.0
 23
0.0
 14
10.0
 24
10.0
 15
10.0
 25
10.0
 16
0.0
 26
0.0
 36
1.0
 17
0.0
 27
0.0
 37
0.0
 42
50.0
 43
0.0
 44
0.0
 45
231.5368674036399
 50
0.0
 51
0.0
 72
  2000
 90
   819232
  1

281
     0
 71
     1
 74
     0
110
0.0
120
0.0
130
0.0
111
1.0
121
0.0
131
0.0
112
0.0
122
1.0
132
0.0
 79
     0
146
0.0
1001
GENIUS_GENODEF_13
1002
{
1000
HIER
1070
     0
1002
}
1002
{
1000
MANEDIT
1070
     0
1002
}
1002
{
1000
NOSEL
1070
     0
1002
}
1002
{
1000
BEHIND
1070
     0
1002
}
1002
{
1000
OTHER
1070
     0
1002
}
1002
{
1000
REACTOR
1002
}
1001
GENIUS_GENOBJ-N-SDF_13
1002
{
1000
OWNER
1000
GEN
1002
}
1001
GENIUS_GENSCREG_15
1000
PF
1040
1.0
1000
DF
1040
1.0
1000
MIN
1011
-90.71041950944794
1021
-10.77644857218354
1031
0.0
1000
MAX
1011
387.7319212952442
1021
220.7604188314564
1031
0.0
1000
FLAGS
1070
     4
  0
VIEWPORT
  5
B81
102
{ACAD_XDICTIONARY
360
B82
102
}
330
B76
100
AcDbEntity
 67
     1
  8
1
100
AcDbViewport
 10
148.5
 20
105.0
 30
0.0
 40
297.0
 41
210.0
 68
     2
 69
     2
 12
0.0947728278484874
 22
0.1902310545302228
 13
0.0
 23
0.0
 14
5.0
 24
5.0
 15
5.0
 25
5.0
 16
0.0
 26
0.0
 36
1.0
 17
0.0
 27
0.0
 37
0.0
 42
50.0
 43
0.0
 44
0.0
 45
210.0000006422834
 50
0.0
 51
0.0
 72
  2000
 90
   819232
  1

281
     0
 71
     1
 74
     0
110
0.0
120
0.0
130
0.0
111
1.0
121
0.0
131
0.0
112
0.0
122
1.0
132
0.0
 79
     0
146
0.0
1001
GENIUS_GENOBJ-N-SDF_13
1002
{
1000
OWNER
1000
GEN
1002
}
1001
GENIUS_GENODEF_13
1002
{
1000
HIER
1070
     0
1002
}
1002
{
1000
MANEDIT
1070
     0
1002
}
1002
{
1000
NOSEL
1070
     0
1002
}
1002
{
1000
BEHIND
1070
     0
1002
}
1002
{
1000
OTHER
1070
     0
1002
}
1002
{
1000
REACTOR
1002
}
1001
GENIUS_GENSCREG_15
1000
PF
1040
0.0
1000
DF
1040
0.0
1000
MIN
1011
0.0
1021
0.0
1031
0.0
1000
MAX
1011
297.0
1021
210.0
1031
0.0
1000
FLAGS
1070
     4
  0
ENDSEC
  0
SECTION
  2
OBJECTS
  0
DICTIONARY
  5
C
330
0
100
AcDbDictionary
281
     1
  3
ACAD_2007HEADERVARS_RT
350
1BF6
  3
ACAD_CIP_PREVIOUS_PRODUCT_INFO
350
EB2
  3
ACAD_COLOR
350
387
  3
ACAD_DETAILVIEWSTYLE
350
EAA
  3
ACAD_FIELDLIST
350
ECE
  3
ACAD_GROUP
350
D
  3
ACAD_LAYOUT
350
301
  3
ACAD_MATERIAL
350
386
  3
ACAD_MLEADERSTYLE
350
46F
  3
ACAD_MLINESTYLE
350
E
  3
ACAD_PLOTSETTINGS
350
302
  3
ACAD_PLOTSTYLENAME
350
2FF
  3
ACAD_SCALELIST
350
44D
  3
ACAD_SECTIONVIEWSTYLE
350
EA8
  3
ACAD_TABLESTYLE
350
388
  3
ACAD_VISUALSTYLE
350
3F2
  3
ACDB_RECOMPOSE_DATA
350
1BF4
  3
AcDbVariableDictionary
350
357
  3
AcmDictionary
350
4D1
  3
AMG
350
478
  3
AMGSNAPSETTINGS
350
51E
  3
DWGPROPS
350
1BF5
  0
DICTIONARY
  5
ACA
330
8
100
AcDbDictionary
280
     1
281
     1
  0
DICTIONARY
  5
43C
330
2
100
AcDbDictionary
280
     1
281
     1
  3
ACAD_LAYERFILTERS
360
B75
  3
ACAD_LAYERSTATES
360
567
  3
ACLYDICTIONARY
360
B74
  0
DICTIONARY
  5
52D
330
F
100
AcDbDictionary
280
     1
281
     1
  3
ADSK_XREC_LAYER_RECONCILED
360
1508
  0
DICTIONARY
  5
52F
330
23
100
AcDbDictionary
280
     1
281
     1
  3
ADSK_XREC_LAYER_RECONCILED
360
1509
  0
DICTIONARY
  5
533
330
25
100
AcDbDictionary
280
     1
281
     1
  3
ADSK_XREC_LAYER_RECONCILED
360
150A
  0
DICTIONARY
  5
537
330
27
100
AcDbDictionary
280
     1
281
     1
  3
ADSK_XREC_LAYER_RECONCILED
360
150B
  0
DICTIONARY
  5
539
330
28
100
AcDbDictionary
280
     1
281
     1
  3
ADSK_XREC_LAYER_RECONCILED
360
150C
  0
DICTIONARY
  5
53F
330
2B
100
AcDbDictionary
280
     1
281
     1
  3
ADSK_XREC_LAYER_RECONCILED
360
150D
  0
DICTIONARY
  5
545
330
2E
100
AcDbDictionary
280
     1
281
     1
  3
ADSK_XREC_LAYER_RECONCILED
360
150E
  0
DICTIONARY
  5
15E1
330
15E0
100
AcDbDictionary
280
     1
281
     1
  0
DICTIONARY
  5
1963
330
18
100
AcDbDictionary
280
     1
281
     1
  3
ACAD_SORTENTS
360
1964
  0
DICTIONARY
  5
13D9
330
13D8
100
AcDbDictionary
280
     1
281
     1
  3
ACAD_DIMASSOC
360
13DA
  0
DICTIONARY
  5
13DC
330
13DB
100
AcDbDictionary
280
     1
281
     1
  3
ACAD_DIMASSOC
360
13DD
  0
DICTIONARY
  5
13DF
330
13DE
100
AcDbDictionary
280
     1
281
     1
  3
ACAD_DIMASSOC
360
13E0
  0
DICTIONARY
  5
B7E
330
B7D
100
AcDbDictionary
280
     1
281
     1
  3
ACAD_XREC_ROUNDTRIP
360
1C27
  3
ASDK_XREC_ANNOTATION_SCALE_INFO
360
B7F
  0
DICTIONARY
  5
B82
330
B81
100
AcDbDictionary
280
     1
281
     1
  3
ACAD_XREC_ROUNDTRIP
360
1C28
  3
ASDK_XREC_ANNOTATION_SCALE_INFO
360
B83
  0
DICTIONARY
  5
1BF6
102
{ACAD_REACTORS
330
C
102
}
330
C
100
AcDbDictionary
281
     1
  3
DIMARCSYM
350
1BF7
  3
DIMJOGANG
350
1BF8
  3
DIMLTEX1
350
1BFA
  3
DIMLTEX2
350
1BFB
  3
DIMLTYPE
350
1BF9
  0
XRECORD
  5
EB2
102
{ACAD_REACTORS
330
C
102
}
330
C
100
AcDbXrecord
280
     1
300
AMECH_PP
300
2014
300
86138AMECH_PP_2014_0F
  0
DICTIONARY
  5
387
102
{ACAD_REACTORS
330
C
102
}
330
C
100
AcDbDictionary
281
     1
  0
DICTIONARY
  5
EAA
102
{ACAD_REACTORS
330
C
102
}
330
C
100
AcDbDictionary
281
     1
  3
Imperial24
350
EAB
  3
Metric50
350
F41
  0
FIELDLIST
  5
ECE
102
{ACAD_REACTORS
330
C
102
}
330
C
100
AcDbIdSet
 90
        4
330
1BE7
330
1BE8
330
1BE9
330
1BEA
100
AcDbFieldList
  0
DICTIONARY
  5
D
102
{ACAD_REACTORS
330
C
102
}
330
C
100
AcDbDictionary
281
     1
  0
DICTIONARY
  5
301
102
{ACAD_REACTORS
330
C
102
}
330
C
100
AcDbDictionary
281
     1
  3
Layout1
350
B77
  3
Model
350
303
  0
DICTIONARY
  5
386
102
{ACAD_REACTORS
330
C
102
}
330
C
100
AcDbDictionary
281
     1
  3
ByBlock
350
3F0
  3
ByLayer
350
3EF
  3
Global
350
3F1
  0
DICTIONARY
  5
46F
102
{ACAD_REACTORS
330
C
102
}
330
C
100
AcDbDictionary
281
     1
  3
Standard
350
470
  0
DICTIONARY
  5
E
102
{ACAD_REACTORS
330
C
102
}
330
C
100
AcDbDictionary
281
     1
  3
STANDARD
350
1B
  0
DICTIONARY
  5
302
102
{ACAD_REACTORS
330
C
102
}
330
C
100
AcDbDictionary
281
     1
  3
DWG To PDF ANSI A - landscape
350
7EF
  3
DWG To PDF ANSI A - portrait
350
7F8
  0
ACDBDICTIONARYWDFLT
  5
2FF
102
{ACAD_REACTORS
330
C
102
}
330
C
100
AcDbDictionary
281
     1
  3
Normal
350
300
100
AcDbDictionaryWithDefault
340
300
  0
DICTIONARY
  5
44D
102
{ACAD_REACTORS
330
C
102
}
330
C
100
AcDbDictionary
281
     1
  3
A0
350
CF4
  3
A1
350
CF5
  3
A2
350
CF6
  3
A3
350
CF7
  3
A4
350
CF8
  3
A5
350
CF9
  3
A6
350
44E
  3
A7
350
CFA
  3
A8
350
CFB
  3
A9
350
CFC
  3
B0
350
CFD
  3
B1
350
CFE
  3
B2
350
CFF
  3
B3
350
D00
  3
B4
350
D01
  3
B5
350
D02
  3
B6
350
D03
  3
B7
350
D04
  3
B8
350
D05
  3
B9
350
D06
  3
C0
350
D07
  3
C1
350
D08
  3
C2
350
D09
  3
C3
350
D0A
  3
C4
350
D0B
  3
C5
350
D0C
  3
C6
350
D0D
  3
C7
350
D0E
  3
C8
350
D0F
  0
DICTIONARY
  5
EA8
102
{ACAD_REACTORS
330
C
102
}
330
C
100
AcDbDictionary
281
     1
  3
Imperial24
350
EA9
  3
Metric50
350
F3F
  0
DICTIONARY
  5
388
102
{ACAD_REACTORS
330
C
102
}
330
C
100
AcDbDictionary
281
     1
  3
Standard
350
389
  0
DICTIONARY
  5
3F2
102
{ACAD_REACTORS
330
C
102
}
330
C
100
AcDbDictionary
281
     1
  3
2dWireframe
350
3F8
  3
3D Hidden
350
3FA
  3
3dWireframe
350
3F9
  3
Basic
350
3F7
  3
Brighten
350
3FE
  3
ColorChange
350
402
  3
Conceptual
350
3FB
  3
Dim
350
3FD
  3
EdgeColorOff
350
C40
  3
Facepattern
350
401
  3
Flat
350
3F3
  3
FlatWithEdges
350
3F4
  3
Gouraud
350
3F5
  3
GouraudWithEdges
350
3F6
  3
Hidden
350
EA2
  3
JitterOff
350
C3E
  3
Linepattern
350
400
  3
OverhangOff
350
C3F
  3
Realistic
350
3FC
  3
Shaded
350
EA7
  3
Shaded with edges
350
EA6
  3
Shades of Gray
350
EA3
  3
Sketchy
350
EA4
  3
Thicken
350
3FF
  3
Wireframe
350
EA1
  3
X-Ray
350
EA5
  0
XRECORD
  5
1BF4
102
{ACAD_REACTORS
330
C
102
}
330
C
100
AcDbXrecord
280
     1
 90
        1
330
389
330
13E2
  0
DICTIONARY
  5
357
102
{ACAD_REACTORS
330
C
102
}
330
C
100
AcDbDictionary
281
     1
  3
CANNOSCALE
350
57C
  3
CMLEADERSTYLE
350
57A
  3
CTABLESTYLE
350
38E
  3
CVIEWDETAILSTYLE
350
EE7
  3
CVIEWSECTIONSTYLE
350
EE8
  3
DIMASSOC
350
359
  3
HIDETEXT
350
358
  3
INDEXCTL
350
B51
  3
LAYEREVAL
350
C52
  3
LAYERNOTIFY
350
C53
  3
LIGHTINGUNITS
350
57D
  3
MSLTSCALE
350
57B
  3
SOLIDHIST
350
1510
  3
SORTENTS
350
B50
  3
XCLIPFRAME
350
1BF2
  0
DICTIONARY
  5
4D1
102
{ACAD_REACTORS
330
C
102
}
330
C
100
AcDbDictionary
281
     1
  3
AcmStdDictionary
350
4DC
  3
AMDTSECTSYM_ARROWCOLOR
350
4F3
  0
DICTIONARY
  5
478
102
{ACAD_REACTORS
330
C
102
}
330
C
100
AcDbDictionary
281
     1
  0
DICTIONARY
  5
51E
102
{ACAD_REACTORS
330
C
102
}
330
C
100
AcDbDictionary
281
     1
  0
XRECORD
  5
1BF5
102
{ACAD_REACTORS
330
C
102
}
330
C
100
AcDbXrecord
280
     1
  1
DWGPROPS COOKIE
  2

  3

  4
Philippe Vogel
  6
Secotools DIN Template inch
  7

  8
Janardan765
  9

300
=
301
=
302
=
303
=
304
=
305
=
306
=
307
=
308
=
309
=
 40
0.0775666666666667
 41
2456946.800076158
 42
2457015.357247072
  1
HTTP://WWW.SECOTOOLS.COM/
 90
        0
  0
DICTIONARY
  5
B75
102
{ACAD_REACTORS
330
43C
102
}
330
43C
100
AcDbDictionary
281
     1
  0
DICTIONARY
  5
567
102
{ACAD_REACTORS
330
43C
102
}
330
43C
100
AcDbDictionary
281
     1
  3
BMG3.0
350
9A5
  0
DICTIONARY
  5
B74
102
{ACAD_REACTORS
330
43C
102
}
330
43C
100
AcDbDictionary
281
     1
1001
ACAD
1000
<All
  0
XRECORD
  5
1508
102
{ACAD_REACTORS
330
52D
102
}
330
52D
100
AcDbXrecord
280
     1
290
     1
  0
XRECORD
  5
1509
102
{ACAD_REACTORS
330
52F
102
}
330
52F
100
AcDbXrecord
280
     1
290
     1
  0
XRECORD
  5
150A
102
{ACAD_REACTORS
330
533
102
}
330
533
100
AcDbXrecord
280
     1
290
     1
  0
XRECORD
  5
150B
102
{ACAD_REACTORS
330
537
102
}
330
537
100
AcDbXrecord
280
     1
290
     1
  0
XRECORD
  5
150C
102
{ACAD_REACTORS
330
539
102
}
330
539
100
AcDbXrecord
280
     1
290
     1
  0
XRECORD
  5
150D
102
{ACAD_REACTORS
330
53F
102
}
330
53F
100
AcDbXrecord
280
     1
290
     1
  0
XRECORD
  5
150E
102
{ACAD_REACTORS
330
545
102
}
330
545
100
AcDbXrecord
280
     1
290
     1
  0
SORTENTSTABLE
  5
1964
102
{ACAD_REACTORS
330
1963
102
}
330
1963
100
AcDbSortentsTable
330
18
331
11E6
  5
11E6
331
11E2
  5
11E2
331
121D
  5
121D
331
11DE
  5
11DE
331
11DA
  5
11DA
331
1219
  5
1219
331
11BF
  5
11BF
331
13D8
  5
13DB
331
13F3
  5
14A5
331
13D4
  5
13D5
331
13D0
  5
13D1
331
125E
  5
125E
331
125A
  5
125A
331
12DC
  5
12DC
331
1256
  5
1256
331
1295
  5
1295
331
1366
  5
1367
331
12D8
  5
12D8
331
12D4
  5
12D4
331
1362
  5
1363
331
1323
  5
1324
331
1252
  5
1252
331
1291
  5
1291
331
12D0
  5
12D0
331
139D
  5
139E
331
1399
  5
139A
331
135A
  5
135B
331
13E8
  5
13E9
331
11D6
  5
11D6
331
1215
  5
1215
331
11D2
  5
11D2
331
1211
  5
1211
331
120D
  5
120D
331
11B3
  5
11B3
331
11CE
  5
11CE
331
1209
  5
1209
331
11AB
  5
11AB
331
128D
  5
128D
331
131F
  5
1320
331
1289
  5
1289
331
131B
  5
131C
331
1317
  5
1318
331
1285
  5
1285
331
1356
  5
1357
331
1395
  5
1396
331
12C0
  5
12C0
331
1352
  5
1353
331
13CC
  5
13CD
331
134E
  5
134F
331
13C8
  5
13C9
331
1389
  5
138A
331
13C4
  5
13C5
331
134A
  5
134B
331
13C0
  5
13C1
331
1205
  5
1205
331
1201
  5
1201
331
11FD
  5
11FD
331
11F9
  5
11F9
331
119F
  5
119F
331
123E
  5
123E
331
123A
  5
123A
331
1279
  5
1279
331
12B4
  5
12B4
331
1236
  5
1236
331
1275
  5
1275
331
1385
  5
1386
331
12B0
  5
12B0
331
1346
  5
1347
331
1232
  5
1232
331
1271
  5
1271
331
1342
  5
1343
331
1381
  5
1382
331
13BC
  5
13BD
331
12AC
  5
12AC
331
12A8
  5
12A8
331
133E
  5
133F
331
137D
  5
137E
331
13B8
  5
13B9
331
13B4
  5
13B5
331
133A
  5
133B
331
13B0
  5
13B1
331
11F5
  5
11F5
331
11F1
  5
11F1
331
11ED
  5
11ED
331
11E9
  5
11E9
331
1603
  5
1604
331
13E7
  5
13E8
331
13E3
  5
13E4
331
126D
  5
126D
331
12EF
  5
12EF
331
122E
  5
122E
331
122A
  5
122A
331
1269
  5
1269
331
12A4
  5
12A4
331
12EB
  5
12EB
331
1226
  5
1226
331
1265
  5
1265
331
1375
  5
1376
331
12A0
  5
12A0
331
1336
  5
1337
331
12E7
  5
12E7
331
12E3
  5
12E3
331
1222
  5
1222
331
1261
  5
1261
331
1371
  5
1372
331
13AC
  5
13AD
331
1A73
  5
1A73
331
129C
  5
129C
331
1298
  5
1298
331
1A6F
  5
1A6F
331
136D
  5
136E
331
13A4
  5
13A5
331
1369
  5
136A
331
13A0
  5
13A1
331
11E5
  5
11E5
331
11E1
  5
11E1
331
11DD
  5
11DD
331
121C
  5
121C
331
11D9
  5
11D9
331
1218
  5
1218
331
13DB
  5
13DE
331
11BE
  5
11BE
331
13D3
  5
13D4
331
125D
  5
125D
331
12DF
  5
12DF
331
1259
  5
1259
331
12DB
  5
12DB
331
1255
  5
1255
331
1294
  5
1294
331
1365
  5
1366
331
12D7
  5
12D7
331
1290
  5
1290
331
12D3
  5
12D3
331
1361
  5
1362
331
1322
  5
1323
331
1251
  5
1251
331
13EF
  5
13F0
331
135D
  5
135E
331
139C
  5
139D
331
1398
  5
1399
331
13EB
  5
13EC
331
1359
  5
135A
331
11D5
  5
11D5
331
1214
  5
1214
331
1210
  5
1210
331
11B6
  5
11B6
331
11D1
  5
11D1
331
120C
  5
120C
331
11CD
  5
11CD
331
1208
  5
1208
331
11AA
  5
11AA
331
1962
  5
1315
331
128C
  5
128C
331
131E
  5
131F
331
1288
  5
1288
331
131A
  5
131B
331
1316
  5
1317
331
1355
  5
1356
331
1394
  5
1395
331
13CF
  5
13D0
331
1351
  5
1352
331
1390
  5
1391
331
13CB
  5
13CC
331
134D
  5
134E
331
138C
  5
138D
331
13C7
  5
13C8
331
1388
  5
1389
331
13C3
  5
13C4
331
1349
  5
134A
331
1204
  5
1204
331
1200
  5
1200
331
11FC
  5
11FC
331
11F8
  5
11F8
331
127C
  5
127C
331
12B7
  5
12B7
331
123D
  5
123D
331
1239
  5
1239
331
1278
  5
1278
331
12B3
  5
12B3
331
12FA
  5
12FA
331
1235
  5
1235
331
1274
  5
1274
331
1345
  5
1346
331
1384
  5
1385
331
12AF
  5
12AF
331
12AB
  5
12AB
331
1341
  5
1342
331
1380
  5
1381
331
1231
  5
1231
331
1270
  5
1270
331
133D
  5
133E
331
13B7
  5
13B8
331
13B3
  5
13B4
331
1339
  5
133A
331
11F4
  5
11F4
331
11F0
  5
11F0
331
11EC
  5
11EC
331
1606
  5
1962
331
13E6
  5
13E7
331
13E2
  5
13E3
331
126C
  5
126C
331
12A7
  5
12A7
331
12EE
  5
12EE
331
122D
  5
122D
331
1229
  5
1229
331
1268
  5
1268
331
12A3
  5
12A3
331
12E6
  5
12E6
331
1225
  5
1225
331
1264
  5
1264
331
1374
  5
1375
331
129F
  5
129F
331
1A76
  5
1A76
331
1335
  5
1336
331
12E2
  5
12E2
331
1221
  5
1221
331
1260
  5
1260
331
1370
  5
1371
331
13AB
  5
13AC
331
1A72
  5
1A72
331
129B
  5
129B
331
136C
  5
136D
331
13A3
  5
13A4
331
1368
  5
1369
331
11E4
  5
11E4
331
121F
  5
121F
331
11E0
  5
11E0
331
11DC
  5
11DC
331
13DE
  5
13E1
331
121B
  5
121B
331
11D8
  5
11D8
331
11BD
  5
11BD
331
11B9
  5
11B9
331
13D6
  5
13D8
331
13F1
  5
13F2
331
13D2
  5
13D3
331
125C
  5
125C
331
12DE
  5
12DE
331
1258
  5
1258
331
12DA
  5
12DA
331
1325
  5
132B
331
1254
  5
1254
331
1293
  5
1293
331
1364
  5
1365
331
14A6
  5
1603
331
12D6
  5
12D6
331
12D2
  5
12D2
331
1321
  5
1322
331
1360
  5
1361
331
139F
  5
13A0
331
1250
  5
1250
331
13EE
  5
13EF
331
135C
  5
135D
331
139B
  5
139C
331
13EA
  5
13EB
331
1358
  5
1359
331
1217
  5
1217
331
11D4
  5
11D4
331
1213
  5
1213
331
120F
  5
120F
331
11B5
  5
11B5
331
11D0
  5
11D0
331
11CC
  5
11CC
331
120B
  5
120B
331
11A9
  5
11A9
331
1965
  5
1965
331
128F
  5
128F
331
124C
  5
124C
331
128B
  5
128B
331
131D
  5
131E
331
1248
  5
1248
331
1287
  5
1287
331
1397
  5
1398
331
1319
  5
131A
331
1315
  5
1316
331
1354
  5
1355
331
1393
  5
1394
331
1244
  5
1244
331
13CE
  5
13CF
331
12BA
  5
12BA
331
1350
  5
1351
331
1240
  5
1240
331
13CA
  5
13CB
331
134C
  5
134D
331
138B
  5
138C
331
1348
  5
1349
331
1207
  5
1207
331
1203
  5
1203
331
11FF
  5
11FF
331
11C0
  5
11C0
331
11FB
  5
11FB
331
11A1
  5
11A1
331
127F
  5
127F
331
127B
  5
127B
331
12B6
  5
12B6
331
123C
  5
123C
331
1238
  5
1238
331
1277
  5
1277
331
1387
  5
1388
331
12B2
  5
12B2
331
1344
  5
1345
331
1383
  5
1384
331
1234
  5
1234
331
1273
  5
1273
331
12AA
  5
12AA
331
1340
  5
1341
331
12F1
  5
12F1
331
1230
  5
1230
331
133C
  5
133D
331
137B
  5
137C
331
13B6
  5
13B7
331
13B2
  5
13B3
331
1338
  5
1339
331
11F7
  5
11F7
331
11F3
  5
11F3
331
11EF
  5
11EF
331
11EB
  5
11EB
331
1605
  5
1606
331
13E5
  5
13E6
331
13E1
  5
13E2
331
126F
  5
126F
331
126B
  5
126B
331
12A6
  5
12A6
331
12ED
  5
12ED
331
122C
  5
122C
331
1228
  5
1228
331
1267
  5
1267
331
1377
  5
1378
331
12A2
  5
12A2
331
12E9
  5
12E9
331
12E5
  5
12E5
331
1224
  5
1224
331
1263
  5
1263
331
1334
  5
1335
331
1373
  5
1374
331
1A75
  5
1A75
331
129E
  5
129E
331
129A
  5
129A
331
12E1
  5
12E1
331
136F
  5
1370
331
1220
  5
1220
331
1A71
  5
1A71
331
136B
  5
136C
331
13A6
  5
13A7
331
13A2
  5
13A3
331
11E7
  5
11E7
331
11E3
  5
11E3
331
121E
  5
121E
331
11DF
  5
11DF
331
11DB
  5
11DB
331
121A
  5
121A
331
13D5
  5
13D6
331
13F0
  5
13F1
331
13D1
  5
13D2
331
125F
  5
125F
331
125B
  5
125B
331
12DD
  5
12DD
331
1257
  5
1257
331
1296
  5
1296
331
1367
  5
1368
331
12D9
  5
12D9
331
12D5
  5
12D5
331
1363
  5
1364
331
1324
  5
1325
331
1253
  5
1253
331
14A5
  5
14A6
331
1292
  5
1292
331
12D1
  5
12D1
331
1320
  5
1321
331
135F
  5
1360
331
139E
  5
139F
331
139A
  5
139B
331
13ED
  5
13EE
331
135B
  5
135C
331
13E9
  5
13EA
331
11D7
  5
11D7
331
1216
  5
1216
331
11D3
  5
11D3
331
1212
  5
1212
331
120E
  5
120E
331
11CF
  5
11CF
331
120A
  5
120A
331
11AC
  5
11AC
331
128E
  5
128E
331
124B
  5
124B
331
128A
  5
128A
331
131C
  5
131D
331
1318
  5
1319
331
1396
  5
1397
331
1247
  5
1247
331
1286
  5
1286
331
1357
  5
1358
331
1314
  5
1314
331
1353
  5
1354
331
1392
  5
1393
331
13CD
  5
13CE
331
12B9
  5
12B9
331
134F
  5
1350
331
138E
  5
138F
331
13C9
  5
13CA
331
13C5
  5
13C7
331
134B
  5
134C
331
138A
  5
138B
331
13C1
  5
13C2
331
1206
  5
1206
331
1202
  5
1202
331
11FE
  5
11FE
331
11FA
  5
11FA
331
127E
  5
127E
331
123B
  5
123B
331
127A
  5
127A
331
12B5
  5
12B5
331
1237
  5
1237
331
1276
  5
1276
331
1386
  5
1387
331
12B1
  5
12B1
331
1347
  5
1348
331
1233
  5
1233
331
1343
  5
1344
331
1382
  5
1383
331
12AD
  5
12AD
331
12A9
  5
12A9
331
133F
  5
1340
331
12F0
  5
12F0
331
13B5
  5
13B6
331
133B
  5
133C
331
13B1
  5
13B2
331
11F6
  5
11F6
331
11F2
  5
11F2
331
11EE
  5
11EE
331
11EA
  5
11EA
331
1604
  5
1605
331
13E4
  5
13E5
331
126E
  5
126E
331
122F
  5
122F
331
126A
  5
126A
331
12A5
  5
12A5
331
12EC
  5
12EC
331
1227
  5
1227
331
1266
  5
1266
331
1376
  5
1377
331
12A1
  5
12A1
331
1337
  5
1338
331
12E8
  5
12E8
331
12E4
  5
12E4
331
1223
  5
1223
331
1262
  5
1262
331
1372
  5
1373
331
13AD
  5
13AE
331
1A74
  5
1A74
331
129D
  5
129D
331
1299
  5
1299
331
12E0
  5
12E0
331
1A70
  5
1A70
331
136E
  5
136F
331
13A9
  5
13AA
331
132B
  5
1334
331
136A
  5
136B
331
13A1
  5
13A2
  0
DIMASSOC
  5
13DA
102
{ACAD_REACTORS
330
13D9
102
}
330
13D9
100
AcDbDimAssoc
330
13D8
 90
        3
 70
     0
 71
     0
  1
AcDbOsnapPointRef
 72
     1
331
1394
 73
     2
 91
        1
 40
0.0
 10
0.0
 20
0.0
 30
2.000000000000000E+50
 75
     0
  1
AcDbOsnapPointRef
 72
     1
331
1398
 73
     2
 91
        1
 40
0.0
 10
0.0
 20
0.0
 30
2.000000000000000E+50
 75
     0
  0
DIMASSOC
  5
13DD
102
{ACAD_REACTORS
330
13DC
102
}
330
13DC
100
AcDbDimAssoc
330
13DB
 90
        3
 70
     0
 71
     0
  1
AcDbOsnapPointRef
 72
     1
331
11E4
 73
     2
 91
        1
 40
0.0
 10
0.0
 20
0.0
 30
2.000000000000000E+50
 75
     0
  1
AcDbOsnapPointRef
 72
    13
331
1291
 73
     2
 91
        1
 40
0.0
 10
0.0
 20
0.0
 30
2.000000000000000E+50
 75
     0
  0
DIMASSOC
  5
13E0
102
{ACAD_REACTORS
330
13DF
102
}
330
13DF
100
AcDbDimAssoc
330
13DE
 90
        1
 70
     0
 71
     0
  1
AcDbOsnapPointRef
 72
     1
331
13D5
 73
     0
 91
        0
 40
0.0
 10
0.0
 20
0.0
 30
2.000000000000000E+50
 75
     0
  0
XRECORD
  5
1C27
102
{ACAD_REACTORS
330
B7E
102
}
330
B7E
100
AcDbXrecord
280
     1
102
SHADEPLOT
 70
     0
  0
XRECORD
  5
B7F
102
{ACAD_REACTORS
330
B7E
102
}
330
B7E
100
AcDbXrecord
280
     1
 90
        1
340
44E
  0
XRECORD
  5
1C28
102
{ACAD_REACTORS
330
B82
102
}
330
B82
100
AcDbXrecord
280
     1
102
SHADEPLOT
 70
     0
  0
XRECORD
  5
B83
102
{ACAD_REACTORS
330
B82
102
}
330
B82
100
AcDbXrecord
280
     1
 90
        1
340
44E
  0
XRECORD
  5
1BF7
102
{ACAD_REACTORS
330
1BF6
102
}
330
1BF6
100
AcDbXrecord
280
     1
 70
     1
  0
XRECORD
  5
1BF8
102
{ACAD_REACTORS
330
1BF6
102
}
330
1BF6
100
AcDbXrecord
280
     1
 40
1.570796326794896
  0
XRECORD
  5
1BFA
102
{ACAD_REACTORS
330
1BF6
102
}
330
1BF6
100
AcDbXrecord
280
     1
340
12
  0
XRECORD
  5
1BFB
102
{ACAD_REACTORS
330
1BF6
102
}
330
1BF6
100
AcDbXrecord
280
     1
340
12
  0
XRECORD
  5
1BF9
102
{ACAD_REACTORS
330
1BF6
102
}
330
1BF6
100
AcDbXrecord
280
     1
340
12
  0
ACDBDETAILVIEWSTYLE
  5
EAB
102
{ACAD_XDICTIONARY
360
1C3F
102
}
102
{ACAD_REACTORS
330
EAA
330
1BE1
102
}
330
EAA
100
AcDbModelDocViewStyle
 70
     0
  3
Imperial24
290
     0
100
AcDbDetailViewStyle
 70
     0
 71
     0
 90
        3
 71
     1
340
10
 40
0.24
340
0
 40
0.24
300

 40
0.36
280
     3
 71
     2
340
14
 90
       25
 71
     3
340
10
 40
0.24
 90
        1
 40
0.75
 90
        1
300
%<\AcVar ViewType \f "%tc1">% %<\AcVar ViewDetailId>%\PSCALE %<\AcVar ViewScale \f "%sn">%
 71
     4
340
14
 90
       25
340
14
 90
       25
280
     0
  0
ACDBDETAILVIEWSTYLE
  5
F41
102
{ACAD_XDICTIONARY
360
1C43
102
}
102
{ACAD_REACTORS
330
EAA
330
1BE2
102
}
330
EAA
100
AcDbModelDocViewStyle
 70
     0
  3
Metric50
290
     0
100
AcDbDetailViewStyle
 70
     0
 71
     0
 90
        3
 71
     1
340
10
 40
5.0
340
0
 40
5.0
300

 40
0.0
280
     1
 71
     2
340
14
 90
       25
 71
     3
340
10
 40
5.0
 90
        0
 40
15.0
 90
        1
300
%<\AcVar ViewDetailId>% (%<\AcVar ViewScale \f "%sn">%)
 71
     4
340
14
 90
       25
340
14
 90
       25
280
     0
  0
LAYOUT
  5
B77
102
{ACAD_XDICTIONARY
360
1C25
102
}
102
{ACAD_REACTORS
330
301
102
}
330
301
100
AcDbPlotSettings
  1

  2
Default Windows System Printer.pc3
  4
A4
  6
AM_VIEW1
 40
4.233333110809326
 41
4.614340305328369
 42
4.233322143554686
 43
4.571990966796875
 44
209.8886566162109
 45
297.0530090332031
 46
0.0
 47
1.499209346090081
 48
0.0
 49
0.0
140
0.0
141
0.0
142
1.0
143
26.4837350367717
 70
   692
 72
     0
 73
     1
 74
     1
  7
monochrome.ctb
 75
     0
147
0.0377590244960364
148
0.5754584342744921
149
0.4068898020113921
100
AcDbLayout
  1
Layout1
 70
     1
 71
     1
 10
-6.352894443934567
 20
-4.429974890987324
 11
303.3743962297308
 21
214.4139451502602
 12
0.0
 22
0.0
 32
0.0
 14
0.0
 24
0.0
 34
0.0
 15
297.0
 25
210.0
 35
0.0
146
0.0
 13
0.0
 23
0.0
 33
0.0
 16
1.0
 26
0.0
 36
0.0
 17
0.0
 27
1.0
 37
0.0
 76
     0
330
B76
331
B7D
1001
ACAD_PSEXT
1000
Default Windows System Printer.pc3
1000
HP Universal Printing PS
1000
Freiheitstraße, Ex Steinhof, Höfermann
1000
HP 5100 Universal PS
1070
     0
  0
LAYOUT
  5
303
102
{ACAD_XDICTIONARY
360
1BFC
102
}
102
{ACAD_REACTORS
330
301
102
}
330
301
100
AcDbPlotSettings
  1

  2
Default Windows System Printer.pc3
  4
A4
  6

 40
4.233333110809326
 41
4.614340305328369
 42
4.233322143554686
 43
4.571990966796875
 44
209.8886566162109
 45
297.0530090332031
 46
10.88322750438971
 47
-0.0000000000000226
 48
0.0
 49
0.0
140
0.0
141
0.0
142
1.0
143
60.7941153040473
 70
  3764
 72
     0
 73
     1
 74
     2
  7
monochrome.ctb
 75
     0
147
0.0164489604791309
148
4318.0
149
4318.0
100
AcDbLayout
  1
Model
 70
     1
 71
     0
 10
0.0
 20
0.0
 11
12.0
 21
9.0
 12
0.0
 22
0.0
 32
0.0
 14
0.0
 24
0.0
 34
0.0
 15
0.0
 25
0.0
 35
0.0
146
0.0
 13
0.0
 23
0.0
 33
0.0
 16
1.0
 26
0.0
 36
0.0
 17
0.0
 27
1.0
 37
0.0
 76
     0
330
18
331
B56
1001
ACAD_PSEXT
1000
Default Windows System Printer.pc3
1000
HP Universal Printing PS
1000
Freiheitstraße, Ex Steinhof, Höfermann
1000
HP 5100 Universal PS
1070
     0
  0
MATERIAL
  5
3F0
102
{ACAD_XDICTIONARY
360
1523
102
}
102
{ACAD_REACTORS
330
386
102
}
330
386
100
AcDbMaterial
  1
ByBlock
 73
     1
 78
     1
172
     1
176
     1
270
     1
274
     1
  0
MATERIAL
  5
3EF
102
{ACAD_XDICTIONARY
360
1521
102
}
102
{ACAD_REACTORS
330
386
102
}
330
386
100
AcDbMaterial
  1
ByLayer
 73
     1
 78
     1
172
     1
176
     1
270
     1
274
     1
  0
MATERIAL
  5
3F1
102
{ACAD_XDICTIONARY
360
1525
102
}
102
{ACAD_REACTORS
330
386
102
}
330
386
100
AcDbMaterial
  1
Global
 73
     1
 78
     1
172
     1
176
     1
270
     1
274
     1
  0
MLEADERSTYLE
  5
470
102
{ACAD_XDICTIONARY
360
1C1F
102
}
102
{ACAD_REACTORS
330
46F
102
}
330
46F
100
AcDbMLeaderStyle
170
     2
171
     1
172
     0
 90
        2
 40
0.0
 41
0.0
173
     1
 91
-1056964608
340
12
 92
       -2
290
     1
 42
2.0
291
     1
 43
0.36
  3
Standard
 44
5.0
300

342
10
174
     0
178
     6
175
     1
176
     0
 93
-1056964608
 45
0.1378
292
     0
297
     0
 46
4.0
 94
-1056964608
 47
1.0
 49
1.0
140
1.0
293
     1
141
0.0
294
     1
177
     0
142
1.0
295
     0
296
     0
143
0.125
1001
ACAD_MLEADERVER
1070
     2
  0
MLINESTYLE
  5
1B
102
{ACAD_REACTORS
330
E
102
}
330
E
100
AcDbMlineStyle
  2
STANDARD
 70
     0
  3

 62
     0
 51
90.0
 52
90.0
 71
     2
 49
0.5
 62
   256
  6
BYLAYER
 49
-0.5
 62
   256
  6
BYLAYER
  0
PLOTSETTINGS
  5
7EF
102
{ACAD_XDICTIONARY
360
1C21
102
}
102
{ACAD_REACTORS
330
302
102
}
330
302
100
AcDbPlotSettings
  1
DWG To PDF ANSI A - landscape
  2
DWG To PDF.pc3
  4
ANSI_expand_A_(11.00_x_8.50_Inches)
  6

 40
5.793749809265136
 41
10.79374980926513
 42
5.79376220703125
 43
10.79374694824219
 44
279.3999938964844
 45
215.8999938964844
 46
0.0
 47
13.58631590731085
 48
0.0
 49
0.0
140
0.0
141
0.0
142
1.0
143
65.34646883198404
 70
 11956
 72
     0
 73
     0
 74
     2
  7
monochrome.ctb
 75
     0
147
0.0153030457173005
148
4318.0
149
4318.0
1001
ACAD_PSEXT
1000
DWG To PDF.pc3
1000
DWG To PDF
1000
Datei
1000

1070
     0
  0
PLOTSETTINGS
  5
7F8
102
{ACAD_XDICTIONARY
360
1C23
102
}
102
{ACAD_REACTORS
330
302
102
}
330
302
100
AcDbPlotSettings
  1
DWG To PDF ANSI A - portrait
  2
DWG To PDF.pc3
  4
ANSI_A_(8.50_x_11.00_Inches)
  6

 40
5.793749809265136
 41
17.79375076293945
 42
5.793746948242187
 43
17.79376220703125
 44
215.8999938964844
 45
279.3999938964844
 46
0.0
 47
58.15125224136993
 48
0.0
 49
0.0
140
0.0
141
0.0
142
1.0
143
85.65604280239289
 70
 11956
 72
     0
 73
     0
 74
     2
  7
monochrome.ctb
 75
     0
147
0.0116745995645279
148
4318.0
149
4318.0
1001
ACAD_PSEXT
1000
DWG To PDF.pc3
1000
DWG To PDF
1000
Datei
1000

1070
     0
  0
ACDBPLACEHOLDER
  5
300
102
{ACAD_REACTORS
330
2FF
102
}
330
2FF
  0
SCALE
  5
CF4
102
{ACAD_REACTORS
330
44D
102
}
330
44D
100
AcDbScale
 70
     0
300
100:1
140
100.0
141
1.0
290
     0
  0
SCALE
  5
CF5
102
{ACAD_REACTORS
330
44D
102
}
330
44D
100
AcDbScale
 70
     0
300
50:1
140
50.0
141
1.0
290
     0
  0
SCALE
  5
CF6
102
{ACAD_REACTORS
330
44D
102
}
330
44D
100
AcDbScale
 70
     0
300
20:1
140
20.0
141
1.0
290
     0
  0
SCALE
  5
CF7
102
{ACAD_REACTORS
330
44D
102
}
330
44D
100
AcDbScale
 70
     0
300
10:1
140
10.0
141
1.0
290
     0
  0
SCALE
  5
CF8
102
{ACAD_REACTORS
330
44D
102
}
330
44D
100
AcDbScale
 70
     0
300
5:1
140
5.0
141
1.0
290
     0
  0
SCALE
  5
CF9
102
{ACAD_REACTORS
330
44D
102
}
330
44D
100
AcDbScale
 70
     0
300
2:1
140
2.0
141
1.0
290
     0
  0
SCALE
  5
44E
102
{ACAD_REACTORS
330
44D
102
}
330
44D
100
AcDbScale
 70
     0
300
1:1
140
1.0
141
1.0
290
     1
  0
SCALE
  5
CFA
102
{ACAD_REACTORS
330
44D
102
}
330
44D
100
AcDbScale
 70
     0
300
1:2
140
1.0
141
2.0
290
     0
  0
SCALE
  5
CFB
102
{ACAD_REACTORS
330
44D
102
}
330
44D
100
AcDbScale
 70
     0
300
1:5
140
1.0
141
5.0
290
     0
  0
SCALE
  5
CFC
102
{ACAD_REACTORS
330
44D
102
}
330
44D
100
AcDbScale
 70
     0
300
1:10
140
1.0
141
10.0
290
     0
  0
SCALE
  5
CFD
102
{ACAD_REACTORS
330
44D
102
}
330
44D
100
AcDbScale
 70
     0
300
1:20
140
1.0
141
20.0
290
     0
  0
SCALE
  5
CFE
102
{ACAD_REACTORS
330
44D
102
}
330
44D
100
AcDbScale
 70
     0
300
1:50
140
1.0
141
50.0
290
     0
  0
SCALE
  5
CFF
102
{ACAD_REACTORS
330
44D
102
}
330
44D
100
AcDbScale
 70
     0
300
1:100
140
1.0
141
100.0
290
     0
  0
SCALE
  5
D00
102
{ACAD_REACTORS
330
44D
102
}
330
44D
100
AcDbScale
 70
     0
300
1/128" = 1'-0"
140
0.0078125
141
12.0
290
     0
  0
SCALE
  5
D01
102
{ACAD_REACTORS
330
44D
102
}
330
44D
100
AcDbScale
 70
     0
300
1/64" = 1'-0"
140
0.015625
141
12.0
290
     0
  0
SCALE
  5
D02
102
{ACAD_REACTORS
330
44D
102
}
330
44D
100
AcDbScale
 70
     0
300
1/32" = 1'-0"
140
0.03125
141
12.0
290
     0
  0
SCALE
  5
D03
102
{ACAD_REACTORS
330
44D
102
}
330
44D
100
AcDbScale
 70
     0
300
1/16" = 1'-0"
140
0.0625
141
12.0
290
     0
  0
SCALE
  5
D04
102
{ACAD_REACTORS
330
44D
102
}
330
44D
100
AcDbScale
 70
     0
300
3/32" = 1'-0"
140
0.09375
141
12.0
290
     0
  0
SCALE
  5
D05
102
{ACAD_REACTORS
330
44D
102
}
330
44D
100
AcDbScale
 70
     0
300
1/8" = 1'-0"
140
0.125
141
12.0
290
     0
  0
SCALE
  5
D06
102
{ACAD_REACTORS
330
44D
102
}
330
44D
100
AcDbScale
 70
     0
300
3/16" = 1'-0"
140
0.1875
141
12.0
290
     0
  0
SCALE
  5
D07
102
{ACAD_REACTORS
330
44D
102
}
330
44D
100
AcDbScale
 70
     0
300
1/4" = 1'-0"
140
0.25
141
12.0
290
     0
  0
SCALE
  5
D08
102
{ACAD_REACTORS
330
44D
102
}
330
44D
100
AcDbScale
 70
     0
300
3/8" = 1'-0"
140
0.375
141
12.0
290
     0
  0
SCALE
  5
D09
102
{ACAD_REACTORS
330
44D
102
}
330
44D
100
AcDbScale
 70
     0
300
1/2" = 1'-0"
140
0.5
141
12.0
290
     0
  0
SCALE
  5
D0A
102
{ACAD_REACTORS
330
44D
102
}
330
44D
100
AcDbScale
 70
     0
300
3/4" = 1'-0"
140
0.75
141
12.0
290
     0
  0
SCALE
  5
D0B
102
{ACAD_REACTORS
330
44D
102
}
330
44D
100
AcDbScale
 70
     0
300
1" = 1'-0"
140
1.0
141
12.0
290
     0
  0
SCALE
  5
D0C
102
{ACAD_REACTORS
330
44D
102
}
330
44D
100
AcDbScale
 70
     0
300
1-1/2" = 1'-0"
140
1.5
141
12.0
290
     0
  0
SCALE
  5
D0D
102
{ACAD_REACTORS
330
44D
102
}
330
44D
100
AcDbScale
 70
     0
300
3" = 1'-0"
140
3.0
141
12.0
290
     0
  0
SCALE
  5
D0E
102
{ACAD_REACTORS
330
44D
102
}
330
44D
100
AcDbScale
 70
     0
300
6" = 1'-0"
140
6.0
141
12.0
290
     0
  0
SCALE
  5
D0F
102
{ACAD_REACTORS
330
44D
102
}
330
44D
100
AcDbScale
 70
     0
300
1'-0" = 1'-0"
140
12.0
141
12.0
290
     0
  0
ACDBSECTIONVIEWSTYLE
  5
EA9
102
{ACAD_XDICTIONARY
360
1C3D
102
}
102
{ACAD_REACTORS
330
EA8
330
1BDF
102
}
330
EA8
100
AcDbModelDocViewStyle
 70
     0
  3
Imperial24
290
     0
100
AcDbSectionViewStyle
 70
     0
 71
     0
 90
       78
 71
     1
340
10
 40
0.24
340
0
340
0
 40
0.24
300
I, O, Q, S, X, Z
 40
0.48
 90
        3
 40
0.18
 90
        1
 71
     2
340
14
 90
       25
340
14
 90
       50
 40
0.24
 40
0.0
 40
0.24
 71
     3
340
10
 40
0.24
 90
        1
 40
0.75
 90
        1
300
%<\AcVar ViewType \f "%tc1">% %<\AcVar ViewSectionStartId>%-%<\AcVar ViewSectionEndId>%\PSCALE %<\AcVar ViewScale \f "%sn">%
 71
     4
300
ANSI31
 40
1.0
 90
        0
290
     0
290
     0
 90
        6
 40
0.0
 40
1.570796326794896
 40
0.2617993877991494
 40
1.308996938995747
 40
-0.2617993877991494
 40
1.832595714594044
  0
ACDBSECTIONVIEWSTYLE
  5
F3F
102
{ACAD_XDICTIONARY
360
1C41
102
}
102
{ACAD_REACTORS
330
EA8
330
1BE0
102
}
330
EA8
100
AcDbModelDocViewStyle
 70
     0
  3
Metric50
290
     0
100
AcDbSectionViewStyle
 70
     0
 71
     0
 90
      102
 71
     1
340
10
 40
5.0
340
0
340
0
 40
5.0
300
I, O, Q, S, X, Z
 40
10.0
 90
        0
 40
2.5
 90
        0
 71
     2
340
14
 90
       25
340
14
 90
       50
 40
5.0
 40
2.5
 40
5.0
 71
     3
340
10
 40
5.0
 90
        0
 40
15.0
 90
        1
300
%<\AcVar ViewSectionStartId>%-%<\AcVar ViewSectionEndId>% (%<\AcVar ViewScale \f "%sn">%)
 71
     4
300
ANSI31
 40
1.0
 90
        0
290
     0
290
     0
 90
        6
 40
0.0
 40
1.570796326794896
 40
0.2617993877991494
 40
1.308996938995747
 40
-0.2617993877991494
 40
1.832595714594044
  0
TABLESTYLE
  5
389
102
{ACAD_XDICTIONARY
360
577
102
}
102
{ACAD_REACTORS
330
388
102
}
330
388
100
AcDbTableStyle
  3
Standard
 70
     0
 71
     0
 40
1.5
 41
1.5
280
     0
281
     0
  7
STANDARD
140
4.5
170
     2
 62
     0
 63
     7
283
     0
274
    -2
284
     1
 64
     0
275
    -2
285
     1
 65
     0
276
    -2
286
     1
 66
     0
277
    -2
287
     1
 67
     0
278
    -2
288
     1
 68
     0
279
    -2
289
     1
 69
     0
  7
STANDARD 5 mm
140
6.0
170
     5
 62
     0
 63
     7
283
     0
274
    -2
284
     1
 64
     0
275
    -2
285
     1
 65
     0
276
    -2
286
     1
 66
     0
277
    -2
287
     1
 67
     0
278
    -2
288
     1
 68
     0
279
    -2
289
     1
 69
     0
  7
STANDARD
140
4.5
170
     5
 62
     0
 63
     7
283
     0
274
    -2
284
     1
 64
     0
275
    -2
285
     1
 65
     0
276
    -2
286
     1
 66
     0
277
    -2
287
     1
 67
     0
278
    -2
288
     1
 68
     0
279
    -2
289
     1
 69
     0
  0
VISUALSTYLE
  5
3F8
102
{ACAD_XDICTIONARY
360
1C09
102
}
102
{ACAD_REACTORS
330
3F2
102
}
330
3F2
100
AcDbVisualStyle
  2

 70
     4
 71
     0
 72
     2
 73
     0
 90
        0
 40
-0.6
 41
-30.0
 62
     5
 63
     7
 74
     1
 91
        4
 64
     7
 65
   257
 75
     1
175
     1
 42
1.0
 92
        0
 66
   257
 43
1.0
 76
     1
 77
     6
 78
     2
 67
     7
 79
     5
170
     0
171
     0
290
     0
174
     0
 93
        1
 44
0.0
173
     0
291
     0
 45
0.0
1001
ACAD
1000
AcDbSavedByObjectVersion
1070
     0
  0
VISUALSTYLE
  5
3FA
102
{ACAD_XDICTIONARY
360
1C0D
102
}
102
{ACAD_REACTORS
330
3F2
102
}
330
3F2
100
AcDbVisualStyle
  2

 70
     6
 71
     1
 72
     2
 73
     2
 90
        0
 40
-0.6
 41
-30.0
 62
     5
 63
     7
 74
     2
 91
        2
 64
     7
 65
   257
 75
     2
175
     1
 42
40.0
 92
        0
 66
   257
 43
1.0
 76
     1
 77
     6
 78
     2
 67
     7
 79
     3
170
     0
171
     0
290
     0
174
     0
 93
        1
 44
0.0
173
     0
291
     0
 45
0.0
1001
ACAD
1000
AcDbSavedByObjectVersion
1070
     0
  0
VISUALSTYLE
  5
3F9
102
{ACAD_XDICTIONARY
360
1C0B
102
}
102
{ACAD_REACTORS
330
3F2
102
}
330
3F2
100
AcDbVisualStyle
  2

 70
     5
 71
     0
 72
     2
 73
     0
 90
        0
 40
-0.6
 41
-30.0
 62
     5
 63
     7
 74
     1
 91
        4
 64
     7
 65
   257
 75
     1
175
     1
 42
1.0
 92
        0
 66
   257
 43
1.0
 76
     1
 77
     6
 78
     2
 67
     7
 79
     5
170
     0
171
     0
290
     0
174
     0
 93
        1
 44
0.0
173
     0
291
     0
 45
0.0
1001
ACAD
1000
AcDbSavedByObjectVersion
1070
     0
  0
VISUALSTYLE
  5
3F7
102
{ACAD_XDICTIONARY
360
1C07
102
}
102
{ACAD_REACTORS
330
3F2
102
}
330
3F2
100
AcDbVisualStyle
  2

 70
     7
 71
     1
 72
     0
 73
     1
 90
        0
 40
-0.6
 41
-30.0
 62
     5
 63
     7
 74
     0
 91
        4
 64
     7
 65
   257
 75
     1
175
     1
 42
1.0
 92
        8
 66
     7
 43
1.0
 76
     1
 77
     6
 78
     2
 67
     7
 79
     5
170
     0
171
     0
290
     0
174
     0
 93
        1
 44
0.0
173
     0
291
     1
 45
0.0
1001
ACAD
1000
AcDbSavedByObjectVersion
1070
     0
  0
VISUALSTYLE
  5
3FE
102
{ACAD_XDICTIONARY
360
1C15
102
}
102
{ACAD_REACTORS
330
3F2
102
}
330
3F2
100
AcDbVisualStyle
  2

 70
    12
 71
     2
 72
     2
 73
     0
 90
        0
 40
-0.6
 41
-30.0
 62
     5
 63
     7
 74
     1
 91
        4
 64
     7
 65
   257
 75
     1
175
     1
 42
1.0
 92
        8
 66
     7
 43
1.0
 76
     1
 77
     6
 78
     2
 67
     7
 79
     5
170
     0
171
     0
290
     0
174
     0
 93
        1
 44
50.0
173
     0
291
     1
 45
0.0
1001
ACAD
1000
AcDbSavedByObjectVersion
1070
     0
  0
VISUALSTYLE
  5
402
102
{ACAD_XDICTIONARY
360
1C1D
102
}
102
{ACAD_REACTORS
330
3F2
102
}
330
3F2
100
AcDbVisualStyle
  2

 70
    16
 71
     2
 72
     2
 73
     3
 90
        0
 40
-0.6
 41
-30.0
 62
     5
 63
     8
 74
     1
 91
        4
 64
     7
 65
   257
 75
     1
175
     1
 42
1.0
 92
        8
 66
     8
 43
1.0
 76
     1
 77
     6
 78
     2
 67
     7
 79
     5
170
     0
171
     0
290
     0
174
     0
 93
        1
 44
0.0
173
     0
291
     1
 45
0.0
1001
ACAD
1000
AcDbSavedByObjectVersion
1070
     0
  0
VISUALSTYLE
  5
3FB
102
{ACAD_XDICTIONARY
360
1C0F
102
}
102
{ACAD_REACTORS
330
3F2
102
}
330
3F2
100
AcDbVisualStyle
  2

 70
     9
 71
     3
 72
     2
 73
     0
 90
        0
 40
-0.6
 41
-30.0
 62
     5
 63
     7
 74
     2
 91
        2
 64
     7
 65
   257
 75
     1
175
     1
 42
40.0
 92
        8
 66
     7
 43
1.0
 76
     1
 77
     6
 78
     2
 67
     7
 79
     3
170
     0
171
     0
290
     0
174
     0
 93
        1
 44
0.0
173
     0
291
     0
 45
0.0
1001
ACAD
1000
AcDbSavedByObjectVersion
1070
     0
  0
VISUALSTYLE
  5
3FD
102
{ACAD_XDICTIONARY
360
1C13
102
}
102
{ACAD_REACTORS
330
3F2
102
}
330
3F2
100
AcDbVisualStyle
  2

 70
    11
 71
     2
 72
     2
 73
     0
 90
        0
 40
-0.6
 41
-30.0
 62
     5
 63
     7
 74
     1
 91
        4
 64
     7
 65
   257
 75
     1
175
     1
 42
1.0
 92
        8
 66
     7
 43
1.0
 76
     1
 77
     6
 78
     2
 67
     7
 79
     5
170
     0
171
     0
290
     0
174
     0
 93
        1
 44
-50.0
173
     0
291
     1
 45
0.0
1001
ACAD
1000
AcDbSavedByObjectVersion
1070
     0
  0
VISUALSTYLE
  5
C40
102
{ACAD_XDICTIONARY
360
1C2D
102
}
102
{ACAD_REACTORS
330
3F2
102
}
330
3F2
100
AcDbVisualStyle
  2

 70
    22
 71
     2
 72
     2
 73
     0
 90
        0
 40
-0.6
 41
-30.0
 62
     5
 63
     7
 74
     1
 91
        4
 64
     7
 65
   257
 75
     1
175
     1
 42
1.0
 92
        8
 66
     7
 43
1.0
 76
     1
 77
     6
 78
     2
 67
     7
 79
     5
170
     0
171
     0
290
     0
174
     0
 93
        1
 44
0.0
173
     0
291
     1
 45
0.0
1001
ACAD
1000
AcDbSavedByObjectVersion
1070
     0
  0
VISUALSTYLE
  5
401
102
{ACAD_XDICTIONARY
360
1C1B
102
}
102
{ACAD_REACTORS
330
3F2
102
}
330
3F2
100
AcDbVisualStyle
  2

 70
    15
 71
     2
 72
     2
 73
     0
 90
        0
 40
-0.6
 41
-30.0
 62
     5
 63
     7
 74
     1
 91
        4
 64
     7
 65
   257
 75
     1
175
     1
 42
1.0
 92
        8
 66
     7
 43
1.0
 76
     1
 77
     6
 78
     2
 67
     7
 79
     5
170
     0
171
     0
290
     0
174
     0
 93
        1
 44
0.0
173
     0
291
     1
 45
0.0
1001
ACAD
1000
AcDbSavedByObjectVersion
1070
     0
  0
VISUALSTYLE
  5
3F3
102
{ACAD_XDICTIONARY
360
1BFF
102
}
102
{ACAD_REACTORS
330
3F2
102
}
330
3F2
100
AcDbVisualStyle
  2

 70
     0
 71
     2
 72
     1
 73
     1
 90
        2
 40
-0.6
 41
30.0
 62
     5
 63
     7
 74
     0
 91
        4
 64
     7
 65
   257
 75
     1
175
     1
 42
1.0
 92
        8
 66
     7
 43
1.0
 76
     1
 77
     6
 78
     2
 67
     7
 79
     5
170
     0
171
     0
290
     0
174
     0
 93
       13
 44
0.0
173
     0
291
     1
 45
0.0
1001
ACAD
1000
AcDbSavedByObjectVersion
1070
     0
  0
VISUALSTYLE
  5
3F4
102
{ACAD_XDICTIONARY
360
1C01
102
}
102
{ACAD_REACTORS
330
3F2
102
}
330
3F2
100
AcDbVisualStyle
  2

 70
     1
 71
     2
 72
     1
 73
     1
 90
        2
 40
-0.6
 41
30.0
 62
     5
 63
     7
 74
     1
 91
        4
 64
     7
 65
   257
 75
     1
175
     1
 42
1.0
 92
        0
 66
   257
 43
1.0
 76
     1
 77
     6
 78
     2
 67
     7
 79
     5
170
     0
171
     0
290
     0
174
     0
 93
       13
 44
0.0
173
     0
291
     1
 45
0.0
1001
ACAD
1000
AcDbSavedByObjectVersion
1070
     0
  0
VISUALSTYLE
  5
3F5
102
{ACAD_XDICTIONARY
360
1C03
102
}
102
{ACAD_REACTORS
330
3F2
102
}
330
3F2
100
AcDbVisualStyle
  2

 70
     2
 71
     2
 72
     2
 73
     1
 90
        2
 40
-0.6
 41
30.0
 62
     5
 63
     7
 74
     0
 91
        4
 64
     7
 65
   257
 75
     1
175
     1
 42
1.0
 92
        0
 66
     7
 43
1.0
 76
     1
 77
     6
 78
     2
 67
     7
 79
     5
170
     0
171
     0
290
     0
174
     0
 93
       13
 44
0.0
173
     0
291
     1
 45
0.0
1001
ACAD
1000
AcDbSavedByObjectVersion
1070
     0
  0
VISUALSTYLE
  5
3F6
102
{ACAD_XDICTIONARY
360
1C05
102
}
102
{ACAD_REACTORS
330
3F2
102
}
330
3F2
100
AcDbVisualStyle
  2

 70
     3
 71
     2
 72
     2
 73
     1
 90
        2
 40
-0.6
 41
30.0
 62
     5
 63
     7
 74
     1
 91
        4
 64
     7
 65
   257
 75
     1
175
     1
 42
1.0
 92
        0
 66
   257
 43
1.0
 76
     1
 77
     6
 78
     2
 67
     7
 79
     5
170
     0
171
     0
290
     0
174
     0
 93
       13
 44
0.0
173
     0
291
     1
 45
0.0
1001
ACAD
1000
AcDbSavedByObjectVersion
1070
     0
  0
VISUALSTYLE
  5
EA2
102
{ACAD_XDICTIONARY
360
1C31
102
}
102
{ACAD_REACTORS
330
3F2
102
}
330
3F2
100
AcDbVisualStyle
  2

 70
     6
 71
     1
 72
     2
 73
     2
 90
        0
 40
-0.6
 41
-30.0
 62
     5
 63
     7
 74
     2
 91
        2
 64
     7
 65
   257
 75
     2
175
     1
 42
40.0
 92
        0
 66
   257
 43
1.0
 76
     1
 77
     6
 78
     2
 67
     7
 79
     3
170
     0
171
     0
290
     0
174
     0
 93
        1
 44
0.0
173
     0
291
     0
 45
0.0
1001
ACAD
1000
AcDbSavedByObjectVersion
1070
     0
  0
VISUALSTYLE
  5
C3E
102
{ACAD_XDICTIONARY
360
1C29
102
}
102
{ACAD_REACTORS
330
3F2
102
}
330
3F2
100
AcDbVisualStyle
  2

 70
    20
 71
     2
 72
     2
 73
     0
 90
        0
 40
-0.6
 41
-30.0
 62
     5
 63
     7
 74
     1
 91
        4
 64
     7
 65
   257
 75
     1
175
     1
 42
1.0
 92
       10
 66
     7
 43
1.0
 76
     1
 77
     6
 78
     2
 67
     7
 79
     5
170
     0
171
     0
290
     0
174
     0
 93
        1
 44
0.0
173
     0
291
     1
 45
0.0
1001
ACAD
1000
AcDbSavedByObjectVersion
1070
     0
  0
VISUALSTYLE
  5
400
102
{ACAD_XDICTIONARY
360
1C19
102
}
102
{ACAD_REACTORS
330
3F2
102
}
330
3F2
100
AcDbVisualStyle
  2

 70
    14
 71
     2
 72
     2
 73
     0
 90
        0
 40
-0.6
 41
-30.0
 62
     5
 63
     7
 74
     1
 91
        4
 64
     7
 65
   257
 75
     7
175
     7
 42
1.0
 92
        8
 66
     7
 43
1.0
 76
     1
 77
     6
 78
     2
 67
     7
 79
     5
170
     0
171
     0
290
     0
174
     0
 93
        1
 44
0.0
173
     0
291
     1
 45
0.0
1001
ACAD
1000
AcDbSavedByObjectVersion
1070
     0
  0
VISUALSTYLE
  5
C3F
102
{ACAD_XDICTIONARY
360
1C2B
102
}
102
{ACAD_REACTORS
330
3F2
102
}
330
3F2
100
AcDbVisualStyle
  2

 70
    21
 71
     2
 72
     2
 73
     0
 90
        0
 40
-0.6
 41
-30.0
 62
     5
 63
     7
 74
     1
 91
        4
 64
     7
 65
   257
 75
     1
175
     1
 42
1.0
 92
        9
 66
     7
 43
1.0
 76
     1
 77
     6
 78
     2
 67
     7
 79
     5
170
     0
171
     0
290
     0
174
     0
 93
        1
 44
0.0
173
     0
291
     1
 45
0.0
1001
ACAD
1000
AcDbSavedByObjectVersion
1070
     0
  0
VISUALSTYLE
  5
3FC
102
{ACAD_XDICTIONARY
360
1C11
102
}
102
{ACAD_REACTORS
330
3F2
102
}
330
3F2
100
AcDbVisualStyle
  2

 70
     8
 71
     2
 72
     2
 73
     0
 90
        0
 40
-0.6
 41
-30.0
 62
     5
 63
     7
 74
     1
 91
        0
 64
     7
 65
   257
 75
     1
175
     1
 42
1.0
 92
        8
 66
     8
 43
1.0
 76
     1
 77
     6
 78
     2
 67
     7
 79
     5
170
     0
171
     0
290
     0
174
     0
 93
       13
 44
0.0
173
     0
291
     0
 45
0.0
1001
ACAD
1000
AcDbSavedByObjectVersion
1070
     0
  0
VISUALSTYLE
  5
EA7
102
{ACAD_XDICTIONARY
360
1C3B
102
}
102
{ACAD_REACTORS
330
3F2
102
}
330
3F2
100
AcDbVisualStyle
  2

 70
    27
 71
     2
 72
     2
 73
     1
 90
        2
 40
-0.6
 41
30.0
 62
     5
 63
     7
 74
     0
 91
        4
 64
     7
 65
   257
 75
     1
175
     1
 42
1.0
 92
        8
 66
   257
 43
1.0
 76
     1
 77
     6
 78
     2
 67
     8
 79
     3
170
     0
171
     0
290
     0
174
     0
 93
        5
 44
0.0
173
     0
291
     0
 45
0.0
1001
ACAD
1000
AcDbSavedByObjectVersion
1070
     0
  0
VISUALSTYLE
  5
EA6
102
{ACAD_XDICTIONARY
360
1C39
102
}
102
{ACAD_REACTORS
330
3F2
102
}
330
3F2
100
AcDbVisualStyle
  2

 70
    26
 71
     2
 72
     2
 73
     1
 90
        2
 40
-0.6
 41
30.0
 62
     5
 63
     7
 74
     1
 91
       10
 64
     7
 65
   257
 75
     2
175
     1
 42
1.0
 92
        8
 66
   257
 43
1.0
 76
     1
 77
     6
 78
     2
 67
     7
 79
     3
170
     0
171
     0
290
     0
174
     0
 93
        5
 44
0.0
173
     0
291
     0
 45
0.0
1001
ACAD
1000
AcDbSavedByObjectVersion
1070
     0
  0
VISUALSTYLE
  5
EA3
102
{ACAD_XDICTIONARY
360
1C33
102
}
102
{ACAD_REACTORS
330
3F2
102
}
330
3F2
100
AcDbVisualStyle
  2

 70
    23
 71
     2
 72
     2
 73
     3
 90
        0
 40
-0.6
 41
-30.0
 62
     5
 63
     7
 74
     2
 91
        2
 64
     7
 65
     7
 75
     1
175
     1
 42
40.0
 92
        8
 66
     7
 43
1.0
 76
     1
 77
     6
 78
     2
 67
     7
 79
     3
170
     0
171
     0
290
     0
174
     0
 93
        1
 44
0.0
173
     0
291
     0
 45
0.0
1001
ACAD
1000
AcDbSavedByObjectVersion
1070
     0
  0
VISUALSTYLE
  5
EA4
102
{ACAD_XDICTIONARY
360
1C35
102
}
102
{ACAD_REACTORS
330
3F2
102
}
330
3F2
100
AcDbVisualStyle
  2

 70
    24
 71
     1
 72
     2
 73
     2
 90
        0
 40
-0.6
 41
-30.0
 62
     5
 63
     7
 74
     2
 91
        2
 64
     7
 65
     7
 75
     1
175
     1
 42
40.0
 92
       11
 66
     7
 43
1.0
 76
     1
 77
     6
 78
     2
 67
     7
 79
     6
170
     0
171
     0
290
     0
174
     0
 93
        1
 44
0.0
173
     0
291
     0
 45
0.0
1001
ACAD
1000
AcDbSavedByObjectVersion
1070
     0
  0
VISUALSTYLE
  5
3FF
102
{ACAD_XDICTIONARY
360
1C17
102
}
102
{ACAD_REACTORS
330
3F2
102
}
330
3F2
100
AcDbVisualStyle
  2

 70
    13
 71
     2
 72
     2
 73
     0
 90
        0
 40
-0.6
 41
-30.0
 62
     5
 63
     7
 74
     1
 91
        4
 64
     7
 65
   257
 75
     1
175
     1
 42
1.0
 92
       12
 66
     7
 43
1.0
 76
     1
 77
     6
 78
     2
 67
     7
 79
     5
170
     0
171
     0
290
     0
174
     0
 93
        1
 44
0.0
173
     0
291
     1
 45
0.0
1001
ACAD
1000
AcDbSavedByObjectVersion
1070
     0
  0
VISUALSTYLE
  5
EA1
102
{ACAD_XDICTIONARY
360
1C2F
102
}
102
{ACAD_REACTORS
330
3F2
102
}
330
3F2
100
AcDbVisualStyle
  2

 70
     5
 71
     0
 72
     2
 73
     0
 90
        0
 40
-0.6
 41
-30.0
 62
     5
 63
     7
 74
     1
 91
        4
 64
     7
 65
   257
 75
     1
175
     1
 42
1.0
 92
        0
 66
   257
 43
1.0
 76
     1
 77
     6
 78
     2
 67
     7
 79
     3
170
     0
171
     0
290
     0
174
     0
 93
        1
 44
0.0
173
     0
291
     0
 45
0.0
1001
ACAD
1000
AcDbSavedByObjectVersion
1070
     0
  0
VISUALSTYLE
  5
EA5
102
{ACAD_XDICTIONARY
360
1C37
102
}
102
{ACAD_REACTORS
330
3F2
102
}
330
3F2
100
AcDbVisualStyle
  2

 70
    25
 71
     2
 72
     2
 73
     1
 90
        1
 40
0.5
 41
-30.0
 62
     5
 63
     7
 74
     1
 91
        0
 64
     7
 65
   257
 75
     1
175
     1
 42
1.0
 92
        8
 66
     7
 43
1.0
 76
     1
 77
     6
 78
     2
 67
     7
 79
     3
170
     0
171
     0
290
     0
174
     0
 93
       13
 44
0.0
173
     0
291
     0
 45
0.0
1001
ACAD
1000
AcDbSavedByObjectVersion
1070
     0
  0
DICTIONARYVAR
  5
57C
102
{ACAD_REACTORS
330
357
102
}
330
357
100
DictionaryVariables
280
     0
  1
1:1
  0
DICTIONARYVAR
  5
57A
102
{ACAD_REACTORS
330
357
102
}
330
357
100
DictionaryVariables
280
     0
  1
STANDARD
  0
DICTIONARYVAR
  5
38E
102
{ACAD_REACTORS
330
357
102
}
330
357
100
DictionaryVariables
280
     0
  1
STANDARD
  0
DICTIONARYVAR
  5
EE7
102
{ACAD_REACTORS
330
357
102
}
330
357
100
DictionaryVariables
280
     0
  1
Metric50
  0
DICTIONARYVAR
  5
EE8
102
{ACAD_REACTORS
330
357
102
}
330
357
100
DictionaryVariables
280
     0
  1
Metric50
  0
DICTIONARYVAR
  5
359
102
{ACAD_REACTORS
330
357
102
}
330
357
100
DictionaryVariables
280
     0
  1
2
  0
DICTIONARYVAR
  5
358
102
{ACAD_REACTORS
330
357
102
}
330
357
100
DictionaryVariables
280
     0
  1
1
  0
DICTIONARYVAR
  5
B51
102
{ACAD_REACTORS
330
357
102
}
330
357
100
DictionaryVariables
280
     0
  1
0
  0
DICTIONARYVAR
  5
C52
102
{ACAD_REACTORS
330
357
102
}
330
357
100
DictionaryVariables
280
     0
  1
1
  0
DICTIONARYVAR
  5
C53
102
{ACAD_REACTORS
330
357
102
}
330
357
100
DictionaryVariables
280
     0
  1
15
  0
DICTIONARYVAR
  5
57D
102
{ACAD_REACTORS
330
357
102
}
330
357
100
DictionaryVariables
280
     0
  1
0
  0
DICTIONARYVAR
  5
57B
102
{ACAD_REACTORS
330
357
102
}
330
357
100
DictionaryVariables
280
     0
  1
0
  0
DICTIONARYVAR
  5
1510
102
{ACAD_REACTORS
330
357
102
}
330
357
100
DictionaryVariables
280
     0
  1
1
  0
DICTIONARYVAR
  5
B50
102
{ACAD_REACTORS
330
357
102
}
330
357
100
DictionaryVariables
280
     0
  1
127
  0
DICTIONARYVAR
  5
1BF2
102
{ACAD_REACTORS
330
357
102
}
330
357
100
DictionaryVariables
280
     0
  1
2
  0
DICTIONARY
  5
4DC
102
{ACAD_REACTORS
330
4D1
102
}
330
4D1
100
AcDbDictionary
281
     1
  0
XRECORD
  5
4F3
102
{ACAD_REACTORS
330
4D1
102
}
330
4D1
100
AcDbXrecord
280
     1
 90
-1023410169
  0
XRECORD
  5
9A5
102
{ACAD_REACTORS
330
567
102
}
330
567
100
AcDbXrecord
280
     1
 91
     1023
301

290
     0
302
1
  8
200
 90
        8
 62
     2
370
    50
331
14
  1
Color_2
  8
160
 90
        8
 62
     1
370
    35
331
14
  1
Color_1
  8
150
 90
        8
 62
    96
370
    50
331
14
  1
Color_96
 92
-1040154880
  8
140
 90
        8
 62
     5
370
    35
331
14
  1
Color_5
  8
130
 90
        8
 62
     6
370
    35
331
14
  1
Color_6
  8
120
 90
        8
 62
     3
370
    50
331
14
  1
Color_3
  8
110
 90
        8
 62
     7
370
    25
331
14
  1
Color_7
  8
100
 90
        8
 62
     4
370
    50
331
14
  1
Color_4
  8
INFTEXT69
 90
        8
 62
     5
370
    -3
331
14
  1
Color_5
  8
INFTEXT68
 90
        8
 62
     5
370
    -3
331
14
  1
Color_5
  8
INFTEXT67
 90
        8
 62
     5
370
    -3
331
14
  1
Color_5
  8
INFTEXT66
 90
        8
 62
     5
370
    -3
331
14
  1
Color_5
  8
INFTEXT65
 90
        8
 62
     5
370
    -3
331
14
  1
Color_5
  8
INFTEXT64
 90
        8
 62
     5
370
    -3
331
14
  1
Color_5
  8
INFTEXT63
 90
        8
 62
     5
370
    -3
331
14
  1
Color_5
  8
INFTEXT62
 90
        8
 62
     5
370
    -3
331
14
  1
Color_5
  8
RECON69
 90
        8
 62
     5
370
    35
331
14
  1
Color_5
  8
RECON68
 90
        8
 62
     5
370
    35
331
14
  1
Color_5
  8
RECON67
 90
        8
 62
     5
370
    35
331
14
  1
Color_5
  8
RECON66
 90
        8
 62
     5
370
    35
331
14
  1
Color_5
  8
RECON65
 90
        8
 62
     5
370
    35
331
14
  1
Color_5
  8
RECON64
 90
        8
 62
     5
370
    35
331
14
  1
Color_5
  8
RECON63
 90
        8
 62
     5
370
    35
331
14
  1
Color_5
  8
RECON62
 90
        8
 62
     5
370
    35
331
14
  1
Color_5
  8
RECON61
 90
        8
 62
     5
370
    35
331
14
  1
Color_5
  8
SK69
 90
        8
 62
     5
370
    35
331
14
  1
Color_5
  8
SK68
 90
        8
 62
     5
370
    35
331
14
  1
Color_5
  8
SK67
 90
        8
 62
     5
370
    35
331
14
  1
Color_5
  8
SK66
 90
        8
 62
     5
370
    35
331
14
  1
Color_5
  8
SK65
 90
        8
 62
     5
370
    35
331
14
  1
Color_5
  8
SK64
 90
        8
 62
     5
370
    35
331
14
  1
Color_5
  8
SK63
 90
        8
 62
     5
370
    35
331
14
  1
Color_5
  8
SK62
 90
        8
 62
     5
370
    35
331
14
  1
Color_5
  8
SK61
 90
        8
 62
     5
370
    35
331
14
  1
Color_5
  8
SKVIEW69
 90
        8
 62
     5
370
    35
331
14
  1
Color_5
  8
SKVIEW68
 90
        8
 62
     5
370
    35
331
14
  1
Color_5
  8
SKVIEW67
 90
        8
 62
     5
370
    35
331
14
  1
Color_5
  8
SKVIEW66
 90
        8
 62
     5
370
    35
331
14
  1
Color_5
  8
SKVIEW65
 90
        8
 62
     5
370
    35
331
14
  1
Color_5
  8
SKVIEW64
 90
        8
 62
     5
370
    35
331
14
  1
Color_5
  8
SKVIEW63
 90
        8
 62
     5
370
    35
331
14
  1
Color_5
  8
SKVIEW62
 90
        8
 62
     5
370
    35
331
14
  1
Color_5
  8
SKVIEW61
 90
        8
 62
     5
370
    35
331
14
  1
Color_5
  8
69
 90
        8
 62
     5
370
    35
331
14
  1
Color_5
  8
68
 90
        8
 62
     5
370
    35
331
14
  1
Color_5
  8
67
 90
        8
 62
     5
370
    35
331
14
  1
Color_5
  8
66
 90
        8
 62
     5
370
    35
331
14
  1
Color_5
  8
65
 90
        8
 62
     5
370
    35
331
14
  1
Color_5
  8
64
 90
        8
 62
     5
370
    35
331
14
  1
Color_5
  8
63
 90
        8
 62
     5
370
    35
331
14
  1
Color_5
  8
62
 90
        8
 62
     5
370
    35
331
14
  1
Color_5
  8
61
 90
        8
 62
     5
370
    35
331
14
  1
Color_5
  8
59
 90
        8
 62
     5
370
    -3
331
14
  1
Color_5
  8
58
 90
        8
 62
     5
370
    -3
331
14
  1
Color_5
  8
57
 90
        8
 62
     5
370
    -3
331
14
  1
Color_5
  8
56
 90
        8
 62
     5
370
    -3
331
14
  1
Color_5
  8
55
 90
        8
 62
     5
370
    -3
331
14
  1
Color_5
  8
54
 90
        8
 62
     5
370
    -3
331
14
  1
Color_5
  8
53
 90
        8
 62
     5
370
    -3
331
14
  1
Color_5
  8
52
 90
        8
 62
     5
370
    -3
331
14
  1
Color_5
  8
51
 90
        8
 62
     5
370
    -3
331
14
  1
Color_5
  8
FRAME59
 90
        8
 62
     7
370
    -3
331
14
  1
Color_7
  8
FRAME58
 90
        8
 62
     7
370
    -3
331
14
  1
Color_7
  8
FRAME57
 90
        8
 62
     7
370
    -3
331
14
  1
Color_7
  8
FRAME56
 90
        8
 62
     7
370
    -3
331
14
  1
Color_7
  8
FRAME55
 90
        8
 62
     7
370
    -3
331
14
  1
Color_7
  8
FRAME54
 90
        8
 62
     7
370
    -3
331
14
  1
Color_7
  8
FRAME53
 90
        8
 62
     7
370
    -3
331
14
  1
Color_7
  8
FRAME52
 90
        8
 62
     7
370
    -3
331
14
  1
Color_7
  8
RECON7
 90
        8
 62
     5
370
    25
331
14
  1
Color_5
  8
RECON6
 90
        8
 62
     5
370
    35
331
14
  1
Color_5
  8
RECON4
 90
        8
 62
     2
370
    25
331
14
  1
Color_2
  8
RECON3
 90
        8
 62
     1
370
    35
331
14
  1
Color_1
  8
RECON2
 90
        8
 62
     7
370
    25
331
14
  1
Color_7
  8
RECON1
 90
        8
 62
     4
370
    50
331
14
  1
Color_4
  8
SKVIEW7
 90
        8
 62
     5
370
    25
331
14
  1
Color_5
  8
SK7
 90
        8
 62
     5
370
    25
331
14
  1
Color_5
  8
7
 90
        8
 62
     5
370
    25
331
14
  1
Color_5
  8
INFMAINVIEW
 90
        8
 62
     9
370
    18
331
14
  1
Color_9
  8
INFTOTAL
 90
        8
 62
     9
370
    18
331
14
  1
Color_9
  8
INFTEXT61
 90
        8
 62
     5
370
    -3
331
14
  1
Color_5
  8
INFWKP
 90
        8
 62
    30
370
    25
331
14
  1
Color_30
  8
SKVIEW6
 90
        8
 62
     5
370
    35
331
14
  1
Color_5
  8
SKVIEW4
 90
        8
 62
     2
370
    25
331
14
  1
Color_2
  8
SKVIEW3
 90
        8
 62
     1
370
    35
331
14
  1
Color_1
  8
SKVIEW2
 90
        8
 62
     7
370
    25
331
14
  1
Color_7
  8
SKVIEW1
 90
        8
 62
     4
370
    50
331
14
  1
Color_4
  8
NOCUT
 90
        8
 62
     7
370
    25
331
14
  1
Color_7
  8
CUT
 90
        8
 62
     1
370
    25
331
14
  1
Color_1
  8
DEFPOINTS
 90
        0
 62
     7
370
    -3
331
14
  1
Color_7
  8
SK6
 90
        8
 62
     5
370
    35
331
14
  1
Color_5
  8
6
 90
        8
 62
     5
370
    35
331
14
  1
Color_5
  8
FRAME51
 90
        8
 62
     7
370
    -3
331
14
  1
Color_7
  8
SK4
 90
        8
 62
     2
370
    25
331
14
  1
Color_2
  8
4
 90
        8
 62
     2
370
    25
331
14
  1
Color_2
  8
SK3
 90
        8
 62
     1
370
    35
331
14
  1
Color_1
  8
3
 90
        8
 62
     1
370
    35
331
14
  1
Color_1
  8
SK2
 90
        8
 62
     7
370
    25
331
14
  1
Color_7
  8
2
 90
        8
 62
     7
370
    25
331
14
  1
Color_7
  8
SK1
 90
        8
 62
     4
370
    50
331
14
  1
Color_4
  8
1
 90
        8
 62
     4
370
    50
331
14
  1
Color_4
  8
0
 90
        0
 62
     7
370
    -3
331
14
  1
Color_7
  0
DICTIONARY
  5
1C3F
330
EAB
100
AcDbDictionary
280
     1
281
     1
  3
ACAD_XREC_ROUNDTRIP
360
1C40
  0
DICTIONARY
  5
1C43
330
F41
100
AcDbDictionary
280
     1
281
     1
  3
ACAD_XREC_ROUNDTRIP
360
1C44
  0
DICTIONARY
  5
1C25
330
B77
100
AcDbDictionary
280
     1
281
     1
  3
ACAD_XREC_ROUNDTRIP
360
1C26
  0
DICTIONARY
  5
1BFC
330
303
100
AcDbDictionary
280
     1
281
     1
  3
ACAD_XREC_ROUNDTRIP
360
1BFD
  0
DICTIONARY
  5
1523
330
3F0
100
AcDbDictionary
280
     1
281
     1
  3
ACAD_XREC_ROUNDTRIP
360
1524
  0
DICTIONARY
  5
1521
330
3EF
100
AcDbDictionary
280
     1
281
     1
  3
ACAD_XREC_ROUNDTRIP
360
1522
  0
DICTIONARY
  5
1525
330
3F1
100
AcDbDictionary
280
     1
281
     1
  3
ACAD_XREC_ROUNDTRIP
360
1526
  0
DICTIONARY
  5
1C1F
330
470
100
AcDbDictionary
280
     1
281
     1
  3
ACAD_XREC_ROUNDTRIP
360
1C20
  0
DICTIONARY
  5
1C21
330
7EF
100
AcDbDictionary
280
     1
281
     1
  3
ACAD_XREC_ROUNDTRIP
360
1C22
  0
DICTIONARY
  5
1C23
330
7F8
100
AcDbDictionary
280
     1
281
     1
  3
ACAD_XREC_ROUNDTRIP
360
1C24
  0
DICTIONARY
  5
1C3D
330
EA9
100
AcDbDictionary
280
     1
281
     1
  3
ACAD_XREC_ROUNDTRIP
360
1C3E
  0
DICTIONARY
  5
1C41
330
F3F
100
AcDbDictionary
280
     1
281
     1
  3
ACAD_XREC_ROUNDTRIP
360
1C42
  0
DICTIONARY
  5
577
330
389
100
AcDbDictionary
280
     1
281
     1
  3
ACAD_ROUNDTRIP_2008_TABLESTYLE_CELLSTYLEMAP
360
1BF3
  3
ACAD_XREC_ROUNDTRIP
360
1BFE
  0
DICTIONARY
  5
1C09
330
3F8
100
AcDbDictionary
280
     1
281
     1
  3
ACAD_XREC_ROUNDTRIP
360
1C0A
  0
DICTIONARY
  5
1C0D
330
3FA
100
AcDbDictionary
280
     1
281
     1
  3
ACAD_XREC_ROUNDTRIP
360
1C0E
  0
DICTIONARY
  5
1C0B
330
3F9
100
AcDbDictionary
280
     1
281
     1
  3
ACAD_XREC_ROUNDTRIP
360
1C0C
  0
DICTIONARY
  5
1C07
330
3F7
100
AcDbDictionary
280
     1
281
     1
  3
ACAD_XREC_ROUNDTRIP
360
1C08
  0
DICTIONARY
  5
1C15
330
3FE
100
AcDbDictionary
280
     1
281
     1
  3
ACAD_XREC_ROUNDTRIP
360
1C16
  0
DICTIONARY
  5
1C1D
330
402
100
AcDbDictionary
280
     1
281
     1
  3
ACAD_XREC_ROUNDTRIP
360
1C1E
  0
DICTIONARY
  5
1C0F
330
3FB
100
AcDbDictionary
280
     1
281
     1
  3
ACAD_XREC_ROUNDTRIP
360
1C10
  0
DICTIONARY
  5
1C13
330
3FD
100
AcDbDictionary
280
     1
281
     1
  3
ACAD_XREC_ROUNDTRIP
360
1C14
  0
DICTIONARY
  5
1C2D
330
C40
100
AcDbDictionary
280
     1
281
     1
  3
ACAD_XREC_ROUNDTRIP
360
1C2E
  0
DICTIONARY
  5
1C1B
330
401
100
AcDbDictionary
280
     1
281
     1
  3
ACAD_XREC_ROUNDTRIP
360
1C1C
  0
DICTIONARY
  5
1BFF
330
3F3
100
AcDbDictionary
280
     1
281
     1
  3
ACAD_XREC_ROUNDTRIP
360
1C00
  0
DICTIONARY
  5
1C01
330
3F4
100
AcDbDictionary
280
     1
281
     1
  3
ACAD_XREC_ROUNDTRIP
360
1C02
  0
DICTIONARY
  5
1C03
330
3F5
100
AcDbDictionary
280
     1
281
     1
  3
ACAD_XREC_ROUNDTRIP
360
1C04
  0
DICTIONARY
  5
1C05
330
3F6
100
AcDbDictionary
280
     1
281
     1
  3
ACAD_XREC_ROUNDTRIP
360
1C06
  0
DICTIONARY
  5
1C31
330
EA2
100
AcDbDictionary
280
     1
281
     1
  3
ACAD_XREC_ROUNDTRIP
360
1C32
  0
DICTIONARY
  5
1C29
330
C3E
100
AcDbDictionary
280
     1
281
     1
  3
ACAD_XREC_ROUNDTRIP
360
1C2A
  0
DICTIONARY
  5
1C19
330
400
100
AcDbDictionary
280
     1
281
     1
  3
ACAD_XREC_ROUNDTRIP
360
1C1A
  0
DICTIONARY
  5
1C2B
330
C3F
100
AcDbDictionary
280
     1
281
     1
  3
ACAD_XREC_ROUNDTRIP
360
1C2C
  0
DICTIONARY
  5
1C11
330
3FC
100
AcDbDictionary
280
     1
281
     1
  3
ACAD_XREC_ROUNDTRIP
360
1C12
  0
DICTIONARY
  5
1C3B
330
EA7
100
AcDbDictionary
280
     1
281
     1
  3
ACAD_XREC_ROUNDTRIP
360
1C3C
  0
DICTIONARY
  5
1C39
330
EA6
100
AcDbDictionary
280
     1
281
     1
  3
ACAD_XREC_ROUNDTRIP
360
1C3A
  0
DICTIONARY
  5
1C33
330
EA3
100
AcDbDictionary
280
     1
281
     1
  3
ACAD_XREC_ROUNDTRIP
360
1C34
  0
DICTIONARY
  5
1C35
330
EA4
100
AcDbDictionary
280
     1
281
     1
  3
ACAD_XREC_ROUNDTRIP
360
1C36
  0
DICTIONARY
  5
1C17
330
3FF
100
AcDbDictionary
280
     1
281
     1
  3
ACAD_XREC_ROUNDTRIP
360
1C18
  0
DICTIONARY
  5
1C2F
330
EA1
100
AcDbDictionary
280
     1
281
     1
  3
ACAD_XREC_ROUNDTRIP
360
1C30
  0
DICTIONARY
  5
1C37
330
EA5
100
AcDbDictionary
280
     1
281
     1
  3
ACAD_XREC_ROUNDTRIP
360
1C38
  0
XRECORD
  5
1C40
102
{ACAD_REACTORS
330
1C3F
102
}
330
1C3F
100
AcDbXrecord
280
     1
102
DISPLAYNAME
  1
Imperial24
102
FLAGS
 90
        0
  0
XRECORD
  5
1C44
102
{ACAD_REACTORS
330
1C43
102
}
330
1C43
100
AcDbXrecord
280
     1
102
DISPLAYNAME
  1
Metric50
102
FLAGS
 90
        0
  0
XRECORD
  5
1C26
102
{ACAD_REACTORS
330
1C25
102
}
330
1C25
100
AcDbXrecord
280
     1
102
SHADEPLOT
 70
     0
102
SHADEPLOTRESLEVEL
 70
     2
102
SHADEPLOTCUSTOMDPI
 70
   300
  0
XRECORD
  5
1BFD
102
{ACAD_REACTORS
330
1BFC
102
}
330
1BFC
100
AcDbXrecord
280
     1
102
SHADEPLOT
 70
     0
102
SHADEPLOTRESLEVEL
 70
     2
102
SHADEPLOTCUSTOMDPI
 70
   300
  0
XRECORD
  5
1524
102
{ACAD_REACTORS
330
1523
102
}
330
1523
100
AcDbXrecord
280
     1
102
MATERIAL
148
0.0
149
0.0
149
0.0
 93
        0
 94
      127
282
     0
 72
     1
 77
     1
171
     1
175
     1
179
     1
273
     0
  0
XRECORD
  5
1522
102
{ACAD_REACTORS
330
1521
102
}
330
1521
100
AcDbXrecord
280
     1
102
MATERIAL
148
0.0
149
0.0
149
0.0
 93
        0
 94
      127
282
     0
 72
     1
 77
     1
171
     1
175
     1
179
     1
273
     0
  0
XRECORD
  5
1526
102
{ACAD_REACTORS
330
1525
102
}
330
1525
100
AcDbXrecord
280
     1
102
MATERIAL
148
0.0
149
0.0
149
0.0
 93
        0
 94
      127
282
     0
 72
     1
 77
     1
171
     1
175
     1
179
     1
273
     0
  0
XRECORD
  5
1C20
102
{ACAD_REACTORS
330
1C1F
102
}
330
1C1F
100
AcDbXrecord
280
     1
102
ACAD_ROUNDTRIP_2012_MLEADER_STYLE
298
     1
  0
XRECORD
  5
1C22
102
{ACAD_REACTORS
330
1C21
102
}
330
1C21
100
AcDbXrecord
280
     1
102
SHADEPLOT
 70
     0
102
SHADEPLOTRESLEVEL
 70
     2
102
SHADEPLOTCUSTOMDPI
 70
   300
  0
XRECORD
  5
1C24
102
{ACAD_REACTORS
330
1C23
102
}
330
1C23
100
AcDbXrecord
280
     1
102
SHADEPLOT
 70
     0
102
SHADEPLOTRESLEVEL
 70
     2
102
SHADEPLOTCUSTOMDPI
 70
   300
  0
XRECORD
  5
1C3E
102
{ACAD_REACTORS
330
1C3D
102
}
330
1C3D
100
AcDbXrecord
280
     1
102
DISPLAYNAME
  1
Imperial24
102
FLAGS
 90
        0
  0
XRECORD
  5
1C42
102
{ACAD_REACTORS
330
1C41
102
}
330
1C41
100
AcDbXrecord
280
     1
102
DISPLAYNAME
  1
Metric50
102
FLAGS
 90
        0
  0
CELLSTYLEMAP
  5
1BF3
102
{ACAD_REACTORS
330
577
102
}
330
577
100
AcDbCellStyleMap
 90
        3
300
CELLSTYLE
  1
TABLEFORMAT_BEGIN
 90
        5
170
     1
 91
        0
 92
    32768
 62
   257
 93
        1
300
CONTENTFORMAT
  1
CONTENTFORMAT_BEGIN
 90
        0
 91
        0
 92
        4
 93
        0
300

 40
0.0
140
1.0
 94
        5
 62
     0
340
1E
144
6.0
309
CONTENTFORMAT_END
171
     1
301
MARGIN
  1
CELLMARGIN_BEGIN
 40
1.5
 40
1.5
 40
1.5
 40
1.5
 40
0.18
 40
0.18
309
CELLMARGIN_END
 94
        6
 95
        1
302
GRIDFORMAT
  1
GRIDFORMAT_BEGIN
 90
        0
 91
        1
 62
     0
 92
       -2
340
0
 93
        0
 40
0.045
309
GRIDFORMAT_END
 95
        2
302
GRIDFORMAT
  1
GRIDFORMAT_BEGIN
 90
        0
 91
        1
 62
     0
 92
       -2
340
0
 93
        0
 40
0.045
309
GRIDFORMAT_END
 95
        4
302
GRIDFORMAT
  1
GRIDFORMAT_BEGIN
 90
        0
 91
        1
 62
     0
 92
       -2
340
0
 93
        0
 40
0.045
309
GRIDFORMAT_END
 95
        8
302
GRIDFORMAT
  1
GRIDFORMAT_BEGIN
 90
        0
 91
        1
 62
     0
 92
       -2
340
0
 93
        0
 40
0.045
309
GRIDFORMAT_END
 95
       16
302
GRIDFORMAT
  1
GRIDFORMAT_BEGIN
 90
        0
 91
        1
 62
     0
 92
       -2
340
0
 93
        0
 40
0.045
309
GRIDFORMAT_END
 95
       32
302
GRIDFORMAT
  1
GRIDFORMAT_BEGIN
 90
        0
 91
        1
 62
     0
 92
       -2
340
0
 93
        0
 40
0.045
309
GRIDFORMAT_END
309
TABLEFORMAT_END
  1
CELLSTYLE_BEGIN
 90
        1
 91
        1
300
_TITLE
309
CELLSTYLE_END
300
CELLSTYLE
  1
TABLEFORMAT_BEGIN
 90
        5
170
     1
 91
        0
 92
        0
 62
   257
 93
        1
300
CONTENTFORMAT
  1
CONTENTFORMAT_BEGIN
 90
        0
 91
        0
 92
        4
 93
        0
300

 40
0.0
140
1.0
 94
        5
 62
     0
340
10
144
4.5
309
CONTENTFORMAT_END
171
     1
301
MARGIN
  1
CELLMARGIN_BEGIN
 40
1.5
 40
1.5
 40
1.5
 40
1.5
 40
0.18
 40
0.18
309
CELLMARGIN_END
 94
        6
 95
        1
302
GRIDFORMAT
  1
GRIDFORMAT_BEGIN
 90
        0
 91
        1
 62
     0
 92
       -2
340
0
 93
        0
 40
0.045
309
GRIDFORMAT_END
 95
        2
302
GRIDFORMAT
  1
GRIDFORMAT_BEGIN
 90
        0
 91
        1
 62
     0
 92
       -2
340
0
 93
        0
 40
0.045
309
GRIDFORMAT_END
 95
        4
302
GRIDFORMAT
  1
GRIDFORMAT_BEGIN
 90
        0
 91
        1
 62
     0
 92
       -2
340
0
 93
        0
 40
0.045
309
GRIDFORMAT_END
 95
        8
302
GRIDFORMAT
  1
GRIDFORMAT_BEGIN
 90
        0
 91
        1
 62
     0
 92
       -2
340
0
 93
        0
 40
0.045
309
GRIDFORMAT_END
 95
       16
302
GRIDFORMAT
  1
GRIDFORMAT_BEGIN
 90
        0
 91
        1
 62
     0
 92
       -2
340
0
 93
        0
 40
0.045
309
GRIDFORMAT_END
 95
       32
302
GRIDFORMAT
  1
GRIDFORMAT_BEGIN
 90
        0
 91
        1
 62
     0
 92
       -2
340
0
 93
        0
 40
0.045
309
GRIDFORMAT_END
309
TABLEFORMAT_END
  1
CELLSTYLE_BEGIN
 90
        2
 91
        1
300
_HEADER
309
CELLSTYLE_END
300
CELLSTYLE
  1
TABLEFORMAT_BEGIN
 90
        5
170
     1
 91
        0
 92
        0
 62
   257
 93
        1
300
CONTENTFORMAT
  1
CONTENTFORMAT_BEGIN
 90
        0
 91
        0
 92
        4
 93
        0
300

 40
0.0
140
1.0
 94
        2
 62
     0
340
10
144
4.5
309
CONTENTFORMAT_END
171
     1
301
MARGIN
  1
CELLMARGIN_BEGIN
 40
1.5
 40
1.5
 40
1.5
 40
1.5
 40
0.18
 40
0.18
309
CELLMARGIN_END
 94
        6
 95
        1
302
GRIDFORMAT
  1
GRIDFORMAT_BEGIN
 90
        0
 91
        1
 62
     0
 92
       -2
340
0
 93
        0
 40
0.045
309
GRIDFORMAT_END
 95
        2
302
GRIDFORMAT
  1
GRIDFORMAT_BEGIN
 90
        0
 91
        1
 62
     0
 92
       -2
340
0
 93
        0
 40
0.045
309
GRIDFORMAT_END
 95
        4
302
GRIDFORMAT
  1
GRIDFORMAT_BEGIN
 90
        0
 91
        1
 62
     0
 92
       -2
340
0
 93
        0
 40
0.045
309
GRIDFORMAT_END
 95
        8
302
GRIDFORMAT
  1
GRIDFORMAT_BEGIN
 90
        0
 91
        1
 62
     0
 92
       -2
340
0
 93
        0
 40
0.045
309
GRIDFORMAT_END
 95
       16
302
GRIDFORMAT
  1
GRIDFORMAT_BEGIN
 90
        0
 91
        1
 62
     0
 92
       -2
340
0
 93
        0
 40
0.045
309
GRIDFORMAT_END
 95
       32
302
GRIDFORMAT
  1
GRIDFORMAT_BEGIN
 90
        0
 91
        1
 62
     0
 92
       -2
340
0
 93
        0
 40
0.045
309
GRIDFORMAT_END
309
TABLEFORMAT_END
  1
CELLSTYLE_BEGIN
 90
        3
 91
        2
300
_DATA
309
CELLSTYLE_END
  0
XRECORD
  5
1BFE
102
{ACAD_REACTORS
330
577
102
}
330
577
100
AcDbXrecord
280
     1
102
ACAD_ROUNDTRIP_PRE2007_TABLESTYLE
 90
        4
 91
        0
  1

 92
        4
 93
        0
  2

 94
        4
 95
        0
  3

  0
XRECORD
  5
1C0A
102
{ACAD_REACTORS
330
1C09
102
}
330
1C09
100
AcDbXrecord
280
     1
102
RTVSPost2010Prop28
280
     1
102
RTVSPost2010PropOp28
 70
     1
102
RTVSPost2010Prop29
280
     1
102
RTVSPost2010PropOp29
 70
     1
102
RTVSPost2010Prop30
280
     0
102
RTVSPost2010PropOp30
 70
     1
102
RTVSPost2010Prop31
280
     0
102
RTVSPost2010PropOp31
 70
     1
102
RTVSPost2010Prop32
280
     0
102
RTVSPost2010PropOp32
 70
     1
102
RTVSPost2010Prop33
280
     0
102
RTVSPost2010PropOp33
 70
     1
102
RTVSPost2010Prop34
280
     0
102
RTVSPost2010PropOp34
 70
     1
102
RTVSPost2010Prop35
280
     0
102
RTVSPost2010PropOp35
 70
     1
102
RTVSPost2010Prop36
280
     0
102
RTVSPost2010PropOp36
 70
     1
102
RTVSPost2010Prop37
 90
       50
102
RTVSPost2010PropOp37
 70
     1
102
RTVSPost2010Prop38
140
0.0
102
RTVSPost2010PropOp38
 70
     1
102
RTVSPost2010Prop39
140
1.0
102
RTVSPost2010PropOp39
 70
     1
102
RTVSPost2010Prop40
 90
        0
102
RTVSPost2010PropOp40
 70
     1
102
RTVSPost2010Prop41ColorIndex
 90
       18
102
RTVSPost2010Prop41ColorRGB
 90
        0
102
RTVSPost2010PropOp41
 70
     1
102
RTVSPost2010Prop42
 90
       50
102
RTVSPost2010PropOp42
 70
     1
102
RTVSPost2010Prop43
 90
        3
102
RTVSPost2010PropOp43
 70
     1
102
RTVSPost2010Prop44ColorIndex
 90
        5
102
RTVSPost2010Prop44ColorRGB
 90
      255
102
RTVSPost2010PropOp44
 70
     1
102
RTVSPost2010Prop45
280
     0
102
RTVSPost2010PropOp45
 70
     1
102
RTVSPost2010Prop46
 90
       50
102
RTVSPost2010PropOp46
 70
     1
102
RTVSPost2010Prop47
 90
       50
102
RTVSPost2010PropOp47
 70
     1
102
RTVSPost2010Prop48
 90
       50
102
RTVSPost2010PropOp48
 70
     1
102
RTVSPost2010Prop49
280
     0
102
RTVSPost2010PropOp49
 70
     1
102
RTVSPost2010Prop50
 90
       50
102
RTVSPost2010PropOp50
 70
     1
102
RTVSPost2010Prop51ColorIndex
 90
      256
102
RTVSPost2010Prop51ColorRGB
 90
-16777216
102
RTVSPost2010PropOp51
 70
     0
102
RTVSPost2010Prop52
140
1.0
102
RTVSPost2010PropOp52
 70
     0
102
RTVSPost2010Prop53
 90
        2
102
RTVSPost2010PropOp53
 70
     1
102
RTVSPost2010Prop54
  1
strokes_ogs.tif
102
RTVSPost2010PropOp54
 70
     1
102
RTVSPost2010Prop55
280
     0
102
RTVSPost2010PropOp55
 70
     1
102
RTVSPost2010Prop56
140
1.0
102
RTVSPost2010PropOp56
 70
     1
102
RTVSPost2010Prop57
140
1.0
102
RTVSPost2010PropOp57
 70
     1
102
RTVSPropertyOp0
 70
     1
102
RTVSPropertyOp1
 70
     1
102
RTVSPropertyOp2
 70
     1
102
RTVSPropertyOp3
 70
     1
102
RTVSPropertyOp4
 70
     1
102
RTVSPropertyOp5
 70
     1
102
RTVSPropertyOp6
 70
     1
102
RTVSPropertyOp7
 70
     1
102
RTVSPropertyOp8
 70
     1
102
RTVSPropertyOp9
 70
     1
102
RTVSPropertyOp10
 70
     1
102
RTVSPropertyOp11
 70
     1
102
RTVSPropertyOp12
 70
     1
102
RTVSPropertyOp13
 70
     1
102
RTVSPropertyOp14
 70
     1
102
RTVSPropertyOp15
 70
     1
102
RTVSPropertyOp16
 70
     1
102
RTVSPropertyOp17
 70
     1
102
RTVSPropertyOp18
 70
     1
102
RTVSPropertyOp19
 70
     1
102
RTVSPropertyOp20
 70
     1
102
RTVSPropertyOp21
 70
     1
102
RTVSPropertyOp22
 70
     1
102
RTVSPropertyOp23
 70
     1
102
RTVSPropertyOp24
 70
     1
102
RTVSPropertyOp25
 70
     1
102
RTVSPropertyOp26
 70
     1
102
RTVSPropertyOp27
 70
     1
102
RTVSPropertyOp28
 70
     1
102
RTVSPropertyOp29
 70
     1
102
RTVSPropertyOp30
 70
     1
102
RTVSPropertyOp31
 70
     1
102
RTVSPropertyOp32
 70
     1
102
RTVSPropertyOp33
 70
     1
102
RTVSPropertyOp34
 70
     1
102
RTVSPropertyOp35
 70
     1
102
RTVSPropertyOp36
 70
     1
102
RTVSPropertyOp37
 70
     1
102
RTVSPropertyOp38
 70
     1
102
RTVSPropertyOp39
 70
     1
102
RTVSPropertyOp40
 70
     1
102
RTVSPropertyOp41
 70
     1
102
RTVSPropertyOp42
 70
     1
102
RTVSPropertyOp43
 70
     1
102
RTVSPropertyOp44
 70
     1
102
RTVSPropertyOp45
 70
     1
102
RTVSPropertyOp46
 70
     1
102
RTVSPropertyOp47
 70
     1
102
RTVSPropertyOp48
 70
     1
102
RTVSPropertyOp49
 70
     1
102
RTVSPropertyOp50
 70
     1
102
RTVSPropertyOp51
 70
     0
102
RTVSPropertyOp52
 70
     0
102
RTVSPropertyOp53
 70
     1
102
RTVSPropertyOp54
 70
     1
102
RTVSPropertyOp55
 70
     1
102
RTVSPropertyOp56
 70
     1
102
RTVSPropertyOp57
 70
     1
102
RTVSPropertyOp58
 70
     1
102
RTVSPropertyOp59
 70
     1
102
RTVSPropertyOp60
 70
     1
102
RTVSPropertyOp61
 70
     1
102
RTVSPropertyOp62
 70
     1
  0
XRECORD
  5
1C0E
102
{ACAD_REACTORS
330
1C0D
102
}
330
1C0D
100
AcDbXrecord
280
     1
102
RTVSPost2010Prop28
280
     0
102
RTVSPost2010PropOp28
 70
     1
102
RTVSPost2010Prop29
280
     1
102
RTVSPost2010PropOp29
 70
     1
102
RTVSPost2010Prop30
280
     1
102
RTVSPost2010PropOp30
 70
     1
102
RTVSPost2010Prop31
280
     0
102
RTVSPost2010PropOp31
 70
     1
102
RTVSPost2010Prop32
280
     0
102
RTVSPost2010PropOp32
 70
     1
102
RTVSPost2010Prop33
280
     0
102
RTVSPost2010PropOp33
 70
     1
102
RTVSPost2010Prop34
280
     0
102
RTVSPost2010PropOp34
 70
     1
102
RTVSPost2010Prop35
280
     0
102
RTVSPost2010PropOp35
 70
     1
102
RTVSPost2010Prop36
280
     0
102
RTVSPost2010PropOp36
 70
     1
102
RTVSPost2010Prop37
 90
       50
102
RTVSPost2010PropOp37
 70
     1
102
RTVSPost2010Prop38
140
0.0
102
RTVSPost2010PropOp38
 70
     1
102
RTVSPost2010Prop39
140
1.0
102
RTVSPost2010PropOp39
 70
     1
102
RTVSPost2010Prop40
 90
        0
102
RTVSPost2010PropOp40
 70
     1
102
RTVSPost2010Prop41ColorIndex
 90
       18
102
RTVSPost2010Prop41ColorRGB
 90
        0
102
RTVSPost2010PropOp41
 70
     1
102
RTVSPost2010Prop42
 90
       50
102
RTVSPost2010PropOp42
 70
     1
102
RTVSPost2010Prop43
 90
        3
102
RTVSPost2010PropOp43
 70
     1
102
RTVSPost2010Prop44ColorIndex
 90
        5
102
RTVSPost2010Prop44ColorRGB
 90
      255
102
RTVSPost2010PropOp44
 70
     1
102
RTVSPost2010Prop45
280
     0
102
RTVSPost2010PropOp45
 70
     1
102
RTVSPost2010Prop46
 90
       50
102
RTVSPost2010PropOp46
 70
     1
102
RTVSPost2010Prop47
 90
       50
102
RTVSPost2010PropOp47
 70
     1
102
RTVSPost2010Prop48
 90
       50
102
RTVSPost2010PropOp48
 70
     1
102
RTVSPost2010Prop49
280
     0
102
RTVSPost2010PropOp49
 70
     1
102
RTVSPost2010Prop50
 90
       50
102
RTVSPost2010PropOp50
 70
     1
102
RTVSPost2010Prop51ColorIndex
 90
      256
102
RTVSPost2010Prop51ColorRGB
 90
-16777216
102
RTVSPost2010PropOp51
 70
     0
102
RTVSPost2010Prop52
140
1.0
102
RTVSPost2010PropOp52
 70
     0
102
RTVSPost2010Prop53
 90
        2
102
RTVSPost2010PropOp53
 70
     1
102
RTVSPost2010Prop54
  1
strokes_ogs.tif
102
RTVSPost2010PropOp54
 70
     1
102
RTVSPost2010Prop55
280
     0
102
RTVSPost2010PropOp55
 70
     1
102
RTVSPost2010Prop56
140
1.0
102
RTVSPost2010PropOp56
 70
     1
102
RTVSPost2010Prop57
140
1.0
102
RTVSPost2010PropOp57
 70
     1
102
RTVSPropertyOp0
 70
     1
102
RTVSPropertyOp1
 70
     1
102
RTVSPropertyOp2
 70
     1
102
RTVSPropertyOp3
 70
     1
102
RTVSPropertyOp4
 70
     1
102
RTVSPropertyOp5
 70
     1
102
RTVSPropertyOp6
 70
     1
102
RTVSPropertyOp7
 70
     1
102
RTVSPropertyOp8
 70
     1
102
RTVSPropertyOp9
 70
     1
102
RTVSPropertyOp10
 70
     1
102
RTVSPropertyOp11
 70
     1
102
RTVSPropertyOp12
 70
     1
102
RTVSPropertyOp13
 70
     1
102
RTVSPropertyOp14
 70
     1
102
RTVSPropertyOp15
 70
     1
102
RTVSPropertyOp16
 70
     1
102
RTVSPropertyOp17
 70
     1
102
RTVSPropertyOp18
 70
     1
102
RTVSPropertyOp19
 70
     1
102
RTVSPropertyOp20
 70
     1
102
RTVSPropertyOp21
 70
     1
102
RTVSPropertyOp22
 70
     1
102
RTVSPropertyOp23
 70
     1
102
RTVSPropertyOp24
 70
     1
102
RTVSPropertyOp25
 70
     1
102
RTVSPropertyOp26
 70
     1
102
RTVSPropertyOp27
 70
     1
102
RTVSPropertyOp28
 70
     1
102
RTVSPropertyOp29
 70
     1
102
RTVSPropertyOp30
 70
     1
102
RTVSPropertyOp31
 70
     1
102
RTVSPropertyOp32
 70
     1
102
RTVSPropertyOp33
 70
     1
102
RTVSPropertyOp34
 70
     1
102
RTVSPropertyOp35
 70
     1
102
RTVSPropertyOp36
 70
     1
102
RTVSPropertyOp37
 70
     1
102
RTVSPropertyOp38
 70
     1
102
RTVSPropertyOp39
 70
     1
102
RTVSPropertyOp40
 70
     1
102
RTVSPropertyOp41
 70
     1
102
RTVSPropertyOp42
 70
     1
102
RTVSPropertyOp43
 70
     1
102
RTVSPropertyOp44
 70
     1
102
RTVSPropertyOp45
 70
     1
102
RTVSPropertyOp46
 70
     1
102
RTVSPropertyOp47
 70
     1
102
RTVSPropertyOp48
 70
     1
102
RTVSPropertyOp49
 70
     1
102
RTVSPropertyOp50
 70
     1
102
RTVSPropertyOp51
 70
     0
102
RTVSPropertyOp52
 70
     0
102
RTVSPropertyOp53
 70
     1
102
RTVSPropertyOp54
 70
     1
102
RTVSPropertyOp55
 70
     1
102
RTVSPropertyOp56
 70
     1
102
RTVSPropertyOp57
 70
     1
102
RTVSPropertyOp58
 70
     1
102
RTVSPropertyOp59
 70
     1
102
RTVSPropertyOp60
 70
     1
102
RTVSPropertyOp61
 70
     1
102
RTVSPropertyOp62
 70
     1
  0
XRECORD
  5
1C0C
102
{ACAD_REACTORS
330
1C0B
102
}
330
1C0B
100
AcDbXrecord
280
     1
102
RTVSPost2010Prop28
280
     0
102
RTVSPost2010PropOp28
 70
     1
102
RTVSPost2010Prop29
280
     1
102
RTVSPost2010PropOp29
 70
     1
102
RTVSPost2010Prop30
280
     1
102
RTVSPost2010PropOp30
 70
     1
102
RTVSPost2010Prop31
280
     0
102
RTVSPost2010PropOp31
 70
     1
102
RTVSPost2010Prop32
280
     0
102
RTVSPost2010PropOp32
 70
     1
102
RTVSPost2010Prop33
280
     0
102
RTVSPost2010PropOp33
 70
     1
102
RTVSPost2010Prop34
280
     0
102
RTVSPost2010PropOp34
 70
     1
102
RTVSPost2010Prop35
280
     0
102
RTVSPost2010PropOp35
 70
     1
102
RTVSPost2010Prop36
280
     0
102
RTVSPost2010PropOp36
 70
     1
102
RTVSPost2010Prop37
 90
       50
102
RTVSPost2010PropOp37
 70
     1
102
RTVSPost2010Prop38
140
0.0
102
RTVSPost2010PropOp38
 70
     1
102
RTVSPost2010Prop39
140
1.0
102
RTVSPost2010PropOp39
 70
     1
102
RTVSPost2010Prop40
 90
        0
102
RTVSPost2010PropOp40
 70
     1
102
RTVSPost2010Prop41ColorIndex
 90
       18
102
RTVSPost2010Prop41ColorRGB
 90
        0
102
RTVSPost2010PropOp41
 70
     1
102
RTVSPost2010Prop42
 90
       50
102
RTVSPost2010PropOp42
 70
     1
102
RTVSPost2010Prop43
 90
        3
102
RTVSPost2010PropOp43
 70
     1
102
RTVSPost2010Prop44ColorIndex
 90
        5
102
RTVSPost2010Prop44ColorRGB
 90
      255
102
RTVSPost2010PropOp44
 70
     1
102
RTVSPost2010Prop45
280
     0
102
RTVSPost2010PropOp45
 70
     1
102
RTVSPost2010Prop46
 90
       50
102
RTVSPost2010PropOp46
 70
     1
102
RTVSPost2010Prop47
 90
       50
102
RTVSPost2010PropOp47
 70
     1
102
RTVSPost2010Prop48
 90
       50
102
RTVSPost2010PropOp48
 70
     1
102
RTVSPost2010Prop49
280
     0
102
RTVSPost2010PropOp49
 70
     1
102
RTVSPost2010Prop50
 90
       50
102
RTVSPost2010PropOp50
 70
     1
102
RTVSPost2010Prop51ColorIndex
 90
      256
102
RTVSPost2010Prop51ColorRGB
 90
-16777216
102
RTVSPost2010PropOp51
 70
     0
102
RTVSPost2010Prop52
140
1.0
102
RTVSPost2010PropOp52
 70
     0
102
RTVSPost2010Prop53
 90
        2
102
RTVSPost2010PropOp53
 70
     1
102
RTVSPost2010Prop54
  1
strokes_ogs.tif
102
RTVSPost2010PropOp54
 70
     1
102
RTVSPost2010Prop55
280
     0
102
RTVSPost2010PropOp55
 70
     1
102
RTVSPost2010Prop56
140
1.0
102
RTVSPost2010PropOp56
 70
     1
102
RTVSPost2010Prop57
140
1.0
102
RTVSPost2010PropOp57
 70
     1
102
RTVSPropertyOp0
 70
     1
102
RTVSPropertyOp1
 70
     1
102
RTVSPropertyOp2
 70
     1
102
RTVSPropertyOp3
 70
     1
102
RTVSPropertyOp4
 70
     1
102
RTVSPropertyOp5
 70
     1
102
RTVSPropertyOp6
 70
     1
102
RTVSPropertyOp7
 70
     1
102
RTVSPropertyOp8
 70
     1
102
RTVSPropertyOp9
 70
     1
102
RTVSPropertyOp10
 70
     1
102
RTVSPropertyOp11
 70
     1
102
RTVSPropertyOp12
 70
     1
102
RTVSPropertyOp13
 70
     1
102
RTVSPropertyOp14
 70
     1
102
RTVSPropertyOp15
 70
     1
102
RTVSPropertyOp16
 70
     1
102
RTVSPropertyOp17
 70
     1
102
RTVSPropertyOp18
 70
     1
102
RTVSPropertyOp19
 70
     1
102
RTVSPropertyOp20
 70
     1
102
RTVSPropertyOp21
 70
     1
102
RTVSPropertyOp22
 70
     1
102
RTVSPropertyOp23
 70
     1
102
RTVSPropertyOp24
 70
     1
102
RTVSPropertyOp25
 70
     1
102
RTVSPropertyOp26
 70
     1
102
RTVSPropertyOp27
 70
     1
102
RTVSPropertyOp28
 70
     1
102
RTVSPropertyOp29
 70
     1
102
RTVSPropertyOp30
 70
     1
102
RTVSPropertyOp31
 70
     1
102
RTVSPropertyOp32
 70
     1
102
RTVSPropertyOp33
 70
     1
102
RTVSPropertyOp34
 70
     1
102
RTVSPropertyOp35
 70
     1
102
RTVSPropertyOp36
 70
     1
102
RTVSPropertyOp37
 70
     1
102
RTVSPropertyOp38
 70
     1
102
RTVSPropertyOp39
 70
     1
102
RTVSPropertyOp40
 70
     1
102
RTVSPropertyOp41
 70
     1
102
RTVSPropertyOp42
 70
     1
102
RTVSPropertyOp43
 70
     1
102
RTVSPropertyOp44
 70
     1
102
RTVSPropertyOp45
 70
     1
102
RTVSPropertyOp46
 70
     1
102
RTVSPropertyOp47
 70
     1
102
RTVSPropertyOp48
 70
     1
102
RTVSPropertyOp49
 70
     1
102
RTVSPropertyOp50
 70
     1
102
RTVSPropertyOp51
 70
     0
102
RTVSPropertyOp52
 70
     0
102
RTVSPropertyOp53
 70
     1
102
RTVSPropertyOp54
 70
     1
102
RTVSPropertyOp55
 70
     1
102
RTVSPropertyOp56
 70
     1
102
RTVSPropertyOp57
 70
     1
102
RTVSPropertyOp58
 70
     1
102
RTVSPropertyOp59
 70
     1
102
RTVSPropertyOp60
 70
     1
102
RTVSPropertyOp61
 70
     1
102
RTVSPropertyOp62
 70
     1
  0
XRECORD
  5
1C08
102
{ACAD_REACTORS
330
1C07
102
}
330
1C07
100
AcDbXrecord
280
     1
102
RTVSPost2010Prop28
280
     0
102
RTVSPost2010PropOp28
 70
     1
102
RTVSPost2010Prop29
280
     1
102
RTVSPost2010PropOp29
 70
     1
102
RTVSPost2010Prop30
280
     1
102
RTVSPost2010PropOp30
 70
     1
102
RTVSPost2010Prop31
280
     0
102
RTVSPost2010PropOp31
 70
     1
102
RTVSPost2010Prop32
280
     0
102
RTVSPost2010PropOp32
 70
     1
102
RTVSPost2010Prop33
280
     0
102
RTVSPost2010PropOp33
 70
     1
102
RTVSPost2010Prop34
280
     0
102
RTVSPost2010PropOp34
 70
     1
102
RTVSPost2010Prop35
280
     0
102
RTVSPost2010PropOp35
 70
     1
102
RTVSPost2010Prop36
280
     0
102
RTVSPost2010PropOp36
 70
     1
102
RTVSPost2010Prop37
 90
       50
102
RTVSPost2010PropOp37
 70
     1
102
RTVSPost2010Prop38
140
0.0
102
RTVSPost2010PropOp38
 70
     1
102
RTVSPost2010Prop39
140
1.0
102
RTVSPost2010PropOp39
 70
     1
102
RTVSPost2010Prop40
 90
        0
102
RTVSPost2010PropOp40
 70
     1
102
RTVSPost2010Prop41ColorIndex
 90
       18
102
RTVSPost2010Prop41ColorRGB
 90
        0
102
RTVSPost2010PropOp41
 70
     1
102
RTVSPost2010Prop42
 90
       50
102
RTVSPost2010PropOp42
 70
     1
102
RTVSPost2010Prop43
 90
        3
102
RTVSPost2010PropOp43
 70
     1
102
RTVSPost2010Prop44ColorIndex
 90
        5
102
RTVSPost2010Prop44ColorRGB
 90
      255
102
RTVSPost2010PropOp44
 70
     1
102
RTVSPost2010Prop45
280
     0
102
RTVSPost2010PropOp45
 70
     1
102
RTVSPost2010Prop46
 90
       50
102
RTVSPost2010PropOp46
 70
     1
102
RTVSPost2010Prop47
 90
       50
102
RTVSPost2010PropOp47
 70
     1
102
RTVSPost2010Prop48
 90
       50
102
RTVSPost2010PropOp48
 70
     1
102
RTVSPost2010Prop49
280
     0
102
RTVSPost2010PropOp49
 70
     1
102
RTVSPost2010Prop50
 90
       50
102
RTVSPost2010PropOp50
 70
     1
102
RTVSPost2010Prop51ColorIndex
 90
      256
102
RTVSPost2010Prop51ColorRGB
 90
-16777216
102
RTVSPost2010PropOp51
 70
     0
102
RTVSPost2010Prop52
140
1.0
102
RTVSPost2010PropOp52
 70
     0
102
RTVSPost2010Prop53
 90
        2
102
RTVSPost2010PropOp53
 70
     1
102
RTVSPost2010Prop54
  1
strokes_ogs.tif
102
RTVSPost2010PropOp54
 70
     1
102
RTVSPost2010Prop55
280
     0
102
RTVSPost2010PropOp55
 70
     1
102
RTVSPost2010Prop56
140
1.0
102
RTVSPost2010PropOp56
 70
     1
102
RTVSPost2010Prop57
140
1.0
102
RTVSPost2010PropOp57
 70
     1
102
RTVSPropertyOp0
 70
     1
102
RTVSPropertyOp1
 70
     1
102
RTVSPropertyOp2
 70
     1
102
RTVSPropertyOp3
 70
     1
102
RTVSPropertyOp4
 70
     1
102
RTVSPropertyOp5
 70
     1
102
RTVSPropertyOp6
 70
     1
102
RTVSPropertyOp7
 70
     1
102
RTVSPropertyOp8
 70
     1
102
RTVSPropertyOp9
 70
     1
102
RTVSPropertyOp10
 70
     1
102
RTVSPropertyOp11
 70
     1
102
RTVSPropertyOp12
 70
     1
102
RTVSPropertyOp13
 70
     1
102
RTVSPropertyOp14
 70
     1
102
RTVSPropertyOp15
 70
     1
102
RTVSPropertyOp16
 70
     1
102
RTVSPropertyOp17
 70
     1
102
RTVSPropertyOp18
 70
     1
102
RTVSPropertyOp19
 70
     1
102
RTVSPropertyOp20
 70
     1
102
RTVSPropertyOp21
 70
     1
102
RTVSPropertyOp22
 70
     1
102
RTVSPropertyOp23
 70
     1
102
RTVSPropertyOp24
 70
     1
102
RTVSPropertyOp25
 70
     1
102
RTVSPropertyOp26
 70
     1
102
RTVSPropertyOp27
 70
     1
102
RTVSPropertyOp28
 70
     1
102
RTVSPropertyOp29
 70
     1
102
RTVSPropertyOp30
 70
     1
102
RTVSPropertyOp31
 70
     1
102
RTVSPropertyOp32
 70
     1
102
RTVSPropertyOp33
 70
     1
102
RTVSPropertyOp34
 70
     1
102
RTVSPropertyOp35
 70
     1
102
RTVSPropertyOp36
 70
     1
102
RTVSPropertyOp37
 70
     1
102
RTVSPropertyOp38
 70
     1
102
RTVSPropertyOp39
 70
     1
102
RTVSPropertyOp40
 70
     1
102
RTVSPropertyOp41
 70
     1
102
RTVSPropertyOp42
 70
     1
102
RTVSPropertyOp43
 70
     1
102
RTVSPropertyOp44
 70
     1
102
RTVSPropertyOp45
 70
     1
102
RTVSPropertyOp46
 70
     1
102
RTVSPropertyOp47
 70
     1
102
RTVSPropertyOp48
 70
     1
102
RTVSPropertyOp49
 70
     1
102
RTVSPropertyOp50
 70
     1
102
RTVSPropertyOp51
 70
     0
102
RTVSPropertyOp52
 70
     0
102
RTVSPropertyOp53
 70
     1
102
RTVSPropertyOp54
 70
     1
102
RTVSPropertyOp55
 70
     1
102
RTVSPropertyOp56
 70
     1
102
RTVSPropertyOp57
 70
     1
102
RTVSPropertyOp58
 70
     1
102
RTVSPropertyOp59
 70
     1
102
RTVSPropertyOp60
 70
     1
102
RTVSPropertyOp61
 70
     1
102
RTVSPropertyOp62
 70
     1
  0
XRECORD
  5
1C16
102
{ACAD_REACTORS
330
1C15
102
}
330
1C15
100
AcDbXrecord
280
     1
102
RTVSPost2010Prop28
280
     0
102
RTVSPost2010PropOp28
 70
     1
102
RTVSPost2010Prop29
280
     1
102
RTVSPost2010PropOp29
 70
     1
102
RTVSPost2010Prop30
280
     1
102
RTVSPost2010PropOp30
 70
     1
102
RTVSPost2010Prop31
280
     0
102
RTVSPost2010PropOp31
 70
     1
102
RTVSPost2010Prop32
280
     0
102
RTVSPost2010PropOp32
 70
     1
102
RTVSPost2010Prop33
280
     0
102
RTVSPost2010PropOp33
 70
     1
102
RTVSPost2010Prop34
280
     0
102
RTVSPost2010PropOp34
 70
     1
102
RTVSPost2010Prop35
280
     0
102
RTVSPost2010PropOp35
 70
     1
102
RTVSPost2010Prop36
280
     0
102
RTVSPost2010PropOp36
 70
     1
102
RTVSPost2010Prop37
 90
       50
102
RTVSPost2010PropOp37
 70
     1
102
RTVSPost2010Prop38
140
0.0
102
RTVSPost2010PropOp38
 70
     1
102
RTVSPost2010Prop39
140
1.0
102
RTVSPost2010PropOp39
 70
     1
102
RTVSPost2010Prop40
 90
        0
102
RTVSPost2010PropOp40
 70
     1
102
RTVSPost2010Prop41ColorIndex
 90
       18
102
RTVSPost2010Prop41ColorRGB
 90
        0
102
RTVSPost2010PropOp41
 70
     1
102
RTVSPost2010Prop42
 90
       50
102
RTVSPost2010PropOp42
 70
     1
102
RTVSPost2010Prop43
 90
        3
102
RTVSPost2010PropOp43
 70
     1
102
RTVSPost2010Prop44ColorIndex
 90
        5
102
RTVSPost2010Prop44ColorRGB
 90
      255
102
RTVSPost2010PropOp44
 70
     1
102
RTVSPost2010Prop45
280
     0
102
RTVSPost2010PropOp45
 70
     1
102
RTVSPost2010Prop46
 90
       50
102
RTVSPost2010PropOp46
 70
     1
102
RTVSPost2010Prop47
 90
       50
102
RTVSPost2010PropOp47
 70
     1
102
RTVSPost2010Prop48
 90
       50
102
RTVSPost2010PropOp48
 70
     1
102
RTVSPost2010Prop49
280
     0
102
RTVSPost2010PropOp49
 70
     1
102
RTVSPost2010Prop50
 90
       50
102
RTVSPost2010PropOp50
 70
     1
102
RTVSPost2010Prop51ColorIndex
 90
      256
102
RTVSPost2010Prop51ColorRGB
 90
-16777216
102
RTVSPost2010PropOp51
 70
     0
102
RTVSPost2010Prop52
140
1.0
102
RTVSPost2010PropOp52
 70
     0
102
RTVSPost2010Prop53
 90
        2
102
RTVSPost2010PropOp53
 70
     1
102
RTVSPost2010Prop54
  1
strokes_ogs.tif
102
RTVSPost2010PropOp54
 70
     1
102
RTVSPost2010Prop55
280
     0
102
RTVSPost2010PropOp55
 70
     1
102
RTVSPost2010Prop56
140
1.0
102
RTVSPost2010PropOp56
 70
     1
102
RTVSPost2010Prop57
140
1.0
102
RTVSPost2010PropOp57
 70
     1
102
RTVSPropertyOp0
 70
     1
102
RTVSPropertyOp1
 70
     1
102
RTVSPropertyOp2
 70
     1
102
RTVSPropertyOp3
 70
     1
102
RTVSPropertyOp4
 70
     1
102
RTVSPropertyOp5
 70
     1
102
RTVSPropertyOp6
 70
     1
102
RTVSPropertyOp7
 70
     1
102
RTVSPropertyOp8
 70
     1
102
RTVSPropertyOp9
 70
     1
102
RTVSPropertyOp10
 70
     1
102
RTVSPropertyOp11
 70
     1
102
RTVSPropertyOp12
 70
     1
102
RTVSPropertyOp13
 70
     1
102
RTVSPropertyOp14
 70
     1
102
RTVSPropertyOp15
 70
     1
102
RTVSPropertyOp16
 70
     1
102
RTVSPropertyOp17
 70
     1
102
RTVSPropertyOp18
 70
     1
102
RTVSPropertyOp19
 70
     1
102
RTVSPropertyOp20
 70
     1
102
RTVSPropertyOp21
 70
     1
102
RTVSPropertyOp22
 70
     1
102
RTVSPropertyOp23
 70
     1
102
RTVSPropertyOp24
 70
     1
102
RTVSPropertyOp25
 70
     1
102
RTVSPropertyOp26
 70
     1
102
RTVSPropertyOp27
 70
     1
102
RTVSPropertyOp28
 70
     1
102
RTVSPropertyOp29
 70
     1
102
RTVSPropertyOp30
 70
     1
102
RTVSPropertyOp31
 70
     1
102
RTVSPropertyOp32
 70
     1
102
RTVSPropertyOp33
 70
     1
102
RTVSPropertyOp34
 70
     1
102
RTVSPropertyOp35
 70
     1
102
RTVSPropertyOp36
 70
     1
102
RTVSPropertyOp37
 70
     1
102
RTVSPropertyOp38
 70
     1
102
RTVSPropertyOp39
 70
     1
102
RTVSPropertyOp40
 70
     1
102
RTVSPropertyOp41
 70
     1
102
RTVSPropertyOp42
 70
     1
102
RTVSPropertyOp43
 70
     1
102
RTVSPropertyOp44
 70
     1
102
RTVSPropertyOp45
 70
     1
102
RTVSPropertyOp46
 70
     1
102
RTVSPropertyOp47
 70
     1
102
RTVSPropertyOp48
 70
     1
102
RTVSPropertyOp49
 70
     1
102
RTVSPropertyOp50
 70
     1
102
RTVSPropertyOp51
 70
     0
102
RTVSPropertyOp52
 70
     0
102
RTVSPropertyOp53
 70
     1
102
RTVSPropertyOp54
 70
     1
102
RTVSPropertyOp55
 70
     1
102
RTVSPropertyOp56
 70
     1
102
RTVSPropertyOp57
 70
     1
102
RTVSPropertyOp58
 70
     1
102
RTVSPropertyOp59
 70
     1
102
RTVSPropertyOp60
 70
     1
102
RTVSPropertyOp61
 70
     1
102
RTVSPropertyOp62
 70
     1
  0
XRECORD
  5
1C1E
102
{ACAD_REACTORS
330
1C1D
102
}
330
1C1D
100
AcDbXrecord
280
     1
102
RTVSPost2010Prop28
280
     0
102
RTVSPost2010PropOp28
 70
     1
102
RTVSPost2010Prop29
280
     1
102
RTVSPost2010PropOp29
 70
     1
102
RTVSPost2010Prop30
280
     1
102
RTVSPost2010PropOp30
 70
     1
102
RTVSPost2010Prop31
280
     0
102
RTVSPost2010PropOp31
 70
     1
102
RTVSPost2010Prop32
280
     0
102
RTVSPost2010PropOp32
 70
     1
102
RTVSPost2010Prop33
280
     0
102
RTVSPost2010PropOp33
 70
     1
102
RTVSPost2010Prop34
280
     0
102
RTVSPost2010PropOp34
 70
     1
102
RTVSPost2010Prop35
280
     0
102
RTVSPost2010PropOp35
 70
     1
102
RTVSPost2010Prop36
280
     0
102
RTVSPost2010PropOp36
 70
     1
102
RTVSPost2010Prop37
 90
       50
102
RTVSPost2010PropOp37
 70
     1
102
RTVSPost2010Prop38
140
0.0
102
RTVSPost2010PropOp38
 70
     1
102
RTVSPost2010Prop39
140
1.0
102
RTVSPost2010PropOp39
 70
     1
102
RTVSPost2010Prop40
 90
        0
102
RTVSPost2010PropOp40
 70
     1
102
RTVSPost2010Prop41ColorIndex
 90
       18
102
RTVSPost2010Prop41ColorRGB
 90
        0
102
RTVSPost2010PropOp41
 70
     1
102
RTVSPost2010Prop42
 90
       50
102
RTVSPost2010PropOp42
 70
     1
102
RTVSPost2010Prop43
 90
        3
102
RTVSPost2010PropOp43
 70
     1
102
RTVSPost2010Prop44ColorIndex
 90
        5
102
RTVSPost2010Prop44ColorRGB
 90
      255
102
RTVSPost2010PropOp44
 70
     1
102
RTVSPost2010Prop45
280
     0
102
RTVSPost2010PropOp45
 70
     1
102
RTVSPost2010Prop46
 90
       50
102
RTVSPost2010PropOp46
 70
     1
102
RTVSPost2010Prop47
 90
       50
102
RTVSPost2010PropOp47
 70
     1
102
RTVSPost2010Prop48
 90
       50
102
RTVSPost2010PropOp48
 70
     1
102
RTVSPost2010Prop49
280
     0
102
RTVSPost2010PropOp49
 70
     1
102
RTVSPost2010Prop50
 90
       50
102
RTVSPost2010PropOp50
 70
     1
102
RTVSPost2010Prop51ColorIndex
 90
      256
102
RTVSPost2010Prop51ColorRGB
 90
-16777216
102
RTVSPost2010PropOp51
 70
     0
102
RTVSPost2010Prop52
140
1.0
102
RTVSPost2010PropOp52
 70
     0
102
RTVSPost2010Prop53
 90
        2
102
RTVSPost2010PropOp53
 70
     1
102
RTVSPost2010Prop54
  1
strokes_ogs.tif
102
RTVSPost2010PropOp54
 70
     1
102
RTVSPost2010Prop55
280
     0
102
RTVSPost2010PropOp55
 70
     1
102
RTVSPost2010Prop56
140
1.0
102
RTVSPost2010PropOp56
 70
     1
102
RTVSPost2010Prop57
140
1.0
102
RTVSPost2010PropOp57
 70
     1
102
RTVSPropertyOp0
 70
     1
102
RTVSPropertyOp1
 70
     1
102
RTVSPropertyOp2
 70
     1
102
RTVSPropertyOp3
 70
     1
102
RTVSPropertyOp4
 70
     1
102
RTVSPropertyOp5
 70
     1
102
RTVSPropertyOp6
 70
     1
102
RTVSPropertyOp7
 70
     1
102
RTVSPropertyOp8
 70
     1
102
RTVSPropertyOp9
 70
     1
102
RTVSPropertyOp10
 70
     1
102
RTVSPropertyOp11
 70
     1
102
RTVSPropertyOp12
 70
     1
102
RTVSPropertyOp13
 70
     1
102
RTVSPropertyOp14
 70
     1
102
RTVSPropertyOp15
 70
     1
102
RTVSPropertyOp16
 70
     1
102
RTVSPropertyOp17
 70
     1
102
RTVSPropertyOp18
 70
     1
102
RTVSPropertyOp19
 70
     1
102
RTVSPropertyOp20
 70
     1
102
RTVSPropertyOp21
 70
     1
102
RTVSPropertyOp22
 70
     1
102
RTVSPropertyOp23
 70
     1
102
RTVSPropertyOp24
 70
     1
102
RTVSPropertyOp25
 70
     1
102
RTVSPropertyOp26
 70
     1
102
RTVSPropertyOp27
 70
     1
102
RTVSPropertyOp28
 70
     1
102
RTVSPropertyOp29
 70
     1
102
RTVSPropertyOp30
 70
     1
102
RTVSPropertyOp31
 70
     1
102
RTVSPropertyOp32
 70
     1
102
RTVSPropertyOp33
 70
     1
102
RTVSPropertyOp34
 70
     1
102
RTVSPropertyOp35
 70
     1
102
RTVSPropertyOp36
 70
     1
102
RTVSPropertyOp37
 70
     1
102
RTVSPropertyOp38
 70
     1
102
RTVSPropertyOp39
 70
     1
102
RTVSPropertyOp40
 70
     1
102
RTVSPropertyOp41
 70
     1
102
RTVSPropertyOp42
 70
     1
102
RTVSPropertyOp43
 70
     1
102
RTVSPropertyOp44
 70
     1
102
RTVSPropertyOp45
 70
     1
102
RTVSPropertyOp46
 70
     1
102
RTVSPropertyOp47
 70
     1
102
RTVSPropertyOp48
 70
     1
102
RTVSPropertyOp49
 70
     1
102
RTVSPropertyOp50
 70
     1
102
RTVSPropertyOp51
 70
     0
102
RTVSPropertyOp52
 70
     0
102
RTVSPropertyOp53
 70
     1
102
RTVSPropertyOp54
 70
     1
102
RTVSPropertyOp55
 70
     1
102
RTVSPropertyOp56
 70
     1
102
RTVSPropertyOp57
 70
     1
102
RTVSPropertyOp58
 70
     1
102
RTVSPropertyOp59
 70
     1
102
RTVSPropertyOp60
 70
     1
102
RTVSPropertyOp61
 70
     1
102
RTVSPropertyOp62
 70
     1
  0
XRECORD
  5
1C10
102
{ACAD_REACTORS
330
1C0F
102
}
330
1C0F
100
AcDbXrecord
280
     1
102
RTVSPost2010Prop28
280
     0
102
RTVSPost2010PropOp28
 70
     1
102
RTVSPost2010Prop29
280
     1
102
RTVSPost2010PropOp29
 70
     1
102
RTVSPost2010Prop30
280
     1
102
RTVSPost2010PropOp30
 70
     1
102
RTVSPost2010Prop31
280
     0
102
RTVSPost2010PropOp31
 70
     1
102
RTVSPost2010Prop32
280
     0
102
RTVSPost2010PropOp32
 70
     1
102
RTVSPost2010Prop33
280
     0
102
RTVSPost2010PropOp33
 70
     1
102
RTVSPost2010Prop34
280
     0
102
RTVSPost2010PropOp34
 70
     1
102
RTVSPost2010Prop35
280
     0
102
RTVSPost2010PropOp35
 70
     1
102
RTVSPost2010Prop36
280
     0
102
RTVSPost2010PropOp36
 70
     1
102
RTVSPost2010Prop37
 90
       50
102
RTVSPost2010PropOp37
 70
     1
102
RTVSPost2010Prop38
140
0.0
102
RTVSPost2010PropOp38
 70
     1
102
RTVSPost2010Prop39
140
1.0
102
RTVSPost2010PropOp39
 70
     1
102
RTVSPost2010Prop40
 90
        0
102
RTVSPost2010PropOp40
 70
     1
102
RTVSPost2010Prop41ColorIndex
 90
       18
102
RTVSPost2010Prop41ColorRGB
 90
        0
102
RTVSPost2010PropOp41
 70
     1
102
RTVSPost2010Prop42
 90
       50
102
RTVSPost2010PropOp42
 70
     1
102
RTVSPost2010Prop43
 90
        3
102
RTVSPost2010PropOp43
 70
     1
102
RTVSPost2010Prop44ColorIndex
 90
        5
102
RTVSPost2010Prop44ColorRGB
 90
      255
102
RTVSPost2010PropOp44
 70
     1
102
RTVSPost2010Prop45
280
     0
102
RTVSPost2010PropOp45
 70
     1
102
RTVSPost2010Prop46
 90
       50
102
RTVSPost2010PropOp46
 70
     1
102
RTVSPost2010Prop47
 90
       50
102
RTVSPost2010PropOp47
 70
     1
102
RTVSPost2010Prop48
 90
       50
102
RTVSPost2010PropOp48
 70
     1
102
RTVSPost2010Prop49
280
     0
102
RTVSPost2010PropOp49
 70
     1
102
RTVSPost2010Prop50
 90
       50
102
RTVSPost2010PropOp50
 70
     1
102
RTVSPost2010Prop51ColorIndex
 90
      256
102
RTVSPost2010Prop51ColorRGB
 90
-16777216
102
RTVSPost2010PropOp51
 70
     0
102
RTVSPost2010Prop52
140
1.0
102
RTVSPost2010PropOp52
 70
     0
102
RTVSPost2010Prop53
 90
        2
102
RTVSPost2010PropOp53
 70
     1
102
RTVSPost2010Prop54
  1
strokes_ogs.tif
102
RTVSPost2010PropOp54
 70
     1
102
RTVSPost2010Prop55
280
     0
102
RTVSPost2010PropOp55
 70
     1
102
RTVSPost2010Prop56
140
1.0
102
RTVSPost2010PropOp56
 70
     1
102
RTVSPost2010Prop57
140
1.0
102
RTVSPost2010PropOp57
 70
     1
102
RTVSPropertyOp0
 70
     1
102
RTVSPropertyOp1
 70
     1
102
RTVSPropertyOp2
 70
     1
102
RTVSPropertyOp3
 70
     1
102
RTVSPropertyOp4
 70
     1
102
RTVSPropertyOp5
 70
     1
102
RTVSPropertyOp6
 70
     1
102
RTVSPropertyOp7
 70
     1
102
RTVSPropertyOp8
 70
     1
102
RTVSPropertyOp9
 70
     1
102
RTVSPropertyOp10
 70
     1
102
RTVSPropertyOp11
 70
     1
102
RTVSPropertyOp12
 70
     1
102
RTVSPropertyOp13
 70
     1
102
RTVSPropertyOp14
 70
     1
102
RTVSPropertyOp15
 70
     1
102
RTVSPropertyOp16
 70
     1
102
RTVSPropertyOp17
 70
     1
102
RTVSPropertyOp18
 70
     1
102
RTVSPropertyOp19
 70
     1
102
RTVSPropertyOp20
 70
     1
102
RTVSPropertyOp21
 70
     1
102
RTVSPropertyOp22
 70
     1
102
RTVSPropertyOp23
 70
     1
102
RTVSPropertyOp24
 70
     1
102
RTVSPropertyOp25
 70
     1
102
RTVSPropertyOp26
 70
     1
102
RTVSPropertyOp27
 70
     1
102
RTVSPropertyOp28
 70
     1
102
RTVSPropertyOp29
 70
     1
102
RTVSPropertyOp30
 70
     1
102
RTVSPropertyOp31
 70
     1
102
RTVSPropertyOp32
 70
     1
102
RTVSPropertyOp33
 70
     1
102
RTVSPropertyOp34
 70
     1
102
RTVSPropertyOp35
 70
     1
102
RTVSPropertyOp36
 70
     1
102
RTVSPropertyOp37
 70
     1
102
RTVSPropertyOp38
 70
     1
102
RTVSPropertyOp39
 70
     1
102
RTVSPropertyOp40
 70
     1
102
RTVSPropertyOp41
 70
     1
102
RTVSPropertyOp42
 70
     1
102
RTVSPropertyOp43
 70
     1
102
RTVSPropertyOp44
 70
     1
102
RTVSPropertyOp45
 70
     1
102
RTVSPropertyOp46
 70
     1
102
RTVSPropertyOp47
 70
     1
102
RTVSPropertyOp48
 70
     1
102
RTVSPropertyOp49
 70
     1
102
RTVSPropertyOp50
 70
     1
102
RTVSPropertyOp51
 70
     0
102
RTVSPropertyOp52
 70
     0
102
RTVSPropertyOp53
 70
     1
102
RTVSPropertyOp54
 70
     1
102
RTVSPropertyOp55
 70
     1
102
RTVSPropertyOp56
 70
     1
102
RTVSPropertyOp57
 70
     1
102
RTVSPropertyOp58
 70
     1
102
RTVSPropertyOp59
 70
     1
102
RTVSPropertyOp60
 70
     1
102
RTVSPropertyOp61
 70
     1
102
RTVSPropertyOp62
 70
     1
  0
XRECORD
  5
1C14
102
{ACAD_REACTORS
330
1C13
102
}
330
1C13
100
AcDbXrecord
280
     1
102
RTVSPost2010Prop28
280
     0
102
RTVSPost2010PropOp28
 70
     1
102
RTVSPost2010Prop29
280
     1
102
RTVSPost2010PropOp29
 70
     1
102
RTVSPost2010Prop30
280
     1
102
RTVSPost2010PropOp30
 70
     1
102
RTVSPost2010Prop31
280
     0
102
RTVSPost2010PropOp31
 70
     1
102
RTVSPost2010Prop32
280
     0
102
RTVSPost2010PropOp32
 70
     1
102
RTVSPost2010Prop33
280
     0
102
RTVSPost2010PropOp33
 70
     1
102
RTVSPost2010Prop34
280
     0
102
RTVSPost2010PropOp34
 70
     1
102
RTVSPost2010Prop35
280
     0
102
RTVSPost2010PropOp35
 70
     1
102
RTVSPost2010Prop36
280
     0
102
RTVSPost2010PropOp36
 70
     1
102
RTVSPost2010Prop37
 90
       50
102
RTVSPost2010PropOp37
 70
     1
102
RTVSPost2010Prop38
140
0.0
102
RTVSPost2010PropOp38
 70
     1
102
RTVSPost2010Prop39
140
1.0
102
RTVSPost2010PropOp39
 70
     1
102
RTVSPost2010Prop40
 90
        0
102
RTVSPost2010PropOp40
 70
     1
102
RTVSPost2010Prop41ColorIndex
 90
       18
102
RTVSPost2010Prop41ColorRGB
 90
        0
102
RTVSPost2010PropOp41
 70
     1
102
RTVSPost2010Prop42
 90
       50
102
RTVSPost2010PropOp42
 70
     1
102
RTVSPost2010Prop43
 90
        3
102
RTVSPost2010PropOp43
 70
     1
102
RTVSPost2010Prop44ColorIndex
 90
        5
102
RTVSPost2010Prop44ColorRGB
 90
      255
102
RTVSPost2010PropOp44
 70
     1
102
RTVSPost2010Prop45
280
     0
102
RTVSPost2010PropOp45
 70
     1
102
RTVSPost2010Prop46
 90
       50
102
RTVSPost2010PropOp46
 70
     1
102
RTVSPost2010Prop47
 90
       50
102
RTVSPost2010PropOp47
 70
     1
102
RTVSPost2010Prop48
 90
       50
102
RTVSPost2010PropOp48
 70
     1
102
RTVSPost2010Prop49
280
     0
102
RTVSPost2010PropOp49
 70
     1
102
RTVSPost2010Prop50
 90
       50
102
RTVSPost2010PropOp50
 70
     1
102
RTVSPost2010Prop51ColorIndex
 90
      256
102
RTVSPost2010Prop51ColorRGB
 90
-16777216
102
RTVSPost2010PropOp51
 70
     0
102
RTVSPost2010Prop52
140
1.0
102
RTVSPost2010PropOp52
 70
     0
102
RTVSPost2010Prop53
 90
        2
102
RTVSPost2010PropOp53
 70
     1
102
RTVSPost2010Prop54
  1
strokes_ogs.tif
102
RTVSPost2010PropOp54
 70
     1
102
RTVSPost2010Prop55
280
     0
102
RTVSPost2010PropOp55
 70
     1
102
RTVSPost2010Prop56
140
1.0
102
RTVSPost2010PropOp56
 70
     1
102
RTVSPost2010Prop57
140
1.0
102
RTVSPost2010PropOp57
 70
     1
102
RTVSPropertyOp0
 70
     1
102
RTVSPropertyOp1
 70
     1
102
RTVSPropertyOp2
 70
     1
102
RTVSPropertyOp3
 70
     1
102
RTVSPropertyOp4
 70
     1
102
RTVSPropertyOp5
 70
     1
102
RTVSPropertyOp6
 70
     1
102
RTVSPropertyOp7
 70
     1
102
RTVSPropertyOp8
 70
     1
102
RTVSPropertyOp9
 70
     1
102
RTVSPropertyOp10
 70
     1
102
RTVSPropertyOp11
 70
     1
102
RTVSPropertyOp12
 70
     1
102
RTVSPropertyOp13
 70
     1
102
RTVSPropertyOp14
 70
     1
102
RTVSPropertyOp15
 70
     1
102
RTVSPropertyOp16
 70
     1
102
RTVSPropertyOp17
 70
     1
102
RTVSPropertyOp18
 70
     1
102
RTVSPropertyOp19
 70
     1
102
RTVSPropertyOp20
 70
     1
102
RTVSPropertyOp21
 70
     1
102
RTVSPropertyOp22
 70
     1
102
RTVSPropertyOp23
 70
     1
102
RTVSPropertyOp24
 70
     1
102
RTVSPropertyOp25
 70
     1
102
RTVSPropertyOp26
 70
     1
102
RTVSPropertyOp27
 70
     1
102
RTVSPropertyOp28
 70
     1
102
RTVSPropertyOp29
 70
     1
102
RTVSPropertyOp30
 70
     1
102
RTVSPropertyOp31
 70
     1
102
RTVSPropertyOp32
 70
     1
102
RTVSPropertyOp33
 70
     1
102
RTVSPropertyOp34
 70
     1
102
RTVSPropertyOp35
 70
     1
102
RTVSPropertyOp36
 70
     1
102
RTVSPropertyOp37
 70
     1
102
RTVSPropertyOp38
 70
     1
102
RTVSPropertyOp39
 70
     1
102
RTVSPropertyOp40
 70
     1
102
RTVSPropertyOp41
 70
     1
102
RTVSPropertyOp42
 70
     1
102
RTVSPropertyOp43
 70
     1
102
RTVSPropertyOp44
 70
     1
102
RTVSPropertyOp45
 70
     1
102
RTVSPropertyOp46
 70
     1
102
RTVSPropertyOp47
 70
     1
102
RTVSPropertyOp48
 70
     1
102
RTVSPropertyOp49
 70
     1
102
RTVSPropertyOp50
 70
     1
102
RTVSPropertyOp51
 70
     0
102
RTVSPropertyOp52
 70
     0
102
RTVSPropertyOp53
 70
     1
102
RTVSPropertyOp54
 70
     1
102
RTVSPropertyOp55
 70
     1
102
RTVSPropertyOp56
 70
     1
102
RTVSPropertyOp57
 70
     1
102
RTVSPropertyOp58
 70
     1
102
RTVSPropertyOp59
 70
     1
102
RTVSPropertyOp60
 70
     1
102
RTVSPropertyOp61
 70
     1
102
RTVSPropertyOp62
 70
     1
  0
XRECORD
  5
1C2E
102
{ACAD_REACTORS
330
1C2D
102
}
330
1C2D
100
AcDbXrecord
280
     1
102
RTVSPost2010Prop28
280
     0
102
RTVSPost2010PropOp28
 70
     1
102
RTVSPost2010Prop29
280
     1
102
RTVSPost2010PropOp29
 70
     1
102
RTVSPost2010Prop30
280
     1
102
RTVSPost2010PropOp30
 70
     1
102
RTVSPost2010Prop31
280
     0
102
RTVSPost2010PropOp31
 70
     1
102
RTVSPost2010Prop32
280
     0
102
RTVSPost2010PropOp32
 70
     1
102
RTVSPost2010Prop33
280
     0
102
RTVSPost2010PropOp33
 70
     1
102
RTVSPost2010Prop34
280
     0
102
RTVSPost2010PropOp34
 70
     1
102
RTVSPost2010Prop35
280
     0
102
RTVSPost2010PropOp35
 70
     1
102
RTVSPost2010Prop36
280
     0
102
RTVSPost2010PropOp36
 70
     1
102
RTVSPost2010Prop37
 90
       50
102
RTVSPost2010PropOp37
 70
     1
102
RTVSPost2010Prop38
140
0.0
102
RTVSPost2010PropOp38
 70
     1
102
RTVSPost2010Prop39
140
1.0
102
RTVSPost2010PropOp39
 70
     1
102
RTVSPost2010Prop40
 90
        0
102
RTVSPost2010PropOp40
 70
     1
102
RTVSPost2010Prop41ColorIndex
 90
       18
102
RTVSPost2010Prop41ColorRGB
 90
        0
102
RTVSPost2010PropOp41
 70
     1
102
RTVSPost2010Prop42
 90
       50
102
RTVSPost2010PropOp42
 70
     1
102
RTVSPost2010Prop43
 90
        3
102
RTVSPost2010PropOp43
 70
     1
102
RTVSPost2010Prop44ColorIndex
 90
        5
102
RTVSPost2010Prop44ColorRGB
 90
      255
102
RTVSPost2010PropOp44
 70
     1
102
RTVSPost2010Prop45
280
     0
102
RTVSPost2010PropOp45
 70
     1
102
RTVSPost2010Prop46
 90
       50
102
RTVSPost2010PropOp46
 70
     1
102
RTVSPost2010Prop47
 90
       50
102
RTVSPost2010PropOp47
 70
     1
102
RTVSPost2010Prop48
 90
       50
102
RTVSPost2010PropOp48
 70
     1
102
RTVSPost2010Prop49
280
     0
102
RTVSPost2010PropOp49
 70
     1
102
RTVSPost2010Prop50
 90
       50
102
RTVSPost2010PropOp50
 70
     1
102
RTVSPost2010Prop51ColorIndex
 90
      256
102
RTVSPost2010Prop51ColorRGB
 90
-16777216
102
RTVSPost2010PropOp51
 70
     0
102
RTVSPost2010Prop52
140
1.0
102
RTVSPost2010PropOp52
 70
     0
102
RTVSPost2010Prop53
 90
        2
102
RTVSPost2010PropOp53
 70
     1
102
RTVSPost2010Prop54
  1
strokes_ogs.tif
102
RTVSPost2010PropOp54
 70
     1
102
RTVSPost2010Prop55
280
     0
102
RTVSPost2010PropOp55
 70
     1
102
RTVSPost2010Prop56
140
1.0
102
RTVSPost2010PropOp56
 70
     1
102
RTVSPost2010Prop57
140
1.0
102
RTVSPost2010PropOp57
 70
     1
102
RTVSPropertyOp0
 70
     0
102
RTVSPropertyOp1
 70
     0
102
RTVSPropertyOp2
 70
     0
102
RTVSPropertyOp3
 70
     0
102
RTVSPropertyOp4
 70
     0
102
RTVSPropertyOp5
 70
     0
102
RTVSPropertyOp6
 70
     0
102
RTVSPropertyOp7
 70
     0
102
RTVSPropertyOp8
 70
     0
102
RTVSPropertyOp9
 70
     0
102
RTVSPropertyOp10
 70
     0
102
RTVSPropertyOp11
 70
     0
102
RTVSPropertyOp12
 70
     0
102
RTVSPropertyOp13
 70
     0
102
RTVSPropertyOp14
 70
     2
102
RTVSPropertyOp15
 70
     0
102
RTVSPropertyOp16
 70
     0
102
RTVSPropertyOp17
 70
     0
102
RTVSPropertyOp18
 70
     0
102
RTVSPropertyOp19
 70
     0
102
RTVSPropertyOp20
 70
     0
102
RTVSPropertyOp21
 70
     0
102
RTVSPropertyOp22
 70
     0
102
RTVSPropertyOp23
 70
     0
102
RTVSPropertyOp24
 70
     0
102
RTVSPropertyOp25
 70
     0
102
RTVSPropertyOp26
 70
     0
102
RTVSPropertyOp27
 70
     0
102
RTVSPropertyOp28
 70
     1
102
RTVSPropertyOp29
 70
     1
102
RTVSPropertyOp30
 70
     1
102
RTVSPropertyOp31
 70
     1
102
RTVSPropertyOp32
 70
     1
102
RTVSPropertyOp33
 70
     1
102
RTVSPropertyOp34
 70
     1
102
RTVSPropertyOp35
 70
     1
102
RTVSPropertyOp36
 70
     1
102
RTVSPropertyOp37
 70
     1
102
RTVSPropertyOp38
 70
     1
102
RTVSPropertyOp39
 70
     1
102
RTVSPropertyOp40
 70
     1
102
RTVSPropertyOp41
 70
     1
102
RTVSPropertyOp42
 70
     1
102
RTVSPropertyOp43
 70
     1
102
RTVSPropertyOp44
 70
     1
102
RTVSPropertyOp45
 70
     1
102
RTVSPropertyOp46
 70
     1
102
RTVSPropertyOp47
 70
     1
102
RTVSPropertyOp48
 70
     1
102
RTVSPropertyOp49
 70
     1
102
RTVSPropertyOp50
 70
     1
102
RTVSPropertyOp51
 70
     0
102
RTVSPropertyOp52
 70
     0
102
RTVSPropertyOp53
 70
     1
102
RTVSPropertyOp54
 70
     1
102
RTVSPropertyOp55
 70
     1
102
RTVSPropertyOp56
 70
     1
102
RTVSPropertyOp57
 70
     1
102
RTVSPropertyOp58
 70
     1
102
RTVSPropertyOp59
 70
     1
102
RTVSPropertyOp60
 70
     1
102
RTVSPropertyOp61
 70
     1
102
RTVSPropertyOp62
 70
     1
  0
XRECORD
  5
1C1C
102
{ACAD_REACTORS
330
1C1B
102
}
330
1C1B
100
AcDbXrecord
280
     1
102
RTVSPost2010Prop28
280
     0
102
RTVSPost2010PropOp28
 70
     1
102
RTVSPost2010Prop29
280
     1
102
RTVSPost2010PropOp29
 70
     1
102
RTVSPost2010Prop30
280
     1
102
RTVSPost2010PropOp30
 70
     1
102
RTVSPost2010Prop31
280
     0
102
RTVSPost2010PropOp31
 70
     1
102
RTVSPost2010Prop32
280
     0
102
RTVSPost2010PropOp32
 70
     1
102
RTVSPost2010Prop33
280
     0
102
RTVSPost2010PropOp33
 70
     1
102
RTVSPost2010Prop34
280
     0
102
RTVSPost2010PropOp34
 70
     1
102
RTVSPost2010Prop35
280
     0
102
RTVSPost2010PropOp35
 70
     1
102
RTVSPost2010Prop36
280
     0
102
RTVSPost2010PropOp36
 70
     1
102
RTVSPost2010Prop37
 90
       50
102
RTVSPost2010PropOp37
 70
     1
102
RTVSPost2010Prop38
140
0.0
102
RTVSPost2010PropOp38
 70
     1
102
RTVSPost2010Prop39
140
1.0
102
RTVSPost2010PropOp39
 70
     1
102
RTVSPost2010Prop40
 90
        0
102
RTVSPost2010PropOp40
 70
     1
102
RTVSPost2010Prop41ColorIndex
 90
       18
102
RTVSPost2010Prop41ColorRGB
 90
        0
102
RTVSPost2010PropOp41
 70
     1
102
RTVSPost2010Prop42
 90
       50
102
RTVSPost2010PropOp42
 70
     1
102
RTVSPost2010Prop43
 90
        3
102
RTVSPost2010PropOp43
 70
     1
102
RTVSPost2010Prop44ColorIndex
 90
        5
102
RTVSPost2010Prop44ColorRGB
 90
      255
102
RTVSPost2010PropOp44
 70
     1
102
RTVSPost2010Prop45
280
     0
102
RTVSPost2010PropOp45
 70
     1
102
RTVSPost2010Prop46
 90
       50
102
RTVSPost2010PropOp46
 70
     1
102
RTVSPost2010Prop47
 90
       50
102
RTVSPost2010PropOp47
 70
     1
102
RTVSPost2010Prop48
 90
       50
102
RTVSPost2010PropOp48
 70
     1
102
RTVSPost2010Prop49
280
     0
102
RTVSPost2010PropOp49
 70
     1
102
RTVSPost2010Prop50
 90
       50
102
RTVSPost2010PropOp50
 70
     1
102
RTVSPost2010Prop51ColorIndex
 90
      256
102
RTVSPost2010Prop51ColorRGB
 90
-16777216
102
RTVSPost2010PropOp51
 70
     0
102
RTVSPost2010Prop52
140
1.0
102
RTVSPost2010PropOp52
 70
     0
102
RTVSPost2010Prop53
 90
        2
102
RTVSPost2010PropOp53
 70
     1
102
RTVSPost2010Prop54
  1
strokes_ogs.tif
102
RTVSPost2010PropOp54
 70
     1
102
RTVSPost2010Prop55
280
     0
102
RTVSPost2010PropOp55
 70
     1
102
RTVSPost2010Prop56
140
1.0
102
RTVSPost2010PropOp56
 70
     1
102
RTVSPost2010Prop57
140
1.0
102
RTVSPost2010PropOp57
 70
     1
102
RTVSPropertyOp0
 70
     1
102
RTVSPropertyOp1
 70
     1
102
RTVSPropertyOp2
 70
     1
102
RTVSPropertyOp3
 70
     1
102
RTVSPropertyOp4
 70
     1
102
RTVSPropertyOp5
 70
     1
102
RTVSPropertyOp6
 70
     1
102
RTVSPropertyOp7
 70
     1
102
RTVSPropertyOp8
 70
     1
102
RTVSPropertyOp9
 70
     1
102
RTVSPropertyOp10
 70
     1
102
RTVSPropertyOp11
 70
     1
102
RTVSPropertyOp12
 70
     1
102
RTVSPropertyOp13
 70
     1
102
RTVSPropertyOp14
 70
     1
102
RTVSPropertyOp15
 70
     1
102
RTVSPropertyOp16
 70
     1
102
RTVSPropertyOp17
 70
     1
102
RTVSPropertyOp18
 70
     1
102
RTVSPropertyOp19
 70
     1
102
RTVSPropertyOp20
 70
     1
102
RTVSPropertyOp21
 70
     1
102
RTVSPropertyOp22
 70
     1
102
RTVSPropertyOp23
 70
     1
102
RTVSPropertyOp24
 70
     1
102
RTVSPropertyOp25
 70
     1
102
RTVSPropertyOp26
 70
     1
102
RTVSPropertyOp27
 70
     1
102
RTVSPropertyOp28
 70
     1
102
RTVSPropertyOp29
 70
     1
102
RTVSPropertyOp30
 70
     1
102
RTVSPropertyOp31
 70
     1
102
RTVSPropertyOp32
 70
     1
102
RTVSPropertyOp33
 70
     1
102
RTVSPropertyOp34
 70
     1
102
RTVSPropertyOp35
 70
     1
102
RTVSPropertyOp36
 70
     1
102
RTVSPropertyOp37
 70
     1
102
RTVSPropertyOp38
 70
     1
102
RTVSPropertyOp39
 70
     1
102
RTVSPropertyOp40
 70
     1
102
RTVSPropertyOp41
 70
     1
102
RTVSPropertyOp42
 70
     1
102
RTVSPropertyOp43
 70
     1
102
RTVSPropertyOp44
 70
     1
102
RTVSPropertyOp45
 70
     1
102
RTVSPropertyOp46
 70
     1
102
RTVSPropertyOp47
 70
     1
102
RTVSPropertyOp48
 70
     1
102
RTVSPropertyOp49
 70
     1
102
RTVSPropertyOp50
 70
     1
102
RTVSPropertyOp51
 70
     0
102
RTVSPropertyOp52
 70
     0
102
RTVSPropertyOp53
 70
     1
102
RTVSPropertyOp54
 70
     1
102
RTVSPropertyOp55
 70
     1
102
RTVSPropertyOp56
 70
     1
102
RTVSPropertyOp57
 70
     1
102
RTVSPropertyOp58
 70
     1
102
RTVSPropertyOp59
 70
     1
102
RTVSPropertyOp60
 70
     1
102
RTVSPropertyOp61
 70
     1
102
RTVSPropertyOp62
 70
     1
  0
XRECORD
  5
1C00
102
{ACAD_REACTORS
330
1BFF
102
}
330
1BFF
100
AcDbXrecord
280
     1
102
RTVSPost2010Prop28
280
     0
102
RTVSPost2010PropOp28
 70
     1
102
RTVSPost2010Prop29
280
     1
102
RTVSPost2010PropOp29
 70
     1
102
RTVSPost2010Prop30
280
     1
102
RTVSPost2010PropOp30
 70
     1
102
RTVSPost2010Prop31
280
     0
102
RTVSPost2010PropOp31
 70
     1
102
RTVSPost2010Prop32
280
     0
102
RTVSPost2010PropOp32
 70
     1
102
RTVSPost2010Prop33
280
     0
102
RTVSPost2010PropOp33
 70
     1
102
RTVSPost2010Prop34
280
     0
102
RTVSPost2010PropOp34
 70
     1
102
RTVSPost2010Prop35
280
     0
102
RTVSPost2010PropOp35
 70
     1
102
RTVSPost2010Prop36
280
     0
102
RTVSPost2010PropOp36
 70
     1
102
RTVSPost2010Prop37
 90
       50
102
RTVSPost2010PropOp37
 70
     1
102
RTVSPost2010Prop38
140
0.0
102
RTVSPost2010PropOp38
 70
     1
102
RTVSPost2010Prop39
140
1.0
102
RTVSPost2010PropOp39
 70
     1
102
RTVSPost2010Prop40
 90
        0
102
RTVSPost2010PropOp40
 70
     1
102
RTVSPost2010Prop41ColorIndex
 90
       18
102
RTVSPost2010Prop41ColorRGB
 90
        0
102
RTVSPost2010PropOp41
 70
     1
102
RTVSPost2010Prop42
 90
       50
102
RTVSPost2010PropOp42
 70
     1
102
RTVSPost2010Prop43
 90
        3
102
RTVSPost2010PropOp43
 70
     1
102
RTVSPost2010Prop44ColorIndex
 90
        5
102
RTVSPost2010Prop44ColorRGB
 90
      255
102
RTVSPost2010PropOp44
 70
     1
102
RTVSPost2010Prop45
280
     0
102
RTVSPost2010PropOp45
 70
     1
102
RTVSPost2010Prop46
 90
       50
102
RTVSPost2010PropOp46
 70
     1
102
RTVSPost2010Prop47
 90
       50
102
RTVSPost2010PropOp47
 70
     1
102
RTVSPost2010Prop48
 90
       50
102
RTVSPost2010PropOp48
 70
     1
102
RTVSPost2010Prop49
280
     0
102
RTVSPost2010PropOp49
 70
     1
102
RTVSPost2010Prop50
 90
       50
102
RTVSPost2010PropOp50
 70
     1
102
RTVSPost2010Prop51ColorIndex
 90
      256
102
RTVSPost2010Prop51ColorRGB
 90
-16777216
102
RTVSPost2010PropOp51
 70
     0
102
RTVSPost2010Prop52
140
1.0
102
RTVSPost2010PropOp52
 70
     0
102
RTVSPost2010Prop53
 90
        2
102
RTVSPost2010PropOp53
 70
     1
102
RTVSPost2010Prop54
  1
strokes_ogs.tif
102
RTVSPost2010PropOp54
 70
     1
102
RTVSPost2010Prop55
280
     0
102
RTVSPost2010PropOp55
 70
     1
102
RTVSPost2010Prop56
140
1.0
102
RTVSPost2010PropOp56
 70
     1
102
RTVSPost2010Prop57
140
1.0
102
RTVSPost2010PropOp57
 70
     1
102
RTVSPropertyOp0
 70
     1
102
RTVSPropertyOp1
 70
     1
102
RTVSPropertyOp2
 70
     1
102
RTVSPropertyOp3
 70
     1
102
RTVSPropertyOp4
 70
     1
102
RTVSPropertyOp5
 70
     1
102
RTVSPropertyOp6
 70
     1
102
RTVSPropertyOp7
 70
     1
102
RTVSPropertyOp8
 70
     1
102
RTVSPropertyOp9
 70
     1
102
RTVSPropertyOp10
 70
     1
102
RTVSPropertyOp11
 70
     1
102
RTVSPropertyOp12
 70
     1
102
RTVSPropertyOp13
 70
     1
102
RTVSPropertyOp14
 70
     1
102
RTVSPropertyOp15
 70
     1
102
RTVSPropertyOp16
 70
     1
102
RTVSPropertyOp17
 70
     1
102
RTVSPropertyOp18
 70
     1
102
RTVSPropertyOp19
 70
     1
102
RTVSPropertyOp20
 70
     1
102
RTVSPropertyOp21
 70
     1
102
RTVSPropertyOp22
 70
     1
102
RTVSPropertyOp23
 70
     1
102
RTVSPropertyOp24
 70
     1
102
RTVSPropertyOp25
 70
     1
102
RTVSPropertyOp26
 70
     1
102
RTVSPropertyOp27
 70
     1
102
RTVSPropertyOp28
 70
     1
102
RTVSPropertyOp29
 70
     1
102
RTVSPropertyOp30
 70
     1
102
RTVSPropertyOp31
 70
     1
102
RTVSPropertyOp32
 70
     1
102
RTVSPropertyOp33
 70
     1
102
RTVSPropertyOp34
 70
     1
102
RTVSPropertyOp35
 70
     1
102
RTVSPropertyOp36
 70
     1
102
RTVSPropertyOp37
 70
     1
102
RTVSPropertyOp38
 70
     1
102
RTVSPropertyOp39
 70
     1
102
RTVSPropertyOp40
 70
     1
102
RTVSPropertyOp41
 70
     1
102
RTVSPropertyOp42
 70
     1
102
RTVSPropertyOp43
 70
     1
102
RTVSPropertyOp44
 70
     1
102
RTVSPropertyOp45
 70
     1
102
RTVSPropertyOp46
 70
     1
102
RTVSPropertyOp47
 70
     1
102
RTVSPropertyOp48
 70
     1
102
RTVSPropertyOp49
 70
     1
102
RTVSPropertyOp50
 70
     1
102
RTVSPropertyOp51
 70
     0
102
RTVSPropertyOp52
 70
     0
102
RTVSPropertyOp53
 70
     1
102
RTVSPropertyOp54
 70
     1
102
RTVSPropertyOp55
 70
     1
102
RTVSPropertyOp56
 70
     1
102
RTVSPropertyOp57
 70
     1
102
RTVSPropertyOp58
 70
     1
102
RTVSPropertyOp59
 70
     1
102
RTVSPropertyOp60
 70
     1
102
RTVSPropertyOp61
 70
     1
102
RTVSPropertyOp62
 70
     1
  0
XRECORD
  5
1C02
102
{ACAD_REACTORS
330
1C01
102
}
330
1C01
100
AcDbXrecord
280
     1
102
RTVSPost2010Prop28
280
     0
102
RTVSPost2010PropOp28
 70
     1
102
RTVSPost2010Prop29
280
     1
102
RTVSPost2010PropOp29
 70
     1
102
RTVSPost2010Prop30
280
     1
102
RTVSPost2010PropOp30
 70
     1
102
RTVSPost2010Prop31
280
     0
102
RTVSPost2010PropOp31
 70
     1
102
RTVSPost2010Prop32
280
     0
102
RTVSPost2010PropOp32
 70
     1
102
RTVSPost2010Prop33
280
     0
102
RTVSPost2010PropOp33
 70
     1
102
RTVSPost2010Prop34
280
     0
102
RTVSPost2010PropOp34
 70
     1
102
RTVSPost2010Prop35
280
     0
102
RTVSPost2010PropOp35
 70
     1
102
RTVSPost2010Prop36
280
     0
102
RTVSPost2010PropOp36
 70
     1
102
RTVSPost2010Prop37
 90
       50
102
RTVSPost2010PropOp37
 70
     1
102
RTVSPost2010Prop38
140
0.0
102
RTVSPost2010PropOp38
 70
     1
102
RTVSPost2010Prop39
140
1.0
102
RTVSPost2010PropOp39
 70
     1
102
RTVSPost2010Prop40
 90
        0
102
RTVSPost2010PropOp40
 70
     1
102
RTVSPost2010Prop41ColorIndex
 90
       18
102
RTVSPost2010Prop41ColorRGB
 90
        0
102
RTVSPost2010PropOp41
 70
     1
102
RTVSPost2010Prop42
 90
       50
102
RTVSPost2010PropOp42
 70
     1
102
RTVSPost2010Prop43
 90
        3
102
RTVSPost2010PropOp43
 70
     1
102
RTVSPost2010Prop44ColorIndex
 90
        5
102
RTVSPost2010Prop44ColorRGB
 90
      255
102
RTVSPost2010PropOp44
 70
     1
102
RTVSPost2010Prop45
280
     0
102
RTVSPost2010PropOp45
 70
     1
102
RTVSPost2010Prop46
 90
       50
102
RTVSPost2010PropOp46
 70
     1
102
RTVSPost2010Prop47
 90
       50
102
RTVSPost2010PropOp47
 70
     1
102
RTVSPost2010Prop48
 90
       50
102
RTVSPost2010PropOp48
 70
     1
102
RTVSPost2010Prop49
280
     0
102
RTVSPost2010PropOp49
 70
     1
102
RTVSPost2010Prop50
 90
       50
102
RTVSPost2010PropOp50
 70
     1
102
RTVSPost2010Prop51ColorIndex
 90
      256
102
RTVSPost2010Prop51ColorRGB
 90
-16777216
102
RTVSPost2010PropOp51
 70
     0
102
RTVSPost2010Prop52
140
1.0
102
RTVSPost2010PropOp52
 70
     0
102
RTVSPost2010Prop53
 90
        2
102
RTVSPost2010PropOp53
 70
     1
102
RTVSPost2010Prop54
  1
strokes_ogs.tif
102
RTVSPost2010PropOp54
 70
     1
102
RTVSPost2010Prop55
280
     0
102
RTVSPost2010PropOp55
 70
     1
102
RTVSPost2010Prop56
140
1.0
102
RTVSPost2010PropOp56
 70
     1
102
RTVSPost2010Prop57
140
1.0
102
RTVSPost2010PropOp57
 70
     1
102
RTVSPropertyOp0
 70
     1
102
RTVSPropertyOp1
 70
     1
102
RTVSPropertyOp2
 70
     1
102
RTVSPropertyOp3
 70
     1
102
RTVSPropertyOp4
 70
     1
102
RTVSPropertyOp5
 70
     1
102
RTVSPropertyOp6
 70
     1
102
RTVSPropertyOp7
 70
     1
102
RTVSPropertyOp8
 70
     1
102
RTVSPropertyOp9
 70
     1
102
RTVSPropertyOp10
 70
     1
102
RTVSPropertyOp11
 70
     1
102
RTVSPropertyOp12
 70
     1
102
RTVSPropertyOp13
 70
     1
102
RTVSPropertyOp14
 70
     1
102
RTVSPropertyOp15
 70
     1
102
RTVSPropertyOp16
 70
     1
102
RTVSPropertyOp17
 70
     1
102
RTVSPropertyOp18
 70
     1
102
RTVSPropertyOp19
 70
     1
102
RTVSPropertyOp20
 70
     1
102
RTVSPropertyOp21
 70
     1
102
RTVSPropertyOp22
 70
     1
102
RTVSPropertyOp23
 70
     1
102
RTVSPropertyOp24
 70
     1
102
RTVSPropertyOp25
 70
     1
102
RTVSPropertyOp26
 70
     1
102
RTVSPropertyOp27
 70
     1
102
RTVSPropertyOp28
 70
     1
102
RTVSPropertyOp29
 70
     1
102
RTVSPropertyOp30
 70
     1
102
RTVSPropertyOp31
 70
     1
102
RTVSPropertyOp32
 70
     1
102
RTVSPropertyOp33
 70
     1
102
RTVSPropertyOp34
 70
     1
102
RTVSPropertyOp35
 70
     1
102
RTVSPropertyOp36
 70
     1
102
RTVSPropertyOp37
 70
     1
102
RTVSPropertyOp38
 70
     1
102
RTVSPropertyOp39
 70
     1
102
RTVSPropertyOp40
 70
     1
102
RTVSPropertyOp41
 70
     1
102
RTVSPropertyOp42
 70
     1
102
RTVSPropertyOp43
 70
     1
102
RTVSPropertyOp44
 70
     1
102
RTVSPropertyOp45
 70
     1
102
RTVSPropertyOp46
 70
     1
102
RTVSPropertyOp47
 70
     1
102
RTVSPropertyOp48
 70
     1
102
RTVSPropertyOp49
 70
     1
102
RTVSPropertyOp50
 70
     1
102
RTVSPropertyOp51
 70
     0
102
RTVSPropertyOp52
 70
     0
102
RTVSPropertyOp53
 70
     1
102
RTVSPropertyOp54
 70
     1
102
RTVSPropertyOp55
 70
     1
102
RTVSPropertyOp56
 70
     1
102
RTVSPropertyOp57
 70
     1
102
RTVSPropertyOp58
 70
     1
102
RTVSPropertyOp59
 70
     1
102
RTVSPropertyOp60
 70
     1
102
RTVSPropertyOp61
 70
     1
102
RTVSPropertyOp62
 70
     1
  0
XRECORD
  5
1C04
102
{ACAD_REACTORS
330
1C03
102
}
330
1C03
100
AcDbXrecord
280
     1
102
RTVSPost2010Prop28
280
     0
102
RTVSPost2010PropOp28
 70
     1
102
RTVSPost2010Prop29
280
     1
102
RTVSPost2010PropOp29
 70
     1
102
RTVSPost2010Prop30
280
     1
102
RTVSPost2010PropOp30
 70
     1
102
RTVSPost2010Prop31
280
     0
102
RTVSPost2010PropOp31
 70
     1
102
RTVSPost2010Prop32
280
     0
102
RTVSPost2010PropOp32
 70
     1
102
RTVSPost2010Prop33
280
     0
102
RTVSPost2010PropOp33
 70
     1
102
RTVSPost2010Prop34
280
     0
102
RTVSPost2010PropOp34
 70
     1
102
RTVSPost2010Prop35
280
     0
102
RTVSPost2010PropOp35
 70
     1
102
RTVSPost2010Prop36
280
     0
102
RTVSPost2010PropOp36
 70
     1
102
RTVSPost2010Prop37
 90
       50
102
RTVSPost2010PropOp37
 70
     1
102
RTVSPost2010Prop38
140
0.0
102
RTVSPost2010PropOp38
 70
     1
102
RTVSPost2010Prop39
140
1.0
102
RTVSPost2010PropOp39
 70
     1
102
RTVSPost2010Prop40
 90
        0
102
RTVSPost2010PropOp40
 70
     1
102
RTVSPost2010Prop41ColorIndex
 90
       18
102
RTVSPost2010Prop41ColorRGB
 90
        0
102
RTVSPost2010PropOp41
 70
     1
102
RTVSPost2010Prop42
 90
       50
102
RTVSPost2010PropOp42
 70
     1
102
RTVSPost2010Prop43
 90
        3
102
RTVSPost2010PropOp43
 70
     1
102
RTVSPost2010Prop44ColorIndex
 90
        5
102
RTVSPost2010Prop44ColorRGB
 90
      255
102
RTVSPost2010PropOp44
 70
     1
102
RTVSPost2010Prop45
280
     0
102
RTVSPost2010PropOp45
 70
     1
102
RTVSPost2010Prop46
 90
       50
102
RTVSPost2010PropOp46
 70
     1
102
RTVSPost2010Prop47
 90
       50
102
RTVSPost2010PropOp47
 70
     1
102
RTVSPost2010Prop48
 90
       50
102
RTVSPost2010PropOp48
 70
     1
102
RTVSPost2010Prop49
280
     0
102
RTVSPost2010PropOp49
 70
     1
102
RTVSPost2010Prop50
 90
       50
102
RTVSPost2010PropOp50
 70
     1
102
RTVSPost2010Prop51ColorIndex
 90
      256
102
RTVSPost2010Prop51ColorRGB
 90
-16777216
102
RTVSPost2010PropOp51
 70
     0
102
RTVSPost2010Prop52
140
1.0
102
RTVSPost2010PropOp52
 70
     0
102
RTVSPost2010Prop53
 90
        2
102
RTVSPost2010PropOp53
 70
     1
102
RTVSPost2010Prop54
  1
strokes_ogs.tif
102
RTVSPost2010PropOp54
 70
     1
102
RTVSPost2010Prop55
280
     0
102
RTVSPost2010PropOp55
 70
     1
102
RTVSPost2010Prop56
140
1.0
102
RTVSPost2010PropOp56
 70
     1
102
RTVSPost2010Prop57
140
1.0
102
RTVSPost2010PropOp57
 70
     1
102
RTVSPropertyOp0
 70
     1
102
RTVSPropertyOp1
 70
     1
102
RTVSPropertyOp2
 70
     1
102
RTVSPropertyOp3
 70
     1
102
RTVSPropertyOp4
 70
     1
102
RTVSPropertyOp5
 70
     1
102
RTVSPropertyOp6
 70
     1
102
RTVSPropertyOp7
 70
     1
102
RTVSPropertyOp8
 70
     1
102
RTVSPropertyOp9
 70
     1
102
RTVSPropertyOp10
 70
     1
102
RTVSPropertyOp11
 70
     1
102
RTVSPropertyOp12
 70
     1
102
RTVSPropertyOp13
 70
     1
102
RTVSPropertyOp14
 70
     1
102
RTVSPropertyOp15
 70
     1
102
RTVSPropertyOp16
 70
     1
102
RTVSPropertyOp17
 70
     1
102
RTVSPropertyOp18
 70
     1
102
RTVSPropertyOp19
 70
     1
102
RTVSPropertyOp20
 70
     1
102
RTVSPropertyOp21
 70
     1
102
RTVSPropertyOp22
 70
     1
102
RTVSPropertyOp23
 70
     1
102
RTVSPropertyOp24
 70
     1
102
RTVSPropertyOp25
 70
     1
102
RTVSPropertyOp26
 70
     1
102
RTVSPropertyOp27
 70
     1
102
RTVSPropertyOp28
 70
     1
102
RTVSPropertyOp29
 70
     1
102
RTVSPropertyOp30
 70
     1
102
RTVSPropertyOp31
 70
     1
102
RTVSPropertyOp32
 70
     1
102
RTVSPropertyOp33
 70
     1
102
RTVSPropertyOp34
 70
     1
102
RTVSPropertyOp35
 70
     1
102
RTVSPropertyOp36
 70
     1
102
RTVSPropertyOp37
 70
     1
102
RTVSPropertyOp38
 70
     1
102
RTVSPropertyOp39
 70
     1
102
RTVSPropertyOp40
 70
     1
102
RTVSPropertyOp41
 70
     1
102
RTVSPropertyOp42
 70
     1
102
RTVSPropertyOp43
 70
     1
102
RTVSPropertyOp44
 70
     1
102
RTVSPropertyOp45
 70
     1
102
RTVSPropertyOp46
 70
     1
102
RTVSPropertyOp47
 70
     1
102
RTVSPropertyOp48
 70
     1
102
RTVSPropertyOp49
 70
     1
102
RTVSPropertyOp50
 70
     1
102
RTVSPropertyOp51
 70
     0
102
RTVSPropertyOp52
 70
     0
102
RTVSPropertyOp53
 70
     1
102
RTVSPropertyOp54
 70
     1
102
RTVSPropertyOp55
 70
     1
102
RTVSPropertyOp56
 70
     1
102
RTVSPropertyOp57
 70
     1
102
RTVSPropertyOp58
 70
     1
102
RTVSPropertyOp59
 70
     1
102
RTVSPropertyOp60
 70
     1
102
RTVSPropertyOp61
 70
     1
102
RTVSPropertyOp62
 70
     1
  0
XRECORD
  5
1C06
102
{ACAD_REACTORS
330
1C05
102
}
330
1C05
100
AcDbXrecord
280
     1
102
RTVSPost2010Prop28
280
     0
102
RTVSPost2010PropOp28
 70
     1
102
RTVSPost2010Prop29
280
     1
102
RTVSPost2010PropOp29
 70
     1
102
RTVSPost2010Prop30
280
     1
102
RTVSPost2010PropOp30
 70
     1
102
RTVSPost2010Prop31
280
     0
102
RTVSPost2010PropOp31
 70
     1
102
RTVSPost2010Prop32
280
     0
102
RTVSPost2010PropOp32
 70
     1
102
RTVSPost2010Prop33
280
     0
102
RTVSPost2010PropOp33
 70
     1
102
RTVSPost2010Prop34
280
     0
102
RTVSPost2010PropOp34
 70
     1
102
RTVSPost2010Prop35
280
     0
102
RTVSPost2010PropOp35
 70
     1
102
RTVSPost2010Prop36
280
     0
102
RTVSPost2010PropOp36
 70
     1
102
RTVSPost2010Prop37
 90
       50
102
RTVSPost2010PropOp37
 70
     1
102
RTVSPost2010Prop38
140
0.0
102
RTVSPost2010PropOp38
 70
     1
102
RTVSPost2010Prop39
140
1.0
102
RTVSPost2010PropOp39
 70
     1
102
RTVSPost2010Prop40
 90
        0
102
RTVSPost2010PropOp40
 70
     1
102
RTVSPost2010Prop41ColorIndex
 90
       18
102
RTVSPost2010Prop41ColorRGB
 90
        0
102
RTVSPost2010PropOp41
 70
     1
102
RTVSPost2010Prop42
 90
       50
102
RTVSPost2010PropOp42
 70
     1
102
RTVSPost2010Prop43
 90
        3
102
RTVSPost2010PropOp43
 70
     1
102
RTVSPost2010Prop44ColorIndex
 90
        5
102
RTVSPost2010Prop44ColorRGB
 90
      255
102
RTVSPost2010PropOp44
 70
     1
102
RTVSPost2010Prop45
280
     0
102
RTVSPost2010PropOp45
 70
     1
102
RTVSPost2010Prop46
 90
       50
102
RTVSPost2010PropOp46
 70
     1
102
RTVSPost2010Prop47
 90
       50
102
RTVSPost2010PropOp47
 70
     1
102
RTVSPost2010Prop48
 90
       50
102
RTVSPost2010PropOp48
 70
     1
102
RTVSPost2010Prop49
280
     0
102
RTVSPost2010PropOp49
 70
     1
102
RTVSPost2010Prop50
 90
       50
102
RTVSPost2010PropOp50
 70
     1
102
RTVSPost2010Prop51ColorIndex
 90
      256
102
RTVSPost2010Prop51ColorRGB
 90
-16777216
102
RTVSPost2010PropOp51
 70
     0
102
RTVSPost2010Prop52
140
1.0
102
RTVSPost2010PropOp52
 70
     0
102
RTVSPost2010Prop53
 90
        2
102
RTVSPost2010PropOp53
 70
     1
102
RTVSPost2010Prop54
  1
strokes_ogs.tif
102
RTVSPost2010PropOp54
 70
     1
102
RTVSPost2010Prop55
280
     0
102
RTVSPost2010PropOp55
 70
     1
102
RTVSPost2010Prop56
140
1.0
102
RTVSPost2010PropOp56
 70
     1
102
RTVSPost2010Prop57
140
1.0
102
RTVSPost2010PropOp57
 70
     1
102
RTVSPropertyOp0
 70
     1
102
RTVSPropertyOp1
 70
     1
102
RTVSPropertyOp2
 70
     1
102
RTVSPropertyOp3
 70
     1
102
RTVSPropertyOp4
 70
     1
102
RTVSPropertyOp5
 70
     1
102
RTVSPropertyOp6
 70
     1
102
RTVSPropertyOp7
 70
     1
102
RTVSPropertyOp8
 70
     1
102
RTVSPropertyOp9
 70
     1
102
RTVSPropertyOp10
 70
     1
102
RTVSPropertyOp11
 70
     1
102
RTVSPropertyOp12
 70
     1
102
RTVSPropertyOp13
 70
     1
102
RTVSPropertyOp14
 70
     1
102
RTVSPropertyOp15
 70
     1
102
RTVSPropertyOp16
 70
     1
102
RTVSPropertyOp17
 70
     1
102
RTVSPropertyOp18
 70
     1
102
RTVSPropertyOp19
 70
     1
102
RTVSPropertyOp20
 70
     1
102
RTVSPropertyOp21
 70
     1
102
RTVSPropertyOp22
 70
     1
102
RTVSPropertyOp23
 70
     1
102
RTVSPropertyOp24
 70
     1
102
RTVSPropertyOp25
 70
     1
102
RTVSPropertyOp26
 70
     1
102
RTVSPropertyOp27
 70
     1
102
RTVSPropertyOp28
 70
     1
102
RTVSPropertyOp29
 70
     1
102
RTVSPropertyOp30
 70
     1
102
RTVSPropertyOp31
 70
     1
102
RTVSPropertyOp32
 70
     1
102
RTVSPropertyOp33
 70
     1
102
RTVSPropertyOp34
 70
     1
102
RTVSPropertyOp35
 70
     1
102
RTVSPropertyOp36
 70
     1
102
RTVSPropertyOp37
 70
     1
102
RTVSPropertyOp38
 70
     1
102
RTVSPropertyOp39
 70
     1
102
RTVSPropertyOp40
 70
     1
102
RTVSPropertyOp41
 70
     1
102
RTVSPropertyOp42
 70
     1
102
RTVSPropertyOp43
 70
     1
102
RTVSPropertyOp44
 70
     1
102
RTVSPropertyOp45
 70
     1
102
RTVSPropertyOp46
 70
     1
102
RTVSPropertyOp47
 70
     1
102
RTVSPropertyOp48
 70
     1
102
RTVSPropertyOp49
 70
     1
102
RTVSPropertyOp50
 70
     1
102
RTVSPropertyOp51
 70
     0
102
RTVSPropertyOp52
 70
     0
102
RTVSPropertyOp53
 70
     1
102
RTVSPropertyOp54
 70
     1
102
RTVSPropertyOp55
 70
     1
102
RTVSPropertyOp56
 70
     1
102
RTVSPropertyOp57
 70
     1
102
RTVSPropertyOp58
 70
     1
102
RTVSPropertyOp59
 70
     1
102
RTVSPropertyOp60
 70
     1
102
RTVSPropertyOp61
 70
     1
102
RTVSPropertyOp62
 70
     1
  0
XRECORD
  5
1C32
102
{ACAD_REACTORS
330
1C31
102
}
330
1C31
100
AcDbXrecord
280
     1
102
RTVSPost2010Prop28
280
     0
102
RTVSPost2010PropOp28
 70
     1
102
RTVSPost2010Prop29
280
     1
102
RTVSPost2010PropOp29
 70
     1
102
RTVSPost2010Prop30
280
     1
102
RTVSPost2010PropOp30
 70
     1
102
RTVSPost2010Prop31
280
     0
102
RTVSPost2010PropOp31
 70
     1
102
RTVSPost2010Prop32
280
     0
102
RTVSPost2010PropOp32
 70
     1
102
RTVSPost2010Prop33
280
     0
102
RTVSPost2010PropOp33
 70
     1
102
RTVSPost2010Prop34
280
     0
102
RTVSPost2010PropOp34
 70
     1
102
RTVSPost2010Prop35
280
     0
102
RTVSPost2010PropOp35
 70
     1
102
RTVSPost2010Prop36
280
     0
102
RTVSPost2010PropOp36
 70
     1
102
RTVSPost2010Prop37
 90
       50
102
RTVSPost2010PropOp37
 70
     1
102
RTVSPost2010Prop38
140
0.0
102
RTVSPost2010PropOp38
 70
     1
102
RTVSPost2010Prop39
140
1.0
102
RTVSPost2010PropOp39
 70
     1
102
RTVSPost2010Prop40
 90
        0
102
RTVSPost2010PropOp40
 70
     1
102
RTVSPost2010Prop41ColorIndex
 90
       18
102
RTVSPost2010Prop41ColorRGB
 90
        0
102
RTVSPost2010PropOp41
 70
     1
102
RTVSPost2010Prop42
 90
       50
102
RTVSPost2010PropOp42
 70
     1
102
RTVSPost2010Prop43
 90
        3
102
RTVSPost2010PropOp43
 70
     1
102
RTVSPost2010Prop44ColorIndex
 90
        5
102
RTVSPost2010Prop44ColorRGB
 90
      255
102
RTVSPost2010PropOp44
 70
     1
102
RTVSPost2010Prop45
280
     0
102
RTVSPost2010PropOp45
 70
     1
102
RTVSPost2010Prop46
 90
       50
102
RTVSPost2010PropOp46
 70
     1
102
RTVSPost2010Prop47
 90
       50
102
RTVSPost2010PropOp47
 70
     1
102
RTVSPost2010Prop48
 90
       50
102
RTVSPost2010PropOp48
 70
     1
102
RTVSPost2010Prop49
280
     0
102
RTVSPost2010PropOp49
 70
     1
102
RTVSPost2010Prop50
 90
       50
102
RTVSPost2010PropOp50
 70
     1
102
RTVSPost2010Prop51ColorIndex
 90
      256
102
RTVSPost2010Prop51ColorRGB
 90
-16777216
102
RTVSPost2010PropOp51
 70
     0
102
RTVSPost2010Prop52
140
1.0
102
RTVSPost2010PropOp52
 70
     0
102
RTVSPost2010Prop53
 90
        2
102
RTVSPost2010PropOp53
 70
     1
102
RTVSPost2010Prop54
  1
strokes_ogs.tif
102
RTVSPost2010PropOp54
 70
     1
102
RTVSPost2010Prop55
280
     0
102
RTVSPost2010PropOp55
 70
     1
102
RTVSPost2010Prop56
140
1.0
102
RTVSPost2010PropOp56
 70
     1
102
RTVSPost2010Prop57
140
1.0
102
RTVSPost2010PropOp57
 70
     1
102
RTVSPropertyOp0
 70
     1
102
RTVSPropertyOp1
 70
     1
102
RTVSPropertyOp2
 70
     1
102
RTVSPropertyOp3
 70
     1
102
RTVSPropertyOp4
 70
     1
102
RTVSPropertyOp5
 70
     1
102
RTVSPropertyOp6
 70
     1
102
RTVSPropertyOp7
 70
     1
102
RTVSPropertyOp8
 70
     1
102
RTVSPropertyOp9
 70
     1
102
RTVSPropertyOp10
 70
     1
102
RTVSPropertyOp11
 70
     1
102
RTVSPropertyOp12
 70
     1
102
RTVSPropertyOp13
 70
     1
102
RTVSPropertyOp14
 70
     1
102
RTVSPropertyOp15
 70
     1
102
RTVSPropertyOp16
 70
     1
102
RTVSPropertyOp17
 70
     1
102
RTVSPropertyOp18
 70
     1
102
RTVSPropertyOp19
 70
     1
102
RTVSPropertyOp20
 70
     1
102
RTVSPropertyOp21
 70
     1
102
RTVSPropertyOp22
 70
     1
102
RTVSPropertyOp23
 70
     1
102
RTVSPropertyOp24
 70
     1
102
RTVSPropertyOp25
 70
     1
102
RTVSPropertyOp26
 70
     1
102
RTVSPropertyOp27
 70
     1
102
RTVSPropertyOp28
 70
     1
102
RTVSPropertyOp29
 70
     1
102
RTVSPropertyOp30
 70
     1
102
RTVSPropertyOp31
 70
     1
102
RTVSPropertyOp32
 70
     1
102
RTVSPropertyOp33
 70
     1
102
RTVSPropertyOp34
 70
     1
102
RTVSPropertyOp35
 70
     1
102
RTVSPropertyOp36
 70
     1
102
RTVSPropertyOp37
 70
     1
102
RTVSPropertyOp38
 70
     1
102
RTVSPropertyOp39
 70
     1
102
RTVSPropertyOp40
 70
     1
102
RTVSPropertyOp41
 70
     1
102
RTVSPropertyOp42
 70
     1
102
RTVSPropertyOp43
 70
     1
102
RTVSPropertyOp44
 70
     1
102
RTVSPropertyOp45
 70
     1
102
RTVSPropertyOp46
 70
     1
102
RTVSPropertyOp47
 70
     1
102
RTVSPropertyOp48
 70
     1
102
RTVSPropertyOp49
 70
     1
102
RTVSPropertyOp50
 70
     1
102
RTVSPropertyOp51
 70
     0
102
RTVSPropertyOp52
 70
     0
102
RTVSPropertyOp53
 70
     1
102
RTVSPropertyOp54
 70
     1
102
RTVSPropertyOp55
 70
     1
102
RTVSPropertyOp56
 70
     1
102
RTVSPropertyOp57
 70
     1
102
RTVSPropertyOp58
 70
     1
102
RTVSPropertyOp59
 70
     1
102
RTVSPropertyOp60
 70
     1
102
RTVSPropertyOp61
 70
     1
102
RTVSPropertyOp62
 70
     1
  0
XRECORD
  5
1C2A
102
{ACAD_REACTORS
330
1C29
102
}
330
1C29
100
AcDbXrecord
280
     1
102
RTVSPost2010Prop28
280
     0
102
RTVSPost2010PropOp28
 70
     1
102
RTVSPost2010Prop29
280
     1
102
RTVSPost2010PropOp29
 70
     1
102
RTVSPost2010Prop30
280
     1
102
RTVSPost2010PropOp30
 70
     1
102
RTVSPost2010Prop31
280
     0
102
RTVSPost2010PropOp31
 70
     1
102
RTVSPost2010Prop32
280
     0
102
RTVSPost2010PropOp32
 70
     1
102
RTVSPost2010Prop33
280
     0
102
RTVSPost2010PropOp33
 70
     1
102
RTVSPost2010Prop34
280
     0
102
RTVSPost2010PropOp34
 70
     1
102
RTVSPost2010Prop35
280
     0
102
RTVSPost2010PropOp35
 70
     1
102
RTVSPost2010Prop36
280
     0
102
RTVSPost2010PropOp36
 70
     1
102
RTVSPost2010Prop37
 90
       50
102
RTVSPost2010PropOp37
 70
     1
102
RTVSPost2010Prop38
140
0.0
102
RTVSPost2010PropOp38
 70
     1
102
RTVSPost2010Prop39
140
1.0
102
RTVSPost2010PropOp39
 70
     1
102
RTVSPost2010Prop40
 90
        0
102
RTVSPost2010PropOp40
 70
     1
102
RTVSPost2010Prop41ColorIndex
 90
       18
102
RTVSPost2010Prop41ColorRGB
 90
        0
102
RTVSPost2010PropOp41
 70
     1
102
RTVSPost2010Prop42
 90
       50
102
RTVSPost2010PropOp42
 70
     1
102
RTVSPost2010Prop43
 90
        3
102
RTVSPost2010PropOp43
 70
     1
102
RTVSPost2010Prop44ColorIndex
 90
        5
102
RTVSPost2010Prop44ColorRGB
 90
      255
102
RTVSPost2010PropOp44
 70
     1
102
RTVSPost2010Prop45
280
     0
102
RTVSPost2010PropOp45
 70
     1
102
RTVSPost2010Prop46
 90
       50
102
RTVSPost2010PropOp46
 70
     1
102
RTVSPost2010Prop47
 90
       50
102
RTVSPost2010PropOp47
 70
     1
102
RTVSPost2010Prop48
 90
       50
102
RTVSPost2010PropOp48
 70
     1
102
RTVSPost2010Prop49
280
     0
102
RTVSPost2010PropOp49
 70
     1
102
RTVSPost2010Prop50
 90
       50
102
RTVSPost2010PropOp50
 70
     1
102
RTVSPost2010Prop51ColorIndex
 90
      256
102
RTVSPost2010Prop51ColorRGB
 90
-16777216
102
RTVSPost2010PropOp51
 70
     0
102
RTVSPost2010Prop52
140
1.0
102
RTVSPost2010PropOp52
 70
     0
102
RTVSPost2010Prop53
 90
        2
102
RTVSPost2010PropOp53
 70
     1
102
RTVSPost2010Prop54
  1
strokes_ogs.tif
102
RTVSPost2010PropOp54
 70
     1
102
RTVSPost2010Prop55
280
     0
102
RTVSPost2010PropOp55
 70
     1
102
RTVSPost2010Prop56
140
1.0
102
RTVSPost2010PropOp56
 70
     1
102
RTVSPost2010Prop57
140
1.0
102
RTVSPost2010PropOp57
 70
     1
102
RTVSPropertyOp0
 70
     0
102
RTVSPropertyOp1
 70
     0
102
RTVSPropertyOp2
 70
     0
102
RTVSPropertyOp3
 70
     0
102
RTVSPropertyOp4
 70
     0
102
RTVSPropertyOp5
 70
     0
102
RTVSPropertyOp6
 70
     0
102
RTVSPropertyOp7
 70
     0
102
RTVSPropertyOp8
 70
     0
102
RTVSPropertyOp9
 70
     0
102
RTVSPropertyOp10
 70
     0
102
RTVSPropertyOp11
 70
     0
102
RTVSPropertyOp12
 70
     0
102
RTVSPropertyOp13
 70
     0
102
RTVSPropertyOp14
 70
     2
102
RTVSPropertyOp15
 70
     0
102
RTVSPropertyOp16
 70
     0
102
RTVSPropertyOp17
 70
     0
102
RTVSPropertyOp18
 70
     0
102
RTVSPropertyOp19
 70
     0
102
RTVSPropertyOp20
 70
     0
102
RTVSPropertyOp21
 70
     0
102
RTVSPropertyOp22
 70
     0
102
RTVSPropertyOp23
 70
     0
102
RTVSPropertyOp24
 70
     0
102
RTVSPropertyOp25
 70
     0
102
RTVSPropertyOp26
 70
     0
102
RTVSPropertyOp27
 70
     0
102
RTVSPropertyOp28
 70
     1
102
RTVSPropertyOp29
 70
     1
102
RTVSPropertyOp30
 70
     1
102
RTVSPropertyOp31
 70
     1
102
RTVSPropertyOp32
 70
     1
102
RTVSPropertyOp33
 70
     1
102
RTVSPropertyOp34
 70
     1
102
RTVSPropertyOp35
 70
     1
102
RTVSPropertyOp36
 70
     1
102
RTVSPropertyOp37
 70
     1
102
RTVSPropertyOp38
 70
     1
102
RTVSPropertyOp39
 70
     1
102
RTVSPropertyOp40
 70
     1
102
RTVSPropertyOp41
 70
     1
102
RTVSPropertyOp42
 70
     1
102
RTVSPropertyOp43
 70
     1
102
RTVSPropertyOp44
 70
     1
102
RTVSPropertyOp45
 70
     1
102
RTVSPropertyOp46
 70
     1
102
RTVSPropertyOp47
 70
     1
102
RTVSPropertyOp48
 70
     1
102
RTVSPropertyOp49
 70
     1
102
RTVSPropertyOp50
 70
     1
102
RTVSPropertyOp51
 70
     0
102
RTVSPropertyOp52
 70
     0
102
RTVSPropertyOp53
 70
     1
102
RTVSPropertyOp54
 70
     1
102
RTVSPropertyOp55
 70
     1
102
RTVSPropertyOp56
 70
     1
102
RTVSPropertyOp57
 70
     1
102
RTVSPropertyOp58
 70
     1
102
RTVSPropertyOp59
 70
     1
102
RTVSPropertyOp60
 70
     1
102
RTVSPropertyOp61
 70
     1
102
RTVSPropertyOp62
 70
     1
  0
XRECORD
  5
1C1A
102
{ACAD_REACTORS
330
1C19
102
}
330
1C19
100
AcDbXrecord
280
     1
102
RTVSPost2010Prop28
280
     0
102
RTVSPost2010PropOp28
 70
     1
102
RTVSPost2010Prop29
280
     1
102
RTVSPost2010PropOp29
 70
     1
102
RTVSPost2010Prop30
280
     1
102
RTVSPost2010PropOp30
 70
     1
102
RTVSPost2010Prop31
280
     0
102
RTVSPost2010PropOp31
 70
     1
102
RTVSPost2010Prop32
280
     0
102
RTVSPost2010PropOp32
 70
     1
102
RTVSPost2010Prop33
280
     0
102
RTVSPost2010PropOp33
 70
     1
102
RTVSPost2010Prop34
280
     0
102
RTVSPost2010PropOp34
 70
     1
102
RTVSPost2010Prop35
280
     0
102
RTVSPost2010PropOp35
 70
     1
102
RTVSPost2010Prop36
280
     0
102
RTVSPost2010PropOp36
 70
     1
102
RTVSPost2010Prop37
 90
       50
102
RTVSPost2010PropOp37
 70
     1
102
RTVSPost2010Prop38
140
0.0
102
RTVSPost2010PropOp38
 70
     1
102
RTVSPost2010Prop39
140
1.0
102
RTVSPost2010PropOp39
 70
     1
102
RTVSPost2010Prop40
 90
        0
102
RTVSPost2010PropOp40
 70
     1
102
RTVSPost2010Prop41ColorIndex
 90
       18
102
RTVSPost2010Prop41ColorRGB
 90
        0
102
RTVSPost2010PropOp41
 70
     1
102
RTVSPost2010Prop42
 90
       50
102
RTVSPost2010PropOp42
 70
     1
102
RTVSPost2010Prop43
 90
        3
102
RTVSPost2010PropOp43
 70
     1
102
RTVSPost2010Prop44ColorIndex
 90
        5
102
RTVSPost2010Prop44ColorRGB
 90
      255
102
RTVSPost2010PropOp44
 70
     1
102
RTVSPost2010Prop45
280
     0
102
RTVSPost2010PropOp45
 70
     1
102
RTVSPost2010Prop46
 90
       50
102
RTVSPost2010PropOp46
 70
     1
102
RTVSPost2010Prop47
 90
       50
102
RTVSPost2010PropOp47
 70
     1
102
RTVSPost2010Prop48
 90
       50
102
RTVSPost2010PropOp48
 70
     1
102
RTVSPost2010Prop49
280
     0
102
RTVSPost2010PropOp49
 70
     1
102
RTVSPost2010Prop50
 90
       50
102
RTVSPost2010PropOp50
 70
     1
102
RTVSPost2010Prop51ColorIndex
 90
      256
102
RTVSPost2010Prop51ColorRGB
 90
-16777216
102
RTVSPost2010PropOp51
 70
     0
102
RTVSPost2010Prop52
140
1.0
102
RTVSPost2010PropOp52
 70
     0
102
RTVSPost2010Prop53
 90
        2
102
RTVSPost2010PropOp53
 70
     1
102
RTVSPost2010Prop54
  1
strokes_ogs.tif
102
RTVSPost2010PropOp54
 70
     1
102
RTVSPost2010Prop55
280
     0
102
RTVSPost2010PropOp55
 70
     1
102
RTVSPost2010Prop56
140
1.0
102
RTVSPost2010PropOp56
 70
     1
102
RTVSPost2010Prop57
140
1.0
102
RTVSPost2010PropOp57
 70
     1
102
RTVSPropertyOp0
 70
     1
102
RTVSPropertyOp1
 70
     1
102
RTVSPropertyOp2
 70
     1
102
RTVSPropertyOp3
 70
     1
102
RTVSPropertyOp4
 70
     1
102
RTVSPropertyOp5
 70
     1
102
RTVSPropertyOp6
 70
     1
102
RTVSPropertyOp7
 70
     1
102
RTVSPropertyOp8
 70
     1
102
RTVSPropertyOp9
 70
     1
102
RTVSPropertyOp10
 70
     1
102
RTVSPropertyOp11
 70
     1
102
RTVSPropertyOp12
 70
     1
102
RTVSPropertyOp13
 70
     1
102
RTVSPropertyOp14
 70
     1
102
RTVSPropertyOp15
 70
     1
102
RTVSPropertyOp16
 70
     1
102
RTVSPropertyOp17
 70
     1
102
RTVSPropertyOp18
 70
     1
102
RTVSPropertyOp19
 70
     1
102
RTVSPropertyOp20
 70
     1
102
RTVSPropertyOp21
 70
     1
102
RTVSPropertyOp22
 70
     1
102
RTVSPropertyOp23
 70
     1
102
RTVSPropertyOp24
 70
     1
102
RTVSPropertyOp25
 70
     1
102
RTVSPropertyOp26
 70
     1
102
RTVSPropertyOp27
 70
     1
102
RTVSPropertyOp28
 70
     1
102
RTVSPropertyOp29
 70
     1
102
RTVSPropertyOp30
 70
     1
102
RTVSPropertyOp31
 70
     1
102
RTVSPropertyOp32
 70
     1
102
RTVSPropertyOp33
 70
     1
102
RTVSPropertyOp34
 70
     1
102
RTVSPropertyOp35
 70
     1
102
RTVSPropertyOp36
 70
     1
102
RTVSPropertyOp37
 70
     1
102
RTVSPropertyOp38
 70
     1
102
RTVSPropertyOp39
 70
     1
102
RTVSPropertyOp40
 70
     1
102
RTVSPropertyOp41
 70
     1
102
RTVSPropertyOp42
 70
     1
102
RTVSPropertyOp43
 70
     1
102
RTVSPropertyOp44
 70
     1
102
RTVSPropertyOp45
 70
     1
102
RTVSPropertyOp46
 70
     1
102
RTVSPropertyOp47
 70
     1
102
RTVSPropertyOp48
 70
     1
102
RTVSPropertyOp49
 70
     1
102
RTVSPropertyOp50
 70
     1
102
RTVSPropertyOp51
 70
     0
102
RTVSPropertyOp52
 70
     0
102
RTVSPropertyOp53
 70
     1
102
RTVSPropertyOp54
 70
     1
102
RTVSPropertyOp55
 70
     1
102
RTVSPropertyOp56
 70
     1
102
RTVSPropertyOp57
 70
     1
102
RTVSPropertyOp58
 70
     1
102
RTVSPropertyOp59
 70
     1
102
RTVSPropertyOp60
 70
     1
102
RTVSPropertyOp61
 70
     1
102
RTVSPropertyOp62
 70
     1
  0
XRECORD
  5
1C2C
102
{ACAD_REACTORS
330
1C2B
102
}
330
1C2B
100
AcDbXrecord
280
     1
102
RTVSPost2010Prop28
280
     0
102
RTVSPost2010PropOp28
 70
     1
102
RTVSPost2010Prop29
280
     1
102
RTVSPost2010PropOp29
 70
     1
102
RTVSPost2010Prop30
280
     1
102
RTVSPost2010PropOp30
 70
     1
102
RTVSPost2010Prop31
280
     0
102
RTVSPost2010PropOp31
 70
     1
102
RTVSPost2010Prop32
280
     0
102
RTVSPost2010PropOp32
 70
     1
102
RTVSPost2010Prop33
280
     0
102
RTVSPost2010PropOp33
 70
     1
102
RTVSPost2010Prop34
280
     0
102
RTVSPost2010PropOp34
 70
     1
102
RTVSPost2010Prop35
280
     0
102
RTVSPost2010PropOp35
 70
     1
102
RTVSPost2010Prop36
280
     0
102
RTVSPost2010PropOp36
 70
     1
102
RTVSPost2010Prop37
 90
       50
102
RTVSPost2010PropOp37
 70
     1
102
RTVSPost2010Prop38
140
0.0
102
RTVSPost2010PropOp38
 70
     1
102
RTVSPost2010Prop39
140
1.0
102
RTVSPost2010PropOp39
 70
     1
102
RTVSPost2010Prop40
 90
        0
102
RTVSPost2010PropOp40
 70
     1
102
RTVSPost2010Prop41ColorIndex
 90
       18
102
RTVSPost2010Prop41ColorRGB
 90
        0
102
RTVSPost2010PropOp41
 70
     1
102
RTVSPost2010Prop42
 90
       50
102
RTVSPost2010PropOp42
 70
     1
102
RTVSPost2010Prop43
 90
        3
102
RTVSPost2010PropOp43
 70
     1
102
RTVSPost2010Prop44ColorIndex
 90
        5
102
RTVSPost2010Prop44ColorRGB
 90
      255
102
RTVSPost2010PropOp44
 70
     1
102
RTVSPost2010Prop45
280
     0
102
RTVSPost2010PropOp45
 70
     1
102
RTVSPost2010Prop46
 90
       50
102
RTVSPost2010PropOp46
 70
     1
102
RTVSPost2010Prop47
 90
       50
102
RTVSPost2010PropOp47
 70
     1
102
RTVSPost2010Prop48
 90
       50
102
RTVSPost2010PropOp48
 70
     1
102
RTVSPost2010Prop49
280
     0
102
RTVSPost2010PropOp49
 70
     1
102
RTVSPost2010Prop50
 90
       50
102
RTVSPost2010PropOp50
 70
     1
102
RTVSPost2010Prop51ColorIndex
 90
      256
102
RTVSPost2010Prop51ColorRGB
 90
-16777216
102
RTVSPost2010PropOp51
 70
     0
102
RTVSPost2010Prop52
140
1.0
102
RTVSPost2010PropOp52
 70
     0
102
RTVSPost2010Prop53
 90
        2
102
RTVSPost2010PropOp53
 70
     1
102
RTVSPost2010Prop54
  1
strokes_ogs.tif
102
RTVSPost2010PropOp54
 70
     1
102
RTVSPost2010Prop55
280
     0
102
RTVSPost2010PropOp55
 70
     1
102
RTVSPost2010Prop56
140
1.0
102
RTVSPost2010PropOp56
 70
     1
102
RTVSPost2010Prop57
140
1.0
102
RTVSPost2010PropOp57
 70
     1
102
RTVSPropertyOp0
 70
     0
102
RTVSPropertyOp1
 70
     0
102
RTVSPropertyOp2
 70
     0
102
RTVSPropertyOp3
 70
     0
102
RTVSPropertyOp4
 70
     0
102
RTVSPropertyOp5
 70
     0
102
RTVSPropertyOp6
 70
     0
102
RTVSPropertyOp7
 70
     0
102
RTVSPropertyOp8
 70
     0
102
RTVSPropertyOp9
 70
     0
102
RTVSPropertyOp10
 70
     0
102
RTVSPropertyOp11
 70
     0
102
RTVSPropertyOp12
 70
     0
102
RTVSPropertyOp13
 70
     0
102
RTVSPropertyOp14
 70
     2
102
RTVSPropertyOp15
 70
     0
102
RTVSPropertyOp16
 70
     0
102
RTVSPropertyOp17
 70
     0
102
RTVSPropertyOp18
 70
     0
102
RTVSPropertyOp19
 70
     0
102
RTVSPropertyOp20
 70
     0
102
RTVSPropertyOp21
 70
     0
102
RTVSPropertyOp22
 70
     0
102
RTVSPropertyOp23
 70
     0
102
RTVSPropertyOp24
 70
     0
102
RTVSPropertyOp25
 70
     0
102
RTVSPropertyOp26
 70
     0
102
RTVSPropertyOp27
 70
     0
102
RTVSPropertyOp28
 70
     1
102
RTVSPropertyOp29
 70
     1
102
RTVSPropertyOp30
 70
     1
102
RTVSPropertyOp31
 70
     1
102
RTVSPropertyOp32
 70
     1
102
RTVSPropertyOp33
 70
     1
102
RTVSPropertyOp34
 70
     1
102
RTVSPropertyOp35
 70
     1
102
RTVSPropertyOp36
 70
     1
102
RTVSPropertyOp37
 70
     1
102
RTVSPropertyOp38
 70
     1
102
RTVSPropertyOp39
 70
     1
102
RTVSPropertyOp40
 70
     1
102
RTVSPropertyOp41
 70
     1
102
RTVSPropertyOp42
 70
     1
102
RTVSPropertyOp43
 70
     1
102
RTVSPropertyOp44
 70
     1
102
RTVSPropertyOp45
 70
     1
102
RTVSPropertyOp46
 70
     1
102
RTVSPropertyOp47
 70
     1
102
RTVSPropertyOp48
 70
     1
102
RTVSPropertyOp49
 70
     1
102
RTVSPropertyOp50
 70
     1
102
RTVSPropertyOp51
 70
     0
102
RTVSPropertyOp52
 70
     0
102
RTVSPropertyOp53
 70
     1
102
RTVSPropertyOp54
 70
     1
102
RTVSPropertyOp55
 70
     1
102
RTVSPropertyOp56
 70
     1
102
RTVSPropertyOp57
 70
     1
102
RTVSPropertyOp58
 70
     1
102
RTVSPropertyOp59
 70
     1
102
RTVSPropertyOp60
 70
     1
102
RTVSPropertyOp61
 70
     1
102
RTVSPropertyOp62
 70
     1
  0
XRECORD
  5
1C12
102
{ACAD_REACTORS
330
1C11
102
}
330
1C11
100
AcDbXrecord
280
     1
102
RTVSPost2010Prop28
280
     0
102
RTVSPost2010PropOp28
 70
     1
102
RTVSPost2010Prop29
280
     1
102
RTVSPost2010PropOp29
 70
     1
102
RTVSPost2010Prop30
280
     1
102
RTVSPost2010PropOp30
 70
     1
102
RTVSPost2010Prop31
280
     0
102
RTVSPost2010PropOp31
 70
     1
102
RTVSPost2010Prop32
280
     0
102
RTVSPost2010PropOp32
 70
     1
102
RTVSPost2010Prop33
280
     0
102
RTVSPost2010PropOp33
 70
     1
102
RTVSPost2010Prop34
280
     0
102
RTVSPost2010PropOp34
 70
     1
102
RTVSPost2010Prop35
280
     0
102
RTVSPost2010PropOp35
 70
     1
102
RTVSPost2010Prop36
280
     0
102
RTVSPost2010PropOp36
 70
     1
102
RTVSPost2010Prop37
 90
       50
102
RTVSPost2010PropOp37
 70
     1
102
RTVSPost2010Prop38
140
0.0
102
RTVSPost2010PropOp38
 70
     1
102
RTVSPost2010Prop39
140
1.0
102
RTVSPost2010PropOp39
 70
     1
102
RTVSPost2010Prop40
 90
        0
102
RTVSPost2010PropOp40
 70
     1
102
RTVSPost2010Prop41ColorIndex
 90
       18
102
RTVSPost2010Prop41ColorRGB
 90
        0
102
RTVSPost2010PropOp41
 70
     1
102
RTVSPost2010Prop42
 90
       50
102
RTVSPost2010PropOp42
 70
     1
102
RTVSPost2010Prop43
 90
        3
102
RTVSPost2010PropOp43
 70
     1
102
RTVSPost2010Prop44ColorIndex
 90
        5
102
RTVSPost2010Prop44ColorRGB
 90
      255
102
RTVSPost2010PropOp44
 70
     1
102
RTVSPost2010Prop45
280
     0
102
RTVSPost2010PropOp45
 70
     1
102
RTVSPost2010Prop46
 90
       50
102
RTVSPost2010PropOp46
 70
     1
102
RTVSPost2010Prop47
 90
       50
102
RTVSPost2010PropOp47
 70
     1
102
RTVSPost2010Prop48
 90
       50
102
RTVSPost2010PropOp48
 70
     1
102
RTVSPost2010Prop49
280
     0
102
RTVSPost2010PropOp49
 70
     1
102
RTVSPost2010Prop50
 90
       50
102
RTVSPost2010PropOp50
 70
     1
102
RTVSPost2010Prop51ColorIndex
 90
      256
102
RTVSPost2010Prop51ColorRGB
 90
-16777216
102
RTVSPost2010PropOp51
 70
     0
102
RTVSPost2010Prop52
140
1.0
102
RTVSPost2010PropOp52
 70
     0
102
RTVSPost2010Prop53
 90
        2
102
RTVSPost2010PropOp53
 70
     1
102
RTVSPost2010Prop54
  1
strokes_ogs.tif
102
RTVSPost2010PropOp54
 70
     1
102
RTVSPost2010Prop55
280
     0
102
RTVSPost2010PropOp55
 70
     1
102
RTVSPost2010Prop56
140
1.0
102
RTVSPost2010PropOp56
 70
     1
102
RTVSPost2010Prop57
140
1.0
102
RTVSPost2010PropOp57
 70
     1
102
RTVSPropertyOp0
 70
     1
102
RTVSPropertyOp1
 70
     1
102
RTVSPropertyOp2
 70
     1
102
RTVSPropertyOp3
 70
     1
102
RTVSPropertyOp4
 70
     1
102
RTVSPropertyOp5
 70
     1
102
RTVSPropertyOp6
 70
     1
102
RTVSPropertyOp7
 70
     1
102
RTVSPropertyOp8
 70
     1
102
RTVSPropertyOp9
 70
     1
102
RTVSPropertyOp10
 70
     1
102
RTVSPropertyOp11
 70
     1
102
RTVSPropertyOp12
 70
     1
102
RTVSPropertyOp13
 70
     1
102
RTVSPropertyOp14
 70
     1
102
RTVSPropertyOp15
 70
     1
102
RTVSPropertyOp16
 70
     1
102
RTVSPropertyOp17
 70
     1
102
RTVSPropertyOp18
 70
     1
102
RTVSPropertyOp19
 70
     1
102
RTVSPropertyOp20
 70
     1
102
RTVSPropertyOp21
 70
     1
102
RTVSPropertyOp22
 70
     1
102
RTVSPropertyOp23
 70
     1
102
RTVSPropertyOp24
 70
     1
102
RTVSPropertyOp25
 70
     1
102
RTVSPropertyOp26
 70
     1
102
RTVSPropertyOp27
 70
     1
102
RTVSPropertyOp28
 70
     1
102
RTVSPropertyOp29
 70
     1
102
RTVSPropertyOp30
 70
     1
102
RTVSPropertyOp31
 70
     1
102
RTVSPropertyOp32
 70
     1
102
RTVSPropertyOp33
 70
     1
102
RTVSPropertyOp34
 70
     1
102
RTVSPropertyOp35
 70
     1
102
RTVSPropertyOp36
 70
     1
102
RTVSPropertyOp37
 70
     1
102
RTVSPropertyOp38
 70
     1
102
RTVSPropertyOp39
 70
     1
102
RTVSPropertyOp40
 70
     1
102
RTVSPropertyOp41
 70
     1
102
RTVSPropertyOp42
 70
     1
102
RTVSPropertyOp43
 70
     1
102
RTVSPropertyOp44
 70
     1
102
RTVSPropertyOp45
 70
     1
102
RTVSPropertyOp46
 70
     1
102
RTVSPropertyOp47
 70
     1
102
RTVSPropertyOp48
 70
     1
102
RTVSPropertyOp49
 70
     1
102
RTVSPropertyOp50
 70
     1
102
RTVSPropertyOp51
 70
     0
102
RTVSPropertyOp52
 70
     0
102
RTVSPropertyOp53
 70
     1
102
RTVSPropertyOp54
 70
     1
102
RTVSPropertyOp55
 70
     1
102
RTVSPropertyOp56
 70
     1
102
RTVSPropertyOp57
 70
     1
102
RTVSPropertyOp58
 70
     1
102
RTVSPropertyOp59
 70
     1
102
RTVSPropertyOp60
 70
     1
102
RTVSPropertyOp61
 70
     1
102
RTVSPropertyOp62
 70
     1
  0
XRECORD
  5
1C3C
102
{ACAD_REACTORS
330
1C3B
102
}
330
1C3B
100
AcDbXrecord
280
     1
102
RTVSPost2010Prop28
280
     0
102
RTVSPost2010PropOp28
 70
     1
102
RTVSPost2010Prop29
280
     1
102
RTVSPost2010PropOp29
 70
     1
102
RTVSPost2010Prop30
280
     1
102
RTVSPost2010PropOp30
 70
     1
102
RTVSPost2010Prop31
280
     0
102
RTVSPost2010PropOp31
 70
     1
102
RTVSPost2010Prop32
280
     0
102
RTVSPost2010PropOp32
 70
     1
102
RTVSPost2010Prop33
280
     0
102
RTVSPost2010PropOp33
 70
     1
102
RTVSPost2010Prop34
280
     0
102
RTVSPost2010PropOp34
 70
     1
102
RTVSPost2010Prop35
280
     0
102
RTVSPost2010PropOp35
 70
     1
102
RTVSPost2010Prop36
280
     0
102
RTVSPost2010PropOp36
 70
     1
102
RTVSPost2010Prop37
 90
       50
102
RTVSPost2010PropOp37
 70
     1
102
RTVSPost2010Prop38
140
0.0
102
RTVSPost2010PropOp38
 70
     1
102
RTVSPost2010Prop39
140
1.0
102
RTVSPost2010PropOp39
 70
     1
102
RTVSPost2010Prop40
 90
        0
102
RTVSPost2010PropOp40
 70
     1
102
RTVSPost2010Prop41ColorIndex
 90
       18
102
RTVSPost2010Prop41ColorRGB
 90
        0
102
RTVSPost2010PropOp41
 70
     1
102
RTVSPost2010Prop42
 90
       50
102
RTVSPost2010PropOp42
 70
     1
102
RTVSPost2010Prop43
 90
        3
102
RTVSPost2010PropOp43
 70
     1
102
RTVSPost2010Prop44ColorIndex
 90
        5
102
RTVSPost2010Prop44ColorRGB
 90
      255
102
RTVSPost2010PropOp44
 70
     1
102
RTVSPost2010Prop45
280
     0
102
RTVSPost2010PropOp45
 70
     1
102
RTVSPost2010Prop46
 90
       50
102
RTVSPost2010PropOp46
 70
     1
102
RTVSPost2010Prop47
 90
       50
102
RTVSPost2010PropOp47
 70
     1
102
RTVSPost2010Prop48
 90
       50
102
RTVSPost2010PropOp48
 70
     1
102
RTVSPost2010Prop49
280
     0
102
RTVSPost2010PropOp49
 70
     1
102
RTVSPost2010Prop50
 90
       50
102
RTVSPost2010PropOp50
 70
     1
102
RTVSPost2010Prop51ColorIndex
 90
      256
102
RTVSPost2010Prop51ColorRGB
 90
-16777216
102
RTVSPost2010PropOp51
 70
     0
102
RTVSPost2010Prop52
140
1.0
102
RTVSPost2010PropOp52
 70
     0
102
RTVSPost2010Prop53
 90
        2
102
RTVSPost2010PropOp53
 70
     1
102
RTVSPost2010Prop54
  1
strokes_ogs.tif
102
RTVSPost2010PropOp54
 70
     1
102
RTVSPost2010Prop55
280
     0
102
RTVSPost2010PropOp55
 70
     1
102
RTVSPost2010Prop56
140
1.0
102
RTVSPost2010PropOp56
 70
     1
102
RTVSPost2010Prop57
140
1.0
102
RTVSPost2010PropOp57
 70
     1
102
RTVSPropertyOp0
 70
     1
102
RTVSPropertyOp1
 70
     1
102
RTVSPropertyOp2
 70
     1
102
RTVSPropertyOp3
 70
     1
102
RTVSPropertyOp4
 70
     1
102
RTVSPropertyOp5
 70
     1
102
RTVSPropertyOp6
 70
     1
102
RTVSPropertyOp7
 70
     1
102
RTVSPropertyOp8
 70
     1
102
RTVSPropertyOp9
 70
     1
102
RTVSPropertyOp10
 70
     1
102
RTVSPropertyOp11
 70
     1
102
RTVSPropertyOp12
 70
     1
102
RTVSPropertyOp13
 70
     1
102
RTVSPropertyOp14
 70
     1
102
RTVSPropertyOp15
 70
     1
102
RTVSPropertyOp16
 70
     1
102
RTVSPropertyOp17
 70
     1
102
RTVSPropertyOp18
 70
     1
102
RTVSPropertyOp19
 70
     1
102
RTVSPropertyOp20
 70
     1
102
RTVSPropertyOp21
 70
     1
102
RTVSPropertyOp22
 70
     1
102
RTVSPropertyOp23
 70
     1
102
RTVSPropertyOp24
 70
     1
102
RTVSPropertyOp25
 70
     1
102
RTVSPropertyOp26
 70
     1
102
RTVSPropertyOp27
 70
     1
102
RTVSPropertyOp28
 70
     1
102
RTVSPropertyOp29
 70
     1
102
RTVSPropertyOp30
 70
     1
102
RTVSPropertyOp31
 70
     1
102
RTVSPropertyOp32
 70
     1
102
RTVSPropertyOp33
 70
     1
102
RTVSPropertyOp34
 70
     1
102
RTVSPropertyOp35
 70
     1
102
RTVSPropertyOp36
 70
     1
102
RTVSPropertyOp37
 70
     1
102
RTVSPropertyOp38
 70
     1
102
RTVSPropertyOp39
 70
     1
102
RTVSPropertyOp40
 70
     1
102
RTVSPropertyOp41
 70
     1
102
RTVSPropertyOp42
 70
     1
102
RTVSPropertyOp43
 70
     1
102
RTVSPropertyOp44
 70
     1
102
RTVSPropertyOp45
 70
     1
102
RTVSPropertyOp46
 70
     1
102
RTVSPropertyOp47
 70
     1
102
RTVSPropertyOp48
 70
     1
102
RTVSPropertyOp49
 70
     1
102
RTVSPropertyOp50
 70
     1
102
RTVSPropertyOp51
 70
     0
102
RTVSPropertyOp52
 70
     0
102
RTVSPropertyOp53
 70
     1
102
RTVSPropertyOp54
 70
     1
102
RTVSPropertyOp55
 70
     1
102
RTVSPropertyOp56
 70
     1
102
RTVSPropertyOp57
 70
     1
102
RTVSPropertyOp58
 70
     1
102
RTVSPropertyOp59
 70
     1
102
RTVSPropertyOp60
 70
     1
102
RTVSPropertyOp61
 70
     1
102
RTVSPropertyOp62
 70
     1
  0
XRECORD
  5
1C3A
102
{ACAD_REACTORS
330
1C39
102
}
330
1C39
100
AcDbXrecord
280
     1
102
RTVSPost2010Prop28
280
     0
102
RTVSPost2010PropOp28
 70
     1
102
RTVSPost2010Prop29
280
     1
102
RTVSPost2010PropOp29
 70
     1
102
RTVSPost2010Prop30
280
     1
102
RTVSPost2010PropOp30
 70
     1
102
RTVSPost2010Prop31
280
     0
102
RTVSPost2010PropOp31
 70
     1
102
RTVSPost2010Prop32
280
     0
102
RTVSPost2010PropOp32
 70
     1
102
RTVSPost2010Prop33
280
     0
102
RTVSPost2010PropOp33
 70
     1
102
RTVSPost2010Prop34
280
     0
102
RTVSPost2010PropOp34
 70
     1
102
RTVSPost2010Prop35
280
     0
102
RTVSPost2010PropOp35
 70
     1
102
RTVSPost2010Prop36
280
     0
102
RTVSPost2010PropOp36
 70
     1
102
RTVSPost2010Prop37
 90
       50
102
RTVSPost2010PropOp37
 70
     1
102
RTVSPost2010Prop38
140
0.0
102
RTVSPost2010PropOp38
 70
     1
102
RTVSPost2010Prop39
140
1.0
102
RTVSPost2010PropOp39
 70
     1
102
RTVSPost2010Prop40
 90
        0
102
RTVSPost2010PropOp40
 70
     1
102
RTVSPost2010Prop41ColorIndex
 90
       18
102
RTVSPost2010Prop41ColorRGB
 90
        0
102
RTVSPost2010PropOp41
 70
     1
102
RTVSPost2010Prop42
 90
       50
102
RTVSPost2010PropOp42
 70
     1
102
RTVSPost2010Prop43
 90
        3
102
RTVSPost2010PropOp43
 70
     1
102
RTVSPost2010Prop44ColorIndex
 90
        5
102
RTVSPost2010Prop44ColorRGB
 90
      255
102
RTVSPost2010PropOp44
 70
     1
102
RTVSPost2010Prop45
280
     0
102
RTVSPost2010PropOp45
 70
     1
102
RTVSPost2010Prop46
 90
       50
102
RTVSPost2010PropOp46
 70
     1
102
RTVSPost2010Prop47
 90
       50
102
RTVSPost2010PropOp47
 70
     1
102
RTVSPost2010Prop48
 90
       50
102
RTVSPost2010PropOp48
 70
     1
102
RTVSPost2010Prop49
280
     0
102
RTVSPost2010PropOp49
 70
     1
102
RTVSPost2010Prop50
 90
       50
102
RTVSPost2010PropOp50
 70
     1
102
RTVSPost2010Prop51ColorIndex
 90
      256
102
RTVSPost2010Prop51ColorRGB
 90
-16777216
102
RTVSPost2010PropOp51
 70
     0
102
RTVSPost2010Prop52
140
1.0
102
RTVSPost2010PropOp52
 70
     0
102
RTVSPost2010Prop53
 90
        2
102
RTVSPost2010PropOp53
 70
     1
102
RTVSPost2010Prop54
  1
strokes_ogs.tif
102
RTVSPost2010PropOp54
 70
     1
102
RTVSPost2010Prop55
280
     0
102
RTVSPost2010PropOp55
 70
     1
102
RTVSPost2010Prop56
140
1.0
102
RTVSPost2010PropOp56
 70
     1
102
RTVSPost2010Prop57
140
1.0
102
RTVSPost2010PropOp57
 70
     1
102
RTVSPropertyOp0
 70
     1
102
RTVSPropertyOp1
 70
     1
102
RTVSPropertyOp2
 70
     1
102
RTVSPropertyOp3
 70
     1
102
RTVSPropertyOp4
 70
     1
102
RTVSPropertyOp5
 70
     1
102
RTVSPropertyOp6
 70
     1
102
RTVSPropertyOp7
 70
     1
102
RTVSPropertyOp8
 70
     1
102
RTVSPropertyOp9
 70
     1
102
RTVSPropertyOp10
 70
     1
102
RTVSPropertyOp11
 70
     1
102
RTVSPropertyOp12
 70
     1
102
RTVSPropertyOp13
 70
     1
102
RTVSPropertyOp14
 70
     1
102
RTVSPropertyOp15
 70
     1
102
RTVSPropertyOp16
 70
     1
102
RTVSPropertyOp17
 70
     1
102
RTVSPropertyOp18
 70
     1
102
RTVSPropertyOp19
 70
     1
102
RTVSPropertyOp20
 70
     1
102
RTVSPropertyOp21
 70
     1
102
RTVSPropertyOp22
 70
     1
102
RTVSPropertyOp23
 70
     1
102
RTVSPropertyOp24
 70
     1
102
RTVSPropertyOp25
 70
     1
102
RTVSPropertyOp26
 70
     1
102
RTVSPropertyOp27
 70
     1
102
RTVSPropertyOp28
 70
     1
102
RTVSPropertyOp29
 70
     1
102
RTVSPropertyOp30
 70
     1
102
RTVSPropertyOp31
 70
     1
102
RTVSPropertyOp32
 70
     1
102
RTVSPropertyOp33
 70
     1
102
RTVSPropertyOp34
 70
     1
102
RTVSPropertyOp35
 70
     1
102
RTVSPropertyOp36
 70
     1
102
RTVSPropertyOp37
 70
     1
102
RTVSPropertyOp38
 70
     1
102
RTVSPropertyOp39
 70
     1
102
RTVSPropertyOp40
 70
     1
102
RTVSPropertyOp41
 70
     1
102
RTVSPropertyOp42
 70
     1
102
RTVSPropertyOp43
 70
     1
102
RTVSPropertyOp44
 70
     1
102
RTVSPropertyOp45
 70
     1
102
RTVSPropertyOp46
 70
     1
102
RTVSPropertyOp47
 70
     1
102
RTVSPropertyOp48
 70
     1
102
RTVSPropertyOp49
 70
     1
102
RTVSPropertyOp50
 70
     1
102
RTVSPropertyOp51
 70
     0
102
RTVSPropertyOp52
 70
     0
102
RTVSPropertyOp53
 70
     1
102
RTVSPropertyOp54
 70
     1
102
RTVSPropertyOp55
 70
     1
102
RTVSPropertyOp56
 70
     1
102
RTVSPropertyOp57
 70
     1
102
RTVSPropertyOp58
 70
     1
102
RTVSPropertyOp59
 70
     1
102
RTVSPropertyOp60
 70
     1
102
RTVSPropertyOp61
 70
     1
102
RTVSPropertyOp62
 70
     1
  0
XRECORD
  5
1C34
102
{ACAD_REACTORS
330
1C33
102
}
330
1C33
100
AcDbXrecord
280
     1
102
RTVSPost2010Prop28
280
     0
102
RTVSPost2010PropOp28
 70
     1
102
RTVSPost2010Prop29
280
     1
102
RTVSPost2010PropOp29
 70
     1
102
RTVSPost2010Prop30
280
     1
102
RTVSPost2010PropOp30
 70
     1
102
RTVSPost2010Prop31
280
     0
102
RTVSPost2010PropOp31
 70
     1
102
RTVSPost2010Prop32
280
     0
102
RTVSPost2010PropOp32
 70
     1
102
RTVSPost2010Prop33
280
     0
102
RTVSPost2010PropOp33
 70
     1
102
RTVSPost2010Prop34
280
     0
102
RTVSPost2010PropOp34
 70
     1
102
RTVSPost2010Prop35
280
     0
102
RTVSPost2010PropOp35
 70
     1
102
RTVSPost2010Prop36
280
     0
102
RTVSPost2010PropOp36
 70
     1
102
RTVSPost2010Prop37
 90
       50
102
RTVSPost2010PropOp37
 70
     1
102
RTVSPost2010Prop38
140
0.0
102
RTVSPost2010PropOp38
 70
     1
102
RTVSPost2010Prop39
140
1.0
102
RTVSPost2010PropOp39
 70
     1
102
RTVSPost2010Prop40
 90
        0
102
RTVSPost2010PropOp40
 70
     1
102
RTVSPost2010Prop41ColorIndex
 90
       18
102
RTVSPost2010Prop41ColorRGB
 90
        0
102
RTVSPost2010PropOp41
 70
     1
102
RTVSPost2010Prop42
 90
       50
102
RTVSPost2010PropOp42
 70
     1
102
RTVSPost2010Prop43
 90
        3
102
RTVSPost2010PropOp43
 70
     1
102
RTVSPost2010Prop44ColorIndex
 90
        5
102
RTVSPost2010Prop44ColorRGB
 90
      255
102
RTVSPost2010PropOp44
 70
     1
102
RTVSPost2010Prop45
280
     0
102
RTVSPost2010PropOp45
 70
     1
102
RTVSPost2010Prop46
 90
       50
102
RTVSPost2010PropOp46
 70
     1
102
RTVSPost2010Prop47
 90
       50
102
RTVSPost2010PropOp47
 70
     1
102
RTVSPost2010Prop48
 90
       50
102
RTVSPost2010PropOp48
 70
     1
102
RTVSPost2010Prop49
280
     0
102
RTVSPost2010PropOp49
 70
     1
102
RTVSPost2010Prop50
 90
       50
102
RTVSPost2010PropOp50
 70
     1
102
RTVSPost2010Prop51ColorIndex
 90
      256
102
RTVSPost2010Prop51ColorRGB
 90
-16777216
102
RTVSPost2010PropOp51
 70
     0
102
RTVSPost2010Prop52
140
1.0
102
RTVSPost2010PropOp52
 70
     0
102
RTVSPost2010Prop53
 90
        2
102
RTVSPost2010PropOp53
 70
     1
102
RTVSPost2010Prop54
  1
strokes_ogs.tif
102
RTVSPost2010PropOp54
 70
     1
102
RTVSPost2010Prop55
280
     0
102
RTVSPost2010PropOp55
 70
     1
102
RTVSPost2010Prop56
140
1.0
102
RTVSPost2010PropOp56
 70
     1
102
RTVSPost2010Prop57
140
1.0
102
RTVSPost2010PropOp57
 70
     1
102
RTVSPropertyOp0
 70
     1
102
RTVSPropertyOp1
 70
     1
102
RTVSPropertyOp2
 70
     1
102
RTVSPropertyOp3
 70
     1
102
RTVSPropertyOp4
 70
     1
102
RTVSPropertyOp5
 70
     1
102
RTVSPropertyOp6
 70
     1
102
RTVSPropertyOp7
 70
     1
102
RTVSPropertyOp8
 70
     1
102
RTVSPropertyOp9
 70
     1
102
RTVSPropertyOp10
 70
     1
102
RTVSPropertyOp11
 70
     1
102
RTVSPropertyOp12
 70
     1
102
RTVSPropertyOp13
 70
     1
102
RTVSPropertyOp14
 70
     1
102
RTVSPropertyOp15
 70
     1
102
RTVSPropertyOp16
 70
     1
102
RTVSPropertyOp17
 70
     1
102
RTVSPropertyOp18
 70
     1
102
RTVSPropertyOp19
 70
     1
102
RTVSPropertyOp20
 70
     1
102
RTVSPropertyOp21
 70
     1
102
RTVSPropertyOp22
 70
     1
102
RTVSPropertyOp23
 70
     1
102
RTVSPropertyOp24
 70
     1
102
RTVSPropertyOp25
 70
     1
102
RTVSPropertyOp26
 70
     1
102
RTVSPropertyOp27
 70
     1
102
RTVSPropertyOp28
 70
     1
102
RTVSPropertyOp29
 70
     1
102
RTVSPropertyOp30
 70
     1
102
RTVSPropertyOp31
 70
     1
102
RTVSPropertyOp32
 70
     1
102
RTVSPropertyOp33
 70
     1
102
RTVSPropertyOp34
 70
     1
102
RTVSPropertyOp35
 70
     1
102
RTVSPropertyOp36
 70
     1
102
RTVSPropertyOp37
 70
     1
102
RTVSPropertyOp38
 70
     1
102
RTVSPropertyOp39
 70
     1
102
RTVSPropertyOp40
 70
     1
102
RTVSPropertyOp41
 70
     1
102
RTVSPropertyOp42
 70
     1
102
RTVSPropertyOp43
 70
     1
102
RTVSPropertyOp44
 70
     1
102
RTVSPropertyOp45
 70
     1
102
RTVSPropertyOp46
 70
     1
102
RTVSPropertyOp47
 70
     1
102
RTVSPropertyOp48
 70
     1
102
RTVSPropertyOp49
 70
     1
102
RTVSPropertyOp50
 70
     1
102
RTVSPropertyOp51
 70
     0
102
RTVSPropertyOp52
 70
     0
102
RTVSPropertyOp53
 70
     1
102
RTVSPropertyOp54
 70
     1
102
RTVSPropertyOp55
 70
     1
102
RTVSPropertyOp56
 70
     1
102
RTVSPropertyOp57
 70
     1
102
RTVSPropertyOp58
 70
     1
102
RTVSPropertyOp59
 70
     1
102
RTVSPropertyOp60
 70
     1
102
RTVSPropertyOp61
 70
     1
102
RTVSPropertyOp62
 70
     1
  0
XRECORD
  5
1C36
102
{ACAD_REACTORS
330
1C35
102
}
330
1C35
100
AcDbXrecord
280
     1
102
RTVSPost2010Prop28
280
     0
102
RTVSPost2010PropOp28
 70
     1
102
RTVSPost2010Prop29
280
     1
102
RTVSPost2010PropOp29
 70
     1
102
RTVSPost2010Prop30
280
     1
102
RTVSPost2010PropOp30
 70
     1
102
RTVSPost2010Prop31
280
     0
102
RTVSPost2010PropOp31
 70
     1
102
RTVSPost2010Prop32
280
     0
102
RTVSPost2010PropOp32
 70
     1
102
RTVSPost2010Prop33
280
     0
102
RTVSPost2010PropOp33
 70
     1
102
RTVSPost2010Prop34
280
     0
102
RTVSPost2010PropOp34
 70
     1
102
RTVSPost2010Prop35
280
     0
102
RTVSPost2010PropOp35
 70
     1
102
RTVSPost2010Prop36
280
     0
102
RTVSPost2010PropOp36
 70
     1
102
RTVSPost2010Prop37
 90
       50
102
RTVSPost2010PropOp37
 70
     1
102
RTVSPost2010Prop38
140
0.0
102
RTVSPost2010PropOp38
 70
     1
102
RTVSPost2010Prop39
140
1.0
102
RTVSPost2010PropOp39
 70
     1
102
RTVSPost2010Prop40
 90
        0
102
RTVSPost2010PropOp40
 70
     1
102
RTVSPost2010Prop41ColorIndex
 90
       18
102
RTVSPost2010Prop41ColorRGB
 90
        0
102
RTVSPost2010PropOp41
 70
     1
102
RTVSPost2010Prop42
 90
       50
102
RTVSPost2010PropOp42
 70
     1
102
RTVSPost2010Prop43
 90
        3
102
RTVSPost2010PropOp43
 70
     1
102
RTVSPost2010Prop44ColorIndex
 90
        5
102
RTVSPost2010Prop44ColorRGB
 90
      255
102
RTVSPost2010PropOp44
 70
     1
102
RTVSPost2010Prop45
280
     0
102
RTVSPost2010PropOp45
 70
     1
102
RTVSPost2010Prop46
 90
       50
102
RTVSPost2010PropOp46
 70
     1
102
RTVSPost2010Prop47
 90
       50
102
RTVSPost2010PropOp47
 70
     1
102
RTVSPost2010Prop48
 90
       50
102
RTVSPost2010PropOp48
 70
     1
102
RTVSPost2010Prop49
280
     0
102
RTVSPost2010PropOp49
 70
     1
102
RTVSPost2010Prop50
 90
       50
102
RTVSPost2010PropOp50
 70
     1
102
RTVSPost2010Prop51ColorIndex
 90
      256
102
RTVSPost2010Prop51ColorRGB
 90
-16777216
102
RTVSPost2010PropOp51
 70
     0
102
RTVSPost2010Prop52
140
1.0
102
RTVSPost2010PropOp52
 70
     0
102
RTVSPost2010Prop53
 90
        2
102
RTVSPost2010PropOp53
 70
     1
102
RTVSPost2010Prop54
  1
strokes_ogs.tif
102
RTVSPost2010PropOp54
 70
     1
102
RTVSPost2010Prop55
280
     0
102
RTVSPost2010PropOp55
 70
     1
102
RTVSPost2010Prop56
140
1.0
102
RTVSPost2010PropOp56
 70
     1
102
RTVSPost2010Prop57
140
1.0
102
RTVSPost2010PropOp57
 70
     1
102
RTVSPropertyOp0
 70
     1
102
RTVSPropertyOp1
 70
     1
102
RTVSPropertyOp2
 70
     1
102
RTVSPropertyOp3
 70
     1
102
RTVSPropertyOp4
 70
     1
102
RTVSPropertyOp5
 70
     1
102
RTVSPropertyOp6
 70
     1
102
RTVSPropertyOp7
 70
     1
102
RTVSPropertyOp8
 70
     1
102
RTVSPropertyOp9
 70
     1
102
RTVSPropertyOp10
 70
     1
102
RTVSPropertyOp11
 70
     1
102
RTVSPropertyOp12
 70
     1
102
RTVSPropertyOp13
 70
     1
102
RTVSPropertyOp14
 70
     1
102
RTVSPropertyOp15
 70
     1
102
RTVSPropertyOp16
 70
     1
102
RTVSPropertyOp17
 70
     1
102
RTVSPropertyOp18
 70
     1
102
RTVSPropertyOp19
 70
     1
102
RTVSPropertyOp20
 70
     1
102
RTVSPropertyOp21
 70
     1
102
RTVSPropertyOp22
 70
     1
102
RTVSPropertyOp23
 70
     1
102
RTVSPropertyOp24
 70
     1
102
RTVSPropertyOp25
 70
     1
102
RTVSPropertyOp26
 70
     1
102
RTVSPropertyOp27
 70
     1
102
RTVSPropertyOp28
 70
     1
102
RTVSPropertyOp29
 70
     1
102
RTVSPropertyOp30
 70
     1
102
RTVSPropertyOp31
 70
     1
102
RTVSPropertyOp32
 70
     1
102
RTVSPropertyOp33
 70
     1
102
RTVSPropertyOp34
 70
     1
102
RTVSPropertyOp35
 70
     1
102
RTVSPropertyOp36
 70
     1
102
RTVSPropertyOp37
 70
     1
102
RTVSPropertyOp38
 70
     1
102
RTVSPropertyOp39
 70
     1
102
RTVSPropertyOp40
 70
     1
102
RTVSPropertyOp41
 70
     1
102
RTVSPropertyOp42
 70
     1
102
RTVSPropertyOp43
 70
     1
102
RTVSPropertyOp44
 70
     1
102
RTVSPropertyOp45
 70
     1
102
RTVSPropertyOp46
 70
     1
102
RTVSPropertyOp47
 70
     1
102
RTVSPropertyOp48
 70
     1
102
RTVSPropertyOp49
 70
     1
102
RTVSPropertyOp50
 70
     1
102
RTVSPropertyOp51
 70
     0
102
RTVSPropertyOp52
 70
     0
102
RTVSPropertyOp53
 70
     1
102
RTVSPropertyOp54
 70
     1
102
RTVSPropertyOp55
 70
     1
102
RTVSPropertyOp56
 70
     1
102
RTVSPropertyOp57
 70
     1
102
RTVSPropertyOp58
 70
     1
102
RTVSPropertyOp59
 70
     1
102
RTVSPropertyOp60
 70
     1
102
RTVSPropertyOp61
 70
     1
102
RTVSPropertyOp62
 70
     1
  0
XRECORD
  5
1C18
102
{ACAD_REACTORS
330
1C17
102
}
330
1C17
100
AcDbXrecord
280
     1
102
RTVSPost2010Prop28
280
     0
102
RTVSPost2010PropOp28
 70
     1
102
RTVSPost2010Prop29
280
     1
102
RTVSPost2010PropOp29
 70
     1
102
RTVSPost2010Prop30
280
     1
102
RTVSPost2010PropOp30
 70
     1
102
RTVSPost2010Prop31
280
     0
102
RTVSPost2010PropOp31
 70
     1
102
RTVSPost2010Prop32
280
     0
102
RTVSPost2010PropOp32
 70
     1
102
RTVSPost2010Prop33
280
     0
102
RTVSPost2010PropOp33
 70
     1
102
RTVSPost2010Prop34
280
     0
102
RTVSPost2010PropOp34
 70
     1
102
RTVSPost2010Prop35
280
     0
102
RTVSPost2010PropOp35
 70
     1
102
RTVSPost2010Prop36
280
     0
102
RTVSPost2010PropOp36
 70
     1
102
RTVSPost2010Prop37
 90
       50
102
RTVSPost2010PropOp37
 70
     1
102
RTVSPost2010Prop38
140
0.0
102
RTVSPost2010PropOp38
 70
     1
102
RTVSPost2010Prop39
140
1.0
102
RTVSPost2010PropOp39
 70
     1
102
RTVSPost2010Prop40
 90
        0
102
RTVSPost2010PropOp40
 70
     1
102
RTVSPost2010Prop41ColorIndex
 90
       18
102
RTVSPost2010Prop41ColorRGB
 90
        0
102
RTVSPost2010PropOp41
 70
     1
102
RTVSPost2010Prop42
 90
       50
102
RTVSPost2010PropOp42
 70
     1
102
RTVSPost2010Prop43
 90
        3
102
RTVSPost2010PropOp43
 70
     1
102
RTVSPost2010Prop44ColorIndex
 90
        5
102
RTVSPost2010Prop44ColorRGB
 90
      255
102
RTVSPost2010PropOp44
 70
     1
102
RTVSPost2010Prop45
280
     0
102
RTVSPost2010PropOp45
 70
     1
102
RTVSPost2010Prop46
 90
       50
102
RTVSPost2010PropOp46
 70
     1
102
RTVSPost2010Prop47
 90
       50
102
RTVSPost2010PropOp47
 70
     1
102
RTVSPost2010Prop48
 90
       50
102
RTVSPost2010PropOp48
 70
     1
102
RTVSPost2010Prop49
280
     0
102
RTVSPost2010PropOp49
 70
     1
102
RTVSPost2010Prop50
 90
       50
102
RTVSPost2010PropOp50
 70
     1
102
RTVSPost2010Prop51ColorIndex
 90
      256
102
RTVSPost2010Prop51ColorRGB
 90
-16777216
102
RTVSPost2010PropOp51
 70
     0
102
RTVSPost2010Prop52
140
1.0
102
RTVSPost2010PropOp52
 70
     0
102
RTVSPost2010Prop53
 90
        2
102
RTVSPost2010PropOp53
 70
     1
102
RTVSPost2010Prop54
  1
strokes_ogs.tif
102
RTVSPost2010PropOp54
 70
     1
102
RTVSPost2010Prop55
280
     0
102
RTVSPost2010PropOp55
 70
     1
102
RTVSPost2010Prop56
140
1.0
102
RTVSPost2010PropOp56
 70
     1
102
RTVSPost2010Prop57
140
1.0
102
RTVSPost2010PropOp57
 70
     1
102
RTVSPropertyOp0
 70
     1
102
RTVSPropertyOp1
 70
     1
102
RTVSPropertyOp2
 70
     1
102
RTVSPropertyOp3
 70
     1
102
RTVSPropertyOp4
 70
     1
102
RTVSPropertyOp5
 70
     1
102
RTVSPropertyOp6
 70
     1
102
RTVSPropertyOp7
 70
     1
102
RTVSPropertyOp8
 70
     1
102
RTVSPropertyOp9
 70
     1
102
RTVSPropertyOp10
 70
     1
102
RTVSPropertyOp11
 70
     1
102
RTVSPropertyOp12
 70
     1
102
RTVSPropertyOp13
 70
     1
102
RTVSPropertyOp14
 70
     1
102
RTVSPropertyOp15
 70
     1
102
RTVSPropertyOp16
 70
     1
102
RTVSPropertyOp17
 70
     1
102
RTVSPropertyOp18
 70
     1
102
RTVSPropertyOp19
 70
     1
102
RTVSPropertyOp20
 70
     1
102
RTVSPropertyOp21
 70
     1
102
RTVSPropertyOp22
 70
     1
102
RTVSPropertyOp23
 70
     1
102
RTVSPropertyOp24
 70
     1
102
RTVSPropertyOp25
 70
     1
102
RTVSPropertyOp26
 70
     1
102
RTVSPropertyOp27
 70
     1
102
RTVSPropertyOp28
 70
     1
102
RTVSPropertyOp29
 70
     1
102
RTVSPropertyOp30
 70
     1
102
RTVSPropertyOp31
 70
     1
102
RTVSPropertyOp32
 70
     1
102
RTVSPropertyOp33
 70
     1
102
RTVSPropertyOp34
 70
     1
102
RTVSPropertyOp35
 70
     1
102
RTVSPropertyOp36
 70
     1
102
RTVSPropertyOp37
 70
     1
102
RTVSPropertyOp38
 70
     1
102
RTVSPropertyOp39
 70
     1
102
RTVSPropertyOp40
 70
     1
102
RTVSPropertyOp41
 70
     1
102
RTVSPropertyOp42
 70
     1
102
RTVSPropertyOp43
 70
     1
102
RTVSPropertyOp44
 70
     1
102
RTVSPropertyOp45
 70
     1
102
RTVSPropertyOp46
 70
     1
102
RTVSPropertyOp47
 70
     1
102
RTVSPropertyOp48
 70
     1
102
RTVSPropertyOp49
 70
     1
102
RTVSPropertyOp50
 70
     1
102
RTVSPropertyOp51
 70
     0
102
RTVSPropertyOp52
 70
     0
102
RTVSPropertyOp53
 70
     1
102
RTVSPropertyOp54
 70
     1
102
RTVSPropertyOp55
 70
     1
102
RTVSPropertyOp56
 70
     1
102
RTVSPropertyOp57
 70
     1
102
RTVSPropertyOp58
 70
     1
102
RTVSPropertyOp59
 70
     1
102
RTVSPropertyOp60
 70
     1
102
RTVSPropertyOp61
 70
     1
102
RTVSPropertyOp62
 70
     1
  0
XRECORD
  5
1C30
102
{ACAD_REACTORS
330
1C2F
102
}
330
1C2F
100
AcDbXrecord
280
     1
102
RTVSPost2010Prop28
280
     0
102
RTVSPost2010PropOp28
 70
     1
102
RTVSPost2010Prop29
280
     1
102
RTVSPost2010PropOp29
 70
     1
102
RTVSPost2010Prop30
280
     1
102
RTVSPost2010PropOp30
 70
     1
102
RTVSPost2010Prop31
280
     0
102
RTVSPost2010PropOp31
 70
     1
102
RTVSPost2010Prop32
280
     0
102
RTVSPost2010PropOp32
 70
     1
102
RTVSPost2010Prop33
280
     0
102
RTVSPost2010PropOp33
 70
     1
102
RTVSPost2010Prop34
280
     0
102
RTVSPost2010PropOp34
 70
     1
102
RTVSPost2010Prop35
280
     0
102
RTVSPost2010PropOp35
 70
     1
102
RTVSPost2010Prop36
280
     0
102
RTVSPost2010PropOp36
 70
     1
102
RTVSPost2010Prop37
 90
       50
102
RTVSPost2010PropOp37
 70
     1
102
RTVSPost2010Prop38
140
0.0
102
RTVSPost2010PropOp38
 70
     1
102
RTVSPost2010Prop39
140
1.0
102
RTVSPost2010PropOp39
 70
     1
102
RTVSPost2010Prop40
 90
        0
102
RTVSPost2010PropOp40
 70
     1
102
RTVSPost2010Prop41ColorIndex
 90
       18
102
RTVSPost2010Prop41ColorRGB
 90
        0
102
RTVSPost2010PropOp41
 70
     1
102
RTVSPost2010Prop42
 90
       50
102
RTVSPost2010PropOp42
 70
     1
102
RTVSPost2010Prop43
 90
        3
102
RTVSPost2010PropOp43
 70
     1
102
RTVSPost2010Prop44ColorIndex
 90
        5
102
RTVSPost2010Prop44ColorRGB
 90
      255
102
RTVSPost2010PropOp44
 70
     1
102
RTVSPost2010Prop45
280
     0
102
RTVSPost2010PropOp45
 70
     1
102
RTVSPost2010Prop46
 90
       50
102
RTVSPost2010PropOp46
 70
     1
102
RTVSPost2010Prop47
 90
       50
102
RTVSPost2010PropOp47
 70
     1
102
RTVSPost2010Prop48
 90
       50
102
RTVSPost2010PropOp48
 70
     1
102
RTVSPost2010Prop49
280
     0
102
RTVSPost2010PropOp49
 70
     1
102
RTVSPost2010Prop50
 90
       50
102
RTVSPost2010PropOp50
 70
     1
102
RTVSPost2010Prop51ColorIndex
 90
      256
102
RTVSPost2010Prop51ColorRGB
 90
-16777216
102
RTVSPost2010PropOp51
 70
     0
102
RTVSPost2010Prop52
140
1.0
102
RTVSPost2010PropOp52
 70
     0
102
RTVSPost2010Prop53
 90
        2
102
RTVSPost2010PropOp53
 70
     1
102
RTVSPost2010Prop54
  1
strokes_ogs.tif
102
RTVSPost2010PropOp54
 70
     1
102
RTVSPost2010Prop55
280
     0
102
RTVSPost2010PropOp55
 70
     1
102
RTVSPost2010Prop56
140
1.0
102
RTVSPost2010PropOp56
 70
     1
102
RTVSPost2010Prop57
140
1.0
102
RTVSPost2010PropOp57
 70
     1
102
RTVSPropertyOp0
 70
     1
102
RTVSPropertyOp1
 70
     1
102
RTVSPropertyOp2
 70
     1
102
RTVSPropertyOp3
 70
     1
102
RTVSPropertyOp4
 70
     1
102
RTVSPropertyOp5
 70
     1
102
RTVSPropertyOp6
 70
     1
102
RTVSPropertyOp7
 70
     1
102
RTVSPropertyOp8
 70
     1
102
RTVSPropertyOp9
 70
     1
102
RTVSPropertyOp10
 70
     1
102
RTVSPropertyOp11
 70
     1
102
RTVSPropertyOp12
 70
     1
102
RTVSPropertyOp13
 70
     1
102
RTVSPropertyOp14
 70
     1
102
RTVSPropertyOp15
 70
     1
102
RTVSPropertyOp16
 70
     1
102
RTVSPropertyOp17
 70
     1
102
RTVSPropertyOp18
 70
     1
102
RTVSPropertyOp19
 70
     1
102
RTVSPropertyOp20
 70
     1
102
RTVSPropertyOp21
 70
     1
102
RTVSPropertyOp22
 70
     1
102
RTVSPropertyOp23
 70
     1
102
RTVSPropertyOp24
 70
     1
102
RTVSPropertyOp25
 70
     1
102
RTVSPropertyOp26
 70
     1
102
RTVSPropertyOp27
 70
     1
102
RTVSPropertyOp28
 70
     1
102
RTVSPropertyOp29
 70
     1
102
RTVSPropertyOp30
 70
     1
102
RTVSPropertyOp31
 70
     1
102
RTVSPropertyOp32
 70
     1
102
RTVSPropertyOp33
 70
     1
102
RTVSPropertyOp34
 70
     1
102
RTVSPropertyOp35
 70
     1
102
RTVSPropertyOp36
 70
     1
102
RTVSPropertyOp37
 70
     1
102
RTVSPropertyOp38
 70
     1
102
RTVSPropertyOp39
 70
     1
102
RTVSPropertyOp40
 70
     1
102
RTVSPropertyOp41
 70
     1
102
RTVSPropertyOp42
 70
     1
102
RTVSPropertyOp43
 70
     1
102
RTVSPropertyOp44
 70
     1
102
RTVSPropertyOp45
 70
     1
102
RTVSPropertyOp46
 70
     1
102
RTVSPropertyOp47
 70
     1
102
RTVSPropertyOp48
 70
     1
102
RTVSPropertyOp49
 70
     1
102
RTVSPropertyOp50
 70
     1
102
RTVSPropertyOp51
 70
     0
102
RTVSPropertyOp52
 70
     0
102
RTVSPropertyOp53
 70
     1
102
RTVSPropertyOp54
 70
     1
102
RTVSPropertyOp55
 70
     1
102
RTVSPropertyOp56
 70
     1
102
RTVSPropertyOp57
 70
     1
102
RTVSPropertyOp58
 70
     1
102
RTVSPropertyOp59
 70
     1
102
RTVSPropertyOp60
 70
     1
102
RTVSPropertyOp61
 70
     1
102
RTVSPropertyOp62
 70
     1
  0
XRECORD
  5
1C38
102
{ACAD_REACTORS
330
1C37
102
}
330
1C37
100
AcDbXrecord
280
     1
102
RTVSPost2010Prop28
280
     0
102
RTVSPost2010PropOp28
 70
     1
102
RTVSPost2010Prop29
280
     1
102
RTVSPost2010PropOp29
 70
     1
102
RTVSPost2010Prop30
280
     1
102
RTVSPost2010PropOp30
 70
     1
102
RTVSPost2010Prop31
280
     0
102
RTVSPost2010PropOp31
 70
     1
102
RTVSPost2010Prop32
280
     0
102
RTVSPost2010PropOp32
 70
     1
102
RTVSPost2010Prop33
280
     0
102
RTVSPost2010PropOp33
 70
     1
102
RTVSPost2010Prop34
280
     0
102
RTVSPost2010PropOp34
 70
     1
102
RTVSPost2010Prop35
280
     0
102
RTVSPost2010PropOp35
 70
     1
102
RTVSPost2010Prop36
280
     0
102
RTVSPost2010PropOp36
 70
     1
102
RTVSPost2010Prop37
 90
       50
102
RTVSPost2010PropOp37
 70
     1
102
RTVSPost2010Prop38
140
0.0
102
RTVSPost2010PropOp38
 70
     1
102
RTVSPost2010Prop39
140
1.0
102
RTVSPost2010PropOp39
 70
     1
102
RTVSPost2010Prop40
 90
        0
102
RTVSPost2010PropOp40
 70
     1
102
RTVSPost2010Prop41ColorIndex
 90
       18
102
RTVSPost2010Prop41ColorRGB
 90
        0
102
RTVSPost2010PropOp41
 70
     1
102
RTVSPost2010Prop42
 90
       50
102
RTVSPost2010PropOp42
 70
     1
102
RTVSPost2010Prop43
 90
        3
102
RTVSPost2010PropOp43
 70
     1
102
RTVSPost2010Prop44ColorIndex
 90
        5
102
RTVSPost2010Prop44ColorRGB
 90
      255
102
RTVSPost2010PropOp44
 70
     1
102
RTVSPost2010Prop45
280
     0
102
RTVSPost2010PropOp45
 70
     1
102
RTVSPost2010Prop46
 90
       50
102
RTVSPost2010PropOp46
 70
     1
102
RTVSPost2010Prop47
 90
       50
102
RTVSPost2010PropOp47
 70
     1
102
RTVSPost2010Prop48
 90
       50
102
RTVSPost2010PropOp48
 70
     1
102
RTVSPost2010Prop49
280
     0
102
RTVSPost2010PropOp49
 70
     1
102
RTVSPost2010Prop50
 90
       50
102
RTVSPost2010PropOp50
 70
     1
102
RTVSPost2010Prop51ColorIndex
 90
      256
102
RTVSPost2010Prop51ColorRGB
 90
-16777216
102
RTVSPost2010PropOp51
 70
     0
102
RTVSPost2010Prop52
140
1.0
102
RTVSPost2010PropOp52
 70
     0
102
RTVSPost2010Prop53
 90
        2
102
RTVSPost2010PropOp53
 70
     1
102
RTVSPost2010Prop54
  1
strokes_ogs.tif
102
RTVSPost2010PropOp54
 70
     1
102
RTVSPost2010Prop55
280
     0
102
RTVSPost2010PropOp55
 70
     1
102
RTVSPost2010Prop56
140
1.0
102
RTVSPost2010PropOp56
 70
     1
102
RTVSPost2010Prop57
140
1.0
102
RTVSPost2010PropOp57
 70
     1
102
RTVSPropertyOp0
 70
     1
102
RTVSPropertyOp1
 70
     1
102
RTVSPropertyOp2
 70
     1
102
RTVSPropertyOp3
 70
     1
102
RTVSPropertyOp4
 70
     1
102
RTVSPropertyOp5
 70
     1
102
RTVSPropertyOp6
 70
     1
102
RTVSPropertyOp7
 70
     1
102
RTVSPropertyOp8
 70
     1
102
RTVSPropertyOp9
 70
     1
102
RTVSPropertyOp10
 70
     1
102
RTVSPropertyOp11
 70
     1
102
RTVSPropertyOp12
 70
     1
102
RTVSPropertyOp13
 70
     1
102
RTVSPropertyOp14
 70
     1
102
RTVSPropertyOp15
 70
     1
102
RTVSPropertyOp16
 70
     1
102
RTVSPropertyOp17
 70
     1
102
RTVSPropertyOp18
 70
     1
102
RTVSPropertyOp19
 70
     1
102
RTVSPropertyOp20
 70
     1
102
RTVSPropertyOp21
 70
     1
102
RTVSPropertyOp22
 70
     1
102
RTVSPropertyOp23
 70
     1
102
RTVSPropertyOp24
 70
     1
102
RTVSPropertyOp25
 70
     1
102
RTVSPropertyOp26
 70
     1
102
RTVSPropertyOp27
 70
     1
102
RTVSPropertyOp28
 70
     1
102
RTVSPropertyOp29
 70
     1
102
RTVSPropertyOp30
 70
     1
102
RTVSPropertyOp31
 70
     1
102
RTVSPropertyOp32
 70
     1
102
RTVSPropertyOp33
 70
     1
102
RTVSPropertyOp34
 70
     1
102
RTVSPropertyOp35
 70
     1
102
RTVSPropertyOp36
 70
     1
102
RTVSPropertyOp37
 70
     1
102
RTVSPropertyOp38
 70
     1
102
RTVSPropertyOp39
 70
     1
102
RTVSPropertyOp40
 70
     1
102
RTVSPropertyOp41
 70
     1
102
RTVSPropertyOp42
 70
     1
102
RTVSPropertyOp43
 70
     1
102
RTVSPropertyOp44
 70
     1
102
RTVSPropertyOp45
 70
     1
102
RTVSPropertyOp46
 70
     1
102
RTVSPropertyOp47
 70
     1
102
RTVSPropertyOp48
 70
     1
102
RTVSPropertyOp49
 70
     1
102
RTVSPropertyOp50
 70
     1
102
RTVSPropertyOp51
 70
     0
102
RTVSPropertyOp52
 70
     0
102
RTVSPropertyOp53
 70
     1
102
RTVSPropertyOp54
 70
     1
102
RTVSPropertyOp55
 70
     1
102
RTVSPropertyOp56
 70
     1
102
RTVSPropertyOp57
 70
     1
102
RTVSPropertyOp58
 70
     1
102
RTVSPropertyOp59
 70
     1
102
RTVSPropertyOp60
 70
     1
102
RTVSPropertyOp61
 70
     1
102
RTVSPropertyOp62
 70
     1
  0
ENDSEC
  0
EOF
