  0
SECTION
  2
HEADER
  9
$ACADVER
  1
AC1015
  9
$ACADMAINTVER
 70
    20
  9
$DWGCODEPAGE
  3
ANSI_1252
  9
$INSBASE
 10
0.0
 20
0.0
 30
0.0
  9
$EXTMIN
 10
253.2972280491344
 20
336.0329549749208
 30
-0.0000000000000053
  9
$EXTMAX
 10
256.8717511769753
 20
340.6298540961643
 30
0.0000000000000099
  9
$LIMMIN
 10
-170.0
 20
-170.0
  9
$LIMMAX
 10
519.0
 20
260.0
  9
$ORTHOMODE
 70
     1
  9
$REGENMODE
 70
     1
  9
$FILLMODE
 70
     1
  9
$QTEXTMODE
 70
     0
  9
$MIRRTEXT
 70
     0
  9
$LTSCALE
 40
1.0
  9
$ATTMODE
 70
     1
  9
$TEXTSIZE
 40
0.2
  9
$TRACEWID
 40
0.05
  9
$TEXTSTYLE
  7
STANDARD
  9
$CLAYER
  8
1
  9
$CELTYPE
  6
BYLAYER
  9
$CECOLOR
 62
   256
  9
$CELTSCALE
 40
1.0
  9
$DISPSILH
 70
     0
  9
$DIMSCALE
 40
1.0
  9
$DIMASZ
 40
0.19685
  9
$DIMEXO
 40
0.03937
  9
$DIMDLI
 40
0.5905510000000001
  9
$DIMRND
 40
0.0
  9
$DIMDLE
 40
0.0
  9
$DIMEXE
 40
0.07874
  9
$DIMTP
 40
0.0
  9
$DIMTM
 40
0.000000001
  9
$DIMTXT
 40
0.1377952755905512
  9
$DIMCEN
 40
0.003543
  9
$DIMTSZ
 40
0.0
  9
$DIMTOL
 70
     0
  9
$DIMLIM
 70
     0
  9
$DIMTIH
 70
     0
  9
$DIMTOH
 70
     0
  9
$DIMSE1
 70
     0
  9
$DIMSE2
 70
     0
  9
$DIMTAD
 70
     1
  9
$DIMZIN
 70
    11
  9
$DIMBLK
  1

  9
$DIMASO
 70
     1
  9
$DIMSHO
 70
     1
  9
$DIMPOST
  1

  9
$DIMAPOST
  1

  9
$DIMALT
 70
     0
  9
$DIMALTD
 70
     2
  9
$DIMALTF
 40
25.4
  9
$DIMLFAC
 40
1.0
  9
$DIMTOFL
 70
     1
  9
$DIMTVP
 40
0.0
  9
$DIMTIX
 70
     0
  9
$DIMSOXD
 70
     0
  9
$DIMSAH
 70
     0
  9
$DIMBLK1
  1

  9
$DIMBLK2
  1

  9
$DIMSTYLE
  2
AM_DIN
  9
$DIMCLRD
 70
     0
  9
$DIMCLRE
 70
     0
  9
$DIMCLRT
 70
     0
  9
$DIMTFAC
 40
0.7071069999999999
  9
$DIMGAP
 40
0.090551
  9
$DIMJUST
 70
     0
  9
$DIMSD1
 70
     0
  9
$DIMSD2
 70
     0
  9
$DIMTOLJ
 70
     1
  9
$DIMTZIN
 70
     8
  9
$DIMALTZ
 70
     9
  9
$DIMALTTZ
 70
     8
  9
$DIMUPT
 70
     0
  9
$DIMDEC
 70
     3
  9
$DIMTDEC
 70
     3
  9
$DIMALTU
 70
     2
  9
$DIMALTTD
 70
     2
  9
$DIMTXSTY
  7
STANDARD 3.5 mm
  9
$DIMAUNIT
 70
     0
  9
$DIMADEC
 70
     0
  9
$DIMALTRND
 40
0.0
  9
$DIMAZIN
 70
     2
  9
$DIMDSEP
 70
    46
  9
$DIMATFIT
 70
     3
  9
$DIMFRAC
 70
     0
  9
$DIMLDRBLK
  1

  9
$DIMLUNIT
 70
     3
  9
$DIMLWD
 70
    -1
  9
$DIMLWE
 70
    -2
  9
$DIMTMOVE
 70
     0
  9
$LUNITS
 70
     2
  9
$LUPREC
 70
     4
  9
$SKETCHINC
 40
0.1
  9
$FILLETRAD
 40
0.0
  9
$AUNITS
 70
     0
  9
$AUPREC
 70
     0
  9
$MENU
  1
c:\tdm21\cad\caduti13\tdm13
  9
$ELEVATION
 40
0.0
  9
$PELEVATION
 40
0.0
  9
$THICKNESS
 40
0.0
  9
$LIMCHECK
 70
     0
  9
$CHAMFERA
 40
0.0
  9
$CHAMFERB
 40
0.0
  9
$CHAMFERC
 40
0.0
  9
$CHAMFERD
 40
0.0
  9
$SKPOLY
 70
     0
  9
$TDCREATE
 40
2456946.746532790
  9
$TDUCREATE
 40
2456946.517366123
  9
$TDUPDATE
 40
2457015.356587025
  9
$TDUUPDATE
 40
2457015.127420359
  9
$TDINDWG
 40
0.0910676736
  9
$TDUSRTIMER
 40
0.0910671296
  9
$USRTIMER
 70
     1
  9
$ANGBASE
 50
0.0
  9
$ANGDIR
 70
     0
  9
$PDMODE
 70
     1
  9
$PDSIZE
 40
0.0
  9
$PLINEWID
 40
0.0
  9
$SPLFRAME
 70
     0
  9
$SPLINETYPE
 70
     6
  9
$SPLINESEGS
 70
     8
  9
$HANDSEED
  5
25F4
  9
$SURFTAB1
 70
     6
  9
$SURFTAB2
 70
     6
  9
$SURFTYPE
 70
     6
  9
$SURFU
 70
     6
  9
$SURFV
 70
     6
  9
$UCSBASE
  2

  9
$UCSNAME
  2

  9
$UCSORG
 10
254.3679918967621
 20
338.2013758041515
 30
0.0
  9
$UCSXDIR
 10
1.0
 20
0.0
 30
0.0
  9
$UCSYDIR
 10
0.0
 20
1.0
 30
0.0
  9
$UCSORTHOREF
  2

  9
$UCSORTHOVIEW
 70
     0
  9
$UCSORGTOP
 10
0.0
 20
0.0
 30
0.0
  9
$UCSORGBOTTOM
 10
0.0
 20
0.0
 30
0.0
  9
$UCSORGLEFT
 10
0.0
 20
0.0
 30
0.0
  9
$UCSORGRIGHT
 10
0.0
 20
0.0
 30
0.0
  9
$UCSORGFRONT
 10
0.0
 20
0.0
 30
0.0
  9
$UCSORGBACK
 10
0.0
 20
0.0
 30
0.0
  9
$PUCSBASE
  2

  9
$PUCSNAME
  2

  9
$PUCSORG
 10
0.0
 20
0.0
 30
0.0
  9
$PUCSXDIR
 10
1.0
 20
0.0
 30
0.0
  9
$PUCSYDIR
 10
0.0
 20
1.0
 30
0.0
  9
$PUCSORTHOREF
  2

  9
$PUCSORTHOVIEW
 70
     0
  9
$PUCSORGTOP
 10
0.0
 20
0.0
 30
0.0
  9
$PUCSORGBOTTOM
 10
0.0
 20
0.0
 30
0.0
  9
$PUCSORGLEFT
 10
0.0
 20
0.0
 30
0.0
  9
$PUCSORGRIGHT
 10
0.0
 20
0.0
 30
0.0
  9
$PUCSORGFRONT
 10
0.0
 20
0.0
 30
0.0
  9
$PUCSORGBACK
 10
0.0
 20
0.0
 30
0.0
  9
$USERI1
 70
     0
  9
$USERI2
 70
     0
  9
$USERI3
 70
     0
  9
$USERI4
 70
     0
  9
$USERI5
 70
     0
  9
$USERR1
 40
0.0
  9
$USERR2
 40
0.0
  9
$USERR3
 40
0.0
  9
$USERR4
 40
0.0
  9
$USERR5
 40
0.0
  9
$WORLDVIEW
 70
     1
  9
$SHADEDGE
 70
     3
  9
$SHADEDIF
 70
    70
  9
$TILEMODE
 70
     1
  9
$MAXACTVP
 70
    64
  9
$PINSBASE
 10
0.0
 20
0.0
 30
0.0
  9
$PLIMCHECK
 70
     0
  9
$PEXTMIN
 10
0.0
 20
0.0
 30
0.0
  9
$PEXTMAX
 10
297.0
 20
210.0
 30
0.0
  9
$PLIMMIN
 10
-6.352894443934567
 20
-4.429974890987324
  9
$PLIMMAX
 10
303.3743962297308
 20
214.4139451502602
  9
$UNITMODE
 70
     0
  9
$VISRETAIN
 70
     0
  9
$PLINEGEN
 70
     0
  9
$PSLTSCALE
 70
     1
  9
$TREEDEPTH
 70
  3020
  9
$CMLSTYLE
  2
STANDARD
  9
$CMLJUST
 70
     0
  9
$CMLSCALE
 40
1.0
  9
$PROXYGRAPHICS
 70
     1
  9
$MEASUREMENT
 70
     0
  9
$CELWEIGHT
370
    -1
  9
$ENDCAPS
280
     0
  9
$JOINSTYLE
280
     0
  9
$LWDISPLAY
290
     0
  9
$INSUNITS
 70
     0
  9
$HYPERLINKBASE
  1
HTTP://WWW.SECOTOOLS.COM/
  9
$STYLESHEET
  1
MONOCHROME.CTB
  9
$XEDIT
290
     1
  9
$CEPSNTYPE
380
     0
  9
$PSTYLEMODE
290
     1
  9
$FINGERPRINTGUID
  2
{A927C9F9-0AAE-4DD5-AF06-880A97231A47}
  9
$VERSIONGUID
  2
{0757F713-5D95-4A65-8A67-1AC9895B271E}
  9
$EXTNAMES
290
     1
  9
$PSVPSCALE
 40
0.0
  9
$OLESTARTUP
290
     0
  0
ENDSEC
  0
SECTION
  2
CLASSES
  0
CLASS
  1
ACDBDICTIONARYWDFLT
  2
AcDbDictionaryWithDefault
  3
ObjectDBX Classes
 90
        0
280
     0
281
     0
  0
CLASS
  1
ACDBPLACEHOLDER
  2
AcDbPlaceHolder
  3
ObjectDBX Classes
 90
        0
280
     0
281
     0
  0
CLASS
  1
LAYOUT
  2
AcDbLayout
  3
ObjectDBX Classes
 90
        0
280
     0
281
     0
  0
CLASS
  1
DICTIONARYVAR
  2
AcDbDictionaryVar
  3
ObjectDBX Classes
 90
        0
280
     0
281
     0
  0
CLASS
  1
TABLESTYLE
  2
AcDbTableStyle
  3
ObjectDBX Classes
 90
     4095
280
     0
281
     0
  0
CLASS
  1
MATERIAL
  2
AcDbMaterial
  3
ObjectDBX Classes
 90
     1153
280
     0
281
     0
  0
CLASS
  1
VISUALSTYLE
  2
AcDbVisualStyle
  3
ObjectDBX Classes
 90
     4095
280
     0
281
     0
  0
CLASS
  1
SCALE
  2
AcDbScale
  3
ObjectDBX Classes
 90
     1153
280
     0
281
     0
  0
CLASS
  1
MLEADERSTYLE
  2
AcDbMLeaderStyle
  3
ACDB_MLEADERSTYLE_CLASS
 90
     4095
280
     0
281
     0
  0
CLASS
  1
ACME_DOCUMENT
  2
AcMeDbDoc
  3
AcMeServices
 90
     1024
280
     0
281
     0
  0
CLASS
  1
AMGSETTINGSOBJ
  2
AmgSettingsObj
  3
"AcadM|Product Description: AutoCAD Mechanical|Company: Autodesk, Inc."
 90
     1024
280
     0
281
     0
  0
CLASS
  1
ACMESCOPE
  2
AcMeScope
  3
AcMeServices
 90
     1024
280
     0
281
     0
  0
CLASS
  1
ACMECOMMANDHISTORY
  2
AcMeCommandHistory
  3
AcMeServices
 90
     1024
280
     0
281
     0
  0
CLASS
  1
ACIMSYSVARMAN
  2
AcImSysVarManager
  3
AcMeServices
 90
     1024
280
     0
281
     0
  0
CLASS
  1
ACIMINTSYSVAR
  2
AcImIntSysVar
  3
AcMeServices
 90
     1024
280
     0
281
     0
  0
CLASS
  1
ACMEDRAWINGMAN
  2
AcMeDrawingMan
  3
AcMeServices
 90
    33792
280
     0
281
     0
  0
CLASS
  1
ACMEVIEW
  2
AcMeView
  3
AcMeServices
 90
    33792
280
     0
281
     0
  0
CLASS
  1
ACDBENTITYCACHE
  2
AcMeEntityCache
  3
AcMeServices
 90
     1024
280
     0
281
     0
  0
CLASS
  1
GSMANAGER
  2
AcMeGSManager
  3
AcMeServices
 90
    33792
280
     0
281
     0
  0
CLASS
  1
AMDTINTERNALREACTOR
  2
AmdtInternalReactor
  3
AcMeServices
 90
    33792
280
     0
281
     0
  0
CLASS
  1
ACMESTATEMGR
  2
AcMeStateMgr
  3
AcMeServices
 90
     1024
280
     0
281
     0
  0
CLASS
  1
ACGREFMASTER
  2
AcGrefMaster
  3
AcAttribServices
 90
     1024
280
     0
281
     0
  0
CLASS
  1
AM_DRAWING_MGR
  2
AcDmDwgMgr
  3
AcMechDwgViewMgmt
 90
    33792
280
     0
281
     0
  0
CLASS
  1
AM_DWG_DOCUMENT
  2
AcDmDwgDocument
  3
AcMechDwgViewMgmt
 90
    33792
280
     0
281
     0
  0
CLASS
  1
AM_DWG_SHEET
  2
AcDmSheet
  3
AcMechDwgViewMgmt
 90
    33792
280
     0
281
     0
  0
CLASS
  1
AM_VIEWDIMPARMAP
  2
AcDmViewDimParMap
  3
AcMechDwgViewMgmt
 90
    33792
280
     0
281
     0
  0
CLASS
  1
ACIMREALSYSVAR
  2
AcImRealSysVar
  3
AcMeServices
 90
    33792
280
     0
281
     0
  0
CLASS
  1
AM_DWGMGR_NAME
  2
AcDmDwgMgrName
  3
AcMechDwgViewMgmt
 90
    33792
280
     0
281
     0
  0
CLASS
  1
ACME_DATABASE
  2
AcMeDbDatabase
  3
AcMeServices
 90
     1024
280
     0
281
     0
  0
CLASS
  1
ACRFINSADJUSTERMGR
  2
AcRfInsAdjusterMgr
  3
AcMeServices
 90
     1024
280
     0
281
     0
  0
CLASS
  1
ACGREFACADMASTER
  2
AcGrefacadMaster
  3
AcGrefServices
 90
     1024
280
     0
281
     0
  0
CLASS
  1
AMDTMENUSTATEMGR
  2
AmdtMenuStateMgr
  3
McadcomServices
 90
     1024
280
     0
281
     0
  0
CLASS
  1
AMDTMCOMMENUSTATE
  2
AmdtMcomMenuState
  3
McadcomServices
 90
     1024
280
     0
281
     0
  0
CLASS
  1
AMIMASTER
  2
AmiMaster
  3
AmiServices
 90
     1024
280
     0
281
     0
  0
CLASS
  1
MAPIAMMOUDLE
  2
MApiAmModule
  3
MApiAmServices
 90
     1024
280
     0
281
     0
  0
CLASS
  1
ACIMSTRSYSVAR
  2
AcImStrSysVar
  3
AcMeServices
 90
     1024
280
     0
281
     0
  0
CLASS
  1
AMDTADMENUSTATE
  2
AmdtAdMenuState
  3
DesignerServices
 90
    33792
280
     0
281
     0
  0
CLASS
  1
ADAPPL
  2
AcAdAppl
  3
DesignerAssemblies
 90
    33792
280
     0
281
     0
  0
CLASS
  1
DEPMGR
  2
AcAdDepMgr
  3
DesignerAssemblies
 90
    33792
280
     0
281
     0
  0
CLASS
  1
PARAMMGR
  2
AcAdParamMgr
  3
DesignerAssemblies
 90
    33792
280
     0
281
     0
  0
CLASS
  1
PARAMSCOPE
  2
AcAdParamScope
  3
DesignerAssemblies
 90
    33792
280
     0
281
     0
  0
CLASS
  1
NAMEDAPPL
  2
AcAdNamedAppl
  3
DesignerAssemblies
 90
    33792
280
     0
281
     0
  0
CLASS
  1
AMDTDMMENUSTATE
  2
AmdtDmMenuState
  3
AcMechDwgViewMgmt
 90
    33792
280
     0
281
     0
  0
CLASS
  1
AMDTAMMENUSTATE
  2
AmdtAmMenuState
  3
DesignerAssemblies
 90
     1024
280
     0
281
     0
  0
CLASS
  1
ACAMPROJECT
  2
AcAmProject
  3
DesignerAssemblies
 90
     1024
280
     0
281
     0
  0
CLASS
  1
ACAMGRCOMPDEF
  2
AcAmGrCompDef
  3
DesignerAssemblies
 90
     1024
280
     0
281
     0
  0
CLASS
  1
ACCMCONTEXT
  2
AcCmContext
  3
DesignerAssemblies
 90
    33792
280
     0
281
     0
  0
CLASS
  1
ACAMCOMPDEF
  2
AcAmCompDef
  3
DesignerAssemblies
 90
     1024
280
     0
281
     0
  0
CLASS
  1
ACAMCOMPDEFMGR
  2
AcAmCompDefMgr
  3
DesignerAssemblies
 90
     1024
280
     0
281
     0
  0
CLASS
  1
AMCONTEXTMGR
  2
AcAmContextMgr
  3
DesignerAssemblies
 90
     1024
280
     0
281
     0
  0
CLASS
  1
ACAMCONTEXTMODELER
  2
AcAmContextModeler
  3
DesignerAssemblies
 90
     1024
280
     0
281
     0
  0
CLASS
  1
ACMDATADICTIONARY
  2
AcmDataDictionary
  3
"AcmSymBB|Product Description: AutoCAD Mechanical|Company: Autodesk, Inc."
 90
     1024
280
     0
281
     0
  0
CLASS
  1
CATALOGSTATE
  2
AcAmCatalogState
  3
DesignerAssemblies
 90
    33792
280
     0
281
     0
  0
CLASS
  1
ACAMGRCOMPDEFSET
  2
AcAmGrCompDefSet
  3
DesignerAssemblies
 90
     1024
280
     0
281
     0
  0
CLASS
  1
AMDTBROWSERDBTAB
  2
AmdtBrowserDbTab
  3
McadcomServices
 90
     1024
280
     0
281
     0
  0
CLASS
  1
CBROWSERAPPOBJECT
  2
CBrowserAppObject
  3
McadcomServices
 90
     1024
280
     0
281
     0
  0
CLASS
  1
DM_PLACEHOLDER
  2
AcDmSelsetPlaceholder
  3
McadcomServices
 90
     1024
280
     0
281
     0
  0
CLASS
  1
ACMSTANDARDDIN
  2
AcmStandardDIN
  3
"Amdt_StdImp|Product Description: AutoCAD Mechanical|Company: Autodesk, Inc."
 90
    33792
280
     0
281
     0
  0
CLASS
  1
AMGOBJPROPCFG
  2
AmgObjPropCfg
  3
"AmgLay|Product Description: AutoCAD Mechanical|Company: Autodesk, Inc."
 90
     1024
280
     0
281
     0
  0
CLASS
  1
AMDTEDGESTANDARDDIN13715
  2
AmdtEdgeStdDIN13715
  3
"Amdt_StdImp|Product Description: AutoCAD Mechanical|Company: Autodesk, Inc."
 90
    33792
280
     0
281
     0
  0
CLASS
  1
ACMSURFSTANDARDDIN2002
  2
AcmSurfTextStdDIN2002
  3
"Amdt_StdImp|Product Description: AutoCAD Mechanical|Company: Autodesk, Inc."
 90
    33792
280
     0
281
     0
  0
CLASS
  1
ACMFCFSTANDARDDIN
  2
AcmFCFStdDIN
  3
"Amdt_StdImp|Product Description: AutoCAD Mechanical|Company: Autodesk, Inc."
 90
    33792
280
     0
281
     0
  0
CLASS
  1
ACMWELDSTANDARDDIN
  2
AcmWeldingStdDIN
  3
"Amdt_StdImp|Product Description: AutoCAD Mechanical|Company: Autodesk, Inc."
 90
    33792
280
     0
281
     0
  0
CLASS
  1
ACMIDSTANDARDDIN
  2
AcmIdStdDIN
  3
"Amdt_StdImp|Product Description: AutoCAD Mechanical|Company: Autodesk, Inc."
 90
    33792
280
     0
281
     0
  0
CLASS
  1
ACMDATUMSTANDARDDIN
  2
AcmDatumStdDIN
  3
"Amdt_StdImp|Product Description: AutoCAD Mechanical|Company: Autodesk, Inc."
 90
    33792
280
     0
281
     0
  0
CLASS
  1
ACMBOMSTANDARDDIN
  2
AcmBOMStdDIN
  3
"Amdt_StdImp|Product Description: AutoCAD Mechanical|Company: Autodesk, Inc."
 90
    33792
280
     0
281
     0
  0
CLASS
  1
ACMDETAILSTANDARDDIN
  2
AmdtDetailSymStdDIN
  3
"Amdt_StdImp|Product Description: AutoCAD Mechanical|Company: Autodesk, Inc."
 90
    33792
280
     0
281
     0
  0
CLASS
  1
ACMSECTIONSTANDARDDIN
  2
AmdtSectionSymStdDIN
  3
"Amdt_StdImp|Product Description: AutoCAD Mechanical|Company: Autodesk, Inc."
 90
    33792
280
     0
281
     0
  0
CLASS
  1
ACMCENTERLINESTANDARDDIN
  2
AmdtCenterLineStdDIN
  3
"Amdt_StdImp|Product Description: AutoCAD Mechanical|Company: Autodesk, Inc."
 90
    33792
280
     0
281
     0
  0
CLASS
  1
ACMTHREADLINESTANDARDDIN
  2
AmdtThreadLineStdDIN
  3
"Amdt_StdImp|Product Description: AutoCAD Mechanical|Company: Autodesk, Inc."
 90
    33792
280
     0
281
     0
  0
CLASS
  1
ACMNOTESTANDARDDIN
  2
AmdtNoteStdDIN
  3
"Amdt_StdImp|Product Description: AutoCAD Mechanical|Company: Autodesk, Inc."
 90
    33792
280
     0
281
     0
  0
CLASS
  1
ACMTAPERSTANDARDDIN
  2
AcmTaperStdDIN
  3
"Amdt_StdImp|Product Description: AutoCAD Mechanical|Company: Autodesk, Inc."
 90
    33792
280
     0
281
     0
  0
CLASS
  1
ACMANOOTATIONVIEWSTANDARDDIN
  2
AmdtAnViewStdDIN
  3
"Amdt_StdImp|Product Description: AutoCAD Mechanical|Company: Autodesk, Inc."
 90
    33792
280
     0
281
     0
  0
CLASS
  1
AMDTNOTETEMPLATEDB
  2
AmdtNoteTemplateDB
  3
AcmSymBB|Product Description: AutoCAD Mechanical|Company: Autodesk, Inc.
 90
     1024
280
     0
281
     0
  0
CLASS
  1
ACAMGLAYSTD
  2
AcAmgLayStd
  3
"AmgLay|Product Description: AutoCAD Mechanical|Company: Autodesk, Inc."
 90
     1024
280
     0
281
     0
  0
CLASS
  1
ACAMGDIMSTD
  2
AcAmgDimStd
  3
"AmgDim|Product Description: AutoCAD Mechanical|Company: Autodesk, Inc."
 90
     1024
280
     0
281
     0
  0
CLASS
  1
ACAMGHOLECHARTSTDDIN
  2
AcAmgHoleChartStdDIN
  3
AmgDim|Product Description: AutoCAD Mechanical|Company: Autodesk, Inc.
 90
    33792
280
     0
281
     0
  0
CLASS
  1
ACAMGTITLESTD
  2
AcAmgTitleStd
  3
"AmgTitle|Product Description: AutoCAD Mechanical|Company: Autodesk, Inc."
 90
     1024
280
     0
281
     0
  0
CLASS
  1
ACAMGFILTERDAT
  2
AcAmgFilterDat
  3
"AcadM|Product Description: AutoCAD Mechanical|Company: Autodesk, Inc."
 90
    33792
280
     0
281
     0
  0
CLASS
  1
CAMSSTRUCTBTNSTATE
  2
StructBtnState
  3
DesignerAssemblies
 90
    33792
280
     0
281
     0
  0
CLASS
  1
CELLSTYLEMAP
  2
AcDbCellStyleMap
  3
ObjectDBX Classes
 90
     1152
280
     0
281
     0
  0
CLASS
  1
SORTENTSTABLE
  2
AcDbSortentsTable
  3
ObjectDBX Classes
 90
        0
280
     0
281
     0
  0
CLASS
  1
PLOTSETTINGS
  2
AcDbPlotSettings
  3
ObjectDBX Classes
 90
        0
280
     0
281
     0
  0
CLASS
  1
DIMASSOC
  2
AcDbDimAssoc
  3
"AcDbDimAssoc|Product Desc:     AcDim ARX App For Dimension|Company:          Autodesk, Inc.|WEB Address:      www.autodesk.com"
 90
        0
280
     0
281
     0
  0
CLASS
  1
ACDBSECTIONVIEWSTYLE
  2
AcDbSectionViewStyle
  3
ObjectDBX Classes
 90
     1025
280
     0
281
     0
  0
CLASS
  1
ACDBDETAILVIEWSTYLE
  2
AcDbDetailViewStyle
  3
ObjectDBX Classes
 90
     1025
280
     0
281
     0
  0
CLASS
  1
ACMSECTIONSTANDARDCUSTOM
  2
AmdtSectionSymStdCustom
  3
"Amdt_StdImp|Product Description: AutoCAD Mechanical|Company: Autodesk, Inc."
 90
     1024
280
     0
281
     0
  0
CLASS
  1
ACMDETAILTANDARDCUSTOM
  2
AmdtDetailSymStdCustom
  3
"Amdt_StdImp|Product Description: AutoCAD Mechanical|Company: Autodesk, Inc."
 90
     1024
280
     0
281
     0
  0
CLASS
  1
FIELD
  2
AcDbField
  3
ObjectDBX Classes
 90
     1152
280
     0
281
     0
  0
CLASS
  1
FIELDLIST
  2
AcDbFieldList
  3
ObjectDBX Classes
 90
     1152
280
     0
281
     0
  0
CLASS
  1
ACMSTANDARDANSI
  2
AcmStandardANSI
  3
"Amdt_StdImp|Product Description: AutoCAD Mechanical|Company: Autodesk, Inc."
 90
     1024
280
     0
281
     0
  0
CLASS
  1
ACMSURFSTANDARDANSI
  2
AcmSurfTextStdANSI
  3
"Amdt_StdImp|Product Description: AutoCAD Mechanical|Company: Autodesk, Inc."
 90
     1024
280
     0
281
     0
  0
CLASS
  1
ACMFCFSTANDARDANSI
  2
AcmFCFStdANSI
  3
"Amdt_StdImp|Product Description: AutoCAD Mechanical|Company: Autodesk, Inc."
 90
     1024
280
     0
281
     0
  0
CLASS
  1
ACMWELDSTANDARDANSI
  2
AcmWeldingStdANSI
  3
"Amdt_StdImp|Product Description: AutoCAD Mechanical|Company: Autodesk, Inc."
 90
     1024
280
     0
281
     0
  0
CLASS
  1
ACMIDSTANDARDANSI
  2
AcmIdStdANSI
  3
"Amdt_StdImp|Product Description: AutoCAD Mechanical|Company: Autodesk, Inc."
 90
     1024
280
     0
281
     0
  0
CLASS
  1
ACMDATUMSTANDARDANSI
  2
AcmDatumStdANSI
  3
"Amdt_StdImp|Product Description: AutoCAD Mechanical|Company: Autodesk, Inc."
 90
     1024
280
     0
281
     0
  0
CLASS
  1
ACMBOMSTANDARDANSI
  2
AcmBOMStdANSI
  3
"Amdt_StdImp|Product Description: AutoCAD Mechanical|Company: Autodesk, Inc."
 90
     1024
280
     0
281
     0
  0
CLASS
  1
ACMDETAILSTANDARDANSI
  2
AmdtDetailSymStdANSI
  3
"Amdt_StdImp|Product Description: AutoCAD Mechanical|Company: Autodesk, Inc."
 90
     1024
280
     0
281
     0
  0
CLASS
  1
ACMSECTIONSTANDARDANSI
  2
AmdtSectionSymStdANSI
  3
"Amdt_StdImp|Product Description: AutoCAD Mechanical|Company: Autodesk, Inc."
 90
     1024
280
     0
281
     0
  0
CLASS
  1
ACMCENTERLINESTANDARDANSI
  2
AmdtCenterLineStdANSI
  3
"Amdt_StdImp|Product Description: AutoCAD Mechanical|Company: Autodesk, Inc."
 90
     1024
280
     0
281
     0
  0
CLASS
  1
ACMTHREADLINESTANDARDANSI
  2
AmdtThreadLineStdANSI
  3
"Amdt_StdImp|Product Description: AutoCAD Mechanical|Company: Autodesk, Inc."
 90
     1024
280
     0
281
     0
  0
CLASS
  1
ACMNOTESTANDARDANSI
  2
AmdtNoteStdANSI
  3
"Amdt_StdImp|Product Description: AutoCAD Mechanical|Company: Autodesk, Inc."
 90
     1024
280
     0
281
     0
  0
CLASS
  1
ACMTAPERSTANDARDANSI
  2
AcmTaperStdANSI
  3
"Amdt_StdImp|Product Description: AutoCAD Mechanical|Company: Autodesk, Inc."
 90
     1024
280
     0
281
     0
  0
CLASS
  1
ACMANOOTATIONVIEWSTANDARDANSI
  2
AmdtAnViewStdANSI
  3
"Amdt_StdImp|Product Description: AutoCAD Mechanical|Company: Autodesk, Inc."
 90
     1024
280
     0
281
     0
  0
CLASS
  1
ACAMGHOLECHARTSTDANSI
  2
AcAmgHoleChartStdANSI
  3
AmgDim|Product Description: AutoCAD Mechanical|Company: Autodesk, Inc.
 90
     1024
280
     0
281
     0
  0
ENDSEC
  0
SECTION
  2
TABLES
  0
TABLE
  2
VPORT
  5
8
102
{ACAD_XDICTIONARY
360
ACA
102
}
330
0
100
AcDbSymbolTable
 70
     1
  0
VPORT
  5
B56
330
8
100
AcDbSymbolTableRecord
100
AcDbViewportTableRecord
  2
*Active
 70
     0
 10
0.0
 20
0.0
 11
1.0
 21
1.0
 12
255.0844896130549
 22
338.3314045355426
 13
0.0
 23
0.0
 14
0.5
 24
0.5
 15
0.5
 25
0.5
 16
0.0
 26
0.0
 36
1.0
 17
0.0
 27
0.0
 37
0.0
 40
4.633479220351546
 41
1.589641434262948
 42
50.0
 43
0.0
 44
0.0
 50
0.0
 51
0.0
 71
     0
 72
  2000
 73
     1
 74
     3
 75
     0
 76
     0
 77
     0
 78
     0
281
     0
 65
     0
110
254.3679918967621
120
338.2013758041515
130
0.0
111
1.0
121
0.0
131
0.0
112
0.0
122
1.0
132
0.0
 79
     0
146
0.0
1001
ACAD_NAV_VCDISPLAY
1070
     3
  0
ENDTAB
  0
TABLE
  2
LTYPE
  5
5
330
0
100
AcDbSymbolTable
 70
    11
  0
LTYPE
  5
12
330
5
100
AcDbSymbolTableRecord
100
AcDbLinetypeTableRecord
  2
BYBLOCK
 70
     0
  3

 72
    65
 73
     0
 40
0.0
  0
LTYPE
  5
13
330
5
100
AcDbSymbolTableRecord
100
AcDbLinetypeTableRecord
  2
BYLAYER
 70
     0
  3

 72
    65
 73
     0
 40
0.0
  0
LTYPE
  5
1A6E
330
5
100
AcDbSymbolTableRecord
100
AcDbLinetypeTableRecord
  2
Continuous
 70
     0
  3
Solid line
 72
    65
 73
     0
 40
0.0
  0
LTYPE
  5
9C2
330
5
100
AcDbSymbolTableRecord
100
AcDbLinetypeTableRecord
  2
LONGDASH_DASH
 70
     0
  3
ISO Lang gestrichelt punktiert ____ _ ____ _ ____ _ ____ . _
 72
    65
 73
     4
 40
10.5
 49
6.0
 74
     0
 49
-0.75
 74
     0
 49
3.0
 74
     0
 49
-0.75
 74
     0
  0
LTYPE
  5
EB5
330
5
100
AcDbSymbolTableRecord
100
AcDbLinetypeTableRecord
  2
HIDDEN
 70
     0
  3
Hidden __ __ __ __ __ __ __ __ __ __ __ __ __ _
 72
    65
 73
     2
 40
0.375
 49
0.25
 74
     0
 49
-0.125
 74
     0
  0
LTYPE
  5
EB6
330
5
100
AcDbSymbolTableRecord
100
AcDbLinetypeTableRecord
  2
PHANTOM2
 70
     0
  3
Phantom (.5x) ___ _ _ ___ _ _ ___ _ _ ___ _ _
 72
    65
 73
     6
 40
1.25
 49
0.625
 74
     0
 49
-0.125
 74
     0
 49
0.125
 74
     0
 49
-0.125
 74
     0
 49
0.125
 74
     0
 49
-0.125
 74
     0
  0
LTYPE
  5
EB7
330
5
100
AcDbSymbolTableRecord
100
AcDbLinetypeTableRecord
  2
CENTER
 70
     0
  3
Center ____ _ ____ _ ____ _ ____ _ ____ _ ____
 72
    65
 73
     4
 40
2.0
 49
1.25
 74
     0
 49
-0.25
 74
     0
 49
0.25
 74
     0
 49
-0.25
 74
     0
  0
LTYPE
  5
1AB1
330
5
100
AcDbSymbolTableRecord
100
AcDbLinetypeTableRecord
  2
CENTER2
 70
     0
  3
Center (.5x) ___ _ ___ _ ___ _ ___ _ ___ _ ___
 72
    65
 73
     4
 40
1.125
 49
0.75
 74
     0
 49
-0.125
 74
     0
 49
0.125
 74
     0
 49
-0.125
 74
     0
  0
LTYPE
  5
1AB2
330
5
100
AcDbSymbolTableRecord
100
AcDbLinetypeTableRecord
  2
HIDDEN2
 70
     0
  3
Hidden (.5x) _ _ _ _ _ _ _ _ _ _ _ _ _ _ _ _ _
 72
    65
 73
     2
 40
0.1875
 49
0.125
 74
     0
 49
-0.0625
 74
     0
  0
LTYPE
  5
1AC4
330
5
100
AcDbSymbolTableRecord
100
AcDbLinetypeTableRecord
  2
ACANSTGB
 70
     0
  3
__ . . __ . .
 72
    65
 73
     6
 40
0.35433070866
 49
0.15748031496
 74
     0
 49
-0.03937007874
 74
     0
 49
0.03937007874
 74
     0
 49
-0.03937007874
 74
     0
 49
0.03937007874
 74
     0
 49
-0.03937007874
 74
     0
  0
LTYPE
  5
1AC5
330
5
100
AcDbSymbolTableRecord
100
AcDbLinetypeTableRecord
  2
ACANSTGL
 70
     0
  3
_ _ _ _ _
 72
    65
 73
     2
 40
0.11811023622
 49
0.07874015748
 74
     0
 49
-0.03937007874
 74
     0
  0
LTYPE
  5
1EC2
330
5
100
AcDbSymbolTableRecord
100
AcDbLinetypeTableRecord
  2
DASH
 70
     0
  3
ISO hidden line __ __ __ __ __ __ __ __ __ __ __ __ __
 72
    65
 73
     2
 40
3.75
 49
3.0
 74
     0
 49
-0.75
 74
     0
  0
ENDTAB
  0
TABLE
  2
LAYER
  5
2
102
{ACAD_XDICTIONARY
360
43C
102
}
330
0
100
AcDbSymbolTable
 70
     9
  0
LAYER
  5
F
102
{ACAD_XDICTIONARY
360
52D
102
}
330
2
100
AcDbSymbolTableRecord
100
AcDbLayerTableRecord
  2
0
 70
     0
 62
     7
  6
Continuous
290
     0
370
    -3
390
300
  0
LAYER
  5
23
102
{ACAD_XDICTIONARY
360
52F
102
}
330
2
100
AcDbSymbolTableRecord
100
AcDbLayerTableRecord
  2
1
 70
     0
 62
     4
  6
Continuous
370
    50
390
300
  0
LAYER
  5
25
102
{ACAD_XDICTIONARY
360
533
102
}
330
2
100
AcDbSymbolTableRecord
100
AcDbLayerTableRecord
  2
2
 70
     0
 62
     7
  6
Continuous
370
    25
390
300
  0
LAYER
  5
27
102
{ACAD_XDICTIONARY
360
537
102
}
330
2
100
AcDbSymbolTableRecord
100
AcDbLayerTableRecord
  2
SK2
 70
     0
 62
     7
  6
Continuous
370
    25
390
300
  0
LAYER
  5
2B
102
{ACAD_XDICTIONARY
360
53F
102
}
330
2
100
AcDbSymbolTableRecord
100
AcDbLayerTableRecord
  2
SK4
 70
     0
 62
     2
  6
LONGDASH_DASH
370
    25
390
300
  0
LAYER
  5
2E
102
{ACAD_XDICTIONARY
360
545
102
}
330
2
100
AcDbSymbolTableRecord
100
AcDbLayerTableRecord
  2
SK6
 70
     0
 62
     5
  6
Continuous
370
    35
390
300
  0
LAYER
  5
2F
330
2
100
AcDbSymbolTableRecord
100
AcDbLayerTableRecord
  2
DEFPOINTS
 70
     0
 62
     7
  6
Continuous
290
     0
370
    -3
390
300
  0
LAYER
  5
1EC3
102
{ACAD_XDICTIONARY
360
1EC4
102
}
330
2
100
AcDbSymbolTableRecord
100
AcDbLayerTableRecord
  2
SK3
 70
     0
 62
     1
  6
DASH
370
    35
390
300
  0
LAYER
  5
24B0
330
2
100
AcDbSymbolTableRecord
100
AcDbLayerTableRecord
  2
AM_5
 70
     0
 62
     3
  6
Continuous
370
    15
390
300
1001
AcAecLayerStandard
1000

1000

  0
ENDTAB
  0
TABLE
  2
STYLE
  5
3
330
0
100
AcDbSymbolTable
 70
     5
  0
STYLE
  5
10
330
3
100
AcDbSymbolTableRecord
100
AcDbTextStyleTableRecord
  2
STANDARD
 70
     0
 40
0.0
 41
1.0
 50
0.0
 71
     0
 42
0.2
  3
monos.ttf
  4

1001
ACAD
1000
Monospac821 BT
1071
       49
  0
STYLE
  5
1E
330
3
100
AcDbSymbolTableRecord
100
AcDbTextStyleTableRecord
  2
STANDARD 5 mm
 70
     0
 40
0.1969
 41
1.0
 50
0.0
 71
     0
 42
3.5
  3
monos.ttf
  4

1001
ACAD
1000
Monospac821 BT
1071
       49
  0
STYLE
  5
7DE
330
3
100
AcDbSymbolTableRecord
100
AcDbTextStyleTableRecord
  2
STANDARD 3.5 mm
 70
     0
 40
0.1377952755905512
 41
1.0
 50
0.0
 71
     0
 42
3.5
  3
monos.ttf
  4

1001
ACAD
1000
Monospac821 BT
1071
       49
  0
STYLE
  5
1AC3
330
3
100
AcDbSymbolTableRecord
100
AcDbTextStyleTableRecord
  2
ACANSGDT
 70
     0
 40
0.0
 41
1.0
 50
0.0
 71
     0
 42
0.2
  3
amgdt.shx
  4

  0
STYLE
  5
23CB
330
3
100
AcDbSymbolTableRecord
100
AcDbTextStyleTableRecord
  2
ACANSTS
 70
     0
 40
0.0
 41
1.0
 50
0.0
 71
     0
 42
0.2
  3
romans.shx
  4

  0
ENDTAB
  0
TABLE
  2
VIEW
  5
6
330
0
100
AcDbSymbolTable
 70
     6
  0
VIEW
  5
758
330
6
100
AcDbSymbolTableRecord
100
AcDbViewTableRecord
  2
AM_VIEW1
 70
     1
 40
148.5265045166015
 10
121.0318359737553
 20
219.614756822586
 41
248.4136475334483
 11
0.0
 21
0.0
 31
1.0
 12
0.0
 22
0.0
 32
0.0
 42
50.0
 43
0.0
 44
0.0
 50
0.0
 71
     0
281
     0
 72
     0
  0
VIEW
  5
759
330
6
100
AcDbSymbolTableRecord
100
AcDbViewTableRecord
  2
AM_VIEW2
 70
     1
 40
148.5265045166015
 10
292.4378600711665
 20
219.614756822586
 41
248.4136475334483
 11
0.0
 21
0.0
 31
1.0
 12
0.0
 22
0.0
 32
0.0
 42
50.0
 43
0.0
 44
0.0
 50
0.0
 71
     0
281
     0
 72
     0
  0
VIEW
  5
75A
330
6
100
AcDbSymbolTableRecord
100
AcDbViewTableRecord
  2
AM_VIEW3
 70
     1
 40
148.5265045166015
 10
121.0318359737553
 20
71.0882523059845
 41
248.4136475334483
 11
0.0
 21
0.0
 31
1.0
 12
0.0
 22
0.0
 32
0.0
 42
50.0
 43
0.0
 44
0.0
 50
0.0
 71
     0
281
     0
 72
     0
  0
VIEW
  5
75B
330
6
100
AcDbSymbolTableRecord
100
AcDbViewTableRecord
  2
AM_VIEW4
 70
     1
 40
148.5265045166015
 10
292.4378600711665
 20
71.0882523059845
 41
248.4136475334483
 11
0.0
 21
0.0
 31
1.0
 12
0.0
 22
0.0
 32
0.0
 42
50.0
 43
0.0
 44
0.0
 50
0.0
 71
     0
281
     0
 72
     0
  0
VIEW
  5
75C
330
6
100
AcDbSymbolTableRecord
100
AcDbViewTableRecord
  2
AM_VIEW5
 70
     1
 40
148.5265045166015
 10
206.7348480224609
 20
145.3515045642852
 41
248.4136475334483
 11
0.0
 21
0.0
 31
1.0
 12
0.0
 22
0.0
 32
0.0
 42
50.0
 43
0.0
 44
0.0
 50
0.0
 71
     0
281
     0
 72
     0
  0
VIEW
  5
75D
330
6
100
AcDbSymbolTableRecord
100
AcDbViewTableRecord
  2
AM_VIEW6
 70
     1
 40
297.0500385031128
 10
206.7348480224609
 20
145.3515045642852
 41
496.8223267939458
 11
0.0
 21
0.0
 31
1.0
 12
0.0
 22
0.0
 32
0.0
 42
50.0
 43
0.0
 44
0.0
 50
0.0
 71
     0
281
     0
 72
     0
  0
ENDTAB
  0
TABLE
  2
UCS
  5
7
330
0
100
AcDbSymbolTable
 70
     0
  0
ENDTAB
  0
TABLE
  2
APPID
  5
9
330
0
100
AcDbSymbolTable
 70
    38
  0
APPID
  5
11
330
9
100
AcDbSymbolTableRecord
100
AcDbRegAppTableRecord
  2
ACAD
 70
     0
  0
APPID
  5
3A6
330
9
100
AcDbSymbolTableRecord
100
AcDbRegAppTableRecord
  2
ACAD_PSEXT
 70
     0
  0
APPID
  5
3A8
330
9
100
AcDbSymbolTableRecord
100
AcDbRegAppTableRecord
  2
ACAD_EXEMPT_FROM_CAD_STANDARDS
 70
     0
  0
APPID
  5
433
330
9
100
AcDbSymbolTableRecord
100
AcDbRegAppTableRecord
  2
AcAecLayerStandard
 70
     0
  0
APPID
  5
471
330
9
100
AcDbSymbolTableRecord
100
AcDbRegAppTableRecord
  2
ACAD_MLEADERVER
 70
     0
  0
APPID
  5
47D
330
9
100
AcDbSymbolTableRecord
100
AcDbRegAppTableRecord
  2
MCAD_NO_VIS
 70
     0
  0
APPID
  5
47E
330
9
100
AcDbSymbolTableRecord
100
AcDbRegAppTableRecord
  2
ACAD_TEMP_GRAPHIC
 70
     0
  0
APPID
  5
4AC
330
9
100
AcDbSymbolTableRecord
100
AcDbRegAppTableRecord
  2
AD_DRAW
 70
     0
  0
APPID
  5
4AF
330
9
100
AcDbSymbolTableRecord
100
AcDbRegAppTableRecord
  2
ACATTRIBSERVICES
 70
     0
  0
APPID
  5
4D0
330
9
100
AcDbSymbolTableRecord
100
AcDbRegAppTableRecord
  2
DESIGNERASSEMBLIES
 70
     0
  0
APPID
  5
4D6
330
9
100
AcDbSymbolTableRecord
100
AcDbRegAppTableRecord
  2
ACADM_DIM_EDIT
 70
     0
  0
APPID
  5
4D7
330
9
100
AcDbSymbolTableRecord
100
AcDbRegAppTableRecord
  2
AMDT_DM_ADJ
 70
     0
  0
APPID
  5
5CD
330
9
100
AcDbSymbolTableRecord
100
AcDbRegAppTableRecord
  2
AcDbAttr
 70
     0
  0
APPID
  5
5CE
330
9
100
AcDbSymbolTableRecord
100
AcDbRegAppTableRecord
  2
ACAUTHENVIRON
 70
     0
  0
APPID
  5
5CF
330
9
100
AcDbSymbolTableRecord
100
AcDbRegAppTableRecord
  2
AcDbDynamicBlockTrueName
 70
     0
  0
APPID
  5
5D0
330
9
100
AcDbSymbolTableRecord
100
AcDbRegAppTableRecord
  2
ACDBBLOCKREPETAG
 70
     0
  0
APPID
  5
723
330
9
100
AcDbSymbolTableRecord
100
AcDbRegAppTableRecord
  2
GENIUS_GENTRA_14
 70
     0
  0
APPID
  5
752
330
9
100
AcDbSymbolTableRecord
100
AcDbRegAppTableRecord
  2
GENIUS_GENOENT_13
 70
     0
  0
APPID
  5
753
330
9
100
AcDbSymbolTableRecord
100
AcDbRegAppTableRecord
  2
GENIUS_GENOBJ-N-TIT_13
 70
     0
  0
APPID
  5
754
330
9
100
AcDbSymbolTableRecord
100
AcDbRegAppTableRecord
  2
GENIUS_GENODEF_13
 70
     0
  0
APPID
  5
755
330
9
100
AcDbSymbolTableRecord
100
AcDbRegAppTableRecord
  2
GENIUS_GENOLIS_13
 70
     0
  0
APPID
  5
756
330
9
100
AcDbSymbolTableRecord
100
AcDbRegAppTableRecord
  2
GENIUS_GENTITLE_13
 70
     0
  0
APPID
  5
757
330
9
100
AcDbSymbolTableRecord
100
AcDbRegAppTableRecord
  2
GENIUS_GENOREF_13
 70
     0
  0
APPID
  5
75E
330
9
100
AcDbSymbolTableRecord
100
AcDbRegAppTableRecord
  2
GENIUS_GENSCREG_15
 70
     0
  0
APPID
  5
75F
330
9
100
AcDbSymbolTableRecord
100
AcDbRegAppTableRecord
  2
GENIUS_GENOBJ-N-SDF_13
 70
     0
  0
APPID
  5
7BE
330
9
100
AcDbSymbolTableRecord
100
AcDbRegAppTableRecord
  2
AcadAnnoPO
 70
     0
  0
APPID
  5
7BF
330
9
100
AcDbSymbolTableRecord
100
AcDbRegAppTableRecord
  2
ACAD_DSTYLE_DIMJAG
 70
     0
  0
APPID
  5
7C0
330
9
100
AcDbSymbolTableRecord
100
AcDbRegAppTableRecord
  2
ACAD_DSTYLE_DIMTALN
 70
     0
  0
APPID
  5
8F4
330
9
100
AcDbSymbolTableRecord
100
AcDbRegAppTableRecord
  2
ACAD_DSTYLE_DIMBREAK
 70
     0
  0
APPID
  5
AD8
330
9
100
AcDbSymbolTableRecord
100
AcDbRegAppTableRecord
  2
ACAD_DSTYLE_DIMARC_LENGTH_SYMBOL
 70
     0
  0
APPID
  5
AEA
330
9
100
AcDbSymbolTableRecord
100
AcDbRegAppTableRecord
  2
ACAD_DSTYLE_DIMJOGGED_JOGANGLE_SYMBOL
 70
     0
  0
APPID
  5
EDF
330
9
100
AcDbSymbolTableRecord
100
AcDbRegAppTableRecord
  2
ACAD_NAV_VCDISPLAY
 70
     0
  0
APPID
  5
F3E
330
9
100
AcDbSymbolTableRecord
100
AcDbRegAppTableRecord
  2
ACAD_DSTYLE_DIMINSPECT
 70
     0
  0
APPID
  5
1C37
330
9
100
AcDbSymbolTableRecord
100
AcDbRegAppTableRecord
  2
ACAD_DSTYLE_DIM_LINETYPE
 70
     0
  0
APPID
  5
1C38
330
9
100
AcDbSymbolTableRecord
100
AcDbRegAppTableRecord
  2
ACAD_DSTYLE_DIM_EXT1_LINETYPE
 70
     0
  0
APPID
  5
1C39
330
9
100
AcDbSymbolTableRecord
100
AcDbRegAppTableRecord
  2
ACAD_DSTYLE_DIM_EXT2_LINETYPE
 70
     0
  0
APPID
  5
1E12
330
9
100
AcDbSymbolTableRecord
100
AcDbRegAppTableRecord
  2
GENIUS_GENDTOL_13
 70
     0
  0
APPID
  5
22B1
330
9
100
AcDbSymbolTableRecord
100
AcDbRegAppTableRecord
  2
ACAD_DSTYLE_DIMRADIAL_EXTENSION
 70
     0
  0
ENDTAB
  0
TABLE
  2
DIMSTYLE
  5
A
330
0
100
AcDbSymbolTable
 70
     9
100
AcDbDimStyleTable
 71
     2
340
4FC
340
3F
  0
DIMSTYLE
105
3F
102
{ACAD_REACTORS
330
142C
330
1429
330
1426
330
1423
330
141F
330
1DF6
102
}
330
A
100
AcDbSymbolTableRecord
100
AcDbDimStyleTableRecord
  2
STANDARD
 70
     0
  3
"
 42
0.0
 48
0.000000001
 73
     0
 74
     0
 77
     1
 78
     9
 79
     2
140
0.1377952755905512
141
0.0
146
0.7071069999999999
172
     1
271
     3
272
     3
283
     0
285
     9
286
     8
340
7DE
1001
ACAD_DSTYLE_DIMBREAK
1070
   391
1040
0.147638
1001
ACAD_DSTYLE_DIMJAG
1070
   388
1040
1.5
1001
ACAD_DSTYLE_DIMTALN
1070
   392
1070
     0
1001
ACAD_DSTYLE_DIMARC_LENGTH_SYMBOL
1070
   379
1070
     1
1001
ACAD_DSTYLE_DIMJOGGED_JOGANGLE_SYMBOL
1070
   384
1040
1.570796326794896
  0
DIMSTYLE
105
4FC
330
A
100
AcDbSymbolTableRecord
100
AcDbDimStyleTableRecord
  2
AM_DIN
 70
     0
 41
0.19685
 42
0.03937
 43
0.5905510000000001
 44
0.07874
 48
0.000000001
 73
     0
 74
     0
 77
     1
 78
    11
 79
     2
140
0.1377952755905512
141
0.003543
146
0.7071069999999999
147
0.090551
172
     1
271
     3
272
     3
277
     3
284
     8
285
     9
286
     8
340
7DE
371
    -1
1001
ACAD_DSTYLE_DIMBREAK
1070
   391
1040
0.147638
1001
ACAD_DSTYLE_DIMJAG
1070
   388
1040
1.5
1001
ACAD_DSTYLE_DIMTALN
1070
   392
1070
     0
1001
ACAD_DSTYLE_DIMARC_LENGTH_SYMBOL
1070
   379
1070
     1
1001
ACAD_DSTYLE_DIMJOGGED_JOGANGLE_SYMBOL
1070
   384
1040
1.570796326794896
  0
DIMSTYLE
105
1AAF
102
{ACAD_REACTORS
330
2574
102
}
330
A
100
AcDbSymbolTableRecord
100
AcDbDimStyleTableRecord
  2
AM_ANSI
 70
     0
  4
mm
 41
0.12
 42
0.05
 43
0.5
 44
0.1
 47
0.1
 48
0.1
 78
     7
 79
     2
140
0.12
141
0.0
146
0.71
147
0.06
176
   256
177
   256
178
     2
274
     4
284
     7
340
10
371
    -1
372
    -1
1001
ACAD_DSTYLE_DIMJAG
1070
   388
1040
1.5
1001
ACAD_DSTYLE_DIMBREAK
1070
   391
1040
0.125
1001
ACAD_DSTYLE_DIMARC_LENGTH_SYMBOL
1070
   379
1070
     1
1001
ACAD_DSTYLE_DIM_LINETYPE
1070
   380
1005
12
1001
ACAD_DSTYLE_DIM_EXT1_LINETYPE
1070
   381
1005
12
1001
ACAD_DSTYLE_DIM_EXT2_LINETYPE
1070
   382
1005
12
  0
DIMSTYLE
105
1AB3
330
A
100
AcDbSymbolTableRecord
100
AcDbDimStyleTableRecord
  2
AM_ANSI$3
 70
     0
  4
mm
 41
0.12
 42
0.05
 43
0.5
 44
0.1
 47
0.1
 48
0.1
 78
     7
 79
     2
140
0.12
141
0.0
146
0.71
147
0.06
176
   256
177
   256
178
     2
274
     4
284
     7
288
     1
289
     0
340
10
371
    -1
372
    -1
1001
ACAD_DSTYLE_DIMBREAK
1070
   391
1040
0.125
1001
ACAD_DSTYLE_DIMJAG
1070
   388
1040
1.5
1001
ACAD_DSTYLE_DIMARC_LENGTH_SYMBOL
1070
   379
1070
     1
1001
ACAD_DSTYLE_DIM_LINETYPE
1070
   380
1005
12
1001
ACAD_DSTYLE_DIM_EXT1_LINETYPE
1070
   381
1005
12
1001
ACAD_DSTYLE_DIM_EXT2_LINETYPE
1070
   382
1005
12
  0
DIMSTYLE
105
1AB4
330
A
100
AcDbSymbolTableRecord
100
AcDbDimStyleTableRecord
  2
AM_ANSI$4
 70
     0
  4
mm
 41
0.12
 42
0.05
 43
0.5
 44
0.1
 47
0.1
 48
0.1
 78
     7
 79
     2
140
0.12
141
0.0
146
0.71
147
0.06
176
   256
177
   256
178
     2
274
     4
284
     7
288
     1
289
     0
340
10
371
    -1
372
    -1
1001
ACAD_DSTYLE_DIMBREAK
1070
   391
1040
0.125
1001
ACAD_DSTYLE_DIMJAG
1070
   388
1040
1.5
1001
ACAD_DSTYLE_DIMARC_LENGTH_SYMBOL
1070
   379
1070
     1
1001
ACAD_DSTYLE_DIM_LINETYPE
1070
   380
1005
12
1001
ACAD_DSTYLE_DIM_EXT1_LINETYPE
1070
   381
1005
12
1001
ACAD_DSTYLE_DIM_EXT2_LINETYPE
1070
   382
1005
12
  0
DIMSTYLE
105
1AB5
330
A
100
AcDbSymbolTableRecord
100
AcDbDimStyleTableRecord
  2
AM_ANSI$7
 70
     0
  4
mm
 41
0.12
 42
0.05
 43
0.5
 44
0.1
 47
0.1
 48
0.1
 78
     7
 79
     2
140
0.12
141
0.0
146
0.71
147
0.06
176
   256
177
   256
178
     2
274
     4
284
     7
340
10
371
    -1
372
    -1
1001
ACAD_DSTYLE_DIMBREAK
1070
   391
1040
0.125
1001
ACAD_DSTYLE_DIMJAG
1070
   388
1040
1.5
1001
ACAD_DSTYLE_DIMARC_LENGTH_SYMBOL
1070
   379
1070
     1
1001
ACAD_DSTYLE_DIM_LINETYPE
1070
   380
1005
12
1001
ACAD_DSTYLE_DIM_EXT1_LINETYPE
1070
   381
1005
12
1001
ACAD_DSTYLE_DIM_EXT2_LINETYPE
1070
   382
1005
12
  0
DIMSTYLE
105
1AB6
330
A
100
AcDbSymbolTableRecord
100
AcDbDimStyleTableRecord
  2
AM_ANSI$SF
 70
     0
  4
mm
 41
0.12
 42
0.05
 43
0.5
 44
0.1
 47
0.1
 48
0.1
 75
     1
 76
     1
 78
     7
 79
     2
140
0.12
141
0.0
146
0.71
147
0.06
176
   256
177
   256
178
     2
274
     4
284
     7
340
10
371
    -1
372
    -1
1001
ACAD_DSTYLE_DIMBREAK
1070
   391
1040
0.125
1001
ACAD_DSTYLE_DIMJAG
1070
   388
1040
1.5
1001
ACAD_DSTYLE_DIMARC_LENGTH_SYMBOL
1070
   379
1070
     1
1001
ACAD_DSTYLE_DIM_LINETYPE
1070
   380
1005
12
1001
ACAD_DSTYLE_DIM_EXT1_LINETYPE
1070
   381
1005
12
1001
ACAD_DSTYLE_DIM_EXT2_LINETYPE
1070
   382
1005
12
  0
DIMSTYLE
105
1ABB
330
A
100
AcDbSymbolTableRecord
100
AcDbDimStyleTableRecord
  2
AM_ANSI$SH
 70
     0
  4
mm
 41
0.12
 42
0.05
 43
0.5
 44
0.1
 47
0.1
 48
0.1
 75
     1
 76
     1
 78
     7
 79
     2
140
0.12
141
0.0
146
0.71
147
0.06
173
     1
176
   256
177
   256
178
     2
274
     4
284
     7
340
10
343
1AB7
371
    -1
372
    -1
1001
ACAD_DSTYLE_DIMBREAK
1070
   391
1040
0.125
1001
ACAD_DSTYLE_DIMJAG
1070
   388
1040
1.5
1001
ACAD_DSTYLE_DIMARC_LENGTH_SYMBOL
1070
   379
1070
     1
1001
ACAD_DSTYLE_DIM_LINETYPE
1070
   380
1005
12
1001
ACAD_DSTYLE_DIM_EXT1_LINETYPE
1070
   381
1005
12
1001
ACAD_DSTYLE_DIM_EXT2_LINETYPE
1070
   382
1005
12
  0
ENDTAB
  0
TABLE
  2
BLOCK_RECORD
  5
1
330
0
100
AcDbSymbolTable
 70
    10
  0
BLOCK_RECORD
  5
18
102
{ACAD_XDICTIONARY
360
1E87
102
}
330
1
100
AcDbSymbolTableRecord
100
AcDbBlockTableRecord
  2
*MODEL_SPACE
340
303
  0
BLOCK_RECORD
  5
B76
330
1
100
AcDbSymbolTableRecord
100
AcDbBlockTableRecord
  2
*Paper_Space
340
B77
  0
BLOCK_RECORD
  5
1430
330
1
100
AcDbSymbolTableRecord
100
AcDbBlockTableRecord
  2
*D0
340
0
  0
BLOCK_RECORD
  5
143C
330
1
100
AcDbSymbolTableRecord
100
AcDbBlockTableRecord
  2
*D1
340
0
  0
BLOCK_RECORD
  5
1448
330
1
100
AcDbSymbolTableRecord
100
AcDbBlockTableRecord
  2
*D2
340
0
  0
BLOCK_RECORD
  5
1454
330
1
100
AcDbSymbolTableRecord
100
AcDbBlockTableRecord
  2
*D3
340
0
  0
BLOCK_RECORD
  5
1460
330
1
100
AcDbSymbolTableRecord
100
AcDbBlockTableRecord
  2
*D4
340
0
  0
BLOCK_RECORD
  5
1AB7
330
1
100
AcDbSymbolTableRecord
100
AcDbBlockTableRecord
  2
GENAXEH
340
0
  0
BLOCK_RECORD
  5
1AC7
330
1
100
AcDbSymbolTableRecord
100
AcDbBlockTableRecord
  2
_ACMFILLEDHALF
340
0
  0
BLOCK_RECORD
  5
1DF7
330
1
100
AcDbSymbolTableRecord
100
AcDbBlockTableRecord
  2
*D7
340
0
  0
ENDTAB
  0
ENDSEC
  0
SECTION
  2
BLOCKS
  0
BLOCK
  5
32
330
18
100
AcDbEntity
  8
0
100
AcDbBlockBegin
  2
*MODEL_SPACE
 70
     0
 10
0.0
 20
0.0
 30
0.0
  3
*MODEL_SPACE
  1

  0
ENDBLK
  5
33
330
18
100
AcDbEntity
  8
0
100
AcDbBlockEnd
  0
BLOCK
  5
B78
330
B76
100
AcDbEntity
 67
     1
  8
0
100
AcDbBlockBegin
  2
*Paper_Space
 70
     0
 10
0.0
 20
0.0
 30
0.0
  3
*Paper_Space
  1

  0
ENDBLK
  5
B79
330
B76
100
AcDbEntity
 67
     1
  8
0
100
AcDbBlockEnd
  0
BLOCK
  5
1431
330
1430
100
AcDbEntity
  8
0
100
AcDbBlockBegin
  2
*D0
 70
     1
 10
0.0
 20
0.0
 30
0.0
  3
*D0
  1

  0
LINE
  5
2106
330
1430
100
AcDbEntity
  8
2
 62
     0
 48
0.04
370
    -2
100
AcDbLine
 10
254.7267881930584
 20
339.7013758041514
 30
0.0
 11
256.3396714356055
 21
339.7013758041514
 31
0.0
  0
LINE
  5
2107
330
1430
100
AcDbEntity
  8
2
 62
     0
 48
0.04
370
    -2
100
AcDbLine
 10
254.7267881930584
 20
336.7013758041514
 30
0.0
 11
256.3396714356055
 21
336.7013758041514
 31
0.0
  0
LINE
  5
2108
330
1430
100
AcDbEntity
  8
2
 62
     0
 48
0.04
370
    -2
100
AcDbLine
 10
256.1596714356054
 20
339.5213758041514
 30
0.0
 11
256.1596714356054
 21
336.8813758041514
 31
0.0
  0
SOLID
  5
2109
330
1430
100
AcDbEntity
  8
2
 62
     0
 48
0.04
100
AcDbTrace
 10
256.1296714356055
 20
339.5213758041514
 30
0.0
 11
256.1896714356054
 21
339.5213758041514
 31
0.0
 12
256.1596714356054
 22
339.7013758041514
 32
0.0
 13
256.1596714356054
 23
339.7013758041514
 33
0.0
  0
SOLID
  5
210A
330
1430
100
AcDbEntity
  8
2
 62
     0
 48
0.04
100
AcDbTrace
 10
256.1296714356055
 20
336.8813758041514
 30
0.0
 11
256.1896714356054
 21
336.8813758041514
 31
0.0
 12
256.1596714356054
 22
336.7013758041514
 32
0.0
 13
256.1596714356054
 23
336.7013758041514
 33
0.0
  0
MTEXT
  5
210B
330
1430
100
AcDbEntity
  8
2
 62
     0
 48
0.04
100
AcDbMText
 10
255.9963194178543
 20
338.2013758041515
 30
0.0
 40
0.1377952755905512
 41
0.0
 71
     5
 72
     1
  1
\A1;%%c3"
  7
STANDARD 3.5 mm
 11
0.0000000000000001
 21
1.0
 31
0.0
 73
     1
 44
1.0
1001
ACAD
1000
MTEXTBEGIN
1070
    73
1070
     1
1070
    44
1040
1.0
1070
    74
1070
     0
1000
MTEXTEND
  0
POINT
  5
210C
330
1430
100
AcDbEntity
  8
DEFPOINTS
 62
     0
 48
0.04
100
AcDbPoint
 10
254.7267881930584
 20
339.7013758041514
 30
0.0
  0
POINT
  5
210D
330
1430
100
AcDbEntity
  8
DEFPOINTS
 62
     0
 48
0.04
100
AcDbPoint
 10
254.7267881930584
 20
336.7013758041514
 30
0.0
  0
POINT
  5
210E
330
1430
100
AcDbEntity
  8
DEFPOINTS
 62
     0
 48
0.04
100
AcDbPoint
 10
256.1596714356054
 20
336.7013758041514
 30
0.0
  0
ENDBLK
  5
1432
330
1430
100
AcDbEntity
  8
0
100
AcDbBlockEnd
  0
BLOCK
  5
143D
330
143C
100
AcDbEntity
  8
0
100
AcDbBlockBegin
  2
*D1
 70
     1
 10
0.0
 20
0.0
 30
0.0
  3
*D1
  1

  0
LINE
  5
2119
330
143C
100
AcDbEntity
  8
2
 62
     0
 48
0.04
370
    -2
100
AcDbLine
 10
254.9929918967621
 20
338.9583202485959
 30
0.0
 11
254.9929918967621
 21
340.4990803486063
 31
0.0
  0
LINE
  5
211A
330
143C
100
AcDbEntity
  8
2
 62
     0
 48
0.04
370
    -2
100
AcDbLine
 10
254.3679918967621
 20
338.9490609893367
 30
0.0
 11
254.3679918967621
 21
340.4990803486063
 31
0.0
  0
LINE
  5
211B
330
143C
100
AcDbEntity
  8
2
 62
     0
 48
0.04
370
    -2
100
AcDbLine
 10
254.8129918967621
 20
340.3190803486063
 30
0.0
 11
254.5479918967621
 21
340.3190803486063
 31
0.0
  0
LINE
  5
211C
330
143C
100
AcDbEntity
  8
2
 62
     0
 48
0.04
370
    -2
100
AcDbLine
 10
254.3679918967621
 20
340.3190803486063
 30
0.0
 11
253.3421589277103
 21
340.3190803486063
 31
0.0
  0
SOLID
  5
211D
330
143C
100
AcDbEntity
  8
2
 62
     0
 48
0.04
100
AcDbTrace
 10
254.8129918967621
 20
340.3490803486063
 30
0.0
 11
254.8129918967621
 21
340.2890803486063
 31
0.0
 12
254.9929918967621
 22
340.3190803486063
 32
0.0
 13
254.9929918967621
 23
340.3190803486063
 33
0.0
  0
SOLID
  5
211E
330
143C
100
AcDbEntity
  8
2
 62
     0
 48
0.04
100
AcDbTrace
 10
254.5479918967621
 20
340.3490803486063
 30
0.0
 11
254.5479918967621
 21
340.2890803486063
 31
0.0
 12
254.3679918967621
 22
340.3190803486063
 32
0.0
 13
254.3679918967621
 23
340.3190803486063
 33
0.0
  0
MTEXT
  5
211F
330
143C
100
AcDbEntity
  8
2
 62
     0
 48
0.04
100
AcDbMText
 10
253.7650754122362
 20
340.4803988450733
 30
0.0
 40
0.1377952755905512
 41
0.0
 71
     5
 72
     1
  1
0.625"
  7
STANDARD 3.5 mm
 73
     1
 44
1.0
1001
ACAD
1000
MTEXTBEGIN
1070
    73
1070
     1
1070
    44
1040
1.0
1070
    74
1070
     0
1000
MTEXTEND
  0
POINT
  5
2120
330
143C
100
AcDbEntity
  8
DEFPOINTS
 62
     0
 48
0.04
100
AcDbPoint
 10
254.9929918967621
 20
338.9583202485959
 30
0.0
  0
POINT
  5
2121
330
143C
100
AcDbEntity
  8
DEFPOINTS
 62
     0
 48
0.04
100
AcDbPoint
 10
254.3679918967621
 20
338.9490609893367
 30
0.0
  0
POINT
  5
2122
330
143C
100
AcDbEntity
  8
DEFPOINTS
 62
     0
 48
0.04
100
AcDbPoint
 10
254.3679918967621
 20
340.3190803486063
 30
0.0
  0
ENDBLK
  5
143E
330
143C
100
AcDbEntity
  8
0
100
AcDbBlockEnd
  0
BLOCK
  5
1449
330
1448
100
AcDbEntity
  8
0
100
AcDbBlockBegin
  2
*D2
 70
     1
 10
0.0
 20
0.0
 30
0.0
  3
*D2
  1

  0
LINE
  5
1B46
330
1448
100
AcDbEntity
  8
2
 62
     0
 48
0.04
370
    -2
100
AcDbLine
 10
254.9304918967621
 20
339.1990609893367
 30
0.0
 11
254.9304918967621
 21
340.1361017897667
 31
0.0
  0
LINE
  5
1B47
330
1448
100
AcDbEntity
  8
2
 62
     0
 48
0.04
370
    -2
100
AcDbLine
 10
254.4304918967621
 20
339.6851721004477
 30
0.0
 11
254.4304918967621
 21
340.1361017897667
 31
0.0
  0
LINE
  5
1B48
330
1448
100
AcDbEntity
  8
2
 62
     0
 48
0.04
370
    -2
100
AcDbLine
 10
255.1104918967621
 20
339.9561017897667
 30
0.0
 11
255.2904918967621
 21
339.9561017897667
 31
0.0
  0
LINE
  5
1B49
330
1448
100
AcDbEntity
  8
2
 62
     0
 48
0.04
370
    -2
100
AcDbLine
 10
254.2504918967621
 20
339.9561017897667
 30
0.0
 11
253.4634524270823
 21
339.9561017897667
 31
0.0
  0
LINE
  5
1B4A
330
1448
100
AcDbEntity
  8
2
 62
     0
 48
0.04
370
    -2
100
AcDbLine
 10
254.9304918967621
 20
339.9561017897667
 30
0.0
 11
254.4304918967621
 21
339.9561017897667
 31
0.0
  0
SOLID
  5
1B4B
330
1448
100
AcDbEntity
  8
2
 62
     0
 48
0.04
100
AcDbTrace
 10
255.1104918967621
 20
339.9861017897667
 30
0.0
 11
255.1104918967621
 21
339.9261017897667
 31
0.0
 12
254.9304918967621
 22
339.9561017897667
 32
0.0
 13
254.9304918967621
 23
339.9561017897667
 33
0.0
  0
SOLID
  5
1B4C
330
1448
100
AcDbEntity
  8
2
 62
     0
 48
0.04
100
AcDbTrace
 10
254.2504918967621
 20
339.9861017897667
 30
0.0
 11
254.2504918967621
 21
339.9261017897667
 31
0.0
 12
254.4304918967621
 22
339.9561017897667
 32
0.0
 13
254.4304918967621
 23
339.9561017897667
 33
0.0
  0
MTEXT
  5
1B4D
330
1448
100
AcDbEntity
  8
2
 62
     0
 48
0.04
100
AcDbMText
 10
253.7669721619222
 20
340.1174202862336
 30
0.0
 40
0.1377952755905512
 41
0.0
 71
     5
 72
     1
  1
\A1;0.5"
  7
STANDARD 3.5 mm
 73
     1
 44
1.0
1001
ACAD
1000
MTEXTBEGIN
1070
    73
1070
     1
1070
    44
1040
1.0
1070
    74
1070
     0
1000
MTEXTEND
  0
POINT
  5
1B4E
330
1448
100
AcDbEntity
  8
DEFPOINTS
 62
     0
 48
0.04
100
AcDbPoint
 10
254.9304918967621
 20
339.1990609893367
 30
0.0
  0
POINT
  5
1B4F
330
1448
100
AcDbEntity
  8
DEFPOINTS
 62
     0
 48
0.04
100
AcDbPoint
 10
254.4304918967621
 20
339.6851721004477
 30
0.0
  0
POINT
  5
1B50
330
1448
100
AcDbEntity
  8
DEFPOINTS
 62
     0
 48
0.04
100
AcDbPoint
 10
254.4304918967621
 20
339.9561017897667
 30
0.0
  0
ENDBLK
  5
144A
330
1448
100
AcDbEntity
  8
0
100
AcDbBlockEnd
  0
BLOCK
  5
1455
330
1454
100
AcDbEntity
  8
0
100
AcDbBlockBegin
  2
*D3
 70
     1
 10
0.0
 20
0.0
 30
0.0
  3
*D3
  1

  0
LINE
  5
24A6
330
1454
100
AcDbEntity
  8
2
 62
     0
 48
0.04
370
    -2
100
AcDbLine
 10
254.7267881930584
 20
339.7013758041514
 30
0.0
 11
255.7991782874946
 21
339.7013758041514
 31
0.0
  0
LINE
  5
24A7
330
1454
100
AcDbEntity
  8
2
 62
     0
 48
0.04
370
    -2
100
AcDbLine
 10
254.9183276782206
 20
338.9980618425231
 30
0.0
 11
255.7991782874946
 21
338.9980618425231
 31
0.0
  0
LINE
  5
24A8
330
1454
100
AcDbEntity
  8
2
 62
     0
 48
0.04
370
    -2
100
AcDbLine
 10
255.6191782874946
 20
339.1780618425231
 30
0.0
 11
255.6191782874946
 21
339.5213758041514
 31
0.0
  0
LINE
  5
24A9
330
1454
100
AcDbEntity
  8
2
 62
     0
 48
0.04
370
    -2
100
AcDbLine
 10
255.6191782874946
 20
339.7013758041514
 30
0.0
 11
255.6191782874946
 21
340.6078120235172
 31
0.0
  0
SOLID
  5
24AA
330
1454
100
AcDbEntity
  8
2
 62
     0
 48
0.04
100
AcDbTrace
 10
255.5891782874946
 20
339.1780618425231
 30
0.0
 11
255.6491782874946
 21
339.1780618425231
 31
0.0
 12
255.6191782874946
 22
338.9980618425231
 32
0.0
 13
255.6191782874946
 23
338.9980618425231
 33
0.0
  0
SOLID
  5
24AB
330
1454
100
AcDbEntity
  8
2
 62
     0
 48
0.04
100
AcDbTrace
 10
255.5891782874946
 20
339.5213758041514
 30
0.0
 11
255.6491782874946
 21
339.5213758041514
 31
0.0
 12
255.6191782874946
 22
339.7013758041514
 32
0.0
 13
255.6191782874946
 23
339.7013758041514
 33
0.0
  0
MTEXT
  5
24AC
330
1454
100
AcDbEntity
  8
2
 62
     0
 48
0.04
100
AcDbMText
 10
255.4578597910276
 20
340.3042922886773
 30
0.0
 40
0.1377952755905512
 41
0.0
 71
     5
 72
     1
  1
\A1;0.7"
  7
STANDARD 3.5 mm
 11
0.0000000000000001
 21
1.0
 31
0.0
 73
     1
 44
1.0
1001
ACAD
1000
MTEXTBEGIN
1070
    73
1070
     1
1070
    44
1040
1.0
1070
    74
1070
     0
1000
MTEXTEND
  0
POINT
  5
24AD
330
1454
100
AcDbEntity
  8
DEFPOINTS
 62
     0
 48
0.04
100
AcDbPoint
 10
254.7267881930584
 20
339.7013758041514
 30
0.0
  0
POINT
  5
24AE
330
1454
100
AcDbEntity
  8
DEFPOINTS
 62
     0
 48
0.04
100
AcDbPoint
 10
254.9183276782206
 20
338.9980618425231
 30
0.0
  0
POINT
  5
24AF
330
1454
100
AcDbEntity
  8
DEFPOINTS
 62
     0
 48
0.04
100
AcDbPoint
 10
255.6191782874946
 20
338.9980618425231
 30
0.0
  0
ENDBLK
  5
1456
330
1454
100
AcDbEntity
  8
0
100
AcDbBlockEnd
  0
BLOCK
  5
1461
330
1460
100
AcDbEntity
  8
0
100
AcDbBlockBegin
  2
*D4
 70
     1
 10
0.0
 20
0.0
 30
0.0
  3
*D4
  1

  0
LINE
  5
249D
330
1460
100
AcDbEntity
  8
2
 62
     0
 48
0.04
370
    -2
100
AcDbLine
 10
254.9721585634288
 20
338.9768387671144
 30
0.0
 11
255.7991782874945
 21
338.9768387671144
 31
0.0
  0
LINE
  5
249E
330
1460
100
AcDbEntity
  8
2
 62
     0
 48
0.04
370
    -2
100
AcDbLine
 10
254.9721585634288
 20
337.4259128411885
 30
0.0
 11
255.7991782874945
 21
337.4259128411885
 31
0.0
  0
LINE
  5
249F
330
1460
100
AcDbEntity
  8
2
 62
     0
 48
0.04
370
    -2
100
AcDbLine
 10
255.6191782874945
 20
338.7968387671144
 30
0.0
 11
255.6191782874945
 21
337.6059128411885
 31
0.0
  0
SOLID
  5
24A0
330
1460
100
AcDbEntity
  8
2
 62
     0
 48
0.04
100
AcDbTrace
 10
255.5891782874945
 20
338.7968387671144
 30
0.0
 11
255.6491782874945
 21
338.7968387671144
 31
0.0
 12
255.6191782874945
 22
338.9768387671144
 32
0.0
 13
255.6191782874945
 23
338.9768387671144
 33
0.0
  0
SOLID
  5
24A1
330
1460
100
AcDbEntity
  8
2
 62
     0
 48
0.04
100
AcDbTrace
 10
255.5891782874945
 20
337.6059128411885
 30
0.0
 11
255.6491782874945
 21
337.6059128411885
 31
0.0
 12
255.6191782874945
 22
337.4259128411885
 32
0.0
 13
255.6191782874945
 23
337.4259128411885
 33
0.0
  0
MTEXT
  5
24A2
330
1460
100
AcDbEntity
  8
2
 62
     0
 48
0.04
100
AcDbMText
 10
255.4558262697433
 20
338.2013758041515
 30
0.0
 40
0.1377952755905512
 41
0.0
 71
     5
 72
     1
  1
%%c1.55"
  7
STANDARD 3.5 mm
 11
0.0000000000000001
 21
1.0
 31
0.0
 73
     1
 44
1.0
1001
ACAD
1000
MTEXTBEGIN
1070
    73
1070
     1
1070
    44
1040
1.0
1070
    74
1070
     0
1000
MTEXTEND
  0
POINT
  5
24A3
330
1460
100
AcDbEntity
  8
DEFPOINTS
 62
     0
 48
0.04
100
AcDbPoint
 10
254.9721585634288
 20
338.9768387671144
 30
0.0
  0
POINT
  5
24A4
330
1460
100
AcDbEntity
  8
DEFPOINTS
 62
     0
 48
0.04
100
AcDbPoint
 10
254.9721585634288
 20
337.4259128411885
 30
0.0
  0
POINT
  5
24A5
330
1460
100
AcDbEntity
  8
DEFPOINTS
 62
     0
 48
0.04
100
AcDbPoint
 10
255.6191782874945
 20
337.4259128411885
 30
0.0
  0
ENDBLK
  5
1462
330
1460
100
AcDbEntity
  8
0
100
AcDbBlockEnd
  0
BLOCK
  5
1AB9
330
1AB7
100
AcDbEntity
  8
0
100
AcDbBlockBegin
  2
GENAXEH
 70
     0
 10
0.0
 20
0.0
 30
0.0
  3
GENAXEH
  1

  0
LINE
  5
1AB8
330
1AB7
100
AcDbEntity
  8
0
100
AcDbLine
 10
-1.0
 20
0.0
 30
0.0
 11
1.0
 21
0.0
 31
0.0
  0
ENDBLK
  5
1ABA
330
1AB7
100
AcDbEntity
  8
0
100
AcDbBlockEnd
  0
BLOCK
  5
1ACA
330
1AC7
100
AcDbEntity
  8
0
100
AcDbBlockBegin
  2
_ACMFILLEDHALF
 70
     0
 10
0.0
 20
0.0
 30
0.0
  3
_ACMFILLEDHALF
  1

  0
TRACE
  5
1AC8
330
1AC7
100
AcDbEntity
  8
1
 62
     0
100
AcDbTrace
 10
-0.8
 20
0.0
 30
0.0
 11
-1.0
 21
0.166666666
 31
0.0
 12
0.0
 22
0.0
 32
0.0
 13
0.0
 23
0.0
 33
0.0
  0
LINE
  5
1AC9
330
1AC7
100
AcDbEntity
  8
1
 62
     0
100
AcDbLine
 10
-1.0
 20
0.0
 30
0.0
 11
-0.8
 21
0.0
 31
0.0
  0
ENDBLK
  5
1ACB
330
1AC7
100
AcDbEntity
  8
0
100
AcDbBlockEnd
  0
BLOCK
  5
1DF8
330
1DF7
100
AcDbEntity
  8
0
100
AcDbBlockBegin
  2
*D7
 70
     1
 10
0.0
 20
0.0
 30
0.0
  3
*D7
  1

  0
LINE
  5
2007
330
1DF7
100
AcDbEntity
  8
SK2
 62
     0
370
    -2
100
AcDbLine
 10
254.3679918967621
 20
337.7013758041514
 30
0.0
 11
253.8705048576276
 21
337.7013758041514
 31
0.0
  0
LINE
  5
2008
330
1DF7
100
AcDbEntity
  8
SK2
 62
     0
370
    -2
100
AcDbLine
 10
254.3679918967621
 20
338.7013758041515
 30
0.0
 11
253.8705048576276
 21
338.7013758041515
 31
0.0
  0
LINE
  5
2009
330
1DF7
100
AcDbEntity
  8
SK2
 62
     0
370
    -2
100
AcDbLine
 10
254.0505048576277
 20
337.8813758041514
 30
0.0
 11
254.0505048576277
 21
338.5213758041515
 31
0.0
  0
SOLID
  5
200A
330
1DF7
100
AcDbEntity
  8
SK2
 62
     0
100
AcDbTrace
 10
254.0205048576277
 20
337.8813758041514
 30
0.0
 11
254.0805048576276
 21
337.8813758041514
 31
0.0
 12
254.0505048576277
 22
337.7013758041514
 32
0.0
 13
254.0505048576277
 23
337.7013758041514
 33
0.0
  0
SOLID
  5
200B
330
1DF7
100
AcDbEntity
  8
SK2
 62
     0
100
AcDbTrace
 10
254.0205048576277
 20
338.5213758041515
 30
0.0
 11
254.0805048576276
 21
338.5213758041515
 31
0.0
 12
254.0505048576277
 22
338.7013758041515
 32
0.0
 13
254.0505048576277
 23
338.7013758041515
 33
0.0
  0
MTEXT
  5
200C
330
1DF7
100
AcDbEntity
  8
SK2
 62
     0
100
AcDbMText
 10
253.8871528398765
 20
338.2013758041515
 30
0.0
 40
0.1377952755905512
 41
0.0
 71
     5
 72
     1
  1
\A1;%%c1"
  7
STANDARD 3.5 mm
 11
0.0000000000000001
 21
1.0
 31
0.0
 73
     1
 44
1.0
1001
ACAD
1000
MTEXTBEGIN
1070
    73
1070
     1
1070
    44
1040
1.0
1070
    74
1070
     0
1000
MTEXTEND
  0
POINT
  5
200D
330
1DF7
100
AcDbEntity
  8
DEFPOINTS
 62
     0
100
AcDbPoint
 10
254.3679918967621
 20
337.7013758041514
 30
0.0
  0
POINT
  5
200E
330
1DF7
100
AcDbEntity
  8
DEFPOINTS
 62
     0
100
AcDbPoint
 10
254.3679918967621
 20
338.7013758041515
 30
0.0
  0
POINT
  5
200F
330
1DF7
100
AcDbEntity
  8
DEFPOINTS
 62
     0
100
AcDbPoint
 10
254.0505048576277
 20
338.7013758041515
 30
0.0
  0
ENDBLK
  5
1DF9
330
1DF7
100
AcDbEntity
  8
0
100
AcDbBlockEnd
  0
ENDSEC
  0
SECTION
  2
ENTITIES
  0
LWPOLYLINE
  5
11C3
330
18
100
AcDbEntity
  8
1
 48
0.04
100
AcDbPolyline
 90
        2
 70
     0
 43
0.0
 10
254.4304918967621
 20
338.2060054337811
 10
254.4559548597251
 20
338.0092461745218
  0
LWPOLYLINE
  5
11C5
330
18
100
AcDbEntity
  8
1
 48
0.04
100
AcDbPolyline
 90
        2
 70
     0
 43
0.0
 10
254.9281770819473
 20
339.256931359707
 10
254.9046672439843
 20
339.367427598133
  0
LWPOLYLINE
  5
11C6
330
18
100
AcDbEntity
  8
1
 48
0.04
100
AcDbPolyline
 90
        2
 70
     0
 43
0.0
 10
254.9258622671325
 20
337.356468396744
 10
254.9234012534873
 20
337.3761565059059
  0
LWPOLYLINE
  5
11C7
330
18
100
AcDbEntity
  8
1
 48
0.04
100
AcDbPolyline
 90
        2
 70
     0
 43
0.0
 10
254.4582696745399
 20
337.1087832115589
 10
254.4397511560214
 20
337.0833202485959
  0
LWPOLYLINE
  5
11C8
330
18
100
AcDbEntity
  8
1
 48
0.04
100
AcDbPolyline
 90
        2
 70
     0
 43
0.0
 10
254.7383622671325
 20
336.7060054337811
 10
254.7615104152806
 20
336.7337832115589
  0
LWPOLYLINE
  5
11CE
330
18
100
AcDbEntity
  8
1
 48
0.04
100
AcDbPolyline
 90
        2
 70
     0
 43
0.0
 10
254.6179918967621
 20
339.2384128411885
 10
254.5925289337991
 20
339.0763758041515
  0
LWPOLYLINE
  5
11D0
330
18
100
AcDbEntity
  8
1
 48
0.04
100
AcDbPolyline
 90
        2
 70
     0
 43
0.0
 10
254.9050289337992
 20
337.0370239522996
 10
254.9304918967621
 20
337.1550795078551
  0
LWPOLYLINE
  5
11D2
330
18
100
AcDbEntity
  8
1
 48
0.04
100
AcDbPolyline
 90
        2
 70
     0
 43
0.0
 10
254.6133622671324
 20
337.7360980263737
 10
254.9027141189843
 20
337.7499869152627
  0
LWPOLYLINE
  5
11D3
330
18
100
AcDbEntity
  8
1
 48
0.04
100
AcDbPolyline
 90
        2
 70
     0
 43
0.0
 10
254.4582696745399
 20
337.7268387671144
 10
254.5485474523176
 20
337.7314683967441
  0
LWPOLYLINE
  5
11D5
330
18
100
AcDbEntity
  8
1
 48
0.04
100
AcDbPolyline
 90
        2
 70
     0
 43
0.0
 10
254.9721585634288
 20
338.9768387671144
 10
254.9420659708362
 20
338.9768387671144
  0
LWPOLYLINE
  5
11D6
330
18
100
AcDbEntity
  8
1
 48
0.04
100
AcDbPolyline
 90
        2
 70
     0
 43
0.0
 10
254.3888252300955
 20
337.4259128411885
 10
254.418917822688
 20
337.4259128411885
  0
LWPOLYLINE
  5
11D7
330
18
100
AcDbEntity
  8
1
 48
0.04
100
AcDbPolyline
 90
        2
 70
     0
 43
0.0
 10
254.418917822688
 20
338.9768387671144
 10
254.3888252300955
 20
338.9768387671144
  0
LWPOLYLINE
  5
11D8
330
18
100
AcDbEntity
  8
1
 48
0.04
100
AcDbPolyline
 90
        2
 70
     0
 43
0.0
 10
254.3703067115769
 20
338.9583202485959
 10
254.3679918967621
 20
338.9490609893367
  0
LWPOLYLINE
  5
11D9
330
18
100
AcDbEntity
  8
1
 48
0.04
100
AcDbPolyline
 90
        2
 70
     0
 43
0.0
 10
254.3679918967621
 20
337.4536906189663
 10
254.3703067115769
 20
337.444431359707
  0
LWPOLYLINE
  5
11E0
330
18
100
AcDbEntity
  8
1
 48
0.04
100
AcDbPolyline
 90
        2
 70
     0
 43
0.0
 10
254.6480844893547
 20
338.2198943226701
 10
254.6480844893547
 20
338.2175795078552
  0
LWPOLYLINE
  5
11E4
330
18
100
AcDbEntity
  8
1
 48
0.04
100
AcDbPolyline
 90
        2
 70
     0
 43
0.0
 10
254.7638252300954
 20
339.6643387671144
 10
254.7406770819473
 20
339.694431359707
  0
LWPOLYLINE
  5
11E5
330
18
100
AcDbEntity
  8
1
 48
0.04
100
AcDbPolyline
 90
        2
 70
     0
 43
0.0
 10
254.4397511560214
 20
339.319431359707
 10
254.4582696745399
 20
339.2939683967441
  0
LWPOLYLINE
  5
11E8
330
18
100
AcDbEntity
  8
1
 48
0.04
100
AcDbPolyline
 90
        2
 70
     0
 43
0.0
 10
254.7777141189843
 20
337.2661906189663
 10
254.7777141189843
 20
337.2638758041514
  0
LWPOLYLINE
  5
11F9
330
18
100
AcDbEntity
  8
1
 48
0.04
100
AcDbPolyline
 90
        2
 70
     0
 43
0.0
 10
254.4582696745399
 20
337.0879498782255
 10
254.4536400449103
 20
337.0879498782255
  0
LWPOLYLINE
  5
11FA
330
18
100
AcDbEntity
  8
1
 48
0.04
100
AcDbPolyline
 90
        3
 70
     0
 43
0.0
 10
254.4536400449103
 20
337.0879498782255
 10
254.4420659708362
 20
337.0833202485959
 10
254.4374363412065
 20
337.0740609893366
  0
LWPOLYLINE
  5
11FB
330
18
100
AcDbEntity
  8
1
 48
0.04
100
AcDbPolyline
 90
        2
 70
     0
 43
0.0
 10
254.4374363412065
 20
337.0740609893366
 10
254.4351215263917
 20
337.0161906189663
  0
LWPOLYLINE
  5
11FC
330
18
100
AcDbEntity
  8
1
 48
0.04
100
AcDbPolyline
 90
        2
 70
     0
 43
0.0
 10
254.4582696745399
 20
336.9930424708181
 10
254.4351215263917
 20
337.0161906189663
  0
LWPOLYLINE
  5
11FD
330
18
100
AcDbEntity
  8
1
 48
0.04
100
AcDbPolyline
 90
        2
 70
     0
 43
0.0
 10
254.4582696745399
 20
336.9930424708181
 10
254.4536400449103
 20
336.7985980263737
  0
LWPOLYLINE
  5
11FE
330
18
100
AcDbEntity
  8
1
 48
0.04
100
AcDbPolyline
 90
        2
 70
     0
 43
0.0
 10
254.4536400449103
 20
336.7985980263737
 10
254.4304918967621
 20
336.7754498782255
  0
LWPOLYLINE
  5
11FF
330
18
100
AcDbEntity
  8
1
 48
0.04
100
AcDbPolyline
 90
        2
 70
     0
 43
0.0
 10
254.4304918967621
 20
336.7175795078551
 10
254.4304918967621
 20
336.7754498782255
  0
LWPOLYLINE
  5
1200
330
18
100
AcDbEntity
  8
1
 48
0.04
100
AcDbPolyline
 90
        3
 70
     0
 43
0.0
 10
254.4304918967621
 20
336.7175795078551
 10
254.4351215263917
 20
336.7060054337811
 10
254.4466956004658
 20
336.7013758041514
  0
LWPOLYLINE
  5
1201
330
18
100
AcDbEntity
  8
1
 48
0.04
100
AcDbPolyline
 90
        2
 70
     0
 43
0.0
 10
254.7267881930584
 20
336.7013758041514
 10
254.4466956004658
 20
336.7013758041514
  0
LWPOLYLINE
  5
1202
330
18
100
AcDbEntity
  8
1
 48
0.04
100
AcDbPolyline
 90
        3
 70
     0
 43
0.0
 10
254.7267881930584
 20
336.7013758041514
 10
254.7383622671325
 20
336.7060054337811
 10
254.7429918967621
 20
336.7152646930403
  0
LWPOLYLINE
  5
1203
330
18
100
AcDbEntity
  8
1
 48
0.04
100
AcDbPolyline
 90
        2
 70
     0
 43
0.0
 10
254.7476215263916
 20
336.8935054337811
 10
254.7429918967621
 20
336.7152646930403
  0
LWPOLYLINE
  5
1204
330
18
100
AcDbEntity
  8
1
 48
0.04
100
AcDbPolyline
 90
        2
 70
     0
 43
0.0
 10
254.7476215263916
 20
336.8935054337811
 10
254.7499811934784
 20
336.9289004400823
  0
LWPOLYLINE
  5
1205
330
18
100
AcDbEntity
  8
1
 48
0.04
100
AcDbPolyline
 90
       13
 70
     0
 43
0.0
 10
254.5091956004658
 20
336.8935054337811
 10
254.5115104152806
 20
336.8657276560033
 10
254.5253993041695
 20
336.8402646930404
 10
254.543917822688
 20
336.819431359707
 10
254.569380785651
 20
336.8032276560033
 10
254.5971585634287
 20
336.7962832115589
 10
254.6249363412065
 20
336.7962832115589
 10
254.6527141189844
 20
336.8055424708181
 10
254.6781770819473
 20
336.8217461745218
 10
254.6966956004658
 20
336.84489432267
 10
254.7059548597251
 20
336.8726721004478
 10
254.7105844893547
 20
336.9004498782255
 10
254.7033892390423
 20
336.9292308794754
  0
LWPOLYLINE
  5
1206
330
18
100
AcDbEntity
  8
1
 48
0.04
100
AcDbPolyline
 90
        3
 70
     0
 43
0.0
 10
254.5161400449102
 20
336.9305424708181
 10
254.5115104152806
 20
336.9143387671144
 10
254.5091956004658
 20
336.8935054337811
  0
LWPOLYLINE
  5
1207
330
18
100
AcDbEntity
  8
1
 48
0.04
100
AcDbPolyline
 90
        2
 70
     0
 43
0.0
 10
254.4304918967621
 20
336.7754498782255
 10
254.4466956004658
 20
336.819431359707
  0
LWPOLYLINE
  5
1208
330
18
100
AcDbEntity
  8
1
 48
0.04
100
AcDbPolyline
 90
        2
 70
     0
 43
0.0
 10
254.4466956004658
 20
336.819431359707
 10
254.4466956004658
 20
336.9166535819291
  0
LWPOLYLINE
  5
1209
330
18
100
AcDbEntity
  8
1
 48
0.04
100
AcDbPolyline
 90
        2
 70
     0
 43
0.0
 10
254.4490729778432
 20
337.0022391675149
 10
254.4466956004658
 20
336.9166535819291
  0
LWPOLYLINE
  5
120A
330
18
100
AcDbEntity
  8
1
 48
0.04
100
AcDbPolyline
 90
        2
 70
     0
 43
0.0
 10
254.4582696745399
 20
337.0972091374848
 10
254.4536400449103
 20
337.0879498782255
  0
LWPOLYLINE
  5
1217
330
18
100
AcDbEntity
  8
1
 48
0.04
100
AcDbPolyline
 90
        2
 70
     0
 43
0.0
 10
254.4536400449103
 20
336.7985980263737
 10
254.4466956004658
 20
336.819431359707
  0
LWPOLYLINE
  5
1219
330
18
100
AcDbEntity
  8
1
 48
0.04
100
AcDbPolyline
 90
        2
 70
     0
 43
0.0
 10
254.9275849200179
 20
339.1961540125923
 10
254.9304918967621
 20
339.1990609893367
  0
LWPOLYLINE
  5
121E
330
18
100
AcDbEntity
  8
1
 48
0.04
100
AcDbPolyline
 90
        2
 70
     0
 43
0.0
 10
254.928755785651
 20
339.2563526560032
 10
254.907343748614
 20
339.3634128411885
  0
LWPOLYLINE
  5
121F
330
18
100
AcDbEntity
  8
1
 48
0.04
100
AcDbPolyline
 90
        2
 70
     0
 43
0.0
 10
254.9071678797266
 20
339.3556746101442
 10
254.9050184870982
 20
339.2611013344957
  0
LWPOLYLINE
  5
1220
330
18
100
AcDbEntity
  8
1
 48
0.04
100
AcDbPolyline
 90
        2
 70
     0
 43
0.0
 10
254.9304918967621
 20
339.1990609893367
 10
254.9286262251203
 20
339.2046580042621
  0
LWPOLYLINE
  5
1221
330
18
100
AcDbEntity
  8
1
 48
0.04
100
AcDbPolyline
 90
        2
 70
     0
 43
0.0
 10
254.907343748614
 20
339.3634128411885
 10
254.9027141189843
 20
339.370357285633
  0
LWPOLYLINE
  5
1222
330
18
100
AcDbEntity
  8
1
 48
0.04
100
AcDbPolyline
 90
        2
 70
     0
 43
0.0
 10
254.6341956004658
 20
337.1249869152626
 10
254.9142881930584
 20
337.1411906189663
  0
LWPOLYLINE
  5
1223
330
18
100
AcDbEntity
  8
1
 48
0.04
100
AcDbPolyline
 90
        3
 70
     0
 43
0.0
 10
254.9142881930584
 20
337.1411906189663
 10
254.9258622671325
 20
337.1458202485959
 10
254.9304918967621
 20
337.1550795078551
  0
LWPOLYLINE
  5
1224
330
18
100
AcDbEntity
  8
1
 48
0.04
100
AcDbPolyline
 90
        2
 70
     0
 43
0.0
 10
254.9304918967621
 20
337.1550795078551
 10
254.9304918967621
 20
337.2036906189663
  0
LWPOLYLINE
  5
1225
330
18
100
AcDbEntity
  8
1
 48
0.04
100
AcDbPolyline
 90
        2
 70
     0
 43
0.0
 10
254.907343748614
 20
337.21989432267
 10
254.9304918967621
 20
337.2036906189663
  0
LWPOLYLINE
  5
1226
330
18
100
AcDbEntity
  8
1
 48
0.04
100
AcDbPolyline
 90
        2
 70
     0
 43
0.0
 10
254.907343748614
 20
337.21989432267
 10
254.9050289337992
 20
337.381931359707
  0
LWPOLYLINE
  5
1227
330
18
100
AcDbEntity
  8
1
 48
0.04
100
AcDbPolyline
 90
        2
 70
     0
 43
0.0
 10
254.9050289337992
 20
337.381931359707
 10
254.9281770819473
 20
337.4027646930404
  0
LWPOLYLINE
  5
1228
330
18
100
AcDbEntity
  8
1
 48
0.04
100
AcDbPolyline
 90
        2
 70
     0
 43
0.0
 10
254.9258622671325
 20
337.4513758041514
 10
254.9281770819473
 20
337.4027646930404
  0
LWPOLYLINE
  5
1229
330
18
100
AcDbEntity
  8
1
 48
0.04
100
AcDbPolyline
 90
        3
 70
     0
 43
0.0
 10
254.9258622671325
 20
337.4513758041514
 10
254.9212326375029
 20
337.4606350634107
 10
254.9096585634288
 20
337.4629498782255
  0
LWPOLYLINE
  5
122A
330
18
100
AcDbEntity
  8
1
 48
0.04
100
AcDbPolyline
 90
        2
 70
     0
 43
0.0
 10
254.6295659708362
 20
337.4490609893367
 10
254.9096585634288
 20
337.4629498782255
  0
LWPOLYLINE
  5
122B
330
18
100
AcDbEntity
  8
1
 48
0.04
100
AcDbPolyline
 90
        3
 70
     0
 43
0.0
 10
254.6295659708362
 20
337.4490609893367
 10
254.6179918967621
 20
337.444431359707
 10
254.6133622671324
 20
337.4351721004477
  0
LWPOLYLINE
  5
122C
330
18
100
AcDbEntity
  8
1
 48
0.04
100
AcDbPolyline
 90
        2
 70
     0
 43
0.0
 10
254.6133622671324
 20
337.2870239522996
 10
254.6133622671324
 20
337.4351721004477
  0
LWPOLYLINE
  5
122D
330
18
100
AcDbEntity
  8
1
 48
0.04
100
AcDbPolyline
 90
        2
 70
     0
 43
0.0
 10
254.6133622671324
 20
337.2870239522996
 10
254.6179918967621
 20
337.1388758041514
  0
LWPOLYLINE
  5
122E
330
18
100
AcDbEntity
  8
1
 48
0.04
100
AcDbPolyline
 90
        3
 70
     0
 43
0.0
 10
254.6179918967621
 20
337.1388758041514
 10
254.6226215263917
 20
337.1296165448922
 10
254.6341956004658
 20
337.1249869152626
  0
LWPOLYLINE
  5
122F
330
18
100
AcDbEntity
  8
1
 48
0.04
100
AcDbPolyline
 90
       23
 70
     0
 43
0.0
 10
254.6527141189844
 20
337.2939683967441
 10
254.6550289337992
 20
337.2708202485959
 10
254.6666030078732
 20
337.2476721004478
 10
254.6828067115769
 20
337.2314683967441
 10
254.7059548597251
 20
337.2175795078551
 10
254.7337326375028
 20
337.2106350634108
 10
254.7615104152806
 20
337.2106350634108
 10
254.7892881930584
 20
337.2175795078551
 10
254.8147511560214
 20
337.2314683967441
 10
254.8355844893547
 20
337.2476721004478
 10
254.8471585634288
 20
337.2708202485959
 10
254.8541030078732
 20
337.2939683967441
 10
254.8517881930584
 20
337.3171165448922
 10
254.8402141189843
 20
337.3379498782255
 10
254.8216956004658
 20
337.356468396744
 10
254.7985474523176
 20
337.3680424708181
 10
254.7730844893547
 20
337.3749869152626
 10
254.7429918967621
 20
337.3749869152626
 10
254.7152141189843
 20
337.3680424708181
 10
254.6897511560214
 20
337.356468396744
 10
254.6712326375029
 20
337.3379498782255
 10
254.657343748614
 20
337.3171165448922
 10
254.6527141189844
 20
337.2939683967441
  0
LWPOLYLINE
  5
1230
330
18
100
AcDbEntity
  8
1
 48
0.04
100
AcDbPolyline
 90
        2
 70
     0
 43
0.0
 10
254.9281770819473
 20
337.4027646930404
 10
254.9119733782436
 20
337.3124869152626
  0
LWPOLYLINE
  5
1231
330
18
100
AcDbEntity
  8
1
 48
0.04
100
AcDbPolyline
 90
        2
 70
     0
 43
0.0
 10
254.9119733782436
 20
337.3124869152626
 10
254.9142881930584
 20
337.2291535819292
  0
LWPOLYLINE
  5
1232
330
18
100
AcDbEntity
  8
1
 48
0.04
100
AcDbPolyline
 90
        2
 70
     0
 43
0.0
 10
254.9142881930584
 20
337.2150332115589
 10
254.9142881930584
 20
337.2291535819292
  0
LWPOLYLINE
  5
1233
330
18
100
AcDbEntity
  8
1
 48
0.04
100
AcDbPolyline
 90
        2
 70
     0
 43
0.0
 10
254.6087326375028
 20
337.0115609893367
 10
254.8911400449103
 20
337.0254498782255
  0
LWPOLYLINE
  5
1234
330
18
100
AcDbEntity
  8
1
 48
0.04
100
AcDbPolyline
 90
        2
 70
     0
 43
0.0
 10
254.8911400449103
 20
337.0254498782255
 10
254.9142881930584
 20
337.1411906189663
  0
LWPOLYLINE
  5
1235
330
18
100
AcDbEntity
  8
1
 48
0.04
100
AcDbPolyline
 90
        2
 70
     0
 43
0.0
 10
254.6341956004658
 20
337.1249869152626
 10
254.6087326375028
 20
337.0115609893367
  0
LWPOLYLINE
  5
1237
330
18
100
AcDbEntity
  8
1
 48
0.04
100
AcDbPolyline
 90
        2
 70
     0
 43
0.0
 10
254.5925289337991
 20
337.0231350634107
 10
254.6179918967621
 20
337.1388758041514
  0
LWPOLYLINE
  5
123B
330
18
100
AcDbEntity
  8
1
 48
0.04
100
AcDbPolyline
 90
        2
 70
     0
 43
0.0
 10
254.6133622671324
 20
337.4351721004477
 10
254.5971585634287
 20
337.3587832115589
  0
LWPOLYLINE
  5
123E
330
18
100
AcDbEntity
  8
1
 48
0.04
100
AcDbPolyline
 90
        3
 70
     0
 43
0.0
 10
254.9050289337992
 20
337.0370239522996
 10
254.9003993041695
 20
337.0300795078551
 10
254.8911400449103
 20
337.0254498782255
  0
LWPOLYLINE
  5
123F
330
18
100
AcDbEntity
  8
1
 48
0.04
100
AcDbPolyline
 90
        3
 70
     0
 43
0.0
 10
254.6087326375028
 20
337.0115609893367
 10
254.5994733782436
 20
337.0138758041514
 10
254.5925289337991
 20
337.0231350634107
  0
LWPOLYLINE
  5
124B
330
18
100
AcDbEntity
  8
1
 48
0.04
100
AcDbPolyline
 90
        2
 70
     0
 43
0.0
 10
254.9050289337992
 20
337.381931359707
 10
254.9119733782436
 20
337.3124869152626
  0
LWPOLYLINE
  5
124C
330
18
100
AcDbEntity
  8
1
 48
0.04
100
AcDbPolyline
 90
        2
 70
     0
 43
0.0
 10
254.6341956004658
 20
339.2476721004478
 10
254.9142881930584
 20
339.2615609893367
  0
LWPOLYLINE
  5
124D
330
18
100
AcDbEntity
  8
1
 48
0.04
100
AcDbPolyline
 90
        3
 70
     0
 43
0.0
 10
254.9142881930584
 20
339.2615609893367
 10
254.9258622671325
 20
339.2592461745218
 10
254.9304918967621
 20
339.2546165448922
  0
LWPOLYLINE
  5
124F
330
18
100
AcDbEntity
  8
1
 48
0.04
100
AcDbPolyline
 90
        2
 70
     0
 43
0.0
 10
254.9157731686
 20
339.0848925756399
 10
254.9281770819473
 20
339.0786906189664
  0
LWPOLYLINE
  5
1250
330
18
100
AcDbEntity
  8
1
 48
0.04
100
AcDbPolyline
 90
        2
 70
     0
 43
0.0
 10
254.9258622671325
 20
339.0462832115589
 10
254.9281770819473
 20
339.0786906189664
  0
LWPOLYLINE
  5
1251
330
18
100
AcDbEntity
  8
1
 48
0.04
100
AcDbPolyline
 90
        3
 70
     0
 43
0.0
 10
254.6179918967621
 20
339.2384128411885
 10
254.6226215263917
 20
339.245357285633
 10
254.6341956004658
 20
339.2476721004478
  0
LWPOLYLINE
  5
1252
330
18
100
AcDbEntity
  8
1
 48
0.04
100
AcDbPolyline
 90
        2
 70
     0
 43
0.0
 10
254.9027141189843
 20
338.9351721004477
 10
254.9050289337992
 20
338.9860980263737
  0
LWPOLYLINE
  5
1253
330
18
100
AcDbEntity
  8
1
 48
0.04
100
AcDbPolyline
 90
        2
 70
     0
 43
0.0
 10
254.9027141189843
 20
338.8981350634107
 10
254.9258622671325
 20
339.0462832115589
  0
LWPOLYLINE
  5
1254
330
18
100
AcDbEntity
  8
1
 48
0.04
100
AcDbPolyline
 90
        2
 70
     0
 43
0.0
 10
254.9281770819473
 20
339.0786906189664
 10
254.9119733782436
 20
338.9930424708181
  0
LWPOLYLINE
  5
1255
330
18
100
AcDbEntity
  8
1
 48
0.04
100
AcDbPolyline
 90
        2
 70
     0
 43
0.0
 10
254.9119733782436
 20
338.9930424708181
 10
254.9142881930584
 20
339.0462832115589
  0
LWPOLYLINE
  5
1256
330
18
100
AcDbEntity
  8
1
 48
0.04
100
AcDbPolyline
 90
        2
 70
     0
 43
0.0
 10
254.9050289337992
 20
338.9860980263737
 10
254.9142881930584
 20
339.0462832115589
  0
LWPOLYLINE
  5
1257
330
18
100
AcDbEntity
  8
1
 48
0.04
100
AcDbPolyline
 90
        2
 70
     0
 43
0.0
 10
254.9304918967621
 20
339.2546165448922
 10
254.907343748614
 20
339.0902646930403
  0
LWPOLYLINE
  5
1258
330
18
100
AcDbEntity
  8
1
 48
0.04
100
AcDbPolyline
 90
        2
 70
     0
 43
0.0
 10
254.907343748614
 20
339.0902646930403
 10
254.9050289337992
 20
338.9860980263737
  0
LWPOLYLINE
  5
1259
330
18
100
AcDbEntity
  8
1
 48
0.04
100
AcDbPolyline
 90
        2
 70
     0
 43
0.0
 10
254.9166030078732
 20
339.106468396744
 10
254.9142881930584
 20
339.0462832115589
  0
LWPOLYLINE
  5
125A
330
18
100
AcDbEntity
  8
1
 48
0.04
100
AcDbPolyline
 90
        2
 70
     0
 43
0.0
 10
254.9304918967621
 20
339.21989432267
 10
254.9166030078732
 20
339.106468396744
  0
LWPOLYLINE
  5
125B
330
18
100
AcDbEntity
  8
1
 48
0.04
100
AcDbPolyline
 90
        2
 70
     0
 43
0.0
 10
254.6087326375028
 20
339.0856350634107
 10
254.8911400449103
 20
339.0995239522996
  0
LWPOLYLINE
  5
125C
330
18
100
AcDbEntity
  8
1
 48
0.04
100
AcDbPolyline
 90
        2
 70
     0
 43
0.0
 10
254.8911400449103
 20
339.0995239522996
 10
254.9142881930584
 20
339.2615609893367
  0
LWPOLYLINE
  5
125D
330
18
100
AcDbEntity
  8
1
 48
0.04
100
AcDbPolyline
 90
        2
 70
     0
 43
0.0
 10
254.6341956004658
 20
339.2476721004478
 10
254.6087326375028
 20
339.0856350634107
  0
LWPOLYLINE
  5
125E
330
18
100
AcDbEntity
  8
1
 48
0.04
100
AcDbPolyline
 90
        2
 70
     0
 43
0.0
 10
254.5925289337991
 20
339.0610980263736
 10
254.5925289337991
 20
339.0763758041515
  0
LWPOLYLINE
  5
125F
330
18
100
AcDbEntity
  8
1
 48
0.04
100
AcDbPolyline
 90
        3
 70
     0
 43
0.0
 10
254.907343748614
 20
339.0902646930403
 10
254.9027141189843
 20
339.0972091374848
 10
254.8911400449103
 20
339.0995239522996
  0
LWPOLYLINE
  5
1260
330
18
100
AcDbEntity
  8
1
 48
0.04
100
AcDbPolyline
 90
        3
 70
     0
 43
0.0
 10
254.6087326375028
 20
339.0856350634107
 10
254.5994733782436
 20
339.0833202485959
 10
254.5925289337991
 20
339.0763758041515
  0
LWPOLYLINE
  5
1261
330
18
100
AcDbEntity
  8
1
 48
0.04
100
AcDbPolyline
 90
        2
 70
     0
 43
0.0
 10
254.7337326375028
 20
338.2499869152626
 10
254.4536400449103
 20
338.2685054337811
  0
LWPOLYLINE
  5
1262
330
18
100
AcDbEntity
  8
1
 48
0.04
100
AcDbPolyline
 90
        2
 70
     0
 43
0.0
 10
254.4536400449103
 20
338.2685054337811
 10
254.4374363412065
 20
338.2685054337811
  0
LWPOLYLINE
  5
1263
330
18
100
AcDbEntity
  8
1
 48
0.04
100
AcDbPolyline
 90
        2
 70
     0
 43
0.0
 10
254.4374363412065
 20
338.2685054337811
 10
254.4351215263917
 20
338.256931359707
  0
LWPOLYLINE
  5
1264
330
18
100
AcDbEntity
  8
1
 48
0.04
100
AcDbPolyline
 90
        2
 70
     0
 43
0.0
 10
254.4582696745399
 20
338.2523017300774
 10
254.4351215263917
 20
338.256931359707
  0
LWPOLYLINE
  5
1265
330
18
100
AcDbEntity
  8
1
 48
0.04
100
AcDbPolyline
 90
        2
 70
     0
 43
0.0
 10
254.4582696745399
 20
338.2523017300774
 10
254.4536400449103
 20
338.2175795078552
  0
LWPOLYLINE
  5
1266
330
18
100
AcDbEntity
  8
1
 48
0.04
100
AcDbPolyline
 90
        2
 70
     0
 43
0.0
 10
254.4536400449103
 20
338.2175795078552
 10
254.4304918967621
 20
338.2152646930403
  0
LWPOLYLINE
  5
1267
330
18
100
AcDbEntity
  8
1
 48
0.04
100
AcDbPolyline
 90
        2
 70
     0
 43
0.0
 10
254.4304918967621
 20
338.2060054337811
 10
254.4304918967621
 20
338.2152646930403
  0
LWPOLYLINE
  5
1268
330
18
100
AcDbEntity
  8
1
 48
0.04
100
AcDbPolyline
 90
        3
 70
     0
 43
0.0
 10
254.4304918967621
 20
338.2060054337811
 10
254.4351215263917
 20
338.2036906189664
 10
254.4466956004658
 20
338.2013758041515
  0
LWPOLYLINE
  5
1269
330
18
100
AcDbEntity
  8
1
 48
0.04
100
AcDbPolyline
 90
        2
 70
     0
 43
0.0
 10
254.7267881930584
 20
338.1805424708181
 10
254.4466956004658
 20
338.2013758041515
  0
LWPOLYLINE
  5
126A
330
18
100
AcDbEntity
  8
1
 48
0.04
100
AcDbPolyline
 90
        3
 70
     0
 43
0.0
 10
254.7267881930584
 20
338.1805424708181
 10
254.7383622671325
 20
338.1805424708181
 10
254.7429918967621
 20
338.1828572856329
  0
LWPOLYLINE
  5
126B
330
18
100
AcDbEntity
  8
1
 48
0.04
100
AcDbPolyline
 90
        2
 70
     0
 43
0.0
 10
254.7476215263916
 20
338.2152646930403
 10
254.7429918967621
 20
338.1828572856329
  0
LWPOLYLINE
  5
126C
330
18
100
AcDbEntity
  8
1
 48
0.04
100
AcDbPolyline
 90
        2
 70
     0
 43
0.0
 10
254.7476215263916
 20
338.2152646930403
 10
254.7499363412065
 20
338.245357285633
  0
LWPOLYLINE
  5
126D
330
18
100
AcDbEntity
  8
1
 48
0.04
100
AcDbPolyline
 90
        3
 70
     0
 43
0.0
 10
254.7499363412065
 20
338.245357285633
 10
254.7453067115769
 20
338.2476721004477
 10
254.7337326375028
 20
338.2499869152626
  0
LWPOLYLINE
  5
126E
330
18
100
AcDbEntity
  8
1
 48
0.04
100
AcDbPolyline
 90
       21
 70
     0
 43
0.0
 10
254.7105844893547
 20
338.2175795078552
 10
254.7059548597251
 20
338.2222091374848
 10
254.694380785651
 20
338.2268387671144
 10
254.6758622671325
 20
338.231468396744
 10
254.6527141189844
 20
338.2360980263737
 10
254.6249363412065
 20
338.2407276560033
 10
254.5971585634287
 20
338.2430424708181
 10
254.569380785651
 20
338.2430424708181
 10
254.543917822688
 20
338.2407276560033
 10
254.5253993041695
 20
338.2384128411885
 10
254.5138252300954
 20
338.2360980263737
 10
254.5091956004658
 20
338.231468396744
 10
254.5115104152806
 20
338.2268387671144
 10
254.5230844893547
 20
338.2198943226701
 10
254.5416030078732
 20
338.2152646930403
 10
254.5670659708362
 20
338.2106350634107
 10
254.6226215263917
 20
338.2060054337811
 10
254.6735474523177
 20
338.2060054337811
 10
254.694380785651
 20
338.2083202485959
 10
254.7059548597251
 20
338.2129498782255
 10
254.7105844893547
 20
338.2175795078552
  0
LWPOLYLINE
  5
126F
330
18
100
AcDbEntity
  8
1
 48
0.04
100
AcDbPolyline
 90
        2
 70
     0
 43
0.0
 10
254.4351215263917
 20
338.256931359707
 10
254.4396494059197
 20
338.2161804439561
  0
LWPOLYLINE
  5
1270
330
18
100
AcDbEntity
  8
1
 48
0.04
100
AcDbPolyline
 90
        2
 70
     0
 43
0.0
 10
254.7591956004658
 20
338.1666535819292
 10
254.7499363412065
 20
338.245357285633
  0
LWPOLYLINE
  5
1271
330
18
100
AcDbEntity
  8
1
 48
0.04
100
AcDbPolyline
 90
        2
 70
     0
 43
0.0
 10
254.756880785651
 20
338.1458202485959
 10
254.7476215263916
 20
338.2152646930403
  0
LWPOLYLINE
  5
1272
330
18
100
AcDbEntity
  8
1
 48
0.04
100
AcDbPolyline
 90
        2
 70
     0
 43
0.0
 10
254.7429918967621
 20
338.1828572856329
 10
254.7684548597251
 20
337.9860980263737
  0
LWPOLYLINE
  5
1273
330
18
100
AcDbEntity
  8
1
 48
0.04
100
AcDbPolyline
 90
        2
 70
     0
 43
0.0
 10
254.7707696745399
 20
337.9976721004477
 10
254.7684548597251
 20
337.9860980263737
  0
LWPOLYLINE
  5
1274
330
18
100
AcDbEntity
  8
1
 48
0.04
100
AcDbPolyline
 90
        2
 70
     0
 43
0.0
 10
254.7707696745399
 20
337.9976721004477
 10
254.7545659708362
 20
338.120357285633
  0
LWPOLYLINE
  5
1275
330
18
100
AcDbEntity
  8
1
 48
0.04
100
AcDbPolyline
 90
        2
 70
     0
 43
0.0
 10
254.7545659708362
 20
338.120357285633
 10
254.756880785651
 20
338.1296165448922
  0
LWPOLYLINE
  5
1276
330
18
100
AcDbEntity
  8
1
 48
0.04
100
AcDbPolyline
 90
        2
 70
     0
 43
0.0
 10
254.4466956004658
 20
338.2013758041515
 10
254.4721585634288
 20
338.0046165448922
  0
LWPOLYLINE
  5
1277
330
18
100
AcDbEntity
  8
1
 48
0.04
100
AcDbPolyline
 90
        2
 70
     0
 43
0.0
 10
254.7522511560214
 20
337.9860980263737
 10
254.4721585634288
 20
338.0046165448922
  0
LWPOLYLINE
  5
1278
330
18
100
AcDbEntity
  8
1
 48
0.04
100
AcDbPolyline
 90
        2
 70
     0
 43
0.0
 10
254.7522511560214
 20
337.9860980263737
 10
254.7267881930584
 20
338.1805424708181
  0
LWPOLYLINE
  5
1279
330
18
100
AcDbEntity
  8
1
 48
0.04
100
AcDbPolyline
 90
        2
 70
     0
 43
0.0
 10
254.7684548597251
 20
337.9860980263737
 10
254.7522511560214
 20
337.9860980263737
  0
LWPOLYLINE
  5
127A
330
18
100
AcDbEntity
  8
1
 48
0.04
100
AcDbPolyline
 90
        3
 70
     0
 43
0.0
 10
254.4721585634288
 20
338.0046165448922
 10
254.4605844893547
 20
338.006931359707
 10
254.4559548597251
 20
338.0092461745218
  0
LWPOLYLINE
  5
127E
330
18
100
AcDbEntity
  8
1
 48
0.04
100
AcDbPolyline
 90
        2
 70
     0
 43
0.0
 10
254.9145276566599
 20
337.3149613724784
 10
254.9281770819473
 20
337.3240609893366
  0
LWPOLYLINE
  5
127F
330
18
100
AcDbEntity
  8
1
 48
0.04
100
AcDbPolyline
 90
        2
 70
     0
 43
0.0
 10
254.9258622671325
 20
337.356468396744
 10
254.9281770819473
 20
337.3240609893366
  0
LWPOLYLINE
  5
1280
330
18
100
AcDbEntity
  8
1
 48
0.04
100
AcDbPolyline
 90
        2
 70
     0
 43
0.0
 10
254.9258622671325
 20
337.356468396744
 10
254.9212326375029
 20
337.3634128411885
  0
LWPOLYLINE
  5
1281
330
18
100
AcDbEntity
  8
1
 48
0.04
100
AcDbPolyline
 90
        2
 70
     0
 43
0.0
 10
254.9166030078732
 20
337.2962832115589
 10
254.9137208364861
 20
337.3222227540424
  0
LWPOLYLINE
  5
1282
330
18
100
AcDbEntity
  8
1
 48
0.04
100
AcDbPolyline
 90
        2
 70
     0
 43
0.0
 10
254.9279551134034
 20
337.2054663673174
 10
254.9166030078732
 20
337.2962832115589
  0
LWPOLYLINE
  5
1283
330
18
100
AcDbEntity
  8
1
 48
0.04
100
AcDbPolyline
 90
        2
 70
     0
 43
0.0
 10
254.9134016682357
 20
337.2610684755463
 10
254.9166030078732
 20
337.2962832115589
  0
LWPOLYLINE
  5
1284
330
18
100
AcDbEntity
  8
1
 48
0.04
100
AcDbPolyline
 90
        2
 70
     0
 43
0.0
 10
254.4397511560214
 20
339.319431359707
 10
254.4374363412065
 20
339.3286906189663
  0
LWPOLYLINE
  5
1285
330
18
100
AcDbEntity
  8
1
 48
0.04
100
AcDbPolyline
 90
        2
 70
     0
 43
0.0
 10
254.4374363412065
 20
339.3286906189663
 10
254.4351215263917
 20
339.3865609893367
  0
LWPOLYLINE
  5
1286
330
18
100
AcDbEntity
  8
1
 48
0.04
100
AcDbPolyline
 90
        2
 70
     0
 43
0.0
 10
254.4487412507673
 20
339.4001807137122
 10
254.4351215263917
 20
339.3865609893367
  0
LWPOLYLINE
  5
1287
330
18
100
AcDbEntity
  8
1
 48
0.04
100
AcDbPolyline
 90
        2
 70
     0
 43
0.0
 10
254.4304918967621
 20
339.6851721004477
 10
254.4304918967621
 20
339.6273017300774
  0
LWPOLYLINE
  5
1288
330
18
100
AcDbEntity
  8
1
 48
0.04
100
AcDbPolyline
 90
        3
 70
     0
 43
0.0
 10
254.4304918967621
 20
339.6851721004477
 10
254.4351215263917
 20
339.6967461745218
 10
254.4466956004658
 20
339.7013758041514
  0
LWPOLYLINE
  5
1289
330
18
100
AcDbEntity
  8
1
 48
0.04
100
AcDbPolyline
 90
        2
 70
     0
 43
0.0
 10
254.7267881930584
 20
339.7013758041514
 10
254.4466956004658
 20
339.7013758041514
  0
LWPOLYLINE
  5
128A
330
18
100
AcDbEntity
  8
1
 48
0.04
100
AcDbPolyline
 90
        2
 70
     0
 43
0.0
 10
254.7267881930584
 20
339.7013758041514
 10
254.7406770819473
 20
339.694431359707
  0
LWPOLYLINE
  5
128B
330
18
100
AcDbEntity
  8
1
 48
0.04
100
AcDbPolyline
 90
        2
 70
     0
 43
0.0
 10
254.4559548597251
 20
339.6527646930404
 10
254.4559548597251
 20
339.4722091374848
  0
LWPOLYLINE
  5
128C
102
{ACAD_REACTORS
330
1428
102
}
330
18
100
AcDbEntity
  8
1
 48
0.04
100
AcDbPolyline
 90
        2
 70
     0
 43
0.0
 10
254.4559548597251
 20
339.6527646930404
 10
254.4304918967621
 20
339.6851721004477
  0
LWPOLYLINE
  5
128D
330
18
100
AcDbEntity
  8
1
 48
0.04
100
AcDbPolyline
 90
        2
 70
     0
 43
0.0
 10
254.4304918967621
 20
339.6273017300774
 10
254.4466956004658
 20
339.5833202485959
  0
LWPOLYLINE
  5
128E
330
18
100
AcDbEntity
  8
1
 48
0.04
100
AcDbPolyline
 90
        2
 70
     0
 43
0.0
 10
254.4466956004658
 20
339.5833202485959
 10
254.4466956004658
 20
339.4860980263737
  0
LWPOLYLINE
  5
128F
330
18
100
AcDbEntity
  8
1
 48
0.04
100
AcDbPolyline
 90
        2
 70
     0
 43
0.0
 10
254.4559548597251
 20
339.4722091374848
 10
254.4466956004658
 20
339.4860980263737
  0
LWPOLYLINE
  5
1290
330
18
100
AcDbEntity
  8
1
 48
0.04
100
AcDbPolyline
 90
        2
 70
     0
 43
0.0
 10
254.4374363412065
 20
339.3286906189663
 10
254.4582696745399
 20
339.2985980263737
  0
LWPOLYLINE
  5
1291
330
18
100
AcDbEntity
  8
1
 48
0.04
100
AcDbPolyline
 90
        2
 70
     0
 43
0.0
 10
254.4582696745399
 20
339.3842461745218
 10
254.4559548597251
 20
339.4722091374848
  0
LWPOLYLINE
  5
1292
330
18
100
AcDbEntity
  8
1
 48
0.04
100
AcDbPolyline
 90
        2
 70
     0
 43
0.0
 10
254.4490104152806
 20
339.3888758041514
 10
254.4466956004658
 20
339.4860980263737
  0
LWPOLYLINE
  5
1293
330
18
100
AcDbEntity
  8
1
 48
0.04
100
AcDbPolyline
 90
        2
 70
     0
 43
0.0
 10
254.4351215263917
 20
339.3865609893367
 10
254.4490104152806
 20
339.3888758041514
  0
LWPOLYLINE
  5
1294
330
18
100
AcDbEntity
  8
1
 48
0.04
100
AcDbPolyline
 90
        2
 70
     0
 43
0.0
 10
254.7684548597251
 20
339.6504498782255
 10
254.7684548597251
 20
339.6527646930404
  0
LWPOLYLINE
  5
1295
330
18
100
AcDbEntity
  8
1
 48
0.04
100
AcDbPolyline
 90
        2
 70
     0
 43
0.0
 10
254.4466956004658
 20
339.7013758041514
 10
254.4721585634288
 20
339.6666535819292
  0
LWPOLYLINE
  5
1296
330
18
100
AcDbEntity
  8
1
 48
0.04
100
AcDbPolyline
 90
        2
 70
     0
 43
0.0
 10
254.7522511560214
 20
339.6689683967441
 10
254.4721585634288
 20
339.6666535819292
  0
LWPOLYLINE
  5
1297
330
18
100
AcDbEntity
  8
1
 48
0.04
100
AcDbPolyline
 90
        2
 70
     0
 43
0.0
 10
254.7522511560214
 20
339.6689683967441
 10
254.7267881930584
 20
339.7013758041514
  0
LWPOLYLINE
  5
1298
330
18
100
AcDbEntity
  8
1
 48
0.04
100
AcDbPolyline
 90
        3
 70
     0
 43
0.0
 10
254.7684548597251
 20
339.6527646930404
 10
254.7638252300954
 20
339.6643387671144
 10
254.7522511560214
 20
339.6689683967441
  0
LWPOLYLINE
  5
1299
330
18
100
AcDbEntity
  8
1
 48
0.04
100
AcDbPolyline
 90
        3
 70
     0
 43
0.0
 10
254.4721585634288
 20
339.6666535819292
 10
254.4605844893547
 20
339.6620239522996
 10
254.4559548597251
 20
339.6527646930404
  0
LWPOLYLINE
  5
129F
330
18
100
AcDbEntity
  8
1
 48
0.04
100
AcDbPolyline
 90
        3
 70
     0
 43
0.0
 10
254.6156770819473
 20
338.2152646930403
 10
254.6017881930584
 20
338.2152646930403
 10
254.5925289337991
 20
338.2175795078552
  0
LWPOLYLINE
  5
12A2
330
18
100
AcDbEntity
  8
1
 48
0.04
100
AcDbPolyline
 90
        3
 70
     0
 43
0.0
 10
254.5763252300954
 20
338.2222091374848
 10
254.5855844893547
 20
338.2198943226701
 10
254.5902141189843
 20
338.2175795078552
  0
LWPOLYLINE
  5
12A5
330
18
100
AcDbEntity
  8
1
 48
0.04
100
AcDbPolyline
 90
        3
 70
     0
 43
0.0
 10
254.5670659708362
 20
338.2222091374848
 10
254.5624363412065
 20
338.2245239522996
 10
254.5601215263917
 20
338.2268387671144
  0
LWPOLYLINE
  5
12A8
330
18
100
AcDbEntity
  8
1
 48
0.04
100
AcDbPolyline
 90
        2
 70
     0
 43
0.0
 10
254.569380785651
 20
338.2291535819291
 10
254.5716956004658
 20
338.2268387671144
  0
LWPOLYLINE
  5
12A9
330
18
100
AcDbEntity
  8
1
 48
0.04
100
AcDbPolyline
 90
        2
 70
     0
 43
0.0
 10
254.5670659708362
 20
338.2291535819291
 10
254.569380785651
 20
338.2291535819291
  0
LWPOLYLINE
  5
12AA
330
18
100
AcDbEntity
  8
1
 48
0.04
100
AcDbPolyline
 90
        2
 70
     0
 43
0.0
 10
254.5670659708362
 20
338.2291535819291
 10
254.5647511560214
 20
338.231468396744
  0
LWPOLYLINE
  5
12AB
330
18
100
AcDbEntity
  8
1
 48
0.04
100
AcDbPolyline
 90
        3
 70
     0
 43
0.0
 10
254.5647511560214
 20
338.231468396744
 10
254.569380785651
 20
338.231468396744
 10
254.5763252300954
 20
338.2337832115589
  0
LWPOLYLINE
  5
12AC
330
18
100
AcDbEntity
  8
1
 48
0.04
100
AcDbPolyline
 90
        2
 70
     0
 43
0.0
 10
254.5763252300954
 20
338.2337832115589
 10
254.5809548597251
 20
338.231468396744
  0
LWPOLYLINE
  5
12B0
330
18
100
AcDbEntity
  8
1
 48
0.04
100
AcDbPolyline
 90
        2
 70
     0
 43
0.0
 10
254.6041030078732
 20
338.231468396744
 10
254.606417822688
 20
338.2337832115589
  0
LWPOLYLINE
  5
12B1
330
18
100
AcDbEntity
  8
1
 48
0.04
100
AcDbPolyline
 90
        3
 70
     0
 43
0.0
 10
254.606417822688
 20
338.2337832115589
 10
254.6156770819473
 20
338.231468396744
 10
254.6272511560214
 20
338.231468396744
  0
LWPOLYLINE
  5
12B4
330
18
100
AcDbEntity
  8
1
 48
0.04
100
AcDbPolyline
 90
        3
 70
     0
 43
0.0
 10
254.6503993041695
 20
338.2268387671144
 10
254.6341956004658
 20
338.2268387671144
 10
254.6272511560214
 20
338.2291535819291
  0
LWPOLYLINE
  5
12B7
330
18
100
AcDbEntity
  8
1
 48
0.04
100
AcDbPolyline
 90
        3
 70
     0
 43
0.0
 10
254.6503993041695
 20
338.2268387671144
 10
254.657343748614
 20
338.2245239522996
 10
254.657343748614
 20
338.2222091374848
  0
LWPOLYLINE
  5
12BA
330
18
100
AcDbEntity
  8
1
 48
0.04
100
AcDbPolyline
 90
        2
 70
     0
 43
0.0
 10
254.6480844893547
 20
338.2198943226701
 10
254.6503993041695
 20
338.2222091374848
  0
LWPOLYLINE
  5
12BD
330
18
100
AcDbEntity
  8
1
 48
0.04
100
AcDbPolyline
 90
        2
 70
     0
 43
0.0
 10
254.6527141189844
 20
338.2175795078552
 10
254.6480844893547
 20
338.2152646930403
  0
LWPOLYLINE
  5
12BF
330
18
100
AcDbEntity
  8
1
 48
0.04
100
AcDbPolyline
 90
        2
 70
     0
 43
0.0
 10
254.6341956004658
 20
338.2152646930403
 10
254.6480844893547
 20
338.2152646930403
  0
LWPOLYLINE
  5
12C0
330
18
100
AcDbEntity
  8
1
 48
0.04
100
AcDbPolyline
 90
        3
 70
     0
 43
0.0
 10
254.6156770819473
 20
338.2152646930403
 10
254.6226215263917
 20
338.2175795078552
 10
254.6341956004658
 20
338.2152646930403
  0
LWPOLYLINE
  5
12C1
330
18
100
AcDbEntity
  8
1
 48
0.04
100
AcDbPolyline
 90
       17
 70
     0
 43
0.0
 10
254.5508622671325
 20
338.2291535819291
 10
254.5554918967621
 20
338.231468396744
 10
254.5670659708362
 20
338.2337832115589
 10
254.5832696745399
 20
338.2360980263737
 10
254.6041030078732
 20
338.2337832115589
 10
254.6249363412065
 20
338.2337832115589
 10
254.6457696745399
 20
338.2291535819291
 10
254.6596585634288
 20
338.2268387671144
 10
254.6666030078732
 20
338.2222091374848
 10
254.6666030078732
 20
338.2175795078552
 10
254.6596585634288
 20
338.2152646930403
 10
254.6434548597251
 20
338.2129498782255
 10
254.6249363412065
 20
338.2129498782255
 10
254.5832696745399
 20
338.2175795078552
 10
254.5647511560214
 20
338.2198943226701
 10
254.5531770819473
 20
338.2245239522996
 10
254.5508622671325
 20
338.2291535819291
  0
LWPOLYLINE
  5
12C3
330
18
100
AcDbEntity
  8
1
 48
0.04
100
AcDbPolyline
 90
        2
 70
     0
 43
0.0
 10
254.5902141189843
 20
338.2175795078552
 10
254.5925289337991
 20
338.2175795078552
  0
LWPOLYLINE
  5
12CA
330
18
100
AcDbEntity
  8
1
 48
0.04
100
AcDbPolyline
 90
        2
 70
     0
 43
0.0
 10
254.6272511560214
 20
338.2291535819291
 10
254.6272511560214
 20
338.231468396744
  0
LWPOLYLINE
  5
12D7
330
18
100
AcDbEntity
  8
1
 48
0.04
100
AcDbPolyline
 90
       21
 70
     0
 43
0.0
 10
254.8355844893547
 20
337.2893387671144
 10
254.8309548597251
 20
337.2685054337811
 10
254.8170659708362
 20
337.2499869152627
 10
254.7985474523176
 20
337.2360980263737
 10
254.7753993041695
 20
337.2245239522996
 10
254.7499363412065
 20
337.2222091374848
 10
254.7244733782436
 20
337.2245239522996
 10
254.7013252300954
 20
337.2360980263737
 10
254.6851215263917
 20
337.2499869152627
 10
254.6735474523177
 20
337.2685054337811
 10
254.6712326375029
 20
337.2893387671144
 10
254.6758622671325
 20
337.3101721004478
 10
254.6897511560214
 20
337.3286906189663
 10
254.7082696745399
 20
337.34489432267
 10
254.731417822688
 20
337.3541535819291
 10
254.756880785651
 20
337.3587832115589
 10
254.7823437486139
 20
337.3541535819291
 10
254.8054918967621
 20
337.34489432267
 10
254.8216956004658
 20
337.3286906189663
 10
254.8332696745399
 20
337.3101721004478
 10
254.8355844893547
 20
337.2893387671144
  0
LWPOLYLINE
  5
12D9
330
18
100
AcDbEntity
  8
1
 48
0.04
100
AcDbPolyline
 90
        3
 70
     0
 43
0.0
 10
254.7360474523177
 20
337.2615609893367
 10
254.731417822688
 20
337.256931359707
 10
254.7291030078732
 20
337.256931359707
  0
LWPOLYLINE
  5
12DA
330
18
100
AcDbEntity
  8
1
 48
0.04
100
AcDbPolyline
 90
        2
 70
     0
 43
0.0
 10
254.7291030078732
 20
337.256931359707
 10
254.719843748614
 20
337.2615609893367
  0
LWPOLYLINE
  5
12DB
330
18
100
AcDbEntity
  8
1
 48
0.04
100
AcDbPolyline
 90
        3
 70
     0
 43
0.0
 10
254.719843748614
 20
337.2615609893367
 10
254.7128993041695
 20
337.2685054337811
 10
254.7152141189843
 20
337.2708202485959
  0
LWPOLYLINE
  5
12DC
330
18
100
AcDbEntity
  8
1
 48
0.04
100
AcDbPolyline
 90
        2
 70
     0
 43
0.0
 10
254.7175289337991
 20
337.2708202485959
 10
254.7152141189843
 20
337.2708202485959
  0
LWPOLYLINE
  5
12DD
330
18
100
AcDbEntity
  8
1
 48
0.04
100
AcDbPolyline
 90
        3
 70
     0
 43
0.0
 10
254.7105844893547
 20
337.2870239522996
 10
254.7152141189843
 20
337.2800795078551
 10
254.7175289337991
 20
337.2731350634107
  0
LWPOLYLINE
  5
12DE
330
18
100
AcDbEntity
  8
1
 48
0.04
100
AcDbPolyline
 90
        2
 70
     0
 43
0.0
 10
254.7082696745399
 20
337.2893387671144
 10
254.7105844893547
 20
337.2870239522996
  0
LWPOLYLINE
  5
12DF
330
18
100
AcDbEntity
  8
1
 48
0.04
100
AcDbPolyline
 90
        3
 70
     0
 43
0.0
 10
254.7082696745399
 20
337.2893387671144
 10
254.7059548597251
 20
337.2893387671144
 10
254.7036400449103
 20
337.2916535819292
  0
LWPOLYLINE
  5
12E0
330
18
100
AcDbEntity
  8
1
 48
0.04
100
AcDbPolyline
 90
        3
 70
     0
 43
0.0
 10
254.7036400449103
 20
337.2916535819292
 10
254.7036400449103
 20
337.2985980263737
 10
254.7059548597251
 20
337.3055424708181
  0
LWPOLYLINE
  5
12E1
330
18
100
AcDbEntity
  8
1
 48
0.04
100
AcDbPolyline
 90
        3
 70
     0
 43
0.0
 10
254.7059548597251
 20
337.3055424708181
 10
254.7082696745399
 20
337.3078572856329
 10
254.7152141189843
 20
337.3078572856329
  0
LWPOLYLINE
  5
12E3
330
18
100
AcDbEntity
  8
1
 48
0.04
100
AcDbPolyline
 90
        3
 70
     0
 43
0.0
 10
254.7267881930584
 20
337.319431359707
 10
254.7221585634288
 20
337.3124869152626
 10
254.7152141189843
 20
337.3078572856329
  0
LWPOLYLINE
  5
12E6
330
18
100
AcDbEntity
  8
1
 48
0.04
100
AcDbPolyline
 90
        3
 70
     0
 43
0.0
 10
254.7267881930584
 20
337.3263758041515
 10
254.7360474523177
 20
337.3310054337811
 10
254.7453067115769
 20
337.3333202485959
  0
LWPOLYLINE
  5
12E7
330
18
100
AcDbEntity
  8
1
 48
0.04
100
AcDbPolyline
 90
        3
 70
     0
 43
0.0
 10
254.7453067115769
 20
337.3333202485959
 10
254.7476215263916
 20
337.3333202485959
 10
254.7499363412065
 20
337.3310054337811
  0
LWPOLYLINE
  5
12E8
330
18
100
AcDbEntity
  8
1
 48
0.04
100
AcDbPolyline
 90
        2
 70
     0
 43
0.0
 10
254.7499363412065
 20
337.3286906189663
 10
254.7499363412065
 20
337.3310054337811
  0
LWPOLYLINE
  5
12E9
330
18
100
AcDbEntity
  8
1
 48
0.04
100
AcDbPolyline
 90
        3
 70
     0
 43
0.0
 10
254.7707696745399
 20
337.3263758041515
 10
254.7591956004658
 20
337.3263758041515
 10
254.7499363412065
 20
337.3286906189663
  0
LWPOLYLINE
  5
12EA
330
18
100
AcDbEntity
  8
1
 48
0.04
100
AcDbPolyline
 90
        2
 70
     0
 43
0.0
 10
254.7730844893547
 20
337.3286906189663
 10
254.7707696745399
 20
337.3263758041515
  0
LWPOLYLINE
  5
12EB
330
18
100
AcDbEntity
  8
1
 48
0.04
100
AcDbPolyline
 90
        2
 70
     0
 43
0.0
 10
254.7730844893547
 20
337.3286906189663
 10
254.7777141189843
 20
337.3286906189663
  0
LWPOLYLINE
  5
12EC
330
18
100
AcDbEntity
  8
1
 48
0.04
100
AcDbPolyline
 90
        3
 70
     0
 43
0.0
 10
254.7777141189843
 20
337.3286906189663
 10
254.7846585634288
 20
337.3263758041515
 10
254.7916030078732
 20
337.319431359707
  0
LWPOLYLINE
  5
12ED
330
18
100
AcDbEntity
  8
1
 48
0.04
100
AcDbPolyline
 90
        2
 70
     0
 43
0.0
 10
254.7916030078732
 20
337.3171165448922
 10
254.7892881930584
 20
337.3171165448922
  0
LWPOLYLINE
  5
12EF
330
18
100
AcDbEntity
  8
1
 48
0.04
100
AcDbPolyline
 90
        3
 70
     0
 43
0.0
 10
254.793917822688
 20
337.2985980263737
 10
254.7892881930584
 20
337.3055424708181
 10
254.7892881930584
 20
337.3171165448922
  0
LWPOLYLINE
  5
12F1
330
18
100
AcDbEntity
  8
1
 48
0.04
100
AcDbPolyline
 90
        2
 70
     0
 43
0.0
 10
254.8008622671325
 20
337.2985980263737
 10
254.8031770819473
 20
337.2962832115589
  0
LWPOLYLINE
  5
12F2
330
18
100
AcDbEntity
  8
1
 48
0.04
100
AcDbPolyline
 90
        3
 70
     0
 43
0.0
 10
254.8031770819473
 20
337.2962832115589
 10
254.8031770819473
 20
337.2870239522996
 10
254.7985474523176
 20
337.2800795078551
  0
LWPOLYLINE
  5
12F4
330
18
100
AcDbEntity
  8
1
 48
0.04
100
AcDbPolyline
 90
        2
 70
     0
 43
0.0
 10
254.7916030078732
 20
337.2800795078551
 10
254.7985474523176
 20
337.2800795078551
  0
LWPOLYLINE
  5
12F5
330
18
100
AcDbEntity
  8
1
 48
0.04
100
AcDbPolyline
 90
        3
 70
     0
 43
0.0
 10
254.7777141189843
 20
337.2661906189663
 10
254.7823437486139
 20
337.2731350634107
 10
254.7916030078732
 20
337.2800795078551
  0
LWPOLYLINE
  5
12F7
330
18
100
AcDbEntity
  8
1
 48
0.04
100
AcDbPolyline
 90
        2
 70
     0
 43
0.0
 10
254.7800289337991
 20
337.2615609893367
 10
254.7777141189843
 20
337.2592461745218
  0
LWPOLYLINE
  5
12F8
330
18
100
AcDbEntity
  8
1
 48
0.04
100
AcDbPolyline
 90
        2
 70
     0
 43
0.0
 10
254.7777141189843
 20
337.2592461745218
 10
254.7707696745399
 20
337.2546165448922
  0
LWPOLYLINE
  5
12F9
330
18
100
AcDbEntity
  8
1
 48
0.04
100
AcDbPolyline
 90
        3
 70
     0
 43
0.0
 10
254.7707696745399
 20
337.2546165448922
 10
254.756880785651
 20
337.2546165448922
 10
254.756880785651
 20
337.256931359707
  0
LWPOLYLINE
  5
12FA
330
18
100
AcDbEntity
  8
1
 48
0.04
100
AcDbPolyline
 90
        2
 70
     0
 43
0.0
 10
254.7545659708362
 20
337.2592461745218
 10
254.756880785651
 20
337.256931359707
  0
LWPOLYLINE
  5
12FB
330
18
100
AcDbEntity
  8
1
 48
0.04
100
AcDbPolyline
 90
        3
 70
     0
 43
0.0
 10
254.7360474523177
 20
337.2615609893367
 10
254.7453067115769
 20
337.2615609893367
 10
254.7545659708362
 20
337.2592461745218
  0
LWPOLYLINE
  5
12FC
330
18
100
AcDbEntity
  8
1
 48
0.04
100
AcDbPolyline
 90
       18
 70
     0
 43
0.0
 10
254.8124363412065
 20
337.2939683967441
 10
254.8078067115769
 20
337.2754498782255
 10
254.793917822688
 20
337.2615609893367
 10
254.7753993041695
 20
337.2499869152627
 10
254.7545659708362
 20
337.245357285633
 10
254.7337326375028
 20
337.2476721004478
 10
254.7152141189843
 20
337.2546165448922
 10
254.7013252300954
 20
337.2685054337811
 10
254.694380785651
 20
337.2847091374848
 10
254.694380785651
 20
337.3032276560033
 10
254.7036400449103
 20
337.319431359707
 10
254.719843748614
 20
337.3310054337811
 10
254.7383622671325
 20
337.3402646930403
 10
254.7615104152806
 20
337.3425795078552
 10
254.7823437486139
 20
337.3356350634107
 10
254.7985474523176
 20
337.3263758041515
 10
254.8078067115769
 20
337.3101721004478
 10
254.8124363412065
 20
337.2939683967441
  0
LWPOLYLINE
  5
12FF
330
18
100
AcDbEntity
  8
1
 48
0.04
100
AcDbPolyline
 90
        2
 70
     0
 43
0.0
 10
254.7800289337991
 20
337.2615609893367
 10
254.7777141189843
 20
337.2638758041514
  0
LWPOLYLINE
  5
1306
330
18
100
AcDbEntity
  8
1
 48
0.04
100
AcDbPolyline
 90
        2
 70
     0
 43
0.0
 10
254.7916030078732
 20
337.3171165448922
 10
254.7916030078732
 20
337.319431359707
  0
LWPOLYLINE
  5
131D
330
18
100
AcDbEntity
  8
1
 48
0.04
100
AcDbPolyline
 90
        2
 70
     0
 43
0.0
 10
254.6156770819473
 20
336.8495239522996
 10
254.6156770819473
 20
336.8541535819292
  0
LWPOLYLINE
  5
131E
330
18
100
AcDbEntity
  8
1
 48
0.04
100
AcDbPolyline
 90
        3
 70
     0
 43
0.0
 10
254.6156770819473
 20
336.8495239522996
 10
254.6133622671324
 20
336.8472091374848
 10
254.6110474523176
 20
336.8472091374848
  0
LWPOLYLINE
  5
131F
330
18
100
AcDbEntity
  8
1
 48
0.04
100
AcDbPolyline
 90
        3
 70
     0
 43
0.0
 10
254.6110474523176
 20
336.8472091374848
 10
254.6017881930584
 20
336.84489432267
 10
254.5925289337991
 20
336.8495239522996
  0
LWPOLYLINE
  5
1320
330
18
100
AcDbEntity
  8
1
 48
0.04
100
AcDbPolyline
 90
        3
 70
     0
 43
0.0
 10
254.5925289337991
 20
336.8495239522996
 10
254.5902141189843
 20
336.8495239522996
 10
254.5925289337991
 20
336.8541535819292
  0
LWPOLYLINE
  5
1321
330
18
100
AcDbEntity
  8
1
 48
0.04
100
AcDbPolyline
 90
        2
 70
     0
 43
0.0
 10
254.5902141189843
 20
336.8564683967441
 10
254.5925289337991
 20
336.8541535819292
  0
LWPOLYLINE
  5
1322
330
18
100
AcDbEntity
  8
1
 48
0.04
100
AcDbPolyline
 90
        3
 70
     0
 43
0.0
 10
254.5763252300954
 20
336.8680424708181
 10
254.5855844893547
 20
336.8634128411885
 10
254.5902141189843
 20
336.8564683967441
  0
LWPOLYLINE
  5
1323
330
18
100
AcDbEntity
  8
1
 48
0.04
100
AcDbPolyline
 90
        2
 70
     0
 43
0.0
 10
254.5740104152806
 20
336.8680424708181
 10
254.5763252300954
 20
336.8680424708181
  0
LWPOLYLINE
  5
1324
330
18
100
AcDbEntity
  8
1
 48
0.04
100
AcDbPolyline
 90
        3
 70
     0
 43
0.0
 10
254.5740104152806
 20
336.8680424708181
 10
254.569380785651
 20
336.8657276560033
 10
254.5670659708362
 20
336.8680424708181
  0
LWPOLYLINE
  5
1325
330
18
100
AcDbEntity
  8
1
 48
0.04
100
AcDbPolyline
 90
        3
 70
     0
 43
0.0
 10
254.5670659708362
 20
336.8680424708181
 10
254.5624363412065
 20
336.8749869152626
 10
254.5601215263917
 20
336.8842461745218
  0
LWPOLYLINE
  5
1326
330
18
100
AcDbEntity
  8
1
 48
0.04
100
AcDbPolyline
 90
        2
 70
     0
 43
0.0
 10
254.5601215263917
 20
336.8842461745218
 10
254.5647511560214
 20
336.8888758041514
  0
LWPOLYLINE
  5
1327
330
18
100
AcDbEntity
  8
1
 48
0.04
100
AcDbPolyline
 90
        2
 70
     0
 43
0.0
 10
254.5670659708362
 20
336.8911906189663
 10
254.5647511560214
 20
336.8888758041514
  0
LWPOLYLINE
  5
1328
330
18
100
AcDbEntity
  8
1
 48
0.04
100
AcDbPolyline
 90
        3
 70
     0
 43
0.0
 10
254.569380785651
 20
336.9097091374849
 10
254.5716956004658
 20
336.9004498782255
 10
254.5670659708362
 20
336.8911906189663
  0
LWPOLYLINE
  5
1329
330
18
100
AcDbEntity
  8
1
 48
0.04
100
AcDbPolyline
 90
        2
 70
     0
 43
0.0
 10
254.5670659708362
 20
336.9120239522996
 10
254.569380785651
 20
336.9097091374848
  0
LWPOLYLINE
  5
132A
330
18
100
AcDbEntity
  8
1
 48
0.04
100
AcDbPolyline
 90
        3
 70
     0
 43
0.0
 10
254.5670659708362
 20
336.9120239522996
 10
254.5647511560214
 20
336.9143387671144
 10
254.5647511560214
 20
336.9166535819291
  0
LWPOLYLINE
  5
132B
330
18
100
AcDbEntity
  8
1
 48
0.04
100
AcDbPolyline
 90
        2
 70
     0
 43
0.0
 10
254.5647511560214
 20
336.9166535819291
 10
254.5737489773721
 20
336.9301503139554
  0
LWPOLYLINE
  5
132E
330
18
100
AcDbEntity
  8
1
 48
0.04
100
AcDbPolyline
 90
        3
 70
     0
 43
0.0
 10
254.6434548597251
 20
336.9212832115588
 10
254.6341956004658
 20
336.9235980263737
 10
254.6300938145944
 20
336.9297507051808
  0
LWPOLYLINE
  5
132F
330
18
100
AcDbEntity
  8
1
 48
0.04
100
AcDbPolyline
 90
        2
 70
     0
 43
0.0
 10
254.6457696745399
 20
336.9212832115588
 10
254.6434548597251
 20
336.9212832115588
  0
LWPOLYLINE
  5
1330
330
18
100
AcDbEntity
  8
1
 48
0.04
100
AcDbPolyline
 90
        3
 70
     0
 43
0.0
 10
254.6457696745399
 20
336.9212832115588
 10
254.6480844893547
 20
336.9235980263737
 10
254.657343748614
 20
336.9143387671144
  0
LWPOLYLINE
  5
1332
330
18
100
AcDbEntity
  8
1
 48
0.04
100
AcDbPolyline
 90
        3
 70
     0
 43
0.0
 10
254.657343748614
 20
336.9143387671144
 10
254.657343748614
 20
336.9027646930403
 10
254.6550289337992
 20
336.9004498782255
  0
LWPOLYLINE
  5
1333
330
18
100
AcDbEntity
  8
1
 48
0.04
100
AcDbPolyline
 90
        3
 70
     0
 43
0.0
 10
254.6503993041695
 20
336.8981350634107
 10
254.6527141189844
 20
336.9004498782255
 10
254.6550289337992
 20
336.9004498782255
  0
LWPOLYLINE
  5
1334
330
18
100
AcDbEntity
  8
1
 48
0.04
100
AcDbPolyline
 90
        3
 70
     0
 43
0.0
 10
254.6480844893547
 20
336.8796165448922
 10
254.6480844893547
 20
336.8888758041514
 10
254.6503993041695
 20
336.8981350634107
  0
LWPOLYLINE
  5
1335
330
18
100
AcDbEntity
  8
1
 48
0.04
100
AcDbPolyline
 90
        3
 70
     0
 43
0.0
 10
254.6503993041695
 20
336.8773017300774
 10
254.6503993041695
 20
336.8796165448922
 10
254.6480844893547
 20
336.8796165448922
  0
LWPOLYLINE
  5
1336
330
18
100
AcDbEntity
  8
1
 48
0.04
100
AcDbPolyline
 90
        2
 70
     0
 43
0.0
 10
254.6503993041695
 20
336.8773017300774
 10
254.6527141189844
 20
336.8749869152626
  0
LWPOLYLINE
  5
1337
330
18
100
AcDbEntity
  8
1
 48
0.04
100
AcDbPolyline
 90
        3
 70
     0
 43
0.0
 10
254.6527141189844
 20
336.8726721004478
 10
254.6480844893547
 20
336.8634128411885
 10
254.6411400449103
 20
336.8587832115589
  0
LWPOLYLINE
  5
1338
330
18
100
AcDbEntity
  8
1
 48
0.04
100
AcDbPolyline
 90
        2
 70
     0
 43
0.0
 10
254.6411400449103
 20
336.8587832115589
 10
254.6365104152806
 20
336.8587832115589
  0
LWPOLYLINE
  5
1339
330
18
100
AcDbEntity
  8
1
 48
0.04
100
AcDbPolyline
 90
        2
 70
     0
 43
0.0
 10
254.6341956004658
 20
336.8610980263737
 10
254.6365104152806
 20
336.8587832115589
  0
LWPOLYLINE
  5
133A
330
18
100
AcDbEntity
  8
1
 48
0.04
100
AcDbPolyline
 90
        3
 70
     0
 43
0.0
 10
254.6156770819473
 20
336.8541535819292
 10
254.6226215263917
 20
336.8587832115589
 10
254.6341956004658
 20
336.8610980263737
  0
LWPOLYLINE
  5
133B
330
18
100
AcDbEntity
  8
1
 48
0.04
100
AcDbPolyline
 90
       11
 70
     0
 43
0.0
 10
254.6689178226881
 20
336.8935054337811
 10
254.6642881930584
 20
336.8726721004478
 10
254.6503993041695
 20
336.8541535819292
 10
254.6341956004658
 20
336.8425795078551
 10
254.6110474523176
 20
336.8356350634107
 10
254.5902141189843
 20
336.8402646930404
 10
254.569380785651
 20
336.8495239522996
 10
254.5578067115769
 20
336.8680424708181
 10
254.5508622671325
 20
336.8888758041514
 10
254.5531770819473
 20
336.9097091374848
 10
254.5622981433071
 20
336.9302315255445
  0
LWPOLYLINE
  5
133C
330
18
100
AcDbEntity
  8
1
 48
0.04
100
AcDbPolyline
 90
        3
 70
     0
 43
0.0
 10
254.6567721022725
 20
336.9295614974667
 10
254.6642881930584
 20
336.9120239522996
 10
254.6689178226881
 20
336.8935054337811
  0
LWPOLYLINE
  5
1348
330
18
100
AcDbEntity
  8
1
 48
0.04
100
AcDbPolyline
 90
        2
 70
     0
 43
0.0
 10
254.6527141189844
 20
336.8749869152626
 10
254.6527141189844
 20
336.8726721004478
  0
LWPOLYLINE
  5
135E
330
18
100
AcDbEntity
  8
1
 48
0.04
100
AcDbPolyline
 90
        6
 70
     0
 43
0.0
 10
254.5490347817523
 20
339.4480863304672
 10
254.5578067115769
 20
339.4305424708181
 10
254.5740104152806
 20
339.418968396744
 10
254.5925289337991
 20
339.4166535819291
 10
254.6110474523176
 20
339.4212832115589
 10
254.6253993041696
 20
339.4356350634108
  0
LWPOLYLINE
  5
135F
330
18
100
AcDbEntity
  8
1
 48
0.04
100
AcDbPolyline
 90
        2
 70
     0
 43
0.0
 10
254.9027141189843
 20
339.2609870683082
 10
254.9027141189843
 20
339.6249869152626
  0
LWPOLYLINE
  5
1367
330
18
100
AcDbEntity
  8
1
 48
0.04
100
AcDbPolyline
 90
        2
 70
     0
 43
0.0
 10
254.9027141189843
 20
337.4629498782255
 10
254.9027141189843
 20
339.0671165448922
  0
LWPOLYLINE
  5
136E
330
18
100
AcDbEntity
  8
1
 48
0.04
100
AcDbPolyline
 90
        3
 70
     0
 43
0.0
 10
254.4582696745399
 20
339.5416535819292
 10
254.4628993041695
 20
339.5717461745218
 10
254.4767881930584
 20
339.59489432267
  0
LWPOLYLINE
  5
136F
330
18
100
AcDbEntity
  8
1
 48
0.04
100
AcDbPolyline
 90
        5
 70
     0
 43
0.0
 10
254.4767881930584
 20
339.59489432267
 10
254.4767881930584
 20
339.5972091374848
 10
254.4906770819473
 20
339.6087832115589
 10
254.5045659708362
 20
339.6157276560033
 10
254.5184548597251
 20
339.6180424708181
  0
LWPOLYLINE
  5
1370
330
18
100
AcDbEntity
  8
1
 48
0.04
100
AcDbPolyline
 90
        2
 70
     0
 43
0.0
 10
254.5184548597251
 20
339.6180424708181
 10
254.5184548597251
 20
339.6527646930404
  0
LWPOLYLINE
  5
1371
330
18
100
AcDbEntity
  8
1
 48
0.04
100
AcDbPolyline
 90
        7
 70
     0
 43
0.0
 10
254.4652141189843
 20
339.6273017300774
 10
254.4675289337992
 20
339.6296165448922
 10
254.4744733782436
 20
339.6342461745218
 10
254.481417822688
 20
339.6411906189663
 10
254.4929918967621
 20
339.6481350634108
 10
254.5091956004658
 20
339.6527646930404
 10
254.5994733782436
 20
339.6527646930404
  0
LWPOLYLINE
  5
1372
330
18
100
AcDbEntity
  8
1
 48
0.04
100
AcDbPolyline
 90
        2
 70
     0
 43
0.0
 10
254.4605844893547
 20
339.6134128411885
 10
254.4652141189843
 20
339.6273017300774
  0
LWPOLYLINE
  5
1373
330
18
100
AcDbEntity
  8
1
 48
0.04
100
AcDbPolyline
 90
        3
 70
     0
 43
0.0
 10
254.4582696745399
 20
339.6018387671144
 10
254.4605844893547
 20
339.6110980263737
 10
254.4605844893547
 20
339.6134128411885
  0
LWPOLYLINE
  5
1375
330
18
100
AcDbEntity
  8
1
 48
0.04
100
AcDbPolyline
 90
        2
 70
     0
 43
0.0
 10
254.844843748614
 20
339.620357285633
 10
254.5184548597251
 20
339.6180424708181
  0
LWPOLYLINE
  5
1376
330
18
100
AcDbEntity
  8
1
 48
0.04
100
AcDbPolyline
 90
        2
 70
     0
 43
0.0
 10
254.844843748614
 20
339.620357285633
 10
254.844843748614
 20
339.6689683967441
  0
LWPOLYLINE
  5
1377
330
18
100
AcDbEntity
  8
1
 48
0.04
100
AcDbPolyline
 90
        2
 70
     0
 43
0.0
 10
254.844843748614
 20
339.6689683967441
 10
254.7602639765341
 20
339.6689683967441
  0
LWPOLYLINE
  5
1378
330
18
100
AcDbEntity
  8
1
 48
0.04
100
AcDbPolyline
 90
        2
 70
     0
 43
0.0
 10
254.7615104152806
 20
339.6689683967441
 10
254.7892881930584
 20
339.65739432267
  0
LWPOLYLINE
  5
1379
330
18
100
AcDbEntity
  8
1
 48
0.04
100
AcDbPolyline
 90
        3
 70
     0
 43
0.0
 10
254.7892881930584
 20
339.6550795078551
 10
254.7846585634288
 20
339.6527646930404
 10
254.7753993041695
 20
339.6504498782255
  0
LWPOLYLINE
  5
137D
330
18
100
AcDbEntity
  8
1
 48
0.04
100
AcDbPolyline
 90
        2
 70
     0
 43
0.0
 10
254.6758622671325
 20
339.6504498782255
 10
254.5994733782436
 20
339.6527646930404
  0
LWPOLYLINE
  5
137E
330
18
100
AcDbEntity
  8
1
 48
0.04
100
AcDbPolyline
 90
        3
 70
     0
 43
0.0
 10
254.844843748614
 20
339.620357285633
 10
254.8587326375028
 20
339.6180424708181
 10
254.8679918967621
 20
339.6157276560033
  0
LWPOLYLINE
  5
137F
330
18
100
AcDbEntity
  8
1
 48
0.04
100
AcDbPolyline
 90
        4
 70
     0
 43
0.0
 10
254.8679918967621
 20
339.6157276560033
 10
254.8865104152806
 20
339.5972091374848
 10
254.9003993041695
 20
339.5717461745218
 10
254.9027141189843
 20
339.5462832115589
  0
LWPOLYLINE
  5
1380
330
18
100
AcDbEntity
  8
1
 48
0.04
100
AcDbPolyline
 90
        5
 70
     0
 43
0.0
 10
254.844843748614
 20
339.6689683967441
 10
254.8633622671324
 20
339.6666535819292
 10
254.881880785651
 20
339.65739432267
 10
254.8934548597251
 20
339.6411906189663
 10
254.9027141189843
 20
339.6249869152626
  0
LWPOLYLINE
  5
1381
330
18
100
AcDbEntity
  8
1
 48
0.04
100
AcDbPolyline
 90
       20
 70
     0
 43
0.0
 10
254.5809548597251
 20
339.3610980263737
 10
254.5647511560214
 20
339.3634128411885
 10
254.5508622671325
 20
339.370357285633
 10
254.5392881930584
 20
339.3842461745218
 10
254.5323437486139
 20
339.3981350634107
 10
254.5323437486139
 20
339.4143387671144
 10
254.5346585634288
 20
339.4305424708181
 10
254.543917822688
 20
339.444431359707
 10
254.5601215263917
 20
339.456005433781
 10
254.5763252300954
 20
339.4629498782255
 10
254.5925289337991
 20
339.4629498782255
 10
254.606417822688
 20
339.456005433781
 10
254.6179918967621
 20
339.4467461745218
 10
254.6272511560214
 20
339.432857285633
 10
254.6295659708362
 20
339.4166535819291
 10
254.6295659708362
 20
339.3981350634107
 10
254.6203067115769
 20
339.381931359707
 10
254.6087326375028
 20
339.370357285633
 10
254.5925289337991
 20
339.3634128411885
 10
254.5809548597251
 20
339.3610980263737
  0
LWPOLYLINE
  5
1382
330
18
100
AcDbEntity
  8
1
 48
0.04
100
AcDbPolyline
 90
        2
 70
     0
 43
0.0
 10
254.844843748614
 20
336.7337832115589
 10
254.7615104152806
 20
336.7337832115589
  0
LWPOLYLINE
  5
1383
330
18
100
AcDbEntity
  8
1
 48
0.04
100
AcDbPolyline
 90
        6
 70
     0
 43
0.0
 10
254.844843748614
 20
336.7337832115589
 10
254.8633622671324
 20
336.7360980263736
 10
254.881880785651
 20
336.745357285633
 10
254.8934548597251
 20
336.7615609893367
 10
254.9027141189843
 20
336.7777646930404
 10
254.9027141189843
 20
337.0335517300773
  0
LWPOLYLINE
  5
1384
330
18
100
AcDbEntity
  8
1
 48
0.04
100
AcDbPolyline
 90
        2
 70
     0
 43
0.0
 10
254.844843748614
 20
337.8240609893367
 10
254.5184548597251
 20
337.8171165448922
  0
LWPOLYLINE
  5
1385
330
18
100
AcDbEntity
  8
1
 48
0.04
100
AcDbPolyline
 90
        2
 70
     0
 43
0.0
 10
254.844843748614
 20
337.8240609893367
 10
254.844843748614
 20
338.1597091374848
  0
LWPOLYLINE
  5
1386
330
18
100
AcDbEntity
  8
1
 48
0.04
100
AcDbPolyline
 90
        2
 70
     0
 43
0.0
 10
254.844843748614
 20
338.1597091374848
 10
254.7615104152806
 20
338.1643387671144
  0
LWPOLYLINE
  5
1387
330
18
100
AcDbEntity
  8
1
 48
0.04
100
AcDbPolyline
 90
        2
 70
     0
 43
0.0
 10
254.7615104152806
 20
338.1643387671144
 10
254.7892881930584
 20
338.006931359707
  0
LWPOLYLINE
  5
1388
330
18
100
AcDbEntity
  8
1
 48
0.04
100
AcDbPolyline
 90
        6
 70
     0
 43
0.0
 10
254.7892881930584
 20
338.006931359707
 10
254.7892881930584
 20
337.9930424708181
 10
254.7846585634288
 20
337.9814683967441
 10
254.7753993041695
 20
337.96989432267
 10
254.7638252300954
 20
337.9629498782255
 10
254.7522511560214
 20
337.9606350634107
  0
LWPOLYLINE
  5
138A
330
18
100
AcDbEntity
  8
1
 48
0.04
100
AcDbPolyline
 90
        2
 70
     0
 43
0.0
 10
254.7453067115769
 20
337.9606350634107
 10
254.694380785651
 20
337.9652646930404
  0
LWPOLYLINE
  5
138B
330
18
100
AcDbEntity
  8
1
 48
0.04
100
AcDbPolyline
 90
        2
 70
     0
 43
0.0
 10
254.694380785651
 20
337.9652646930404
 10
254.6758622671325
 20
337.9675795078551
  0
LWPOLYLINE
  5
138C
330
18
100
AcDbEntity
  8
1
 48
0.04
100
AcDbPolyline
 90
        3
 70
     0
 43
0.0
 10
254.6758622671325
 20
337.9675795078551
 10
254.5994733782436
 20
337.9722091374848
 10
254.5184548597251
 20
337.9768387671144
  0
LWPOLYLINE
  5
138D
330
18
100
AcDbEntity
  8
1
 48
0.04
100
AcDbPolyline
 90
        2
 70
     0
 43
0.0
 10
254.5184548597251
 20
337.8171165448922
 10
254.5184548597251
 20
337.9768387671144
  0
LWPOLYLINE
  5
138E
330
18
100
AcDbEntity
  8
1
 48
0.04
100
AcDbPolyline
 90
        3
 70
     0
 43
0.0
 10
254.844843748614
 20
337.8240609893367
 10
254.8587326375028
 20
337.8217461745218
 10
254.8679918967621
 20
337.819431359707
  0
LWPOLYLINE
  5
138F
330
18
100
AcDbEntity
  8
1
 48
0.04
100
AcDbPolyline
 90
        5
 70
     0
 43
0.0
 10
254.8679918967621
 20
337.819431359707
 10
254.8726215263917
 20
337.819431359707
 10
254.8865104152806
 20
337.8101721004477
 10
254.9003993041695
 20
337.793968396744
 10
254.9027141189843
 20
337.78239432267
  0
LWPOLYLINE
  5
1390
330
18
100
AcDbEntity
  8
1
 48
0.04
100
AcDbPolyline
 90
        5
 70
     0
 43
0.0
 10
254.844843748614
 20
338.1597091374848
 10
254.8633622671324
 20
338.15739432267
 10
254.881880785651
 20
338.1597091374848
 10
254.8934548597251
 20
338.1597091374848
 10
254.9027141189843
 20
338.1620239522996
  0
LWPOLYLINE
  5
1391
330
18
100
AcDbEntity
  8
1
 48
0.04
100
AcDbPolyline
 90
        3
 70
     0
 43
0.0
 10
254.4582696745399
 20
337.7685054337811
 10
254.4628993041695
 20
337.7847091374848
 10
254.4767881930584
 20
337.8009128411885
  0
LWPOLYLINE
  5
1392
330
18
100
AcDbEntity
  8
1
 48
0.04
100
AcDbPolyline
 90
        4
 70
     0
 43
0.0
 10
254.4767881930584
 20
337.8009128411885
 10
254.4906770819473
 20
337.8101721004477
 10
254.5045659708362
 20
337.8148017300774
 10
254.5184548597251
 20
337.8171165448922
  0
LWPOLYLINE
  5
1393
330
18
100
AcDbEntity
  8
1
 48
0.04
100
AcDbPolyline
 90
        7
 70
     0
 43
0.0
 10
254.4675289337992
 20
338.0055424708181
 10
254.4675289337992
 20
338.0023017300774
 10
254.4744733782436
 20
337.9930424708181
 10
254.481417822688
 20
337.9860980263737
 10
254.4929918967621
 20
337.9814683967441
 10
254.5091956004658
 20
337.9768387671144
 10
254.5184548597251
 20
337.9768387671144
  0
LWPOLYLINE
  5
1395
330
18
100
AcDbEntity
  8
1
 48
0.04
100
AcDbPolyline
 90
       12
 70
     0
 43
0.0
 10
254.5925289337991
 20
337.7337832115589
 10
254.5647511560214
 20
337.7337832115589
 10
254.5508622671325
 20
337.7314683967441
 10
254.5323437486139
 20
337.7314683967441
 10
254.5323437486139
 20
337.7337832115589
 10
254.5346585634288
 20
337.7360980263737
 10
254.543917822688
 20
337.7384128411885
 10
254.5763252300954
 20
337.7430424708181
 10
254.6179918967621
 20
337.7430424708181
 10
254.6272511560214
 20
337.7407276560033
 10
254.6295659708362
 20
337.7384128411885
 10
254.6295659708362
 20
337.7368758041515
  0
LWPOLYLINE
  5
1399
330
18
100
AcDbEntity
  8
1
 48
0.04
100
AcDbPolyline
 90
        2
 70
     0
 43
0.0
 10
254.6041030078732
 20
337.444431359707
 10
254.6156770819473
 20
337.444431359707
  0
LWPOLYLINE
  5
139C
330
18
100
AcDbEntity
  8
1
 48
0.04
100
AcDbPolyline
 90
        2
 70
     0
 43
0.0
 10
254.606417822688
 20
337.4374869152626
 10
254.6041030078732
 20
337.444431359707
  0
LWPOLYLINE
  5
139E
330
18
100
AcDbEntity
  8
1
 48
0.04
100
AcDbPolyline
 90
        2
 70
     0
 43
0.0
 10
254.5971585634287
 20
337.4351721004477
 10
254.6041030078732
 20
337.4351721004477
  0
LWPOLYLINE
  5
13A1
330
18
100
AcDbEntity
  8
1
 48
0.04
100
AcDbPolyline
 90
        2
 70
     0
 43
0.0
 10
254.6029707614963
 20
337.3861835738777
 10
254.5971585634287
 20
337.3842461745218
  0
LWPOLYLINE
  5
13A2
330
18
100
AcDbEntity
  8
1
 48
0.04
100
AcDbPolyline
 90
        3
 70
     0
 43
0.0
 10
254.6156770819473
 20
337.444431359707
 10
254.6272511560214
 20
337.4513758041514
 10
254.6445441843435
 20
337.4498037106676
  0
LWPOLYLINE
  5
13A3
330
18
100
AcDbEntity
  8
1
 48
0.04
100
AcDbPolyline
 90
        3
 70
     0
 43
0.0
 10
254.6041030078732
 20
337.4351721004477
 10
254.6041030078732
 20
337.4374869152626
 10
254.606417822688
 20
337.4374869152626
  0
LWPOLYLINE
  5
13A5
330
18
100
AcDbEntity
  8
1
 48
0.04
100
AcDbPolyline
 90
        2
 70
     0
 43
0.0
 10
254.5971585634287
 20
337.3379498782255
 10
254.5971585634287
 20
337.4351721004477
  0
LWPOLYLINE
  5
13A6
330
18
100
AcDbEntity
  8
1
 48
0.04
100
AcDbPolyline
 90
        6
 70
     0
 43
0.0
 10
254.844843748614
 20
339.069431359707
 10
254.8633622671324
 20
339.069431359707
 10
254.8795659708362
 20
339.0671165448922
 10
254.8888252300955
 20
339.0671165448922
 10
254.8934548597251
 20
339.0717461745218
 10
254.8957696745399
 20
339.0763758041515
  0
LWPOLYLINE
  5
13A7
330
18
100
AcDbEntity
  8
1
 48
0.04
100
AcDbPolyline
 90
        2
 70
     0
 43
0.0
 10
254.844843748614
 20
338.9305424708181
 10
254.844843748614
 20
339.069431359707
  0
LWPOLYLINE
  5
13A8
330
18
100
AcDbEntity
  8
1
 48
0.04
100
AcDbPolyline
 90
        4
 70
     0
 43
0.0
 10
254.844843748614
 20
338.9305424708181
 10
254.8587326375028
 20
338.9282276560033
 10
254.8726215263917
 20
338.9212832115589
 10
254.8865104152806
 20
338.9027646930403
  0
LWPOLYLINE
  5
13A9
330
18
100
AcDbEntity
  8
1
 48
0.04
100
AcDbPolyline
 90
        3
 70
     0
 43
0.0
 10
254.8865104152806
 20
338.9027646930403
 10
254.8957696745399
 20
338.8865609893366
 10
254.9027141189843
 20
338.8564683967441
  0
LWPOLYLINE
  5
13AB
330
18
100
AcDbEntity
  8
1
 48
0.04
100
AcDbPolyline
 90
        2
 70
     0
 43
0.0
 10
254.8957696745399
 20
339.0763758041515
 10
254.9027141189843
 20
339.0671165448922
  0
LWPOLYLINE
  5
13AC
330
18
100
AcDbEntity
  8
1
 48
0.04
100
AcDbPolyline
 90
        3
 70
     0
 43
0.0
 10
254.844843748614
 20
337.0161906189663
 10
254.8633622671324
 20
337.0208202485959
 10
254.8706013243715
 20
337.0244397772154
  0
LWPOLYLINE
  5
13AD
330
18
100
AcDbEntity
  8
1
 48
0.04
100
AcDbPolyline
 90
        2
 70
     0
 43
0.0
 10
254.844843748614
 20
336.9282276560033
 10
254.844843748614
 20
337.0161906189663
  0
LWPOLYLINE
  5
13AE
330
18
100
AcDbEntity
  8
1
 48
0.04
100
AcDbPolyline
 90
        3
 70
     0
 43
0.0
 10
254.844843748614
 20
336.9282276560033
 10
254.8726215263917
 20
336.9282276560033
 10
254.8865104152806
 20
336.9305424708181
  0
LWPOLYLINE
  5
13AF
330
18
100
AcDbEntity
  8
1
 48
0.04
100
AcDbPolyline
 90
        3
 70
     0
 43
0.0
 10
254.8865104152806
 20
336.9305424708181
 10
254.8957696745399
 20
336.9351721004477
 10
254.9027141189843
 20
336.9421165448922
  0
LWPOLYLINE
  5
13B3
330
18
100
AcDbEntity
  8
1
 48
0.04
100
AcDbPolyline
 90
        2
 70
     0
 43
0.0
 10
254.4582696745399
 20
336.9536906189663
 10
254.4582696745399
 20
338.0080887671144
  0
LWPOLYLINE
  5
13B7
330
18
100
AcDbEntity
  8
1
 48
0.04
100
AcDbPolyline
 90
        2
 70
     0
 43
0.0
 10
254.4582696745399
 20
338.2685054337811
 10
254.4582696745399
 20
339.6018387671144
  0
LWPOLYLINE
  5
13BB
330
18
100
AcDbEntity
  8
1
 48
0.04
100
AcDbPolyline
 90
        2
 70
     0
 43
0.0
 10
254.5740104152806
 20
337.0347091374848
 10
254.5994733782436
 20
337.1365609893367
  0
LWPOLYLINE
  5
13BC
330
18
100
AcDbEntity
  8
1
 48
0.04
100
AcDbPolyline
 90
        2
 70
     0
 43
0.0
 10
254.5994733782436
 20
337.1365609893367
 10
254.5184548597251
 20
337.1342461745218
  0
LWPOLYLINE
  5
13BD
330
18
100
AcDbEntity
  8
1
 48
0.04
100
AcDbPolyline
 90
        2
 70
     0
 43
0.0
 10
254.5184548597251
 20
336.9305424708181
 10
254.5184548597251
 20
337.1342461745218
  0
LWPOLYLINE
  5
13BE
330
18
100
AcDbEntity
  8
1
 48
0.04
100
AcDbPolyline
 90
        2
 70
     0
 43
0.0
 10
254.844843748614
 20
336.9282276560033
 10
254.5184548597251
 20
336.9305424708181
  0
LWPOLYLINE
  5
13BF
330
18
100
AcDbEntity
  8
1
 48
0.04
100
AcDbPolyline
 90
        3
 70
     0
 43
0.0
 10
254.844843748614
 20
337.0161906189663
 10
254.7661400449102
 20
337.0138758041514
 10
254.6874363412065
 20
337.0092461745218
  0
LWPOLYLINE
  5
13C0
330
18
100
AcDbEntity
  8
1
 48
0.04
100
AcDbPolyline
 90
        2
 70
     0
 43
0.0
 10
254.6874363412065
 20
337.0092461745218
 10
254.6689178226881
 20
337.0092461745218
  0
LWPOLYLINE
  5
13C1
330
18
100
AcDbEntity
  8
1
 48
0.04
100
AcDbPolyline
 90
        2
 70
     0
 43
0.0
 10
254.6689178226881
 20
337.0092461745218
 10
254.6156770819473
 20
337.006931359707
  0
LWPOLYLINE
  5
13C3
330
18
100
AcDbEntity
  8
1
 48
0.04
100
AcDbPolyline
 90
        7
 70
     0
 43
0.0
 10
254.6156770819473
 20
337.006931359707
 10
254.606417822688
 20
337.006931359707
 10
254.5948437486139
 20
337.0092461745218
 10
254.5832696745399
 20
337.0138758041514
 10
254.5763252300954
 20
337.0208202485959
 10
254.5740104152806
 20
337.0277646930404
 10
254.5740104152806
 20
337.0347091374848
  0
LWPOLYLINE
  5
13C4
330
18
100
AcDbEntity
  8
1
 48
0.04
100
AcDbPolyline
 90
        6
 70
     0
 43
0.0
 10
254.4582696745399
 20
337.1735980263736
 10
254.4652141189843
 20
337.15739432267
 10
254.4767881930584
 20
337.1458202485959
 10
254.4929918967621
 20
337.1365609893367
 10
254.5115104152806
 20
337.1342461745218
 10
254.5184548597251
 20
337.1342461745218
  0
LWPOLYLINE
  5
13C5
330
18
100
AcDbEntity
  8
1
 48
0.04
100
AcDbPolyline
 90
        5
 70
     0
 43
0.0
 10
254.4582696745399
 20
336.9536906189663
 10
254.4628993041695
 20
336.944431359707
 10
254.4767881930584
 20
336.9351721004477
 10
254.4906770819473
 20
336.932857285633
 10
254.4976215263917
 20
336.932857285633
  0
LWPOLYLINE
  5
13C6
330
18
100
AcDbEntity
  8
1
 48
0.04
100
AcDbPolyline
 90
        3
 70
     0
 43
0.0
 10
254.4976215263917
 20
336.932857285633
 10
254.5115104152806
 20
336.9305424708181
 10
254.5184548597251
 20
336.9305424708181
  0
LWPOLYLINE
  5
13C7
330
18
100
AcDbEntity
  8
1
 48
0.04
100
AcDbPolyline
 90
        6
 70
     0
 43
0.0
 10
254.4582696745399
 20
339.1759128411885
 10
254.4652141189843
 20
339.1874869152626
 10
254.4767881930584
 20
339.1967461745218
 10
254.4929918967621
 20
339.206005433781
 10
254.5115104152806
 20
339.2083202485959
 10
254.5184548597251
 20
339.2083202485959
  0
LWPOLYLINE
  5
13C8
330
18
100
AcDbEntity
  8
1
 48
0.04
100
AcDbPolyline
 90
        5
 70
     0
 43
0.0
 10
254.4582696745399
 20
338.8564683967441
 10
254.4628993041695
 20
338.8842461745218
 10
254.4767881930584
 20
338.9143387671144
 10
254.4906770819473
 20
338.9282276560033
 10
254.4953067115769
 20
338.9305424708181
  0
LWPOLYLINE
  5
13C9
330
18
100
AcDbEntity
  8
1
 48
0.04
100
AcDbPolyline
 90
        4
 70
     0
 43
0.0
 10
254.4953067115769
 20
338.9305424708181
 10
254.4976215263917
 20
338.932857285633
 10
254.5115104152806
 20
338.9374869152626
 10
254.5184548597251
 20
338.9374869152626
  0
LWPOLYLINE
  5
13CA
330
18
100
AcDbEntity
  8
1
 48
0.04
100
AcDbPolyline
 90
        2
 70
     0
 43
0.0
 10
254.5184548597251
 20
338.9374869152626
 10
254.5184548597251
 20
339.2083202485959
  0
LWPOLYLINE
  5
13CB
330
18
100
AcDbEntity
  8
1
 48
0.04
100
AcDbPolyline
 90
        2
 70
     0
 43
0.0
 10
254.5740104152806
 20
339.0925795078552
 10
254.5994733782436
 20
339.2129498782255
  0
LWPOLYLINE
  5
13CC
330
18
100
AcDbEntity
  8
1
 48
0.04
100
AcDbPolyline
 90
        2
 70
     0
 43
0.0
 10
254.5994733782436
 20
339.2129498782255
 10
254.5184548597251
 20
339.2083202485959
  0
LWPOLYLINE
  5
13CD
330
18
100
AcDbEntity
  8
1
 48
0.04
100
AcDbPolyline
 90
        2
 70
     0
 43
0.0
 10
254.844843748614
 20
338.9305424708181
 10
254.5184548597251
 20
338.9374869152626
  0
LWPOLYLINE
  5
13CE
330
18
100
AcDbEntity
  8
1
 48
0.04
100
AcDbPolyline
 90
        2
 70
     0
 43
0.0
 10
254.844843748614
 20
339.069431359707
 10
254.6874363412065
 20
339.0601721004478
  0
LWPOLYLINE
  5
13CF
330
18
100
AcDbEntity
  8
1
 48
0.04
100
AcDbPolyline
 90
        2
 70
     0
 43
0.0
 10
254.6874363412065
 20
339.0601721004478
 10
254.6689178226881
 20
339.057857285633
  0
LWPOLYLINE
  5
13D0
330
18
100
AcDbEntity
  8
1
 48
0.04
100
AcDbPolyline
 90
        2
 70
     0
 43
0.0
 10
254.6689178226881
 20
339.057857285633
 10
254.6156770819473
 20
339.0555424708181
  0
LWPOLYLINE
  5
13D2
330
18
100
AcDbEntity
  8
1
 48
0.04
100
AcDbPolyline
 90
        5
 70
     0
 43
0.0
 10
254.6156770819473
 20
339.0555424708181
 10
254.606417822688
 20
339.0555424708181
 10
254.5832696745399
 20
339.0648017300774
 10
254.5763252300954
 20
339.0740609893367
 10
254.5740104152806
 20
339.0856350634107
  0
LWPOLYLINE
  5
13D4
330
18
100
AcDbEntity
  8
1
 48
0.04
100
AcDbPolyline
 90
        2
 70
     0
 43
0.0
 10
254.7638252300954
 20
338.231468396744
 10
254.7638252300954
 20
338.2360980263737
  0
LWPOLYLINE
  5
13D5
330
18
100
AcDbEntity
  8
1
 48
0.04
100
AcDbPolyline
 90
        2
 70
     0
 43
0.0
 10
254.7502197879185
 20
338.2429479885808
 10
254.756880785651
 20
338.2407276560033
  0
LWPOLYLINE
  5
13D7
330
18
100
AcDbEntity
  8
1
 48
0.04
100
AcDbPolyline
 90
        2
 70
     0
 43
0.0
 10
254.756880785651
 20
338.2407276560033
 10
254.756880785651
 20
338.2384128411885
  0
LWPOLYLINE
  5
13D9
330
18
100
AcDbEntity
  8
1
 48
0.04
100
AcDbPolyline
 90
        2
 70
     0
 43
0.0
 10
254.756880785651
 20
338.2384128411885
 10
254.7638252300954
 20
338.2360980263737
  0
LWPOLYLINE
  5
13DB
330
18
100
AcDbEntity
  8
1
 48
0.04
100
AcDbPolyline
 90
        2
 70
     0
 43
0.0
 10
254.7638252300954
 20
338.231468396744
 10
254.7661400449102
 20
338.2291535819291
  0
LWPOLYLINE
  5
13E0
330
18
100
AcDbEntity
  8
1
 48
0.04
100
AcDbPolyline
 90
        2
 70
     0
 43
0.0
 10
254.9420659708362
 20
337.4259128411885
 10
254.9420659708362
 20
338.9768387671144
  0
LWPOLYLINE
  5
13E1
102
{ACAD_REACTORS
330
142E
102
}
330
18
100
AcDbEntity
  8
1
 48
0.04
100
AcDbPolyline
 90
        2
 70
     0
 43
0.0
 10
254.9721585634288
 20
337.4259128411885
 10
254.9721585634288
 20
338.9768387671144
  0
LWPOLYLINE
  5
13E2
102
{ACAD_REACTORS
330
1425
102
}
330
18
100
AcDbEntity
  8
1
 48
0.04
100
AcDbPolyline
 90
        2
 70
     0
 43
0.0
 10
254.9929918967621
 20
337.444431359707
 10
254.9929918967621
 20
338.9583202485959
  0
LWPOLYLINE
  5
13E3
330
18
100
AcDbEntity
  8
1
 48
0.04
100
AcDbPolyline
 90
        2
 70
     0
 43
0.0
 10
254.418917822688
 20
337.4259128411885
 10
254.418917822688
 20
338.9768387671144
  0
LWPOLYLINE
  5
13E4
330
18
100
AcDbEntity
  8
1
 48
0.04
100
AcDbPolyline
 90
        2
 70
     0
 43
0.0
 10
254.3888252300955
 20
337.4259128411885
 10
254.3888252300955
 20
338.9768387671144
  0
LWPOLYLINE
  5
13E5
330
18
100
AcDbEntity
  8
1
 48
0.04
100
AcDbPolyline
 90
        2
 70
     0
 43
0.0
 10
254.3703067115769
 20
337.444431359707
 10
254.3703067115769
 20
338.9583202485959
  0
LWPOLYLINE
  5
13E6
330
18
100
AcDbEntity
  8
1
 48
0.04
100
AcDbPolyline
 90
        2
 70
     0
 43
0.0
 10
254.3679918967621
 20
337.4536906189663
 10
254.3679918967621
 20
338.2013758041515
  0
LWPOLYLINE
  5
13E7
102
{ACAD_REACTORS
330
1425
102
}
330
18
100
AcDbEntity
  8
1
 48
0.04
100
AcDbPolyline
 90
        2
 70
     0
 43
0.0
 10
254.3679918967621
 20
338.2013758041515
 10
254.3679918967621
 20
338.9490609893367
  0
LWPOLYLINE
  5
13E8
330
18
100
AcDbEntity
  8
1
 48
0.04
100
AcDbPolyline
 90
        2
 70
     0
 43
0.0
 10
254.694380785651
 20
337.9652646930404
 10
254.7476215263916
 20
337.9652646930404
  0
LWPOLYLINE
  5
13EA
330
18
100
AcDbEntity
  8
1
 48
0.04
100
AcDbPolyline
 90
        3
 70
     0
 43
0.0
 10
254.7453067115769
 20
337.9652646930404
 10
254.731417822688
 20
337.9722091374848
 10
254.719843748614
 20
337.9814683967441
  0
LWPOLYLINE
  5
13EB
330
18
100
AcDbEntity
  8
1
 48
0.04
100
AcDbPolyline
 90
        3
 70
     0
 43
0.0
 10
254.7069028315064
 20
337.9890962627052
 10
254.7128993041695
 20
337.9860980263737
 10
254.719843748614
 20
337.9814683967441
  0
LWPOLYLINE
  5
13EC
330
18
100
AcDbEntity
  8
1
 48
0.04
100
AcDbPolyline
 90
        3
 70
     0
 43
0.0
 10
254.6758622671325
 20
337.9675795078551
 10
254.6712326375029
 20
337.9768387671144
 10
254.6712326375029
 20
337.9914546226394
  0
LWPOLYLINE
  5
13ED
330
18
100
AcDbEntity
  8
1
 48
0.04
100
AcDbPolyline
 90
        4
 70
     0
 43
0.0
 10
254.756880785651
 20
338.1296165448922
 10
254.756880785651
 20
338.1458202485959
 10
254.7591956004658
 20
338.1666535819292
 10
254.7591956004658
 20
338.1805424708181
  0
LWPOLYLINE
  5
13EE
330
18
100
AcDbEntity
  8
1
 48
0.04
100
AcDbPolyline
 90
        2
 70
     0
 43
0.0
 10
254.7591956004658
 20
338.1805424708181
 10
254.7615104152806
 20
338.2060054337811
  0
LWPOLYLINE
  5
13EF
330
18
100
AcDbEntity
  8
1
 48
0.04
100
AcDbPolyline
 90
        5
 70
     0
 43
0.0
 10
254.7254198562637
 20
337.9878719966056
 10
254.7406770819473
 20
337.9791535819292
 10
254.7615104152806
 20
337.9791535819292
 10
254.7777141189843
 20
337.9884128411885
 10
254.7892881930584
 20
338.0046165448922
  0
LWPOLYLINE
  5
13F0
330
18
100
AcDbEntity
  8
1
 48
0.04
100
AcDbPolyline
 90
        2
 70
     0
 43
0.0
 10
254.719843748614
 20
337.9814683967441
 10
254.719843748614
 20
337.9882406648799
  0
LWPOLYLINE
  5
13F2
330
18
100
AcDbEntity
  8
1
 48
0.04
100
AcDbPolyline
 90
        2
 70
     0
 43
0.0
 10
254.7476215263916
 20
337.9606350634107
 10
254.7476215263916
 20
337.9652646930404
  0
LWPOLYLINE
  5
13F3
330
18
100
AcDbEntity
  8
1
 48
0.04
100
AcDbPolyline
 90
        2
 70
     0
 43
0.0
 10
254.7476215263916
 20
337.9652646930404
 10
254.7453067115769
 20
337.9606350634107
  0
LWPOLYLINE
  5
13F5
330
18
100
AcDbEntity
  8
1
 48
0.04
100
AcDbPolyline
 90
        2
 70
     0
 43
0.0
 10
254.7615104152806
 20
338.1643387671144
 10
254.7638252300954
 20
338.1782276560033
  0
LWPOLYLINE
  5
13F6
330
18
100
AcDbEntity
  8
1
 48
0.04
100
AcDbPolyline
 90
        2
 70
     0
 43
0.0
 10
254.7638252300954
 20
338.1782276560033
 10
254.7591956004658
 20
338.1805424708181
  0
LWPOLYLINE
  5
13F7
330
18
100
AcDbEntity
  8
1
 48
0.04
100
AcDbPolyline
 90
        2
 70
     0
 43
0.0
 10
254.7671009114372
 20
338.0254498782255
 10
254.7860202192022
 20
338.0254498782255
  0
LWPOLYLINE
  5
13F8
330
18
100
AcDbEntity
  8
1
 48
0.04
100
AcDbPolyline
 90
        2
 70
     0
 43
0.0
 10
254.7615104152806
 20
338.2060054337811
 10
254.7661400449102
 20
338.2083202485959
  0
LWPOLYLINE
  5
13FA
330
18
100
AcDbEntity
  8
1
 48
0.04
100
AcDbPolyline
 90
        2
 70
     0
 43
0.0
 10
254.7591956004658
 20
336.8240609893367
 10
254.7615235469121
 20
336.9288185794196
  0
LWPOLYLINE
  5
13FC
330
18
100
AcDbEntity
  8
1
 48
0.04
100
AcDbPolyline
 90
        2
 70
     0
 43
0.0
 10
254.7615104152806
 20
336.7337832115589
 10
254.7638252300954
 20
336.807857285633
  0
LWPOLYLINE
  5
13FD
330
18
100
AcDbEntity
  8
1
 48
0.04
100
AcDbPolyline
 90
        2
 70
     0
 43
0.0
 10
254.7638252300954
 20
336.807857285633
 10
254.7591956004658
 20
336.8240609893367
  0
LWPOLYLINE
  5
13FE
330
18
100
AcDbEntity
  8
1
 48
0.04
100
AcDbPolyline
 90
        2
 70
     0
 43
0.0
 10
254.7892881930584
 20
339.65739432267
 10
254.7892881930584
 20
339.6550795078551
  0
LWPOLYLINE
  5
1400
330
18
100
AcDbEntity
  8
1
 48
0.04
100
AcDbPolyline
 90
        2
 70
     0
 43
0.0
 10
254.4582696745399
 20
338.6990609893367
 10
254.9027141189843
 20
338.668968396744
  0
LWPOLYLINE
  5
1401
330
18
100
AcDbEntity
  8
1
 48
0.04
100
AcDbPolyline
 90
        2
 70
     0
 43
0.0
 10
254.4582696745399
 20
338.6504498782255
 10
254.9027141189843
 20
338.6180424708181
  0
LWPOLYLINE
  5
1402
330
18
100
AcDbEntity
  8
1
 48
0.04
100
AcDbPolyline
 90
        2
 70
     0
 43
0.0
 10
254.7661400449102
 20
338.2129498782255
 10
254.9027141189843
 20
338.2036906189664
  0
LWPOLYLINE
  5
1403
330
18
100
AcDbEntity
  8
1
 48
0.04
100
AcDbPolyline
 90
        2
 70
     0
 43
0.0
 10
254.8865104152806
 20
338.9027646930403
 10
254.4953067115769
 20
338.9305424708181
  0
LWPOLYLINE
  5
1404
330
18
100
AcDbEntity
  8
1
 48
0.04
100
AcDbPolyline
 90
       19
 70
     0
 43
0.0
 10
254.7962326375028
 20
338.6921165448922
 10
254.8124363412065
 20
338.6967461745218
 10
254.8216956004658
 20
338.7060054337811
 10
254.8286400449103
 20
338.7152646930403
 10
254.8309548597251
 20
338.7268387671144
 10
254.8263252300955
 20
338.7407276560033
 10
254.8170659708362
 20
338.7546165448922
 10
254.8031770819473
 20
338.7638758041514
 10
254.7869733782436
 20
338.768505433781
 10
254.7684548597251
 20
338.768505433781
 10
254.7545659708362
 20
338.7661906189663
 10
254.7429918967621
 20
338.756931359707
 10
254.7360474523177
 20
338.745357285633
 10
254.731417822688
 20
338.7337832115589
 10
254.7337326375028
 20
338.71989432267
 10
254.7406770819473
 20
338.7083202485959
 10
254.7545659708362
 20
338.6990609893367
 10
254.7684548597251
 20
338.6921165448922
 10
254.7962326375028
 20
338.6921165448922
  0
LWPOLYLINE
  5
1408
330
18
100
AcDbEntity
  8
1
 48
0.04
100
AcDbPolyline
 90
        2
 70
     0
 43
0.0
 10
254.5994733782436
 20
337.3263758041515
 10
254.6017881930584
 20
337.2129498782255
  0
LWPOLYLINE
  5
140D
330
18
100
AcDbEntity
  8
1
 48
0.04
100
AcDbPolyline
 90
        2
 70
     0
 43
0.0
 10
254.5994733782436
 20
337.1990609893367
 10
254.5994733782436
 20
337.1365609893367
  0
LWPOLYLINE
  5
140E
330
18
100
AcDbEntity
  8
1
 48
0.04
100
AcDbPolyline
 90
        2
 70
     0
 43
0.0
 10
254.6017881930584
 20
337.2129498782255
 10
254.5994733782436
 20
337.1990609893367
  0
LWPOLYLINE
  5
1411
330
18
100
AcDbEntity
  8
1
 48
0.04
100
AcDbPolyline
 90
        2
 70
     0
 43
0.0
 10
254.5971585634287
 20
337.3379498782255
 10
254.5994733782436
 20
337.3263758041515
  0
LWPOLYLINE
  5
1412
330
18
100
AcDbEntity
  8
1
 48
0.04
100
AcDbPolyline
 90
        2
 70
     0
 43
0.0
 10
254.6920659708362
 20
339.0601721004478
 10
254.6920659708362
 20
339.0648017300774
  0
LWPOLYLINE
  5
1413
330
18
100
AcDbEntity
  8
1
 48
0.04
100
AcDbPolyline
 90
        2
 70
     0
 43
0.0
 10
254.6920659708362
 20
339.0648017300774
 10
254.663313534189
 20
339.0576136209157
  0
LWPOLYLINE
  5
1414
330
18
100
AcDbEntity
  8
1
 48
0.04
100
AcDbPolyline
 90
        2
 70
     0
 43
0.0
 10
254.6035277284517
 20
339.1463681337593
 10
254.6017881930584
 20
339.1620239522996
  0
LWPOLYLINE
  5
1415
330
18
100
AcDbEntity
  8
1
 48
0.04
100
AcDbPolyline
 90
        2
 70
     0
 43
0.0
 10
254.5740104152806
 20
339.0925795078552
 10
254.5740104152806
 20
339.0856350634107
  0
LWPOLYLINE
  5
1416
330
18
100
AcDbEntity
  8
1
 48
0.04
100
AcDbPolyline
 90
        2
 70
     0
 43
0.0
 10
254.5785114440871
 20
339.0711460373477
 10
254.5994733782436
 20
339.168968396744
  0
LWPOLYLINE
  5
1417
330
18
100
AcDbEntity
  8
1
 48
0.04
100
AcDbPolyline
 90
        2
 70
     0
 43
0.0
 10
254.5994733782436
 20
339.168968396744
 10
254.5994733782436
 20
339.2129498782255
  0
LWPOLYLINE
  5
1418
330
18
100
AcDbEntity
  8
1
 48
0.04
100
AcDbPolyline
 90
        2
 70
     0
 43
0.0
 10
254.8957696745399
 20
339.0763758041515
 10
254.6920659708362
 20
339.0648017300774
  0
LWPOLYLINE
  5
1419
330
18
100
AcDbEntity
  8
1
 48
0.04
100
AcDbPolyline
 90
        2
 70
     0
 43
0.0
 10
254.6017881930584
 20
339.1620239522996
 10
254.5994733782436
 20
339.168968396744
  0
LWPOLYLINE
  5
141A
330
18
100
AcDbEntity
  8
1
 48
0.04
100
AcDbPolyline
 90
        2
 70
     0
 43
0.0
 10
254.8679918967621
 20
337.819431359707
 10
254.4767881930584
 20
337.8009128411885
  0
LWPOLYLINE
  5
141B
330
18
100
AcDbEntity
  8
1
 48
0.04
100
AcDbPolyline
 90
        2
 70
     0
 43
0.0
 10
254.4582696745399
 20
337.3634128411885
 10
254.5971585634287
 20
337.370357285633
  0
LWPOLYLINE
  5
141C
330
18
100
AcDbEntity
  8
1
 48
0.04
100
AcDbPolyline
 90
        2
 70
     0
 43
0.0
 10
254.4582696745399
 20
339.3356350634107
 10
254.9027141189843
 20
339.356468396744
  0
LWPOLYLINE
  5
141D
330
18
100
AcDbEntity
  8
1
 48
0.04
100
AcDbPolyline
 90
        2
 70
     0
 43
0.0
 10
254.4582696745399
 20
339.256931359707
 10
254.9027141189843
 20
339.2800795078551
  0
LWPOLYLINE
  5
141E
330
18
100
AcDbEntity
  8
1
 48
0.04
100
AcDbPolyline
 90
        2
 70
     0
 43
0.0
 10
254.8679918967621
 20
339.6157276560033
 10
254.4767881930584
 20
339.59489432267
  0
DIMENSION
  5
141F
330
18
100
AcDbEntity
  8
2
 48
0.04
100
AcDbDimension
  2
*D0
 10
256.1596714356054
 20
336.7013758041514
 30
0.0
 11
255.9963194178543
 21
338.2013758041515
 31
0.0
 70
    32
  1
%%c<>
 71
     5
 42
3.0
  3
STANDARD
100
AcDbAlignedDimension
 13
254.7267881930584
 23
339.7013758041514
 33
0.0
 14
254.7267881930584
 24
336.7013758041514
 34
0.0
 50
90.0
100
AcDbRotatedDimension
1001
ACAD_DSTYLE_DIMINSPECT
1070
   396
1000
100%
1070
   395
1000

1070
   394
1070
    33
1070
   393
1070
     0
1001
ACAD
1000
DSTYLE
1002
{
1070
   272
1070
     2
1070
   274
1070
     3
1070
   283
1070
     1
1070
   284
1070
     8
1002
}
  0
LINE
  5
1422
330
18
100
AcDbEntity
  8
SK4
 48
0.04
100
AcDbLine
 10
254.1712326375028
 20
338.2013758041515
 30
0.0
 11
255.1897511560214
 21
338.2013758041515
 31
0.0
  0
DIMENSION
  5
1423
102
{ACAD_XDICTIONARY
360
1424
102
}
102
{ACAD_REACTORS
330
1425
102
}
330
18
100
AcDbEntity
  8
2
 48
0.04
100
AcDbDimension
  2
*D1
 10
254.3679918967621
 20
340.3190803486063
 30
0.0
 11
253.7650754122362
 21
340.4803988450733
 31
0.0
 70
    32
 71
     5
 42
0.625
  3
STANDARD
100
AcDbAlignedDimension
 13
254.9929918967621
 23
338.9583202485959
 33
0.0
 14
254.3679918967621
 24
338.9490609893367
 34
0.0
100
AcDbRotatedDimension
1001
ACAD_DSTYLE_DIMINSPECT
1070
   396
1000
100%
1070
   395
1000

1070
   394
1070
    33
1070
   393
1070
     0
  0
DIMENSION
  5
1426
102
{ACAD_XDICTIONARY
360
1427
102
}
102
{ACAD_REACTORS
330
1428
102
}
330
18
100
AcDbEntity
  8
2
 48
0.04
100
AcDbDimension
  2
*D2
 10
254.4304918967621
 20
339.9561017897667
 30
0.0
 11
253.7669721619222
 21
340.1174202862336
 31
0.0
 70
    32
 71
     5
 42
0.5
  3
STANDARD
100
AcDbAlignedDimension
 13
254.9304918967621
 23
339.1990609893367
 33
0.0
 14
254.4304918967621
 24
339.6851721004477
 34
0.0
100
AcDbRotatedDimension
1001
ACAD_DSTYLE_DIMINSPECT
1070
   396
1000
100%
1070
   395
1000

1070
   394
1070
    33
1070
   393
1070
     0
1001
ACAD
1000
DSTYLE
1002
{
1070
   271
1070
     1
1070
   272
1070
     2
1070
   274
1070
     3
1070
   283
1070
     1
1070
   284
1070
     8
1002
}
  0
DIMENSION
  5
1429
330
18
100
AcDbEntity
  8
2
 48
0.04
100
AcDbDimension
  2
*D3
 10
255.6191782874946
 20
338.9980618425231
 30
0.0
 11
255.6191782874945
 21
340.3042922886773
 31
0.0
 70
   160
 71
     5
 42
0.7033139616282825
  3
STANDARD
100
AcDbAlignedDimension
 13
254.7267881930584
 23
339.7013758041514
 33
0.0
 14
254.9183276782206
 24
338.9980618425231
 34
0.0
 50
90.0
100
AcDbRotatedDimension
1001
ACAD_DSTYLE_DIMINSPECT
1070
   396
1000
100%
1070
   395
1000

1070
   394
1070
    33
1070
   393
1070
     0
1001
ACAD
1000
DSTYLE
1002
{
1070
   271
1070
     1
1070
   272
1070
     2
1070
   274
1070
     3
1070
   283
1070
     1
1070
   284
1070
     8
1002
}
  0
DIMENSION
  5
142C
102
{ACAD_XDICTIONARY
360
142D
102
}
102
{ACAD_REACTORS
330
142E
102
}
330
18
100
AcDbEntity
  8
2
 48
0.04
100
AcDbDimension
  2
*D4
 10
255.6191782874945
 20
337.4259128411885
 30
0.0
 11
255.4558262697433
 21
338.2013758041515
 31
0.0
 70
    32
  1
%%c<>
 71
     5
 42
1.550925925925866
  3
STANDARD
100
AcDbAlignedDimension
 13
254.9721585634288
 23
338.9768387671144
 33
0.0
 14
254.9721585634288
 24
337.4259128411885
 34
0.0
 50
90.0
100
AcDbRotatedDimension
1001
ACAD_DSTYLE_DIMINSPECT
1070
   396
1000
100%
1070
   395
1000

1070
   394
1070
    33
1070
   393
1070
     0
1001
ACAD
1000
DSTYLE
1002
{
1070
   271
1070
     2
1002
}
  0
MTEXT
  5
142F
330
18
100
AcDbEntity
  8
SK6
 48
0.04
100
AcDbMText
 10
254.3679918967621
 20
336.4648901989014
 30
0.0
 40
0.1377952755905512
 41
2.787932498663622
 71
     1
 72
     5
  1
335.18-03.00-0.50F-4N\P21508
  7
STANDARD 3.5 mm
 73
     1
 44
1.0
1001
ACAD
1000
ACAD_MTEXT_COLUMN_INFO_BEGIN
1070
    75
1070
     2
1070
    79
1070
     0
1070
    76
1070
     1
1070
    78
1070
     0
1070
    48
1040
2.787932498663622
1070
    49
1040
25.0
1070
    50
1070
     1
1040
0.0
1000
ACAD_MTEXT_COLUMN_INFO_END
1000
MTEXTBEGIN
1070
    73
1070
     1
1070
    44
1040
1.0
1070
    74
1070
     0
1000
MTEXTEND
  0
LINE
  5
19FF
330
18
100
AcDbEntity
  8
1
 48
0.04
100
AcDbLine
 10
254.7661400449102
 20
338.2291535819291
 30
0.0
 11
254.7661400449102
 21
338.2083202485959
 31
0.0
  0
LINE
  5
1A00
330
18
100
AcDbEntity
  8
1
 48
0.04
100
AcDbLine
 10
254.7522511560214
 20
337.9606350634107
 30
0.0
 11
254.7453067115769
 21
337.9606350634107
 31
0.0
  0
LINE
  5
1A01
330
18
100
AcDbEntity
  8
1
 48
0.04
100
AcDbLine
 10
254.7753993041695
 20
339.6504498782255
 30
0.0
 11
254.6758622671325
 21
339.6504498782255
 31
0.0
  0
LINE
  5
1A05
330
18
100
AcDbEntity
  8
1
 48
0.04
100
AcDbLine
 10
254.8008622671325
 20
337.2985980263737
 30
0.0
 11
254.793917822688
 21
337.2985980263737
 31
0.0
  0
LINE
  5
1A06
330
18
100
AcDbEntity
  8
1
 48
0.04
100
AcDbLine
 10
254.7267881930584
 20
337.3263758041515
 30
0.0
 11
254.7267881930584
 21
337.319431359707
 31
0.0
  0
LINE
  5
1A07
330
18
100
AcDbEntity
  8
1
 48
0.04
100
AcDbLine
 10
254.6527141189844
 20
338.2175795078552
 30
0.0
 11
254.6480844893547
 21
338.2175795078552
 31
0.0
  0
LINE
  5
1A08
330
18
100
AcDbEntity
  8
1
 48
0.04
100
AcDbLine
 10
254.6503993041695
 20
338.2222091374848
 30
0.0
 11
254.657343748614
 21
338.2222091374848
 31
0.0
  0
LINE
  5
1A09
330
18
100
AcDbEntity
  8
1
 48
0.04
100
AcDbLine
 10
254.6041030078732
 20
338.231468396744
 30
0.0
 11
254.5809548597251
 21
338.231468396744
 31
0.0
  0
LINE
  5
1A0A
330
18
100
AcDbEntity
  8
1
 48
0.04
100
AcDbLine
 10
254.5601215263917
 20
338.2268387671144
 30
0.0
 11
254.5716956004658
 21
338.2268387671144
 31
0.0
  0
LINE
  5
1A0B
330
18
100
AcDbEntity
  8
1
 48
0.04
100
AcDbLine
 10
254.5763252300954
 20
338.2222091374848
 30
0.0
 11
254.5670659708362
 21
338.2222091374848
 31
0.0
  0
LINE
  5
1A0C
330
18
100
AcDbEntity
  8
1
 48
0.04
100
AcDbLine
 10
254.9304918967621
 20
339.2546165448922
 30
0.0
 11
254.9304918967621
 21
339.1990609893367
 31
0.0
  0
DIMENSION
  5
1DF6
330
18
100
AcDbEntity
  8
SK2
100
AcDbDimension
  2
*D7
 10
254.0505048576277
 20
338.7013758041515
 30
0.0
 11
253.8871528398765
 21
338.2013758041515
 31
0.0
 70
    32
  1
%%c<>
 71
     5
 42
1.000000000000055
  3
STANDARD
100
AcDbAlignedDimension
 13
254.3679918967621
 23
337.7013758041514
 33
0.0
 14
254.3679918967621
 24
338.7013758041515
 34
0.0
 50
90.0
100
AcDbRotatedDimension
1001
ACAD
1000
DSTYLE
1002
{
1070
   286
1070
     8
1070
   274
1070
     2
1070
   284
1070
     8
1070
   283
1070
     1
1070
   146
1040
0.7071069999999999
1070
   272
1070
     3
1070
    47
1040
0.0
1070
    48
1040
0.000000001
1070
    72
1070
     0
1070
    71
1070
     0
1002
}
1001
ACAD_DSTYLE_DIMINSPECT
1070
   396
1000
100%
1070
   395
1000

1070
   394
1070
    33
1070
   393
1070
     0
  0
LINE
  5
1E86
330
18
100
AcDbEntity
  8
SK3
 48
0.04
100
AcDbLine
 10
254.3679918967621
 20
338.7013758041515
 30
0.0
 11
254.9929918967621
 21
338.7013758041515
 31
0.0
  0
LINE
  5
1E89
330
18
100
AcDbEntity
  8
SK3
 48
0.04
100
AcDbLine
 10
254.3679918967621
 20
337.7013758041515
 30
0.0
 11
254.9929918967621
 21
337.7013758041515
 31
0.0
  0
ARC
  5
2292
330
18
100
AcDbEntity
  8
1
100
AcDbCircle
 10
254.3951474975328
 20
338.9519979811587
 30
0.0
 40
0.0256327078641455
100
AcDbArc
 50
104.2792724258315
 51
165.7207275745233
  0
ARC
  5
22C2
330
18
100
AcDbEntity
  8
1
100
AcDbCircle
 10
254.4190958959285
 20
339.0160125457258
 30
0.0
 40
0.0391741833453634
100
AcDbArc
 50
269.7395509135597
 51
0.2604490864407669
  0
ARC
  5
22C3
330
18
100
AcDbEntity
  8
1
100
AcDbCircle
 10
254.9733159708362
 20
338.9571628411884
 30
0.0
 40
0.0197099379235229
100
AcDbArc
 50
3.366460663551091
 51
93.36646066338129
  0
ARC
  5
22C4
330
18
100
AcDbEntity
  8
1
100
AcDbCircle
 10
254.9410866261068
 20
339.0137867728121
 30
0.0
 40
0.0369609826863492
100
AcDbArc
 50
228.5154591538058
 51
271.5183278022684
  0
ARC
  5
22C5
330
18
100
AcDbEntity
  8
1
100
AcDbCircle
 10
254.3951474975328
 20
337.4507536271443
 30
0.0
 40
0.0256327078641455
100
AcDbArc
 50
194.2792724254749
 51
255.7207275741683
  0
ARC
  5
22C6
330
18
100
AcDbEntity
  8
1
100
AcDbCircle
 10
254.4190958959285
 20
337.3867390625772
 30
0.0
 40
0.0391741833453634
100
AcDbArc
 50
359.7395509135592
 51
90.26044908644037
  0
ARC
  5
22C7
330
18
100
AcDbEntity
  8
1
100
AcDbCircle
 10
254.9733159708362
 20
337.4455887671147
 30
0.0
 40
0.0197099379235229
100
AcDbArc
 50
266.6335393366186
 51
356.633539336448
  0
ARC
  5
22C8
330
18
100
AcDbEntity
  8
1
100
AcDbCircle
 10
254.9410866261068
 20
337.3889648354909
 30
0.0
 40
0.0369609826863492
100
AcDbArc
 50
88.48167219773161
 51
112.0631119915576
  0
LWPOLYLINE
  5
22C9
330
18
100
AcDbEntity
  8
1
 48
0.04
100
AcDbPolyline
 90
        2
 70
     0
 43
0.0
 10
254.9420659708362
 20
337.4259128411885
 10
254.9721585634288
 20
337.4259128411885
  0
LWPOLYLINE
  5
22CA
330
18
100
AcDbEntity
  8
1
 48
0.04
100
AcDbPolyline
 90
        3
 70
     0
 43
0.0
 10
254.6133622671324
 20
337.7360980263737
 10
254.6087326375028
 20
337.7360980263737
 10
254.5925289337991
 20
337.7337832115589
  0
LWPOLYLINE
  5
22CB
330
18
100
AcDbEntity
  8
1
 48
0.04
100
AcDbPolyline
 90
        2
 70
     0
 43
0.0
 10
254.7175289337991
 20
337.2708202485959
 10
254.7175289337991
 20
337.2731350634107
  0
VIEWPORT
  5
B7D
102
{ACAD_XDICTIONARY
360
B7E
102
}
330
B76
100
AcDbEntity
 67
     1
  8
0
100
AcDbViewport
 10
148.5107508928981
 20
104.9919851296364
 30
0.0
 40
478.4423408046921
 41
231.5368674036399
 68
     1
 69
     1
 12
148.5107508928981
 22
104.9919851296364
 13
0.0
 23
0.0
 14
10.0
 24
10.0
 15
10.0
 25
10.0
 16
0.0
 26
0.0
 36
1.0
 17
0.0
 27
0.0
 37
0.0
 42
50.0
 43
0.0
 44
0.0
 45
231.5368674036399
 50
0.0
 51
0.0
 72
  2000
 90
   819232
  1

281
     0
 71
     1
 74
     0
110
0.0
120
0.0
130
0.0
111
1.0
121
0.0
131
0.0
112
0.0
122
1.0
132
0.0
 79
     0
146
0.0
1001
GENIUS_GENOBJ-N-SDF_13
1002
{
1000
OWNER
1000
GEN
1002
}
1001
GENIUS_GENODEF_13
1002
{
1000
HIER
1070
     0
1002
}
1002
{
1000
MANEDIT
1070
     0
1002
}
1002
{
1000
NOSEL
1070
     0
1002
}
1002
{
1000
BEHIND
1070
     0
1002
}
1002
{
1000
OTHER
1070
     0
1002
}
1002
{
1000
REACTOR
1002
}
1001
GENIUS_GENSCREG_15
1000
PF
1040
1.0
1000
DF
1040
1.0
1000
MIN
1011
-90.71041950944794
1021
-10.77644857218354
1031
0.0
1000
MAX
1011
387.7319212952442
1021
220.7604188314564
1031
0.0
1000
FLAGS
1070
     4
  0
VIEWPORT
  5
B81
102
{ACAD_XDICTIONARY
360
B82
102
}
330
B76
100
AcDbEntity
 67
     1
  8
1
100
AcDbViewport
 10
148.5
 20
105.0
 30
0.0
 40
297.0
 41
210.0
 68
     2
 69
     2
 12
0.0947728278484874
 22
0.1902310545302228
 13
0.0
 23
0.0
 14
5.0
 24
5.0
 15
5.0
 25
5.0
 16
0.0
 26
0.0
 36
1.0
 17
0.0
 27
0.0
 37
0.0
 42
50.0
 43
0.0
 44
0.0
 45
210.0000006422834
 50
0.0
 51
0.0
 72
  2000
 90
   819232
  1

281
     0
 71
     1
 74
     0
110
0.0
120
0.0
130
0.0
111
1.0
121
0.0
131
0.0
112
0.0
122
1.0
132
0.0
 79
     0
146
0.0
1001
GENIUS_GENOBJ-N-SDF_13
1002
{
1000
OWNER
1000
GEN
1002
}
1001
GENIUS_GENODEF_13
1002
{
1000
HIER
1070
     0
1002
}
1002
{
1000
MANEDIT
1070
     0
1002
}
1002
{
1000
NOSEL
1070
     0
1002
}
1002
{
1000
BEHIND
1070
     0
1002
}
1002
{
1000
OTHER
1070
     0
1002
}
1002
{
1000
REACTOR
1002
}
1001
GENIUS_GENSCREG_15
1000
PF
1040
0.0
1000
DF
1040
0.0
1000
MIN
1011
0.0
1021
0.0
1031
0.0
1000
MAX
1011
297.0
1021
210.0
1031
0.0
1000
FLAGS
1070
     4
  0
ENDSEC
  0
SECTION
  2
OBJECTS
  0
DICTIONARY
  5
C
330
0
100
AcDbDictionary
281
     1
  3
ACAD_2007HEADERVARS_RT
350
25A4
  3
ACAD_CIP_PREVIOUS_PRODUCT_INFO
350
EB2
  3
ACAD_COLOR
350
387
  3
ACAD_DETAILVIEWSTYLE
350
EAA
  3
ACAD_FIELDLIST
350
ECE
  3
ACAD_GROUP
350
D
  3
ACAD_LAYOUT
350
301
  3
ACAD_MATERIAL
350
386
  3
ACAD_MLEADERSTYLE
350
46F
  3
ACAD_MLINESTYLE
350
E
  3
ACAD_PLOTSETTINGS
350
302
  3
ACAD_PLOTSTYLENAME
350
2FF
  3
ACAD_SCALELIST
350
44D
  3
ACAD_SECTIONVIEWSTYLE
350
EA8
  3
ACAD_TABLESTYLE
350
388
  3
ACAD_VISUALSTYLE
350
3F2
  3
ACDB_RECOMPOSE_DATA
350
25A2
  3
AcDbVariableDictionary
350
357
  3
AcmDictionary
350
4D1
  3
AMG
350
478
  3
AMGSNAPSETTINGS
350
51E
  3
DWGPROPS
350
25A3
  0
DICTIONARY
  5
ACA
330
8
100
AcDbDictionary
280
     1
281
     1
  0
DICTIONARY
  5
43C
330
2
100
AcDbDictionary
280
     1
281
     1
  3
ACAD_LAYERFILTERS
360
B75
  3
ACAD_LAYERSTATES
360
567
  3
ACLYDICTIONARY
360
B74
  0
DICTIONARY
  5
52D
330
F
100
AcDbDictionary
280
     1
281
     1
  3
ADSK_XREC_LAYER_RECONCILED
360
1A0D
  0
DICTIONARY
  5
52F
330
23
100
AcDbDictionary
280
     1
281
     1
  3
ADSK_XREC_LAYER_RECONCILED
360
1A0E
  0
DICTIONARY
  5
533
330
25
100
AcDbDictionary
280
     1
281
     1
  3
ADSK_XREC_LAYER_RECONCILED
360
1A0F
  0
DICTIONARY
  5
537
330
27
100
AcDbDictionary
280
     1
281
     1
  3
ADSK_XREC_LAYER_RECONCILED
360
1A10
  0
DICTIONARY
  5
53F
330
2B
100
AcDbDictionary
280
     1
281
     1
  3
ADSK_XREC_LAYER_RECONCILED
360
1A11
  0
DICTIONARY
  5
545
330
2E
100
AcDbDictionary
280
     1
281
     1
  3
ADSK_XREC_LAYER_RECONCILED
360
1A12
  0
DICTIONARY
  5
1EC4
330
1EC3
100
AcDbDictionary
280
     1
281
     1
  0
DICTIONARY
  5
1E87
330
18
100
AcDbDictionary
280
     1
281
     1
  3
ACAD_SORTENTS
360
1E88
  0
DICTIONARY
  5
1424
330
1423
100
AcDbDictionary
280
     1
281
     1
  3
ACAD_DIMASSOC
360
1425
  0
DICTIONARY
  5
1427
330
1426
100
AcDbDictionary
280
     1
281
     1
  3
ACAD_DIMASSOC
360
1428
  0
DICTIONARY
  5
142D
330
142C
100
AcDbDictionary
280
     1
281
     1
  3
ACAD_DIMASSOC
360
142E
  0
DICTIONARY
  5
B7E
330
B7D
100
AcDbDictionary
280
     1
281
     1
  3
ACAD_XREC_ROUNDTRIP
360
25D5
  3
ASDK_XREC_ANNOTATION_SCALE_INFO
360
B7F
  0
DICTIONARY
  5
B82
330
B81
100
AcDbDictionary
280
     1
281
     1
  3
ACAD_XREC_ROUNDTRIP
360
25D6
  3
ASDK_XREC_ANNOTATION_SCALE_INFO
360
B83
  0
DICTIONARY
  5
25A4
102
{ACAD_REACTORS
330
C
102
}
330
C
100
AcDbDictionary
281
     1
  3
DIMARCSYM
350
25A5
  3
DIMJOGANG
350
25A6
  3
DIMLTEX1
350
25A8
  3
DIMLTEX2
350
25A9
  3
DIMLTYPE
350
25A7
  0
XRECORD
  5
EB2
102
{ACAD_REACTORS
330
C
102
}
330
C
100
AcDbXrecord
280
     1
300
AMECH_PP
300
2014
300
86138AMECH_PP_2014_0F
  0
DICTIONARY
  5
387
102
{ACAD_REACTORS
330
C
102
}
330
C
100
AcDbDictionary
281
     1
  0
DICTIONARY
  5
EAA
102
{ACAD_REACTORS
330
C
102
}
330
C
100
AcDbDictionary
281
     1
  3
Imperial24
350
EAB
  3
Metric50
350
F41
  0
FIELDLIST
  5
ECE
102
{ACAD_REACTORS
330
C
102
}
330
C
100
AcDbIdSet
 90
        4
330
258F
330
2590
330
2591
330
2592
100
AcDbFieldList
  0
DICTIONARY
  5
D
102
{ACAD_REACTORS
330
C
102
}
330
C
100
AcDbDictionary
281
     1
  0
DICTIONARY
  5
301
102
{ACAD_REACTORS
330
C
102
}
330
C
100
AcDbDictionary
281
     1
  3
Layout1
350
B77
  3
Model
350
303
  0
DICTIONARY
  5
386
102
{ACAD_REACTORS
330
C
102
}
330
C
100
AcDbDictionary
281
     1
  3
ByBlock
350
3F0
  3
ByLayer
350
3EF
  3
Global
350
3F1
  0
DICTIONARY
  5
46F
102
{ACAD_REACTORS
330
C
102
}
330
C
100
AcDbDictionary
281
     1
  3
Standard
350
470
  0
DICTIONARY
  5
E
102
{ACAD_REACTORS
330
C
102
}
330
C
100
AcDbDictionary
281
     1
  3
STANDARD
350
1B
  0
DICTIONARY
  5
302
102
{ACAD_REACTORS
330
C
102
}
330
C
100
AcDbDictionary
281
     1
  3
DWG To PDF ANSI A - landscape
350
7EF
  3
DWG To PDF ANSI A - portrait
350
7F8
  0
ACDBDICTIONARYWDFLT
  5
2FF
102
{ACAD_REACTORS
330
C
102
}
330
C
100
AcDbDictionary
281
     1
  3
Normal
350
300
100
AcDbDictionaryWithDefault
340
300
  0
DICTIONARY
  5
44D
102
{ACAD_REACTORS
330
C
102
}
330
C
100
AcDbDictionary
281
     1
  3
A0
350
CF4
  3
A1
350
CF5
  3
A2
350
CF6
  3
A3
350
CF7
  3
A4
350
CF8
  3
A5
350
CF9
  3
A6
350
44E
  3
A7
350
CFA
  3
A8
350
CFB
  3
A9
350
CFC
  3
B0
350
CFD
  3
B1
350
CFE
  3
B2
350
CFF
  3
B3
350
D00
  3
B4
350
D01
  3
B5
350
D02
  3
B6
350
D03
  3
B7
350
D04
  3
B8
350
D05
  3
B9
350
D06
  3
C0
350
D07
  3
C1
350
D08
  3
C2
350
D09
  3
C3
350
D0A
  3
C4
350
D0B
  3
C5
350
D0C
  3
C6
350
D0D
  3
C7
350
D0E
  3
C8
350
D0F
  0
DICTIONARY
  5
EA8
102
{ACAD_REACTORS
330
C
102
}
330
C
100
AcDbDictionary
281
     1
  3
Imperial24
350
EA9
  3
Metric50
350
F3F
  0
DICTIONARY
  5
388
102
{ACAD_REACTORS
330
C
102
}
330
C
100
AcDbDictionary
281
     1
  3
Standard
350
389
  0
DICTIONARY
  5
3F2
102
{ACAD_REACTORS
330
C
102
}
330
C
100
AcDbDictionary
281
     1
  3
2dWireframe
350
3F8
  3
3D Hidden
350
3FA
  3
3dWireframe
350
3F9
  3
Basic
350
3F7
  3
Brighten
350
3FE
  3
ColorChange
350
402
  3
Conceptual
350
3FB
  3
Dim
350
3FD
  3
EdgeColorOff
350
C40
  3
Facepattern
350
401
  3
Flat
350
3F3
  3
FlatWithEdges
350
3F4
  3
Gouraud
350
3F5
  3
GouraudWithEdges
350
3F6
  3
Hidden
350
EA2
  3
JitterOff
350
C3E
  3
Linepattern
350
400
  3
OverhangOff
350
C3F
  3
Realistic
350
3FC
  3
Shaded
350
EA7
  3
Shaded with edges
350
EA6
  3
Shades of Gray
350
EA3
  3
Sketchy
350
EA4
  3
Thicken
350
3FF
  3
Wireframe
350
EA1
  3
X-Ray
350
EA5
  0
XRECORD
  5
25A2
102
{ACAD_REACTORS
330
C
102
}
330
C
100
AcDbXrecord
280
     1
 90
        1
330
389
330
142F
  0
DICTIONARY
  5
357
102
{ACAD_REACTORS
330
C
102
}
330
C
100
AcDbDictionary
281
     1
  3
CANNOSCALE
350
57C
  3
CMLEADERSTYLE
350
57A
  3
CTABLESTYLE
350
38E
  3
CVIEWDETAILSTYLE
350
EE7
  3
CVIEWSECTIONSTYLE
350
EE8
  3
DIMASSOC
350
359
  3
HIDETEXT
350
358
  3
INDEXCTL
350
B51
  3
LAYEREVAL
350
C52
  3
LAYERNOTIFY
350
C53
  3
LIGHTINGUNITS
350
57D
  3
MSLTSCALE
350
57B
  3
SOLIDHIST
350
1A14
  3
SORTENTS
350
B50
  3
XCLIPFRAME
350
25A0
  0
DICTIONARY
  5
4D1
102
{ACAD_REACTORS
330
C
102
}
330
C
100
AcDbDictionary
281
     1
  3
AcmStdDictionary
350
4DC
  3
AMDTSECTSYM_ARROWCOLOR
350
4F3
  0
DICTIONARY
  5
478
102
{ACAD_REACTORS
330
C
102
}
330
C
100
AcDbDictionary
281
     1
  0
DICTIONARY
  5
51E
102
{ACAD_REACTORS
330
C
102
}
330
C
100
AcDbDictionary
281
     1
  0
XRECORD
  5
25A3
102
{ACAD_REACTORS
330
C
102
}
330
C
100
AcDbXrecord
280
     1
  1
DWGPROPS COOKIE
  2

  3

  4
Philippe Vogel
  6
Secotools DIN Template inch
  7

  8
Janardan765
  9

300
=
301
=
302
=
303
=
304
=
305
=
306
=
307
=
308
=
309
=
 40
0.0910660532407408
 41
2456946.74653279
 42
2457015.356587025
  1
HTTP://WWW.SECOTOOLS.COM/
 90
        0
  0
DICTIONARY
  5
B75
102
{ACAD_REACTORS
330
43C
102
}
330
43C
100
AcDbDictionary
281
     1
  0
DICTIONARY
  5
567
102
{ACAD_REACTORS
330
43C
102
}
330
43C
100
AcDbDictionary
281
     1
  3
BMG3.0
350
9A5
  0
DICTIONARY
  5
B74
102
{ACAD_REACTORS
330
43C
102
}
330
43C
100
AcDbDictionary
281
     1
1001
ACAD
1000
<All
  0
XRECORD
  5
1A0D
102
{ACAD_REACTORS
330
52D
102
}
330
52D
100
AcDbXrecord
280
     1
290
     1
  0
XRECORD
  5
1A0E
102
{ACAD_REACTORS
330
52F
102
}
330
52F
100
AcDbXrecord
280
     1
290
     1
  0
XRECORD
  5
1A0F
102
{ACAD_REACTORS
330
533
102
}
330
533
100
AcDbXrecord
280
     1
290
     1
  0
XRECORD
  5
1A10
102
{ACAD_REACTORS
330
537
102
}
330
537
100
AcDbXrecord
280
     1
290
     1
  0
XRECORD
  5
1A11
102
{ACAD_REACTORS
330
53F
102
}
330
53F
100
AcDbXrecord
280
     1
290
     1
  0
XRECORD
  5
1A12
102
{ACAD_REACTORS
330
545
102
}
330
545
100
AcDbXrecord
280
     1
290
     1
  0
SORTENTSTABLE
  5
1E88
102
{ACAD_REACTORS
330
1E87
102
}
330
1E87
100
AcDbSortentsTable
330
18
331
141E
  5
1423
331
11D5
  5
11D5
331
141A
  5
141D
331
1426
  5
1A00
331
1422
  5
1429
331
1226
  5
1227
331
1222
  5
1223
331
126C
  5
126D
331
12E6
  5
12E7
331
1268
  5
1269
331
13F6
  5
13F9
331
12DE
  5
12DF
331
1264
  5
1265
331
1378
  5
137D
331
13B7
  5
13BD
331
13F2
  5
13F6
331
13B3
  5
13BC
331
13EE
  5
13F2
331
12DA
  5
12DB
331
1329
  5
132B
331
1260
  5
1261
331
1370
  5
1372
331
13EA
  5
13ED
331
1A09
  5
1E86
331
11C5
  5
11C5
331
121E
  5
121F
331
129F
  5
12A2
331
125C
  5
125D
331
13AF
  5
13BB
331
1325
  5
1327
331
1321
  5
1323
331
1258
  5
1259
331
13AB
  5
13AE
331
1297
  5
1298
331
13E6
  5
13EA
331
1A05
  5
1A0A
331
131D
  5
131F
331
1254
  5
1255
331
1A01
  5
1A08
331
13A7
  5
13AB
331
13E2
  5
13E5
331
1293
  5
1294
331
13A3
  5
13A7
331
12CA
  5
12CB
331
1250
  5
1251
331
120A
  5
120B
331
128F
  5
1290
331
1206
  5
1207
331
124C
  5
124D
331
128B
  5
128C
331
1202
  5
1203
331
1287
  5
1288
331
1415
  5
1418
331
1411
  5
1414
331
13D2
  5
13D6
331
1283
  5
1284
331
12BA
  5
12BD
331
12F9
  5
12FA
331
13CE
  5
13D2
331
140D
  5
1410
331
22C8
  5
22CB
331
1393
  5
1397
331
13CA
  5
13CD
331
22C4
  5
22C7
331
1348
  5
134B
331
11FE
  5
11FF
331
11FA
  5
11FB
331
127F
  5
1280
331
1234
  5
1235
331
138F
  5
1391
331
12F5
  5
12F7
331
12F1
  5
12F2
331
1230
  5
1231
331
133C
  5
133E
331
138B
  5
138D
331
1277
  5
1278
331
13C6
  5
13C9
331
12ED
  5
12EF
331
122C
  5
122D
331
1401
  5
1404
331
1338
  5
133A
331
1387
  5
138A
331
1273
  5
1274
331
12AA
  5
12AB
331
12E9
  5
12EA
331
1228
  5
1229
331
13BE
  5
13C1
331
13FD
  5
1401
331
1334
  5
1336
331
1383
  5
1385
331
1330
  5
1333
331
141D
  5
1422
331
11D0
  5
11D0
331
1419
  5
141C
331
126F
  5
1270
331
1225
  5
1226
331
1221
  5
1222
331
137F
  5
1381
331
126B
  5
126C
331
1267
  5
1268
331
13F5
  5
13F8
331
12E1
  5
12E3
331
12A2
  5
12A5
331
12DD
  5
12DE
331
1377
  5
1379
331
1263
  5
1264
331
12D9
  5
12DA
331
1328
  5
132A
331
13ED
  5
13F0
331
1A0C
  5
22C2
331
1373
  5
1376
331
1A08
  5
1DF6
331
11C8
  5
11C8
331
1429
  5
1A01
331
1219
  5
121A
331
125F
  5
1260
331
125B
  5
125C
331
136F
  5
1371
331
13AE
  5
13B7
331
1324
  5
1326
331
1320
  5
1322
331
1257
  5
1258
331
13E5
  5
13E8
331
1296
  5
1297
331
1292
  5
1293
331
1253
  5
1254
331
1A00
  5
1A07
331
1367
  5
136F
331
13A6
  5
13A9
331
13E1
  5
13E4
331
13A2
  5
13A6
331
13D9
  5
13E1
331
1209
  5
120A
331
128E
  5
128F
331
1205
  5
1206
331
124F
  5
1250
331
124B
  5
124C
331
135F
  5
136E
331
139E
  5
13A3
331
128A
  5
128B
331
1201
  5
1202
331
123F
  5
1240
331
1286
  5
1287
331
12C1
  5
12C3
331
13D5
  5
13DA
331
1414
  5
1417
331
12BD
  5
12BF
331
22CB
  5
12FF
331
12FC
  5
12FD
331
123B
  5
123C
331
1282
  5
1283
331
1392
  5
1395
331
13CD
  5
13D0
331
22C7
  5
22CA
331
12F8
  5
12F9
331
13C9
  5
13CC
331
1408
  5
140C
331
22C3
  5
22C6
331
11FD
  5
11FE
331
11F9
  5
11FA
331
127E
  5
127F
331
1237
  5
1238
331
1233
  5
1234
331
127A
  5
127B
331
138E
  5
1390
331
12F4
  5
12F5
331
122F
  5
1230
331
1276
  5
1277
331
133B
  5
133D
331
138A
  5
138C
331
12B1
  5
12B4
331
13C5
  5
13C8
331
1404
  5
1407
331
12EC
  5
12ED
331
122B
  5
122C
331
1400
  5
1403
331
1337
  5
1339
331
1386
  5
1388
331
13C1
  5
13C5
331
1272
  5
1273
331
12A9
  5
12AA
331
12E8
  5
12E9
331
13BD
  5
13C0
331
13FC
  5
1400
331
1333
  5
1335
331
1382
  5
1384
331
13F8
  5
13FC
331
11D7
  5
11D7
331
141C
  5
141F
331
11D3
  5
11D3
331
1418
  5
141B
331
11E5
  5
11E5
331
126E
  5
126F
331
1224
  5
1225
331
1220
  5
1221
331
137E
  5
1380
331
126A
  5
126B
331
11D9
  5
11D9
331
12E0
  5
12E1
331
132F
  5
1332
331
1266
  5
1267
331
12A5
  5
12A8
331
12DC
  5
12DD
331
132B
  5
132D
331
13F0
  5
13F5
331
1376
  5
1378
331
1262
  5
1263
331
13EC
  5
13EF
331
1A0B
  5
2292
331
1372
  5
1375
331
13E8
  5
13EC
331
11C7
  5
11C7
331
142C
  5
1A03
331
11C3
  5
11C3
331
125E
  5
125F
331
1327
  5
1329
331
1323
  5
1325
331
125A
  5
125B
331
136E
  5
1370
331
13AD
  5
13B3
331
1299
  5
129A
331
1A07
  5
1A0C
331
131F
  5
1321
331
1256
  5
1257
331
13A9
  5
13AD
331
13E4
  5
13E7
331
1295
  5
1296
331
1291
  5
1292
331
1252
  5
1253
331
13E0
  5
13E3
331
19FF
  5
1A06
331
13A5
  5
13A8
331
13A1
  5
13A5
331
1208
  5
1209
331
128D
  5
128E
331
1204
  5
1205
331
1200
  5
1201
331
135E
  5
1367
331
1289
  5
128A
331
1417
  5
141A
331
12FF
  5
1303
331
123E
  5
123F
331
1285
  5
1286
331
1413
  5
1416
331
1399
  5
139E
331
13D4
  5
13D8
331
12C0
  5
12C1
331
1281
  5
1282
331
12FB
  5
12FC
331
1395
  5
1398
331
22CA
  5
139B
331
13D0
  5
13D5
331
1391
  5
1393
331
13CC
  5
13CF
331
22C6
  5
22C9
331
13C8
  5
13CB
331
22C2
  5
22C5
331
11FC
  5
11FD
331
12F7
  5
12F8
331
1232
  5
1233
331
1279
  5
127A
331
138D
  5
138F
331
12B4
  5
12B7
331
11E8
  5
11E8
331
12EF
  5
12F1
331
122E
  5
122F
331
1275
  5
1276
331
133A
  5
133C
331
12B0
  5
12B1
331
13C4
  5
13C7
331
1403
  5
1406
331
12AC
  5
12B0
331
12EB
  5
12EC
331
122A
  5
122B
331
1336
  5
1338
331
1385
  5
1387
331
2292
  5
22C4
331
13C0
  5
13C4
331
1271
  5
1272
331
1381
  5
1383
331
12A8
  5
12A9
331
13BC
  5
13BF
331
1332
  5
1334
331
141F
  5
1426
331
11D6
  5
11D6
331
141B
  5
141E
331
11D2
  5
11D2
331
1423
  5
19FF
331
11E4
  5
11E4
331
11E0
  5
11E0
331
1227
  5
1228
331
126D
  5
126E
331
12E7
  5
12E8
331
1223
  5
1224
331
1269
  5
126A
331
137D
  5
137F
331
13F7
  5
13FA
331
12E3
  5
12E6
331
11D8
  5
11D8
331
12DF
  5
12E0
331
132E
  5
1330
331
1379
  5
137E
331
1265
  5
1266
331
13F3
  5
13F7
331
12DB
  5
12DC
331
132A
  5
132C
331
13EF
  5
13F3
331
1375
  5
1377
331
1261
  5
1262
331
13EB
  5
13EE
331
1A0A
  5
1E89
331
1371
  5
1373
331
11CE
  5
11CE
331
11C6
  5
11C6
331
142F
  5
1A05
331
1E86
  5
142F
331
121F
  5
1220
331
1217
  5
1219
331
125D
  5
125E
331
12D7
  5
12D9
331
1326
  5
1328
331
1322
  5
1324
331
1259
  5
125A
331
13AC
  5
13AF
331
1298
  5
1299
331
13E7
  5
13EB
331
1A06
  5
1A0B
331
131E
  5
1320
331
1255
  5
1256
331
13A8
  5
13AC
331
13E3
  5
13E6
331
1294
  5
1295
331
1290
  5
1291
331
1251
  5
1252
331
13DB
  5
13E2
331
1207
  5
1208
331
124D
  5
124F
331
128C
  5
128D
331
1306
  5
1309
331
1203
  5
1204
331
1288
  5
1289
331
139C
  5
13A1
331
12C3
  5
12C4
331
13D7
  5
13E0
331
1416
  5
1419
331
1284
  5
1285
331
1412
  5
1415
331
12BF
  5
12C0
331
1280
  5
1281
331
13CF
  5
13D4
331
140E
  5
1411
331
22C9
  5
11EE
331
12FA
  5
12FB
331
1390
  5
1392
331
13CB
  5
13CE
331
22C5
  5
22C8
331
1DF6
  5
22C3
331
11FF
  5
1200
331
11FB
  5
11FC
331
1235
  5
1236
331
12B7
  5
12BA
331
1231
  5
1232
331
1278
  5
1279
331
138C
  5
138E
331
13C7
  5
13CA
331
12F2
  5
12F4
331
122D
  5
122E
331
1402
  5
1405
331
1339
  5
133B
331
1388
  5
138B
331
13C3
  5
13C6
331
1274
  5
1275
331
1270
  5
1271
331
12AB
  5
12AC
331
12EA
  5
12EB
331
1229
  5
122A
331
13FE
  5
1402
331
1335
  5
1337
331
1384
  5
1386
331
13BF
  5
13C3
331
1380
  5
1382
331
13BB
  5
13BE
331
13FA
  5
13FE
331
1E89
  5
142C
  0
DIMASSOC
  5
1425
102
{ACAD_REACTORS
330
1424
102
}
330
1424
100
AcDbDimAssoc
330
1423
 90
        3
 70
     0
 71
     0
  1
AcDbOsnapPointRef
 72
     1
331
13E2
 73
     2
 91
        1
 40
0.0
 10
0.0
 20
0.0
 30
2.000000000000000E+50
 75
     0
  1
AcDbOsnapPointRef
 72
     1
331
13E7
 73
     2
 91
        1
 40
0.0
 10
0.0
 20
0.0
 30
2.000000000000000E+50
 75
     0
  0
DIMASSOC
  5
1428
102
{ACAD_REACTORS
330
1427
102
}
330
1427
100
AcDbDimAssoc
330
1426
 90
        2
 70
     0
 71
     0
  1
AcDbOsnapPointRef
 72
     1
331
128C
 73
     2
 91
        1
 40
0.0
 10
0.0
 20
0.0
 30
2.000000000000000E+50
 75
     0
  0
DIMASSOC
  5
142E
102
{ACAD_REACTORS
330
142D
102
}
330
142D
100
AcDbDimAssoc
330
142C
 90
        2
 70
     0
 71
     0
  1
AcDbOsnapPointRef
 72
    13
331
13E1
 73
     2
 91
        1
 40
0.0
 10
0.0
 20
0.0
 30
2.000000000000000E+50
 75
     0
  0
XRECORD
  5
25D5
102
{ACAD_REACTORS
330
B7E
102
}
330
B7E
100
AcDbXrecord
280
     1
102
SHADEPLOT
 70
     0
  0
XRECORD
  5
B7F
102
{ACAD_REACTORS
330
B7E
102
}
330
B7E
100
AcDbXrecord
280
     1
 90
        1
340
44E
  0
XRECORD
  5
25D6
102
{ACAD_REACTORS
330
B82
102
}
330
B82
100
AcDbXrecord
280
     1
102
SHADEPLOT
 70
     0
  0
XRECORD
  5
B83
102
{ACAD_REACTORS
330
B82
102
}
330
B82
100
AcDbXrecord
280
     1
 90
        1
340
44E
  0
XRECORD
  5
25A5
102
{ACAD_REACTORS
330
25A4
102
}
330
25A4
100
AcDbXrecord
280
     1
 70
     1
  0
XRECORD
  5
25A6
102
{ACAD_REACTORS
330
25A4
102
}
330
25A4
100
AcDbXrecord
280
     1
 40
1.570796326794896
  0
XRECORD
  5
25A8
102
{ACAD_REACTORS
330
25A4
102
}
330
25A4
100
AcDbXrecord
280
     1
340
12
  0
XRECORD
  5
25A9
102
{ACAD_REACTORS
330
25A4
102
}
330
25A4
100
AcDbXrecord
280
     1
340
12
  0
XRECORD
  5
25A7
102
{ACAD_REACTORS
330
25A4
102
}
330
25A4
100
AcDbXrecord
280
     1
340
12
  0
ACDBDETAILVIEWSTYLE
  5
EAB
102
{ACAD_XDICTIONARY
360
25ED
102
}
102
{ACAD_REACTORS
330
EAA
330
2589
102
}
330
EAA
100
AcDbModelDocViewStyle
 70
     0
  3
Imperial24
290
     0
100
AcDbDetailViewStyle
 70
     0
 71
     0
 90
        3
 71
     1
340
10
 40
0.24
340
0
 40
0.24
300

 40
0.36
280
     3
 71
     2
340
14
 90
       25
 71
     3
340
10
 40
0.24
 90
        1
 40
0.75
 90
        1
300
%<\AcVar ViewType \f "%tc1">% %<\AcVar ViewDetailId>%\PSCALE %<\AcVar ViewScale \f "%sn">%
 71
     4
340
14
 90
       25
340
14
 90
       25
280
     0
  0
ACDBDETAILVIEWSTYLE
  5
F41
102
{ACAD_XDICTIONARY
360
25F1
102
}
102
{ACAD_REACTORS
330
EAA
330
258A
102
}
330
EAA
100
AcDbModelDocViewStyle
 70
     0
  3
Metric50
290
     0
100
AcDbDetailViewStyle
 70
     0
 71
     0
 90
        3
 71
     1
340
10
 40
5.0
340
0
 40
5.0
300

 40
0.0
280
     1
 71
     2
340
14
 90
       25
 71
     3
340
10
 40
5.0
 90
        0
 40
15.0
 90
        1
300
%<\AcVar ViewDetailId>% (%<\AcVar ViewScale \f "%sn">%)
 71
     4
340
14
 90
       25
340
14
 90
       25
280
     0
  0
LAYOUT
  5
B77
102
{ACAD_XDICTIONARY
360
25D3
102
}
102
{ACAD_REACTORS
330
301
102
}
330
301
100
AcDbPlotSettings
  1

  2
Default Windows System Printer.pc3
  4
A4
  6
AM_VIEW1
 40
4.233333110809326
 41
4.614340305328369
 42
4.233322143554686
 43
4.571990966796875
 44
209.8886566162109
 45
297.0530090332031
 46
0.0
 47
1.499209346090081
 48
0.0
 49
0.0
140
0.0
141
0.0
142
1.0
143
26.4837350367717
 70
   692
 72
     0
 73
     1
 74
     1
  7
monochrome.ctb
 75
     0
147
0.0377590244960364
148
0.5754584342744921
149
0.4068898020113921
100
AcDbLayout
  1
Layout1
 70
     1
 71
     1
 10
-6.352894443934567
 20
-4.429974890987324
 11
303.3743962297308
 21
214.4139451502602
 12
0.0
 22
0.0
 32
0.0
 14
0.0
 24
0.0
 34
0.0
 15
297.0
 25
210.0
 35
0.0
146
0.0
 13
0.0
 23
0.0
 33
0.0
 16
1.0
 26
0.0
 36
0.0
 17
0.0
 27
1.0
 37
0.0
 76
     0
330
B76
331
B7D
1001
ACAD_PSEXT
1000
Default Windows System Printer.pc3
1000
HP Universal Printing PS
1000
Freiheitstraße, Ex Steinhof, Höfermann
1000
HP 5100 Universal PS
1070
     0
  0
LAYOUT
  5
303
102
{ACAD_XDICTIONARY
360
25AA
102
}
102
{ACAD_REACTORS
330
301
102
}
330
301
100
AcDbPlotSettings
  1

  2
Default Windows System Printer.pc3
  4
A4
  6

 40
4.233333110809326
 41
4.614340305328369
 42
4.233322143554686
 43
4.571990966796875
 44
209.8886566162109
 45
297.0530090332031
 46
10.88322750438971
 47
-0.0000000000000226
 48
0.0
 49
0.0
140
0.0
141
0.0
142
1.0
143
60.7941153040473
 70
  3764
 72
     0
 73
     1
 74
     2
  7
monochrome.ctb
 75
     0
147
0.0164489604791309
148
4318.0
149
4318.0
100
AcDbLayout
  1
Model
 70
     1
 71
     0
 10
0.0
 20
0.0
 11
12.0
 21
9.0
 12
0.0
 22
0.0
 32
0.0
 14
0.0
 24
0.0
 34
0.0
 15
0.0
 25
0.0
 35
0.0
146
0.0
 13
0.0
 23
0.0
 33
0.0
 16
1.0
 26
0.0
 36
0.0
 17
0.0
 27
1.0
 37
0.0
 76
     0
330
18
331
B56
1001
ACAD_PSEXT
1000
Default Windows System Printer.pc3
1000
HP Universal Printing PS
1000
Freiheitstraße, Ex Steinhof, Höfermann
1000
HP 5100 Universal PS
1070
     0
  0
MATERIAL
  5
3F0
102
{ACAD_XDICTIONARY
360
1A27
102
}
102
{ACAD_REACTORS
330
386
102
}
330
386
100
AcDbMaterial
  1
ByBlock
 73
     1
 78
     1
172
     1
176
     1
270
     1
274
     1
  0
MATERIAL
  5
3EF
102
{ACAD_XDICTIONARY
360
1A25
102
}
102
{ACAD_REACTORS
330
386
102
}
330
386
100
AcDbMaterial
  1
ByLayer
 73
     1
 78
     1
172
     1
176
     1
270
     1
274
     1
  0
MATERIAL
  5
3F1
102
{ACAD_XDICTIONARY
360
1A29
102
}
102
{ACAD_REACTORS
330
386
102
}
330
386
100
AcDbMaterial
  1
Global
 73
     1
 78
     1
172
     1
176
     1
270
     1
274
     1
  0
MLEADERSTYLE
  5
470
102
{ACAD_XDICTIONARY
360
25CD
102
}
102
{ACAD_REACTORS
330
46F
102
}
330
46F
100
AcDbMLeaderStyle
170
     2
171
     1
172
     0
 90
        2
 40
0.0
 41
0.0
173
     1
 91
-1056964608
340
12
 92
       -2
290
     1
 42
2.0
291
     1
 43
0.36
  3
Standard
 44
5.0
300

342
10
174
     0
178
     6
175
     1
176
     0
 93
-1056964608
 45
0.1378
292
     0
297
     0
 46
4.0
 94
-1056964608
 47
1.0
 49
1.0
140
1.0
293
     1
141
0.0
294
     1
177
     0
142
1.0
295
     0
296
     0
143
0.125
1001
ACAD_MLEADERVER
1070
     2
  0
MLINESTYLE
  5
1B
102
{ACAD_REACTORS
330
E
102
}
330
E
100
AcDbMlineStyle
  2
STANDARD
 70
     0
  3

 62
     0
 51
90.0
 52
90.0
 71
     2
 49
0.5
 62
   256
  6
BYLAYER
 49
-0.5
 62
   256
  6
BYLAYER
  0
PLOTSETTINGS
  5
7EF
102
{ACAD_XDICTIONARY
360
25CF
102
}
102
{ACAD_REACTORS
330
302
102
}
330
302
100
AcDbPlotSettings
  1
DWG To PDF ANSI A - landscape
  2
DWG To PDF.pc3
  4
ANSI_expand_A_(11.00_x_8.50_Inches)
  6

 40
5.793749809265136
 41
10.79374980926513
 42
5.79376220703125
 43
10.79374694824219
 44
279.3999938964844
 45
215.8999938964844
 46
0.0
 47
13.58631590731085
 48
0.0
 49
0.0
140
0.0
141
0.0
142
1.0
143
65.34646883198404
 70
 11956
 72
     0
 73
     0
 74
     2
  7
monochrome.ctb
 75
     0
147
0.0153030457173005
148
4318.0
149
4318.0
1001
ACAD_PSEXT
1000
DWG To PDF.pc3
1000
DWG To PDF
1000
Datei
1000

1070
     0
  0
PLOTSETTINGS
  5
7F8
102
{ACAD_XDICTIONARY
360
25D1
102
}
102
{ACAD_REACTORS
330
302
102
}
330
302
100
AcDbPlotSettings
  1
DWG To PDF ANSI A - portrait
  2
DWG To PDF.pc3
  4
ANSI_A_(8.50_x_11.00_Inches)
  6

 40
5.793749809265136
 41
17.79375076293945
 42
5.793746948242187
 43
17.79376220703125
 44
215.8999938964844
 45
279.3999938964844
 46
0.0
 47
58.15125224136993
 48
0.0
 49
0.0
140
0.0
141
0.0
142
1.0
143
85.65604280239289
 70
 11956
 72
     0
 73
     0
 74
     2
  7
monochrome.ctb
 75
     0
147
0.0116745995645279
148
4318.0
149
4318.0
1001
ACAD_PSEXT
1000
DWG To PDF.pc3
1000
DWG To PDF
1000
Datei
1000

1070
     0
  0
ACDBPLACEHOLDER
  5
300
102
{ACAD_REACTORS
330
2FF
102
}
330
2FF
  0
SCALE
  5
CF4
102
{ACAD_REACTORS
330
44D
102
}
330
44D
100
AcDbScale
 70
     0
300
100:1
140
100.0
141
1.0
290
     0
  0
SCALE
  5
CF5
102
{ACAD_REACTORS
330
44D
102
}
330
44D
100
AcDbScale
 70
     0
300
50:1
140
50.0
141
1.0
290
     0
  0
SCALE
  5
CF6
102
{ACAD_REACTORS
330
44D
102
}
330
44D
100
AcDbScale
 70
     0
300
20:1
140
20.0
141
1.0
290
     0
  0
SCALE
  5
CF7
102
{ACAD_REACTORS
330
44D
102
}
330
44D
100
AcDbScale
 70
     0
300
10:1
140
10.0
141
1.0
290
     0
  0
SCALE
  5
CF8
102
{ACAD_REACTORS
330
44D
102
}
330
44D
100
AcDbScale
 70
     0
300
5:1
140
5.0
141
1.0
290
     0
  0
SCALE
  5
CF9
102
{ACAD_REACTORS
330
44D
102
}
330
44D
100
AcDbScale
 70
     0
300
2:1
140
2.0
141
1.0
290
     0
  0
SCALE
  5
44E
102
{ACAD_REACTORS
330
44D
102
}
330
44D
100
AcDbScale
 70
     0
300
1:1
140
1.0
141
1.0
290
     1
  0
SCALE
  5
CFA
102
{ACAD_REACTORS
330
44D
102
}
330
44D
100
AcDbScale
 70
     0
300
1:2
140
1.0
141
2.0
290
     0
  0
SCALE
  5
CFB
102
{ACAD_REACTORS
330
44D
102
}
330
44D
100
AcDbScale
 70
     0
300
1:5
140
1.0
141
5.0
290
     0
  0
SCALE
  5
CFC
102
{ACAD_REACTORS
330
44D
102
}
330
44D
100
AcDbScale
 70
     0
300
1:10
140
1.0
141
10.0
290
     0
  0
SCALE
  5
CFD
102
{ACAD_REACTORS
330
44D
102
}
330
44D
100
AcDbScale
 70
     0
300
1:20
140
1.0
141
20.0
290
     0
  0
SCALE
  5
CFE
102
{ACAD_REACTORS
330
44D
102
}
330
44D
100
AcDbScale
 70
     0
300
1:50
140
1.0
141
50.0
290
     0
  0
SCALE
  5
CFF
102
{ACAD_REACTORS
330
44D
102
}
330
44D
100
AcDbScale
 70
     0
300
1:100
140
1.0
141
100.0
290
     0
  0
SCALE
  5
D00
102
{ACAD_REACTORS
330
44D
102
}
330
44D
100
AcDbScale
 70
     0
300
1/128" = 1'-0"
140
0.0078125
141
12.0
290
     0
  0
SCALE
  5
D01
102
{ACAD_REACTORS
330
44D
102
}
330
44D
100
AcDbScale
 70
     0
300
1/64" = 1'-0"
140
0.015625
141
12.0
290
     0
  0
SCALE
  5
D02
102
{ACAD_REACTORS
330
44D
102
}
330
44D
100
AcDbScale
 70
     0
300
1/32" = 1'-0"
140
0.03125
141
12.0
290
     0
  0
SCALE
  5
D03
102
{ACAD_REACTORS
330
44D
102
}
330
44D
100
AcDbScale
 70
     0
300
1/16" = 1'-0"
140
0.0625
141
12.0
290
     0
  0
SCALE
  5
D04
102
{ACAD_REACTORS
330
44D
102
}
330
44D
100
AcDbScale
 70
     0
300
3/32" = 1'-0"
140
0.09375
141
12.0
290
     0
  0
SCALE
  5
D05
102
{ACAD_REACTORS
330
44D
102
}
330
44D
100
AcDbScale
 70
     0
300
1/8" = 1'-0"
140
0.125
141
12.0
290
     0
  0
SCALE
  5
D06
102
{ACAD_REACTORS
330
44D
102
}
330
44D
100
AcDbScale
 70
     0
300
3/16" = 1'-0"
140
0.1875
141
12.0
290
     0
  0
SCALE
  5
D07
102
{ACAD_REACTORS
330
44D
102
}
330
44D
100
AcDbScale
 70
     0
300
1/4" = 1'-0"
140
0.25
141
12.0
290
     0
  0
SCALE
  5
D08
102
{ACAD_REACTORS
330
44D
102
}
330
44D
100
AcDbScale
 70
     0
300
3/8" = 1'-0"
140
0.375
141
12.0
290
     0
  0
SCALE
  5
D09
102
{ACAD_REACTORS
330
44D
102
}
330
44D
100
AcDbScale
 70
     0
300
1/2" = 1'-0"
140
0.5
141
12.0
290
     0
  0
SCALE
  5
D0A
102
{ACAD_REACTORS
330
44D
102
}
330
44D
100
AcDbScale
 70
     0
300
3/4" = 1'-0"
140
0.75
141
12.0
290
     0
  0
SCALE
  5
D0B
102
{ACAD_REACTORS
330
44D
102
}
330
44D
100
AcDbScale
 70
     0
300
1" = 1'-0"
140
1.0
141
12.0
290
     0
  0
SCALE
  5
D0C
102
{ACAD_REACTORS
330
44D
102
}
330
44D
100
AcDbScale
 70
     0
300
1-1/2" = 1'-0"
140
1.5
141
12.0
290
     0
  0
SCALE
  5
D0D
102
{ACAD_REACTORS
330
44D
102
}
330
44D
100
AcDbScale
 70
     0
300
3" = 1'-0"
140
3.0
141
12.0
290
     0
  0
SCALE
  5
D0E
102
{ACAD_REACTORS
330
44D
102
}
330
44D
100
AcDbScale
 70
     0
300
6" = 1'-0"
140
6.0
141
12.0
290
     0
  0
SCALE
  5
D0F
102
{ACAD_REACTORS
330
44D
102
}
330
44D
100
AcDbScale
 70
     0
300
1'-0" = 1'-0"
140
12.0
141
12.0
290
     0
  0
ACDBSECTIONVIEWSTYLE
  5
EA9
102
{ACAD_XDICTIONARY
360
25EB
102
}
102
{ACAD_REACTORS
330
EA8
330
2587
102
}
330
EA8
100
AcDbModelDocViewStyle
 70
     0
  3
Imperial24
290
     0
100
AcDbSectionViewStyle
 70
     0
 71
     0
 90
       78
 71
     1
340
10
 40
0.24
340
0
340
0
 40
0.24
300
I, O, Q, S, X, Z
 40
0.48
 90
        3
 40
0.18
 90
        1
 71
     2
340
14
 90
       25
340
14
 90
       50
 40
0.24
 40
0.0
 40
0.24
 71
     3
340
10
 40
0.24
 90
        1
 40
0.75
 90
        1
300
%<\AcVar ViewType \f "%tc1">% %<\AcVar ViewSectionStartId>%-%<\AcVar ViewSectionEndId>%\PSCALE %<\AcVar ViewScale \f "%sn">%
 71
     4
300
ANSI31
 40
1.0
 90
        0
290
     0
290
     0
 90
        6
 40
0.0
 40
1.570796326794896
 40
0.2617993877991494
 40
1.308996938995747
 40
-0.2617993877991494
 40
1.832595714594044
  0
ACDBSECTIONVIEWSTYLE
  5
F3F
102
{ACAD_XDICTIONARY
360
25EF
102
}
102
{ACAD_REACTORS
330
EA8
330
2588
102
}
330
EA8
100
AcDbModelDocViewStyle
 70
     0
  3
Metric50
290
     0
100
AcDbSectionViewStyle
 70
     0
 71
     0
 90
      102
 71
     1
340
10
 40
5.0
340
0
340
0
 40
5.0
300
I, O, Q, S, X, Z
 40
10.0
 90
        0
 40
2.5
 90
        0
 71
     2
340
14
 90
       25
340
14
 90
       50
 40
5.0
 40
2.5
 40
5.0
 71
     3
340
10
 40
5.0
 90
        0
 40
15.0
 90
        1
300
%<\AcVar ViewSectionStartId>%-%<\AcVar ViewSectionEndId>% (%<\AcVar ViewScale \f "%sn">%)
 71
     4
300
ANSI31
 40
1.0
 90
        0
290
     0
290
     0
 90
        6
 40
0.0
 40
1.570796326794896
 40
0.2617993877991494
 40
1.308996938995747
 40
-0.2617993877991494
 40
1.832595714594044
  0
TABLESTYLE
  5
389
102
{ACAD_XDICTIONARY
360
577
102
}
102
{ACAD_REACTORS
330
388
102
}
330
388
100
AcDbTableStyle
  3
Standard
 70
     0
 71
     0
 40
1.5
 41
1.5
280
     0
281
     0
  7
STANDARD
140
4.5
170
     2
 62
     0
 63
     7
283
     0
274
    -2
284
     1
 64
     0
275
    -2
285
     1
 65
     0
276
    -2
286
     1
 66
     0
277
    -2
287
     1
 67
     0
278
    -2
288
     1
 68
     0
279
    -2
289
     1
 69
     0
  7
STANDARD 5 mm
140
6.0
170
     5
 62
     0
 63
     7
283
     0
274
    -2
284
     1
 64
     0
275
    -2
285
     1
 65
     0
276
    -2
286
     1
 66
     0
277
    -2
287
     1
 67
     0
278
    -2
288
     1
 68
     0
279
    -2
289
     1
 69
     0
  7
STANDARD
140
4.5
170
     5
 62
     0
 63
     7
283
     0
274
    -2
284
     1
 64
     0
275
    -2
285
     1
 65
     0
276
    -2
286
     1
 66
     0
277
    -2
287
     1
 67
     0
278
    -2
288
     1
 68
     0
279
    -2
289
     1
 69
     0
  0
VISUALSTYLE
  5
3F8
102
{ACAD_XDICTIONARY
360
25B7
102
}
102
{ACAD_REACTORS
330
3F2
102
}
330
3F2
100
AcDbVisualStyle
  2

 70
     4
 71
     0
 72
     2
 73
     0
 90
        0
 40
-0.6
 41
-30.0
 62
     5
 63
     7
 74
     1
 91
        4
 64
     7
 65
   257
 75
     1
175
     1
 42
1.0
 92
        0
 66
   257
 43
1.0
 76
     1
 77
     6
 78
     2
 67
     7
 79
     5
170
     0
171
     0
290
     0
174
     0
 93
        1
 44
0.0
173
     0
291
     0
 45
0.0
1001
ACAD
1000
AcDbSavedByObjectVersion
1070
     0
  0
VISUALSTYLE
  5
3FA
102
{ACAD_XDICTIONARY
360
25BB
102
}
102
{ACAD_REACTORS
330
3F2
102
}
330
3F2
100
AcDbVisualStyle
  2

 70
     6
 71
     1
 72
     2
 73
     2
 90
        0
 40
-0.6
 41
-30.0
 62
     5
 63
     7
 74
     2
 91
        2
 64
     7
 65
   257
 75
     2
175
     1
 42
40.0
 92
        0
 66
   257
 43
1.0
 76
     1
 77
     6
 78
     2
 67
     7
 79
     3
170
     0
171
     0
290
     0
174
     0
 93
        1
 44
0.0
173
     0
291
     0
 45
0.0
1001
ACAD
1000
AcDbSavedByObjectVersion
1070
     0
  0
VISUALSTYLE
  5
3F9
102
{ACAD_XDICTIONARY
360
25B9
102
}
102
{ACAD_REACTORS
330
3F2
102
}
330
3F2
100
AcDbVisualStyle
  2

 70
     5
 71
     0
 72
     2
 73
     0
 90
        0
 40
-0.6
 41
-30.0
 62
     5
 63
     7
 74
     1
 91
        4
 64
     7
 65
   257
 75
     1
175
     1
 42
1.0
 92
        0
 66
   257
 43
1.0
 76
     1
 77
     6
 78
     2
 67
     7
 79
     5
170
     0
171
     0
290
     0
174
     0
 93
        1
 44
0.0
173
     0
291
     0
 45
0.0
1001
ACAD
1000
AcDbSavedByObjectVersion
1070
     0
  0
VISUALSTYLE
  5
3F7
102
{ACAD_XDICTIONARY
360
25B5
102
}
102
{ACAD_REACTORS
330
3F2
102
}
330
3F2
100
AcDbVisualStyle
  2

 70
     7
 71
     1
 72
     0
 73
     1
 90
        0
 40
-0.6
 41
-30.0
 62
     5
 63
     7
 74
     0
 91
        4
 64
     7
 65
   257
 75
     1
175
     1
 42
1.0
 92
        8
 66
     7
 43
1.0
 76
     1
 77
     6
 78
     2
 67
     7
 79
     5
170
     0
171
     0
290
     0
174
     0
 93
        1
 44
0.0
173
     0
291
     1
 45
0.0
1001
ACAD
1000
AcDbSavedByObjectVersion
1070
     0
  0
VISUALSTYLE
  5
3FE
102
{ACAD_XDICTIONARY
360
25C3
102
}
102
{ACAD_REACTORS
330
3F2
102
}
330
3F2
100
AcDbVisualStyle
  2

 70
    12
 71
     2
 72
     2
 73
     0
 90
        0
 40
-0.6
 41
-30.0
 62
     5
 63
     7
 74
     1
 91
        4
 64
     7
 65
   257
 75
     1
175
     1
 42
1.0
 92
        8
 66
     7
 43
1.0
 76
     1
 77
     6
 78
     2
 67
     7
 79
     5
170
     0
171
     0
290
     0
174
     0
 93
        1
 44
50.0
173
     0
291
     1
 45
0.0
1001
ACAD
1000
AcDbSavedByObjectVersion
1070
     0
  0
VISUALSTYLE
  5
402
102
{ACAD_XDICTIONARY
360
25CB
102
}
102
{ACAD_REACTORS
330
3F2
102
}
330
3F2
100
AcDbVisualStyle
  2

 70
    16
 71
     2
 72
     2
 73
     3
 90
        0
 40
-0.6
 41
-30.0
 62
     5
 63
     8
 74
     1
 91
        4
 64
     7
 65
   257
 75
     1
175
     1
 42
1.0
 92
        8
 66
     8
 43
1.0
 76
     1
 77
     6
 78
     2
 67
     7
 79
     5
170
     0
171
     0
290
     0
174
     0
 93
        1
 44
0.0
173
     0
291
     1
 45
0.0
1001
ACAD
1000
AcDbSavedByObjectVersion
1070
     0
  0
VISUALSTYLE
  5
3FB
102
{ACAD_XDICTIONARY
360
25BD
102
}
102
{ACAD_REACTORS
330
3F2
102
}
330
3F2
100
AcDbVisualStyle
  2

 70
     9
 71
     3
 72
     2
 73
     0
 90
        0
 40
-0.6
 41
-30.0
 62
     5
 63
     7
 74
     2
 91
        2
 64
     7
 65
   257
 75
     1
175
     1
 42
40.0
 92
        8
 66
     7
 43
1.0
 76
     1
 77
     6
 78
     2
 67
     7
 79
     3
170
     0
171
     0
290
     0
174
     0
 93
        1
 44
0.0
173
     0
291
     0
 45
0.0
1001
ACAD
1000
AcDbSavedByObjectVersion
1070
     0
  0
VISUALSTYLE
  5
3FD
102
{ACAD_XDICTIONARY
360
25C1
102
}
102
{ACAD_REACTORS
330
3F2
102
}
330
3F2
100
AcDbVisualStyle
  2

 70
    11
 71
     2
 72
     2
 73
     0
 90
        0
 40
-0.6
 41
-30.0
 62
     5
 63
     7
 74
     1
 91
        4
 64
     7
 65
   257
 75
     1
175
     1
 42
1.0
 92
        8
 66
     7
 43
1.0
 76
     1
 77
     6
 78
     2
 67
     7
 79
     5
170
     0
171
     0
290
     0
174
     0
 93
        1
 44
-50.0
173
     0
291
     1
 45
0.0
1001
ACAD
1000
AcDbSavedByObjectVersion
1070
     0
  0
VISUALSTYLE
  5
C40
102
{ACAD_XDICTIONARY
360
25DB
102
}
102
{ACAD_REACTORS
330
3F2
102
}
330
3F2
100
AcDbVisualStyle
  2

 70
    22
 71
     2
 72
     2
 73
     0
 90
        0
 40
-0.6
 41
-30.0
 62
     5
 63
     7
 74
     1
 91
        4
 64
     7
 65
   257
 75
     1
175
     1
 42
1.0
 92
        8
 66
     7
 43
1.0
 76
     1
 77
     6
 78
     2
 67
     7
 79
     5
170
     0
171
     0
290
     0
174
     0
 93
        1
 44
0.0
173
     0
291
     1
 45
0.0
1001
ACAD
1000
AcDbSavedByObjectVersion
1070
     0
  0
VISUALSTYLE
  5
401
102
{ACAD_XDICTIONARY
360
25C9
102
}
102
{ACAD_REACTORS
330
3F2
102
}
330
3F2
100
AcDbVisualStyle
  2

 70
    15
 71
     2
 72
     2
 73
     0
 90
        0
 40
-0.6
 41
-30.0
 62
     5
 63
     7
 74
     1
 91
        4
 64
     7
 65
   257
 75
     1
175
     1
 42
1.0
 92
        8
 66
     7
 43
1.0
 76
     1
 77
     6
 78
     2
 67
     7
 79
     5
170
     0
171
     0
290
     0
174
     0
 93
        1
 44
0.0
173
     0
291
     1
 45
0.0
1001
ACAD
1000
AcDbSavedByObjectVersion
1070
     0
  0
VISUALSTYLE
  5
3F3
102
{ACAD_XDICTIONARY
360
25AD
102
}
102
{ACAD_REACTORS
330
3F2
102
}
330
3F2
100
AcDbVisualStyle
  2

 70
     0
 71
     2
 72
     1
 73
     1
 90
        2
 40
-0.6
 41
30.0
 62
     5
 63
     7
 74
     0
 91
        4
 64
     7
 65
   257
 75
     1
175
     1
 42
1.0
 92
        8
 66
     7
 43
1.0
 76
     1
 77
     6
 78
     2
 67
     7
 79
     5
170
     0
171
     0
290
     0
174
     0
 93
       13
 44
0.0
173
     0
291
     1
 45
0.0
1001
ACAD
1000
AcDbSavedByObjectVersion
1070
     0
  0
VISUALSTYLE
  5
3F4
102
{ACAD_XDICTIONARY
360
25AF
102
}
102
{ACAD_REACTORS
330
3F2
102
}
330
3F2
100
AcDbVisualStyle
  2

 70
     1
 71
     2
 72
     1
 73
     1
 90
        2
 40
-0.6
 41
30.0
 62
     5
 63
     7
 74
     1
 91
        4
 64
     7
 65
   257
 75
     1
175
     1
 42
1.0
 92
        0
 66
   257
 43
1.0
 76
     1
 77
     6
 78
     2
 67
     7
 79
     5
170
     0
171
     0
290
     0
174
     0
 93
       13
 44
0.0
173
     0
291
     1
 45
0.0
1001
ACAD
1000
AcDbSavedByObjectVersion
1070
     0
  0
VISUALSTYLE
  5
3F5
102
{ACAD_XDICTIONARY
360
25B1
102
}
102
{ACAD_REACTORS
330
3F2
102
}
330
3F2
100
AcDbVisualStyle
  2

 70
     2
 71
     2
 72
     2
 73
     1
 90
        2
 40
-0.6
 41
30.0
 62
     5
 63
     7
 74
     0
 91
        4
 64
     7
 65
   257
 75
     1
175
     1
 42
1.0
 92
        0
 66
     7
 43
1.0
 76
     1
 77
     6
 78
     2
 67
     7
 79
     5
170
     0
171
     0
290
     0
174
     0
 93
       13
 44
0.0
173
     0
291
     1
 45
0.0
1001
ACAD
1000
AcDbSavedByObjectVersion
1070
     0
  0
VISUALSTYLE
  5
3F6
102
{ACAD_XDICTIONARY
360
25B3
102
}
102
{ACAD_REACTORS
330
3F2
102
}
330
3F2
100
AcDbVisualStyle
  2

 70
     3
 71
     2
 72
     2
 73
     1
 90
        2
 40
-0.6
 41
30.0
 62
     5
 63
     7
 74
     1
 91
        4
 64
     7
 65
   257
 75
     1
175
     1
 42
1.0
 92
        0
 66
   257
 43
1.0
 76
     1
 77
     6
 78
     2
 67
     7
 79
     5
170
     0
171
     0
290
     0
174
     0
 93
       13
 44
0.0
173
     0
291
     1
 45
0.0
1001
ACAD
1000
AcDbSavedByObjectVersion
1070
     0
  0
VISUALSTYLE
  5
EA2
102
{ACAD_XDICTIONARY
360
25DF
102
}
102
{ACAD_REACTORS
330
3F2
102
}
330
3F2
100
AcDbVisualStyle
  2

 70
     6
 71
     1
 72
     2
 73
     2
 90
        0
 40
-0.6
 41
-30.0
 62
     5
 63
     7
 74
     2
 91
        2
 64
     7
 65
   257
 75
     2
175
     1
 42
40.0
 92
        0
 66
   257
 43
1.0
 76
     1
 77
     6
 78
     2
 67
     7
 79
     3
170
     0
171
     0
290
     0
174
     0
 93
        1
 44
0.0
173
     0
291
     0
 45
0.0
1001
ACAD
1000
AcDbSavedByObjectVersion
1070
     0
  0
VISUALSTYLE
  5
C3E
102
{ACAD_XDICTIONARY
360
25D7
102
}
102
{ACAD_REACTORS
330
3F2
102
}
330
3F2
100
AcDbVisualStyle
  2

 70
    20
 71
     2
 72
     2
 73
     0
 90
        0
 40
-0.6
 41
-30.0
 62
     5
 63
     7
 74
     1
 91
        4
 64
     7
 65
   257
 75
     1
175
     1
 42
1.0
 92
       10
 66
     7
 43
1.0
 76
     1
 77
     6
 78
     2
 67
     7
 79
     5
170
     0
171
     0
290
     0
174
     0
 93
        1
 44
0.0
173
     0
291
     1
 45
0.0
1001
ACAD
1000
AcDbSavedByObjectVersion
1070
     0
  0
VISUALSTYLE
  5
400
102
{ACAD_XDICTIONARY
360
25C7
102
}
102
{ACAD_REACTORS
330
3F2
102
}
330
3F2
100
AcDbVisualStyle
  2

 70
    14
 71
     2
 72
     2
 73
     0
 90
        0
 40
-0.6
 41
-30.0
 62
     5
 63
     7
 74
     1
 91
        4
 64
     7
 65
   257
 75
     7
175
     7
 42
1.0
 92
        8
 66
     7
 43
1.0
 76
     1
 77
     6
 78
     2
 67
     7
 79
     5
170
     0
171
     0
290
     0
174
     0
 93
        1
 44
0.0
173
     0
291
     1
 45
0.0
1001
ACAD
1000
AcDbSavedByObjectVersion
1070
     0
  0
VISUALSTYLE
  5
C3F
102
{ACAD_XDICTIONARY
360
25D9
102
}
102
{ACAD_REACTORS
330
3F2
102
}
330
3F2
100
AcDbVisualStyle
  2

 70
    21
 71
     2
 72
     2
 73
     0
 90
        0
 40
-0.6
 41
-30.0
 62
     5
 63
     7
 74
     1
 91
        4
 64
     7
 65
   257
 75
     1
175
     1
 42
1.0
 92
        9
 66
     7
 43
1.0
 76
     1
 77
     6
 78
     2
 67
     7
 79
     5
170
     0
171
     0
290
     0
174
     0
 93
        1
 44
0.0
173
     0
291
     1
 45
0.0
1001
ACAD
1000
AcDbSavedByObjectVersion
1070
     0
  0
VISUALSTYLE
  5
3FC
102
{ACAD_XDICTIONARY
360
25BF
102
}
102
{ACAD_REACTORS
330
3F2
102
}
330
3F2
100
AcDbVisualStyle
  2

 70
     8
 71
     2
 72
     2
 73
     0
 90
        0
 40
-0.6
 41
-30.0
 62
     5
 63
     7
 74
     1
 91
        0
 64
     7
 65
   257
 75
     1
175
     1
 42
1.0
 92
        8
 66
     8
 43
1.0
 76
     1
 77
     6
 78
     2
 67
     7
 79
     5
170
     0
171
     0
290
     0
174
     0
 93
       13
 44
0.0
173
     0
291
     0
 45
0.0
1001
ACAD
1000
AcDbSavedByObjectVersion
1070
     0
  0
VISUALSTYLE
  5
EA7
102
{ACAD_XDICTIONARY
360
25E9
102
}
102
{ACAD_REACTORS
330
3F2
102
}
330
3F2
100
AcDbVisualStyle
  2

 70
    27
 71
     2
 72
     2
 73
     1
 90
        2
 40
-0.6
 41
30.0
 62
     5
 63
     7
 74
     0
 91
        4
 64
     7
 65
   257
 75
     1
175
     1
 42
1.0
 92
        8
 66
   257
 43
1.0
 76
     1
 77
     6
 78
     2
 67
     8
 79
     3
170
     0
171
     0
290
     0
174
     0
 93
        5
 44
0.0
173
     0
291
     0
 45
0.0
1001
ACAD
1000
AcDbSavedByObjectVersion
1070
     0
  0
VISUALSTYLE
  5
EA6
102
{ACAD_XDICTIONARY
360
25E7
102
}
102
{ACAD_REACTORS
330
3F2
102
}
330
3F2
100
AcDbVisualStyle
  2

 70
    26
 71
     2
 72
     2
 73
     1
 90
        2
 40
-0.6
 41
30.0
 62
     5
 63
     7
 74
     1
 91
       10
 64
     7
 65
   257
 75
     2
175
     1
 42
1.0
 92
        8
 66
   257
 43
1.0
 76
     1
 77
     6
 78
     2
 67
     7
 79
     3
170
     0
171
     0
290
     0
174
     0
 93
        5
 44
0.0
173
     0
291
     0
 45
0.0
1001
ACAD
1000
AcDbSavedByObjectVersion
1070
     0
  0
VISUALSTYLE
  5
EA3
102
{ACAD_XDICTIONARY
360
25E1
102
}
102
{ACAD_REACTORS
330
3F2
102
}
330
3F2
100
AcDbVisualStyle
  2

 70
    23
 71
     2
 72
     2
 73
     3
 90
        0
 40
-0.6
 41
-30.0
 62
     5
 63
     7
 74
     2
 91
        2
 64
     7
 65
     7
 75
     1
175
     1
 42
40.0
 92
        8
 66
     7
 43
1.0
 76
     1
 77
     6
 78
     2
 67
     7
 79
     3
170
     0
171
     0
290
     0
174
     0
 93
        1
 44
0.0
173
     0
291
     0
 45
0.0
1001
ACAD
1000
AcDbSavedByObjectVersion
1070
     0
  0
VISUALSTYLE
  5
EA4
102
{ACAD_XDICTIONARY
360
25E3
102
}
102
{ACAD_REACTORS
330
3F2
102
}
330
3F2
100
AcDbVisualStyle
  2

 70
    24
 71
     1
 72
     2
 73
     2
 90
        0
 40
-0.6
 41
-30.0
 62
     5
 63
     7
 74
     2
 91
        2
 64
     7
 65
     7
 75
     1
175
     1
 42
40.0
 92
       11
 66
     7
 43
1.0
 76
     1
 77
     6
 78
     2
 67
     7
 79
     6
170
     0
171
     0
290
     0
174
     0
 93
        1
 44
0.0
173
     0
291
     0
 45
0.0
1001
ACAD
1000
AcDbSavedByObjectVersion
1070
     0
  0
VISUALSTYLE
  5
3FF
102
{ACAD_XDICTIONARY
360
25C5
102
}
102
{ACAD_REACTORS
330
3F2
102
}
330
3F2
100
AcDbVisualStyle
  2

 70
    13
 71
     2
 72
     2
 73
     0
 90
        0
 40
-0.6
 41
-30.0
 62
     5
 63
     7
 74
     1
 91
        4
 64
     7
 65
   257
 75
     1
175
     1
 42
1.0
 92
       12
 66
     7
 43
1.0
 76
     1
 77
     6
 78
     2
 67
     7
 79
     5
170
     0
171
     0
290
     0
174
     0
 93
        1
 44
0.0
173
     0
291
     1
 45
0.0
1001
ACAD
1000
AcDbSavedByObjectVersion
1070
     0
  0
VISUALSTYLE
  5
EA1
102
{ACAD_XDICTIONARY
360
25DD
102
}
102
{ACAD_REACTORS
330
3F2
102
}
330
3F2
100
AcDbVisualStyle
  2

 70
     5
 71
     0
 72
     2
 73
     0
 90
        0
 40
-0.6
 41
-30.0
 62
     5
 63
     7
 74
     1
 91
        4
 64
     7
 65
   257
 75
     1
175
     1
 42
1.0
 92
        0
 66
   257
 43
1.0
 76
     1
 77
     6
 78
     2
 67
     7
 79
     3
170
     0
171
     0
290
     0
174
     0
 93
        1
 44
0.0
173
     0
291
     0
 45
0.0
1001
ACAD
1000
AcDbSavedByObjectVersion
1070
     0
  0
VISUALSTYLE
  5
EA5
102
{ACAD_XDICTIONARY
360
25E5
102
}
102
{ACAD_REACTORS
330
3F2
102
}
330
3F2
100
AcDbVisualStyle
  2

 70
    25
 71
     2
 72
     2
 73
     1
 90
        1
 40
0.5
 41
-30.0
 62
     5
 63
     7
 74
     1
 91
        0
 64
     7
 65
   257
 75
     1
175
     1
 42
1.0
 92
        8
 66
     7
 43
1.0
 76
     1
 77
     6
 78
     2
 67
     7
 79
     3
170
     0
171
     0
290
     0
174
     0
 93
       13
 44
0.0
173
     0
291
     0
 45
0.0
1001
ACAD
1000
AcDbSavedByObjectVersion
1070
     0
  0
DICTIONARYVAR
  5
57C
102
{ACAD_REACTORS
330
357
102
}
330
357
100
DictionaryVariables
280
     0
  1
1:1
  0
DICTIONARYVAR
  5
57A
102
{ACAD_REACTORS
330
357
102
}
330
357
100
DictionaryVariables
280
     0
  1
STANDARD
  0
DICTIONARYVAR
  5
38E
102
{ACAD_REACTORS
330
357
102
}
330
357
100
DictionaryVariables
280
     0
  1
STANDARD
  0
DICTIONARYVAR
  5
EE7
102
{ACAD_REACTORS
330
357
102
}
330
357
100
DictionaryVariables
280
     0
  1
Metric50
  0
DICTIONARYVAR
  5
EE8
102
{ACAD_REACTORS
330
357
102
}
330
357
100
DictionaryVariables
280
     0
  1
Metric50
  0
DICTIONARYVAR
  5
359
102
{ACAD_REACTORS
330
357
102
}
330
357
100
DictionaryVariables
280
     0
  1
2
  0
DICTIONARYVAR
  5
358
102
{ACAD_REACTORS
330
357
102
}
330
357
100
DictionaryVariables
280
     0
  1
1
  0
DICTIONARYVAR
  5
B51
102
{ACAD_REACTORS
330
357
102
}
330
357
100
DictionaryVariables
280
     0
  1
0
  0
DICTIONARYVAR
  5
C52
102
{ACAD_REACTORS
330
357
102
}
330
357
100
DictionaryVariables
280
     0
  1
1
  0
DICTIONARYVAR
  5
C53
102
{ACAD_REACTORS
330
357
102
}
330
357
100
DictionaryVariables
280
     0
  1
15
  0
DICTIONARYVAR
  5
57D
102
{ACAD_REACTORS
330
357
102
}
330
357
100
DictionaryVariables
280
     0
  1
0
  0
DICTIONARYVAR
  5
57B
102
{ACAD_REACTORS
330
357
102
}
330
357
100
DictionaryVariables
280
     0
  1
0
  0
DICTIONARYVAR
  5
1A14
102
{ACAD_REACTORS
330
357
102
}
330
357
100
DictionaryVariables
280
     0
  1
1
  0
DICTIONARYVAR
  5
B50
102
{ACAD_REACTORS
330
357
102
}
330
357
100
DictionaryVariables
280
     0
  1
127
  0
DICTIONARYVAR
  5
25A0
102
{ACAD_REACTORS
330
357
102
}
330
357
100
DictionaryVariables
280
     0
  1
2
  0
DICTIONARY
  5
4DC
102
{ACAD_REACTORS
330
4D1
102
}
330
4D1
100
AcDbDictionary
281
     1
  0
XRECORD
  5
4F3
102
{ACAD_REACTORS
330
4D1
102
}
330
4D1
100
AcDbXrecord
280
     1
 90
-1023410169
  0
XRECORD
  5
9A5
102
{ACAD_REACTORS
330
567
102
}
330
567
100
AcDbXrecord
280
     1
 91
     1023
301

290
     0
302
1
  8
200
 90
        8
 62
     2
370
    50
331
14
  1
Color_2
  8
160
 90
        8
 62
     1
370
    35
331
14
  1
Color_1
  8
150
 90
        8
 62
    96
370
    50
331
14
  1
Color_96
 92
-1040154880
  8
140
 90
        8
 62
     5
370
    35
331
14
  1
Color_5
  8
130
 90
        8
 62
     6
370
    35
331
14
  1
Color_6
  8
120
 90
        8
 62
     3
370
    50
331
14
  1
Color_3
  8
110
 90
        8
 62
     7
370
    25
331
14
  1
Color_7
  8
100
 90
        8
 62
     4
370
    50
331
14
  1
Color_4
  8
INFTEXT69
 90
        8
 62
     5
370
    -3
331
14
  1
Color_5
  8
INFTEXT68
 90
        8
 62
     5
370
    -3
331
14
  1
Color_5
  8
INFTEXT67
 90
        8
 62
     5
370
    -3
331
14
  1
Color_5
  8
INFTEXT66
 90
        8
 62
     5
370
    -3
331
14
  1
Color_5
  8
INFTEXT65
 90
        8
 62
     5
370
    -3
331
14
  1
Color_5
  8
INFTEXT64
 90
        8
 62
     5
370
    -3
331
14
  1
Color_5
  8
INFTEXT63
 90
        8
 62
     5
370
    -3
331
14
  1
Color_5
  8
INFTEXT62
 90
        8
 62
     5
370
    -3
331
14
  1
Color_5
  8
RECON69
 90
        8
 62
     5
370
    35
331
14
  1
Color_5
  8
RECON68
 90
        8
 62
     5
370
    35
331
14
  1
Color_5
  8
RECON67
 90
        8
 62
     5
370
    35
331
14
  1
Color_5
  8
RECON66
 90
        8
 62
     5
370
    35
331
14
  1
Color_5
  8
RECON65
 90
        8
 62
     5
370
    35
331
14
  1
Color_5
  8
RECON64
 90
        8
 62
     5
370
    35
331
14
  1
Color_5
  8
RECON63
 90
        8
 62
     5
370
    35
331
14
  1
Color_5
  8
RECON62
 90
        8
 62
     5
370
    35
331
14
  1
Color_5
  8
RECON61
 90
        8
 62
     5
370
    35
331
14
  1
Color_5
  8
SK69
 90
        8
 62
     5
370
    35
331
14
  1
Color_5
  8
SK68
 90
        8
 62
     5
370
    35
331
14
  1
Color_5
  8
SK67
 90
        8
 62
     5
370
    35
331
14
  1
Color_5
  8
SK66
 90
        8
 62
     5
370
    35
331
14
  1
Color_5
  8
SK65
 90
        8
 62
     5
370
    35
331
14
  1
Color_5
  8
SK64
 90
        8
 62
     5
370
    35
331
14
  1
Color_5
  8
SK63
 90
        8
 62
     5
370
    35
331
14
  1
Color_5
  8
SK62
 90
        8
 62
     5
370
    35
331
14
  1
Color_5
  8
SK61
 90
        8
 62
     5
370
    35
331
14
  1
Color_5
  8
SKVIEW69
 90
        8
 62
     5
370
    35
331
14
  1
Color_5
  8
SKVIEW68
 90
        8
 62
     5
370
    35
331
14
  1
Color_5
  8
SKVIEW67
 90
        8
 62
     5
370
    35
331
14
  1
Color_5
  8
SKVIEW66
 90
        8
 62
     5
370
    35
331
14
  1
Color_5
  8
SKVIEW65
 90
        8
 62
     5
370
    35
331
14
  1
Color_5
  8
SKVIEW64
 90
        8
 62
     5
370
    35
331
14
  1
Color_5
  8
SKVIEW63
 90
        8
 62
     5
370
    35
331
14
  1
Color_5
  8
SKVIEW62
 90
        8
 62
     5
370
    35
331
14
  1
Color_5
  8
SKVIEW61
 90
        8
 62
     5
370
    35
331
14
  1
Color_5
  8
69
 90
        8
 62
     5
370
    35
331
14
  1
Color_5
  8
68
 90
        8
 62
     5
370
    35
331
14
  1
Color_5
  8
67
 90
        8
 62
     5
370
    35
331
14
  1
Color_5
  8
66
 90
        8
 62
     5
370
    35
331
14
  1
Color_5
  8
65
 90
        8
 62
     5
370
    35
331
14
  1
Color_5
  8
64
 90
        8
 62
     5
370
    35
331
14
  1
Color_5
  8
63
 90
        8
 62
     5
370
    35
331
14
  1
Color_5
  8
62
 90
        8
 62
     5
370
    35
331
14
  1
Color_5
  8
61
 90
        8
 62
     5
370
    35
331
14
  1
Color_5
  8
59
 90
        8
 62
     5
370
    -3
331
14
  1
Color_5
  8
58
 90
        8
 62
     5
370
    -3
331
14
  1
Color_5
  8
57
 90
        8
 62
     5
370
    -3
331
14
  1
Color_5
  8
56
 90
        8
 62
     5
370
    -3
331
14
  1
Color_5
  8
55
 90
        8
 62
     5
370
    -3
331
14
  1
Color_5
  8
54
 90
        8
 62
     5
370
    -3
331
14
  1
Color_5
  8
53
 90
        8
 62
     5
370
    -3
331
14
  1
Color_5
  8
52
 90
        8
 62
     5
370
    -3
331
14
  1
Color_5
  8
51
 90
        8
 62
     5
370
    -3
331
14
  1
Color_5
  8
FRAME59
 90
        8
 62
     7
370
    -3
331
14
  1
Color_7
  8
FRAME58
 90
        8
 62
     7
370
    -3
331
14
  1
Color_7
  8
FRAME57
 90
        8
 62
     7
370
    -3
331
14
  1
Color_7
  8
FRAME56
 90
        8
 62
     7
370
    -3
331
14
  1
Color_7
  8
FRAME55
 90
        8
 62
     7
370
    -3
331
14
  1
Color_7
  8
FRAME54
 90
        8
 62
     7
370
    -3
331
14
  1
Color_7
  8
FRAME53
 90
        8
 62
     7
370
    -3
331
14
  1
Color_7
  8
FRAME52
 90
        8
 62
     7
370
    -3
331
14
  1
Color_7
  8
RECON7
 90
        8
 62
     5
370
    25
331
14
  1
Color_5
  8
RECON6
 90
        8
 62
     5
370
    35
331
14
  1
Color_5
  8
RECON4
 90
        8
 62
     2
370
    25
331
14
  1
Color_2
  8
RECON3
 90
        8
 62
     1
370
    35
331
14
  1
Color_1
  8
RECON2
 90
        8
 62
     7
370
    25
331
14
  1
Color_7
  8
RECON1
 90
        8
 62
     4
370
    50
331
14
  1
Color_4
  8
SKVIEW7
 90
        8
 62
     5
370
    25
331
14
  1
Color_5
  8
SK7
 90
        8
 62
     5
370
    25
331
14
  1
Color_5
  8
7
 90
        8
 62
     5
370
    25
331
14
  1
Color_5
  8
INFMAINVIEW
 90
        8
 62
     9
370
    18
331
14
  1
Color_9
  8
INFTOTAL
 90
        8
 62
     9
370
    18
331
14
  1
Color_9
  8
INFTEXT61
 90
        8
 62
     5
370
    -3
331
14
  1
Color_5
  8
INFWKP
 90
        8
 62
    30
370
    25
331
14
  1
Color_30
  8
SKVIEW6
 90
        8
 62
     5
370
    35
331
14
  1
Color_5
  8
SKVIEW4
 90
        8
 62
     2
370
    25
331
14
  1
Color_2
  8
SKVIEW3
 90
        8
 62
     1
370
    35
331
14
  1
Color_1
  8
SKVIEW2
 90
        8
 62
     7
370
    25
331
14
  1
Color_7
  8
SKVIEW1
 90
        8
 62
     4
370
    50
331
14
  1
Color_4
  8
NOCUT
 90
        8
 62
     7
370
    25
331
14
  1
Color_7
  8
CUT
 90
        8
 62
     1
370
    25
331
14
  1
Color_1
  8
DEFPOINTS
 90
        0
 62
     7
370
    -3
331
14
  1
Color_7
  8
SK6
 90
        8
 62
     5
370
    35
331
14
  1
Color_5
  8
6
 90
        8
 62
     5
370
    35
331
14
  1
Color_5
  8
FRAME51
 90
        8
 62
     7
370
    -3
331
14
  1
Color_7
  8
SK4
 90
        8
 62
     2
370
    25
331
14
  1
Color_2
  8
4
 90
        8
 62
     2
370
    25
331
14
  1
Color_2
  8
SK3
 90
        8
 62
     1
370
    35
331
14
  1
Color_1
  8
3
 90
        8
 62
     1
370
    35
331
14
  1
Color_1
  8
SK2
 90
        8
 62
     7
370
    25
331
14
  1
Color_7
  8
2
 90
        8
 62
     7
370
    25
331
14
  1
Color_7
  8
SK1
 90
        8
 62
     4
370
    50
331
14
  1
Color_4
  8
1
 90
        8
 62
     4
370
    50
331
14
  1
Color_4
  8
0
 90
        0
 62
     7
370
    -3
331
14
  1
Color_7
  0
DICTIONARY
  5
25ED
330
EAB
100
AcDbDictionary
280
     1
281
     1
  3
ACAD_XREC_ROUNDTRIP
360
25EE
  0
DICTIONARY
  5
25F1
330
F41
100
AcDbDictionary
280
     1
281
     1
  3
ACAD_XREC_ROUNDTRIP
360
25F2
  0
DICTIONARY
  5
25D3
330
B77
100
AcDbDictionary
280
     1
281
     1
  3
ACAD_XREC_ROUNDTRIP
360
25D4
  0
DICTIONARY
  5
25AA
330
303
100
AcDbDictionary
280
     1
281
     1
  3
ACAD_XREC_ROUNDTRIP
360
25AB
  0
DICTIONARY
  5
1A27
330
3F0
100
AcDbDictionary
280
     1
281
     1
  3
ACAD_XREC_ROUNDTRIP
360
1A28
  0
DICTIONARY
  5
1A25
330
3EF
100
AcDbDictionary
280
     1
281
     1
  3
ACAD_XREC_ROUNDTRIP
360
1A26
  0
DICTIONARY
  5
1A29
330
3F1
100
AcDbDictionary
280
     1
281
     1
  3
ACAD_XREC_ROUNDTRIP
360
1A2A
  0
DICTIONARY
  5
25CD
330
470
100
AcDbDictionary
280
     1
281
     1
  3
ACAD_XREC_ROUNDTRIP
360
25CE
  0
DICTIONARY
  5
25CF
330
7EF
100
AcDbDictionary
280
     1
281
     1
  3
ACAD_XREC_ROUNDTRIP
360
25D0
  0
DICTIONARY
  5
25D1
330
7F8
100
AcDbDictionary
280
     1
281
     1
  3
ACAD_XREC_ROUNDTRIP
360
25D2
  0
DICTIONARY
  5
25EB
330
EA9
100
AcDbDictionary
280
     1
281
     1
  3
ACAD_XREC_ROUNDTRIP
360
25EC
  0
DICTIONARY
  5
25EF
330
F3F
100
AcDbDictionary
280
     1
281
     1
  3
ACAD_XREC_ROUNDTRIP
360
25F0
  0
DICTIONARY
  5
577
330
389
100
AcDbDictionary
280
     1
281
     1
  3
ACAD_ROUNDTRIP_2008_TABLESTYLE_CELLSTYLEMAP
360
25A1
  3
ACAD_XREC_ROUNDTRIP
360
25AC
  0
DICTIONARY
  5
25B7
330
3F8
100
AcDbDictionary
280
     1
281
     1
  3
ACAD_XREC_ROUNDTRIP
360
25B8
  0
DICTIONARY
  5
25BB
330
3FA
100
AcDbDictionary
280
     1
281
     1
  3
ACAD_XREC_ROUNDTRIP
360
25BC
  0
DICTIONARY
  5
25B9
330
3F9
100
AcDbDictionary
280
     1
281
     1
  3
ACAD_XREC_ROUNDTRIP
360
25BA
  0
DICTIONARY
  5
25B5
330
3F7
100
AcDbDictionary
280
     1
281
     1
  3
ACAD_XREC_ROUNDTRIP
360
25B6
  0
DICTIONARY
  5
25C3
330
3FE
100
AcDbDictionary
280
     1
281
     1
  3
ACAD_XREC_ROUNDTRIP
360
25C4
  0
DICTIONARY
  5
25CB
330
402
100
AcDbDictionary
280
     1
281
     1
  3
ACAD_XREC_ROUNDTRIP
360
25CC
  0
DICTIONARY
  5
25BD
330
3FB
100
AcDbDictionary
280
     1
281
     1
  3
ACAD_XREC_ROUNDTRIP
360
25BE
  0
DICTIONARY
  5
25C1
330
3FD
100
AcDbDictionary
280
     1
281
     1
  3
ACAD_XREC_ROUNDTRIP
360
25C2
  0
DICTIONARY
  5
25DB
330
C40
100
AcDbDictionary
280
     1
281
     1
  3
ACAD_XREC_ROUNDTRIP
360
25DC
  0
DICTIONARY
  5
25C9
330
401
100
AcDbDictionary
280
     1
281
     1
  3
ACAD_XREC_ROUNDTRIP
360
25CA
  0
DICTIONARY
  5
25AD
330
3F3
100
AcDbDictionary
280
     1
281
     1
  3
ACAD_XREC_ROUNDTRIP
360
25AE
  0
DICTIONARY
  5
25AF
330
3F4
100
AcDbDictionary
280
     1
281
     1
  3
ACAD_XREC_ROUNDTRIP
360
25B0
  0
DICTIONARY
  5
25B1
330
3F5
100
AcDbDictionary
280
     1
281
     1
  3
ACAD_XREC_ROUNDTRIP
360
25B2
  0
DICTIONARY
  5
25B3
330
3F6
100
AcDbDictionary
280
     1
281
     1
  3
ACAD_XREC_ROUNDTRIP
360
25B4
  0
DICTIONARY
  5
25DF
330
EA2
100
AcDbDictionary
280
     1
281
     1
  3
ACAD_XREC_ROUNDTRIP
360
25E0
  0
DICTIONARY
  5
25D7
330
C3E
100
AcDbDictionary
280
     1
281
     1
  3
ACAD_XREC_ROUNDTRIP
360
25D8
  0
DICTIONARY
  5
25C7
330
400
100
AcDbDictionary
280
     1
281
     1
  3
ACAD_XREC_ROUNDTRIP
360
25C8
  0
DICTIONARY
  5
25D9
330
C3F
100
AcDbDictionary
280
     1
281
     1
  3
ACAD_XREC_ROUNDTRIP
360
25DA
  0
DICTIONARY
  5
25BF
330
3FC
100
AcDbDictionary
280
     1
281
     1
  3
ACAD_XREC_ROUNDTRIP
360
25C0
  0
DICTIONARY
  5
25E9
330
EA7
100
AcDbDictionary
280
     1
281
     1
  3
ACAD_XREC_ROUNDTRIP
360
25EA
  0
DICTIONARY
  5
25E7
330
EA6
100
AcDbDictionary
280
     1
281
     1
  3
ACAD_XREC_ROUNDTRIP
360
25E8
  0
DICTIONARY
  5
25E1
330
EA3
100
AcDbDictionary
280
     1
281
     1
  3
ACAD_XREC_ROUNDTRIP
360
25E2
  0
DICTIONARY
  5
25E3
330
EA4
100
AcDbDictionary
280
     1
281
     1
  3
ACAD_XREC_ROUNDTRIP
360
25E4
  0
DICTIONARY
  5
25C5
330
3FF
100
AcDbDictionary
280
     1
281
     1
  3
ACAD_XREC_ROUNDTRIP
360
25C6
  0
DICTIONARY
  5
25DD
330
EA1
100
AcDbDictionary
280
     1
281
     1
  3
ACAD_XREC_ROUNDTRIP
360
25DE
  0
DICTIONARY
  5
25E5
330
EA5
100
AcDbDictionary
280
     1
281
     1
  3
ACAD_XREC_ROUNDTRIP
360
25E6
  0
XRECORD
  5
25EE
102
{ACAD_REACTORS
330
25ED
102
}
330
25ED
100
AcDbXrecord
280
     1
102
DISPLAYNAME
  1
Imperial24
102
FLAGS
 90
        0
  0
XRECORD
  5
25F2
102
{ACAD_REACTORS
330
25F1
102
}
330
25F1
100
AcDbXrecord
280
     1
102
DISPLAYNAME
  1
Metric50
102
FLAGS
 90
        0
  0
XRECORD
  5
25D4
102
{ACAD_REACTORS
330
25D3
102
}
330
25D3
100
AcDbXrecord
280
     1
102
SHADEPLOT
 70
     0
102
SHADEPLOTRESLEVEL
 70
     2
102
SHADEPLOTCUSTOMDPI
 70
   300
  0
XRECORD
  5
25AB
102
{ACAD_REACTORS
330
25AA
102
}
330
25AA
100
AcDbXrecord
280
     1
102
SHADEPLOT
 70
     0
102
SHADEPLOTRESLEVEL
 70
     2
102
SHADEPLOTCUSTOMDPI
 70
   300
  0
XRECORD
  5
1A28
102
{ACAD_REACTORS
330
1A27
102
}
330
1A27
100
AcDbXrecord
280
     1
102
MATERIAL
148
0.0
149
0.0
149
0.0
 93
        0
 94
      127
282
     0
 72
     1
 77
     1
171
     1
175
     1
179
     1
273
     0
  0
XRECORD
  5
1A26
102
{ACAD_REACTORS
330
1A25
102
}
330
1A25
100
AcDbXrecord
280
     1
102
MATERIAL
148
0.0
149
0.0
149
0.0
 93
        0
 94
      127
282
     0
 72
     1
 77
     1
171
     1
175
     1
179
     1
273
     0
  0
XRECORD
  5
1A2A
102
{ACAD_REACTORS
330
1A29
102
}
330
1A29
100
AcDbXrecord
280
     1
102
MATERIAL
148
0.0
149
0.0
149
0.0
 93
        0
 94
      127
282
     0
 72
     1
 77
     1
171
     1
175
     1
179
     1
273
     0
  0
XRECORD
  5
25CE
102
{ACAD_REACTORS
330
25CD
102
}
330
25CD
100
AcDbXrecord
280
     1
102
ACAD_ROUNDTRIP_2012_MLEADER_STYLE
298
     1
  0
XRECORD
  5
25D0
102
{ACAD_REACTORS
330
25CF
102
}
330
25CF
100
AcDbXrecord
280
     1
102
SHADEPLOT
 70
     0
102
SHADEPLOTRESLEVEL
 70
     2
102
SHADEPLOTCUSTOMDPI
 70
   300
  0
XRECORD
  5
25D2
102
{ACAD_REACTORS
330
25D1
102
}
330
25D1
100
AcDbXrecord
280
     1
102
SHADEPLOT
 70
     0
102
SHADEPLOTRESLEVEL
 70
     2
102
SHADEPLOTCUSTOMDPI
 70
   300
  0
XRECORD
  5
25EC
102
{ACAD_REACTORS
330
25EB
102
}
330
25EB
100
AcDbXrecord
280
     1
102
DISPLAYNAME
  1
Imperial24
102
FLAGS
 90
        0
  0
XRECORD
  5
25F0
102
{ACAD_REACTORS
330
25EF
102
}
330
25EF
100
AcDbXrecord
280
     1
102
DISPLAYNAME
  1
Metric50
102
FLAGS
 90
        0
  0
CELLSTYLEMAP
  5
25A1
102
{ACAD_REACTORS
330
577
102
}
330
577
100
AcDbCellStyleMap
 90
        3
300
CELLSTYLE
  1
TABLEFORMAT_BEGIN
 90
        5
170
     1
 91
        0
 92
    32768
 62
   257
 93
        1
300
CONTENTFORMAT
  1
CONTENTFORMAT_BEGIN
 90
        0
 91
        0
 92
        4
 93
        0
300

 40
0.0
140
1.0
 94
        5
 62
     0
340
1E
144
6.0
309
CONTENTFORMAT_END
171
     1
301
MARGIN
  1
CELLMARGIN_BEGIN
 40
1.5
 40
1.5
 40
1.5
 40
1.5
 40
0.18
 40
0.18
309
CELLMARGIN_END
 94
        6
 95
        1
302
GRIDFORMAT
  1
GRIDFORMAT_BEGIN
 90
        0
 91
        1
 62
     0
 92
       -2
340
0
 93
        0
 40
0.045
309
GRIDFORMAT_END
 95
        2
302
GRIDFORMAT
  1
GRIDFORMAT_BEGIN
 90
        0
 91
        1
 62
     0
 92
       -2
340
0
 93
        0
 40
0.045
309
GRIDFORMAT_END
 95
        4
302
GRIDFORMAT
  1
GRIDFORMAT_BEGIN
 90
        0
 91
        1
 62
     0
 92
       -2
340
0
 93
        0
 40
0.045
309
GRIDFORMAT_END
 95
        8
302
GRIDFORMAT
  1
GRIDFORMAT_BEGIN
 90
        0
 91
        1
 62
     0
 92
       -2
340
0
 93
        0
 40
0.045
309
GRIDFORMAT_END
 95
       16
302
GRIDFORMAT
  1
GRIDFORMAT_BEGIN
 90
        0
 91
        1
 62
     0
 92
       -2
340
0
 93
        0
 40
0.045
309
GRIDFORMAT_END
 95
       32
302
GRIDFORMAT
  1
GRIDFORMAT_BEGIN
 90
        0
 91
        1
 62
     0
 92
       -2
340
0
 93
        0
 40
0.045
309
GRIDFORMAT_END
309
TABLEFORMAT_END
  1
CELLSTYLE_BEGIN
 90
        1
 91
        1
300
_TITLE
309
CELLSTYLE_END
300
CELLSTYLE
  1
TABLEFORMAT_BEGIN
 90
        5
170
     1
 91
        0
 92
        0
 62
   257
 93
        1
300
CONTENTFORMAT
  1
CONTENTFORMAT_BEGIN
 90
        0
 91
        0
 92
        4
 93
        0
300

 40
0.0
140
1.0
 94
        5
 62
     0
340
10
144
4.5
309
CONTENTFORMAT_END
171
     1
301
MARGIN
  1
CELLMARGIN_BEGIN
 40
1.5
 40
1.5
 40
1.5
 40
1.5
 40
0.18
 40
0.18
309
CELLMARGIN_END
 94
        6
 95
        1
302
GRIDFORMAT
  1
GRIDFORMAT_BEGIN
 90
        0
 91
        1
 62
     0
 92
       -2
340
0
 93
        0
 40
0.045
309
GRIDFORMAT_END
 95
        2
302
GRIDFORMAT
  1
GRIDFORMAT_BEGIN
 90
        0
 91
        1
 62
     0
 92
       -2
340
0
 93
        0
 40
0.045
309
GRIDFORMAT_END
 95
        4
302
GRIDFORMAT
  1
GRIDFORMAT_BEGIN
 90
        0
 91
        1
 62
     0
 92
       -2
340
0
 93
        0
 40
0.045
309
GRIDFORMAT_END
 95
        8
302
GRIDFORMAT
  1
GRIDFORMAT_BEGIN
 90
        0
 91
        1
 62
     0
 92
       -2
340
0
 93
        0
 40
0.045
309
GRIDFORMAT_END
 95
       16
302
GRIDFORMAT
  1
GRIDFORMAT_BEGIN
 90
        0
 91
        1
 62
     0
 92
       -2
340
0
 93
        0
 40
0.045
309
GRIDFORMAT_END
 95
       32
302
GRIDFORMAT
  1
GRIDFORMAT_BEGIN
 90
        0
 91
        1
 62
     0
 92
       -2
340
0
 93
        0
 40
0.045
309
GRIDFORMAT_END
309
TABLEFORMAT_END
  1
CELLSTYLE_BEGIN
 90
        2
 91
        1
300
_HEADER
309
CELLSTYLE_END
300
CELLSTYLE
  1
TABLEFORMAT_BEGIN
 90
        5
170
     1
 91
        0
 92
        0
 62
   257
 93
        1
300
CONTENTFORMAT
  1
CONTENTFORMAT_BEGIN
 90
        0
 91
        0
 92
        4
 93
        0
300

 40
0.0
140
1.0
 94
        2
 62
     0
340
10
144
4.5
309
CONTENTFORMAT_END
171
     1
301
MARGIN
  1
CELLMARGIN_BEGIN
 40
1.5
 40
1.5
 40
1.5
 40
1.5
 40
0.18
 40
0.18
309
CELLMARGIN_END
 94
        6
 95
        1
302
GRIDFORMAT
  1
GRIDFORMAT_BEGIN
 90
        0
 91
        1
 62
     0
 92
       -2
340
0
 93
        0
 40
0.045
309
GRIDFORMAT_END
 95
        2
302
GRIDFORMAT
  1
GRIDFORMAT_BEGIN
 90
        0
 91
        1
 62
     0
 92
       -2
340
0
 93
        0
 40
0.045
309
GRIDFORMAT_END
 95
        4
302
GRIDFORMAT
  1
GRIDFORMAT_BEGIN
 90
        0
 91
        1
 62
     0
 92
       -2
340
0
 93
        0
 40
0.045
309
GRIDFORMAT_END
 95
        8
302
GRIDFORMAT
  1
GRIDFORMAT_BEGIN
 90
        0
 91
        1
 62
     0
 92
       -2
340
0
 93
        0
 40
0.045
309
GRIDFORMAT_END
 95
       16
302
GRIDFORMAT
  1
GRIDFORMAT_BEGIN
 90
        0
 91
        1
 62
     0
 92
       -2
340
0
 93
        0
 40
0.045
309
GRIDFORMAT_END
 95
       32
302
GRIDFORMAT
  1
GRIDFORMAT_BEGIN
 90
        0
 91
        1
 62
     0
 92
       -2
340
0
 93
        0
 40
0.045
309
GRIDFORMAT_END
309
TABLEFORMAT_END
  1
CELLSTYLE_BEGIN
 90
        3
 91
        2
300
_DATA
309
CELLSTYLE_END
  0
XRECORD
  5
25AC
102
{ACAD_REACTORS
330
577
102
}
330
577
100
AcDbXrecord
280
     1
102
ACAD_ROUNDTRIP_PRE2007_TABLESTYLE
 90
        4
 91
        0
  1

 92
        4
 93
        0
  2

 94
        4
 95
        0
  3

  0
XRECORD
  5
25B8
102
{ACAD_REACTORS
330
25B7
102
}
330
25B7
100
AcDbXrecord
280
     1
102
RTVSPost2010Prop28
280
     1
102
RTVSPost2010PropOp28
 70
     1
102
RTVSPost2010Prop29
280
     1
102
RTVSPost2010PropOp29
 70
     1
102
RTVSPost2010Prop30
280
     0
102
RTVSPost2010PropOp30
 70
     1
102
RTVSPost2010Prop31
280
     0
102
RTVSPost2010PropOp31
 70
     1
102
RTVSPost2010Prop32
280
     0
102
RTVSPost2010PropOp32
 70
     1
102
RTVSPost2010Prop33
280
     0
102
RTVSPost2010PropOp33
 70
     1
102
RTVSPost2010Prop34
280
     0
102
RTVSPost2010PropOp34
 70
     1
102
RTVSPost2010Prop35
280
     0
102
RTVSPost2010PropOp35
 70
     1
102
RTVSPost2010Prop36
280
     0
102
RTVSPost2010PropOp36
 70
     1
102
RTVSPost2010Prop37
 90
       50
102
RTVSPost2010PropOp37
 70
     1
102
RTVSPost2010Prop38
140
0.0
102
RTVSPost2010PropOp38
 70
     1
102
RTVSPost2010Prop39
140
1.0
102
RTVSPost2010PropOp39
 70
     1
102
RTVSPost2010Prop40
 90
        0
102
RTVSPost2010PropOp40
 70
     1
102
RTVSPost2010Prop41ColorIndex
 90
       18
102
RTVSPost2010Prop41ColorRGB
 90
        0
102
RTVSPost2010PropOp41
 70
     1
102
RTVSPost2010Prop42
 90
       50
102
RTVSPost2010PropOp42
 70
     1
102
RTVSPost2010Prop43
 90
        3
102
RTVSPost2010PropOp43
 70
     1
102
RTVSPost2010Prop44ColorIndex
 90
        5
102
RTVSPost2010Prop44ColorRGB
 90
      255
102
RTVSPost2010PropOp44
 70
     1
102
RTVSPost2010Prop45
280
     0
102
RTVSPost2010PropOp45
 70
     1
102
RTVSPost2010Prop46
 90
       50
102
RTVSPost2010PropOp46
 70
     1
102
RTVSPost2010Prop47
 90
       50
102
RTVSPost2010PropOp47
 70
     1
102
RTVSPost2010Prop48
 90
       50
102
RTVSPost2010PropOp48
 70
     1
102
RTVSPost2010Prop49
280
     0
102
RTVSPost2010PropOp49
 70
     1
102
RTVSPost2010Prop50
 90
       50
102
RTVSPost2010PropOp50
 70
     1
102
RTVSPost2010Prop51ColorIndex
 90
      256
102
RTVSPost2010Prop51ColorRGB
 90
-16777216
102
RTVSPost2010PropOp51
 70
     0
102
RTVSPost2010Prop52
140
1.0
102
RTVSPost2010PropOp52
 70
     0
102
RTVSPost2010Prop53
 90
        2
102
RTVSPost2010PropOp53
 70
     1
102
RTVSPost2010Prop54
  1
strokes_ogs.tif
102
RTVSPost2010PropOp54
 70
     1
102
RTVSPost2010Prop55
280
     0
102
RTVSPost2010PropOp55
 70
     1
102
RTVSPost2010Prop56
140
1.0
102
RTVSPost2010PropOp56
 70
     1
102
RTVSPost2010Prop57
140
1.0
102
RTVSPost2010PropOp57
 70
     1
102
RTVSPropertyOp0
 70
     1
102
RTVSPropertyOp1
 70
     1
102
RTVSPropertyOp2
 70
     1
102
RTVSPropertyOp3
 70
     1
102
RTVSPropertyOp4
 70
     1
102
RTVSPropertyOp5
 70
     1
102
RTVSPropertyOp6
 70
     1
102
RTVSPropertyOp7
 70
     1
102
RTVSPropertyOp8
 70
     1
102
RTVSPropertyOp9
 70
     1
102
RTVSPropertyOp10
 70
     1
102
RTVSPropertyOp11
 70
     1
102
RTVSPropertyOp12
 70
     1
102
RTVSPropertyOp13
 70
     1
102
RTVSPropertyOp14
 70
     1
102
RTVSPropertyOp15
 70
     1
102
RTVSPropertyOp16
 70
     1
102
RTVSPropertyOp17
 70
     1
102
RTVSPropertyOp18
 70
     1
102
RTVSPropertyOp19
 70
     1
102
RTVSPropertyOp20
 70
     1
102
RTVSPropertyOp21
 70
     1
102
RTVSPropertyOp22
 70
     1
102
RTVSPropertyOp23
 70
     1
102
RTVSPropertyOp24
 70
     1
102
RTVSPropertyOp25
 70
     1
102
RTVSPropertyOp26
 70
     1
102
RTVSPropertyOp27
 70
     1
102
RTVSPropertyOp28
 70
     1
102
RTVSPropertyOp29
 70
     1
102
RTVSPropertyOp30
 70
     1
102
RTVSPropertyOp31
 70
     1
102
RTVSPropertyOp32
 70
     1
102
RTVSPropertyOp33
 70
     1
102
RTVSPropertyOp34
 70
     1
102
RTVSPropertyOp35
 70
     1
102
RTVSPropertyOp36
 70
     1
102
RTVSPropertyOp37
 70
     1
102
RTVSPropertyOp38
 70
     1
102
RTVSPropertyOp39
 70
     1
102
RTVSPropertyOp40
 70
     1
102
RTVSPropertyOp41
 70
     1
102
RTVSPropertyOp42
 70
     1
102
RTVSPropertyOp43
 70
     1
102
RTVSPropertyOp44
 70
     1
102
RTVSPropertyOp45
 70
     1
102
RTVSPropertyOp46
 70
     1
102
RTVSPropertyOp47
 70
     1
102
RTVSPropertyOp48
 70
     1
102
RTVSPropertyOp49
 70
     1
102
RTVSPropertyOp50
 70
     1
102
RTVSPropertyOp51
 70
     0
102
RTVSPropertyOp52
 70
     0
102
RTVSPropertyOp53
 70
     1
102
RTVSPropertyOp54
 70
     1
102
RTVSPropertyOp55
 70
     1
102
RTVSPropertyOp56
 70
     1
102
RTVSPropertyOp57
 70
     1
102
RTVSPropertyOp58
 70
     1
102
RTVSPropertyOp59
 70
     1
102
RTVSPropertyOp60
 70
     1
102
RTVSPropertyOp61
 70
     1
102
RTVSPropertyOp62
 70
     1
  0
XRECORD
  5
25BC
102
{ACAD_REACTORS
330
25BB
102
}
330
25BB
100
AcDbXrecord
280
     1
102
RTVSPost2010Prop28
280
     0
102
RTVSPost2010PropOp28
 70
     1
102
RTVSPost2010Prop29
280
     1
102
RTVSPost2010PropOp29
 70
     1
102
RTVSPost2010Prop30
280
     1
102
RTVSPost2010PropOp30
 70
     1
102
RTVSPost2010Prop31
280
     0
102
RTVSPost2010PropOp31
 70
     1
102
RTVSPost2010Prop32
280
     0
102
RTVSPost2010PropOp32
 70
     1
102
RTVSPost2010Prop33
280
     0
102
RTVSPost2010PropOp33
 70
     1
102
RTVSPost2010Prop34
280
     0
102
RTVSPost2010PropOp34
 70
     1
102
RTVSPost2010Prop35
280
     0
102
RTVSPost2010PropOp35
 70
     1
102
RTVSPost2010Prop36
280
     0
102
RTVSPost2010PropOp36
 70
     1
102
RTVSPost2010Prop37
 90
       50
102
RTVSPost2010PropOp37
 70
     1
102
RTVSPost2010Prop38
140
0.0
102
RTVSPost2010PropOp38
 70
     1
102
RTVSPost2010Prop39
140
1.0
102
RTVSPost2010PropOp39
 70
     1
102
RTVSPost2010Prop40
 90
        0
102
RTVSPost2010PropOp40
 70
     1
102
RTVSPost2010Prop41ColorIndex
 90
       18
102
RTVSPost2010Prop41ColorRGB
 90
        0
102
RTVSPost2010PropOp41
 70
     1
102
RTVSPost2010Prop42
 90
       50
102
RTVSPost2010PropOp42
 70
     1
102
RTVSPost2010Prop43
 90
        3
102
RTVSPost2010PropOp43
 70
     1
102
RTVSPost2010Prop44ColorIndex
 90
        5
102
RTVSPost2010Prop44ColorRGB
 90
      255
102
RTVSPost2010PropOp44
 70
     1
102
RTVSPost2010Prop45
280
     0
102
RTVSPost2010PropOp45
 70
     1
102
RTVSPost2010Prop46
 90
       50
102
RTVSPost2010PropOp46
 70
     1
102
RTVSPost2010Prop47
 90
       50
102
RTVSPost2010PropOp47
 70
     1
102
RTVSPost2010Prop48
 90
       50
102
RTVSPost2010PropOp48
 70
     1
102
RTVSPost2010Prop49
280
     0
102
RTVSPost2010PropOp49
 70
     1
102
RTVSPost2010Prop50
 90
       50
102
RTVSPost2010PropOp50
 70
     1
102
RTVSPost2010Prop51ColorIndex
 90
      256
102
RTVSPost2010Prop51ColorRGB
 90
-16777216
102
RTVSPost2010PropOp51
 70
     0
102
RTVSPost2010Prop52
140
1.0
102
RTVSPost2010PropOp52
 70
     0
102
RTVSPost2010Prop53
 90
        2
102
RTVSPost2010PropOp53
 70
     1
102
RTVSPost2010Prop54
  1
strokes_ogs.tif
102
RTVSPost2010PropOp54
 70
     1
102
RTVSPost2010Prop55
280
     0
102
RTVSPost2010PropOp55
 70
     1
102
RTVSPost2010Prop56
140
1.0
102
RTVSPost2010PropOp56
 70
     1
102
RTVSPost2010Prop57
140
1.0
102
RTVSPost2010PropOp57
 70
     1
102
RTVSPropertyOp0
 70
     1
102
RTVSPropertyOp1
 70
     1
102
RTVSPropertyOp2
 70
     1
102
RTVSPropertyOp3
 70
     1
102
RTVSPropertyOp4
 70
     1
102
RTVSPropertyOp5
 70
     1
102
RTVSPropertyOp6
 70
     1
102
RTVSPropertyOp7
 70
     1
102
RTVSPropertyOp8
 70
     1
102
RTVSPropertyOp9
 70
     1
102
RTVSPropertyOp10
 70
     1
102
RTVSPropertyOp11
 70
     1
102
RTVSPropertyOp12
 70
     1
102
RTVSPropertyOp13
 70
     1
102
RTVSPropertyOp14
 70
     1
102
RTVSPropertyOp15
 70
     1
102
RTVSPropertyOp16
 70
     1
102
RTVSPropertyOp17
 70
     1
102
RTVSPropertyOp18
 70
     1
102
RTVSPropertyOp19
 70
     1
102
RTVSPropertyOp20
 70
     1
102
RTVSPropertyOp21
 70
     1
102
RTVSPropertyOp22
 70
     1
102
RTVSPropertyOp23
 70
     1
102
RTVSPropertyOp24
 70
     1
102
RTVSPropertyOp25
 70
     1
102
RTVSPropertyOp26
 70
     1
102
RTVSPropertyOp27
 70
     1
102
RTVSPropertyOp28
 70
     1
102
RTVSPropertyOp29
 70
     1
102
RTVSPropertyOp30
 70
     1
102
RTVSPropertyOp31
 70
     1
102
RTVSPropertyOp32
 70
     1
102
RTVSPropertyOp33
 70
     1
102
RTVSPropertyOp34
 70
     1
102
RTVSPropertyOp35
 70
     1
102
RTVSPropertyOp36
 70
     1
102
RTVSPropertyOp37
 70
     1
102
RTVSPropertyOp38
 70
     1
102
RTVSPropertyOp39
 70
     1
102
RTVSPropertyOp40
 70
     1
102
RTVSPropertyOp41
 70
     1
102
RTVSPropertyOp42
 70
     1
102
RTVSPropertyOp43
 70
     1
102
RTVSPropertyOp44
 70
     1
102
RTVSPropertyOp45
 70
     1
102
RTVSPropertyOp46
 70
     1
102
RTVSPropertyOp47
 70
     1
102
RTVSPropertyOp48
 70
     1
102
RTVSPropertyOp49
 70
     1
102
RTVSPropertyOp50
 70
     1
102
RTVSPropertyOp51
 70
     0
102
RTVSPropertyOp52
 70
     0
102
RTVSPropertyOp53
 70
     1
102
RTVSPropertyOp54
 70
     1
102
RTVSPropertyOp55
 70
     1
102
RTVSPropertyOp56
 70
     1
102
RTVSPropertyOp57
 70
     1
102
RTVSPropertyOp58
 70
     1
102
RTVSPropertyOp59
 70
     1
102
RTVSPropertyOp60
 70
     1
102
RTVSPropertyOp61
 70
     1
102
RTVSPropertyOp62
 70
     1
  0
XRECORD
  5
25BA
102
{ACAD_REACTORS
330
25B9
102
}
330
25B9
100
AcDbXrecord
280
     1
102
RTVSPost2010Prop28
280
     0
102
RTVSPost2010PropOp28
 70
     1
102
RTVSPost2010Prop29
280
     1
102
RTVSPost2010PropOp29
 70
     1
102
RTVSPost2010Prop30
280
     1
102
RTVSPost2010PropOp30
 70
     1
102
RTVSPost2010Prop31
280
     0
102
RTVSPost2010PropOp31
 70
     1
102
RTVSPost2010Prop32
280
     0
102
RTVSPost2010PropOp32
 70
     1
102
RTVSPost2010Prop33
280
     0
102
RTVSPost2010PropOp33
 70
     1
102
RTVSPost2010Prop34
280
     0
102
RTVSPost2010PropOp34
 70
     1
102
RTVSPost2010Prop35
280
     0
102
RTVSPost2010PropOp35
 70
     1
102
RTVSPost2010Prop36
280
     0
102
RTVSPost2010PropOp36
 70
     1
102
RTVSPost2010Prop37
 90
       50
102
RTVSPost2010PropOp37
 70
     1
102
RTVSPost2010Prop38
140
0.0
102
RTVSPost2010PropOp38
 70
     1
102
RTVSPost2010Prop39
140
1.0
102
RTVSPost2010PropOp39
 70
     1
102
RTVSPost2010Prop40
 90
        0
102
RTVSPost2010PropOp40
 70
     1
102
RTVSPost2010Prop41ColorIndex
 90
       18
102
RTVSPost2010Prop41ColorRGB
 90
        0
102
RTVSPost2010PropOp41
 70
     1
102
RTVSPost2010Prop42
 90
       50
102
RTVSPost2010PropOp42
 70
     1
102
RTVSPost2010Prop43
 90
        3
102
RTVSPost2010PropOp43
 70
     1
102
RTVSPost2010Prop44ColorIndex
 90
        5
102
RTVSPost2010Prop44ColorRGB
 90
      255
102
RTVSPost2010PropOp44
 70
     1
102
RTVSPost2010Prop45
280
     0
102
RTVSPost2010PropOp45
 70
     1
102
RTVSPost2010Prop46
 90
       50
102
RTVSPost2010PropOp46
 70
     1
102
RTVSPost2010Prop47
 90
       50
102
RTVSPost2010PropOp47
 70
     1
102
RTVSPost2010Prop48
 90
       50
102
RTVSPost2010PropOp48
 70
     1
102
RTVSPost2010Prop49
280
     0
102
RTVSPost2010PropOp49
 70
     1
102
RTVSPost2010Prop50
 90
       50
102
RTVSPost2010PropOp50
 70
     1
102
RTVSPost2010Prop51ColorIndex
 90
      256
102
RTVSPost2010Prop51ColorRGB
 90
-16777216
102
RTVSPost2010PropOp51
 70
     0
102
RTVSPost2010Prop52
140
1.0
102
RTVSPost2010PropOp52
 70
     0
102
RTVSPost2010Prop53
 90
        2
102
RTVSPost2010PropOp53
 70
     1
102
RTVSPost2010Prop54
  1
strokes_ogs.tif
102
RTVSPost2010PropOp54
 70
     1
102
RTVSPost2010Prop55
280
     0
102
RTVSPost2010PropOp55
 70
     1
102
RTVSPost2010Prop56
140
1.0
102
RTVSPost2010PropOp56
 70
     1
102
RTVSPost2010Prop57
140
1.0
102
RTVSPost2010PropOp57
 70
     1
102
RTVSPropertyOp0
 70
     1
102
RTVSPropertyOp1
 70
     1
102
RTVSPropertyOp2
 70
     1
102
RTVSPropertyOp3
 70
     1
102
RTVSPropertyOp4
 70
     1
102
RTVSPropertyOp5
 70
     1
102
RTVSPropertyOp6
 70
     1
102
RTVSPropertyOp7
 70
     1
102
RTVSPropertyOp8
 70
     1
102
RTVSPropertyOp9
 70
     1
102
RTVSPropertyOp10
 70
     1
102
RTVSPropertyOp11
 70
     1
102
RTVSPropertyOp12
 70
     1
102
RTVSPropertyOp13
 70
     1
102
RTVSPropertyOp14
 70
     1
102
RTVSPropertyOp15
 70
     1
102
RTVSPropertyOp16
 70
     1
102
RTVSPropertyOp17
 70
     1
102
RTVSPropertyOp18
 70
     1
102
RTVSPropertyOp19
 70
     1
102
RTVSPropertyOp20
 70
     1
102
RTVSPropertyOp21
 70
     1
102
RTVSPropertyOp22
 70
     1
102
RTVSPropertyOp23
 70
     1
102
RTVSPropertyOp24
 70
     1
102
RTVSPropertyOp25
 70
     1
102
RTVSPropertyOp26
 70
     1
102
RTVSPropertyOp27
 70
     1
102
RTVSPropertyOp28
 70
     1
102
RTVSPropertyOp29
 70
     1
102
RTVSPropertyOp30
 70
     1
102
RTVSPropertyOp31
 70
     1
102
RTVSPropertyOp32
 70
     1
102
RTVSPropertyOp33
 70
     1
102
RTVSPropertyOp34
 70
     1
102
RTVSPropertyOp35
 70
     1
102
RTVSPropertyOp36
 70
     1
102
RTVSPropertyOp37
 70
     1
102
RTVSPropertyOp38
 70
     1
102
RTVSPropertyOp39
 70
     1
102
RTVSPropertyOp40
 70
     1
102
RTVSPropertyOp41
 70
     1
102
RTVSPropertyOp42
 70
     1
102
RTVSPropertyOp43
 70
     1
102
RTVSPropertyOp44
 70
     1
102
RTVSPropertyOp45
 70
     1
102
RTVSPropertyOp46
 70
     1
102
RTVSPropertyOp47
 70
     1
102
RTVSPropertyOp48
 70
     1
102
RTVSPropertyOp49
 70
     1
102
RTVSPropertyOp50
 70
     1
102
RTVSPropertyOp51
 70
     0
102
RTVSPropertyOp52
 70
     0
102
RTVSPropertyOp53
 70
     1
102
RTVSPropertyOp54
 70
     1
102
RTVSPropertyOp55
 70
     1
102
RTVSPropertyOp56
 70
     1
102
RTVSPropertyOp57
 70
     1
102
RTVSPropertyOp58
 70
     1
102
RTVSPropertyOp59
 70
     1
102
RTVSPropertyOp60
 70
     1
102
RTVSPropertyOp61
 70
     1
102
RTVSPropertyOp62
 70
     1
  0
XRECORD
  5
25B6
102
{ACAD_REACTORS
330
25B5
102
}
330
25B5
100
AcDbXrecord
280
     1
102
RTVSPost2010Prop28
280
     0
102
RTVSPost2010PropOp28
 70
     1
102
RTVSPost2010Prop29
280
     1
102
RTVSPost2010PropOp29
 70
     1
102
RTVSPost2010Prop30
280
     1
102
RTVSPost2010PropOp30
 70
     1
102
RTVSPost2010Prop31
280
     0
102
RTVSPost2010PropOp31
 70
     1
102
RTVSPost2010Prop32
280
     0
102
RTVSPost2010PropOp32
 70
     1
102
RTVSPost2010Prop33
280
     0
102
RTVSPost2010PropOp33
 70
     1
102
RTVSPost2010Prop34
280
     0
102
RTVSPost2010PropOp34
 70
     1
102
RTVSPost2010Prop35
280
     0
102
RTVSPost2010PropOp35
 70
     1
102
RTVSPost2010Prop36
280
     0
102
RTVSPost2010PropOp36
 70
     1
102
RTVSPost2010Prop37
 90
       50
102
RTVSPost2010PropOp37
 70
     1
102
RTVSPost2010Prop38
140
0.0
102
RTVSPost2010PropOp38
 70
     1
102
RTVSPost2010Prop39
140
1.0
102
RTVSPost2010PropOp39
 70
     1
102
RTVSPost2010Prop40
 90
        0
102
RTVSPost2010PropOp40
 70
     1
102
RTVSPost2010Prop41ColorIndex
 90
       18
102
RTVSPost2010Prop41ColorRGB
 90
        0
102
RTVSPost2010PropOp41
 70
     1
102
RTVSPost2010Prop42
 90
       50
102
RTVSPost2010PropOp42
 70
     1
102
RTVSPost2010Prop43
 90
        3
102
RTVSPost2010PropOp43
 70
     1
102
RTVSPost2010Prop44ColorIndex
 90
        5
102
RTVSPost2010Prop44ColorRGB
 90
      255
102
RTVSPost2010PropOp44
 70
     1
102
RTVSPost2010Prop45
280
     0
102
RTVSPost2010PropOp45
 70
     1
102
RTVSPost2010Prop46
 90
       50
102
RTVSPost2010PropOp46
 70
     1
102
RTVSPost2010Prop47
 90
       50
102
RTVSPost2010PropOp47
 70
     1
102
RTVSPost2010Prop48
 90
       50
102
RTVSPost2010PropOp48
 70
     1
102
RTVSPost2010Prop49
280
     0
102
RTVSPost2010PropOp49
 70
     1
102
RTVSPost2010Prop50
 90
       50
102
RTVSPost2010PropOp50
 70
     1
102
RTVSPost2010Prop51ColorIndex
 90
      256
102
RTVSPost2010Prop51ColorRGB
 90
-16777216
102
RTVSPost2010PropOp51
 70
     0
102
RTVSPost2010Prop52
140
1.0
102
RTVSPost2010PropOp52
 70
     0
102
RTVSPost2010Prop53
 90
        2
102
RTVSPost2010PropOp53
 70
     1
102
RTVSPost2010Prop54
  1
strokes_ogs.tif
102
RTVSPost2010PropOp54
 70
     1
102
RTVSPost2010Prop55
280
     0
102
RTVSPost2010PropOp55
 70
     1
102
RTVSPost2010Prop56
140
1.0
102
RTVSPost2010PropOp56
 70
     1
102
RTVSPost2010Prop57
140
1.0
102
RTVSPost2010PropOp57
 70
     1
102
RTVSPropertyOp0
 70
     1
102
RTVSPropertyOp1
 70
     1
102
RTVSPropertyOp2
 70
     1
102
RTVSPropertyOp3
 70
     1
102
RTVSPropertyOp4
 70
     1
102
RTVSPropertyOp5
 70
     1
102
RTVSPropertyOp6
 70
     1
102
RTVSPropertyOp7
 70
     1
102
RTVSPropertyOp8
 70
     1
102
RTVSPropertyOp9
 70
     1
102
RTVSPropertyOp10
 70
     1
102
RTVSPropertyOp11
 70
     1
102
RTVSPropertyOp12
 70
     1
102
RTVSPropertyOp13
 70
     1
102
RTVSPropertyOp14
 70
     1
102
RTVSPropertyOp15
 70
     1
102
RTVSPropertyOp16
 70
     1
102
RTVSPropertyOp17
 70
     1
102
RTVSPropertyOp18
 70
     1
102
RTVSPropertyOp19
 70
     1
102
RTVSPropertyOp20
 70
     1
102
RTVSPropertyOp21
 70
     1
102
RTVSPropertyOp22
 70
     1
102
RTVSPropertyOp23
 70
     1
102
RTVSPropertyOp24
 70
     1
102
RTVSPropertyOp25
 70
     1
102
RTVSPropertyOp26
 70
     1
102
RTVSPropertyOp27
 70
     1
102
RTVSPropertyOp28
 70
     1
102
RTVSPropertyOp29
 70
     1
102
RTVSPropertyOp30
 70
     1
102
RTVSPropertyOp31
 70
     1
102
RTVSPropertyOp32
 70
     1
102
RTVSPropertyOp33
 70
     1
102
RTVSPropertyOp34
 70
     1
102
RTVSPropertyOp35
 70
     1
102
RTVSPropertyOp36
 70
     1
102
RTVSPropertyOp37
 70
     1
102
RTVSPropertyOp38
 70
     1
102
RTVSPropertyOp39
 70
     1
102
RTVSPropertyOp40
 70
     1
102
RTVSPropertyOp41
 70
     1
102
RTVSPropertyOp42
 70
     1
102
RTVSPropertyOp43
 70
     1
102
RTVSPropertyOp44
 70
     1
102
RTVSPropertyOp45
 70
     1
102
RTVSPropertyOp46
 70
     1
102
RTVSPropertyOp47
 70
     1
102
RTVSPropertyOp48
 70
     1
102
RTVSPropertyOp49
 70
     1
102
RTVSPropertyOp50
 70
     1
102
RTVSPropertyOp51
 70
     0
102
RTVSPropertyOp52
 70
     0
102
RTVSPropertyOp53
 70
     1
102
RTVSPropertyOp54
 70
     1
102
RTVSPropertyOp55
 70
     1
102
RTVSPropertyOp56
 70
     1
102
RTVSPropertyOp57
 70
     1
102
RTVSPropertyOp58
 70
     1
102
RTVSPropertyOp59
 70
     1
102
RTVSPropertyOp60
 70
     1
102
RTVSPropertyOp61
 70
     1
102
RTVSPropertyOp62
 70
     1
  0
XRECORD
  5
25C4
102
{ACAD_REACTORS
330
25C3
102
}
330
25C3
100
AcDbXrecord
280
     1
102
RTVSPost2010Prop28
280
     0
102
RTVSPost2010PropOp28
 70
     1
102
RTVSPost2010Prop29
280
     1
102
RTVSPost2010PropOp29
 70
     1
102
RTVSPost2010Prop30
280
     1
102
RTVSPost2010PropOp30
 70
     1
102
RTVSPost2010Prop31
280
     0
102
RTVSPost2010PropOp31
 70
     1
102
RTVSPost2010Prop32
280
     0
102
RTVSPost2010PropOp32
 70
     1
102
RTVSPost2010Prop33
280
     0
102
RTVSPost2010PropOp33
 70
     1
102
RTVSPost2010Prop34
280
     0
102
RTVSPost2010PropOp34
 70
     1
102
RTVSPost2010Prop35
280
     0
102
RTVSPost2010PropOp35
 70
     1
102
RTVSPost2010Prop36
280
     0
102
RTVSPost2010PropOp36
 70
     1
102
RTVSPost2010Prop37
 90
       50
102
RTVSPost2010PropOp37
 70
     1
102
RTVSPost2010Prop38
140
0.0
102
RTVSPost2010PropOp38
 70
     1
102
RTVSPost2010Prop39
140
1.0
102
RTVSPost2010PropOp39
 70
     1
102
RTVSPost2010Prop40
 90
        0
102
RTVSPost2010PropOp40
 70
     1
102
RTVSPost2010Prop41ColorIndex
 90
       18
102
RTVSPost2010Prop41ColorRGB
 90
        0
102
RTVSPost2010PropOp41
 70
     1
102
RTVSPost2010Prop42
 90
       50
102
RTVSPost2010PropOp42
 70
     1
102
RTVSPost2010Prop43
 90
        3
102
RTVSPost2010PropOp43
 70
     1
102
RTVSPost2010Prop44ColorIndex
 90
        5
102
RTVSPost2010Prop44ColorRGB
 90
      255
102
RTVSPost2010PropOp44
 70
     1
102
RTVSPost2010Prop45
280
     0
102
RTVSPost2010PropOp45
 70
     1
102
RTVSPost2010Prop46
 90
       50
102
RTVSPost2010PropOp46
 70
     1
102
RTVSPost2010Prop47
 90
       50
102
RTVSPost2010PropOp47
 70
     1
102
RTVSPost2010Prop48
 90
       50
102
RTVSPost2010PropOp48
 70
     1
102
RTVSPost2010Prop49
280
     0
102
RTVSPost2010PropOp49
 70
     1
102
RTVSPost2010Prop50
 90
       50
102
RTVSPost2010PropOp50
 70
     1
102
RTVSPost2010Prop51ColorIndex
 90
      256
102
RTVSPost2010Prop51ColorRGB
 90
-16777216
102
RTVSPost2010PropOp51
 70
     0
102
RTVSPost2010Prop52
140
1.0
102
RTVSPost2010PropOp52
 70
     0
102
RTVSPost2010Prop53
 90
        2
102
RTVSPost2010PropOp53
 70
     1
102
RTVSPost2010Prop54
  1
strokes_ogs.tif
102
RTVSPost2010PropOp54
 70
     1
102
RTVSPost2010Prop55
280
     0
102
RTVSPost2010PropOp55
 70
     1
102
RTVSPost2010Prop56
140
1.0
102
RTVSPost2010PropOp56
 70
     1
102
RTVSPost2010Prop57
140
1.0
102
RTVSPost2010PropOp57
 70
     1
102
RTVSPropertyOp0
 70
     1
102
RTVSPropertyOp1
 70
     1
102
RTVSPropertyOp2
 70
     1
102
RTVSPropertyOp3
 70
     1
102
RTVSPropertyOp4
 70
     1
102
RTVSPropertyOp5
 70
     1
102
RTVSPropertyOp6
 70
     1
102
RTVSPropertyOp7
 70
     1
102
RTVSPropertyOp8
 70
     1
102
RTVSPropertyOp9
 70
     1
102
RTVSPropertyOp10
 70
     1
102
RTVSPropertyOp11
 70
     1
102
RTVSPropertyOp12
 70
     1
102
RTVSPropertyOp13
 70
     1
102
RTVSPropertyOp14
 70
     1
102
RTVSPropertyOp15
 70
     1
102
RTVSPropertyOp16
 70
     1
102
RTVSPropertyOp17
 70
     1
102
RTVSPropertyOp18
 70
     1
102
RTVSPropertyOp19
 70
     1
102
RTVSPropertyOp20
 70
     1
102
RTVSPropertyOp21
 70
     1
102
RTVSPropertyOp22
 70
     1
102
RTVSPropertyOp23
 70
     1
102
RTVSPropertyOp24
 70
     1
102
RTVSPropertyOp25
 70
     1
102
RTVSPropertyOp26
 70
     1
102
RTVSPropertyOp27
 70
     1
102
RTVSPropertyOp28
 70
     1
102
RTVSPropertyOp29
 70
     1
102
RTVSPropertyOp30
 70
     1
102
RTVSPropertyOp31
 70
     1
102
RTVSPropertyOp32
 70
     1
102
RTVSPropertyOp33
 70
     1
102
RTVSPropertyOp34
 70
     1
102
RTVSPropertyOp35
 70
     1
102
RTVSPropertyOp36
 70
     1
102
RTVSPropertyOp37
 70
     1
102
RTVSPropertyOp38
 70
     1
102
RTVSPropertyOp39
 70
     1
102
RTVSPropertyOp40
 70
     1
102
RTVSPropertyOp41
 70
     1
102
RTVSPropertyOp42
 70
     1
102
RTVSPropertyOp43
 70
     1
102
RTVSPropertyOp44
 70
     1
102
RTVSPropertyOp45
 70
     1
102
RTVSPropertyOp46
 70
     1
102
RTVSPropertyOp47
 70
     1
102
RTVSPropertyOp48
 70
     1
102
RTVSPropertyOp49
 70
     1
102
RTVSPropertyOp50
 70
     1
102
RTVSPropertyOp51
 70
     0
102
RTVSPropertyOp52
 70
     0
102
RTVSPropertyOp53
 70
     1
102
RTVSPropertyOp54
 70
     1
102
RTVSPropertyOp55
 70
     1
102
RTVSPropertyOp56
 70
     1
102
RTVSPropertyOp57
 70
     1
102
RTVSPropertyOp58
 70
     1
102
RTVSPropertyOp59
 70
     1
102
RTVSPropertyOp60
 70
     1
102
RTVSPropertyOp61
 70
     1
102
RTVSPropertyOp62
 70
     1
  0
XRECORD
  5
25CC
102
{ACAD_REACTORS
330
25CB
102
}
330
25CB
100
AcDbXrecord
280
     1
102
RTVSPost2010Prop28
280
     0
102
RTVSPost2010PropOp28
 70
     1
102
RTVSPost2010Prop29
280
     1
102
RTVSPost2010PropOp29
 70
     1
102
RTVSPost2010Prop30
280
     1
102
RTVSPost2010PropOp30
 70
     1
102
RTVSPost2010Prop31
280
     0
102
RTVSPost2010PropOp31
 70
     1
102
RTVSPost2010Prop32
280
     0
102
RTVSPost2010PropOp32
 70
     1
102
RTVSPost2010Prop33
280
     0
102
RTVSPost2010PropOp33
 70
     1
102
RTVSPost2010Prop34
280
     0
102
RTVSPost2010PropOp34
 70
     1
102
RTVSPost2010Prop35
280
     0
102
RTVSPost2010PropOp35
 70
     1
102
RTVSPost2010Prop36
280
     0
102
RTVSPost2010PropOp36
 70
     1
102
RTVSPost2010Prop37
 90
       50
102
RTVSPost2010PropOp37
 70
     1
102
RTVSPost2010Prop38
140
0.0
102
RTVSPost2010PropOp38
 70
     1
102
RTVSPost2010Prop39
140
1.0
102
RTVSPost2010PropOp39
 70
     1
102
RTVSPost2010Prop40
 90
        0
102
RTVSPost2010PropOp40
 70
     1
102
RTVSPost2010Prop41ColorIndex
 90
       18
102
RTVSPost2010Prop41ColorRGB
 90
        0
102
RTVSPost2010PropOp41
 70
     1
102
RTVSPost2010Prop42
 90
       50
102
RTVSPost2010PropOp42
 70
     1
102
RTVSPost2010Prop43
 90
        3
102
RTVSPost2010PropOp43
 70
     1
102
RTVSPost2010Prop44ColorIndex
 90
        5
102
RTVSPost2010Prop44ColorRGB
 90
      255
102
RTVSPost2010PropOp44
 70
     1
102
RTVSPost2010Prop45
280
     0
102
RTVSPost2010PropOp45
 70
     1
102
RTVSPost2010Prop46
 90
       50
102
RTVSPost2010PropOp46
 70
     1
102
RTVSPost2010Prop47
 90
       50
102
RTVSPost2010PropOp47
 70
     1
102
RTVSPost2010Prop48
 90
       50
102
RTVSPost2010PropOp48
 70
     1
102
RTVSPost2010Prop49
280
     0
102
RTVSPost2010PropOp49
 70
     1
102
RTVSPost2010Prop50
 90
       50
102
RTVSPost2010PropOp50
 70
     1
102
RTVSPost2010Prop51ColorIndex
 90
      256
102
RTVSPost2010Prop51ColorRGB
 90
-16777216
102
RTVSPost2010PropOp51
 70
     0
102
RTVSPost2010Prop52
140
1.0
102
RTVSPost2010PropOp52
 70
     0
102
RTVSPost2010Prop53
 90
        2
102
RTVSPost2010PropOp53
 70
     1
102
RTVSPost2010Prop54
  1
strokes_ogs.tif
102
RTVSPost2010PropOp54
 70
     1
102
RTVSPost2010Prop55
280
     0
102
RTVSPost2010PropOp55
 70
     1
102
RTVSPost2010Prop56
140
1.0
102
RTVSPost2010PropOp56
 70
     1
102
RTVSPost2010Prop57
140
1.0
102
RTVSPost2010PropOp57
 70
     1
102
RTVSPropertyOp0
 70
     1
102
RTVSPropertyOp1
 70
     1
102
RTVSPropertyOp2
 70
     1
102
RTVSPropertyOp3
 70
     1
102
RTVSPropertyOp4
 70
     1
102
RTVSPropertyOp5
 70
     1
102
RTVSPropertyOp6
 70
     1
102
RTVSPropertyOp7
 70
     1
102
RTVSPropertyOp8
 70
     1
102
RTVSPropertyOp9
 70
     1
102
RTVSPropertyOp10
 70
     1
102
RTVSPropertyOp11
 70
     1
102
RTVSPropertyOp12
 70
     1
102
RTVSPropertyOp13
 70
     1
102
RTVSPropertyOp14
 70
     1
102
RTVSPropertyOp15
 70
     1
102
RTVSPropertyOp16
 70
     1
102
RTVSPropertyOp17
 70
     1
102
RTVSPropertyOp18
 70
     1
102
RTVSPropertyOp19
 70
     1
102
RTVSPropertyOp20
 70
     1
102
RTVSPropertyOp21
 70
     1
102
RTVSPropertyOp22
 70
     1
102
RTVSPropertyOp23
 70
     1
102
RTVSPropertyOp24
 70
     1
102
RTVSPropertyOp25
 70
     1
102
RTVSPropertyOp26
 70
     1
102
RTVSPropertyOp27
 70
     1
102
RTVSPropertyOp28
 70
     1
102
RTVSPropertyOp29
 70
     1
102
RTVSPropertyOp30
 70
     1
102
RTVSPropertyOp31
 70
     1
102
RTVSPropertyOp32
 70
     1
102
RTVSPropertyOp33
 70
     1
102
RTVSPropertyOp34
 70
     1
102
RTVSPropertyOp35
 70
     1
102
RTVSPropertyOp36
 70
     1
102
RTVSPropertyOp37
 70
     1
102
RTVSPropertyOp38
 70
     1
102
RTVSPropertyOp39
 70
     1
102
RTVSPropertyOp40
 70
     1
102
RTVSPropertyOp41
 70
     1
102
RTVSPropertyOp42
 70
     1
102
RTVSPropertyOp43
 70
     1
102
RTVSPropertyOp44
 70
     1
102
RTVSPropertyOp45
 70
     1
102
RTVSPropertyOp46
 70
     1
102
RTVSPropertyOp47
 70
     1
102
RTVSPropertyOp48
 70
     1
102
RTVSPropertyOp49
 70
     1
102
RTVSPropertyOp50
 70
     1
102
RTVSPropertyOp51
 70
     0
102
RTVSPropertyOp52
 70
     0
102
RTVSPropertyOp53
 70
     1
102
RTVSPropertyOp54
 70
     1
102
RTVSPropertyOp55
 70
     1
102
RTVSPropertyOp56
 70
     1
102
RTVSPropertyOp57
 70
     1
102
RTVSPropertyOp58
 70
     1
102
RTVSPropertyOp59
 70
     1
102
RTVSPropertyOp60
 70
     1
102
RTVSPropertyOp61
 70
     1
102
RTVSPropertyOp62
 70
     1
  0
XRECORD
  5
25BE
102
{ACAD_REACTORS
330
25BD
102
}
330
25BD
100
AcDbXrecord
280
     1
102
RTVSPost2010Prop28
280
     0
102
RTVSPost2010PropOp28
 70
     1
102
RTVSPost2010Prop29
280
     1
102
RTVSPost2010PropOp29
 70
     1
102
RTVSPost2010Prop30
280
     1
102
RTVSPost2010PropOp30
 70
     1
102
RTVSPost2010Prop31
280
     0
102
RTVSPost2010PropOp31
 70
     1
102
RTVSPost2010Prop32
280
     0
102
RTVSPost2010PropOp32
 70
     1
102
RTVSPost2010Prop33
280
     0
102
RTVSPost2010PropOp33
 70
     1
102
RTVSPost2010Prop34
280
     0
102
RTVSPost2010PropOp34
 70
     1
102
RTVSPost2010Prop35
280
     0
102
RTVSPost2010PropOp35
 70
     1
102
RTVSPost2010Prop36
280
     0
102
RTVSPost2010PropOp36
 70
     1
102
RTVSPost2010Prop37
 90
       50
102
RTVSPost2010PropOp37
 70
     1
102
RTVSPost2010Prop38
140
0.0
102
RTVSPost2010PropOp38
 70
     1
102
RTVSPost2010Prop39
140
1.0
102
RTVSPost2010PropOp39
 70
     1
102
RTVSPost2010Prop40
 90
        0
102
RTVSPost2010PropOp40
 70
     1
102
RTVSPost2010Prop41ColorIndex
 90
       18
102
RTVSPost2010Prop41ColorRGB
 90
        0
102
RTVSPost2010PropOp41
 70
     1
102
RTVSPost2010Prop42
 90
       50
102
RTVSPost2010PropOp42
 70
     1
102
RTVSPost2010Prop43
 90
        3
102
RTVSPost2010PropOp43
 70
     1
102
RTVSPost2010Prop44ColorIndex
 90
        5
102
RTVSPost2010Prop44ColorRGB
 90
      255
102
RTVSPost2010PropOp44
 70
     1
102
RTVSPost2010Prop45
280
     0
102
RTVSPost2010PropOp45
 70
     1
102
RTVSPost2010Prop46
 90
       50
102
RTVSPost2010PropOp46
 70
     1
102
RTVSPost2010Prop47
 90
       50
102
RTVSPost2010PropOp47
 70
     1
102
RTVSPost2010Prop48
 90
       50
102
RTVSPost2010PropOp48
 70
     1
102
RTVSPost2010Prop49
280
     0
102
RTVSPost2010PropOp49
 70
     1
102
RTVSPost2010Prop50
 90
       50
102
RTVSPost2010PropOp50
 70
     1
102
RTVSPost2010Prop51ColorIndex
 90
      256
102
RTVSPost2010Prop51ColorRGB
 90
-16777216
102
RTVSPost2010PropOp51
 70
     0
102
RTVSPost2010Prop52
140
1.0
102
RTVSPost2010PropOp52
 70
     0
102
RTVSPost2010Prop53
 90
        2
102
RTVSPost2010PropOp53
 70
     1
102
RTVSPost2010Prop54
  1
strokes_ogs.tif
102
RTVSPost2010PropOp54
 70
     1
102
RTVSPost2010Prop55
280
     0
102
RTVSPost2010PropOp55
 70
     1
102
RTVSPost2010Prop56
140
1.0
102
RTVSPost2010PropOp56
 70
     1
102
RTVSPost2010Prop57
140
1.0
102
RTVSPost2010PropOp57
 70
     1
102
RTVSPropertyOp0
 70
     1
102
RTVSPropertyOp1
 70
     1
102
RTVSPropertyOp2
 70
     1
102
RTVSPropertyOp3
 70
     1
102
RTVSPropertyOp4
 70
     1
102
RTVSPropertyOp5
 70
     1
102
RTVSPropertyOp6
 70
     1
102
RTVSPropertyOp7
 70
     1
102
RTVSPropertyOp8
 70
     1
102
RTVSPropertyOp9
 70
     1
102
RTVSPropertyOp10
 70
     1
102
RTVSPropertyOp11
 70
     1
102
RTVSPropertyOp12
 70
     1
102
RTVSPropertyOp13
 70
     1
102
RTVSPropertyOp14
 70
     1
102
RTVSPropertyOp15
 70
     1
102
RTVSPropertyOp16
 70
     1
102
RTVSPropertyOp17
 70
     1
102
RTVSPropertyOp18
 70
     1
102
RTVSPropertyOp19
 70
     1
102
RTVSPropertyOp20
 70
     1
102
RTVSPropertyOp21
 70
     1
102
RTVSPropertyOp22
 70
     1
102
RTVSPropertyOp23
 70
     1
102
RTVSPropertyOp24
 70
     1
102
RTVSPropertyOp25
 70
     1
102
RTVSPropertyOp26
 70
     1
102
RTVSPropertyOp27
 70
     1
102
RTVSPropertyOp28
 70
     1
102
RTVSPropertyOp29
 70
     1
102
RTVSPropertyOp30
 70
     1
102
RTVSPropertyOp31
 70
     1
102
RTVSPropertyOp32
 70
     1
102
RTVSPropertyOp33
 70
     1
102
RTVSPropertyOp34
 70
     1
102
RTVSPropertyOp35
 70
     1
102
RTVSPropertyOp36
 70
     1
102
RTVSPropertyOp37
 70
     1
102
RTVSPropertyOp38
 70
     1
102
RTVSPropertyOp39
 70
     1
102
RTVSPropertyOp40
 70
     1
102
RTVSPropertyOp41
 70
     1
102
RTVSPropertyOp42
 70
     1
102
RTVSPropertyOp43
 70
     1
102
RTVSPropertyOp44
 70
     1
102
RTVSPropertyOp45
 70
     1
102
RTVSPropertyOp46
 70
     1
102
RTVSPropertyOp47
 70
     1
102
RTVSPropertyOp48
 70
     1
102
RTVSPropertyOp49
 70
     1
102
RTVSPropertyOp50
 70
     1
102
RTVSPropertyOp51
 70
     0
102
RTVSPropertyOp52
 70
     0
102
RTVSPropertyOp53
 70
     1
102
RTVSPropertyOp54
 70
     1
102
RTVSPropertyOp55
 70
     1
102
RTVSPropertyOp56
 70
     1
102
RTVSPropertyOp57
 70
     1
102
RTVSPropertyOp58
 70
     1
102
RTVSPropertyOp59
 70
     1
102
RTVSPropertyOp60
 70
     1
102
RTVSPropertyOp61
 70
     1
102
RTVSPropertyOp62
 70
     1
  0
XRECORD
  5
25C2
102
{ACAD_REACTORS
330
25C1
102
}
330
25C1
100
AcDbXrecord
280
     1
102
RTVSPost2010Prop28
280
     0
102
RTVSPost2010PropOp28
 70
     1
102
RTVSPost2010Prop29
280
     1
102
RTVSPost2010PropOp29
 70
     1
102
RTVSPost2010Prop30
280
     1
102
RTVSPost2010PropOp30
 70
     1
102
RTVSPost2010Prop31
280
     0
102
RTVSPost2010PropOp31
 70
     1
102
RTVSPost2010Prop32
280
     0
102
RTVSPost2010PropOp32
 70
     1
102
RTVSPost2010Prop33
280
     0
102
RTVSPost2010PropOp33
 70
     1
102
RTVSPost2010Prop34
280
     0
102
RTVSPost2010PropOp34
 70
     1
102
RTVSPost2010Prop35
280
     0
102
RTVSPost2010PropOp35
 70
     1
102
RTVSPost2010Prop36
280
     0
102
RTVSPost2010PropOp36
 70
     1
102
RTVSPost2010Prop37
 90
       50
102
RTVSPost2010PropOp37
 70
     1
102
RTVSPost2010Prop38
140
0.0
102
RTVSPost2010PropOp38
 70
     1
102
RTVSPost2010Prop39
140
1.0
102
RTVSPost2010PropOp39
 70
     1
102
RTVSPost2010Prop40
 90
        0
102
RTVSPost2010PropOp40
 70
     1
102
RTVSPost2010Prop41ColorIndex
 90
       18
102
RTVSPost2010Prop41ColorRGB
 90
        0
102
RTVSPost2010PropOp41
 70
     1
102
RTVSPost2010Prop42
 90
       50
102
RTVSPost2010PropOp42
 70
     1
102
RTVSPost2010Prop43
 90
        3
102
RTVSPost2010PropOp43
 70
     1
102
RTVSPost2010Prop44ColorIndex
 90
        5
102
RTVSPost2010Prop44ColorRGB
 90
      255
102
RTVSPost2010PropOp44
 70
     1
102
RTVSPost2010Prop45
280
     0
102
RTVSPost2010PropOp45
 70
     1
102
RTVSPost2010Prop46
 90
       50
102
RTVSPost2010PropOp46
 70
     1
102
RTVSPost2010Prop47
 90
       50
102
RTVSPost2010PropOp47
 70
     1
102
RTVSPost2010Prop48
 90
       50
102
RTVSPost2010PropOp48
 70
     1
102
RTVSPost2010Prop49
280
     0
102
RTVSPost2010PropOp49
 70
     1
102
RTVSPost2010Prop50
 90
       50
102
RTVSPost2010PropOp50
 70
     1
102
RTVSPost2010Prop51ColorIndex
 90
      256
102
RTVSPost2010Prop51ColorRGB
 90
-16777216
102
RTVSPost2010PropOp51
 70
     0
102
RTVSPost2010Prop52
140
1.0
102
RTVSPost2010PropOp52
 70
     0
102
RTVSPost2010Prop53
 90
        2
102
RTVSPost2010PropOp53
 70
     1
102
RTVSPost2010Prop54
  1
strokes_ogs.tif
102
RTVSPost2010PropOp54
 70
     1
102
RTVSPost2010Prop55
280
     0
102
RTVSPost2010PropOp55
 70
     1
102
RTVSPost2010Prop56
140
1.0
102
RTVSPost2010PropOp56
 70
     1
102
RTVSPost2010Prop57
140
1.0
102
RTVSPost2010PropOp57
 70
     1
102
RTVSPropertyOp0
 70
     1
102
RTVSPropertyOp1
 70
     1
102
RTVSPropertyOp2
 70
     1
102
RTVSPropertyOp3
 70
     1
102
RTVSPropertyOp4
 70
     1
102
RTVSPropertyOp5
 70
     1
102
RTVSPropertyOp6
 70
     1
102
RTVSPropertyOp7
 70
     1
102
RTVSPropertyOp8
 70
     1
102
RTVSPropertyOp9
 70
     1
102
RTVSPropertyOp10
 70
     1
102
RTVSPropertyOp11
 70
     1
102
RTVSPropertyOp12
 70
     1
102
RTVSPropertyOp13
 70
     1
102
RTVSPropertyOp14
 70
     1
102
RTVSPropertyOp15
 70
     1
102
RTVSPropertyOp16
 70
     1
102
RTVSPropertyOp17
 70
     1
102
RTVSPropertyOp18
 70
     1
102
RTVSPropertyOp19
 70
     1
102
RTVSPropertyOp20
 70
     1
102
RTVSPropertyOp21
 70
     1
102
RTVSPropertyOp22
 70
     1
102
RTVSPropertyOp23
 70
     1
102
RTVSPropertyOp24
 70
     1
102
RTVSPropertyOp25
 70
     1
102
RTVSPropertyOp26
 70
     1
102
RTVSPropertyOp27
 70
     1
102
RTVSPropertyOp28
 70
     1
102
RTVSPropertyOp29
 70
     1
102
RTVSPropertyOp30
 70
     1
102
RTVSPropertyOp31
 70
     1
102
RTVSPropertyOp32
 70
     1
102
RTVSPropertyOp33
 70
     1
102
RTVSPropertyOp34
 70
     1
102
RTVSPropertyOp35
 70
     1
102
RTVSPropertyOp36
 70
     1
102
RTVSPropertyOp37
 70
     1
102
RTVSPropertyOp38
 70
     1
102
RTVSPropertyOp39
 70
     1
102
RTVSPropertyOp40
 70
     1
102
RTVSPropertyOp41
 70
     1
102
RTVSPropertyOp42
 70
     1
102
RTVSPropertyOp43
 70
     1
102
RTVSPropertyOp44
 70
     1
102
RTVSPropertyOp45
 70
     1
102
RTVSPropertyOp46
 70
     1
102
RTVSPropertyOp47
 70
     1
102
RTVSPropertyOp48
 70
     1
102
RTVSPropertyOp49
 70
     1
102
RTVSPropertyOp50
 70
     1
102
RTVSPropertyOp51
 70
     0
102
RTVSPropertyOp52
 70
     0
102
RTVSPropertyOp53
 70
     1
102
RTVSPropertyOp54
 70
     1
102
RTVSPropertyOp55
 70
     1
102
RTVSPropertyOp56
 70
     1
102
RTVSPropertyOp57
 70
     1
102
RTVSPropertyOp58
 70
     1
102
RTVSPropertyOp59
 70
     1
102
RTVSPropertyOp60
 70
     1
102
RTVSPropertyOp61
 70
     1
102
RTVSPropertyOp62
 70
     1
  0
XRECORD
  5
25DC
102
{ACAD_REACTORS
330
25DB
102
}
330
25DB
100
AcDbXrecord
280
     1
102
RTVSPost2010Prop28
280
     0
102
RTVSPost2010PropOp28
 70
     1
102
RTVSPost2010Prop29
280
     1
102
RTVSPost2010PropOp29
 70
     1
102
RTVSPost2010Prop30
280
     1
102
RTVSPost2010PropOp30
 70
     1
102
RTVSPost2010Prop31
280
     0
102
RTVSPost2010PropOp31
 70
     1
102
RTVSPost2010Prop32
280
     0
102
RTVSPost2010PropOp32
 70
     1
102
RTVSPost2010Prop33
280
     0
102
RTVSPost2010PropOp33
 70
     1
102
RTVSPost2010Prop34
280
     0
102
RTVSPost2010PropOp34
 70
     1
102
RTVSPost2010Prop35
280
     0
102
RTVSPost2010PropOp35
 70
     1
102
RTVSPost2010Prop36
280
     0
102
RTVSPost2010PropOp36
 70
     1
102
RTVSPost2010Prop37
 90
       50
102
RTVSPost2010PropOp37
 70
     1
102
RTVSPost2010Prop38
140
0.0
102
RTVSPost2010PropOp38
 70
     1
102
RTVSPost2010Prop39
140
1.0
102
RTVSPost2010PropOp39
 70
     1
102
RTVSPost2010Prop40
 90
        0
102
RTVSPost2010PropOp40
 70
     1
102
RTVSPost2010Prop41ColorIndex
 90
       18
102
RTVSPost2010Prop41ColorRGB
 90
        0
102
RTVSPost2010PropOp41
 70
     1
102
RTVSPost2010Prop42
 90
       50
102
RTVSPost2010PropOp42
 70
     1
102
RTVSPost2010Prop43
 90
        3
102
RTVSPost2010PropOp43
 70
     1
102
RTVSPost2010Prop44ColorIndex
 90
        5
102
RTVSPost2010Prop44ColorRGB
 90
      255
102
RTVSPost2010PropOp44
 70
     1
102
RTVSPost2010Prop45
280
     0
102
RTVSPost2010PropOp45
 70
     1
102
RTVSPost2010Prop46
 90
       50
102
RTVSPost2010PropOp46
 70
     1
102
RTVSPost2010Prop47
 90
       50
102
RTVSPost2010PropOp47
 70
     1
102
RTVSPost2010Prop48
 90
       50
102
RTVSPost2010PropOp48
 70
     1
102
RTVSPost2010Prop49
280
     0
102
RTVSPost2010PropOp49
 70
     1
102
RTVSPost2010Prop50
 90
       50
102
RTVSPost2010PropOp50
 70
     1
102
RTVSPost2010Prop51ColorIndex
 90
      256
102
RTVSPost2010Prop51ColorRGB
 90
-16777216
102
RTVSPost2010PropOp51
 70
     0
102
RTVSPost2010Prop52
140
1.0
102
RTVSPost2010PropOp52
 70
     0
102
RTVSPost2010Prop53
 90
        2
102
RTVSPost2010PropOp53
 70
     1
102
RTVSPost2010Prop54
  1
strokes_ogs.tif
102
RTVSPost2010PropOp54
 70
     1
102
RTVSPost2010Prop55
280
     0
102
RTVSPost2010PropOp55
 70
     1
102
RTVSPost2010Prop56
140
1.0
102
RTVSPost2010PropOp56
 70
     1
102
RTVSPost2010Prop57
140
1.0
102
RTVSPost2010PropOp57
 70
     1
102
RTVSPropertyOp0
 70
     0
102
RTVSPropertyOp1
 70
     0
102
RTVSPropertyOp2
 70
     0
102
RTVSPropertyOp3
 70
     0
102
RTVSPropertyOp4
 70
     0
102
RTVSPropertyOp5
 70
     0
102
RTVSPropertyOp6
 70
     0
102
RTVSPropertyOp7
 70
     0
102
RTVSPropertyOp8
 70
     0
102
RTVSPropertyOp9
 70
     0
102
RTVSPropertyOp10
 70
     0
102
RTVSPropertyOp11
 70
     0
102
RTVSPropertyOp12
 70
     0
102
RTVSPropertyOp13
 70
     0
102
RTVSPropertyOp14
 70
     2
102
RTVSPropertyOp15
 70
     0
102
RTVSPropertyOp16
 70
     0
102
RTVSPropertyOp17
 70
     0
102
RTVSPropertyOp18
 70
     0
102
RTVSPropertyOp19
 70
     0
102
RTVSPropertyOp20
 70
     0
102
RTVSPropertyOp21
 70
     0
102
RTVSPropertyOp22
 70
     0
102
RTVSPropertyOp23
 70
     0
102
RTVSPropertyOp24
 70
     0
102
RTVSPropertyOp25
 70
     0
102
RTVSPropertyOp26
 70
     0
102
RTVSPropertyOp27
 70
     0
102
RTVSPropertyOp28
 70
     1
102
RTVSPropertyOp29
 70
     1
102
RTVSPropertyOp30
 70
     1
102
RTVSPropertyOp31
 70
     1
102
RTVSPropertyOp32
 70
     1
102
RTVSPropertyOp33
 70
     1
102
RTVSPropertyOp34
 70
     1
102
RTVSPropertyOp35
 70
     1
102
RTVSPropertyOp36
 70
     1
102
RTVSPropertyOp37
 70
     1
102
RTVSPropertyOp38
 70
     1
102
RTVSPropertyOp39
 70
     1
102
RTVSPropertyOp40
 70
     1
102
RTVSPropertyOp41
 70
     1
102
RTVSPropertyOp42
 70
     1
102
RTVSPropertyOp43
 70
     1
102
RTVSPropertyOp44
 70
     1
102
RTVSPropertyOp45
 70
     1
102
RTVSPropertyOp46
 70
     1
102
RTVSPropertyOp47
 70
     1
102
RTVSPropertyOp48
 70
     1
102
RTVSPropertyOp49
 70
     1
102
RTVSPropertyOp50
 70
     1
102
RTVSPropertyOp51
 70
     0
102
RTVSPropertyOp52
 70
     0
102
RTVSPropertyOp53
 70
     1
102
RTVSPropertyOp54
 70
     1
102
RTVSPropertyOp55
 70
     1
102
RTVSPropertyOp56
 70
     1
102
RTVSPropertyOp57
 70
     1
102
RTVSPropertyOp58
 70
     1
102
RTVSPropertyOp59
 70
     1
102
RTVSPropertyOp60
 70
     1
102
RTVSPropertyOp61
 70
     1
102
RTVSPropertyOp62
 70
     1
  0
XRECORD
  5
25CA
102
{ACAD_REACTORS
330
25C9
102
}
330
25C9
100
AcDbXrecord
280
     1
102
RTVSPost2010Prop28
280
     0
102
RTVSPost2010PropOp28
 70
     1
102
RTVSPost2010Prop29
280
     1
102
RTVSPost2010PropOp29
 70
     1
102
RTVSPost2010Prop30
280
     1
102
RTVSPost2010PropOp30
 70
     1
102
RTVSPost2010Prop31
280
     0
102
RTVSPost2010PropOp31
 70
     1
102
RTVSPost2010Prop32
280
     0
102
RTVSPost2010PropOp32
 70
     1
102
RTVSPost2010Prop33
280
     0
102
RTVSPost2010PropOp33
 70
     1
102
RTVSPost2010Prop34
280
     0
102
RTVSPost2010PropOp34
 70
     1
102
RTVSPost2010Prop35
280
     0
102
RTVSPost2010PropOp35
 70
     1
102
RTVSPost2010Prop36
280
     0
102
RTVSPost2010PropOp36
 70
     1
102
RTVSPost2010Prop37
 90
       50
102
RTVSPost2010PropOp37
 70
     1
102
RTVSPost2010Prop38
140
0.0
102
RTVSPost2010PropOp38
 70
     1
102
RTVSPost2010Prop39
140
1.0
102
RTVSPost2010PropOp39
 70
     1
102
RTVSPost2010Prop40
 90
        0
102
RTVSPost2010PropOp40
 70
     1
102
RTVSPost2010Prop41ColorIndex
 90
       18
102
RTVSPost2010Prop41ColorRGB
 90
        0
102
RTVSPost2010PropOp41
 70
     1
102
RTVSPost2010Prop42
 90
       50
102
RTVSPost2010PropOp42
 70
     1
102
RTVSPost2010Prop43
 90
        3
102
RTVSPost2010PropOp43
 70
     1
102
RTVSPost2010Prop44ColorIndex
 90
        5
102
RTVSPost2010Prop44ColorRGB
 90
      255
102
RTVSPost2010PropOp44
 70
     1
102
RTVSPost2010Prop45
280
     0
102
RTVSPost2010PropOp45
 70
     1
102
RTVSPost2010Prop46
 90
       50
102
RTVSPost2010PropOp46
 70
     1
102
RTVSPost2010Prop47
 90
       50
102
RTVSPost2010PropOp47
 70
     1
102
RTVSPost2010Prop48
 90
       50
102
RTVSPost2010PropOp48
 70
     1
102
RTVSPost2010Prop49
280
     0
102
RTVSPost2010PropOp49
 70
     1
102
RTVSPost2010Prop50
 90
       50
102
RTVSPost2010PropOp50
 70
     1
102
RTVSPost2010Prop51ColorIndex
 90
      256
102
RTVSPost2010Prop51ColorRGB
 90
-16777216
102
RTVSPost2010PropOp51
 70
     0
102
RTVSPost2010Prop52
140
1.0
102
RTVSPost2010PropOp52
 70
     0
102
RTVSPost2010Prop53
 90
        2
102
RTVSPost2010PropOp53
 70
     1
102
RTVSPost2010Prop54
  1
strokes_ogs.tif
102
RTVSPost2010PropOp54
 70
     1
102
RTVSPost2010Prop55
280
     0
102
RTVSPost2010PropOp55
 70
     1
102
RTVSPost2010Prop56
140
1.0
102
RTVSPost2010PropOp56
 70
     1
102
RTVSPost2010Prop57
140
1.0
102
RTVSPost2010PropOp57
 70
     1
102
RTVSPropertyOp0
 70
     1
102
RTVSPropertyOp1
 70
     1
102
RTVSPropertyOp2
 70
     1
102
RTVSPropertyOp3
 70
     1
102
RTVSPropertyOp4
 70
     1
102
RTVSPropertyOp5
 70
     1
102
RTVSPropertyOp6
 70
     1
102
RTVSPropertyOp7
 70
     1
102
RTVSPropertyOp8
 70
     1
102
RTVSPropertyOp9
 70
     1
102
RTVSPropertyOp10
 70
     1
102
RTVSPropertyOp11
 70
     1
102
RTVSPropertyOp12
 70
     1
102
RTVSPropertyOp13
 70
     1
102
RTVSPropertyOp14
 70
     1
102
RTVSPropertyOp15
 70
     1
102
RTVSPropertyOp16
 70
     1
102
RTVSPropertyOp17
 70
     1
102
RTVSPropertyOp18
 70
     1
102
RTVSPropertyOp19
 70
     1
102
RTVSPropertyOp20
 70
     1
102
RTVSPropertyOp21
 70
     1
102
RTVSPropertyOp22
 70
     1
102
RTVSPropertyOp23
 70
     1
102
RTVSPropertyOp24
 70
     1
102
RTVSPropertyOp25
 70
     1
102
RTVSPropertyOp26
 70
     1
102
RTVSPropertyOp27
 70
     1
102
RTVSPropertyOp28
 70
     1
102
RTVSPropertyOp29
 70
     1
102
RTVSPropertyOp30
 70
     1
102
RTVSPropertyOp31
 70
     1
102
RTVSPropertyOp32
 70
     1
102
RTVSPropertyOp33
 70
     1
102
RTVSPropertyOp34
 70
     1
102
RTVSPropertyOp35
 70
     1
102
RTVSPropertyOp36
 70
     1
102
RTVSPropertyOp37
 70
     1
102
RTVSPropertyOp38
 70
     1
102
RTVSPropertyOp39
 70
     1
102
RTVSPropertyOp40
 70
     1
102
RTVSPropertyOp41
 70
     1
102
RTVSPropertyOp42
 70
     1
102
RTVSPropertyOp43
 70
     1
102
RTVSPropertyOp44
 70
     1
102
RTVSPropertyOp45
 70
     1
102
RTVSPropertyOp46
 70
     1
102
RTVSPropertyOp47
 70
     1
102
RTVSPropertyOp48
 70
     1
102
RTVSPropertyOp49
 70
     1
102
RTVSPropertyOp50
 70
     1
102
RTVSPropertyOp51
 70
     0
102
RTVSPropertyOp52
 70
     0
102
RTVSPropertyOp53
 70
     1
102
RTVSPropertyOp54
 70
     1
102
RTVSPropertyOp55
 70
     1
102
RTVSPropertyOp56
 70
     1
102
RTVSPropertyOp57
 70
     1
102
RTVSPropertyOp58
 70
     1
102
RTVSPropertyOp59
 70
     1
102
RTVSPropertyOp60
 70
     1
102
RTVSPropertyOp61
 70
     1
102
RTVSPropertyOp62
 70
     1
  0
XRECORD
  5
25AE
102
{ACAD_REACTORS
330
25AD
102
}
330
25AD
100
AcDbXrecord
280
     1
102
RTVSPost2010Prop28
280
     0
102
RTVSPost2010PropOp28
 70
     1
102
RTVSPost2010Prop29
280
     1
102
RTVSPost2010PropOp29
 70
     1
102
RTVSPost2010Prop30
280
     1
102
RTVSPost2010PropOp30
 70
     1
102
RTVSPost2010Prop31
280
     0
102
RTVSPost2010PropOp31
 70
     1
102
RTVSPost2010Prop32
280
     0
102
RTVSPost2010PropOp32
 70
     1
102
RTVSPost2010Prop33
280
     0
102
RTVSPost2010PropOp33
 70
     1
102
RTVSPost2010Prop34
280
     0
102
RTVSPost2010PropOp34
 70
     1
102
RTVSPost2010Prop35
280
     0
102
RTVSPost2010PropOp35
 70
     1
102
RTVSPost2010Prop36
280
     0
102
RTVSPost2010PropOp36
 70
     1
102
RTVSPost2010Prop37
 90
       50
102
RTVSPost2010PropOp37
 70
     1
102
RTVSPost2010Prop38
140
0.0
102
RTVSPost2010PropOp38
 70
     1
102
RTVSPost2010Prop39
140
1.0
102
RTVSPost2010PropOp39
 70
     1
102
RTVSPost2010Prop40
 90
        0
102
RTVSPost2010PropOp40
 70
     1
102
RTVSPost2010Prop41ColorIndex
 90
       18
102
RTVSPost2010Prop41ColorRGB
 90
        0
102
RTVSPost2010PropOp41
 70
     1
102
RTVSPost2010Prop42
 90
       50
102
RTVSPost2010PropOp42
 70
     1
102
RTVSPost2010Prop43
 90
        3
102
RTVSPost2010PropOp43
 70
     1
102
RTVSPost2010Prop44ColorIndex
 90
        5
102
RTVSPost2010Prop44ColorRGB
 90
      255
102
RTVSPost2010PropOp44
 70
     1
102
RTVSPost2010Prop45
280
     0
102
RTVSPost2010PropOp45
 70
     1
102
RTVSPost2010Prop46
 90
       50
102
RTVSPost2010PropOp46
 70
     1
102
RTVSPost2010Prop47
 90
       50
102
RTVSPost2010PropOp47
 70
     1
102
RTVSPost2010Prop48
 90
       50
102
RTVSPost2010PropOp48
 70
     1
102
RTVSPost2010Prop49
280
     0
102
RTVSPost2010PropOp49
 70
     1
102
RTVSPost2010Prop50
 90
       50
102
RTVSPost2010PropOp50
 70
     1
102
RTVSPost2010Prop51ColorIndex
 90
      256
102
RTVSPost2010Prop51ColorRGB
 90
-16777216
102
RTVSPost2010PropOp51
 70
     0
102
RTVSPost2010Prop52
140
1.0
102
RTVSPost2010PropOp52
 70
     0
102
RTVSPost2010Prop53
 90
        2
102
RTVSPost2010PropOp53
 70
     1
102
RTVSPost2010Prop54
  1
strokes_ogs.tif
102
RTVSPost2010PropOp54
 70
     1
102
RTVSPost2010Prop55
280
     0
102
RTVSPost2010PropOp55
 70
     1
102
RTVSPost2010Prop56
140
1.0
102
RTVSPost2010PropOp56
 70
     1
102
RTVSPost2010Prop57
140
1.0
102
RTVSPost2010PropOp57
 70
     1
102
RTVSPropertyOp0
 70
     1
102
RTVSPropertyOp1
 70
     1
102
RTVSPropertyOp2
 70
     1
102
RTVSPropertyOp3
 70
     1
102
RTVSPropertyOp4
 70
     1
102
RTVSPropertyOp5
 70
     1
102
RTVSPropertyOp6
 70
     1
102
RTVSPropertyOp7
 70
     1
102
RTVSPropertyOp8
 70
     1
102
RTVSPropertyOp9
 70
     1
102
RTVSPropertyOp10
 70
     1
102
RTVSPropertyOp11
 70
     1
102
RTVSPropertyOp12
 70
     1
102
RTVSPropertyOp13
 70
     1
102
RTVSPropertyOp14
 70
     1
102
RTVSPropertyOp15
 70
     1
102
RTVSPropertyOp16
 70
     1
102
RTVSPropertyOp17
 70
     1
102
RTVSPropertyOp18
 70
     1
102
RTVSPropertyOp19
 70
     1
102
RTVSPropertyOp20
 70
     1
102
RTVSPropertyOp21
 70
     1
102
RTVSPropertyOp22
 70
     1
102
RTVSPropertyOp23
 70
     1
102
RTVSPropertyOp24
 70
     1
102
RTVSPropertyOp25
 70
     1
102
RTVSPropertyOp26
 70
     1
102
RTVSPropertyOp27
 70
     1
102
RTVSPropertyOp28
 70
     1
102
RTVSPropertyOp29
 70
     1
102
RTVSPropertyOp30
 70
     1
102
RTVSPropertyOp31
 70
     1
102
RTVSPropertyOp32
 70
     1
102
RTVSPropertyOp33
 70
     1
102
RTVSPropertyOp34
 70
     1
102
RTVSPropertyOp35
 70
     1
102
RTVSPropertyOp36
 70
     1
102
RTVSPropertyOp37
 70
     1
102
RTVSPropertyOp38
 70
     1
102
RTVSPropertyOp39
 70
     1
102
RTVSPropertyOp40
 70
     1
102
RTVSPropertyOp41
 70
     1
102
RTVSPropertyOp42
 70
     1
102
RTVSPropertyOp43
 70
     1
102
RTVSPropertyOp44
 70
     1
102
RTVSPropertyOp45
 70
     1
102
RTVSPropertyOp46
 70
     1
102
RTVSPropertyOp47
 70
     1
102
RTVSPropertyOp48
 70
     1
102
RTVSPropertyOp49
 70
     1
102
RTVSPropertyOp50
 70
     1
102
RTVSPropertyOp51
 70
     0
102
RTVSPropertyOp52
 70
     0
102
RTVSPropertyOp53
 70
     1
102
RTVSPropertyOp54
 70
     1
102
RTVSPropertyOp55
 70
     1
102
RTVSPropertyOp56
 70
     1
102
RTVSPropertyOp57
 70
     1
102
RTVSPropertyOp58
 70
     1
102
RTVSPropertyOp59
 70
     1
102
RTVSPropertyOp60
 70
     1
102
RTVSPropertyOp61
 70
     1
102
RTVSPropertyOp62
 70
     1
  0
XRECORD
  5
25B0
102
{ACAD_REACTORS
330
25AF
102
}
330
25AF
100
AcDbXrecord
280
     1
102
RTVSPost2010Prop28
280
     0
102
RTVSPost2010PropOp28
 70
     1
102
RTVSPost2010Prop29
280
     1
102
RTVSPost2010PropOp29
 70
     1
102
RTVSPost2010Prop30
280
     1
102
RTVSPost2010PropOp30
 70
     1
102
RTVSPost2010Prop31
280
     0
102
RTVSPost2010PropOp31
 70
     1
102
RTVSPost2010Prop32
280
     0
102
RTVSPost2010PropOp32
 70
     1
102
RTVSPost2010Prop33
280
     0
102
RTVSPost2010PropOp33
 70
     1
102
RTVSPost2010Prop34
280
     0
102
RTVSPost2010PropOp34
 70
     1
102
RTVSPost2010Prop35
280
     0
102
RTVSPost2010PropOp35
 70
     1
102
RTVSPost2010Prop36
280
     0
102
RTVSPost2010PropOp36
 70
     1
102
RTVSPost2010Prop37
 90
       50
102
RTVSPost2010PropOp37
 70
     1
102
RTVSPost2010Prop38
140
0.0
102
RTVSPost2010PropOp38
 70
     1
102
RTVSPost2010Prop39
140
1.0
102
RTVSPost2010PropOp39
 70
     1
102
RTVSPost2010Prop40
 90
        0
102
RTVSPost2010PropOp40
 70
     1
102
RTVSPost2010Prop41ColorIndex
 90
       18
102
RTVSPost2010Prop41ColorRGB
 90
        0
102
RTVSPost2010PropOp41
 70
     1
102
RTVSPost2010Prop42
 90
       50
102
RTVSPost2010PropOp42
 70
     1
102
RTVSPost2010Prop43
 90
        3
102
RTVSPost2010PropOp43
 70
     1
102
RTVSPost2010Prop44ColorIndex
 90
        5
102
RTVSPost2010Prop44ColorRGB
 90
      255
102
RTVSPost2010PropOp44
 70
     1
102
RTVSPost2010Prop45
280
     0
102
RTVSPost2010PropOp45
 70
     1
102
RTVSPost2010Prop46
 90
       50
102
RTVSPost2010PropOp46
 70
     1
102
RTVSPost2010Prop47
 90
       50
102
RTVSPost2010PropOp47
 70
     1
102
RTVSPost2010Prop48
 90
       50
102
RTVSPost2010PropOp48
 70
     1
102
RTVSPost2010Prop49
280
     0
102
RTVSPost2010PropOp49
 70
     1
102
RTVSPost2010Prop50
 90
       50
102
RTVSPost2010PropOp50
 70
     1
102
RTVSPost2010Prop51ColorIndex
 90
      256
102
RTVSPost2010Prop51ColorRGB
 90
-16777216
102
RTVSPost2010PropOp51
 70
     0
102
RTVSPost2010Prop52
140
1.0
102
RTVSPost2010PropOp52
 70
     0
102
RTVSPost2010Prop53
 90
        2
102
RTVSPost2010PropOp53
 70
     1
102
RTVSPost2010Prop54
  1
strokes_ogs.tif
102
RTVSPost2010PropOp54
 70
     1
102
RTVSPost2010Prop55
280
     0
102
RTVSPost2010PropOp55
 70
     1
102
RTVSPost2010Prop56
140
1.0
102
RTVSPost2010PropOp56
 70
     1
102
RTVSPost2010Prop57
140
1.0
102
RTVSPost2010PropOp57
 70
     1
102
RTVSPropertyOp0
 70
     1
102
RTVSPropertyOp1
 70
     1
102
RTVSPropertyOp2
 70
     1
102
RTVSPropertyOp3
 70
     1
102
RTVSPropertyOp4
 70
     1
102
RTVSPropertyOp5
 70
     1
102
RTVSPropertyOp6
 70
     1
102
RTVSPropertyOp7
 70
     1
102
RTVSPropertyOp8
 70
     1
102
RTVSPropertyOp9
 70
     1
102
RTVSPropertyOp10
 70
     1
102
RTVSPropertyOp11
 70
     1
102
RTVSPropertyOp12
 70
     1
102
RTVSPropertyOp13
 70
     1
102
RTVSPropertyOp14
 70
     1
102
RTVSPropertyOp15
 70
     1
102
RTVSPropertyOp16
 70
     1
102
RTVSPropertyOp17
 70
     1
102
RTVSPropertyOp18
 70
     1
102
RTVSPropertyOp19
 70
     1
102
RTVSPropertyOp20
 70
     1
102
RTVSPropertyOp21
 70
     1
102
RTVSPropertyOp22
 70
     1
102
RTVSPropertyOp23
 70
     1
102
RTVSPropertyOp24
 70
     1
102
RTVSPropertyOp25
 70
     1
102
RTVSPropertyOp26
 70
     1
102
RTVSPropertyOp27
 70
     1
102
RTVSPropertyOp28
 70
     1
102
RTVSPropertyOp29
 70
     1
102
RTVSPropertyOp30
 70
     1
102
RTVSPropertyOp31
 70
     1
102
RTVSPropertyOp32
 70
     1
102
RTVSPropertyOp33
 70
     1
102
RTVSPropertyOp34
 70
     1
102
RTVSPropertyOp35
 70
     1
102
RTVSPropertyOp36
 70
     1
102
RTVSPropertyOp37
 70
     1
102
RTVSPropertyOp38
 70
     1
102
RTVSPropertyOp39
 70
     1
102
RTVSPropertyOp40
 70
     1
102
RTVSPropertyOp41
 70
     1
102
RTVSPropertyOp42
 70
     1
102
RTVSPropertyOp43
 70
     1
102
RTVSPropertyOp44
 70
     1
102
RTVSPropertyOp45
 70
     1
102
RTVSPropertyOp46
 70
     1
102
RTVSPropertyOp47
 70
     1
102
RTVSPropertyOp48
 70
     1
102
RTVSPropertyOp49
 70
     1
102
RTVSPropertyOp50
 70
     1
102
RTVSPropertyOp51
 70
     0
102
RTVSPropertyOp52
 70
     0
102
RTVSPropertyOp53
 70
     1
102
RTVSPropertyOp54
 70
     1
102
RTVSPropertyOp55
 70
     1
102
RTVSPropertyOp56
 70
     1
102
RTVSPropertyOp57
 70
     1
102
RTVSPropertyOp58
 70
     1
102
RTVSPropertyOp59
 70
     1
102
RTVSPropertyOp60
 70
     1
102
RTVSPropertyOp61
 70
     1
102
RTVSPropertyOp62
 70
     1
  0
XRECORD
  5
25B2
102
{ACAD_REACTORS
330
25B1
102
}
330
25B1
100
AcDbXrecord
280
     1
102
RTVSPost2010Prop28
280
     0
102
RTVSPost2010PropOp28
 70
     1
102
RTVSPost2010Prop29
280
     1
102
RTVSPost2010PropOp29
 70
     1
102
RTVSPost2010Prop30
280
     1
102
RTVSPost2010PropOp30
 70
     1
102
RTVSPost2010Prop31
280
     0
102
RTVSPost2010PropOp31
 70
     1
102
RTVSPost2010Prop32
280
     0
102
RTVSPost2010PropOp32
 70
     1
102
RTVSPost2010Prop33
280
     0
102
RTVSPost2010PropOp33
 70
     1
102
RTVSPost2010Prop34
280
     0
102
RTVSPost2010PropOp34
 70
     1
102
RTVSPost2010Prop35
280
     0
102
RTVSPost2010PropOp35
 70
     1
102
RTVSPost2010Prop36
280
     0
102
RTVSPost2010PropOp36
 70
     1
102
RTVSPost2010Prop37
 90
       50
102
RTVSPost2010PropOp37
 70
     1
102
RTVSPost2010Prop38
140
0.0
102
RTVSPost2010PropOp38
 70
     1
102
RTVSPost2010Prop39
140
1.0
102
RTVSPost2010PropOp39
 70
     1
102
RTVSPost2010Prop40
 90
        0
102
RTVSPost2010PropOp40
 70
     1
102
RTVSPost2010Prop41ColorIndex
 90
       18
102
RTVSPost2010Prop41ColorRGB
 90
        0
102
RTVSPost2010PropOp41
 70
     1
102
RTVSPost2010Prop42
 90
       50
102
RTVSPost2010PropOp42
 70
     1
102
RTVSPost2010Prop43
 90
        3
102
RTVSPost2010PropOp43
 70
     1
102
RTVSPost2010Prop44ColorIndex
 90
        5
102
RTVSPost2010Prop44ColorRGB
 90
      255
102
RTVSPost2010PropOp44
 70
     1
102
RTVSPost2010Prop45
280
     0
102
RTVSPost2010PropOp45
 70
     1
102
RTVSPost2010Prop46
 90
       50
102
RTVSPost2010PropOp46
 70
     1
102
RTVSPost2010Prop47
 90
       50
102
RTVSPost2010PropOp47
 70
     1
102
RTVSPost2010Prop48
 90
       50
102
RTVSPost2010PropOp48
 70
     1
102
RTVSPost2010Prop49
280
     0
102
RTVSPost2010PropOp49
 70
     1
102
RTVSPost2010Prop50
 90
       50
102
RTVSPost2010PropOp50
 70
     1
102
RTVSPost2010Prop51ColorIndex
 90
      256
102
RTVSPost2010Prop51ColorRGB
 90
-16777216
102
RTVSPost2010PropOp51
 70
     0
102
RTVSPost2010Prop52
140
1.0
102
RTVSPost2010PropOp52
 70
     0
102
RTVSPost2010Prop53
 90
        2
102
RTVSPost2010PropOp53
 70
     1
102
RTVSPost2010Prop54
  1
strokes_ogs.tif
102
RTVSPost2010PropOp54
 70
     1
102
RTVSPost2010Prop55
280
     0
102
RTVSPost2010PropOp55
 70
     1
102
RTVSPost2010Prop56
140
1.0
102
RTVSPost2010PropOp56
 70
     1
102
RTVSPost2010Prop57
140
1.0
102
RTVSPost2010PropOp57
 70
     1
102
RTVSPropertyOp0
 70
     1
102
RTVSPropertyOp1
 70
     1
102
RTVSPropertyOp2
 70
     1
102
RTVSPropertyOp3
 70
     1
102
RTVSPropertyOp4
 70
     1
102
RTVSPropertyOp5
 70
     1
102
RTVSPropertyOp6
 70
     1
102
RTVSPropertyOp7
 70
     1
102
RTVSPropertyOp8
 70
     1
102
RTVSPropertyOp9
 70
     1
102
RTVSPropertyOp10
 70
     1
102
RTVSPropertyOp11
 70
     1
102
RTVSPropertyOp12
 70
     1
102
RTVSPropertyOp13
 70
     1
102
RTVSPropertyOp14
 70
     1
102
RTVSPropertyOp15
 70
     1
102
RTVSPropertyOp16
 70
     1
102
RTVSPropertyOp17
 70
     1
102
RTVSPropertyOp18
 70
     1
102
RTVSPropertyOp19
 70
     1
102
RTVSPropertyOp20
 70
     1
102
RTVSPropertyOp21
 70
     1
102
RTVSPropertyOp22
 70
     1
102
RTVSPropertyOp23
 70
     1
102
RTVSPropertyOp24
 70
     1
102
RTVSPropertyOp25
 70
     1
102
RTVSPropertyOp26
 70
     1
102
RTVSPropertyOp27
 70
     1
102
RTVSPropertyOp28
 70
     1
102
RTVSPropertyOp29
 70
     1
102
RTVSPropertyOp30
 70
     1
102
RTVSPropertyOp31
 70
     1
102
RTVSPropertyOp32
 70
     1
102
RTVSPropertyOp33
 70
     1
102
RTVSPropertyOp34
 70
     1
102
RTVSPropertyOp35
 70
     1
102
RTVSPropertyOp36
 70
     1
102
RTVSPropertyOp37
 70
     1
102
RTVSPropertyOp38
 70
     1
102
RTVSPropertyOp39
 70
     1
102
RTVSPropertyOp40
 70
     1
102
RTVSPropertyOp41
 70
     1
102
RTVSPropertyOp42
 70
     1
102
RTVSPropertyOp43
 70
     1
102
RTVSPropertyOp44
 70
     1
102
RTVSPropertyOp45
 70
     1
102
RTVSPropertyOp46
 70
     1
102
RTVSPropertyOp47
 70
     1
102
RTVSPropertyOp48
 70
     1
102
RTVSPropertyOp49
 70
     1
102
RTVSPropertyOp50
 70
     1
102
RTVSPropertyOp51
 70
     0
102
RTVSPropertyOp52
 70
     0
102
RTVSPropertyOp53
 70
     1
102
RTVSPropertyOp54
 70
     1
102
RTVSPropertyOp55
 70
     1
102
RTVSPropertyOp56
 70
     1
102
RTVSPropertyOp57
 70
     1
102
RTVSPropertyOp58
 70
     1
102
RTVSPropertyOp59
 70
     1
102
RTVSPropertyOp60
 70
     1
102
RTVSPropertyOp61
 70
     1
102
RTVSPropertyOp62
 70
     1
  0
XRECORD
  5
25B4
102
{ACAD_REACTORS
330
25B3
102
}
330
25B3
100
AcDbXrecord
280
     1
102
RTVSPost2010Prop28
280
     0
102
RTVSPost2010PropOp28
 70
     1
102
RTVSPost2010Prop29
280
     1
102
RTVSPost2010PropOp29
 70
     1
102
RTVSPost2010Prop30
280
     1
102
RTVSPost2010PropOp30
 70
     1
102
RTVSPost2010Prop31
280
     0
102
RTVSPost2010PropOp31
 70
     1
102
RTVSPost2010Prop32
280
     0
102
RTVSPost2010PropOp32
 70
     1
102
RTVSPost2010Prop33
280
     0
102
RTVSPost2010PropOp33
 70
     1
102
RTVSPost2010Prop34
280
     0
102
RTVSPost2010PropOp34
 70
     1
102
RTVSPost2010Prop35
280
     0
102
RTVSPost2010PropOp35
 70
     1
102
RTVSPost2010Prop36
280
     0
102
RTVSPost2010PropOp36
 70
     1
102
RTVSPost2010Prop37
 90
       50
102
RTVSPost2010PropOp37
 70
     1
102
RTVSPost2010Prop38
140
0.0
102
RTVSPost2010PropOp38
 70
     1
102
RTVSPost2010Prop39
140
1.0
102
RTVSPost2010PropOp39
 70
     1
102
RTVSPost2010Prop40
 90
        0
102
RTVSPost2010PropOp40
 70
     1
102
RTVSPost2010Prop41ColorIndex
 90
       18
102
RTVSPost2010Prop41ColorRGB
 90
        0
102
RTVSPost2010PropOp41
 70
     1
102
RTVSPost2010Prop42
 90
       50
102
RTVSPost2010PropOp42
 70
     1
102
RTVSPost2010Prop43
 90
        3
102
RTVSPost2010PropOp43
 70
     1
102
RTVSPost2010Prop44ColorIndex
 90
        5
102
RTVSPost2010Prop44ColorRGB
 90
      255
102
RTVSPost2010PropOp44
 70
     1
102
RTVSPost2010Prop45
280
     0
102
RTVSPost2010PropOp45
 70
     1
102
RTVSPost2010Prop46
 90
       50
102
RTVSPost2010PropOp46
 70
     1
102
RTVSPost2010Prop47
 90
       50
102
RTVSPost2010PropOp47
 70
     1
102
RTVSPost2010Prop48
 90
       50
102
RTVSPost2010PropOp48
 70
     1
102
RTVSPost2010Prop49
280
     0
102
RTVSPost2010PropOp49
 70
     1
102
RTVSPost2010Prop50
 90
       50
102
RTVSPost2010PropOp50
 70
     1
102
RTVSPost2010Prop51ColorIndex
 90
      256
102
RTVSPost2010Prop51ColorRGB
 90
-16777216
102
RTVSPost2010PropOp51
 70
     0
102
RTVSPost2010Prop52
140
1.0
102
RTVSPost2010PropOp52
 70
     0
102
RTVSPost2010Prop53
 90
        2
102
RTVSPost2010PropOp53
 70
     1
102
RTVSPost2010Prop54
  1
strokes_ogs.tif
102
RTVSPost2010PropOp54
 70
     1
102
RTVSPost2010Prop55
280
     0
102
RTVSPost2010PropOp55
 70
     1
102
RTVSPost2010Prop56
140
1.0
102
RTVSPost2010PropOp56
 70
     1
102
RTVSPost2010Prop57
140
1.0
102
RTVSPost2010PropOp57
 70
     1
102
RTVSPropertyOp0
 70
     1
102
RTVSPropertyOp1
 70
     1
102
RTVSPropertyOp2
 70
     1
102
RTVSPropertyOp3
 70
     1
102
RTVSPropertyOp4
 70
     1
102
RTVSPropertyOp5
 70
     1
102
RTVSPropertyOp6
 70
     1
102
RTVSPropertyOp7
 70
     1
102
RTVSPropertyOp8
 70
     1
102
RTVSPropertyOp9
 70
     1
102
RTVSPropertyOp10
 70
     1
102
RTVSPropertyOp11
 70
     1
102
RTVSPropertyOp12
 70
     1
102
RTVSPropertyOp13
 70
     1
102
RTVSPropertyOp14
 70
     1
102
RTVSPropertyOp15
 70
     1
102
RTVSPropertyOp16
 70
     1
102
RTVSPropertyOp17
 70
     1
102
RTVSPropertyOp18
 70
     1
102
RTVSPropertyOp19
 70
     1
102
RTVSPropertyOp20
 70
     1
102
RTVSPropertyOp21
 70
     1
102
RTVSPropertyOp22
 70
     1
102
RTVSPropertyOp23
 70
     1
102
RTVSPropertyOp24
 70
     1
102
RTVSPropertyOp25
 70
     1
102
RTVSPropertyOp26
 70
     1
102
RTVSPropertyOp27
 70
     1
102
RTVSPropertyOp28
 70
     1
102
RTVSPropertyOp29
 70
     1
102
RTVSPropertyOp30
 70
     1
102
RTVSPropertyOp31
 70
     1
102
RTVSPropertyOp32
 70
     1
102
RTVSPropertyOp33
 70
     1
102
RTVSPropertyOp34
 70
     1
102
RTVSPropertyOp35
 70
     1
102
RTVSPropertyOp36
 70
     1
102
RTVSPropertyOp37
 70
     1
102
RTVSPropertyOp38
 70
     1
102
RTVSPropertyOp39
 70
     1
102
RTVSPropertyOp40
 70
     1
102
RTVSPropertyOp41
 70
     1
102
RTVSPropertyOp42
 70
     1
102
RTVSPropertyOp43
 70
     1
102
RTVSPropertyOp44
 70
     1
102
RTVSPropertyOp45
 70
     1
102
RTVSPropertyOp46
 70
     1
102
RTVSPropertyOp47
 70
     1
102
RTVSPropertyOp48
 70
     1
102
RTVSPropertyOp49
 70
     1
102
RTVSPropertyOp50
 70
     1
102
RTVSPropertyOp51
 70
     0
102
RTVSPropertyOp52
 70
     0
102
RTVSPropertyOp53
 70
     1
102
RTVSPropertyOp54
 70
     1
102
RTVSPropertyOp55
 70
     1
102
RTVSPropertyOp56
 70
     1
102
RTVSPropertyOp57
 70
     1
102
RTVSPropertyOp58
 70
     1
102
RTVSPropertyOp59
 70
     1
102
RTVSPropertyOp60
 70
     1
102
RTVSPropertyOp61
 70
     1
102
RTVSPropertyOp62
 70
     1
  0
XRECORD
  5
25E0
102
{ACAD_REACTORS
330
25DF
102
}
330
25DF
100
AcDbXrecord
280
     1
102
RTVSPost2010Prop28
280
     0
102
RTVSPost2010PropOp28
 70
     1
102
RTVSPost2010Prop29
280
     1
102
RTVSPost2010PropOp29
 70
     1
102
RTVSPost2010Prop30
280
     1
102
RTVSPost2010PropOp30
 70
     1
102
RTVSPost2010Prop31
280
     0
102
RTVSPost2010PropOp31
 70
     1
102
RTVSPost2010Prop32
280
     0
102
RTVSPost2010PropOp32
 70
     1
102
RTVSPost2010Prop33
280
     0
102
RTVSPost2010PropOp33
 70
     1
102
RTVSPost2010Prop34
280
     0
102
RTVSPost2010PropOp34
 70
     1
102
RTVSPost2010Prop35
280
     0
102
RTVSPost2010PropOp35
 70
     1
102
RTVSPost2010Prop36
280
     0
102
RTVSPost2010PropOp36
 70
     1
102
RTVSPost2010Prop37
 90
       50
102
RTVSPost2010PropOp37
 70
     1
102
RTVSPost2010Prop38
140
0.0
102
RTVSPost2010PropOp38
 70
     1
102
RTVSPost2010Prop39
140
1.0
102
RTVSPost2010PropOp39
 70
     1
102
RTVSPost2010Prop40
 90
        0
102
RTVSPost2010PropOp40
 70
     1
102
RTVSPost2010Prop41ColorIndex
 90
       18
102
RTVSPost2010Prop41ColorRGB
 90
        0
102
RTVSPost2010PropOp41
 70
     1
102
RTVSPost2010Prop42
 90
       50
102
RTVSPost2010PropOp42
 70
     1
102
RTVSPost2010Prop43
 90
        3
102
RTVSPost2010PropOp43
 70
     1
102
RTVSPost2010Prop44ColorIndex
 90
        5
102
RTVSPost2010Prop44ColorRGB
 90
      255
102
RTVSPost2010PropOp44
 70
     1
102
RTVSPost2010Prop45
280
     0
102
RTVSPost2010PropOp45
 70
     1
102
RTVSPost2010Prop46
 90
       50
102
RTVSPost2010PropOp46
 70
     1
102
RTVSPost2010Prop47
 90
       50
102
RTVSPost2010PropOp47
 70
     1
102
RTVSPost2010Prop48
 90
       50
102
RTVSPost2010PropOp48
 70
     1
102
RTVSPost2010Prop49
280
     0
102
RTVSPost2010PropOp49
 70
     1
102
RTVSPost2010Prop50
 90
       50
102
RTVSPost2010PropOp50
 70
     1
102
RTVSPost2010Prop51ColorIndex
 90
      256
102
RTVSPost2010Prop51ColorRGB
 90
-16777216
102
RTVSPost2010PropOp51
 70
     0
102
RTVSPost2010Prop52
140
1.0
102
RTVSPost2010PropOp52
 70
     0
102
RTVSPost2010Prop53
 90
        2
102
RTVSPost2010PropOp53
 70
     1
102
RTVSPost2010Prop54
  1
strokes_ogs.tif
102
RTVSPost2010PropOp54
 70
     1
102
RTVSPost2010Prop55
280
     0
102
RTVSPost2010PropOp55
 70
     1
102
RTVSPost2010Prop56
140
1.0
102
RTVSPost2010PropOp56
 70
     1
102
RTVSPost2010Prop57
140
1.0
102
RTVSPost2010PropOp57
 70
     1
102
RTVSPropertyOp0
 70
     1
102
RTVSPropertyOp1
 70
     1
102
RTVSPropertyOp2
 70
     1
102
RTVSPropertyOp3
 70
     1
102
RTVSPropertyOp4
 70
     1
102
RTVSPropertyOp5
 70
     1
102
RTVSPropertyOp6
 70
     1
102
RTVSPropertyOp7
 70
     1
102
RTVSPropertyOp8
 70
     1
102
RTVSPropertyOp9
 70
     1
102
RTVSPropertyOp10
 70
     1
102
RTVSPropertyOp11
 70
     1
102
RTVSPropertyOp12
 70
     1
102
RTVSPropertyOp13
 70
     1
102
RTVSPropertyOp14
 70
     1
102
RTVSPropertyOp15
 70
     1
102
RTVSPropertyOp16
 70
     1
102
RTVSPropertyOp17
 70
     1
102
RTVSPropertyOp18
 70
     1
102
RTVSPropertyOp19
 70
     1
102
RTVSPropertyOp20
 70
     1
102
RTVSPropertyOp21
 70
     1
102
RTVSPropertyOp22
 70
     1
102
RTVSPropertyOp23
 70
     1
102
RTVSPropertyOp24
 70
     1
102
RTVSPropertyOp25
 70
     1
102
RTVSPropertyOp26
 70
     1
102
RTVSPropertyOp27
 70
     1
102
RTVSPropertyOp28
 70
     1
102
RTVSPropertyOp29
 70
     1
102
RTVSPropertyOp30
 70
     1
102
RTVSPropertyOp31
 70
     1
102
RTVSPropertyOp32
 70
     1
102
RTVSPropertyOp33
 70
     1
102
RTVSPropertyOp34
 70
     1
102
RTVSPropertyOp35
 70
     1
102
RTVSPropertyOp36
 70
     1
102
RTVSPropertyOp37
 70
     1
102
RTVSPropertyOp38
 70
     1
102
RTVSPropertyOp39
 70
     1
102
RTVSPropertyOp40
 70
     1
102
RTVSPropertyOp41
 70
     1
102
RTVSPropertyOp42
 70
     1
102
RTVSPropertyOp43
 70
     1
102
RTVSPropertyOp44
 70
     1
102
RTVSPropertyOp45
 70
     1
102
RTVSPropertyOp46
 70
     1
102
RTVSPropertyOp47
 70
     1
102
RTVSPropertyOp48
 70
     1
102
RTVSPropertyOp49
 70
     1
102
RTVSPropertyOp50
 70
     1
102
RTVSPropertyOp51
 70
     0
102
RTVSPropertyOp52
 70
     0
102
RTVSPropertyOp53
 70
     1
102
RTVSPropertyOp54
 70
     1
102
RTVSPropertyOp55
 70
     1
102
RTVSPropertyOp56
 70
     1
102
RTVSPropertyOp57
 70
     1
102
RTVSPropertyOp58
 70
     1
102
RTVSPropertyOp59
 70
     1
102
RTVSPropertyOp60
 70
     1
102
RTVSPropertyOp61
 70
     1
102
RTVSPropertyOp62
 70
     1
  0
XRECORD
  5
25D8
102
{ACAD_REACTORS
330
25D7
102
}
330
25D7
100
AcDbXrecord
280
     1
102
RTVSPost2010Prop28
280
     0
102
RTVSPost2010PropOp28
 70
     1
102
RTVSPost2010Prop29
280
     1
102
RTVSPost2010PropOp29
 70
     1
102
RTVSPost2010Prop30
280
     1
102
RTVSPost2010PropOp30
 70
     1
102
RTVSPost2010Prop31
280
     0
102
RTVSPost2010PropOp31
 70
     1
102
RTVSPost2010Prop32
280
     0
102
RTVSPost2010PropOp32
 70
     1
102
RTVSPost2010Prop33
280
     0
102
RTVSPost2010PropOp33
 70
     1
102
RTVSPost2010Prop34
280
     0
102
RTVSPost2010PropOp34
 70
     1
102
RTVSPost2010Prop35
280
     0
102
RTVSPost2010PropOp35
 70
     1
102
RTVSPost2010Prop36
280
     0
102
RTVSPost2010PropOp36
 70
     1
102
RTVSPost2010Prop37
 90
       50
102
RTVSPost2010PropOp37
 70
     1
102
RTVSPost2010Prop38
140
0.0
102
RTVSPost2010PropOp38
 70
     1
102
RTVSPost2010Prop39
140
1.0
102
RTVSPost2010PropOp39
 70
     1
102
RTVSPost2010Prop40
 90
        0
102
RTVSPost2010PropOp40
 70
     1
102
RTVSPost2010Prop41ColorIndex
 90
       18
102
RTVSPost2010Prop41ColorRGB
 90
        0
102
RTVSPost2010PropOp41
 70
     1
102
RTVSPost2010Prop42
 90
       50
102
RTVSPost2010PropOp42
 70
     1
102
RTVSPost2010Prop43
 90
        3
102
RTVSPost2010PropOp43
 70
     1
102
RTVSPost2010Prop44ColorIndex
 90
        5
102
RTVSPost2010Prop44ColorRGB
 90
      255
102
RTVSPost2010PropOp44
 70
     1
102
RTVSPost2010Prop45
280
     0
102
RTVSPost2010PropOp45
 70
     1
102
RTVSPost2010Prop46
 90
       50
102
RTVSPost2010PropOp46
 70
     1
102
RTVSPost2010Prop47
 90
       50
102
RTVSPost2010PropOp47
 70
     1
102
RTVSPost2010Prop48
 90
       50
102
RTVSPost2010PropOp48
 70
     1
102
RTVSPost2010Prop49
280
     0
102
RTVSPost2010PropOp49
 70
     1
102
RTVSPost2010Prop50
 90
       50
102
RTVSPost2010PropOp50
 70
     1
102
RTVSPost2010Prop51ColorIndex
 90
      256
102
RTVSPost2010Prop51ColorRGB
 90
-16777216
102
RTVSPost2010PropOp51
 70
     0
102
RTVSPost2010Prop52
140
1.0
102
RTVSPost2010PropOp52
 70
     0
102
RTVSPost2010Prop53
 90
        2
102
RTVSPost2010PropOp53
 70
     1
102
RTVSPost2010Prop54
  1
strokes_ogs.tif
102
RTVSPost2010PropOp54
 70
     1
102
RTVSPost2010Prop55
280
     0
102
RTVSPost2010PropOp55
 70
     1
102
RTVSPost2010Prop56
140
1.0
102
RTVSPost2010PropOp56
 70
     1
102
RTVSPost2010Prop57
140
1.0
102
RTVSPost2010PropOp57
 70
     1
102
RTVSPropertyOp0
 70
     0
102
RTVSPropertyOp1
 70
     0
102
RTVSPropertyOp2
 70
     0
102
RTVSPropertyOp3
 70
     0
102
RTVSPropertyOp4
 70
     0
102
RTVSPropertyOp5
 70
     0
102
RTVSPropertyOp6
 70
     0
102
RTVSPropertyOp7
 70
     0
102
RTVSPropertyOp8
 70
     0
102
RTVSPropertyOp9
 70
     0
102
RTVSPropertyOp10
 70
     0
102
RTVSPropertyOp11
 70
     0
102
RTVSPropertyOp12
 70
     0
102
RTVSPropertyOp13
 70
     0
102
RTVSPropertyOp14
 70
     2
102
RTVSPropertyOp15
 70
     0
102
RTVSPropertyOp16
 70
     0
102
RTVSPropertyOp17
 70
     0
102
RTVSPropertyOp18
 70
     0
102
RTVSPropertyOp19
 70
     0
102
RTVSPropertyOp20
 70
     0
102
RTVSPropertyOp21
 70
     0
102
RTVSPropertyOp22
 70
     0
102
RTVSPropertyOp23
 70
     0
102
RTVSPropertyOp24
 70
     0
102
RTVSPropertyOp25
 70
     0
102
RTVSPropertyOp26
 70
     0
102
RTVSPropertyOp27
 70
     0
102
RTVSPropertyOp28
 70
     1
102
RTVSPropertyOp29
 70
     1
102
RTVSPropertyOp30
 70
     1
102
RTVSPropertyOp31
 70
     1
102
RTVSPropertyOp32
 70
     1
102
RTVSPropertyOp33
 70
     1
102
RTVSPropertyOp34
 70
     1
102
RTVSPropertyOp35
 70
     1
102
RTVSPropertyOp36
 70
     1
102
RTVSPropertyOp37
 70
     1
102
RTVSPropertyOp38
 70
     1
102
RTVSPropertyOp39
 70
     1
102
RTVSPropertyOp40
 70
     1
102
RTVSPropertyOp41
 70
     1
102
RTVSPropertyOp42
 70
     1
102
RTVSPropertyOp43
 70
     1
102
RTVSPropertyOp44
 70
     1
102
RTVSPropertyOp45
 70
     1
102
RTVSPropertyOp46
 70
     1
102
RTVSPropertyOp47
 70
     1
102
RTVSPropertyOp48
 70
     1
102
RTVSPropertyOp49
 70
     1
102
RTVSPropertyOp50
 70
     1
102
RTVSPropertyOp51
 70
     0
102
RTVSPropertyOp52
 70
     0
102
RTVSPropertyOp53
 70
     1
102
RTVSPropertyOp54
 70
     1
102
RTVSPropertyOp55
 70
     1
102
RTVSPropertyOp56
 70
     1
102
RTVSPropertyOp57
 70
     1
102
RTVSPropertyOp58
 70
     1
102
RTVSPropertyOp59
 70
     1
102
RTVSPropertyOp60
 70
     1
102
RTVSPropertyOp61
 70
     1
102
RTVSPropertyOp62
 70
     1
  0
XRECORD
  5
25C8
102
{ACAD_REACTORS
330
25C7
102
}
330
25C7
100
AcDbXrecord
280
     1
102
RTVSPost2010Prop28
280
     0
102
RTVSPost2010PropOp28
 70
     1
102
RTVSPost2010Prop29
280
     1
102
RTVSPost2010PropOp29
 70
     1
102
RTVSPost2010Prop30
280
     1
102
RTVSPost2010PropOp30
 70
     1
102
RTVSPost2010Prop31
280
     0
102
RTVSPost2010PropOp31
 70
     1
102
RTVSPost2010Prop32
280
     0
102
RTVSPost2010PropOp32
 70
     1
102
RTVSPost2010Prop33
280
     0
102
RTVSPost2010PropOp33
 70
     1
102
RTVSPost2010Prop34
280
     0
102
RTVSPost2010PropOp34
 70
     1
102
RTVSPost2010Prop35
280
     0
102
RTVSPost2010PropOp35
 70
     1
102
RTVSPost2010Prop36
280
     0
102
RTVSPost2010PropOp36
 70
     1
102
RTVSPost2010Prop37
 90
       50
102
RTVSPost2010PropOp37
 70
     1
102
RTVSPost2010Prop38
140
0.0
102
RTVSPost2010PropOp38
 70
     1
102
RTVSPost2010Prop39
140
1.0
102
RTVSPost2010PropOp39
 70
     1
102
RTVSPost2010Prop40
 90
        0
102
RTVSPost2010PropOp40
 70
     1
102
RTVSPost2010Prop41ColorIndex
 90
       18
102
RTVSPost2010Prop41ColorRGB
 90
        0
102
RTVSPost2010PropOp41
 70
     1
102
RTVSPost2010Prop42
 90
       50
102
RTVSPost2010PropOp42
 70
     1
102
RTVSPost2010Prop43
 90
        3
102
RTVSPost2010PropOp43
 70
     1
102
RTVSPost2010Prop44ColorIndex
 90
        5
102
RTVSPost2010Prop44ColorRGB
 90
      255
102
RTVSPost2010PropOp44
 70
     1
102
RTVSPost2010Prop45
280
     0
102
RTVSPost2010PropOp45
 70
     1
102
RTVSPost2010Prop46
 90
       50
102
RTVSPost2010PropOp46
 70
     1
102
RTVSPost2010Prop47
 90
       50
102
RTVSPost2010PropOp47
 70
     1
102
RTVSPost2010Prop48
 90
       50
102
RTVSPost2010PropOp48
 70
     1
102
RTVSPost2010Prop49
280
     0
102
RTVSPost2010PropOp49
 70
     1
102
RTVSPost2010Prop50
 90
       50
102
RTVSPost2010PropOp50
 70
     1
102
RTVSPost2010Prop51ColorIndex
 90
      256
102
RTVSPost2010Prop51ColorRGB
 90
-16777216
102
RTVSPost2010PropOp51
 70
     0
102
RTVSPost2010Prop52
140
1.0
102
RTVSPost2010PropOp52
 70
     0
102
RTVSPost2010Prop53
 90
        2
102
RTVSPost2010PropOp53
 70
     1
102
RTVSPost2010Prop54
  1
strokes_ogs.tif
102
RTVSPost2010PropOp54
 70
     1
102
RTVSPost2010Prop55
280
     0
102
RTVSPost2010PropOp55
 70
     1
102
RTVSPost2010Prop56
140
1.0
102
RTVSPost2010PropOp56
 70
     1
102
RTVSPost2010Prop57
140
1.0
102
RTVSPost2010PropOp57
 70
     1
102
RTVSPropertyOp0
 70
     1
102
RTVSPropertyOp1
 70
     1
102
RTVSPropertyOp2
 70
     1
102
RTVSPropertyOp3
 70
     1
102
RTVSPropertyOp4
 70
     1
102
RTVSPropertyOp5
 70
     1
102
RTVSPropertyOp6
 70
     1
102
RTVSPropertyOp7
 70
     1
102
RTVSPropertyOp8
 70
     1
102
RTVSPropertyOp9
 70
     1
102
RTVSPropertyOp10
 70
     1
102
RTVSPropertyOp11
 70
     1
102
RTVSPropertyOp12
 70
     1
102
RTVSPropertyOp13
 70
     1
102
RTVSPropertyOp14
 70
     1
102
RTVSPropertyOp15
 70
     1
102
RTVSPropertyOp16
 70
     1
102
RTVSPropertyOp17
 70
     1
102
RTVSPropertyOp18
 70
     1
102
RTVSPropertyOp19
 70
     1
102
RTVSPropertyOp20
 70
     1
102
RTVSPropertyOp21
 70
     1
102
RTVSPropertyOp22
 70
     1
102
RTVSPropertyOp23
 70
     1
102
RTVSPropertyOp24
 70
     1
102
RTVSPropertyOp25
 70
     1
102
RTVSPropertyOp26
 70
     1
102
RTVSPropertyOp27
 70
     1
102
RTVSPropertyOp28
 70
     1
102
RTVSPropertyOp29
 70
     1
102
RTVSPropertyOp30
 70
     1
102
RTVSPropertyOp31
 70
     1
102
RTVSPropertyOp32
 70
     1
102
RTVSPropertyOp33
 70
     1
102
RTVSPropertyOp34
 70
     1
102
RTVSPropertyOp35
 70
     1
102
RTVSPropertyOp36
 70
     1
102
RTVSPropertyOp37
 70
     1
102
RTVSPropertyOp38
 70
     1
102
RTVSPropertyOp39
 70
     1
102
RTVSPropertyOp40
 70
     1
102
RTVSPropertyOp41
 70
     1
102
RTVSPropertyOp42
 70
     1
102
RTVSPropertyOp43
 70
     1
102
RTVSPropertyOp44
 70
     1
102
RTVSPropertyOp45
 70
     1
102
RTVSPropertyOp46
 70
     1
102
RTVSPropertyOp47
 70
     1
102
RTVSPropertyOp48
 70
     1
102
RTVSPropertyOp49
 70
     1
102
RTVSPropertyOp50
 70
     1
102
RTVSPropertyOp51
 70
     0
102
RTVSPropertyOp52
 70
     0
102
RTVSPropertyOp53
 70
     1
102
RTVSPropertyOp54
 70
     1
102
RTVSPropertyOp55
 70
     1
102
RTVSPropertyOp56
 70
     1
102
RTVSPropertyOp57
 70
     1
102
RTVSPropertyOp58
 70
     1
102
RTVSPropertyOp59
 70
     1
102
RTVSPropertyOp60
 70
     1
102
RTVSPropertyOp61
 70
     1
102
RTVSPropertyOp62
 70
     1
  0
XRECORD
  5
25DA
102
{ACAD_REACTORS
330
25D9
102
}
330
25D9
100
AcDbXrecord
280
     1
102
RTVSPost2010Prop28
280
     0
102
RTVSPost2010PropOp28
 70
     1
102
RTVSPost2010Prop29
280
     1
102
RTVSPost2010PropOp29
 70
     1
102
RTVSPost2010Prop30
280
     1
102
RTVSPost2010PropOp30
 70
     1
102
RTVSPost2010Prop31
280
     0
102
RTVSPost2010PropOp31
 70
     1
102
RTVSPost2010Prop32
280
     0
102
RTVSPost2010PropOp32
 70
     1
102
RTVSPost2010Prop33
280
     0
102
RTVSPost2010PropOp33
 70
     1
102
RTVSPost2010Prop34
280
     0
102
RTVSPost2010PropOp34
 70
     1
102
RTVSPost2010Prop35
280
     0
102
RTVSPost2010PropOp35
 70
     1
102
RTVSPost2010Prop36
280
     0
102
RTVSPost2010PropOp36
 70
     1
102
RTVSPost2010Prop37
 90
       50
102
RTVSPost2010PropOp37
 70
     1
102
RTVSPost2010Prop38
140
0.0
102
RTVSPost2010PropOp38
 70
     1
102
RTVSPost2010Prop39
140
1.0
102
RTVSPost2010PropOp39
 70
     1
102
RTVSPost2010Prop40
 90
        0
102
RTVSPost2010PropOp40
 70
     1
102
RTVSPost2010Prop41ColorIndex
 90
       18
102
RTVSPost2010Prop41ColorRGB
 90
        0
102
RTVSPost2010PropOp41
 70
     1
102
RTVSPost2010Prop42
 90
       50
102
RTVSPost2010PropOp42
 70
     1
102
RTVSPost2010Prop43
 90
        3
102
RTVSPost2010PropOp43
 70
     1
102
RTVSPost2010Prop44ColorIndex
 90
        5
102
RTVSPost2010Prop44ColorRGB
 90
      255
102
RTVSPost2010PropOp44
 70
     1
102
RTVSPost2010Prop45
280
     0
102
RTVSPost2010PropOp45
 70
     1
102
RTVSPost2010Prop46
 90
       50
102
RTVSPost2010PropOp46
 70
     1
102
RTVSPost2010Prop47
 90
       50
102
RTVSPost2010PropOp47
 70
     1
102
RTVSPost2010Prop48
 90
       50
102
RTVSPost2010PropOp48
 70
     1
102
RTVSPost2010Prop49
280
     0
102
RTVSPost2010PropOp49
 70
     1
102
RTVSPost2010Prop50
 90
       50
102
RTVSPost2010PropOp50
 70
     1
102
RTVSPost2010Prop51ColorIndex
 90
      256
102
RTVSPost2010Prop51ColorRGB
 90
-16777216
102
RTVSPost2010PropOp51
 70
     0
102
RTVSPost2010Prop52
140
1.0
102
RTVSPost2010PropOp52
 70
     0
102
RTVSPost2010Prop53
 90
        2
102
RTVSPost2010PropOp53
 70
     1
102
RTVSPost2010Prop54
  1
strokes_ogs.tif
102
RTVSPost2010PropOp54
 70
     1
102
RTVSPost2010Prop55
280
     0
102
RTVSPost2010PropOp55
 70
     1
102
RTVSPost2010Prop56
140
1.0
102
RTVSPost2010PropOp56
 70
     1
102
RTVSPost2010Prop57
140
1.0
102
RTVSPost2010PropOp57
 70
     1
102
RTVSPropertyOp0
 70
     0
102
RTVSPropertyOp1
 70
     0
102
RTVSPropertyOp2
 70
     0
102
RTVSPropertyOp3
 70
     0
102
RTVSPropertyOp4
 70
     0
102
RTVSPropertyOp5
 70
     0
102
RTVSPropertyOp6
 70
     0
102
RTVSPropertyOp7
 70
     0
102
RTVSPropertyOp8
 70
     0
102
RTVSPropertyOp9
 70
     0
102
RTVSPropertyOp10
 70
     0
102
RTVSPropertyOp11
 70
     0
102
RTVSPropertyOp12
 70
     0
102
RTVSPropertyOp13
 70
     0
102
RTVSPropertyOp14
 70
     2
102
RTVSPropertyOp15
 70
     0
102
RTVSPropertyOp16
 70
     0
102
RTVSPropertyOp17
 70
     0
102
RTVSPropertyOp18
 70
     0
102
RTVSPropertyOp19
 70
     0
102
RTVSPropertyOp20
 70
     0
102
RTVSPropertyOp21
 70
     0
102
RTVSPropertyOp22
 70
     0
102
RTVSPropertyOp23
 70
     0
102
RTVSPropertyOp24
 70
     0
102
RTVSPropertyOp25
 70
     0
102
RTVSPropertyOp26
 70
     0
102
RTVSPropertyOp27
 70
     0
102
RTVSPropertyOp28
 70
     1
102
RTVSPropertyOp29
 70
     1
102
RTVSPropertyOp30
 70
     1
102
RTVSPropertyOp31
 70
     1
102
RTVSPropertyOp32
 70
     1
102
RTVSPropertyOp33
 70
     1
102
RTVSPropertyOp34
 70
     1
102
RTVSPropertyOp35
 70
     1
102
RTVSPropertyOp36
 70
     1
102
RTVSPropertyOp37
 70
     1
102
RTVSPropertyOp38
 70
     1
102
RTVSPropertyOp39
 70
     1
102
RTVSPropertyOp40
 70
     1
102
RTVSPropertyOp41
 70
     1
102
RTVSPropertyOp42
 70
     1
102
RTVSPropertyOp43
 70
     1
102
RTVSPropertyOp44
 70
     1
102
RTVSPropertyOp45
 70
     1
102
RTVSPropertyOp46
 70
     1
102
RTVSPropertyOp47
 70
     1
102
RTVSPropertyOp48
 70
     1
102
RTVSPropertyOp49
 70
     1
102
RTVSPropertyOp50
 70
     1
102
RTVSPropertyOp51
 70
     0
102
RTVSPropertyOp52
 70
     0
102
RTVSPropertyOp53
 70
     1
102
RTVSPropertyOp54
 70
     1
102
RTVSPropertyOp55
 70
     1
102
RTVSPropertyOp56
 70
     1
102
RTVSPropertyOp57
 70
     1
102
RTVSPropertyOp58
 70
     1
102
RTVSPropertyOp59
 70
     1
102
RTVSPropertyOp60
 70
     1
102
RTVSPropertyOp61
 70
     1
102
RTVSPropertyOp62
 70
     1
  0
XRECORD
  5
25C0
102
{ACAD_REACTORS
330
25BF
102
}
330
25BF
100
AcDbXrecord
280
     1
102
RTVSPost2010Prop28
280
     0
102
RTVSPost2010PropOp28
 70
     1
102
RTVSPost2010Prop29
280
     1
102
RTVSPost2010PropOp29
 70
     1
102
RTVSPost2010Prop30
280
     1
102
RTVSPost2010PropOp30
 70
     1
102
RTVSPost2010Prop31
280
     0
102
RTVSPost2010PropOp31
 70
     1
102
RTVSPost2010Prop32
280
     0
102
RTVSPost2010PropOp32
 70
     1
102
RTVSPost2010Prop33
280
     0
102
RTVSPost2010PropOp33
 70
     1
102
RTVSPost2010Prop34
280
     0
102
RTVSPost2010PropOp34
 70
     1
102
RTVSPost2010Prop35
280
     0
102
RTVSPost2010PropOp35
 70
     1
102
RTVSPost2010Prop36
280
     0
102
RTVSPost2010PropOp36
 70
     1
102
RTVSPost2010Prop37
 90
       50
102
RTVSPost2010PropOp37
 70
     1
102
RTVSPost2010Prop38
140
0.0
102
RTVSPost2010PropOp38
 70
     1
102
RTVSPost2010Prop39
140
1.0
102
RTVSPost2010PropOp39
 70
     1
102
RTVSPost2010Prop40
 90
        0
102
RTVSPost2010PropOp40
 70
     1
102
RTVSPost2010Prop41ColorIndex
 90
       18
102
RTVSPost2010Prop41ColorRGB
 90
        0
102
RTVSPost2010PropOp41
 70
     1
102
RTVSPost2010Prop42
 90
       50
102
RTVSPost2010PropOp42
 70
     1
102
RTVSPost2010Prop43
 90
        3
102
RTVSPost2010PropOp43
 70
     1
102
RTVSPost2010Prop44ColorIndex
 90
        5
102
RTVSPost2010Prop44ColorRGB
 90
      255
102
RTVSPost2010PropOp44
 70
     1
102
RTVSPost2010Prop45
280
     0
102
RTVSPost2010PropOp45
 70
     1
102
RTVSPost2010Prop46
 90
       50
102
RTVSPost2010PropOp46
 70
     1
102
RTVSPost2010Prop47
 90
       50
102
RTVSPost2010PropOp47
 70
     1
102
RTVSPost2010Prop48
 90
       50
102
RTVSPost2010PropOp48
 70
     1
102
RTVSPost2010Prop49
280
     0
102
RTVSPost2010PropOp49
 70
     1
102
RTVSPost2010Prop50
 90
       50
102
RTVSPost2010PropOp50
 70
     1
102
RTVSPost2010Prop51ColorIndex
 90
      256
102
RTVSPost2010Prop51ColorRGB
 90
-16777216
102
RTVSPost2010PropOp51
 70
     0
102
RTVSPost2010Prop52
140
1.0
102
RTVSPost2010PropOp52
 70
     0
102
RTVSPost2010Prop53
 90
        2
102
RTVSPost2010PropOp53
 70
     1
102
RTVSPost2010Prop54
  1
strokes_ogs.tif
102
RTVSPost2010PropOp54
 70
     1
102
RTVSPost2010Prop55
280
     0
102
RTVSPost2010PropOp55
 70
     1
102
RTVSPost2010Prop56
140
1.0
102
RTVSPost2010PropOp56
 70
     1
102
RTVSPost2010Prop57
140
1.0
102
RTVSPost2010PropOp57
 70
     1
102
RTVSPropertyOp0
 70
     1
102
RTVSPropertyOp1
 70
     1
102
RTVSPropertyOp2
 70
     1
102
RTVSPropertyOp3
 70
     1
102
RTVSPropertyOp4
 70
     1
102
RTVSPropertyOp5
 70
     1
102
RTVSPropertyOp6
 70
     1
102
RTVSPropertyOp7
 70
     1
102
RTVSPropertyOp8
 70
     1
102
RTVSPropertyOp9
 70
     1
102
RTVSPropertyOp10
 70
     1
102
RTVSPropertyOp11
 70
     1
102
RTVSPropertyOp12
 70
     1
102
RTVSPropertyOp13
 70
     1
102
RTVSPropertyOp14
 70
     1
102
RTVSPropertyOp15
 70
     1
102
RTVSPropertyOp16
 70
     1
102
RTVSPropertyOp17
 70
     1
102
RTVSPropertyOp18
 70
     1
102
RTVSPropertyOp19
 70
     1
102
RTVSPropertyOp20
 70
     1
102
RTVSPropertyOp21
 70
     1
102
RTVSPropertyOp22
 70
     1
102
RTVSPropertyOp23
 70
     1
102
RTVSPropertyOp24
 70
     1
102
RTVSPropertyOp25
 70
     1
102
RTVSPropertyOp26
 70
     1
102
RTVSPropertyOp27
 70
     1
102
RTVSPropertyOp28
 70
     1
102
RTVSPropertyOp29
 70
     1
102
RTVSPropertyOp30
 70
     1
102
RTVSPropertyOp31
 70
     1
102
RTVSPropertyOp32
 70
     1
102
RTVSPropertyOp33
 70
     1
102
RTVSPropertyOp34
 70
     1
102
RTVSPropertyOp35
 70
     1
102
RTVSPropertyOp36
 70
     1
102
RTVSPropertyOp37
 70
     1
102
RTVSPropertyOp38
 70
     1
102
RTVSPropertyOp39
 70
     1
102
RTVSPropertyOp40
 70
     1
102
RTVSPropertyOp41
 70
     1
102
RTVSPropertyOp42
 70
     1
102
RTVSPropertyOp43
 70
     1
102
RTVSPropertyOp44
 70
     1
102
RTVSPropertyOp45
 70
     1
102
RTVSPropertyOp46
 70
     1
102
RTVSPropertyOp47
 70
     1
102
RTVSPropertyOp48
 70
     1
102
RTVSPropertyOp49
 70
     1
102
RTVSPropertyOp50
 70
     1
102
RTVSPropertyOp51
 70
     0
102
RTVSPropertyOp52
 70
     0
102
RTVSPropertyOp53
 70
     1
102
RTVSPropertyOp54
 70
     1
102
RTVSPropertyOp55
 70
     1
102
RTVSPropertyOp56
 70
     1
102
RTVSPropertyOp57
 70
     1
102
RTVSPropertyOp58
 70
     1
102
RTVSPropertyOp59
 70
     1
102
RTVSPropertyOp60
 70
     1
102
RTVSPropertyOp61
 70
     1
102
RTVSPropertyOp62
 70
     1
  0
XRECORD
  5
25EA
102
{ACAD_REACTORS
330
25E9
102
}
330
25E9
100
AcDbXrecord
280
     1
102
RTVSPost2010Prop28
280
     0
102
RTVSPost2010PropOp28
 70
     1
102
RTVSPost2010Prop29
280
     1
102
RTVSPost2010PropOp29
 70
     1
102
RTVSPost2010Prop30
280
     1
102
RTVSPost2010PropOp30
 70
     1
102
RTVSPost2010Prop31
280
     0
102
RTVSPost2010PropOp31
 70
     1
102
RTVSPost2010Prop32
280
     0
102
RTVSPost2010PropOp32
 70
     1
102
RTVSPost2010Prop33
280
     0
102
RTVSPost2010PropOp33
 70
     1
102
RTVSPost2010Prop34
280
     0
102
RTVSPost2010PropOp34
 70
     1
102
RTVSPost2010Prop35
280
     0
102
RTVSPost2010PropOp35
 70
     1
102
RTVSPost2010Prop36
280
     0
102
RTVSPost2010PropOp36
 70
     1
102
RTVSPost2010Prop37
 90
       50
102
RTVSPost2010PropOp37
 70
     1
102
RTVSPost2010Prop38
140
0.0
102
RTVSPost2010PropOp38
 70
     1
102
RTVSPost2010Prop39
140
1.0
102
RTVSPost2010PropOp39
 70
     1
102
RTVSPost2010Prop40
 90
        0
102
RTVSPost2010PropOp40
 70
     1
102
RTVSPost2010Prop41ColorIndex
 90
       18
102
RTVSPost2010Prop41ColorRGB
 90
        0
102
RTVSPost2010PropOp41
 70
     1
102
RTVSPost2010Prop42
 90
       50
102
RTVSPost2010PropOp42
 70
     1
102
RTVSPost2010Prop43
 90
        3
102
RTVSPost2010PropOp43
 70
     1
102
RTVSPost2010Prop44ColorIndex
 90
        5
102
RTVSPost2010Prop44ColorRGB
 90
      255
102
RTVSPost2010PropOp44
 70
     1
102
RTVSPost2010Prop45
280
     0
102
RTVSPost2010PropOp45
 70
     1
102
RTVSPost2010Prop46
 90
       50
102
RTVSPost2010PropOp46
 70
     1
102
RTVSPost2010Prop47
 90
       50
102
RTVSPost2010PropOp47
 70
     1
102
RTVSPost2010Prop48
 90
       50
102
RTVSPost2010PropOp48
 70
     1
102
RTVSPost2010Prop49
280
     0
102
RTVSPost2010PropOp49
 70
     1
102
RTVSPost2010Prop50
 90
       50
102
RTVSPost2010PropOp50
 70
     1
102
RTVSPost2010Prop51ColorIndex
 90
      256
102
RTVSPost2010Prop51ColorRGB
 90
-16777216
102
RTVSPost2010PropOp51
 70
     0
102
RTVSPost2010Prop52
140
1.0
102
RTVSPost2010PropOp52
 70
     0
102
RTVSPost2010Prop53
 90
        2
102
RTVSPost2010PropOp53
 70
     1
102
RTVSPost2010Prop54
  1
strokes_ogs.tif
102
RTVSPost2010PropOp54
 70
     1
102
RTVSPost2010Prop55
280
     0
102
RTVSPost2010PropOp55
 70
     1
102
RTVSPost2010Prop56
140
1.0
102
RTVSPost2010PropOp56
 70
     1
102
RTVSPost2010Prop57
140
1.0
102
RTVSPost2010PropOp57
 70
     1
102
RTVSPropertyOp0
 70
     1
102
RTVSPropertyOp1
 70
     1
102
RTVSPropertyOp2
 70
     1
102
RTVSPropertyOp3
 70
     1
102
RTVSPropertyOp4
 70
     1
102
RTVSPropertyOp5
 70
     1
102
RTVSPropertyOp6
 70
     1
102
RTVSPropertyOp7
 70
     1
102
RTVSPropertyOp8
 70
     1
102
RTVSPropertyOp9
 70
     1
102
RTVSPropertyOp10
 70
     1
102
RTVSPropertyOp11
 70
     1
102
RTVSPropertyOp12
 70
     1
102
RTVSPropertyOp13
 70
     1
102
RTVSPropertyOp14
 70
     1
102
RTVSPropertyOp15
 70
     1
102
RTVSPropertyOp16
 70
     1
102
RTVSPropertyOp17
 70
     1
102
RTVSPropertyOp18
 70
     1
102
RTVSPropertyOp19
 70
     1
102
RTVSPropertyOp20
 70
     1
102
RTVSPropertyOp21
 70
     1
102
RTVSPropertyOp22
 70
     1
102
RTVSPropertyOp23
 70
     1
102
RTVSPropertyOp24
 70
     1
102
RTVSPropertyOp25
 70
     1
102
RTVSPropertyOp26
 70
     1
102
RTVSPropertyOp27
 70
     1
102
RTVSPropertyOp28
 70
     1
102
RTVSPropertyOp29
 70
     1
102
RTVSPropertyOp30
 70
     1
102
RTVSPropertyOp31
 70
     1
102
RTVSPropertyOp32
 70
     1
102
RTVSPropertyOp33
 70
     1
102
RTVSPropertyOp34
 70
     1
102
RTVSPropertyOp35
 70
     1
102
RTVSPropertyOp36
 70
     1
102
RTVSPropertyOp37
 70
     1
102
RTVSPropertyOp38
 70
     1
102
RTVSPropertyOp39
 70
     1
102
RTVSPropertyOp40
 70
     1
102
RTVSPropertyOp41
 70
     1
102
RTVSPropertyOp42
 70
     1
102
RTVSPropertyOp43
 70
     1
102
RTVSPropertyOp44
 70
     1
102
RTVSPropertyOp45
 70
     1
102
RTVSPropertyOp46
 70
     1
102
RTVSPropertyOp47
 70
     1
102
RTVSPropertyOp48
 70
     1
102
RTVSPropertyOp49
 70
     1
102
RTVSPropertyOp50
 70
     1
102
RTVSPropertyOp51
 70
     0
102
RTVSPropertyOp52
 70
     0
102
RTVSPropertyOp53
 70
     1
102
RTVSPropertyOp54
 70
     1
102
RTVSPropertyOp55
 70
     1
102
RTVSPropertyOp56
 70
     1
102
RTVSPropertyOp57
 70
     1
102
RTVSPropertyOp58
 70
     1
102
RTVSPropertyOp59
 70
     1
102
RTVSPropertyOp60
 70
     1
102
RTVSPropertyOp61
 70
     1
102
RTVSPropertyOp62
 70
     1
  0
XRECORD
  5
25E8
102
{ACAD_REACTORS
330
25E7
102
}
330
25E7
100
AcDbXrecord
280
     1
102
RTVSPost2010Prop28
280
     0
102
RTVSPost2010PropOp28
 70
     1
102
RTVSPost2010Prop29
280
     1
102
RTVSPost2010PropOp29
 70
     1
102
RTVSPost2010Prop30
280
     1
102
RTVSPost2010PropOp30
 70
     1
102
RTVSPost2010Prop31
280
     0
102
RTVSPost2010PropOp31
 70
     1
102
RTVSPost2010Prop32
280
     0
102
RTVSPost2010PropOp32
 70
     1
102
RTVSPost2010Prop33
280
     0
102
RTVSPost2010PropOp33
 70
     1
102
RTVSPost2010Prop34
280
     0
102
RTVSPost2010PropOp34
 70
     1
102
RTVSPost2010Prop35
280
     0
102
RTVSPost2010PropOp35
 70
     1
102
RTVSPost2010Prop36
280
     0
102
RTVSPost2010PropOp36
 70
     1
102
RTVSPost2010Prop37
 90
       50
102
RTVSPost2010PropOp37
 70
     1
102
RTVSPost2010Prop38
140
0.0
102
RTVSPost2010PropOp38
 70
     1
102
RTVSPost2010Prop39
140
1.0
102
RTVSPost2010PropOp39
 70
     1
102
RTVSPost2010Prop40
 90
        0
102
RTVSPost2010PropOp40
 70
     1
102
RTVSPost2010Prop41ColorIndex
 90
       18
102
RTVSPost2010Prop41ColorRGB
 90
        0
102
RTVSPost2010PropOp41
 70
     1
102
RTVSPost2010Prop42
 90
       50
102
RTVSPost2010PropOp42
 70
     1
102
RTVSPost2010Prop43
 90
        3
102
RTVSPost2010PropOp43
 70
     1
102
RTVSPost2010Prop44ColorIndex
 90
        5
102
RTVSPost2010Prop44ColorRGB
 90
      255
102
RTVSPost2010PropOp44
 70
     1
102
RTVSPost2010Prop45
280
     0
102
RTVSPost2010PropOp45
 70
     1
102
RTVSPost2010Prop46
 90
       50
102
RTVSPost2010PropOp46
 70
     1
102
RTVSPost2010Prop47
 90
       50
102
RTVSPost2010PropOp47
 70
     1
102
RTVSPost2010Prop48
 90
       50
102
RTVSPost2010PropOp48
 70
     1
102
RTVSPost2010Prop49
280
     0
102
RTVSPost2010PropOp49
 70
     1
102
RTVSPost2010Prop50
 90
       50
102
RTVSPost2010PropOp50
 70
     1
102
RTVSPost2010Prop51ColorIndex
 90
      256
102
RTVSPost2010Prop51ColorRGB
 90
-16777216
102
RTVSPost2010PropOp51
 70
     0
102
RTVSPost2010Prop52
140
1.0
102
RTVSPost2010PropOp52
 70
     0
102
RTVSPost2010Prop53
 90
        2
102
RTVSPost2010PropOp53
 70
     1
102
RTVSPost2010Prop54
  1
strokes_ogs.tif
102
RTVSPost2010PropOp54
 70
     1
102
RTVSPost2010Prop55
280
     0
102
RTVSPost2010PropOp55
 70
     1
102
RTVSPost2010Prop56
140
1.0
102
RTVSPost2010PropOp56
 70
     1
102
RTVSPost2010Prop57
140
1.0
102
RTVSPost2010PropOp57
 70
     1
102
RTVSPropertyOp0
 70
     1
102
RTVSPropertyOp1
 70
     1
102
RTVSPropertyOp2
 70
     1
102
RTVSPropertyOp3
 70
     1
102
RTVSPropertyOp4
 70
     1
102
RTVSPropertyOp5
 70
     1
102
RTVSPropertyOp6
 70
     1
102
RTVSPropertyOp7
 70
     1
102
RTVSPropertyOp8
 70
     1
102
RTVSPropertyOp9
 70
     1
102
RTVSPropertyOp10
 70
     1
102
RTVSPropertyOp11
 70
     1
102
RTVSPropertyOp12
 70
     1
102
RTVSPropertyOp13
 70
     1
102
RTVSPropertyOp14
 70
     1
102
RTVSPropertyOp15
 70
     1
102
RTVSPropertyOp16
 70
     1
102
RTVSPropertyOp17
 70
     1
102
RTVSPropertyOp18
 70
     1
102
RTVSPropertyOp19
 70
     1
102
RTVSPropertyOp20
 70
     1
102
RTVSPropertyOp21
 70
     1
102
RTVSPropertyOp22
 70
     1
102
RTVSPropertyOp23
 70
     1
102
RTVSPropertyOp24
 70
     1
102
RTVSPropertyOp25
 70
     1
102
RTVSPropertyOp26
 70
     1
102
RTVSPropertyOp27
 70
     1
102
RTVSPropertyOp28
 70
     1
102
RTVSPropertyOp29
 70
     1
102
RTVSPropertyOp30
 70
     1
102
RTVSPropertyOp31
 70
     1
102
RTVSPropertyOp32
 70
     1
102
RTVSPropertyOp33
 70
     1
102
RTVSPropertyOp34
 70
     1
102
RTVSPropertyOp35
 70
     1
102
RTVSPropertyOp36
 70
     1
102
RTVSPropertyOp37
 70
     1
102
RTVSPropertyOp38
 70
     1
102
RTVSPropertyOp39
 70
     1
102
RTVSPropertyOp40
 70
     1
102
RTVSPropertyOp41
 70
     1
102
RTVSPropertyOp42
 70
     1
102
RTVSPropertyOp43
 70
     1
102
RTVSPropertyOp44
 70
     1
102
RTVSPropertyOp45
 70
     1
102
RTVSPropertyOp46
 70
     1
102
RTVSPropertyOp47
 70
     1
102
RTVSPropertyOp48
 70
     1
102
RTVSPropertyOp49
 70
     1
102
RTVSPropertyOp50
 70
     1
102
RTVSPropertyOp51
 70
     0
102
RTVSPropertyOp52
 70
     0
102
RTVSPropertyOp53
 70
     1
102
RTVSPropertyOp54
 70
     1
102
RTVSPropertyOp55
 70
     1
102
RTVSPropertyOp56
 70
     1
102
RTVSPropertyOp57
 70
     1
102
RTVSPropertyOp58
 70
     1
102
RTVSPropertyOp59
 70
     1
102
RTVSPropertyOp60
 70
     1
102
RTVSPropertyOp61
 70
     1
102
RTVSPropertyOp62
 70
     1
  0
XRECORD
  5
25E2
102
{ACAD_REACTORS
330
25E1
102
}
330
25E1
100
AcDbXrecord
280
     1
102
RTVSPost2010Prop28
280
     0
102
RTVSPost2010PropOp28
 70
     1
102
RTVSPost2010Prop29
280
     1
102
RTVSPost2010PropOp29
 70
     1
102
RTVSPost2010Prop30
280
     1
102
RTVSPost2010PropOp30
 70
     1
102
RTVSPost2010Prop31
280
     0
102
RTVSPost2010PropOp31
 70
     1
102
RTVSPost2010Prop32
280
     0
102
RTVSPost2010PropOp32
 70
     1
102
RTVSPost2010Prop33
280
     0
102
RTVSPost2010PropOp33
 70
     1
102
RTVSPost2010Prop34
280
     0
102
RTVSPost2010PropOp34
 70
     1
102
RTVSPost2010Prop35
280
     0
102
RTVSPost2010PropOp35
 70
     1
102
RTVSPost2010Prop36
280
     0
102
RTVSPost2010PropOp36
 70
     1
102
RTVSPost2010Prop37
 90
       50
102
RTVSPost2010PropOp37
 70
     1
102
RTVSPost2010Prop38
140
0.0
102
RTVSPost2010PropOp38
 70
     1
102
RTVSPost2010Prop39
140
1.0
102
RTVSPost2010PropOp39
 70
     1
102
RTVSPost2010Prop40
 90
        0
102
RTVSPost2010PropOp40
 70
     1
102
RTVSPost2010Prop41ColorIndex
 90
       18
102
RTVSPost2010Prop41ColorRGB
 90
        0
102
RTVSPost2010PropOp41
 70
     1
102
RTVSPost2010Prop42
 90
       50
102
RTVSPost2010PropOp42
 70
     1
102
RTVSPost2010Prop43
 90
        3
102
RTVSPost2010PropOp43
 70
     1
102
RTVSPost2010Prop44ColorIndex
 90
        5
102
RTVSPost2010Prop44ColorRGB
 90
      255
102
RTVSPost2010PropOp44
 70
     1
102
RTVSPost2010Prop45
280
     0
102
RTVSPost2010PropOp45
 70
     1
102
RTVSPost2010Prop46
 90
       50
102
RTVSPost2010PropOp46
 70
     1
102
RTVSPost2010Prop47
 90
       50
102
RTVSPost2010PropOp47
 70
     1
102
RTVSPost2010Prop48
 90
       50
102
RTVSPost2010PropOp48
 70
     1
102
RTVSPost2010Prop49
280
     0
102
RTVSPost2010PropOp49
 70
     1
102
RTVSPost2010Prop50
 90
       50
102
RTVSPost2010PropOp50
 70
     1
102
RTVSPost2010Prop51ColorIndex
 90
      256
102
RTVSPost2010Prop51ColorRGB
 90
-16777216
102
RTVSPost2010PropOp51
 70
     0
102
RTVSPost2010Prop52
140
1.0
102
RTVSPost2010PropOp52
 70
     0
102
RTVSPost2010Prop53
 90
        2
102
RTVSPost2010PropOp53
 70
     1
102
RTVSPost2010Prop54
  1
strokes_ogs.tif
102
RTVSPost2010PropOp54
 70
     1
102
RTVSPost2010Prop55
280
     0
102
RTVSPost2010PropOp55
 70
     1
102
RTVSPost2010Prop56
140
1.0
102
RTVSPost2010PropOp56
 70
     1
102
RTVSPost2010Prop57
140
1.0
102
RTVSPost2010PropOp57
 70
     1
102
RTVSPropertyOp0
 70
     1
102
RTVSPropertyOp1
 70
     1
102
RTVSPropertyOp2
 70
     1
102
RTVSPropertyOp3
 70
     1
102
RTVSPropertyOp4
 70
     1
102
RTVSPropertyOp5
 70
     1
102
RTVSPropertyOp6
 70
     1
102
RTVSPropertyOp7
 70
     1
102
RTVSPropertyOp8
 70
     1
102
RTVSPropertyOp9
 70
     1
102
RTVSPropertyOp10
 70
     1
102
RTVSPropertyOp11
 70
     1
102
RTVSPropertyOp12
 70
     1
102
RTVSPropertyOp13
 70
     1
102
RTVSPropertyOp14
 70
     1
102
RTVSPropertyOp15
 70
     1
102
RTVSPropertyOp16
 70
     1
102
RTVSPropertyOp17
 70
     1
102
RTVSPropertyOp18
 70
     1
102
RTVSPropertyOp19
 70
     1
102
RTVSPropertyOp20
 70
     1
102
RTVSPropertyOp21
 70
     1
102
RTVSPropertyOp22
 70
     1
102
RTVSPropertyOp23
 70
     1
102
RTVSPropertyOp24
 70
     1
102
RTVSPropertyOp25
 70
     1
102
RTVSPropertyOp26
 70
     1
102
RTVSPropertyOp27
 70
     1
102
RTVSPropertyOp28
 70
     1
102
RTVSPropertyOp29
 70
     1
102
RTVSPropertyOp30
 70
     1
102
RTVSPropertyOp31
 70
     1
102
RTVSPropertyOp32
 70
     1
102
RTVSPropertyOp33
 70
     1
102
RTVSPropertyOp34
 70
     1
102
RTVSPropertyOp35
 70
     1
102
RTVSPropertyOp36
 70
     1
102
RTVSPropertyOp37
 70
     1
102
RTVSPropertyOp38
 70
     1
102
RTVSPropertyOp39
 70
     1
102
RTVSPropertyOp40
 70
     1
102
RTVSPropertyOp41
 70
     1
102
RTVSPropertyOp42
 70
     1
102
RTVSPropertyOp43
 70
     1
102
RTVSPropertyOp44
 70
     1
102
RTVSPropertyOp45
 70
     1
102
RTVSPropertyOp46
 70
     1
102
RTVSPropertyOp47
 70
     1
102
RTVSPropertyOp48
 70
     1
102
RTVSPropertyOp49
 70
     1
102
RTVSPropertyOp50
 70
     1
102
RTVSPropertyOp51
 70
     0
102
RTVSPropertyOp52
 70
     0
102
RTVSPropertyOp53
 70
     1
102
RTVSPropertyOp54
 70
     1
102
RTVSPropertyOp55
 70
     1
102
RTVSPropertyOp56
 70
     1
102
RTVSPropertyOp57
 70
     1
102
RTVSPropertyOp58
 70
     1
102
RTVSPropertyOp59
 70
     1
102
RTVSPropertyOp60
 70
     1
102
RTVSPropertyOp61
 70
     1
102
RTVSPropertyOp62
 70
     1
  0
XRECORD
  5
25E4
102
{ACAD_REACTORS
330
25E3
102
}
330
25E3
100
AcDbXrecord
280
     1
102
RTVSPost2010Prop28
280
     0
102
RTVSPost2010PropOp28
 70
     1
102
RTVSPost2010Prop29
280
     1
102
RTVSPost2010PropOp29
 70
     1
102
RTVSPost2010Prop30
280
     1
102
RTVSPost2010PropOp30
 70
     1
102
RTVSPost2010Prop31
280
     0
102
RTVSPost2010PropOp31
 70
     1
102
RTVSPost2010Prop32
280
     0
102
RTVSPost2010PropOp32
 70
     1
102
RTVSPost2010Prop33
280
     0
102
RTVSPost2010PropOp33
 70
     1
102
RTVSPost2010Prop34
280
     0
102
RTVSPost2010PropOp34
 70
     1
102
RTVSPost2010Prop35
280
     0
102
RTVSPost2010PropOp35
 70
     1
102
RTVSPost2010Prop36
280
     0
102
RTVSPost2010PropOp36
 70
     1
102
RTVSPost2010Prop37
 90
       50
102
RTVSPost2010PropOp37
 70
     1
102
RTVSPost2010Prop38
140
0.0
102
RTVSPost2010PropOp38
 70
     1
102
RTVSPost2010Prop39
140
1.0
102
RTVSPost2010PropOp39
 70
     1
102
RTVSPost2010Prop40
 90
        0
102
RTVSPost2010PropOp40
 70
     1
102
RTVSPost2010Prop41ColorIndex
 90
       18
102
RTVSPost2010Prop41ColorRGB
 90
        0
102
RTVSPost2010PropOp41
 70
     1
102
RTVSPost2010Prop42
 90
       50
102
RTVSPost2010PropOp42
 70
     1
102
RTVSPost2010Prop43
 90
        3
102
RTVSPost2010PropOp43
 70
     1
102
RTVSPost2010Prop44ColorIndex
 90
        5
102
RTVSPost2010Prop44ColorRGB
 90
      255
102
RTVSPost2010PropOp44
 70
     1
102
RTVSPost2010Prop45
280
     0
102
RTVSPost2010PropOp45
 70
     1
102
RTVSPost2010Prop46
 90
       50
102
RTVSPost2010PropOp46
 70
     1
102
RTVSPost2010Prop47
 90
       50
102
RTVSPost2010PropOp47
 70
     1
102
RTVSPost2010Prop48
 90
       50
102
RTVSPost2010PropOp48
 70
     1
102
RTVSPost2010Prop49
280
     0
102
RTVSPost2010PropOp49
 70
     1
102
RTVSPost2010Prop50
 90
       50
102
RTVSPost2010PropOp50
 70
     1
102
RTVSPost2010Prop51ColorIndex
 90
      256
102
RTVSPost2010Prop51ColorRGB
 90
-16777216
102
RTVSPost2010PropOp51
 70
     0
102
RTVSPost2010Prop52
140
1.0
102
RTVSPost2010PropOp52
 70
     0
102
RTVSPost2010Prop53
 90
        2
102
RTVSPost2010PropOp53
 70
     1
102
RTVSPost2010Prop54
  1
strokes_ogs.tif
102
RTVSPost2010PropOp54
 70
     1
102
RTVSPost2010Prop55
280
     0
102
RTVSPost2010PropOp55
 70
     1
102
RTVSPost2010Prop56
140
1.0
102
RTVSPost2010PropOp56
 70
     1
102
RTVSPost2010Prop57
140
1.0
102
RTVSPost2010PropOp57
 70
     1
102
RTVSPropertyOp0
 70
     1
102
RTVSPropertyOp1
 70
     1
102
RTVSPropertyOp2
 70
     1
102
RTVSPropertyOp3
 70
     1
102
RTVSPropertyOp4
 70
     1
102
RTVSPropertyOp5
 70
     1
102
RTVSPropertyOp6
 70
     1
102
RTVSPropertyOp7
 70
     1
102
RTVSPropertyOp8
 70
     1
102
RTVSPropertyOp9
 70
     1
102
RTVSPropertyOp10
 70
     1
102
RTVSPropertyOp11
 70
     1
102
RTVSPropertyOp12
 70
     1
102
RTVSPropertyOp13
 70
     1
102
RTVSPropertyOp14
 70
     1
102
RTVSPropertyOp15
 70
     1
102
RTVSPropertyOp16
 70
     1
102
RTVSPropertyOp17
 70
     1
102
RTVSPropertyOp18
 70
     1
102
RTVSPropertyOp19
 70
     1
102
RTVSPropertyOp20
 70
     1
102
RTVSPropertyOp21
 70
     1
102
RTVSPropertyOp22
 70
     1
102
RTVSPropertyOp23
 70
     1
102
RTVSPropertyOp24
 70
     1
102
RTVSPropertyOp25
 70
     1
102
RTVSPropertyOp26
 70
     1
102
RTVSPropertyOp27
 70
     1
102
RTVSPropertyOp28
 70
     1
102
RTVSPropertyOp29
 70
     1
102
RTVSPropertyOp30
 70
     1
102
RTVSPropertyOp31
 70
     1
102
RTVSPropertyOp32
 70
     1
102
RTVSPropertyOp33
 70
     1
102
RTVSPropertyOp34
 70
     1
102
RTVSPropertyOp35
 70
     1
102
RTVSPropertyOp36
 70
     1
102
RTVSPropertyOp37
 70
     1
102
RTVSPropertyOp38
 70
     1
102
RTVSPropertyOp39
 70
     1
102
RTVSPropertyOp40
 70
     1
102
RTVSPropertyOp41
 70
     1
102
RTVSPropertyOp42
 70
     1
102
RTVSPropertyOp43
 70
     1
102
RTVSPropertyOp44
 70
     1
102
RTVSPropertyOp45
 70
     1
102
RTVSPropertyOp46
 70
     1
102
RTVSPropertyOp47
 70
     1
102
RTVSPropertyOp48
 70
     1
102
RTVSPropertyOp49
 70
     1
102
RTVSPropertyOp50
 70
     1
102
RTVSPropertyOp51
 70
     0
102
RTVSPropertyOp52
 70
     0
102
RTVSPropertyOp53
 70
     1
102
RTVSPropertyOp54
 70
     1
102
RTVSPropertyOp55
 70
     1
102
RTVSPropertyOp56
 70
     1
102
RTVSPropertyOp57
 70
     1
102
RTVSPropertyOp58
 70
     1
102
RTVSPropertyOp59
 70
     1
102
RTVSPropertyOp60
 70
     1
102
RTVSPropertyOp61
 70
     1
102
RTVSPropertyOp62
 70
     1
  0
XRECORD
  5
25C6
102
{ACAD_REACTORS
330
25C5
102
}
330
25C5
100
AcDbXrecord
280
     1
102
RTVSPost2010Prop28
280
     0
102
RTVSPost2010PropOp28
 70
     1
102
RTVSPost2010Prop29
280
     1
102
RTVSPost2010PropOp29
 70
     1
102
RTVSPost2010Prop30
280
     1
102
RTVSPost2010PropOp30
 70
     1
102
RTVSPost2010Prop31
280
     0
102
RTVSPost2010PropOp31
 70
     1
102
RTVSPost2010Prop32
280
     0
102
RTVSPost2010PropOp32
 70
     1
102
RTVSPost2010Prop33
280
     0
102
RTVSPost2010PropOp33
 70
     1
102
RTVSPost2010Prop34
280
     0
102
RTVSPost2010PropOp34
 70
     1
102
RTVSPost2010Prop35
280
     0
102
RTVSPost2010PropOp35
 70
     1
102
RTVSPost2010Prop36
280
     0
102
RTVSPost2010PropOp36
 70
     1
102
RTVSPost2010Prop37
 90
       50
102
RTVSPost2010PropOp37
 70
     1
102
RTVSPost2010Prop38
140
0.0
102
RTVSPost2010PropOp38
 70
     1
102
RTVSPost2010Prop39
140
1.0
102
RTVSPost2010PropOp39
 70
     1
102
RTVSPost2010Prop40
 90
        0
102
RTVSPost2010PropOp40
 70
     1
102
RTVSPost2010Prop41ColorIndex
 90
       18
102
RTVSPost2010Prop41ColorRGB
 90
        0
102
RTVSPost2010PropOp41
 70
     1
102
RTVSPost2010Prop42
 90
       50
102
RTVSPost2010PropOp42
 70
     1
102
RTVSPost2010Prop43
 90
        3
102
RTVSPost2010PropOp43
 70
     1
102
RTVSPost2010Prop44ColorIndex
 90
        5
102
RTVSPost2010Prop44ColorRGB
 90
      255
102
RTVSPost2010PropOp44
 70
     1
102
RTVSPost2010Prop45
280
     0
102
RTVSPost2010PropOp45
 70
     1
102
RTVSPost2010Prop46
 90
       50
102
RTVSPost2010PropOp46
 70
     1
102
RTVSPost2010Prop47
 90
       50
102
RTVSPost2010PropOp47
 70
     1
102
RTVSPost2010Prop48
 90
       50
102
RTVSPost2010PropOp48
 70
     1
102
RTVSPost2010Prop49
280
     0
102
RTVSPost2010PropOp49
 70
     1
102
RTVSPost2010Prop50
 90
       50
102
RTVSPost2010PropOp50
 70
     1
102
RTVSPost2010Prop51ColorIndex
 90
      256
102
RTVSPost2010Prop51ColorRGB
 90
-16777216
102
RTVSPost2010PropOp51
 70
     0
102
RTVSPost2010Prop52
140
1.0
102
RTVSPost2010PropOp52
 70
     0
102
RTVSPost2010Prop53
 90
        2
102
RTVSPost2010PropOp53
 70
     1
102
RTVSPost2010Prop54
  1
strokes_ogs.tif
102
RTVSPost2010PropOp54
 70
     1
102
RTVSPost2010Prop55
280
     0
102
RTVSPost2010PropOp55
 70
     1
102
RTVSPost2010Prop56
140
1.0
102
RTVSPost2010PropOp56
 70
     1
102
RTVSPost2010Prop57
140
1.0
102
RTVSPost2010PropOp57
 70
     1
102
RTVSPropertyOp0
 70
     1
102
RTVSPropertyOp1
 70
     1
102
RTVSPropertyOp2
 70
     1
102
RTVSPropertyOp3
 70
     1
102
RTVSPropertyOp4
 70
     1
102
RTVSPropertyOp5
 70
     1
102
RTVSPropertyOp6
 70
     1
102
RTVSPropertyOp7
 70
     1
102
RTVSPropertyOp8
 70
     1
102
RTVSPropertyOp9
 70
     1
102
RTVSPropertyOp10
 70
     1
102
RTVSPropertyOp11
 70
     1
102
RTVSPropertyOp12
 70
     1
102
RTVSPropertyOp13
 70
     1
102
RTVSPropertyOp14
 70
     1
102
RTVSPropertyOp15
 70
     1
102
RTVSPropertyOp16
 70
     1
102
RTVSPropertyOp17
 70
     1
102
RTVSPropertyOp18
 70
     1
102
RTVSPropertyOp19
 70
     1
102
RTVSPropertyOp20
 70
     1
102
RTVSPropertyOp21
 70
     1
102
RTVSPropertyOp22
 70
     1
102
RTVSPropertyOp23
 70
     1
102
RTVSPropertyOp24
 70
     1
102
RTVSPropertyOp25
 70
     1
102
RTVSPropertyOp26
 70
     1
102
RTVSPropertyOp27
 70
     1
102
RTVSPropertyOp28
 70
     1
102
RTVSPropertyOp29
 70
     1
102
RTVSPropertyOp30
 70
     1
102
RTVSPropertyOp31
 70
     1
102
RTVSPropertyOp32
 70
     1
102
RTVSPropertyOp33
 70
     1
102
RTVSPropertyOp34
 70
     1
102
RTVSPropertyOp35
 70
     1
102
RTVSPropertyOp36
 70
     1
102
RTVSPropertyOp37
 70
     1
102
RTVSPropertyOp38
 70
     1
102
RTVSPropertyOp39
 70
     1
102
RTVSPropertyOp40
 70
     1
102
RTVSPropertyOp41
 70
     1
102
RTVSPropertyOp42
 70
     1
102
RTVSPropertyOp43
 70
     1
102
RTVSPropertyOp44
 70
     1
102
RTVSPropertyOp45
 70
     1
102
RTVSPropertyOp46
 70
     1
102
RTVSPropertyOp47
 70
     1
102
RTVSPropertyOp48
 70
     1
102
RTVSPropertyOp49
 70
     1
102
RTVSPropertyOp50
 70
     1
102
RTVSPropertyOp51
 70
     0
102
RTVSPropertyOp52
 70
     0
102
RTVSPropertyOp53
 70
     1
102
RTVSPropertyOp54
 70
     1
102
RTVSPropertyOp55
 70
     1
102
RTVSPropertyOp56
 70
     1
102
RTVSPropertyOp57
 70
     1
102
RTVSPropertyOp58
 70
     1
102
RTVSPropertyOp59
 70
     1
102
RTVSPropertyOp60
 70
     1
102
RTVSPropertyOp61
 70
     1
102
RTVSPropertyOp62
 70
     1
  0
XRECORD
  5
25DE
102
{ACAD_REACTORS
330
25DD
102
}
330
25DD
100
AcDbXrecord
280
     1
102
RTVSPost2010Prop28
280
     0
102
RTVSPost2010PropOp28
 70
     1
102
RTVSPost2010Prop29
280
     1
102
RTVSPost2010PropOp29
 70
     1
102
RTVSPost2010Prop30
280
     1
102
RTVSPost2010PropOp30
 70
     1
102
RTVSPost2010Prop31
280
     0
102
RTVSPost2010PropOp31
 70
     1
102
RTVSPost2010Prop32
280
     0
102
RTVSPost2010PropOp32
 70
     1
102
RTVSPost2010Prop33
280
     0
102
RTVSPost2010PropOp33
 70
     1
102
RTVSPost2010Prop34
280
     0
102
RTVSPost2010PropOp34
 70
     1
102
RTVSPost2010Prop35
280
     0
102
RTVSPost2010PropOp35
 70
     1
102
RTVSPost2010Prop36
280
     0
102
RTVSPost2010PropOp36
 70
     1
102
RTVSPost2010Prop37
 90
       50
102
RTVSPost2010PropOp37
 70
     1
102
RTVSPost2010Prop38
140
0.0
102
RTVSPost2010PropOp38
 70
     1
102
RTVSPost2010Prop39
140
1.0
102
RTVSPost2010PropOp39
 70
     1
102
RTVSPost2010Prop40
 90
        0
102
RTVSPost2010PropOp40
 70
     1
102
RTVSPost2010Prop41ColorIndex
 90
       18
102
RTVSPost2010Prop41ColorRGB
 90
        0
102
RTVSPost2010PropOp41
 70
     1
102
RTVSPost2010Prop42
 90
       50
102
RTVSPost2010PropOp42
 70
     1
102
RTVSPost2010Prop43
 90
        3
102
RTVSPost2010PropOp43
 70
     1
102
RTVSPost2010Prop44ColorIndex
 90
        5
102
RTVSPost2010Prop44ColorRGB
 90
      255
102
RTVSPost2010PropOp44
 70
     1
102
RTVSPost2010Prop45
280
     0
102
RTVSPost2010PropOp45
 70
     1
102
RTVSPost2010Prop46
 90
       50
102
RTVSPost2010PropOp46
 70
     1
102
RTVSPost2010Prop47
 90
       50
102
RTVSPost2010PropOp47
 70
     1
102
RTVSPost2010Prop48
 90
       50
102
RTVSPost2010PropOp48
 70
     1
102
RTVSPost2010Prop49
280
     0
102
RTVSPost2010PropOp49
 70
     1
102
RTVSPost2010Prop50
 90
       50
102
RTVSPost2010PropOp50
 70
     1
102
RTVSPost2010Prop51ColorIndex
 90
      256
102
RTVSPost2010Prop51ColorRGB
 90
-16777216
102
RTVSPost2010PropOp51
 70
     0
102
RTVSPost2010Prop52
140
1.0
102
RTVSPost2010PropOp52
 70
     0
102
RTVSPost2010Prop53
 90
        2
102
RTVSPost2010PropOp53
 70
     1
102
RTVSPost2010Prop54
  1
strokes_ogs.tif
102
RTVSPost2010PropOp54
 70
     1
102
RTVSPost2010Prop55
280
     0
102
RTVSPost2010PropOp55
 70
     1
102
RTVSPost2010Prop56
140
1.0
102
RTVSPost2010PropOp56
 70
     1
102
RTVSPost2010Prop57
140
1.0
102
RTVSPost2010PropOp57
 70
     1
102
RTVSPropertyOp0
 70
     1
102
RTVSPropertyOp1
 70
     1
102
RTVSPropertyOp2
 70
     1
102
RTVSPropertyOp3
 70
     1
102
RTVSPropertyOp4
 70
     1
102
RTVSPropertyOp5
 70
     1
102
RTVSPropertyOp6
 70
     1
102
RTVSPropertyOp7
 70
     1
102
RTVSPropertyOp8
 70
     1
102
RTVSPropertyOp9
 70
     1
102
RTVSPropertyOp10
 70
     1
102
RTVSPropertyOp11
 70
     1
102
RTVSPropertyOp12
 70
     1
102
RTVSPropertyOp13
 70
     1
102
RTVSPropertyOp14
 70
     1
102
RTVSPropertyOp15
 70
     1
102
RTVSPropertyOp16
 70
     1
102
RTVSPropertyOp17
 70
     1
102
RTVSPropertyOp18
 70
     1
102
RTVSPropertyOp19
 70
     1
102
RTVSPropertyOp20
 70
     1
102
RTVSPropertyOp21
 70
     1
102
RTVSPropertyOp22
 70
     1
102
RTVSPropertyOp23
 70
     1
102
RTVSPropertyOp24
 70
     1
102
RTVSPropertyOp25
 70
     1
102
RTVSPropertyOp26
 70
     1
102
RTVSPropertyOp27
 70
     1
102
RTVSPropertyOp28
 70
     1
102
RTVSPropertyOp29
 70
     1
102
RTVSPropertyOp30
 70
     1
102
RTVSPropertyOp31
 70
     1
102
RTVSPropertyOp32
 70
     1
102
RTVSPropertyOp33
 70
     1
102
RTVSPropertyOp34
 70
     1
102
RTVSPropertyOp35
 70
     1
102
RTVSPropertyOp36
 70
     1
102
RTVSPropertyOp37
 70
     1
102
RTVSPropertyOp38
 70
     1
102
RTVSPropertyOp39
 70
     1
102
RTVSPropertyOp40
 70
     1
102
RTVSPropertyOp41
 70
     1
102
RTVSPropertyOp42
 70
     1
102
RTVSPropertyOp43
 70
     1
102
RTVSPropertyOp44
 70
     1
102
RTVSPropertyOp45
 70
     1
102
RTVSPropertyOp46
 70
     1
102
RTVSPropertyOp47
 70
     1
102
RTVSPropertyOp48
 70
     1
102
RTVSPropertyOp49
 70
     1
102
RTVSPropertyOp50
 70
     1
102
RTVSPropertyOp51
 70
     0
102
RTVSPropertyOp52
 70
     0
102
RTVSPropertyOp53
 70
     1
102
RTVSPropertyOp54
 70
     1
102
RTVSPropertyOp55
 70
     1
102
RTVSPropertyOp56
 70
     1
102
RTVSPropertyOp57
 70
     1
102
RTVSPropertyOp58
 70
     1
102
RTVSPropertyOp59
 70
     1
102
RTVSPropertyOp60
 70
     1
102
RTVSPropertyOp61
 70
     1
102
RTVSPropertyOp62
 70
     1
  0
XRECORD
  5
25E6
102
{ACAD_REACTORS
330
25E5
102
}
330
25E5
100
AcDbXrecord
280
     1
102
RTVSPost2010Prop28
280
     0
102
RTVSPost2010PropOp28
 70
     1
102
RTVSPost2010Prop29
280
     1
102
RTVSPost2010PropOp29
 70
     1
102
RTVSPost2010Prop30
280
     1
102
RTVSPost2010PropOp30
 70
     1
102
RTVSPost2010Prop31
280
     0
102
RTVSPost2010PropOp31
 70
     1
102
RTVSPost2010Prop32
280
     0
102
RTVSPost2010PropOp32
 70
     1
102
RTVSPost2010Prop33
280
     0
102
RTVSPost2010PropOp33
 70
     1
102
RTVSPost2010Prop34
280
     0
102
RTVSPost2010PropOp34
 70
     1
102
RTVSPost2010Prop35
280
     0
102
RTVSPost2010PropOp35
 70
     1
102
RTVSPost2010Prop36
280
     0
102
RTVSPost2010PropOp36
 70
     1
102
RTVSPost2010Prop37
 90
       50
102
RTVSPost2010PropOp37
 70
     1
102
RTVSPost2010Prop38
140
0.0
102
RTVSPost2010PropOp38
 70
     1
102
RTVSPost2010Prop39
140
1.0
102
RTVSPost2010PropOp39
 70
     1
102
RTVSPost2010Prop40
 90
        0
102
RTVSPost2010PropOp40
 70
     1
102
RTVSPost2010Prop41ColorIndex
 90
       18
102
RTVSPost2010Prop41ColorRGB
 90
        0
102
RTVSPost2010PropOp41
 70
     1
102
RTVSPost2010Prop42
 90
       50
102
RTVSPost2010PropOp42
 70
     1
102
RTVSPost2010Prop43
 90
        3
102
RTVSPost2010PropOp43
 70
     1
102
RTVSPost2010Prop44ColorIndex
 90
        5
102
RTVSPost2010Prop44ColorRGB
 90
      255
102
RTVSPost2010PropOp44
 70
     1
102
RTVSPost2010Prop45
280
     0
102
RTVSPost2010PropOp45
 70
     1
102
RTVSPost2010Prop46
 90
       50
102
RTVSPost2010PropOp46
 70
     1
102
RTVSPost2010Prop47
 90
       50
102
RTVSPost2010PropOp47
 70
     1
102
RTVSPost2010Prop48
 90
       50
102
RTVSPost2010PropOp48
 70
     1
102
RTVSPost2010Prop49
280
     0
102
RTVSPost2010PropOp49
 70
     1
102
RTVSPost2010Prop50
 90
       50
102
RTVSPost2010PropOp50
 70
     1
102
RTVSPost2010Prop51ColorIndex
 90
      256
102
RTVSPost2010Prop51ColorRGB
 90
-16777216
102
RTVSPost2010PropOp51
 70
     0
102
RTVSPost2010Prop52
140
1.0
102
RTVSPost2010PropOp52
 70
     0
102
RTVSPost2010Prop53
 90
        2
102
RTVSPost2010PropOp53
 70
     1
102
RTVSPost2010Prop54
  1
strokes_ogs.tif
102
RTVSPost2010PropOp54
 70
     1
102
RTVSPost2010Prop55
280
     0
102
RTVSPost2010PropOp55
 70
     1
102
RTVSPost2010Prop56
140
1.0
102
RTVSPost2010PropOp56
 70
     1
102
RTVSPost2010Prop57
140
1.0
102
RTVSPost2010PropOp57
 70
     1
102
RTVSPropertyOp0
 70
     1
102
RTVSPropertyOp1
 70
     1
102
RTVSPropertyOp2
 70
     1
102
RTVSPropertyOp3
 70
     1
102
RTVSPropertyOp4
 70
     1
102
RTVSPropertyOp5
 70
     1
102
RTVSPropertyOp6
 70
     1
102
RTVSPropertyOp7
 70
     1
102
RTVSPropertyOp8
 70
     1
102
RTVSPropertyOp9
 70
     1
102
RTVSPropertyOp10
 70
     1
102
RTVSPropertyOp11
 70
     1
102
RTVSPropertyOp12
 70
     1
102
RTVSPropertyOp13
 70
     1
102
RTVSPropertyOp14
 70
     1
102
RTVSPropertyOp15
 70
     1
102
RTVSPropertyOp16
 70
     1
102
RTVSPropertyOp17
 70
     1
102
RTVSPropertyOp18
 70
     1
102
RTVSPropertyOp19
 70
     1
102
RTVSPropertyOp20
 70
     1
102
RTVSPropertyOp21
 70
     1
102
RTVSPropertyOp22
 70
     1
102
RTVSPropertyOp23
 70
     1
102
RTVSPropertyOp24
 70
     1
102
RTVSPropertyOp25
 70
     1
102
RTVSPropertyOp26
 70
     1
102
RTVSPropertyOp27
 70
     1
102
RTVSPropertyOp28
 70
     1
102
RTVSPropertyOp29
 70
     1
102
RTVSPropertyOp30
 70
     1
102
RTVSPropertyOp31
 70
     1
102
RTVSPropertyOp32
 70
     1
102
RTVSPropertyOp33
 70
     1
102
RTVSPropertyOp34
 70
     1
102
RTVSPropertyOp35
 70
     1
102
RTVSPropertyOp36
 70
     1
102
RTVSPropertyOp37
 70
     1
102
RTVSPropertyOp38
 70
     1
102
RTVSPropertyOp39
 70
     1
102
RTVSPropertyOp40
 70
     1
102
RTVSPropertyOp41
 70
     1
102
RTVSPropertyOp42
 70
     1
102
RTVSPropertyOp43
 70
     1
102
RTVSPropertyOp44
 70
     1
102
RTVSPropertyOp45
 70
     1
102
RTVSPropertyOp46
 70
     1
102
RTVSPropertyOp47
 70
     1
102
RTVSPropertyOp48
 70
     1
102
RTVSPropertyOp49
 70
     1
102
RTVSPropertyOp50
 70
     1
102
RTVSPropertyOp51
 70
     0
102
RTVSPropertyOp52
 70
     0
102
RTVSPropertyOp53
 70
     1
102
RTVSPropertyOp54
 70
     1
102
RTVSPropertyOp55
 70
     1
102
RTVSPropertyOp56
 70
     1
102
RTVSPropertyOp57
 70
     1
102
RTVSPropertyOp58
 70
     1
102
RTVSPropertyOp59
 70
     1
102
RTVSPropertyOp60
 70
     1
102
RTVSPropertyOp61
 70
     1
102
RTVSPropertyOp62
 70
     1
  0
ENDSEC
  0
EOF
