  0
SECTION
  2
HEADER
  9
$ACADVER
  1
AC1015
  9
$ACADMAINTVER
 70
    20
  9
$DWGCODEPAGE
  3
ANSI_1252
  9
$INSBASE
 10
0.0
 20
0.0
 30
0.0
  9
$EXTMIN
 10
82.56114386599643
 20
173.5682692234036
 30
-0.0000000349181948
  9
$EXTMAX
 10
88.86912646967585
 20
176.5208444098487
 30
0.0000000814935747
  9
$LIMMIN
 10
-170.0
 20
-170.0
  9
$LIMMAX
 10
519.0
 20
260.0
  9
$ORTHOMODE
 70
     1
  9
$REGENMODE
 70
     1
  9
$FILLMODE
 70
     1
  9
$QTEXTMODE
 70
     0
  9
$MIRRTEXT
 70
     0
  9
$LTSCALE
 40
1.0
  9
$ATTMODE
 70
     1
  9
$TEXTSIZE
 40
0.2
  9
$TRACEWID
 40
0.05
  9
$TEXTSTYLE
  7
STANDARD
  9
$CLAYER
  8
1
  9
$CELTYPE
  6
BYLAYER
  9
$CECOLOR
 62
   256
  9
$CELTSCALE
 40
1.0
  9
$DISPSILH
 70
     0
  9
$DIMSCALE
 40
1.0
  9
$DIMASZ
 40
0.098425
  9
$DIMEXO
 40
0.03937
  9
$DIMDLI
 40
0.5905510000000001
  9
$DIMRND
 40
0.0
  9
$DIMDLE
 40
0.0
  9
$DIMEXE
 40
0.07874
  9
$DIMTP
 40
0.0
  9
$DIMTM
 40
0.000000001
  9
$DIMTXT
 40
0.1377952755905512
  9
$DIMCEN
 40
0.003543
  9
$DIMTSZ
 40
0.0
  9
$DIMTOL
 70
     0
  9
$DIMLIM
 70
     0
  9
$DIMTIH
 70
     0
  9
$DIMTOH
 70
     0
  9
$DIMSE1
 70
     0
  9
$DIMSE2
 70
     0
  9
$DIMTAD
 70
     1
  9
$DIMZIN
 70
    11
  9
$DIMBLK
  1

  9
$DIMASO
 70
     1
  9
$DIMSHO
 70
     1
  9
$DIMPOST
  1

  9
$DIMAPOST
  1

  9
$DIMALT
 70
     0
  9
$DIMALTD
 70
     2
  9
$DIMALTF
 40
25.4
  9
$DIMLFAC
 40
1.0
  9
$DIMTOFL
 70
     1
  9
$DIMTVP
 40
0.0
  9
$DIMTIX
 70
     0
  9
$DIMSOXD
 70
     0
  9
$DIMSAH
 70
     0
  9
$DIMBLK1
  1

  9
$DIMBLK2
  1

  9
$DIMSTYLE
  2
AM_DIN
  9
$DIMCLRD
 70
     0
  9
$DIMCLRE
 70
     0
  9
$DIMCLRT
 70
     0
  9
$DIMTFAC
 40
0.7071069999999999
  9
$DIMGAP
 40
0.03937
  9
$DIMJUST
 70
     0
  9
$DIMSD1
 70
     0
  9
$DIMSD2
 70
     0
  9
$DIMTOLJ
 70
     1
  9
$DIMTZIN
 70
     8
  9
$DIMALTZ
 70
     9
  9
$DIMALTTZ
 70
     8
  9
$DIMUPT
 70
     0
  9
$DIMDEC
 70
     3
  9
$DIMTDEC
 70
     3
  9
$DIMALTU
 70
     2
  9
$DIMALTTD
 70
     2
  9
$DIMTXSTY
  7
STANDARD 3.5 mm
  9
$DIMAUNIT
 70
     0
  9
$DIMADEC
 70
     0
  9
$DIMALTRND
 40
0.0
  9
$DIMAZIN
 70
     2
  9
$DIMDSEP
 70
    46
  9
$DIMATFIT
 70
     3
  9
$DIMFRAC
 70
     0
  9
$DIMLDRBLK
  1

  9
$DIMLUNIT
 70
     3
  9
$DIMLWD
 70
    -1
  9
$DIMLWE
 70
    -2
  9
$DIMTMOVE
 70
     0
  9
$LUNITS
 70
     2
  9
$LUPREC
 70
     4
  9
$SKETCHINC
 40
0.1
  9
$FILLETRAD
 40
0.0
  9
$AUNITS
 70
     0
  9
$AUPREC
 70
     0
  9
$MENU
  1
c:\tdm21\cad\caduti13\tdm13
  9
$ELEVATION
 40
0.0
  9
$PELEVATION
 40
0.0
  9
$THICKNESS
 40
0.0
  9
$LIMCHECK
 70
     0
  9
$CHAMFERA
 40
0.0
  9
$CHAMFERB
 40
0.0
  9
$CHAMFERC
 40
0.0
  9
$CHAMFERD
 40
0.0
  9
$SKPOLY
 70
     0
  9
$TDCREATE
 40
2457637.384167211
  9
$TDUCREATE
 40
2457637.155000544
  9
$TDUPDATE
 40
2457658.365422998
  9
$TDUUPDATE
 40
2457658.136256331
  9
$TDINDWG
 40
0.0186239468
  9
$TDUSRTIMER
 40
0.0186218519
  9
$USRTIMER
 70
     1
  9
$ANGBASE
 50
0.0
  9
$ANGDIR
 70
     0
  9
$PDMODE
 70
     1
  9
$PDSIZE
 40
0.0
  9
$PLINEWID
 40
0.0
  9
$SPLFRAME
 70
     0
  9
$SPLINETYPE
 70
     6
  9
$SPLINESEGS
 70
     8
  9
$HANDSEED
  5
1A9F
  9
$SURFTAB1
 70
     6
  9
$SURFTAB2
 70
     6
  9
$SURFTYPE
 70
     6
  9
$SURFU
 70
     6
  9
$SURFV
 70
     6
  9
$UCSBASE
  2

  9
$UCSNAME
  2

  9
$UCSORG
 10
87.03750166674394
 20
176.1245640307611
 30
0.0
  9
$UCSXDIR
 10
1.0
 20
0.0
 30
0.0
  9
$UCSYDIR
 10
0.0
 20
1.0
 30
0.0
  9
$UCSORTHOREF
  2

  9
$UCSORTHOVIEW
 70
     0
  9
$UCSORGTOP
 10
0.0
 20
0.0
 30
0.0
  9
$UCSORGBOTTOM
 10
0.0
 20
0.0
 30
0.0
  9
$UCSORGLEFT
 10
0.0
 20
0.0
 30
0.0
  9
$UCSORGRIGHT
 10
0.0
 20
0.0
 30
0.0
  9
$UCSORGFRONT
 10
0.0
 20
0.0
 30
0.0
  9
$UCSORGBACK
 10
0.0
 20
0.0
 30
0.0
  9
$PUCSBASE
  2

  9
$PUCSNAME
  2

  9
$PUCSORG
 10
0.0
 20
0.0
 30
0.0
  9
$PUCSXDIR
 10
1.0
 20
0.0
 30
0.0
  9
$PUCSYDIR
 10
0.0
 20
1.0
 30
0.0
  9
$PUCSORTHOREF
  2

  9
$PUCSORTHOVIEW
 70
     0
  9
$PUCSORGTOP
 10
0.0
 20
0.0
 30
0.0
  9
$PUCSORGBOTTOM
 10
0.0
 20
0.0
 30
0.0
  9
$PUCSORGLEFT
 10
0.0
 20
0.0
 30
0.0
  9
$PUCSORGRIGHT
 10
0.0
 20
0.0
 30
0.0
  9
$PUCSORGFRONT
 10
0.0
 20
0.0
 30
0.0
  9
$PUCSORGBACK
 10
0.0
 20
0.0
 30
0.0
  9
$USERI1
 70
     0
  9
$USERI2
 70
     0
  9
$USERI3
 70
     0
  9
$USERI4
 70
     0
  9
$USERI5
 70
     0
  9
$USERR1
 40
0.0
  9
$USERR2
 40
0.0
  9
$USERR3
 40
0.0
  9
$USERR4
 40
0.0
  9
$USERR5
 40
0.0
  9
$WORLDVIEW
 70
     1
  9
$SHADEDGE
 70
     3
  9
$SHADEDIF
 70
    70
  9
$TILEMODE
 70
     1
  9
$MAXACTVP
 70
    64
  9
$PINSBASE
 10
0.0
 20
0.0
 30
0.0
  9
$PLIMCHECK
 70
     0
  9
$PEXTMIN
 10
0.0
 20
0.0
 30
0.0
  9
$PEXTMAX
 10
297.0
 20
210.0
 30
0.0
  9
$PLIMMIN
 10
-6.352894443934568
 20
-4.429974890987324
  9
$PLIMMAX
 10
303.3743962297308
 20
214.4139451502602
  9
$UNITMODE
 70
     0
  9
$VISRETAIN
 70
     0
  9
$PLINEGEN
 70
     0
  9
$PSLTSCALE
 70
     1
  9
$TREEDEPTH
 70
  3020
  9
$CMLSTYLE
  2
STANDARD
  9
$CMLJUST
 70
     0
  9
$CMLSCALE
 40
1.0
  9
$PROXYGRAPHICS
 70
     1
  9
$MEASUREMENT
 70
     0
  9
$CELWEIGHT
370
    -1
  9
$ENDCAPS
280
     0
  9
$JOINSTYLE
280
     0
  9
$LWDISPLAY
290
     0
  9
$INSUNITS
 70
     0
  9
$HYPERLINKBASE
  1
HTTP://WWW.SECOTOOLS.COM/
  9
$STYLESHEET
  1
MONOCHROME.CTB
  9
$XEDIT
290
     1
  9
$CEPSNTYPE
380
     0
  9
$PSTYLEMODE
290
     1
  9
$FINGERPRINTGUID
  2
{CDAFC15F-697A-4817-8B0E-F19D5A0EA7DA}
  9
$VERSIONGUID
  2
{D0947629-4599-499E-A9F8-5F939915C730}
  9
$EXTNAMES
290
     1
  9
$PSVPSCALE
 40
0.0
  9
$OLESTARTUP
290
     0
  0
ENDSEC
  0
SECTION
  2
CLASSES
  0
CLASS
  1
ACDBDICTIONARYWDFLT
  2
AcDbDictionaryWithDefault
  3
ObjectDBX Classes
 90
        0
280
     0
281
     0
  0
CLASS
  1
ACDBPLACEHOLDER
  2
AcDbPlaceHolder
  3
ObjectDBX Classes
 90
        0
280
     0
281
     0
  0
CLASS
  1
LAYOUT
  2
AcDbLayout
  3
ObjectDBX Classes
 90
        0
280
     0
281
     0
  0
CLASS
  1
DICTIONARYVAR
  2
AcDbDictionaryVar
  3
ObjectDBX Classes
 90
        0
280
     0
281
     0
  0
CLASS
  1
TABLESTYLE
  2
AcDbTableStyle
  3
ObjectDBX Classes
 90
     4095
280
     0
281
     0
  0
CLASS
  1
MATERIAL
  2
AcDbMaterial
  3
ObjectDBX Classes
 90
     1153
280
     0
281
     0
  0
CLASS
  1
VISUALSTYLE
  2
AcDbVisualStyle
  3
ObjectDBX Classes
 90
     4095
280
     0
281
     0
  0
CLASS
  1
SCALE
  2
AcDbScale
  3
ObjectDBX Classes
 90
     1153
280
     0
281
     0
  0
CLASS
  1
MLEADERSTYLE
  2
AcDbMLeaderStyle
  3
ACDB_MLEADERSTYLE_CLASS
 90
     4095
280
     0
281
     0
  0
CLASS
  1
ACME_DOCUMENT
  2
AcMeDbDoc
  3
AcMeServices
 90
     1024
280
     0
281
     0
  0
CLASS
  1
AMGSETTINGSOBJ
  2
AmgSettingsObj
  3
"AcadM|Product Description: AutoCAD Mechanical|Company: Autodesk, Inc."
 90
     1024
280
     0
281
     0
  0
CLASS
  1
ACMESCOPE
  2
AcMeScope
  3
AcMeServices
 90
     1024
280
     0
281
     0
  0
CLASS
  1
ACMECOMMANDHISTORY
  2
AcMeCommandHistory
  3
AcMeServices
 90
     1024
280
     0
281
     0
  0
CLASS
  1
ACIMSYSVARMAN
  2
AcImSysVarManager
  3
AcMeServices
 90
     1024
280
     0
281
     0
  0
CLASS
  1
ACIMINTSYSVAR
  2
AcImIntSysVar
  3
AcMeServices
 90
     1024
280
     0
281
     0
  0
CLASS
  1
ACMEDRAWINGMAN
  2
AcMeDrawingMan
  3
AcMeServices
 90
    33792
280
     0
281
     0
  0
CLASS
  1
ACMEVIEW
  2
AcMeView
  3
AcMeServices
 90
    33792
280
     0
281
     0
  0
CLASS
  1
ACDBENTITYCACHE
  2
AcMeEntityCache
  3
AcMeServices
 90
     1024
280
     0
281
     0
  0
CLASS
  1
GSMANAGER
  2
AcMeGSManager
  3
AcMeServices
 90
    33792
280
     0
281
     0
  0
CLASS
  1
AMDTINTERNALREACTOR
  2
AmdtInternalReactor
  3
AcMeServices
 90
    33792
280
     0
281
     0
  0
CLASS
  1
ACMESTATEMGR
  2
AcMeStateMgr
  3
AcMeServices
 90
     1024
280
     0
281
     0
  0
CLASS
  1
ACGREFMASTER
  2
AcGrefMaster
  3
AcAttribServices
 90
     1024
280
     0
281
     0
  0
CLASS
  1
AM_DRAWING_MGR
  2
AcDmDwgMgr
  3
AcMechDwgViewMgmt
 90
    33792
280
     0
281
     0
  0
CLASS
  1
AM_DWG_DOCUMENT
  2
AcDmDwgDocument
  3
AcMechDwgViewMgmt
 90
    33792
280
     0
281
     0
  0
CLASS
  1
AM_DWG_SHEET
  2
AcDmSheet
  3
AcMechDwgViewMgmt
 90
    33792
280
     0
281
     0
  0
CLASS
  1
AM_VIEWDIMPARMAP
  2
AcDmViewDimParMap
  3
AcMechDwgViewMgmt
 90
    33792
280
     0
281
     0
  0
CLASS
  1
ACIMREALSYSVAR
  2
AcImRealSysVar
  3
AcMeServices
 90
    33792
280
     0
281
     0
  0
CLASS
  1
AM_DWGMGR_NAME
  2
AcDmDwgMgrName
  3
AcMechDwgViewMgmt
 90
    33792
280
     0
281
     0
  0
CLASS
  1
ACME_DATABASE
  2
AcMeDbDatabase
  3
AcMeServices
 90
     1024
280
     0
281
     0
  0
CLASS
  1
ACRFINSADJUSTERMGR
  2
AcRfInsAdjusterMgr
  3
AcMeServices
 90
     1024
280
     0
281
     0
  0
CLASS
  1
ACGREFACADMASTER
  2
AcGrefacadMaster
  3
AcGrefServices
 90
     1024
280
     0
281
     0
  0
CLASS
  1
AMDTMENUSTATEMGR
  2
AmdtMenuStateMgr
  3
McadcomServices
 90
     1024
280
     0
281
     0
  0
CLASS
  1
AMDTMCOMMENUSTATE
  2
AmdtMcomMenuState
  3
McadcomServices
 90
     1024
280
     0
281
     0
  0
CLASS
  1
AMIMASTER
  2
AmiMaster
  3
AmiServices
 90
     1024
280
     0
281
     0
  0
CLASS
  1
MAPIAMMOUDLE
  2
MApiAmModule
  3
MApiAmServices
 90
     1024
280
     0
281
     0
  0
CLASS
  1
ACIMSTRSYSVAR
  2
AcImStrSysVar
  3
AcMeServices
 90
     1024
280
     0
281
     0
  0
CLASS
  1
AMDTADMENUSTATE
  2
AmdtAdMenuState
  3
DesignerServices
 90
    33792
280
     0
281
     0
  0
CLASS
  1
ADAPPL
  2
AcAdAppl
  3
DesignerAssemblies
 90
    33792
280
     0
281
     0
  0
CLASS
  1
DEPMGR
  2
AcAdDepMgr
  3
DesignerAssemblies
 90
    33792
280
     0
281
     0
  0
CLASS
  1
PARAMMGR
  2
AcAdParamMgr
  3
DesignerAssemblies
 90
    33792
280
     0
281
     0
  0
CLASS
  1
PARAMSCOPE
  2
AcAdParamScope
  3
DesignerAssemblies
 90
    33792
280
     0
281
     0
  0
CLASS
  1
NAMEDAPPL
  2
AcAdNamedAppl
  3
DesignerAssemblies
 90
    33792
280
     0
281
     0
  0
CLASS
  1
AMDTDMMENUSTATE
  2
AmdtDmMenuState
  3
AcMechDwgViewMgmt
 90
    33792
280
     0
281
     0
  0
CLASS
  1
AMDTAMMENUSTATE
  2
AmdtAmMenuState
  3
DesignerAssemblies
 90
     1024
280
     0
281
     0
  0
CLASS
  1
ACAMPROJECT
  2
AcAmProject
  3
DesignerAssemblies
 90
     1024
280
     0
281
     0
  0
CLASS
  1
ACAMGRCOMPDEF
  2
AcAmGrCompDef
  3
DesignerAssemblies
 90
     1024
280
     0
281
     0
  0
CLASS
  1
ACCMCONTEXT
  2
AcCmContext
  3
DesignerAssemblies
 90
    33792
280
     0
281
     0
  0
CLASS
  1
ACAMCOMPDEF
  2
AcAmCompDef
  3
DesignerAssemblies
 90
     1024
280
     0
281
     0
  0
CLASS
  1
ACAMCOMPDEFMGR
  2
AcAmCompDefMgr
  3
DesignerAssemblies
 90
     1024
280
     0
281
     0
  0
CLASS
  1
AMCONTEXTMGR
  2
AcAmContextMgr
  3
DesignerAssemblies
 90
     1024
280
     0
281
     0
  0
CLASS
  1
ACAMCONTEXTMODELER
  2
AcAmContextModeler
  3
DesignerAssemblies
 90
     1024
280
     0
281
     0
  0
CLASS
  1
ACMDATADICTIONARY
  2
AcmDataDictionary
  3
"AcmSymBB|Product Description: AutoCAD Mechanical|Company: Autodesk, Inc."
 90
     1024
280
     0
281
     0
  0
CLASS
  1
CATALOGSTATE
  2
AcAmCatalogState
  3
DesignerAssemblies
 90
    33792
280
     0
281
     0
  0
CLASS
  1
ACAMGRCOMPDEFSET
  2
AcAmGrCompDefSet
  3
DesignerAssemblies
 90
     1024
280
     0
281
     0
  0
CLASS
  1
AMDTBROWSERDBTAB
  2
AmdtBrowserDbTab
  3
McadcomServices
 90
     1024
280
     0
281
     0
  0
CLASS
  1
CBROWSERAPPOBJECT
  2
CBrowserAppObject
  3
McadcomServices
 90
     1024
280
     0
281
     0
  0
CLASS
  1
DM_PLACEHOLDER
  2
AcDmSelsetPlaceholder
  3
McadcomServices
 90
     1024
280
     0
281
     0
  0
CLASS
  1
ACMSTANDARDDIN
  2
AcmStandardDIN
  3
"Amdt_StdImp|Product Description: AutoCAD Mechanical|Company: Autodesk, Inc."
 90
    33792
280
     0
281
     0
  0
CLASS
  1
AMGOBJPROPCFG
  2
AmgObjPropCfg
  3
"AmgLay|Product Description: AutoCAD Mechanical|Company: Autodesk, Inc."
 90
     1024
280
     0
281
     0
  0
CLASS
  1
AMDTEDGESTANDARDDIN13715
  2
AmdtEdgeStdDIN13715
  3
"Amdt_StdImp|Product Description: AutoCAD Mechanical|Company: Autodesk, Inc."
 90
    33792
280
     0
281
     0
  0
CLASS
  1
ACMSURFSTANDARDDIN2002
  2
AcmSurfTextStdDIN2002
  3
"Amdt_StdImp|Product Description: AutoCAD Mechanical|Company: Autodesk, Inc."
 90
    33792
280
     0
281
     0
  0
CLASS
  1
ACMFCFSTANDARDDIN
  2
AcmFCFStdDIN
  3
"Amdt_StdImp|Product Description: AutoCAD Mechanical|Company: Autodesk, Inc."
 90
    33792
280
     0
281
     0
  0
CLASS
  1
ACMWELDSTANDARDDIN
  2
AcmWeldingStdDIN
  3
"Amdt_StdImp|Product Description: AutoCAD Mechanical|Company: Autodesk, Inc."
 90
    33792
280
     0
281
     0
  0
CLASS
  1
ACMIDSTANDARDDIN
  2
AcmIdStdDIN
  3
"Amdt_StdImp|Product Description: AutoCAD Mechanical|Company: Autodesk, Inc."
 90
    33792
280
     0
281
     0
  0
CLASS
  1
ACMDATUMSTANDARDDIN
  2
AcmDatumStdDIN
  3
"Amdt_StdImp|Product Description: AutoCAD Mechanical|Company: Autodesk, Inc."
 90
    33792
280
     0
281
     0
  0
CLASS
  1
ACMBOMSTANDARDDIN
  2
AcmBOMStdDIN
  3
"Amdt_StdImp|Product Description: AutoCAD Mechanical|Company: Autodesk, Inc."
 90
    33792
280
     0
281
     0
  0
CLASS
  1
ACMDETAILSTANDARDDIN
  2
AmdtDetailSymStdDIN
  3
"Amdt_StdImp|Product Description: AutoCAD Mechanical|Company: Autodesk, Inc."
 90
    33792
280
     0
281
     0
  0
CLASS
  1
ACMSECTIONSTANDARDDIN
  2
AmdtSectionSymStdDIN
  3
"Amdt_StdImp|Product Description: AutoCAD Mechanical|Company: Autodesk, Inc."
 90
    33792
280
     0
281
     0
  0
CLASS
  1
ACMCENTERLINESTANDARDDIN
  2
AmdtCenterLineStdDIN
  3
"Amdt_StdImp|Product Description: AutoCAD Mechanical|Company: Autodesk, Inc."
 90
    33792
280
     0
281
     0
  0
CLASS
  1
ACMTHREADLINESTANDARDDIN
  2
AmdtThreadLineStdDIN
  3
"Amdt_StdImp|Product Description: AutoCAD Mechanical|Company: Autodesk, Inc."
 90
    33792
280
     0
281
     0
  0
CLASS
  1
ACMNOTESTANDARDDIN
  2
AmdtNoteStdDIN
  3
"Amdt_StdImp|Product Description: AutoCAD Mechanical|Company: Autodesk, Inc."
 90
    33792
280
     0
281
     0
  0
CLASS
  1
ACMTAPERSTANDARDDIN
  2
AcmTaperStdDIN
  3
"Amdt_StdImp|Product Description: AutoCAD Mechanical|Company: Autodesk, Inc."
 90
    33792
280
     0
281
     0
  0
CLASS
  1
ACMANOOTATIONVIEWSTANDARDDIN
  2
AmdtAnViewStdDIN
  3
"Amdt_StdImp|Product Description: AutoCAD Mechanical|Company: Autodesk, Inc."
 90
    33792
280
     0
281
     0
  0
CLASS
  1
AMDTNOTETEMPLATEDB
  2
AmdtNoteTemplateDB
  3
AcmSymBB|Product Description: AutoCAD Mechanical|Company: Autodesk, Inc.
 90
     1024
280
     0
281
     0
  0
CLASS
  1
ACAMGLAYSTD
  2
AcAmgLayStd
  3
"AmgLay|Product Description: AutoCAD Mechanical|Company: Autodesk, Inc."
 90
     1024
280
     0
281
     0
  0
CLASS
  1
ACAMGDIMSTD
  2
AcAmgDimStd
  3
"AmgDim|Product Description: AutoCAD Mechanical|Company: Autodesk, Inc."
 90
     1024
280
     0
281
     0
  0
CLASS
  1
ACAMGHOLECHARTSTDDIN
  2
AcAmgHoleChartStdDIN
  3
AmgDim|Product Description: AutoCAD Mechanical|Company: Autodesk, Inc.
 90
    33792
280
     0
281
     0
  0
CLASS
  1
ACAMGTITLESTD
  2
AcAmgTitleStd
  3
"AmgTitle|Product Description: AutoCAD Mechanical|Company: Autodesk, Inc."
 90
     1024
280
     0
281
     0
  0
CLASS
  1
ACAMGFILTERDAT
  2
AcAmgFilterDat
  3
"AcadM|Product Description: AutoCAD Mechanical|Company: Autodesk, Inc."
 90
    33792
280
     0
281
     0
  0
CLASS
  1
CAMSSTRUCTBTNSTATE
  2
StructBtnState
  3
DesignerAssemblies
 90
    33792
280
     0
281
     0
  0
CLASS
  1
CELLSTYLEMAP
  2
AcDbCellStyleMap
  3
ObjectDBX Classes
 90
     1152
280
     0
281
     0
  0
CLASS
  1
SORTENTSTABLE
  2
AcDbSortentsTable
  3
ObjectDBX Classes
 90
    32768
280
     0
281
     0
  0
CLASS
  1
PLOTSETTINGS
  2
AcDbPlotSettings
  3
ObjectDBX Classes
 90
        0
280
     0
281
     0
  0
CLASS
  1
DIMASSOC
  2
AcDbDimAssoc
  3
"AcDbDimAssoc|Product Desc:     AcDim ARX App For Dimension|Company:          Autodesk, Inc.|WEB Address:      www.autodesk.com"
 90
        0
280
     0
281
     0
  0
CLASS
  1
ACDBSECTIONVIEWSTYLE
  2
AcDbSectionViewStyle
  3
ObjectDBX Classes
 90
     1025
280
     0
281
     0
  0
CLASS
  1
ACDBDETAILVIEWSTYLE
  2
AcDbDetailViewStyle
  3
ObjectDBX Classes
 90
     1025
280
     0
281
     0
  0
CLASS
  1
ACMSECTIONSTANDARDCUSTOM
  2
AmdtSectionSymStdCustom
  3
"Amdt_StdImp|Product Description: AutoCAD Mechanical|Company: Autodesk, Inc."
 90
     1024
280
     0
281
     0
  0
CLASS
  1
ACMDETAILTANDARDCUSTOM
  2
AmdtDetailSymStdCustom
  3
"Amdt_StdImp|Product Description: AutoCAD Mechanical|Company: Autodesk, Inc."
 90
     1024
280
     0
281
     0
  0
CLASS
  1
FIELD
  2
AcDbField
  3
ObjectDBX Classes
 90
     1152
280
     0
281
     0
  0
CLASS
  1
FIELDLIST
  2
AcDbFieldList
  3
ObjectDBX Classes
 90
     1152
280
     0
281
     0
  0
CLASS
  1
ACMSTANDARDANSI
  2
AcmStandardANSI
  3
"Amdt_StdImp|Product Description: AutoCAD Mechanical|Company: Autodesk, Inc."
 90
     1024
280
     0
281
     0
  0
CLASS
  1
ACMSURFSTANDARDANSI
  2
AcmSurfTextStdANSI
  3
"Amdt_StdImp|Product Description: AutoCAD Mechanical|Company: Autodesk, Inc."
 90
     1024
280
     0
281
     0
  0
CLASS
  1
ACMFCFSTANDARDANSI
  2
AcmFCFStdANSI
  3
"Amdt_StdImp|Product Description: AutoCAD Mechanical|Company: Autodesk, Inc."
 90
     1024
280
     0
281
     0
  0
CLASS
  1
ACMWELDSTANDARDANSI
  2
AcmWeldingStdANSI
  3
"Amdt_StdImp|Product Description: AutoCAD Mechanical|Company: Autodesk, Inc."
 90
     1024
280
     0
281
     0
  0
CLASS
  1
ACMIDSTANDARDANSI
  2
AcmIdStdANSI
  3
"Amdt_StdImp|Product Description: AutoCAD Mechanical|Company: Autodesk, Inc."
 90
     1024
280
     0
281
     0
  0
CLASS
  1
ACMDATUMSTANDARDANSI
  2
AcmDatumStdANSI
  3
"Amdt_StdImp|Product Description: AutoCAD Mechanical|Company: Autodesk, Inc."
 90
     1024
280
     0
281
     0
  0
CLASS
  1
ACMBOMSTANDARDANSI
  2
AcmBOMStdANSI
  3
"Amdt_StdImp|Product Description: AutoCAD Mechanical|Company: Autodesk, Inc."
 90
     1024
280
     0
281
     0
  0
CLASS
  1
ACMDETAILSTANDARDANSI
  2
AmdtDetailSymStdANSI
  3
"Amdt_StdImp|Product Description: AutoCAD Mechanical|Company: Autodesk, Inc."
 90
     1024
280
     0
281
     0
  0
CLASS
  1
ACMSECTIONSTANDARDANSI
  2
AmdtSectionSymStdANSI
  3
"Amdt_StdImp|Product Description: AutoCAD Mechanical|Company: Autodesk, Inc."
 90
     1024
280
     0
281
     0
  0
CLASS
  1
ACMCENTERLINESTANDARDANSI
  2
AmdtCenterLineStdANSI
  3
"Amdt_StdImp|Product Description: AutoCAD Mechanical|Company: Autodesk, Inc."
 90
     1024
280
     0
281
     0
  0
CLASS
  1
ACMTHREADLINESTANDARDANSI
  2
AmdtThreadLineStdANSI
  3
"Amdt_StdImp|Product Description: AutoCAD Mechanical|Company: Autodesk, Inc."
 90
     1024
280
     0
281
     0
  0
CLASS
  1
ACMNOTESTANDARDANSI
  2
AmdtNoteStdANSI
  3
"Amdt_StdImp|Product Description: AutoCAD Mechanical|Company: Autodesk, Inc."
 90
     1024
280
     0
281
     0
  0
CLASS
  1
ACMTAPERSTANDARDANSI
  2
AcmTaperStdANSI
  3
"Amdt_StdImp|Product Description: AutoCAD Mechanical|Company: Autodesk, Inc."
 90
     1024
280
     0
281
     0
  0
CLASS
  1
ACMANOOTATIONVIEWSTANDARDANSI
  2
AmdtAnViewStdANSI
  3
"Amdt_StdImp|Product Description: AutoCAD Mechanical|Company: Autodesk, Inc."
 90
     1024
280
     0
281
     0
  0
CLASS
  1
ACAMGHOLECHARTSTDANSI
  2
AcAmgHoleChartStdANSI
  3
AmgDim|Product Description: AutoCAD Mechanical|Company: Autodesk, Inc.
 90
     1024
280
     0
281
     0
  0
ENDSEC
  0
SECTION
  2
TABLES
  0
TABLE
  2
VPORT
  5
8
102
{ACAD_XDICTIONARY
360
ACA
102
}
330
0
100
AcDbSymbolTable
 70
     1
  0
VPORT
  5
B56
330
8
100
AcDbSymbolTableRecord
100
AcDbViewportTableRecord
  2
*Active
 70
     0
 10
0.0
 20
0.0
 11
1.0
 21
1.0
 12
85.71513516783614
 22
175.0445568166261
 13
0.0
 23
0.0
 14
0.5
 24
0.5
 15
0.5
 25
0.5
 16
0.0
 26
0.0
 36
1.0
 17
0.0
 27
0.0
 37
0.0
 40
3.407158780155727
 41
1.857431749241658
 42
50.0
 43
0.0
 44
0.0
 50
0.0
 51
0.0
 71
     0
 72
  2000
 73
     1
 74
     3
 75
     0
 76
     0
 77
     0
 78
     0
281
     0
 65
     0
110
87.03750166674394
120
176.1245640307611
130
0.0
111
1.0
121
0.0
131
0.0
112
0.0
122
1.0
132
0.0
 79
     0
146
0.0
1001
ACAD_NAV_VCDISPLAY
1070
     3
  0
ENDTAB
  0
TABLE
  2
LTYPE
  5
5
330
0
100
AcDbSymbolTable
 70
    11
  0
LTYPE
  5
12
330
5
100
AcDbSymbolTableRecord
100
AcDbLinetypeTableRecord
  2
BYBLOCK
 70
     0
  3

 72
    65
 73
     0
 40
0.0
  0
LTYPE
  5
13
330
5
100
AcDbSymbolTableRecord
100
AcDbLinetypeTableRecord
  2
BYLAYER
 70
     0
  3

 72
    65
 73
     0
 40
0.0
  0
LTYPE
  5
192C
330
5
100
AcDbSymbolTableRecord
100
AcDbLinetypeTableRecord
  2
Continuous
 70
     0
  3
Solid line
 72
    65
 73
     0
 40
0.0
  0
LTYPE
  5
4EF
330
5
100
AcDbSymbolTableRecord
100
AcDbLinetypeTableRecord
  2
ACDINWELD
 70
     0
  3
_ _ _ _ _
 72
    65
 73
     2
 40
2.0
 49
2.0
 74
     0
 49
-1.0
 74
     0
  0
LTYPE
  5
4F0
330
5
100
AcDbSymbolTableRecord
100
AcDbLinetypeTableRecord
  2
ACDINTGB
 70
     0
  3
__ . . __ . .
 72
    65
 73
     6
 40
9.0
 49
4.0
 74
     0
 49
-1.0
 74
     0
 49
1.0
 74
     0
 49
-1.0
 74
     0
 49
1.0
 74
     0
 49
-1.0
 74
     0
  0
LTYPE
  5
4F1
330
5
100
AcDbSymbolTableRecord
100
AcDbLinetypeTableRecord
  2
ACDINTGL
 70
     0
  3
_ _ _ _ _
 72
    65
 73
     2
 40
3.0
 49
2.0
 74
     0
 49
-1.0
 74
     0
  0
LTYPE
  5
EB5
330
5
100
AcDbSymbolTableRecord
100
AcDbLinetypeTableRecord
  2
HIDDEN
 70
     0
  3
Hidden __ __ __ __ __ __ __ __ __ __ __ __ __ _
 72
    65
 73
     2
 40
0.375
 49
0.25
 74
     0
 49
-0.125
 74
     0
  0
LTYPE
  5
EB6
330
5
100
AcDbSymbolTableRecord
100
AcDbLinetypeTableRecord
  2
PHANTOM2
 70
     0
  3
Phantom (.5x) ___ _ _ ___ _ _ ___ _ _ ___ _ _
 72
    65
 73
     6
 40
1.25
 49
0.625
 74
     0
 49
-0.125
 74
     0
 49
0.125
 74
     0
 49
-0.125
 74
     0
 49
0.125
 74
     0
 49
-0.125
 74
     0
  0
LTYPE
  5
EB7
330
5
100
AcDbSymbolTableRecord
100
AcDbLinetypeTableRecord
  2
CENTER
 70
     0
  3
Center ____ _ ____ _ ____ _ ____ _ ____ _ ____
 72
    65
 73
     4
 40
2.0
 49
1.25
 74
     0
 49
-0.25
 74
     0
 49
0.25
 74
     0
 49
-0.25
 74
     0
  0
LTYPE
  5
F22
330
5
100
AcDbSymbolTableRecord
100
AcDbLinetypeTableRecord
  2
CENTER2
 70
     0
  3
Center (.5x) ___ _ ___ _ ___ _ ___ _ ___ _ ___
 72
    65
 73
     4
 40
1.125
 49
0.75
 74
     0
 49
-0.125
 74
     0
 49
0.125
 74
     0
 49
-0.125
 74
     0
  0
LTYPE
  5
F23
330
5
100
AcDbSymbolTableRecord
100
AcDbLinetypeTableRecord
  2
HIDDEN2
 70
     0
  3
Hidden (.5x) _ _ _ _ _ _ _ _ _ _ _ _ _ _ _ _ _
 72
    65
 73
     2
 40
0.1875
 49
0.125
 74
     0
 49
-0.0625
 74
     0
  0
LTYPE
  5
F24
330
5
100
AcDbSymbolTableRecord
100
AcDbLinetypeTableRecord
  2
ACANSTGB
 70
     0
  3
__ . . __ . .
 72
    65
 73
     6
 40
0.35433070866
 49
0.15748031496
 74
     0
 49
-0.03937007874
 74
     0
 49
0.03937007874
 74
     0
 49
-0.03937007874
 74
     0
 49
0.03937007874
 74
     0
 49
-0.03937007874
 74
     0
  0
LTYPE
  5
F25
330
5
100
AcDbSymbolTableRecord
100
AcDbLinetypeTableRecord
  2
ACANSTGL
 70
     0
  3
_ _ _ _ _
 72
    65
 73
     2
 40
0.11811023622
 49
0.07874015748
 74
     0
 49
-0.03937007874
 74
     0
  0
ENDTAB
  0
TABLE
  2
LAYER
  5
2
102
{ACAD_XDICTIONARY
360
43C
102
}
330
0
100
AcDbSymbolTable
 70
     7
  0
LAYER
  5
F
102
{ACAD_XDICTIONARY
360
52D
102
}
330
2
100
AcDbSymbolTableRecord
100
AcDbLayerTableRecord
  2
0
 70
     0
 62
     7
  6
Continuous
290
     0
370
    -3
390
300
  0
LAYER
  5
23
102
{ACAD_XDICTIONARY
360
52F
102
}
330
2
100
AcDbSymbolTableRecord
100
AcDbLayerTableRecord
  2
1
 70
     0
 62
     4
  6
Continuous
370
    50
390
300
  0
LAYER
  5
24
102
{ACAD_XDICTIONARY
360
531
102
}
330
2
100
AcDbSymbolTableRecord
100
AcDbLayerTableRecord
  2
SK1
 70
     0
 62
     4
  6
Continuous
370
    50
390
300
  0
LAYER
  5
25
102
{ACAD_XDICTIONARY
360
533
102
}
330
2
100
AcDbSymbolTableRecord
100
AcDbLayerTableRecord
  2
2
 70
     0
 62
     7
  6
Continuous
370
    25
390
300
  0
LAYER
  5
27
102
{ACAD_XDICTIONARY
360
537
102
}
330
2
100
AcDbSymbolTableRecord
100
AcDbLayerTableRecord
  2
SK2
 70
     0
 62
     7
  6
Continuous
370
    25
390
300
  0
LAYER
  5
2E
102
{ACAD_XDICTIONARY
360
545
102
}
330
2
100
AcDbSymbolTableRecord
100
AcDbLayerTableRecord
  2
SK6
 70
     0
 62
     5
  6
Continuous
370
    35
390
300
  0
LAYER
  5
1170
330
2
100
AcDbSymbolTableRecord
100
AcDbLayerTableRecord
  2
DEFPOINTS
 70
     0
 62
     7
  6
Continuous
290
     0
370
    -3
390
300
  0
ENDTAB
  0
TABLE
  2
STYLE
  5
3
330
0
100
AcDbSymbolTable
 70
     7
  0
STYLE
  5
10
330
3
100
AcDbSymbolTableRecord
100
AcDbTextStyleTableRecord
  2
STANDARD
 70
     0
 40
0.0
 41
1.0
 50
0.0
 71
     0
 42
0.2
  3
monos.ttf
  4

1001
ACAD
1000
Monospac821 BT
1071
       49
  0
STYLE
  5
1E
330
3
100
AcDbSymbolTableRecord
100
AcDbTextStyleTableRecord
  2
STANDARD 5 mm
 70
     0
 40
0.1969
 41
1.0
 50
0.0
 71
     0
 42
3.5
  3
monos.ttf
  4

1001
ACAD
1000
Monospac821 BT
1071
       49
  0
STYLE
  5
4DF
330
3
100
AcDbSymbolTableRecord
100
AcDbTextStyleTableRecord
  2
ACDINTS
 70
     0
 40
1.0
 41
1.0
 50
0.0
 71
     0
 42
3.5
  3
monos.ttf
  4

1001
ACAD
1000
Monospac821 BT
1071
       49
  0
STYLE
  5
4EE
330
3
100
AcDbSymbolTableRecord
100
AcDbTextStyleTableRecord
  2
ACDINGDT
 70
     0
 40
0.0
 41
1.0
 50
0.0
 71
     0
 42
3.5
  3
monos.ttf
  4

1001
ACAD
1000
Monospac821 BT
1071
       49
  0
STYLE
  5
7DE
330
3
100
AcDbSymbolTableRecord
100
AcDbTextStyleTableRecord
  2
STANDARD 3.5 mm
 70
     0
 40
0.1377952755905512
 41
1.0
 50
0.0
 71
     0
 42
3.5
  3
monos.ttf
  4

1001
ACAD
1000
Monospac821 BT
1071
       49
  0
STYLE
  5
F28
330
3
100
AcDbSymbolTableRecord
100
AcDbTextStyleTableRecord
  2
ACANSGDT
 70
     0
 40
0.0
 41
1.0
 50
0.0
 71
     0
 42
3.0
  3
amgdt.shx
  4

  0
STYLE
  5
1976
330
3
100
AcDbSymbolTableRecord
100
AcDbTextStyleTableRecord
  2
ACANSTS
 70
     0
 40
0.0
 41
1.0
 50
0.0
 71
     0
 42
0.2
  3
romans.shx
  4

  0
ENDTAB
  0
TABLE
  2
VIEW
  5
6
330
0
100
AcDbSymbolTable
 70
     6
  0
VIEW
  5
758
330
6
100
AcDbSymbolTableRecord
100
AcDbViewTableRecord
  2
AM_VIEW1
 70
     1
 40
148.5265045166015
 10
121.0318359737553
 20
219.614756822586
 41
248.4136475334483
 11
0.0
 21
0.0
 31
1.0
 12
0.0
 22
0.0
 32
0.0
 42
50.0
 43
0.0
 44
0.0
 50
0.0
 71
     0
281
     0
 72
     0
  0
VIEW
  5
759
330
6
100
AcDbSymbolTableRecord
100
AcDbViewTableRecord
  2
AM_VIEW2
 70
     1
 40
148.5265045166015
 10
292.4378600711665
 20
219.614756822586
 41
248.4136475334483
 11
0.0
 21
0.0
 31
1.0
 12
0.0
 22
0.0
 32
0.0
 42
50.0
 43
0.0
 44
0.0
 50
0.0
 71
     0
281
     0
 72
     0
  0
VIEW
  5
75A
330
6
100
AcDbSymbolTableRecord
100
AcDbViewTableRecord
  2
AM_VIEW3
 70
     1
 40
148.5265045166015
 10
121.0318359737553
 20
71.0882523059845
 41
248.4136475334483
 11
0.0
 21
0.0
 31
1.0
 12
0.0
 22
0.0
 32
0.0
 42
50.0
 43
0.0
 44
0.0
 50
0.0
 71
     0
281
     0
 72
     0
  0
VIEW
  5
75B
330
6
100
AcDbSymbolTableRecord
100
AcDbViewTableRecord
  2
AM_VIEW4
 70
     1
 40
148.5265045166015
 10
292.4378600711665
 20
71.0882523059845
 41
248.4136475334483
 11
0.0
 21
0.0
 31
1.0
 12
0.0
 22
0.0
 32
0.0
 42
50.0
 43
0.0
 44
0.0
 50
0.0
 71
     0
281
     0
 72
     0
  0
VIEW
  5
75C
330
6
100
AcDbSymbolTableRecord
100
AcDbViewTableRecord
  2
AM_VIEW5
 70
     1
 40
148.5265045166015
 10
206.7348480224609
 20
145.3515045642852
 41
248.4136475334483
 11
0.0
 21
0.0
 31
1.0
 12
0.0
 22
0.0
 32
0.0
 42
50.0
 43
0.0
 44
0.0
 50
0.0
 71
     0
281
     0
 72
     0
  0
VIEW
  5
75D
330
6
100
AcDbSymbolTableRecord
100
AcDbViewTableRecord
  2
AM_VIEW6
 70
     1
 40
297.0500385031128
 10
206.7348480224609
 20
145.3515045642852
 41
496.8223267939458
 11
0.0
 21
0.0
 31
1.0
 12
0.0
 22
0.0
 32
0.0
 42
50.0
 43
0.0
 44
0.0
 50
0.0
 71
     0
281
     0
 72
     0
  0
ENDTAB
  0
TABLE
  2
UCS
  5
7
330
0
100
AcDbSymbolTable
 70
     0
  0
ENDTAB
  0
TABLE
  2
APPID
  5
9
330
0
100
AcDbSymbolTable
 70
    39
  0
APPID
  5
11
330
9
100
AcDbSymbolTableRecord
100
AcDbRegAppTableRecord
  2
ACAD
 70
     0
  0
APPID
  5
3A6
330
9
100
AcDbSymbolTableRecord
100
AcDbRegAppTableRecord
  2
ACAD_PSEXT
 70
     0
  0
APPID
  5
3A8
330
9
100
AcDbSymbolTableRecord
100
AcDbRegAppTableRecord
  2
ACAD_EXEMPT_FROM_CAD_STANDARDS
 70
     0
  0
APPID
  5
433
330
9
100
AcDbSymbolTableRecord
100
AcDbRegAppTableRecord
  2
AcAecLayerStandard
 70
     0
  0
APPID
  5
471
330
9
100
AcDbSymbolTableRecord
100
AcDbRegAppTableRecord
  2
ACAD_MLEADERVER
 70
     0
  0
APPID
  5
47D
330
9
100
AcDbSymbolTableRecord
100
AcDbRegAppTableRecord
  2
MCAD_NO_VIS
 70
     0
  0
APPID
  5
47E
330
9
100
AcDbSymbolTableRecord
100
AcDbRegAppTableRecord
  2
ACAD_TEMP_GRAPHIC
 70
     0
  0
APPID
  5
4AC
330
9
100
AcDbSymbolTableRecord
100
AcDbRegAppTableRecord
  2
AD_DRAW
 70
     0
  0
APPID
  5
4AF
330
9
100
AcDbSymbolTableRecord
100
AcDbRegAppTableRecord
  2
ACATTRIBSERVICES
 70
     0
  0
APPID
  5
4D0
330
9
100
AcDbSymbolTableRecord
100
AcDbRegAppTableRecord
  2
DESIGNERASSEMBLIES
 70
     0
  0
APPID
  5
4D6
330
9
100
AcDbSymbolTableRecord
100
AcDbRegAppTableRecord
  2
ACADM_DIM_EDIT
 70
     0
  0
APPID
  5
4D7
330
9
100
AcDbSymbolTableRecord
100
AcDbRegAppTableRecord
  2
AMDT_DM_ADJ
 70
     0
  0
APPID
  5
5CD
330
9
100
AcDbSymbolTableRecord
100
AcDbRegAppTableRecord
  2
AcDbAttr
 70
     0
  0
APPID
  5
5CE
330
9
100
AcDbSymbolTableRecord
100
AcDbRegAppTableRecord
  2
ACAUTHENVIRON
 70
     0
  0
APPID
  5
5CF
330
9
100
AcDbSymbolTableRecord
100
AcDbRegAppTableRecord
  2
AcDbDynamicBlockTrueName
 70
     0
  0
APPID
  5
5D0
330
9
100
AcDbSymbolTableRecord
100
AcDbRegAppTableRecord
  2
ACDBBLOCKREPETAG
 70
     0
  0
APPID
  5
723
330
9
100
AcDbSymbolTableRecord
100
AcDbRegAppTableRecord
  2
GENIUS_GENTRA_14
 70
     0
  0
APPID
  5
752
330
9
100
AcDbSymbolTableRecord
100
AcDbRegAppTableRecord
  2
GENIUS_GENOENT_13
 70
     0
  0
APPID
  5
753
330
9
100
AcDbSymbolTableRecord
100
AcDbRegAppTableRecord
  2
GENIUS_GENOBJ-N-TIT_13
 70
     0
  0
APPID
  5
754
330
9
100
AcDbSymbolTableRecord
100
AcDbRegAppTableRecord
  2
GENIUS_GENODEF_13
 70
     0
  0
APPID
  5
755
330
9
100
AcDbSymbolTableRecord
100
AcDbRegAppTableRecord
  2
GENIUS_GENOLIS_13
 70
     0
  0
APPID
  5
756
330
9
100
AcDbSymbolTableRecord
100
AcDbRegAppTableRecord
  2
GENIUS_GENTITLE_13
 70
     0
  0
APPID
  5
757
330
9
100
AcDbSymbolTableRecord
100
AcDbRegAppTableRecord
  2
GENIUS_GENOREF_13
 70
     0
  0
APPID
  5
75E
330
9
100
AcDbSymbolTableRecord
100
AcDbRegAppTableRecord
  2
GENIUS_GENSCREG_15
 70
     0
  0
APPID
  5
75F
330
9
100
AcDbSymbolTableRecord
100
AcDbRegAppTableRecord
  2
GENIUS_GENOBJ-N-SDF_13
 70
     0
  0
APPID
  5
7BE
330
9
100
AcDbSymbolTableRecord
100
AcDbRegAppTableRecord
  2
AcadAnnoPO
 70
     0
  0
APPID
  5
7BF
330
9
100
AcDbSymbolTableRecord
100
AcDbRegAppTableRecord
  2
ACAD_DSTYLE_DIMJAG
 70
     0
  0
APPID
  5
7C0
330
9
100
AcDbSymbolTableRecord
100
AcDbRegAppTableRecord
  2
ACAD_DSTYLE_DIMTALN
 70
     0
  0
APPID
  5
8F4
330
9
100
AcDbSymbolTableRecord
100
AcDbRegAppTableRecord
  2
ACAD_DSTYLE_DIMBREAK
 70
     0
  0
APPID
  5
AD8
330
9
100
AcDbSymbolTableRecord
100
AcDbRegAppTableRecord
  2
ACAD_DSTYLE_DIMARC_LENGTH_SYMBOL
 70
     0
  0
APPID
  5
AEA
330
9
100
AcDbSymbolTableRecord
100
AcDbRegAppTableRecord
  2
ACAD_DSTYLE_DIMJOGGED_JOGANGLE_SYMBOL
 70
     0
  0
APPID
  5
EDF
330
9
100
AcDbSymbolTableRecord
100
AcDbRegAppTableRecord
  2
ACAD_NAV_VCDISPLAY
 70
     0
  0
APPID
  5
FFE
330
9
100
AcDbSymbolTableRecord
100
AcDbRegAppTableRecord
  2
GENIUS_GENREC_14
 70
     0
  0
APPID
  5
FFF
330
9
100
AcDbSymbolTableRecord
100
AcDbRegAppTableRecord
  2
GENIUS_GENOBJ-N-REC_13
 70
     0
  0
APPID
  5
1080
330
9
100
AcDbSymbolTableRecord
100
AcDbRegAppTableRecord
  2
AcadAnnoMonitorAlertIconDisabled
 70
     0
  0
APPID
  5
1172
330
9
100
AcDbSymbolTableRecord
100
AcDbRegAppTableRecord
  2
ACAD_DSTYLE_DIMINSPECT
 70
     0
  0
APPID
  5
1925
330
9
100
AcDbSymbolTableRecord
100
AcDbRegAppTableRecord
  2
ACAD_DSTYLE_DIM_LINETYPE
 70
     0
  0
APPID
  5
1926
330
9
100
AcDbSymbolTableRecord
100
AcDbRegAppTableRecord
  2
ACAD_DSTYLE_DIM_EXT1_LINETYPE
 70
     0
  0
APPID
  5
1927
330
9
100
AcDbSymbolTableRecord
100
AcDbRegAppTableRecord
  2
ACAD_DSTYLE_DIM_EXT2_LINETYPE
 70
     0
  0
ENDTAB
  0
TABLE
  2
DIMSTYLE
  5
A
330
0
100
AcDbSymbolTable
 70
    14
100
AcDbDimStyleTable
 71
     4
340
4FC
340
3F
340
506
340
501
  0
DIMSTYLE
105
3F
330
A
100
AcDbSymbolTableRecord
100
AcDbDimStyleTableRecord
  2
STANDARD
 70
     0
  3
"
 42
0.0
 48
0.000000001
 73
     0
 74
     0
 77
     1
 78
     9
 79
     2
140
0.1377952755905512
141
0.0
146
0.7071069999999999
172
     1
271
     3
272
     3
283
     0
285
     9
286
     8
340
7DE
1001
ACAD_DSTYLE_DIMBREAK
1070
   391
1040
0.147638
1001
ACAD_DSTYLE_DIMJAG
1070
   388
1040
1.5
1001
ACAD_DSTYLE_DIMTALN
1070
   392
1070
     0
1001
ACAD_DSTYLE_DIMARC_LENGTH_SYMBOL
1070
   379
1070
     1
1001
ACAD_DSTYLE_DIMJOGGED_JOGANGLE_SYMBOL
1070
   384
1040
1.570796326794896
  0
DIMSTYLE
105
4FC
102
{ACAD_REACTORS
330
1677
330
167A
330
167D
330
1680
330
1685
330
1688
102
}
330
A
100
AcDbSymbolTableRecord
100
AcDbDimStyleTableRecord
  2
AM_DIN
 70
     0
 41
0.098425
 42
0.03937
 43
0.5905510000000001
 44
0.07874
 48
0.000000001
 73
     0
 74
     0
 77
     1
 78
    11
 79
     2
140
0.1377952755905512
141
0.003543
146
0.7071069999999999
147
0.03937
172
     1
271
     3
272
     3
277
     3
284
     8
285
     9
286
     8
340
7DE
371
    -1
1001
ACAD_DSTYLE_DIMBREAK
1070
   391
1040
0.147638
1001
ACAD_DSTYLE_DIMJAG
1070
   388
1040
1.5
1001
ACAD_DSTYLE_DIMTALN
1070
   392
1070
     0
1001
ACAD_DSTYLE_DIMARC_LENGTH_SYMBOL
1070
   379
1070
     1
1001
ACAD_DSTYLE_DIMJOGGED_JOGANGLE_SYMBOL
1070
   384
1040
1.570796326794896
  0
DIMSTYLE
105
4FD
330
A
100
AcDbSymbolTableRecord
100
AcDbDimStyleTableRecord
  2
AM_DIN$3
 70
     0
 41
0.098425
 42
0.03937
 43
0.5905510000000001
 44
0.07874
 48
0.000000001
 73
     0
 77
     1
 78
    11
 79
     2
140
0.1377952755905512
141
0.003543
146
0.7071069999999999
147
0.03937
271
     3
272
     3
277
     3
284
     8
285
     9
286
     8
288
     1
289
     0
340
7DE
371
    -1
1001
ACAD_DSTYLE_DIMBREAK
1070
   391
1040
0.147638
1001
ACAD_DSTYLE_DIMJAG
1070
   388
1040
1.5
1001
ACAD_DSTYLE_DIMTALN
1070
   392
1070
     0
1001
ACAD_DSTYLE_DIMARC_LENGTH_SYMBOL
1070
   379
1070
     1
1001
ACAD_DSTYLE_DIMJOGGED_JOGANGLE_SYMBOL
1070
   384
1040
1.570796326794896
  0
DIMSTYLE
105
4FE
330
A
100
AcDbSymbolTableRecord
100
AcDbDimStyleTableRecord
  2
AM_DIN$4
 70
     0
 41
0.098425
 42
0.03937
 43
0.5905510000000001
 44
0.07874
 48
0.000000001
 73
     0
 77
     1
 78
    11
 79
     2
140
0.1377952755905512
141
0.003543
146
0.7071069999999999
147
0.03937
271
     3
272
     3
277
     3
284
     8
285
     9
286
     8
288
     1
289
     0
340
7DE
371
    -1
1001
ACAD_DSTYLE_DIMBREAK
1070
   391
1040
0.147638
1001
ACAD_DSTYLE_DIMJAG
1070
   388
1040
1.5
1001
ACAD_DSTYLE_DIMTALN
1070
   392
1070
     0
1001
ACAD_DSTYLE_DIMARC_LENGTH_SYMBOL
1070
   379
1070
     1
1001
ACAD_DSTYLE_DIMJOGGED_JOGANGLE_SYMBOL
1070
   384
1040
1.570796326794896
  0
DIMSTYLE
105
4FF
330
A
100
AcDbSymbolTableRecord
100
AcDbDimStyleTableRecord
  2
AM_DIN$6
 70
     0
 41
0.098425
 42
0.03937
 43
0.5905510000000001
 44
0.07874
 48
0.000000001
 73
     0
 74
     0
 78
    11
 79
     2
140
0.1377952755905512
141
0.003543
146
0.7071069999999999
147
0.03937
172
     1
271
     3
272
     3
277
     3
284
     8
285
     9
286
     8
340
7DE
371
    -1
1001
ACAD_DSTYLE_DIMBREAK
1070
   391
1040
0.147638
1001
ACAD_DSTYLE_DIMJAG
1070
   388
1040
1.5
1001
ACAD_DSTYLE_DIMTALN
1070
   392
1070
     0
1001
ACAD_DSTYLE_DIMARC_LENGTH_SYMBOL
1070
   379
1070
     1
1001
ACAD_DSTYLE_DIMJOGGED_JOGANGLE_SYMBOL
1070
   384
1040
1.570796326794896
  0
DIMSTYLE
105
500
330
A
100
AcDbSymbolTableRecord
100
AcDbDimStyleTableRecord
  2
AM_DIN$7
 70
     0
 41
0.098425
 42
0.03937
 43
0.5905510000000001
 44
0.07874
 48
0.000000001
 73
     0
 74
     0
 77
     1
 78
    11
 79
     2
140
5.0
141
0.003543
146
0.7071069999999999
147
0.03937
172
     1
271
     3
272
     3
277
     3
284
     8
285
     9
286
     8
340
7DE
371
    -1
1001
ACAD_DSTYLE_DIMBREAK
1070
   391
1040
0.147638
1001
ACAD_DSTYLE_DIMJAG
1070
   388
1040
1.5
1001
ACAD_DSTYLE_DIMTALN
1070
   392
1070
     0
1001
ACAD_DSTYLE_DIMARC_LENGTH_SYMBOL
1070
   379
1070
     1
1001
ACAD_DSTYLE_DIMJOGGED_JOGANGLE_SYMBOL
1070
   384
1040
1.570796326794896
  0
DIMSTYLE
105
501
330
A
100
AcDbSymbolTableRecord
100
AcDbDimStyleTableRecord
  2
AM_DIN$SF
 70
     0
 41
0.098425
 42
0.03937
 43
0.5905510000000001
 44
0.07874
 48
0.000000001
 73
     0
 74
     0
 75
     1
 76
     1
 77
     1
 78
    11
 79
     2
140
0.1378
141
0.003543
146
0.7071069999999999
147
0.03937
172
     1
271
     3
272
     3
277
     3
284
     8
285
     9
286
     8
340
7DE
371
    -1
1001
ACAD_DSTYLE_DIMBREAK
1070
   391
1040
0.147638
1001
ACAD_DSTYLE_DIMJAG
1070
   388
1040
1.5
1001
ACAD_DSTYLE_DIMTALN
1070
   392
1070
     0
1001
ACAD_DSTYLE_DIMARC_LENGTH_SYMBOL
1070
   379
1070
     1
1001
ACAD_DSTYLE_DIMJOGGED_JOGANGLE_SYMBOL
1070
   384
1040
1.570796326794896
  0
DIMSTYLE
105
506
330
A
100
AcDbSymbolTableRecord
100
AcDbDimStyleTableRecord
  2
AM_DIN$SH
 70
     0
 41
0.098425
 42
0.03937
 43
0.5905510000000001
 44
0.07874
 48
0.000000001
 73
     0
 74
     0
 75
     1
 76
     1
 77
     1
 78
    11
 79
     2
140
0.1378
141
0.003543
144
2.0
146
0.7071069999999999
147
0.03937
172
     1
271
     3
272
     3
277
     3
284
     8
285
     9
286
     8
340
7DE
371
    -1
1001
ACAD_DSTYLE_DIMBREAK
1070
   391
1040
0.147638
1001
ACAD_DSTYLE_DIMJAG
1070
   388
1040
1.5
1001
ACAD_DSTYLE_DIMTALN
1070
   392
1070
     0
1001
ACAD_DSTYLE_DIMARC_LENGTH_SYMBOL
1070
   379
1070
     1
1001
ACAD_DSTYLE_DIMJOGGED_JOGANGLE_SYMBOL
1070
   384
1040
1.570796326794896
  0
DIMSTYLE
105
F29
102
{ACAD_REACTORS
330
195F
102
}
330
A
100
AcDbSymbolTableRecord
100
AcDbDimStyleTableRecord
  2
AM_ANSI
 70
     0
  4
mm
 41
0.12
 42
0.05
 43
0.5
 44
0.1
 47
0.1
 48
0.1
 78
     7
 79
     2
140
0.12
141
0.0
146
0.71
147
0.06
176
   256
177
   256
178
     2
274
     4
284
     7
340
10
371
    -1
372
    -1
1001
ACAD_DSTYLE_DIMJAG
1070
   388
1040
1.5
1001
ACAD_DSTYLE_DIMBREAK
1070
   391
1040
0.125
1001
ACAD_DSTYLE_DIMARC_LENGTH_SYMBOL
1070
   379
1070
     1
1001
ACAD_DSTYLE_DIM_LINETYPE
1070
   380
1005
12
1001
ACAD_DSTYLE_DIM_EXT1_LINETYPE
1070
   381
1005
12
1001
ACAD_DSTYLE_DIM_EXT2_LINETYPE
1070
   382
1005
12
  0
DIMSTYLE
105
F2A
330
A
100
AcDbSymbolTableRecord
100
AcDbDimStyleTableRecord
  2
AM_ANSI$3
 70
     0
  4
mm
 41
0.12
 42
0.05
 43
0.5
 44
0.1
 47
0.1
 48
0.1
 78
     7
 79
     2
140
0.12
141
0.0
146
0.71
147
0.06
176
   256
177
   256
178
     2
274
     4
284
     7
288
     1
289
     0
340
10
371
    -1
372
    -1
1001
ACAD_DSTYLE_DIMBREAK
1070
   391
1040
0.125
1001
ACAD_DSTYLE_DIMJAG
1070
   388
1040
1.5
1001
ACAD_DSTYLE_DIMARC_LENGTH_SYMBOL
1070
   379
1070
     1
1001
ACAD_DSTYLE_DIM_LINETYPE
1070
   380
1005
12
1001
ACAD_DSTYLE_DIM_EXT1_LINETYPE
1070
   381
1005
12
1001
ACAD_DSTYLE_DIM_EXT2_LINETYPE
1070
   382
1005
12
  0
DIMSTYLE
105
F2B
330
A
100
AcDbSymbolTableRecord
100
AcDbDimStyleTableRecord
  2
AM_ANSI$4
 70
     0
  4
mm
 41
0.12
 42
0.05
 43
0.5
 44
0.1
 47
0.1
 48
0.1
 78
     7
 79
     2
140
0.12
141
0.0
146
0.71
147
0.06
176
   256
177
   256
178
     2
274
     4
284
     7
288
     1
289
     0
340
10
371
    -1
372
    -1
1001
ACAD_DSTYLE_DIMBREAK
1070
   391
1040
0.125
1001
ACAD_DSTYLE_DIMJAG
1070
   388
1040
1.5
1001
ACAD_DSTYLE_DIMARC_LENGTH_SYMBOL
1070
   379
1070
     1
1001
ACAD_DSTYLE_DIM_LINETYPE
1070
   380
1005
12
1001
ACAD_DSTYLE_DIM_EXT1_LINETYPE
1070
   381
1005
12
1001
ACAD_DSTYLE_DIM_EXT2_LINETYPE
1070
   382
1005
12
  0
DIMSTYLE
105
F2C
330
A
100
AcDbSymbolTableRecord
100
AcDbDimStyleTableRecord
  2
AM_ANSI$7
 70
     0
  4
mm
 41
0.12
 42
0.05
 43
0.5
 44
0.1
 47
0.1
 48
0.1
 78
     7
 79
     2
140
0.12
141
0.0
146
0.71
147
0.06
176
   256
177
   256
178
     2
274
     4
284
     7
340
10
371
    -1
372
    -1
1001
ACAD_DSTYLE_DIMBREAK
1070
   391
1040
0.125
1001
ACAD_DSTYLE_DIMJAG
1070
   388
1040
1.5
1001
ACAD_DSTYLE_DIMARC_LENGTH_SYMBOL
1070
   379
1070
     1
1001
ACAD_DSTYLE_DIM_LINETYPE
1070
   380
1005
12
1001
ACAD_DSTYLE_DIM_EXT1_LINETYPE
1070
   381
1005
12
1001
ACAD_DSTYLE_DIM_EXT2_LINETYPE
1070
   382
1005
12
  0
DIMSTYLE
105
F2D
330
A
100
AcDbSymbolTableRecord
100
AcDbDimStyleTableRecord
  2
AM_ANSI$SF
 70
     0
  4
mm
 41
0.12
 42
0.05
 43
0.5
 44
0.1
 47
0.1
 48
0.1
 75
     1
 76
     1
 78
     7
 79
     2
140
0.12
141
0.0
146
0.71
147
0.06
176
   256
177
   256
178
     2
274
     4
284
     7
340
10
371
    -1
372
    -1
1001
ACAD_DSTYLE_DIMBREAK
1070
   391
1040
0.125
1001
ACAD_DSTYLE_DIMJAG
1070
   388
1040
1.5
1001
ACAD_DSTYLE_DIMARC_LENGTH_SYMBOL
1070
   379
1070
     1
1001
ACAD_DSTYLE_DIM_LINETYPE
1070
   380
1005
12
1001
ACAD_DSTYLE_DIM_EXT1_LINETYPE
1070
   381
1005
12
1001
ACAD_DSTYLE_DIM_EXT2_LINETYPE
1070
   382
1005
12
  0
DIMSTYLE
105
F2E
330
A
100
AcDbSymbolTableRecord
100
AcDbDimStyleTableRecord
  2
AM_ANSI$SH
 70
     0
  4
mm
 41
0.12
 42
0.05
 43
0.5
 44
0.1
 47
0.1
 48
0.1
 75
     1
 76
     1
 78
     7
 79
     2
140
0.12
141
0.0
146
0.71
147
0.06
173
     1
176
   256
177
   256
178
     2
274
     4
284
     7
340
10
343
F19
371
    -1
372
    -1
1001
ACAD_DSTYLE_DIMBREAK
1070
   391
1040
0.125
1001
ACAD_DSTYLE_DIMJAG
1070
   388
1040
1.5
1001
ACAD_DSTYLE_DIMARC_LENGTH_SYMBOL
1070
   379
1070
     1
1001
ACAD_DSTYLE_DIM_LINETYPE
1070
   380
1005
12
1001
ACAD_DSTYLE_DIM_EXT1_LINETYPE
1070
   381
1005
12
1001
ACAD_DSTYLE_DIM_EXT2_LINETYPE
1070
   382
1005
12
  0
ENDTAB
  0
TABLE
  2
BLOCK_RECORD
  5
1
330
0
100
AcDbSymbolTable
 70
    11
  0
BLOCK_RECORD
  5
18
330
1
100
AcDbSymbolTableRecord
100
AcDbBlockTableRecord
  2
*MODEL_SPACE
340
303
  0
BLOCK_RECORD
  5
B76
330
1
100
AcDbSymbolTableRecord
100
AcDbBlockTableRecord
  2
*Paper_Space
340
B77
  0
BLOCK_RECORD
  5
EC6
330
1
100
AcDbSymbolTableRecord
100
AcDbBlockTableRecord
  2
_ACMFILLED15
340
0
  0
BLOCK_RECORD
  5
ED1
330
1
100
AcDbSymbolTableRecord
100
AcDbBlockTableRecord
  2
_ACMFILLED30
340
0
  0
BLOCK_RECORD
  5
F19
330
1
100
AcDbSymbolTableRecord
100
AcDbBlockTableRecord
  2
GENAXEH
340
0
  0
BLOCK_RECORD
  5
168C
330
1
100
AcDbSymbolTableRecord
100
AcDbBlockTableRecord
  2
*D3
340
0
  0
BLOCK_RECORD
  5
1698
330
1
100
AcDbSymbolTableRecord
100
AcDbBlockTableRecord
  2
*D4
340
0
  0
BLOCK_RECORD
  5
16A4
330
1
100
AcDbSymbolTableRecord
100
AcDbBlockTableRecord
  2
*D5
340
0
  0
BLOCK_RECORD
  5
16B0
330
1
100
AcDbSymbolTableRecord
100
AcDbBlockTableRecord
  2
*D6
340
0
  0
BLOCK_RECORD
  5
16BC
330
1
100
AcDbSymbolTableRecord
100
AcDbBlockTableRecord
  2
*D7
340
0
  0
BLOCK_RECORD
  5
16CA
330
1
100
AcDbSymbolTableRecord
100
AcDbBlockTableRecord
  2
*D8
340
0
  0
BLOCK_RECORD
  5
1978
330
1
100
AcDbSymbolTableRecord
100
AcDbBlockTableRecord
  2
_ACMFILLEDHALF
340
0
  0
ENDTAB
  0
ENDSEC
  0
SECTION
  2
BLOCKS
  0
BLOCK
  5
32
330
18
100
AcDbEntity
  8
0
100
AcDbBlockBegin
  2
*MODEL_SPACE
 70
     0
 10
0.0
 20
0.0
 30
0.0
  3
*MODEL_SPACE
  1

  0
ENDBLK
  5
33
330
18
100
AcDbEntity
  8
0
100
AcDbBlockEnd
  0
BLOCK
  5
B78
330
B76
100
AcDbEntity
 67
     1
  8
0
100
AcDbBlockBegin
  2
*Paper_Space
 70
     0
 10
0.0
 20
0.0
 30
0.0
  3
*Paper_Space
  1

  0
ENDBLK
  5
B79
330
B76
100
AcDbEntity
 67
     1
  8
0
100
AcDbBlockEnd
  0
BLOCK
  5
EC8
330
EC6
100
AcDbEntity
  8
0
100
AcDbBlockBegin
  2
_ACMFILLED15
 70
     0
 10
0.0
 20
0.0
 30
0.0
  3
_ACMFILLED15
  1

  0
TRACE
  5
EC7
330
EC6
100
AcDbEntity
  8
1
 62
     0
100
AcDbTrace
 10
-1.0
 20
-0.131652497
 30
0.0
 11
-1.0
 21
0.131652497
 31
0.0
 12
0.0
 22
0.0
 32
0.0
 13
0.0
 23
0.0
 33
0.0
  0
ENDBLK
  5
EC9
330
EC6
100
AcDbEntity
  8
0
100
AcDbBlockEnd
  0
BLOCK
  5
ED3
330
ED1
100
AcDbEntity
  8
0
100
AcDbBlockBegin
  2
_ACMFILLED30
 70
     0
 10
0.0
 20
0.0
 30
0.0
  3
_ACMFILLED30
  1

  0
TRACE
  5
ED2
330
ED1
100
AcDbEntity
  8
1
 62
     0
100
AcDbTrace
 10
-1.0
 20
-0.26794919
 30
0.0
 11
-1.0
 21
0.26794919
 31
0.0
 12
0.0
 22
0.0
 32
0.0
 13
0.0
 23
0.0
 33
0.0
  0
ENDBLK
  5
ED4
330
ED1
100
AcDbEntity
  8
0
100
AcDbBlockEnd
  0
BLOCK
  5
F1A
330
F19
100
AcDbEntity
  8
0
100
AcDbBlockBegin
  2
GENAXEH
 70
     0
 10
0.0
 20
0.0
 30
0.0
  3
GENAXEH
  1

  0
LINE
  5
F1B
330
F19
100
AcDbEntity
  8
0
100
AcDbLine
 10
-1.0
 20
0.0
 30
0.0
 11
1.0
 21
0.0
 31
0.0
  0
ENDBLK
  5
F1C
330
F19
100
AcDbEntity
  8
0
100
AcDbBlockEnd
  0
BLOCK
  5
168D
330
168C
100
AcDbEntity
  8
0
100
AcDbBlockBegin
  2
*D3
 70
     1
 10
0.0
 20
0.0
 30
0.0
  3
*D3
  1

  0
LINE
  5
185C
330
168C
100
AcDbEntity
  8
SK2
 62
     0
370
    -2
100
AcDbLine
 10
83.2918395911539
 20
176.4975947217062
 30
0.0
 11
82.73230186959116
 21
176.4975947217062
 31
0.0
  0
LINE
  5
185D
330
168C
100
AcDbEntity
  8
SK2
 62
     0
370
    -2
100
AcDbLine
 10
83.2918395911539
 20
175.7515333398162
 30
0.0
 11
82.73230186959116
 21
175.7515333398162
 31
0.0
  0
LINE
  5
185E
330
168C
100
AcDbEntity
  8
SK2
 62
     0
100
AcDbLine
 10
82.81104186959117
 20
176.3991697217063
 30
0.0
 11
82.81104186959117
 21
175.8499583398162
 31
0.0
  0
LINE
  5
185F
330
168C
100
AcDbEntity
  8
SK2
 62
     0
100
AcDbLine
 10
82.81104186959117
 20
175.7515333398162
 30
0.0
 11
82.81104186959117
 21
174.0727581229626
 31
0.0
  0
SOLID
  5
1860
330
168C
100
AcDbEntity
  8
SK2
 62
     0
100
AcDbTrace
 10
82.7946377029245
 20
176.3991697217063
 30
0.0
 11
82.82744603625783
 21
176.3991697217063
 31
0.0
 12
82.81104186959117
 22
176.4975947217062
 32
0.0
 13
82.81104186959117
 23
176.4975947217062
 33
0.0
  0
SOLID
  5
1861
330
168C
100
AcDbEntity
  8
SK2
 62
     0
100
AcDbTrace
 10
82.7946377029245
 20
175.8499583398162
 30
0.0
 11
82.82744603625783
 21
175.8499583398162
 31
0.0
 12
82.81104186959117
 22
175.7515333398162
 32
0.0
 13
82.81104186959117
 23
175.7515333398162
 33
0.0
  0
MTEXT
  5
1862
330
168C
100
AcDbEntity
  8
SK2
 62
     0
100
AcDbMText
 10
82.70035337312419
 20
174.8629332313895
 30
0.0
 40
0.1377952755905512
 41
0.0
 71
     5
 72
     1
  1
\A1;0.746"x0.746"
  7
STANDARD 3.5 mm
 11
0.0000000000000001
 21
1.0
 31
0.0
 73
     1
 44
1.0
1001
ACAD
1000
MTEXTBEGIN
1070
    73
1070
     1
1070
    44
1040
1.0
1070
    74
1070
     0
1000
MTEXTEND
  0
POINT
  5
1863
330
168C
100
AcDbEntity
  8
DEFPOINTS
 62
     0
100
AcDbPoint
 10
83.33120959115392
 20
176.4975947217062
 30
0.0
  0
POINT
  5
1864
330
168C
100
AcDbEntity
  8
DEFPOINTS
 62
     0
100
AcDbPoint
 10
83.33120959115392
 20
175.7515333398162
 30
0.0
  0
POINT
  5
1865
330
168C
100
AcDbEntity
  8
DEFPOINTS
 62
     0
100
AcDbPoint
 10
82.81104186959117
 20
175.7515333398162
 30
0.0
  0
ENDBLK
  5
168E
330
168C
100
AcDbEntity
  8
0
100
AcDbBlockEnd
  0
BLOCK
  5
1699
330
1698
100
AcDbEntity
  8
0
100
AcDbBlockBegin
  2
*D4
 70
     1
 10
0.0
 20
0.0
 30
0.0
  3
*D4
  1

  0
LINE
  5
19F0
330
1698
100
AcDbEntity
  8
SK2
 62
     0
370
    -2
100
AcDbLine
 10
83.33120959115392
 20
175.7121633398162
 30
0.0
 11
83.33120959115392
 21
174.1752026487872
 31
0.0
  0
LINE
  5
19F1
330
1698
100
AcDbEntity
  8
SK2
 62
     0
370
    -2
100
AcDbLine
 10
88.33120199272395
 20
175.4582251469062
 30
0.0
 11
88.33120199272395
 21
174.1752026487872
 31
0.0
  0
LINE
  5
19F2
330
1698
100
AcDbEntity
  8
SK2
 62
     0
100
AcDbLine
 10
83.42963459115393
 20
174.2539426487872
 30
0.0
 11
88.23277699272393
 21
174.2539426487872
 31
0.0
  0
SOLID
  5
19F3
330
1698
100
AcDbEntity
  8
SK2
 62
     0
100
AcDbTrace
 10
83.42963459115393
 20
174.2703468154538
 30
0.0
 11
83.42963459115393
 21
174.2375384821205
 31
0.0
 12
83.33120959115392
 22
174.2539426487872
 32
0.0
 13
83.33120959115392
 23
174.2539426487872
 33
0.0
  0
SOLID
  5
19F4
330
1698
100
AcDbEntity
  8
SK2
 62
     0
100
AcDbTrace
 10
88.23277699272393
 20
174.2703468154538
 30
0.0
 11
88.23277699272393
 21
174.2375384821205
 31
0.0
 12
88.33120199272395
 22
174.2539426487872
 32
0.0
 13
88.33120199272395
 23
174.2539426487872
 33
0.0
  0
MTEXT
  5
19F5
330
1698
100
AcDbEntity
  8
SK2
 62
     0
100
AcDbMText
 10
85.83120579193893
 20
174.3641953906932
 30
0.0
 40
0.1377952755905512
 41
0.0
 71
     5
 72
     1
  1
\A1;5"
  7
STANDARD 3.5 mm
 73
     1
 44
1.0
1001
ACAD
1000
MTEXTBEGIN
1070
    73
1070
     1
1070
    44
1040
1.0
1070
    74
1070
     0
1000
MTEXTEND
  0
POINT
  5
19F6
330
1698
100
AcDbEntity
  8
DEFPOINTS
 62
     0
100
AcDbPoint
 10
83.33120959115392
 20
175.7515333398162
 30
0.0
  0
POINT
  5
19F7
330
1698
100
AcDbEntity
  8
DEFPOINTS
 62
     0
100
AcDbPoint
 10
88.33120199272395
 20
175.4975951469062
 30
0.0
  0
POINT
  5
19F8
330
1698
100
AcDbEntity
  8
DEFPOINTS
 62
     0
100
AcDbPoint
 10
88.33120199272395
 20
174.2539426487872
 30
0.0
  0
ENDBLK
  5
169A
330
1698
100
AcDbEntity
  8
0
100
AcDbBlockEnd
  0
BLOCK
  5
16A5
330
16A4
100
AcDbEntity
  8
0
100
AcDbBlockBegin
  2
*D5
 70
     1
 10
0.0
 20
0.0
 30
0.0
  3
*D5
  1

  0
LINE
  5
19DE
330
16A4
100
AcDbEntity
  8
2
 62
     0
370
    -2
100
AcDbLine
 10
88.33120199272395
 20
175.4582251469062
 30
0.0
 11
88.33120199272395
 21
174.9752026487872
 31
0.0
  0
LINE
  5
19DF
330
16A4
100
AcDbEntity
  8
2
 62
     0
370
    -2
100
AcDbLine
 10
87.43120166674392
 20
175.7121633398162
 30
0.0
 11
87.43120166674392
 21
174.9752026487872
 31
0.0
  0
LINE
  5
19E0
330
16A4
100
AcDbEntity
  8
2
 62
     0
100
AcDbLine
 10
88.23277699272393
 20
175.0539426487872
 30
0.0
 11
87.52962666674394
 21
175.0539426487872
 31
0.0
  0
SOLID
  5
19E1
330
16A4
100
AcDbEntity
  8
2
 62
     0
100
AcDbTrace
 10
88.23277699272393
 20
175.0703468154538
 30
0.0
 11
88.23277699272393
 21
175.0375384821205
 31
0.0
 12
88.33120199272395
 22
175.0539426487872
 32
0.0
 13
88.33120199272395
 23
175.0539426487872
 33
0.0
  0
SOLID
  5
19E2
330
16A4
100
AcDbEntity
  8
2
 62
     0
100
AcDbTrace
 10
87.52962666674394
 20
175.0703468154538
 30
0.0
 11
87.52962666674394
 21
175.0375384821205
 31
0.0
 12
87.43120166674392
 22
175.0539426487872
 32
0.0
 13
87.43120166674392
 23
175.0539426487872
 33
0.0
  0
MTEXT
  5
19E3
330
16A4
100
AcDbEntity
  8
2
 62
     0
100
AcDbMText
 10
87.88120182973393
 20
175.1646311452541
 30
0.0
 40
0.1377952755905512
 41
0.0
 71
     5
 72
     1
  1
\A1;0.9"
  7
STANDARD 3.5 mm
 73
     1
 44
1.0
1001
ACAD
1000
MTEXTBEGIN
1070
    73
1070
     1
1070
    44
1040
1.0
1070
    74
1070
     0
1000
MTEXTEND
  0
POINT
  5
19E4
330
16A4
100
AcDbEntity
  8
DEFPOINTS
 62
     0
100
AcDbPoint
 10
88.33120199272395
 20
175.4975951469062
 30
0.0
  0
POINT
  5
19E5
330
16A4
100
AcDbEntity
  8
DEFPOINTS
 62
     0
100
AcDbPoint
 10
87.43120166674392
 20
175.7515333398162
 30
0.0
  0
POINT
  5
19E6
330
16A4
100
AcDbEntity
  8
DEFPOINTS
 62
     0
100
AcDbPoint
 10
87.43120166674392
 20
175.0539426487872
 30
0.0
  0
ENDBLK
  5
16A6
330
16A4
100
AcDbEntity
  8
0
100
AcDbBlockEnd
  0
BLOCK
  5
16B1
330
16B0
100
AcDbEntity
  8
0
100
AcDbBlockBegin
  2
*D6
 70
     1
 10
0.0
 20
0.0
 30
0.0
  3
*D6
  1

  0
LINE
  5
1733
330
16B0
100
AcDbEntity
  8
2
 62
     0
370
    -2
100
AcDbLine
 10
88.37057199272393
 20
175.4975951469062
 30
0.0
 11
88.83278550299051
 21
175.4975951469062
 31
0.0
  0
LINE
  5
1734
330
16B0
100
AcDbEntity
  8
2
 62
     0
370
    -2
100
AcDbLine
 10
87.99989529313394
 20
176.4975947217062
 30
0.0
 11
88.83278550299051
 21
176.4975947217062
 31
0.0
  0
LINE
  5
1735
330
16B0
100
AcDbEntity
  8
2
 62
     0
100
AcDbLine
 10
88.7540455029905
 20
175.5960201469062
 30
0.0
 11
88.7540455029905
 21
176.3991697217063
 31
0.0
  0
SOLID
  5
1736
330
16B0
100
AcDbEntity
  8
2
 62
     0
100
AcDbTrace
 10
88.73764133632384
 20
175.5960201469062
 30
0.0
 11
88.77044966965717
 21
175.5960201469062
 31
0.0
 12
88.7540455029905
 22
175.4975951469062
 32
0.0
 13
88.7540455029905
 23
175.4975951469062
 33
0.0
  0
SOLID
  5
1737
330
16B0
100
AcDbEntity
  8
2
 62
     0
100
AcDbTrace
 10
88.73764133632384
 20
176.3991697217063
 30
0.0
 11
88.77044966965717
 21
176.3991697217063
 31
0.0
 12
88.7540455029905
 22
176.4975947217062
 32
0.0
 13
88.7540455029905
 23
176.4975947217062
 33
0.0
  0
MTEXT
  5
1738
330
16B0
100
AcDbEntity
  8
2
 62
     0
100
AcDbMText
 10
88.6453421106343
 20
175.9975949343063
 30
0.0
 40
0.1377952755905512
 41
0.0
 71
     5
 72
     1
  1
\A1;1"
  7
STANDARD 3.5 mm
 11
0.0000000000000001
 21
1.0
 31
0.0
 73
     1
 44
1.0
1001
ACAD
1000
MTEXTBEGIN
1070
    73
1070
     1
1070
    44
1040
1.0
1070
    74
1070
     0
1000
MTEXTEND
  0
POINT
  5
1739
330
16B0
100
AcDbEntity
  8
DEFPOINTS
 62
     0
100
AcDbPoint
 10
88.33120199272395
 20
175.4975951469062
 30
0.0
  0
POINT
  5
173A
330
16B0
100
AcDbEntity
  8
DEFPOINTS
 62
     0
100
AcDbPoint
 10
87.96052529313392
 20
176.4975947217062
 30
0.0
  0
POINT
  5
173B
330
16B0
100
AcDbEntity
  8
DEFPOINTS
 62
     0
100
AcDbPoint
 10
88.7540455029905
 20
176.4975947217062
 30
0.0
  0
ENDBLK
  5
16B2
330
16B0
100
AcDbEntity
  8
0
100
AcDbBlockEnd
  0
BLOCK
  5
16BD
330
16BC
100
AcDbEntity
  8
0
100
AcDbBlockBegin
  2
*D7
 70
     1
 10
0.0
 20
0.0
 30
0.0
  3
*D7
  1

  0
LINE
  5
1752
330
16BC
100
AcDbEntity
  8
2
 62
     0
370
    -2
100
AcDbLine
 10
88.33120199272398
 20
175.4308978487957
 30
0.0
 11
88.33120199272428
 21
175.003071311676
 31
0.0
  0
LINE
  5
1753
330
16BC
100
AcDbEntity
  8
2
 62
     0
370
    -2
100
AcDbLine
 10
88.39184717325819
 20
175.4975951469062
 30
0.0
 11
88.8257258279542
 21
175.4975951469062
 31
0.0
  0
ARC
  5
1754
330
16BC
100
AcDbEntity
  8
2
 62
     0
100
AcDbCircle
 10
88.33120199272391
 20
175.4975951469063
 30
0.0
 40
0.415783835230248
100
AcDbArc
 50
283.5950162010375
 51
346.4049837990046
  0
SOLID
  5
1755
330
16BC
100
AcDbEntity
  8
2
 62
     0
100
AcDbTrace
 10
88.43087673961674
 20
175.0771721155238
 30
0.0
 11
88.42699351961789
 21
175.1097498278214
 31
0.0
 12
88.33120199272423
 22
175.0818113116759
 32
0.0
 13
88.33120199272423
 23
175.0818113116759
 33
0.0
  0
SOLID
  5
1756
330
16BC
100
AcDbEntity
  8
2
 62
     0
100
AcDbTrace
 10
88.71904731180874
 20
175.4018036200126
 30
0.0
 11
88.75162502410644
 21
175.3979204000137
 31
0.0
 12
88.74698582795417
 22
175.4975951469062
 32
0.0
 13
88.74698582795417
 23
175.4975951469062
 33
0.0
  0
MTEXT
  5
1757
330
16BC
100
AcDbEntity
  8
2
 62
     0
100
AcDbMText
 10
88.54693697567197
 20
175.2818601639584
 30
0.0
 40
0.1377952755905512
 41
0.0
 71
     5
 72
     1
  1
\A1;90°
  7
STANDARD 3.5 mm
 11
0.7071067811865476
 21
0.7071067811865475
 31
0.0
 73
     1
 44
1.0
1001
ACAD
1000
MTEXTBEGIN
1070
    73
1070
     1
1070
    44
1040
1.0
1070
    74
1070
     0
1000
MTEXTEND
  0
POINT
  5
1758
330
16BC
100
AcDbEntity
  8
DEFPOINTS
 62
     0
100
AcDbPoint
 10
88.53909391033925
 20
175.137515783114
 30
0.0
  0
POINT
  5
1759
330
16BC
100
AcDbEntity
  8
DEFPOINTS
 62
     0
100
AcDbPoint
 10
88.33120199272391
 20
175.4975951469063
 30
0.0
  0
POINT
  5
175A
330
16BC
100
AcDbEntity
  8
DEFPOINTS
 62
     0
100
AcDbPoint
 10
88.33120199272391
 20
175.4975951469063
 30
0.0
  0
POINT
  5
175B
330
16BC
100
AcDbEntity
  8
DEFPOINTS
 62
     0
100
AcDbPoint
 10
88.33120199272395
 20
175.4702678487957
 30
0.0
  0
POINT
  5
175C
330
16BC
100
AcDbEntity
  8
DEFPOINTS
 62
     0
100
AcDbPoint
 10
88.35247717325819
 20
175.4975951469062
 30
0.0
  0
ENDBLK
  5
16BE
330
16BC
100
AcDbEntity
  8
0
100
AcDbBlockEnd
  0
BLOCK
  5
16CB
330
16CA
100
AcDbEntity
  8
0
100
AcDbBlockBegin
  2
*D8
 70
     1
 10
0.0
 20
0.0
 30
0.0
  3
*D8
  1

  0
LINE
  5
19E7
330
16CA
100
AcDbEntity
  8
2
 62
     0
370
    -2
100
AcDbLine
 10
88.33120199272395
 20
175.4582251469062
 30
0.0
 11
88.33120199272395
 21
174.5752026487872
 31
0.0
  0
LINE
  5
19E8
330
16CA
100
AcDbEntity
  8
2
 62
     0
370
    -2
100
AcDbLine
 10
87.03750166674394
 20
175.7121633398162
 30
0.0
 11
87.03750166674394
 21
174.5752026487872
 31
0.0
  0
LINE
  5
19E9
330
16CA
100
AcDbEntity
  8
2
 62
     0
100
AcDbLine
 10
88.23277699272393
 20
174.6539426487872
 30
0.0
 11
87.13592666674395
 21
174.6539426487872
 31
0.0
  0
SOLID
  5
19EA
330
16CA
100
AcDbEntity
  8
2
 62
     0
100
AcDbTrace
 10
88.23277699272393
 20
174.6703468154538
 30
0.0
 11
88.23277699272393
 21
174.6375384821205
 31
0.0
 12
88.33120199272395
 22
174.6539426487872
 32
0.0
 13
88.33120199272395
 23
174.6539426487872
 33
0.0
  0
SOLID
  5
19EB
330
16CA
100
AcDbEntity
  8
2
 62
     0
100
AcDbTrace
 10
87.13592666674395
 20
174.6703468154538
 30
0.0
 11
87.13592666674395
 21
174.6375384821205
 31
0.0
 12
87.03750166674394
 22
174.6539426487872
 32
0.0
 13
87.03750166674394
 23
174.6539426487872
 33
0.0
  0
MTEXT
  5
19EC
330
16CA
100
AcDbEntity
  8
2
 62
     0
100
AcDbMText
 10
87.68435182973394
 20
174.7646311452541
 30
0.0
 40
0.1377952755905512
 41
0.0
 71
     5
 72
     1
  1
\A1;1.294"
  7
STANDARD 3.5 mm
 73
     1
 44
1.0
1001
ACAD
1000
MTEXTBEGIN
1070
    73
1070
     1
1070
    44
1040
1.0
1070
    74
1070
     0
1000
MTEXTEND
  0
POINT
  5
19ED
330
16CA
100
AcDbEntity
  8
DEFPOINTS
 62
     0
100
AcDbPoint
 10
88.33120199272395
 20
175.4975951469062
 30
0.0
  0
POINT
  5
19EE
330
16CA
100
AcDbEntity
  8
DEFPOINTS
 62
     0
100
AcDbPoint
 10
87.03750166674394
 20
175.7515333398162
 30
0.0
  0
POINT
  5
19EF
330
16CA
100
AcDbEntity
  8
DEFPOINTS
 62
     0
100
AcDbPoint
 10
87.03750166674394
 20
174.6539426487872
 30
0.0
  0
ENDBLK
  5
16CC
330
16CA
100
AcDbEntity
  8
0
100
AcDbBlockEnd
  0
BLOCK
  5
197B
330
1978
100
AcDbEntity
  8
0
100
AcDbBlockBegin
  2
_ACMFILLEDHALF
 70
     0
 10
0.0
 20
0.0
 30
0.0
  3
_ACMFILLEDHALF
  1

  0
TRACE
  5
1979
330
1978
100
AcDbEntity
  8
1
 62
     0
100
AcDbTrace
 10
-0.8
 20
0.0
 30
0.0
 11
-1.0
 21
0.166666666
 31
0.0
 12
0.0
 22
0.0
 32
0.0
 13
0.0
 23
0.0
 33
0.0
  0
LINE
  5
197A
330
1978
100
AcDbEntity
  8
1
 62
     0
100
AcDbLine
 10
-1.0
 20
0.0
 30
0.0
 11
-0.8
 21
0.0
 31
0.0
  0
ENDBLK
  5
197C
330
1978
100
AcDbEntity
  8
0
100
AcDbBlockEnd
  0
ENDSEC
  0
SECTION
  2
ENTITIES
  0
LINE
  5
1408
330
18
100
AcDbEntity
  8
1
370
    18
100
AcDbLine
 10
87.87943372303393
 20
175.9315266018762
 30
0.0
 11
87.88027053238392
 21
175.9313277833762
 31
0.0
  0
LINE
  5
1409
330
18
100
AcDbEntity
  8
1
370
    18
100
AcDbLine
 10
87.89414400857394
 20
175.9586769806461
 30
0.0
 11
87.88880823184392
 21
175.9599409544962
 31
0.0
  0
LINE
  5
140A
330
18
100
AcDbEntity
  8
1
370
    18
100
AcDbLine
 10
87.89143405336394
 20
175.8820678031562
 30
0.0
 11
87.91223432672394
 21
175.8771423405661
 31
0.0
  0
LINE
  5
140B
330
18
100
AcDbEntity
  8
1
370
    18
100
AcDbLine
 10
87.96243355703394
 20
175.9668061769863
 30
0.0
 11
87.94163359863395
 21
175.9717316395762
 31
0.0
  0
LINE
  5
140C
330
18
100
AcDbEntity
  8
1
370
    18
100
AcDbLine
 10
87.96067218260393
 20
176.0479389281062
 30
0.0
 11
87.96338453938394
 21
176.0472961341162
 31
0.0
  0
LINE
  5
140D
330
18
100
AcDbEntity
  8
1
370
    18
100
AcDbLine
 10
87.90441603527391
 20
175.7982780101062
 30
0.0
 11
87.90170340290393
 21
175.7989201741762
 31
0.0
  0
LINE
  5
140E
330
18
100
AcDbEntity
  8
1
370
    18
100
AcDbLine
 10
87.96052923013393
 20
175.8900053857062
 30
0.0
 11
87.98138777109391
 21
175.8850666947962
 31
0.0
  0
LINE
  5
140F
330
18
100
AcDbEntity
  8
1
370
    18
100
AcDbLine
 10
87.99526093232392
 20
175.9124159314362
 30
0.0
 11
87.97448947780393
 21
175.9173347798661
 31
0.0
  0
LINE
  5
1410
330
18
100
AcDbEntity
  8
1
370
    18
100
AcDbLine
 10
88.09811757700392
 20
175.6125548776162
 30
0.0
 11
88.1033977632939
 21
175.6113041320862
 31
0.0
  0
LINE
  5
1411
330
18
100
AcDbEntity
  8
1
370
    18
100
AcDbLine
 10
87.82539516969395
 20
176.1177843789662
 30
0.0
 11
87.86481174440394
 21
176.1084501062962
 31
0.0
  0
LINE
  5
1412
330
18
100
AcDbEntity
  8
1
370
    18
100
AcDbLine
 10
87.92403465745392
 20
176.0626834655462
 30
0.0
 11
87.96169375536392
 21
176.0537654912561
 31
0.0
  0
LINE
  5
1413
330
18
100
AcDbEntity
  8
1
370
    18
100
AcDbLine
 10
88.07087826140394
 20
175.9329082920262
 30
0.0
 11
88.1401914692339
 21
175.7594396625862
 31
0.0
  0
LINE
  5
1414
330
18
100
AcDbEntity
  8
1
370
    18
100
AcDbLine
 10
88.15809107910395
 20
175.6587252577162
 30
0.0
 11
88.07890954455393
 21
175.6011113965662
 31
0.0
  0
LINE
  5
1415
330
18
100
AcDbEntity
  8
1
370
    18
100
AcDbLine
 10
88.06759314986392
 20
175.5992947860262
 30
0.0
 11
88.05420837348394
 21
175.6024648584262
 31
0.0
  0
LINE
  5
1416
330
18
100
AcDbEntity
  8
1
370
    18
100
AcDbLine
 10
88.07960040931392
 20
175.6025225354762
 30
0.0
 11
88.07458813587393
 21
175.5992701404062
 31
0.0
  0
LINE
  5
1417
330
18
100
AcDbEntity
  8
1
370
    18
100
AcDbLine
 10
88.07458813587393
 20
175.5992701404062
 30
0.0
 11
88.06757661446395
 21
175.5992989986161
 31
0.0
  0
LINE
  5
1418
330
18
100
AcDbEntity
  8
1
370
    18
100
AcDbLine
 10
88.14025217777393
 20
175.7591392694862
 30
0.0
 11
88.14481626313392
 21
175.7473888205462
 31
0.0
  0
LINE
  5
1419
330
18
100
AcDbEntity
  8
1
370
    18
100
AcDbLine
 10
88.14481626313392
 20
175.7473888205462
 30
0.0
 11
88.14896105799395
 21
175.7360703392461
 31
0.0
  0
LINE
  5
141A
330
18
100
AcDbEntity
  8
1
370
    18
100
AcDbLine
 10
88.14896105799395
 20
175.7360703392461
 30
0.0
 11
88.15233782289395
 21
175.7262422486661
 31
0.0
  0
LINE
  5
141B
330
18
100
AcDbEntity
  8
1
370
    18
100
AcDbLine
 10
88.15233782289395
 20
175.7262422486661
 30
0.0
 11
88.15534541530395
 21
175.7168214801062
 31
0.0
  0
LINE
  5
141C
330
18
100
AcDbEntity
  8
1
370
    18
100
AcDbLine
 10
88.15534541530395
 20
175.7168214801062
 30
0.0
 11
88.15770930821392
 21
175.7087259057462
 31
0.0
  0
LINE
  5
141D
330
18
100
AcDbEntity
  8
1
370
    18
100
AcDbLine
 10
88.15770930821392
 20
175.7087259057462
 30
0.0
 11
88.15971457979392
 21
175.7010490707062
 31
0.0
  0
LINE
  5
141E
330
18
100
AcDbEntity
  8
1
370
    18
100
AcDbLine
 10
88.15971457979392
 20
175.7010490707062
 30
0.0
 11
88.16119209652393
 21
175.6945088475662
 31
0.0
  0
LINE
  5
141F
330
18
100
AcDbEntity
  8
1
370
    18
100
AcDbLine
 10
88.16119209652393
 20
175.6945088475662
 30
0.0
 11
88.16232540134393
 21
175.6883320488961
 31
0.0
  0
LINE
  5
1420
330
18
100
AcDbEntity
  8
1
370
    18
100
AcDbLine
 10
88.16232540134393
 20
175.6883320488961
 30
0.0
 11
88.16301622673393
 21
175.6831344608662
 31
0.0
  0
LINE
  5
1421
330
18
100
AcDbEntity
  8
1
370
    18
100
AcDbLine
 10
88.16301622673393
 20
175.6831344608662
 30
0.0
 11
88.16338000553392
 21
175.6782348249962
 31
0.0
  0
LINE
  5
1422
330
18
100
AcDbEntity
  8
1
370
    18
100
AcDbLine
 10
88.16338000553392
 20
175.6782348249962
 30
0.0
 11
88.16339681652392
 21
175.6741726283961
 31
0.0
  0
LINE
  5
1423
330
18
100
AcDbEntity
  8
1
370
    18
100
AcDbLine
 10
88.16339681652392
 20
175.6741726283961
 30
0.0
 11
88.16304358888393
 21
175.6703771635462
 31
0.0
  0
LINE
  5
1424
330
18
100
AcDbEntity
  8
1
370
    18
100
AcDbLine
 10
88.16304358888393
 20
175.6703771635462
 30
0.0
 11
88.16155914303392
 21
175.6649615050863
 31
0.0
  0
LINE
  5
1425
330
18
100
AcDbEntity
  8
1
370
    18
100
AcDbLine
 10
88.16155914303392
 20
175.6649615050863
 30
0.0
 11
88.15896426633392
 21
175.6602829711362
 31
0.0
  0
LINE
  5
1426
330
18
100
AcDbEntity
  8
1
370
    18
100
AcDbLine
 10
88.02440004727392
 20
175.6376897879762
 30
0.0
 11
88.02465713337392
 21
175.6362756569461
 31
0.0
  0
LINE
  5
1427
330
18
100
AcDbEntity
  8
1
370
    18
100
AcDbLine
 10
87.75793676130392
 20
175.9843255120262
 30
0.0
 11
87.7578079032939
 21
175.9845387793163
 31
0.0
  0
LINE
  5
1428
330
18
100
AcDbEntity
  8
1
370
    18
100
AcDbLine
 10
87.7578079032939
 20
175.9845387793163
 30
0.0
 11
87.75708369214392
 21
175.9855438166761
 31
0.0
  0
LINE
  5
1429
330
18
100
AcDbEntity
  8
1
370
    18
100
AcDbLine
 10
87.75708369214392
 20
175.9855438166761
 30
0.0
 11
87.75622794582394
 21
175.9864515313962
 31
0.0
  0
LINE
  5
142A
330
18
100
AcDbEntity
  8
1
370
    18
100
AcDbLine
 10
87.96168233806392
 20
175.6981480922562
 30
0.0
 11
87.96119454376393
 21
175.6129057036862
 31
0.0
  0
LINE
  5
142B
330
18
100
AcDbEntity
  8
1
370
    18
100
AcDbLine
 10
87.97171164871393
 20
175.9663646424362
 30
0.0
 11
87.97236074190392
 21
175.9664751933962
 31
0.0
  0
LINE
  5
142C
330
18
100
AcDbEntity
  8
1
370
    18
100
AcDbLine
 10
87.97236074190392
 20
175.9664751933962
 30
0.0
 11
87.97300656738391
 21
175.9666043269962
 31
0.0
  0
LINE
  5
142D
330
18
100
AcDbEntity
  8
1
370
    18
100
AcDbLine
 10
87.97171164871393
 20
175.9663646424362
 30
0.0
 11
87.96078993827395
 21
175.9730076212761
 31
0.0
  0
LINE
  5
142E
330
18
100
AcDbEntity
  8
1
370
    18
100
AcDbLine
 10
87.96078993827395
 20
175.9730076212761
 30
0.0
 11
87.94863878147394
 21
175.9769202118762
 31
0.0
  0
LINE
  5
142F
330
18
100
AcDbEntity
  8
1
370
    18
100
AcDbLine
 10
87.94796626313395
 20
175.9780610363662
 30
0.0
 11
87.94829456956392
 21
175.9774861162562
 31
0.0
  0
LINE
  5
1430
330
18
100
AcDbEntity
  8
1
370
    18
100
AcDbLine
 10
87.94829456956392
 20
175.9774861162562
 30
0.0
 11
87.94863878147394
 21
175.9769202118762
 31
0.0
  0
LINE
  5
1431
330
18
100
AcDbEntity
  8
1
370
    18
100
AcDbLine
 10
87.94754964979393
 20
175.9805108346162
 30
0.0
 11
87.94755114585392
 21
175.9792486717862
 31
0.0
  0
LINE
  5
1432
330
18
100
AcDbEntity
  8
1
370
    18
100
AcDbLine
 10
87.94755114585392
 20
175.9792486717862
 30
0.0
 11
87.94796626313395
 21
175.9780610363662
 31
0.0
  0
LINE
  5
1433
330
18
100
AcDbEntity
  8
1
370
    18
100
AcDbLine
 10
87.94754964979393
 20
175.9805108346162
 30
0.0
 11
87.94726161887394
 21
175.9827065388862
 31
0.0
  0
LINE
  5
1434
330
18
100
AcDbEntity
  8
1
370
    18
100
AcDbLine
 10
87.94726161887394
 20
175.9827065388862
 30
0.0
 11
87.94580032258394
 21
175.9843435434861
 31
0.0
  0
LINE
  5
1435
330
18
100
AcDbEntity
  8
1
370
    18
100
AcDbLine
 10
87.94580032258394
 20
175.9843435434861
 30
0.0
 11
87.93166672880394
 21
175.9874799939061
 31
0.0
  0
LINE
  5
1436
330
18
100
AcDbEntity
  8
1
370
    18
100
AcDbLine
 10
87.93166672880394
 20
175.9874799939061
 30
0.0
 11
87.91837809396392
 21
175.9815248877061
 31
0.0
  0
LINE
  5
1437
330
18
100
AcDbEntity
  8
1
370
    18
100
AcDbLine
 10
87.91837809396392
 20
175.9815248877061
 30
0.0
 11
87.91724600961392
 21
175.9796205214362
 31
0.0
  0
LINE
  5
1438
330
18
100
AcDbEntity
  8
1
370
    18
100
AcDbLine
 10
87.91724600961392
 20
175.9796205214362
 30
0.0
 11
87.91736766291393
 21
175.9774074156261
 31
0.0
  0
LINE
  5
1439
330
18
100
AcDbEntity
  8
1
370
    18
100
AcDbLine
 10
87.91741030062393
 20
175.9749191528862
 30
0.0
 11
87.91759833174394
 21
175.9761680873962
 31
0.0
  0
LINE
  5
143A
330
18
100
AcDbEntity
  8
1
370
    18
100
AcDbLine
 10
87.91759833174394
 20
175.9761680873962
 30
0.0
 11
87.91736766291393
 21
175.9774074156261
 31
0.0
  0
LINE
  5
143B
330
18
100
AcDbEntity
  8
1
370
    18
100
AcDbLine
 10
87.91696034089392
 20
175.9736624231162
 30
0.0
 11
87.91719404121392
 21
175.9742877761962
 31
0.0
  0
LINE
  5
143C
330
18
100
AcDbEntity
  8
1
370
    18
100
AcDbLine
 10
87.91719404121392
 20
175.9742877761962
 30
0.0
 11
87.91741030062393
 21
175.9749191528862
 31
0.0
  0
LINE
  5
143D
330
18
100
AcDbEntity
  8
1
370
    18
100
AcDbLine
 10
87.91696034089392
 20
175.9736624231162
 30
0.0
 11
87.90575957589394
 21
175.9673498373161
 31
0.0
  0
LINE
  5
143E
330
18
100
AcDbEntity
  8
1
370
    18
100
AcDbLine
 10
87.90575957589394
 20
175.9673498373161
 30
0.0
 11
87.89626880747395
 21
175.9586072957462
 31
0.0
  0
LINE
  5
143F
330
18
100
AcDbEntity
  8
1
370
    18
100
AcDbLine
 10
87.89495408569392
 20
175.9585796580061
 30
0.0
 11
87.89561160406393
 21
175.9585838705962
 31
0.0
  0
LINE
  5
1440
330
18
100
AcDbEntity
  8
1
370
    18
100
AcDbLine
 10
87.89561160406393
 20
175.9585838705962
 30
0.0
 11
87.89626880747395
 21
175.9586072957462
 31
0.0
  0
LINE
  5
1441
330
18
100
AcDbEntity
  8
1
370
    18
100
AcDbLine
 10
87.89265145250393
 20
175.9594237114361
 30
0.0
 11
87.89373011176392
 21
175.9588019410262
 31
0.0
  0
LINE
  5
1442
330
18
100
AcDbEntity
  8
1
370
    18
100
AcDbLine
 10
87.89373011176392
 20
175.9588019410262
 30
0.0
 11
87.89495408569392
 21
175.9585796580061
 31
0.0
  0
LINE
  5
1443
330
18
100
AcDbEntity
  8
1
370
    18
100
AcDbLine
 10
87.89265145250393
 20
175.9594237114361
 30
0.0
 11
87.89063118095395
 21
175.9602545365461
 31
0.0
  0
LINE
  5
1444
330
18
100
AcDbEntity
  8
1
370
    18
100
AcDbLine
 10
87.89063118095395
 20
175.9602545365461
 30
0.0
 11
87.88849315373395
 21
175.9597793406461
 31
0.0
  0
LINE
  5
1445
330
18
100
AcDbEntity
  8
1
370
    18
100
AcDbLine
 10
87.88849315373395
 20
175.9597793406461
 30
0.0
 11
87.87866148048392
 21
175.9489125907262
 31
0.0
  0
LINE
  5
1446
330
18
100
AcDbEntity
  8
1
370
    18
100
AcDbLine
 10
87.87866148048392
 20
175.9489125907262
 30
0.0
 11
87.87701994833392
 21
175.9342984073562
 31
0.0
  0
LINE
  5
1447
330
18
100
AcDbEntity
  8
1
370
    18
100
AcDbLine
 10
87.87701994833392
 20
175.9342984073562
 30
0.0
 11
87.87807305646394
 21
175.9323628206762
 31
0.0
  0
LINE
  5
1448
330
18
100
AcDbEntity
  8
1
370
    18
100
AcDbLine
 10
87.87807305646394
 20
175.9323628206762
 30
0.0
 11
87.88002332815393
 21
175.9313776257962
 31
0.0
  0
LINE
  5
1449
330
18
100
AcDbEntity
  8
1
370
    18
100
AcDbLine
 10
87.88216946559392
 20
175.9301863683362
 30
0.0
 11
87.88119840454394
 21
175.9309679415762
 31
0.0
  0
LINE
  5
144A
330
18
100
AcDbEntity
  8
1
370
    18
100
AcDbLine
 10
87.88119840454394
 20
175.9309679415762
 30
0.0
 11
87.88002332815393
 21
175.9313776257962
 31
0.0
  0
LINE
  5
144B
330
18
100
AcDbEntity
  8
1
370
    18
100
AcDbLine
 10
87.88301473949394
 20
175.9291705042262
 30
0.0
 11
87.88259930725393
 21
175.9296847551662
 31
0.0
  0
LINE
  5
144C
330
18
100
AcDbEntity
  8
1
370
    18
100
AcDbLine
 10
87.88259930725393
 20
175.9296847551662
 30
0.0
 11
87.88216946559392
 21
175.9301863683362
 31
0.0
  0
LINE
  5
144D
330
18
100
AcDbEntity
  8
1
370
    18
100
AcDbLine
 10
87.88301473949394
 20
175.9291705042262
 30
0.0
 11
87.88273509438395
 21
175.9162137978561
 31
0.0
  0
LINE
  5
144E
330
18
100
AcDbEntity
  8
1
370
    18
100
AcDbLine
 10
87.88273509438395
 20
175.9162137978561
 30
0.0
 11
87.88539544339393
 21
175.9035586263162
 31
0.0
  0
LINE
  5
144F
330
18
100
AcDbEntity
  8
1
370
    18
100
AcDbLine
 10
87.88475386987395
 20
175.9023907940062
 30
0.0
 11
87.88508276685394
 21
175.9029698873361
 31
0.0
  0
LINE
  5
1450
330
18
100
AcDbEntity
  8
1
370
    18
100
AcDbLine
 10
87.88508276685394
 20
175.9029698873361
 30
0.0
 11
87.88539544339393
 21
175.9035586263162
 31
0.0
  0
LINE
  5
1451
330
18
100
AcDbEntity
  8
1
370
    18
100
AcDbLine
 10
87.8828675350639
 20
175.9007844192662
 30
0.0
 11
87.88394465889393
 21
175.9014248116861
 31
0.0
  0
LINE
  5
1452
330
18
100
AcDbEntity
  8
1
370
    18
100
AcDbLine
 10
87.88394465889393
 20
175.9014248116861
 30
0.0
 11
87.88475386987395
 21
175.9023907940062
 31
0.0
  0
LINE
  5
1453
330
18
100
AcDbEntity
  8
1
370
    18
100
AcDbLine
 10
87.8828675350639
 20
175.9007844192662
 30
0.0
 11
87.88113529443393
 21
175.8994201306562
 31
0.0
  0
LINE
  5
1454
330
18
100
AcDbEntity
  8
1
370
    18
100
AcDbLine
 10
87.88113529443393
 20
175.8994201306562
 30
0.0
 11
87.88045856350391
 21
175.8973079301561
 31
0.0
  0
LINE
  5
1455
330
18
100
AcDbEntity
  8
1
370
    18
100
AcDbLine
 10
87.88045856350391
 20
175.8973079301561
 30
0.0
 11
87.88476048403394
 21
175.8833041392662
 31
0.0
  0
LINE
  5
1456
330
18
100
AcDbEntity
  8
1
370
    18
100
AcDbLine
 10
87.88476048403394
 20
175.8833041392662
 30
0.0
 11
87.89640790168395
 21
175.8746456920162
 31
0.0
  0
LINE
  5
1457
330
18
100
AcDbEntity
  8
1
370
    18
100
AcDbLine
 10
87.89640790168395
 20
175.8746456920162
 30
0.0
 11
87.89859246424395
 21
175.8746150621561
 31
0.0
  0
LINE
  5
1458
330
18
100
AcDbEntity
  8
1
370
    18
100
AcDbLine
 10
87.89859246424395
 20
175.8746150621561
 30
0.0
 11
87.90042143696394
 21
175.8758411620662
 31
0.0
  0
LINE
  5
1459
330
18
100
AcDbEntity
  8
1
370
    18
100
AcDbLine
 10
87.90252521228394
 20
175.8771387578962
 30
0.0
 11
87.90136549019392
 21
175.8766713572562
 31
0.0
  0
LINE
  5
145A
330
18
100
AcDbEntity
  8
1
370
    18
100
AcDbLine
 10
87.90136549019392
 20
175.8766713572562
 30
0.0
 11
87.90042143696394
 21
175.8758411620662
 31
0.0
  0
LINE
  5
145B
330
18
100
AcDbEntity
  8
1
370
    18
100
AcDbLine
 10
87.90382009158392
 20
175.8773796629261
 30
0.0
 11
87.90317099839393
 21
175.8772685214162
 31
0.0
  0
LINE
  5
145C
330
18
100
AcDbEntity
  8
1
370
    18
100
AcDbLine
 10
87.90317099839393
 20
175.8772685214162
 30
0.0
 11
87.90252521228394
 21
175.8771387578962
 31
0.0
  0
LINE
  5
145D
330
18
100
AcDbEntity
  8
1
370
    18
100
AcDbLine
 10
87.90382009158392
 20
175.8773796629261
 30
0.0
 11
87.91474152643393
 21
175.8707354636162
 31
0.0
  0
LINE
  5
145E
330
18
100
AcDbEntity
  8
1
370
    18
100
AcDbLine
 10
87.91474152643393
 20
175.8707354636162
 30
0.0
 11
87.92689295882393
 21
175.8668234635661
 31
0.0
  0
LINE
  5
145F
330
18
100
AcDbEntity
  8
1
370
    18
100
AcDbLine
 10
87.92756547716392
 20
175.8656826784462
 30
0.0
 11
87.92723717073393
 21
175.8662581891062
 31
0.0
  0
LINE
  5
1460
330
18
100
AcDbEntity
  8
1
370
    18
100
AcDbLine
 10
87.92723717073393
 20
175.8662581891062
 30
0.0
 11
87.92689295882393
 21
175.8668234635661
 31
0.0
  0
LINE
  5
1461
330
18
100
AcDbEntity
  8
1
370
    18
100
AcDbLine
 10
87.92798181491392
 20
175.8632322502761
 30
0.0
 11
87.92798000389392
 21
175.8644955942062
 31
0.0
  0
LINE
  5
1462
330
18
100
AcDbEntity
  8
1
370
    18
100
AcDbLine
 10
87.92798000389392
 20
175.8644955942062
 30
0.0
 11
87.92756547716392
 21
175.8656826784462
 31
0.0
  0
LINE
  5
1463
330
18
100
AcDbEntity
  8
1
370
    18
100
AcDbLine
 10
87.92798181491392
 20
175.8632322502761
 30
0.0
 11
87.92827016079391
 21
175.8610377664762
 31
0.0
  0
LINE
  5
1464
330
18
100
AcDbEntity
  8
1
370
    18
100
AcDbLine
 10
87.92827016079391
 20
175.8610377664762
 30
0.0
 11
87.92973145708392
 21
175.8594001319561
 31
0.0
  0
LINE
  5
1465
330
18
100
AcDbEntity
  8
1
370
    18
100
AcDbLine
 10
87.92973145708392
 20
175.8594001319561
 30
0.0
 11
87.94386501149393
 21
175.8562636815361
 31
0.0
  0
LINE
  5
1466
330
18
100
AcDbEntity
  8
1
370
    18
100
AcDbLine
 10
87.94386501149393
 20
175.8562636815361
 30
0.0
 11
87.95715364633393
 21
175.8622194176562
 31
0.0
  0
LINE
  5
1467
330
18
100
AcDbEntity
  8
1
370
    18
100
AcDbLine
 10
87.95715364633393
 20
175.8622194176562
 30
0.0
 11
87.95828545509392
 21
175.8641231540062
 31
0.0
  0
LINE
  5
1468
330
18
100
AcDbEntity
  8
1
370
    18
100
AcDbLine
 10
87.95828545509392
 20
175.8641231540062
 30
0.0
 11
87.95816380179394
 21
175.8663362598161
 31
0.0
  0
LINE
  5
1469
330
18
100
AcDbEntity
  8
1
370
    18
100
AcDbLine
 10
87.95812116408393
 20
175.8688245225562
 30
0.0
 11
87.95793281800392
 21
175.8675749974962
 31
0.0
  0
LINE
  5
146A
330
18
100
AcDbEntity
  8
1
370
    18
100
AcDbLine
 10
87.95793281800392
 20
175.8675749974962
 30
0.0
 11
87.95816380179394
 21
175.8663362598161
 31
0.0
  0
LINE
  5
146B
330
18
100
AcDbEntity
  8
1
370
    18
100
AcDbLine
 10
87.9585708088539
 20
175.8700812916963
 30
0.0
 11
87.95833742349392
 21
175.8694564897962
 31
0.0
  0
LINE
  5
146C
330
18
100
AcDbEntity
  8
1
370
    18
100
AcDbLine
 10
87.95833742349392
 20
175.8694564897962
 30
0.0
 11
87.95812116408393
 21
175.8688245225562
 31
0.0
  0
LINE
  5
146D
330
18
100
AcDbEntity
  8
1
370
    18
100
AcDbLine
 10
87.9585708088539
 20
175.8700812916963
 30
0.0
 11
87.9697718888139
 21
175.8763938381262
 31
0.0
  0
LINE
  5
146E
330
18
100
AcDbEntity
  8
1
370
    18
100
AcDbLine
 10
87.9697718888139
 20
175.8763938381262
 30
0.0
 11
87.97926293282392
 21
175.8851363796962
 31
0.0
  0
LINE
  5
146F
330
18
100
AcDbEntity
  8
1
370
    18
100
AcDbLine
 10
87.98057765460393
 20
175.8851640174363
 30
0.0
 11
87.97992013623391
 21
175.8851603953962
 31
0.0
  0
LINE
  5
1470
330
18
100
AcDbEntity
  8
1
370
    18
100
AcDbLine
 10
87.97992013623391
 20
175.8851603953962
 30
0.0
 11
87.97926293282392
 21
175.8851363796962
 31
0.0
  0
LINE
  5
1471
330
18
100
AcDbEntity
  8
1
370
    18
100
AcDbLine
 10
87.98288028779394
 20
175.8843205939262
 30
0.0
 11
87.98180107735394
 21
175.8849423249662
 31
0.0
  0
LINE
  5
1472
330
18
100
AcDbEntity
  8
1
370
    18
100
AcDbLine
 10
87.98180107735394
 20
175.8849423249662
 30
0.0
 11
87.98057765460393
 21
175.8851640174363
 31
0.0
  0
LINE
  5
1473
330
18
100
AcDbEntity
  8
1
370
    18
100
AcDbLine
 10
87.98288028779394
 20
175.8843205939262
 30
0.0
 11
87.98490055934392
 21
175.8834891388961
 31
0.0
  0
LINE
  5
1474
330
18
100
AcDbEntity
  8
1
370
    18
100
AcDbLine
 10
87.98490055934392
 20
175.8834891388961
 30
0.0
 11
87.98703831097393
 21
175.8839637442462
 31
0.0
  0
LINE
  5
1475
330
18
100
AcDbEntity
  8
1
370
    18
100
AcDbLine
 10
87.98703831097393
 20
175.8839637442462
 30
0.0
 11
87.99687029918393
 21
175.8948310847161
 31
0.0
  0
LINE
  5
1476
330
18
100
AcDbEntity
  8
1
370
    18
100
AcDbLine
 10
87.99687029918393
 20
175.8948310847161
 30
0.0
 11
87.99851120141394
 21
175.9094458586361
 31
0.0
  0
LINE
  5
1477
330
18
100
AcDbEntity
  8
1
370
    18
100
AcDbLine
 10
87.99851120141394
 20
175.9094458586361
 30
0.0
 11
87.99745872320395
 21
175.9113808547662
 31
0.0
  0
LINE
  5
1478
330
18
100
AcDbEntity
  8
1
370
    18
100
AcDbLine
 10
87.99745872320395
 20
175.9113808547662
 30
0.0
 11
87.9955081365539
 21
175.9123660496461
 31
0.0
  0
LINE
  5
1479
330
18
100
AcDbEntity
  8
1
370
    18
100
AcDbLine
 10
87.99336195974394
 20
175.9135579370262
 30
0.0
 11
87.99433337512395
 21
175.9127745527662
 31
0.0
  0
LINE
  5
147A
330
18
100
AcDbEntity
  8
1
370
    18
100
AcDbLine
 10
87.99433337512395
 20
175.9127745527662
 30
0.0
 11
87.9955081365539
 21
175.9123660496461
 31
0.0
  0
LINE
  5
147B
330
18
100
AcDbEntity
  8
1
370
    18
100
AcDbLine
 10
87.99251704017393
 20
175.9145731712162
 30
0.0
 11
87.99293243304393
 21
175.9140589202762
 31
0.0
  0
LINE
  5
147C
330
18
100
AcDbEntity
  8
1
370
    18
100
AcDbLine
 10
87.99293243304393
 20
175.9140589202762
 30
0.0
 11
87.99336195974394
 21
175.9135579370262
 31
0.0
  0
LINE
  5
147D
330
18
100
AcDbEntity
  8
1
370
    18
100
AcDbLine
 10
87.99251704017393
 20
175.9145731712162
 30
0.0
 11
87.99279609473392
 21
175.9275299169562
 31
0.0
  0
LINE
  5
147E
330
18
100
AcDbEntity
  8
1
370
    18
100
AcDbLine
 10
87.99279609473392
 20
175.9275299169562
 30
0.0
 11
87.99013570635393
 21
175.9401844585762
 31
0.0
  0
LINE
  5
147F
330
18
100
AcDbEntity
  8
1
370
    18
100
AcDbLine
 10
87.99077790979394
 20
175.9413528814362
 30
0.0
 11
87.99044869785396
 21
175.9407737881062
 31
0.0
  0
LINE
  5
1480
330
18
100
AcDbEntity
  8
1
370
    18
100
AcDbLine
 10
87.99044869785396
 20
175.9407737881062
 30
0.0
 11
87.99013570635393
 21
175.9401844585762
 31
0.0
  0
LINE
  5
1481
330
18
100
AcDbEntity
  8
1
370
    18
100
AcDbLine
 10
87.99266420523393
 20
175.9429592561762
 30
0.0
 11
87.99158680581392
 21
175.9423182732063
 31
0.0
  0
LINE
  5
1482
330
18
100
AcDbEntity
  8
1
370
    18
100
AcDbLine
 10
87.99158680581392
 20
175.9423182732063
 30
0.0
 11
87.99077790979394
 21
175.9413528814362
 31
0.0
  0
LINE
  5
1483
330
18
100
AcDbEntity
  8
1
370
    18
100
AcDbLine
 10
87.99266420523393
 20
175.9429592561762
 30
0.0
 11
87.99439585531393
 21
175.9443235447862
 31
0.0
  0
LINE
  5
1484
330
18
100
AcDbEntity
  8
1
370
    18
100
AcDbLine
 10
87.99439585531393
 20
175.9443235447862
 30
0.0
 11
87.99507258624393
 21
175.9464363358361
 31
0.0
  0
LINE
  5
1485
330
18
100
AcDbEntity
  8
1
370
    18
100
AcDbLine
 10
87.99507258624393
 20
175.9464363358361
 30
0.0
 11
87.99077098067392
 21
175.9604389456263
 31
0.0
  0
LINE
  5
1486
330
18
100
AcDbEntity
  8
1
370
    18
100
AcDbLine
 10
87.99077098067392
 20
175.9604389456263
 30
0.0
 11
87.9791238779839
 21
175.9690979834261
 31
0.0
  0
LINE
  5
1487
330
18
100
AcDbEntity
  8
1
370
    18
100
AcDbLine
 10
87.9791238779839
 20
175.9690979834261
 30
0.0
 11
87.97693900046395
 21
175.9691286526561
 31
0.0
  0
LINE
  5
1488
330
18
100
AcDbEntity
  8
1
370
    18
100
AcDbLine
 10
87.97693900046395
 20
175.9691286526561
 30
0.0
 11
87.97511002774394
 21
175.9679019228262
 31
0.0
  0
LINE
  5
1489
330
18
100
AcDbEntity
  8
1
370
    18
100
AcDbLine
 10
87.97300656738391
 20
175.9666043269962
 30
0.0
 11
87.97416597451393
 21
175.9670717276362
 31
0.0
  0
LINE
  5
148A
330
18
100
AcDbEntity
  8
1
370
    18
100
AcDbLine
 10
87.97416597451393
 20
175.9670717276362
 30
0.0
 11
87.97511002774394
 21
175.9679019228262
 31
0.0
  0
LINE
  5
148B
330
18
100
AcDbEntity
  8
1
370
    18
100
AcDbLine
 10
87.9377657323539
 20
175.9881113705962
 30
0.0
 11
87.91542998962393
 21
175.9839548828461
 31
0.0
  0
LINE
  5
148C
330
18
100
AcDbEntity
  8
1
370
    18
100
AcDbLine
 10
87.91542998962393
 20
175.9839548828461
 30
0.0
 11
87.89578821788394
 21
175.9723107329062
 31
0.0
  0
LINE
  5
148D
330
18
100
AcDbEntity
  8
1
370
    18
100
AcDbLine
 10
87.89578821788394
 20
175.9723107329062
 30
0.0
 11
87.88120919192392
 21
175.9545823431662
 31
0.0
  0
LINE
  5
148E
330
18
100
AcDbEntity
  8
1
370
    18
100
AcDbLine
 10
87.88120919192392
 20
175.9545823431662
 30
0.0
 11
87.87345216019392
 21
175.9329082920262
 31
0.0
  0
LINE
  5
148F
330
18
100
AcDbEntity
  8
1
370
    18
100
AcDbLine
 10
87.87345216019392
 20
175.9329082920262
 30
0.0
 11
87.87345216019392
 21
175.9099036136261
 31
0.0
  0
LINE
  5
1490
330
18
100
AcDbEntity
  8
1
370
    18
100
AcDbLine
 10
87.87345216019392
 20
175.9099036136261
 30
0.0
 11
87.88120919192392
 21
175.8883419244662
 31
0.0
  0
LINE
  5
1491
330
18
100
AcDbEntity
  8
1
370
    18
100
AcDbLine
 10
87.88120919192392
 20
175.8883419244662
 30
0.0
 11
87.89578821788394
 21
175.8708249909961
 31
0.0
  0
LINE
  5
1492
330
18
100
AcDbEntity
  8
1
370
    18
100
AcDbLine
 10
87.89578821788394
 20
175.8708249909961
 30
0.0
 11
87.91542998962393
 21
175.8594650137162
 31
0.0
  0
LINE
  5
1493
330
18
100
AcDbEntity
  8
1
370
    18
100
AcDbLine
 10
87.91542998962393
 20
175.8594650137162
 30
0.0
 11
87.9377657323539
 21
175.8556323048462
 31
0.0
  0
LINE
  5
1494
330
18
100
AcDbEntity
  8
1
370
    18
100
AcDbLine
 10
87.9377657323539
 20
175.8556323048462
 30
0.0
 11
87.96010147508395
 21
175.8597882020462
 31
0.0
  0
LINE
  5
1495
330
18
100
AcDbEntity
  8
1
370
    18
100
AcDbLine
 10
87.96010147508395
 20
175.8597882020462
 30
0.0
 11
87.97974352241395
 21
175.8714329425362
 31
0.0
  0
LINE
  5
1496
330
18
100
AcDbEntity
  8
1
370
    18
100
AcDbLine
 10
87.97974352241395
 20
175.8714329425362
 30
0.0
 11
87.99432227278392
 21
175.8891613322762
 31
0.0
  0
LINE
  5
1497
330
18
100
AcDbEntity
  8
1
370
    18
100
AcDbLine
 10
87.99432227278392
 20
175.8891613322762
 30
0.0
 11
88.00207958010394
 21
175.9108347928662
 31
0.0
  0
LINE
  5
1498
330
18
100
AcDbEntity
  8
1
370
    18
100
AcDbLine
 10
88.00207958010394
 20
175.9108347928662
 30
0.0
 11
88.00207958010394
 21
175.9338400618162
 31
0.0
  0
LINE
  5
1499
330
18
100
AcDbEntity
  8
1
370
    18
100
AcDbLine
 10
88.00207958010394
 20
175.9338400618162
 30
0.0
 11
87.99432227278392
 21
175.9554011604262
 31
0.0
  0
LINE
  5
149A
330
18
100
AcDbEntity
  8
1
370
    18
100
AcDbLine
 10
87.99432227278392
 20
175.9554011604262
 30
0.0
 11
87.97974352241395
 21
175.9729186844461
 31
0.0
  0
LINE
  5
149B
330
18
100
AcDbEntity
  8
1
370
    18
100
AcDbLine
 10
87.97974352241395
 20
175.9729186844461
 30
0.0
 11
87.96010147508395
 21
175.9842786617262
 31
0.0
  0
LINE
  5
149C
330
18
100
AcDbEntity
  8
1
370
    18
100
AcDbLine
 10
87.96010147508395
 20
175.9842786617262
 30
0.0
 11
87.9377657323539
 21
175.9881113705962
 31
0.0
  0
LINE
  5
149D
330
18
100
AcDbEntity
  8
1
370
    18
100
AcDbLine
 10
87.93389999205393
 20
176.0506302219362
 30
0.0
 11
87.90255525159393
 21
176.0463860178262
 31
0.0
  0
LINE
  5
149E
330
18
100
AcDbEntity
  8
1
370
    18
100
AcDbLine
 10
87.90255525159393
 20
176.0463860178262
 30
0.0
 11
87.87318003475393
 21
176.0343772623161
 31
0.0
  0
LINE
  5
149F
330
18
100
AcDbEntity
  8
1
370
    18
100
AcDbLine
 10
87.87318003475393
 20
176.0343772623161
 30
0.0
 11
87.84762012524394
 21
176.0153560798862
 31
0.0
  0
LINE
  5
14A0
330
18
100
AcDbEntity
  8
1
370
    18
100
AcDbLine
 10
87.84762012524394
 20
176.0153560798862
 30
0.0
 11
87.82748095292395
 21
175.9905179405862
 31
0.0
  0
LINE
  5
14A1
330
18
100
AcDbEntity
  8
1
370
    18
100
AcDbLine
 10
87.82748095292395
 20
175.9905179405862
 30
0.0
 11
87.81402920817395
 21
175.9614247704262
 31
0.0
  0
LINE
  5
14A2
330
18
100
AcDbEntity
  8
1
370
    18
100
AcDbLine
 10
87.81402920817395
 20
175.9614247704262
 30
0.0
 11
87.80810894442394
 21
175.9299040066962
 31
0.0
  0
LINE
  5
14A3
330
18
100
AcDbEntity
  8
1
370
    18
100
AcDbLine
 10
87.80810894442394
 20
175.9299040066962
 30
0.0
 11
87.81009287746391
 21
175.8979351336261
 31
0.0
  0
LINE
  5
14A4
330
18
100
AcDbEntity
  8
1
370
    18
100
AcDbLine
 10
87.81009287746391
 20
175.8979351336261
 30
0.0
 11
87.81985608628394
 21
175.8675281471962
 31
0.0
  0
LINE
  5
14A5
330
18
100
AcDbEntity
  8
1
370
    18
100
AcDbLine
 10
87.81985608628394
 20
175.8675281471962
 30
0.0
 11
87.83678487132393
 21
175.8405940278362
 31
0.0
  0
LINE
  5
14A6
330
18
100
AcDbEntity
  8
1
370
    18
100
AcDbLine
 10
87.83678487132393
 20
175.8405940278362
 30
0.0
 11
87.85981569140394
 21
175.8188238745262
 31
0.0
  0
LINE
  5
14A7
330
18
100
AcDbEntity
  8
1
370
    18
100
AcDbLine
 10
87.85981569140394
 20
175.8188238745262
 30
0.0
 11
87.88750193524393
 21
175.8035867396462
 31
0.0
  0
LINE
  5
14A8
330
18
100
AcDbEntity
  8
1
370
    18
100
AcDbLine
 10
87.88750193524393
 20
175.8035867396462
 30
0.0
 11
87.91810325199392
 21
175.7958384086862
 31
0.0
  0
LINE
  5
14A9
330
18
100
AcDbEntity
  8
1
370
    18
100
AcDbLine
 10
87.91810325199392
 20
175.7958384086862
 30
0.0
 11
87.94969728329393
 21
175.7960666759462
 31
0.0
  0
LINE
  5
14AA
330
18
100
AcDbEntity
  8
1
370
    18
100
AcDbLine
 10
87.94969728329393
 20
175.7960666759462
 30
0.0
 11
87.98029860004392
 21
175.8042577619263
 31
0.0
  0
LINE
  5
14AB
330
18
100
AcDbEntity
  8
1
370
    18
100
AcDbLine
 10
87.98029860004392
 20
175.8042577619263
 30
0.0
 11
88.00798484388392
 21
175.8198967857662
 31
0.0
  0
LINE
  5
14AC
330
18
100
AcDbEntity
  8
1
370
    18
100
AcDbLine
 10
88.00798484388392
 20
175.8198967857662
 30
0.0
 11
88.03101566396392
 21
175.8420003636062
 31
0.0
  0
LINE
  5
14AD
330
18
100
AcDbEntity
  8
1
370
    18
100
AcDbLine
 10
88.03101566396392
 20
175.8420003636062
 30
0.0
 11
88.04794448837393
 21
175.8691801517662
 31
0.0
  0
LINE
  5
14AE
330
18
100
AcDbEntity
  8
1
370
    18
100
AcDbLine
 10
88.04794448837393
 20
175.8691801517662
 30
0.0
 11
88.05770769719392
 21
175.8997277284661
 31
0.0
  0
LINE
  5
14AF
330
18
100
AcDbEntity
  8
1
370
    18
100
AcDbLine
 10
88.05770769719392
 20
175.8997277284661
 30
0.0
 11
88.05969163023394
 21
175.9317248691962
 31
0.0
  0
LINE
  5
14B0
330
18
100
AcDbEntity
  8
1
370
    18
100
AcDbLine
 10
88.05969163023394
 20
175.9317248691962
 30
0.0
 11
88.05377132711393
 21
175.9631603181361
 31
0.0
  0
LINE
  5
14B1
330
18
100
AcDbEntity
  8
1
370
    18
100
AcDbLine
 10
88.05377132711393
 20
175.9631603181361
 30
0.0
 11
88.04031962173393
 21
175.9920594335661
 31
0.0
  0
LINE
  5
14B2
330
18
100
AcDbEntity
  8
1
370
    18
100
AcDbLine
 10
88.04031962173393
 20
175.9920594335661
 30
0.0
 11
88.02018044941393
 21
176.0166050143961
 31
0.0
  0
LINE
  5
14B3
330
18
100
AcDbEntity
  8
1
370
    18
100
AcDbLine
 10
88.02018044941393
 20
176.0166050143961
 30
0.0
 11
87.99462053990394
 21
176.0352567487462
 31
0.0
  0
LINE
  5
14B4
330
18
100
AcDbEntity
  8
1
370
    18
100
AcDbLine
 10
87.99462053990394
 20
176.0352567487462
 30
0.0
 11
87.96524532306392
 21
176.0468401901461
 31
0.0
  0
LINE
  5
14B5
330
18
100
AcDbEntity
  8
1
370
    18
100
AcDbLine
 10
87.96524532306392
 20
176.0468401901461
 30
0.0
 11
87.93389999205393
 21
176.0506302219362
 31
0.0
  0
LINE
  5
14B6
330
18
100
AcDbEntity
  8
1
370
    18
100
AcDbLine
 10
87.93118763527393
 20
176.0512724253762
 30
0.0
 11
87.89828218927393
 21
176.0466004662163
 31
0.0
  0
LINE
  5
14B7
330
18
100
AcDbEntity
  8
1
370
    18
100
AcDbLine
 10
87.89828218927393
 20
176.0466004662163
 30
0.0
 11
87.86765835288393
 21
176.0333848233561
 31
0.0
  0
LINE
  5
14B8
330
18
100
AcDbEntity
  8
1
370
    18
100
AcDbLine
 10
87.86765835288393
 20
176.0333848233561
 30
0.0
 11
87.84144183051393
 21
176.0125428177961
 31
0.0
  0
LINE
  5
14B9
330
18
100
AcDbEntity
  8
1
370
    18
100
AcDbLine
 10
87.84144183051393
 20
176.0125428177961
 30
0.0
 11
87.82144982325394
 21
175.9855198009762
 31
0.0
  0
LINE
  5
14BA
330
18
100
AcDbEntity
  8
1
370
    18
100
AcDbLine
 10
87.82144982325394
 20
175.9855198009762
 30
0.0
 11
87.80906953305393
 21
175.9541888793862
 31
0.0
  0
LINE
  5
14BB
330
18
100
AcDbEntity
  8
1
370
    18
100
AcDbLine
 10
87.80906953305393
 20
175.9541888793862
 30
0.0
 11
87.80516021016394
 21
175.9207259148161
 31
0.0
  0
LINE
  5
14BC
330
18
100
AcDbEntity
  8
1
370
    18
100
AcDbLine
 10
87.80516021016394
 20
175.9207259148161
 30
0.0
 11
87.80999193278395
 21
175.8874492097161
 31
0.0
  0
LINE
  5
14BD
330
18
100
AcDbEntity
  8
1
370
    18
100
AcDbLine
 10
87.80999193278395
 20
175.8874492097161
 30
0.0
 11
87.82323013465392
 21
175.8566691925362
 31
0.0
  0
LINE
  5
14BE
330
18
100
AcDbEntity
  8
1
370
    18
100
AcDbLine
 10
87.82323013465392
 20
175.8566691925362
 30
0.0
 11
87.84395682548391
 21
175.8305190479861
 31
0.0
  0
LINE
  5
14BF
330
18
100
AcDbEntity
  8
1
370
    18
100
AcDbLine
 10
87.84395682548391
 20
175.8305190479861
 30
0.0
 11
87.87073381917394
 21
175.8108147960562
 31
0.0
  0
LINE
  5
14C0
330
18
100
AcDbEntity
  8
1
370
    18
100
AcDbLine
 10
87.87073381917394
 20
175.8108147960562
 30
0.0
 11
87.90170399345393
 21
175.7989201741762
 31
0.0
  0
LINE
  5
14C1
330
18
100
AcDbEntity
  8
1
370
    18
100
AcDbLine
 10
87.96068359990394
 20
176.0479359359861
 30
0.0
 11
87.94603878667395
 21
176.0504896710362
 31
0.0
  0
LINE
  5
14C2
330
18
100
AcDbEntity
  8
1
370
    18
100
AcDbLine
 10
87.94603878667395
 20
176.0504896710362
 30
0.0
 11
87.93118763527393
 21
176.0512724253762
 31
0.0
  0
LINE
  5
14C3
330
18
100
AcDbEntity
  8
1
370
    13
100
AcDbLine
 10
87.88672008641393
 20
175.8808819393862
 30
0.0
 11
87.90252521228394
 21
175.8771387578962
 31
0.0
  0
LINE
  5
14C4
330
18
100
AcDbEntity
  8
1
370
    18
100
AcDbLine
 10
87.90382009158392
 20
175.8773796629261
 30
0.0
 11
87.90998909499393
 21
175.8775520641562
 31
0.0
  0
LINE
  5
14C5
330
18
100
AcDbEntity
  8
1
370
    18
100
AcDbLine
 10
87.90998909499393
 20
175.8775520641562
 30
0.0
 11
87.91646475133395
 21
175.8756705324862
 31
0.0
  0
LINE
  5
14C6
330
18
100
AcDbEntity
  8
1
370
    18
100
AcDbLine
 10
87.91646475133395
 20
175.8756705324862
 30
0.0
 11
87.92180592175395
 21
175.8723160116362
 31
0.0
  0
LINE
  5
14C7
330
18
100
AcDbEntity
  8
1
370
    18
100
AcDbLine
 10
87.92180592175395
 20
175.8723160116362
 30
0.0
 11
87.92611351156393
 21
175.8678831858561
 31
0.0
  0
LINE
  5
14C8
330
18
100
AcDbEntity
  8
1
370
    18
100
AcDbLine
 10
87.92611351156393
 20
175.8678831858561
 30
0.0
 11
87.92689295882393
 21
175.8668234635661
 31
0.0
  0
LINE
  5
14C9
330
18
100
AcDbEntity
  8
1
370
    18
100
AcDbLine
 10
87.88592410375391
 20
175.8823693773562
 30
0.0
 11
87.88862142119395
 21
175.8825459911762
 31
0.0
  0
LINE
  5
14CA
330
18
100
AcDbEntity
  8
1
370
    18
100
AcDbLine
 10
87.88862142119395
 20
175.8825459911762
 30
0.0
 11
87.89135688816392
 21
175.8817878824561
 31
0.0
  0
LINE
  5
14CB
330
18
100
AcDbEntity
  8
1
370
    13
100
AcDbLine
 10
87.88932216782395
 20
175.8784699757061
 30
0.0
 11
87.90042143696394
 21
175.8758411620662
 31
0.0
  0
LINE
  5
14CC
330
18
100
AcDbEntity
  8
1
370
    13
100
AcDbLine
 10
87.88949008087392
 20
175.9601722138762
 30
0.0
 11
87.89265145250393
 21
175.9594237114361
 31
0.0
  0
LINE
  5
14CD
330
18
100
AcDbEntity
  8
1
370
    18
100
AcDbLine
 10
87.88301473949394
 20
175.9291705042262
 30
0.0
 11
87.88593701711393
 21
175.9235470115362
 31
0.0
  0
LINE
  5
14CE
330
18
100
AcDbEntity
  8
1
370
    18
100
AcDbLine
 10
87.88593701711393
 20
175.9235470115362
 30
0.0
 11
87.88742563618393
 21
175.9167952927562
 31
0.0
  0
LINE
  5
14CF
330
18
100
AcDbEntity
  8
1
370
    18
100
AcDbLine
 10
87.88742563618393
 20
175.9167952927562
 30
0.0
 11
87.88728599079393
 21
175.9104995573161
 31
0.0
  0
LINE
  5
14D0
330
18
100
AcDbEntity
  8
1
370
    18
100
AcDbLine
 10
87.88728599079393
 20
175.9104995573161
 30
0.0
 11
87.88585319838395
 21
175.9047132303062
 31
0.0
  0
LINE
  5
14D1
330
18
100
AcDbEntity
  8
1
370
    18
100
AcDbLine
 10
87.88585319838395
 20
175.9047132303062
 30
0.0
 11
87.88539544339393
 21
175.9035586263162
 31
0.0
  0
LINE
  5
14D2
330
18
100
AcDbEntity
  8
1
370
    13
100
AcDbLine
 10
87.87953285669393
 20
175.9314941609962
 30
0.0
 11
87.88002332815393
 21
175.9313776257962
 31
0.0
  0
LINE
  5
14D3
330
18
100
AcDbEntity
  8
1
370
    13
100
AcDbLine
 10
87.92679445508392
 20
175.9854260610062
 30
0.0
 11
87.94754964979393
 21
175.9805108346162
 31
0.0
  0
LINE
  5
14D4
330
18
100
AcDbEntity
  8
1
370
    13
100
AcDbLine
 10
87.93231432593392
 20
175.9875370804062
 30
0.0
 11
87.94580032258394
 21
175.9843435434861
 31
0.0
  0
LINE
  5
14D5
330
18
100
AcDbEntity
  8
1
370
    18
100
AcDbLine
 10
87.91696034089392
 20
175.9736624231162
 30
0.0
 11
87.91333097807394
 21
175.9679577888562
 31
0.0
  0
LINE
  5
14D6
330
18
100
AcDbEntity
  8
1
370
    18
100
AcDbLine
 10
87.91333097807394
 20
175.9679577888562
 30
0.0
 11
87.90819768125393
 21
175.9631212630962
 31
0.0
  0
LINE
  5
14D7
330
18
100
AcDbEntity
  8
1
370
    18
100
AcDbLine
 10
87.90819768125393
 20
175.9631212630962
 30
0.0
 11
87.90284060535395
 21
175.9601511902961
 31
0.0
  0
LINE
  5
14D8
330
18
100
AcDbEntity
  8
1
370
    18
100
AcDbLine
 10
87.90284060535395
 20
175.9601511902961
 30
0.0
 11
87.89741833273394
 21
175.9587226498461
 31
0.0
  0
LINE
  5
14D9
330
18
100
AcDbEntity
  8
1
370
    18
100
AcDbLine
 10
87.89741833273394
 20
175.9587226498461
 30
0.0
 11
87.89626880747395
 21
175.9586072957462
 31
0.0
  0
LINE
  5
14DA
330
18
100
AcDbEntity
  8
1
370
    13
100
AcDbLine
 10
87.97190901052394
 20
175.9478738920162
 30
0.0
 11
87.99266420523393
 21
175.9429592561762
 31
0.0
  0
LINE
  5
14DB
330
18
100
AcDbEntity
  8
1
370
    13
100
AcDbLine
 10
87.97453963518394
 20
175.9512987276862
 30
0.0
 11
87.99507258624393
 21
175.9464363358361
 31
0.0
  0
LINE
  5
14DC
330
18
100
AcDbEntity
  8
1
370
    18
100
AcDbLine
 10
87.97453963518394
 20
175.9512987276862
 30
0.0
 11
87.97357845600393
 21
175.9489726693462
 31
0.0
  0
LINE
  5
14DD
330
18
100
AcDbEntity
  8
1
370
    18
100
AcDbLine
 10
87.97357845600393
 20
175.9489726693462
 30
0.0
 11
87.97190901052394
 21
175.9478738920162
 31
0.0
  0
LINE
  5
14DE
330
18
100
AcDbEntity
  8
1
370
    13
100
AcDbLine
 10
87.92706417895393
 20
175.9830105146561
 30
0.0
 11
87.94796626313395
 21
175.9780610363662
 31
0.0
  0
LINE
  5
14DF
330
18
100
AcDbEntity
  8
1
370
    18
100
AcDbLine
 10
87.92706417895393
 20
175.9830105146561
 30
0.0
 11
87.92670433715391
 21
175.9843363387761
 31
0.0
  0
LINE
  5
14E0
330
18
100
AcDbEntity
  8
1
370
    18
100
AcDbLine
 10
87.92670433715391
 20
175.9843363387761
 30
0.0
 11
87.92679445508392
 21
175.9854260610062
 31
0.0
  0
LINE
  5
14E1
330
18
100
AcDbEntity
  8
1
370
    18
100
AcDbLine
 10
87.97171164871393
 20
175.9663646424362
 30
0.0
 11
87.96477674132393
 21
175.9663736581662
 31
0.0
  0
LINE
  5
14E2
330
18
100
AcDbEntity
  8
1
370
    18
100
AcDbLine
 10
87.96477674132393
 20
175.9663736581662
 30
0.0
 11
87.95800970761392
 21
175.9683230637163
 31
0.0
  0
LINE
  5
14E3
330
18
100
AcDbEntity
  8
1
370
    18
100
AcDbLine
 10
87.95800970761392
 20
175.9683230637163
 30
0.0
 11
87.95291483591395
 21
175.9716193169662
 31
0.0
  0
LINE
  5
14E4
330
18
100
AcDbEntity
  8
1
370
    18
100
AcDbLine
 10
87.95291483591395
 20
175.9716193169662
 30
0.0
 11
87.94924315034393
 21
175.9759019461962
 31
0.0
  0
LINE
  5
14E5
330
18
100
AcDbEntity
  8
1
370
    18
100
AcDbLine
 10
87.94924315034393
 20
175.9759019461962
 30
0.0
 11
87.94863878147394
 21
175.9769202118762
 31
0.0
  0
LINE
  5
14E6
330
18
100
AcDbEntity
  8
1
370
    18
100
AcDbLine
 10
87.94171048824393
 20
175.9720115996462
 30
0.0
 11
87.93722297753394
 21
175.9732497074061
 31
0.0
  0
LINE
  5
14E7
330
18
100
AcDbEntity
  8
1
370
    18
100
AcDbLine
 10
87.93722297753394
 20
175.9732497074061
 30
0.0
 11
87.93146668983395
 21
175.9771190697462
 31
0.0
  0
LINE
  5
14E8
330
18
100
AcDbEntity
  8
1
370
    18
100
AcDbLine
 10
87.93146668983395
 20
175.9771190697462
 30
0.0
 11
87.92706417895393
 21
175.9830105146561
 31
0.0
  0
LINE
  5
14E9
330
18
100
AcDbEntity
  8
1
370
    13
100
AcDbLine
 10
87.97851411542394
 20
175.9692427862862
 30
0.0
 11
87.9791238779839
 21
175.9690979834261
 31
0.0
  0
LINE
  5
14EA
330
18
100
AcDbEntity
  8
1
370
    18
100
AcDbLine
 10
87.97103224062393
 20
175.9641899617461
 30
0.0
 11
87.97388932152392
 21
175.9576755653261
 31
0.0
  0
LINE
  5
14EB
330
18
100
AcDbEntity
  8
1
370
    18
100
AcDbLine
 10
87.97388932152392
 20
175.9576755653261
 30
0.0
 11
87.97453963518394
 21
175.9512987276862
 31
0.0
  0
LINE
  5
14EC
330
18
100
AcDbEntity
  8
1
370
    13
100
AcDbLine
 10
87.96650535991394
 20
175.8888261360962
 30
0.0
 11
87.98703831097393
 21
175.8839637442462
 31
0.0
  0
LINE
  5
14ED
330
18
100
AcDbEntity
  8
1
370
    13
100
AcDbLine
 10
87.9698758256139
 20
175.9463023597262
 30
0.0
 11
87.99077790979394
 21
175.9413528814362
 31
0.0
  0
LINE
  5
14EE
330
18
100
AcDbEntity
  8
1
370
    18
100
AcDbLine
 10
87.9698758256139
 20
175.9463023597262
 30
0.0
 11
87.97088566611392
 21
175.9473500741662
 31
0.0
  0
LINE
  5
14EF
330
18
100
AcDbEntity
  8
1
370
    18
100
AcDbLine
 10
87.97088566611392
 20
175.9473500741662
 30
0.0
 11
87.97190901052394
 21
175.9478738920162
 31
0.0
  0
LINE
  5
14F0
330
18
100
AcDbEntity
  8
1
370
    18
100
AcDbLine
 10
87.99251704017393
 20
175.9145731712162
 30
0.0
 11
87.98882881920393
 21
175.9203781202362
 31
0.0
  0
LINE
  5
14F1
330
18
100
AcDbEntity
  8
1
370
    18
100
AcDbLine
 10
87.98882881920393
 20
175.9203781202362
 30
0.0
 11
87.98704941331392
 21
175.9271988939962
 31
0.0
  0
LINE
  5
14F2
330
18
100
AcDbEntity
  8
1
370
    18
100
AcDbLine
 10
87.98704941331392
 20
175.9271988939962
 30
0.0
 11
87.98743480624393
 21
175.9334363618362
 31
0.0
  0
LINE
  5
14F3
330
18
100
AcDbEntity
  8
1
370
    18
100
AcDbLine
 10
87.98743480624393
 20
175.9334363618362
 30
0.0
 11
87.98950342415393
 21
175.9390719017462
 31
0.0
  0
LINE
  5
14F4
330
18
100
AcDbEntity
  8
1
370
    18
100
AcDbLine
 10
87.98950342415393
 20
175.9390719017462
 30
0.0
 11
87.99013570635393
 21
175.9401844585762
 31
0.0
  0
LINE
  5
14F5
330
18
100
AcDbEntity
  8
1
370
    13
100
AcDbLine
 10
87.97245959997395
 20
175.9185074153162
 30
0.0
 11
87.99336195974394
 21
175.9135579370262
 31
0.0
  0
LINE
  5
14F6
330
18
100
AcDbEntity
  8
1
370
    18
100
AcDbLine
 10
87.97245959997395
 20
175.9185074153162
 30
0.0
 11
87.96824090762392
 21
175.9247803161562
 31
0.0
  0
LINE
  5
14F7
330
18
100
AcDbEntity
  8
1
370
    18
100
AcDbLine
 10
87.96824090762392
 20
175.9247803161562
 30
0.0
 11
87.96627799816393
 21
175.9321369549862
 31
0.0
  0
LINE
  5
14F8
330
18
100
AcDbEntity
  8
1
370
    18
100
AcDbLine
 10
87.96627799816393
 20
175.9321369549862
 30
0.0
 11
87.96681024119392
 21
175.9392280825362
 31
0.0
  0
LINE
  5
14F9
330
18
100
AcDbEntity
  8
1
370
    18
100
AcDbLine
 10
87.96681024119392
 20
175.9392280825362
 30
0.0
 11
87.9698758256139
 21
175.9463023597262
 31
0.0
  0
LINE
  5
14FA
330
18
100
AcDbEntity
  8
1
370
    13
100
AcDbLine
 10
87.97797825035393
 20
175.9143082504862
 30
0.0
 11
87.99851120141394
 21
175.9094458586361
 31
0.0
  0
LINE
  5
14FB
330
18
100
AcDbEntity
  8
1
370
    18
100
AcDbLine
 10
87.97450089510393
 20
175.9173720238861
 30
0.0
 11
87.97336940130392
 21
175.9177811175562
 31
0.0
  0
LINE
  5
14FC
330
18
100
AcDbEntity
  8
1
370
    18
100
AcDbLine
 10
87.97336940130392
 20
175.9177811175562
 30
0.0
 11
87.97245959997395
 21
175.9185074153162
 31
0.0
  0
LINE
  5
14FD
330
18
100
AcDbEntity
  8
1
370
    18
100
AcDbLine
 10
87.97500341378393
 20
175.9171930084961
 30
0.0
 11
87.97606400221393
 21
175.9168217493962
 31
0.0
  0
LINE
  5
14FE
330
18
100
AcDbEntity
  8
1
370
    18
100
AcDbLine
 10
87.97606400221393
 20
175.9168217493962
 30
0.0
 11
87.97714746461393
 21
175.9159428535162
 31
0.0
  0
LINE
  5
14FF
330
18
100
AcDbEntity
  8
1
370
    18
100
AcDbLine
 10
87.97714746461393
 20
175.9159428535162
 30
0.0
 11
87.97784010102395
 21
175.9147744306562
 31
0.0
  0
LINE
  5
1500
330
18
100
AcDbEntity
  8
1
370
    18
100
AcDbLine
 10
87.97784010102395
 20
175.9147744306562
 30
0.0
 11
87.97797825035393
 21
175.9143082504862
 31
0.0
  0
LINE
  5
1501
330
18
100
AcDbEntity
  8
1
370
    18
100
AcDbLine
 10
87.97797825035393
 20
175.9143082504862
 30
0.0
 11
87.97841171405393
 21
175.9065202739362
 31
0.0
  0
LINE
  5
1502
330
18
100
AcDbEntity
  8
1
370
    18
100
AcDbLine
 10
87.97841171405393
 20
175.9065202739362
 30
0.0
 11
87.97623100975393
 21
175.8990200527161
 31
0.0
  0
LINE
  5
1503
330
18
100
AcDbEntity
  8
1
370
    18
100
AcDbLine
 10
87.97623100975393
 20
175.8990200527161
 30
0.0
 11
87.9717188534239
 21
175.8927230968062
 31
0.0
  0
LINE
  5
1504
330
18
100
AcDbEntity
  8
1
370
    18
100
AcDbLine
 10
87.9717188534239
 20
175.8927230968062
 30
0.0
 11
87.96650535991394
 21
175.8888261360962
 31
0.0
  0
LINE
  5
1505
330
18
100
AcDbEntity
  8
1
370
    13
100
AcDbLine
 10
87.95967525546394
 20
175.8901134957262
 30
0.0
 11
87.98057765460393
 21
175.8851640174363
 31
0.0
  0
LINE
  5
1506
330
18
100
AcDbEntity
  8
1
370
    18
100
AcDbLine
 10
87.95967525546394
 20
175.8901134957262
 30
0.0
 11
87.96051391520393
 21
175.8899410944962
 31
0.0
  0
LINE
  5
1507
330
18
100
AcDbEntity
  8
1
370
    18
100
AcDbLine
 10
87.9585708088539
 20
175.8700812916963
 30
0.0
 11
87.96143513383395
 21
175.8759673035462
 31
0.0
  0
LINE
  5
1508
330
18
100
AcDbEntity
  8
1
370
    18
100
AcDbLine
 10
87.96143513383395
 20
175.8759673035462
 30
0.0
 11
87.96627677769393
 21
175.8808723331062
 31
0.0
  0
LINE
  5
1509
330
18
100
AcDbEntity
  8
1
370
    18
100
AcDbLine
 10
87.96627677769393
 20
175.8808723331062
 30
0.0
 11
87.97188015231395
 21
175.8837847288562
 31
0.0
  0
LINE
  5
150A
330
18
100
AcDbEntity
  8
1
370
    18
100
AcDbLine
 10
87.97188015231395
 20
175.8837847288562
 30
0.0
 11
87.97793860476394
 21
175.8850624822062
 31
0.0
  0
LINE
  5
150B
330
18
100
AcDbEntity
  8
1
370
    18
100
AcDbLine
 10
87.97793860476394
 20
175.8850624822062
 30
0.0
 11
87.97926293282392
 21
175.8851363796962
 31
0.0
  0
LINE
  5
150C
330
18
100
AcDbEntity
  8
1
370
    13
100
AcDbLine
 10
87.93721904053395
 20
175.8737740008461
 30
0.0
 11
87.95812116408393
 21
175.8688245225562
 31
0.0
  0
LINE
  5
150D
330
18
100
AcDbEntity
  8
1
370
    18
100
AcDbLine
 10
87.93721904053395
 20
175.8737740008461
 30
0.0
 11
87.94028671156393
 21
175.8804361922462
 31
0.0
  0
LINE
  5
150E
330
18
100
AcDbEntity
  8
1
370
    18
100
AcDbLine
 10
87.94028671156393
 20
175.8804361922462
 30
0.0
 11
87.94552366959392
 21
175.8858020082861
 31
0.0
  0
LINE
  5
150F
330
18
100
AcDbEntity
  8
1
370
    18
100
AcDbLine
 10
87.94552366959392
 20
175.8858020082861
 30
0.0
 11
87.95191160957392
 21
175.8890003483462
 31
0.0
  0
LINE
  5
1510
330
18
100
AcDbEntity
  8
1
370
    18
100
AcDbLine
 10
87.95191160957392
 20
175.8890003483462
 30
0.0
 11
87.95967525546394
 21
175.8901134957262
 31
0.0
  0
LINE
  5
1511
330
18
100
AcDbEntity
  8
1
370
    13
100
AcDbLine
 10
87.93740888267393
 20
175.8712508956562
 30
0.0
 11
87.95816380179394
 21
175.8663362598161
 31
0.0
  0
LINE
  5
1512
330
18
100
AcDbEntity
  8
1
370
    18
100
AcDbLine
 10
87.93740888267393
 20
175.8712508956562
 30
0.0
 11
87.93709140299394
 21
175.8726536487561
 31
0.0
  0
LINE
  5
1513
330
18
100
AcDbEntity
  8
1
370
    18
100
AcDbLine
 10
87.93709140299394
 20
175.8726536487561
 30
0.0
 11
87.93721904053395
 21
175.8737740008461
 31
0.0
  0
LINE
  5
1514
330
18
100
AcDbEntity
  8
1
370
    13
100
AcDbLine
 10
87.93662073464394
 20
175.8670817701362
 30
0.0
 11
87.95715364633393
 21
175.8622194176562
 31
0.0
  0
LINE
  5
1515
330
18
100
AcDbEntity
  8
1
370
    18
100
AcDbLine
 10
87.93740888267393
 20
175.8712508956562
 30
0.0
 11
87.93772218913394
 21
175.8699292841262
 31
0.0
  0
LINE
  5
1516
330
18
100
AcDbEntity
  8
1
370
    18
100
AcDbLine
 10
87.93772218913394
 20
175.8699292841262
 30
0.0
 11
87.93755817371391
 21
175.8685878301162
 31
0.0
  0
LINE
  5
1517
330
18
100
AcDbEntity
  8
1
370
    18
100
AcDbLine
 10
87.93755817371391
 20
175.8685878301162
 30
0.0
 11
87.93694030093393
 21
175.8674290135362
 31
0.0
  0
LINE
  5
1518
330
18
100
AcDbEntity
  8
1
370
    18
100
AcDbLine
 10
87.93694030093393
 20
175.8674290135362
 30
0.0
 11
87.93662073464394
 21
175.8670817701362
 31
0.0
  0
LINE
  5
1519
330
18
100
AcDbEntity
  8
1
370
    18
100
AcDbLine
 10
87.93662073464394
 20
175.8670817701362
 30
0.0
 11
87.93028712526394
 21
175.8628694163562
 31
0.0
  0
LINE
  5
151A
330
18
100
AcDbEntity
  8
1
370
    18
100
AcDbLine
 10
87.93028712526394
 20
175.8628694163562
 30
0.0
 11
87.92801153926394
 21
175.8623047324461
 31
0.0
  0
LINE
  5
151B
330
18
100
AcDbEntity
  8
1
370
    18
100
AcDbLine
 10
87.88073190941393
 20
175.8933460876862
 30
0.0
 11
87.89813022107393
 21
175.8812489858962
 31
0.0
  0
LINE
  5
151C
330
18
100
AcDbEntity
  8
1
370
    18
100
AcDbLine
 10
87.89813022107393
 20
175.8812489858962
 30
0.0
 11
87.91900466751394
 21
175.8778602525161
 31
0.0
  0
LINE
  5
151D
330
18
100
AcDbEntity
  8
1
370
    18
100
AcDbLine
 10
87.91900466751394
 20
175.8778602525161
 30
0.0
 11
87.93937691023392
 21
175.8838261854663
 31
0.0
  0
LINE
  5
151E
330
18
100
AcDbEntity
  8
1
370
    18
100
AcDbLine
 10
87.93937691023392
 20
175.8838261854663
 30
0.0
 11
87.95536317747394
 21
175.8980102122162
 31
0.0
  0
LINE
  5
151F
330
18
100
AcDbEntity
  8
1
370
    18
100
AcDbLine
 10
87.95536317747394
 20
175.8980102122162
 30
0.0
 11
87.96391709737392
 21
175.9177072200662
 31
0.0
  0
LINE
  5
1520
330
18
100
AcDbEntity
  8
1
370
    18
100
AcDbLine
 10
87.96391709737392
 20
175.9177072200662
 30
0.0
 11
87.96340796453391
 21
175.9391650117962
 31
0.0
  0
LINE
  5
1521
330
18
100
AcDbEntity
  8
1
370
    18
100
AcDbLine
 10
87.96340796453391
 20
175.9391650117962
 30
0.0
 11
87.95393251104393
 21
175.9582913121262
 31
0.0
  0
LINE
  5
1522
330
18
100
AcDbEntity
  8
1
370
    18
100
AcDbLine
 10
87.95393251104393
 20
175.9582913121262
 30
0.0
 11
87.93729774116394
 21
175.9714414826762
 31
0.0
  0
LINE
  5
1523
330
18
100
AcDbEntity
  8
1
370
    18
100
AcDbLine
 10
87.93729774116394
 20
175.9714414826762
 30
0.0
 11
87.91667321548393
 21
175.9761104103462
 31
0.0
  0
LINE
  5
1524
330
18
100
AcDbEntity
  8
1
370
    18
100
AcDbLine
 10
87.90218757516393
 20
175.8798168234062
 30
0.0
 11
87.92292237621394
 21
175.8808182780962
 31
0.0
  0
LINE
  5
1525
330
18
100
AcDbEntity
  8
1
370
    18
100
AcDbLine
 10
87.92292237621394
 20
175.8808182780962
 30
0.0
 11
87.94140560696392
 21
175.8905195972762
 31
0.0
  0
LINE
  5
1526
330
18
100
AcDbEntity
  8
1
370
    18
100
AcDbLine
 10
87.94140560696392
 20
175.8905195972762
 30
0.0
 11
87.95425211670393
 21
175.9071432254462
 31
0.0
  0
LINE
  5
1527
330
18
100
AcDbEntity
  8
1
370
    18
100
AcDbLine
 10
87.95425211670393
 20
175.9071432254462
 30
0.0
 11
87.95910635896392
 21
175.9276428301162
 31
0.0
  0
LINE
  5
1528
330
18
100
AcDbEntity
  8
1
370
    18
100
AcDbLine
 10
87.95910635896392
 20
175.9276428301162
 30
0.0
 11
87.95507931977395
 21
175.9482620014761
 31
0.0
  0
LINE
  5
1529
330
18
100
AcDbEntity
  8
1
370
    18
100
AcDbLine
 10
87.95507931977395
 20
175.9482620014761
 30
0.0
 11
87.94290895041394
 21
175.9652226368462
 31
0.0
  0
LINE
  5
152A
330
18
100
AcDbEntity
  8
1
370
    18
100
AcDbLine
 10
87.94290895041394
 20
175.9652226368462
 30
0.0
 11
87.92482552201393
 21
175.9754165534662
 31
0.0
  0
LINE
  5
152B
330
18
100
AcDbEntity
  8
1
370
    18
100
AcDbLine
 10
88.07615455006393
 20
175.5771954207762
 30
0.0
 11
88.10147418446392
 21
175.5814570657962
 31
0.0
  0
LINE
  5
152C
330
18
100
AcDbEntity
  8
1
370
    18
100
AcDbLine
 10
88.10147418446392
 20
175.5814570657962
 30
0.0
 11
88.12271331521392
 21
175.5961745560462
 31
0.0
  0
LINE
  5
152D
330
18
100
AcDbEntity
  8
1
370
    18
100
AcDbLine
 10
88.12271331521392
 20
175.5961745560462
 30
0.0
 11
88.13588057234392
 21
175.6185820702861
 31
0.0
  0
LINE
  5
152E
330
18
100
AcDbEntity
  8
1
370
    18
100
AcDbLine
 10
88.13588057234392
 20
175.6185820702861
 30
0.0
 11
88.13850222064393
 21
175.6444679240261
 31
0.0
  0
LINE
  5
152F
330
18
100
AcDbEntity
  8
1
370
    18
100
AcDbLine
 10
88.04711606483392
 20
175.6472559499462
 30
0.0
 11
88.04554362703393
 21
175.6380267951762
 31
0.0
  0
LINE
  5
1530
330
18
100
AcDbEntity
  8
1
370
    18
100
AcDbLine
 10
88.04554362703393
 20
175.6380267951762
 30
0.0
 11
88.04637146002393
 21
175.6287153571061
 31
0.0
  0
LINE
  5
1531
330
18
100
AcDbEntity
  8
1
370
    18
100
AcDbLine
 10
88.07086235592391
 20
175.5990040385762
 30
0.0
 11
88.07128826058393
 21
175.5985714803862
 31
0.0
  0
LINE
  5
1532
330
18
100
AcDbEntity
  8
1
370
    18
100
AcDbLine
 10
88.07128826058393
 20
175.5985714803862
 30
0.0
 11
88.07178688163393
 21
175.5982272684762
 31
0.0
  0
LINE
  5
1533
330
18
100
AcDbEntity
  8
1
370
    18
100
AcDbLine
 10
88.07178688163393
 20
175.5982272684762
 30
0.0
 11
88.07929281150395
 21
175.5961276663762
 31
0.0
  0
LINE
  5
1534
330
18
100
AcDbEntity
  8
1
370
    18
100
AcDbLine
 10
88.07929281150395
 20
175.5961276663762
 30
0.0
 11
88.08694653635393
 21
175.5977106159662
 31
0.0
  0
LINE
  5
1535
330
18
100
AcDbEntity
  8
1
370
    18
100
AcDbLine
 10
88.08694653635393
 20
175.5977106159662
 30
0.0
 11
88.08851354109394
 21
175.5992629356962
 31
0.0
  0
LINE
  5
1536
330
18
100
AcDbEntity
  8
1
370
    18
100
AcDbLine
 10
88.08851354109394
 20
175.5992629356962
 30
0.0
 11
88.08877397364391
 21
175.6014628525561
 31
0.0
  0
LINE
  5
1537
330
18
100
AcDbEntity
  8
1
370
    18
100
AcDbLine
 10
88.08871298951393
 20
175.6018371037761
 30
0.0
 11
88.08873822568392
 21
175.6016490726562
 31
0.0
  0
LINE
  5
1538
330
18
100
AcDbEntity
  8
1
370
    18
100
AcDbLine
 10
88.08873822568392
 20
175.6016490726562
 30
0.0
 11
88.08877397364391
 21
175.6014628525561
 31
0.0
  0
LINE
  5
1539
330
18
100
AcDbEntity
  8
1
370
    18
100
AcDbLine
 10
88.08871298951393
 20
175.6018371037761
 30
0.0
 11
88.09736994070394
 21
175.6051273334161
 31
0.0
  0
LINE
  5
153A
330
18
100
AcDbEntity
  8
1
370
    18
100
AcDbLine
 10
88.09736994070394
 20
175.6051273334161
 30
0.0
 11
88.10491130357393
 21
175.6105682280462
 31
0.0
  0
LINE
  5
153B
330
18
100
AcDbEntity
  8
1
370
    18
100
AcDbLine
 10
88.10518075185392
 20
175.6103062994362
 30
0.0
 11
88.10504976786395
 21
175.6104408660962
 31
0.0
  0
LINE
  5
153C
330
18
100
AcDbEntity
  8
1
370
    18
100
AcDbLine
 10
88.10504976786395
 20
175.6104408660962
 30
0.0
 11
88.10491130357393
 21
175.6105682280462
 31
0.0
  0
LINE
  5
153D
330
18
100
AcDbEntity
  8
1
370
    18
100
AcDbLine
 10
88.10518075185392
 20
175.6103062994362
 30
0.0
 11
88.10711090547393
 21
175.6092868526561
 31
0.0
  0
LINE
  5
153E
330
18
100
AcDbEntity
  8
1
370
    18
100
AcDbLine
 10
88.10711090547393
 20
175.6092868526561
 30
0.0
 11
88.10925164922393
 21
175.6097332297162
 31
0.0
  0
LINE
  5
153F
330
18
100
AcDbEntity
  8
1
370
    18
100
AcDbLine
 10
88.10925164922393
 20
175.6097332297162
 30
0.0
 11
88.11484360654395
 21
175.6152900296262
 31
0.0
  0
LINE
  5
1540
330
18
100
AcDbEntity
  8
1
370
    18
100
AcDbLine
 10
88.11484360654395
 20
175.6152900296262
 30
0.0
 11
88.11736643614393
 21
175.6227956839062
 31
0.0
  0
LINE
  5
1541
330
18
100
AcDbEntity
  8
1
370
    18
100
AcDbLine
 10
88.11736643614393
 20
175.6227956839062
 30
0.0
 11
88.11683478366395
 21
175.6249385142662
 31
0.0
  0
LINE
  5
1542
330
18
100
AcDbEntity
  8
1
370
    18
100
AcDbLine
 10
88.11683478366395
 20
175.6249385142662
 30
0.0
 11
88.11508781865395
 21
175.6262535116363
 31
0.0
  0
LINE
  5
1543
330
18
100
AcDbEntity
  8
1
370
    18
100
AcDbLine
 10
88.11473758313395
 20
175.6263856767262
 30
0.0
 11
88.11491088987393
 21
175.6263148107262
 31
0.0
  0
LINE
  5
1544
330
18
100
AcDbEntity
  8
1
370
    18
100
AcDbLine
 10
88.11491088987393
 20
175.6263148107262
 30
0.0
 11
88.11508781865395
 21
175.6262535116363
 31
0.0
  0
LINE
  5
1545
330
18
100
AcDbEntity
  8
1
370
    18
100
AcDbLine
 10
88.11473758313395
 20
175.6263856767262
 30
0.0
 11
88.1148877796839
 21
175.6268885103662
 31
0.0
  0
LINE
  5
1546
330
18
100
AcDbEntity
  8
1
370
    18
100
AcDbLine
 10
88.1148877796839
 20
175.6268885103662
 30
0.0
 11
88.11503045656392
 21
175.6273937062061
 31
0.0
  0
LINE
  5
1547
330
18
100
AcDbEntity
  8
1
370
    18
100
AcDbLine
 10
88.05499266325394
 20
175.6022768273061
 30
0.0
 11
88.07589084980392
 21
175.5938172379261
 31
0.0
  0
LINE
  5
1548
330
18
100
AcDbEntity
  8
1
370
    18
100
AcDbLine
 10
88.07589084980392
 20
175.5938172379261
 30
0.0
 11
88.09819714377393
 21
175.5973802229261
 31
0.0
  0
LINE
  5
1549
330
18
100
AcDbEntity
  8
1
370
    18
100
AcDbLine
 10
88.09819714377393
 20
175.5973802229261
 30
0.0
 11
88.11567474661394
 21
175.6119703512262
 31
0.0
  0
LINE
  5
154A
330
18
100
AcDbEntity
  8
1
370
    18
100
AcDbLine
 10
88.11567474661394
 20
175.6119703512262
 30
0.0
 11
88.12343717203395
 21
175.6335092451561
 31
0.0
  0
LINE
  5
154B
330
18
100
AcDbEntity
  8
1
370
    13
100
AcDbLine
 10
88.09731108255395
 20
175.6126401924062
 30
0.0
 11
88.10253087526392
 21
175.6114044468462
 31
0.0
  0
LINE
  5
154C
330
18
100
AcDbEntity
  8
1
370
    18
100
AcDbLine
 10
88.10253087526392
 20
175.6114044468462
 30
0.0
 11
88.10395071494395
 21
175.6111275182662
 31
0.0
  0
LINE
  5
154D
330
18
100
AcDbEntity
  8
1
370
    18
100
AcDbLine
 10
88.10395071494395
 20
175.6111275182662
 30
0.0
 11
88.10491130357393
 21
175.6105682280462
 31
0.0
  0
LINE
  5
154E
330
18
100
AcDbEntity
  8
1
370
    18
100
AcDbLine
 10
88.09811757700392
 20
175.6125548776162
 30
0.0
 11
88.09771718410393
 21
175.6126233814162
 31
0.0
  0
LINE
  5
154F
330
18
100
AcDbEntity
  8
1
370
    18
100
AcDbLine
 10
88.09771718410393
 20
175.6126233814162
 30
0.0
 11
88.09731108255395
 21
175.6126401924062
 31
0.0
  0
LINE
  5
1550
330
18
100
AcDbEntity
  8
1
370
    13
100
AcDbLine
 10
88.08457272220392
 20
175.6052312702161
 30
0.0
 11
88.08909294938393
 21
175.6041613510962
 31
0.0
  0
LINE
  5
1551
330
18
100
AcDbEntity
  8
1
370
    18
100
AcDbLine
 10
88.08909294938393
 20
175.6041613510962
 30
0.0
 11
88.09191073902393
 21
175.6075327223062
 31
0.0
  0
LINE
  5
1552
330
18
100
AcDbEntity
  8
1
370
    18
100
AcDbLine
 10
88.09191073902393
 20
175.6075327223062
 30
0.0
 11
88.09582273907393
 21
175.6100215755962
 31
0.0
  0
LINE
  5
1553
330
18
100
AcDbEntity
  8
1
370
    18
100
AcDbLine
 10
88.09582273907393
 20
175.6100215755962
 30
0.0
 11
88.09998977798391
 21
175.6112122425062
 31
0.0
  0
LINE
  5
1554
330
18
100
AcDbEntity
  8
1
370
    18
100
AcDbLine
 10
88.09998977798391
 20
175.6112122425062
 30
0.0
 11
88.10253087526392
 21
175.6114044468462
 31
0.0
  0
LINE
  5
1555
330
18
100
AcDbEntity
  8
1
370
    18
100
AcDbLine
 10
88.09731108255395
 20
175.6126401924062
 30
0.0
 11
88.09579088874393
 21
175.6125392477262
 31
0.0
  0
LINE
  5
1556
330
18
100
AcDbEntity
  8
1
370
    18
100
AcDbLine
 10
88.09579088874393
 20
175.6125392477262
 30
0.0
 11
88.09428514372392
 21
175.6122983820662
 31
0.0
  0
LINE
  5
1557
330
18
100
AcDbEntity
  8
1
370
    18
100
AcDbLine
 10
88.08871298951393
 20
175.6018371037761
 30
0.0
 11
88.08870877692392
 21
175.6031719436261
 31
0.0
  0
LINE
  5
1558
330
18
100
AcDbEntity
  8
1
370
    18
100
AcDbLine
 10
88.08870877692392
 20
175.6031719436261
 30
0.0
 11
88.08909294938393
 21
175.6041613510962
 31
0.0
  0
LINE
  5
1559
330
18
100
AcDbEntity
  8
1
370
    13
100
AcDbLine
 10
88.08334870890394
 20
175.6027472200662
 30
0.0
 11
88.08877397364391
 21
175.6014628525561
 31
0.0
  0
LINE
  5
155A
330
18
100
AcDbEntity
  8
1
370
    18
100
AcDbLine
 10
88.08339166157393
 20
175.6043722168162
 30
0.0
 11
88.08327059882392
 21
175.6035618247361
 31
0.0
  0
LINE
  5
155B
330
18
100
AcDbEntity
  8
1
370
    18
100
AcDbLine
 10
88.08327059882392
 20
175.6035618247361
 30
0.0
 11
88.08334870890394
 21
175.6027472200662
 31
0.0
  0
LINE
  5
155C
330
18
100
AcDbEntity
  8
1
370
    13
100
AcDbLine
 10
88.08152154720394
 20
175.5989956133962
 30
0.0
 11
88.08694653635393
 21
175.5977106159662
 31
0.0
  0
LINE
  5
155D
330
18
100
AcDbEntity
  8
1
370
    18
100
AcDbLine
 10
88.08152154720394
 20
175.5989956133962
 30
0.0
 11
88.08308827635393
 21
175.6005473032062
 31
0.0
  0
LINE
  5
155E
330
18
100
AcDbEntity
  8
1
370
    18
100
AcDbLine
 10
88.08308827635393
 20
175.6005473032062
 30
0.0
 11
88.08334870890394
 21
175.6027472200662
 31
0.0
  0
LINE
  5
155F
330
18
100
AcDbEntity
  8
1
370
    18
100
AcDbLine
 10
88.07339805951393
 20
175.5974354984062
 30
0.0
 11
88.07755246065394
 21
175.5976998285862
 31
0.0
  0
LINE
  5
1560
330
18
100
AcDbEntity
  8
1
370
    18
100
AcDbLine
 10
88.07755246065394
 20
175.5976998285862
 30
0.0
 11
88.08152154720394
 21
175.5989956133962
 31
0.0
  0
LINE
  5
1561
330
18
100
AcDbEntity
  8
1
370
    18
100
AcDbLine
 10
88.04793877972391
 20
175.6302850783762
 30
0.0
 11
88.04716712772394
 21
175.6292307891462
 31
0.0
  0
LINE
  5
1562
330
18
100
AcDbEntity
  8
1
370
    18
100
AcDbLine
 10
88.04716712772394
 20
175.6292307891462
 30
0.0
 11
88.04637146002393
 21
175.6287153571061
 31
0.0
  0
LINE
  5
1563
330
18
100
AcDbEntity
  8
1
370
    13
100
AcDbLine
 10
88.10435350941393
 20
175.6108932273962
 30
0.0
 11
88.10925164922393
 21
175.6097332297162
 31
0.0
  0
LINE
  5
1564
330
18
100
AcDbEntity
  8
1
370
    13
100
AcDbLine
 10
88.11386321480394
 20
175.6265442590862
 30
0.0
 11
88.11508781865395
 21
175.6262535116363
 31
0.0
  0
LINE
  5
1565
330
18
100
AcDbEntity
  8
1
370
    18
100
AcDbLine
 10
88.11473758313395
 20
175.6263856767262
 30
0.0
 11
88.11416510396393
 21
175.6267641405362
 31
0.0
  0
LINE
  5
1566
330
18
100
AcDbEntity
  8
1
370
    13
100
AcDbLine
 10
88.11194144699392
 20
175.6240806419661
 30
0.0
 11
88.11736643614393
 21
175.6227956839062
 31
0.0
  0
LINE
  5
1567
330
18
100
AcDbEntity
  8
1
370
    18
100
AcDbLine
 10
88.11194144699392
 20
175.6240806419661
 30
0.0
 11
88.11194987217392
 21
175.6245936724362
 31
0.0
  0
LINE
  5
1568
330
18
100
AcDbEntity
  8
1
370
    18
100
AcDbLine
 10
88.11194987217392
 20
175.6245936724362
 30
0.0
 11
88.11188018727392
 21
175.6251013092162
 31
0.0
  0
LINE
  5
1569
330
18
100
AcDbEntity
  8
1
370
    18
100
AcDbLine
 10
88.10382638448393
 20
175.6110175972262
 30
0.0
 11
88.10941865676392
 21
175.6165750270562
 31
0.0
  0
LINE
  5
156A
330
18
100
AcDbEntity
  8
1
370
    18
100
AcDbLine
 10
88.10941865676392
 20
175.6165750270562
 30
0.0
 11
88.11194144699392
 21
175.6240806419661
 31
0.0
  0
LINE
  5
156B
330
18
100
AcDbEntity
  8
1
370
    18
100
AcDbLine
 10
88.04845240074392
 20
175.6246189086063
 30
0.0
 11
88.04751193018395
 21
175.6267941798462
 31
0.0
  0
LINE
  5
156C
330
18
100
AcDbEntity
  8
1
370
    18
100
AcDbLine
 10
88.04751193018395
 20
175.6267941798462
 30
0.0
 11
88.04674240416391
 21
175.6290391359861
 31
0.0
  0
LINE
  5
156D
330
18
100
AcDbEntity
  8
1
370
    18
100
AcDbLine
 10
88.23306687403395
 20
175.5005688023761
 30
0.0
 11
87.98407607280394
 21
175.5090542578462
 31
0.0
  0
LINE
  5
156E
330
18
100
AcDbEntity
  8
1
370
    18
100
AcDbLine
 10
88.23306687403395
 20
175.5005688023761
 30
0.0
 11
88.26130996715393
 21
175.5004041964062
 31
0.0
  0
LINE
  5
156F
330
18
100
AcDbEntity
  8
1
370
    18
100
AcDbLine
 10
88.26130996715393
 20
175.5004041964062
 30
0.0
 11
88.33120199272395
 21
175.4975951469062
 31
0.0
  0
LINE
  5
1570
330
18
100
AcDbEntity
  8
1
370
    18
100
AcDbLine
 10
88.33117616600393
 20
175.6256203239262
 30
0.0
 11
88.31070809670393
 21
175.6304677158062
 31
0.0
  0
LINE
  5
1571
102
{ACAD_REACTORS
330
167C
330
167F
330
1682
102
}
330
18
100
AcDbEntity
  8
1
370
    18
100
AcDbLine
 10
88.33117616600393
 20
175.6256203239262
 30
0.0
 11
88.33120199272395
 21
175.4975951469062
 31
0.0
  0
LINE
  5
1572
330
18
100
AcDbEntity
  8
1
370
    13
100
AcDbLine
 10
88.23958308147394
 20
175.6219918666162
 30
0.0
 11
88.23263522135393
 21
175.6236367058462
 31
0.0
  0
LINE
  5
1573
330
18
100
AcDbEntity
  8
1
370
    18
100
AcDbLine
 10
88.33117616600393
 20
175.6256203239262
 30
0.0
 11
88.26128504594391
 21
175.6236192649361
 31
0.0
  0
LINE
  5
1574
330
18
100
AcDbEntity
  8
1
370
    18
100
AcDbLine
 10
88.22583397511392
 20
175.6329445612462
 30
0.0
 11
88.22758932593393
 21
175.6289255929062
 31
0.0
  0
LINE
  5
1575
330
18
100
AcDbEntity
  8
1
370
    18
100
AcDbLine
 10
88.23958308147394
 20
175.6219918666162
 30
0.0
 11
88.23273884319393
 21
175.6235760366761
 31
0.0
  0
LINE
  5
1576
330
18
100
AcDbEntity
  8
1
370
    18
100
AcDbLine
 10
88.23273884319393
 20
175.6235760366761
 30
0.0
 11
88.22758932593393
 21
175.6289255929062
 31
0.0
  0
LINE
  5
1577
330
18
100
AcDbEntity
  8
1
370
    18
100
AcDbLine
 10
88.01130424669393
 20
175.6206414362462
 30
0.0
 11
88.01785230446395
 21
175.5927184999662
 31
0.0
  0
LINE
  5
1578
330
18
100
AcDbEntity
  8
1
370
    18
100
AcDbLine
 10
88.05281585658393
 20
175.5485023285561
 30
0.0
 11
88.07824391596392
 21
175.5359877472861
 31
0.0
  0
LINE
  5
1579
330
18
100
AcDbEntity
  8
1
370
    18
100
AcDbLine
 10
88.07824391596392
 20
175.5359877472861
 30
0.0
 11
88.10620559232393
 21
175.5314930318661
 31
0.0
  0
LINE
  5
157A
330
18
100
AcDbEntity
  8
1
370
    18
100
AcDbLine
 10
88.13431234713394
 20
175.5354020397961
 30
0.0
 11
88.16016154740394
 21
175.5473807559961
 31
0.0
  0
LINE
  5
157B
330
18
100
AcDbEntity
  8
1
370
    18
100
AcDbLine
 10
88.18154363062394
 20
175.5664061510162
 30
0.0
 11
88.19663237997392
 21
175.5908507871662
 31
0.0
  0
LINE
  5
157C
330
18
100
AcDbEntity
  8
1
370
    18
100
AcDbLine
 10
88.19663237997392
 20
175.5908507871662
 30
0.0
 11
88.20413767992393
 21
175.6186277394862
 31
0.0
  0
LINE
  5
157D
330
18
100
AcDbEntity
  8
1
370
    18
100
AcDbLine
 10
88.19453517944394
 20
175.6745973519563
 30
0.0
 11
88.17824855847392
 21
175.6980069508062
 31
0.0
  0
LINE
  5
157E
330
18
100
AcDbEntity
  8
1
370
    18
100
AcDbLine
 10
88.17824855847392
 20
175.6980069508062
 30
0.0
 11
88.15594915425394
 21
175.7155911676062
 31
0.0
  0
LINE
  5
157F
330
18
100
AcDbEntity
  8
1
370
    18
100
AcDbLine
 10
88.23306687403395
 20
175.5005688023761
 30
0.0
 11
88.22758932593393
 21
175.6289255929062
 31
0.0
  0
LINE
  5
1580
330
18
100
AcDbEntity
  8
1
370
    18
100
AcDbLine
 10
88.14231929962394
 20
175.7536533355761
 30
0.0
 11
88.23171608933391
 21
175.7506070030862
 31
0.0
  0
LINE
  5
1581
330
18
100
AcDbEntity
  8
1
370
    18
100
AcDbLine
 10
87.96158139338393
 20
175.6128120030862
 30
0.0
 11
87.96206800658394
 21
175.6977930535962
 31
0.0
  0
LINE
  5
1582
330
18
100
AcDbEntity
  8
1
370
    18
100
AcDbLine
 10
88.07746836633395
 20
175.5767088075763
 30
0.0
 11
88.09928477939392
 21
175.5782395131762
 31
0.0
  0
LINE
  5
1583
330
18
100
AcDbEntity
  8
1
370
    18
100
AcDbLine
 10
88.11906111779395
 20
175.5878242577861
 30
0.0
 11
88.13400596979393
 21
175.6041115086762
 31
0.0
  0
LINE
  5
1584
330
18
100
AcDbEntity
  8
1
370
    18
100
AcDbLine
 10
88.14200933961393
 20
175.6248009161162
 30
0.0
 11
88.14194052085392
 21
175.6469705961862
 31
0.0
  0
LINE
  5
1585
330
18
100
AcDbEntity
  8
1
370
    13
100
AcDbLine
 10
88.07376030288393
 20
175.5746897171262
 30
0.0
 11
88.05290085641393
 21
175.5901179146162
 31
0.0
  0
LINE
  5
1586
330
18
100
AcDbEntity
  8
1
370
    13
100
AcDbLine
 10
88.15625521663394
 20
175.6088465385762
 30
0.0
 11
88.14292933777393
 21
175.5882297687862
 31
0.0
  0
LINE
  5
1587
330
18
100
AcDbEntity
  8
1
370
    13
100
AcDbLine
 10
88.12284004724395
 20
175.5743527099262
 30
0.0
 11
88.09908686640392
 21
175.5693551608662
 31
0.0
  0
LINE
  5
1588
330
18
100
AcDbEntity
  8
1
370
    18
100
AcDbLine
 10
88.09714194903392
 20
175.5733729087362
 30
0.0
 11
88.09028723833392
 21
175.5737339710062
 31
0.0
  0
LINE
  5
1589
330
18
100
AcDbEntity
  8
1
370
    18
100
AcDbLine
 10
88.09028723833392
 20
175.5737339710062
 30
0.0
 11
88.08352862980392
 21
175.5749125906962
 31
0.0
  0
LINE
  5
158A
330
18
100
AcDbEntity
  8
1
370
    18
100
AcDbLine
 10
88.15052629108395
 20
175.6093223250261
 30
0.0
 11
88.13783930858395
 21
175.5905113783962
 31
0.0
  0
LINE
  5
158B
330
18
100
AcDbEntity
  8
1
370
    18
100
AcDbLine
 10
88.13783930858395
 20
175.5905113783962
 30
0.0
 11
88.11911938539394
 21
175.5779048681762
 31
0.0
  0
LINE
  5
158C
330
18
100
AcDbEntity
  8
1
370
    18
100
AcDbLine
 10
88.26130996715393
 20
175.5004041964062
 30
0.0
 11
88.26128504594391
 21
175.6236192649361
 31
0.0
  0
LINE
  5
158D
330
18
100
AcDbEntity
  8
1
370
    18
100
AcDbLine
 10
87.94560567730394
 20
175.7130373931862
 30
0.0
 11
87.94519717418394
 21
175.6417087169461
 31
0.0
  0
LINE
  5
158E
330
18
100
AcDbEntity
  8
1
370
    18
100
AcDbLine
 10
88.07633718749393
 20
175.5771251059561
 30
0.0
 11
88.07737706730392
 21
175.5771106965362
 31
0.0
  0
LINE
  5
158F
330
18
100
AcDbEntity
  8
1
370
    18
100
AcDbLine
 10
88.07737706730392
 20
175.5771106965362
 30
0.0
 11
88.0784172620739
 21
175.5771154996762
 31
0.0
  0
LINE
  5
1590
330
18
100
AcDbEntity
  8
1
370
    18
100
AcDbLine
 10
87.98407607280394
 20
175.5090542578462
 30
0.0
 11
87.96669130442394
 21
175.5131711000062
 31
0.0
  0
LINE
  5
1591
330
18
100
AcDbEntity
  8
1
370
    18
100
AcDbLine
 10
88.26128504594391
 20
175.6236192649361
 30
0.0
 11
88.23958308147394
 21
175.6219918666162
 31
0.0
  0
LINE
  5
1592
330
18
100
AcDbEntity
  8
1
370
    18
100
AcDbLine
 10
88.22852526894392
 20
175.6274465801162
 30
0.0
 11
88.31070809670393
 21
175.6304677158062
 31
0.0
  0
LINE
  5
1593
330
18
100
AcDbEntity
  8
1
370
    18
100
AcDbLine
 10
88.22525003927394
 20
175.6373089225961
 30
0.0
 11
88.22583397511392
 21
175.6329445612462
 31
0.0
  0
LINE
  5
1594
330
18
100
AcDbEntity
  8
1
370
    18
100
AcDbLine
 10
88.01301125115392
 20
175.6493501189862
 30
0.0
 11
88.01130424669393
 21
175.6206414362462
 31
0.0
  0
LINE
  5
1595
330
18
100
AcDbEntity
  8
1
370
    18
100
AcDbLine
 10
88.01785230446395
 20
175.5927184999662
 30
0.0
 11
88.03209491377392
 21
175.5679668565562
 31
0.0
  0
LINE
  5
1596
330
18
100
AcDbEntity
  8
1
370
    18
100
AcDbLine
 10
88.03209491377392
 20
175.5679668565562
 30
0.0
 11
88.05281585658393
 21
175.5485023285561
 31
0.0
  0
LINE
  5
1597
330
18
100
AcDbEntity
  8
1
370
    18
100
AcDbLine
 10
88.10620559232393
 20
175.5314930318661
 30
0.0
 11
88.13431234713394
 21
175.5354020397961
 31
0.0
  0
LINE
  5
1598
330
18
100
AcDbEntity
  8
1
370
    18
100
AcDbLine
 10
88.16016154740394
 20
175.5473807559961
 30
0.0
 11
88.18154363062394
 21
175.5664061510162
 31
0.0
  0
LINE
  5
1599
330
18
100
AcDbEntity
  8
1
370
    18
100
AcDbLine
 10
88.20413767992393
 20
175.6186277394862
 30
0.0
 11
88.20341831128393
 21
175.6473610678462
 31
0.0
  0
LINE
  5
159A
330
18
100
AcDbEntity
  8
1
370
    18
100
AcDbLine
 10
88.20341831128393
 20
175.6473610678462
 30
0.0
 11
88.19453517944394
 21
175.6745973519563
 31
0.0
  0
LINE
  5
159B
330
18
100
AcDbEntity
  8
1
370
    18
100
AcDbLine
 10
87.98407607280394
 20
175.5090542578462
 30
0.0
 11
87.9850351260039
 21
175.6765245134562
 31
0.0
  0
LINE
  5
159C
330
18
100
AcDbEntity
  8
1
370
    18
100
AcDbLine
 10
88.23171608933391
 20
175.7506070030862
 30
0.0
 11
88.23126553905392
 21
175.6719324753962
 31
0.0
  0
LINE
  5
159D
330
18
100
AcDbEntity
  8
1
370
    18
100
AcDbLine
 10
88.23126553905392
 20
175.6719324753962
 30
0.0
 11
88.22694684690393
 21
175.6664567383162
 31
0.0
  0
LINE
  5
159E
330
18
100
AcDbEntity
  8
1
370
    18
100
AcDbLine
 10
88.22694684690393
 20
175.6664567383162
 30
0.0
 11
88.22537830673393
 21
175.6596413582462
 31
0.0
  0
LINE
  5
159F
330
18
100
AcDbEntity
  8
1
370
    18
100
AcDbLine
 10
88.22537830673393
 20
175.6596413582462
 30
0.0
 11
88.22525003927394
 21
175.6373089225961
 31
0.0
  0
LINE
  5
15A0
330
18
100
AcDbEntity
  8
1
370
    18
100
AcDbLine
 10
88.23171608933391
 20
175.7506070030862
 30
0.0
 11
88.22713397251392
 21
175.7516919221762
 31
0.0
  0
LINE
  5
15A1
330
18
100
AcDbEntity
  8
1
370
    18
100
AcDbLine
 10
88.09928477939392
 20
175.5782395131762
 30
0.0
 11
88.11906111779395
 21
175.5878242577861
 31
0.0
  0
LINE
  5
15A2
330
18
100
AcDbEntity
  8
1
370
    18
100
AcDbLine
 10
88.13400596979393
 20
175.6041115086762
 30
0.0
 11
88.14200933961393
 21
175.6248009161162
 31
0.0
  0
LINE
  5
15A3
330
18
100
AcDbEntity
  8
1
370
    13
100
AcDbLine
 10
88.09908686640392
 20
175.5693551608662
 30
0.0
 11
88.07376030288393
 21
175.5746897171262
 31
0.0
  0
LINE
  5
15A4
330
18
100
AcDbEntity
  8
1
370
    13
100
AcDbLine
 10
88.05290085641393
 20
175.5901179146162
 30
0.0
 11
88.04018804719392
 21
175.6129189320063
 31
0.0
  0
LINE
  5
15A5
330
18
100
AcDbEntity
  8
1
370
    13
100
AcDbLine
 10
88.15575541448394
 20
175.6570269540262
 30
0.0
 11
88.16076229423392
 21
175.6330220414062
 31
0.0
  0
LINE
  5
15A6
330
18
100
AcDbEntity
  8
1
370
    13
100
AcDbLine
 10
88.16076229423392
 20
175.6330220414062
 30
0.0
 11
88.15625521663394
 21
175.6088465385762
 31
0.0
  0
LINE
  5
15A7
330
18
100
AcDbEntity
  8
1
370
    13
100
AcDbLine
 10
88.14292933777393
 20
175.5882297687862
 30
0.0
 11
88.12284004724395
 21
175.5743527099262
 31
0.0
  0
LINE
  5
15A8
330
18
100
AcDbEntity
  8
1
370
    18
100
AcDbLine
 10
88.15145502938392
 20
175.6539031020063
 30
0.0
 11
88.15530096657395
 21
175.6315514144263
 31
0.0
  0
LINE
  5
15A9
330
18
100
AcDbEntity
  8
1
370
    18
100
AcDbLine
 10
88.15530096657395
 20
175.6315514144263
 30
0.0
 11
88.15052629108395
 21
175.6093223250261
 31
0.0
  0
LINE
  5
15AA
330
18
100
AcDbEntity
  8
1
370
    18
100
AcDbLine
 10
88.11911938539394
 20
175.5779048681762
 30
0.0
 11
88.09714194903392
 21
175.5733729087362
 31
0.0
  0
LINE
  5
15AB
330
18
100
AcDbEntity
  8
1
370
    18
100
AcDbLine
 10
87.76280064921392
 20
175.9773431244162
 30
0.0
 11
87.75559149040395
 21
175.9419265810762
 31
0.0
  0
LINE
  5
15AC
330
18
100
AcDbEntity
  8
1
370
    18
100
AcDbLine
 10
87.75559149040395
 20
175.9419265810762
 30
0.0
 11
87.75769676178395
 21
175.9058924799162
 31
0.0
  0
LINE
  5
15AD
330
18
100
AcDbEntity
  8
1
370
    18
100
AcDbLine
 10
87.75769676178395
 20
175.9058924799162
 30
0.0
 11
87.76897110931392
 21
175.8717201073161
 31
0.0
  0
LINE
  5
15AE
330
18
100
AcDbEntity
  8
1
370
    18
100
AcDbLine
 10
87.76897110931392
 20
175.8717201073161
 30
0.0
 11
87.78863961328394
 21
175.8417612695961
 31
0.0
  0
LINE
  5
15AF
330
18
100
AcDbEntity
  8
1
370
    18
100
AcDbLine
 10
87.78863961328394
 20
175.8417612695961
 30
0.0
 11
87.81534814254392
 21
175.8180759232662
 31
0.0
  0
LINE
  5
15B0
330
18
100
AcDbEntity
  8
1
370
    18
100
AcDbLine
 10
87.81534814254392
 20
175.8180759232662
 30
0.0
 11
87.84725965352393
 21
175.8022939469563
 31
0.0
  0
LINE
  5
15B1
330
18
100
AcDbEntity
  8
1
370
    18
100
AcDbLine
 10
87.95314613466393
 20
176.0557869832761
 30
0.0
 11
87.93827785731393
 21
176.0623398441861
 31
0.0
  0
LINE
  5
15B2
330
18
100
AcDbEntity
  8
1
370
    18
100
AcDbLine
 10
87.93827785731393
 20
176.0623398441861
 30
0.0
 11
87.92273103801393
 21
176.0670382206162
 31
0.0
  0
LINE
  5
15B3
330
18
100
AcDbEntity
  8
1
370
    18
100
AcDbLine
 10
87.74690568100394
 20
175.9999278823962
 30
0.0
 11
87.76280064921392
 21
175.9773431244162
 31
0.0
  0
LINE
  5
15B4
330
18
100
AcDbEntity
  8
1
370
    18
100
AcDbLine
 10
87.85429641110393
 20
176.1109407706062
 30
0.0
 11
87.82981000338393
 21
176.1221842126862
 31
0.0
  0
LINE
  5
15B5
330
18
100
AcDbEntity
  8
1
370
    18
100
AcDbLine
 10
87.82981000338393
 20
176.1221842126862
 30
0.0
 11
87.80294950592393
 21
176.1242212952261
 31
0.0
  0
LINE
  5
15B6
330
18
100
AcDbEntity
  8
1
370
    18
100
AcDbLine
 10
87.80294950592393
 20
176.1242212952261
 30
0.0
 11
87.77695672326393
 21
176.1168075698962
 31
0.0
  0
LINE
  5
15B7
330
18
100
AcDbEntity
  8
1
370
    18
100
AcDbLine
 10
87.77695672326393
 20
176.1168075698962
 30
0.0
 11
87.75497090109395
 21
176.1008375624662
 31
0.0
  0
LINE
  5
15B8
330
18
100
AcDbEntity
  8
1
370
    18
100
AcDbLine
 10
87.75497090109395
 20
176.1008375624662
 30
0.0
 11
87.73964667977393
 21
176.0782389856162
 31
0.0
  0
LINE
  5
15B9
330
18
100
AcDbEntity
  8
1
370
    18
100
AcDbLine
 10
87.73964667977393
 20
176.0782389856162
 30
0.0
 11
87.73283397686395
 21
176.0517410071162
 31
0.0
  0
LINE
  5
15BA
330
18
100
AcDbEntity
  8
1
370
    18
100
AcDbLine
 10
87.73283397686395
 20
176.0517410071162
 30
0.0
 11
87.73535499544392
 21
176.0245431481262
 31
0.0
  0
LINE
  5
15BB
330
18
100
AcDbEntity
  8
1
370
    18
100
AcDbLine
 10
87.73535499544392
 20
176.0245431481262
 30
0.0
 11
87.74690568100394
 21
175.9999278823962
 31
0.0
  0
LINE
  5
15BC
330
18
100
AcDbEntity
  8
1
370
    18
100
AcDbLine
 10
88.22713247645394
 20
175.7514227888561
 30
0.0
 11
88.22874515039394
 21
176.0330243910062
 31
0.0
  0
LINE
  5
15BD
330
18
100
AcDbEntity
  8
1
370
    18
100
AcDbLine
 10
88.22874515039394
 20
176.0330243910062
 30
0.0
 11
87.96052529313392
 21
176.4975947217062
 31
0.0
  0
LINE
  5
15BE
330
18
100
AcDbEntity
  8
1
370
    18
100
AcDbLine
 10
88.22713247645394
 20
175.7514227888561
 30
0.0
 11
88.14206457572392
 21
175.7543219562862
 31
0.0
  0
LINE
  5
15BF
330
18
100
AcDbEntity
  8
1
370
    18
100
AcDbLine
 10
87.89181432819393
 20
175.7628506400162
 30
0.0
 11
87.81219905435392
 21
175.7655641778962
 31
0.0
  0
LINE
  5
15C0
330
18
100
AcDbEntity
  8
1
370
    18
100
AcDbLine
 10
87.81219905435392
 20
175.7655641778962
 30
0.0
 11
87.78791272497395
 21
175.7754914021362
 31
0.0
  0
LINE
  5
15C1
330
18
100
AcDbEntity
  8
1
370
    18
100
AcDbLine
 10
87.78791272497395
 20
175.7754914021362
 30
0.0
 11
87.76173313166394
 21
175.7772455324861
 31
0.0
  0
LINE
  5
15C2
330
18
100
AcDbEntity
  8
1
370
    18
100
AcDbLine
 10
87.76173313166394
 20
175.7772455324861
 30
0.0
 11
87.73625491490392
 21
175.7706536559062
 31
0.0
  0
LINE
  5
15C3
330
18
100
AcDbEntity
  8
1
370
    18
100
AcDbLine
 10
87.73625491490392
 20
175.7706536559062
 30
0.0
 11
87.71400354208394
 21
175.7563674640062
 31
0.0
  0
LINE
  5
15C4
330
18
100
AcDbEntity
  8
1
370
    18
100
AcDbLine
 10
87.71400354208394
 20
175.7563674640062
 30
0.0
 11
87.69718436312393
 21
175.7358041980462
 31
0.0
  0
LINE
  5
15C5
330
18
100
AcDbEntity
  8
1
370
    18
100
AcDbLine
 10
87.69718436312393
 20
175.7358041980462
 30
0.0
 11
87.6874638313839
 21
175.7110009011961
 31
0.0
  0
LINE
  5
15C6
330
18
100
AcDbEntity
  8
1
370
    18
100
AcDbLine
 10
87.6874638313839
 20
175.7110009011961
 30
0.0
 11
87.68580576383392
 21
175.6844176079062
 31
0.0
  0
LINE
  5
15C7
330
18
100
AcDbEntity
  8
1
370
    18
100
AcDbLine
 10
87.68580576383392
 20
175.6844176079062
 30
0.0
 11
87.69237425463392
 21
175.6586867932262
 31
0.0
  0
LINE
  5
15C8
330
18
100
AcDbEntity
  8
1
370
    18
100
AcDbLine
 10
87.69237425463392
 20
175.6586867932262
 30
0.0
 11
87.70651895075394
 21
175.6363603418162
 31
0.0
  0
LINE
  5
15C9
330
18
100
AcDbEntity
  8
1
370
    18
100
AcDbLine
 10
87.70651895075394
 20
175.6363603418162
 30
0.0
 11
87.72683713846394
 21
175.6196495878362
 31
0.0
  0
LINE
  5
15CA
330
18
100
AcDbEntity
  8
1
370
    18
100
AcDbLine
 10
87.72683713846394
 20
175.6196495878362
 30
0.0
 11
87.7513153965939
 21
175.6102125988362
 31
0.0
  0
LINE
  5
15CB
330
18
100
AcDbEntity
  8
1
370
    18
100
AcDbLine
 10
87.7513153965939
 20
175.6102125988362
 30
0.0
 11
87.77752802133392
 21
175.6089828768862
 31
0.0
  0
LINE
  5
15CC
330
18
100
AcDbEntity
  8
1
370
    18
100
AcDbLine
 10
87.77752802133392
 20
175.6089828768862
 30
0.0
 11
87.80287619898393
 21
175.6160836107161
 31
0.0
  0
LINE
  5
15CD
330
18
100
AcDbEntity
  8
1
370
    18
100
AcDbLine
 10
87.80287619898393
 20
175.6160836107161
 30
0.0
 11
87.97212708095392
 21
175.6103153151662
 31
0.0
  0
LINE
  5
15CE
330
18
100
AcDbEntity
  8
1
370
    18
100
AcDbLine
 10
87.97212708095392
 20
175.6103153151662
 30
0.0
 11
87.97958525501394
 21
175.5833974162461
 31
0.0
  0
LINE
  5
15CF
330
18
100
AcDbEntity
  8
1
370
    18
100
AcDbLine
 10
87.97958525501394
 20
175.5833974162461
 30
0.0
 11
87.98039682819393
 21
175.5127037387361
 31
0.0
  0
LINE
  5
15D0
330
18
100
AcDbEntity
  8
1
370
    18
100
AcDbLine
 10
87.49072434297394
 20
175.5293916581162
 30
0.0
 11
87.98039682819393
 21
175.5127037387361
 31
0.0
  0
LINE
  5
15D1
330
18
100
AcDbEntity
  8
1
370
    18
100
AcDbLine
 10
87.47149863339393
 20
175.6011432468962
 30
0.0
 11
87.49072434297394
 21
175.5293916581162
 31
0.0
  0
LINE
  5
15D2
330
18
100
AcDbEntity
  8
1
370
    18
100
AcDbLine
 10
87.48100802382394
 20
176.4975947217062
 30
0.0
 11
87.47149863339393
 21
175.6011432468962
 31
0.0
  0
LINE
  5
15D3
102
{ACAD_REACTORS
330
1682
102
}
330
18
100
AcDbEntity
  8
1
370
    18
100
AcDbLine
 10
87.96052529313392
 20
176.4975947217062
 30
0.0
 11
87.03750166674394
 21
176.4975947217062
 31
0.0
  0
LINE
  5
15D4
330
18
100
AcDbEntity
  8
SK1
370
    18
100
AcDbLine
 10
87.03750166674394
 20
176.4975947217062
 30
0.0
 11
83.33120959115392
 21
176.4975947217062
 31
0.0
  0
LINE
  5
15D5
330
18
100
AcDbEntity
  8
1
370
    18
100
AcDbLine
 10
88.22644373767394
 20
175.6311753521862
 30
0.0
 11
88.2266419656239
 21
175.6657772908561
 31
0.0
  0
LINE
  5
15D6
330
18
100
AcDbEntity
  8
1
370
    18
100
AcDbLine
 10
87.80811044048393
 20
175.7665325617862
 30
0.0
 11
87.81219905435392
 21
175.7655641778962
 31
0.0
  0
LINE
  5
15D7
330
18
100
AcDbEntity
  8
1
370
    18
100
AcDbLine
 10
87.78541154887392
 20
175.7719073935561
 30
0.0
 11
87.78577048516394
 21
175.7718220787662
 31
0.0
  0
LINE
  5
15D8
330
18
100
AcDbEntity
  8
1
370
    18
100
AcDbLine
 10
87.79860766421395
 20
175.7713883394762
 30
0.0
 11
87.79306944694393
 21
175.7715769611462
 31
0.0
  0
LINE
  5
15D9
330
18
100
AcDbEntity
  8
1
370
    18
100
AcDbLine
 10
87.79306944694393
 20
175.7715769611462
 30
0.0
 11
87.78941543850391
 21
175.7717007404262
 31
0.0
  0
LINE
  5
15DA
330
18
100
AcDbEntity
  8
1
370
    18
100
AcDbLine
 10
87.78941543850391
 20
175.7717007404262
 30
0.0
 11
87.78577048516394
 21
175.7718220787662
 31
0.0
  0
LINE
  5
15DB
330
18
100
AcDbEntity
  8
1
370
    18
100
AcDbLine
 10
87.92839870384391
 20
175.6427125732062
 30
0.0
 11
87.94306513120394
 21
175.6422133222362
 31
0.0
  0
LINE
  5
15DC
330
18
100
AcDbEntity
  8
1
370
    18
100
AcDbLine
 10
87.92100934854394
 20
175.6434148158962
 30
0.0
 11
87.92469276637392
 21
175.6429522577662
 31
0.0
  0
LINE
  5
15DD
330
18
100
AcDbEntity
  8
1
370
    18
100
AcDbLine
 10
87.92469276637392
 20
175.6429522577662
 30
0.0
 11
87.92839870384391
 21
175.6427125732062
 31
0.0
  0
LINE
  5
15DE
330
18
100
AcDbEntity
  8
1
370
    18
100
AcDbLine
 10
87.43120166674392
 20
175.7515333398162
 30
0.0
 11
87.47149863339393
 21
175.6011432468962
 31
0.0
  0
LINE
  5
15DF
330
18
100
AcDbEntity
  8
SK1
370
    18
100
AcDbLine
 10
83.33120959115392
 20
175.7515333398162
 30
0.0
 11
87.03750166674394
 21
175.7515333398162
 31
0.0
  0
LINE
  5
15E0
102
{ACAD_REACTORS
330
168A
102
}
330
18
100
AcDbEntity
  8
1
370
    18
100
AcDbLine
 10
87.03750166674394
 20
175.7515333398162
 30
0.0
 11
87.43120166674392
 21
175.7515333398162
 31
0.0
  0
LINE
  5
15E1
102
{ACAD_REACTORS
330
167F
102
}
330
18
100
AcDbEntity
  8
1
370
    18
100
AcDbLine
 10
87.43120166674392
 20
175.7515333398162
 30
0.0
 11
87.43120166674392
 21
176.4975947217062
 31
0.0
  0
LINE
  5
15E2
330
18
100
AcDbEntity
  8
1
370
    18
100
AcDbLine
 10
87.94534012665392
 20
175.6166579402762
 30
0.0
 11
87.97212708095392
 21
175.6103153151662
 31
0.0
  0
LINE
  5
15E3
330
18
100
AcDbEntity
  8
1
370
    18
100
AcDbLine
 10
87.80287619898393
 20
175.6160836107161
 30
0.0
 11
87.77608865413393
 21
175.6224261964562
 31
0.0
  0
LINE
  5
15E4
330
18
100
AcDbEntity
  8
1
370
    18
100
AcDbLine
 10
87.94534012665392
 20
175.6166579402762
 30
0.0
 11
87.77608865413393
 21
175.6224261964562
 31
0.0
  0
LINE
  5
15E5
330
18
100
AcDbEntity
  8
1
370
    18
100
AcDbLine
 10
87.79237527510391
 20
175.7737270355862
 30
0.0
 11
87.79341125728393
 21
175.7734050283561
 31
0.0
  0
LINE
  5
15E6
330
18
100
AcDbEntity
  8
1
370
    18
100
AcDbLine
 10
87.79341125728393
 20
175.7734050283561
 30
0.0
 11
87.79524593865394
 21
175.7727466044762
 31
0.0
  0
LINE
  5
15E7
330
18
100
AcDbEntity
  8
1
370
    18
100
AcDbLine
 10
87.79524593865394
 20
175.7727466044762
 30
0.0
 11
87.79878727015391
 21
175.7713162530061
 31
0.0
  0
LINE
  5
15E8
330
18
100
AcDbEntity
  8
1
370
    18
100
AcDbLine
 10
87.79878727015391
 20
175.7713162530061
 30
0.0
 11
87.80453454212393
 21
175.7685582663962
 31
0.0
  0
LINE
  5
15E9
330
18
100
AcDbEntity
  8
1
370
    18
100
AcDbLine
 10
87.80453454212393
 20
175.7685582663962
 30
0.0
 11
87.80811044048393
 21
175.7665325617862
 31
0.0
  0
LINE
  5
15EA
330
18
100
AcDbEntity
  8
1
370
    18
100
AcDbLine
 10
87.77783593410395
 20
175.7771704538962
 30
0.0
 11
87.79237527510391
 21
175.7737270355862
 31
0.0
  0
LINE
  5
15EB
330
18
100
AcDbEntity
  8
1
370
    18
100
AcDbLine
 10
87.78577048516394
 20
175.7718220787662
 30
0.0
 11
87.77938793887392
 21
175.7754319140662
 31
0.0
  0
LINE
  5
15EC
330
18
100
AcDbEntity
  8
1
370
    18
100
AcDbLine
 10
87.77938793887392
 20
175.7754319140662
 30
0.0
 11
87.77777132793394
 21
175.7762230935862
 31
0.0
  0
LINE
  5
15ED
330
18
100
AcDbEntity
  8
1
370
    18
100
AcDbLine
 10
87.77608865413393
 20
175.6224261964562
 30
0.0
 11
87.75656889002394
 21
175.6162013663861
 31
0.0
  0
LINE
  5
15EE
330
18
100
AcDbEntity
  8
1
370
    18
100
AcDbLine
 10
87.75656889002394
 20
175.6162013663861
 30
0.0
 11
87.73617680482393
 21
175.6149656601962
 31
0.0
  0
LINE
  5
15EF
330
18
100
AcDbEntity
  8
1
370
    18
100
AcDbLine
 10
87.77465409007392
 20
175.7774365950961
 30
0.0
 11
87.78013313423391
 21
175.7748708128263
 31
0.0
  0
LINE
  5
15F0
330
18
100
AcDbEntity
  8
1
370
    18
100
AcDbLine
 10
87.78013313423391
 20
175.7748708128263
 30
0.0
 11
87.78541154887392
 21
175.7719073935561
 31
0.0
  0
LINE
  5
15F1
330
18
100
AcDbEntity
  8
1
370
    18
100
AcDbLine
 10
87.95250845877394
 20
175.6149602271363
 30
0.0
 11
87.95222038848391
 21
175.6400452950762
 31
0.0
  0
LINE
  5
15F2
330
18
100
AcDbEntity
  8
1
370
    18
100
AcDbLine
 10
87.94306513120394
 20
175.6422133222362
 30
0.0
 11
87.95222038848391
 21
175.6400452950762
 31
0.0
  0
LINE
  5
15F3
330
18
100
AcDbEntity
  8
1
370
    18
100
AcDbLine
 10
87.93755396112393
 20
175.6405445066762
 30
0.0
 11
87.91314987607393
 21
175.6465434710561
 31
0.0
  0
LINE
  5
15F4
330
18
100
AcDbEntity
  8
1
370
    18
100
AcDbLine
 10
87.91314987607393
 20
175.6465434710561
 30
0.0
 11
87.89315727826393
 21
175.6618791096761
 31
0.0
  0
LINE
  5
15F5
330
18
100
AcDbEntity
  8
1
370
    18
100
AcDbLine
 10
87.89315727826393
 20
175.6618791096761
 30
0.0
 11
87.88085116114393
 21
175.6840397740162
 31
0.0
  0
LINE
  5
15F6
330
18
100
AcDbEntity
  8
1
370
    18
100
AcDbLine
 10
87.88085116114393
 20
175.6840397740162
 30
0.0
 11
87.87824695375393
 21
175.7093957469262
 31
0.0
  0
LINE
  5
15F7
330
18
100
AcDbEntity
  8
1
370
    18
100
AcDbLine
 10
87.87824695375393
 20
175.7093957469262
 30
0.0
 11
87.88577150563392
 21
175.7337941233262
 31
0.0
  0
LINE
  5
15F8
330
18
100
AcDbEntity
  8
1
370
    18
100
AcDbLine
 10
87.88577150563392
 20
175.7337941233262
 30
0.0
 11
87.90219241767394
 21
175.7532376277462
 31
0.0
  0
LINE
  5
15F9
330
18
100
AcDbEntity
  8
1
370
    18
100
AcDbLine
 10
87.95222038848391
 20
175.6400452950762
 30
0.0
 11
87.93755396112393
 21
175.6405445066762
 31
0.0
  0
LINE
  5
15FA
330
18
100
AcDbEntity
  8
1
370
    18
100
AcDbLine
 10
87.78541154887392
 20
175.7719073935561
 30
0.0
 11
87.80509143077393
 21
175.7551503798262
 31
0.0
  0
LINE
  5
15FB
330
18
100
AcDbEntity
  8
1
370
    18
100
AcDbLine
 10
87.80509143077393
 20
175.7551503798262
 30
0.0
 11
87.81873959245393
 21
175.7330594397562
 31
0.0
  0
LINE
  5
15FC
330
18
100
AcDbEntity
  8
1
370
    18
100
AcDbLine
 10
87.81873959245393
 20
175.7330594397562
 30
0.0
 11
87.82505095778395
 21
175.7077466951062
 31
0.0
  0
LINE
  5
15FD
330
18
100
AcDbEntity
  8
1
370
    18
100
AcDbLine
 10
87.82505095778395
 20
175.7077466951062
 30
0.0
 11
87.8234226539539
 21
175.6816337945762
 31
0.0
  0
LINE
  5
15FE
330
18
100
AcDbEntity
  8
1
370
    18
100
AcDbLine
 10
87.8234226539539
 20
175.6816337945762
 30
0.0
 11
87.81400940506392
 21
175.6572161662461
 31
0.0
  0
LINE
  5
15FF
330
18
100
AcDbEntity
  8
1
370
    18
100
AcDbLine
 10
87.81400940506392
 20
175.6572161662461
 30
0.0
 11
87.79771164238395
 21
175.6368307345762
 31
0.0
  0
LINE
  5
1600
330
18
100
AcDbEntity
  8
1
370
    18
100
AcDbLine
 10
87.79771164238395
 20
175.6368307345762
 30
0.0
 11
87.77608865413393
 21
175.6224261964562
 31
0.0
  0
LINE
  5
1601
330
18
100
AcDbEntity
  8
1
370
    13
100
AcDbLine
 10
87.92839870384391
 20
175.6427125732062
 30
0.0
 11
87.93755396112393
 21
175.6405445066762
 31
0.0
  0
LINE
  5
1602
330
18
100
AcDbEntity
  8
1
370
    18
100
AcDbLine
 10
87.84588638855394
 20
175.8037141015961
 30
0.0
 11
87.8441736754439
 21
175.8038540619461
 31
0.0
  0
LINE
  5
1603
330
18
100
AcDbEntity
  8
1
370
    18
100
AcDbLine
 10
87.8441736754439
 20
175.8038540619461
 30
0.0
 11
87.84246308831395
 21
175.8040168568961
 31
0.0
  0
LINE
  5
1604
330
18
100
AcDbEntity
  8
1
370
    18
100
AcDbLine
 10
87.81079693117391
 20
176.1246153889262
 30
0.0
 11
87.81581070067392
 21
176.1218688196162
 31
0.0
  0
LINE
  5
1605
330
18
100
AcDbEntity
  8
1
370
    18
100
AcDbLine
 10
87.81581070067392
 20
176.1218688196162
 30
0.0
 11
87.82060939186392
 21
176.1187533927762
 31
0.0
  0
LINE
  5
1606
102
{ACAD_REACTORS
330
1679
330
167C
102
}
330
18
100
AcDbEntity
  8
SK1
370
    18
100
AcDbLine
 10
83.33120959115392
 20
175.7515333398162
 30
0.0
 11
83.33120959115392
 21
176.4975947217062
 31
0.0
  0
LINE
  5
1607
330
18
100
AcDbEntity
  8
1
370
    13
100
AcDbLine
 10
87.93260479779394
 20
176.0572539882161
 30
0.0
 11
87.92843866439392
 21
176.0582397736462
 31
0.0
  0
LINE
  5
1608
330
18
100
AcDbEntity
  8
1
370
    18
100
AcDbLine
 10
87.84237564754395
 20
175.8074032280761
 30
0.0
 11
87.81446956162392
 21
175.8204843042762
 31
0.0
  0
LINE
  5
1609
330
18
100
AcDbEntity
  8
1
370
    18
100
AcDbLine
 10
87.81446956162392
 20
175.8204843042762
 30
0.0
 11
87.79036642085392
 21
175.8398022577662
 31
0.0
  0
LINE
  5
160A
330
18
100
AcDbEntity
  8
1
370
    13
100
AcDbLine
 10
87.76212301277393
 20
175.9753156481562
 30
0.0
 11
87.80578379159392
 21
175.9649769286762
 31
0.0
  0
LINE
  5
160B
330
18
100
AcDbEntity
  8
1
370
    18
100
AcDbLine
 10
87.80578379159392
 20
175.9649769286762
 30
0.0
 11
87.79899663981394
 21
175.9237674835361
 31
0.0
  0
LINE
  5
160C
330
18
100
AcDbEntity
  8
1
370
    18
100
AcDbLine
 10
87.79899663981394
 20
175.9237674835361
 30
0.0
 11
87.80504698204394
 21
175.8825333927762
 31
0.0
  0
LINE
  5
160D
330
18
100
AcDbEntity
  8
1
370
    18
100
AcDbLine
 10
87.80504698204394
 20
175.8825333927762
 30
0.0
 11
87.82334576434392
 21
175.8452887822262
 31
0.0
  0
LINE
  5
160E
330
18
100
AcDbEntity
  8
1
370
    13
100
AcDbLine
 10
87.79960998504392
 20
175.8509086922462
 30
0.0
 11
87.82334576434392
 21
175.8452887822262
 31
0.0
  0
LINE
  5
160F
330
18
100
AcDbEntity
  8
1
370
    18
100
AcDbLine
 10
88.03835127921393
 20
176.0017313039862
 30
0.0
 11
88.0095864154839
 21
176.0313603392162
 31
0.0
  0
LINE
  5
1610
330
18
100
AcDbEntity
  8
1
370
    18
100
AcDbLine
 10
88.0095864154839
 20
176.0313603392162
 30
0.0
 11
87.97315495291393
 21
176.0504884505662
 31
0.0
  0
LINE
  5
1611
330
18
100
AcDbEntity
  8
1
370
    18
100
AcDbLine
 10
87.97315495291393
 20
176.0504884505662
 30
0.0
 11
87.93260479779394
 21
176.0572539882161
 31
0.0
  0
LINE
  5
1612
330
18
100
AcDbEntity
  8
1
370
    18
100
AcDbLine
 10
87.80858020332393
 20
175.8390230860962
 30
0.0
 11
87.83158940927393
 21
175.8335749867561
 31
0.0
  0
LINE
  5
1613
330
18
100
AcDbEntity
  8
1
370
    18
100
AcDbLine
 10
87.80858020332393
 20
175.8390230860962
 30
0.0
 11
87.80355682754395
 21
175.8456840963962
 31
0.0
  0
LINE
  5
1614
330
18
100
AcDbEntity
  8
1
370
    18
100
AcDbLine
 10
87.80355682754395
 20
175.8456840963962
 30
0.0
 11
87.79960998504392
 21
175.8509086922462
 31
0.0
  0
LINE
  5
1615
330
18
100
AcDbEntity
  8
1
370
    18
100
AcDbLine
 10
87.82334576434392
 20
175.8452887822262
 30
0.0
 11
87.83158940927393
 21
175.8335749867561
 31
0.0
  0
LINE
  5
1616
330
18
100
AcDbEntity
  8
1
370
    13
100
AcDbLine
 10
88.02047662992393
 20
175.6715966492962
 30
0.0
 11
88.13234644555393
 21
175.7529955416162
 31
0.0
  0
LINE
  5
1617
330
18
100
AcDbEntity
  8
1
370
    13
100
AcDbLine
 10
88.02047662992393
 20
175.6715966492962
 30
0.0
 11
87.92944279624393
 21
175.7584448220562
 31
0.0
  0
LINE
  5
1618
330
18
100
AcDbEntity
  8
1
370
    18
100
AcDbLine
 10
87.92944279624393
 20
175.7584448220562
 30
0.0
 11
88.08495567419393
 21
175.8715987296062
 31
0.0
  0
LINE
  5
1619
330
18
100
AcDbEntity
  8
1
370
    13
100
AcDbLine
 10
88.08495567419393
 20
175.8715987296062
 30
0.0
 11
88.13234644555393
 21
175.7529955416162
 31
0.0
  0
LINE
  5
161A
330
18
100
AcDbEntity
  8
1
370
    18
100
AcDbLine
 10
87.92944279624393
 20
175.7584448220562
 30
0.0
 11
87.92405355505392
 21
175.7586142311662
 31
0.0
  0
LINE
  5
161B
330
18
100
AcDbEntity
  8
1
370
    18
100
AcDbLine
 10
87.92405355505392
 20
175.7586142311662
 30
0.0
 11
87.91425251166392
 21
175.7633715051162
 31
0.0
  0
LINE
  5
161C
330
18
100
AcDbEntity
  8
1
370
    18
100
AcDbLine
 10
87.91425251166392
 20
175.7633715051162
 30
0.0
 11
87.90095879809392
 21
175.7722720384961
 31
0.0
  0
LINE
  5
161D
330
18
100
AcDbEntity
  8
1
370
    18
100
AcDbLine
 10
87.90095879809392
 20
175.7722720384961
 30
0.0
 11
87.88541678193395
 21
175.7844814235262
 31
0.0
  0
LINE
  5
161E
330
18
100
AcDbEntity
  8
1
370
    18
100
AcDbLine
 10
87.88541678193395
 20
175.7844814235262
 30
0.0
 11
87.86908240515392
 21
175.7988559223362
 31
0.0
  0
LINE
  5
161F
330
18
100
AcDbEntity
  8
1
370
    18
100
AcDbLine
 10
87.83158940927393
 20
175.8335749867561
 30
0.0
 11
87.86908240515392
 21
175.7988559223362
 31
0.0
  0
LINE
  5
1620
330
18
100
AcDbEntity
  8
1
370
    18
100
AcDbLine
 10
87.80578379159392
 20
175.9649769286762
 30
0.0
 11
87.80597930301395
 21
175.9705373506262
 31
0.0
  0
LINE
  5
1621
330
18
100
AcDbEntity
  8
1
370
    18
100
AcDbLine
 10
87.80597930301395
 20
175.9705373506262
 30
0.0
 11
87.80316875745393
 21
175.9752952151262
 31
0.0
  0
LINE
  5
1622
330
18
100
AcDbEntity
  8
1
370
    18
100
AcDbLine
 10
87.79284145527393
 20
175.9871351914462
 30
0.0
 11
87.79770085500393
 21
175.9809409518662
 31
0.0
  0
LINE
  5
1623
330
18
100
AcDbEntity
  8
1
370
    18
100
AcDbLine
 10
87.79770085500393
 20
175.9809409518662
 30
0.0
 11
87.80316875745393
 21
175.9752952151262
 31
0.0
  0
LINE
  5
1624
330
18
100
AcDbEntity
  8
1
370
    18
100
AcDbLine
 10
87.91615384644392
 20
176.0768596970362
 30
0.0
 11
87.79284145527393
 21
175.9871351914462
 31
0.0
  0
LINE
  5
1625
330
18
100
AcDbEntity
  8
1
370
    18
100
AcDbLine
 10
87.92384363421392
 20
176.0631003544762
 30
0.0
 11
87.92035183017393
 21
176.0701848678662
 31
0.0
  0
LINE
  5
1626
330
18
100
AcDbEntity
  8
1
370
    18
100
AcDbLine
 10
87.92035183017393
 20
176.0701848678662
 30
0.0
 11
87.91615384644392
 21
176.0768596970362
 31
0.0
  0
LINE
  5
1627
330
18
100
AcDbEntity
  8
1
370
    18
100
AcDbLine
 10
87.92384363421392
 20
176.0631003544762
 30
0.0
 11
87.92736484764393
 21
176.0588609535062
 31
0.0
  0
LINE
  5
1628
330
18
100
AcDbEntity
  8
1
370
    18
100
AcDbLine
 10
87.92736484764393
 20
176.0588609535062
 30
0.0
 11
87.93260479779394
 21
176.0572539882161
 31
0.0
  0
LINE
  5
1629
330
18
100
AcDbEntity
  8
1
370
    18
100
AcDbLine
 10
88.04659551469395
 20
175.9900175085162
 30
0.0
 11
88.03835127921393
 21
176.0017313039862
 31
0.0
  0
LINE
  5
162A
330
18
100
AcDbEntity
  8
1
370
    18
100
AcDbLine
 10
88.06681578921395
 20
175.9427309889162
 30
0.0
 11
88.04659551469395
 21
175.9900175085162
 31
0.0
  0
LINE
  5
162B
330
18
100
AcDbEntity
  8
1
370
    18
100
AcDbLine
 10
88.06681578921395
 20
175.9427309889162
 30
0.0
 11
88.07492545803395
 21
175.9223719745163
 31
0.0
  0
LINE
  5
162C
330
18
100
AcDbEntity
  8
1
370
    18
100
AcDbLine
 10
88.07492545803395
 20
175.9223719745163
 30
0.0
 11
88.08127556344395
 21
175.9034745319962
 31
0.0
  0
LINE
  5
162D
330
18
100
AcDbEntity
  8
1
370
    18
100
AcDbLine
 10
88.08127556344395
 20
175.9034745319962
 30
0.0
 11
88.08527106726392
 21
175.8878084609662
 31
0.0
  0
LINE
  5
162E
330
18
100
AcDbEntity
  8
1
370
    18
100
AcDbLine
 10
88.08527106726392
 20
175.8878084609662
 30
0.0
 11
88.08653744268392
 21
175.8768407663662
 31
0.0
  0
LINE
  5
162F
330
18
100
AcDbEntity
  8
1
370
    18
100
AcDbLine
 10
88.08653744268392
 20
175.8768407663662
 30
0.0
 11
88.08495567419393
 21
175.8715987296062
 31
0.0
  0
LINE
  5
1630
330
18
100
AcDbEntity
  8
1
370
    18
100
AcDbLine
 10
88.07807391630394
 20
175.6022576147462
 30
0.0
 11
88.07930513431392
 21
175.6035137539662
 31
0.0
  0
LINE
  5
1631
330
18
100
AcDbEntity
  8
1
370
    18
100
AcDbLine
 10
88.07930513431392
 20
175.6035137539662
 30
0.0
 11
88.07692860363394
 21
175.6080529574862
 31
0.0
  0
LINE
  5
1632
330
18
100
AcDbEntity
  8
1
370
    18
100
AcDbLine
 10
88.07692860363394
 20
175.6080529574862
 30
0.0
 11
88.07179861389393
 21
175.6152618013361
 31
0.0
  0
LINE
  5
1633
330
18
100
AcDbEntity
  8
1
370
    18
100
AcDbLine
 10
88.07179861389393
 20
175.6152618013361
 30
0.0
 11
88.06367000810395
 21
175.6253109544661
 31
0.0
  0
LINE
  5
1634
330
18
100
AcDbEntity
  8
1
370
    18
100
AcDbLine
 10
88.06367000810395
 20
175.6253109544661
 30
0.0
 11
88.05239113302393
 21
175.6382154168463
 31
0.0
  0
LINE
  5
1635
330
18
100
AcDbEntity
  8
1
370
    18
100
AcDbLine
 10
88.05239113302393
 20
175.6382154168463
 30
0.0
 11
88.03794336664394
 21
175.6537877872762
 31
0.0
  0
LINE
  5
1636
330
18
100
AcDbEntity
  8
1
370
    18
100
AcDbLine
 10
88.03794336664394
 20
175.6537877872762
 30
0.0
 11
88.02047662992393
 21
175.6715966492962
 31
0.0
  0
LINE
  5
1637
330
18
100
AcDbEntity
  8
1
370
    18
100
AcDbLine
 10
88.13234644555393
 20
175.7529955416162
 30
0.0
 11
88.14192823741393
 21
175.7294501950061
 31
0.0
  0
LINE
  5
1638
330
18
100
AcDbEntity
  8
1
370
    18
100
AcDbLine
 10
88.14192823741393
 20
175.7294501950061
 30
0.0
 11
88.14954259226395
 21
175.7089055116861
 31
0.0
  0
LINE
  5
1639
330
18
100
AcDbEntity
  8
1
370
    18
100
AcDbLine
 10
88.14954259226395
 20
175.7089055116861
 30
0.0
 11
88.15503935292392
 21
175.6917929081162
 31
0.0
  0
LINE
  5
163A
330
18
100
AcDbEntity
  8
1
370
    18
100
AcDbLine
 10
88.15503935292392
 20
175.6917929081162
 30
0.0
 11
88.15843741699394
 21
175.6783021083262
 31
0.0
  0
LINE
  5
163B
330
18
100
AcDbEntity
  8
1
370
    18
100
AcDbLine
 10
88.15843741699394
 20
175.6783021083262
 30
0.0
 11
88.15988788653392
 21
175.6684157501462
 31
0.0
  0
LINE
  5
163C
330
18
100
AcDbEntity
  8
1
370
    18
100
AcDbLine
 10
88.15988788653392
 20
175.6684157501462
 30
0.0
 11
88.15898800644394
 21
175.6613943074962
 31
0.0
  0
LINE
  5
163D
330
18
100
AcDbEntity
  8
1
370
    13
100
AcDbLine
 10
87.80316875745393
 20
175.9752952151262
 30
0.0
 11
87.75645743355395
 21
175.9863560197762
 31
0.0
  0
LINE
  5
163E
330
18
100
AcDbEntity
  8
1
370
    18
100
AcDbLine
 10
87.73340771587392
 20
176.0568460756462
 30
0.0
 11
87.74175797476393
 21
176.0801445329862
 31
0.0
  0
LINE
  5
163F
330
18
100
AcDbEntity
  8
1
370
    18
100
AcDbLine
 10
87.74175797476393
 20
176.0801445329862
 30
0.0
 11
87.75696566088393
 21
176.0995892185062
 31
0.0
  0
LINE
  5
1640
330
18
100
AcDbEntity
  8
1
370
    18
100
AcDbLine
 10
87.75696566088393
 20
176.0995892185062
 30
0.0
 11
87.77744813960394
 21
176.1131574984562
 31
0.0
  0
LINE
  5
1641
330
18
100
AcDbEntity
  8
1
370
    18
100
AcDbLine
 10
87.77744813960394
 20
176.1131574984562
 30
0.0
 11
87.80107698998392
 21
176.1194412260462
 31
0.0
  0
LINE
  5
1642
330
18
100
AcDbEntity
  8
1
370
    18
100
AcDbLine
 10
87.80107698998392
 20
176.1194412260462
 30
0.0
 11
87.82539489410394
 21
176.1177843789662
 31
0.0
  0
LINE
  5
1643
330
18
100
AcDbEntity
  8
1
370
    18
100
AcDbLine
 10
87.91615384644392
 20
176.0768596970362
 30
0.0
 11
87.90255733820394
 21
176.0904538037062
 31
0.0
  0
LINE
  5
1644
330
18
100
AcDbEntity
  8
1
370
    18
100
AcDbLine
 10
87.90255733820394
 20
176.0904538037062
 30
0.0
 11
87.88989740289395
 21
176.0988617396462
 31
0.0
  0
LINE
  5
1645
330
18
100
AcDbEntity
  8
1
370
    18
100
AcDbLine
 10
87.88989740289395
 20
176.0988617396462
 30
0.0
 11
87.87624829633392
 21
176.1050385383162
 31
0.0
  0
LINE
  5
1646
330
18
100
AcDbEntity
  8
1
370
    18
100
AcDbLine
 10
87.87624829633392
 20
176.1050385383162
 30
0.0
 11
87.85793089202392
 21
176.1098360090362
 31
0.0
  0
LINE
  5
1647
330
18
100
AcDbEntity
  8
1
370
    18
100
AcDbLine
 10
87.85793089202392
 20
176.1098360090362
 30
0.0
 11
87.83945336992394
 21
176.1113234470063
 31
0.0
  0
LINE
  5
1648
330
18
100
AcDbEntity
  8
1
370
    18
100
AcDbLine
 10
87.83945336992394
 20
176.1113234470063
 30
0.0
 11
87.81370570488395
 21
176.1082182169962
 31
0.0
  0
LINE
  5
1649
330
18
100
AcDbEntity
  8
1
370
    18
100
AcDbLine
 10
87.81370570488395
 20
176.1082182169962
 30
0.0
 11
87.78971583160394
 21
176.0994053999762
 31
0.0
  0
LINE
  5
164A
330
18
100
AcDbEntity
  8
1
370
    18
100
AcDbLine
 10
87.78971583160394
 20
176.0994053999762
 30
0.0
 11
87.78942717076393
 21
176.0992581955463
 31
0.0
  0
LINE
  5
164B
330
18
100
AcDbEntity
  8
1
370
    18
100
AcDbLine
 10
87.79284145527393
 20
175.9871351914462
 30
0.0
 11
87.78487237672392
 21
175.9989360733561
 31
0.0
  0
LINE
  5
164C
330
18
100
AcDbEntity
  8
1
370
    18
100
AcDbLine
 10
87.78487237672392
 20
175.9989360733561
 30
0.0
 11
87.77881542033394
 21
176.0114446703862
 31
0.0
  0
LINE
  5
164D
330
18
100
AcDbEntity
  8
1
370
    18
100
AcDbLine
 10
87.77881542033394
 20
176.0114446703862
 30
0.0
 11
87.77403716217392
 21
176.0268019231362
 31
0.0
  0
LINE
  5
164E
330
18
100
AcDbEntity
  8
1
370
    18
100
AcDbLine
 10
87.77403716217392
 20
176.0268019231362
 30
0.0
 11
87.77184354451392
 21
176.0418474442262
 31
0.0
  0
LINE
  5
164F
330
18
100
AcDbEntity
  8
1
370
    18
100
AcDbLine
 10
87.77184354451392
 20
176.0418474442262
 30
0.0
 11
87.77248484244394
 21
176.0607082332762
 31
0.0
  0
LINE
  5
1650
330
18
100
AcDbEntity
  8
1
370
    18
100
AcDbLine
 10
87.77248484244394
 20
176.0607082332762
 30
0.0
 11
87.77667947972393
 21
176.0776478450662
 31
0.0
  0
LINE
  5
1651
330
18
100
AcDbEntity
  8
1
370
    18
100
AcDbLine
 10
87.77667947972393
 20
176.0776478450662
 30
0.0
 11
87.78926827344392
 21
176.0990798100761
 31
0.0
  0
LINE
  5
1652
330
18
100
AcDbEntity
  8
1
370
    18
100
AcDbLine
 10
87.78926827344392
 20
176.0990798100761
 30
0.0
 11
87.78942717076393
 21
176.0992581955463
 31
0.0
  0
LINE
  5
1653
330
18
100
AcDbEntity
  8
1
370
    13
100
AcDbLine
 10
87.75856632697394
 20
175.9833589391561
 30
0.0
 11
87.75769975390392
 21
175.9848577944262
 31
0.0
  0
LINE
  5
1654
330
18
100
AcDbEntity
  8
1
370
    13
100
AcDbLine
 10
87.75769975390392
 20
175.9848577944262
 30
0.0
 11
87.75658420495394
 21
175.9861757839162
 31
0.0
  0
LINE
  5
1655
330
18
100
AcDbEntity
  8
1
370
    18
100
AcDbLine
 10
87.86133108207392
 20
175.7910775520661
 30
0.0
 11
88.00404099350393
 21
175.6589258872361
 31
0.0
  0
LINE
  5
1656
330
18
100
AcDbEntity
  8
1
370
    18
100
AcDbLine
 10
88.01529195525395
 20
175.6396283667762
 30
0.0
 11
88.01467018484393
 21
175.6437614293762
 31
0.0
  0
LINE
  5
1657
330
18
100
AcDbEntity
  8
1
370
    18
100
AcDbLine
 10
88.01467018484393
 20
175.6437614293762
 30
0.0
 11
88.01426616990395
 21
175.6479251612061
 31
0.0
  0
LINE
  5
1658
330
18
100
AcDbEntity
  8
1
370
    18
100
AcDbLine
 10
88.04926850147394
 20
175.6051645774362
 30
0.0
 11
88.03906344314395
 21
175.6146934953862
 31
0.0
  0
LINE
  5
1659
330
18
100
AcDbEntity
  8
1
370
    18
100
AcDbLine
 10
88.03906344314395
 20
175.6146934953862
 30
0.0
 11
88.02834027561393
 21
175.6254413085363
 31
0.0
  0
LINE
  5
165A
330
18
100
AcDbEntity
  8
1
370
    18
100
AcDbLine
 10
88.02834027561393
 20
175.6254413085363
 30
0.0
 11
88.01529195525395
 21
175.6396283667762
 31
0.0
  0
LINE
  5
165B
330
18
100
AcDbEntity
  8
1
370
    18
100
AcDbLine
 10
88.04926850147394
 20
175.6051645774362
 30
0.0
 11
88.05139542635393
 21
175.6036038718962
 31
0.0
  0
LINE
  5
165C
330
18
100
AcDbEntity
  8
1
370
    18
100
AcDbLine
 10
88.05139542635393
 20
175.6036038718962
 30
0.0
 11
88.05422038133395
 21
175.6025363543462
 31
0.0
  0
LINE
  5
165D
330
18
100
AcDbEntity
  8
1
370
    13
100
AcDbLine
 10
87.86908240515392
 20
175.7988559223362
 30
0.0
 11
88.00947617948393
 21
175.6649170563562
 31
0.0
  0
LINE
  5
165E
330
18
100
AcDbEntity
  8
1
370
    13
100
AcDbLine
 10
88.06243697907392
 20
175.6020461584762
 30
0.0
 11
88.04926850147394
 21
175.6051645774362
 31
0.0
  0
LINE
  5
165F
330
18
100
AcDbEntity
  8
1
370
    18
100
AcDbLine
 10
88.00947617948393
 20
175.6649170563562
 30
0.0
 11
88.03589396129392
 21
175.6388107699861
 31
0.0
  0
LINE
  5
1660
330
18
100
AcDbEntity
  8
1
370
    18
100
AcDbLine
 10
88.03589396129392
 20
175.6388107699861
 30
0.0
 11
88.05487191546395
 21
175.6181080948563
 31
0.0
  0
LINE
  5
1661
330
18
100
AcDbEntity
  8
1
370
    18
100
AcDbLine
 10
88.05487191546395
 20
175.6181080948563
 30
0.0
 11
88.06409473166393
 21
175.6053339865462
 31
0.0
  0
LINE
  5
1662
330
18
100
AcDbEntity
  8
1
370
    18
100
AcDbLine
 10
88.06409473166393
 20
175.6053339865462
 30
0.0
 11
88.06243697907392
 21
175.6020461584762
 31
0.0
  0
LINE
  5
1663
330
18
100
AcDbEntity
  8
1
370
    18
100
AcDbLine
 10
88.02410658329391
 20
175.6375408118961
 30
0.0
 11
88.01529195525395
 21
175.6396283667762
 31
0.0
  0
LINE
  5
1664
330
18
100
AcDbEntity
  8
1
370
    18
100
AcDbLine
 10
88.02410658329391
 20
175.6375408118961
 30
0.0
 11
88.02423874838392
 21
175.6381132910661
 31
0.0
  0
LINE
  5
1665
330
18
100
AcDbEntity
  8
1
370
    18
100
AcDbLine
 10
88.02423874838392
 20
175.6381132910661
 30
0.0
 11
88.02287205820395
 21
175.6399791928462
 31
0.0
  0
LINE
  5
1666
330
18
100
AcDbEntity
  8
1
370
    18
100
AcDbLine
 10
88.02287205820395
 20
175.6399791928462
 30
0.0
 11
88.01863324778395
 21
175.6446649708762
 31
0.0
  0
LINE
  5
1667
330
18
100
AcDbEntity
  8
1
370
    18
100
AcDbLine
 10
88.01863324778395
 20
175.6446649708762
 30
0.0
 11
88.01052357896393
 21
175.6527941672162
 31
0.0
  0
LINE
  5
1668
330
18
100
AcDbEntity
  8
1
370
    18
100
AcDbLine
 10
88.01052357896393
 20
175.6527941672162
 30
0.0
 11
88.00404099350393
 21
175.6589258872361
 31
0.0
  0
LINE
  5
1669
330
18
100
AcDbEntity
  8
1
370
    18
100
AcDbLine
 10
87.86133108207392
 20
175.7910775520661
 30
0.0
 11
87.84373513301392
 21
175.8070457878462
 31
0.0
  0
LINE
  5
166A
330
18
100
AcDbEntity
  8
1
370
    18
100
AcDbLine
 10
87.84373513301392
 20
175.8070457878462
 30
0.0
 11
87.82607733368392
 21
175.8227244572762
 31
0.0
  0
LINE
  5
166B
330
18
100
AcDbEntity
  8
1
370
    18
100
AcDbLine
 10
87.82607733368392
 20
175.8227244572762
 30
0.0
 11
87.81744231158393
 21
175.8304818039661
 31
0.0
  0
LINE
  5
166C
330
18
100
AcDbEntity
  8
1
370
    18
100
AcDbLine
 10
87.81744231158393
 20
175.8304818039661
 30
0.0
 11
87.80858020332393
 21
175.8390230860962
 31
0.0
  0
LINE
  5
166D
330
18
100
AcDbEntity
  8
1
370
    13
100
AcDbLine
 10
88.15822056703392
 20
175.6612285204261
 30
0.0
 11
88.15835481873392
 21
175.6614375751262
 31
0.0
  0
LINE
  5
166E
330
18
100
AcDbEntity
  8
1
370
    13
100
AcDbLine
 10
88.15835481873392
 20
175.6614375751262
 30
0.0
 11
88.15848426729393
 21
175.6616496219461
 31
0.0
  0
LINE
  5
166F
330
18
100
AcDbEntity
  8
1
370
    13
100
AcDbLine
 10
88.06243697907392
 20
175.6020461584762
 30
0.0
 11
88.06483154121393
 21
175.6003394689761
 31
0.0
  0
LINE
  5
1670
330
18
100
AcDbEntity
  8
1
370
    13
100
AcDbLine
 10
88.06483154121393
 20
175.6003394689761
 30
0.0
 11
88.06757543336393
 21
175.5992989986161
 31
0.0
  0
LINE
  5
1671
330
18
100
AcDbEntity
  8
1
370
    18
100
AcDbLine
 10
88.06757543336393
 20
175.5992989986161
 30
0.0
 11
88.06825035327392
 21
175.5991589988961
 31
0.0
  0
LINE
  5
1672
330
18
100
AcDbEntity
  8
1
370
    18
100
AcDbLine
 10
88.06825035327392
 20
175.5991589988961
 30
0.0
 11
88.06893279285395
 21
175.5990604951563
 31
0.0
  0
LINE
  5
1673
330
18
100
AcDbEntity
  8
1
370
    13
100
AcDbLine
 10
88.02047662992393
 20
175.6715966492962
 30
0.0
 11
88.0140480994739
 21
175.6661479594062
 31
0.0
  0
LINE
  5
1674
330
18
100
AcDbEntity
  8
1
370
    13
100
AcDbLine
 10
88.0140480994739
 20
175.6661479594062
 30
0.0
 11
88.00947617948393
 21
175.6649170563562
 31
0.0
  0
LINE
  5
1675
330
18
100
AcDbEntity
  8
1
370
    13
100
AcDbLine
 10
88.1401914692339
 20
175.7594396625862
 30
0.0
 11
88.13839257519394
 21
175.7565675423462
 31
0.0
  0
LINE
  5
1676
330
18
100
AcDbEntity
  8
1
370
    13
100
AcDbLine
 10
88.13839257519394
 20
175.7565675423462
 30
0.0
 11
88.13234644555393
 21
175.7529955416162
 31
0.0
  0
DIMENSION
  5
1677
102
{ACAD_XDICTIONARY
360
1678
102
}
102
{ACAD_REACTORS
330
1679
102
}
330
18
100
AcDbEntity
  8
SK2
100
AcDbDimension
  2
*D3
 10
82.81104186959117
 20
175.7515333398162
 30
0.0
 11
82.70035337312419
 21
174.8629332313895
 31
0.0
 70
    32
  1
<>x0.746"
 71
     5
 42
0.7460613818900015
  3
AM_DIN
100
AcDbAlignedDimension
 13
83.33120959115392
 23
176.4975947217062
 33
0.0
 14
83.33120959115392
 24
175.7515333398162
 34
0.0
 50
270.0
100
AcDbRotatedDimension
1001
ACAD_DSTYLE_DIMINSPECT
1070
   396
1000
100%
1070
   395
1000

1070
   394
1070
    33
1070
   393
1070
     0
  0
DIMENSION
  5
167A
102
{ACAD_XDICTIONARY
360
167B
102
}
102
{ACAD_REACTORS
330
167C
102
}
330
18
100
AcDbEntity
  8
SK2
100
AcDbDimension
  2
*D4
 10
88.33120199272395
 20
174.2539426487872
 30
0.0
 11
85.83120579193893
 21
174.2539426487872
 31
0.0
 70
   160
 71
     5
 42
4.999992401570025
  3
AM_DIN
100
AcDbAlignedDimension
 13
83.33120959115392
 23
175.7515333398162
 33
0.0
 14
88.33120199272395
 24
175.4975951469062
 34
0.0
100
AcDbRotatedDimension
1001
ACAD
1000
DSTYLE
1002
{
1070
   279
1070
     0
1002
}
  0
DIMENSION
  5
167D
102
{ACAD_XDICTIONARY
360
167E
102
}
102
{ACAD_REACTORS
330
167F
102
}
330
18
100
AcDbEntity
  8
2
100
AcDbDimension
  2
*D5
 10
87.43120166674392
 20
175.0539426487872
 30
0.0
 11
87.88120182973393
 21
175.1646311452541
 31
0.0
 70
    32
 71
     5
 42
0.9000003259800166
  3
AM_DIN
100
AcDbAlignedDimension
 13
88.33120199272395
 23
175.4975951469062
 33
0.0
 14
87.43120166674392
 24
175.7515333398162
 34
0.0
100
AcDbRotatedDimension
1001
ACAD
1000
DSTYLE
1002
{
1070
   279
1070
     0
1002
}
  0
DIMENSION
  5
1680
102
{ACAD_XDICTIONARY
360
1681
102
}
102
{ACAD_REACTORS
330
1682
102
}
330
18
100
AcDbEntity
  8
2
100
AcDbDimension
  2
*D6
 10
88.7540455029905
 20
176.4975947217062
 30
0.0
 11
88.6453421106343
 21
175.9975949343063
 31
0.0
 70
    32
 71
     5
 42
0.9999995748000003
  3
AM_DIN
100
AcDbAlignedDimension
 13
88.33120199272395
 23
175.4975951469062
 33
0.0
 14
87.96052529313392
 24
176.4975947217062
 34
0.0
 50
270.0
100
AcDbRotatedDimension
  0
DIMENSION
  5
1685
330
18
100
AcDbEntity
  8
2
100
AcDbDimension
  2
*D7
 10
88.3524771732582
 20
175.4975951469062
 30
0.0
 11
88.54693697567197
 21
175.2818601639584
 31
0.0
 70
    34
 71
     5
 42
1.57079632679416
  3
AM_DIN
100
AcDb2LineAngularDimension
 13
88.33120199272395
 23
175.4975951469062
 33
0.0
 14
88.33120199272395
 24
175.4702678487957
 34
0.0
 15
88.33120199272395
 25
175.4975951469062
 35
0.0
 16
88.53909391033925
 26
175.137515783114
 36
0.0
  0
DIMENSION
  5
1688
102
{ACAD_XDICTIONARY
360
1689
102
}
102
{ACAD_REACTORS
330
168A
102
}
330
18
100
AcDbEntity
  8
2
100
AcDbDimension
  2
*D8
 10
87.03750166674394
 20
174.6539426487872
 30
0.0
 11
87.68435182973394
 21
174.6539426487872
 31
0.0
 70
   160
 71
     5
 42
1.293700325979997
  3
AM_DIN
100
AcDbAlignedDimension
 13
88.33120199272395
 23
175.4975951469062
 33
0.0
 14
87.03750166674394
 24
175.7515333398162
 34
0.0
100
AcDbRotatedDimension
1001
ACAD
1000
DSTYLE
1002
{
1070
   279
1070
     0
1002
}
  0
MTEXT
  5
1751
330
18
100
AcDbEntity
  8
SK6
100
AcDbMText
 10
83.33120959115392
 20
174.102617555278
 30
0.0
 40
0.2
 41
5.243108819134093
 71
     1
 72
     5
  1
{\fArial|b0|i0|c0|p34;\H0.83333x;CEL0755-10Q\P72559}
 73
     1
 44
1.0
1001
ACAD
1000
ACAD_MTEXT_COLUMN_INFO_BEGIN
1070
    75
1070
     2
1070
    79
1070
     0
1070
    76
1070
     1
1070
    78
1070
     0
1070
    48
1040
5.243108819134093
1070
    49
1040
1.0
1070
    50
1070
     1
1040
0.0
1000
ACAD_MTEXT_COLUMN_INFO_END
1000
MTEXTBEGIN
1070
    73
1070
     1
1070
    44
1040
1.0
1070
    74
1070
     0
1000
MTEXTEND
  0
VIEWPORT
  5
B7D
102
{ACAD_XDICTIONARY
360
B7E
102
}
330
B76
100
AcDbEntity
 67
     1
  8
0
100
AcDbViewport
 10
148.5107508928981
 20
104.9919851296364
 30
0.0
 40
478.4423408046921
 41
231.5368674036399
 68
     1
 69
     1
 12
148.5107508928981
 22
104.9919851296364
 13
0.0
 23
0.0
 14
10.0
 24
10.0
 15
10.0
 25
10.0
 16
0.0
 26
0.0
 36
1.0
 17
0.0
 27
0.0
 37
0.0
 42
50.0
 43
0.0
 44
0.0
 45
231.5368674036399
 50
0.0
 51
0.0
 72
  2000
 90
   819232
  1

281
     0
 71
     1
 74
     0
110
0.0
120
0.0
130
0.0
111
1.0
121
0.0
131
0.0
112
0.0
122
1.0
132
0.0
 79
     0
146
0.0
1001
GENIUS_GENSCREG_15
1000
PF
1040
1.0
1000
DF
1040
1.0
1000
MIN
1011
-90.71041950944794
1021
-10.77644857218354
1031
0.0
1000
MAX
1011
387.7319212952442
1021
220.7604188314564
1031
0.0
1000
FLAGS
1070
     4
1001
GENIUS_GENOBJ-N-SDF_13
1002
{
1000
OWNER
1000
GEN
1002
}
1001
GENIUS_GENODEF_13
1002
{
1000
HIER
1070
     0
1002
}
1002
{
1000
MANEDIT
1070
     0
1002
}
1002
{
1000
NOSEL
1070
     0
1002
}
1002
{
1000
BEHIND
1070
     0
1002
}
1002
{
1000
OTHER
1070
     0
1002
}
1002
{
1000
REACTOR
1002
}
  0
VIEWPORT
  5
B81
102
{ACAD_XDICTIONARY
360
B82
102
}
330
B76
100
AcDbEntity
 67
     1
  8
1
100
AcDbViewport
 10
148.5
 20
105.0
 30
0.0
 40
297.0
 41
210.0
 68
     2
 69
     2
 12
0.0947728278484874
 22
0.1902310545302228
 13
0.0
 23
0.0
 14
5.0
 24
5.0
 15
5.0
 25
5.0
 16
0.0
 26
0.0
 36
1.0
 17
0.0
 27
0.0
 37
0.0
 42
50.0
 43
0.0
 44
0.0
 45
210.0000006422834
 50
0.0
 51
0.0
 72
  2000
 90
   819232
  1

281
     0
 71
     1
 74
     0
110
0.0
120
0.0
130
0.0
111
1.0
121
0.0
131
0.0
112
0.0
122
1.0
132
0.0
 79
     0
146
0.0
1001
GENIUS_GENSCREG_15
1000
PF
1040
0.0
1000
DF
1040
0.0
1000
MIN
1011
0.0
1021
0.0
1031
0.0
1000
MAX
1011
297.0
1021
210.0
1031
0.0
1000
FLAGS
1070
     4
1001
GENIUS_GENOBJ-N-SDF_13
1002
{
1000
OWNER
1000
GEN
1002
}
1001
GENIUS_GENODEF_13
1002
{
1000
HIER
1070
     0
1002
}
1002
{
1000
MANEDIT
1070
     0
1002
}
1002
{
1000
NOSEL
1070
     0
1002
}
1002
{
1000
BEHIND
1070
     0
1002
}
1002
{
1000
OTHER
1070
     0
1002
}
1002
{
1000
REACTOR
1002
}
  0
ENDSEC
  0
SECTION
  2
OBJECTS
  0
DICTIONARY
  5
C
330
0
100
AcDbDictionary
281
     1
  3
ACAD_2007HEADERVARS_RT
350
1A50
  3
ACAD_CIP_PREVIOUS_PRODUCT_INFO
350
EB2
  3
ACAD_COLOR
350
387
  3
ACAD_DETAILVIEWSTYLE
350
EAA
  3
ACAD_FIELDLIST
350
ECE
  3
ACAD_GROUP
350
D
  3
ACAD_LAYOUT
350
301
  3
ACAD_MATERIAL
350
386
  3
ACAD_MLEADERSTYLE
350
46F
  3
ACAD_MLINESTYLE
350
E
  3
ACAD_PLOTSETTINGS
350
302
  3
ACAD_PLOTSTYLENAME
350
2FF
  3
ACAD_SCALELIST
350
44D
  3
ACAD_SECTIONVIEWSTYLE
350
EA8
  3
ACAD_TABLESTYLE
350
388
  3
ACAD_VISUALSTYLE
350
3F2
  3
ACDB_RECOMPOSE_DATA
350
1A4E
  3
AcDbVariableDictionary
350
357
  3
AcmDictionary
350
4D1
  3
AMG
350
478
  3
AMGSNAPSETTINGS
350
51E
  3
DWGPROPS
350
1A4F
  0
DICTIONARY
  5
ACA
330
8
100
AcDbDictionary
280
     1
281
     1
  0
DICTIONARY
  5
43C
330
2
100
AcDbDictionary
280
     1
281
     1
  3
ACAD_LAYERFILTERS
360
B75
  3
ACAD_LAYERSTATES
360
567
  3
ACLYDICTIONARY
360
B74
  3
AMLAYER_GROUPCOLORS
360
1102
  0
DICTIONARY
  5
52D
330
F
100
AcDbDictionary
280
     1
281
     1
  3
ADSK_XREC_LAYER_RECONCILED
360
18C8
  0
DICTIONARY
  5
52F
330
23
100
AcDbDictionary
280
     1
281
     1
  3
ADSK_XREC_LAYER_RECONCILED
360
18C9
  0
DICTIONARY
  5
531
330
24
100
AcDbDictionary
280
     1
281
     1
  3
ADSK_XREC_LAYER_RECONCILED
360
18CA
  0
DICTIONARY
  5
533
330
25
100
AcDbDictionary
280
     1
281
     1
  3
ADSK_XREC_LAYER_RECONCILED
360
18CB
  0
DICTIONARY
  5
537
330
27
100
AcDbDictionary
280
     1
281
     1
  3
ADSK_XREC_LAYER_RECONCILED
360
18CC
  0
DICTIONARY
  5
545
330
2E
100
AcDbDictionary
280
     1
281
     1
  3
ADSK_XREC_LAYER_RECONCILED
360
18CD
  0
DICTIONARY
  5
1678
330
1677
100
AcDbDictionary
280
     1
281
     1
  3
ACAD_DIMASSOC
360
1679
  0
DICTIONARY
  5
167B
330
167A
100
AcDbDictionary
280
     1
281
     1
  3
ACAD_DIMASSOC
360
167C
  0
DICTIONARY
  5
167E
330
167D
100
AcDbDictionary
280
     1
281
     1
  3
ACAD_DIMASSOC
360
167F
  0
DICTIONARY
  5
1681
330
1680
100
AcDbDictionary
280
     1
281
     1
  3
ACAD_DIMASSOC
360
1682
  0
DICTIONARY
  5
1689
330
1688
100
AcDbDictionary
280
     1
281
     1
  3
ACAD_DIMASSOC
360
168A
  0
DICTIONARY
  5
B7E
330
B7D
100
AcDbDictionary
280
     1
281
     1
  3
ACAD_XREC_ROUNDTRIP
360
1A81
  3
ASDK_XREC_ANNOTATION_SCALE_INFO
360
B7F
  0
DICTIONARY
  5
B82
330
B81
100
AcDbDictionary
280
     1
281
     1
  3
ACAD_XREC_ROUNDTRIP
360
1A82
  3
ASDK_XREC_ANNOTATION_SCALE_INFO
360
B83
  0
DICTIONARY
  5
1A50
102
{ACAD_REACTORS
330
C
102
}
330
C
100
AcDbDictionary
281
     1
  3
DIMARCSYM
350
1A51
  3
DIMJOGANG
350
1A52
  3
DIMLTEX1
350
1A54
  3
DIMLTEX2
350
1A55
  3
DIMLTYPE
350
1A53
  0
XRECORD
  5
EB2
102
{ACAD_REACTORS
330
C
102
}
330
C
100
AcDbXrecord
280
     1
300
AMECH_PP
300
2014
300
86138AMECH_PP_2014_0F
  0
DICTIONARY
  5
387
102
{ACAD_REACTORS
330
C
102
}
330
C
100
AcDbDictionary
281
     1
  0
DICTIONARY
  5
EAA
102
{ACAD_REACTORS
330
C
102
}
330
C
100
AcDbDictionary
281
     1
  3
Imperial24
350
EAB
  3
Metric50
350
1175
  0
FIELDLIST
  5
ECE
102
{ACAD_REACTORS
330
C
102
}
330
C
100
AcDbIdSet
 90
        4
330
1980
330
1981
330
1982
330
1983
100
AcDbFieldList
  0
DICTIONARY
  5
D
102
{ACAD_REACTORS
330
C
102
}
330
C
100
AcDbDictionary
281
     1
  0
DICTIONARY
  5
301
102
{ACAD_REACTORS
330
C
102
}
330
C
100
AcDbDictionary
281
     1
  3
Layout1
350
B77
  3
Model
350
303
  0
DICTIONARY
  5
386
102
{ACAD_REACTORS
330
C
102
}
330
C
100
AcDbDictionary
281
     1
  3
ByBlock
350
3F0
  3
ByLayer
350
3EF
  3
Global
350
3F1
  0
DICTIONARY
  5
46F
102
{ACAD_REACTORS
330
C
102
}
330
C
100
AcDbDictionary
281
     1
  3
Standard
350
470
  0
DICTIONARY
  5
E
102
{ACAD_REACTORS
330
C
102
}
330
C
100
AcDbDictionary
281
     1
  3
STANDARD
350
1B
  0
DICTIONARY
  5
302
102
{ACAD_REACTORS
330
C
102
}
330
C
100
AcDbDictionary
281
     1
  3
DWG To PDF ANSI A - landscape
350
7EF
  3
DWG To PDF ANSI A - portrait
350
7F8
  0
ACDBDICTIONARYWDFLT
  5
2FF
102
{ACAD_REACTORS
330
C
102
}
330
C
100
AcDbDictionary
281
     1
  3
Normal
350
300
100
AcDbDictionaryWithDefault
340
300
  0
DICTIONARY
  5
44D
102
{ACAD_REACTORS
330
C
102
}
330
C
100
AcDbDictionary
281
     1
  3
A0
350
CF4
  3
A1
350
CF5
  3
A2
350
CF6
  3
A3
350
CF7
  3
A4
350
CF8
  3
A5
350
CF9
  3
A6
350
44E
  3
A7
350
CFA
  3
A8
350
CFB
  3
A9
350
CFC
  3
B0
350
CFD
  3
B1
350
CFE
  3
B2
350
CFF
  3
B3
350
D00
  3
B4
350
D01
  3
B5
350
D02
  3
B6
350
D03
  3
B7
350
D04
  3
B8
350
D05
  3
B9
350
D06
  3
C0
350
D07
  3
C1
350
D08
  3
C2
350
D09
  3
C3
350
D0A
  3
C4
350
D0B
  3
C5
350
D0C
  3
C6
350
D0D
  3
C7
350
D0E
  3
C8
350
D0F
  0
DICTIONARY
  5
EA8
102
{ACAD_REACTORS
330
C
102
}
330
C
100
AcDbDictionary
281
     1
  3
Imperial24
350
EA9
  3
Metric50
350
1173
  0
DICTIONARY
  5
388
102
{ACAD_REACTORS
330
C
102
}
330
C
100
AcDbDictionary
281
     1
  3
Standard
350
389
  0
DICTIONARY
  5
3F2
102
{ACAD_REACTORS
330
C
102
}
330
C
100
AcDbDictionary
281
     1
  3
2dWireframe
350
3F8
  3
3D Hidden
350
3FA
  3
3dWireframe
350
3F9
  3
Basic
350
3F7
  3
Brighten
350
3FE
  3
ColorChange
350
402
  3
Conceptual
350
3FB
  3
Dim
350
3FD
  3
EdgeColorOff
350
C40
  3
Facepattern
350
401
  3
Flat
350
3F3
  3
FlatWithEdges
350
3F4
  3
Gouraud
350
3F5
  3
GouraudWithEdges
350
3F6
  3
Hidden
350
EA2
  3
JitterOff
350
C3E
  3
Linepattern
350
400
  3
OverhangOff
350
C3F
  3
Realistic
350
3FC
  3
Shaded
350
EA7
  3
Shaded with edges
350
EA6
  3
Shades of Gray
350
EA3
  3
Sketchy
350
EA4
  3
Thicken
350
3FF
  3
Wireframe
350
EA1
  3
X-Ray
350
EA5
  0
XRECORD
  5
1A4E
102
{ACAD_REACTORS
330
C
102
}
330
C
100
AcDbXrecord
280
     1
 90
        1
330
389
330
1751
  0
DICTIONARY
  5
357
102
{ACAD_REACTORS
330
C
102
}
330
C
100
AcDbDictionary
281
     1
  3
CANNOSCALE
350
57C
  3
CMLEADERSTYLE
350
57A
  3
CTABLESTYLE
350
38E
  3
CVIEWDETAILSTYLE
350
110C
  3
CVIEWSECTIONSTYLE
350
110D
  3
DIMASSOC
350
359
  3
HIDETEXT
350
358
  3
INDEXCTL
350
B51
  3
LAYEREVAL
350
C52
  3
LAYERNOTIFY
350
C53
  3
LIGHTINGUNITS
350
57D
  3
MSLTSCALE
350
57B
  3
SOLIDHIST
350
18CF
  3
SORTENTS
350
B50
  3
XCLIPFRAME
350
1A4C
  0
DICTIONARY
  5
4D1
102
{ACAD_REACTORS
330
C
102
}
330
C
100
AcDbDictionary
281
     1
  3
AcmStdDictionary
350
4DC
  3
AMDTSECTSYM_ARROWCOLOR
350
4F3
  0
DICTIONARY
  5
478
102
{ACAD_REACTORS
330
C
102
}
330
C
100
AcDbDictionary
281
     1
  0
DICTIONARY
  5
51E
102
{ACAD_REACTORS
330
C
102
}
330
C
100
AcDbDictionary
281
     1
  0
XRECORD
  5
1A4F
102
{ACAD_REACTORS
330
C
102
}
330
C
100
AcDbXrecord
280
     1
  1
DWGPROPS COOKIE
  2

  3

  4
Philippe Vogel
  6
Secotools DIN Template inch
  7

  8
inpunvikt
  9

300
=
301
=
302
=
303
=
304
=
305
=
306
=
307
=
308
=
309
=
 40
0.0186207060185185
 41
2457637.384167211
 42
2457658.365422998
  1
HTTP://WWW.SECOTOOLS.COM/
 90
        0
  0
DICTIONARY
  5
B75
102
{ACAD_REACTORS
330
43C
102
}
330
43C
100
AcDbDictionary
281
     1
  0
DICTIONARY
  5
567
102
{ACAD_REACTORS
330
43C
102
}
330
43C
100
AcDbDictionary
281
     1
  3
BMG3.0
350
9A5
  0
DICTIONARY
  5
B74
102
{ACAD_REACTORS
330
43C
102
}
330
43C
100
AcDbDictionary
281
     1
1001
ACAD
1000
<All
  0
DICTIONARY
  5
1102
102
{ACAD_REACTORS
330
43C
102
}
330
43C
100
AcDbDictionary
280
     1
281
     1
  0
XRECORD
  5
18C8
102
{ACAD_REACTORS
330
52D
102
}
330
52D
100
AcDbXrecord
280
     1
290
     1
  0
XRECORD
  5
18C9
102
{ACAD_REACTORS
330
52F
102
}
330
52F
100
AcDbXrecord
280
     1
290
     1
  0
XRECORD
  5
18CA
102
{ACAD_REACTORS
330
531
102
}
330
531
100
AcDbXrecord
280
     1
290
     1
  0
XRECORD
  5
18CB
102
{ACAD_REACTORS
330
533
102
}
330
533
100
AcDbXrecord
280
     1
290
     1
  0
XRECORD
  5
18CC
102
{ACAD_REACTORS
330
537
102
}
330
537
100
AcDbXrecord
280
     1
290
     1
  0
XRECORD
  5
18CD
102
{ACAD_REACTORS
330
545
102
}
330
545
100
AcDbXrecord
280
     1
290
     1
  0
DIMASSOC
  5
1679
102
{ACAD_REACTORS
330
1678
102
}
330
1678
100
AcDbDimAssoc
330
1677
 90
        3
 70
     0
 71
     0
  1
AcDbOsnapPointRef
 72
     1
331
1606
 73
     2
 91
        0
 40
1.0
 10
0.0
 20
0.0
 30
2.000000000000000E+50
 75
     0
  1
AcDbOsnapPointRef
 72
    13
331
1606
 73
     2
 91
        0
 40
0.0
 10
0.0
 20
0.0
 30
2.000000000000000E+50
 75
     0
  0
DIMASSOC
  5
167C
102
{ACAD_REACTORS
330
167B
102
}
330
167B
100
AcDbDimAssoc
330
167A
 90
        3
 70
     0
 71
     0
  1
AcDbOsnapPointRef
 72
    13
331
1606
 73
     2
 91
        0
 40
0.0
 10
0.0
 20
0.0
 30
2.000000000000000E+50
 75
     0
  1
AcDbOsnapPointRef
 72
     1
331
1571
 73
     2
 91
        0
 40
1.0
 10
0.0
 20
0.0
 30
2.000000000000000E+50
 75
     0
  0
DIMASSOC
  5
167F
102
{ACAD_REACTORS
330
167E
102
}
330
167E
100
AcDbDimAssoc
330
167D
 90
        3
 70
     0
 71
     0
  1
AcDbOsnapPointRef
 72
     1
331
1571
 73
     2
 91
        0
 40
1.0
 10
0.0
 20
0.0
 30
2.000000000000000E+50
 75
     0
  1
AcDbOsnapPointRef
 72
    13
331
15E1
 73
     2
 91
        0
 40
0.0
 10
0.0
 20
0.0
 30
2.000000000000000E+50
 75
     0
  0
DIMASSOC
  5
1682
102
{ACAD_REACTORS
330
1681
102
}
330
1681
100
AcDbDimAssoc
330
1680
 90
        3
 70
     0
 71
     0
  1
AcDbOsnapPointRef
 72
     1
331
1571
 73
     2
 91
        0
 40
1.0
 10
0.0
 20
0.0
 30
2.000000000000000E+50
 75
     0
  1
AcDbOsnapPointRef
 72
    13
331
15D3
 73
     2
 91
        0
 40
0.0
 10
0.0
 20
0.0
 30
2.000000000000000E+50
 75
     0
  0
DIMASSOC
  5
168A
102
{ACAD_REACTORS
330
1689
102
}
330
1689
100
AcDbDimAssoc
330
1688
 90
        2
 70
     0
 71
     0
  1
AcDbOsnapPointRef
 72
    13
331
15E0
 73
     2
 91
        0
 40
0.0
 10
0.0
 20
0.0
 30
2.000000000000000E+50
 75
     0
  0
XRECORD
  5
1A81
102
{ACAD_REACTORS
330
B7E
102
}
330
B7E
100
AcDbXrecord
280
     1
102
SHADEPLOT
 70
     0
  0
XRECORD
  5
B7F
102
{ACAD_REACTORS
330
B7E
102
}
330
B7E
100
AcDbXrecord
280
     1
 90
        1
340
44E
  0
XRECORD
  5
1A82
102
{ACAD_REACTORS
330
B82
102
}
330
B82
100
AcDbXrecord
280
     1
102
SHADEPLOT
 70
     0
  0
XRECORD
  5
B83
102
{ACAD_REACTORS
330
B82
102
}
330
B82
100
AcDbXrecord
280
     1
 90
        1
340
44E
  0
XRECORD
  5
1A51
102
{ACAD_REACTORS
330
1A50
102
}
330
1A50
100
AcDbXrecord
280
     1
 70
     1
  0
XRECORD
  5
1A52
102
{ACAD_REACTORS
330
1A50
102
}
330
1A50
100
AcDbXrecord
280
     1
 40
1.570796326794896
  0
XRECORD
  5
1A54
102
{ACAD_REACTORS
330
1A50
102
}
330
1A50
100
AcDbXrecord
280
     1
340
12
  0
XRECORD
  5
1A55
102
{ACAD_REACTORS
330
1A50
102
}
330
1A50
100
AcDbXrecord
280
     1
340
12
  0
XRECORD
  5
1A53
102
{ACAD_REACTORS
330
1A50
102
}
330
1A50
100
AcDbXrecord
280
     1
340
12
  0
ACDBDETAILVIEWSTYLE
  5
EAB
102
{ACAD_XDICTIONARY
360
1A99
102
}
102
{ACAD_REACTORS
330
EAA
330
1974
102
}
330
EAA
100
AcDbModelDocViewStyle
 70
     0
  3
Imperial24
290
     0
100
AcDbDetailViewStyle
 70
     0
 71
     0
 90
        3
 71
     1
340
10
 40
0.24
340
0
 40
0.24
300

 40
0.36
280
     3
 71
     2
340
14
 90
       25
 71
     3
340
10
 40
0.24
 90
        1
 40
0.75
 90
        1
300
%<\AcVar ViewType \f "%tc1">% %<\AcVar ViewDetailId>%\PSCALE %<\AcVar ViewScale \f "%sn">%
 71
     4
340
14
 90
       25
340
14
 90
       25
280
     0
  0
ACDBDETAILVIEWSTYLE
  5
1175
102
{ACAD_XDICTIONARY
360
1A9D
102
}
102
{ACAD_REACTORS
330
EAA
330
1975
102
}
330
EAA
100
AcDbModelDocViewStyle
 70
     0
  3
Metric50
290
     0
100
AcDbDetailViewStyle
 70
     0
 71
     0
 90
        3
 71
     1
340
10
 40
5.0
340
0
 40
5.0
300

 40
0.0
280
     1
 71
     2
340
14
 90
       25
 71
     3
340
10
 40
5.0
 90
        0
 40
15.0
 90
        1
300
%<\AcVar ViewDetailId>% (%<\AcVar ViewScale \f "%sn">%)
 71
     4
340
14
 90
       25
340
14
 90
       25
280
     0
  0
LAYOUT
  5
B77
102
{ACAD_XDICTIONARY
360
1A7F
102
}
102
{ACAD_REACTORS
330
301
102
}
330
301
100
AcDbPlotSettings
  1

  2
Default Windows System Printer.pc3
  4
A4
  6
AM_VIEW1
 40
4.233333110809326
 41
4.614340305328369
 42
4.233322143554686
 43
4.571990966796875
 44
209.8886566162109
 45
297.0530090332031
 46
0.0
 47
1.499209346090081
 48
0.0
 49
0.0
140
0.0
141
0.0
142
1.0
143
26.4837350367717
 70
   692
 72
     0
 73
     1
 74
     1
  7
monochrome.ctb
 75
     0
147
0.0377590244960364
148
0.5754584342744921
149
0.4068898020113921
100
AcDbLayout
  1
Layout1
 70
     1
 71
     1
 10
-6.352894443934568
 20
-4.429974890987324
 11
303.3743962297308
 21
214.4139451502602
 12
0.0
 22
0.0
 32
0.0
 14
0.0
 24
0.0
 34
0.0
 15
297.0
 25
210.0
 35
0.0
146
0.0
 13
0.0
 23
0.0
 33
0.0
 16
1.0
 26
0.0
 36
0.0
 17
0.0
 27
1.0
 37
0.0
 76
     0
330
B76
331
B7D
1001
ACAD_PSEXT
1000
Default Windows System Printer.pc3
1000
HP Universal Printing PS
1000
Freiheitstraße, Ex Steinhof, Höfermann
1000
HP 5100 Universal PS
1070
     0
  0
LAYOUT
  5
303
102
{ACAD_XDICTIONARY
360
1A56
102
}
102
{ACAD_REACTORS
330
301
102
}
330
301
100
AcDbPlotSettings
  1

  2
Default Windows System Printer.pc3
  4
A4
  6

 40
4.233333110809326
 41
4.614340305328369
 42
4.233322143554686
 43
4.571990966796875
 44
209.8886566162109
 45
297.0530090332031
 46
10.88322750438971
 47
-0.0000000000000226
 48
0.0
 49
0.0
140
0.0
141
0.0
142
1.0
143
60.7941153040473
 70
  3764
 72
     0
 73
     1
 74
     2
  7
monochrome.ctb
 75
     0
147
0.0164489604791309
148
4318.0
149
4318.0
100
AcDbLayout
  1
Model
 70
     1
 71
     0
 10
0.0
 20
0.0
 11
12.0
 21
9.0
 12
0.0
 22
0.0
 32
0.0
 14
0.0
 24
0.0
 34
0.0
 15
0.0
 25
0.0
 35
0.0
146
0.0
 13
0.0
 23
0.0
 33
0.0
 16
1.0
 26
0.0
 36
0.0
 17
0.0
 27
1.0
 37
0.0
 76
     0
330
18
331
B56
1001
ACAD_PSEXT
1000
Default Windows System Printer.pc3
1000
HP Universal Printing PS
1000
Freiheitstraße, Ex Steinhof, Höfermann
1000
HP 5100 Universal PS
1070
     0
  0
MATERIAL
  5
3F0
102
{ACAD_XDICTIONARY
360
18E2
102
}
102
{ACAD_REACTORS
330
386
102
}
330
386
100
AcDbMaterial
  1
ByBlock
 73
     1
 78
     1
172
     1
176
     1
270
     1
274
     1
  0
MATERIAL
  5
3EF
102
{ACAD_XDICTIONARY
360
18E0
102
}
102
{ACAD_REACTORS
330
386
102
}
330
386
100
AcDbMaterial
  1
ByLayer
 73
     1
 78
     1
172
     1
176
     1
270
     1
274
     1
  0
MATERIAL
  5
3F1
102
{ACAD_XDICTIONARY
360
18E4
102
}
102
{ACAD_REACTORS
330
386
102
}
330
386
100
AcDbMaterial
  1
Global
 73
     1
 78
     1
172
     1
176
     1
270
     1
274
     1
  0
MLEADERSTYLE
  5
470
102
{ACAD_XDICTIONARY
360
1A79
102
}
102
{ACAD_REACTORS
330
46F
102
}
330
46F
100
AcDbMLeaderStyle
170
     2
171
     1
172
     0
 90
        2
 40
0.0
 41
0.0
173
     1
 91
-1056964608
340
12
 92
       -2
290
     1
 42
2.0
291
     1
 43
0.36
  3
Standard
 44
5.0
300

342
10
174
     0
178
     6
175
     1
176
     0
 93
-1056964608
 45
0.1378
292
     0
297
     0
 46
4.0
 94
-1056964608
 47
1.0
 49
1.0
140
1.0
293
     1
141
0.0
294
     1
177
     0
142
1.0
295
     0
296
     0
143
0.125
1001
ACAD_MLEADERVER
1070
     2
  0
MLINESTYLE
  5
1B
102
{ACAD_REACTORS
330
E
102
}
330
E
100
AcDbMlineStyle
  2
STANDARD
 70
     0
  3

 62
     0
 51
90.0
 52
90.0
 71
     2
 49
0.5
 62
   256
  6
BYLAYER
 49
-0.5
 62
   256
  6
BYLAYER
  0
PLOTSETTINGS
  5
7EF
102
{ACAD_XDICTIONARY
360
1A7B
102
}
102
{ACAD_REACTORS
330
302
102
}
330
302
100
AcDbPlotSettings
  1
DWG To PDF ANSI A - landscape
  2
DWG To PDF.pc3
  4
ANSI_expand_A_(11.00_x_8.50_Inches)
  6

 40
5.793749809265136
 41
10.79374980926513
 42
5.79376220703125
 43
10.79374694824219
 44
279.3999938964844
 45
215.8999938964844
 46
0.0
 47
13.58631590731085
 48
0.0
 49
0.0
140
0.0
141
0.0
142
1.0
143
65.34646883198404
 70
 11956
 72
     0
 73
     0
 74
     2
  7
monochrome.ctb
 75
     0
147
0.0153030457173005
148
4318.0
149
4318.0
1001
ACAD_PSEXT
1000
DWG To PDF.pc3
1000
DWG To PDF
1000
Datei
1000

1070
     0
  0
PLOTSETTINGS
  5
7F8
102
{ACAD_XDICTIONARY
360
1A7D
102
}
102
{ACAD_REACTORS
330
302
102
}
330
302
100
AcDbPlotSettings
  1
DWG To PDF ANSI A - portrait
  2
DWG To PDF.pc3
  4
ANSI_A_(8.50_x_11.00_Inches)
  6

 40
5.793749809265136
 41
17.79375076293945
 42
5.793746948242187
 43
17.79376220703125
 44
215.8999938964844
 45
279.3999938964844
 46
0.0
 47
58.15125224136993
 48
0.0
 49
0.0
140
0.0
141
0.0
142
1.0
143
85.65604280239289
 70
 11956
 72
     0
 73
     0
 74
     2
  7
monochrome.ctb
 75
     0
147
0.0116745995645279
148
4318.0
149
4318.0
1001
ACAD_PSEXT
1000
DWG To PDF.pc3
1000
DWG To PDF
1000
Datei
1000

1070
     0
  0
ACDBPLACEHOLDER
  5
300
102
{ACAD_REACTORS
330
2FF
102
}
330
2FF
  0
SCALE
  5
CF4
102
{ACAD_REACTORS
330
44D
102
}
330
44D
100
AcDbScale
 70
     0
300
100:1
140
100.0
141
1.0
290
     0
  0
SCALE
  5
CF5
102
{ACAD_REACTORS
330
44D
102
}
330
44D
100
AcDbScale
 70
     0
300
50:1
140
50.0
141
1.0
290
     0
  0
SCALE
  5
CF6
102
{ACAD_REACTORS
330
44D
102
}
330
44D
100
AcDbScale
 70
     0
300
20:1
140
20.0
141
1.0
290
     0
  0
SCALE
  5
CF7
102
{ACAD_REACTORS
330
44D
102
}
330
44D
100
AcDbScale
 70
     0
300
10:1
140
10.0
141
1.0
290
     0
  0
SCALE
  5
CF8
102
{ACAD_REACTORS
330
44D
102
}
330
44D
100
AcDbScale
 70
     0
300
5:1
140
5.0
141
1.0
290
     0
  0
SCALE
  5
CF9
102
{ACAD_REACTORS
330
44D
102
}
330
44D
100
AcDbScale
 70
     0
300
2:1
140
2.0
141
1.0
290
     0
  0
SCALE
  5
44E
102
{ACAD_REACTORS
330
44D
102
}
330
44D
100
AcDbScale
 70
     0
300
1:1
140
1.0
141
1.0
290
     1
  0
SCALE
  5
CFA
102
{ACAD_REACTORS
330
44D
102
}
330
44D
100
AcDbScale
 70
     0
300
1:2
140
1.0
141
2.0
290
     0
  0
SCALE
  5
CFB
102
{ACAD_REACTORS
330
44D
102
}
330
44D
100
AcDbScale
 70
     0
300
1:5
140
1.0
141
5.0
290
     0
  0
SCALE
  5
CFC
102
{ACAD_REACTORS
330
44D
102
}
330
44D
100
AcDbScale
 70
     0
300
1:10
140
1.0
141
10.0
290
     0
  0
SCALE
  5
CFD
102
{ACAD_REACTORS
330
44D
102
}
330
44D
100
AcDbScale
 70
     0
300
1:20
140
1.0
141
20.0
290
     0
  0
SCALE
  5
CFE
102
{ACAD_REACTORS
330
44D
102
}
330
44D
100
AcDbScale
 70
     0
300
1:50
140
1.0
141
50.0
290
     0
  0
SCALE
  5
CFF
102
{ACAD_REACTORS
330
44D
102
}
330
44D
100
AcDbScale
 70
     0
300
1:100
140
1.0
141
100.0
290
     0
  0
SCALE
  5
D00
102
{ACAD_REACTORS
330
44D
102
}
330
44D
100
AcDbScale
 70
     0
300
1/128" = 1'-0"
140
0.0078125
141
12.0
290
     0
  0
SCALE
  5
D01
102
{ACAD_REACTORS
330
44D
102
}
330
44D
100
AcDbScale
 70
     0
300
1/64" = 1'-0"
140
0.015625
141
12.0
290
     0
  0
SCALE
  5
D02
102
{ACAD_REACTORS
330
44D
102
}
330
44D
100
AcDbScale
 70
     0
300
1/32" = 1'-0"
140
0.03125
141
12.0
290
     0
  0
SCALE
  5
D03
102
{ACAD_REACTORS
330
44D
102
}
330
44D
100
AcDbScale
 70
     0
300
1/16" = 1'-0"
140
0.0625
141
12.0
290
     0
  0
SCALE
  5
D04
102
{ACAD_REACTORS
330
44D
102
}
330
44D
100
AcDbScale
 70
     0
300
3/32" = 1'-0"
140
0.09375
141
12.0
290
     0
  0
SCALE
  5
D05
102
{ACAD_REACTORS
330
44D
102
}
330
44D
100
AcDbScale
 70
     0
300
1/8" = 1'-0"
140
0.125
141
12.0
290
     0
  0
SCALE
  5
D06
102
{ACAD_REACTORS
330
44D
102
}
330
44D
100
AcDbScale
 70
     0
300
3/16" = 1'-0"
140
0.1875
141
12.0
290
     0
  0
SCALE
  5
D07
102
{ACAD_REACTORS
330
44D
102
}
330
44D
100
AcDbScale
 70
     0
300
1/4" = 1'-0"
140
0.25
141
12.0
290
     0
  0
SCALE
  5
D08
102
{ACAD_REACTORS
330
44D
102
}
330
44D
100
AcDbScale
 70
     0
300
3/8" = 1'-0"
140
0.375
141
12.0
290
     0
  0
SCALE
  5
D09
102
{ACAD_REACTORS
330
44D
102
}
330
44D
100
AcDbScale
 70
     0
300
1/2" = 1'-0"
140
0.5
141
12.0
290
     0
  0
SCALE
  5
D0A
102
{ACAD_REACTORS
330
44D
102
}
330
44D
100
AcDbScale
 70
     0
300
3/4" = 1'-0"
140
0.75
141
12.0
290
     0
  0
SCALE
  5
D0B
102
{ACAD_REACTORS
330
44D
102
}
330
44D
100
AcDbScale
 70
     0
300
1" = 1'-0"
140
1.0
141
12.0
290
     0
  0
SCALE
  5
D0C
102
{ACAD_REACTORS
330
44D
102
}
330
44D
100
AcDbScale
 70
     0
300
1-1/2" = 1'-0"
140
1.5
141
12.0
290
     0
  0
SCALE
  5
D0D
102
{ACAD_REACTORS
330
44D
102
}
330
44D
100
AcDbScale
 70
     0
300
3" = 1'-0"
140
3.0
141
12.0
290
     0
  0
SCALE
  5
D0E
102
{ACAD_REACTORS
330
44D
102
}
330
44D
100
AcDbScale
 70
     0
300
6" = 1'-0"
140
6.0
141
12.0
290
     0
  0
SCALE
  5
D0F
102
{ACAD_REACTORS
330
44D
102
}
330
44D
100
AcDbScale
 70
     0
300
1'-0" = 1'-0"
140
12.0
141
12.0
290
     0
  0
ACDBSECTIONVIEWSTYLE
  5
EA9
102
{ACAD_XDICTIONARY
360
1A97
102
}
102
{ACAD_REACTORS
330
EA8
330
1972
102
}
330
EA8
100
AcDbModelDocViewStyle
 70
     0
  3
Imperial24
290
     0
100
AcDbSectionViewStyle
 70
     0
 71
     0
 90
       78
 71
     1
340
10
 40
0.24
340
0
340
0
 40
0.24
300
I, O, Q, S, X, Z
 40
0.48
 90
        3
 40
0.18
 90
        1
 71
     2
340
14
 90
       25
340
14
 90
       50
 40
0.24
 40
0.0
 40
0.24
 71
     3
340
10
 40
0.24
 90
        1
 40
0.75
 90
        1
300
%<\AcVar ViewType \f "%tc1">% %<\AcVar ViewSectionStartId>%-%<\AcVar ViewSectionEndId>%\PSCALE %<\AcVar ViewScale \f "%sn">%
 71
     4
300
ANSI31
 40
1.0
 90
        0
290
     0
290
     0
 90
        6
 40
0.0
 40
1.570796326794896
 40
0.2617993877991494
 40
1.308996938995747
 40
-0.2617993877991494
 40
1.832595714594045
  0
ACDBSECTIONVIEWSTYLE
  5
1173
102
{ACAD_XDICTIONARY
360
1A9B
102
}
102
{ACAD_REACTORS
330
EA8
330
1973
102
}
330
EA8
100
AcDbModelDocViewStyle
 70
     0
  3
Metric50
290
     0
100
AcDbSectionViewStyle
 70
     0
 71
     0
 90
      102
 71
     1
340
10
 40
5.0
340
0
340
0
 40
5.0
300
I, O, Q, S, X, Z
 40
10.0
 90
        0
 40
2.5
 90
        0
 71
     2
340
14
 90
       25
340
14
 90
       50
 40
5.0
 40
2.5
 40
5.0
 71
     3
340
10
 40
5.0
 90
        0
 40
15.0
 90
        1
300
%<\AcVar ViewSectionStartId>%-%<\AcVar ViewSectionEndId>% (%<\AcVar ViewScale \f "%sn">%)
 71
     4
300
ANSI31
 40
1.0
 90
        0
290
     0
290
     0
 90
        6
 40
0.0
 40
1.570796326794896
 40
0.2617993877991494
 40
1.308996938995747
 40
-0.2617993877991494
 40
1.832595714594045
  0
TABLESTYLE
  5
389
102
{ACAD_XDICTIONARY
360
577
102
}
102
{ACAD_REACTORS
330
388
102
}
330
388
100
AcDbTableStyle
  3
Standard
 70
     0
 71
     0
 40
1.5
 41
1.5
280
     0
281
     0
  7
STANDARD
140
4.5
170
     2
 62
     0
 63
     7
283
     0
274
    -2
284
     1
 64
     0
275
    -2
285
     1
 65
     0
276
    -2
286
     1
 66
     0
277
    -2
287
     1
 67
     0
278
    -2
288
     1
 68
     0
279
    -2
289
     1
 69
     0
  7
STANDARD 5 mm
140
6.0
170
     5
 62
     0
 63
     7
283
     0
274
    -2
284
     1
 64
     0
275
    -2
285
     1
 65
     0
276
    -2
286
     1
 66
     0
277
    -2
287
     1
 67
     0
278
    -2
288
     1
 68
     0
279
    -2
289
     1
 69
     0
  7
STANDARD
140
4.5
170
     5
 62
     0
 63
     7
283
     0
274
    -2
284
     1
 64
     0
275
    -2
285
     1
 65
     0
276
    -2
286
     1
 66
     0
277
    -2
287
     1
 67
     0
278
    -2
288
     1
 68
     0
279
    -2
289
     1
 69
     0
  0
VISUALSTYLE
  5
3F8
102
{ACAD_XDICTIONARY
360
1A63
102
}
102
{ACAD_REACTORS
330
3F2
102
}
330
3F2
100
AcDbVisualStyle
  2

 70
     4
 71
     0
 72
     2
 73
     0
 90
        0
 40
-0.6
 41
-30.0
 62
     5
 63
     7
 74
     1
 91
        4
 64
     7
 65
   257
 75
     1
175
     1
 42
1.0
 92
        0
 66
   257
 43
1.0
 76
     1
 77
     6
 78
     2
 67
     7
 79
     5
170
     0
171
     0
290
     0
174
     0
 93
        1
 44
0.0
173
     0
291
     0
 45
0.0
1001
ACAD
1000
AcDbSavedByObjectVersion
1070
     0
  0
VISUALSTYLE
  5
3FA
102
{ACAD_XDICTIONARY
360
1A67
102
}
102
{ACAD_REACTORS
330
3F2
102
}
330
3F2
100
AcDbVisualStyle
  2

 70
     6
 71
     1
 72
     2
 73
     2
 90
        0
 40
-0.6
 41
-30.0
 62
     5
 63
     7
 74
     2
 91
        2
 64
     7
 65
   257
 75
     2
175
     1
 42
40.0
 92
        0
 66
   257
 43
1.0
 76
     1
 77
     6
 78
     2
 67
     7
 79
     3
170
     0
171
     0
290
     0
174
     0
 93
        1
 44
0.0
173
     0
291
     0
 45
0.0
1001
ACAD
1000
AcDbSavedByObjectVersion
1070
     0
  0
VISUALSTYLE
  5
3F9
102
{ACAD_XDICTIONARY
360
1A65
102
}
102
{ACAD_REACTORS
330
3F2
102
}
330
3F2
100
AcDbVisualStyle
  2

 70
     5
 71
     0
 72
     2
 73
     0
 90
        0
 40
-0.6
 41
-30.0
 62
     5
 63
     7
 74
     1
 91
        4
 64
     7
 65
   257
 75
     1
175
     1
 42
1.0
 92
        0
 66
   257
 43
1.0
 76
     1
 77
     6
 78
     2
 67
     7
 79
     5
170
     0
171
     0
290
     0
174
     0
 93
        1
 44
0.0
173
     0
291
     0
 45
0.0
1001
ACAD
1000
AcDbSavedByObjectVersion
1070
     0
  0
VISUALSTYLE
  5
3F7
102
{ACAD_XDICTIONARY
360
1A61
102
}
102
{ACAD_REACTORS
330
3F2
102
}
330
3F2
100
AcDbVisualStyle
  2

 70
     7
 71
     1
 72
     0
 73
     1
 90
        0
 40
-0.6
 41
-30.0
 62
     5
 63
     7
 74
     0
 91
        4
 64
     7
 65
   257
 75
     1
175
     1
 42
1.0
 92
        8
 66
     7
 43
1.0
 76
     1
 77
     6
 78
     2
 67
     7
 79
     5
170
     0
171
     0
290
     0
174
     0
 93
        1
 44
0.0
173
     0
291
     1
 45
0.0
1001
ACAD
1000
AcDbSavedByObjectVersion
1070
     0
  0
VISUALSTYLE
  5
3FE
102
{ACAD_XDICTIONARY
360
1A6F
102
}
102
{ACAD_REACTORS
330
3F2
102
}
330
3F2
100
AcDbVisualStyle
  2

 70
    12
 71
     2
 72
     2
 73
     0
 90
        0
 40
-0.6
 41
-30.0
 62
     5
 63
     7
 74
     1
 91
        4
 64
     7
 65
   257
 75
     1
175
     1
 42
1.0
 92
        8
 66
     7
 43
1.0
 76
     1
 77
     6
 78
     2
 67
     7
 79
     5
170
     0
171
     0
290
     0
174
     0
 93
        1
 44
50.0
173
     0
291
     1
 45
0.0
1001
ACAD
1000
AcDbSavedByObjectVersion
1070
     0
  0
VISUALSTYLE
  5
402
102
{ACAD_XDICTIONARY
360
1A77
102
}
102
{ACAD_REACTORS
330
3F2
102
}
330
3F2
100
AcDbVisualStyle
  2

 70
    16
 71
     2
 72
     2
 73
     3
 90
        0
 40
-0.6
 41
-30.0
 62
     5
 63
     8
 74
     1
 91
        4
 64
     7
 65
   257
 75
     1
175
     1
 42
1.0
 92
        8
 66
     8
 43
1.0
 76
     1
 77
     6
 78
     2
 67
     7
 79
     5
170
     0
171
     0
290
     0
174
     0
 93
        1
 44
0.0
173
     0
291
     1
 45
0.0
1001
ACAD
1000
AcDbSavedByObjectVersion
1070
     0
  0
VISUALSTYLE
  5
3FB
102
{ACAD_XDICTIONARY
360
1A69
102
}
102
{ACAD_REACTORS
330
3F2
102
}
330
3F2
100
AcDbVisualStyle
  2

 70
     9
 71
     3
 72
     2
 73
     0
 90
        0
 40
-0.6
 41
-30.0
 62
     5
 63
     7
 74
     2
 91
        2
 64
     7
 65
   257
 75
     1
175
     1
 42
40.0
 92
        8
 66
     7
 43
1.0
 76
     1
 77
     6
 78
     2
 67
     7
 79
     3
170
     0
171
     0
290
     0
174
     0
 93
        1
 44
0.0
173
     0
291
     0
 45
0.0
1001
ACAD
1000
AcDbSavedByObjectVersion
1070
     0
  0
VISUALSTYLE
  5
3FD
102
{ACAD_XDICTIONARY
360
1A6D
102
}
102
{ACAD_REACTORS
330
3F2
102
}
330
3F2
100
AcDbVisualStyle
  2

 70
    11
 71
     2
 72
     2
 73
     0
 90
        0
 40
-0.6
 41
-30.0
 62
     5
 63
     7
 74
     1
 91
        4
 64
     7
 65
   257
 75
     1
175
     1
 42
1.0
 92
        8
 66
     7
 43
1.0
 76
     1
 77
     6
 78
     2
 67
     7
 79
     5
170
     0
171
     0
290
     0
174
     0
 93
        1
 44
-50.0
173
     0
291
     1
 45
0.0
1001
ACAD
1000
AcDbSavedByObjectVersion
1070
     0
  0
VISUALSTYLE
  5
C40
102
{ACAD_XDICTIONARY
360
1A87
102
}
102
{ACAD_REACTORS
330
3F2
102
}
330
3F2
100
AcDbVisualStyle
  2

 70
    22
 71
     2
 72
     2
 73
     0
 90
        0
 40
-0.6
 41
-30.0
 62
     5
 63
     7
 74
     1
 91
        4
 64
     7
 65
   257
 75
     1
175
     1
 42
1.0
 92
        8
 66
     7
 43
1.0
 76
     1
 77
     6
 78
     2
 67
     7
 79
     5
170
     0
171
     0
290
     0
174
     0
 93
        1
 44
0.0
173
     0
291
     1
 45
0.0
1001
ACAD
1000
AcDbSavedByObjectVersion
1070
     0
  0
VISUALSTYLE
  5
401
102
{ACAD_XDICTIONARY
360
1A75
102
}
102
{ACAD_REACTORS
330
3F2
102
}
330
3F2
100
AcDbVisualStyle
  2

 70
    15
 71
     2
 72
     2
 73
     0
 90
        0
 40
-0.6
 41
-30.0
 62
     5
 63
     7
 74
     1
 91
        4
 64
     7
 65
   257
 75
     1
175
     1
 42
1.0
 92
        8
 66
     7
 43
1.0
 76
     1
 77
     6
 78
     2
 67
     7
 79
     5
170
     0
171
     0
290
     0
174
     0
 93
        1
 44
0.0
173
     0
291
     1
 45
0.0
1001
ACAD
1000
AcDbSavedByObjectVersion
1070
     0
  0
VISUALSTYLE
  5
3F3
102
{ACAD_XDICTIONARY
360
1A59
102
}
102
{ACAD_REACTORS
330
3F2
102
}
330
3F2
100
AcDbVisualStyle
  2

 70
     0
 71
     2
 72
     1
 73
     1
 90
        2
 40
-0.6
 41
30.0
 62
     5
 63
     7
 74
     0
 91
        4
 64
     7
 65
   257
 75
     1
175
     1
 42
1.0
 92
        8
 66
     7
 43
1.0
 76
     1
 77
     6
 78
     2
 67
     7
 79
     5
170
     0
171
     0
290
     0
174
     0
 93
       13
 44
0.0
173
     0
291
     1
 45
0.0
1001
ACAD
1000
AcDbSavedByObjectVersion
1070
     0
  0
VISUALSTYLE
  5
3F4
102
{ACAD_XDICTIONARY
360
1A5B
102
}
102
{ACAD_REACTORS
330
3F2
102
}
330
3F2
100
AcDbVisualStyle
  2

 70
     1
 71
     2
 72
     1
 73
     1
 90
        2
 40
-0.6
 41
30.0
 62
     5
 63
     7
 74
     1
 91
        4
 64
     7
 65
   257
 75
     1
175
     1
 42
1.0
 92
        0
 66
   257
 43
1.0
 76
     1
 77
     6
 78
     2
 67
     7
 79
     5
170
     0
171
     0
290
     0
174
     0
 93
       13
 44
0.0
173
     0
291
     1
 45
0.0
1001
ACAD
1000
AcDbSavedByObjectVersion
1070
     0
  0
VISUALSTYLE
  5
3F5
102
{ACAD_XDICTIONARY
360
1A5D
102
}
102
{ACAD_REACTORS
330
3F2
102
}
330
3F2
100
AcDbVisualStyle
  2

 70
     2
 71
     2
 72
     2
 73
     1
 90
        2
 40
-0.6
 41
30.0
 62
     5
 63
     7
 74
     0
 91
        4
 64
     7
 65
   257
 75
     1
175
     1
 42
1.0
 92
        0
 66
     7
 43
1.0
 76
     1
 77
     6
 78
     2
 67
     7
 79
     5
170
     0
171
     0
290
     0
174
     0
 93
       13
 44
0.0
173
     0
291
     1
 45
0.0
1001
ACAD
1000
AcDbSavedByObjectVersion
1070
     0
  0
VISUALSTYLE
  5
3F6
102
{ACAD_XDICTIONARY
360
1A5F
102
}
102
{ACAD_REACTORS
330
3F2
102
}
330
3F2
100
AcDbVisualStyle
  2

 70
     3
 71
     2
 72
     2
 73
     1
 90
        2
 40
-0.6
 41
30.0
 62
     5
 63
     7
 74
     1
 91
        4
 64
     7
 65
   257
 75
     1
175
     1
 42
1.0
 92
        0
 66
   257
 43
1.0
 76
     1
 77
     6
 78
     2
 67
     7
 79
     5
170
     0
171
     0
290
     0
174
     0
 93
       13
 44
0.0
173
     0
291
     1
 45
0.0
1001
ACAD
1000
AcDbSavedByObjectVersion
1070
     0
  0
VISUALSTYLE
  5
EA2
102
{ACAD_XDICTIONARY
360
1A8B
102
}
102
{ACAD_REACTORS
330
3F2
102
}
330
3F2
100
AcDbVisualStyle
  2

 70
     6
 71
     1
 72
     2
 73
     2
 90
        0
 40
-0.6
 41
-30.0
 62
     5
 63
     7
 74
     2
 91
        2
 64
     7
 65
   257
 75
     2
175
     1
 42
40.0
 92
        0
 66
   257
 43
1.0
 76
     1
 77
     6
 78
     2
 67
     7
 79
     3
170
     0
171
     0
290
     0
174
     0
 93
        1
 44
0.0
173
     0
291
     0
 45
0.0
1001
ACAD
1000
AcDbSavedByObjectVersion
1070
     0
  0
VISUALSTYLE
  5
C3E
102
{ACAD_XDICTIONARY
360
1A83
102
}
102
{ACAD_REACTORS
330
3F2
102
}
330
3F2
100
AcDbVisualStyle
  2

 70
    20
 71
     2
 72
     2
 73
     0
 90
        0
 40
-0.6
 41
-30.0
 62
     5
 63
     7
 74
     1
 91
        4
 64
     7
 65
   257
 75
     1
175
     1
 42
1.0
 92
       10
 66
     7
 43
1.0
 76
     1
 77
     6
 78
     2
 67
     7
 79
     5
170
     0
171
     0
290
     0
174
     0
 93
        1
 44
0.0
173
     0
291
     1
 45
0.0
1001
ACAD
1000
AcDbSavedByObjectVersion
1070
     0
  0
VISUALSTYLE
  5
400
102
{ACAD_XDICTIONARY
360
1A73
102
}
102
{ACAD_REACTORS
330
3F2
102
}
330
3F2
100
AcDbVisualStyle
  2

 70
    14
 71
     2
 72
     2
 73
     0
 90
        0
 40
-0.6
 41
-30.0
 62
     5
 63
     7
 74
     1
 91
        4
 64
     7
 65
   257
 75
     7
175
     7
 42
1.0
 92
        8
 66
     7
 43
1.0
 76
     1
 77
     6
 78
     2
 67
     7
 79
     5
170
     0
171
     0
290
     0
174
     0
 93
        1
 44
0.0
173
     0
291
     1
 45
0.0
1001
ACAD
1000
AcDbSavedByObjectVersion
1070
     0
  0
VISUALSTYLE
  5
C3F
102
{ACAD_XDICTIONARY
360
1A85
102
}
102
{ACAD_REACTORS
330
3F2
102
}
330
3F2
100
AcDbVisualStyle
  2

 70
    21
 71
     2
 72
     2
 73
     0
 90
        0
 40
-0.6
 41
-30.0
 62
     5
 63
     7
 74
     1
 91
        4
 64
     7
 65
   257
 75
     1
175
     1
 42
1.0
 92
        9
 66
     7
 43
1.0
 76
     1
 77
     6
 78
     2
 67
     7
 79
     5
170
     0
171
     0
290
     0
174
     0
 93
        1
 44
0.0
173
     0
291
     1
 45
0.0
1001
ACAD
1000
AcDbSavedByObjectVersion
1070
     0
  0
VISUALSTYLE
  5
3FC
102
{ACAD_XDICTIONARY
360
1A6B
102
}
102
{ACAD_REACTORS
330
3F2
102
}
330
3F2
100
AcDbVisualStyle
  2

 70
     8
 71
     2
 72
     2
 73
     0
 90
        0
 40
-0.6
 41
-30.0
 62
     5
 63
     7
 74
     1
 91
        0
 64
     7
 65
   257
 75
     1
175
     1
 42
1.0
 92
        8
 66
     8
 43
1.0
 76
     1
 77
     6
 78
     2
 67
     7
 79
     5
170
     0
171
     0
290
     0
174
     0
 93
       13
 44
0.0
173
     0
291
     0
 45
0.0
1001
ACAD
1000
AcDbSavedByObjectVersion
1070
     0
  0
VISUALSTYLE
  5
EA7
102
{ACAD_XDICTIONARY
360
1A95
102
}
102
{ACAD_REACTORS
330
3F2
102
}
330
3F2
100
AcDbVisualStyle
  2

 70
    27
 71
     2
 72
     2
 73
     1
 90
        2
 40
-0.6
 41
30.0
 62
     5
 63
     7
 74
     0
 91
        4
 64
     7
 65
   257
 75
     1
175
     1
 42
1.0
 92
        8
 66
   257
 43
1.0
 76
     1
 77
     6
 78
     2
 67
     8
 79
     3
170
     0
171
     0
290
     0
174
     0
 93
        5
 44
0.0
173
     0
291
     0
 45
0.0
1001
ACAD
1000
AcDbSavedByObjectVersion
1070
     0
  0
VISUALSTYLE
  5
EA6
102
{ACAD_XDICTIONARY
360
1A93
102
}
102
{ACAD_REACTORS
330
3F2
102
}
330
3F2
100
AcDbVisualStyle
  2

 70
    26
 71
     2
 72
     2
 73
     1
 90
        2
 40
-0.6
 41
30.0
 62
     5
 63
     7
 74
     1
 91
       10
 64
     7
 65
   257
 75
     2
175
     1
 42
1.0
 92
        8
 66
   257
 43
1.0
 76
     1
 77
     6
 78
     2
 67
     7
 79
     3
170
     0
171
     0
290
     0
174
     0
 93
        5
 44
0.0
173
     0
291
     0
 45
0.0
1001
ACAD
1000
AcDbSavedByObjectVersion
1070
     0
  0
VISUALSTYLE
  5
EA3
102
{ACAD_XDICTIONARY
360
1A8D
102
}
102
{ACAD_REACTORS
330
3F2
102
}
330
3F2
100
AcDbVisualStyle
  2

 70
    23
 71
     2
 72
     2
 73
     3
 90
        0
 40
-0.6
 41
-30.0
 62
     5
 63
     7
 74
     2
 91
        2
 64
     7
 65
     7
 75
     1
175
     1
 42
40.0
 92
        8
 66
     7
 43
1.0
 76
     1
 77
     6
 78
     2
 67
     7
 79
     3
170
     0
171
     0
290
     0
174
     0
 93
        1
 44
0.0
173
     0
291
     0
 45
0.0
1001
ACAD
1000
AcDbSavedByObjectVersion
1070
     0
  0
VISUALSTYLE
  5
EA4
102
{ACAD_XDICTIONARY
360
1A8F
102
}
102
{ACAD_REACTORS
330
3F2
102
}
330
3F2
100
AcDbVisualStyle
  2

 70
    24
 71
     1
 72
     2
 73
     2
 90
        0
 40
-0.6
 41
-30.0
 62
     5
 63
     7
 74
     2
 91
        2
 64
     7
 65
     7
 75
     1
175
     1
 42
40.0
 92
       11
 66
     7
 43
1.0
 76
     1
 77
     6
 78
     2
 67
     7
 79
     6
170
     0
171
     0
290
     0
174
     0
 93
        1
 44
0.0
173
     0
291
     0
 45
0.0
1001
ACAD
1000
AcDbSavedByObjectVersion
1070
     0
  0
VISUALSTYLE
  5
3FF
102
{ACAD_XDICTIONARY
360
1A71
102
}
102
{ACAD_REACTORS
330
3F2
102
}
330
3F2
100
AcDbVisualStyle
  2

 70
    13
 71
     2
 72
     2
 73
     0
 90
        0
 40
-0.6
 41
-30.0
 62
     5
 63
     7
 74
     1
 91
        4
 64
     7
 65
   257
 75
     1
175
     1
 42
1.0
 92
       12
 66
     7
 43
1.0
 76
     1
 77
     6
 78
     2
 67
     7
 79
     5
170
     0
171
     0
290
     0
174
     0
 93
        1
 44
0.0
173
     0
291
     1
 45
0.0
1001
ACAD
1000
AcDbSavedByObjectVersion
1070
     0
  0
VISUALSTYLE
  5
EA1
102
{ACAD_XDICTIONARY
360
1A89
102
}
102
{ACAD_REACTORS
330
3F2
102
}
330
3F2
100
AcDbVisualStyle
  2

 70
     5
 71
     0
 72
     2
 73
     0
 90
        0
 40
-0.6
 41
-30.0
 62
     5
 63
     7
 74
     1
 91
        4
 64
     7
 65
   257
 75
     1
175
     1
 42
1.0
 92
        0
 66
   257
 43
1.0
 76
     1
 77
     6
 78
     2
 67
     7
 79
     3
170
     0
171
     0
290
     0
174
     0
 93
        1
 44
0.0
173
     0
291
     0
 45
0.0
1001
ACAD
1000
AcDbSavedByObjectVersion
1070
     0
  0
VISUALSTYLE
  5
EA5
102
{ACAD_XDICTIONARY
360
1A91
102
}
102
{ACAD_REACTORS
330
3F2
102
}
330
3F2
100
AcDbVisualStyle
  2

 70
    25
 71
     2
 72
     2
 73
     1
 90
        1
 40
0.5
 41
-30.0
 62
     5
 63
     7
 74
     1
 91
        0
 64
     7
 65
   257
 75
     1
175
     1
 42
1.0
 92
        8
 66
     7
 43
1.0
 76
     1
 77
     6
 78
     2
 67
     7
 79
     3
170
     0
171
     0
290
     0
174
     0
 93
       13
 44
0.0
173
     0
291
     0
 45
0.0
1001
ACAD
1000
AcDbSavedByObjectVersion
1070
     0
  0
DICTIONARYVAR
  5
57C
102
{ACAD_REACTORS
330
357
102
}
330
357
100
DictionaryVariables
280
     0
  1
1:1
  0
DICTIONARYVAR
  5
57A
102
{ACAD_REACTORS
330
357
102
}
330
357
100
DictionaryVariables
280
     0
  1
STANDARD
  0
DICTIONARYVAR
  5
38E
102
{ACAD_REACTORS
330
357
102
}
330
357
100
DictionaryVariables
280
     0
  1
STANDARD
  0
DICTIONARYVAR
  5
110C
102
{ACAD_REACTORS
330
357
102
}
330
357
100
DictionaryVariables
280
     0
  1
Metric50
  0
DICTIONARYVAR
  5
110D
102
{ACAD_REACTORS
330
357
102
}
330
357
100
DictionaryVariables
280
     0
  1
Metric50
  0
DICTIONARYVAR
  5
359
102
{ACAD_REACTORS
330
357
102
}
330
357
100
DictionaryVariables
280
     0
  1
2
  0
DICTIONARYVAR
  5
358
102
{ACAD_REACTORS
330
357
102
}
330
357
100
DictionaryVariables
280
     0
  1
1
  0
DICTIONARYVAR
  5
B51
102
{ACAD_REACTORS
330
357
102
}
330
357
100
DictionaryVariables
280
     0
  1
0
  0
DICTIONARYVAR
  5
C52
102
{ACAD_REACTORS
330
357
102
}
330
357
100
DictionaryVariables
280
     0
  1
1
  0
DICTIONARYVAR
  5
C53
102
{ACAD_REACTORS
330
357
102
}
330
357
100
DictionaryVariables
280
     0
  1
15
  0
DICTIONARYVAR
  5
57D
102
{ACAD_REACTORS
330
357
102
}
330
357
100
DictionaryVariables
280
     0
  1
0
  0
DICTIONARYVAR
  5
57B
102
{ACAD_REACTORS
330
357
102
}
330
357
100
DictionaryVariables
280
     0
  1
0
  0
DICTIONARYVAR
  5
18CF
102
{ACAD_REACTORS
330
357
102
}
330
357
100
DictionaryVariables
280
     0
  1
1
  0
DICTIONARYVAR
  5
B50
102
{ACAD_REACTORS
330
357
102
}
330
357
100
DictionaryVariables
280
     0
  1
127
  0
DICTIONARYVAR
  5
1A4C
102
{ACAD_REACTORS
330
357
102
}
330
357
100
DictionaryVariables
280
     0
  1
2
  0
DICTIONARY
  5
4DC
102
{ACAD_REACTORS
330
4D1
102
}
330
4D1
100
AcDbDictionary
281
     1
  0
XRECORD
  5
4F3
102
{ACAD_REACTORS
330
4D1
102
}
330
4D1
100
AcDbXrecord
280
     1
 90
-1023410169
  0
XRECORD
  5
9A5
102
{ACAD_REACTORS
330
567
102
}
330
567
100
AcDbXrecord
280
     1
 91
     1023
301

290
     0
302
1
  8
200
 90
        8
 62
     2
370
    50
331
14
  1
Color_2
  8
160
 90
        8
 62
     1
370
    35
331
14
  1
Color_1
  8
150
 90
        8
 62
    96
370
    50
331
14
  1
Color_96
 92
-1040154880
  8
140
 90
        8
 62
     5
370
    35
331
14
  1
Color_5
  8
130
 90
        8
 62
     6
370
    35
331
14
  1
Color_6
  8
120
 90
        8
 62
     3
370
    50
331
14
  1
Color_3
  8
110
 90
        8
 62
     7
370
    25
331
14
  1
Color_7
  8
100
 90
        8
 62
     4
370
    50
331
14
  1
Color_4
  8
INFTEXT69
 90
        8
 62
     5
370
    -3
331
14
  1
Color_5
  8
INFTEXT68
 90
        8
 62
     5
370
    -3
331
14
  1
Color_5
  8
INFTEXT67
 90
        8
 62
     5
370
    -3
331
14
  1
Color_5
  8
INFTEXT66
 90
        8
 62
     5
370
    -3
331
14
  1
Color_5
  8
INFTEXT65
 90
        8
 62
     5
370
    -3
331
14
  1
Color_5
  8
INFTEXT64
 90
        8
 62
     5
370
    -3
331
14
  1
Color_5
  8
INFTEXT63
 90
        8
 62
     5
370
    -3
331
14
  1
Color_5
  8
INFTEXT62
 90
        8
 62
     5
370
    -3
331
14
  1
Color_5
  8
RECON69
 90
        8
 62
     5
370
    35
331
14
  1
Color_5
  8
RECON68
 90
        8
 62
     5
370
    35
331
14
  1
Color_5
  8
RECON67
 90
        8
 62
     5
370
    35
331
14
  1
Color_5
  8
RECON66
 90
        8
 62
     5
370
    35
331
14
  1
Color_5
  8
RECON65
 90
        8
 62
     5
370
    35
331
14
  1
Color_5
  8
RECON64
 90
        8
 62
     5
370
    35
331
14
  1
Color_5
  8
RECON63
 90
        8
 62
     5
370
    35
331
14
  1
Color_5
  8
RECON62
 90
        8
 62
     5
370
    35
331
14
  1
Color_5
  8
RECON61
 90
        8
 62
     5
370
    35
331
14
  1
Color_5
  8
SK69
 90
        8
 62
     5
370
    35
331
14
  1
Color_5
  8
SK68
 90
        8
 62
     5
370
    35
331
14
  1
Color_5
  8
SK67
 90
        8
 62
     5
370
    35
331
14
  1
Color_5
  8
SK66
 90
        8
 62
     5
370
    35
331
14
  1
Color_5
  8
SK65
 90
        8
 62
     5
370
    35
331
14
  1
Color_5
  8
SK64
 90
        8
 62
     5
370
    35
331
14
  1
Color_5
  8
SK63
 90
        8
 62
     5
370
    35
331
14
  1
Color_5
  8
SK62
 90
        8
 62
     5
370
    35
331
14
  1
Color_5
  8
SK61
 90
        8
 62
     5
370
    35
331
14
  1
Color_5
  8
SKVIEW69
 90
        8
 62
     5
370
    35
331
14
  1
Color_5
  8
SKVIEW68
 90
        8
 62
     5
370
    35
331
14
  1
Color_5
  8
SKVIEW67
 90
        8
 62
     5
370
    35
331
14
  1
Color_5
  8
SKVIEW66
 90
        8
 62
     5
370
    35
331
14
  1
Color_5
  8
SKVIEW65
 90
        8
 62
     5
370
    35
331
14
  1
Color_5
  8
SKVIEW64
 90
        8
 62
     5
370
    35
331
14
  1
Color_5
  8
SKVIEW63
 90
        8
 62
     5
370
    35
331
14
  1
Color_5
  8
SKVIEW62
 90
        8
 62
     5
370
    35
331
14
  1
Color_5
  8
SKVIEW61
 90
        8
 62
     5
370
    35
331
14
  1
Color_5
  8
69
 90
        8
 62
     5
370
    35
331
14
  1
Color_5
  8
68
 90
        8
 62
     5
370
    35
331
14
  1
Color_5
  8
67
 90
        8
 62
     5
370
    35
331
14
  1
Color_5
  8
66
 90
        8
 62
     5
370
    35
331
14
  1
Color_5
  8
65
 90
        8
 62
     5
370
    35
331
14
  1
Color_5
  8
64
 90
        8
 62
     5
370
    35
331
14
  1
Color_5
  8
63
 90
        8
 62
     5
370
    35
331
14
  1
Color_5
  8
62
 90
        8
 62
     5
370
    35
331
14
  1
Color_5
  8
61
 90
        8
 62
     5
370
    35
331
14
  1
Color_5
  8
59
 90
        8
 62
     5
370
    -3
331
14
  1
Color_5
  8
58
 90
        8
 62
     5
370
    -3
331
14
  1
Color_5
  8
57
 90
        8
 62
     5
370
    -3
331
14
  1
Color_5
  8
56
 90
        8
 62
     5
370
    -3
331
14
  1
Color_5
  8
55
 90
        8
 62
     5
370
    -3
331
14
  1
Color_5
  8
54
 90
        8
 62
     5
370
    -3
331
14
  1
Color_5
  8
53
 90
        8
 62
     5
370
    -3
331
14
  1
Color_5
  8
52
 90
        8
 62
     5
370
    -3
331
14
  1
Color_5
  8
51
 90
        8
 62
     5
370
    -3
331
14
  1
Color_5
  8
FRAME59
 90
        8
 62
     7
370
    -3
331
14
  1
Color_7
  8
FRAME58
 90
        8
 62
     7
370
    -3
331
14
  1
Color_7
  8
FRAME57
 90
        8
 62
     7
370
    -3
331
14
  1
Color_7
  8
FRAME56
 90
        8
 62
     7
370
    -3
331
14
  1
Color_7
  8
FRAME55
 90
        8
 62
     7
370
    -3
331
14
  1
Color_7
  8
FRAME54
 90
        8
 62
     7
370
    -3
331
14
  1
Color_7
  8
FRAME53
 90
        8
 62
     7
370
    -3
331
14
  1
Color_7
  8
FRAME52
 90
        8
 62
     7
370
    -3
331
14
  1
Color_7
  8
RECON7
 90
        8
 62
     5
370
    25
331
14
  1
Color_5
  8
RECON6
 90
        8
 62
     5
370
    35
331
14
  1
Color_5
  8
RECON4
 90
        8
 62
     2
370
    25
331
14
  1
Color_2
  8
RECON3
 90
        8
 62
     1
370
    35
331
14
  1
Color_1
  8
RECON2
 90
        8
 62
     7
370
    25
331
14
  1
Color_7
  8
RECON1
 90
        8
 62
     4
370
    50
331
14
  1
Color_4
  8
SKVIEW7
 90
        8
 62
     5
370
    25
331
14
  1
Color_5
  8
SK7
 90
        8
 62
     5
370
    25
331
14
  1
Color_5
  8
7
 90
        8
 62
     5
370
    25
331
14
  1
Color_5
  8
INFMAINVIEW
 90
        8
 62
     9
370
    18
331
14
  1
Color_9
  8
INFTOTAL
 90
        8
 62
     9
370
    18
331
14
  1
Color_9
  8
INFTEXT61
 90
        8
 62
     5
370
    -3
331
14
  1
Color_5
  8
INFWKP
 90
        8
 62
    30
370
    25
331
14
  1
Color_30
  8
SKVIEW6
 90
        8
 62
     5
370
    35
331
14
  1
Color_5
  8
SKVIEW4
 90
        8
 62
     2
370
    25
331
14
  1
Color_2
  8
SKVIEW3
 90
        8
 62
     1
370
    35
331
14
  1
Color_1
  8
SKVIEW2
 90
        8
 62
     7
370
    25
331
14
  1
Color_7
  8
SKVIEW1
 90
        8
 62
     4
370
    50
331
14
  1
Color_4
  8
NOCUT
 90
        8
 62
     7
370
    25
331
14
  1
Color_7
  8
CUT
 90
        8
 62
     1
370
    25
331
14
  1
Color_1
  8
DEFPOINTS
 90
        0
 62
     7
370
    -3
331
14
  1
Color_7
  8
SK6
 90
        8
 62
     5
370
    35
331
14
  1
Color_5
  8
6
 90
        8
 62
     5
370
    35
331
14
  1
Color_5
  8
FRAME51
 90
        8
 62
     7
370
    -3
331
14
  1
Color_7
  8
SK4
 90
        8
 62
     2
370
    25
331
14
  1
Color_2
  8
4
 90
        8
 62
     2
370
    25
331
14
  1
Color_2
  8
SK3
 90
        8
 62
     1
370
    35
331
14
  1
Color_1
  8
3
 90
        8
 62
     1
370
    35
331
14
  1
Color_1
  8
SK2
 90
        8
 62
     7
370
    25
331
14
  1
Color_7
  8
2
 90
        8
 62
     7
370
    25
331
14
  1
Color_7
  8
SK1
 90
        8
 62
     4
370
    50
331
14
  1
Color_4
  8
1
 90
        8
 62
     4
370
    50
331
14
  1
Color_4
  8
0
 90
        0
 62
     7
370
    -3
331
14
  1
Color_7
  0
DICTIONARY
  5
1A99
330
EAB
100
AcDbDictionary
280
     1
281
     1
  3
ACAD_XREC_ROUNDTRIP
360
1A9A
  0
DICTIONARY
  5
1A9D
330
1175
100
AcDbDictionary
280
     1
281
     1
  3
ACAD_XREC_ROUNDTRIP
360
1A9E
  0
DICTIONARY
  5
1A7F
330
B77
100
AcDbDictionary
280
     1
281
     1
  3
ACAD_XREC_ROUNDTRIP
360
1A80
  0
DICTIONARY
  5
1A56
330
303
100
AcDbDictionary
280
     1
281
     1
  3
ACAD_XREC_ROUNDTRIP
360
1A57
  0
DICTIONARY
  5
18E2
330
3F0
100
AcDbDictionary
280
     1
281
     1
  3
ACAD_XREC_ROUNDTRIP
360
18E3
  0
DICTIONARY
  5
18E0
330
3EF
100
AcDbDictionary
280
     1
281
     1
  3
ACAD_XREC_ROUNDTRIP
360
18E1
  0
DICTIONARY
  5
18E4
330
3F1
100
AcDbDictionary
280
     1
281
     1
  3
ACAD_XREC_ROUNDTRIP
360
18E5
  0
DICTIONARY
  5
1A79
330
470
100
AcDbDictionary
280
     1
281
     1
  3
ACAD_XREC_ROUNDTRIP
360
1A7A
  0
DICTIONARY
  5
1A7B
330
7EF
100
AcDbDictionary
280
     1
281
     1
  3
ACAD_XREC_ROUNDTRIP
360
1A7C
  0
DICTIONARY
  5
1A7D
330
7F8
100
AcDbDictionary
280
     1
281
     1
  3
ACAD_XREC_ROUNDTRIP
360
1A7E
  0
DICTIONARY
  5
1A97
330
EA9
100
AcDbDictionary
280
     1
281
     1
  3
ACAD_XREC_ROUNDTRIP
360
1A98
  0
DICTIONARY
  5
1A9B
330
1173
100
AcDbDictionary
280
     1
281
     1
  3
ACAD_XREC_ROUNDTRIP
360
1A9C
  0
DICTIONARY
  5
577
330
389
100
AcDbDictionary
280
     1
281
     1
  3
ACAD_ROUNDTRIP_2008_TABLESTYLE_CELLSTYLEMAP
360
1A4D
  3
ACAD_XREC_ROUNDTRIP
360
1A58
  0
DICTIONARY
  5
1A63
330
3F8
100
AcDbDictionary
280
     1
281
     1
  3
ACAD_XREC_ROUNDTRIP
360
1A64
  0
DICTIONARY
  5
1A67
330
3FA
100
AcDbDictionary
280
     1
281
     1
  3
ACAD_XREC_ROUNDTRIP
360
1A68
  0
DICTIONARY
  5
1A65
330
3F9
100
AcDbDictionary
280
     1
281
     1
  3
ACAD_XREC_ROUNDTRIP
360
1A66
  0
DICTIONARY
  5
1A61
330
3F7
100
AcDbDictionary
280
     1
281
     1
  3
ACAD_XREC_ROUNDTRIP
360
1A62
  0
DICTIONARY
  5
1A6F
330
3FE
100
AcDbDictionary
280
     1
281
     1
  3
ACAD_XREC_ROUNDTRIP
360
1A70
  0
DICTIONARY
  5
1A77
330
402
100
AcDbDictionary
280
     1
281
     1
  3
ACAD_XREC_ROUNDTRIP
360
1A78
  0
DICTIONARY
  5
1A69
330
3FB
100
AcDbDictionary
280
     1
281
     1
  3
ACAD_XREC_ROUNDTRIP
360
1A6A
  0
DICTIONARY
  5
1A6D
330
3FD
100
AcDbDictionary
280
     1
281
     1
  3
ACAD_XREC_ROUNDTRIP
360
1A6E
  0
DICTIONARY
  5
1A87
330
C40
100
AcDbDictionary
280
     1
281
     1
  3
ACAD_XREC_ROUNDTRIP
360
1A88
  0
DICTIONARY
  5
1A75
330
401
100
AcDbDictionary
280
     1
281
     1
  3
ACAD_XREC_ROUNDTRIP
360
1A76
  0
DICTIONARY
  5
1A59
330
3F3
100
AcDbDictionary
280
     1
281
     1
  3
ACAD_XREC_ROUNDTRIP
360
1A5A
  0
DICTIONARY
  5
1A5B
330
3F4
100
AcDbDictionary
280
     1
281
     1
  3
ACAD_XREC_ROUNDTRIP
360
1A5C
  0
DICTIONARY
  5
1A5D
330
3F5
100
AcDbDictionary
280
     1
281
     1
  3
ACAD_XREC_ROUNDTRIP
360
1A5E
  0
DICTIONARY
  5
1A5F
330
3F6
100
AcDbDictionary
280
     1
281
     1
  3
ACAD_XREC_ROUNDTRIP
360
1A60
  0
DICTIONARY
  5
1A8B
330
EA2
100
AcDbDictionary
280
     1
281
     1
  3
ACAD_XREC_ROUNDTRIP
360
1A8C
  0
DICTIONARY
  5
1A83
330
C3E
100
AcDbDictionary
280
     1
281
     1
  3
ACAD_XREC_ROUNDTRIP
360
1A84
  0
DICTIONARY
  5
1A73
330
400
100
AcDbDictionary
280
     1
281
     1
  3
ACAD_XREC_ROUNDTRIP
360
1A74
  0
DICTIONARY
  5
1A85
330
C3F
100
AcDbDictionary
280
     1
281
     1
  3
ACAD_XREC_ROUNDTRIP
360
1A86
  0
DICTIONARY
  5
1A6B
330
3FC
100
AcDbDictionary
280
     1
281
     1
  3
ACAD_XREC_ROUNDTRIP
360
1A6C
  0
DICTIONARY
  5
1A95
330
EA7
100
AcDbDictionary
280
     1
281
     1
  3
ACAD_XREC_ROUNDTRIP
360
1A96
  0
DICTIONARY
  5
1A93
330
EA6
100
AcDbDictionary
280
     1
281
     1
  3
ACAD_XREC_ROUNDTRIP
360
1A94
  0
DICTIONARY
  5
1A8D
330
EA3
100
AcDbDictionary
280
     1
281
     1
  3
ACAD_XREC_ROUNDTRIP
360
1A8E
  0
DICTIONARY
  5
1A8F
330
EA4
100
AcDbDictionary
280
     1
281
     1
  3
ACAD_XREC_ROUNDTRIP
360
1A90
  0
DICTIONARY
  5
1A71
330
3FF
100
AcDbDictionary
280
     1
281
     1
  3
ACAD_XREC_ROUNDTRIP
360
1A72
  0
DICTIONARY
  5
1A89
330
EA1
100
AcDbDictionary
280
     1
281
     1
  3
ACAD_XREC_ROUNDTRIP
360
1A8A
  0
DICTIONARY
  5
1A91
330
EA5
100
AcDbDictionary
280
     1
281
     1
  3
ACAD_XREC_ROUNDTRIP
360
1A92
  0
XRECORD
  5
1A9A
102
{ACAD_REACTORS
330
1A99
102
}
330
1A99
100
AcDbXrecord
280
     1
102
DISPLAYNAME
  1
Imperial24
102
FLAGS
 90
        0
  0
XRECORD
  5
1A9E
102
{ACAD_REACTORS
330
1A9D
102
}
330
1A9D
100
AcDbXrecord
280
     1
102
DISPLAYNAME
  1
Metric50
102
FLAGS
 90
        0
  0
XRECORD
  5
1A80
102
{ACAD_REACTORS
330
1A7F
102
}
330
1A7F
100
AcDbXrecord
280
     1
102
SHADEPLOT
 70
     0
102
SHADEPLOTRESLEVEL
 70
     2
102
SHADEPLOTCUSTOMDPI
 70
   300
  0
XRECORD
  5
1A57
102
{ACAD_REACTORS
330
1A56
102
}
330
1A56
100
AcDbXrecord
280
     1
102
SHADEPLOT
 70
     0
102
SHADEPLOTRESLEVEL
 70
     2
102
SHADEPLOTCUSTOMDPI
 70
   300
  0
XRECORD
  5
18E3
102
{ACAD_REACTORS
330
18E2
102
}
330
18E2
100
AcDbXrecord
280
     1
102
MATERIAL
148
0.0
149
0.0
149
0.0
 93
        0
 94
      127
282
     0
 72
     1
 77
     1
171
     1
175
     1
179
     1
273
     0
  0
XRECORD
  5
18E1
102
{ACAD_REACTORS
330
18E0
102
}
330
18E0
100
AcDbXrecord
280
     1
102
MATERIAL
148
0.0
149
0.0
149
0.0
 93
        0
 94
      127
282
     0
 72
     1
 77
     1
171
     1
175
     1
179
     1
273
     0
  0
XRECORD
  5
18E5
102
{ACAD_REACTORS
330
18E4
102
}
330
18E4
100
AcDbXrecord
280
     1
102
MATERIAL
148
0.0
149
0.0
149
0.0
 93
        0
 94
      127
282
     0
 72
     1
 77
     1
171
     1
175
     1
179
     1
273
     0
  0
XRECORD
  5
1A7A
102
{ACAD_REACTORS
330
1A79
102
}
330
1A79
100
AcDbXrecord
280
     1
102
ACAD_ROUNDTRIP_2012_MLEADER_STYLE
298
     1
  0
XRECORD
  5
1A7C
102
{ACAD_REACTORS
330
1A7B
102
}
330
1A7B
100
AcDbXrecord
280
     1
102
SHADEPLOT
 70
     0
102
SHADEPLOTRESLEVEL
 70
     2
102
SHADEPLOTCUSTOMDPI
 70
   300
  0
XRECORD
  5
1A7E
102
{ACAD_REACTORS
330
1A7D
102
}
330
1A7D
100
AcDbXrecord
280
     1
102
SHADEPLOT
 70
     0
102
SHADEPLOTRESLEVEL
 70
     2
102
SHADEPLOTCUSTOMDPI
 70
   300
  0
XRECORD
  5
1A98
102
{ACAD_REACTORS
330
1A97
102
}
330
1A97
100
AcDbXrecord
280
     1
102
DISPLAYNAME
  1
Imperial24
102
FLAGS
 90
        0
  0
XRECORD
  5
1A9C
102
{ACAD_REACTORS
330
1A9B
102
}
330
1A9B
100
AcDbXrecord
280
     1
102
DISPLAYNAME
  1
Metric50
102
FLAGS
 90
        0
  0
CELLSTYLEMAP
  5
1A4D
102
{ACAD_REACTORS
330
577
102
}
330
577
100
AcDbCellStyleMap
 90
        3
300
CELLSTYLE
  1
TABLEFORMAT_BEGIN
 90
        5
170
     1
 91
        0
 92
    32768
 62
   257
 93
        1
300
CONTENTFORMAT
  1
CONTENTFORMAT_BEGIN
 90
        0
 91
        0
 92
        4
 93
        0
300

 40
0.0
140
1.0
 94
        5
 62
     0
340
1E
144
6.0
309
CONTENTFORMAT_END
171
     1
301
MARGIN
  1
CELLMARGIN_BEGIN
 40
1.5
 40
1.5
 40
1.5
 40
1.5
 40
0.18
 40
0.18
309
CELLMARGIN_END
 94
        6
 95
        1
302
GRIDFORMAT
  1
GRIDFORMAT_BEGIN
 90
        0
 91
        1
 62
     0
 92
       -2
340
0
 93
        0
 40
0.045
309
GRIDFORMAT_END
 95
        2
302
GRIDFORMAT
  1
GRIDFORMAT_BEGIN
 90
        0
 91
        1
 62
     0
 92
       -2
340
0
 93
        0
 40
0.045
309
GRIDFORMAT_END
 95
        4
302
GRIDFORMAT
  1
GRIDFORMAT_BEGIN
 90
        0
 91
        1
 62
     0
 92
       -2
340
0
 93
        0
 40
0.045
309
GRIDFORMAT_END
 95
        8
302
GRIDFORMAT
  1
GRIDFORMAT_BEGIN
 90
        0
 91
        1
 62
     0
 92
       -2
340
0
 93
        0
 40
0.045
309
GRIDFORMAT_END
 95
       16
302
GRIDFORMAT
  1
GRIDFORMAT_BEGIN
 90
        0
 91
        1
 62
     0
 92
       -2
340
0
 93
        0
 40
0.045
309
GRIDFORMAT_END
 95
       32
302
GRIDFORMAT
  1
GRIDFORMAT_BEGIN
 90
        0
 91
        1
 62
     0
 92
       -2
340
0
 93
        0
 40
0.045
309
GRIDFORMAT_END
309
TABLEFORMAT_END
  1
CELLSTYLE_BEGIN
 90
        1
 91
        1
300
_TITLE
309
CELLSTYLE_END
300
CELLSTYLE
  1
TABLEFORMAT_BEGIN
 90
        5
170
     1
 91
        0
 92
        0
 62
   257
 93
        1
300
CONTENTFORMAT
  1
CONTENTFORMAT_BEGIN
 90
        0
 91
        0
 92
        4
 93
        0
300

 40
0.0
140
1.0
 94
        5
 62
     0
340
10
144
4.5
309
CONTENTFORMAT_END
171
     1
301
MARGIN
  1
CELLMARGIN_BEGIN
 40
1.5
 40
1.5
 40
1.5
 40
1.5
 40
0.18
 40
0.18
309
CELLMARGIN_END
 94
        6
 95
        1
302
GRIDFORMAT
  1
GRIDFORMAT_BEGIN
 90
        0
 91
        1
 62
     0
 92
       -2
340
0
 93
        0
 40
0.045
309
GRIDFORMAT_END
 95
        2
302
GRIDFORMAT
  1
GRIDFORMAT_BEGIN
 90
        0
 91
        1
 62
     0
 92
       -2
340
0
 93
        0
 40
0.045
309
GRIDFORMAT_END
 95
        4
302
GRIDFORMAT
  1
GRIDFORMAT_BEGIN
 90
        0
 91
        1
 62
     0
 92
       -2
340
0
 93
        0
 40
0.045
309
GRIDFORMAT_END
 95
        8
302
GRIDFORMAT
  1
GRIDFORMAT_BEGIN
 90
        0
 91
        1
 62
     0
 92
       -2
340
0
 93
        0
 40
0.045
309
GRIDFORMAT_END
 95
       16
302
GRIDFORMAT
  1
GRIDFORMAT_BEGIN
 90
        0
 91
        1
 62
     0
 92
       -2
340
0
 93
        0
 40
0.045
309
GRIDFORMAT_END
 95
       32
302
GRIDFORMAT
  1
GRIDFORMAT_BEGIN
 90
        0
 91
        1
 62
     0
 92
       -2
340
0
 93
        0
 40
0.045
309
GRIDFORMAT_END
309
TABLEFORMAT_END
  1
CELLSTYLE_BEGIN
 90
        2
 91
        1
300
_HEADER
309
CELLSTYLE_END
300
CELLSTYLE
  1
TABLEFORMAT_BEGIN
 90
        5
170
     1
 91
        0
 92
        0
 62
   257
 93
        1
300
CONTENTFORMAT
  1
CONTENTFORMAT_BEGIN
 90
        0
 91
        0
 92
        4
 93
        0
300

 40
0.0
140
1.0
 94
        2
 62
     0
340
10
144
4.5
309
CONTENTFORMAT_END
171
     1
301
MARGIN
  1
CELLMARGIN_BEGIN
 40
1.5
 40
1.5
 40
1.5
 40
1.5
 40
0.18
 40
0.18
309
CELLMARGIN_END
 94
        6
 95
        1
302
GRIDFORMAT
  1
GRIDFORMAT_BEGIN
 90
        0
 91
        1
 62
     0
 92
       -2
340
0
 93
        0
 40
0.045
309
GRIDFORMAT_END
 95
        2
302
GRIDFORMAT
  1
GRIDFORMAT_BEGIN
 90
        0
 91
        1
 62
     0
 92
       -2
340
0
 93
        0
 40
0.045
309
GRIDFORMAT_END
 95
        4
302
GRIDFORMAT
  1
GRIDFORMAT_BEGIN
 90
        0
 91
        1
 62
     0
 92
       -2
340
0
 93
        0
 40
0.045
309
GRIDFORMAT_END
 95
        8
302
GRIDFORMAT
  1
GRIDFORMAT_BEGIN
 90
        0
 91
        1
 62
     0
 92
       -2
340
0
 93
        0
 40
0.045
309
GRIDFORMAT_END
 95
       16
302
GRIDFORMAT
  1
GRIDFORMAT_BEGIN
 90
        0
 91
        1
 62
     0
 92
       -2
340
0
 93
        0
 40
0.045
309
GRIDFORMAT_END
 95
       32
302
GRIDFORMAT
  1
GRIDFORMAT_BEGIN
 90
        0
 91
        1
 62
     0
 92
       -2
340
0
 93
        0
 40
0.045
309
GRIDFORMAT_END
309
TABLEFORMAT_END
  1
CELLSTYLE_BEGIN
 90
        3
 91
        2
300
_DATA
309
CELLSTYLE_END
  0
XRECORD
  5
1A58
102
{ACAD_REACTORS
330
577
102
}
330
577
100
AcDbXrecord
280
     1
102
ACAD_ROUNDTRIP_PRE2007_TABLESTYLE
 90
        4
 91
        0
  1

 92
        4
 93
        0
  2

 94
        4
 95
        0
  3

  0
XRECORD
  5
1A64
102
{ACAD_REACTORS
330
1A63
102
}
330
1A63
100
AcDbXrecord
280
     1
102
RTVSPost2010Prop28
280
     1
102
RTVSPost2010PropOp28
 70
     1
102
RTVSPost2010Prop29
280
     1
102
RTVSPost2010PropOp29
 70
     1
102
RTVSPost2010Prop30
280
     0
102
RTVSPost2010PropOp30
 70
     1
102
RTVSPost2010Prop31
280
     0
102
RTVSPost2010PropOp31
 70
     1
102
RTVSPost2010Prop32
280
     0
102
RTVSPost2010PropOp32
 70
     1
102
RTVSPost2010Prop33
280
     0
102
RTVSPost2010PropOp33
 70
     1
102
RTVSPost2010Prop34
280
     0
102
RTVSPost2010PropOp34
 70
     1
102
RTVSPost2010Prop35
280
     0
102
RTVSPost2010PropOp35
 70
     1
102
RTVSPost2010Prop36
280
     0
102
RTVSPost2010PropOp36
 70
     1
102
RTVSPost2010Prop37
 90
       50
102
RTVSPost2010PropOp37
 70
     1
102
RTVSPost2010Prop38
140
0.0
102
RTVSPost2010PropOp38
 70
     1
102
RTVSPost2010Prop39
140
1.0
102
RTVSPost2010PropOp39
 70
     1
102
RTVSPost2010Prop40
 90
        0
102
RTVSPost2010PropOp40
 70
     1
102
RTVSPost2010Prop41ColorIndex
 90
       18
102
RTVSPost2010Prop41ColorRGB
 90
        0
102
RTVSPost2010PropOp41
 70
     1
102
RTVSPost2010Prop42
 90
       50
102
RTVSPost2010PropOp42
 70
     1
102
RTVSPost2010Prop43
 90
        3
102
RTVSPost2010PropOp43
 70
     1
102
RTVSPost2010Prop44ColorIndex
 90
        5
102
RTVSPost2010Prop44ColorRGB
 90
      255
102
RTVSPost2010PropOp44
 70
     1
102
RTVSPost2010Prop45
280
     0
102
RTVSPost2010PropOp45
 70
     1
102
RTVSPost2010Prop46
 90
       50
102
RTVSPost2010PropOp46
 70
     1
102
RTVSPost2010Prop47
 90
       50
102
RTVSPost2010PropOp47
 70
     1
102
RTVSPost2010Prop48
 90
       50
102
RTVSPost2010PropOp48
 70
     1
102
RTVSPost2010Prop49
280
     0
102
RTVSPost2010PropOp49
 70
     1
102
RTVSPost2010Prop50
 90
       50
102
RTVSPost2010PropOp50
 70
     1
102
RTVSPost2010Prop51ColorIndex
 90
      256
102
RTVSPost2010Prop51ColorRGB
 90
-16777216
102
RTVSPost2010PropOp51
 70
     0
102
RTVSPost2010Prop52
140
1.0
102
RTVSPost2010PropOp52
 70
     0
102
RTVSPost2010Prop53
 90
        2
102
RTVSPost2010PropOp53
 70
     1
102
RTVSPost2010Prop54
  1
strokes_ogs.tif
102
RTVSPost2010PropOp54
 70
     1
102
RTVSPost2010Prop55
280
     0
102
RTVSPost2010PropOp55
 70
     1
102
RTVSPost2010Prop56
140
1.0
102
RTVSPost2010PropOp56
 70
     1
102
RTVSPost2010Prop57
140
1.0
102
RTVSPost2010PropOp57
 70
     1
102
RTVSPropertyOp0
 70
     1
102
RTVSPropertyOp1
 70
     1
102
RTVSPropertyOp2
 70
     1
102
RTVSPropertyOp3
 70
     1
102
RTVSPropertyOp4
 70
     1
102
RTVSPropertyOp5
 70
     1
102
RTVSPropertyOp6
 70
     1
102
RTVSPropertyOp7
 70
     1
102
RTVSPropertyOp8
 70
     1
102
RTVSPropertyOp9
 70
     1
102
RTVSPropertyOp10
 70
     1
102
RTVSPropertyOp11
 70
     1
102
RTVSPropertyOp12
 70
     1
102
RTVSPropertyOp13
 70
     1
102
RTVSPropertyOp14
 70
     1
102
RTVSPropertyOp15
 70
     1
102
RTVSPropertyOp16
 70
     1
102
RTVSPropertyOp17
 70
     1
102
RTVSPropertyOp18
 70
     1
102
RTVSPropertyOp19
 70
     1
102
RTVSPropertyOp20
 70
     1
102
RTVSPropertyOp21
 70
     1
102
RTVSPropertyOp22
 70
     1
102
RTVSPropertyOp23
 70
     1
102
RTVSPropertyOp24
 70
     1
102
RTVSPropertyOp25
 70
     1
102
RTVSPropertyOp26
 70
     1
102
RTVSPropertyOp27
 70
     1
102
RTVSPropertyOp28
 70
     1
102
RTVSPropertyOp29
 70
     1
102
RTVSPropertyOp30
 70
     1
102
RTVSPropertyOp31
 70
     1
102
RTVSPropertyOp32
 70
     1
102
RTVSPropertyOp33
 70
     1
102
RTVSPropertyOp34
 70
     1
102
RTVSPropertyOp35
 70
     1
102
RTVSPropertyOp36
 70
     1
102
RTVSPropertyOp37
 70
     1
102
RTVSPropertyOp38
 70
     1
102
RTVSPropertyOp39
 70
     1
102
RTVSPropertyOp40
 70
     1
102
RTVSPropertyOp41
 70
     1
102
RTVSPropertyOp42
 70
     1
102
RTVSPropertyOp43
 70
     1
102
RTVSPropertyOp44
 70
     1
102
RTVSPropertyOp45
 70
     1
102
RTVSPropertyOp46
 70
     1
102
RTVSPropertyOp47
 70
     1
102
RTVSPropertyOp48
 70
     1
102
RTVSPropertyOp49
 70
     1
102
RTVSPropertyOp50
 70
     1
102
RTVSPropertyOp51
 70
     0
102
RTVSPropertyOp52
 70
     0
102
RTVSPropertyOp53
 70
     1
102
RTVSPropertyOp54
 70
     1
102
RTVSPropertyOp55
 70
     1
102
RTVSPropertyOp56
 70
     1
102
RTVSPropertyOp57
 70
     1
102
RTVSPropertyOp58
 70
     1
102
RTVSPropertyOp59
 70
     1
102
RTVSPropertyOp60
 70
     1
102
RTVSPropertyOp61
 70
     1
102
RTVSPropertyOp62
 70
     1
  0
XRECORD
  5
1A68
102
{ACAD_REACTORS
330
1A67
102
}
330
1A67
100
AcDbXrecord
280
     1
102
RTVSPost2010Prop28
280
     0
102
RTVSPost2010PropOp28
 70
     1
102
RTVSPost2010Prop29
280
     1
102
RTVSPost2010PropOp29
 70
     1
102
RTVSPost2010Prop30
280
     1
102
RTVSPost2010PropOp30
 70
     1
102
RTVSPost2010Prop31
280
     0
102
RTVSPost2010PropOp31
 70
     1
102
RTVSPost2010Prop32
280
     0
102
RTVSPost2010PropOp32
 70
     1
102
RTVSPost2010Prop33
280
     0
102
RTVSPost2010PropOp33
 70
     1
102
RTVSPost2010Prop34
280
     0
102
RTVSPost2010PropOp34
 70
     1
102
RTVSPost2010Prop35
280
     0
102
RTVSPost2010PropOp35
 70
     1
102
RTVSPost2010Prop36
280
     0
102
RTVSPost2010PropOp36
 70
     1
102
RTVSPost2010Prop37
 90
       50
102
RTVSPost2010PropOp37
 70
     1
102
RTVSPost2010Prop38
140
0.0
102
RTVSPost2010PropOp38
 70
     1
102
RTVSPost2010Prop39
140
1.0
102
RTVSPost2010PropOp39
 70
     1
102
RTVSPost2010Prop40
 90
        0
102
RTVSPost2010PropOp40
 70
     1
102
RTVSPost2010Prop41ColorIndex
 90
       18
102
RTVSPost2010Prop41ColorRGB
 90
        0
102
RTVSPost2010PropOp41
 70
     1
102
RTVSPost2010Prop42
 90
       50
102
RTVSPost2010PropOp42
 70
     1
102
RTVSPost2010Prop43
 90
        3
102
RTVSPost2010PropOp43
 70
     1
102
RTVSPost2010Prop44ColorIndex
 90
        5
102
RTVSPost2010Prop44ColorRGB
 90
      255
102
RTVSPost2010PropOp44
 70
     1
102
RTVSPost2010Prop45
280
     0
102
RTVSPost2010PropOp45
 70
     1
102
RTVSPost2010Prop46
 90
       50
102
RTVSPost2010PropOp46
 70
     1
102
RTVSPost2010Prop47
 90
       50
102
RTVSPost2010PropOp47
 70
     1
102
RTVSPost2010Prop48
 90
       50
102
RTVSPost2010PropOp48
 70
     1
102
RTVSPost2010Prop49
280
     0
102
RTVSPost2010PropOp49
 70
     1
102
RTVSPost2010Prop50
 90
       50
102
RTVSPost2010PropOp50
 70
     1
102
RTVSPost2010Prop51ColorIndex
 90
      256
102
RTVSPost2010Prop51ColorRGB
 90
-16777216
102
RTVSPost2010PropOp51
 70
     0
102
RTVSPost2010Prop52
140
1.0
102
RTVSPost2010PropOp52
 70
     0
102
RTVSPost2010Prop53
 90
        2
102
RTVSPost2010PropOp53
 70
     1
102
RTVSPost2010Prop54
  1
strokes_ogs.tif
102
RTVSPost2010PropOp54
 70
     1
102
RTVSPost2010Prop55
280
     0
102
RTVSPost2010PropOp55
 70
     1
102
RTVSPost2010Prop56
140
1.0
102
RTVSPost2010PropOp56
 70
     1
102
RTVSPost2010Prop57
140
1.0
102
RTVSPost2010PropOp57
 70
     1
102
RTVSPropertyOp0
 70
     1
102
RTVSPropertyOp1
 70
     1
102
RTVSPropertyOp2
 70
     1
102
RTVSPropertyOp3
 70
     1
102
RTVSPropertyOp4
 70
     1
102
RTVSPropertyOp5
 70
     1
102
RTVSPropertyOp6
 70
     1
102
RTVSPropertyOp7
 70
     1
102
RTVSPropertyOp8
 70
     1
102
RTVSPropertyOp9
 70
     1
102
RTVSPropertyOp10
 70
     1
102
RTVSPropertyOp11
 70
     1
102
RTVSPropertyOp12
 70
     1
102
RTVSPropertyOp13
 70
     1
102
RTVSPropertyOp14
 70
     1
102
RTVSPropertyOp15
 70
     1
102
RTVSPropertyOp16
 70
     1
102
RTVSPropertyOp17
 70
     1
102
RTVSPropertyOp18
 70
     1
102
RTVSPropertyOp19
 70
     1
102
RTVSPropertyOp20
 70
     1
102
RTVSPropertyOp21
 70
     1
102
RTVSPropertyOp22
 70
     1
102
RTVSPropertyOp23
 70
     1
102
RTVSPropertyOp24
 70
     1
102
RTVSPropertyOp25
 70
     1
102
RTVSPropertyOp26
 70
     1
102
RTVSPropertyOp27
 70
     1
102
RTVSPropertyOp28
 70
     1
102
RTVSPropertyOp29
 70
     1
102
RTVSPropertyOp30
 70
     1
102
RTVSPropertyOp31
 70
     1
102
RTVSPropertyOp32
 70
     1
102
RTVSPropertyOp33
 70
     1
102
RTVSPropertyOp34
 70
     1
102
RTVSPropertyOp35
 70
     1
102
RTVSPropertyOp36
 70
     1
102
RTVSPropertyOp37
 70
     1
102
RTVSPropertyOp38
 70
     1
102
RTVSPropertyOp39
 70
     1
102
RTVSPropertyOp40
 70
     1
102
RTVSPropertyOp41
 70
     1
102
RTVSPropertyOp42
 70
     1
102
RTVSPropertyOp43
 70
     1
102
RTVSPropertyOp44
 70
     1
102
RTVSPropertyOp45
 70
     1
102
RTVSPropertyOp46
 70
     1
102
RTVSPropertyOp47
 70
     1
102
RTVSPropertyOp48
 70
     1
102
RTVSPropertyOp49
 70
     1
102
RTVSPropertyOp50
 70
     1
102
RTVSPropertyOp51
 70
     0
102
RTVSPropertyOp52
 70
     0
102
RTVSPropertyOp53
 70
     1
102
RTVSPropertyOp54
 70
     1
102
RTVSPropertyOp55
 70
     1
102
RTVSPropertyOp56
 70
     1
102
RTVSPropertyOp57
 70
     1
102
RTVSPropertyOp58
 70
     1
102
RTVSPropertyOp59
 70
     1
102
RTVSPropertyOp60
 70
     1
102
RTVSPropertyOp61
 70
     1
102
RTVSPropertyOp62
 70
     1
  0
XRECORD
  5
1A66
102
{ACAD_REACTORS
330
1A65
102
}
330
1A65
100
AcDbXrecord
280
     1
102
RTVSPost2010Prop28
280
     0
102
RTVSPost2010PropOp28
 70
     1
102
RTVSPost2010Prop29
280
     1
102
RTVSPost2010PropOp29
 70
     1
102
RTVSPost2010Prop30
280
     1
102
RTVSPost2010PropOp30
 70
     1
102
RTVSPost2010Prop31
280
     0
102
RTVSPost2010PropOp31
 70
     1
102
RTVSPost2010Prop32
280
     0
102
RTVSPost2010PropOp32
 70
     1
102
RTVSPost2010Prop33
280
     0
102
RTVSPost2010PropOp33
 70
     1
102
RTVSPost2010Prop34
280
     0
102
RTVSPost2010PropOp34
 70
     1
102
RTVSPost2010Prop35
280
     0
102
RTVSPost2010PropOp35
 70
     1
102
RTVSPost2010Prop36
280
     0
102
RTVSPost2010PropOp36
 70
     1
102
RTVSPost2010Prop37
 90
       50
102
RTVSPost2010PropOp37
 70
     1
102
RTVSPost2010Prop38
140
0.0
102
RTVSPost2010PropOp38
 70
     1
102
RTVSPost2010Prop39
140
1.0
102
RTVSPost2010PropOp39
 70
     1
102
RTVSPost2010Prop40
 90
        0
102
RTVSPost2010PropOp40
 70
     1
102
RTVSPost2010Prop41ColorIndex
 90
       18
102
RTVSPost2010Prop41ColorRGB
 90
        0
102
RTVSPost2010PropOp41
 70
     1
102
RTVSPost2010Prop42
 90
       50
102
RTVSPost2010PropOp42
 70
     1
102
RTVSPost2010Prop43
 90
        3
102
RTVSPost2010PropOp43
 70
     1
102
RTVSPost2010Prop44ColorIndex
 90
        5
102
RTVSPost2010Prop44ColorRGB
 90
      255
102
RTVSPost2010PropOp44
 70
     1
102
RTVSPost2010Prop45
280
     0
102
RTVSPost2010PropOp45
 70
     1
102
RTVSPost2010Prop46
 90
       50
102
RTVSPost2010PropOp46
 70
     1
102
RTVSPost2010Prop47
 90
       50
102
RTVSPost2010PropOp47
 70
     1
102
RTVSPost2010Prop48
 90
       50
102
RTVSPost2010PropOp48
 70
     1
102
RTVSPost2010Prop49
280
     0
102
RTVSPost2010PropOp49
 70
     1
102
RTVSPost2010Prop50
 90
       50
102
RTVSPost2010PropOp50
 70
     1
102
RTVSPost2010Prop51ColorIndex
 90
      256
102
RTVSPost2010Prop51ColorRGB
 90
-16777216
102
RTVSPost2010PropOp51
 70
     0
102
RTVSPost2010Prop52
140
1.0
102
RTVSPost2010PropOp52
 70
     0
102
RTVSPost2010Prop53
 90
        2
102
RTVSPost2010PropOp53
 70
     1
102
RTVSPost2010Prop54
  1
strokes_ogs.tif
102
RTVSPost2010PropOp54
 70
     1
102
RTVSPost2010Prop55
280
     0
102
RTVSPost2010PropOp55
 70
     1
102
RTVSPost2010Prop56
140
1.0
102
RTVSPost2010PropOp56
 70
     1
102
RTVSPost2010Prop57
140
1.0
102
RTVSPost2010PropOp57
 70
     1
102
RTVSPropertyOp0
 70
     1
102
RTVSPropertyOp1
 70
     1
102
RTVSPropertyOp2
 70
     1
102
RTVSPropertyOp3
 70
     1
102
RTVSPropertyOp4
 70
     1
102
RTVSPropertyOp5
 70
     1
102
RTVSPropertyOp6
 70
     1
102
RTVSPropertyOp7
 70
     1
102
RTVSPropertyOp8
 70
     1
102
RTVSPropertyOp9
 70
     1
102
RTVSPropertyOp10
 70
     1
102
RTVSPropertyOp11
 70
     1
102
RTVSPropertyOp12
 70
     1
102
RTVSPropertyOp13
 70
     1
102
RTVSPropertyOp14
 70
     1
102
RTVSPropertyOp15
 70
     1
102
RTVSPropertyOp16
 70
     1
102
RTVSPropertyOp17
 70
     1
102
RTVSPropertyOp18
 70
     1
102
RTVSPropertyOp19
 70
     1
102
RTVSPropertyOp20
 70
     1
102
RTVSPropertyOp21
 70
     1
102
RTVSPropertyOp22
 70
     1
102
RTVSPropertyOp23
 70
     1
102
RTVSPropertyOp24
 70
     1
102
RTVSPropertyOp25
 70
     1
102
RTVSPropertyOp26
 70
     1
102
RTVSPropertyOp27
 70
     1
102
RTVSPropertyOp28
 70
     1
102
RTVSPropertyOp29
 70
     1
102
RTVSPropertyOp30
 70
     1
102
RTVSPropertyOp31
 70
     1
102
RTVSPropertyOp32
 70
     1
102
RTVSPropertyOp33
 70
     1
102
RTVSPropertyOp34
 70
     1
102
RTVSPropertyOp35
 70
     1
102
RTVSPropertyOp36
 70
     1
102
RTVSPropertyOp37
 70
     1
102
RTVSPropertyOp38
 70
     1
102
RTVSPropertyOp39
 70
     1
102
RTVSPropertyOp40
 70
     1
102
RTVSPropertyOp41
 70
     1
102
RTVSPropertyOp42
 70
     1
102
RTVSPropertyOp43
 70
     1
102
RTVSPropertyOp44
 70
     1
102
RTVSPropertyOp45
 70
     1
102
RTVSPropertyOp46
 70
     1
102
RTVSPropertyOp47
 70
     1
102
RTVSPropertyOp48
 70
     1
102
RTVSPropertyOp49
 70
     1
102
RTVSPropertyOp50
 70
     1
102
RTVSPropertyOp51
 70
     0
102
RTVSPropertyOp52
 70
     0
102
RTVSPropertyOp53
 70
     1
102
RTVSPropertyOp54
 70
     1
102
RTVSPropertyOp55
 70
     1
102
RTVSPropertyOp56
 70
     1
102
RTVSPropertyOp57
 70
     1
102
RTVSPropertyOp58
 70
     1
102
RTVSPropertyOp59
 70
     1
102
RTVSPropertyOp60
 70
     1
102
RTVSPropertyOp61
 70
     1
102
RTVSPropertyOp62
 70
     1
  0
XRECORD
  5
1A62
102
{ACAD_REACTORS
330
1A61
102
}
330
1A61
100
AcDbXrecord
280
     1
102
RTVSPost2010Prop28
280
     0
102
RTVSPost2010PropOp28
 70
     1
102
RTVSPost2010Prop29
280
     1
102
RTVSPost2010PropOp29
 70
     1
102
RTVSPost2010Prop30
280
     1
102
RTVSPost2010PropOp30
 70
     1
102
RTVSPost2010Prop31
280
     0
102
RTVSPost2010PropOp31
 70
     1
102
RTVSPost2010Prop32
280
     0
102
RTVSPost2010PropOp32
 70
     1
102
RTVSPost2010Prop33
280
     0
102
RTVSPost2010PropOp33
 70
     1
102
RTVSPost2010Prop34
280
     0
102
RTVSPost2010PropOp34
 70
     1
102
RTVSPost2010Prop35
280
     0
102
RTVSPost2010PropOp35
 70
     1
102
RTVSPost2010Prop36
280
     0
102
RTVSPost2010PropOp36
 70
     1
102
RTVSPost2010Prop37
 90
       50
102
RTVSPost2010PropOp37
 70
     1
102
RTVSPost2010Prop38
140
0.0
102
RTVSPost2010PropOp38
 70
     1
102
RTVSPost2010Prop39
140
1.0
102
RTVSPost2010PropOp39
 70
     1
102
RTVSPost2010Prop40
 90
        0
102
RTVSPost2010PropOp40
 70
     1
102
RTVSPost2010Prop41ColorIndex
 90
       18
102
RTVSPost2010Prop41ColorRGB
 90
        0
102
RTVSPost2010PropOp41
 70
     1
102
RTVSPost2010Prop42
 90
       50
102
RTVSPost2010PropOp42
 70
     1
102
RTVSPost2010Prop43
 90
        3
102
RTVSPost2010PropOp43
 70
     1
102
RTVSPost2010Prop44ColorIndex
 90
        5
102
RTVSPost2010Prop44ColorRGB
 90
      255
102
RTVSPost2010PropOp44
 70
     1
102
RTVSPost2010Prop45
280
     0
102
RTVSPost2010PropOp45
 70
     1
102
RTVSPost2010Prop46
 90
       50
102
RTVSPost2010PropOp46
 70
     1
102
RTVSPost2010Prop47
 90
       50
102
RTVSPost2010PropOp47
 70
     1
102
RTVSPost2010Prop48
 90
       50
102
RTVSPost2010PropOp48
 70
     1
102
RTVSPost2010Prop49
280
     0
102
RTVSPost2010PropOp49
 70
     1
102
RTVSPost2010Prop50
 90
       50
102
RTVSPost2010PropOp50
 70
     1
102
RTVSPost2010Prop51ColorIndex
 90
      256
102
RTVSPost2010Prop51ColorRGB
 90
-16777216
102
RTVSPost2010PropOp51
 70
     0
102
RTVSPost2010Prop52
140
1.0
102
RTVSPost2010PropOp52
 70
     0
102
RTVSPost2010Prop53
 90
        2
102
RTVSPost2010PropOp53
 70
     1
102
RTVSPost2010Prop54
  1
strokes_ogs.tif
102
RTVSPost2010PropOp54
 70
     1
102
RTVSPost2010Prop55
280
     0
102
RTVSPost2010PropOp55
 70
     1
102
RTVSPost2010Prop56
140
1.0
102
RTVSPost2010PropOp56
 70
     1
102
RTVSPost2010Prop57
140
1.0
102
RTVSPost2010PropOp57
 70
     1
102
RTVSPropertyOp0
 70
     1
102
RTVSPropertyOp1
 70
     1
102
RTVSPropertyOp2
 70
     1
102
RTVSPropertyOp3
 70
     1
102
RTVSPropertyOp4
 70
     1
102
RTVSPropertyOp5
 70
     1
102
RTVSPropertyOp6
 70
     1
102
RTVSPropertyOp7
 70
     1
102
RTVSPropertyOp8
 70
     1
102
RTVSPropertyOp9
 70
     1
102
RTVSPropertyOp10
 70
     1
102
RTVSPropertyOp11
 70
     1
102
RTVSPropertyOp12
 70
     1
102
RTVSPropertyOp13
 70
     1
102
RTVSPropertyOp14
 70
     1
102
RTVSPropertyOp15
 70
     1
102
RTVSPropertyOp16
 70
     1
102
RTVSPropertyOp17
 70
     1
102
RTVSPropertyOp18
 70
     1
102
RTVSPropertyOp19
 70
     1
102
RTVSPropertyOp20
 70
     1
102
RTVSPropertyOp21
 70
     1
102
RTVSPropertyOp22
 70
     1
102
RTVSPropertyOp23
 70
     1
102
RTVSPropertyOp24
 70
     1
102
RTVSPropertyOp25
 70
     1
102
RTVSPropertyOp26
 70
     1
102
RTVSPropertyOp27
 70
     1
102
RTVSPropertyOp28
 70
     1
102
RTVSPropertyOp29
 70
     1
102
RTVSPropertyOp30
 70
     1
102
RTVSPropertyOp31
 70
     1
102
RTVSPropertyOp32
 70
     1
102
RTVSPropertyOp33
 70
     1
102
RTVSPropertyOp34
 70
     1
102
RTVSPropertyOp35
 70
     1
102
RTVSPropertyOp36
 70
     1
102
RTVSPropertyOp37
 70
     1
102
RTVSPropertyOp38
 70
     1
102
RTVSPropertyOp39
 70
     1
102
RTVSPropertyOp40
 70
     1
102
RTVSPropertyOp41
 70
     1
102
RTVSPropertyOp42
 70
     1
102
RTVSPropertyOp43
 70
     1
102
RTVSPropertyOp44
 70
     1
102
RTVSPropertyOp45
 70
     1
102
RTVSPropertyOp46
 70
     1
102
RTVSPropertyOp47
 70
     1
102
RTVSPropertyOp48
 70
     1
102
RTVSPropertyOp49
 70
     1
102
RTVSPropertyOp50
 70
     1
102
RTVSPropertyOp51
 70
     0
102
RTVSPropertyOp52
 70
     0
102
RTVSPropertyOp53
 70
     1
102
RTVSPropertyOp54
 70
     1
102
RTVSPropertyOp55
 70
     1
102
RTVSPropertyOp56
 70
     1
102
RTVSPropertyOp57
 70
     1
102
RTVSPropertyOp58
 70
     1
102
RTVSPropertyOp59
 70
     1
102
RTVSPropertyOp60
 70
     1
102
RTVSPropertyOp61
 70
     1
102
RTVSPropertyOp62
 70
     1
  0
XRECORD
  5
1A70
102
{ACAD_REACTORS
330
1A6F
102
}
330
1A6F
100
AcDbXrecord
280
     1
102
RTVSPost2010Prop28
280
     0
102
RTVSPost2010PropOp28
 70
     1
102
RTVSPost2010Prop29
280
     1
102
RTVSPost2010PropOp29
 70
     1
102
RTVSPost2010Prop30
280
     1
102
RTVSPost2010PropOp30
 70
     1
102
RTVSPost2010Prop31
280
     0
102
RTVSPost2010PropOp31
 70
     1
102
RTVSPost2010Prop32
280
     0
102
RTVSPost2010PropOp32
 70
     1
102
RTVSPost2010Prop33
280
     0
102
RTVSPost2010PropOp33
 70
     1
102
RTVSPost2010Prop34
280
     0
102
RTVSPost2010PropOp34
 70
     1
102
RTVSPost2010Prop35
280
     0
102
RTVSPost2010PropOp35
 70
     1
102
RTVSPost2010Prop36
280
     0
102
RTVSPost2010PropOp36
 70
     1
102
RTVSPost2010Prop37
 90
       50
102
RTVSPost2010PropOp37
 70
     1
102
RTVSPost2010Prop38
140
0.0
102
RTVSPost2010PropOp38
 70
     1
102
RTVSPost2010Prop39
140
1.0
102
RTVSPost2010PropOp39
 70
     1
102
RTVSPost2010Prop40
 90
        0
102
RTVSPost2010PropOp40
 70
     1
102
RTVSPost2010Prop41ColorIndex
 90
       18
102
RTVSPost2010Prop41ColorRGB
 90
        0
102
RTVSPost2010PropOp41
 70
     1
102
RTVSPost2010Prop42
 90
       50
102
RTVSPost2010PropOp42
 70
     1
102
RTVSPost2010Prop43
 90
        3
102
RTVSPost2010PropOp43
 70
     1
102
RTVSPost2010Prop44ColorIndex
 90
        5
102
RTVSPost2010Prop44ColorRGB
 90
      255
102
RTVSPost2010PropOp44
 70
     1
102
RTVSPost2010Prop45
280
     0
102
RTVSPost2010PropOp45
 70
     1
102
RTVSPost2010Prop46
 90
       50
102
RTVSPost2010PropOp46
 70
     1
102
RTVSPost2010Prop47
 90
       50
102
RTVSPost2010PropOp47
 70
     1
102
RTVSPost2010Prop48
 90
       50
102
RTVSPost2010PropOp48
 70
     1
102
RTVSPost2010Prop49
280
     0
102
RTVSPost2010PropOp49
 70
     1
102
RTVSPost2010Prop50
 90
       50
102
RTVSPost2010PropOp50
 70
     1
102
RTVSPost2010Prop51ColorIndex
 90
      256
102
RTVSPost2010Prop51ColorRGB
 90
-16777216
102
RTVSPost2010PropOp51
 70
     0
102
RTVSPost2010Prop52
140
1.0
102
RTVSPost2010PropOp52
 70
     0
102
RTVSPost2010Prop53
 90
        2
102
RTVSPost2010PropOp53
 70
     1
102
RTVSPost2010Prop54
  1
strokes_ogs.tif
102
RTVSPost2010PropOp54
 70
     1
102
RTVSPost2010Prop55
280
     0
102
RTVSPost2010PropOp55
 70
     1
102
RTVSPost2010Prop56
140
1.0
102
RTVSPost2010PropOp56
 70
     1
102
RTVSPost2010Prop57
140
1.0
102
RTVSPost2010PropOp57
 70
     1
102
RTVSPropertyOp0
 70
     1
102
RTVSPropertyOp1
 70
     1
102
RTVSPropertyOp2
 70
     1
102
RTVSPropertyOp3
 70
     1
102
RTVSPropertyOp4
 70
     1
102
RTVSPropertyOp5
 70
     1
102
RTVSPropertyOp6
 70
     1
102
RTVSPropertyOp7
 70
     1
102
RTVSPropertyOp8
 70
     1
102
RTVSPropertyOp9
 70
     1
102
RTVSPropertyOp10
 70
     1
102
RTVSPropertyOp11
 70
     1
102
RTVSPropertyOp12
 70
     1
102
RTVSPropertyOp13
 70
     1
102
RTVSPropertyOp14
 70
     1
102
RTVSPropertyOp15
 70
     1
102
RTVSPropertyOp16
 70
     1
102
RTVSPropertyOp17
 70
     1
102
RTVSPropertyOp18
 70
     1
102
RTVSPropertyOp19
 70
     1
102
RTVSPropertyOp20
 70
     1
102
RTVSPropertyOp21
 70
     1
102
RTVSPropertyOp22
 70
     1
102
RTVSPropertyOp23
 70
     1
102
RTVSPropertyOp24
 70
     1
102
RTVSPropertyOp25
 70
     1
102
RTVSPropertyOp26
 70
     1
102
RTVSPropertyOp27
 70
     1
102
RTVSPropertyOp28
 70
     1
102
RTVSPropertyOp29
 70
     1
102
RTVSPropertyOp30
 70
     1
102
RTVSPropertyOp31
 70
     1
102
RTVSPropertyOp32
 70
     1
102
RTVSPropertyOp33
 70
     1
102
RTVSPropertyOp34
 70
     1
102
RTVSPropertyOp35
 70
     1
102
RTVSPropertyOp36
 70
     1
102
RTVSPropertyOp37
 70
     1
102
RTVSPropertyOp38
 70
     1
102
RTVSPropertyOp39
 70
     1
102
RTVSPropertyOp40
 70
     1
102
RTVSPropertyOp41
 70
     1
102
RTVSPropertyOp42
 70
     1
102
RTVSPropertyOp43
 70
     1
102
RTVSPropertyOp44
 70
     1
102
RTVSPropertyOp45
 70
     1
102
RTVSPropertyOp46
 70
     1
102
RTVSPropertyOp47
 70
     1
102
RTVSPropertyOp48
 70
     1
102
RTVSPropertyOp49
 70
     1
102
RTVSPropertyOp50
 70
     1
102
RTVSPropertyOp51
 70
     0
102
RTVSPropertyOp52
 70
     0
102
RTVSPropertyOp53
 70
     1
102
RTVSPropertyOp54
 70
     1
102
RTVSPropertyOp55
 70
     1
102
RTVSPropertyOp56
 70
     1
102
RTVSPropertyOp57
 70
     1
102
RTVSPropertyOp58
 70
     1
102
RTVSPropertyOp59
 70
     1
102
RTVSPropertyOp60
 70
     1
102
RTVSPropertyOp61
 70
     1
102
RTVSPropertyOp62
 70
     1
  0
XRECORD
  5
1A78
102
{ACAD_REACTORS
330
1A77
102
}
330
1A77
100
AcDbXrecord
280
     1
102
RTVSPost2010Prop28
280
     0
102
RTVSPost2010PropOp28
 70
     1
102
RTVSPost2010Prop29
280
     1
102
RTVSPost2010PropOp29
 70
     1
102
RTVSPost2010Prop30
280
     1
102
RTVSPost2010PropOp30
 70
     1
102
RTVSPost2010Prop31
280
     0
102
RTVSPost2010PropOp31
 70
     1
102
RTVSPost2010Prop32
280
     0
102
RTVSPost2010PropOp32
 70
     1
102
RTVSPost2010Prop33
280
     0
102
RTVSPost2010PropOp33
 70
     1
102
RTVSPost2010Prop34
280
     0
102
RTVSPost2010PropOp34
 70
     1
102
RTVSPost2010Prop35
280
     0
102
RTVSPost2010PropOp35
 70
     1
102
RTVSPost2010Prop36
280
     0
102
RTVSPost2010PropOp36
 70
     1
102
RTVSPost2010Prop37
 90
       50
102
RTVSPost2010PropOp37
 70
     1
102
RTVSPost2010Prop38
140
0.0
102
RTVSPost2010PropOp38
 70
     1
102
RTVSPost2010Prop39
140
1.0
102
RTVSPost2010PropOp39
 70
     1
102
RTVSPost2010Prop40
 90
        0
102
RTVSPost2010PropOp40
 70
     1
102
RTVSPost2010Prop41ColorIndex
 90
       18
102
RTVSPost2010Prop41ColorRGB
 90
        0
102
RTVSPost2010PropOp41
 70
     1
102
RTVSPost2010Prop42
 90
       50
102
RTVSPost2010PropOp42
 70
     1
102
RTVSPost2010Prop43
 90
        3
102
RTVSPost2010PropOp43
 70
     1
102
RTVSPost2010Prop44ColorIndex
 90
        5
102
RTVSPost2010Prop44ColorRGB
 90
      255
102
RTVSPost2010PropOp44
 70
     1
102
RTVSPost2010Prop45
280
     0
102
RTVSPost2010PropOp45
 70
     1
102
RTVSPost2010Prop46
 90
       50
102
RTVSPost2010PropOp46
 70
     1
102
RTVSPost2010Prop47
 90
       50
102
RTVSPost2010PropOp47
 70
     1
102
RTVSPost2010Prop48
 90
       50
102
RTVSPost2010PropOp48
 70
     1
102
RTVSPost2010Prop49
280
     0
102
RTVSPost2010PropOp49
 70
     1
102
RTVSPost2010Prop50
 90
       50
102
RTVSPost2010PropOp50
 70
     1
102
RTVSPost2010Prop51ColorIndex
 90
      256
102
RTVSPost2010Prop51ColorRGB
 90
-16777216
102
RTVSPost2010PropOp51
 70
     0
102
RTVSPost2010Prop52
140
1.0
102
RTVSPost2010PropOp52
 70
     0
102
RTVSPost2010Prop53
 90
        2
102
RTVSPost2010PropOp53
 70
     1
102
RTVSPost2010Prop54
  1
strokes_ogs.tif
102
RTVSPost2010PropOp54
 70
     1
102
RTVSPost2010Prop55
280
     0
102
RTVSPost2010PropOp55
 70
     1
102
RTVSPost2010Prop56
140
1.0
102
RTVSPost2010PropOp56
 70
     1
102
RTVSPost2010Prop57
140
1.0
102
RTVSPost2010PropOp57
 70
     1
102
RTVSPropertyOp0
 70
     1
102
RTVSPropertyOp1
 70
     1
102
RTVSPropertyOp2
 70
     1
102
RTVSPropertyOp3
 70
     1
102
RTVSPropertyOp4
 70
     1
102
RTVSPropertyOp5
 70
     1
102
RTVSPropertyOp6
 70
     1
102
RTVSPropertyOp7
 70
     1
102
RTVSPropertyOp8
 70
     1
102
RTVSPropertyOp9
 70
     1
102
RTVSPropertyOp10
 70
     1
102
RTVSPropertyOp11
 70
     1
102
RTVSPropertyOp12
 70
     1
102
RTVSPropertyOp13
 70
     1
102
RTVSPropertyOp14
 70
     1
102
RTVSPropertyOp15
 70
     1
102
RTVSPropertyOp16
 70
     1
102
RTVSPropertyOp17
 70
     1
102
RTVSPropertyOp18
 70
     1
102
RTVSPropertyOp19
 70
     1
102
RTVSPropertyOp20
 70
     1
102
RTVSPropertyOp21
 70
     1
102
RTVSPropertyOp22
 70
     1
102
RTVSPropertyOp23
 70
     1
102
RTVSPropertyOp24
 70
     1
102
RTVSPropertyOp25
 70
     1
102
RTVSPropertyOp26
 70
     1
102
RTVSPropertyOp27
 70
     1
102
RTVSPropertyOp28
 70
     1
102
RTVSPropertyOp29
 70
     1
102
RTVSPropertyOp30
 70
     1
102
RTVSPropertyOp31
 70
     1
102
RTVSPropertyOp32
 70
     1
102
RTVSPropertyOp33
 70
     1
102
RTVSPropertyOp34
 70
     1
102
RTVSPropertyOp35
 70
     1
102
RTVSPropertyOp36
 70
     1
102
RTVSPropertyOp37
 70
     1
102
RTVSPropertyOp38
 70
     1
102
RTVSPropertyOp39
 70
     1
102
RTVSPropertyOp40
 70
     1
102
RTVSPropertyOp41
 70
     1
102
RTVSPropertyOp42
 70
     1
102
RTVSPropertyOp43
 70
     1
102
RTVSPropertyOp44
 70
     1
102
RTVSPropertyOp45
 70
     1
102
RTVSPropertyOp46
 70
     1
102
RTVSPropertyOp47
 70
     1
102
RTVSPropertyOp48
 70
     1
102
RTVSPropertyOp49
 70
     1
102
RTVSPropertyOp50
 70
     1
102
RTVSPropertyOp51
 70
     0
102
RTVSPropertyOp52
 70
     0
102
RTVSPropertyOp53
 70
     1
102
RTVSPropertyOp54
 70
     1
102
RTVSPropertyOp55
 70
     1
102
RTVSPropertyOp56
 70
     1
102
RTVSPropertyOp57
 70
     1
102
RTVSPropertyOp58
 70
     1
102
RTVSPropertyOp59
 70
     1
102
RTVSPropertyOp60
 70
     1
102
RTVSPropertyOp61
 70
     1
102
RTVSPropertyOp62
 70
     1
  0
XRECORD
  5
1A6A
102
{ACAD_REACTORS
330
1A69
102
}
330
1A69
100
AcDbXrecord
280
     1
102
RTVSPost2010Prop28
280
     0
102
RTVSPost2010PropOp28
 70
     1
102
RTVSPost2010Prop29
280
     1
102
RTVSPost2010PropOp29
 70
     1
102
RTVSPost2010Prop30
280
     1
102
RTVSPost2010PropOp30
 70
     1
102
RTVSPost2010Prop31
280
     0
102
RTVSPost2010PropOp31
 70
     1
102
RTVSPost2010Prop32
280
     0
102
RTVSPost2010PropOp32
 70
     1
102
RTVSPost2010Prop33
280
     0
102
RTVSPost2010PropOp33
 70
     1
102
RTVSPost2010Prop34
280
     0
102
RTVSPost2010PropOp34
 70
     1
102
RTVSPost2010Prop35
280
     0
102
RTVSPost2010PropOp35
 70
     1
102
RTVSPost2010Prop36
280
     0
102
RTVSPost2010PropOp36
 70
     1
102
RTVSPost2010Prop37
 90
       50
102
RTVSPost2010PropOp37
 70
     1
102
RTVSPost2010Prop38
140
0.0
102
RTVSPost2010PropOp38
 70
     1
102
RTVSPost2010Prop39
140
1.0
102
RTVSPost2010PropOp39
 70
     1
102
RTVSPost2010Prop40
 90
        0
102
RTVSPost2010PropOp40
 70
     1
102
RTVSPost2010Prop41ColorIndex
 90
       18
102
RTVSPost2010Prop41ColorRGB
 90
        0
102
RTVSPost2010PropOp41
 70
     1
102
RTVSPost2010Prop42
 90
       50
102
RTVSPost2010PropOp42
 70
     1
102
RTVSPost2010Prop43
 90
        3
102
RTVSPost2010PropOp43
 70
     1
102
RTVSPost2010Prop44ColorIndex
 90
        5
102
RTVSPost2010Prop44ColorRGB
 90
      255
102
RTVSPost2010PropOp44
 70
     1
102
RTVSPost2010Prop45
280
     0
102
RTVSPost2010PropOp45
 70
     1
102
RTVSPost2010Prop46
 90
       50
102
RTVSPost2010PropOp46
 70
     1
102
RTVSPost2010Prop47
 90
       50
102
RTVSPost2010PropOp47
 70
     1
102
RTVSPost2010Prop48
 90
       50
102
RTVSPost2010PropOp48
 70
     1
102
RTVSPost2010Prop49
280
     0
102
RTVSPost2010PropOp49
 70
     1
102
RTVSPost2010Prop50
 90
       50
102
RTVSPost2010PropOp50
 70
     1
102
RTVSPost2010Prop51ColorIndex
 90
      256
102
RTVSPost2010Prop51ColorRGB
 90
-16777216
102
RTVSPost2010PropOp51
 70
     0
102
RTVSPost2010Prop52
140
1.0
102
RTVSPost2010PropOp52
 70
     0
102
RTVSPost2010Prop53
 90
        2
102
RTVSPost2010PropOp53
 70
     1
102
RTVSPost2010Prop54
  1
strokes_ogs.tif
102
RTVSPost2010PropOp54
 70
     1
102
RTVSPost2010Prop55
280
     0
102
RTVSPost2010PropOp55
 70
     1
102
RTVSPost2010Prop56
140
1.0
102
RTVSPost2010PropOp56
 70
     1
102
RTVSPost2010Prop57
140
1.0
102
RTVSPost2010PropOp57
 70
     1
102
RTVSPropertyOp0
 70
     1
102
RTVSPropertyOp1
 70
     1
102
RTVSPropertyOp2
 70
     1
102
RTVSPropertyOp3
 70
     1
102
RTVSPropertyOp4
 70
     1
102
RTVSPropertyOp5
 70
     1
102
RTVSPropertyOp6
 70
     1
102
RTVSPropertyOp7
 70
     1
102
RTVSPropertyOp8
 70
     1
102
RTVSPropertyOp9
 70
     1
102
RTVSPropertyOp10
 70
     1
102
RTVSPropertyOp11
 70
     1
102
RTVSPropertyOp12
 70
     1
102
RTVSPropertyOp13
 70
     1
102
RTVSPropertyOp14
 70
     1
102
RTVSPropertyOp15
 70
     1
102
RTVSPropertyOp16
 70
     1
102
RTVSPropertyOp17
 70
     1
102
RTVSPropertyOp18
 70
     1
102
RTVSPropertyOp19
 70
     1
102
RTVSPropertyOp20
 70
     1
102
RTVSPropertyOp21
 70
     1
102
RTVSPropertyOp22
 70
     1
102
RTVSPropertyOp23
 70
     1
102
RTVSPropertyOp24
 70
     1
102
RTVSPropertyOp25
 70
     1
102
RTVSPropertyOp26
 70
     1
102
RTVSPropertyOp27
 70
     1
102
RTVSPropertyOp28
 70
     1
102
RTVSPropertyOp29
 70
     1
102
RTVSPropertyOp30
 70
     1
102
RTVSPropertyOp31
 70
     1
102
RTVSPropertyOp32
 70
     1
102
RTVSPropertyOp33
 70
     1
102
RTVSPropertyOp34
 70
     1
102
RTVSPropertyOp35
 70
     1
102
RTVSPropertyOp36
 70
     1
102
RTVSPropertyOp37
 70
     1
102
RTVSPropertyOp38
 70
     1
102
RTVSPropertyOp39
 70
     1
102
RTVSPropertyOp40
 70
     1
102
RTVSPropertyOp41
 70
     1
102
RTVSPropertyOp42
 70
     1
102
RTVSPropertyOp43
 70
     1
102
RTVSPropertyOp44
 70
     1
102
RTVSPropertyOp45
 70
     1
102
RTVSPropertyOp46
 70
     1
102
RTVSPropertyOp47
 70
     1
102
RTVSPropertyOp48
 70
     1
102
RTVSPropertyOp49
 70
     1
102
RTVSPropertyOp50
 70
     1
102
RTVSPropertyOp51
 70
     0
102
RTVSPropertyOp52
 70
     0
102
RTVSPropertyOp53
 70
     1
102
RTVSPropertyOp54
 70
     1
102
RTVSPropertyOp55
 70
     1
102
RTVSPropertyOp56
 70
     1
102
RTVSPropertyOp57
 70
     1
102
RTVSPropertyOp58
 70
     1
102
RTVSPropertyOp59
 70
     1
102
RTVSPropertyOp60
 70
     1
102
RTVSPropertyOp61
 70
     1
102
RTVSPropertyOp62
 70
     1
  0
XRECORD
  5
1A6E
102
{ACAD_REACTORS
330
1A6D
102
}
330
1A6D
100
AcDbXrecord
280
     1
102
RTVSPost2010Prop28
280
     0
102
RTVSPost2010PropOp28
 70
     1
102
RTVSPost2010Prop29
280
     1
102
RTVSPost2010PropOp29
 70
     1
102
RTVSPost2010Prop30
280
     1
102
RTVSPost2010PropOp30
 70
     1
102
RTVSPost2010Prop31
280
     0
102
RTVSPost2010PropOp31
 70
     1
102
RTVSPost2010Prop32
280
     0
102
RTVSPost2010PropOp32
 70
     1
102
RTVSPost2010Prop33
280
     0
102
RTVSPost2010PropOp33
 70
     1
102
RTVSPost2010Prop34
280
     0
102
RTVSPost2010PropOp34
 70
     1
102
RTVSPost2010Prop35
280
     0
102
RTVSPost2010PropOp35
 70
     1
102
RTVSPost2010Prop36
280
     0
102
RTVSPost2010PropOp36
 70
     1
102
RTVSPost2010Prop37
 90
       50
102
RTVSPost2010PropOp37
 70
     1
102
RTVSPost2010Prop38
140
0.0
102
RTVSPost2010PropOp38
 70
     1
102
RTVSPost2010Prop39
140
1.0
102
RTVSPost2010PropOp39
 70
     1
102
RTVSPost2010Prop40
 90
        0
102
RTVSPost2010PropOp40
 70
     1
102
RTVSPost2010Prop41ColorIndex
 90
       18
102
RTVSPost2010Prop41ColorRGB
 90
        0
102
RTVSPost2010PropOp41
 70
     1
102
RTVSPost2010Prop42
 90
       50
102
RTVSPost2010PropOp42
 70
     1
102
RTVSPost2010Prop43
 90
        3
102
RTVSPost2010PropOp43
 70
     1
102
RTVSPost2010Prop44ColorIndex
 90
        5
102
RTVSPost2010Prop44ColorRGB
 90
      255
102
RTVSPost2010PropOp44
 70
     1
102
RTVSPost2010Prop45
280
     0
102
RTVSPost2010PropOp45
 70
     1
102
RTVSPost2010Prop46
 90
       50
102
RTVSPost2010PropOp46
 70
     1
102
RTVSPost2010Prop47
 90
       50
102
RTVSPost2010PropOp47
 70
     1
102
RTVSPost2010Prop48
 90
       50
102
RTVSPost2010PropOp48
 70
     1
102
RTVSPost2010Prop49
280
     0
102
RTVSPost2010PropOp49
 70
     1
102
RTVSPost2010Prop50
 90
       50
102
RTVSPost2010PropOp50
 70
     1
102
RTVSPost2010Prop51ColorIndex
 90
      256
102
RTVSPost2010Prop51ColorRGB
 90
-16777216
102
RTVSPost2010PropOp51
 70
     0
102
RTVSPost2010Prop52
140
1.0
102
RTVSPost2010PropOp52
 70
     0
102
RTVSPost2010Prop53
 90
        2
102
RTVSPost2010PropOp53
 70
     1
102
RTVSPost2010Prop54
  1
strokes_ogs.tif
102
RTVSPost2010PropOp54
 70
     1
102
RTVSPost2010Prop55
280
     0
102
RTVSPost2010PropOp55
 70
     1
102
RTVSPost2010Prop56
140
1.0
102
RTVSPost2010PropOp56
 70
     1
102
RTVSPost2010Prop57
140
1.0
102
RTVSPost2010PropOp57
 70
     1
102
RTVSPropertyOp0
 70
     1
102
RTVSPropertyOp1
 70
     1
102
RTVSPropertyOp2
 70
     1
102
RTVSPropertyOp3
 70
     1
102
RTVSPropertyOp4
 70
     1
102
RTVSPropertyOp5
 70
     1
102
RTVSPropertyOp6
 70
     1
102
RTVSPropertyOp7
 70
     1
102
RTVSPropertyOp8
 70
     1
102
RTVSPropertyOp9
 70
     1
102
RTVSPropertyOp10
 70
     1
102
RTVSPropertyOp11
 70
     1
102
RTVSPropertyOp12
 70
     1
102
RTVSPropertyOp13
 70
     1
102
RTVSPropertyOp14
 70
     1
102
RTVSPropertyOp15
 70
     1
102
RTVSPropertyOp16
 70
     1
102
RTVSPropertyOp17
 70
     1
102
RTVSPropertyOp18
 70
     1
102
RTVSPropertyOp19
 70
     1
102
RTVSPropertyOp20
 70
     1
102
RTVSPropertyOp21
 70
     1
102
RTVSPropertyOp22
 70
     1
102
RTVSPropertyOp23
 70
     1
102
RTVSPropertyOp24
 70
     1
102
RTVSPropertyOp25
 70
     1
102
RTVSPropertyOp26
 70
     1
102
RTVSPropertyOp27
 70
     1
102
RTVSPropertyOp28
 70
     1
102
RTVSPropertyOp29
 70
     1
102
RTVSPropertyOp30
 70
     1
102
RTVSPropertyOp31
 70
     1
102
RTVSPropertyOp32
 70
     1
102
RTVSPropertyOp33
 70
     1
102
RTVSPropertyOp34
 70
     1
102
RTVSPropertyOp35
 70
     1
102
RTVSPropertyOp36
 70
     1
102
RTVSPropertyOp37
 70
     1
102
RTVSPropertyOp38
 70
     1
102
RTVSPropertyOp39
 70
     1
102
RTVSPropertyOp40
 70
     1
102
RTVSPropertyOp41
 70
     1
102
RTVSPropertyOp42
 70
     1
102
RTVSPropertyOp43
 70
     1
102
RTVSPropertyOp44
 70
     1
102
RTVSPropertyOp45
 70
     1
102
RTVSPropertyOp46
 70
     1
102
RTVSPropertyOp47
 70
     1
102
RTVSPropertyOp48
 70
     1
102
RTVSPropertyOp49
 70
     1
102
RTVSPropertyOp50
 70
     1
102
RTVSPropertyOp51
 70
     0
102
RTVSPropertyOp52
 70
     0
102
RTVSPropertyOp53
 70
     1
102
RTVSPropertyOp54
 70
     1
102
RTVSPropertyOp55
 70
     1
102
RTVSPropertyOp56
 70
     1
102
RTVSPropertyOp57
 70
     1
102
RTVSPropertyOp58
 70
     1
102
RTVSPropertyOp59
 70
     1
102
RTVSPropertyOp60
 70
     1
102
RTVSPropertyOp61
 70
     1
102
RTVSPropertyOp62
 70
     1
  0
XRECORD
  5
1A88
102
{ACAD_REACTORS
330
1A87
102
}
330
1A87
100
AcDbXrecord
280
     1
102
RTVSPost2010Prop28
280
     0
102
RTVSPost2010PropOp28
 70
     1
102
RTVSPost2010Prop29
280
     1
102
RTVSPost2010PropOp29
 70
     1
102
RTVSPost2010Prop30
280
     1
102
RTVSPost2010PropOp30
 70
     1
102
RTVSPost2010Prop31
280
     0
102
RTVSPost2010PropOp31
 70
     1
102
RTVSPost2010Prop32
280
     0
102
RTVSPost2010PropOp32
 70
     1
102
RTVSPost2010Prop33
280
     0
102
RTVSPost2010PropOp33
 70
     1
102
RTVSPost2010Prop34
280
     0
102
RTVSPost2010PropOp34
 70
     1
102
RTVSPost2010Prop35
280
     0
102
RTVSPost2010PropOp35
 70
     1
102
RTVSPost2010Prop36
280
     0
102
RTVSPost2010PropOp36
 70
     1
102
RTVSPost2010Prop37
 90
       50
102
RTVSPost2010PropOp37
 70
     1
102
RTVSPost2010Prop38
140
0.0
102
RTVSPost2010PropOp38
 70
     1
102
RTVSPost2010Prop39
140
1.0
102
RTVSPost2010PropOp39
 70
     1
102
RTVSPost2010Prop40
 90
        0
102
RTVSPost2010PropOp40
 70
     1
102
RTVSPost2010Prop41ColorIndex
 90
       18
102
RTVSPost2010Prop41ColorRGB
 90
        0
102
RTVSPost2010PropOp41
 70
     1
102
RTVSPost2010Prop42
 90
       50
102
RTVSPost2010PropOp42
 70
     1
102
RTVSPost2010Prop43
 90
        3
102
RTVSPost2010PropOp43
 70
     1
102
RTVSPost2010Prop44ColorIndex
 90
        5
102
RTVSPost2010Prop44ColorRGB
 90
      255
102
RTVSPost2010PropOp44
 70
     1
102
RTVSPost2010Prop45
280
     0
102
RTVSPost2010PropOp45
 70
     1
102
RTVSPost2010Prop46
 90
       50
102
RTVSPost2010PropOp46
 70
     1
102
RTVSPost2010Prop47
 90
       50
102
RTVSPost2010PropOp47
 70
     1
102
RTVSPost2010Prop48
 90
       50
102
RTVSPost2010PropOp48
 70
     1
102
RTVSPost2010Prop49
280
     0
102
RTVSPost2010PropOp49
 70
     1
102
RTVSPost2010Prop50
 90
       50
102
RTVSPost2010PropOp50
 70
     1
102
RTVSPost2010Prop51ColorIndex
 90
      256
102
RTVSPost2010Prop51ColorRGB
 90
-16777216
102
RTVSPost2010PropOp51
 70
     0
102
RTVSPost2010Prop52
140
1.0
102
RTVSPost2010PropOp52
 70
     0
102
RTVSPost2010Prop53
 90
        2
102
RTVSPost2010PropOp53
 70
     1
102
RTVSPost2010Prop54
  1
strokes_ogs.tif
102
RTVSPost2010PropOp54
 70
     1
102
RTVSPost2010Prop55
280
     0
102
RTVSPost2010PropOp55
 70
     1
102
RTVSPost2010Prop56
140
1.0
102
RTVSPost2010PropOp56
 70
     1
102
RTVSPost2010Prop57
140
1.0
102
RTVSPost2010PropOp57
 70
     1
102
RTVSPropertyOp0
 70
     0
102
RTVSPropertyOp1
 70
     0
102
RTVSPropertyOp2
 70
     0
102
RTVSPropertyOp3
 70
     0
102
RTVSPropertyOp4
 70
     0
102
RTVSPropertyOp5
 70
     0
102
RTVSPropertyOp6
 70
     0
102
RTVSPropertyOp7
 70
     0
102
RTVSPropertyOp8
 70
     0
102
RTVSPropertyOp9
 70
     0
102
RTVSPropertyOp10
 70
     0
102
RTVSPropertyOp11
 70
     0
102
RTVSPropertyOp12
 70
     0
102
RTVSPropertyOp13
 70
     0
102
RTVSPropertyOp14
 70
     2
102
RTVSPropertyOp15
 70
     0
102
RTVSPropertyOp16
 70
     0
102
RTVSPropertyOp17
 70
     0
102
RTVSPropertyOp18
 70
     0
102
RTVSPropertyOp19
 70
     0
102
RTVSPropertyOp20
 70
     0
102
RTVSPropertyOp21
 70
     0
102
RTVSPropertyOp22
 70
     0
102
RTVSPropertyOp23
 70
     0
102
RTVSPropertyOp24
 70
     0
102
RTVSPropertyOp25
 70
     0
102
RTVSPropertyOp26
 70
     0
102
RTVSPropertyOp27
 70
     0
102
RTVSPropertyOp28
 70
     1
102
RTVSPropertyOp29
 70
     1
102
RTVSPropertyOp30
 70
     1
102
RTVSPropertyOp31
 70
     1
102
RTVSPropertyOp32
 70
     1
102
RTVSPropertyOp33
 70
     1
102
RTVSPropertyOp34
 70
     1
102
RTVSPropertyOp35
 70
     1
102
RTVSPropertyOp36
 70
     1
102
RTVSPropertyOp37
 70
     1
102
RTVSPropertyOp38
 70
     1
102
RTVSPropertyOp39
 70
     1
102
RTVSPropertyOp40
 70
     1
102
RTVSPropertyOp41
 70
     1
102
RTVSPropertyOp42
 70
     1
102
RTVSPropertyOp43
 70
     1
102
RTVSPropertyOp44
 70
     1
102
RTVSPropertyOp45
 70
     1
102
RTVSPropertyOp46
 70
     1
102
RTVSPropertyOp47
 70
     1
102
RTVSPropertyOp48
 70
     1
102
RTVSPropertyOp49
 70
     1
102
RTVSPropertyOp50
 70
     1
102
RTVSPropertyOp51
 70
     0
102
RTVSPropertyOp52
 70
     0
102
RTVSPropertyOp53
 70
     1
102
RTVSPropertyOp54
 70
     1
102
RTVSPropertyOp55
 70
     1
102
RTVSPropertyOp56
 70
     1
102
RTVSPropertyOp57
 70
     1
102
RTVSPropertyOp58
 70
     1
102
RTVSPropertyOp59
 70
     1
102
RTVSPropertyOp60
 70
     1
102
RTVSPropertyOp61
 70
     1
102
RTVSPropertyOp62
 70
     1
  0
XRECORD
  5
1A76
102
{ACAD_REACTORS
330
1A75
102
}
330
1A75
100
AcDbXrecord
280
     1
102
RTVSPost2010Prop28
280
     0
102
RTVSPost2010PropOp28
 70
     1
102
RTVSPost2010Prop29
280
     1
102
RTVSPost2010PropOp29
 70
     1
102
RTVSPost2010Prop30
280
     1
102
RTVSPost2010PropOp30
 70
     1
102
RTVSPost2010Prop31
280
     0
102
RTVSPost2010PropOp31
 70
     1
102
RTVSPost2010Prop32
280
     0
102
RTVSPost2010PropOp32
 70
     1
102
RTVSPost2010Prop33
280
     0
102
RTVSPost2010PropOp33
 70
     1
102
RTVSPost2010Prop34
280
     0
102
RTVSPost2010PropOp34
 70
     1
102
RTVSPost2010Prop35
280
     0
102
RTVSPost2010PropOp35
 70
     1
102
RTVSPost2010Prop36
280
     0
102
RTVSPost2010PropOp36
 70
     1
102
RTVSPost2010Prop37
 90
       50
102
RTVSPost2010PropOp37
 70
     1
102
RTVSPost2010Prop38
140
0.0
102
RTVSPost2010PropOp38
 70
     1
102
RTVSPost2010Prop39
140
1.0
102
RTVSPost2010PropOp39
 70
     1
102
RTVSPost2010Prop40
 90
        0
102
RTVSPost2010PropOp40
 70
     1
102
RTVSPost2010Prop41ColorIndex
 90
       18
102
RTVSPost2010Prop41ColorRGB
 90
        0
102
RTVSPost2010PropOp41
 70
     1
102
RTVSPost2010Prop42
 90
       50
102
RTVSPost2010PropOp42
 70
     1
102
RTVSPost2010Prop43
 90
        3
102
RTVSPost2010PropOp43
 70
     1
102
RTVSPost2010Prop44ColorIndex
 90
        5
102
RTVSPost2010Prop44ColorRGB
 90
      255
102
RTVSPost2010PropOp44
 70
     1
102
RTVSPost2010Prop45
280
     0
102
RTVSPost2010PropOp45
 70
     1
102
RTVSPost2010Prop46
 90
       50
102
RTVSPost2010PropOp46
 70
     1
102
RTVSPost2010Prop47
 90
       50
102
RTVSPost2010PropOp47
 70
     1
102
RTVSPost2010Prop48
 90
       50
102
RTVSPost2010PropOp48
 70
     1
102
RTVSPost2010Prop49
280
     0
102
RTVSPost2010PropOp49
 70
     1
102
RTVSPost2010Prop50
 90
       50
102
RTVSPost2010PropOp50
 70
     1
102
RTVSPost2010Prop51ColorIndex
 90
      256
102
RTVSPost2010Prop51ColorRGB
 90
-16777216
102
RTVSPost2010PropOp51
 70
     0
102
RTVSPost2010Prop52
140
1.0
102
RTVSPost2010PropOp52
 70
     0
102
RTVSPost2010Prop53
 90
        2
102
RTVSPost2010PropOp53
 70
     1
102
RTVSPost2010Prop54
  1
strokes_ogs.tif
102
RTVSPost2010PropOp54
 70
     1
102
RTVSPost2010Prop55
280
     0
102
RTVSPost2010PropOp55
 70
     1
102
RTVSPost2010Prop56
140
1.0
102
RTVSPost2010PropOp56
 70
     1
102
RTVSPost2010Prop57
140
1.0
102
RTVSPost2010PropOp57
 70
     1
102
RTVSPropertyOp0
 70
     1
102
RTVSPropertyOp1
 70
     1
102
RTVSPropertyOp2
 70
     1
102
RTVSPropertyOp3
 70
     1
102
RTVSPropertyOp4
 70
     1
102
RTVSPropertyOp5
 70
     1
102
RTVSPropertyOp6
 70
     1
102
RTVSPropertyOp7
 70
     1
102
RTVSPropertyOp8
 70
     1
102
RTVSPropertyOp9
 70
     1
102
RTVSPropertyOp10
 70
     1
102
RTVSPropertyOp11
 70
     1
102
RTVSPropertyOp12
 70
     1
102
RTVSPropertyOp13
 70
     1
102
RTVSPropertyOp14
 70
     1
102
RTVSPropertyOp15
 70
     1
102
RTVSPropertyOp16
 70
     1
102
RTVSPropertyOp17
 70
     1
102
RTVSPropertyOp18
 70
     1
102
RTVSPropertyOp19
 70
     1
102
RTVSPropertyOp20
 70
     1
102
RTVSPropertyOp21
 70
     1
102
RTVSPropertyOp22
 70
     1
102
RTVSPropertyOp23
 70
     1
102
RTVSPropertyOp24
 70
     1
102
RTVSPropertyOp25
 70
     1
102
RTVSPropertyOp26
 70
     1
102
RTVSPropertyOp27
 70
     1
102
RTVSPropertyOp28
 70
     1
102
RTVSPropertyOp29
 70
     1
102
RTVSPropertyOp30
 70
     1
102
RTVSPropertyOp31
 70
     1
102
RTVSPropertyOp32
 70
     1
102
RTVSPropertyOp33
 70
     1
102
RTVSPropertyOp34
 70
     1
102
RTVSPropertyOp35
 70
     1
102
RTVSPropertyOp36
 70
     1
102
RTVSPropertyOp37
 70
     1
102
RTVSPropertyOp38
 70
     1
102
RTVSPropertyOp39
 70
     1
102
RTVSPropertyOp40
 70
     1
102
RTVSPropertyOp41
 70
     1
102
RTVSPropertyOp42
 70
     1
102
RTVSPropertyOp43
 70
     1
102
RTVSPropertyOp44
 70
     1
102
RTVSPropertyOp45
 70
     1
102
RTVSPropertyOp46
 70
     1
102
RTVSPropertyOp47
 70
     1
102
RTVSPropertyOp48
 70
     1
102
RTVSPropertyOp49
 70
     1
102
RTVSPropertyOp50
 70
     1
102
RTVSPropertyOp51
 70
     0
102
RTVSPropertyOp52
 70
     0
102
RTVSPropertyOp53
 70
     1
102
RTVSPropertyOp54
 70
     1
102
RTVSPropertyOp55
 70
     1
102
RTVSPropertyOp56
 70
     1
102
RTVSPropertyOp57
 70
     1
102
RTVSPropertyOp58
 70
     1
102
RTVSPropertyOp59
 70
     1
102
RTVSPropertyOp60
 70
     1
102
RTVSPropertyOp61
 70
     1
102
RTVSPropertyOp62
 70
     1
  0
XRECORD
  5
1A5A
102
{ACAD_REACTORS
330
1A59
102
}
330
1A59
100
AcDbXrecord
280
     1
102
RTVSPost2010Prop28
280
     0
102
RTVSPost2010PropOp28
 70
     1
102
RTVSPost2010Prop29
280
     1
102
RTVSPost2010PropOp29
 70
     1
102
RTVSPost2010Prop30
280
     1
102
RTVSPost2010PropOp30
 70
     1
102
RTVSPost2010Prop31
280
     0
102
RTVSPost2010PropOp31
 70
     1
102
RTVSPost2010Prop32
280
     0
102
RTVSPost2010PropOp32
 70
     1
102
RTVSPost2010Prop33
280
     0
102
RTVSPost2010PropOp33
 70
     1
102
RTVSPost2010Prop34
280
     0
102
RTVSPost2010PropOp34
 70
     1
102
RTVSPost2010Prop35
280
     0
102
RTVSPost2010PropOp35
 70
     1
102
RTVSPost2010Prop36
280
     0
102
RTVSPost2010PropOp36
 70
     1
102
RTVSPost2010Prop37
 90
       50
102
RTVSPost2010PropOp37
 70
     1
102
RTVSPost2010Prop38
140
0.0
102
RTVSPost2010PropOp38
 70
     1
102
RTVSPost2010Prop39
140
1.0
102
RTVSPost2010PropOp39
 70
     1
102
RTVSPost2010Prop40
 90
        0
102
RTVSPost2010PropOp40
 70
     1
102
RTVSPost2010Prop41ColorIndex
 90
       18
102
RTVSPost2010Prop41ColorRGB
 90
        0
102
RTVSPost2010PropOp41
 70
     1
102
RTVSPost2010Prop42
 90
       50
102
RTVSPost2010PropOp42
 70
     1
102
RTVSPost2010Prop43
 90
        3
102
RTVSPost2010PropOp43
 70
     1
102
RTVSPost2010Prop44ColorIndex
 90
        5
102
RTVSPost2010Prop44ColorRGB
 90
      255
102
RTVSPost2010PropOp44
 70
     1
102
RTVSPost2010Prop45
280
     0
102
RTVSPost2010PropOp45
 70
     1
102
RTVSPost2010Prop46
 90
       50
102
RTVSPost2010PropOp46
 70
     1
102
RTVSPost2010Prop47
 90
       50
102
RTVSPost2010PropOp47
 70
     1
102
RTVSPost2010Prop48
 90
       50
102
RTVSPost2010PropOp48
 70
     1
102
RTVSPost2010Prop49
280
     0
102
RTVSPost2010PropOp49
 70
     1
102
RTVSPost2010Prop50
 90
       50
102
RTVSPost2010PropOp50
 70
     1
102
RTVSPost2010Prop51ColorIndex
 90
      256
102
RTVSPost2010Prop51ColorRGB
 90
-16777216
102
RTVSPost2010PropOp51
 70
     0
102
RTVSPost2010Prop52
140
1.0
102
RTVSPost2010PropOp52
 70
     0
102
RTVSPost2010Prop53
 90
        2
102
RTVSPost2010PropOp53
 70
     1
102
RTVSPost2010Prop54
  1
strokes_ogs.tif
102
RTVSPost2010PropOp54
 70
     1
102
RTVSPost2010Prop55
280
     0
102
RTVSPost2010PropOp55
 70
     1
102
RTVSPost2010Prop56
140
1.0
102
RTVSPost2010PropOp56
 70
     1
102
RTVSPost2010Prop57
140
1.0
102
RTVSPost2010PropOp57
 70
     1
102
RTVSPropertyOp0
 70
     1
102
RTVSPropertyOp1
 70
     1
102
RTVSPropertyOp2
 70
     1
102
RTVSPropertyOp3
 70
     1
102
RTVSPropertyOp4
 70
     1
102
RTVSPropertyOp5
 70
     1
102
RTVSPropertyOp6
 70
     1
102
RTVSPropertyOp7
 70
     1
102
RTVSPropertyOp8
 70
     1
102
RTVSPropertyOp9
 70
     1
102
RTVSPropertyOp10
 70
     1
102
RTVSPropertyOp11
 70
     1
102
RTVSPropertyOp12
 70
     1
102
RTVSPropertyOp13
 70
     1
102
RTVSPropertyOp14
 70
     1
102
RTVSPropertyOp15
 70
     1
102
RTVSPropertyOp16
 70
     1
102
RTVSPropertyOp17
 70
     1
102
RTVSPropertyOp18
 70
     1
102
RTVSPropertyOp19
 70
     1
102
RTVSPropertyOp20
 70
     1
102
RTVSPropertyOp21
 70
     1
102
RTVSPropertyOp22
 70
     1
102
RTVSPropertyOp23
 70
     1
102
RTVSPropertyOp24
 70
     1
102
RTVSPropertyOp25
 70
     1
102
RTVSPropertyOp26
 70
     1
102
RTVSPropertyOp27
 70
     1
102
RTVSPropertyOp28
 70
     1
102
RTVSPropertyOp29
 70
     1
102
RTVSPropertyOp30
 70
     1
102
RTVSPropertyOp31
 70
     1
102
RTVSPropertyOp32
 70
     1
102
RTVSPropertyOp33
 70
     1
102
RTVSPropertyOp34
 70
     1
102
RTVSPropertyOp35
 70
     1
102
RTVSPropertyOp36
 70
     1
102
RTVSPropertyOp37
 70
     1
102
RTVSPropertyOp38
 70
     1
102
RTVSPropertyOp39
 70
     1
102
RTVSPropertyOp40
 70
     1
102
RTVSPropertyOp41
 70
     1
102
RTVSPropertyOp42
 70
     1
102
RTVSPropertyOp43
 70
     1
102
RTVSPropertyOp44
 70
     1
102
RTVSPropertyOp45
 70
     1
102
RTVSPropertyOp46
 70
     1
102
RTVSPropertyOp47
 70
     1
102
RTVSPropertyOp48
 70
     1
102
RTVSPropertyOp49
 70
     1
102
RTVSPropertyOp50
 70
     1
102
RTVSPropertyOp51
 70
     0
102
RTVSPropertyOp52
 70
     0
102
RTVSPropertyOp53
 70
     1
102
RTVSPropertyOp54
 70
     1
102
RTVSPropertyOp55
 70
     1
102
RTVSPropertyOp56
 70
     1
102
RTVSPropertyOp57
 70
     1
102
RTVSPropertyOp58
 70
     1
102
RTVSPropertyOp59
 70
     1
102
RTVSPropertyOp60
 70
     1
102
RTVSPropertyOp61
 70
     1
102
RTVSPropertyOp62
 70
     1
  0
XRECORD
  5
1A5C
102
{ACAD_REACTORS
330
1A5B
102
}
330
1A5B
100
AcDbXrecord
280
     1
102
RTVSPost2010Prop28
280
     0
102
RTVSPost2010PropOp28
 70
     1
102
RTVSPost2010Prop29
280
     1
102
RTVSPost2010PropOp29
 70
     1
102
RTVSPost2010Prop30
280
     1
102
RTVSPost2010PropOp30
 70
     1
102
RTVSPost2010Prop31
280
     0
102
RTVSPost2010PropOp31
 70
     1
102
RTVSPost2010Prop32
280
     0
102
RTVSPost2010PropOp32
 70
     1
102
RTVSPost2010Prop33
280
     0
102
RTVSPost2010PropOp33
 70
     1
102
RTVSPost2010Prop34
280
     0
102
RTVSPost2010PropOp34
 70
     1
102
RTVSPost2010Prop35
280
     0
102
RTVSPost2010PropOp35
 70
     1
102
RTVSPost2010Prop36
280
     0
102
RTVSPost2010PropOp36
 70
     1
102
RTVSPost2010Prop37
 90
       50
102
RTVSPost2010PropOp37
 70
     1
102
RTVSPost2010Prop38
140
0.0
102
RTVSPost2010PropOp38
 70
     1
102
RTVSPost2010Prop39
140
1.0
102
RTVSPost2010PropOp39
 70
     1
102
RTVSPost2010Prop40
 90
        0
102
RTVSPost2010PropOp40
 70
     1
102
RTVSPost2010Prop41ColorIndex
 90
       18
102
RTVSPost2010Prop41ColorRGB
 90
        0
102
RTVSPost2010PropOp41
 70
     1
102
RTVSPost2010Prop42
 90
       50
102
RTVSPost2010PropOp42
 70
     1
102
RTVSPost2010Prop43
 90
        3
102
RTVSPost2010PropOp43
 70
     1
102
RTVSPost2010Prop44ColorIndex
 90
        5
102
RTVSPost2010Prop44ColorRGB
 90
      255
102
RTVSPost2010PropOp44
 70
     1
102
RTVSPost2010Prop45
280
     0
102
RTVSPost2010PropOp45
 70
     1
102
RTVSPost2010Prop46
 90
       50
102
RTVSPost2010PropOp46
 70
     1
102
RTVSPost2010Prop47
 90
       50
102
RTVSPost2010PropOp47
 70
     1
102
RTVSPost2010Prop48
 90
       50
102
RTVSPost2010PropOp48
 70
     1
102
RTVSPost2010Prop49
280
     0
102
RTVSPost2010PropOp49
 70
     1
102
RTVSPost2010Prop50
 90
       50
102
RTVSPost2010PropOp50
 70
     1
102
RTVSPost2010Prop51ColorIndex
 90
      256
102
RTVSPost2010Prop51ColorRGB
 90
-16777216
102
RTVSPost2010PropOp51
 70
     0
102
RTVSPost2010Prop52
140
1.0
102
RTVSPost2010PropOp52
 70
     0
102
RTVSPost2010Prop53
 90
        2
102
RTVSPost2010PropOp53
 70
     1
102
RTVSPost2010Prop54
  1
strokes_ogs.tif
102
RTVSPost2010PropOp54
 70
     1
102
RTVSPost2010Prop55
280
     0
102
RTVSPost2010PropOp55
 70
     1
102
RTVSPost2010Prop56
140
1.0
102
RTVSPost2010PropOp56
 70
     1
102
RTVSPost2010Prop57
140
1.0
102
RTVSPost2010PropOp57
 70
     1
102
RTVSPropertyOp0
 70
     1
102
RTVSPropertyOp1
 70
     1
102
RTVSPropertyOp2
 70
     1
102
RTVSPropertyOp3
 70
     1
102
RTVSPropertyOp4
 70
     1
102
RTVSPropertyOp5
 70
     1
102
RTVSPropertyOp6
 70
     1
102
RTVSPropertyOp7
 70
     1
102
RTVSPropertyOp8
 70
     1
102
RTVSPropertyOp9
 70
     1
102
RTVSPropertyOp10
 70
     1
102
RTVSPropertyOp11
 70
     1
102
RTVSPropertyOp12
 70
     1
102
RTVSPropertyOp13
 70
     1
102
RTVSPropertyOp14
 70
     1
102
RTVSPropertyOp15
 70
     1
102
RTVSPropertyOp16
 70
     1
102
RTVSPropertyOp17
 70
     1
102
RTVSPropertyOp18
 70
     1
102
RTVSPropertyOp19
 70
     1
102
RTVSPropertyOp20
 70
     1
102
RTVSPropertyOp21
 70
     1
102
RTVSPropertyOp22
 70
     1
102
RTVSPropertyOp23
 70
     1
102
RTVSPropertyOp24
 70
     1
102
RTVSPropertyOp25
 70
     1
102
RTVSPropertyOp26
 70
     1
102
RTVSPropertyOp27
 70
     1
102
RTVSPropertyOp28
 70
     1
102
RTVSPropertyOp29
 70
     1
102
RTVSPropertyOp30
 70
     1
102
RTVSPropertyOp31
 70
     1
102
RTVSPropertyOp32
 70
     1
102
RTVSPropertyOp33
 70
     1
102
RTVSPropertyOp34
 70
     1
102
RTVSPropertyOp35
 70
     1
102
RTVSPropertyOp36
 70
     1
102
RTVSPropertyOp37
 70
     1
102
RTVSPropertyOp38
 70
     1
102
RTVSPropertyOp39
 70
     1
102
RTVSPropertyOp40
 70
     1
102
RTVSPropertyOp41
 70
     1
102
RTVSPropertyOp42
 70
     1
102
RTVSPropertyOp43
 70
     1
102
RTVSPropertyOp44
 70
     1
102
RTVSPropertyOp45
 70
     1
102
RTVSPropertyOp46
 70
     1
102
RTVSPropertyOp47
 70
     1
102
RTVSPropertyOp48
 70
     1
102
RTVSPropertyOp49
 70
     1
102
RTVSPropertyOp50
 70
     1
102
RTVSPropertyOp51
 70
     0
102
RTVSPropertyOp52
 70
     0
102
RTVSPropertyOp53
 70
     1
102
RTVSPropertyOp54
 70
     1
102
RTVSPropertyOp55
 70
     1
102
RTVSPropertyOp56
 70
     1
102
RTVSPropertyOp57
 70
     1
102
RTVSPropertyOp58
 70
     1
102
RTVSPropertyOp59
 70
     1
102
RTVSPropertyOp60
 70
     1
102
RTVSPropertyOp61
 70
     1
102
RTVSPropertyOp62
 70
     1
  0
XRECORD
  5
1A5E
102
{ACAD_REACTORS
330
1A5D
102
}
330
1A5D
100
AcDbXrecord
280
     1
102
RTVSPost2010Prop28
280
     0
102
RTVSPost2010PropOp28
 70
     1
102
RTVSPost2010Prop29
280
     1
102
RTVSPost2010PropOp29
 70
     1
102
RTVSPost2010Prop30
280
     1
102
RTVSPost2010PropOp30
 70
     1
102
RTVSPost2010Prop31
280
     0
102
RTVSPost2010PropOp31
 70
     1
102
RTVSPost2010Prop32
280
     0
102
RTVSPost2010PropOp32
 70
     1
102
RTVSPost2010Prop33
280
     0
102
RTVSPost2010PropOp33
 70
     1
102
RTVSPost2010Prop34
280
     0
102
RTVSPost2010PropOp34
 70
     1
102
RTVSPost2010Prop35
280
     0
102
RTVSPost2010PropOp35
 70
     1
102
RTVSPost2010Prop36
280
     0
102
RTVSPost2010PropOp36
 70
     1
102
RTVSPost2010Prop37
 90
       50
102
RTVSPost2010PropOp37
 70
     1
102
RTVSPost2010Prop38
140
0.0
102
RTVSPost2010PropOp38
 70
     1
102
RTVSPost2010Prop39
140
1.0
102
RTVSPost2010PropOp39
 70
     1
102
RTVSPost2010Prop40
 90
        0
102
RTVSPost2010PropOp40
 70
     1
102
RTVSPost2010Prop41ColorIndex
 90
       18
102
RTVSPost2010Prop41ColorRGB
 90
        0
102
RTVSPost2010PropOp41
 70
     1
102
RTVSPost2010Prop42
 90
       50
102
RTVSPost2010PropOp42
 70
     1
102
RTVSPost2010Prop43
 90
        3
102
RTVSPost2010PropOp43
 70
     1
102
RTVSPost2010Prop44ColorIndex
 90
        5
102
RTVSPost2010Prop44ColorRGB
 90
      255
102
RTVSPost2010PropOp44
 70
     1
102
RTVSPost2010Prop45
280
     0
102
RTVSPost2010PropOp45
 70
     1
102
RTVSPost2010Prop46
 90
       50
102
RTVSPost2010PropOp46
 70
     1
102
RTVSPost2010Prop47
 90
       50
102
RTVSPost2010PropOp47
 70
     1
102
RTVSPost2010Prop48
 90
       50
102
RTVSPost2010PropOp48
 70
     1
102
RTVSPost2010Prop49
280
     0
102
RTVSPost2010PropOp49
 70
     1
102
RTVSPost2010Prop50
 90
       50
102
RTVSPost2010PropOp50
 70
     1
102
RTVSPost2010Prop51ColorIndex
 90
      256
102
RTVSPost2010Prop51ColorRGB
 90
-16777216
102
RTVSPost2010PropOp51
 70
     0
102
RTVSPost2010Prop52
140
1.0
102
RTVSPost2010PropOp52
 70
     0
102
RTVSPost2010Prop53
 90
        2
102
RTVSPost2010PropOp53
 70
     1
102
RTVSPost2010Prop54
  1
strokes_ogs.tif
102
RTVSPost2010PropOp54
 70
     1
102
RTVSPost2010Prop55
280
     0
102
RTVSPost2010PropOp55
 70
     1
102
RTVSPost2010Prop56
140
1.0
102
RTVSPost2010PropOp56
 70
     1
102
RTVSPost2010Prop57
140
1.0
102
RTVSPost2010PropOp57
 70
     1
102
RTVSPropertyOp0
 70
     1
102
RTVSPropertyOp1
 70
     1
102
RTVSPropertyOp2
 70
     1
102
RTVSPropertyOp3
 70
     1
102
RTVSPropertyOp4
 70
     1
102
RTVSPropertyOp5
 70
     1
102
RTVSPropertyOp6
 70
     1
102
RTVSPropertyOp7
 70
     1
102
RTVSPropertyOp8
 70
     1
102
RTVSPropertyOp9
 70
     1
102
RTVSPropertyOp10
 70
     1
102
RTVSPropertyOp11
 70
     1
102
RTVSPropertyOp12
 70
     1
102
RTVSPropertyOp13
 70
     1
102
RTVSPropertyOp14
 70
     1
102
RTVSPropertyOp15
 70
     1
102
RTVSPropertyOp16
 70
     1
102
RTVSPropertyOp17
 70
     1
102
RTVSPropertyOp18
 70
     1
102
RTVSPropertyOp19
 70
     1
102
RTVSPropertyOp20
 70
     1
102
RTVSPropertyOp21
 70
     1
102
RTVSPropertyOp22
 70
     1
102
RTVSPropertyOp23
 70
     1
102
RTVSPropertyOp24
 70
     1
102
RTVSPropertyOp25
 70
     1
102
RTVSPropertyOp26
 70
     1
102
RTVSPropertyOp27
 70
     1
102
RTVSPropertyOp28
 70
     1
102
RTVSPropertyOp29
 70
     1
102
RTVSPropertyOp30
 70
     1
102
RTVSPropertyOp31
 70
     1
102
RTVSPropertyOp32
 70
     1
102
RTVSPropertyOp33
 70
     1
102
RTVSPropertyOp34
 70
     1
102
RTVSPropertyOp35
 70
     1
102
RTVSPropertyOp36
 70
     1
102
RTVSPropertyOp37
 70
     1
102
RTVSPropertyOp38
 70
     1
102
RTVSPropertyOp39
 70
     1
102
RTVSPropertyOp40
 70
     1
102
RTVSPropertyOp41
 70
     1
102
RTVSPropertyOp42
 70
     1
102
RTVSPropertyOp43
 70
     1
102
RTVSPropertyOp44
 70
     1
102
RTVSPropertyOp45
 70
     1
102
RTVSPropertyOp46
 70
     1
102
RTVSPropertyOp47
 70
     1
102
RTVSPropertyOp48
 70
     1
102
RTVSPropertyOp49
 70
     1
102
RTVSPropertyOp50
 70
     1
102
RTVSPropertyOp51
 70
     0
102
RTVSPropertyOp52
 70
     0
102
RTVSPropertyOp53
 70
     1
102
RTVSPropertyOp54
 70
     1
102
RTVSPropertyOp55
 70
     1
102
RTVSPropertyOp56
 70
     1
102
RTVSPropertyOp57
 70
     1
102
RTVSPropertyOp58
 70
     1
102
RTVSPropertyOp59
 70
     1
102
RTVSPropertyOp60
 70
     1
102
RTVSPropertyOp61
 70
     1
102
RTVSPropertyOp62
 70
     1
  0
XRECORD
  5
1A60
102
{ACAD_REACTORS
330
1A5F
102
}
330
1A5F
100
AcDbXrecord
280
     1
102
RTVSPost2010Prop28
280
     0
102
RTVSPost2010PropOp28
 70
     1
102
RTVSPost2010Prop29
280
     1
102
RTVSPost2010PropOp29
 70
     1
102
RTVSPost2010Prop30
280
     1
102
RTVSPost2010PropOp30
 70
     1
102
RTVSPost2010Prop31
280
     0
102
RTVSPost2010PropOp31
 70
     1
102
RTVSPost2010Prop32
280
     0
102
RTVSPost2010PropOp32
 70
     1
102
RTVSPost2010Prop33
280
     0
102
RTVSPost2010PropOp33
 70
     1
102
RTVSPost2010Prop34
280
     0
102
RTVSPost2010PropOp34
 70
     1
102
RTVSPost2010Prop35
280
     0
102
RTVSPost2010PropOp35
 70
     1
102
RTVSPost2010Prop36
280
     0
102
RTVSPost2010PropOp36
 70
     1
102
RTVSPost2010Prop37
 90
       50
102
RTVSPost2010PropOp37
 70
     1
102
RTVSPost2010Prop38
140
0.0
102
RTVSPost2010PropOp38
 70
     1
102
RTVSPost2010Prop39
140
1.0
102
RTVSPost2010PropOp39
 70
     1
102
RTVSPost2010Prop40
 90
        0
102
RTVSPost2010PropOp40
 70
     1
102
RTVSPost2010Prop41ColorIndex
 90
       18
102
RTVSPost2010Prop41ColorRGB
 90
        0
102
RTVSPost2010PropOp41
 70
     1
102
RTVSPost2010Prop42
 90
       50
102
RTVSPost2010PropOp42
 70
     1
102
RTVSPost2010Prop43
 90
        3
102
RTVSPost2010PropOp43
 70
     1
102
RTVSPost2010Prop44ColorIndex
 90
        5
102
RTVSPost2010Prop44ColorRGB
 90
      255
102
RTVSPost2010PropOp44
 70
     1
102
RTVSPost2010Prop45
280
     0
102
RTVSPost2010PropOp45
 70
     1
102
RTVSPost2010Prop46
 90
       50
102
RTVSPost2010PropOp46
 70
     1
102
RTVSPost2010Prop47
 90
       50
102
RTVSPost2010PropOp47
 70
     1
102
RTVSPost2010Prop48
 90
       50
102
RTVSPost2010PropOp48
 70
     1
102
RTVSPost2010Prop49
280
     0
102
RTVSPost2010PropOp49
 70
     1
102
RTVSPost2010Prop50
 90
       50
102
RTVSPost2010PropOp50
 70
     1
102
RTVSPost2010Prop51ColorIndex
 90
      256
102
RTVSPost2010Prop51ColorRGB
 90
-16777216
102
RTVSPost2010PropOp51
 70
     0
102
RTVSPost2010Prop52
140
1.0
102
RTVSPost2010PropOp52
 70
     0
102
RTVSPost2010Prop53
 90
        2
102
RTVSPost2010PropOp53
 70
     1
102
RTVSPost2010Prop54
  1
strokes_ogs.tif
102
RTVSPost2010PropOp54
 70
     1
102
RTVSPost2010Prop55
280
     0
102
RTVSPost2010PropOp55
 70
     1
102
RTVSPost2010Prop56
140
1.0
102
RTVSPost2010PropOp56
 70
     1
102
RTVSPost2010Prop57
140
1.0
102
RTVSPost2010PropOp57
 70
     1
102
RTVSPropertyOp0
 70
     1
102
RTVSPropertyOp1
 70
     1
102
RTVSPropertyOp2
 70
     1
102
RTVSPropertyOp3
 70
     1
102
RTVSPropertyOp4
 70
     1
102
RTVSPropertyOp5
 70
     1
102
RTVSPropertyOp6
 70
     1
102
RTVSPropertyOp7
 70
     1
102
RTVSPropertyOp8
 70
     1
102
RTVSPropertyOp9
 70
     1
102
RTVSPropertyOp10
 70
     1
102
RTVSPropertyOp11
 70
     1
102
RTVSPropertyOp12
 70
     1
102
RTVSPropertyOp13
 70
     1
102
RTVSPropertyOp14
 70
     1
102
RTVSPropertyOp15
 70
     1
102
RTVSPropertyOp16
 70
     1
102
RTVSPropertyOp17
 70
     1
102
RTVSPropertyOp18
 70
     1
102
RTVSPropertyOp19
 70
     1
102
RTVSPropertyOp20
 70
     1
102
RTVSPropertyOp21
 70
     1
102
RTVSPropertyOp22
 70
     1
102
RTVSPropertyOp23
 70
     1
102
RTVSPropertyOp24
 70
     1
102
RTVSPropertyOp25
 70
     1
102
RTVSPropertyOp26
 70
     1
102
RTVSPropertyOp27
 70
     1
102
RTVSPropertyOp28
 70
     1
102
RTVSPropertyOp29
 70
     1
102
RTVSPropertyOp30
 70
     1
102
RTVSPropertyOp31
 70
     1
102
RTVSPropertyOp32
 70
     1
102
RTVSPropertyOp33
 70
     1
102
RTVSPropertyOp34
 70
     1
102
RTVSPropertyOp35
 70
     1
102
RTVSPropertyOp36
 70
     1
102
RTVSPropertyOp37
 70
     1
102
RTVSPropertyOp38
 70
     1
102
RTVSPropertyOp39
 70
     1
102
RTVSPropertyOp40
 70
     1
102
RTVSPropertyOp41
 70
     1
102
RTVSPropertyOp42
 70
     1
102
RTVSPropertyOp43
 70
     1
102
RTVSPropertyOp44
 70
     1
102
RTVSPropertyOp45
 70
     1
102
RTVSPropertyOp46
 70
     1
102
RTVSPropertyOp47
 70
     1
102
RTVSPropertyOp48
 70
     1
102
RTVSPropertyOp49
 70
     1
102
RTVSPropertyOp50
 70
     1
102
RTVSPropertyOp51
 70
     0
102
RTVSPropertyOp52
 70
     0
102
RTVSPropertyOp53
 70
     1
102
RTVSPropertyOp54
 70
     1
102
RTVSPropertyOp55
 70
     1
102
RTVSPropertyOp56
 70
     1
102
RTVSPropertyOp57
 70
     1
102
RTVSPropertyOp58
 70
     1
102
RTVSPropertyOp59
 70
     1
102
RTVSPropertyOp60
 70
     1
102
RTVSPropertyOp61
 70
     1
102
RTVSPropertyOp62
 70
     1
  0
XRECORD
  5
1A8C
102
{ACAD_REACTORS
330
1A8B
102
}
330
1A8B
100
AcDbXrecord
280
     1
102
RTVSPost2010Prop28
280
     0
102
RTVSPost2010PropOp28
 70
     1
102
RTVSPost2010Prop29
280
     1
102
RTVSPost2010PropOp29
 70
     1
102
RTVSPost2010Prop30
280
     1
102
RTVSPost2010PropOp30
 70
     1
102
RTVSPost2010Prop31
280
     0
102
RTVSPost2010PropOp31
 70
     1
102
RTVSPost2010Prop32
280
     0
102
RTVSPost2010PropOp32
 70
     1
102
RTVSPost2010Prop33
280
     0
102
RTVSPost2010PropOp33
 70
     1
102
RTVSPost2010Prop34
280
     0
102
RTVSPost2010PropOp34
 70
     1
102
RTVSPost2010Prop35
280
     0
102
RTVSPost2010PropOp35
 70
     1
102
RTVSPost2010Prop36
280
     0
102
RTVSPost2010PropOp36
 70
     1
102
RTVSPost2010Prop37
 90
       50
102
RTVSPost2010PropOp37
 70
     1
102
RTVSPost2010Prop38
140
0.0
102
RTVSPost2010PropOp38
 70
     1
102
RTVSPost2010Prop39
140
1.0
102
RTVSPost2010PropOp39
 70
     1
102
RTVSPost2010Prop40
 90
        0
102
RTVSPost2010PropOp40
 70
     1
102
RTVSPost2010Prop41ColorIndex
 90
       18
102
RTVSPost2010Prop41ColorRGB
 90
        0
102
RTVSPost2010PropOp41
 70
     1
102
RTVSPost2010Prop42
 90
       50
102
RTVSPost2010PropOp42
 70
     1
102
RTVSPost2010Prop43
 90
        3
102
RTVSPost2010PropOp43
 70
     1
102
RTVSPost2010Prop44ColorIndex
 90
        5
102
RTVSPost2010Prop44ColorRGB
 90
      255
102
RTVSPost2010PropOp44
 70
     1
102
RTVSPost2010Prop45
280
     0
102
RTVSPost2010PropOp45
 70
     1
102
RTVSPost2010Prop46
 90
       50
102
RTVSPost2010PropOp46
 70
     1
102
RTVSPost2010Prop47
 90
       50
102
RTVSPost2010PropOp47
 70
     1
102
RTVSPost2010Prop48
 90
       50
102
RTVSPost2010PropOp48
 70
     1
102
RTVSPost2010Prop49
280
     0
102
RTVSPost2010PropOp49
 70
     1
102
RTVSPost2010Prop50
 90
       50
102
RTVSPost2010PropOp50
 70
     1
102
RTVSPost2010Prop51ColorIndex
 90
      256
102
RTVSPost2010Prop51ColorRGB
 90
-16777216
102
RTVSPost2010PropOp51
 70
     0
102
RTVSPost2010Prop52
140
1.0
102
RTVSPost2010PropOp52
 70
     0
102
RTVSPost2010Prop53
 90
        2
102
RTVSPost2010PropOp53
 70
     1
102
RTVSPost2010Prop54
  1
strokes_ogs.tif
102
RTVSPost2010PropOp54
 70
     1
102
RTVSPost2010Prop55
280
     0
102
RTVSPost2010PropOp55
 70
     1
102
RTVSPost2010Prop56
140
1.0
102
RTVSPost2010PropOp56
 70
     1
102
RTVSPost2010Prop57
140
1.0
102
RTVSPost2010PropOp57
 70
     1
102
RTVSPropertyOp0
 70
     1
102
RTVSPropertyOp1
 70
     1
102
RTVSPropertyOp2
 70
     1
102
RTVSPropertyOp3
 70
     1
102
RTVSPropertyOp4
 70
     1
102
RTVSPropertyOp5
 70
     1
102
RTVSPropertyOp6
 70
     1
102
RTVSPropertyOp7
 70
     1
102
RTVSPropertyOp8
 70
     1
102
RTVSPropertyOp9
 70
     1
102
RTVSPropertyOp10
 70
     1
102
RTVSPropertyOp11
 70
     1
102
RTVSPropertyOp12
 70
     1
102
RTVSPropertyOp13
 70
     1
102
RTVSPropertyOp14
 70
     1
102
RTVSPropertyOp15
 70
     1
102
RTVSPropertyOp16
 70
     1
102
RTVSPropertyOp17
 70
     1
102
RTVSPropertyOp18
 70
     1
102
RTVSPropertyOp19
 70
     1
102
RTVSPropertyOp20
 70
     1
102
RTVSPropertyOp21
 70
     1
102
RTVSPropertyOp22
 70
     1
102
RTVSPropertyOp23
 70
     1
102
RTVSPropertyOp24
 70
     1
102
RTVSPropertyOp25
 70
     1
102
RTVSPropertyOp26
 70
     1
102
RTVSPropertyOp27
 70
     1
102
RTVSPropertyOp28
 70
     1
102
RTVSPropertyOp29
 70
     1
102
RTVSPropertyOp30
 70
     1
102
RTVSPropertyOp31
 70
     1
102
RTVSPropertyOp32
 70
     1
102
RTVSPropertyOp33
 70
     1
102
RTVSPropertyOp34
 70
     1
102
RTVSPropertyOp35
 70
     1
102
RTVSPropertyOp36
 70
     1
102
RTVSPropertyOp37
 70
     1
102
RTVSPropertyOp38
 70
     1
102
RTVSPropertyOp39
 70
     1
102
RTVSPropertyOp40
 70
     1
102
RTVSPropertyOp41
 70
     1
102
RTVSPropertyOp42
 70
     1
102
RTVSPropertyOp43
 70
     1
102
RTVSPropertyOp44
 70
     1
102
RTVSPropertyOp45
 70
     1
102
RTVSPropertyOp46
 70
     1
102
RTVSPropertyOp47
 70
     1
102
RTVSPropertyOp48
 70
     1
102
RTVSPropertyOp49
 70
     1
102
RTVSPropertyOp50
 70
     1
102
RTVSPropertyOp51
 70
     0
102
RTVSPropertyOp52
 70
     0
102
RTVSPropertyOp53
 70
     1
102
RTVSPropertyOp54
 70
     1
102
RTVSPropertyOp55
 70
     1
102
RTVSPropertyOp56
 70
     1
102
RTVSPropertyOp57
 70
     1
102
RTVSPropertyOp58
 70
     1
102
RTVSPropertyOp59
 70
     1
102
RTVSPropertyOp60
 70
     1
102
RTVSPropertyOp61
 70
     1
102
RTVSPropertyOp62
 70
     1
  0
XRECORD
  5
1A84
102
{ACAD_REACTORS
330
1A83
102
}
330
1A83
100
AcDbXrecord
280
     1
102
RTVSPost2010Prop28
280
     0
102
RTVSPost2010PropOp28
 70
     1
102
RTVSPost2010Prop29
280
     1
102
RTVSPost2010PropOp29
 70
     1
102
RTVSPost2010Prop30
280
     1
102
RTVSPost2010PropOp30
 70
     1
102
RTVSPost2010Prop31
280
     0
102
RTVSPost2010PropOp31
 70
     1
102
RTVSPost2010Prop32
280
     0
102
RTVSPost2010PropOp32
 70
     1
102
RTVSPost2010Prop33
280
     0
102
RTVSPost2010PropOp33
 70
     1
102
RTVSPost2010Prop34
280
     0
102
RTVSPost2010PropOp34
 70
     1
102
RTVSPost2010Prop35
280
     0
102
RTVSPost2010PropOp35
 70
     1
102
RTVSPost2010Prop36
280
     0
102
RTVSPost2010PropOp36
 70
     1
102
RTVSPost2010Prop37
 90
       50
102
RTVSPost2010PropOp37
 70
     1
102
RTVSPost2010Prop38
140
0.0
102
RTVSPost2010PropOp38
 70
     1
102
RTVSPost2010Prop39
140
1.0
102
RTVSPost2010PropOp39
 70
     1
102
RTVSPost2010Prop40
 90
        0
102
RTVSPost2010PropOp40
 70
     1
102
RTVSPost2010Prop41ColorIndex
 90
       18
102
RTVSPost2010Prop41ColorRGB
 90
        0
102
RTVSPost2010PropOp41
 70
     1
102
RTVSPost2010Prop42
 90
       50
102
RTVSPost2010PropOp42
 70
     1
102
RTVSPost2010Prop43
 90
        3
102
RTVSPost2010PropOp43
 70
     1
102
RTVSPost2010Prop44ColorIndex
 90
        5
102
RTVSPost2010Prop44ColorRGB
 90
      255
102
RTVSPost2010PropOp44
 70
     1
102
RTVSPost2010Prop45
280
     0
102
RTVSPost2010PropOp45
 70
     1
102
RTVSPost2010Prop46
 90
       50
102
RTVSPost2010PropOp46
 70
     1
102
RTVSPost2010Prop47
 90
       50
102
RTVSPost2010PropOp47
 70
     1
102
RTVSPost2010Prop48
 90
       50
102
RTVSPost2010PropOp48
 70
     1
102
RTVSPost2010Prop49
280
     0
102
RTVSPost2010PropOp49
 70
     1
102
RTVSPost2010Prop50
 90
       50
102
RTVSPost2010PropOp50
 70
     1
102
RTVSPost2010Prop51ColorIndex
 90
      256
102
RTVSPost2010Prop51ColorRGB
 90
-16777216
102
RTVSPost2010PropOp51
 70
     0
102
RTVSPost2010Prop52
140
1.0
102
RTVSPost2010PropOp52
 70
     0
102
RTVSPost2010Prop53
 90
        2
102
RTVSPost2010PropOp53
 70
     1
102
RTVSPost2010Prop54
  1
strokes_ogs.tif
102
RTVSPost2010PropOp54
 70
     1
102
RTVSPost2010Prop55
280
     0
102
RTVSPost2010PropOp55
 70
     1
102
RTVSPost2010Prop56
140
1.0
102
RTVSPost2010PropOp56
 70
     1
102
RTVSPost2010Prop57
140
1.0
102
RTVSPost2010PropOp57
 70
     1
102
RTVSPropertyOp0
 70
     0
102
RTVSPropertyOp1
 70
     0
102
RTVSPropertyOp2
 70
     0
102
RTVSPropertyOp3
 70
     0
102
RTVSPropertyOp4
 70
     0
102
RTVSPropertyOp5
 70
     0
102
RTVSPropertyOp6
 70
     0
102
RTVSPropertyOp7
 70
     0
102
RTVSPropertyOp8
 70
     0
102
RTVSPropertyOp9
 70
     0
102
RTVSPropertyOp10
 70
     0
102
RTVSPropertyOp11
 70
     0
102
RTVSPropertyOp12
 70
     0
102
RTVSPropertyOp13
 70
     0
102
RTVSPropertyOp14
 70
     2
102
RTVSPropertyOp15
 70
     0
102
RTVSPropertyOp16
 70
     0
102
RTVSPropertyOp17
 70
     0
102
RTVSPropertyOp18
 70
     0
102
RTVSPropertyOp19
 70
     0
102
RTVSPropertyOp20
 70
     0
102
RTVSPropertyOp21
 70
     0
102
RTVSPropertyOp22
 70
     0
102
RTVSPropertyOp23
 70
     0
102
RTVSPropertyOp24
 70
     0
102
RTVSPropertyOp25
 70
     0
102
RTVSPropertyOp26
 70
     0
102
RTVSPropertyOp27
 70
     0
102
RTVSPropertyOp28
 70
     1
102
RTVSPropertyOp29
 70
     1
102
RTVSPropertyOp30
 70
     1
102
RTVSPropertyOp31
 70
     1
102
RTVSPropertyOp32
 70
     1
102
RTVSPropertyOp33
 70
     1
102
RTVSPropertyOp34
 70
     1
102
RTVSPropertyOp35
 70
     1
102
RTVSPropertyOp36
 70
     1
102
RTVSPropertyOp37
 70
     1
102
RTVSPropertyOp38
 70
     1
102
RTVSPropertyOp39
 70
     1
102
RTVSPropertyOp40
 70
     1
102
RTVSPropertyOp41
 70
     1
102
RTVSPropertyOp42
 70
     1
102
RTVSPropertyOp43
 70
     1
102
RTVSPropertyOp44
 70
     1
102
RTVSPropertyOp45
 70
     1
102
RTVSPropertyOp46
 70
     1
102
RTVSPropertyOp47
 70
     1
102
RTVSPropertyOp48
 70
     1
102
RTVSPropertyOp49
 70
     1
102
RTVSPropertyOp50
 70
     1
102
RTVSPropertyOp51
 70
     0
102
RTVSPropertyOp52
 70
     0
102
RTVSPropertyOp53
 70
     1
102
RTVSPropertyOp54
 70
     1
102
RTVSPropertyOp55
 70
     1
102
RTVSPropertyOp56
 70
     1
102
RTVSPropertyOp57
 70
     1
102
RTVSPropertyOp58
 70
     1
102
RTVSPropertyOp59
 70
     1
102
RTVSPropertyOp60
 70
     1
102
RTVSPropertyOp61
 70
     1
102
RTVSPropertyOp62
 70
     1
  0
XRECORD
  5
1A74
102
{ACAD_REACTORS
330
1A73
102
}
330
1A73
100
AcDbXrecord
280
     1
102
RTVSPost2010Prop28
280
     0
102
RTVSPost2010PropOp28
 70
     1
102
RTVSPost2010Prop29
280
     1
102
RTVSPost2010PropOp29
 70
     1
102
RTVSPost2010Prop30
280
     1
102
RTVSPost2010PropOp30
 70
     1
102
RTVSPost2010Prop31
280
     0
102
RTVSPost2010PropOp31
 70
     1
102
RTVSPost2010Prop32
280
     0
102
RTVSPost2010PropOp32
 70
     1
102
RTVSPost2010Prop33
280
     0
102
RTVSPost2010PropOp33
 70
     1
102
RTVSPost2010Prop34
280
     0
102
RTVSPost2010PropOp34
 70
     1
102
RTVSPost2010Prop35
280
     0
102
RTVSPost2010PropOp35
 70
     1
102
RTVSPost2010Prop36
280
     0
102
RTVSPost2010PropOp36
 70
     1
102
RTVSPost2010Prop37
 90
       50
102
RTVSPost2010PropOp37
 70
     1
102
RTVSPost2010Prop38
140
0.0
102
RTVSPost2010PropOp38
 70
     1
102
RTVSPost2010Prop39
140
1.0
102
RTVSPost2010PropOp39
 70
     1
102
RTVSPost2010Prop40
 90
        0
102
RTVSPost2010PropOp40
 70
     1
102
RTVSPost2010Prop41ColorIndex
 90
       18
102
RTVSPost2010Prop41ColorRGB
 90
        0
102
RTVSPost2010PropOp41
 70
     1
102
RTVSPost2010Prop42
 90
       50
102
RTVSPost2010PropOp42
 70
     1
102
RTVSPost2010Prop43
 90
        3
102
RTVSPost2010PropOp43
 70
     1
102
RTVSPost2010Prop44ColorIndex
 90
        5
102
RTVSPost2010Prop44ColorRGB
 90
      255
102
RTVSPost2010PropOp44
 70
     1
102
RTVSPost2010Prop45
280
     0
102
RTVSPost2010PropOp45
 70
     1
102
RTVSPost2010Prop46
 90
       50
102
RTVSPost2010PropOp46
 70
     1
102
RTVSPost2010Prop47
 90
       50
102
RTVSPost2010PropOp47
 70
     1
102
RTVSPost2010Prop48
 90
       50
102
RTVSPost2010PropOp48
 70
     1
102
RTVSPost2010Prop49
280
     0
102
RTVSPost2010PropOp49
 70
     1
102
RTVSPost2010Prop50
 90
       50
102
RTVSPost2010PropOp50
 70
     1
102
RTVSPost2010Prop51ColorIndex
 90
      256
102
RTVSPost2010Prop51ColorRGB
 90
-16777216
102
RTVSPost2010PropOp51
 70
     0
102
RTVSPost2010Prop52
140
1.0
102
RTVSPost2010PropOp52
 70
     0
102
RTVSPost2010Prop53
 90
        2
102
RTVSPost2010PropOp53
 70
     1
102
RTVSPost2010Prop54
  1
strokes_ogs.tif
102
RTVSPost2010PropOp54
 70
     1
102
RTVSPost2010Prop55
280
     0
102
RTVSPost2010PropOp55
 70
     1
102
RTVSPost2010Prop56
140
1.0
102
RTVSPost2010PropOp56
 70
     1
102
RTVSPost2010Prop57
140
1.0
102
RTVSPost2010PropOp57
 70
     1
102
RTVSPropertyOp0
 70
     1
102
RTVSPropertyOp1
 70
     1
102
RTVSPropertyOp2
 70
     1
102
RTVSPropertyOp3
 70
     1
102
RTVSPropertyOp4
 70
     1
102
RTVSPropertyOp5
 70
     1
102
RTVSPropertyOp6
 70
     1
102
RTVSPropertyOp7
 70
     1
102
RTVSPropertyOp8
 70
     1
102
RTVSPropertyOp9
 70
     1
102
RTVSPropertyOp10
 70
     1
102
RTVSPropertyOp11
 70
     1
102
RTVSPropertyOp12
 70
     1
102
RTVSPropertyOp13
 70
     1
102
RTVSPropertyOp14
 70
     1
102
RTVSPropertyOp15
 70
     1
102
RTVSPropertyOp16
 70
     1
102
RTVSPropertyOp17
 70
     1
102
RTVSPropertyOp18
 70
     1
102
RTVSPropertyOp19
 70
     1
102
RTVSPropertyOp20
 70
     1
102
RTVSPropertyOp21
 70
     1
102
RTVSPropertyOp22
 70
     1
102
RTVSPropertyOp23
 70
     1
102
RTVSPropertyOp24
 70
     1
102
RTVSPropertyOp25
 70
     1
102
RTVSPropertyOp26
 70
     1
102
RTVSPropertyOp27
 70
     1
102
RTVSPropertyOp28
 70
     1
102
RTVSPropertyOp29
 70
     1
102
RTVSPropertyOp30
 70
     1
102
RTVSPropertyOp31
 70
     1
102
RTVSPropertyOp32
 70
     1
102
RTVSPropertyOp33
 70
     1
102
RTVSPropertyOp34
 70
     1
102
RTVSPropertyOp35
 70
     1
102
RTVSPropertyOp36
 70
     1
102
RTVSPropertyOp37
 70
     1
102
RTVSPropertyOp38
 70
     1
102
RTVSPropertyOp39
 70
     1
102
RTVSPropertyOp40
 70
     1
102
RTVSPropertyOp41
 70
     1
102
RTVSPropertyOp42
 70
     1
102
RTVSPropertyOp43
 70
     1
102
RTVSPropertyOp44
 70
     1
102
RTVSPropertyOp45
 70
     1
102
RTVSPropertyOp46
 70
     1
102
RTVSPropertyOp47
 70
     1
102
RTVSPropertyOp48
 70
     1
102
RTVSPropertyOp49
 70
     1
102
RTVSPropertyOp50
 70
     1
102
RTVSPropertyOp51
 70
     0
102
RTVSPropertyOp52
 70
     0
102
RTVSPropertyOp53
 70
     1
102
RTVSPropertyOp54
 70
     1
102
RTVSPropertyOp55
 70
     1
102
RTVSPropertyOp56
 70
     1
102
RTVSPropertyOp57
 70
     1
102
RTVSPropertyOp58
 70
     1
102
RTVSPropertyOp59
 70
     1
102
RTVSPropertyOp60
 70
     1
102
RTVSPropertyOp61
 70
     1
102
RTVSPropertyOp62
 70
     1
  0
XRECORD
  5
1A86
102
{ACAD_REACTORS
330
1A85
102
}
330
1A85
100
AcDbXrecord
280
     1
102
RTVSPost2010Prop28
280
     0
102
RTVSPost2010PropOp28
 70
     1
102
RTVSPost2010Prop29
280
     1
102
RTVSPost2010PropOp29
 70
     1
102
RTVSPost2010Prop30
280
     1
102
RTVSPost2010PropOp30
 70
     1
102
RTVSPost2010Prop31
280
     0
102
RTVSPost2010PropOp31
 70
     1
102
RTVSPost2010Prop32
280
     0
102
RTVSPost2010PropOp32
 70
     1
102
RTVSPost2010Prop33
280
     0
102
RTVSPost2010PropOp33
 70
     1
102
RTVSPost2010Prop34
280
     0
102
RTVSPost2010PropOp34
 70
     1
102
RTVSPost2010Prop35
280
     0
102
RTVSPost2010PropOp35
 70
     1
102
RTVSPost2010Prop36
280
     0
102
RTVSPost2010PropOp36
 70
     1
102
RTVSPost2010Prop37
 90
       50
102
RTVSPost2010PropOp37
 70
     1
102
RTVSPost2010Prop38
140
0.0
102
RTVSPost2010PropOp38
 70
     1
102
RTVSPost2010Prop39
140
1.0
102
RTVSPost2010PropOp39
 70
     1
102
RTVSPost2010Prop40
 90
        0
102
RTVSPost2010PropOp40
 70
     1
102
RTVSPost2010Prop41ColorIndex
 90
       18
102
RTVSPost2010Prop41ColorRGB
 90
        0
102
RTVSPost2010PropOp41
 70
     1
102
RTVSPost2010Prop42
 90
       50
102
RTVSPost2010PropOp42
 70
     1
102
RTVSPost2010Prop43
 90
        3
102
RTVSPost2010PropOp43
 70
     1
102
RTVSPost2010Prop44ColorIndex
 90
        5
102
RTVSPost2010Prop44ColorRGB
 90
      255
102
RTVSPost2010PropOp44
 70
     1
102
RTVSPost2010Prop45
280
     0
102
RTVSPost2010PropOp45
 70
     1
102
RTVSPost2010Prop46
 90
       50
102
RTVSPost2010PropOp46
 70
     1
102
RTVSPost2010Prop47
 90
       50
102
RTVSPost2010PropOp47
 70
     1
102
RTVSPost2010Prop48
 90
       50
102
RTVSPost2010PropOp48
 70
     1
102
RTVSPost2010Prop49
280
     0
102
RTVSPost2010PropOp49
 70
     1
102
RTVSPost2010Prop50
 90
       50
102
RTVSPost2010PropOp50
 70
     1
102
RTVSPost2010Prop51ColorIndex
 90
      256
102
RTVSPost2010Prop51ColorRGB
 90
-16777216
102
RTVSPost2010PropOp51
 70
     0
102
RTVSPost2010Prop52
140
1.0
102
RTVSPost2010PropOp52
 70
     0
102
RTVSPost2010Prop53
 90
        2
102
RTVSPost2010PropOp53
 70
     1
102
RTVSPost2010Prop54
  1
strokes_ogs.tif
102
RTVSPost2010PropOp54
 70
     1
102
RTVSPost2010Prop55
280
     0
102
RTVSPost2010PropOp55
 70
     1
102
RTVSPost2010Prop56
140
1.0
102
RTVSPost2010PropOp56
 70
     1
102
RTVSPost2010Prop57
140
1.0
102
RTVSPost2010PropOp57
 70
     1
102
RTVSPropertyOp0
 70
     0
102
RTVSPropertyOp1
 70
     0
102
RTVSPropertyOp2
 70
     0
102
RTVSPropertyOp3
 70
     0
102
RTVSPropertyOp4
 70
     0
102
RTVSPropertyOp5
 70
     0
102
RTVSPropertyOp6
 70
     0
102
RTVSPropertyOp7
 70
     0
102
RTVSPropertyOp8
 70
     0
102
RTVSPropertyOp9
 70
     0
102
RTVSPropertyOp10
 70
     0
102
RTVSPropertyOp11
 70
     0
102
RTVSPropertyOp12
 70
     0
102
RTVSPropertyOp13
 70
     0
102
RTVSPropertyOp14
 70
     2
102
RTVSPropertyOp15
 70
     0
102
RTVSPropertyOp16
 70
     0
102
RTVSPropertyOp17
 70
     0
102
RTVSPropertyOp18
 70
     0
102
RTVSPropertyOp19
 70
     0
102
RTVSPropertyOp20
 70
     0
102
RTVSPropertyOp21
 70
     0
102
RTVSPropertyOp22
 70
     0
102
RTVSPropertyOp23
 70
     0
102
RTVSPropertyOp24
 70
     0
102
RTVSPropertyOp25
 70
     0
102
RTVSPropertyOp26
 70
     0
102
RTVSPropertyOp27
 70
     0
102
RTVSPropertyOp28
 70
     1
102
RTVSPropertyOp29
 70
     1
102
RTVSPropertyOp30
 70
     1
102
RTVSPropertyOp31
 70
     1
102
RTVSPropertyOp32
 70
     1
102
RTVSPropertyOp33
 70
     1
102
RTVSPropertyOp34
 70
     1
102
RTVSPropertyOp35
 70
     1
102
RTVSPropertyOp36
 70
     1
102
RTVSPropertyOp37
 70
     1
102
RTVSPropertyOp38
 70
     1
102
RTVSPropertyOp39
 70
     1
102
RTVSPropertyOp40
 70
     1
102
RTVSPropertyOp41
 70
     1
102
RTVSPropertyOp42
 70
     1
102
RTVSPropertyOp43
 70
     1
102
RTVSPropertyOp44
 70
     1
102
RTVSPropertyOp45
 70
     1
102
RTVSPropertyOp46
 70
     1
102
RTVSPropertyOp47
 70
     1
102
RTVSPropertyOp48
 70
     1
102
RTVSPropertyOp49
 70
     1
102
RTVSPropertyOp50
 70
     1
102
RTVSPropertyOp51
 70
     0
102
RTVSPropertyOp52
 70
     0
102
RTVSPropertyOp53
 70
     1
102
RTVSPropertyOp54
 70
     1
102
RTVSPropertyOp55
 70
     1
102
RTVSPropertyOp56
 70
     1
102
RTVSPropertyOp57
 70
     1
102
RTVSPropertyOp58
 70
     1
102
RTVSPropertyOp59
 70
     1
102
RTVSPropertyOp60
 70
     1
102
RTVSPropertyOp61
 70
     1
102
RTVSPropertyOp62
 70
     1
  0
XRECORD
  5
1A6C
102
{ACAD_REACTORS
330
1A6B
102
}
330
1A6B
100
AcDbXrecord
280
     1
102
RTVSPost2010Prop28
280
     0
102
RTVSPost2010PropOp28
 70
     1
102
RTVSPost2010Prop29
280
     1
102
RTVSPost2010PropOp29
 70
     1
102
RTVSPost2010Prop30
280
     1
102
RTVSPost2010PropOp30
 70
     1
102
RTVSPost2010Prop31
280
     0
102
RTVSPost2010PropOp31
 70
     1
102
RTVSPost2010Prop32
280
     0
102
RTVSPost2010PropOp32
 70
     1
102
RTVSPost2010Prop33
280
     0
102
RTVSPost2010PropOp33
 70
     1
102
RTVSPost2010Prop34
280
     0
102
RTVSPost2010PropOp34
 70
     1
102
RTVSPost2010Prop35
280
     0
102
RTVSPost2010PropOp35
 70
     1
102
RTVSPost2010Prop36
280
     0
102
RTVSPost2010PropOp36
 70
     1
102
RTVSPost2010Prop37
 90
       50
102
RTVSPost2010PropOp37
 70
     1
102
RTVSPost2010Prop38
140
0.0
102
RTVSPost2010PropOp38
 70
     1
102
RTVSPost2010Prop39
140
1.0
102
RTVSPost2010PropOp39
 70
     1
102
RTVSPost2010Prop40
 90
        0
102
RTVSPost2010PropOp40
 70
     1
102
RTVSPost2010Prop41ColorIndex
 90
       18
102
RTVSPost2010Prop41ColorRGB
 90
        0
102
RTVSPost2010PropOp41
 70
     1
102
RTVSPost2010Prop42
 90
       50
102
RTVSPost2010PropOp42
 70
     1
102
RTVSPost2010Prop43
 90
        3
102
RTVSPost2010PropOp43
 70
     1
102
RTVSPost2010Prop44ColorIndex
 90
        5
102
RTVSPost2010Prop44ColorRGB
 90
      255
102
RTVSPost2010PropOp44
 70
     1
102
RTVSPost2010Prop45
280
     0
102
RTVSPost2010PropOp45
 70
     1
102
RTVSPost2010Prop46
 90
       50
102
RTVSPost2010PropOp46
 70
     1
102
RTVSPost2010Prop47
 90
       50
102
RTVSPost2010PropOp47
 70
     1
102
RTVSPost2010Prop48
 90
       50
102
RTVSPost2010PropOp48
 70
     1
102
RTVSPost2010Prop49
280
     0
102
RTVSPost2010PropOp49
 70
     1
102
RTVSPost2010Prop50
 90
       50
102
RTVSPost2010PropOp50
 70
     1
102
RTVSPost2010Prop51ColorIndex
 90
      256
102
RTVSPost2010Prop51ColorRGB
 90
-16777216
102
RTVSPost2010PropOp51
 70
     0
102
RTVSPost2010Prop52
140
1.0
102
RTVSPost2010PropOp52
 70
     0
102
RTVSPost2010Prop53
 90
        2
102
RTVSPost2010PropOp53
 70
     1
102
RTVSPost2010Prop54
  1
strokes_ogs.tif
102
RTVSPost2010PropOp54
 70
     1
102
RTVSPost2010Prop55
280
     0
102
RTVSPost2010PropOp55
 70
     1
102
RTVSPost2010Prop56
140
1.0
102
RTVSPost2010PropOp56
 70
     1
102
RTVSPost2010Prop57
140
1.0
102
RTVSPost2010PropOp57
 70
     1
102
RTVSPropertyOp0
 70
     1
102
RTVSPropertyOp1
 70
     1
102
RTVSPropertyOp2
 70
     1
102
RTVSPropertyOp3
 70
     1
102
RTVSPropertyOp4
 70
     1
102
RTVSPropertyOp5
 70
     1
102
RTVSPropertyOp6
 70
     1
102
RTVSPropertyOp7
 70
     1
102
RTVSPropertyOp8
 70
     1
102
RTVSPropertyOp9
 70
     1
102
RTVSPropertyOp10
 70
     1
102
RTVSPropertyOp11
 70
     1
102
RTVSPropertyOp12
 70
     1
102
RTVSPropertyOp13
 70
     1
102
RTVSPropertyOp14
 70
     1
102
RTVSPropertyOp15
 70
     1
102
RTVSPropertyOp16
 70
     1
102
RTVSPropertyOp17
 70
     1
102
RTVSPropertyOp18
 70
     1
102
RTVSPropertyOp19
 70
     1
102
RTVSPropertyOp20
 70
     1
102
RTVSPropertyOp21
 70
     1
102
RTVSPropertyOp22
 70
     1
102
RTVSPropertyOp23
 70
     1
102
RTVSPropertyOp24
 70
     1
102
RTVSPropertyOp25
 70
     1
102
RTVSPropertyOp26
 70
     1
102
RTVSPropertyOp27
 70
     1
102
RTVSPropertyOp28
 70
     1
102
RTVSPropertyOp29
 70
     1
102
RTVSPropertyOp30
 70
     1
102
RTVSPropertyOp31
 70
     1
102
RTVSPropertyOp32
 70
     1
102
RTVSPropertyOp33
 70
     1
102
RTVSPropertyOp34
 70
     1
102
RTVSPropertyOp35
 70
     1
102
RTVSPropertyOp36
 70
     1
102
RTVSPropertyOp37
 70
     1
102
RTVSPropertyOp38
 70
     1
102
RTVSPropertyOp39
 70
     1
102
RTVSPropertyOp40
 70
     1
102
RTVSPropertyOp41
 70
     1
102
RTVSPropertyOp42
 70
     1
102
RTVSPropertyOp43
 70
     1
102
RTVSPropertyOp44
 70
     1
102
RTVSPropertyOp45
 70
     1
102
RTVSPropertyOp46
 70
     1
102
RTVSPropertyOp47
 70
     1
102
RTVSPropertyOp48
 70
     1
102
RTVSPropertyOp49
 70
     1
102
RTVSPropertyOp50
 70
     1
102
RTVSPropertyOp51
 70
     0
102
RTVSPropertyOp52
 70
     0
102
RTVSPropertyOp53
 70
     1
102
RTVSPropertyOp54
 70
     1
102
RTVSPropertyOp55
 70
     1
102
RTVSPropertyOp56
 70
     1
102
RTVSPropertyOp57
 70
     1
102
RTVSPropertyOp58
 70
     1
102
RTVSPropertyOp59
 70
     1
102
RTVSPropertyOp60
 70
     1
102
RTVSPropertyOp61
 70
     1
102
RTVSPropertyOp62
 70
     1
  0
XRECORD
  5
1A96
102
{ACAD_REACTORS
330
1A95
102
}
330
1A95
100
AcDbXrecord
280
     1
102
RTVSPost2010Prop28
280
     0
102
RTVSPost2010PropOp28
 70
     1
102
RTVSPost2010Prop29
280
     1
102
RTVSPost2010PropOp29
 70
     1
102
RTVSPost2010Prop30
280
     1
102
RTVSPost2010PropOp30
 70
     1
102
RTVSPost2010Prop31
280
     0
102
RTVSPost2010PropOp31
 70
     1
102
RTVSPost2010Prop32
280
     0
102
RTVSPost2010PropOp32
 70
     1
102
RTVSPost2010Prop33
280
     0
102
RTVSPost2010PropOp33
 70
     1
102
RTVSPost2010Prop34
280
     0
102
RTVSPost2010PropOp34
 70
     1
102
RTVSPost2010Prop35
280
     0
102
RTVSPost2010PropOp35
 70
     1
102
RTVSPost2010Prop36
280
     0
102
RTVSPost2010PropOp36
 70
     1
102
RTVSPost2010Prop37
 90
       50
102
RTVSPost2010PropOp37
 70
     1
102
RTVSPost2010Prop38
140
0.0
102
RTVSPost2010PropOp38
 70
     1
102
RTVSPost2010Prop39
140
1.0
102
RTVSPost2010PropOp39
 70
     1
102
RTVSPost2010Prop40
 90
        0
102
RTVSPost2010PropOp40
 70
     1
102
RTVSPost2010Prop41ColorIndex
 90
       18
102
RTVSPost2010Prop41ColorRGB
 90
        0
102
RTVSPost2010PropOp41
 70
     1
102
RTVSPost2010Prop42
 90
       50
102
RTVSPost2010PropOp42
 70
     1
102
RTVSPost2010Prop43
 90
        3
102
RTVSPost2010PropOp43
 70
     1
102
RTVSPost2010Prop44ColorIndex
 90
        5
102
RTVSPost2010Prop44ColorRGB
 90
      255
102
RTVSPost2010PropOp44
 70
     1
102
RTVSPost2010Prop45
280
     0
102
RTVSPost2010PropOp45
 70
     1
102
RTVSPost2010Prop46
 90
       50
102
RTVSPost2010PropOp46
 70
     1
102
RTVSPost2010Prop47
 90
       50
102
RTVSPost2010PropOp47
 70
     1
102
RTVSPost2010Prop48
 90
       50
102
RTVSPost2010PropOp48
 70
     1
102
RTVSPost2010Prop49
280
     0
102
RTVSPost2010PropOp49
 70
     1
102
RTVSPost2010Prop50
 90
       50
102
RTVSPost2010PropOp50
 70
     1
102
RTVSPost2010Prop51ColorIndex
 90
      256
102
RTVSPost2010Prop51ColorRGB
 90
-16777216
102
RTVSPost2010PropOp51
 70
     0
102
RTVSPost2010Prop52
140
1.0
102
RTVSPost2010PropOp52
 70
     0
102
RTVSPost2010Prop53
 90
        2
102
RTVSPost2010PropOp53
 70
     1
102
RTVSPost2010Prop54
  1
strokes_ogs.tif
102
RTVSPost2010PropOp54
 70
     1
102
RTVSPost2010Prop55
280
     0
102
RTVSPost2010PropOp55
 70
     1
102
RTVSPost2010Prop56
140
1.0
102
RTVSPost2010PropOp56
 70
     1
102
RTVSPost2010Prop57
140
1.0
102
RTVSPost2010PropOp57
 70
     1
102
RTVSPropertyOp0
 70
     1
102
RTVSPropertyOp1
 70
     1
102
RTVSPropertyOp2
 70
     1
102
RTVSPropertyOp3
 70
     1
102
RTVSPropertyOp4
 70
     1
102
RTVSPropertyOp5
 70
     1
102
RTVSPropertyOp6
 70
     1
102
RTVSPropertyOp7
 70
     1
102
RTVSPropertyOp8
 70
     1
102
RTVSPropertyOp9
 70
     1
102
RTVSPropertyOp10
 70
     1
102
RTVSPropertyOp11
 70
     1
102
RTVSPropertyOp12
 70
     1
102
RTVSPropertyOp13
 70
     1
102
RTVSPropertyOp14
 70
     1
102
RTVSPropertyOp15
 70
     1
102
RTVSPropertyOp16
 70
     1
102
RTVSPropertyOp17
 70
     1
102
RTVSPropertyOp18
 70
     1
102
RTVSPropertyOp19
 70
     1
102
RTVSPropertyOp20
 70
     1
102
RTVSPropertyOp21
 70
     1
102
RTVSPropertyOp22
 70
     1
102
RTVSPropertyOp23
 70
     1
102
RTVSPropertyOp24
 70
     1
102
RTVSPropertyOp25
 70
     1
102
RTVSPropertyOp26
 70
     1
102
RTVSPropertyOp27
 70
     1
102
RTVSPropertyOp28
 70
     1
102
RTVSPropertyOp29
 70
     1
102
RTVSPropertyOp30
 70
     1
102
RTVSPropertyOp31
 70
     1
102
RTVSPropertyOp32
 70
     1
102
RTVSPropertyOp33
 70
     1
102
RTVSPropertyOp34
 70
     1
102
RTVSPropertyOp35
 70
     1
102
RTVSPropertyOp36
 70
     1
102
RTVSPropertyOp37
 70
     1
102
RTVSPropertyOp38
 70
     1
102
RTVSPropertyOp39
 70
     1
102
RTVSPropertyOp40
 70
     1
102
RTVSPropertyOp41
 70
     1
102
RTVSPropertyOp42
 70
     1
102
RTVSPropertyOp43
 70
     1
102
RTVSPropertyOp44
 70
     1
102
RTVSPropertyOp45
 70
     1
102
RTVSPropertyOp46
 70
     1
102
RTVSPropertyOp47
 70
     1
102
RTVSPropertyOp48
 70
     1
102
RTVSPropertyOp49
 70
     1
102
RTVSPropertyOp50
 70
     1
102
RTVSPropertyOp51
 70
     0
102
RTVSPropertyOp52
 70
     0
102
RTVSPropertyOp53
 70
     1
102
RTVSPropertyOp54
 70
     1
102
RTVSPropertyOp55
 70
     1
102
RTVSPropertyOp56
 70
     1
102
RTVSPropertyOp57
 70
     1
102
RTVSPropertyOp58
 70
     1
102
RTVSPropertyOp59
 70
     1
102
RTVSPropertyOp60
 70
     1
102
RTVSPropertyOp61
 70
     1
102
RTVSPropertyOp62
 70
     1
  0
XRECORD
  5
1A94
102
{ACAD_REACTORS
330
1A93
102
}
330
1A93
100
AcDbXrecord
280
     1
102
RTVSPost2010Prop28
280
     0
102
RTVSPost2010PropOp28
 70
     1
102
RTVSPost2010Prop29
280
     1
102
RTVSPost2010PropOp29
 70
     1
102
RTVSPost2010Prop30
280
     1
102
RTVSPost2010PropOp30
 70
     1
102
RTVSPost2010Prop31
280
     0
102
RTVSPost2010PropOp31
 70
     1
102
RTVSPost2010Prop32
280
     0
102
RTVSPost2010PropOp32
 70
     1
102
RTVSPost2010Prop33
280
     0
102
RTVSPost2010PropOp33
 70
     1
102
RTVSPost2010Prop34
280
     0
102
RTVSPost2010PropOp34
 70
     1
102
RTVSPost2010Prop35
280
     0
102
RTVSPost2010PropOp35
 70
     1
102
RTVSPost2010Prop36
280
     0
102
RTVSPost2010PropOp36
 70
     1
102
RTVSPost2010Prop37
 90
       50
102
RTVSPost2010PropOp37
 70
     1
102
RTVSPost2010Prop38
140
0.0
102
RTVSPost2010PropOp38
 70
     1
102
RTVSPost2010Prop39
140
1.0
102
RTVSPost2010PropOp39
 70
     1
102
RTVSPost2010Prop40
 90
        0
102
RTVSPost2010PropOp40
 70
     1
102
RTVSPost2010Prop41ColorIndex
 90
       18
102
RTVSPost2010Prop41ColorRGB
 90
        0
102
RTVSPost2010PropOp41
 70
     1
102
RTVSPost2010Prop42
 90
       50
102
RTVSPost2010PropOp42
 70
     1
102
RTVSPost2010Prop43
 90
        3
102
RTVSPost2010PropOp43
 70
     1
102
RTVSPost2010Prop44ColorIndex
 90
        5
102
RTVSPost2010Prop44ColorRGB
 90
      255
102
RTVSPost2010PropOp44
 70
     1
102
RTVSPost2010Prop45
280
     0
102
RTVSPost2010PropOp45
 70
     1
102
RTVSPost2010Prop46
 90
       50
102
RTVSPost2010PropOp46
 70
     1
102
RTVSPost2010Prop47
 90
       50
102
RTVSPost2010PropOp47
 70
     1
102
RTVSPost2010Prop48
 90
       50
102
RTVSPost2010PropOp48
 70
     1
102
RTVSPost2010Prop49
280
     0
102
RTVSPost2010PropOp49
 70
     1
102
RTVSPost2010Prop50
 90
       50
102
RTVSPost2010PropOp50
 70
     1
102
RTVSPost2010Prop51ColorIndex
 90
      256
102
RTVSPost2010Prop51ColorRGB
 90
-16777216
102
RTVSPost2010PropOp51
 70
     0
102
RTVSPost2010Prop52
140
1.0
102
RTVSPost2010PropOp52
 70
     0
102
RTVSPost2010Prop53
 90
        2
102
RTVSPost2010PropOp53
 70
     1
102
RTVSPost2010Prop54
  1
strokes_ogs.tif
102
RTVSPost2010PropOp54
 70
     1
102
RTVSPost2010Prop55
280
     0
102
RTVSPost2010PropOp55
 70
     1
102
RTVSPost2010Prop56
140
1.0
102
RTVSPost2010PropOp56
 70
     1
102
RTVSPost2010Prop57
140
1.0
102
RTVSPost2010PropOp57
 70
     1
102
RTVSPropertyOp0
 70
     1
102
RTVSPropertyOp1
 70
     1
102
RTVSPropertyOp2
 70
     1
102
RTVSPropertyOp3
 70
     1
102
RTVSPropertyOp4
 70
     1
102
RTVSPropertyOp5
 70
     1
102
RTVSPropertyOp6
 70
     1
102
RTVSPropertyOp7
 70
     1
102
RTVSPropertyOp8
 70
     1
102
RTVSPropertyOp9
 70
     1
102
RTVSPropertyOp10
 70
     1
102
RTVSPropertyOp11
 70
     1
102
RTVSPropertyOp12
 70
     1
102
RTVSPropertyOp13
 70
     1
102
RTVSPropertyOp14
 70
     1
102
RTVSPropertyOp15
 70
     1
102
RTVSPropertyOp16
 70
     1
102
RTVSPropertyOp17
 70
     1
102
RTVSPropertyOp18
 70
     1
102
RTVSPropertyOp19
 70
     1
102
RTVSPropertyOp20
 70
     1
102
RTVSPropertyOp21
 70
     1
102
RTVSPropertyOp22
 70
     1
102
RTVSPropertyOp23
 70
     1
102
RTVSPropertyOp24
 70
     1
102
RTVSPropertyOp25
 70
     1
102
RTVSPropertyOp26
 70
     1
102
RTVSPropertyOp27
 70
     1
102
RTVSPropertyOp28
 70
     1
102
RTVSPropertyOp29
 70
     1
102
RTVSPropertyOp30
 70
     1
102
RTVSPropertyOp31
 70
     1
102
RTVSPropertyOp32
 70
     1
102
RTVSPropertyOp33
 70
     1
102
RTVSPropertyOp34
 70
     1
102
RTVSPropertyOp35
 70
     1
102
RTVSPropertyOp36
 70
     1
102
RTVSPropertyOp37
 70
     1
102
RTVSPropertyOp38
 70
     1
102
RTVSPropertyOp39
 70
     1
102
RTVSPropertyOp40
 70
     1
102
RTVSPropertyOp41
 70
     1
102
RTVSPropertyOp42
 70
     1
102
RTVSPropertyOp43
 70
     1
102
RTVSPropertyOp44
 70
     1
102
RTVSPropertyOp45
 70
     1
102
RTVSPropertyOp46
 70
     1
102
RTVSPropertyOp47
 70
     1
102
RTVSPropertyOp48
 70
     1
102
RTVSPropertyOp49
 70
     1
102
RTVSPropertyOp50
 70
     1
102
RTVSPropertyOp51
 70
     0
102
RTVSPropertyOp52
 70
     0
102
RTVSPropertyOp53
 70
     1
102
RTVSPropertyOp54
 70
     1
102
RTVSPropertyOp55
 70
     1
102
RTVSPropertyOp56
 70
     1
102
RTVSPropertyOp57
 70
     1
102
RTVSPropertyOp58
 70
     1
102
RTVSPropertyOp59
 70
     1
102
RTVSPropertyOp60
 70
     1
102
RTVSPropertyOp61
 70
     1
102
RTVSPropertyOp62
 70
     1
  0
XRECORD
  5
1A8E
102
{ACAD_REACTORS
330
1A8D
102
}
330
1A8D
100
AcDbXrecord
280
     1
102
RTVSPost2010Prop28
280
     0
102
RTVSPost2010PropOp28
 70
     1
102
RTVSPost2010Prop29
280
     1
102
RTVSPost2010PropOp29
 70
     1
102
RTVSPost2010Prop30
280
     1
102
RTVSPost2010PropOp30
 70
     1
102
RTVSPost2010Prop31
280
     0
102
RTVSPost2010PropOp31
 70
     1
102
RTVSPost2010Prop32
280
     0
102
RTVSPost2010PropOp32
 70
     1
102
RTVSPost2010Prop33
280
     0
102
RTVSPost2010PropOp33
 70
     1
102
RTVSPost2010Prop34
280
     0
102
RTVSPost2010PropOp34
 70
     1
102
RTVSPost2010Prop35
280
     0
102
RTVSPost2010PropOp35
 70
     1
102
RTVSPost2010Prop36
280
     0
102
RTVSPost2010PropOp36
 70
     1
102
RTVSPost2010Prop37
 90
       50
102
RTVSPost2010PropOp37
 70
     1
102
RTVSPost2010Prop38
140
0.0
102
RTVSPost2010PropOp38
 70
     1
102
RTVSPost2010Prop39
140
1.0
102
RTVSPost2010PropOp39
 70
     1
102
RTVSPost2010Prop40
 90
        0
102
RTVSPost2010PropOp40
 70
     1
102
RTVSPost2010Prop41ColorIndex
 90
       18
102
RTVSPost2010Prop41ColorRGB
 90
        0
102
RTVSPost2010PropOp41
 70
     1
102
RTVSPost2010Prop42
 90
       50
102
RTVSPost2010PropOp42
 70
     1
102
RTVSPost2010Prop43
 90
        3
102
RTVSPost2010PropOp43
 70
     1
102
RTVSPost2010Prop44ColorIndex
 90
        5
102
RTVSPost2010Prop44ColorRGB
 90
      255
102
RTVSPost2010PropOp44
 70
     1
102
RTVSPost2010Prop45
280
     0
102
RTVSPost2010PropOp45
 70
     1
102
RTVSPost2010Prop46
 90
       50
102
RTVSPost2010PropOp46
 70
     1
102
RTVSPost2010Prop47
 90
       50
102
RTVSPost2010PropOp47
 70
     1
102
RTVSPost2010Prop48
 90
       50
102
RTVSPost2010PropOp48
 70
     1
102
RTVSPost2010Prop49
280
     0
102
RTVSPost2010PropOp49
 70
     1
102
RTVSPost2010Prop50
 90
       50
102
RTVSPost2010PropOp50
 70
     1
102
RTVSPost2010Prop51ColorIndex
 90
      256
102
RTVSPost2010Prop51ColorRGB
 90
-16777216
102
RTVSPost2010PropOp51
 70
     0
102
RTVSPost2010Prop52
140
1.0
102
RTVSPost2010PropOp52
 70
     0
102
RTVSPost2010Prop53
 90
        2
102
RTVSPost2010PropOp53
 70
     1
102
RTVSPost2010Prop54
  1
strokes_ogs.tif
102
RTVSPost2010PropOp54
 70
     1
102
RTVSPost2010Prop55
280
     0
102
RTVSPost2010PropOp55
 70
     1
102
RTVSPost2010Prop56
140
1.0
102
RTVSPost2010PropOp56
 70
     1
102
RTVSPost2010Prop57
140
1.0
102
RTVSPost2010PropOp57
 70
     1
102
RTVSPropertyOp0
 70
     1
102
RTVSPropertyOp1
 70
     1
102
RTVSPropertyOp2
 70
     1
102
RTVSPropertyOp3
 70
     1
102
RTVSPropertyOp4
 70
     1
102
RTVSPropertyOp5
 70
     1
102
RTVSPropertyOp6
 70
     1
102
RTVSPropertyOp7
 70
     1
102
RTVSPropertyOp8
 70
     1
102
RTVSPropertyOp9
 70
     1
102
RTVSPropertyOp10
 70
     1
102
RTVSPropertyOp11
 70
     1
102
RTVSPropertyOp12
 70
     1
102
RTVSPropertyOp13
 70
     1
102
RTVSPropertyOp14
 70
     1
102
RTVSPropertyOp15
 70
     1
102
RTVSPropertyOp16
 70
     1
102
RTVSPropertyOp17
 70
     1
102
RTVSPropertyOp18
 70
     1
102
RTVSPropertyOp19
 70
     1
102
RTVSPropertyOp20
 70
     1
102
RTVSPropertyOp21
 70
     1
102
RTVSPropertyOp22
 70
     1
102
RTVSPropertyOp23
 70
     1
102
RTVSPropertyOp24
 70
     1
102
RTVSPropertyOp25
 70
     1
102
RTVSPropertyOp26
 70
     1
102
RTVSPropertyOp27
 70
     1
102
RTVSPropertyOp28
 70
     1
102
RTVSPropertyOp29
 70
     1
102
RTVSPropertyOp30
 70
     1
102
RTVSPropertyOp31
 70
     1
102
RTVSPropertyOp32
 70
     1
102
RTVSPropertyOp33
 70
     1
102
RTVSPropertyOp34
 70
     1
102
RTVSPropertyOp35
 70
     1
102
RTVSPropertyOp36
 70
     1
102
RTVSPropertyOp37
 70
     1
102
RTVSPropertyOp38
 70
     1
102
RTVSPropertyOp39
 70
     1
102
RTVSPropertyOp40
 70
     1
102
RTVSPropertyOp41
 70
     1
102
RTVSPropertyOp42
 70
     1
102
RTVSPropertyOp43
 70
     1
102
RTVSPropertyOp44
 70
     1
102
RTVSPropertyOp45
 70
     1
102
RTVSPropertyOp46
 70
     1
102
RTVSPropertyOp47
 70
     1
102
RTVSPropertyOp48
 70
     1
102
RTVSPropertyOp49
 70
     1
102
RTVSPropertyOp50
 70
     1
102
RTVSPropertyOp51
 70
     0
102
RTVSPropertyOp52
 70
     0
102
RTVSPropertyOp53
 70
     1
102
RTVSPropertyOp54
 70
     1
102
RTVSPropertyOp55
 70
     1
102
RTVSPropertyOp56
 70
     1
102
RTVSPropertyOp57
 70
     1
102
RTVSPropertyOp58
 70
     1
102
RTVSPropertyOp59
 70
     1
102
RTVSPropertyOp60
 70
     1
102
RTVSPropertyOp61
 70
     1
102
RTVSPropertyOp62
 70
     1
  0
XRECORD
  5
1A90
102
{ACAD_REACTORS
330
1A8F
102
}
330
1A8F
100
AcDbXrecord
280
     1
102
RTVSPost2010Prop28
280
     0
102
RTVSPost2010PropOp28
 70
     1
102
RTVSPost2010Prop29
280
     1
102
RTVSPost2010PropOp29
 70
     1
102
RTVSPost2010Prop30
280
     1
102
RTVSPost2010PropOp30
 70
     1
102
RTVSPost2010Prop31
280
     0
102
RTVSPost2010PropOp31
 70
     1
102
RTVSPost2010Prop32
280
     0
102
RTVSPost2010PropOp32
 70
     1
102
RTVSPost2010Prop33
280
     0
102
RTVSPost2010PropOp33
 70
     1
102
RTVSPost2010Prop34
280
     0
102
RTVSPost2010PropOp34
 70
     1
102
RTVSPost2010Prop35
280
     0
102
RTVSPost2010PropOp35
 70
     1
102
RTVSPost2010Prop36
280
     0
102
RTVSPost2010PropOp36
 70
     1
102
RTVSPost2010Prop37
 90
       50
102
RTVSPost2010PropOp37
 70
     1
102
RTVSPost2010Prop38
140
0.0
102
RTVSPost2010PropOp38
 70
     1
102
RTVSPost2010Prop39
140
1.0
102
RTVSPost2010PropOp39
 70
     1
102
RTVSPost2010Prop40
 90
        0
102
RTVSPost2010PropOp40
 70
     1
102
RTVSPost2010Prop41ColorIndex
 90
       18
102
RTVSPost2010Prop41ColorRGB
 90
        0
102
RTVSPost2010PropOp41
 70
     1
102
RTVSPost2010Prop42
 90
       50
102
RTVSPost2010PropOp42
 70
     1
102
RTVSPost2010Prop43
 90
        3
102
RTVSPost2010PropOp43
 70
     1
102
RTVSPost2010Prop44ColorIndex
 90
        5
102
RTVSPost2010Prop44ColorRGB
 90
      255
102
RTVSPost2010PropOp44
 70
     1
102
RTVSPost2010Prop45
280
     0
102
RTVSPost2010PropOp45
 70
     1
102
RTVSPost2010Prop46
 90
       50
102
RTVSPost2010PropOp46
 70
     1
102
RTVSPost2010Prop47
 90
       50
102
RTVSPost2010PropOp47
 70
     1
102
RTVSPost2010Prop48
 90
       50
102
RTVSPost2010PropOp48
 70
     1
102
RTVSPost2010Prop49
280
     0
102
RTVSPost2010PropOp49
 70
     1
102
RTVSPost2010Prop50
 90
       50
102
RTVSPost2010PropOp50
 70
     1
102
RTVSPost2010Prop51ColorIndex
 90
      256
102
RTVSPost2010Prop51ColorRGB
 90
-16777216
102
RTVSPost2010PropOp51
 70
     0
102
RTVSPost2010Prop52
140
1.0
102
RTVSPost2010PropOp52
 70
     0
102
RTVSPost2010Prop53
 90
        2
102
RTVSPost2010PropOp53
 70
     1
102
RTVSPost2010Prop54
  1
strokes_ogs.tif
102
RTVSPost2010PropOp54
 70
     1
102
RTVSPost2010Prop55
280
     0
102
RTVSPost2010PropOp55
 70
     1
102
RTVSPost2010Prop56
140
1.0
102
RTVSPost2010PropOp56
 70
     1
102
RTVSPost2010Prop57
140
1.0
102
RTVSPost2010PropOp57
 70
     1
102
RTVSPropertyOp0
 70
     1
102
RTVSPropertyOp1
 70
     1
102
RTVSPropertyOp2
 70
     1
102
RTVSPropertyOp3
 70
     1
102
RTVSPropertyOp4
 70
     1
102
RTVSPropertyOp5
 70
     1
102
RTVSPropertyOp6
 70
     1
102
RTVSPropertyOp7
 70
     1
102
RTVSPropertyOp8
 70
     1
102
RTVSPropertyOp9
 70
     1
102
RTVSPropertyOp10
 70
     1
102
RTVSPropertyOp11
 70
     1
102
RTVSPropertyOp12
 70
     1
102
RTVSPropertyOp13
 70
     1
102
RTVSPropertyOp14
 70
     1
102
RTVSPropertyOp15
 70
     1
102
RTVSPropertyOp16
 70
     1
102
RTVSPropertyOp17
 70
     1
102
RTVSPropertyOp18
 70
     1
102
RTVSPropertyOp19
 70
     1
102
RTVSPropertyOp20
 70
     1
102
RTVSPropertyOp21
 70
     1
102
RTVSPropertyOp22
 70
     1
102
RTVSPropertyOp23
 70
     1
102
RTVSPropertyOp24
 70
     1
102
RTVSPropertyOp25
 70
     1
102
RTVSPropertyOp26
 70
     1
102
RTVSPropertyOp27
 70
     1
102
RTVSPropertyOp28
 70
     1
102
RTVSPropertyOp29
 70
     1
102
RTVSPropertyOp30
 70
     1
102
RTVSPropertyOp31
 70
     1
102
RTVSPropertyOp32
 70
     1
102
RTVSPropertyOp33
 70
     1
102
RTVSPropertyOp34
 70
     1
102
RTVSPropertyOp35
 70
     1
102
RTVSPropertyOp36
 70
     1
102
RTVSPropertyOp37
 70
     1
102
RTVSPropertyOp38
 70
     1
102
RTVSPropertyOp39
 70
     1
102
RTVSPropertyOp40
 70
     1
102
RTVSPropertyOp41
 70
     1
102
RTVSPropertyOp42
 70
     1
102
RTVSPropertyOp43
 70
     1
102
RTVSPropertyOp44
 70
     1
102
RTVSPropertyOp45
 70
     1
102
RTVSPropertyOp46
 70
     1
102
RTVSPropertyOp47
 70
     1
102
RTVSPropertyOp48
 70
     1
102
RTVSPropertyOp49
 70
     1
102
RTVSPropertyOp50
 70
     1
102
RTVSPropertyOp51
 70
     0
102
RTVSPropertyOp52
 70
     0
102
RTVSPropertyOp53
 70
     1
102
RTVSPropertyOp54
 70
     1
102
RTVSPropertyOp55
 70
     1
102
RTVSPropertyOp56
 70
     1
102
RTVSPropertyOp57
 70
     1
102
RTVSPropertyOp58
 70
     1
102
RTVSPropertyOp59
 70
     1
102
RTVSPropertyOp60
 70
     1
102
RTVSPropertyOp61
 70
     1
102
RTVSPropertyOp62
 70
     1
  0
XRECORD
  5
1A72
102
{ACAD_REACTORS
330
1A71
102
}
330
1A71
100
AcDbXrecord
280
     1
102
RTVSPost2010Prop28
280
     0
102
RTVSPost2010PropOp28
 70
     1
102
RTVSPost2010Prop29
280
     1
102
RTVSPost2010PropOp29
 70
     1
102
RTVSPost2010Prop30
280
     1
102
RTVSPost2010PropOp30
 70
     1
102
RTVSPost2010Prop31
280
     0
102
RTVSPost2010PropOp31
 70
     1
102
RTVSPost2010Prop32
280
     0
102
RTVSPost2010PropOp32
 70
     1
102
RTVSPost2010Prop33
280
     0
102
RTVSPost2010PropOp33
 70
     1
102
RTVSPost2010Prop34
280
     0
102
RTVSPost2010PropOp34
 70
     1
102
RTVSPost2010Prop35
280
     0
102
RTVSPost2010PropOp35
 70
     1
102
RTVSPost2010Prop36
280
     0
102
RTVSPost2010PropOp36
 70
     1
102
RTVSPost2010Prop37
 90
       50
102
RTVSPost2010PropOp37
 70
     1
102
RTVSPost2010Prop38
140
0.0
102
RTVSPost2010PropOp38
 70
     1
102
RTVSPost2010Prop39
140
1.0
102
RTVSPost2010PropOp39
 70
     1
102
RTVSPost2010Prop40
 90
        0
102
RTVSPost2010PropOp40
 70
     1
102
RTVSPost2010Prop41ColorIndex
 90
       18
102
RTVSPost2010Prop41ColorRGB
 90
        0
102
RTVSPost2010PropOp41
 70
     1
102
RTVSPost2010Prop42
 90
       50
102
RTVSPost2010PropOp42
 70
     1
102
RTVSPost2010Prop43
 90
        3
102
RTVSPost2010PropOp43
 70
     1
102
RTVSPost2010Prop44ColorIndex
 90
        5
102
RTVSPost2010Prop44ColorRGB
 90
      255
102
RTVSPost2010PropOp44
 70
     1
102
RTVSPost2010Prop45
280
     0
102
RTVSPost2010PropOp45
 70
     1
102
RTVSPost2010Prop46
 90
       50
102
RTVSPost2010PropOp46
 70
     1
102
RTVSPost2010Prop47
 90
       50
102
RTVSPost2010PropOp47
 70
     1
102
RTVSPost2010Prop48
 90
       50
102
RTVSPost2010PropOp48
 70
     1
102
RTVSPost2010Prop49
280
     0
102
RTVSPost2010PropOp49
 70
     1
102
RTVSPost2010Prop50
 90
       50
102
RTVSPost2010PropOp50
 70
     1
102
RTVSPost2010Prop51ColorIndex
 90
      256
102
RTVSPost2010Prop51ColorRGB
 90
-16777216
102
RTVSPost2010PropOp51
 70
     0
102
RTVSPost2010Prop52
140
1.0
102
RTVSPost2010PropOp52
 70
     0
102
RTVSPost2010Prop53
 90
        2
102
RTVSPost2010PropOp53
 70
     1
102
RTVSPost2010Prop54
  1
strokes_ogs.tif
102
RTVSPost2010PropOp54
 70
     1
102
RTVSPost2010Prop55
280
     0
102
RTVSPost2010PropOp55
 70
     1
102
RTVSPost2010Prop56
140
1.0
102
RTVSPost2010PropOp56
 70
     1
102
RTVSPost2010Prop57
140
1.0
102
RTVSPost2010PropOp57
 70
     1
102
RTVSPropertyOp0
 70
     1
102
RTVSPropertyOp1
 70
     1
102
RTVSPropertyOp2
 70
     1
102
RTVSPropertyOp3
 70
     1
102
RTVSPropertyOp4
 70
     1
102
RTVSPropertyOp5
 70
     1
102
RTVSPropertyOp6
 70
     1
102
RTVSPropertyOp7
 70
     1
102
RTVSPropertyOp8
 70
     1
102
RTVSPropertyOp9
 70
     1
102
RTVSPropertyOp10
 70
     1
102
RTVSPropertyOp11
 70
     1
102
RTVSPropertyOp12
 70
     1
102
RTVSPropertyOp13
 70
     1
102
RTVSPropertyOp14
 70
     1
102
RTVSPropertyOp15
 70
     1
102
RTVSPropertyOp16
 70
     1
102
RTVSPropertyOp17
 70
     1
102
RTVSPropertyOp18
 70
     1
102
RTVSPropertyOp19
 70
     1
102
RTVSPropertyOp20
 70
     1
102
RTVSPropertyOp21
 70
     1
102
RTVSPropertyOp22
 70
     1
102
RTVSPropertyOp23
 70
     1
102
RTVSPropertyOp24
 70
     1
102
RTVSPropertyOp25
 70
     1
102
RTVSPropertyOp26
 70
     1
102
RTVSPropertyOp27
 70
     1
102
RTVSPropertyOp28
 70
     1
102
RTVSPropertyOp29
 70
     1
102
RTVSPropertyOp30
 70
     1
102
RTVSPropertyOp31
 70
     1
102
RTVSPropertyOp32
 70
     1
102
RTVSPropertyOp33
 70
     1
102
RTVSPropertyOp34
 70
     1
102
RTVSPropertyOp35
 70
     1
102
RTVSPropertyOp36
 70
     1
102
RTVSPropertyOp37
 70
     1
102
RTVSPropertyOp38
 70
     1
102
RTVSPropertyOp39
 70
     1
102
RTVSPropertyOp40
 70
     1
102
RTVSPropertyOp41
 70
     1
102
RTVSPropertyOp42
 70
     1
102
RTVSPropertyOp43
 70
     1
102
RTVSPropertyOp44
 70
     1
102
RTVSPropertyOp45
 70
     1
102
RTVSPropertyOp46
 70
     1
102
RTVSPropertyOp47
 70
     1
102
RTVSPropertyOp48
 70
     1
102
RTVSPropertyOp49
 70
     1
102
RTVSPropertyOp50
 70
     1
102
RTVSPropertyOp51
 70
     0
102
RTVSPropertyOp52
 70
     0
102
RTVSPropertyOp53
 70
     1
102
RTVSPropertyOp54
 70
     1
102
RTVSPropertyOp55
 70
     1
102
RTVSPropertyOp56
 70
     1
102
RTVSPropertyOp57
 70
     1
102
RTVSPropertyOp58
 70
     1
102
RTVSPropertyOp59
 70
     1
102
RTVSPropertyOp60
 70
     1
102
RTVSPropertyOp61
 70
     1
102
RTVSPropertyOp62
 70
     1
  0
XRECORD
  5
1A8A
102
{ACAD_REACTORS
330
1A89
102
}
330
1A89
100
AcDbXrecord
280
     1
102
RTVSPost2010Prop28
280
     0
102
RTVSPost2010PropOp28
 70
     1
102
RTVSPost2010Prop29
280
     1
102
RTVSPost2010PropOp29
 70
     1
102
RTVSPost2010Prop30
280
     1
102
RTVSPost2010PropOp30
 70
     1
102
RTVSPost2010Prop31
280
     0
102
RTVSPost2010PropOp31
 70
     1
102
RTVSPost2010Prop32
280
     0
102
RTVSPost2010PropOp32
 70
     1
102
RTVSPost2010Prop33
280
     0
102
RTVSPost2010PropOp33
 70
     1
102
RTVSPost2010Prop34
280
     0
102
RTVSPost2010PropOp34
 70
     1
102
RTVSPost2010Prop35
280
     0
102
RTVSPost2010PropOp35
 70
     1
102
RTVSPost2010Prop36
280
     0
102
RTVSPost2010PropOp36
 70
     1
102
RTVSPost2010Prop37
 90
       50
102
RTVSPost2010PropOp37
 70
     1
102
RTVSPost2010Prop38
140
0.0
102
RTVSPost2010PropOp38
 70
     1
102
RTVSPost2010Prop39
140
1.0
102
RTVSPost2010PropOp39
 70
     1
102
RTVSPost2010Prop40
 90
        0
102
RTVSPost2010PropOp40
 70
     1
102
RTVSPost2010Prop41ColorIndex
 90
       18
102
RTVSPost2010Prop41ColorRGB
 90
        0
102
RTVSPost2010PropOp41
 70
     1
102
RTVSPost2010Prop42
 90
       50
102
RTVSPost2010PropOp42
 70
     1
102
RTVSPost2010Prop43
 90
        3
102
RTVSPost2010PropOp43
 70
     1
102
RTVSPost2010Prop44ColorIndex
 90
        5
102
RTVSPost2010Prop44ColorRGB
 90
      255
102
RTVSPost2010PropOp44
 70
     1
102
RTVSPost2010Prop45
280
     0
102
RTVSPost2010PropOp45
 70
     1
102
RTVSPost2010Prop46
 90
       50
102
RTVSPost2010PropOp46
 70
     1
102
RTVSPost2010Prop47
 90
       50
102
RTVSPost2010PropOp47
 70
     1
102
RTVSPost2010Prop48
 90
       50
102
RTVSPost2010PropOp48
 70
     1
102
RTVSPost2010Prop49
280
     0
102
RTVSPost2010PropOp49
 70
     1
102
RTVSPost2010Prop50
 90
       50
102
RTVSPost2010PropOp50
 70
     1
102
RTVSPost2010Prop51ColorIndex
 90
      256
102
RTVSPost2010Prop51ColorRGB
 90
-16777216
102
RTVSPost2010PropOp51
 70
     0
102
RTVSPost2010Prop52
140
1.0
102
RTVSPost2010PropOp52
 70
     0
102
RTVSPost2010Prop53
 90
        2
102
RTVSPost2010PropOp53
 70
     1
102
RTVSPost2010Prop54
  1
strokes_ogs.tif
102
RTVSPost2010PropOp54
 70
     1
102
RTVSPost2010Prop55
280
     0
102
RTVSPost2010PropOp55
 70
     1
102
RTVSPost2010Prop56
140
1.0
102
RTVSPost2010PropOp56
 70
     1
102
RTVSPost2010Prop57
140
1.0
102
RTVSPost2010PropOp57
 70
     1
102
RTVSPropertyOp0
 70
     1
102
RTVSPropertyOp1
 70
     1
102
RTVSPropertyOp2
 70
     1
102
RTVSPropertyOp3
 70
     1
102
RTVSPropertyOp4
 70
     1
102
RTVSPropertyOp5
 70
     1
102
RTVSPropertyOp6
 70
     1
102
RTVSPropertyOp7
 70
     1
102
RTVSPropertyOp8
 70
     1
102
RTVSPropertyOp9
 70
     1
102
RTVSPropertyOp10
 70
     1
102
RTVSPropertyOp11
 70
     1
102
RTVSPropertyOp12
 70
     1
102
RTVSPropertyOp13
 70
     1
102
RTVSPropertyOp14
 70
     1
102
RTVSPropertyOp15
 70
     1
102
RTVSPropertyOp16
 70
     1
102
RTVSPropertyOp17
 70
     1
102
RTVSPropertyOp18
 70
     1
102
RTVSPropertyOp19
 70
     1
102
RTVSPropertyOp20
 70
     1
102
RTVSPropertyOp21
 70
     1
102
RTVSPropertyOp22
 70
     1
102
RTVSPropertyOp23
 70
     1
102
RTVSPropertyOp24
 70
     1
102
RTVSPropertyOp25
 70
     1
102
RTVSPropertyOp26
 70
     1
102
RTVSPropertyOp27
 70
     1
102
RTVSPropertyOp28
 70
     1
102
RTVSPropertyOp29
 70
     1
102
RTVSPropertyOp30
 70
     1
102
RTVSPropertyOp31
 70
     1
102
RTVSPropertyOp32
 70
     1
102
RTVSPropertyOp33
 70
     1
102
RTVSPropertyOp34
 70
     1
102
RTVSPropertyOp35
 70
     1
102
RTVSPropertyOp36
 70
     1
102
RTVSPropertyOp37
 70
     1
102
RTVSPropertyOp38
 70
     1
102
RTVSPropertyOp39
 70
     1
102
RTVSPropertyOp40
 70
     1
102
RTVSPropertyOp41
 70
     1
102
RTVSPropertyOp42
 70
     1
102
RTVSPropertyOp43
 70
     1
102
RTVSPropertyOp44
 70
     1
102
RTVSPropertyOp45
 70
     1
102
RTVSPropertyOp46
 70
     1
102
RTVSPropertyOp47
 70
     1
102
RTVSPropertyOp48
 70
     1
102
RTVSPropertyOp49
 70
     1
102
RTVSPropertyOp50
 70
     1
102
RTVSPropertyOp51
 70
     0
102
RTVSPropertyOp52
 70
     0
102
RTVSPropertyOp53
 70
     1
102
RTVSPropertyOp54
 70
     1
102
RTVSPropertyOp55
 70
     1
102
RTVSPropertyOp56
 70
     1
102
RTVSPropertyOp57
 70
     1
102
RTVSPropertyOp58
 70
     1
102
RTVSPropertyOp59
 70
     1
102
RTVSPropertyOp60
 70
     1
102
RTVSPropertyOp61
 70
     1
102
RTVSPropertyOp62
 70
     1
  0
XRECORD
  5
1A92
102
{ACAD_REACTORS
330
1A91
102
}
330
1A91
100
AcDbXrecord
280
     1
102
RTVSPost2010Prop28
280
     0
102
RTVSPost2010PropOp28
 70
     1
102
RTVSPost2010Prop29
280
     1
102
RTVSPost2010PropOp29
 70
     1
102
RTVSPost2010Prop30
280
     1
102
RTVSPost2010PropOp30
 70
     1
102
RTVSPost2010Prop31
280
     0
102
RTVSPost2010PropOp31
 70
     1
102
RTVSPost2010Prop32
280
     0
102
RTVSPost2010PropOp32
 70
     1
102
RTVSPost2010Prop33
280
     0
102
RTVSPost2010PropOp33
 70
     1
102
RTVSPost2010Prop34
280
     0
102
RTVSPost2010PropOp34
 70
     1
102
RTVSPost2010Prop35
280
     0
102
RTVSPost2010PropOp35
 70
     1
102
RTVSPost2010Prop36
280
     0
102
RTVSPost2010PropOp36
 70
     1
102
RTVSPost2010Prop37
 90
       50
102
RTVSPost2010PropOp37
 70
     1
102
RTVSPost2010Prop38
140
0.0
102
RTVSPost2010PropOp38
 70
     1
102
RTVSPost2010Prop39
140
1.0
102
RTVSPost2010PropOp39
 70
     1
102
RTVSPost2010Prop40
 90
        0
102
RTVSPost2010PropOp40
 70
     1
102
RTVSPost2010Prop41ColorIndex
 90
       18
102
RTVSPost2010Prop41ColorRGB
 90
        0
102
RTVSPost2010PropOp41
 70
     1
102
RTVSPost2010Prop42
 90
       50
102
RTVSPost2010PropOp42
 70
     1
102
RTVSPost2010Prop43
 90
        3
102
RTVSPost2010PropOp43
 70
     1
102
RTVSPost2010Prop44ColorIndex
 90
        5
102
RTVSPost2010Prop44ColorRGB
 90
      255
102
RTVSPost2010PropOp44
 70
     1
102
RTVSPost2010Prop45
280
     0
102
RTVSPost2010PropOp45
 70
     1
102
RTVSPost2010Prop46
 90
       50
102
RTVSPost2010PropOp46
 70
     1
102
RTVSPost2010Prop47
 90
       50
102
RTVSPost2010PropOp47
 70
     1
102
RTVSPost2010Prop48
 90
       50
102
RTVSPost2010PropOp48
 70
     1
102
RTVSPost2010Prop49
280
     0
102
RTVSPost2010PropOp49
 70
     1
102
RTVSPost2010Prop50
 90
       50
102
RTVSPost2010PropOp50
 70
     1
102
RTVSPost2010Prop51ColorIndex
 90
      256
102
RTVSPost2010Prop51ColorRGB
 90
-16777216
102
RTVSPost2010PropOp51
 70
     0
102
RTVSPost2010Prop52
140
1.0
102
RTVSPost2010PropOp52
 70
     0
102
RTVSPost2010Prop53
 90
        2
102
RTVSPost2010PropOp53
 70
     1
102
RTVSPost2010Prop54
  1
strokes_ogs.tif
102
RTVSPost2010PropOp54
 70
     1
102
RTVSPost2010Prop55
280
     0
102
RTVSPost2010PropOp55
 70
     1
102
RTVSPost2010Prop56
140
1.0
102
RTVSPost2010PropOp56
 70
     1
102
RTVSPost2010Prop57
140
1.0
102
RTVSPost2010PropOp57
 70
     1
102
RTVSPropertyOp0
 70
     1
102
RTVSPropertyOp1
 70
     1
102
RTVSPropertyOp2
 70
     1
102
RTVSPropertyOp3
 70
     1
102
RTVSPropertyOp4
 70
     1
102
RTVSPropertyOp5
 70
     1
102
RTVSPropertyOp6
 70
     1
102
RTVSPropertyOp7
 70
     1
102
RTVSPropertyOp8
 70
     1
102
RTVSPropertyOp9
 70
     1
102
RTVSPropertyOp10
 70
     1
102
RTVSPropertyOp11
 70
     1
102
RTVSPropertyOp12
 70
     1
102
RTVSPropertyOp13
 70
     1
102
RTVSPropertyOp14
 70
     1
102
RTVSPropertyOp15
 70
     1
102
RTVSPropertyOp16
 70
     1
102
RTVSPropertyOp17
 70
     1
102
RTVSPropertyOp18
 70
     1
102
RTVSPropertyOp19
 70
     1
102
RTVSPropertyOp20
 70
     1
102
RTVSPropertyOp21
 70
     1
102
RTVSPropertyOp22
 70
     1
102
RTVSPropertyOp23
 70
     1
102
RTVSPropertyOp24
 70
     1
102
RTVSPropertyOp25
 70
     1
102
RTVSPropertyOp26
 70
     1
102
RTVSPropertyOp27
 70
     1
102
RTVSPropertyOp28
 70
     1
102
RTVSPropertyOp29
 70
     1
102
RTVSPropertyOp30
 70
     1
102
RTVSPropertyOp31
 70
     1
102
RTVSPropertyOp32
 70
     1
102
RTVSPropertyOp33
 70
     1
102
RTVSPropertyOp34
 70
     1
102
RTVSPropertyOp35
 70
     1
102
RTVSPropertyOp36
 70
     1
102
RTVSPropertyOp37
 70
     1
102
RTVSPropertyOp38
 70
     1
102
RTVSPropertyOp39
 70
     1
102
RTVSPropertyOp40
 70
     1
102
RTVSPropertyOp41
 70
     1
102
RTVSPropertyOp42
 70
     1
102
RTVSPropertyOp43
 70
     1
102
RTVSPropertyOp44
 70
     1
102
RTVSPropertyOp45
 70
     1
102
RTVSPropertyOp46
 70
     1
102
RTVSPropertyOp47
 70
     1
102
RTVSPropertyOp48
 70
     1
102
RTVSPropertyOp49
 70
     1
102
RTVSPropertyOp50
 70
     1
102
RTVSPropertyOp51
 70
     0
102
RTVSPropertyOp52
 70
     0
102
RTVSPropertyOp53
 70
     1
102
RTVSPropertyOp54
 70
     1
102
RTVSPropertyOp55
 70
     1
102
RTVSPropertyOp56
 70
     1
102
RTVSPropertyOp57
 70
     1
102
RTVSPropertyOp58
 70
     1
102
RTVSPropertyOp59
 70
     1
102
RTVSPropertyOp60
 70
     1
102
RTVSPropertyOp61
 70
     1
102
RTVSPropertyOp62
 70
     1
  0
ENDSEC
  0
EOF
