  0
SECTION
  2
HEADER
  9
$ACADVER
  1
AC1015
  9
$ACADMAINTVER
 70
    20
  9
$DWGCODEPAGE
  3
ANSI_1252
  9
$INSBASE
 10
0.0
 20
0.0
 30
0.0
  9
$EXTMIN
 10
-134.9065840483022
 20
-65.88561899481056
 30
-0.0015258207003583
  9
$EXTMAX
 10
49.18139754163735
 20
12.45605540049268
 30
0.0000000349246037
  9
$LIMMIN
 10
-170.0
 20
-170.0
  9
$LIMMAX
 10
519.0
 20
260.0
  9
$ORTHOMODE
 70
     1
  9
$REGENMODE
 70
     1
  9
$FILLMODE
 70
     1
  9
$QTEXTMODE
 70
     0
  9
$MIRRTEXT
 70
     0
  9
$LTSCALE
 40
1.0
  9
$ATTMODE
 70
     1
  9
$TEXTSIZE
 40
5.0
  9
$TRACEWID
 40
1.0
  9
$TEXTSTYLE
  7
USER1
  9
$CLAYER
  8
1
  9
$CELTYPE
  6
BYLAYER
  9
$CECOLOR
 62
   256
  9
$CELTSCALE
 40
1.0
  9
$DISPSILH
 70
     0
  9
$DIMSCALE
 40
1.0
  9
$DIMASZ
 40
2.5
  9
$DIMEXO
 40
1.0
  9
$DIMDLI
 40
15.0
  9
$DIMRND
 40
0.0
  9
$DIMDLE
 40
0.0
  9
$DIMEXE
 40
2.0
  9
$DIMTP
 40
0.0
  9
$DIMTM
 40
0.000000001
  9
$DIMTXT
 40
3.5
  9
$DIMCEN
 40
0.09
  9
$DIMTSZ
 40
0.0
  9
$DIMTOL
 70
     0
  9
$DIMLIM
 70
     0
  9
$DIMTIH
 70
     0
  9
$DIMTOH
 70
     0
  9
$DIMSE1
 70
     0
  9
$DIMSE2
 70
     0
  9
$DIMTAD
 70
     1
  9
$DIMZIN
 70
     8
  9
$DIMBLK
  1

  9
$DIMASO
 70
     1
  9
$DIMSHO
 70
     1
  9
$DIMPOST
  1

  9
$DIMAPOST
  1

  9
$DIMALT
 70
     0
  9
$DIMALTD
 70
     3
  9
$DIMALTF
 40
0.0393701
  9
$DIMLFAC
 40
1.0
  9
$DIMTOFL
 70
     1
  9
$DIMTVP
 40
0.0
  9
$DIMTIX
 70
     0
  9
$DIMSOXD
 70
     0
  9
$DIMSAH
 70
     0
  9
$DIMBLK1
  1

  9
$DIMBLK2
  1

  9
$DIMSTYLE
  2
AM_DIN
  9
$DIMCLRD
 70
     0
  9
$DIMCLRE
 70
     0
  9
$DIMCLRT
 70
     0
  9
$DIMTFAC
 40
0.7071069999999999
  9
$DIMGAP
 40
1.0
  9
$DIMJUST
 70
     0
  9
$DIMSD1
 70
     0
  9
$DIMSD2
 70
     0
  9
$DIMTOLJ
 70
     1
  9
$DIMTZIN
 70
     8
  9
$DIMALTZ
 70
    11
  9
$DIMALTTZ
 70
     8
  9
$DIMUPT
 70
     0
  9
$DIMDEC
 70
     2
  9
$DIMTDEC
 70
     2
  9
$DIMALTU
 70
     3
  9
$DIMALTTD
 70
     3
  9
$DIMTXSTY
  7
STANDARD 3.5 mm
  9
$DIMAUNIT
 70
     0
  9
$DIMADEC
 70
     0
  9
$DIMALTRND
 40
0.0
  9
$DIMAZIN
 70
     2
  9
$DIMDSEP
 70
    46
  9
$DIMATFIT
 70
     3
  9
$DIMFRAC
 70
     0
  9
$DIMLDRBLK
  1

  9
$DIMLUNIT
 70
     2
  9
$DIMLWD
 70
    -1
  9
$DIMLWE
 70
    -1
  9
$DIMTMOVE
 70
     0
  9
$LUNITS
 70
     2
  9
$LUPREC
 70
     4
  9
$SKETCHINC
 40
1.0
  9
$FILLETRAD
 40
0.0
  9
$AUNITS
 70
     0
  9
$AUPREC
 70
     0
  9
$MENU
  1
c:\tdm21\cad\caduti13\tdm13
  9
$ELEVATION
 40
0.0
  9
$PELEVATION
 40
0.0
  9
$THICKNESS
 40
0.0
  9
$LIMCHECK
 70
     0
  9
$CHAMFERA
 40
0.0
  9
$CHAMFERB
 40
0.0
  9
$CHAMFERC
 40
0.0
  9
$CHAMFERD
 40
0.0
  9
$SKPOLY
 70
     0
  9
$TDCREATE
 40
2458095.631416609
  9
$TDUCREATE
 40
2458095.402249942
  9
$TDUPDATE
 40
2458095.634835185
  9
$TDUUPDATE
 40
2458095.405668519
  9
$TDINDWG
 40
0.0034202199
  9
$TDUSRTIMER
 40
0.0034201852
  9
$USRTIMER
 70
     1
  9
$ANGBASE
 50
0.0
  9
$ANGDIR
 70
     0
  9
$PDMODE
 70
     1
  9
$PDSIZE
 40
0.0
  9
$PLINEWID
 40
0.0
  9
$SPLFRAME
 70
     0
  9
$SPLINETYPE
 70
     6
  9
$SPLINESEGS
 70
     8
  9
$HANDSEED
  5
178E
  9
$SURFTAB1
 70
     6
  9
$SURFTAB2
 70
     6
  9
$SURFTYPE
 70
     6
  9
$SURFU
 70
     6
  9
$SURFV
 70
     6
  9
$UCSBASE
  2

  9
$UCSNAME
  2

  9
$UCSORG
 10
0.0
 20
0.0
 30
0.0
  9
$UCSXDIR
 10
1.0
 20
0.0
 30
0.0
  9
$UCSYDIR
 10
0.0
 20
1.0
 30
0.0
  9
$UCSORTHOREF
  2

  9
$UCSORTHOVIEW
 70
     0
  9
$UCSORGTOP
 10
0.0
 20
0.0
 30
0.0
  9
$UCSORGBOTTOM
 10
0.0
 20
0.0
 30
0.0
  9
$UCSORGLEFT
 10
0.0
 20
0.0
 30
0.0
  9
$UCSORGRIGHT
 10
0.0
 20
0.0
 30
0.0
  9
$UCSORGFRONT
 10
0.0
 20
0.0
 30
0.0
  9
$UCSORGBACK
 10
0.0
 20
0.0
 30
0.0
  9
$PUCSBASE
  2

  9
$PUCSNAME
  2

  9
$PUCSORG
 10
0.0
 20
0.0
 30
0.0
  9
$PUCSXDIR
 10
1.0
 20
0.0
 30
0.0
  9
$PUCSYDIR
 10
0.0
 20
1.0
 30
0.0
  9
$PUCSORTHOREF
  2

  9
$PUCSORTHOVIEW
 70
     0
  9
$PUCSORGTOP
 10
0.0
 20
0.0
 30
0.0
  9
$PUCSORGBOTTOM
 10
0.0
 20
0.0
 30
0.0
  9
$PUCSORGLEFT
 10
0.0
 20
0.0
 30
0.0
  9
$PUCSORGRIGHT
 10
0.0
 20
0.0
 30
0.0
  9
$PUCSORGFRONT
 10
0.0
 20
0.0
 30
0.0
  9
$PUCSORGBACK
 10
0.0
 20
0.0
 30
0.0
  9
$USERI1
 70
     0
  9
$USERI2
 70
     0
  9
$USERI3
 70
     0
  9
$USERI4
 70
     0
  9
$USERI5
 70
     0
  9
$USERR1
 40
0.0
  9
$USERR2
 40
0.0
  9
$USERR3
 40
0.0
  9
$USERR4
 40
0.0
  9
$USERR5
 40
0.0
  9
$WORLDVIEW
 70
     1
  9
$SHADEDGE
 70
     3
  9
$SHADEDIF
 70
    70
  9
$TILEMODE
 70
     1
  9
$MAXACTVP
 70
    64
  9
$PINSBASE
 10
0.0
 20
0.0
 30
0.0
  9
$PLIMCHECK
 70
     0
  9
$PEXTMIN
 10
-0.0226558438690745
 20
-0.0160192835437556
 30
-0.000000000000013
  9
$PEXTMAX
 10
297.000001383183
 20
210.0000009780083
 30
0.0000000000000023
  9
$PLIMMIN
 10
0.0
 20
0.0
  9
$PLIMMAX
 10
297.0
 20
210.0
  9
$UNITMODE
 70
     0
  9
$VISRETAIN
 70
     0
  9
$PLINEGEN
 70
     0
  9
$PSLTSCALE
 70
     1
  9
$TREEDEPTH
 70
  3020
  9
$CMLSTYLE
  2
STANDARD
  9
$CMLJUST
 70
     0
  9
$CMLSCALE
 40
20.0
  9
$PROXYGRAPHICS
 70
     1
  9
$MEASUREMENT
 70
     1
  9
$CELWEIGHT
370
    -1
  9
$ENDCAPS
280
     0
  9
$JOINSTYLE
280
     0
  9
$LWDISPLAY
290
     0
  9
$INSUNITS
 70
     0
  9
$HYPERLINKBASE
  1
http://www.secotools.com/
  9
$STYLESHEET
  1
monochrome.ctb
  9
$XEDIT
290
     1
  9
$CEPSNTYPE
380
     0
  9
$PSTYLEMODE
290
     1
  9
$FINGERPRINTGUID
  2
{8AD85564-2895-4A1C-A96C-C27F0114F6A3}
  9
$VERSIONGUID
  2
{2D156ECE-21A4-4F3F-BA8C-4512A64204BB}
  9
$EXTNAMES
290
     1
  9
$PSVPSCALE
 40
0.0
  9
$OLESTARTUP
290
     0
  0
ENDSEC
  0
SECTION
  2
CLASSES
  0
CLASS
  1
ACDBDICTIONARYWDFLT
  2
AcDbDictionaryWithDefault
  3
ObjectDBX Classes
 90
        0
280
     0
281
     0
  0
CLASS
  1
ACDBPLACEHOLDER
  2
AcDbPlaceHolder
  3
ObjectDBX Classes
 90
        0
280
     0
281
     0
  0
CLASS
  1
LAYOUT
  2
AcDbLayout
  3
ObjectDBX Classes
 90
        0
280
     0
281
     0
  0
CLASS
  1
DICTIONARYVAR
  2
AcDbDictionaryVar
  3
ObjectDBX Classes
 90
        0
280
     0
281
     0
  0
CLASS
  1
TABLESTYLE
  2
AcDbTableStyle
  3
ObjectDBX Classes
 90
     4095
280
     0
281
     0
  0
CLASS
  1
MATERIAL
  2
AcDbMaterial
  3
ObjectDBX Classes
 90
     1153
280
     0
281
     0
  0
CLASS
  1
VISUALSTYLE
  2
AcDbVisualStyle
  3
ObjectDBX Classes
 90
     4095
280
     0
281
     0
  0
CLASS
  1
SCALE
  2
AcDbScale
  3
ObjectDBX Classes
 90
     1153
280
     0
281
     0
  0
CLASS
  1
MLEADERSTYLE
  2
AcDbMLeaderStyle
  3
ACDB_MLEADERSTYLE_CLASS
 90
     4095
280
     0
281
     0
  0
CLASS
  1
ACME_DOCUMENT
  2
AcMeDbDoc
  3
AcMeServices
 90
     1024
280
     0
281
     0
  0
CLASS
  1
AMGSETTINGSOBJ
  2
AmgSettingsObj
  3
"AcadM|Product Description: AutoCAD Mechanical|Company: Autodesk, Inc."
 90
     1024
280
     0
281
     0
  0
CLASS
  1
ACMESCOPE
  2
AcMeScope
  3
AcMeServices
 90
     1024
280
     0
281
     0
  0
CLASS
  1
ACMECOMMANDHISTORY
  2
AcMeCommandHistory
  3
AcMeServices
 90
     1024
280
     0
281
     0
  0
CLASS
  1
ACIMSYSVARMAN
  2
AcImSysVarManager
  3
AcMeServices
 90
     1024
280
     0
281
     0
  0
CLASS
  1
ACIMINTSYSVAR
  2
AcImIntSysVar
  3
AcMeServices
 90
     1024
280
     0
281
     0
  0
CLASS
  1
ACMEDRAWINGMAN
  2
AcMeDrawingMan
  3
AcMeServices
 90
    33792
280
     0
281
     0
  0
CLASS
  1
ACMEVIEW
  2
AcMeView
  3
AcMeServices
 90
    33792
280
     0
281
     0
  0
CLASS
  1
ACDBENTITYCACHE
  2
AcMeEntityCache
  3
AcMeServices
 90
     1024
280
     0
281
     0
  0
CLASS
  1
GSMANAGER
  2
AcMeGSManager
  3
AcMeServices
 90
    33792
280
     0
281
     0
  0
CLASS
  1
AMDTINTERNALREACTOR
  2
AmdtInternalReactor
  3
AcMeServices
 90
     1024
280
     0
281
     0
  0
CLASS
  1
ACMESTATEMGR
  2
AcMeStateMgr
  3
AcMeServices
 90
     1024
280
     0
281
     0
  0
CLASS
  1
ACGREFMASTER
  2
AcGrefMaster
  3
AcAttribServices
 90
     1024
280
     0
281
     0
  0
CLASS
  1
AM_DRAWING_MGR
  2
AcDmDwgMgr
  3
AcMechDwgViewMgmt
 90
     1024
280
     0
281
     0
  0
CLASS
  1
AM_DWG_DOCUMENT
  2
AcDmDwgDocument
  3
AcMechDwgViewMgmt
 90
     1024
280
     0
281
     0
  0
CLASS
  1
AM_DWG_SHEET
  2
AcDmSheet
  3
AcMechDwgViewMgmt
 90
     1024
280
     0
281
     0
  0
CLASS
  1
AM_VIEWDIMPARMAP
  2
AcDmViewDimParMap
  3
AcMechDwgViewMgmt
 90
     1024
280
     0
281
     0
  0
CLASS
  1
ACIMREALSYSVAR
  2
AcImRealSysVar
  3
AcMeServices
 90
     1024
280
     0
281
     0
  0
CLASS
  1
AM_DWGMGR_NAME
  2
AcDmDwgMgrName
  3
AcMechDwgViewMgmt
 90
     1024
280
     0
281
     0
  0
CLASS
  1
ACME_DATABASE
  2
AcMeDbDatabase
  3
AcMeServices
 90
     1024
280
     0
281
     0
  0
CLASS
  1
ACRFINSADJUSTERMGR
  2
AcRfInsAdjusterMgr
  3
AcMeServices
 90
     1024
280
     0
281
     0
  0
CLASS
  1
ACGREFACADMASTER
  2
AcGrefacadMaster
  3
AcGrefServices
 90
     1024
280
     0
281
     0
  0
CLASS
  1
AMDTMENUSTATEMGR
  2
AmdtMenuStateMgr
  3
McadcomServices
 90
     1024
280
     0
281
     0
  0
CLASS
  1
AMDTMCOMMENUSTATE
  2
AmdtMcomMenuState
  3
McadcomServices
 90
     1024
280
     0
281
     0
  0
CLASS
  1
AMIMASTER
  2
AmiMaster
  3
AmiServices
 90
     1024
280
     0
281
     0
  0
CLASS
  1
MAPIAMMOUDLE
  2
MApiAmModule
  3
MApiAmServices
 90
     1024
280
     0
281
     0
  0
CLASS
  1
ACIMSTRSYSVAR
  2
AcImStrSysVar
  3
AcMeServices
 90
     1024
280
     0
281
     0
  0
CLASS
  1
AMDTADMENUSTATE
  2
AmdtAdMenuState
  3
DesignerServices
 90
    33792
280
     0
281
     0
  0
CLASS
  1
ADAPPL
  2
AcAdAppl
  3
DesignerAssemblies
 90
    33792
280
     0
281
     0
  0
CLASS
  1
DEPMGR
  2
AcAdDepMgr
  3
DesignerAssemblies
 90
    33792
280
     0
281
     0
  0
CLASS
  1
PARAMMGR
  2
AcAdParamMgr
  3
DesignerAssemblies
 90
    33792
280
     0
281
     0
  0
CLASS
  1
PARAMSCOPE
  2
AcAdParamScope
  3
DesignerAssemblies
 90
    33792
280
     0
281
     0
  0
CLASS
  1
NAMEDAPPL
  2
AcAdNamedAppl
  3
DesignerAssemblies
 90
    33792
280
     0
281
     0
  0
CLASS
  1
AMDTDMMENUSTATE
  2
AmdtDmMenuState
  3
AcMechDwgViewMgmt
 90
    33792
280
     0
281
     0
  0
CLASS
  1
AMDTAMMENUSTATE
  2
AmdtAmMenuState
  3
DesignerAssemblies
 90
     1024
280
     0
281
     0
  0
CLASS
  1
ACAMPROJECT
  2
AcAmProject
  3
DesignerAssemblies
 90
     1024
280
     0
281
     0
  0
CLASS
  1
ACAMGRCOMPDEF
  2
AcAmGrCompDef
  3
DesignerAssemblies
 90
     1024
280
     0
281
     0
  0
CLASS
  1
ACCMCONTEXT
  2
AcCmContext
  3
DesignerAssemblies
 90
     1024
280
     0
281
     0
  0
CLASS
  1
ACAMCOMPDEF
  2
AcAmCompDef
  3
DesignerAssemblies
 90
     1024
280
     0
281
     0
  0
CLASS
  1
ACAMCOMPDEFMGR
  2
AcAmCompDefMgr
  3
DesignerAssemblies
 90
     1024
280
     0
281
     0
  0
CLASS
  1
AMCONTEXTMGR
  2
AcAmContextMgr
  3
DesignerAssemblies
 90
     1024
280
     0
281
     0
  0
CLASS
  1
ACAMCONTEXTMODELER
  2
AcAmContextModeler
  3
DesignerAssemblies
 90
     1024
280
     0
281
     0
  0
CLASS
  1
ACMDATADICTIONARY
  2
AcmDataDictionary
  3
"AcmSymBB|Product Description: AutoCAD Mechanical|Company: Autodesk, Inc."
 90
     1024
280
     0
281
     0
  0
CLASS
  1
CATALOGSTATE
  2
AcAmCatalogState
  3
DesignerAssemblies
 90
    33792
280
     0
281
     0
  0
CLASS
  1
ACAMGRCOMPDEFSET
  2
AcAmGrCompDefSet
  3
DesignerAssemblies
 90
     1024
280
     0
281
     0
  0
CLASS
  1
AMDTBROWSERDBTAB
  2
AmdtBrowserDbTab
  3
McadcomServices
 90
     1024
280
     0
281
     0
  0
CLASS
  1
CBROWSERAPPOBJECT
  2
CBrowserAppObject
  3
McadcomServices
 90
     1024
280
     0
281
     0
  0
CLASS
  1
DM_PLACEHOLDER
  2
AcDmSelsetPlaceholder
  3
McadcomServices
 90
     1024
280
     0
281
     0
  0
CLASS
  1
ACMSTANDARDDIN
  2
AcmStandardDIN
  3
"Amdt_StdImp|Product Description: AutoCAD Mechanical|Company: Autodesk, Inc."
 90
     1024
280
     0
281
     0
  0
CLASS
  1
AMGOBJPROPCFG
  2
AmgObjPropCfg
  3
"AmgLay|Product Description: AutoCAD Mechanical|Company: Autodesk, Inc."
 90
     1024
280
     0
281
     0
  0
CLASS
  1
AMDTEDGESTANDARDDIN13715
  2
AmdtEdgeStdDIN13715
  3
"Amdt_StdImp|Product Description: AutoCAD Mechanical|Company: Autodesk, Inc."
 90
     1024
280
     0
281
     0
  0
CLASS
  1
ACMSURFSTANDARDDIN2002
  2
AcmSurfTextStdDIN2002
  3
"Amdt_StdImp|Product Description: AutoCAD Mechanical|Company: Autodesk, Inc."
 90
     1024
280
     0
281
     0
  0
CLASS
  1
ACMFCFSTANDARDDIN
  2
AcmFCFStdDIN
  3
"Amdt_StdImp|Product Description: AutoCAD Mechanical|Company: Autodesk, Inc."
 90
     1024
280
     0
281
     0
  0
CLASS
  1
ACMWELDSTANDARDDIN
  2
AcmWeldingStdDIN
  3
"Amdt_StdImp|Product Description: AutoCAD Mechanical|Company: Autodesk, Inc."
 90
     1024
280
     0
281
     0
  0
CLASS
  1
ACMIDSTANDARDDIN
  2
AcmIdStdDIN
  3
"Amdt_StdImp|Product Description: AutoCAD Mechanical|Company: Autodesk, Inc."
 90
     1024
280
     0
281
     0
  0
CLASS
  1
ACMDATUMSTANDARDDIN
  2
AcmDatumStdDIN
  3
"Amdt_StdImp|Product Description: AutoCAD Mechanical|Company: Autodesk, Inc."
 90
     1024
280
     0
281
     0
  0
CLASS
  1
ACMBOMSTANDARDDIN
  2
AcmBOMStdDIN
  3
"Amdt_StdImp|Product Description: AutoCAD Mechanical|Company: Autodesk, Inc."
 90
     1024
280
     0
281
     0
  0
CLASS
  1
ACMDETAILSTANDARDDIN
  2
AmdtDetailSymStdDIN
  3
"Amdt_StdImp|Product Description: AutoCAD Mechanical|Company: Autodesk, Inc."
 90
     1024
280
     0
281
     0
  0
CLASS
  1
ACMSECTIONSTANDARDDIN
  2
AmdtSectionSymStdDIN
  3
"Amdt_StdImp|Product Description: AutoCAD Mechanical|Company: Autodesk, Inc."
 90
     1024
280
     0
281
     0
  0
CLASS
  1
ACMCENTERLINESTANDARDDIN
  2
AmdtCenterLineStdDIN
  3
"Amdt_StdImp|Product Description: AutoCAD Mechanical|Company: Autodesk, Inc."
 90
     1024
280
     0
281
     0
  0
CLASS
  1
ACMTHREADLINESTANDARDDIN
  2
AmdtThreadLineStdDIN
  3
"Amdt_StdImp|Product Description: AutoCAD Mechanical|Company: Autodesk, Inc."
 90
     1024
280
     0
281
     0
  0
CLASS
  1
ACMNOTESTANDARDDIN
  2
AmdtNoteStdDIN
  3
"Amdt_StdImp|Product Description: AutoCAD Mechanical|Company: Autodesk, Inc."
 90
     1024
280
     0
281
     0
  0
CLASS
  1
ACMTAPERSTANDARDDIN
  2
AcmTaperStdDIN
  3
"Amdt_StdImp|Product Description: AutoCAD Mechanical|Company: Autodesk, Inc."
 90
     1024
280
     0
281
     0
  0
CLASS
  1
ACMANOOTATIONVIEWSTANDARDDIN
  2
AmdtAnViewStdDIN
  3
"Amdt_StdImp|Product Description: AutoCAD Mechanical|Company: Autodesk, Inc."
 90
     1024
280
     0
281
     0
  0
CLASS
  1
AMDTNOTETEMPLATEDB
  2
AmdtNoteTemplateDB
  3
AcmSymBB|Product Description: AutoCAD Mechanical|Company: Autodesk, Inc.
 90
     1024
280
     0
281
     0
  0
CLASS
  1
ACAMGLAYSTD
  2
AcAmgLayStd
  3
"AmgLay|Product Description: AutoCAD Mechanical|Company: Autodesk, Inc."
 90
     1024
280
     0
281
     0
  0
CLASS
  1
ACAMGDIMSTD
  2
AcAmgDimStd
  3
"AmgDim|Product Description: AutoCAD Mechanical|Company: Autodesk, Inc."
 90
     1024
280
     0
281
     0
  0
CLASS
  1
ACAMGHOLECHARTSTDDIN
  2
AcAmgHoleChartStdDIN
  3
AmgDim|Product Description: AutoCAD Mechanical|Company: Autodesk, Inc.
 90
     1024
280
     0
281
     0
  0
CLASS
  1
ACAMGTITLESTD
  2
AcAmgTitleStd
  3
"AmgTitle|Product Description: AutoCAD Mechanical|Company: Autodesk, Inc."
 90
     1024
280
     0
281
     0
  0
CLASS
  1
ACAMGFILTERDAT
  2
AcAmgFilterDat
  3
"AcadM|Product Description: AutoCAD Mechanical|Company: Autodesk, Inc."
 90
     1024
280
     0
281
     0
  0
CLASS
  1
CAMSSTRUCTBTNSTATE
  2
StructBtnState
  3
DesignerAssemblies
 90
     1024
280
     0
281
     0
  0
CLASS
  1
CELLSTYLEMAP
  2
AcDbCellStyleMap
  3
ObjectDBX Classes
 90
     1152
280
     0
281
     0
  0
CLASS
  1
SORTENTSTABLE
  2
AcDbSortentsTable
  3
ObjectDBX Classes
 90
        0
280
     0
281
     0
  0
CLASS
  1
PLOTSETTINGS
  2
AcDbPlotSettings
  3
ObjectDBX Classes
 90
        0
280
     0
281
     0
  0
CLASS
  1
SOLID_BACKGROUND
  2
AcDbSolidBackground
  3
SCENEOE
 90
    36863
280
     0
281
     0
  0
CLASS
  1
NPOCOLLECTION
  2
AcDbImpNonPersistentObjectsCollection
  3
ObjectDBX Classes
 90
    33921
280
     0
281
     0
  0
CLASS
  1
ACDBSECTIONVIEWSTYLE
  2
AcDbSectionViewStyle
  3
ObjectDBX Classes
 90
     1025
280
     0
281
     0
  0
CLASS
  1
ACDBDETAILVIEWSTYLE
  2
AcDbDetailViewStyle
  3
ObjectDBX Classes
 90
     1025
280
     0
281
     0
  0
CLASS
  1
ACMSECTIONSTANDARDCUSTOM
  2
AmdtSectionSymStdCustom
  3
"Amdt_StdImp|Product Description: AutoCAD Mechanical|Company: Autodesk, Inc."
 90
     1024
280
     0
281
     0
  0
CLASS
  1
ACMDETAILTANDARDCUSTOM
  2
AmdtDetailSymStdCustom
  3
"Amdt_StdImp|Product Description: AutoCAD Mechanical|Company: Autodesk, Inc."
 90
     1024
280
     0
281
     0
  0
CLASS
  1
FIELD
  2
AcDbField
  3
ObjectDBX Classes
 90
     1152
280
     0
281
     0
  0
CLASS
  1
FIELDLIST
  2
AcDbFieldList
  3
ObjectDBX Classes
 90
     1152
280
     0
281
     0
  0
CLASS
  1
DIMASSOC
  2
AcDbDimAssoc
  3
"AcDbDimAssoc|Product Desc:     AcDim ARX App For Dimension|Company:          Autodesk, Inc.|WEB Address:      www.autodesk.com"
 90
    32768
280
     0
281
     0
  0
CLASS
  1
ACMSTANDARDISO
  2
AcmStandardISO
  3
"Amdt_StdImp|Product Description: AutoCAD Mechanical|Company: Autodesk, Inc."
 90
     1024
280
     0
281
     0
  0
CLASS
  1
AMDTEDGESTANDARDISO13715
  2
AmdtEdgeStdISO13715
  3
"Amdt_StdImp|Product Description: AutoCAD Mechanical|Company: Autodesk, Inc."
 90
     1024
280
     0
281
     0
  0
CLASS
  1
ACMSURFSTANDARDISO2002
  2
AcmSurfTextStdISO2002
  3
"Amdt_StdImp|Product Description: AutoCAD Mechanical|Company: Autodesk, Inc."
 90
     1024
280
     0
281
     0
  0
CLASS
  1
ACMFCFSTANDARDISO2004
  2
AcmFCFStdISO2004
  3
"Amdt_StdImp|Product Description: AutoCAD Mechanical|Company: Autodesk, Inc."
 90
     1024
280
     0
281
     0
  0
CLASS
  1
ACMWELDSTANDARDISO
  2
AcmWeldingStdISO
  3
"Amdt_StdImp|Product Description: AutoCAD Mechanical|Company: Autodesk, Inc."
 90
     1024
280
     0
281
     0
  0
CLASS
  1
ACMIDSTANDARDISO2004
  2
AcmIdStdISO2004
  3
"Amdt_StdImp|Product Description: AutoCAD Mechanical|Company: Autodesk, Inc."
 90
     1024
280
     0
281
     0
  0
CLASS
  1
ACMDATUMSTANDARDISO
  2
AcmDatumStdISO
  3
"Amdt_StdImp|Product Description: AutoCAD Mechanical|Company: Autodesk, Inc."
 90
     1024
280
     0
281
     0
  0
CLASS
  1
ACMBOMSTANDARDISO
  2
AcmBOMStdISO
  3
"Amdt_StdImp|Product Description: AutoCAD Mechanical|Company: Autodesk, Inc."
 90
     1024
280
     0
281
     0
  0
CLASS
  1
ACMDETAILSTANDARDISO
  2
AmdtDetailSymStdISO
  3
"Amdt_StdImp|Product Description: AutoCAD Mechanical|Company: Autodesk, Inc."
 90
     1024
280
     0
281
     0
  0
CLASS
  1
ACMSECTIONSTANDARDISO2001
  2
AmdtSectionSymStdISO2001
  3
"Amdt_StdImp|Product Description: AutoCAD Mechanical|Company: Autodesk, Inc."
 90
     1024
280
     0
281
     0
  0
CLASS
  1
ACMCENTERLINESTANDARDISO
  2
AmdtCenterLineStdISO
  3
"Amdt_StdImp|Product Description: AutoCAD Mechanical|Company: Autodesk, Inc."
 90
     1024
280
     0
281
     0
  0
CLASS
  1
ACMTHREADLINESTANDARDISO
  2
AmdtThreadLineStdISO
  3
"Amdt_StdImp|Product Description: AutoCAD Mechanical|Company: Autodesk, Inc."
 90
     1024
280
     0
281
     0
  0
CLASS
  1
ACMNOTESTANDARDISO
  2
AmdtNoteStdISO
  3
"Amdt_StdImp|Product Description: AutoCAD Mechanical|Company: Autodesk, Inc."
 90
     1024
280
     0
281
     0
  0
CLASS
  1
ACMTAPERSTANDARDISO
  2
AcmTaperStdISO
  3
"Amdt_StdImp|Product Description: AutoCAD Mechanical|Company: Autodesk, Inc."
 90
     1024
280
     0
281
     0
  0
CLASS
  1
ACMANOOTATIONVIEWSTANDARDISO
  2
AmdtAnViewStdISO
  3
"Amdt_StdImp|Product Description: AutoCAD Mechanical|Company: Autodesk, Inc."
 90
     1024
280
     0
281
     0
  0
CLASS
  1
ACAMGHOLECHARTSTDISO
  2
AcAmgHoleChartStdISO
  3
AmgDim|Product Description: AutoCAD Mechanical|Company: Autodesk, Inc.
 90
     1024
280
     0
281
     0
  0
ENDSEC
  0
SECTION
  2
TABLES
  0
TABLE
  2
VPORT
  5
8
102
{ACAD_XDICTIONARY
360
A45
102
}
330
0
100
AcDbSymbolTable
 70
     1
  0
VPORT
  5
AD1
330
8
100
AcDbSymbolTableRecord
100
AcDbViewportTableRecord
  2
*Active
 70
     0
 10
0.0
 20
0.0
 11
1.0
 21
1.0
 12
-42.86259325333242
 22
-26.71478179715894
 13
0.0
 23
0.0
 14
5.0
 24
5.0
 15
5.0
 25
5.0
 16
0.0
 26
0.0
 36
1.0
 17
0.0
 27
0.0
 37
0.0
 40
107.3248166132752
 41
1.72168284789644
 42
50.0
 43
0.0
 44
0.0
 50
0.0
 51
0.0
 71
     0
 72
  2000
 73
     1
 74
     3
 75
     0
 76
     0
 77
     0
 78
     0
281
     0
 65
     1
110
0.0
120
0.0
130
0.0
111
1.0
121
0.0
131
0.0
112
0.0
122
1.0
132
0.0
 79
     0
146
0.0
1001
ACAD_NAV_VCDISPLAY
1070
     3
  0
ENDTAB
  0
TABLE
  2
LTYPE
  5
5
330
0
100
AcDbSymbolTable
 70
    14
  0
LTYPE
  5
12
330
5
100
AcDbSymbolTableRecord
100
AcDbLinetypeTableRecord
  2
BYBLOCK
 70
     0
  3

 72
    65
 73
     0
 40
0.0
  0
LTYPE
  5
13
330
5
100
AcDbSymbolTableRecord
100
AcDbLinetypeTableRecord
  2
BYLAYER
 70
     0
  3

 72
    65
 73
     0
 40
0.0
  0
LTYPE
  5
14
330
5
100
AcDbSymbolTableRecord
100
AcDbLinetypeTableRecord
  2
CONTINUOUS
 70
     0
  3
ISO continuous line ______________________________________
 72
    65
 73
     2
 40
9999.0
 49
9999.0
 74
     0
 49
0.0
 74
     0
  0
LTYPE
  5
4EF
330
5
100
AcDbSymbolTableRecord
100
AcDbLinetypeTableRecord
  2
ACDINWELD
 70
     0
  3
_ _ _ _ _
 72
    65
 73
     2
 40
2.0
 49
2.0
 74
     0
 49
-1.0
 74
     0
  0
LTYPE
  5
4F0
330
5
100
AcDbSymbolTableRecord
100
AcDbLinetypeTableRecord
  2
ACDINTGB
 70
     0
  3
__ . . __ . .
 72
    65
 73
     6
 40
9.0
 49
4.0
 74
     0
 49
-1.0
 74
     0
 49
1.0
 74
     0
 49
-1.0
 74
     0
 49
1.0
 74
     0
 49
-1.0
 74
     0
  0
LTYPE
  5
4F1
330
5
100
AcDbSymbolTableRecord
100
AcDbLinetypeTableRecord
  2
ACDINTGL
 70
     0
  3
_ _ _ _ _
 72
    65
 73
     2
 40
3.0
 49
2.0
 74
     0
 49
-1.0
 74
     0
  0
LTYPE
  5
916
330
5
100
AcDbSymbolTableRecord
100
AcDbLinetypeTableRecord
  2
LONGDASH_DASH
 70
     0
  3
ISO center line ____ _ ____ _ ____ _ ____ _ ___ _ ___
 72
    65
 73
     4
 40
10.5
 49
6.0
 74
     0
 49
-0.75
 74
     0
 49
3.0
 74
     0
 49
-0.75
 74
     0
  0
LTYPE
  5
917
330
5
100
AcDbSymbolTableRecord
100
AcDbLinetypeTableRecord
  2
DASH
 70
     0
  3
ISO hidden line __ __ __ __ __ __ __ __ __ __ __ __ __
 72
    65
 73
     2
 40
3.75
 49
3.0
 74
     0
 49
-0.75
 74
     0
  0
LTYPE
  5
CFA
330
5
100
AcDbSymbolTableRecord
100
AcDbLinetypeTableRecord
  2
HIDDEN
 70
     0
  3
Hidden __ __ __ __ __ __ __ __ __ __ __ __ __ _
 72
    65
 73
     2
 40
9.524999999999998
 49
6.349999999999999
 74
     0
 49
-3.174999999999999
 74
     0
  0
LTYPE
  5
CFB
330
5
100
AcDbSymbolTableRecord
100
AcDbLinetypeTableRecord
  2
PHANTOM2
 70
     0
  3
Phantom (.5x) ___ _ _ ___ _ _ ___ _ _ ___ _ _
 72
    65
 73
     6
 40
31.75
 49
15.875
 74
     0
 49
-3.174999999999999
 74
     0
 49
3.174999999999999
 74
     0
 49
-3.174999999999999
 74
     0
 49
3.174999999999999
 74
     0
 49
-3.174999999999999
 74
     0
  0
LTYPE
  5
CFC
330
5
100
AcDbSymbolTableRecord
100
AcDbLinetypeTableRecord
  2
CENTER
 70
     0
  3
Center ____ _ ____ _ ____ _ ____ _ ____ _ ____
 72
    65
 73
     4
 40
50.8
 49
31.75
 74
     0
 49
-6.349999999999999
 74
     0
 49
6.349999999999999
 74
     0
 49
-6.349999999999999
 74
     0
  0
LTYPE
  5
EF6
330
5
100
AcDbSymbolTableRecord
100
AcDbLinetypeTableRecord
  2
ACISOWELD
 70
     0
  3
_ _ _ _ _
 72
    65
 73
     2
 40
2.0
 49
2.0
 74
     0
 49
-1.0
 74
     0
  0
LTYPE
  5
EF7
330
5
100
AcDbSymbolTableRecord
100
AcDbLinetypeTableRecord
  2
ACISOTGL
 70
     0
  3
_ _ _ _ _
 72
    65
 73
     2
 40
3.0
 49
2.0
 74
     0
 49
-1.0
 74
     0
  0
LTYPE
  5
EF8
330
5
100
AcDbSymbolTableRecord
100
AcDbLinetypeTableRecord
  2
ACISOTGB
 70
     0
  3
__ . . __ . .
 72
    65
 73
     6
 40
9.0
 49
4.0
 74
     0
 49
-1.0
 74
     0
 49
1.0
 74
     0
 49
-1.0
 74
     0
 49
1.0
 74
     0
 49
-1.0
 74
     0
  0
ENDTAB
  0
TABLE
  2
LAYER
  5
2
102
{ACAD_XDICTIONARY
360
43C
102
}
330
0
100
AcDbSymbolTable
 70
    19
  0
LAYER
  5
F
102
{ACAD_XDICTIONARY
360
52D
102
}
330
2
100
AcDbSymbolTableRecord
100
AcDbLayerTableRecord
  2
0
 70
     0
 62
     7
  6
CONTINUOUS
290
     0
370
    -3
390
300
  0
LAYER
  5
23
102
{ACAD_XDICTIONARY
360
52F
102
}
330
2
100
AcDbSymbolTableRecord
100
AcDbLayerTableRecord
  2
1
 70
     0
 62
     4
  6
CONTINUOUS
370
    50
390
300
  0
LAYER
  5
24
102
{ACAD_XDICTIONARY
360
531
102
}
330
2
100
AcDbSymbolTableRecord
100
AcDbLayerTableRecord
  2
SK1
 70
     0
 62
     4
  6
CONTINUOUS
370
    50
390
300
  0
LAYER
  5
25
102
{ACAD_XDICTIONARY
360
533
102
}
330
2
100
AcDbSymbolTableRecord
100
AcDbLayerTableRecord
  2
2
 70
     0
 62
     7
  6
CONTINUOUS
370
    25
390
300
  0
LAYER
  5
27
102
{ACAD_XDICTIONARY
360
537
102
}
330
2
100
AcDbSymbolTableRecord
100
AcDbLayerTableRecord
  2
SK2
 70
     0
 62
     7
  6
CONTINUOUS
370
    25
390
300
  0
LAYER
  5
2E
102
{ACAD_XDICTIONARY
360
545
102
}
330
2
100
AcDbSymbolTableRecord
100
AcDbLayerTableRecord
  2
SK6
 70
     0
 62
     5
  6
CONTINUOUS
370
    35
390
300
  0
LAYER
  5
2F
330
2
100
AcDbSymbolTableRecord
100
AcDbLayerTableRecord
  2
DEFPOINTS
 70
     0
 62
     7
  6
CONTINUOUS
290
     0
370
    -3
390
300
  0
ENDTAB
  0
TABLE
  2
STYLE
  5
3
330
0
100
AcDbSymbolTable
 70
     8
  0
STYLE
  5
10
330
3
100
AcDbSymbolTableRecord
100
AcDbTextStyleTableRecord
  2
STANDARD
 70
     0
 40
0.0
 41
1.0
 50
0.0
 71
     0
 42
5.0
  3
monos.ttf
  4

1001
ACAD
1000
Monospac821 BT
1071
       49
  0
STYLE
  5
1E
330
3
100
AcDbSymbolTableRecord
100
AcDbTextStyleTableRecord
  2
STANDARD 5 mm
 70
     0
 40
5.0
 41
1.0
 50
0.0
 71
     0
 42
3.5
  3
monos.ttf
  4

1001
ACAD
1000
Monospac821 BT
1071
       49
  0
STYLE
  5
4DF
330
3
100
AcDbSymbolTableRecord
100
AcDbTextStyleTableRecord
  2
ACDINTS
 70
     0
 40
1.0
 41
1.0
 50
0.0
 71
     0
 42
3.5
  3
monos.ttf
  4

1001
ACAD
1000
Monospac821 BT
1071
       49
  0
STYLE
  5
4EE
330
3
100
AcDbSymbolTableRecord
100
AcDbTextStyleTableRecord
  2
ACDINGDT
 70
     0
 40
0.0
 41
1.0
 50
0.0
 71
     0
 42
3.5
  3
monos.ttf
  4

1001
ACAD
1000
Monospac821 BT
1071
       49
  0
STYLE
  5
7DE
330
3
100
AcDbSymbolTableRecord
100
AcDbTextStyleTableRecord
  2
STANDARD 3.5 mm
 70
     0
 40
3.5
 41
1.0
 50
0.0
 71
     0
 42
3.5
  3
monos.ttf
  4

1001
ACAD
1000
Monospac821 BT
1071
       49
  0
STYLE
  5
E90
330
3
100
AcDbSymbolTableRecord
100
AcDbTextStyleTableRecord
  2
USER1
 70
     0
 40
0.0
 41
1.0
 50
0.0
 71
     0
 42
5.0
  3
TXT.SHX
  4

  0
STYLE
  5
EF9
330
3
100
AcDbSymbolTableRecord
100
AcDbTextStyleTableRecord
  2
SIMPLEX
 70
     0
 40
0.0
 41
1.0
 50
0.0
 71
     0
 42
3.5
  3
simplex
  4

  0
STYLE
  5
EFA
330
3
100
AcDbSymbolTableRecord
100
AcDbTextStyleTableRecord
  2
ACISOGDT
 70
     0
 40
0.0
 41
1.0
 50
0.0
 71
     0
 42
3.5
  3
amgdt.shx
  4

  0
ENDTAB
  0
TABLE
  2
VIEW
  5
6
330
0
100
AcDbSymbolTable
 70
     6
  0
VIEW
  5
758
330
6
100
AcDbSymbolTableRecord
100
AcDbViewTableRecord
  2
AM_VIEW1
 70
     1
 40
148.5265045166015
 10
121.0318359737553
 20
219.614756822586
 41
248.4136475334483
 11
0.0
 21
0.0
 31
1.0
 12
0.0
 22
0.0
 32
0.0
 42
50.0
 43
0.0
 44
0.0
 50
0.0
 71
     0
281
     0
 72
     0
  0
VIEW
  5
759
330
6
100
AcDbSymbolTableRecord
100
AcDbViewTableRecord
  2
AM_VIEW2
 70
     1
 40
148.5265045166015
 10
292.4378600711665
 20
219.614756822586
 41
248.4136475334483
 11
0.0
 21
0.0
 31
1.0
 12
0.0
 22
0.0
 32
0.0
 42
50.0
 43
0.0
 44
0.0
 50
0.0
 71
     0
281
     0
 72
     0
  0
VIEW
  5
75A
330
6
100
AcDbSymbolTableRecord
100
AcDbViewTableRecord
  2
AM_VIEW3
 70
     1
 40
148.5265045166015
 10
121.0318359737553
 20
71.0882523059845
 41
248.4136475334483
 11
0.0
 21
0.0
 31
1.0
 12
0.0
 22
0.0
 32
0.0
 42
50.0
 43
0.0
 44
0.0
 50
0.0
 71
     0
281
     0
 72
     0
  0
VIEW
  5
75B
330
6
100
AcDbSymbolTableRecord
100
AcDbViewTableRecord
  2
AM_VIEW4
 70
     1
 40
148.5265045166015
 10
292.4378600711665
 20
71.0882523059845
 41
248.4136475334483
 11
0.0
 21
0.0
 31
1.0
 12
0.0
 22
0.0
 32
0.0
 42
50.0
 43
0.0
 44
0.0
 50
0.0
 71
     0
281
     0
 72
     0
  0
VIEW
  5
75C
330
6
100
AcDbSymbolTableRecord
100
AcDbViewTableRecord
  2
AM_VIEW5
 70
     1
 40
148.5265045166015
 10
206.7348480224609
 20
145.3515045642852
 41
248.4136475334483
 11
0.0
 21
0.0
 31
1.0
 12
0.0
 22
0.0
 32
0.0
 42
50.0
 43
0.0
 44
0.0
 50
0.0
 71
     0
281
     0
 72
     0
  0
VIEW
  5
75D
330
6
100
AcDbSymbolTableRecord
100
AcDbViewTableRecord
  2
AM_VIEW6
 70
     1
 40
297.0500385031128
 10
206.7348480224609
 20
145.3515045642852
 41
496.8223267939459
 11
0.0
 21
0.0
 31
1.0
 12
0.0
 22
0.0
 32
0.0
 42
50.0
 43
0.0
 44
0.0
 50
0.0
 71
     0
281
     0
 72
     0
  0
ENDTAB
  0
TABLE
  2
UCS
  5
7
330
0
100
AcDbSymbolTable
 70
     0
  0
ENDTAB
  0
TABLE
  2
APPID
  5
9
330
0
100
AcDbSymbolTable
 70
    39
  0
APPID
  5
11
330
9
100
AcDbSymbolTableRecord
100
AcDbRegAppTableRecord
  2
ACAD
 70
     0
  0
APPID
  5
3A6
330
9
100
AcDbSymbolTableRecord
100
AcDbRegAppTableRecord
  2
ACAD_PSEXT
 70
     0
  0
APPID
  5
3A8
330
9
100
AcDbSymbolTableRecord
100
AcDbRegAppTableRecord
  2
ACAD_EXEMPT_FROM_CAD_STANDARDS
 70
     0
  0
APPID
  5
433
330
9
100
AcDbSymbolTableRecord
100
AcDbRegAppTableRecord
  2
AcAecLayerStandard
 70
     0
  0
APPID
  5
471
330
9
100
AcDbSymbolTableRecord
100
AcDbRegAppTableRecord
  2
ACAD_MLEADERVER
 70
     0
  0
APPID
  5
47D
330
9
100
AcDbSymbolTableRecord
100
AcDbRegAppTableRecord
  2
MCAD_NO_VIS
 70
     0
  0
APPID
  5
47E
330
9
100
AcDbSymbolTableRecord
100
AcDbRegAppTableRecord
  2
ACAD_TEMP_GRAPHIC
 70
     0
  0
APPID
  5
4AC
330
9
100
AcDbSymbolTableRecord
100
AcDbRegAppTableRecord
  2
AD_DRAW
 70
     0
  0
APPID
  5
4AF
330
9
100
AcDbSymbolTableRecord
100
AcDbRegAppTableRecord
  2
ACATTRIBSERVICES
 70
     0
  0
APPID
  5
4D0
330
9
100
AcDbSymbolTableRecord
100
AcDbRegAppTableRecord
  2
DESIGNERASSEMBLIES
 70
     0
  0
APPID
  5
4D6
330
9
100
AcDbSymbolTableRecord
100
AcDbRegAppTableRecord
  2
ACADM_DIM_EDIT
 70
     0
  0
APPID
  5
4D7
330
9
100
AcDbSymbolTableRecord
100
AcDbRegAppTableRecord
  2
AMDT_DM_ADJ
 70
     0
  0
APPID
  5
5CD
330
9
100
AcDbSymbolTableRecord
100
AcDbRegAppTableRecord
  2
AcDbAttr
 70
     0
  0
APPID
  5
5CE
330
9
100
AcDbSymbolTableRecord
100
AcDbRegAppTableRecord
  2
ACAUTHENVIRON
 70
     0
  0
APPID
  5
5CF
330
9
100
AcDbSymbolTableRecord
100
AcDbRegAppTableRecord
  2
AcDbDynamicBlockTrueName
 70
     0
  0
APPID
  5
5D0
330
9
100
AcDbSymbolTableRecord
100
AcDbRegAppTableRecord
  2
ACDBBLOCKREPETAG
 70
     0
  0
APPID
  5
723
330
9
100
AcDbSymbolTableRecord
100
AcDbRegAppTableRecord
  2
GENIUS_GENTRA_14
 70
     0
  0
APPID
  5
752
330
9
100
AcDbSymbolTableRecord
100
AcDbRegAppTableRecord
  2
GENIUS_GENOENT_13
 70
     0
  0
APPID
  5
753
330
9
100
AcDbSymbolTableRecord
100
AcDbRegAppTableRecord
  2
GENIUS_GENOBJ-N-TIT_13
 70
     0
  0
APPID
  5
754
330
9
100
AcDbSymbolTableRecord
100
AcDbRegAppTableRecord
  2
GENIUS_GENODEF_13
 70
     0
  0
APPID
  5
755
330
9
100
AcDbSymbolTableRecord
100
AcDbRegAppTableRecord
  2
GENIUS_GENOLIS_13
 70
     0
  0
APPID
  5
756
330
9
100
AcDbSymbolTableRecord
100
AcDbRegAppTableRecord
  2
GENIUS_GENTITLE_13
 70
     0
  0
APPID
  5
757
330
9
100
AcDbSymbolTableRecord
100
AcDbRegAppTableRecord
  2
GENIUS_GENOREF_13
 70
     0
  0
APPID
  5
75E
330
9
100
AcDbSymbolTableRecord
100
AcDbRegAppTableRecord
  2
GENIUS_GENSCREG_15
 70
     0
  0
APPID
  5
75F
330
9
100
AcDbSymbolTableRecord
100
AcDbRegAppTableRecord
  2
GENIUS_GENOBJ-N-SDF_13
 70
     0
  0
APPID
  5
7BE
330
9
100
AcDbSymbolTableRecord
100
AcDbRegAppTableRecord
  2
AcadAnnoPO
 70
     0
  0
APPID
  5
7BF
330
9
100
AcDbSymbolTableRecord
100
AcDbRegAppTableRecord
  2
ACAD_DSTYLE_DIMJAG
 70
     0
  0
APPID
  5
7C0
330
9
100
AcDbSymbolTableRecord
100
AcDbRegAppTableRecord
  2
ACAD_DSTYLE_DIMTALN
 70
     0
  0
APPID
  5
A53
330
9
100
AcDbSymbolTableRecord
100
AcDbRegAppTableRecord
  2
ACAD_DSTYLE_DIMARC_LENGTH_SYMBOL
 70
     0
  0
APPID
  5
A65
330
9
100
AcDbSymbolTableRecord
100
AcDbRegAppTableRecord
  2
ACAD_DSTYLE_DIMJOGGED_JOGANGLE_SYMBOL
 70
     0
  0
APPID
  5
CCE
330
9
100
AcDbSymbolTableRecord
100
AcDbRegAppTableRecord
  2
ACAD_DSTYLE_DIMBREAK
 70
     0
  0
APPID
  5
D24
330
9
100
AcDbSymbolTableRecord
100
AcDbRegAppTableRecord
  2
ACAD_NAV_VCDISPLAY
 70
     0
  0
APPID
  5
D4A
330
9
100
AcDbSymbolTableRecord
100
AcDbRegAppTableRecord
  2
GENIUS_GENREC_14
 70
     0
  0
APPID
  5
D4B
330
9
100
AcDbSymbolTableRecord
100
AcDbRegAppTableRecord
  2
GENIUS_GENOBJ-N-REC_13
 70
     0
  0
APPID
  5
DC9
330
9
100
AcDbSymbolTableRecord
100
AcDbRegAppTableRecord
  2
ACAD_DSTYLE_DIMRADIAL_EXTENSION
 70
     0
  0
APPID
  5
1635
330
9
100
AcDbSymbolTableRecord
100
AcDbRegAppTableRecord
  2
ACAD_DSTYLE_DIMINSPECT
 70
     0
  0
APPID
  5
178B
330
9
100
AcDbSymbolTableRecord
100
AcDbRegAppTableRecord
  2
ACAD_DSTYLE_DIM_LINETYPE
 70
     0
  0
APPID
  5
178C
330
9
100
AcDbSymbolTableRecord
100
AcDbRegAppTableRecord
  2
ACAD_DSTYLE_DIM_EXT1_LINETYPE
 70
     0
  0
APPID
  5
178D
330
9
100
AcDbSymbolTableRecord
100
AcDbRegAppTableRecord
  2
ACAD_DSTYLE_DIM_EXT2_LINETYPE
 70
     0
  0
ENDTAB
  0
TABLE
  2
DIMSTYLE
  5
A
330
0
100
AcDbSymbolTable
 70
    20
100
AcDbDimStyleTable
 71
     4
340
4FC
340
3F
340
501
340
506
  0
DIMSTYLE
105
3F
330
A
100
AcDbSymbolTableRecord
100
AcDbDimStyleTableRecord
  2
STANDARD
 70
     0
 41
5.0
 42
1.0
 43
15.0
 44
2.0
 48
0.000000001
 73
     0
 74
     0
 77
     1
 78
     9
 79
     2
140
3.5
143
0.0393700787401575
147
2.299999999999999
171
     3
172
     1
271
     2
272
     2
273
     3
274
     3
284
     8
285
    11
286
     8
340
7DE
1001
ACAD_DSTYLE_DIMJAG
1070
   388
1040
1.5
1001
ACAD_DSTYLE_DIMTALN
1070
   392
1070
     0
1001
ACAD_DSTYLE_DIMARC_LENGTH_SYMBOL
1070
   379
1070
     1
1001
ACAD_DSTYLE_DIMJOGGED_JOGANGLE_SYMBOL
1070
   384
1040
1.570796326794896
  0
DIMSTYLE
105
4FC
102
{ACAD_REACTORS
330
139B
330
139A
330
1399
330
1398
330
1396
102
}
330
A
100
AcDbSymbolTableRecord
100
AcDbDimStyleTableRecord
  2
AM_DIN
 70
     0
 41
2.5
 42
1.0
 43
15.0
 44
2.0
 48
0.000000001
 73
     0
 74
     0
 77
     1
 78
     8
 79
     2
140
3.5
143
0.0393701
146
0.7071069999999999
147
1.0
171
     3
172
     1
271
     2
272
     2
273
     3
274
     3
284
     8
285
    11
286
     8
340
7DE
371
    -1
372
    -1
1001
ACAD_DSTYLE_DIMJAG
1070
   388
1040
1.5
1001
ACAD_DSTYLE_DIMTALN
1070
   392
1070
     0
1001
ACAD_DSTYLE_DIMARC_LENGTH_SYMBOL
1070
   379
1070
     1
1001
ACAD_DSTYLE_DIMJOGGED_JOGANGLE_SYMBOL
1070
   384
1040
1.570796326794896
  0
DIMSTYLE
105
4FD
330
A
100
AcDbSymbolTableRecord
100
AcDbDimStyleTableRecord
  2
AM_DIN$3
 70
     0
 41
2.5
 42
1.0
 43
10.0
 44
2.0
 48
0.000000001
 73
     0
 77
     1
 78
     8
 79
     2
140
3.5
143
0.0393701
146
0.7071069999999999
147
1.0
171
     3
271
     2
272
     3
273
     3
274
     4
284
     8
285
    11
286
     8
288
     1
289
     0
340
7DE
371
    -1
372
    -1
1001
ACAD_DSTYLE_DIMBREAK
1070
   391
1040
3.75
1001
ACAD_DSTYLE_DIMJAG
1070
   388
1040
1.5
1001
ACAD_DSTYLE_DIMTALN
1070
   392
1070
     0
1001
ACAD_DSTYLE_DIMARC_LENGTH_SYMBOL
1070
   379
1070
     1
1001
ACAD_DSTYLE_DIMJOGGED_JOGANGLE_SYMBOL
1070
   384
1040
1.570796326794896
  0
DIMSTYLE
105
4FE
330
A
100
AcDbSymbolTableRecord
100
AcDbDimStyleTableRecord
  2
AM_DIN$4
 70
     0
 41
2.5
 42
1.0
 43
10.0
 44
2.0
 48
0.000000001
 73
     0
 77
     1
 78
     8
 79
     2
140
3.5
143
0.0393701
146
0.7071069999999999
147
1.0
171
     3
271
     2
272
     3
273
     3
274
     4
284
     8
285
    11
286
     8
288
     1
289
     0
340
7DE
371
    -1
372
    -1
1001
ACAD_DSTYLE_DIMBREAK
1070
   391
1040
3.75
1001
ACAD_DSTYLE_DIMJAG
1070
   388
1040
1.5
1001
ACAD_DSTYLE_DIMTALN
1070
   392
1070
     0
1001
ACAD_DSTYLE_DIMARC_LENGTH_SYMBOL
1070
   379
1070
     1
1001
ACAD_DSTYLE_DIMJOGGED_JOGANGLE_SYMBOL
1070
   384
1040
1.570796326794896
  0
DIMSTYLE
105
4FF
330
A
100
AcDbSymbolTableRecord
100
AcDbDimStyleTableRecord
  2
AM_DIN$6
 70
     0
 41
2.5
 42
1.0
 43
10.0
 44
2.0
 48
0.000000001
 73
     0
 74
     0
 78
     8
 79
     2
140
3.5
143
0.0393701
146
0.7071069999999999
147
1.0
171
     3
172
     1
271
     2
272
     2
273
     3
274
     3
284
     8
285
    11
286
     8
340
7DE
371
    -1
372
    -1
1001
ACAD_DSTYLE_DIMBREAK
1070
   391
1040
3.75
1001
ACAD_DSTYLE_DIMJAG
1070
   388
1040
1.5
1001
ACAD_DSTYLE_DIMTALN
1070
   392
1070
     0
1001
ACAD_DSTYLE_DIMARC_LENGTH_SYMBOL
1070
   379
1070
     1
1001
ACAD_DSTYLE_DIMJOGGED_JOGANGLE_SYMBOL
1070
   384
1040
1.570796326794896
  0
DIMSTYLE
105
500
330
A
100
AcDbSymbolTableRecord
100
AcDbDimStyleTableRecord
  2
AM_DIN$7
 70
     0
 41
2.5
 42
1.0
 43
10.0
 44
2.0
 48
0.000000001
 73
     0
 74
     0
 77
     1
 78
     8
 79
     2
140
5.0
143
0.0393701
146
0.7071069999999999
147
1.0
171
     3
172
     1
271
     2
272
     3
273
     3
274
     4
284
     8
285
    11
286
     8
340
7DE
371
    -1
372
    -1
1001
ACAD_DSTYLE_DIMBREAK
1070
   391
1040
3.75
1001
ACAD_DSTYLE_DIMJAG
1070
   388
1040
1.5
1001
ACAD_DSTYLE_DIMTALN
1070
   392
1070
     0
1001
ACAD_DSTYLE_DIMARC_LENGTH_SYMBOL
1070
   379
1070
     1
1001
ACAD_DSTYLE_DIMJOGGED_JOGANGLE_SYMBOL
1070
   384
1040
1.570796326794896
  0
DIMSTYLE
105
501
330
A
100
AcDbSymbolTableRecord
100
AcDbDimStyleTableRecord
  2
AM_DIN$SF
 70
     0
 41
2.5
 42
1.0
 43
10.0
 44
2.0
 48
0.000000001
 73
     0
 74
     0
 75
     1
 76
     1
 77
     1
 78
     8
 79
     2
140
3.5
143
0.0393701
146
0.7071069999999999
147
1.0
171
     3
172
     1
271
     2
272
     2
273
     3
274
     3
284
     8
285
    11
286
     8
340
7DE
371
    -1
372
    -1
1001
ACAD_DSTYLE_DIMBREAK
1070
   391
1040
3.75
1001
ACAD_DSTYLE_DIMJAG
1070
   388
1040
1.5
1001
ACAD_DSTYLE_DIMTALN
1070
   392
1070
     0
1001
ACAD_DSTYLE_DIMARC_LENGTH_SYMBOL
1070
   379
1070
     1
1001
ACAD_DSTYLE_DIMJOGGED_JOGANGLE_SYMBOL
1070
   384
1040
1.570796326794896
  0
DIMSTYLE
105
506
330
A
100
AcDbSymbolTableRecord
100
AcDbDimStyleTableRecord
  2
AM_DIN$SH
 70
     0
 41
2.5
 42
1.0
 43
10.0
 44
2.0
 48
0.000000001
 73
     0
 74
     0
 75
     1
 76
     1
 77
     1
 78
     8
 79
     2
140
3.5
143
0.0393701
144
2.0
146
0.7071069999999999
147
1.0
171
     3
172
     1
271
     2
272
     2
273
     3
274
     3
284
     8
285
    11
286
     8
340
7DE
371
    -1
372
    -1
1001
ACAD_DSTYLE_DIMBREAK
1070
   391
1040
3.75
1001
ACAD_DSTYLE_DIMJAG
1070
   388
1040
1.5
1001
ACAD_DSTYLE_DIMTALN
1070
   392
1070
     0
1001
ACAD_DSTYLE_DIMARC_LENGTH_SYMBOL
1070
   379
1070
     1
1001
ACAD_DSTYLE_DIMJOGGED_JOGANGLE_SYMBOL
1070
   384
1040
1.570796326794896
  0
DIMSTYLE
105
EFB
102
{ACAD_REACTORS
330
113E
330
1140
330
1141
330
1142
330
1143
102
}
330
A
100
AcDbSymbolTableRecord
100
AcDbDimStyleTableRecord
  2
V-TYGEN_-160
 70
     0
 41
3.5
 42
1.0
 43
0.5
 44
1.0
 73
     0
 74
     0
 77
     1
140
3.5
141
0.0
147
1.0
271
     0
272
     0
340
10
371
    -1
  0
DIMSTYLE
105
EFC
330
A
100
AcDbSymbolTableRecord
100
AcDbDimStyleTableRecord
  2
V-TYG_160-300
 70
     0
 41
5.0
 42
1.0
 43
0.5
 44
1.0
 73
     0
 74
     0
 77
     1
140
5.0
141
0.0
147
1.0
271
     0
272
     0
340
10
  0
DIMSTYLE
105
EFD
330
A
100
AcDbSymbolTableRecord
100
AcDbDimStyleTableRecord
  2
V-TYG_300-
 70
     0
 41
8.0
 42
1.0
 43
0.5
 44
1.0
 73
     0
 74
     0
 77
     1
140
8.0
141
0.0
147
1.0
271
     0
272
     0
340
10
  0
DIMSTYLE
105
EFE
330
A
100
AcDbSymbolTableRecord
100
AcDbDimStyleTableRecord
  2
Inserts
 70
     0
 41
0.5
 42
1.0
 43
0.5
 44
1.0
 73
     0
 74
     0
 77
     1
140
0.8
141
0.0
147
1.0
271
     0
272
     0
340
10
371
    -1
  0
DIMSTYLE
105
EFF
102
{ACAD_REACTORS
330
1148
102
}
330
A
100
AcDbSymbolTableRecord
100
AcDbDimStyleTableRecord
  2
AM_ISO
 70
     0
  4
"
 41
3.5
 42
1.0
 43
10.0
 44
1.0
 47
0.1
 48
0.1
 73
     0
 74
     0
 77
     1
 78
     8
 79
     2
140
3.5
141
0.0
143
0.0393701
146
0.71
147
1.5
172
     1
176
   256
177
   256
178
     2
271
     2
272
     3
274
     4
283
     0
284
     8
340
10
371
    -1
372
    -1
1001
ACAD_DSTYLE_DIMJAG
1070
   388
1040
1.5
1001
ACAD_DSTYLE_DIMBREAK
1070
   391
1040
3.75
1001
ACAD_DSTYLE_DIMARC_LENGTH_SYMBOL
1070
   379
1070
     1
1001
ACAD_DSTYLE_DIM_LINETYPE
1070
   380
1005
12
1001
ACAD_DSTYLE_DIM_EXT1_LINETYPE
1070
   381
1005
12
1001
ACAD_DSTYLE_DIM_EXT2_LINETYPE
1070
   382
1005
12
  0
DIMSTYLE
105
F00
330
A
100
AcDbSymbolTableRecord
100
AcDbDimStyleTableRecord
  2
AM_ISO$3
 70
     0
  4
"
 41
3.5
 42
1.0
 43
10.0
 44
1.0
 47
0.1
 48
0.1
 73
     0
 77
     1
 78
     8
 79
     2
140
3.5
141
0.0
143
0.0393701
146
0.71
147
1.5
176
   256
177
   256
178
     2
271
     2
272
     3
274
     4
283
     0
284
     8
288
     1
289
     0
340
10
371
    -1
372
    -1
1001
ACAD_DSTYLE_DIMBREAK
1070
   391
1040
3.75
1001
ACAD_DSTYLE_DIMJAG
1070
   388
1040
1.5
1001
ACAD_DSTYLE_DIMARC_LENGTH_SYMBOL
1070
   379
1070
     1
1001
ACAD_DSTYLE_DIM_LINETYPE
1070
   380
1005
12
1001
ACAD_DSTYLE_DIM_EXT1_LINETYPE
1070
   381
1005
12
1001
ACAD_DSTYLE_DIM_EXT2_LINETYPE
1070
   382
1005
12
  0
DIMSTYLE
105
F01
330
A
100
AcDbSymbolTableRecord
100
AcDbDimStyleTableRecord
  2
AM_ISO$4
 70
     0
  4
"
 41
3.5
 42
1.0
 43
10.0
 44
1.0
 47
0.1
 48
0.1
 73
     0
 77
     1
 78
     8
 79
     2
140
3.5
141
0.0
143
0.0393701
146
0.71
147
1.5
176
   256
177
   256
178
     2
271
     2
272
     3
274
     4
283
     0
284
     8
288
     1
289
     0
340
10
371
    -1
372
    -1
1001
ACAD_DSTYLE_DIMBREAK
1070
   391
1040
3.75
1001
ACAD_DSTYLE_DIMJAG
1070
   388
1040
1.5
1001
ACAD_DSTYLE_DIMARC_LENGTH_SYMBOL
1070
   379
1070
     1
1001
ACAD_DSTYLE_DIM_LINETYPE
1070
   380
1005
12
1001
ACAD_DSTYLE_DIM_EXT1_LINETYPE
1070
   381
1005
12
1001
ACAD_DSTYLE_DIM_EXT2_LINETYPE
1070
   382
1005
12
  0
DIMSTYLE
105
F02
330
A
100
AcDbSymbolTableRecord
100
AcDbDimStyleTableRecord
  2
AM_ISO$6
 70
     0
  4
"
 41
3.5
 42
1.0
 43
10.0
 44
1.0
 47
0.1
 48
0.1
 73
     0
 74
     0
 78
     8
 79
     2
140
3.5
141
0.0
143
0.0393701
146
0.71
147
1.5
172
     1
176
   256
177
   256
178
     2
271
     2
272
     3
274
     4
283
     0
284
     8
340
10
371
    -1
372
    -1
1001
ACAD_DSTYLE_DIMBREAK
1070
   391
1040
3.75
1001
ACAD_DSTYLE_DIMJAG
1070
   388
1040
1.5
1001
ACAD_DSTYLE_DIMARC_LENGTH_SYMBOL
1070
   379
1070
     1
1001
ACAD_DSTYLE_DIM_LINETYPE
1070
   380
1005
12
1001
ACAD_DSTYLE_DIM_EXT1_LINETYPE
1070
   381
1005
12
1001
ACAD_DSTYLE_DIM_EXT2_LINETYPE
1070
   382
1005
12
  0
DIMSTYLE
105
F03
330
A
100
AcDbSymbolTableRecord
100
AcDbDimStyleTableRecord
  2
AM_ISO$7
 70
     0
  4
"
 41
3.5
 42
1.0
 43
10.0
 44
1.0
 47
0.1
 48
0.1
 73
     0
 74
     0
 77
     1
 78
     8
 79
     2
140
3.5
141
0.0
143
0.0393701
146
0.71
147
1.5
172
     1
176
   256
177
   256
178
     2
271
     2
272
     3
274
     4
283
     0
284
     8
340
10
371
    -1
372
    -1
1001
ACAD_DSTYLE_DIMBREAK
1070
   391
1040
3.75
1001
ACAD_DSTYLE_DIMJAG
1070
   388
1040
1.5
1001
ACAD_DSTYLE_DIMARC_LENGTH_SYMBOL
1070
   379
1070
     1
1001
ACAD_DSTYLE_DIM_LINETYPE
1070
   380
1005
12
1001
ACAD_DSTYLE_DIM_EXT1_LINETYPE
1070
   381
1005
12
1001
ACAD_DSTYLE_DIM_EXT2_LINETYPE
1070
   382
1005
12
  0
DIMSTYLE
105
F04
330
A
100
AcDbSymbolTableRecord
100
AcDbDimStyleTableRecord
  2
AM_ISO$SF
 70
     0
  4
"
 41
3.5
 42
1.0
 43
10.0
 44
1.0
 47
0.1
 48
0.1
 73
     0
 74
     0
 75
     1
 76
     1
 77
     1
 78
     8
 79
     2
140
3.5
141
0.0
143
0.0393701
146
0.71
147
1.5
172
     1
176
   256
177
   256
178
     2
271
     2
272
     3
274
     4
283
     0
284
     8
340
10
371
    -1
372
    -1
1001
ACAD_DSTYLE_DIMBREAK
1070
   391
1040
3.75
1001
ACAD_DSTYLE_DIMJAG
1070
   388
1040
1.5
1001
ACAD_DSTYLE_DIMARC_LENGTH_SYMBOL
1070
   379
1070
     1
1001
ACAD_DSTYLE_DIM_LINETYPE
1070
   380
1005
12
1001
ACAD_DSTYLE_DIM_EXT1_LINETYPE
1070
   381
1005
12
1001
ACAD_DSTYLE_DIM_EXT2_LINETYPE
1070
   382
1005
12
  0
DIMSTYLE
105
F05
330
A
100
AcDbSymbolTableRecord
100
AcDbDimStyleTableRecord
  2
AM_ISO$SH
 70
     0
  4
"
 41
3.5
 42
1.0
 43
10.0
 44
1.0
 47
0.1
 48
0.1
 73
     0
 74
     0
 75
     1
 76
     1
 77
     1
 78
     8
 79
     2
140
3.5
141
0.0
143
0.0393701
144
2.0
146
0.71
147
1.5
172
     1
173
     1
176
   256
177
   256
178
     2
271
     2
272
     3
274
     4
283
     0
284
     8
340
10
343
EF2
371
    -1
372
    -1
1001
ACAD_DSTYLE_DIMBREAK
1070
   391
1040
3.75
1001
ACAD_DSTYLE_DIMJAG
1070
   388
1040
1.5
1001
ACAD_DSTYLE_DIMARC_LENGTH_SYMBOL
1070
   379
1070
     1
1001
ACAD_DSTYLE_DIM_LINETYPE
1070
   380
1005
12
1001
ACAD_DSTYLE_DIM_EXT1_LINETYPE
1070
   381
1005
12
1001
ACAD_DSTYLE_DIM_EXT2_LINETYPE
1070
   382
1005
12
  0
ENDTAB
  0
TABLE
  2
BLOCK_RECORD
  5
1
330
0
100
AcDbSymbolTable
 70
    17
  0
BLOCK_RECORD
  5
18
102
{ACAD_XDICTIONARY
360
DB1
102
}
330
1
100
AcDbSymbolTableRecord
100
AcDbBlockTableRecord
  2
*MODEL_SPACE
340
303
  0
BLOCK_RECORD
  5
B56
330
1
100
AcDbSymbolTableRecord
100
AcDbBlockTableRecord
  2
*Paper_Space
340
B57
  0
BLOCK_RECORD
  5
D0B
330
1
100
AcDbSymbolTableRecord
100
AcDbBlockTableRecord
  2
_ACMFILLED15
340
0
  0
BLOCK_RECORD
  5
D16
330
1
100
AcDbSymbolTableRecord
100
AcDbBlockTableRecord
  2
_ACMFILLED30
340
0
  0
BLOCK_RECORD
  5
EB6
330
1
100
AcDbSymbolTableRecord
100
AcDbBlockTableRecord
  2
*D4
340
0
  0
BLOCK_RECORD
  5
EC2
330
1
100
AcDbSymbolTableRecord
100
AcDbBlockTableRecord
  2
*D5
340
0
  0
BLOCK_RECORD
  5
ECE
330
1
100
AcDbSymbolTableRecord
100
AcDbBlockTableRecord
  2
*D6
340
0
  0
BLOCK_RECORD
  5
EDA
330
1
100
AcDbSymbolTableRecord
100
AcDbBlockTableRecord
  2
*D7
340
0
  0
BLOCK_RECORD
  5
EE6
330
1
100
AcDbSymbolTableRecord
100
AcDbBlockTableRecord
  2
*D8
340
0
  0
BLOCK_RECORD
  5
EF2
330
1
100
AcDbSymbolTableRecord
100
AcDbBlockTableRecord
  2
GENAXEH
340
0
  0
BLOCK_RECORD
  5
139C
330
1
100
AcDbSymbolTableRecord
100
AcDbBlockTableRecord
  2
*D11
340
0
  0
BLOCK_RECORD
  5
13A8
330
1
100
AcDbSymbolTableRecord
100
AcDbBlockTableRecord
  2
*D12
340
0
  0
BLOCK_RECORD
  5
13B4
330
1
100
AcDbSymbolTableRecord
100
AcDbBlockTableRecord
  2
*D13
340
0
  0
BLOCK_RECORD
  5
13C0
330
1
100
AcDbSymbolTableRecord
100
AcDbBlockTableRecord
  2
*D14
340
0
  0
BLOCK_RECORD
  5
13CC
330
1
100
AcDbSymbolTableRecord
100
AcDbBlockTableRecord
  2
*D15
340
0
  0
ENDTAB
  0
ENDSEC
  0
SECTION
  2
BLOCKS
  0
BLOCK
  5
32
330
18
100
AcDbEntity
  8
0
100
AcDbBlockBegin
  2
*MODEL_SPACE
 70
     0
 10
0.0
 20
0.0
 30
0.0
  3
*MODEL_SPACE
  1

  0
ENDBLK
  5
33
330
18
100
AcDbEntity
  8
0
100
AcDbBlockEnd
  0
BLOCK
  5
B58
330
B56
100
AcDbEntity
 67
     1
  8
0
100
AcDbBlockBegin
  2
*Paper_Space
 70
     0
 10
0.0
 20
0.0
 30
0.0
  3
*Paper_Space
  1

  0
ENDBLK
  5
B59
330
B56
100
AcDbEntity
 67
     1
  8
0
100
AcDbBlockEnd
  0
BLOCK
  5
D0D
330
D0B
100
AcDbEntity
  8
0
100
AcDbBlockBegin
  2
_ACMFILLED15
 70
     0
 10
0.0
 20
0.0
 30
0.0
  3
_ACMFILLED15
  1

  0
TRACE
  5
D0C
330
D0B
100
AcDbEntity
  8
1
 62
     0
100
AcDbTrace
 10
-1.0
 20
-0.131652497
 30
0.0
 11
-1.0
 21
0.131652497
 31
0.0
 12
0.0
 22
0.0
 32
0.0
 13
0.0
 23
0.0
 33
0.0
  0
ENDBLK
  5
D0E
330
D0B
100
AcDbEntity
  8
0
100
AcDbBlockEnd
  0
BLOCK
  5
D18
330
D16
100
AcDbEntity
  8
0
100
AcDbBlockBegin
  2
_ACMFILLED30
 70
     0
 10
0.0
 20
0.0
 30
0.0
  3
_ACMFILLED30
  1

  0
TRACE
  5
D17
330
D16
100
AcDbEntity
  8
1
 62
     0
100
AcDbTrace
 10
-1.0
 20
-0.26794919
 30
0.0
 11
-1.0
 21
0.26794919
 31
0.0
 12
0.0
 22
0.0
 32
0.0
 13
0.0
 23
0.0
 33
0.0
  0
ENDBLK
  5
D19
330
D16
100
AcDbEntity
  8
0
100
AcDbBlockEnd
  0
BLOCK
  5
EB7
330
EB6
100
AcDbEntity
  8
0
100
AcDbBlockBegin
  2
*D4
 70
     1
 10
0.0
 20
0.0
 30
0.0
  3
*D4
  1

  0
LINE
  5
EB8
330
EB6
100
AcDbEntity
  8
SK2
 62
     0
370
    -2
100
AcDbLine
 10
-10.45974547240244
 20
51.47327377134709
 30
0.0
 11
-20.39829906537624
 21
51.4732737713471
 31
0.0
  0
LINE
  5
EB9
330
EB6
100
AcDbEntity
  8
SK2
 62
     0
370
    -2
100
AcDbLine
 10
-10.45974547240244
 20
26.5732797713472
 30
0.0
 11
-20.39829906537625
 21
26.5732797713472
 31
0.0
  0
LINE
  5
EBA
330
EB6
100
AcDbEntity
  8
SK2
 62
     0
100
AcDbLine
 10
-19.39829906537624
 20
47.9732737713471
 30
0.0
 11
-19.39829906537624
 21
30.0732797713472
 31
0.0
  0
SOLID
  5
EBB
330
EB6
100
AcDbEntity
  8
SK2
 62
     0
100
AcDbTrace
 10
-19.98163239870957
 20
47.9732737713471
 30
0.0
 11
-18.81496573204291
 21
47.9732737713471
 31
0.0
 12
-19.39829906537624
 22
51.4732737713471
 32
0.0
 13
-19.39829906537624
 23
51.4732737713471
 33
0.0
  0
SOLID
  5
EBC
330
EB6
100
AcDbEntity
  8
SK2
 62
     0
100
AcDbTrace
 10
-19.98163239870958
 20
30.0732797713472
 30
0.0
 11
-18.81496573204291
 21
30.0732797713472
 31
0.0
 12
-19.39829906537624
 22
26.5732797713472
 32
0.0
 13
-19.39829906537624
 23
26.5732797713472
 33
0.0
  0
MTEXT
  5
EBD
330
EB6
100
AcDbEntity
  8
SK2
 62
     0
100
AcDbMText
 10
-22.14829906537625
 20
39.02327677134714
 30
0.0
 40
3.5
 41
0.0
 71
     5
 72
     1
  1
\A1;25x25
 11
0.0000000000000001
 21
1.0
 31
0.0
 73
     1
 44
1.0
1001
ACAD
1000
MTEXTBEGIN
1070
    73
1070
     1
1070
    44
1040
1.0
1070
    74
1070
     0
1000
MTEXTEND
  0
POINT
  5
EBE
330
EB6
100
AcDbEntity
  8
DEFPOINTS
 62
     0
100
AcDbPoint
 10
-9.459745472402444
 20
51.47327377134709
 30
0.0
  0
POINT
  5
EBF
330
EB6
100
AcDbEntity
  8
DEFPOINTS
 62
     0
100
AcDbPoint
 10
-9.459745472402444
 20
26.5732797713472
 30
0.0
  0
POINT
  5
EC0
330
EB6
100
AcDbEntity
  8
DEFPOINTS
 62
     0
100
AcDbPoint
 10
-19.39829906537624
 20
26.5732797713472
 30
0.0
  0
ENDBLK
  5
EC1
330
EB6
100
AcDbEntity
  8
0
100
AcDbBlockEnd
  0
BLOCK
  5
EC3
330
EC2
100
AcDbEntity
  8
0
100
AcDbBlockBegin
  2
*D5
 70
     1
 10
0.0
 20
0.0
 30
0.0
  3
*D5
  1

  0
LINE
  5
EC4
330
EC2
100
AcDbEntity
  8
2
 62
     0
370
    -2
100
AcDbLine
 10
132.9204855275975
 20
26.5732797713472
 30
0.0
 11
157.6728004328577
 21
26.5732797713472
 31
0.0
  0
LINE
  5
EC5
330
EC2
100
AcDbEntity
  8
2
 62
     0
370
    -2
100
AcDbLine
 10
142.5233253095669
 20
61.5732797713472
 30
0.0
 11
157.6728004328577
 21
61.5732797713472
 31
0.0
  0
LINE
  5
EC6
330
EC2
100
AcDbEntity
  8
2
 62
     0
100
AcDbLine
 10
156.6728004328577
 20
30.0732797713472
 30
0.0
 11
156.6728004328577
 21
58.07327977134718
 31
0.0
  0
SOLID
  5
EC7
330
EC2
100
AcDbEntity
  8
2
 62
     0
100
AcDbTrace
 10
156.0894670995243
 20
30.0732797713472
 30
0.0
 11
157.256133766191
 21
30.0732797713472
 31
0.0
 12
156.6728004328577
 22
26.5732797713472
 32
0.0
 13
156.6728004328577
 23
26.5732797713472
 33
0.0
  0
SOLID
  5
EC8
330
EC2
100
AcDbEntity
  8
2
 62
     0
100
AcDbTrace
 10
156.0894670995243
 20
58.07327977134718
 30
0.0
 11
157.256133766191
 21
58.07327977134718
 31
0.0
 12
156.6728004328577
 22
61.5732797713472
 32
0.0
 13
156.6728004328577
 23
61.5732797713472
 33
0.0
  0
MTEXT
  5
EC9
330
EC2
100
AcDbEntity
  8
2
 62
     0
100
AcDbMText
 10
153.9228004328577
 20
44.07327977134722
 30
0.0
 40
3.5
 41
0.0
 71
     5
 72
     1
  1
\A1;35
 11
0.0000000000000001
 21
1.0
 31
0.0
 73
     1
 44
1.0
1001
ACAD
1000
MTEXTBEGIN
1070
    73
1070
     1
1070
    44
1040
1.0
1070
    74
1070
     0
1000
MTEXTEND
  0
POINT
  5
ECA
330
EC2
100
AcDbEntity
  8
DEFPOINTS
 62
     0
100
AcDbPoint
 10
131.9204855275975
 20
26.5732797713472
 30
0.0
  0
POINT
  5
ECB
330
EC2
100
AcDbEntity
  8
DEFPOINTS
 62
     0
100
AcDbPoint
 10
141.5233253095669
 20
61.5732797713472
 30
0.0
  0
POINT
  5
ECC
330
EC2
100
AcDbEntity
  8
DEFPOINTS
 62
     0
100
AcDbPoint
 10
156.6728004328577
 20
61.5732797713472
 30
0.0
  0
ENDBLK
  5
ECD
330
EC2
100
AcDbEntity
  8
0
100
AcDbBlockEnd
  0
BLOCK
  5
ECF
330
ECE
100
AcDbEntity
  8
0
100
AcDbBlockBegin
  2
*D6
 70
     1
 10
0.0
 20
0.0
 30
0.0
  3
*D6
  1

  0
LINE
  5
ED0
330
ECE
100
AcDbEntity
  8
SK2
 62
     0
370
    -2
100
AcDbLine
 10
141.5406705275975
 20
62.92499777134718
 30
0.0
 11
141.5406705275975
 21
88.22379347362272
 31
0.0
  0
LINE
  5
ED1
330
ECE
100
AcDbEntity
  8
SK2
 62
     0
370
    -2
100
AcDbLine
 10
-9.459745472402444
 20
52.47327377134709
 30
0.0
 11
-9.459745472402444
 21
88.22379347362272
 31
0.0
  0
LINE
  5
ED2
330
ECE
100
AcDbEntity
  8
SK2
 62
     0
100
AcDbLine
 10
138.0406705275975
 20
87.22379347362272
 30
0.0
 11
-5.959745472402442
 21
87.22379347362272
 31
0.0
  0
SOLID
  5
ED3
330
ECE
100
AcDbEntity
  8
SK2
 62
     0
100
AcDbTrace
 10
138.0406705275975
 20
87.80712680695605
 30
0.0
 11
138.0406705275975
 21
86.64046014028938
 31
0.0
 12
141.5406705275975
 22
87.22379347362272
 32
0.0
 13
141.5406705275975
 23
87.22379347362272
 33
0.0
  0
SOLID
  5
ED4
330
ECE
100
AcDbEntity
  8
SK2
 62
     0
100
AcDbTrace
 10
-5.959745472402442
 20
87.80712680695605
 30
0.0
 11
-5.959745472402442
 21
86.64046014028938
 31
0.0
 12
-9.459745472402444
 22
87.22379347362272
 32
0.0
 13
-9.459745472402444
 23
87.22379347362272
 33
0.0
  0
MTEXT
  5
ED5
330
ECE
100
AcDbEntity
  8
SK2
 62
     0
100
AcDbMText
 10
66.04046252759754
 20
89.97379347362272
 30
0.0
 40
3.5
 41
0.0
 71
     5
 72
     1
  1
\A1;150
 73
     1
 44
1.0
1001
ACAD
1000
MTEXTBEGIN
1070
    73
1070
     1
1070
    44
1040
1.0
1070
    74
1070
     0
1000
MTEXTEND
  0
POINT
  5
ED6
330
ECE
100
AcDbEntity
  8
DEFPOINTS
 62
     0
100
AcDbPoint
 10
141.5406705275975
 20
61.92499777134718
 30
0.0
  0
POINT
  5
ED7
330
ECE
100
AcDbEntity
  8
DEFPOINTS
 62
     0
100
AcDbPoint
 10
-9.459745472402444
 20
51.47327377134709
 30
0.0
  0
POINT
  5
ED8
330
ECE
100
AcDbEntity
  8
DEFPOINTS
 62
     0
100
AcDbPoint
 10
-9.459745472402444
 20
87.22379347362272
 30
0.0
  0
ENDBLK
  5
ED9
330
ECE
100
AcDbEntity
  8
0
100
AcDbBlockEnd
  0
BLOCK
  5
EDB
330
EDA
100
AcDbEntity
  8
0
100
AcDbBlockBegin
  2
*D7
 70
     1
 10
0.0
 20
0.0
 30
0.0
  3
*D7
  1

  0
LINE
  5
EDC
330
EDA
100
AcDbEntity
  8
2
 62
     0
370
    -2
100
AcDbLine
 10
141.5406705275975
 20
62.92499777134718
 30
0.0
 11
141.5406705275975
 21
69.79270284229965
 31
0.0
  0
LINE
  5
EDD
330
EDA
100
AcDbEntity
  8
2
 62
     0
370
    -2
100
AcDbLine
 10
119.5402575275974
 20
52.47327377134709
 30
0.0
 11
119.5402575275974
 21
69.79270284229965
 31
0.0
  0
LINE
  5
EDE
330
EDA
100
AcDbEntity
  8
2
 62
     0
100
AcDbLine
 10
138.0406705275975
 20
68.79270284229964
 30
0.0
 11
123.0402575275974
 21
68.79270284229964
 31
0.0
  0
SOLID
  5
EDF
330
EDA
100
AcDbEntity
  8
2
 62
     0
100
AcDbTrace
 10
138.0406705275975
 20
69.37603617563299
 30
0.0
 11
138.0406705275975
 21
68.20936950896633
 31
0.0
 12
141.5406705275975
 22
68.79270284229964
 32
0.0
 13
141.5406705275975
 23
68.79270284229964
 33
0.0
  0
SOLID
  5
EE0
330
EDA
100
AcDbEntity
  8
2
 62
     0
100
AcDbTrace
 10
123.0402575275974
 20
69.37603617563299
 30
0.0
 11
123.0402575275974
 21
68.20936950896633
 31
0.0
 12
119.5402575275974
 22
68.79270284229964
 32
0.0
 13
119.5402575275974
 23
68.79270284229964
 33
0.0
  0
MTEXT
  5
EE1
330
EDA
100
AcDbEntity
  8
2
 62
     0
100
AcDbMText
 10
130.5404640275974
 20
71.54270284229965
 30
0.0
 40
3.5
 41
0.0
 71
     5
 72
     1
  1
\A1;22
 73
     1
 44
1.0
1001
ACAD
1000
MTEXTBEGIN
1070
    73
1070
     1
1070
    44
1040
1.0
1070
    74
1070
     0
1000
MTEXTEND
  0
POINT
  5
EE2
330
EDA
100
AcDbEntity
  8
DEFPOINTS
 62
     0
100
AcDbPoint
 10
141.5406705275975
 20
61.92499777134718
 30
0.0
  0
POINT
  5
EE3
330
EDA
100
AcDbEntity
  8
DEFPOINTS
 62
     0
100
AcDbPoint
 10
119.5402575275974
 20
51.47327377134709
 30
0.0
  0
POINT
  5
EE4
330
EDA
100
AcDbEntity
  8
DEFPOINTS
 62
     0
100
AcDbPoint
 10
119.5402575275974
 20
68.79270284229964
 30
0.0
  0
ENDBLK
  5
EE5
330
EDA
100
AcDbEntity
  8
0
100
AcDbBlockEnd
  0
BLOCK
  5
EE7
330
EE6
100
AcDbEntity
  8
0
100
AcDbBlockBegin
  2
*D8
 70
     1
 10
0.0
 20
0.0
 30
0.0
  3
*D8
  1

  0
LINE
  5
EE8
330
EE6
100
AcDbEntity
  8
2
 62
     0
370
    -2
100
AcDbLine
 10
141.5406705275975
 20
62.92499777134718
 30
0.0
 11
141.5406705275975
 21
79.73271488175675
 31
0.0
  0
LINE
  5
EE9
330
EE6
100
AcDbEntity
  8
2
 62
     0
370
    -2
100
AcDbLine
 10
109.5406705275975
 20
52.47327377134709
 30
0.0
 11
109.5406705275975
 21
79.73271488175675
 31
0.0
  0
LINE
  5
EEA
330
EE6
100
AcDbEntity
  8
2
 62
     0
100
AcDbLine
 10
138.0406705275975
 20
78.73271488175674
 30
0.0
 11
113.0406705275975
 21
78.73271488175674
 31
0.0
  0
SOLID
  5
EEB
330
EE6
100
AcDbEntity
  8
2
 62
     0
100
AcDbTrace
 10
138.0406705275975
 20
79.31604821509008
 30
0.0
 11
138.0406705275975
 21
78.14938154842342
 31
0.0
 12
141.5406705275975
 22
78.73271488175674
 32
0.0
 13
141.5406705275975
 23
78.73271488175674
 33
0.0
  0
SOLID
  5
EEC
330
EE6
100
AcDbEntity
  8
2
 62
     0
100
AcDbTrace
 10
113.0406705275975
 20
79.31604821509008
 30
0.0
 11
113.0406705275975
 21
78.14938154842342
 31
0.0
 12
109.5406705275975
 22
78.73271488175674
 32
0.0
 13
109.5406705275975
 23
78.73271488175674
 33
0.0
  0
MTEXT
  5
EED
330
EE6
100
AcDbEntity
  8
2
 62
     0
100
AcDbMText
 10
125.5406705275975
 20
81.48271488175675
 30
0.0
 40
3.5
 41
0.0
 71
     5
 72
     1
  1
\A1;32
 73
     1
 44
1.0
1001
ACAD
1000
MTEXTBEGIN
1070
    73
1070
     1
1070
    44
1040
1.0
1070
    74
1070
     0
1000
MTEXTEND
  0
POINT
  5
EEE
330
EE6
100
AcDbEntity
  8
DEFPOINTS
 62
     0
100
AcDbPoint
 10
141.5406705275975
 20
61.92499777134718
 30
0.0
  0
POINT
  5
EEF
330
EE6
100
AcDbEntity
  8
DEFPOINTS
 62
     0
100
AcDbPoint
 10
109.5406705275975
 20
51.47327377134709
 30
0.0
  0
POINT
  5
EF0
330
EE6
100
AcDbEntity
  8
DEFPOINTS
 62
     0
100
AcDbPoint
 10
109.5406705275975
 20
78.73271488175674
 30
0.0
  0
ENDBLK
  5
EF1
330
EE6
100
AcDbEntity
  8
0
100
AcDbBlockEnd
  0
BLOCK
  5
EF3
330
EF2
100
AcDbEntity
  8
0
100
AcDbBlockBegin
  2
GENAXEH
 70
     0
 10
0.0
 20
0.0
 30
0.0
  3
GENAXEH
  1

  0
LINE
  5
EF4
330
EF2
100
AcDbEntity
  8
0
100
AcDbLine
 10
-1.0
 20
0.0
 30
0.0
 11
1.0
 21
0.0
 31
0.0
  0
ENDBLK
  5
EF5
330
EF2
100
AcDbEntity
  8
0
100
AcDbBlockEnd
  0
BLOCK
  5
139D
330
139C
100
AcDbEntity
  8
0
100
AcDbBlockBegin
  2
*D11
 70
     1
 10
0.0
 20
0.0
 30
0.0
  3
*D11
  1

  0
LINE
  5
16A1
330
139C
100
AcDbEntity
  8
SK2
 62
     0
100
AcDbLine
 10
-120.0004159999999
 20
-12.44999699999995
 30
0.0
 11
-130.9389695929737
 21
-12.44999699999994
 31
0.0
  0
LINE
  5
16A2
330
139C
100
AcDbEntity
  8
SK2
 62
     0
100
AcDbLine
 10
-120.0004159999999
 20
12.44999699999995
 30
0.0
 11
-130.9389695929737
 21
12.44999699999995
 31
0.0
  0
LINE
  5
16A3
330
139C
100
AcDbEntity
  8
SK2
 62
     0
100
AcDbLine
 10
-128.9389695929737
 20
-9.949996999999944
 30
0.0
 11
-128.9389695929737
 21
9.949996999999948
 31
0.0
  0
SOLID
  5
16A4
330
139C
100
AcDbEntity
  8
SK2
 62
     0
100
AcDbTrace
 10
-129.3556362596404
 20
-9.949996999999944
 30
0.0
 11
-128.5223029263071
 21
-9.949996999999944
 31
0.0
 12
-128.9389695929737
 22
-12.44999699999994
 32
0.0
 13
-128.9389695929737
 23
-12.44999699999994
 33
0.0
  0
SOLID
  5
16A5
330
139C
100
AcDbEntity
  8
SK2
 62
     0
100
AcDbTrace
 10
-129.3556362596404
 20
9.949996999999948
 30
0.0
 11
-128.5223029263071
 21
9.949996999999948
 31
0.0
 12
-128.9389695929737
 22
12.44999699999995
 32
0.0
 13
-128.9389695929737
 23
12.44999699999995
 33
0.0
  0
MTEXT
  5
16A6
330
139C
100
AcDbEntity
  8
SK2
 62
     0
100
AcDbMText
 10
-131.7504594032337
 20
0.0000000000000074
 30
0.0
 40
3.5
 41
0.0
 71
     5
 72
     1
  1
\A1;25x25
  7
STANDARD 3.5 mm
 11
0.0000000000000001
 21
1.0
 31
0.0
 73
     1
 44
1.0
1001
ACAD
1000
MTEXTBEGIN
1070
    73
1070
     1
1070
    44
1040
1.0
1070
    74
1070
     0
1000
MTEXTEND
  0
POINT
  5
16A7
330
139C
100
AcDbEntity
  8
DEFPOINTS
 62
     0
100
AcDbPoint
 10
-119.0004159999999
 20
-12.44999699999995
 30
0.0
  0
POINT
  5
16A8
330
139C
100
AcDbEntity
  8
DEFPOINTS
 62
     0
100
AcDbPoint
 10
-119.0004159999999
 20
12.44999699999995
 30
0.0
  0
POINT
  5
16A9
330
139C
100
AcDbEntity
  8
DEFPOINTS
 62
     0
100
AcDbPoint
 10
-128.9389695929737
 20
12.44999699999995
 30
0.0
  0
ENDBLK
  5
139E
330
139C
100
AcDbEntity
  8
0
100
AcDbBlockEnd
  0
BLOCK
  5
13A9
330
13A8
100
AcDbEntity
  8
0
100
AcDbBlockBegin
  2
*D12
 70
     1
 10
0.0
 20
0.0
 30
0.0
  3
*D12
  1

  0
LINE
  5
16AA
330
13A8
100
AcDbEntity
  8
2
 62
     0
100
AcDbLine
 10
23.37981500000001
 20
12.44999699999995
 30
0.0
 11
49.13212990526017
 21
12.44999699999994
 31
0.0
  0
LINE
  5
16AB
330
13A8
100
AcDbEntity
  8
2
 62
     0
100
AcDbLine
 10
32.98265478196941
 20
-22.55000300000006
 30
0.0
 11
49.13212990526016
 21
-22.55000300000006
 31
0.0
  0
LINE
  5
16AC
330
13A8
100
AcDbEntity
  8
2
 62
     0
100
AcDbLine
 10
47.13212990526017
 20
9.949996999999939
 30
0.0
 11
47.13212990526016
 21
-20.05000300000006
 31
0.0
  0
SOLID
  5
16AD
330
13A8
100
AcDbEntity
  8
2
 62
     0
100
AcDbTrace
 10
46.71546323859351
 20
9.949996999999939
 30
0.0
 11
47.54879657192684
 21
9.949996999999939
 31
0.0
 12
47.13212990526017
 22
12.44999699999994
 32
0.0
 13
47.13212990526017
 23
12.44999699999994
 33
0.0
  0
SOLID
  5
16AE
330
13A8
100
AcDbEntity
  8
2
 62
     0
100
AcDbTrace
 10
46.7154632385935
 20
-20.05000300000006
 30
0.0
 11
47.54879657192683
 21
-20.05000300000006
 31
0.0
 12
47.13212990526016
 22
-22.55000300000006
 32
0.0
 13
47.13212990526016
 23
-22.55000300000006
 33
0.0
  0
MTEXT
  5
16AF
330
13A8
100
AcDbEntity
  8
2
 62
     0
100
AcDbMText
 10
44.32064009500016
 20
-5.050003000000067
 30
0.0
 40
3.5
 41
0.0
 71
     5
 72
     1
  1
\A1;35
  7
STANDARD 3.5 mm
 11
0.0000000000000001
 21
1.0
 31
0.0
 73
     1
 44
1.0
1001
ACAD
1000
MTEXTBEGIN
1070
    73
1070
     1
1070
    44
1040
1.0
1070
    74
1070
     0
1000
MTEXTEND
  0
POINT
  5
16B0
330
13A8
100
AcDbEntity
  8
DEFPOINTS
 62
     0
100
AcDbPoint
 10
22.37981500000001
 20
12.44999699999995
 30
0.0
  0
POINT
  5
16B1
330
13A8
100
AcDbEntity
  8
DEFPOINTS
 62
     0
100
AcDbPoint
 10
31.98265478196942
 20
-22.55000300000006
 30
0.0
  0
POINT
  5
16B2
330
13A8
100
AcDbEntity
  8
DEFPOINTS
 62
     0
100
AcDbPoint
 10
47.13212990526016
 20
-22.55000300000006
 30
0.0
  0
ENDBLK
  5
13AA
330
13A8
100
AcDbEntity
  8
0
100
AcDbBlockEnd
  0
BLOCK
  5
13B5
330
13B4
100
AcDbEntity
  8
0
100
AcDbBlockBegin
  2
*D13
 70
     1
 10
0.0
 20
0.0
 30
0.0
  3
*D13
  1

  0
LINE
  5
16B3
330
13B4
100
AcDbEntity
  8
SK2
 62
     0
100
AcDbLine
 10
32.0
 20
-23.90172100000003
 30
0.0
 11
32.0
 21
-50.20051670227557
 31
0.0
  0
LINE
  5
16B4
330
13B4
100
AcDbEntity
  8
SK2
 62
     0
100
AcDbLine
 10
-119.0004159999999
 20
-13.44999699999994
 30
0.0
 11
-119.0004159999999
 21
-50.20051670227557
 31
0.0
  0
LINE
  5
16B5
330
13B4
100
AcDbEntity
  8
SK2
 62
     0
100
AcDbLine
 10
29.5
 20
-48.20051670227557
 30
0.0
 11
-116.5004159999999
 21
-48.20051670227557
 31
0.0
  0
SOLID
  5
16B6
330
13B4
100
AcDbEntity
  8
SK2
 62
     0
100
AcDbTrace
 10
29.5
 20
-47.78385003560891
 30
0.0
 11
29.5
 21
-48.61718336894224
 31
0.0
 12
32.0
 22
-48.20051670227557
 32
0.0
 13
32.0
 23
-48.20051670227557
 33
0.0
  0
SOLID
  5
16B7
330
13B4
100
AcDbEntity
  8
SK2
 62
     0
100
AcDbTrace
 10
-116.5004159999999
 20
-47.78385003560891
 30
0.0
 11
-116.5004159999999
 21
-48.61718336894224
 31
0.0
 12
-119.0004159999999
 22
-48.20051670227557
 32
0.0
 13
-119.0004159999999
 23
-48.20051670227557
 33
0.0
  0
MTEXT
  5
16B8
330
13B4
100
AcDbEntity
  8
SK2
 62
     0
100
AcDbMText
 10
-43.50020799999993
 20
-45.38902689201555
 30
0.0
 40
3.5
 41
0.0
 71
     5
 72
     1
  1
\A1;150
  7
STANDARD 3.5 mm
 73
     1
 44
1.0
1001
ACAD
1000
MTEXTBEGIN
1070
    73
1070
     1
1070
    44
1040
1.0
1070
    74
1070
     0
1000
MTEXTEND
  0
POINT
  5
16B9
330
13B4
100
AcDbEntity
  8
DEFPOINTS
 62
     0
100
AcDbPoint
 10
32.0
 20
-22.90172100000003
 30
0.0
  0
POINT
  5
16BA
330
13B4
100
AcDbEntity
  8
DEFPOINTS
 62
     0
100
AcDbPoint
 10
-119.0004159999999
 20
-12.44999699999995
 30
0.0
  0
POINT
  5
16BB
330
13B4
100
AcDbEntity
  8
DEFPOINTS
 62
     0
100
AcDbPoint
 10
-119.0004159999999
 20
-48.20051670227557
 30
0.0
  0
ENDBLK
  5
13B6
330
13B4
100
AcDbEntity
  8
0
100
AcDbBlockEnd
  0
BLOCK
  5
13C1
330
13C0
100
AcDbEntity
  8
0
100
AcDbBlockBegin
  2
*D14
 70
     1
 10
0.0
 20
0.0
 30
0.0
  3
*D14
  1

  0
LINE
  5
16BC
330
13C0
100
AcDbEntity
  8
2
 62
     0
100
AcDbLine
 10
32.0
 20
-23.90172100000003
 30
0.0
 11
32.0
 21
-31.7694260709525
 31
0.0
  0
LINE
  5
16BD
330
13C0
100
AcDbEntity
  8
2
 62
     0
100
AcDbLine
 10
9.999586999999905
 20
-13.44999699999994
 30
0.0
 11
9.999586999999904
 21
-31.7694260709525
 31
0.0
  0
LINE
  5
16BE
330
13C0
100
AcDbEntity
  8
2
 62
     0
100
AcDbLine
 10
29.5
 20
-29.7694260709525
 30
0.0
 11
12.4995869999999
 21
-29.7694260709525
 31
0.0
  0
SOLID
  5
16BF
330
13C0
100
AcDbEntity
  8
2
 62
     0
100
AcDbTrace
 10
29.5
 20
-29.35275940428583
 30
0.0
 11
29.5
 21
-30.18609273761917
 31
0.0
 12
32.0
 22
-29.7694260709525
 32
0.0
 13
32.0
 23
-29.7694260709525
 33
0.0
  0
SOLID
  5
16C0
330
13C0
100
AcDbEntity
  8
2
 62
     0
100
AcDbTrace
 10
12.4995869999999
 20
-29.35275940428583
 30
0.0
 11
12.4995869999999
 21
-30.18609273761917
 31
0.0
 12
9.999586999999904
 22
-29.7694260709525
 32
0.0
 13
9.999586999999904
 23
-29.7694260709525
 33
0.0
  0
MTEXT
  5
16C1
330
13C0
100
AcDbEntity
  8
2
 62
     0
100
AcDbMText
 10
20.9997934999999
 20
-27.0083579051057
 30
0.0
 40
3.5
 41
0.0
 71
     5
 72
     1
  1
\A1;22
  7
STANDARD 3.5 mm
 73
     1
 44
1.0
1001
ACAD
1000
MTEXTBEGIN
1070
    73
1070
     1
1070
    44
1040
1.0
1070
    74
1070
     0
1000
MTEXTEND
  0
POINT
  5
16C2
330
13C0
100
AcDbEntity
  8
DEFPOINTS
 62
     0
100
AcDbPoint
 10
32.0
 20
-22.90172100000003
 30
0.0
  0
POINT
  5
16C3
330
13C0
100
AcDbEntity
  8
DEFPOINTS
 62
     0
100
AcDbPoint
 10
9.999586999999905
 20
-12.44999699999995
 30
0.0
  0
POINT
  5
16C4
330
13C0
100
AcDbEntity
  8
DEFPOINTS
 62
     0
100
AcDbPoint
 10
9.999586999999904
 20
-29.7694260709525
 30
0.0
  0
ENDBLK
  5
13C2
330
13C0
100
AcDbEntity
  8
0
100
AcDbBlockEnd
  0
BLOCK
  5
13CD
330
13CC
100
AcDbEntity
  8
0
100
AcDbBlockBegin
  2
*D15
 70
     1
 10
0.0
 20
0.0
 30
0.0
  3
*D15
  1

  0
LINE
  5
16C5
330
13CC
100
AcDbEntity
  8
2
 62
     0
100
AcDbLine
 10
32.0
 20
-23.90172100000003
 30
0.0
 11
32.0
 21
-41.70943811040959
 31
0.0
  0
LINE
  5
16C6
330
13CC
100
AcDbEntity
  8
2
 62
     0
100
AcDbLine
 10
-0.0000000000000001
 20
-13.44999699999994
 30
0.0
 11
-0.0000000000000018
 21
-41.70943811040959
 31
0.0
  0
LINE
  5
16C7
330
13CC
100
AcDbEntity
  8
2
 62
     0
100
AcDbLine
 10
29.5
 20
-39.70943811040959
 30
0.0
 11
2.499999999999998
 21
-39.70943811040959
 31
0.0
  0
SOLID
  5
16C8
330
13CC
100
AcDbEntity
  8
2
 62
     0
100
AcDbTrace
 10
29.5
 20
-39.29277144374292
 30
0.0
 11
29.5
 21
-40.12610477707625
 31
0.0
 12
32.0
 22
-39.70943811040959
 32
0.0
 13
32.0
 23
-39.70943811040959
 33
0.0
  0
SOLID
  5
16C9
330
13CC
100
AcDbEntity
  8
2
 62
     0
100
AcDbTrace
 10
2.499999999999998
 20
-39.29277144374292
 30
0.0
 11
2.499999999999998
 21
-40.12610477707625
 31
0.0
 12
-0.0000000000000017
 22
-39.70943811040959
 32
0.0
 13
-0.0000000000000017
 23
-39.70943811040959
 33
0.0
  0
MTEXT
  5
16CA
330
13CC
100
AcDbEntity
  8
2
 62
     0
100
AcDbMText
 10
16.0
 20
-36.89794830014957
 30
0.0
 40
3.5
 41
0.0
 71
     5
 72
     1
  1
\A1;32
  7
STANDARD 3.5 mm
 73
     1
 44
1.0
1001
ACAD
1000
MTEXTBEGIN
1070
    73
1070
     1
1070
    44
1040
1.0
1070
    74
1070
     0
1000
MTEXTEND
  0
POINT
  5
16CB
330
13CC
100
AcDbEntity
  8
DEFPOINTS
 62
     0
100
AcDbPoint
 10
32.0
 20
-22.90172100000003
 30
0.0
  0
POINT
  5
16CC
330
13CC
100
AcDbEntity
  8
DEFPOINTS
 62
     0
100
AcDbPoint
 10
0.0
 20
-12.44999699999995
 30
0.0
  0
POINT
  5
16CD
330
13CC
100
AcDbEntity
  8
DEFPOINTS
 62
     0
100
AcDbPoint
 10
-0.0000000000000017
 20
-39.70943811040959
 30
0.0
  0
ENDBLK
  5
13CE
330
13CC
100
AcDbEntity
  8
0
100
AcDbBlockEnd
  0
ENDSEC
  0
SECTION
  2
ENTITIES
  0
LINE
  5
1167
330
18
100
AcDbEntity
  8
1
100
AcDbLine
 10
24.12018799999998
 20
-10.61256099999996
 30
0.0
 11
24.12455999999992
 21
-10.67393099999996
 31
0.0
  0
LINE
  5
1168
330
18
100
AcDbEntity
  8
1
100
AcDbLine
 10
24.11470200000002
 20
-10.55128800000003
 30
0.0
 11
24.12018799999998
 21
-10.61256099999996
 31
0.0
  0
LINE
  5
1169
330
18
100
AcDbEntity
  8
1
100
AcDbLine
 10
16.05025899999992
 20
-9.927754999999969
 30
0.0
 11
15.970867
 21
-9.789767000000047
 31
0.0
  0
LINE
  5
116A
330
18
100
AcDbEntity
  8
1
100
AcDbLine
 10
16.14074600000003
 20
-10.05888799999994
 30
0.0
 11
16.05025899999992
 21
-9.927754999999969
 31
0.0
  0
LINE
  5
116B
330
18
100
AcDbEntity
  8
1
100
AcDbLine
 10
26.73567800000001
 20
-7.885934999999953
 30
0.0
 11
26.73481800000002
 21
-7.884457000000047
 31
0.0
  0
LINE
  5
116C
330
18
100
AcDbEntity
  8
1
100
AcDbLine
 10
26.733946
 20
-7.885947000000065
 30
0.0
 11
26.73567800000001
 21
-7.885934999999953
 31
0.0
  0
LINE
  5
116D
330
18
100
AcDbEntity
  8
1
100
AcDbLine
 10
26.73481800000002
 20
-7.884457000000047
 30
0.0
 11
26.733946
 21
-7.885947000000065
 31
0.0
  0
LINE
  5
116E
330
18
100
AcDbEntity
  8
1
100
AcDbLine
 10
28.90576099999999
 20
-13.14293000000005
 30
0.0
 11
29.06363599999992
 21
-13.79640199999996
 31
0.0
  0
LINE
  5
116F
330
18
100
AcDbEntity
  8
1
100
AcDbLine
 10
28.90576099999999
 20
-13.14293000000005
 30
0.0
 11
28.72819199999992
 21
-8.870757999999959
 31
0.0
  0
LINE
  5
1170
330
18
100
AcDbEntity
  8
1
100
AcDbLine
 10
25.30092999999999
 20
-9.578152000000066
 30
0.0
 11
24.884749
 21
-9.053499000000066
 31
0.0
  0
LINE
  5
1171
330
18
100
AcDbEntity
  8
1
100
AcDbLine
 10
25.86316599999992
 20
-9.947606000000057
 30
0.0
 11
25.30092999999999
 21
-9.578152000000066
 31
0.0
  0
LINE
  5
1172
330
18
100
AcDbEntity
  8
1
100
AcDbLine
 10
26.51545099999998
 20
-10.12506600000004
 30
0.0
 11
25.86316599999992
 21
-9.947606000000057
 31
0.0
  0
LINE
  5
1173
330
18
100
AcDbEntity
  8
1
100
AcDbLine
 10
27.19281999999998
 20
-10.09284900000003
 30
0.0
 11
26.51545099999998
 21
-10.12506600000004
 31
0.0
  0
LINE
  5
1174
330
18
100
AcDbEntity
  8
1
100
AcDbLine
 10
27.827811
 20
-9.85418900000004
 30
0.0
 11
27.19281999999998
 21
-10.09284900000003
 31
0.0
  0
LINE
  5
1175
330
18
100
AcDbEntity
  8
1
100
AcDbLine
 10
28.35717499999999
 20
-9.432836000000058
 30
0.0
 11
27.827811
 21
-9.85418900000004
 31
0.0
  0
LINE
  5
1176
330
18
100
AcDbEntity
  8
1
100
AcDbLine
 10
28.72819199999992
 20
-8.870757999999959
 30
0.0
 11
28.35717499999999
 21
-9.432836000000058
 31
0.0
  0
LINE
  5
1177
330
18
100
AcDbEntity
  8
1
100
AcDbLine
 10
24.884749
 20
-9.053499000000066
 30
0.0
 11
24.89711499999993
 21
-9.351057999999959
 31
0.0
  0
LINE
  5
1178
330
18
100
AcDbEntity
  8
1
100
AcDbLine
 10
28.183494
 20
-12.78455800000004
 30
0.0
 11
28.15603700000003
 21
-12.64034400000002
 31
0.0
  0
LINE
  5
1179
330
18
100
AcDbEntity
  8
1
100
AcDbLine
 10
28.196756
 20
-12.93079400000005
 30
0.0
 11
28.183494
 21
-12.78455800000004
 31
0.0
  0
LINE
  5
117A
330
18
100
AcDbEntity
  8
1
100
AcDbLine
 10
28.1344289999999
 20
-12.67284000000006
 30
0.0
 11
28.196756
 21
-12.93079400000005
 31
0.0
  0
LINE
  5
117B
330
18
100
AcDbEntity
  8
1
100
AcDbLine
 10
28.15064699999993
 20
-13.06310200000005
 30
0.0
 11
28.1344289999999
 21
-12.67284000000006
 31
0.0
  0
LINE
  5
117C
330
18
100
AcDbEntity
  8
1
100
AcDbLine
 10
28.196756
 20
-12.93079400000005
 30
0.0
 11
28.21297400000003
 21
-13.32104400000005
 31
0.0
  0
LINE
  5
117D
330
18
100
AcDbEntity
  8
1
100
AcDbLine
 10
28.21297400000003
 20
-13.32104400000005
 30
0.0
 11
28.94950799999993
 21
-13.32407199999996
 31
0.0
  0
LINE
  5
117E
330
18
100
AcDbEntity
  8
1
100
AcDbLine
 10
28.15064699999993
 20
-13.06310200000005
 30
0.0
 11
28.21297400000003
 21
-13.32104400000005
 31
0.0
  0
LINE
  5
117F
330
18
100
AcDbEntity
  8
1
100
AcDbLine
 10
25.04816
 20
-9.666652000000077
 30
0.0
 11
25.02185300000002
 21
-9.620991000000053
 31
0.0
  0
LINE
  5
1180
330
18
100
AcDbEntity
  8
1
100
AcDbLine
 10
25.07562899999999
 20
-9.711647000000048
 30
0.0
 11
25.04816
 21
-9.666652000000077
 31
0.0
  0
LINE
  5
1181
330
18
100
AcDbEntity
  8
1
100
AcDbLine
 10
24.90280799999999
 20
-9.369261999999956
 30
0.0
 11
25.02185300000002
 21
-9.620991000000053
 31
0.0
  0
LINE
  5
1182
330
18
100
AcDbEntity
  8
1
100
AcDbLine
 10
24.81199400000003
 20
-9.07746800000006
 30
0.0
 11
24.90280799999999
 21
-9.369261999999956
 31
0.0
  0
LINE
  5
1183
330
18
100
AcDbEntity
  8
1
100
AcDbLine
 10
24.884749
 20
-9.053499000000066
 30
0.0
 11
24.76737500000002
 21
-8.808661999999962
 31
0.0
  0
LINE
  5
1184
330
18
100
AcDbEntity
  8
1
100
AcDbLine
 10
28.8832569999999
 20
-8.370123000000042
 30
0.0
 11
28.72819199999992
 21
-8.870757999999959
 31
0.0
  0
LINE
  5
1185
330
18
100
AcDbEntity
  8
1
100
AcDbLine
 10
28.90958799999999
 20
-7.848195000000025
 30
0.0
 11
28.8832569999999
 21
-8.370123000000042
 31
0.0
  0
LINE
  5
1186
330
18
100
AcDbEntity
  8
1
100
AcDbLine
 10
24.83092499999998
 20
-8.950731999999952
 30
0.0
 11
24.78290199999998
 21
-8.845166000000041
 31
0.0
  0
LINE
  5
1187
330
18
100
AcDbEntity
  8
1
100
AcDbLine
 10
24.884749
 20
-9.053499000000066
 30
0.0
 11
24.83092499999998
 21
-8.950731999999952
 31
0.0
  0
LINE
  5
1188
330
18
100
AcDbEntity
  8
1
100
AcDbLine
 10
28.72819199999992
 20
-8.870757999999959
 30
0.0
 11
28.88607899999988
 21
-9.52423099999995
 31
0.0
  0
LINE
  5
1189
330
18
100
AcDbEntity
  8
1
100
AcDbLine
 10
25.07562899999999
 20
-9.711647000000048
 30
0.0
 11
25.09640000000002
 21
-9.797639999999951
 31
0.0
  0
LINE
  5
118A
330
18
100
AcDbEntity
  8
SK1
100
AcDbLine
 10
-119.0004159999999
 20
-12.44999699999995
 30
0.0
 11
0.0
 21
-12.44999699999995
 31
0.0
  0
LINE
  5
118B
330
18
100
AcDbEntity
  8
1
100
AcDbLine
 10
22.37981500000001
 20
12.44999699999995
 30
0.0
 11
0.0
 21
12.44999699999995
 31
0.0
  0
LINE
  5
118C
330
18
100
AcDbEntity
  8
SK1
100
AcDbLine
 10
-119.0004159999999
 20
12.44999699999995
 30
0.0
 11
-119.0004159999999
 21
-12.44999699999995
 31
0.0
  0
LINE
  5
118E
330
18
100
AcDbEntity
  8
1
100
AcDbLine
 10
31.59957600000002
 20
-3.519110999999931
 30
0.0
 11
22.37981500000001
 21
12.44999699999995
 31
0.0
  0
LINE
  5
1190
330
18
100
AcDbEntity
  8
1
100
AcDbLine
 10
9.999586999999905
 20
12.44999699999995
 30
0.0
 11
9.999586999999905
 21
-12.44999699999995
 31
0.0
  0
LINE
  5
1191
330
18
100
AcDbEntity
  8
1
100
AcDbLine
 10
10.88381099999992
 20
12.44999699999995
 30
0.0
 11
10.88381099999992
 21
-8.523977000000023
 31
0.0
  0
LINE
  5
1192
330
18
100
AcDbEntity
  8
1
100
AcDbLine
 10
9.999586999999905
 20
-12.44999699999995
 30
0.0
 11
10.59858200000002
 21
-14.68547099999996
 31
0.0
  0
LINE
  5
1193
330
18
100
AcDbEntity
  8
1
100
AcDbLine
 10
28.472599
 20
-20.10000200000007
 30
0.0
 11
28.93817200000001
 21
-20.10000200000007
 31
0.0
  0
LINE
  5
1194
330
18
100
AcDbEntity
  8
1
100
AcDbLine
 10
19.13834600000001
 20
-8.183336999999944
 30
0.0
 11
19.69630599999993
 21
-8.576251000000048
 31
0.0
  0
LINE
  5
1195
330
18
100
AcDbEntity
  8
1
100
AcDbLine
 10
17.57332500000001
 20
-13.03754600000004
 30
0.0
 11
17.45222100000001
 21
-12.64319000000004
 31
0.0
  0
LINE
  5
1196
330
18
100
AcDbEntity
  8
1
100
AcDbLine
 10
17.74147099999993
 20
-13.41446099999995
 30
0.0
 11
17.57332500000001
 21
-13.03754600000004
 31
0.0
  0
LINE
  5
1197
330
18
100
AcDbEntity
  8
1
100
AcDbLine
 10
23.78201799999999
 20
-9.914699000000048
 30
0.0
 11
24.18171499999989
 21
-10.73673000000003
 31
0.0
  0
LINE
  5
1198
330
18
100
AcDbEntity
  8
1
100
AcDbLine
 10
23.1764839999999
 20
-9.226708000000051
 30
0.0
 11
23.78201799999999
 21
-9.914699000000048
 31
0.0
  0
LINE
  5
1199
330
18
100
AcDbEntity
  8
1
100
AcDbLine
 10
22.40769599999999
 20
-8.72113099999995
 30
0.0
 11
23.1764839999999
 21
-9.226708000000051
 31
0.0
  0
LINE
  5
119A
330
18
100
AcDbEntity
  8
1
100
AcDbLine
 10
21.52968499999992
 20
-8.433502999999952
 30
0.0
 11
22.40769599999999
 21
-8.72113099999995
 31
0.0
  0
LINE
  5
119B
330
18
100
AcDbEntity
  8
1
100
AcDbLine
 10
20.604196
 20
-8.384051000000049
 30
0.0
 11
21.52968499999992
 21
-8.433502999999952
 31
0.0
  0
LINE
  5
119C
330
18
100
AcDbEntity
  8
1
100
AcDbLine
 10
19.69630599999993
 20
-8.576251000000048
 30
0.0
 11
20.604196
 21
-8.384051000000049
 31
0.0
  0
LINE
  5
119D
330
18
100
AcDbEntity
  8
1
100
AcDbLine
 10
18.50560799999999
 20
-7.887727000000047
 30
0.0
 11
19.13834600000001
 21
-8.183336999999944
 31
0.0
  0
LINE
  5
119E
330
18
100
AcDbEntity
  8
1
100
AcDbLine
 10
17.80661999999989
 20
-7.826927000000033
 30
0.0
 11
18.50560799999999
 21
-7.887727000000047
 31
0.0
  0
LINE
  5
119F
330
18
100
AcDbEntity
  8
1
100
AcDbLine
 10
17.12768899999992
 20
-8.008443999999961
 30
0.0
 11
17.80661999999989
 21
-7.826927000000033
 31
0.0
  0
LINE
  5
11A0
330
18
100
AcDbEntity
  8
1
100
AcDbLine
 10
16.55266299999999
 20
-8.40984899999993
 30
0.0
 11
17.12768899999992
 21
-8.008443999999961
 31
0.0
  0
LINE
  5
11A1
330
18
100
AcDbEntity
  8
1
100
AcDbLine
 10
16.1525299999999
 20
-8.98159199999997
 30
0.0
 11
16.55266299999999
 21
-8.40984899999993
 31
0.0
  0
LINE
  5
11A2
330
18
100
AcDbEntity
  8
1
100
AcDbLine
 10
15.9766929999999
 20
-9.653086999999963
 30
0.0
 11
16.1525299999999
 21
-8.98159199999997
 31
0.0
  0
LINE
  5
11A3
330
18
100
AcDbEntity
  8
1
100
AcDbLine
 10
16.0468679999999
 20
-10.34140499999993
 30
0.0
 11
15.9766929999999
 21
-9.653086999999963
 31
0.0
  0
LINE
  5
11A4
330
18
100
AcDbEntity
  8
1
100
AcDbLine
 10
16.35439499999989
 20
-10.96155799999994
 30
0.0
 11
16.0468679999999
 21
-10.34140499999993
 31
0.0
  0
LINE
  5
11A5
330
18
100
AcDbEntity
  8
1
100
AcDbLine
 10
29.06363599999992
 20
-13.79640199999996
 30
0.0
 11
28.88607899999988
 21
-9.52423099999995
 31
0.0
  0
LINE
  5
11A6
330
18
100
AcDbEntity
  8
1
100
AcDbLine
 10
29.74645599999991
 20
-13.98017300000006
 30
0.0
 11
29.06363599999992
 21
-13.79640199999996
 31
0.0
  0
LINE
  5
11A7
330
18
100
AcDbEntity
  8
1
100
AcDbLine
 10
31.59957600000002
 20
-13.98776700000001
 30
0.0
 11
29.74645599999991
 21
-13.98017300000006
 31
0.0
  0
LINE
  5
11A8
330
18
100
AcDbEntity
  8
1
100
AcDbLine
 10
31.59957600000002
 20
-13.98776700000001
 30
0.0
 11
31.59957600000002
 21
-3.519110999999931
 31
0.0
  0
LINE
  5
11A9
330
18
100
AcDbEntity
  8
1
100
AcDbLine
 10
31.59957600000002
 20
-3.519110999999931
 30
0.0
 11
10.88381099999992
 21
-8.523977000000023
 31
0.0
  0
LINE
  5
11AA
330
18
100
AcDbEntity
  8
1
100
AcDbLine
 10
10.88381099999992
 20
-8.523977000000023
 30
0.0
 11
10.59858200000002
 21
-14.68547099999996
 31
0.0
  0
LINE
  5
11AB
330
18
100
AcDbEntity
  8
1
100
AcDbLine
 10
10.59858200000002
 20
-14.68547099999996
 30
0.0
 11
12.04938900000002
 21
-20.10000200000007
 31
0.0
  0
LINE
  5
11AC
330
18
100
AcDbEntity
  8
1
100
AcDbLine
 10
12.04938900000002
 20
-20.10000200000007
 30
0.0
 11
25.52459600000003
 21
-20.10000200000007
 31
0.0
  0
LINE
  5
11AD
330
18
100
AcDbEntity
  8
1
100
AcDbLine
 10
25.44734799999998
 20
-18.24122500000005
 30
0.0
 11
25.52459600000003
 21
-20.10000200000007
 31
0.0
  0
LINE
  5
11AE
330
18
100
AcDbEntity
  8
1
100
AcDbLine
 10
25.09640000000002
 20
-9.797639999999951
 30
0.0
 11
25.1822719999999
 21
-11.86374399999994
 31
0.0
  0
LINE
  5
11AF
330
18
100
AcDbEntity
  8
1
100
AcDbLine
 10
29.06169799999998
 20
-8.87830399999995
 30
0.0
 11
28.88607899999988
 21
-9.52423099999995
 31
0.0
  0
LINE
  5
11B0
330
18
100
AcDbEntity
  8
1
100
AcDbLine
 10
29.02507300000002
 20
-8.212017000000038
 30
0.0
 11
29.06169799999998
 21
-8.87830399999995
 31
0.0
  0
LINE
  5
11B1
330
18
100
AcDbEntity
  8
1
100
AcDbLine
 10
28.77985999999999
 20
-7.591561000000034
 30
0.0
 11
29.02507300000002
 21
-8.212017000000038
 31
0.0
  0
LINE
  5
11B2
330
18
100
AcDbEntity
  8
1
100
AcDbLine
 10
28.350393
 20
-7.07858299999993
 30
0.0
 11
28.77985999999999
 21
-7.591561000000034
 31
0.0
  0
LINE
  5
11B3
330
18
100
AcDbEntity
  8
1
100
AcDbLine
 10
27.77935200000002
 20
-6.724038000000057
 30
0.0
 11
28.350393
 21
-7.07858299999993
 31
0.0
  0
LINE
  5
11B4
330
18
100
AcDbEntity
  8
1
100
AcDbLine
 10
27.123469
 20
-6.563134999999952
 30
0.0
 11
27.77935200000002
 21
-6.724038000000057
 31
0.0
  0
LINE
  5
11B5
330
18
100
AcDbEntity
  8
1
100
AcDbLine
 10
26.44787999999989
 20
-6.611883999999953
 30
0.0
 11
27.123469
 21
-6.563134999999952
 31
0.0
  0
LINE
  5
11B6
330
18
100
AcDbEntity
  8
1
100
AcDbLine
 10
25.81970899999999
 20
-6.865406000000056
 30
0.0
 11
26.44787999999989
 21
-6.611883999999953
 31
0.0
  0
LINE
  5
11B7
330
18
100
AcDbEntity
  8
1
100
AcDbLine
 10
25.30135399999989
 20
-7.298554999999943
 30
0.0
 11
25.81970899999999
 21
-6.865406000000056
 31
0.0
  0
LINE
  5
11B8
330
18
100
AcDbEntity
  8
1
100
AcDbLine
 10
24.944302
 20
-7.868264000000046
 30
0.0
 11
25.30135399999989
 21
-7.298554999999943
 31
0.0
  0
LINE
  5
11B9
330
18
100
AcDbEntity
  8
1
100
AcDbLine
 10
24.78404099999989
 20
-8.517970000000069
 30
0.0
 11
24.944302
 21
-7.868264000000046
 31
0.0
  0
LINE
  5
11BA
330
18
100
AcDbEntity
  8
1
100
AcDbLine
 10
24.83647200000002
 20
-9.183118000000057
 30
0.0
 11
24.78404099999989
 21
-8.517970000000069
 31
0.0
  0
LINE
  5
11BB
330
18
100
AcDbEntity
  8
1
100
AcDbLine
 10
25.09640000000002
 20
-9.797639999999951
 30
0.0
 11
24.83647200000002
 21
-9.183118000000057
 31
0.0
  0
LINE
  5
11BC
330
18
100
AcDbEntity
  8
1
100
AcDbLine
 10
29.376238
 20
-16.26088400000004
 30
0.0
 11
29.34156299999989
 21
-16.11733599999994
 31
0.0
  0
LINE
  5
11BD
330
18
100
AcDbEntity
  8
1
100
AcDbLine
 10
29.20753499999989
 20
-17.19347000000005
 30
0.0
 11
29.17285900000002
 21
-17.04992200000004
 31
0.0
  0
LINE
  5
11BE
330
18
100
AcDbEntity
  8
1
100
AcDbLine
 10
29.050907
 20
-17.19756299999995
 30
0.0
 11
29.01406300000002
 21
-17.04505300000007
 31
0.0
  0
LINE
  5
11BF
330
18
100
AcDbEntity
  8
1
100
AcDbLine
 10
29.3056269999999
 20
-16.17584800000004
 30
0.0
 11
29.34156299999989
 21
-16.11733599999994
 31
0.0
  0
LINE
  5
11C0
330
18
100
AcDbEntity
  8
1
100
AcDbLine
 10
29.34156299999989
 20
-16.11733599999994
 30
0.0
 11
29.36138900000003
 21
-16.06675799999994
 31
0.0
  0
LINE
  5
11C1
330
18
100
AcDbEntity
  8
1
100
AcDbLine
 10
29.01406300000002
 20
-17.04505300000007
 30
0.0
 11
28.97259300000002
 21
-17.05032200000006
 31
0.0
  0
LINE
  5
11C2
330
18
100
AcDbEntity
  8
1
100
AcDbLine
 10
29.01406300000002
 20
-17.04505300000007
 30
0.0
 11
29.17285900000002
 21
-17.04992200000004
 31
0.0
  0
LINE
  5
11C3
330
18
100
AcDbEntity
  8
1
100
AcDbLine
 10
29.32857899999999
 20
-16.96744200000004
 30
0.0
 11
29.35177299999998
 21
-16.89543800000005
 31
0.0
  0
LINE
  5
11C4
330
18
100
AcDbEntity
  8
1
100
AcDbLine
 10
29.28867099999991
 20
-17.01237600000007
 30
0.0
 11
29.32857899999999
 21
-16.96744200000004
 31
0.0
  0
LINE
  5
11C5
330
18
100
AcDbEntity
  8
1
100
AcDbLine
 10
29.233587
 20
-17.04162600000006
 30
0.0
 11
29.28867099999991
 21
-17.01237600000007
 31
0.0
  0
LINE
  5
11C6
330
18
100
AcDbEntity
  8
1
100
AcDbLine
 10
29.17285900000002
 20
-17.04992200000004
 30
0.0
 11
29.233587
 21
-17.04162600000006
 31
0.0
  0
LINE
  5
11C7
330
18
100
AcDbEntity
  8
1
100
AcDbLine
 10
29.782512
 20
-17.30725899999995
 30
0.0
 11
29.97691599999991
 21
-16.74720300000005
 31
0.0
  0
LINE
  5
11C8
330
18
100
AcDbEntity
  8
1
100
AcDbLine
 10
29.38469200000003
 20
-17.75170800000004
 30
0.0
 11
29.782512
 21
-17.30725899999995
 31
0.0
  0
LINE
  5
11C9
330
18
100
AcDbEntity
  8
1
100
AcDbLine
 10
28.8449599999999
 20
-18.01183000000004
 30
0.0
 11
29.38469200000003
 21
-17.75170800000004
 31
0.0
  0
LINE
  5
11CA
330
18
100
AcDbEntity
  8
1
100
AcDbLine
 10
28.24674099999999
 20
-18.04743899999994
 30
0.0
 11
28.8449599999999
 21
-18.01183000000004
 31
0.0
  0
LINE
  5
11CB
330
18
100
AcDbEntity
  8
1
100
AcDbLine
 10
29.38268199999993
 20
-16.09734000000004
 30
0.0
 11
29.376238
 21
-16.26088400000004
 31
0.0
  0
LINE
  5
11CC
330
18
100
AcDbEntity
  8
1
100
AcDbLine
 10
29.25348700000001
 20
-15.99556499999996
 30
0.0
 11
29.38268199999993
 21
-16.09734000000004
 31
0.0
  0
LINE
  5
11CD
330
18
100
AcDbEntity
  8
1
100
AcDbLine
 10
29.376238
 20
-16.26088400000004
 30
0.0
 11
29.30052799999998
 21
-16.39664300000005
 31
0.0
  0
LINE
  5
11CE
330
18
100
AcDbEntity
  8
1
100
AcDbLine
 10
29.269474
 20
-16.72869700000005
 30
0.0
 11
29.25346200000002
 21
-16.66450499999994
 31
0.0
  0
LINE
  5
11CF
330
18
100
AcDbEntity
  8
1
100
AcDbLine
 10
29.29563499999989
 20
-16.78949700000005
 30
0.0
 11
29.269474
 21
-16.72869700000005
 31
0.0
  0
LINE
  5
11D0
330
18
100
AcDbEntity
  8
1
100
AcDbLine
 10
29.29563499999989
 20
-16.78949700000005
 30
0.0
 11
29.36795399999989
 21
-16.92599600000003
 31
0.0
  0
LINE
  5
11D1
330
18
100
AcDbEntity
  8
1
100
AcDbLine
 10
29.36291599999993
 20
-17.10321299999993
 30
0.0
 11
29.20753499999989
 21
-17.19347000000005
 31
0.0
  0
LINE
  5
11D2
330
18
100
AcDbEntity
  8
1
100
AcDbLine
 10
29.36795399999989
 20
-16.92599600000003
 30
0.0
 11
29.36291599999993
 21
-17.10321299999993
 31
0.0
  0
LINE
  5
11D3
330
18
100
AcDbEntity
  8
1
100
AcDbLine
 10
29.20753499999989
 20
-17.19347000000005
 30
0.0
 11
29.050907
 21
-17.19756299999995
 31
0.0
  0
LINE
  5
11D4
330
18
100
AcDbEntity
  8
1
100
AcDbLine
 10
28.91870799999992
 20
-17.22211400000005
 30
0.0
 11
29.050907
 21
-17.19756299999995
 31
0.0
  0
LINE
  5
11D5
330
18
100
AcDbEntity
  8
1
100
AcDbLine
 10
28.80075299999999
 20
-17.28636600000005
 30
0.0
 11
28.91870799999992
 21
-17.22211400000005
 31
0.0
  0
LINE
  5
11D6
330
18
100
AcDbEntity
  8
1
100
AcDbLine
 10
29.35172399999999
 20
-15.93085300000005
 30
0.0
 11
28.99158399999999
 21
-15.62950300000006
 31
0.0
  0
LINE
  5
11D7
330
18
100
AcDbEntity
  8
1
100
AcDbLine
 10
29.54851499999989
 20
-16.35465200000005
 30
0.0
 11
29.35172399999999
 21
-15.93085300000005
 31
0.0
  0
LINE
  5
11D8
330
18
100
AcDbEntity
  8
1
100
AcDbLine
 10
29.545366
 20
-16.82205300000005
 30
0.0
 11
29.54851499999989
 21
-16.35465200000005
 31
0.0
  0
LINE
  5
11D9
330
18
100
AcDbEntity
  8
1
100
AcDbLine
 10
29.34283399999998
 20
-17.24609499999996
 30
0.0
 11
29.545366
 21
-16.82205300000005
 31
0.0
  0
LINE
  5
11DA
330
18
100
AcDbEntity
  8
1
100
AcDbLine
 10
28.97862500000002
 20
-17.54788099999995
 30
0.0
 11
29.34283399999998
 21
-17.24609499999996
 31
0.0
  0
LINE
  5
11DB
330
18
100
AcDbEntity
  8
1
100
AcDbLine
 10
28.52047700000003
 20
-17.67126300000003
 30
0.0
 11
28.97862500000002
 21
-17.54788099999995
 31
0.0
  0
LINE
  5
11DC
330
18
100
AcDbEntity
  8
1
100
AcDbLine
 10
19.79344200000003
 20
-13.26715900000003
 30
0.0
 11
19.67108999999999
 21
-12.76075800000003
 31
0.0
  0
LINE
  5
11DD
330
18
100
AcDbEntity
  8
1
100
AcDbLine
 10
19.58740999999992
 20
-13.10683700000005
 30
0.0
 11
19.50178099999999
 21
-12.75242500000006
 31
0.0
  0
LINE
  5
11DE
330
18
100
AcDbEntity
  8
1
100
AcDbLine
 10
22.24062800000002
 20
-11.91284500000004
 30
0.0
 11
22.201664
 21
-11.75155399999996
 31
0.0
  0
LINE
  5
11DF
330
18
100
AcDbEntity
  8
1
100
AcDbLine
 10
22.22341699999993
 20
-12.17363299999994
 30
0.0
 11
22.10107700000003
 21
-11.66723199999993
 31
0.0
  0
LINE
  5
11E0
330
18
100
AcDbEntity
  8
1
100
AcDbLine
 10
22.64284400000002
 20
-13.39155800000004
 30
0.0
 11
22.52613599999989
 21
-12.90844800000004
 31
0.0
  0
LINE
  5
11E1
330
18
100
AcDbEntity
  8
1
100
AcDbLine
 10
22.41377599999998
 20
-13.51134200000005
 30
0.0
 11
22.29143599999992
 21
-13.00495300000005
 31
0.0
  0
LINE
  5
11E2
330
18
100
AcDbEntity
  8
1
100
AcDbLine
 10
22.03121700000003
 20
-14.03683099999996
 30
0.0
 11
21.90887700000002
 21
-13.53042999999996
 31
0.0
  0
LINE
  5
11E3
330
18
100
AcDbEntity
  8
1
100
AcDbLine
 10
21.99651699999993
 20
-14.27937900000005
 30
0.0
 11
21.879797
 21
-13.79625700000004
 31
0.0
  0
LINE
  5
11E4
330
18
100
AcDbEntity
  8
1
100
AcDbLine
 10
21.54254800000001
 20
-14.48366600000002
 30
0.0
 11
21.42582700000003
 21
-14.00055599999992
 31
0.0
  0
LINE
  5
11E5
330
18
100
AcDbEntity
  8
1
100
AcDbLine
 10
21.33273699999989
 20
-14.35115300000004
 30
0.0
 11
21.210397
 21
-13.84476399999996
 31
0.0
  0
LINE
  5
11E6
330
18
100
AcDbEntity
  8
1
100
AcDbLine
 10
20.68227999999994
 20
-14.29053400000006
 30
0.0
 11
20.55993999999998
 21
-13.78414499999994
 31
0.0
  0
LINE
  5
11E7
330
18
100
AcDbEntity
  8
1
100
AcDbLine
 10
20.44359600000001
 20
-14.38126199999994
 30
0.0
 11
20.32687600000003
 21
-13.89814000000003
 31
0.0
  0
LINE
  5
11E8
330
18
100
AcDbEntity
  8
1
100
AcDbLine
 10
22.12685099999993
 20
-13.10596499999995
 30
0.0
 11
22.03046599999993
 21
-13.21045199999995
 31
0.0
  0
LINE
  5
11E9
330
18
100
AcDbEntity
  8
1
100
AcDbLine
 10
22.29143599999992
 20
-13.00495300000005
 30
0.0
 11
22.12685099999993
 21
-13.10596499999995
 31
0.0
  0
LINE
  5
11EA
330
18
100
AcDbEntity
  8
1
100
AcDbLine
 10
22.29143599999992
 20
-13.00495300000005
 30
0.0
 11
22.52613599999989
 21
-12.90844800000004
 31
0.0
  0
LINE
  5
11EB
330
18
100
AcDbEntity
  8
1
100
AcDbLine
 10
22.6061939999999
 20
-12.85812400000004
 30
0.0
 11
22.61451499999993
 21
-12.84717500000005
 31
0.0
  0
LINE
  5
11EC
330
18
100
AcDbEntity
  8
1
100
AcDbLine
 10
22.52613599999989
 20
-12.90844800000004
 30
0.0
 11
22.6061939999999
 21
-12.85812400000004
 31
0.0
  0
LINE
  5
11ED
330
18
100
AcDbEntity
  8
1
100
AcDbLine
 10
22.11253499999998
 20
-11.85195899999994
 30
0.0
 11
22.117076
 21
-11.86552400000006
 31
0.0
  0
LINE
  5
11EE
330
18
100
AcDbEntity
  8
1
100
AcDbLine
 10
22.10107700000003
 20
-11.66723199999993
 30
0.0
 11
22.11253499999998
 21
-11.85195899999994
 31
0.0
  0
LINE
  5
11EF
330
18
100
AcDbEntity
  8
1
100
AcDbLine
 10
19.55272200000002
 20
-12.67981600000005
 30
0.0
 11
19.67108999999999
 21
-12.76075800000003
 31
0.0
  0
LINE
  5
11F0
330
18
100
AcDbEntity
  8
1
100
AcDbLine
 10
19.74108299999989
 20
-12.81723500000004
 30
0.0
 11
19.67108999999999
 21
-12.76075800000003
 31
0.0
  0
LINE
  5
11F1
330
18
100
AcDbEntity
  8
1
100
AcDbLine
 10
19.8520499999999
 20
-12.95851699999995
 30
0.0
 11
19.74108299999989
 21
-12.81723500000004
 31
0.0
  0
LINE
  5
11F2
330
18
100
AcDbEntity
  8
1
100
AcDbLine
 10
19.8783929999999
 20
-13.00990700000003
 30
0.0
 11
19.8520499999999
 21
-12.95851699999995
 31
0.0
  0
LINE
  5
11F3
330
18
100
AcDbEntity
  8
1
100
AcDbLine
 10
19.91903999999999
 20
-13.13223500000006
 30
0.0
 11
19.8783929999999
 21
-13.00990700000003
 31
0.0
  0
LINE
  5
11F4
330
18
100
AcDbEntity
  8
1
100
AcDbLine
 10
20.30159900000001
 20
-13.90913800000005
 30
0.0
 11
20.32687600000003
 21
-13.89814000000003
 31
0.0
  0
LINE
  5
11F5
330
18
100
AcDbEntity
  8
1
100
AcDbLine
 10
20.21215399999988
 20
-13.92722000000005
 30
0.0
 11
20.30159900000001
 21
-13.90913800000005
 31
0.0
  0
LINE
  5
11F6
330
18
100
AcDbEntity
  8
1
100
AcDbLine
 10
20.12354499999998
 20
-13.91561699999996
 30
0.0
 11
20.21215399999988
 21
-13.92722000000005
 31
0.0
  0
LINE
  5
11F7
330
18
100
AcDbEntity
  8
1
100
AcDbLine
 10
20.0587109999999
 20
-13.88321899999995
 30
0.0
 11
20.12354499999998
 21
-13.91561699999996
 31
0.0
  0
LINE
  5
11F8
330
18
100
AcDbEntity
  8
1
100
AcDbLine
 10
20.32687600000003
 20
-13.89814000000003
 30
0.0
 11
20.55993999999998
 21
-13.78414499999994
 31
0.0
  0
LINE
  5
11F9
330
18
100
AcDbEntity
  8
1
100
AcDbLine
 10
20.64840399999992
 20
-13.74903399999994
 30
0.0
 11
20.55993999999998
 21
-13.78414499999994
 31
0.0
  0
LINE
  5
11FA
330
18
100
AcDbEntity
  8
1
100
AcDbLine
 10
20.8324649999999
 20
-13.72048600000003
 30
0.0
 11
20.64840399999992
 21
-13.74903399999994
 31
0.0
  0
LINE
  5
11FB
330
18
100
AcDbEntity
  8
1
100
AcDbLine
 10
20.89119399999993
 20
-13.72313900000004
 30
0.0
 11
20.8324649999999
 21
-13.72048600000003
 31
0.0
  0
LINE
  5
11FC
330
18
100
AcDbEntity
  8
1
100
AcDbLine
 10
21.03239200000002
 20
-13.75306700000005
 30
0.0
 11
20.89119399999993
 21
-13.72313900000004
 31
0.0
  0
LINE
  5
11FD
330
18
100
AcDbEntity
  8
1
100
AcDbLine
 10
21.210397
 20
-13.84476399999996
 30
0.0
 11
21.03239200000002
 21
-13.75306700000005
 31
0.0
  0
LINE
  5
11FE
330
18
100
AcDbEntity
  8
1
100
AcDbLine
 10
21.210397
 20
-13.84476399999996
 30
0.0
 11
21.42582700000003
 21
-14.00055599999992
 31
0.0
  0
LINE
  5
11FF
330
18
100
AcDbEntity
  8
1
100
AcDbLine
 10
21.875449
 20
-13.82437999999997
 30
0.0
 11
21.879797
 21
-13.79625700000004
 31
0.0
  0
LINE
  5
1200
330
18
100
AcDbEntity
  8
1
100
AcDbLine
 10
21.84269899999998
 20
-13.91283200000006
 30
0.0
 11
21.875449
 21
-13.82437999999997
 31
0.0
  0
LINE
  5
1201
330
18
100
AcDbEntity
  8
1
100
AcDbLine
 10
21.78560399999992
 20
-13.98469000000005
 30
0.0
 11
21.84269899999998
 21
-13.91283200000006
 31
0.0
  0
LINE
  5
1202
330
18
100
AcDbEntity
  8
1
100
AcDbLine
 10
21.70806600000003
 20
-14.03472300000005
 30
0.0
 11
21.78560399999992
 21
-13.98469000000005
 31
0.0
  0
LINE
  5
1203
330
18
100
AcDbEntity
  8
1
100
AcDbLine
 10
21.61452700000001
 20
-14.05686399999997
 30
0.0
 11
21.70806600000003
 21
-14.03472300000005
 31
0.0
  0
LINE
  5
1204
330
18
100
AcDbEntity
  8
1
100
AcDbLine
 10
21.51467899999989
 20
-14.04490900000001
 30
0.0
 11
21.61452700000001
 21
-14.05686399999997
 31
0.0
  0
LINE
  5
1205
330
18
100
AcDbEntity
  8
1
100
AcDbLine
 10
21.42582700000003
 20
-14.00055599999992
 30
0.0
 11
21.51467899999989
 21
-14.04490900000001
 31
0.0
  0
LINE
  5
1206
330
18
100
AcDbEntity
  8
1
100
AcDbLine
 10
21.879797
 20
-13.79625700000004
 30
0.0
 11
21.90887700000002
 21
-13.53042999999996
 31
0.0
  0
LINE
  5
1207
330
18
100
AcDbEntity
  8
1
100
AcDbLine
 10
21.92626899999993
 20
-13.43431200000004
 30
0.0
 11
21.90887700000002
 21
-13.53042999999996
 31
0.0
  0
LINE
  5
1208
330
18
100
AcDbEntity
  8
1
100
AcDbLine
 10
21.99816400000003
 20
-13.25950399999994
 30
0.0
 11
21.92626899999993
 21
-13.43431200000004
 31
0.0
  0
LINE
  5
1209
330
18
100
AcDbEntity
  8
1
100
AcDbLine
 10
22.03046599999993
 20
-13.21045199999995
 30
0.0
 11
21.99816400000003
 21
-13.25950399999994
 31
0.0
  0
LINE
  5
120A
330
18
100
AcDbEntity
  8
1
100
AcDbLine
 10
22.03824200000003
 20
-12.92926800000006
 30
0.0
 11
22.21389700000003
 21
-12.39876499999996
 31
0.0
  0
LINE
  5
120B
330
18
100
AcDbEntity
  8
1
100
AcDbLine
 10
21.644068
 20
-13.33091499999995
 30
0.0
 11
22.03824200000003
 21
-12.92926800000006
 31
0.0
  0
LINE
  5
120C
330
18
100
AcDbEntity
  8
1
100
AcDbLine
 10
21.11198999999999
 20
-13.52157600000004
 30
0.0
 11
21.644068
 21
-13.33091499999995
 31
0.0
  0
LINE
  5
120D
330
18
100
AcDbEntity
  8
1
100
AcDbLine
 10
20.5508569999999
 20
-13.46224099999997
 30
0.0
 11
21.11198999999999
 21
-13.52157600000004
 31
0.0
  0
LINE
  5
120E
330
18
100
AcDbEntity
  8
1
100
AcDbLine
 10
20.075401
 20
-13.16504500000005
 30
0.0
 11
20.5508569999999
 21
-13.46224099999997
 31
0.0
  0
LINE
  5
120F
330
18
100
AcDbEntity
  8
1
100
AcDbLine
 10
19.78286799999989
 20
-12.69077700000006
 30
0.0
 11
20.075401
 21
-13.16504500000005
 31
0.0
  0
LINE
  5
1210
330
18
100
AcDbEntity
  8
1
100
AcDbLine
 10
22.21095400000002
 20
-12.85205599999995
 30
0.0
 11
22.03046599999993
 21
-13.21045199999995
 31
0.0
  0
LINE
  5
1211
330
18
100
AcDbEntity
  8
1
100
AcDbLine
 10
22.26615900000002
 20
-12.45640399999994
 30
0.0
 11
22.21095400000002
 21
-12.85205599999995
 31
0.0
  0
LINE
  5
1212
330
18
100
AcDbEntity
  8
1
100
AcDbLine
 10
22.0172399999999
 20
-11.75183200000005
 30
0.0
 11
22.13199800000001
 21
-11.93321700000005
 31
0.0
  0
LINE
  5
1213
330
18
100
AcDbEntity
  8
1
100
AcDbLine
 10
21.87215399999991
 20
-11.59307299999995
 30
0.0
 11
22.0172399999999
 21
-11.75183200000005
 31
0.0
  0
LINE
  5
1214
330
18
100
AcDbEntity
  8
1
100
AcDbLine
 10
19.80231999999989
 20
-12.78957200000006
 30
0.0
 11
19.76987200000002
 21
-12.55873600000003
 31
0.0
  0
LINE
  5
1215
330
18
100
AcDbEntity
  8
1
100
AcDbLine
 10
19.8783929999999
 20
-13.00990700000003
 30
0.0
 11
19.80231999999989
 21
-12.78957200000006
 31
0.0
  0
LINE
  5
1216
330
18
100
AcDbEntity
  8
1
100
AcDbLine
 10
20.2868949999999
 20
-13.50099899999996
 30
0.0
 11
19.8783929999999
 21
-13.00990700000003
 31
0.0
  0
LINE
  5
1217
330
18
100
AcDbEntity
  8
1
100
AcDbLine
 10
20.89119399999993
 20
-13.72313900000004
 30
0.0
 11
20.2868949999999
 21
-13.50099899999996
 31
0.0
  0
LINE
  5
1218
330
18
100
AcDbEntity
  8
1
100
AcDbLine
 10
21.52939400000002
 20
-13.61678599999995
 30
0.0
 11
20.89119399999993
 21
-13.72313900000004
 31
0.0
  0
LINE
  5
1219
330
18
100
AcDbEntity
  8
1
100
AcDbLine
 10
22.03046599999993
 20
-13.21045199999995
 30
0.0
 11
21.52939400000002
 21
-13.61678599999995
 31
0.0
  0
LINE
  5
121A
330
18
100
AcDbEntity
  8
1
100
AcDbLine
 10
21.96311300000002
 20
-9.764356999999954
 30
0.0
 11
21.10485599999993
 21
-9.656648000000068
 31
0.0
  0
LINE
  5
121B
330
18
100
AcDbEntity
  8
1
100
AcDbLine
 10
22.76033899999999
 20
-10.09210999999997
 30
0.0
 11
21.96311300000002
 21
-9.764356999999954
 31
0.0
  0
LINE
  5
121C
330
18
100
AcDbEntity
  8
1
100
AcDbLine
 10
23.43981500000001
 20
-10.61659400000005
 30
0.0
 11
22.76033899999999
 21
-10.09210999999997
 31
0.0
  0
LINE
  5
121D
330
18
100
AcDbEntity
  8
1
100
AcDbLine
 10
23.953217
 20
-11.30050300000005
 30
0.0
 11
23.43981500000001
 21
-10.61659400000005
 31
0.0
  0
LINE
  5
121E
330
18
100
AcDbEntity
  8
1
100
AcDbLine
 10
24.26403800000003
 20
-12.09519800000004
 30
0.0
 11
23.953217
 21
-11.30050300000005
 31
0.0
  0
LINE
  5
121F
330
18
100
AcDbEntity
  8
1
100
AcDbLine
 10
17.85861499999993
 20
-12.80362100000006
 30
0.0
 11
17.94575899999989
 21
-13.62141300000002
 31
0.0
  0
LINE
  5
1220
330
18
100
AcDbEntity
  8
1
100
AcDbLine
 10
17.98595799999992
 20
-11.98943900000004
 30
0.0
 11
17.85861499999993
 21
-12.80362100000006
 31
0.0
  0
LINE
  5
1221
330
18
100
AcDbEntity
  8
1
100
AcDbLine
 10
18.319367
 20
-11.23265400000003
 30
0.0
 11
17.98595799999992
 21
-11.98943900000004
 31
0.0
  0
LINE
  5
1222
330
18
100
AcDbEntity
  8
1
100
AcDbLine
 10
18.83680199999998
 20
-10.58325100000007
 30
0.0
 11
18.319367
 21
-11.23265400000003
 31
0.0
  0
LINE
  5
1223
330
18
100
AcDbEntity
  8
1
100
AcDbLine
 10
19.50408199999992
 20
-10.08415300000005
 30
0.0
 11
18.83680199999998
 21
-10.58325100000007
 31
0.0
  0
LINE
  5
1224
330
18
100
AcDbEntity
  8
1
100
AcDbLine
 10
20.27712099999991
 20
-9.768329000000044
 30
0.0
 11
19.50408199999992
 21
-10.08415300000005
 31
0.0
  0
LINE
  5
1225
330
18
100
AcDbEntity
  8
1
100
AcDbLine
 10
21.10485599999993
 20
-9.656648000000068
 30
0.0
 11
20.27712099999991
 21
-9.768329000000044
 31
0.0
  0
LINE
  5
1226
330
18
100
AcDbEntity
  8
1
100
AcDbLine
 10
20.03913899999992
 20
-14.12862499999995
 30
0.0
 11
20.04002300000002
 21
-14.09705000000006
 31
0.0
  0
LINE
  5
1227
330
18
100
AcDbEntity
  8
1
100
AcDbLine
 10
20.05776700000001
 20
-14.21816699999994
 30
0.0
 11
20.03913899999992
 21
-14.12862499999995
 31
0.0
  0
LINE
  5
1228
330
18
100
AcDbEntity
  8
1
100
AcDbLine
 10
20.10572899999989
 20
-14.29740100000006
 30
0.0
 11
20.05776700000001
 21
-14.21816699999994
 31
0.0
  0
LINE
  5
1229
330
18
100
AcDbEntity
  8
1
100
AcDbLine
 10
20.17854399999993
 20
-14.35832300000005
 30
0.0
 11
20.10572899999989
 21
-14.29740100000006
 31
0.0
  0
LINE
  5
122A
330
18
100
AcDbEntity
  8
1
100
AcDbLine
 10
20.2695149999999
 20
-14.39397999999996
 30
0.0
 11
20.17854399999993
 21
-14.35832300000005
 31
0.0
  0
LINE
  5
122B
330
18
100
AcDbEntity
  8
1
100
AcDbLine
 10
20.368721
 20
-14.39915100000006
 30
0.0
 11
20.2695149999999
 21
-14.39397999999996
 31
0.0
  0
LINE
  5
122C
330
18
100
AcDbEntity
  8
1
100
AcDbLine
 10
20.44359600000001
 20
-14.38126199999994
 30
0.0
 11
20.368721
 21
-14.39915100000006
 31
0.0
  0
LINE
  5
122D
330
18
100
AcDbEntity
  8
1
100
AcDbLine
 10
20.04002300000002
 20
-14.09705000000006
 30
0.0
 11
20.06132700000001
 21
-13.85325400000001
 31
0.0
  0
LINE
  5
122E
330
18
100
AcDbEntity
  8
1
100
AcDbLine
 10
20.06364100000002
 20
-13.79691099999994
 30
0.0
 11
20.06132700000001
 21
-13.85325400000001
 31
0.0
  0
LINE
  5
122F
330
18
100
AcDbEntity
  8
1
100
AcDbLine
 10
20.029316
 20
-13.59427100000004
 30
0.0
 11
20.06364100000002
 21
-13.79691099999994
 31
0.0
  0
LINE
  5
1230
330
18
100
AcDbEntity
  8
1
100
AcDbLine
 10
19.926513
 20
-13.40157399999994
 30
0.0
 11
20.029316
 21
-13.59427100000004
 31
0.0
  0
LINE
  5
1231
330
18
100
AcDbEntity
  8
1
100
AcDbLine
 10
19.79344200000003
 20
-13.26715900000003
 30
0.0
 11
19.926513
 21
-13.40157399999994
 31
0.0
  0
LINE
  5
1232
330
18
100
AcDbEntity
  8
1
100
AcDbLine
 10
19.79344200000003
 20
-13.26715900000003
 30
0.0
 11
19.58740999999992
 21
-13.10683700000005
 31
0.0
  0
LINE
  5
1233
330
18
100
AcDbEntity
  8
1
100
AcDbLine
 10
19.61071299999992
 20
-12.63198700000003
 30
0.0
 11
19.63779499999992
 21
-12.61833699999996
 31
0.0
  0
LINE
  5
1234
330
18
100
AcDbEntity
  8
1
100
AcDbLine
 10
19.538116
 20
-12.69185500000005
 30
0.0
 11
19.61071299999992
 21
-12.63198700000003
 31
0.0
  0
LINE
  5
1235
330
18
100
AcDbEntity
  8
1
100
AcDbLine
 10
19.4899959999999
 20
-12.77205799999992
 30
0.0
 11
19.538116
 21
-12.69185500000005
 31
0.0
  0
LINE
  5
1236
330
18
100
AcDbEntity
  8
1
100
AcDbLine
 10
19.47128400000002
 20
-12.86477300000005
 30
0.0
 11
19.4899959999999
 21
-12.77205799999992
 31
0.0
  0
LINE
  5
1237
330
18
100
AcDbEntity
  8
1
100
AcDbLine
 10
19.4849329999999
 20
-12.96081900000005
 30
0.0
 11
19.47128400000002
 21
-12.86477300000005
 31
0.0
  0
LINE
  5
1238
330
18
100
AcDbEntity
  8
1
100
AcDbLine
 10
19.53067899999991
 20
-13.04911300000005
 30
0.0
 11
19.4849329999999
 21
-12.96081900000005
 31
0.0
  0
LINE
  5
1239
330
18
100
AcDbEntity
  8
1
100
AcDbLine
 10
19.58740999999992
 20
-13.10683700000005
 30
0.0
 11
19.53067899999991
 21
-13.04911300000005
 31
0.0
  0
LINE
  5
123A
330
18
100
AcDbEntity
  8
1
100
AcDbLine
 10
19.63779499999992
 20
-12.61833699999996
 30
0.0
 11
19.870968
 21
-12.51554500000004
 31
0.0
  0
LINE
  5
123B
330
18
100
AcDbEntity
  8
1
100
AcDbLine
 10
19.92696099999989
 20
-12.48743400000004
 30
0.0
 11
19.870968
 21
-12.51554500000004
 31
0.0
  0
LINE
  5
123C
330
18
100
AcDbEntity
  8
1
100
AcDbLine
 10
20.09095300000002
 20
-12.35542899999995
 30
0.0
 11
19.92696099999989
 21
-12.48743400000004
 31
0.0
  0
LINE
  5
123D
330
18
100
AcDbEntity
  8
1
100
AcDbLine
 10
20.207382
 20
-12.16875200000005
 30
0.0
 11
20.09095300000002
 21
-12.35542899999995
 31
0.0
  0
LINE
  5
123E
330
18
100
AcDbEntity
  8
1
100
AcDbLine
 10
20.25352699999991
 20
-11.99005699999997
 30
0.0
 11
20.207382
 21
-12.16875200000005
 31
0.0
  0
LINE
  5
123F
330
18
100
AcDbEntity
  8
1
100
AcDbLine
 10
20.25352699999991
 20
-11.99005699999997
 30
0.0
 11
20.28413399999999
 21
-11.73051600000003
 31
0.0
  0
LINE
  5
1240
330
18
100
AcDbEntity
  8
1
100
AcDbLine
 10
20.70924100000002
 20
-11.50836400000002
 30
0.0
 11
20.73810300000002
 21
-11.52622800000004
 31
0.0
  0
LINE
  5
1241
330
18
100
AcDbEntity
  8
1
100
AcDbLine
 10
20.61794300000002
 20
-11.47682500000004
 30
0.0
 11
20.70924100000002
 21
-11.50836400000002
 31
0.0
  0
LINE
  5
1242
330
18
100
AcDbEntity
  8
1
100
AcDbLine
 10
20.52222499999993
 20
-11.47682500000004
 30
0.0
 11
20.61794300000002
 21
-11.47682500000004
 31
0.0
  0
LINE
  5
1243
330
18
100
AcDbEntity
  8
1
100
AcDbLine
 10
20.43148400000001
 20
-11.50859400000006
 30
0.0
 11
20.52222499999993
 21
-11.47682500000004
 31
0.0
  0
LINE
  5
1244
330
18
100
AcDbEntity
  8
1
100
AcDbLine
 10
20.35529000000003
 20
-11.56992699999995
 30
0.0
 11
20.43148400000001
 21
-11.50859400000006
 31
0.0
  0
LINE
  5
1245
330
18
100
AcDbEntity
  8
1
100
AcDbLine
 10
20.30323399999992
 20
-11.65487800000006
 30
0.0
 11
20.35529000000003
 21
-11.56992699999995
 31
0.0
  0
LINE
  5
1246
330
18
100
AcDbEntity
  8
1
100
AcDbLine
 10
20.28413399999999
 20
-11.73051600000003
 30
0.0
 11
20.30323399999992
 21
-11.65487800000006
 31
0.0
  0
LINE
  5
1247
330
18
100
AcDbEntity
  8
1
100
AcDbLine
 10
20.73810300000002
 20
-11.52622800000004
 30
0.0
 11
20.95200699999992
 21
-11.67573499999995
 31
0.0
  0
LINE
  5
1248
330
18
100
AcDbEntity
  8
1
100
AcDbLine
 10
21.00617
 20
-11.70982899999995
 30
0.0
 11
20.95200699999992
 21
-11.67573499999995
 31
0.0
  0
LINE
  5
1249
330
18
100
AcDbEntity
  8
1
100
AcDbLine
 10
21.206703
 20
-11.78407399999995
 30
0.0
 11
21.00617
 21
-11.70982899999995
 31
0.0
  0
LINE
  5
124A
330
18
100
AcDbEntity
  8
1
100
AcDbLine
 10
21.427099
 20
-11.78867600000003
 30
0.0
 11
21.206703
 21
-11.78407399999995
 31
0.0
  0
LINE
  5
124B
330
18
100
AcDbEntity
  8
1
100
AcDbLine
 10
21.602464
 20
-11.73634100000003
 30
0.0
 11
21.427099
 21
-11.78867600000003
 31
0.0
  0
LINE
  5
124C
330
18
100
AcDbEntity
  8
1
100
AcDbLine
 10
21.602464
 20
-11.73634100000003
 30
0.0
 11
21.83705500000002
 21
-11.62863199999996
 31
0.0
  0
LINE
  5
124D
330
18
100
AcDbEntity
  8
1
100
AcDbLine
 10
22.2409669999999
 20
-11.87906500000004
 30
0.0
 11
22.24062800000002
 21
-11.91284500000004
 31
0.0
  0
LINE
  5
124E
330
18
100
AcDbEntity
  8
1
100
AcDbLine
 10
22.22110399999991
 20
-11.78438799999995
 30
0.0
 11
22.2409669999999
 21
-11.87906500000004
 31
0.0
  0
LINE
  5
124F
330
18
100
AcDbEntity
  8
1
100
AcDbLine
 10
22.17242700000003
 20
-11.70218700000004
 30
0.0
 11
22.22110399999991
 21
-11.78438799999995
 31
0.0
  0
LINE
  5
1250
330
18
100
AcDbEntity
  8
1
100
AcDbLine
 10
22.09946600000001
 20
-11.64063499999995
 30
0.0
 11
22.17242700000003
 21
-11.70218700000004
 31
0.0
  0
LINE
  5
1251
330
18
100
AcDbEntity
  8
1
100
AcDbLine
 10
22.00893100000002
 20
-11.60683100000002
 30
0.0
 11
22.09946600000001
 21
-11.64063499999995
 31
0.0
  0
LINE
  5
1252
330
18
100
AcDbEntity
  8
1
100
AcDbLine
 10
21.91075399999988
 20
-11.60592300000007
 30
0.0
 11
22.00893100000002
 21
-11.60683100000002
 31
0.0
  0
LINE
  5
1253
330
18
100
AcDbEntity
  8
1
100
AcDbLine
 10
21.83705500000002
 20
-11.62863199999996
 30
0.0
 11
21.91075399999988
 21
-11.60592300000007
 31
0.0
  0
LINE
  5
1254
330
18
100
AcDbEntity
  8
1
100
AcDbLine
 10
22.24062800000002
 20
-11.91284500000004
 30
0.0
 11
22.22341699999993
 21
-12.17363299999994
 31
0.0
  0
LINE
  5
1255
330
18
100
AcDbEntity
  8
1
100
AcDbLine
 10
22.22193900000002
 20
-12.23337999999993
 30
0.0
 11
22.22341699999993
 21
-12.17363299999994
 31
0.0
  0
LINE
  5
1256
330
18
100
AcDbEntity
  8
1
100
AcDbLine
 10
22.25804399999993
 20
-12.44343299999996
 30
0.0
 11
22.22193900000002
 21
-12.23337999999993
 31
0.0
  0
LINE
  5
1257
330
18
100
AcDbEntity
  8
1
100
AcDbLine
 10
22.360388
 20
-12.63420300000005
 30
0.0
 11
22.25804399999993
 21
-12.44343299999996
 31
0.0
  0
LINE
  5
1258
330
18
100
AcDbEntity
  8
1
100
AcDbLine
 10
22.49131499999998
 20
-12.75972900000003
 30
0.0
 11
22.360388
 21
-12.63420300000005
 31
0.0
  0
LINE
  5
1259
330
18
100
AcDbEntity
  8
1
100
AcDbLine
 10
22.49131499999998
 20
-12.75972900000003
 30
0.0
 11
22.69324000000001
 21
-12.90307000000005
 31
0.0
  0
LINE
  5
125A
330
18
100
AcDbEntity
  8
1
100
AcDbLine
 10
22.66942899999992
 20
-13.37586099999995
 30
0.0
 11
22.64284400000002
 21
-13.39155800000004
 31
0.0
  0
LINE
  5
125B
330
18
100
AcDbEntity
  8
1
100
AcDbLine
 10
22.74077899999992
 20
-13.31080899999995
 30
0.0
 11
22.66942899999992
 21
-13.37586099999995
 31
0.0
  0
LINE
  5
125C
330
18
100
AcDbEntity
  8
1
100
AcDbLine
 10
22.78817200000003
 20
-13.22757800000006
 30
0.0
 11
22.74077899999992
 21
-13.31080899999995
 31
0.0
  0
LINE
  5
125D
330
18
100
AcDbEntity
  8
1
100
AcDbLine
 10
22.806715
 20
-13.13417300000004
 30
0.0
 11
22.78817200000003
 21
-13.22757800000006
 31
0.0
  0
LINE
  5
125E
330
18
100
AcDbEntity
  8
1
100
AcDbLine
 10
22.79350099999999
 20
-13.03989600000005
 30
0.0
 11
22.806715
 21
-13.13417300000004
 31
0.0
  0
LINE
  5
125F
330
18
100
AcDbEntity
  8
1
100
AcDbLine
 10
22.74877200000003
 20
-12.95581600000002
 30
0.0
 11
22.79350099999999
 21
-13.03989600000005
 31
0.0
  0
LINE
  5
1260
330
18
100
AcDbEntity
  8
1
100
AcDbLine
 10
22.69324000000001
 20
-12.90307000000005
 30
0.0
 11
22.74877200000003
 21
-12.95581600000002
 31
0.0
  0
LINE
  5
1261
330
18
100
AcDbEntity
  8
1
100
AcDbLine
 10
22.64284400000002
 20
-13.39155800000004
 30
0.0
 11
22.41377599999998
 21
-13.51134200000005
 31
0.0
  0
LINE
  5
1262
330
18
100
AcDbEntity
  8
1
100
AcDbLine
 10
22.35866800000002
 20
-13.54308699999993
 30
0.0
 11
22.41377599999998
 21
-13.51134200000005
 31
0.0
  0
LINE
  5
1263
330
18
100
AcDbEntity
  8
1
100
AcDbLine
 10
22.19643200000001
 20
-13.68232199999996
 30
0.0
 11
22.35866800000002
 21
-13.54308699999993
 31
0.0
  0
LINE
  5
1264
330
18
100
AcDbEntity
  8
1
100
AcDbLine
 10
22.07948199999993
 20
-13.86687999999993
 30
0.0
 11
22.19643200000001
 21
-13.68232199999996
 31
0.0
  0
LINE
  5
1265
330
18
100
AcDbEntity
  8
1
100
AcDbLine
 10
22.03121700000003
 20
-14.03683099999996
 30
0.0
 11
22.07948199999993
 21
-13.86687999999993
 31
0.0
  0
LINE
  5
1266
330
18
100
AcDbEntity
  8
1
100
AcDbLine
 10
22.03121700000003
 20
-14.03683099999996
 30
0.0
 11
21.99651699999993
 21
-14.27937900000005
 31
0.0
  0
LINE
  5
1267
330
18
100
AcDbEntity
  8
1
100
AcDbLine
 10
21.57087699999999
 20
-14.49930300000007
 30
0.0
 11
21.54254800000001
 21
-14.48366600000002
 31
0.0
  0
LINE
  5
1268
330
18
100
AcDbEntity
  8
1
100
AcDbLine
 10
21.66092700000001
 20
-14.52571800000003
 30
0.0
 11
21.57087699999999
 21
-14.49930300000007
 31
0.0
  0
LINE
  5
1269
330
18
100
AcDbEntity
  8
1
100
AcDbLine
 10
21.75593099999992
 20
-14.52275100000005
 30
0.0
 11
21.66092700000001
 21
-14.52571800000003
 31
0.0
  0
LINE
  5
126A
330
18
100
AcDbEntity
  8
1
100
AcDbLine
 10
21.84652599999998
 20
-14.49036399999996
 30
0.0
 11
21.75593099999992
 21
-14.52275100000005
 31
0.0
  0
LINE
  5
126B
330
18
100
AcDbEntity
  8
1
100
AcDbLine
 10
21.92315699999989
 20
-14.43088399999997
 30
0.0
 11
21.84652599999998
 21
-14.49036399999996
 31
0.0
  0
LINE
  5
126C
330
18
100
AcDbEntity
  8
1
100
AcDbLine
 10
21.97625399999993
 20
-14.35020800000006
 30
0.0
 11
21.92315699999989
 21
-14.43088399999997
 31
0.0
  0
LINE
  5
126D
330
18
100
AcDbEntity
  8
1
100
AcDbLine
 10
21.99651699999993
 20
-14.27937900000005
 30
0.0
 11
21.97625399999993
 21
-14.35020800000006
 31
0.0
  0
LINE
  5
126E
330
18
100
AcDbEntity
  8
1
100
AcDbLine
 10
21.54254800000001
 20
-14.48366600000002
 30
0.0
 11
21.33273699999989
 21
-14.35115300000004
 31
0.0
  0
LINE
  5
126F
330
18
100
AcDbEntity
  8
1
100
AcDbLine
 10
21.27945799999992
 20
-14.32069200000006
 30
0.0
 11
21.33273699999989
 21
-14.35115300000004
 31
0.0
  0
LINE
  5
1270
330
18
100
AcDbEntity
  8
1
100
AcDbLine
 10
21.080669
 20
-14.25369000000005
 30
0.0
 11
21.27945799999992
 21
-14.32069200000006
 31
0.0
  0
LINE
  5
1271
330
18
100
AcDbEntity
  8
1
100
AcDbLine
 10
20.85976499999993
 20
-14.24696800000004
 30
0.0
 11
21.080669
 21
-14.25369000000005
 31
0.0
  0
LINE
  5
1272
330
18
100
AcDbEntity
  8
1
100
AcDbLine
 10
20.68227999999994
 20
-14.29053400000006
 30
0.0
 11
20.85976499999993
 21
-14.24696800000004
 31
0.0
  0
LINE
  5
1273
330
18
100
AcDbEntity
  8
1
100
AcDbLine
 10
20.68227999999994
 20
-14.29053400000006
 30
0.0
 11
20.44359600000001
 21
-14.38126199999994
 31
0.0
  0
LINE
  5
1274
330
18
100
AcDbEntity
  8
1
100
AcDbLine
 10
21.92901899999998
 20
-9.820240000000048
 30
0.0
 11
21.12147299999998
 21
-9.725442000000064
 31
0.0
  0
LINE
  5
1275
330
18
100
AcDbEntity
  8
1
100
AcDbLine
 10
22.68582800000002
 20
-10.11024199999996
 30
0.0
 11
21.92901899999998
 21
-9.820240000000048
 31
0.0
  0
LINE
  5
1276
330
18
100
AcDbEntity
  8
1
100
AcDbLine
 10
23.34432700000002
 20
-10.57723099999993
 30
0.0
 11
22.68582800000002
 21
-10.11024199999996
 31
0.0
  0
LINE
  5
1277
330
18
100
AcDbEntity
  8
1
100
AcDbLine
 10
23.86316700000003
 20
-11.19186199999992
 30
0.0
 11
23.34432700000002
 21
-10.57723099999993
 31
0.0
  0
LINE
  5
1278
330
18
100
AcDbEntity
  8
1
100
AcDbLine
 10
24.20974200000001
 20
-11.91552100000005
 30
0.0
 11
23.86316700000003
 21
-11.19186199999992
 31
0.0
  0
LINE
  5
1279
330
18
100
AcDbEntity
  8
1
100
AcDbLine
 10
24.36226399999998
 20
-12.70271900000004
 30
0.0
 11
24.20974200000001
 21
-11.91552100000005
 31
0.0
  0
LINE
  5
127A
330
18
100
AcDbEntity
  8
1
100
AcDbLine
 10
24.31115299999999
 20
-13.50400200000005
 30
0.0
 11
24.36226399999998
 21
-12.70271900000004
 31
0.0
  0
LINE
  5
127B
330
18
100
AcDbEntity
  8
1
100
AcDbLine
 10
24.05962999999991
 20
-14.26903600000002
 30
0.0
 11
24.31115299999999
 21
-13.50400200000005
 31
0.0
  0
LINE
  5
127C
330
18
100
AcDbEntity
  8
1
100
AcDbLine
 10
23.62347699999998
 20
-14.94973500000004
 30
0.0
 11
24.05962999999991
 21
-14.26903600000002
 31
0.0
  0
LINE
  5
127D
330
18
100
AcDbEntity
  8
1
100
AcDbLine
 10
23.030126
 20
-15.50334700000005
 30
0.0
 11
23.62347699999998
 21
-14.94973500000004
 31
0.0
  0
LINE
  5
127E
330
18
100
AcDbEntity
  8
1
100
AcDbLine
 10
22.31684599999988
 20
-15.89506299999994
 30
0.0
 11
23.030126
 21
-15.50334700000005
 31
0.0
  0
LINE
  5
127F
330
18
100
AcDbEntity
  8
1
100
AcDbLine
 10
21.52846199999993
 20
-16.10028299999995
 30
0.0
 11
22.31684599999988
 21
-15.89506299999994
 31
0.0
  0
LINE
  5
1280
330
18
100
AcDbEntity
  8
1
100
AcDbLine
 10
20.71449699999994
 20
-16.10610900000004
 30
0.0
 11
21.52846199999993
 21
-16.10028299999995
 31
0.0
  0
LINE
  5
1281
330
18
100
AcDbEntity
  8
1
100
AcDbLine
 10
19.9261009999999
 20
-15.91216500000006
 30
0.0
 11
20.71449699999994
 21
-16.10610900000004
 31
0.0
  0
LINE
  5
1282
330
18
100
AcDbEntity
  8
1
100
AcDbLine
 10
19.21282100000002
 20
-15.53065899999993
 30
0.0
 11
19.9261009999999
 21
-15.91216500000006
 31
0.0
  0
LINE
  5
1283
330
18
100
AcDbEntity
  8
1
100
AcDbLine
 10
18.61946999999998
 20
-14.98555000000005
 30
0.0
 11
19.21282100000002
 21
-15.53065899999993
 31
0.0
  0
LINE
  5
1284
330
18
100
AcDbEntity
  8
1
100
AcDbLine
 10
18.1833289999999
 20
-14.31110000000003
 30
0.0
 11
18.61946999999998
 21
-14.98555000000005
 31
0.0
  0
LINE
  5
1285
330
18
100
AcDbEntity
  8
1
100
AcDbLine
 10
17.93179400000002
 20
-13.54966300000003
 30
0.0
 11
18.1833289999999
 21
-14.31110000000003
 31
0.0
  0
LINE
  5
1286
330
18
100
AcDbEntity
  8
1
100
AcDbLine
 10
17.880695
 20
-12.74910700000004
 30
0.0
 11
17.93179400000002
 21
-13.54966300000003
 31
0.0
  0
LINE
  5
1287
330
18
100
AcDbEntity
  8
1
100
AcDbLine
 10
18.03320500000001
 20
-11.95971700000003
 30
0.0
 11
17.880695
 21
-12.74910700000004
 31
0.0
  0
LINE
  5
1288
330
18
100
AcDbEntity
  8
1
100
AcDbLine
 10
18.37977999999992
 20
-11.23111600000005
 30
0.0
 11
18.03320500000001
 21
-11.95971700000003
 31
0.0
  0
LINE
  5
1289
330
18
100
AcDbEntity
  8
1
100
AcDbLine
 10
18.89861999999999
 20
-10.60904800000003
 30
0.0
 11
18.37977999999992
 21
-11.23111600000005
 31
0.0
  0
LINE
  5
128A
330
18
100
AcDbEntity
  8
1
100
AcDbLine
 10
19.55713099999991
 20
-10.13263599999995
 30
0.0
 11
18.89861999999999
 21
-10.60904800000003
 31
0.0
  0
LINE
  5
128B
330
18
100
AcDbEntity
  8
1
100
AcDbLine
 10
20.31392800000003
 20
-9.831794000000037
 30
0.0
 11
19.55713099999991
 21
-10.13263599999995
 31
0.0
  0
LINE
  5
128C
330
18
100
AcDbEntity
  8
1
100
AcDbLine
 10
21.12147299999998
 20
-9.725442000000064
 30
0.0
 11
20.31392800000003
 21
-9.831794000000037
 31
0.0
  0
LINE
  5
128D
330
18
100
AcDbEntity
  8
1
100
AcDbLine
 10
27.63915899999989
 20
-14.96796299999996
 30
0.0
 11
27.5007839999999
 21
-15.13120399999994
 31
0.0
  0
LINE
  5
128E
330
18
100
AcDbEntity
  8
1
100
AcDbLine
 10
27.670298
 20
-14.85190999999995
 30
0.0
 11
27.63915899999989
 21
-14.96796299999996
 31
0.0
  0
LINE
  5
128F
330
18
100
AcDbEntity
  8
1
100
AcDbLine
 10
25.34147999999993
 20
-18.12605599999995
 30
0.0
 11
25.26836200000003
 21
-18.17171700000004
 31
0.0
  0
LINE
  5
1290
330
18
100
AcDbEntity
  8
1
100
AcDbLine
 10
25.43235399999992
 20
-17.97241900000004
 30
0.0
 11
25.34147999999993
 21
-18.12605599999995
 31
0.0
  0
LINE
  5
1291
330
18
100
AcDbEntity
  8
1
100
AcDbLine
 10
29.30744400000003
 20
-16.25893400000004
 30
0.0
 11
29.26427799999999
 21
-16.19842400000005
 31
0.0
  0
LINE
  5
1292
330
18
100
AcDbEntity
  8
1
100
AcDbLine
 10
29.3338599999999
 20
-16.32826100000003
 30
0.0
 11
29.30744400000003
 21
-16.25893400000004
 31
0.0
  0
LINE
  5
1293
330
18
100
AcDbEntity
  8
1
100
AcDbLine
 10
29.18360200000001
 20
-15.86448099999993
 30
0.0
 11
29.26427799999999
 21
-16.19842400000005
 31
0.0
  0
LINE
  5
1294
330
18
100
AcDbEntity
  8
1
100
AcDbLine
 10
28.30907999999994
 20
-15.00105300000005
 30
0.0
 11
28.36308600000001
 21
-15.22458500000001
 31
0.0
  0
LINE
  5
1295
330
18
100
AcDbEntity
  8
1
100
AcDbLine
 10
28.35465599999992
 20
-15.23073799999995
 30
0.0
 11
28.36308600000001
 21
-15.22458500000001
 31
0.0
  0
LINE
  5
1296
330
18
100
AcDbEntity
  8
1
100
AcDbLine
 10
28.311623
 20
-15.20147600000005
 30
0.0
 11
28.35465599999992
 21
-15.23073799999995
 31
0.0
  0
LINE
  5
1297
330
18
100
AcDbEntity
  8
1
100
AcDbLine
 10
28.21923500000003
 20
-15.12000099999995
 30
0.0
 11
28.311623
 21
-15.20147600000005
 31
0.0
  0
LINE
  5
1298
330
18
100
AcDbEntity
  8
1
100
AcDbLine
 10
28.01997399999999
 20
-14.92423999999996
 30
0.0
 11
28.21923500000003
 21
-15.12000099999995
 31
0.0
  0
LINE
  5
1299
330
18
100
AcDbEntity
  8
1
100
AcDbLine
 10
27.82057999999989
 20
-14.71458699999996
 30
0.0
 11
28.01997399999999
 21
-14.92423999999996
 31
0.0
  0
LINE
  5
129A
330
18
100
AcDbEntity
  8
1
100
AcDbLine
 10
23.98694799999993
 20
-10.56017800000006
 30
0.0
 11
24.46528599999999
 21
-11.08885200000004
 31
0.0
  0
LINE
  5
129B
330
18
100
AcDbEntity
  8
1
100
AcDbLine
 10
23.74919599999993
 20
-10.29223099999995
 30
0.0
 11
23.98694799999993
 21
-10.56017800000006
 31
0.0
  0
LINE
  5
129C
330
18
100
AcDbEntity
  8
1
100
AcDbLine
 10
23.51129800000001
 20
-10.02464900000004
 30
0.0
 11
23.74919599999993
 21
-10.29223099999995
 31
0.0
  0
LINE
  5
129D
330
18
100
AcDbEntity
  8
1
100
AcDbLine
 10
23.376169
 20
-9.881089000000038
 30
0.0
 11
23.51129800000001
 21
-10.02464900000004
 31
0.0
  0
LINE
  5
129E
330
18
100
AcDbEntity
  8
1
100
AcDbLine
 10
23.24778500000002
 20
-9.748695999999959
 30
0.0
 11
23.376169
 21
-9.881089000000038
 31
0.0
  0
LINE
  5
129F
330
18
100
AcDbEntity
  8
1
100
AcDbLine
 10
27.670298
 20
-14.85190999999995
 30
0.0
 11
24.27025200000003
 21
-11.28473399999992
 31
0.0
  0
LINE
  5
12A0
330
18
100
AcDbEntity
  8
1
100
AcDbLine
 10
28.20893999999993
 20
-15.40171800000005
 30
0.0
 11
27.670298
 21
-14.85190999999995
 31
0.0
  0
LINE
  5
12A1
330
18
100
AcDbEntity
  8
1
100
AcDbLine
 10
28.66900199999998
 20
-15.83968800000003
 30
0.0
 11
28.20893999999993
 21
-15.40171800000005
 31
0.0
  0
LINE
  5
12A2
330
18
100
AcDbEntity
  8
1
100
AcDbLine
 10
29.01445100000001
 20
-16.13149499999995
 30
0.0
 11
28.66900199999998
 21
-15.83968800000003
 31
0.0
  0
LINE
  5
12A3
330
18
100
AcDbEntity
  8
1
100
AcDbLine
 10
29.21819299999999
 20
-16.25428299999995
 30
0.0
 11
29.01445100000001
 21
-16.13149499999995
 31
0.0
  0
LINE
  5
12A4
330
18
100
AcDbEntity
  8
1
100
AcDbLine
 10
29.26427799999999
 20
-16.19842400000005
 30
0.0
 11
29.21819299999999
 21
-16.25428299999995
 31
0.0
  0
LINE
  5
12A5
330
18
100
AcDbEntity
  8
1
100
AcDbLine
 10
28.20055899999989
 20
-14.98479900000004
 30
0.0
 11
28.30907999999994
 21
-15.00105300000005
 31
0.0
  0
LINE
  5
12A6
330
18
100
AcDbEntity
  8
1
100
AcDbLine
 10
28.091251
 20
-14.97446700000004
 30
0.0
 11
28.20055899999989
 21
-14.98479900000004
 31
0.0
  0
LINE
  5
12A7
330
18
100
AcDbEntity
  8
1
100
AcDbLine
 10
29.11015700000002
 20
-15.78401099999994
 30
0.0
 11
29.18360200000001
 21
-15.86448099999993
 31
0.0
  0
LINE
  5
12A8
330
18
100
AcDbEntity
  8
1
100
AcDbLine
 10
28.8784369999999
 20
-15.54017900000004
 30
0.0
 11
29.11015700000002
 21
-15.78401099999994
 31
0.0
  0
LINE
  5
12A9
330
18
100
AcDbEntity
  8
1
100
AcDbLine
 10
28.61865399999994
 20
-15.28464700000006
 30
0.0
 11
28.8784369999999
 21
-15.54017900000004
 31
0.0
  0
LINE
  5
12AA
330
18
100
AcDbEntity
  8
1
100
AcDbLine
 10
28.30907999999994
 20
-15.00105300000005
 30
0.0
 11
28.61865399999994
 21
-15.28464700000006
 31
0.0
  0
LINE
  5
12AB
330
18
100
AcDbEntity
  8
1
100
AcDbLine
 10
29.20692899999989
 20
-15.89333099999995
 30
0.0
 11
29.18360200000001
 21
-15.86448099999993
 31
0.0
  0
LINE
  5
12AC
330
18
100
AcDbEntity
  8
1
100
AcDbLine
 10
29.236942
 20
-15.94535000000004
 30
0.0
 11
29.20692899999989
 21
-15.89333099999995
 31
0.0
  0
LINE
  5
12AD
330
18
100
AcDbEntity
  8
1
100
AcDbLine
 10
29.2490049999999
 20
-15.98926700000005
 30
0.0
 11
29.236942
 21
-15.94535000000004
 31
0.0
  0
LINE
  5
12AE
330
18
100
AcDbEntity
  8
1
100
AcDbLine
 10
27.82057999999989
 20
-14.71458699999996
 30
0.0
 11
24.46528599999999
 21
-11.08885200000004
 31
0.0
  0
LINE
  5
12AF
330
18
100
AcDbEntity
  8
1
100
AcDbLine
 10
16.72487899999999
 20
-11.93888500000002
 30
0.0
 11
17.20877599999994
 21
-12.47892000000006
 31
0.0
  0
LINE
  5
12B0
330
18
100
AcDbEntity
  8
1
100
AcDbLine
 10
16.39958399999989
 20
-11.14727899999994
 30
0.0
 11
16.72487899999999
 21
-11.93888500000002
 31
0.0
  0
LINE
  5
12B1
330
18
100
AcDbEntity
  8
1
100
AcDbLine
 10
16.33296999999993
 20
-10.58168800000005
 30
0.0
 11
16.39958399999989
 21
-11.14727899999994
 31
0.0
  0
LINE
  5
12B2
330
18
100
AcDbEntity
  8
1
100
AcDbLine
 10
16.37467000000004
 20
-10.05416500000005
 30
0.0
 11
16.33296999999993
 21
-10.58168800000005
 31
0.0
  0
LINE
  5
12B3
330
18
100
AcDbEntity
  8
1
100
AcDbLine
 10
16.63468299999999
 20
-9.268032999999967
 30
0.0
 11
16.37467000000004
 21
-10.05416500000005
 31
0.0
  0
LINE
  5
12B4
330
18
100
AcDbEntity
  8
1
100
AcDbLine
 10
16.63841400000001
 20
-9.260717000000049
 30
0.0
 11
16.63468299999999
 21
-9.268032999999967
 31
0.0
  0
LINE
  5
12B5
330
18
100
AcDbEntity
  8
1
100
AcDbLine
 10
18.87110200000001
 20
-8.990808999999948
 30
0.0
 11
19.48877299999998
 21
-9.347098000000066
 31
0.0
  0
LINE
  5
12B6
330
18
100
AcDbEntity
  8
1
100
AcDbLine
 10
18.09840200000002
 20
-8.813760999999963
 30
0.0
 11
18.87110200000001
 21
-8.990808999999948
 31
0.0
  0
LINE
  5
12B7
330
18
100
AcDbEntity
  8
1
100
AcDbLine
 10
17.606899
 20
-8.83181899999996
 30
0.0
 11
18.09840200000002
 21
-8.813760999999963
 31
0.0
  0
LINE
  5
12B8
330
18
100
AcDbEntity
  8
1
100
AcDbLine
 10
17.188174
 20
-8.936729999999947
 30
0.0
 11
17.606899
 21
-8.83181899999996
 31
0.0
  0
LINE
  5
12B9
330
18
100
AcDbEntity
  8
1
100
AcDbLine
 10
16.64295599999991
 20
-9.256672000000058
 30
0.0
 11
17.188174
 21
-8.936729999999947
 31
0.0
  0
LINE
  5
12BA
330
18
100
AcDbEntity
  8
1
100
AcDbLine
 10
16.63841400000001
 20
-9.260717000000049
 30
0.0
 11
16.64295599999991
 21
-9.256672000000058
 31
0.0
  0
LINE
  5
12BB
330
18
100
AcDbEntity
  8
1
100
AcDbLine
 10
19.50770299999999
 20
-8.443447000000055
 30
0.0
 11
19.78940799999992
 21
-9.609485000000056
 31
0.0
  0
LINE
  5
12BC
330
18
100
AcDbEntity
  8
1
100
AcDbLine
 10
17.14554099999992
 20
-8.037924000000039
 30
0.0
 11
17.74944099999999
 21
-7.832668000000047
 31
0.0
  0
LINE
  5
12BD
330
18
100
AcDbEntity
  8
1
100
AcDbLine
 10
16.639746
 20
-8.423862000000049
 30
0.0
 11
17.14554099999992
 21
-8.037924000000039
 31
0.0
  0
LINE
  5
12BE
330
18
100
AcDbEntity
  8
1
100
AcDbLine
 10
16.28614600000003
 20
-8.949205000000041
 30
0.0
 11
16.639746
 21
-8.423862000000049
 31
0.0
  0
LINE
  5
12BF
330
18
100
AcDbEntity
  8
1
100
AcDbLine
 10
16.12260200000003
 20
-9.557720000000053
 30
0.0
 11
16.28614600000003
 21
-8.949205000000041
 31
0.0
  0
LINE
  5
12C0
330
18
100
AcDbEntity
  8
1
100
AcDbLine
 10
16.16661599999992
 20
-10.18429200000002
 30
0.0
 11
16.12260200000003
 21
-9.557720000000053
 31
0.0
  0
LINE
  5
12C1
330
18
100
AcDbEntity
  8
1
100
AcDbLine
 10
26.1605669999999
 20
-18.26305100000005
 30
0.0
 11
25.43235399999992
 21
-17.97241900000004
 31
0.0
  0
LINE
  5
12C2
330
18
100
AcDbEntity
  8
1
100
AcDbLine
 10
26.80109299999993
 20
-18.48465799999996
 30
0.0
 11
26.1605669999999
 21
-18.26305100000005
 31
0.0
  0
LINE
  5
12C3
330
18
100
AcDbEntity
  8
1
100
AcDbLine
 10
27.31289500000003
 20
-18.62300899999994
 30
0.0
 11
26.80109299999993
 21
-18.48465799999996
 31
0.0
  0
LINE
  5
12C4
330
18
100
AcDbEntity
  8
1
100
AcDbLine
 10
27.66318899999999
 20
-18.66926399999996
 30
0.0
 11
27.31289500000003
 21
-18.62300899999994
 31
0.0
  0
LINE
  5
12C5
330
18
100
AcDbEntity
  8
1
100
AcDbLine
 10
27.82952999999992
 20
-18.62044199999996
 30
0.0
 11
27.66318899999999
 21
-18.66926399999996
 31
0.0
  0
LINE
  5
12C6
330
18
100
AcDbEntity
  8
1
100
AcDbLine
 10
29.16733599999992
 20
-16.60696200000003
 30
0.0
 11
29.28331800000001
 21
-16.62346999999996
 31
0.0
  0
LINE
  5
12C7
330
18
100
AcDbEntity
  8
1
100
AcDbLine
 10
28.91072700000001
 20
-16.43377800000005
 30
0.0
 11
29.16733599999992
 21
-16.60696200000003
 31
0.0
  0
LINE
  5
12C8
330
18
100
AcDbEntity
  8
1
100
AcDbLine
 10
28.53000899999989
 20
-16.11505899999995
 30
0.0
 11
28.91072700000001
 21
-16.43377800000005
 31
0.0
  0
LINE
  5
12C9
330
18
100
AcDbEntity
  8
1
100
AcDbLine
 10
28.04972099999998
 20
-15.67133599999994
 30
0.0
 11
28.53000899999989
 21
-16.11505899999995
 31
0.0
  0
LINE
  5
12CA
330
18
100
AcDbEntity
  8
1
100
AcDbLine
 10
27.5007839999999
 20
-15.13120399999994
 30
0.0
 11
28.04972099999998
 21
-15.67133599999994
 31
0.0
  0
LINE
  5
12CB
330
18
100
AcDbEntity
  8
1
100
AcDbLine
 10
22.95508199999989
 20
-9.527767999999944
 30
0.0
 11
23.24778500000002
 21
-9.748695999999959
 31
0.0
  0
LINE
  5
12CC
330
18
100
AcDbEntity
  8
1
100
AcDbLine
 10
22.94589000000002
 20
-9.520814999999963
 30
0.0
 11
22.95508199999989
 21
-9.527767999999944
 31
0.0
  0
LINE
  5
12CD
330
18
100
AcDbEntity
  8
1
100
AcDbLine
 10
23.38875300000001
 20
-10.33217600000004
 30
0.0
 11
23.24778500000002
 21
-9.748695999999959
 31
0.0
  0
LINE
  5
12CE
330
18
100
AcDbEntity
  8
1
100
AcDbLine
 10
25.2918949999999
 20
-12.68129300000004
 30
0.0
 11
25.29614599999991
 21
-12.81819200000003
 31
0.0
  0
LINE
  5
12CF
330
18
100
AcDbEntity
  8
1
100
AcDbLine
 10
25.1711289999999
 20
-12.43231399999994
 30
0.0
 11
25.2918949999999
 21
-12.68129300000004
 31
0.0
  0
LINE
  5
12D0
330
18
100
AcDbEntity
  8
1
100
AcDbLine
 10
24.94518599999992
 20
-12.09458000000006
 30
0.0
 11
25.1711289999999
 21
-12.43231399999994
 31
0.0
  0
LINE
  5
12D1
330
18
100
AcDbEntity
  8
1
100
AcDbLine
 10
24.63521200000002
 20
-11.69972800000006
 30
0.0
 11
24.94518599999992
 21
-12.09458000000006
 31
0.0
  0
LINE
  5
12D2
330
18
100
AcDbEntity
  8
1
100
AcDbLine
 10
24.27025200000003
 20
-11.28473399999992
 30
0.0
 11
24.63521200000002
 21
-11.69972800000006
 31
0.0
  0
LINE
  5
12D3
330
18
100
AcDbEntity
  8
1
100
AcDbLine
 10
24.27025200000003
 20
-11.28473399999992
 30
0.0
 11
23.38875300000001
 21
-10.33217600000004
 31
0.0
  0
LINE
  5
12D4
330
18
100
AcDbEntity
  8
1
100
AcDbLine
 10
23.38875300000001
 20
-10.33217600000004
 30
0.0
 11
23.09130199999998
 21
-10.12270499999996
 31
0.0
  0
LINE
  5
12D5
330
18
100
AcDbEntity
  8
1
100
AcDbLine
 10
19.91022200000003
 20
-9.680895000000042
 30
0.0
 11
20.05148099999991
 21
-9.675966000000066
 31
0.0
  0
LINE
  5
12D6
330
18
100
AcDbEntity
  8
1
100
AcDbLine
 10
19.78940799999992
 20
-9.609485000000056
 30
0.0
 11
19.91022200000003
 21
-9.680895000000042
 31
0.0
  0
LINE
  5
12D7
330
18
100
AcDbEntity
  8
1
100
AcDbLine
 10
19.6460429999999
 20
-9.470564000000031
 30
0.0
 11
19.48877299999998
 21
-9.347098000000066
 31
0.0
  0
LINE
  5
12D8
330
18
100
AcDbEntity
  8
1
100
AcDbLine
 10
19.78940799999992
 20
-9.609485000000056
 30
0.0
 11
19.6460429999999
 21
-9.470564000000031
 31
0.0
  0
LINE
  5
12D9
330
18
100
AcDbEntity
  8
1
100
AcDbLine
 10
19.48877299999998
 20
-9.347098000000066
 30
0.0
 11
17.20877599999994
 21
-12.47892000000006
 31
0.0
  0
LINE
  5
12DA
330
18
100
AcDbEntity
  8
1
100
AcDbLine
 10
17.37827900000002
 20
-12.58558699999995
 30
0.0
 11
17.55818599999992
 21
-12.67431699999995
 31
0.0
  0
LINE
  5
12DB
330
18
100
AcDbEntity
  8
1
100
AcDbLine
 10
17.20877599999994
 20
-12.47892000000006
 30
0.0
 11
17.37827900000002
 21
-12.58558699999995
 31
0.0
  0
LINE
  5
12DC
330
18
100
AcDbEntity
  8
1
100
AcDbLine
 10
17.66584599999999
 20
-12.76378600000003
 30
0.0
 11
17.55818599999992
 21
-12.67431699999995
 31
0.0
  0
LINE
  5
12DD
330
18
100
AcDbEntity
  8
1
100
AcDbLine
 10
17.706614
 20
-12.89689300000005
 30
0.0
 11
17.66584599999999
 21
-12.76378600000003
 31
0.0
  0
LINE
  5
12DE
330
18
100
AcDbEntity
  8
1
100
AcDbLine
 10
19.41337800000002
 20
-15.79277999999994
 30
0.0
 11
20.61424900000003
 21
-16.30665399999993
 31
0.0
  0
LINE
  5
12DF
330
18
100
AcDbEntity
  8
1
100
AcDbLine
 10
21.13127200000002
 20
-16.51277000000006
 30
0.0
 11
20.61424900000003
 21
-16.30665399999993
 31
0.0
  0
LINE
  5
12E0
330
18
100
AcDbEntity
  8
1
100
AcDbLine
 10
21.61119600000001
 20
-16.67418199999995
 30
0.0
 11
21.13127200000002
 21
-16.51277000000006
 31
0.0
  0
LINE
  5
12E1
330
18
100
AcDbEntity
  8
1
100
AcDbLine
 10
22.00907699999999
 20
-16.77575000000006
 30
0.0
 11
21.61119600000001
 21
-16.67418199999995
 31
0.0
  0
LINE
  5
12E2
330
18
100
AcDbEntity
  8
1
100
AcDbLine
 10
22.28763299999991
 20
-16.80796700000004
 30
0.0
 11
22.00907699999999
 21
-16.77575000000006
 31
0.0
  0
LINE
  5
12E3
330
18
100
AcDbEntity
  8
1
100
AcDbLine
 10
22.42077599999999
 20
-16.76781700000006
 30
0.0
 11
22.28763299999991
 21
-16.80796700000004
 31
0.0
  0
LINE
  5
12E4
330
18
100
AcDbEntity
  8
1
100
AcDbLine
 10
25.29614599999991
 20
-12.81819200000003
 30
0.0
 11
27.5007839999999
 21
-15.13120399999994
 31
0.0
  0
LINE
  5
12E5
330
18
100
AcDbEntity
  8
1
100
AcDbLine
 10
22.42077599999999
 20
-16.76781700000006
 30
0.0
 11
25.29614599999991
 21
-12.81819200000003
 31
0.0
  0
LINE
  5
12E6
330
18
100
AcDbEntity
  8
1
100
AcDbLine
 10
25.43235399999992
 20
-17.97241900000004
 30
0.0
 11
22.42077599999999
 21
-16.76781700000006
 31
0.0
  0
LINE
  5
12E7
330
18
100
AcDbEntity
  8
1
100
AcDbLine
 10
25.43235399999992
 20
-17.97241900000004
 30
0.0
 11
27.5007839999999
 21
-15.13120399999994
 31
0.0
  0
LINE
  5
12E8
330
18
100
AcDbEntity
  8
1
100
AcDbLine
 10
19.115927
 20
-15.58330899999993
 30
0.0
 11
19.41337800000002
 21
-15.79277999999994
 31
0.0
  0
LINE
  5
12E9
330
18
100
AcDbEntity
  8
1
100
AcDbLine
 10
21.09820699999989
 20
-9.503785999999969
 30
0.0
 11
20.05148099999991
 21
-9.675966000000066
 31
0.0
  0
LINE
  5
12EA
330
18
100
AcDbEntity
  8
1
100
AcDbLine
 10
22.14547800000003
 20
-9.657701000000038
 30
0.0
 11
21.09820699999989
 21
-9.503785999999969
 31
0.0
  0
LINE
  5
12EB
330
18
100
AcDbEntity
  8
1
100
AcDbLine
 10
23.09130199999998
 20
-10.12270499999996
 30
0.0
 11
22.14547800000003
 21
-9.657701000000038
 31
0.0
  0
LINE
  5
12EC
330
18
100
AcDbEntity
  8
1
100
AcDbLine
 10
22.94589000000002
 20
-9.520814999999963
 30
0.0
 11
23.09130199999998
 21
-10.12270499999996
 31
0.0
  0
LINE
  5
12ED
330
18
100
AcDbEntity
  8
1
100
AcDbLine
 10
22.98282999999992
 20
-9.54720699999995
 30
0.0
 11
22.94589000000002
 21
-9.520814999999963
 31
0.0
  0
LINE
  5
12EE
330
18
100
AcDbEntity
  8
1
100
AcDbLine
 10
23.01939500000003
 20
-9.574083000000037
 30
0.0
 11
22.98282999999992
 21
-9.54720699999995
 31
0.0
  0
LINE
  5
12EF
330
18
100
AcDbEntity
  8
1
100
AcDbLine
 10
18.3636229999999
 20
-14.85247899999992
 30
0.0
 11
19.115927
 21
-15.58330899999993
 31
0.0
  0
LINE
  5
12F0
330
18
100
AcDbEntity
  8
1
100
AcDbLine
 10
17.87810300000001
 20
-13.92696599999994
 30
0.0
 11
18.3636229999999
 21
-14.85247899999992
 31
0.0
  0
LINE
  5
12F1
330
18
100
AcDbEntity
  8
1
100
AcDbLine
 10
17.706614
 20
-12.89689300000005
 30
0.0
 11
17.87810300000001
 21
-13.92696599999994
 31
0.0
  0
LINE
  5
12F2
330
18
100
AcDbEntity
  8
1
100
AcDbLine
 10
17.68052599999993
 20
-12.78895399999995
 30
0.0
 11
17.706614
 21
-12.89689300000005
 31
0.0
  0
LINE
  5
12F3
330
18
100
AcDbEntity
  8
1
100
AcDbLine
 10
23.61165599999992
 20
-9.742374000000062
 30
0.0
 11
24.03278999999992
 21
-10.56410200000004
 31
0.0
  0
LINE
  5
12F4
330
18
100
AcDbEntity
  8
1
100
AcDbLine
 10
22.97810700000002
 20
-9.066881999999971
 30
0.0
 11
23.61165599999992
 21
-9.742374000000062
 31
0.0
  0
LINE
  5
12F5
330
18
100
AcDbEntity
  8
1
100
AcDbLine
 10
20.05148099999991
 20
-9.675966000000066
 30
0.0
 11
19.77900499999993
 21
-8.548200000000058
 31
0.0
  0
LINE
  5
12F6
330
18
100
AcDbEntity
  8
1
100
AcDbLine
 10
28.09311700000001
 20
-13.51805200000003
 30
0.0
 11
28.993473
 21
-13.50625499999996
 31
0.0
  0
LINE
  5
12F7
330
18
100
AcDbEntity
  8
1
100
AcDbLine
 10
28.10492499999998
 20
-13.10732100000005
 30
0.0
 11
28.16123299999993
 21
-13.10658199999995
 31
0.0
  0
LINE
  5
12F8
330
18
100
AcDbEntity
  8
1
100
AcDbLine
 10
28.34401000000003
 20
-14.81604699999994
 30
0.0
 11
28.3447359999999
 21
-14.83578900000004
 31
0.0
  0
LINE
  5
12F9
330
18
100
AcDbEntity
  8
1
100
AcDbLine
 10
28.33531399999993
 20
-14.60937300000004
 30
0.0
 11
28.34401000000003
 21
-14.81604699999994
 31
0.0
  0
LINE
  5
12FA
330
18
100
AcDbEntity
  8
1
100
AcDbLine
 10
28.31845399999992
 20
-14.25824400000007
 30
0.0
 11
28.33531399999993
 21
-14.60937300000004
 31
0.0
  0
LINE
  5
12FB
330
18
100
AcDbEntity
  8
1
100
AcDbLine
 10
29.93548199999992
 20
-17.09071400000001
 30
0.0
 11
29.95889399999993
 21
-16.51682699999996
 31
0.0
  0
LINE
  5
12FC
330
18
100
AcDbEntity
  8
1
100
AcDbLine
 10
29.692026
 20
-17.61404700000002
 30
0.0
 11
29.93548199999992
 21
-17.09071400000001
 31
0.0
  0
LINE
  5
12FD
330
18
100
AcDbEntity
  8
1
100
AcDbLine
 10
29.2652829999999
 20
-18.00782100000004
 30
0.0
 11
29.692026
 21
-17.61404700000002
 31
0.0
  0
LINE
  5
12FE
330
18
100
AcDbEntity
  8
1
100
AcDbLine
 10
28.71971400000001
 20
-18.21258099999996
 30
0.0
 11
29.2652829999999
 21
-18.00782100000004
 31
0.0
  0
LINE
  5
12FF
330
18
100
AcDbEntity
  8
1
100
AcDbLine
 10
28.137675
 20
-18.19739300000004
 30
0.0
 11
28.71971400000001
 21
-18.21258099999996
 31
0.0
  0
LINE
  5
1300
330
18
100
AcDbEntity
  8
1
100
AcDbLine
 10
29.14537799999994
 20
-18.32386299999995
 30
0.0
 11
28.53232200000002
 21
-18.45752800000004
 31
0.0
  0
LINE
  5
1301
330
18
100
AcDbEntity
  8
1
100
AcDbLine
 10
29.65114900000003
 20
-17.95503900000002
 30
0.0
 11
29.14537799999994
 21
-18.32386299999995
 31
0.0
  0
LINE
  5
1302
330
18
100
AcDbEntity
  8
1
100
AcDbLine
 10
29.9611589999999
 20
-17.41558499999994
 30
0.0
 11
29.65114900000003
 21
-17.95503900000002
 31
0.0
  0
LINE
  5
1303
330
18
100
AcDbEntity
  8
1
100
AcDbLine
 10
30.02116000000001
 20
-16.79990100000004
 30
0.0
 11
29.9611589999999
 21
-17.41558499999994
 31
0.0
  0
LINE
  5
1304
330
18
100
AcDbEntity
  8
1
100
AcDbLine
 10
29.82064000000003
 20
-16.21571900000005
 30
0.0
 11
30.02116000000001
 21
-16.79990100000004
 31
0.0
  0
LINE
  5
1305
330
18
100
AcDbEntity
  8
1
100
AcDbLine
 10
29.39469700000001
 20
-15.76525000000006
 30
0.0
 11
29.82064000000003
 21
-16.21571900000005
 31
0.0
  0
LINE
  5
1306
330
18
100
AcDbEntity
  8
1
100
AcDbLine
 10
28.26812999999993
 20
-18.43628399999995
 30
0.0
 11
28.01222300000001
 21
-18.36941500000004
 31
0.0
  0
LINE
  5
1307
330
18
100
AcDbEntity
  8
1
100
AcDbLine
 10
28.53232200000002
 20
-18.45752800000004
 30
0.0
 11
28.26812999999993
 21
-18.43628399999995
 31
0.0
  0
LINE
  5
1308
330
18
100
AcDbEntity
  8
1
100
AcDbLine
 10
29.38709
 20
-15.69623799999994
 30
0.0
 11
28.8401639999999
 21
-15.48878899999994
 31
0.0
  0
LINE
  5
1309
330
18
100
AcDbEntity
  8
1
100
AcDbLine
 10
29.8186409999999
 20
-16.08611200000005
 30
0.0
 11
29.38709
 21
-15.69623799999994
 31
0.0
  0
LINE
  5
130A
330
18
100
AcDbEntity
  8
1
100
AcDbLine
 10
30.0757349999999
 20
-16.60502400000005
 30
0.0
 11
29.8186409999999
 21
-16.08611200000005
 31
0.0
  0
LINE
  5
130B
330
18
100
AcDbEntity
  8
1
100
AcDbLine
 10
30.123201
 20
-17.18197600000005
 30
0.0
 11
30.0757349999999
 21
-16.60502400000005
 31
0.0
  0
LINE
  5
130C
330
18
100
AcDbEntity
  8
1
100
AcDbLine
 10
29.954522
 20
-17.73796100000005
 30
0.0
 11
30.123201
 21
-17.18197600000005
 31
0.0
  0
LINE
  5
130D
330
18
100
AcDbEntity
  8
1
100
AcDbLine
 10
29.59279500000003
 20
-18.19690900000004
 30
0.0
 11
29.954522
 21
-17.73796100000005
 31
0.0
  0
LINE
  5
130E
330
18
100
AcDbEntity
  8
1
100
AcDbLine
 10
29.0875329999999
 20
-18.49596999999995
 30
0.0
 11
29.59279500000003
 21
-18.19690900000004
 31
0.0
  0
LINE
  5
130F
330
18
100
AcDbEntity
  8
1
100
AcDbLine
 10
28.507905
 20
-18.59423199999995
 30
0.0
 11
29.0875329999999
 21
-18.49596999999995
 31
0.0
  0
LINE
  5
1310
330
18
100
AcDbEntity
  8
1
100
AcDbLine
 10
27.93323099999992
 20
-18.47823799999997
 30
0.0
 11
28.507905
 21
-18.59423199999995
 31
0.0
  0
LINE
  5
1311
330
18
100
AcDbEntity
  8
1
100
AcDbLine
 10
28.38620700000002
 20
-14.80246999999996
 30
0.0
 11
28.3447359999999
 21
-14.83578900000004
 31
0.0
  0
LINE
  5
1312
330
18
100
AcDbEntity
  8
1
100
AcDbLine
 10
28.03896499999991
 20
-14.85865599999996
 30
0.0
 11
28.3447359999999
 21
-14.83578900000004
 31
0.0
  0
LINE
  5
1313
330
18
100
AcDbEntity
  8
1
100
AcDbLine
 10
28.811217
 20
-19.70695499999994
 30
0.0
 11
28.84795199999991
 21
-19.65396600000005
 31
0.0
  0
LINE
  5
1314
330
18
100
AcDbEntity
  8
1
100
AcDbLine
 10
28.48673400000001
 20
-14.56051500000003
 30
0.0
 11
28.54066699999999
 21
-14.41745200000006
 31
0.0
  0
LINE
  5
1315
330
18
100
AcDbEntity
  8
1
100
AcDbLine
 10
28.41078099999993
 20
-14.74590799999993
 30
0.0
 11
28.48673400000001
 21
-14.56051500000003
 31
0.0
  0
LINE
  5
1316
330
18
100
AcDbEntity
  8
1
100
AcDbLine
 10
28.38620700000002
 20
-14.80246999999996
 30
0.0
 11
28.41078099999993
 21
-14.74590799999993
 31
0.0
  0
LINE
  5
1317
330
18
100
AcDbEntity
  8
1
100
AcDbLine
 10
29.13137699999999
 20
-14.84484800000005
 30
0.0
 11
28.38620700000002
 21
-14.80246999999996
 31
0.0
  0
LINE
  5
1318
330
18
100
AcDbEntity
  8
1
100
AcDbLine
 10
29.828936
 20
-15.10260900000004
 30
0.0
 11
29.13137699999999
 21
-14.84484800000005
 31
0.0
  0
LINE
  5
1319
330
18
100
AcDbEntity
  8
1
100
AcDbLine
 10
30.41654499999999
 20
-15.55270200000004
 30
0.0
 11
29.828936
 21
-15.10260900000004
 31
0.0
  0
LINE
  5
131A
330
18
100
AcDbEntity
  8
1
100
AcDbLine
 10
30.84168900000003
 20
-16.15490699999994
 30
0.0
 11
30.41654499999999
 21
-15.55270200000004
 31
0.0
  0
LINE
  5
131B
330
18
100
AcDbEntity
  8
1
100
AcDbLine
 10
31.06638500000002
 20
-16.85540900000003
 30
0.0
 11
30.84168900000003
 21
-16.15490699999994
 31
0.0
  0
LINE
  5
131C
330
18
100
AcDbEntity
  8
1
100
AcDbLine
 10
31.07052700000003
 20
-17.59159199999994
 30
0.0
 11
31.06638500000002
 21
-16.85540900000003
 31
0.0
  0
LINE
  5
131D
330
18
100
AcDbEntity
  8
1
100
AcDbLine
 10
30.85377699999998
 20
-18.29766599999994
 30
0.0
 11
31.07052700000003
 21
-17.59159199999994
 31
0.0
  0
LINE
  5
131E
330
18
100
AcDbEntity
  8
1
100
AcDbLine
 10
30.435476
 20
-18.91052800000006
 30
0.0
 11
30.85377699999998
 21
-18.29766599999994
 31
0.0
  0
LINE
  5
131F
330
18
100
AcDbEntity
  8
1
100
AcDbLine
 10
29.85301400000003
 20
-19.37540999999995
 30
0.0
 11
30.435476
 21
-18.91052800000006
 31
0.0
  0
LINE
  5
1320
330
18
100
AcDbEntity
  8
1
100
AcDbLine
 10
29.15847100000002
 20
-19.65075699999996
 30
0.0
 11
29.85301400000003
 21
-19.37540999999995
 31
0.0
  0
LINE
  5
1321
330
18
100
AcDbEntity
  8
1
100
AcDbLine
 10
31.64292399999999
 20
-14.08713099999996
 30
0.0
 11
31.88570199999998
 21
-19.92840400000005
 31
0.0
  0
LINE
  5
1322
330
18
100
AcDbEntity
  8
1
100
AcDbLine
 10
28.93235800000002
 20
-13.53611000000006
 30
0.0
 11
29.00057099999998
 21
-13.53522600000006
 31
0.0
  0
LINE
  5
1323
330
18
100
AcDbEntity
  8
1
100
AcDbLine
 10
29.0736159999999
 20
-14.12081299999996
 30
0.0
 11
31.64292399999999
 21
-14.08713099999996
 31
0.0
  0
LINE
  5
1324
330
18
100
AcDbEntity
  8
1
100
AcDbLine
 10
31.59957600000002
 20
-13.90770799999995
 30
0.0
 11
31.64292399999999
 21
-14.08713099999996
 31
0.0
  0
LINE
  5
1325
330
18
100
AcDbEntity
  8
1
100
AcDbLine
 10
28.24050299999993
 20
-14.19198099999995
 30
0.0
 11
28.31845399999992
 21
-14.25824400000007
 31
0.0
  0
LINE
  5
1326
330
18
100
AcDbEntity
  8
1
100
AcDbLine
 10
28.138015
 20
-14.04182100000002
 30
0.0
 11
28.24050299999993
 21
-14.19198099999995
 31
0.0
  0
LINE
  5
1327
330
18
100
AcDbEntity
  8
1
100
AcDbLine
 10
28.09388000000001
 20
-13.89577799999997
 30
0.0
 11
28.138015
 21
-14.04182100000002
 31
0.0
  0
LINE
  5
1328
330
18
100
AcDbEntity
  8
1
100
AcDbLine
 10
28.0875329999999
 20
-13.80465000000003
 30
0.0
 11
28.09388000000001
 21
-13.89577799999997
 31
0.0
  0
LINE
  5
1329
330
18
100
AcDbEntity
  8
1
100
AcDbLine
 10
28.47448899999989
 20
-14.38120199999995
 30
0.0
 11
28.54066699999999
 21
-14.41745200000006
 31
0.0
  0
LINE
  5
132A
330
18
100
AcDbEntity
  8
1
100
AcDbLine
 10
28.40823799999993
 20
-14.33586799999997
 30
0.0
 11
28.47448899999989
 21
-14.38120199999995
 31
0.0
  0
LINE
  5
132B
330
18
100
AcDbEntity
  8
1
100
AcDbLine
 10
28.31845399999992
 20
-14.25824400000007
 30
0.0
 11
28.40823799999993
 21
-14.33586799999997
 31
0.0
  0
LINE
  5
132C
330
18
100
AcDbEntity
  8
1
100
AcDbLine
 10
28.85775000000001
 20
-14.35829900000006
 30
0.0
 11
29.0736159999999
 21
-14.12081299999996
 31
0.0
  0
LINE
  5
132D
330
18
100
AcDbEntity
  8
1
100
AcDbLine
 10
28.54066699999999
 20
-14.41745200000006
 30
0.0
 11
28.85775000000001
 21
-14.35829900000006
 31
0.0
  0
LINE
  5
132E
330
18
100
AcDbEntity
  8
1
100
AcDbLine
 10
28.93235800000002
 20
-13.53611000000006
 30
0.0
 11
29.0736159999999
 21
-14.12081299999996
 31
0.0
  0
LINE
  5
132F
330
18
100
AcDbEntity
  8
1
100
AcDbLine
 10
28.703847
 20
-13.78041500000004
 30
0.0
 11
28.93235800000002
 21
-13.53611000000006
 31
0.0
  0
LINE
  5
1330
330
18
100
AcDbEntity
  8
1
100
AcDbLine
 10
28.371128
 20
-13.82797700000004
 30
0.0
 11
28.703847
 21
-13.78041500000004
 31
0.0
  0
LINE
  5
1331
330
18
100
AcDbEntity
  8
1
100
AcDbLine
 10
28.08458999999994
 20
-13.65728799999996
 30
0.0
 11
28.371128
 21
-13.82797700000004
 31
0.0
  0
LINE
  5
1332
330
18
100
AcDbEntity
  8
1
100
AcDbLine
 10
28.093323
 20
-13.50379700000004
 30
0.0
 11
28.0875329999999
 21
-13.80465000000003
 31
0.0
  0
LINE
  5
1333
330
18
100
AcDbEntity
  8
1
100
AcDbLine
 10
28.108184
 20
-12.99406500000005
 30
0.0
 11
28.093323
 21
-13.50379700000004
 31
0.0
  0
LINE
  5
1334
330
18
100
AcDbEntity
  8
1
100
AcDbLine
 10
28.12673899999993
 20
-12.52630100000007
 30
0.0
 11
28.108184
 21
-12.99406500000005
 31
0.0
  0
LINE
  5
1335
330
18
100
AcDbEntity
  8
1
100
AcDbLine
 10
28.17003799999992
 20
-11.45835499999993
 30
0.0
 11
28.12673899999993
 21
-12.52630100000007
 31
0.0
  0
LINE
  5
1336
330
18
100
AcDbEntity
  8
1
100
AcDbLine
 10
27.67809799999998
 20
-11.46763200000006
 30
0.0
 11
28.17003799999992
 21
-11.45835499999993
 31
0.0
  0
LINE
  5
1337
330
18
100
AcDbEntity
  8
1
100
AcDbLine
 10
26.67293899999993
 20
-11.48658700000005
 30
0.0
 11
27.67809799999998
 21
-11.46763200000006
 31
0.0
  0
LINE
  5
1338
330
18
100
AcDbEntity
  8
1
100
AcDbLine
 10
25.61503399999992
 20
-11.50653499999993
 30
0.0
 11
26.67293899999993
 21
-11.48658700000005
 31
0.0
  0
LINE
  5
1339
330
18
100
AcDbEntity
  8
1
100
AcDbLine
 10
25.17500499999989
 20
-11.51483099999992
 30
0.0
 11
25.61503399999992
 21
-11.50653499999993
 31
0.0
  0
LINE
  5
133A
330
18
100
AcDbEntity
  8
1
100
AcDbLine
 10
28.04413699999992
 20
-10.93726200000004
 30
0.0
 11
28.17003799999992
 21
-11.45835499999993
 31
0.0
  0
LINE
  5
133B
330
18
100
AcDbEntity
  8
1
100
AcDbLine
 10
25.14537999999999
 20
-10.97525699999996
 30
0.0
 11
28.04413699999992
 21
-10.93726200000004
 31
0.0
  0
LINE
  5
133C
330
18
100
AcDbEntity
  8
1
100
AcDbLine
 10
25.18671699999999
 20
-11.86818899999996
 30
0.0
 11
25.17500499999989
 21
-11.51483099999992
 31
0.0
  0
LINE
  5
133D
330
18
100
AcDbEntity
  8
1
100
AcDbLine
 10
25.16627299999993
 20
-11.47871400000004
 30
0.0
 11
25.17500499999989
 21
-11.51483099999992
 31
0.0
  0
LINE
  5
133E
330
18
100
AcDbEntity
  8
1
100
AcDbLine
 10
25.47664600000002
 20
-20.10000200000007
 30
0.0
 11
25.55450000000002
 21
-20.42229400000003
 31
0.0
  0
LINE
  5
133F
330
18
100
AcDbEntity
  8
1
100
AcDbLine
 10
28.71135599999991
 20
-20.08026000000003
 30
0.0
 11
28.65675699999992
 21
-20.09196000000002
 31
0.0
  0
LINE
  5
1340
330
18
100
AcDbEntity
  8
1
100
AcDbLine
 10
28.76550800000001
 20
-20.07552499999995
 30
0.0
 11
28.71135599999991
 21
-20.08026000000003
 31
0.0
  0
LINE
  5
1341
330
18
100
AcDbEntity
  8
1
100
AcDbLine
 10
28.83827500000001
 20
-20.08268300000004
 30
0.0
 11
28.76550800000001
 21
-20.07552499999995
 31
0.0
  0
LINE
  5
1342
330
18
100
AcDbEntity
  8
1
100
AcDbLine
 10
28.99948099999989
 20
-20.24772800000006
 30
0.0
 11
29.05456499999991
 21
-20.47574300000003
 31
0.0
  0
LINE
  5
1343
330
18
100
AcDbEntity
  8
1
100
AcDbLine
 10
28.87077
 20
-22.40276900000004
 30
0.0
 11
28.93616100000003
 21
-20.17003199999997
 31
0.0
  0
LINE
  5
1344
330
18
100
AcDbEntity
  8
1
100
AcDbLine
 10
28.87077
 20
-22.40276900000004
 30
0.0
 11
28.99667099999994
 21
-22.92386099999997
 31
0.0
  0
LINE
  5
1345
330
18
100
AcDbEntity
  8
1
100
AcDbLine
 10
27.92665399999993
 20
-19.63140200000004
 30
0.0
 11
28.811217
 21
-19.70695499999994
 31
0.0
  0
LINE
  5
1346
330
18
100
AcDbEntity
  8
1
100
AcDbLine
 10
27.12712700000003
 20
-19.25516499999997
 30
0.0
 11
27.92665399999993
 21
-19.63140200000004
 31
0.0
  0
LINE
  5
1347
330
18
100
AcDbEntity
  8
1
100
AcDbLine
 10
26.51375599999989
 20
-18.62584299999995
 30
0.0
 11
27.12712700000003
 21
-19.25516499999997
 31
0.0
  0
LINE
  5
1348
330
18
100
AcDbEntity
  8
1
100
AcDbLine
 10
27.94864899999993
 20
-14.84926900000006
 30
0.0
 11
28.03896499999991
 21
-14.85865599999996
 31
0.0
  0
LINE
  5
1349
330
18
100
AcDbEntity
  8
1
100
AcDbLine
 10
25.55450000000002
 20
-20.42229400000003
 30
0.0
 11
25.464135
 21
-18.24787500000006
 31
0.0
  0
LINE
  5
134A
330
18
100
AcDbEntity
  8
1
100
AcDbLine
 10
28.12382000000003
 20
-20.38861100000005
 30
0.0
 11
25.55450000000002
 21
-20.42229400000003
 31
0.0
  0
LINE
  5
134B
330
18
100
AcDbEntity
  8
1
100
AcDbLine
 10
28.339674
 20
-20.15111400000004
 30
0.0
 11
28.12382000000003
 21
-20.38861100000005
 31
0.0
  0
LINE
  5
134C
330
18
100
AcDbEntity
  8
1
100
AcDbLine
 10
28.65675699999992
 20
-20.09196000000002
 30
0.0
 11
28.339674
 21
-20.15111400000004
 31
0.0
  0
LINE
  5
134D
330
18
100
AcDbEntity
  8
1
100
AcDbLine
 10
28.71069
 20
-19.94889700000006
 30
0.0
 11
28.65675699999992
 21
-20.09196000000002
 31
0.0
  0
LINE
  5
134E
330
18
100
AcDbEntity
  8
1
100
AcDbLine
 10
28.811217
 20
-19.70695499999994
 30
0.0
 11
28.71069
 21
-19.94889700000006
 31
0.0
  0
LINE
  5
134F
330
18
100
AcDbEntity
  8
1
100
AcDbLine
 10
29.15847100000002
 20
-19.65075699999996
 30
0.0
 11
28.84795199999991
 21
-19.65396600000005
 31
0.0
  0
LINE
  5
1350
330
18
100
AcDbEntity
  8
1
100
AcDbLine
 10
28.8470309999999
 20
-19.66697400000003
 30
0.0
 11
28.84795199999991
 21
-19.65396600000005
 31
0.0
  0
LINE
  5
1351
330
18
100
AcDbEntity
  8
1
100
AcDbLine
 10
28.84058800000003
 20
-19.81096999999994
 30
0.0
 11
28.8470309999999
 21
-19.66697400000003
 31
0.0
  0
LINE
  5
1352
330
18
100
AcDbEntity
  8
1
100
AcDbLine
 10
28.83827500000001
 20
-20.08268300000004
 30
0.0
 11
28.84058800000003
 21
-19.81096999999994
 31
0.0
  0
LINE
  5
1353
330
18
100
AcDbEntity
  8
1
100
AcDbLine
 10
28.9025509999999
 20
-20.12876800000004
 30
0.0
 11
28.83827500000001
 21
-20.08268300000004
 31
0.0
  0
LINE
  5
1354
330
18
100
AcDbEntity
  8
1
100
AcDbLine
 10
29.00362300000001
 20
-20.25280300000005
 30
0.0
 11
28.9025509999999
 21
-20.12876800000004
 31
0.0
  0
LINE
  5
1355
330
18
100
AcDbEntity
  8
1
100
AcDbLine
 10
29.04865399999989
 20
-20.38221599999996
 30
0.0
 11
29.00362300000001
 21
-20.25280300000005
 31
0.0
  0
LINE
  5
1356
330
18
100
AcDbEntity
  8
1
100
AcDbLine
 10
29.05456499999991
 20
-20.47574300000003
 30
0.0
 11
29.04865399999989
 21
-20.38221599999996
 31
0.0
  0
LINE
  5
1357
330
18
100
AcDbEntity
  8
1
100
AcDbLine
 10
29.043386
 20
-20.75425000000005
 30
0.0
 11
29.05456499999991
 21
-20.47574300000003
 31
0.0
  0
LINE
  5
1358
330
18
100
AcDbEntity
  8
1
100
AcDbLine
 10
29.02840399999991
 20
-21.26350900000002
 30
0.0
 11
29.043386
 21
-20.75425000000005
 31
0.0
  0
LINE
  5
1359
330
18
100
AcDbEntity
  8
1
100
AcDbLine
 10
29.01852000000003
 20
-21.76713699999997
 30
0.0
 11
29.02840399999991
 21
-21.26350900000002
 31
0.0
  0
LINE
  5
135A
330
18
100
AcDbEntity
  8
1
100
AcDbLine
 10
28.99667099999994
 20
-22.92386099999997
 30
0.0
 11
29.01852000000003
 21
-21.76713699999997
 31
0.0
  0
LINE
  5
135B
330
18
100
AcDbEntity
  8
1
100
AcDbLine
 10
29.49013600000001
 20
-22.92022700000005
 30
0.0
 11
28.99667099999994
 21
-22.92386099999997
 31
0.0
  0
LINE
  5
135C
330
18
100
AcDbEntity
  8
1
100
AcDbLine
 10
30.49808100000002
 20
-22.91279099999997
 30
0.0
 11
29.49013600000001
 21
-22.92022700000005
 31
0.0
  0
LINE
  5
135D
330
18
100
AcDbEntity
  8
1
100
AcDbLine
 10
31.5588689999999
 20
-22.90497899999996
 30
0.0
 11
30.49808100000002
 21
-22.91279099999997
 31
0.0
  0
LINE
  5
135E
330
18
100
AcDbEntity
  8
1
100
AcDbLine
 10
32.0
 20
-22.90172100000003
 30
0.0
 11
31.5588689999999
 21
-22.90497899999996
 31
0.0
  0
LINE
  5
135F
330
18
100
AcDbEntity
  8
1
100
AcDbLine
 10
31.96405299999998
 20
-22.17280499999996
 30
0.0
 11
32.0
 21
-22.90172100000003
 31
0.0
  0
LINE
  5
1360
330
18
100
AcDbEntity
  8
1
100
AcDbLine
 10
31.93244099999993
 20
-21.53819000000005
 30
0.0
 11
31.96405299999998
 21
-22.17280499999996
 31
0.0
  0
LINE
  5
1361
330
18
100
AcDbEntity
  8
1
100
AcDbLine
 10
31.90477800000002
 20
-20.91455999999995
 30
0.0
 11
31.93244099999993
 21
-21.53819000000005
 31
0.0
  0
LINE
  5
1362
330
18
100
AcDbEntity
  8
1
100
AcDbLine
 10
31.89009900000002
 20
-20.45179799999996
 30
0.0
 11
31.90477800000002
 21
-20.91455999999995
 31
0.0
  0
LINE
  5
1363
330
18
100
AcDbEntity
  8
1
100
AcDbLine
 10
31.88449099999991
 20
-20.07420499999996
 30
0.0
 11
31.89009900000002
 21
-20.45179799999996
 31
0.0
  0
LINE
  5
1364
330
18
100
AcDbEntity
  8
1
100
AcDbLine
 10
31.88570199999998
 20
-19.92840400000005
 30
0.0
 11
31.88449099999991
 21
-20.07420499999996
 31
0.0
  0
LINE
  5
1365
330
18
100
AcDbEntity
  8
1
100
AcDbLine
 10
29.49208599999991
 20
-19.68543200000001
 30
0.0
 11
29.15847100000002
 21
-19.65075699999996
 31
0.0
  0
LINE
  5
1366
330
18
100
AcDbEntity
  8
1
100
AcDbLine
 10
30.69558599999999
 20
-19.80892300000006
 30
0.0
 11
29.49208599999991
 21
-19.68543200000001
 31
0.0
  0
LINE
  5
1367
330
18
100
AcDbEntity
  8
1
100
AcDbLine
 10
31.69674800000001
 20
-19.90963099999992
 30
0.0
 11
30.69558599999999
 21
-19.80892300000006
 31
0.0
  0
LINE
  5
1368
330
18
100
AcDbEntity
  8
1
100
AcDbLine
 10
31.88570199999998
 20
-19.92840400000005
 30
0.0
 11
31.69674800000001
 21
-19.90963099999992
 31
0.0
  0
LINE
  5
1369
330
18
100
AcDbEntity
  8
1
100
AcDbLine
 10
28.99630799999989
 20
-15.57763999999995
 30
0.0
 11
28.89557500000001
 21
-15.55057100000005
 31
0.0
  0
LINE
  5
136A
330
18
100
AcDbEntity
  8
1
100
AcDbLine
 10
29.13923699999998
 20
-15.62850900000006
 30
0.0
 11
28.99630799999989
 21
-15.57763999999995
 31
0.0
  0
LINE
  5
136B
330
18
100
AcDbEntity
  8
1
100
AcDbLine
 10
29.27391899999998
 20
-15.69545100000005
 30
0.0
 11
29.13923699999998
 21
-15.62850900000006
 31
0.0
  0
LINE
  5
136C
330
18
100
AcDbEntity
  8
1
100
AcDbLine
 10
29.33562799999999
 20
-15.73495900000004
 30
0.0
 11
29.27391899999998
 21
-15.69545100000005
 31
0.0
  0
LINE
  5
136D
330
18
100
AcDbEntity
  8
1
100
AcDbLine
 10
29.39470899999998
 20
-15.77879100000005
 30
0.0
 11
29.33562799999999
 21
-15.73495900000004
 31
0.0
  0
LINE
  5
136E
330
18
100
AcDbEntity
  8
1
100
AcDbLine
 10
25.44100100000003
 20
-18.23983300000004
 30
0.0
 11
25.26836200000003
 21
-18.17171700000004
 31
0.0
  0
LINE
  5
136F
330
18
100
AcDbEntity
  8
1
100
AcDbLine
 10
25.610322
 20
-18.30476300000003
 30
0.0
 11
25.44100100000003
 21
-18.23983300000004
 31
0.0
  0
LINE
  5
1370
330
18
100
AcDbEntity
  8
1
100
AcDbLine
 10
25.801784
 20
-18.37580999999995
 30
0.0
 11
25.610322
 21
-18.30476300000003
 31
0.0
  0
LINE
  5
1371
330
18
100
AcDbEntity
  8
1
100
AcDbLine
 10
25.98802499999994
 20
-18.44230300000004
 30
0.0
 11
25.801784
 21
-18.37580999999995
 31
0.0
  0
LINE
  5
1372
330
18
100
AcDbEntity
  8
1
100
AcDbLine
 10
26.16868199999999
 20
-18.50407300000004
 30
0.0
 11
25.98802499999994
 21
-18.44230300000004
 31
0.0
  0
LINE
  5
1373
330
18
100
AcDbEntity
  8
1
100
AcDbLine
 10
26.34210899999999
 20
-18.56051300000005
 30
0.0
 11
26.16868199999999
 21
-18.50407300000004
 31
0.0
  0
LINE
  5
1374
330
18
100
AcDbEntity
  8
1
100
AcDbLine
 10
26.50952899999999
 20
-18.61192700000003
 30
0.0
 11
26.34210899999999
 21
-18.56051300000005
 31
0.0
  0
LINE
  5
1375
330
18
100
AcDbEntity
  8
1
100
AcDbLine
 10
26.66807
 20
-18.65737000000005
 30
0.0
 11
26.50952899999999
 21
-18.61192700000003
 31
0.0
  0
LINE
  5
1376
330
18
100
AcDbEntity
  8
1
100
AcDbLine
 10
26.82174300000003
 20
-18.69773800000005
 30
0.0
 11
26.66807
 21
-18.65737000000005
 31
0.0
  0
LINE
  5
1377
330
18
100
AcDbEntity
  8
1
100
AcDbLine
 10
26.96484200000003
 20
-18.73125100000005
 30
0.0
 11
26.82174300000003
 21
-18.69773800000005
 31
0.0
  0
LINE
  5
1378
330
18
100
AcDbEntity
  8
1
100
AcDbLine
 10
27.09027100000003
 20
-18.75645599999995
 30
0.0
 11
26.96484200000003
 21
-18.73125100000005
 31
0.0
  0
LINE
  5
1379
330
18
100
AcDbEntity
  8
1
100
AcDbLine
 10
27.20616699999999
 20
-18.77514400000005
 30
0.0
 11
27.09027100000003
 21
-18.75645599999995
 31
0.0
  0
LINE
  5
137A
330
18
100
AcDbEntity
  8
1
100
AcDbLine
 10
27.31724300000002
 20
-18.78736399999995
 30
0.0
 11
27.20616699999999
 21
-18.77514400000005
 31
0.0
  0
LINE
  5
137B
330
18
100
AcDbEntity
  8
1
100
AcDbLine
 10
27.42112500000002
 20
-18.79149499999996
 30
0.0
 11
27.31724300000002
 21
-18.78736399999995
 31
0.0
  0
LINE
  5
137C
330
18
100
AcDbEntity
  8
1
100
AcDbLine
 10
27.48832099999993
 20
-18.78898699999997
 30
0.0
 11
27.42112500000002
 21
-18.79149499999996
 31
0.0
  0
LINE
  5
137D
330
18
100
AcDbEntity
  8
1
100
AcDbLine
 10
27.55540699999989
 20
-18.78036399999994
 30
0.0
 11
27.48832099999993
 21
-18.78898699999997
 31
0.0
  0
LINE
  5
137E
330
18
100
AcDbEntity
  8
1
100
AcDbLine
 10
27.60810499999991
 20
-18.76814300000003
 30
0.0
 11
27.55540699999989
 21
-18.78036399999994
 31
0.0
  0
LINE
  5
137F
330
18
100
AcDbEntity
  8
1
100
AcDbLine
 10
27.66326199999992
 20
-18.74929800000003
 30
0.0
 11
27.60810499999991
 21
-18.76814300000003
 31
0.0
  0
LINE
  5
1380
330
18
100
AcDbEntity
  8
1
100
AcDbLine
 10
27.7150509999999
 20
-18.72471100000005
 30
0.0
 11
27.66326199999992
 21
-18.74929800000003
 31
0.0
  0
LINE
  5
1381
330
18
100
AcDbEntity
  8
1
100
AcDbLine
 10
27.76469700000002
 20
-18.68890900000003
 30
0.0
 11
27.7150509999999
 21
-18.72471100000005
 31
0.0
  0
LINE
  5
1382
330
18
100
AcDbEntity
  8
1
100
AcDbLine
 10
27.7922749999999
 20
-18.65958600000001
 30
0.0
 11
27.76469700000002
 21
-18.68890900000003
 31
0.0
  0
LINE
  5
1383
330
18
100
AcDbEntity
  8
1
100
AcDbLine
 10
27.817794
 20
-18.62494700000005
 30
0.0
 11
27.7922749999999
 21
-18.65958600000001
 31
0.0
  0
LINE
  5
1384
330
18
100
AcDbEntity
  8
1
100
AcDbLine
 10
29.3097939999999
 20
-16.57410299999997
 30
0.0
 11
29.2838139999999
 21
-16.61366000000003
 31
0.0
  0
LINE
  5
1385
330
18
100
AcDbEntity
  8
1
100
AcDbLine
 10
29.3286149999999
 20
-16.53490999999994
 30
0.0
 11
29.3097939999999
 21
-16.57410299999997
 31
0.0
  0
LINE
  5
1386
330
18
100
AcDbEntity
  8
1
100
AcDbLine
 10
29.34222900000003
 20
-16.48016500000003
 30
0.0
 11
29.3286149999999
 21
-16.53490999999994
 31
0.0
  0
LINE
  5
1387
330
18
100
AcDbEntity
  8
1
100
AcDbLine
 10
29.34594700000003
 20
-16.42871500000004
 30
0.0
 11
29.34222900000003
 21
-16.48016500000003
 31
0.0
  0
LINE
  5
1388
330
18
100
AcDbEntity
  8
1
100
AcDbLine
 10
29.34404599999999
 20
-16.37361900000004
 30
0.0
 11
29.34594700000003
 21
-16.42871500000004
 31
0.0
  0
LINE
  5
1389
330
18
100
AcDbEntity
  8
1
100
AcDbLine
 10
29.333799
 20
-16.32801900000005
 30
0.0
 11
29.34404599999999
 21
-16.37361900000004
 31
0.0
  0
LINE
  5
138A
330
18
100
AcDbEntity
  8
1
100
AcDbLine
 10
29.259458
 20
-16.69402100000005
 30
0.0
 11
29.25261499999999
 21
-16.66567999999993
 31
0.0
  0
LINE
  5
138B
330
18
100
AcDbEntity
  8
1
100
AcDbLine
 10
19.91995999999989
 20
-13.13012800000005
 30
0.0
 11
20.046043
 21
-13.65200700000003
 31
0.0
  0
LINE
  5
138C
330
18
100
AcDbEntity
  8
1
100
AcDbLine
 10
22.24143900000001
 20
-12.38618100000003
 30
0.0
 11
22.11534399999994
 21
-11.86430100000005
 31
0.0
  0
LINE
  5
138D
330
18
100
AcDbEntity
  8
1
100
AcDbLine
 10
17.96236399999992
 20
-13.69017100000005
 30
0.0
 11
17.94574699999992
 21
-13.62137700000006
 31
0.0
  0
LINE
  5
138E
330
18
100
AcDbEntity
  8
1
100
AcDbLine
 10
24.26396599999993
 20
-12.09491899999995
 30
0.0
 11
24.28058299999992
 21
-12.16370199999995
 31
0.0
  0
LINE
  5
138F
330
18
100
AcDbEntity
  8
1
100
AcDbLine
 10
29.25177899999989
 20
-15.98850400000005
 30
0.0
 11
29.333799
 21
-16.32801900000005
 31
0.0
  0
LINE
  5
1390
330
18
100
AcDbEntity
  8
1
100
AcDbLine
 10
29.28274800000003
 20
-16.62429400000005
 30
0.0
 11
27.82952999999992
 21
-18.62044199999996
 31
0.0
  0
LINE
  5
1391
330
18
100
AcDbEntity
  8
1
100
AcDbLine
 10
25.26836200000003
 20
-18.17171700000004
 30
0.0
 11
20.86268399999989
 21
-16.40949399999994
 31
0.0
  0
LINE
  5
1392
330
18
100
AcDbEntity
  8
1
100
AcDbLine
 10
17.798699
 20
-13.65146200000004
 30
0.0
 11
17.563151
 21
-12.67652100000006
 31
0.0
  0
LINE
  5
1393
330
18
100
AcDbEntity
  8
1
100
AcDbLine
 10
16.40871600000003
 20
-11.18638699999994
 30
0.0
 11
16.166628
 21
-10.18436500000005
 31
0.0
  0
LINE
  5
1394
330
18
100
AcDbEntity
  8
1
100
AcDbLine
 10
0.0
 20
-12.44999699999995
 30
0.0
 11
9.999586999999905
 21
-12.44999699999995
 31
0.0
  0
LINE
  5
1395
330
18
100
AcDbEntity
  8
SK1
100
AcDbLine
 10
0.0
 20
12.44999699999995
 30
0.0
 11
-119.0004159999999
 21
12.44999699999995
 31
0.0
  0
DIMENSION
  5
1396
330
18
100
AcDbEntity
  8
SK2
100
AcDbDimension
  2
*D11
 10
-128.9389695929737
 20
12.44999699999995
 30
0.0
 11
-128.9389695929737
 21
0.0000000000000071
 31
0.0
 70
   160
  1
25x25
 71
     5
 42
24.8999939999999
  3
AM_DIN
100
AcDbAlignedDimension
 13
-119.0004159999999
 23
-12.44999699999995
 33
0.0
 14
-119.0004159999999
 24
12.44999699999995
 34
0.0
 50
270.0
100
AcDbRotatedDimension
1001
ACAD
1000
DSTYLE
1002
{
1070
   286
1070
     0
1070
   274
1070
     2
1070
   284
1070
     0
1070
   283
1070
     1
1070
   146
1040
1.0
1070
   272
1070
     0
1070
    47
1040
0.0
1070
    48
1040
0.0
1070
    72
1070
     0
1070
    71
1070
     0
1002
}
  0
MTEXT
  5
1397
330
18
100
AcDbEntity
  8
SK6
100
AcDbMText
 10
-119.0004159999999
 20
-55.2458470308643
 30
0.0
 40
3.5
 41
71.04132619520123
 71
     1
 72
     5
  1
CEAL2525M10D\P02411448
  7
STANDARD 3.5 mm
 73
     1
 44
1.0
1001
ACAD
1000
MTEXTBEGIN
1070
    73
1070
     1
1070
    44
1040
1.0
1070
    74
1070
     0
1000
MTEXTEND
  0
DIMENSION
  5
1398
330
18
100
AcDbEntity
  8
2
100
AcDbDimension
  2
*D12
 10
47.13212990526016
 20
-22.55000300000006
 30
0.0
 11
47.13212990526017
 21
-5.050003000000067
 31
0.0
 70
   160
 71
     5
 42
35.0
  3
AM_DIN
100
AcDbAlignedDimension
 13
22.37981500000001
 23
12.44999699999995
 33
0.0
 14
31.98265478196942
 24
-22.55000300000006
 34
0.0
 50
270.0
100
AcDbRotatedDimension
1001
ACAD
1000
DSTYLE
1002
{
1070
   286
1070
     0
1070
   274
1070
     2
1070
   284
1070
     0
1070
   283
1070
     1
1070
   146
1040
1.0
1070
   272
1070
     0
1070
    47
1040
0.0
1070
    48
1040
0.0
1070
    72
1070
     0
1070
    71
1070
     0
1002
}
1001
ACAD_DSTYLE_DIMINSPECT
1070
   396
1000
100%
1070
   395
1000

1070
   394
1070
    33
1070
   393
1070
     0
  0
DIMENSION
  5
1399
330
18
100
AcDbEntity
  8
SK2
100
AcDbDimension
  2
*D13
 10
-119.0004159999999
 20
-48.20051670227557
 30
0.0
 11
-43.50020799999993
 21
-48.20051670227557
 31
0.0
 70
   160
  1
150
 71
     5
 42
151.0004159999999
  3
AM_DIN
100
AcDbAlignedDimension
 13
32.0
 23
-22.90172100000003
 33
0.0
 14
-119.0004159999999
 24
-12.44999699999995
 34
0.0
100
AcDbRotatedDimension
1001
ACAD
1000
DSTYLE
1002
{
1070
   286
1070
     0
1070
   274
1070
     2
1070
   284
1070
     0
1070
   283
1070
     1
1070
   146
1040
1.0
1070
   272
1070
     0
1070
    47
1040
0.0
1070
    48
1040
0.0
1070
    72
1070
     0
1070
    71
1070
     0
1002
}
  0
DIMENSION
  5
139A
330
18
100
AcDbEntity
  8
2
100
AcDbDimension
  2
*D14
 10
9.999586999999904
 20
-29.7694260709525
 30
0.0
 11
20.9997934999999
 21
-29.7694260709525
 31
0.0
 70
   160
 71
     5
 42
22.00041300000009
  3
AM_DIN
100
AcDbAlignedDimension
 13
32.0
 23
-22.90172100000003
 33
0.0
 14
9.999586999999905
 24
-12.44999699999995
 34
0.0
100
AcDbRotatedDimension
1001
ACAD
1000
DSTYLE
1002
{
1070
   286
1070
     0
1070
   274
1070
     2
1070
   284
1070
     0
1070
   283
1070
     1
1070
   146
1040
1.0
1070
   272
1070
     0
1070
    47
1040
0.0
1070
    48
1040
0.0
1070
    72
1070
     0
1070
    71
1070
     0
1002
}
  0
DIMENSION
  5
139B
330
18
100
AcDbEntity
  8
2
100
AcDbDimension
  2
*D15
 10
-0.0000000000000017
 20
-39.70943811040959
 30
0.0
 11
16.0
 21
-39.70943811040959
 31
0.0
 70
   160
 71
     5
 42
32.0
  3
AM_DIN
100
AcDbAlignedDimension
 13
32.0
 23
-22.90172100000003
 33
0.0
 14
0.0
 24
-12.44999699999995
 34
0.0
100
AcDbRotatedDimension
1001
ACAD
1000
DSTYLE
1002
{
1070
   286
1070
     0
1070
   274
1070
     2
1070
   284
1070
     0
1070
   283
1070
     1
1070
   146
1040
1.0
1070
   272
1070
     0
1070
    47
1040
0.0
1070
    48
1040
0.0
1070
    72
1070
     0
1070
    71
1070
     0
1002
}
  0
VIEWPORT
  5
B5D
102
{ACAD_XDICTIONARY
360
B5E
102
}
330
B56
100
AcDbEntity
 67
     1
  8
0
100
AcDbViewport
 10
148.4886727696569
 20
104.9919908472322
 30
0.0
 40
360.5799308901367
 41
215.6936333192457
 68
     1
 69
     1
 12
148.4886727696569
 22
104.9919908472322
 13
0.0
 23
0.0
 14
10.0
 24
10.0
 15
10.0
 25
10.0
 16
0.0
 26
0.0
 36
1.0
 17
0.0
 27
0.0
 37
0.0
 42
50.0
 43
0.0
 44
0.0
 45
215.6936333192457
 50
0.0
 51
0.0
 72
  2000
 90
   819232
  1

281
     0
 71
     1
 74
     0
110
0.0
120
0.0
130
0.0
111
1.0
121
0.0
131
0.0
112
0.0
122
1.0
132
0.0
 79
     0
146
0.0
  0
VIEWPORT
  5
B61
102
{ACAD_XDICTIONARY
360
B62
102
}
330
B56
100
AcDbEntity
 67
     1
  8
1
100
AcDbViewport
 10
148.5
 20
105.0
 30
0.0
 40
297.0
 41
210.0
 68
     2
 69
     2
 12
0.3212157160238718
 22
-0.0519849240370149
 13
0.0
 23
0.0
 14
5.0
 24
5.0
 15
5.0
 25
5.0
 16
0.0
 26
0.0
 36
1.0
 17
0.0
 27
0.0
 37
0.0
 42
50.0
 43
0.0
 44
0.0
 45
210.0000000373879
 50
0.0
 51
0.0
 72
  2000
 90
   819232
  1

281
     0
 71
     1
 74
     0
110
0.0
120
0.0
130
0.0
111
1.0
121
0.0
131
0.0
112
0.0
122
1.0
132
0.0
 79
     0
146
0.0
  0
ENDSEC
  0
SECTION
  2
OBJECTS
  0
DICTIONARY
  5
C
330
0
100
AcDbDictionary
281
     1
  3
ACAD_2007HEADERVARS_RT
350
1739
  3
ACAD_BACKGROUND
350
B0F
  3
ACAD_CIP_PREVIOUS_PRODUCT_INFO
350
CF7
  3
ACAD_COLOR
350
387
  3
ACAD_DETAILVIEWSTYLE
350
CEF
  3
ACAD_FIELDLIST
350
D13
  3
ACAD_GROUP
350
D
  3
ACAD_LAYOUT
350
301
  3
ACAD_MATERIAL
350
386
  3
ACAD_MLEADERSTYLE
350
46F
  3
ACAD_MLINESTYLE
350
E
  3
ACAD_PLOTSETTINGS
350
302
  3
ACAD_PLOTSTYLENAME
350
2FF
  3
ACAD_SCALELIST
350
44D
  3
ACAD_SECTIONVIEWSTYLE
350
CED
  3
ACAD_TABLESTYLE
350
388
  3
ACAD_VISUALSTYLE
350
3F2
  3
ACDB_RECOMPOSE_DATA
350
1737
  3
AcDbVariableDictionary
350
357
  3
AcDsDecomposeData
350
1741
  3
AcmDictionary
350
4D1
  3
AMG
350
478
  3
AMGSNAPSETTINGS
350
51E
  3
DWGPROPS
350
1738
  0
DICTIONARY
  5
A45
330
8
100
AcDbDictionary
280
     1
281
     1
  0
DICTIONARY
  5
43C
330
2
100
AcDbDictionary
280
     1
281
     1
  3
ACAD_LAYERFILTERS
360
B21
  3
ACAD_LAYERSTATES
360
567
  3
ACLYDICTIONARY
360
B20
  3
AMLAYER_GROUPCOLORS
360
E31
  0
DICTIONARY
  5
52D
330
F
100
AcDbDictionary
280
     1
281
     1
  3
ADSK_XREC_LAYER_RECONCILED
360
172E
  0
DICTIONARY
  5
52F
330
23
100
AcDbDictionary
280
     1
281
     1
  3
ADSK_XREC_LAYER_RECONCILED
360
172F
  0
DICTIONARY
  5
531
330
24
100
AcDbDictionary
280
     1
281
     1
  3
ADSK_XREC_LAYER_RECONCILED
360
1730
  0
DICTIONARY
  5
533
330
25
100
AcDbDictionary
280
     1
281
     1
  3
ADSK_XREC_LAYER_RECONCILED
360
1731
  0
DICTIONARY
  5
537
330
27
100
AcDbDictionary
280
     1
281
     1
  3
ADSK_XREC_LAYER_RECONCILED
360
1732
  0
DICTIONARY
  5
545
330
2E
100
AcDbDictionary
280
     1
281
     1
  3
ADSK_XREC_LAYER_RECONCILED
360
1733
  0
DICTIONARY
  5
DB1
330
18
100
AcDbDictionary
280
     1
281
     1
  3
ACAD_SORTENTS
360
DB2
  0
DICTIONARY
  5
B5E
330
B5D
100
AcDbDictionary
280
     1
281
     1
  3
ACAD_XREC_ROUNDTRIP
360
1773
  3
ASDK_XREC_ANNOTATION_SCALE_INFO
360
B5F
  0
DICTIONARY
  5
B62
330
B61
100
AcDbDictionary
280
     1
281
     1
  3
ACAD_XREC_ROUNDTRIP
360
1774
  3
ASDK_XREC_ANNOTATION_SCALE_INFO
360
B63
  0
DICTIONARY
  5
1739
102
{ACAD_REACTORS
330
C
102
}
330
C
100
AcDbDictionary
281
     1
  3
DIMARCSYM
350
173A
  3
DIMJOGANG
350
173B
  0
DICTIONARY
  5
B0F
102
{ACAD_REACTORS
330
C
102
}
330
C
100
AcDbDictionary
281
     1
  0
XRECORD
  5
CF7
102
{ACAD_REACTORS
330
C
102
}
330
C
100
AcDbXrecord
280
     1
300
AMECH_PP
300
2014
300
86138AMECH_PP_2014_0F
  0
DICTIONARY
  5
387
102
{ACAD_REACTORS
330
C
102
}
330
C
100
AcDbDictionary
281
     1
  0
DICTIONARY
  5
CEF
102
{ACAD_REACTORS
330
C
102
}
330
C
100
AcDbDictionary
281
     1
  3
Metric50
350
CF0
  0
FIELDLIST
  5
D13
102
{ACAD_REACTORS
330
C
102
}
330
C
100
AcDbIdSet
 90
        9
330
F09
330
F0A
330
F0B
330
D11
330
D12
330
D14
330
D1C
330
D1D
330
D1E
100
AcDbFieldList
  0
DICTIONARY
  5
D
102
{ACAD_REACTORS
330
C
102
}
330
C
100
AcDbDictionary
281
     1
  0
DICTIONARY
  5
301
102
{ACAD_REACTORS
330
C
102
}
330
C
100
AcDbDictionary
281
     1
  3
Layout1
350
B57
  3
Model
350
303
  0
DICTIONARY
  5
386
102
{ACAD_REACTORS
330
C
102
}
330
C
100
AcDbDictionary
281
     1
  3
ByBlock
350
3F0
  3
ByLayer
350
3EF
  3
Global
350
3F1
  0
DICTIONARY
  5
46F
102
{ACAD_REACTORS
330
C
102
}
330
C
100
AcDbDictionary
281
     1
  3
Standard
350
470
  0
DICTIONARY
  5
E
102
{ACAD_REACTORS
330
C
102
}
330
C
100
AcDbDictionary
281
     1
  3
STANDARD
350
1B
  0
DICTIONARY
  5
302
102
{ACAD_REACTORS
330
C
102
}
330
C
100
AcDbDictionary
281
     1
  3
DWG To PDF A4 - landscape
350
7EF
  3
DWG To PDF A4 - portrait
350
7F8
  0
ACDBDICTIONARYWDFLT
  5
2FF
102
{ACAD_REACTORS
330
C
102
}
330
C
100
AcDbDictionary
281
     1
  3
Normal
350
300
100
AcDbDictionaryWithDefault
340
300
  0
DICTIONARY
  5
44D
102
{ACAD_REACTORS
330
C
102
}
330
C
100
AcDbDictionary
281
     1
  3
A0
350
BFC
  3
A1
350
BFD
  3
A2
350
BFE
  3
A3
350
BFF
  3
A4
350
C00
  3
A5
350
C01
  3
A6
350
44E
  3
A7
350
C02
  3
A8
350
C03
  3
A9
350
C04
  3
B0
350
C05
  3
B1
350
C06
  3
B2
350
C07
  0
DICTIONARY
  5
CED
102
{ACAD_REACTORS
330
C
102
}
330
C
100
AcDbDictionary
281
     1
  3
Metric50
350
CEE
  0
DICTIONARY
  5
388
102
{ACAD_REACTORS
330
C
102
}
330
C
100
AcDbDictionary
281
     1
  3
Standard
350
389
  0
DICTIONARY
  5
3F2
102
{ACAD_REACTORS
330
C
102
}
330
C
100
AcDbDictionary
281
     1
  3
2dWireframe
350
3F8
  3
3D Hidden
350
3FA
  3
3dWireframe
350
3F9
  3
Basic
350
3F7
  3
Brighten
350
3FE
  3
ColorChange
350
402
  3
Conceptual
350
3FB
  3
Dim
350
3FD
  3
EdgeColorOff
350
BDF
  3
Facepattern
350
401
  3
Flat
350
3F3
  3
FlatWithEdges
350
3F4
  3
Gouraud
350
3F5
  3
GouraudWithEdges
350
3F6
  3
Hidden
350
CE7
  3
JitterOff
350
BDD
  3
Linepattern
350
400
  3
OverhangOff
350
BDE
  3
Realistic
350
3FC
  3
Shaded
350
CEC
  3
Shaded with edges
350
CEB
  3
Shades of Gray
350
CE8
  3
Sketchy
350
CE9
  3
Thicken
350
3FF
  3
Wireframe
350
CE6
  3
X-Ray
350
CEA
  0
XRECORD
  5
1737
102
{ACAD_REACTORS
330
C
102
}
330
C
100
AcDbXrecord
280
     1
 90
        1
330
389
  0
DICTIONARY
  5
357
102
{ACAD_REACTORS
330
C
102
}
330
C
100
AcDbDictionary
281
     1
  3
CANNOSCALE
350
57C
  3
CMLEADERSTYLE
350
57A
  3
CTABLESTYLE
350
38E
  3
CVIEWDETAILSTYLE
350
D2C
  3
CVIEWSECTIONSTYLE
350
D2D
  3
DIMASSOC
350
359
  3
HIDETEXT
350
358
  3
INDEXCTL
350
ACC
  3
LAYEREVAL
350
BF1
  3
LAYERNOTIFY
350
BF2
  3
LIGHTINGUNITS
350
57D
  3
MSLTSCALE
350
57B
  3
SOLIDHIST
350
1735
  3
SORTENTS
350
ACB
  3
XCLIPFRAME
350
1734
  0
DICTIONARY
  5
1741
102
{ACAD_REACTORS
330
C
102
}
330
C
100
AcDbDictionary
281
     1
  3
AcDsRecords
350
1743
  3
AcDsSchemas
350
1742
1001
ACAD
1070
     2
  0
DICTIONARY
  5
4D1
102
{ACAD_REACTORS
330
C
102
}
330
C
100
AcDbDictionary
281
     1
  3
AcmStdDictionary
350
4DC
  3
AMDTSECTSYM_ARROWCOLOR
350
4F3
  0
DICTIONARY
  5
478
102
{ACAD_REACTORS
330
C
102
}
330
C
100
AcDbDictionary
281
     1
  0
DICTIONARY
  5
51E
102
{ACAD_REACTORS
330
C
102
}
330
C
100
AcDbDictionary
281
     1
  0
XRECORD
  5
1738
102
{ACAD_REACTORS
330
C
102
}
330
C
100
AcDbXrecord
280
     1
  1
DWGPROPS COOKIE
  2

  3

  4
Philippe Vogel
  6
Secotools DIN Template metric
  7

  8
inpunamso
  9

300
=
301
=
302
=
303
=
304
=
305
=
306
=
307
=
308
=
309
=
 40
0.0034189930555556
 41
2458095.631416609
 42
2458095.634835185
  1
http://www.secotools.com/
 90
        0
  0
DICTIONARY
  5
B21
102
{ACAD_REACTORS
330
43C
102
}
330
43C
100
AcDbDictionary
281
     1
  0
DICTIONARY
  5
567
102
{ACAD_REACTORS
330
43C
102
}
330
43C
100
AcDbDictionary
281
     1
  3
BMG3.0
350
8E9
  0
DICTIONARY
  5
B20
102
{ACAD_REACTORS
330
43C
102
}
330
43C
100
AcDbDictionary
281
     1
1001
ACAD
1000
<All
  0
DICTIONARY
  5
E31
102
{ACAD_REACTORS
330
43C
102
}
330
43C
100
AcDbDictionary
280
     1
281
     1
  0
XRECORD
  5
172E
102
{ACAD_REACTORS
330
52D
102
}
330
52D
100
AcDbXrecord
280
     1
290
     1
  0
XRECORD
  5
172F
102
{ACAD_REACTORS
330
52F
102
}
330
52F
100
AcDbXrecord
280
     1
290
     1
  0
XRECORD
  5
1730
102
{ACAD_REACTORS
330
531
102
}
330
531
100
AcDbXrecord
280
     1
290
     1
  0
XRECORD
  5
1731
102
{ACAD_REACTORS
330
533
102
}
330
533
100
AcDbXrecord
280
     1
290
     1
  0
XRECORD
  5
1732
102
{ACAD_REACTORS
330
537
102
}
330
537
100
AcDbXrecord
280
     1
290
     1
  0
XRECORD
  5
1733
102
{ACAD_REACTORS
330
545
102
}
330
545
100
AcDbXrecord
280
     1
290
     1
  0
SORTENTSTABLE
  5
DB2
102
{ACAD_REACTORS
330
DB1
102
}
330
DB1
100
AcDbSortentsTable
330
18
  0
XRECORD
  5
1773
102
{ACAD_REACTORS
330
B5E
102
}
330
B5E
100
AcDbXrecord
280
     1
102
SHADEPLOT
 70
     0
  0
XRECORD
  5
B5F
102
{ACAD_REACTORS
330
B5E
102
}
330
B5E
100
AcDbXrecord
280
     1
 90
        1
340
44E
  0
XRECORD
  5
1774
102
{ACAD_REACTORS
330
B62
102
}
330
B62
100
AcDbXrecord
280
     1
102
SHADEPLOT
 70
     0
  0
XRECORD
  5
B63
102
{ACAD_REACTORS
330
B62
102
}
330
B62
100
AcDbXrecord
280
     1
 90
        1
340
44E
  0
XRECORD
  5
173A
102
{ACAD_REACTORS
330
1739
102
}
330
1739
100
AcDbXrecord
280
     1
 70
     1
  0
XRECORD
  5
173B
102
{ACAD_REACTORS
330
1739
102
}
330
1739
100
AcDbXrecord
280
     1
 40
1.570796326794896
  0
ACDBDETAILVIEWSTYLE
  5
CF0
102
{ACAD_XDICTIONARY
360
D27
102
}
102
{ACAD_REACTORS
330
CEF
330
D05
102
}
330
CEF
100
AcDbModelDocViewStyle
 70
     0
  3
Metric50
290
     0
100
AcDbDetailViewStyle
 70
     0
 71
     0
 90
        3
 71
     1
340
10
 40
5.0
340
0
 40
5.0
300

 40
0.0
280
     1
 71
     2
340
14
 90
       25
 71
     3
340
10
 40
5.0
 90
        0
 40
15.0
 90
        1
300
%<\AcVar ViewDetailId>% (%<\AcVar ViewScale \f "%sn">%)
 71
     4
340
14
 90
       25
340
14
 90
       25
280
     0
  0
LAYOUT
  5
B57
102
{ACAD_XDICTIONARY
360
B74
102
}
102
{ACAD_REACTORS
330
301
102
}
330
301
100
AcDbPlotSettings
  1

  2
DWG To PDF.pc3
  4
UserDefinedMetric (297.00 x 210.00mm)
  6

 40
0.0
 41
0.0
 42
0.0
 43
0.0
 44
297.0
 45
210.0
 46
0.0
 47
0.0
 48
0.0
 49
0.0
140
0.0
141
0.0
142
1.0
143
1.0
 70
   688
 72
     1
 73
     0
 74
     5
  7
monochrome.ctb
 75
    16
147
1.0
148
0.0
149
0.0
100
AcDbLayout
  1
Layout1
 70
     1
 71
     1
 10
0.0
 20
0.0
 11
297.0
 21
210.0
 12
0.0
 22
0.0
 32
0.0
 14
-0.0226558438690745
 24
-0.0160192835437556
 34
-0.000000000000013
 15
297.000001383183
 25
210.0000009780083
 35
0.0000000000000023
146
0.0
 13
0.0
 23
0.0
 33
0.0
 16
1.0
 26
0.0
 36
0.0
 17
0.0
 27
1.0
 37
0.0
 76
     0
330
B56
331
B5D
1001
ACAD_PSEXT
1000
DWG To PDF.pc3
1000
PDF
1000
Datei
1000

1070
     0
  0
LAYOUT
  5
303
102
{ACAD_XDICTIONARY
360
BEF
102
}
102
{ACAD_REACTORS
330
301
102
}
330
301
100
AcDbPlotSettings
  1

  2
Default Windows System Printer.pc3
  4
A4
  6

 40
4.233333110809326
 41
4.995328426361083
 42
4.233322143554687
 43
4.995330810546875
 44
209.9733276367187
 45
296.9683227539062
 46
0.0
 47
97.55556227323859
 48
0.0
 49
0.0
140
0.0
141
0.0
142
1.0
143
6.090554118624327
 70
  3764
 72
     1
 73
     1
 74
     1
  7
monochrome.ctb
 75
     0
147
0.164188673234525
148
197.0402205952446
149
599.0551752795641
100
AcDbLayout
  1
Model
 70
     1
 71
     0
 10
0.0
 20
0.0
 11
12.0
 21
9.0
 12
0.0
 22
0.0
 32
0.0
 14
0.0
 24
0.0
 34
0.0
 15
0.0
 25
0.0
 35
0.0
146
0.0
 13
0.0
 23
0.0
 33
0.0
 16
1.0
 26
0.0
 36
0.0
 17
0.0
 27
1.0
 37
0.0
 76
     0
330
18
331
AD1
1001
ACAD_PSEXT
1000
Default Windows System Printer.pc3
1000
HP LaserJet 5100 PCL 6
1000
HPLaserJet5100Series
1000

1070
     0
  0
MATERIAL
  5
3F0
102
{ACAD_XDICTIONARY
360
1748
102
}
102
{ACAD_REACTORS
330
386
102
}
330
386
100
AcDbMaterial
  1
ByBlock
 73
     1
 78
     1
172
     1
176
     1
270
     1
274
     1
  0
MATERIAL
  5
3EF
102
{ACAD_XDICTIONARY
360
1746
102
}
102
{ACAD_REACTORS
330
386
102
}
330
386
100
AcDbMaterial
  1
ByLayer
 73
     1
 78
     1
172
     1
176
     1
270
     1
274
     1
  0
MATERIAL
  5
3F1
102
{ACAD_XDICTIONARY
360
174A
102
}
102
{ACAD_REACTORS
330
386
102
}
330
386
100
AcDbMaterial
  1
Global
 73
     1
 78
     1
172
     1
176
     1
270
     1
274
     1
  0
MLEADERSTYLE
  5
470
102
{ACAD_XDICTIONARY
360
176C
102
}
102
{ACAD_REACTORS
330
46F
102
}
330
46F
100
AcDbMLeaderStyle
170
     2
171
     1
172
     0
 90
        2
 40
0.0
 41
0.0
173
     1
 91
-1056964608
340
12
 92
       -2
290
     1
 42
2.0
291
     1
 43
0.36
  3
Standard
 44
5.0
300

342
10
174
     0
178
     6
175
     1
176
     0
 93
-1056964608
 45
3.5
292
     0
297
     0
 46
4.0
 94
-1056964608
 47
1.0
 49
1.0
140
1.0
293
     1
141
0.0
294
     1
177
     0
142
1.0
295
     0
296
     0
143
0.125
1001
ACAD_MLEADERVER
1070
     2
  0
MLINESTYLE
  5
1B
102
{ACAD_REACTORS
330
E
102
}
330
E
100
AcDbMlineStyle
  2
STANDARD
 70
     0
  3

 62
     0
 51
90.0
 52
90.0
 71
     2
 49
0.5
 62
   256
  6
BYLAYER
 49
-0.5
 62
   256
  6
BYLAYER
  0
PLOTSETTINGS
  5
7EF
102
{ACAD_XDICTIONARY
360
176E
102
}
102
{ACAD_REACTORS
330
302
102
}
330
302
100
AcDbPlotSettings
  1
DWG To PDF A4 - landscape
  2
DWG To PDF.pc3
  4
ISO_expand_A4_(297.00_x_210.00_MM)
  6

 40
5.793749809265136
 41
10.79374980926513
 42
5.79376220703125
 43
10.79374694824219
 44
297.0
 45
210.0
 46
99.7577788938406
 47
0.0
 48
0.0
 49
0.0
140
0.0
141
0.0
142
1.0
143
6.513831472368249
 70
 11956
 72
     1
 73
     0
 74
     1
  7
monochrome.ctb
 75
     0
147
0.153519476861201
148
197.0402205952446
149
599.0551752795641
1001
ACAD_PSEXT
1000
DWG To PDF.pc3
1000
PDF
1000
Datei
1000

1070
     0
  0
PLOTSETTINGS
  5
7F8
102
{ACAD_XDICTIONARY
360
1770
102
}
102
{ACAD_REACTORS
330
302
102
}
330
302
100
AcDbPlotSettings
  1
DWG To PDF A4 - portrait
  2
DWG To PDF.pc3
  4
ISO_expand_A4_(210.00_x_297.00_MM)
  6

 40
5.793749809265136
 41
10.79374980926513
 42
5.793746948242187
 43
10.79376220703125
 44
210.0
 45
297.0
 46
36.42621619811505
 47
0.0
 48
0.0
 49
0.0
140
0.0
141
0.0
142
1.0
143
4.456178811620383
 70
 11956
 72
     1
 73
     0
 74
     1
  7
monochrome.ctb
 75
     0
147
0.2244075119679441
148
197.0402205952446
149
599.0551752795641
1001
ACAD_PSEXT
1000
DWG To PDF.pc3
1000
PDF
1000
Datei
1000

1070
     0
  0
ACDBPLACEHOLDER
  5
300
102
{ACAD_REACTORS
330
2FF
102
}
330
2FF
  0
SCALE
  5
BFC
102
{ACAD_REACTORS
330
44D
102
}
330
44D
100
AcDbScale
 70
     0
300
100:1
140
100.0
141
1.0
290
     0
  0
SCALE
  5
BFD
102
{ACAD_REACTORS
330
44D
102
}
330
44D
100
AcDbScale
 70
     0
300
50:1
140
50.0
141
1.0
290
     0
  0
SCALE
  5
BFE
102
{ACAD_REACTORS
330
44D
102
}
330
44D
100
AcDbScale
 70
     0
300
20:1
140
20.0
141
1.0
290
     0
  0
SCALE
  5
BFF
102
{ACAD_REACTORS
330
44D
102
}
330
44D
100
AcDbScale
 70
     0
300
10:1
140
10.0
141
1.0
290
     0
  0
SCALE
  5
C00
102
{ACAD_REACTORS
330
44D
102
}
330
44D
100
AcDbScale
 70
     0
300
5:1
140
5.0
141
1.0
290
     0
  0
SCALE
  5
C01
102
{ACAD_REACTORS
330
44D
102
}
330
44D
100
AcDbScale
 70
     0
300
2:1
140
2.0
141
1.0
290
     0
  0
SCALE
  5
44E
102
{ACAD_REACTORS
330
44D
102
}
330
44D
100
AcDbScale
 70
     0
300
1:1
140
1.0
141
1.0
290
     1
  0
SCALE
  5
C02
102
{ACAD_REACTORS
330
44D
102
}
330
44D
100
AcDbScale
 70
     0
300
1:2
140
1.0
141
2.0
290
     0
  0
SCALE
  5
C03
102
{ACAD_REACTORS
330
44D
102
}
330
44D
100
AcDbScale
 70
     0
300
1:5
140
1.0
141
5.0
290
     0
  0
SCALE
  5
C04
102
{ACAD_REACTORS
330
44D
102
}
330
44D
100
AcDbScale
 70
     0
300
1:10
140
1.0
141
10.0
290
     0
  0
SCALE
  5
C05
102
{ACAD_REACTORS
330
44D
102
}
330
44D
100
AcDbScale
 70
     0
300
1:20
140
1.0
141
20.0
290
     0
  0
SCALE
  5
C06
102
{ACAD_REACTORS
330
44D
102
}
330
44D
100
AcDbScale
 70
     0
300
1:50
140
1.0
141
50.0
290
     0
  0
SCALE
  5
C07
102
{ACAD_REACTORS
330
44D
102
}
330
44D
100
AcDbScale
 70
     0
300
1:100
140
1.0
141
100.0
290
     0
  0
ACDBSECTIONVIEWSTYLE
  5
CEE
102
{ACAD_XDICTIONARY
360
D25
102
}
102
{ACAD_REACTORS
330
CED
330
D04
102
}
330
CED
100
AcDbModelDocViewStyle
 70
     0
  3
Metric50
290
     0
100
AcDbSectionViewStyle
 70
     0
 71
     0
 90
      102
 71
     1
340
10
 40
5.0
340
0
340
0
 40
5.0
300
I, O, Q, S, X, Z
 40
10.0
 90
        0
 40
2.5
 90
        0
 71
     2
340
14
 90
       25
340
14
 90
       50
 40
5.0
 40
2.5
 40
5.0
 71
     3
340
10
 40
5.0
 90
        0
 40
15.0
 90
        1
300
%<\AcVar ViewSectionStartId>%-%<\AcVar ViewSectionEndId>% (%<\AcVar ViewScale \f "%sn">%)
 71
     4
300
ANSI31
 40
1.0
 90
        0
290
     0
290
     0
 90
        6
 40
0.0
 40
1.570796326794896
 40
0.2617993877991494
 40
1.308996938995747
 40
-0.2617993877991494
 40
1.832595714594046
  0
TABLESTYLE
  5
389
102
{ACAD_XDICTIONARY
360
577
102
}
102
{ACAD_REACTORS
330
388
102
}
330
388
100
AcDbTableStyle
  3
Standard
 70
     0
 71
     0
 40
1.5
 41
1.5
280
     0
281
     0
  7
STANDARD
140
4.5
170
     2
 62
     0
 63
     7
283
     0
274
    -2
284
     1
 64
     0
275
    -2
285
     1
 65
     0
276
    -2
286
     1
 66
     0
277
    -2
287
     1
 67
     0
278
    -2
288
     1
 68
     0
279
    -2
289
     1
 69
     0
  7
STANDARD 5 mm
140
6.0
170
     5
 62
     0
 63
     7
283
     0
274
    -2
284
     1
 64
     0
275
    -2
285
     1
 65
     0
276
    -2
286
     1
 66
     0
277
    -2
287
     1
 67
     0
278
    -2
288
     1
 68
     0
279
    -2
289
     1
 69
     0
  7
STANDARD
140
4.5
170
     5
 62
     0
 63
     7
283
     0
274
    -2
284
     1
 64
     0
275
    -2
285
     1
 65
     0
276
    -2
286
     1
 66
     0
277
    -2
287
     1
 67
     0
278
    -2
288
     1
 68
     0
279
    -2
289
     1
 69
     0
  0
VISUALSTYLE
  5
3F8
102
{ACAD_XDICTIONARY
360
1756
102
}
102
{ACAD_REACTORS
330
3F2
102
}
330
3F2
100
AcDbVisualStyle
  2
2dWireframe
 70
     4
 71
     0
 72
     2
 73
     0
 90
        0
 40
-0.6
 41
-30.0
 62
     5
 63
     7
 74
     1
 91
        4
 64
     7
 65
   257
 75
     1
175
     1
 42
1.0
 92
        0
 66
   257
 43
1.0
 76
     1
 77
     6
 78
     2
 67
     7
 79
     5
170
     0
171
     0
290
     0
174
     0
 93
        1
 44
0.0
173
     0
291
     0
 45
0.0
1001
ACAD
1000
AcDbSavedByObjectVersion
1070
     0
  0
VISUALSTYLE
  5
3FA
102
{ACAD_XDICTIONARY
360
175A
102
}
102
{ACAD_REACTORS
330
3F2
102
}
330
3F2
100
AcDbVisualStyle
  2
3D Hidden
 70
     6
 71
     1
 72
     2
 73
     2
 90
        0
 40
-0.6
 41
-30.0
 62
     5
 63
     7
 74
     2
 91
        2
 64
     7
 65
   257
 75
     2
175
     1
 42
40.0
 92
        0
 66
   257
 43
1.0
 76
     1
 77
     6
 78
     2
 67
     7
 79
     3
170
     0
171
     0
290
     0
174
     0
 93
        1
 44
0.0
173
     0
291
     0
 45
0.0
1001
ACAD
1000
AcDbSavedByObjectVersion
1070
     0
  0
VISUALSTYLE
  5
3F9
102
{ACAD_XDICTIONARY
360
1758
102
}
102
{ACAD_REACTORS
330
3F2
102
}
330
3F2
100
AcDbVisualStyle
  2
3dWireframe
 70
     5
 71
     0
 72
     2
 73
     0
 90
        0
 40
-0.6
 41
-30.0
 62
     5
 63
     7
 74
     1
 91
        4
 64
     7
 65
   257
 75
     1
175
     1
 42
1.0
 92
        0
 66
   257
 43
1.0
 76
     1
 77
     6
 78
     2
 67
     7
 79
     5
170
     0
171
     0
290
     0
174
     0
 93
        1
 44
0.0
173
     0
291
     0
 45
0.0
1001
ACAD
1000
AcDbSavedByObjectVersion
1070
     0
  0
VISUALSTYLE
  5
3F7
102
{ACAD_XDICTIONARY
360
1754
102
}
102
{ACAD_REACTORS
330
3F2
102
}
330
3F2
100
AcDbVisualStyle
  2
Basic
 70
     7
 71
     1
 72
     0
 73
     1
 90
        0
 40
-0.6
 41
-30.0
 62
     5
 63
     7
 74
     0
 91
        4
 64
     7
 65
   257
 75
     1
175
     1
 42
1.0
 92
        8
 66
     7
 43
1.0
 76
     1
 77
     6
 78
     2
 67
     7
 79
     5
170
     0
171
     0
290
     0
174
     0
 93
        1
 44
0.0
173
     0
291
     1
 45
0.0
1001
ACAD
1000
AcDbSavedByObjectVersion
1070
     0
  0
VISUALSTYLE
  5
3FE
102
{ACAD_XDICTIONARY
360
1762
102
}
102
{ACAD_REACTORS
330
3F2
102
}
330
3F2
100
AcDbVisualStyle
  2
Brighten
 70
    12
 71
     2
 72
     2
 73
     0
 90
        0
 40
-0.6
 41
-30.0
 62
     5
 63
     7
 74
     1
 91
        4
 64
     7
 65
   257
 75
     1
175
     1
 42
1.0
 92
        8
 66
     7
 43
1.0
 76
     1
 77
     6
 78
     2
 67
     7
 79
     5
170
     0
171
     0
290
     0
174
     0
 93
        1
 44
50.0
173
     0
291
     1
 45
0.0
1001
ACAD
1000
AcDbSavedByObjectVersion
1070
     0
  0
VISUALSTYLE
  5
402
102
{ACAD_XDICTIONARY
360
176A
102
}
102
{ACAD_REACTORS
330
3F2
102
}
330
3F2
100
AcDbVisualStyle
  2
ColorChange
 70
    16
 71
     2
 72
     2
 73
     3
 90
        0
 40
-0.6
 41
-30.0
 62
     5
 63
     8
 74
     1
 91
        4
 64
     7
 65
   257
 75
     1
175
     1
 42
1.0
 92
        8
 66
     8
 43
1.0
 76
     1
 77
     6
 78
     2
 67
     7
 79
     5
170
     0
171
     0
290
     0
174
     0
 93
        1
 44
0.0
173
     0
291
     1
 45
0.0
1001
ACAD
1000
AcDbSavedByObjectVersion
1070
     0
  0
VISUALSTYLE
  5
3FB
102
{ACAD_XDICTIONARY
360
175C
102
}
102
{ACAD_REACTORS
330
3F2
102
}
330
3F2
100
AcDbVisualStyle
  2
Conceptual
 70
     9
 71
     3
 72
     2
 73
     0
 90
        0
 40
-0.6
 41
-30.0
 62
     5
 63
     7
 74
     2
 91
        2
 64
     7
 65
   257
 75
     1
175
     1
 42
40.0
 92
        8
 66
     7
 43
1.0
 76
     1
 77
     6
 78
     2
 67
     7
 79
     3
170
     0
171
     0
290
     0
174
     0
 93
        1
 44
0.0
173
     0
291
     0
 45
0.0
1001
ACAD
1000
AcDbSavedByObjectVersion
1070
     0
  0
VISUALSTYLE
  5
3FD
102
{ACAD_XDICTIONARY
360
1760
102
}
102
{ACAD_REACTORS
330
3F2
102
}
330
3F2
100
AcDbVisualStyle
  2
Dim
 70
    11
 71
     2
 72
     2
 73
     0
 90
        0
 40
-0.6
 41
-30.0
 62
     5
 63
     7
 74
     1
 91
        4
 64
     7
 65
   257
 75
     1
175
     1
 42
1.0
 92
        8
 66
     7
 43
1.0
 76
     1
 77
     6
 78
     2
 67
     7
 79
     5
170
     0
171
     0
290
     0
174
     0
 93
        1
 44
-50.0
173
     0
291
     1
 45
0.0
1001
ACAD
1000
AcDbSavedByObjectVersion
1070
     0
  0
VISUALSTYLE
  5
BDF
102
{ACAD_XDICTIONARY
360
1779
102
}
102
{ACAD_REACTORS
330
3F2
102
}
330
3F2
100
AcDbVisualStyle
  2
EdgeColorOff
 70
    22
 71
     2
 72
     2
 73
     0
 90
        0
 40
-0.6
 41
-30.0
 62
     5
 63
     7
 74
     1
 91
        4
 64
     7
 65
   257
 75
     1
175
     1
 42
1.0
 92
        8
 66
     7
 43
1.0
 76
     1
 77
     6
 78
     2
 67
     7
 79
     5
170
     0
171
     0
290
     0
174
     0
 93
        1
 44
0.0
173
     0
291
     1
 45
0.0
1001
ACAD
1000
AcDbSavedByObjectVersion
1070
     0
  0
VISUALSTYLE
  5
401
102
{ACAD_XDICTIONARY
360
1768
102
}
102
{ACAD_REACTORS
330
3F2
102
}
330
3F2
100
AcDbVisualStyle
  2
Facepattern
 70
    15
 71
     2
 72
     2
 73
     0
 90
        0
 40
-0.6
 41
-30.0
 62
     5
 63
     7
 74
     1
 91
        4
 64
     7
 65
   257
 75
     1
175
     1
 42
1.0
 92
        8
 66
     7
 43
1.0
 76
     1
 77
     6
 78
     2
 67
     7
 79
     5
170
     0
171
     0
290
     0
174
     0
 93
        1
 44
0.0
173
     0
291
     1
 45
0.0
1001
ACAD
1000
AcDbSavedByObjectVersion
1070
     0
  0
VISUALSTYLE
  5
3F3
102
{ACAD_XDICTIONARY
360
174C
102
}
102
{ACAD_REACTORS
330
3F2
102
}
330
3F2
100
AcDbVisualStyle
  2
Flat
 70
     0
 71
     2
 72
     1
 73
     1
 90
        2
 40
-0.6
 41
30.0
 62
     5
 63
     7
 74
     0
 91
        4
 64
     7
 65
   257
 75
     1
175
     1
 42
1.0
 92
        8
 66
     7
 43
1.0
 76
     1
 77
     6
 78
     2
 67
     7
 79
     5
170
     0
171
     0
290
     0
174
     0
 93
       13
 44
0.0
173
     0
291
     1
 45
0.0
1001
ACAD
1000
AcDbSavedByObjectVersion
1070
     0
  0
VISUALSTYLE
  5
3F4
102
{ACAD_XDICTIONARY
360
174E
102
}
102
{ACAD_REACTORS
330
3F2
102
}
330
3F2
100
AcDbVisualStyle
  2
FlatWithEdges
 70
     1
 71
     2
 72
     1
 73
     1
 90
        2
 40
-0.6
 41
30.0
 62
     5
 63
     7
 74
     1
 91
        4
 64
     7
 65
   257
 75
     1
175
     1
 42
1.0
 92
        0
 66
   257
 43
1.0
 76
     1
 77
     6
 78
     2
 67
     7
 79
     5
170
     0
171
     0
290
     0
174
     0
 93
       13
 44
0.0
173
     0
291
     1
 45
0.0
1001
ACAD
1000
AcDbSavedByObjectVersion
1070
     0
  0
VISUALSTYLE
  5
3F5
102
{ACAD_XDICTIONARY
360
1750
102
}
102
{ACAD_REACTORS
330
3F2
102
}
330
3F2
100
AcDbVisualStyle
  2
Gouraud
 70
     2
 71
     2
 72
     2
 73
     1
 90
        2
 40
-0.6
 41
30.0
 62
     5
 63
     7
 74
     0
 91
        4
 64
     7
 65
   257
 75
     1
175
     1
 42
1.0
 92
        0
 66
     7
 43
1.0
 76
     1
 77
     6
 78
     2
 67
     7
 79
     5
170
     0
171
     0
290
     0
174
     0
 93
       13
 44
0.0
173
     0
291
     1
 45
0.0
1001
ACAD
1000
AcDbSavedByObjectVersion
1070
     0
  0
VISUALSTYLE
  5
3F6
102
{ACAD_XDICTIONARY
360
1752
102
}
102
{ACAD_REACTORS
330
3F2
102
}
330
3F2
100
AcDbVisualStyle
  2
GouraudWithEdges
 70
     3
 71
     2
 72
     2
 73
     1
 90
        2
 40
-0.6
 41
30.0
 62
     5
 63
     7
 74
     1
 91
        4
 64
     7
 65
   257
 75
     1
175
     1
 42
1.0
 92
        0
 66
   257
 43
1.0
 76
     1
 77
     6
 78
     2
 67
     7
 79
     5
170
     0
171
     0
290
     0
174
     0
 93
       13
 44
0.0
173
     0
291
     1
 45
0.0
1001
ACAD
1000
AcDbSavedByObjectVersion
1070
     0
  0
VISUALSTYLE
  5
CE7
102
{ACAD_XDICTIONARY
360
177D
102
}
102
{ACAD_REACTORS
330
3F2
102
}
330
3F2
100
AcDbVisualStyle
  2
Hidden
 70
     6
 71
     1
 72
     2
 73
     2
 90
        0
 40
-0.6
 41
-30.0
 62
     5
 63
     7
 74
     2
 91
        2
 64
     7
 65
   257
 75
     2
175
     1
 42
40.0
 92
        0
 66
   257
 43
1.0
 76
     1
 77
     6
 78
     2
 67
     7
 79
     3
170
     0
171
     0
290
     0
174
     0
 93
        1
 44
0.0
173
     0
291
     0
 45
0.0
1001
ACAD
1000
AcDbSavedByObjectVersion
1070
     0
  0
VISUALSTYLE
  5
BDD
102
{ACAD_XDICTIONARY
360
1775
102
}
102
{ACAD_REACTORS
330
3F2
102
}
330
3F2
100
AcDbVisualStyle
  2
JitterOff
 70
    20
 71
     2
 72
     2
 73
     0
 90
        0
 40
-0.6
 41
-30.0
 62
     5
 63
     7
 74
     1
 91
        4
 64
     7
 65
   257
 75
     1
175
     1
 42
1.0
 92
       10
 66
     7
 43
1.0
 76
     1
 77
     6
 78
     2
 67
     7
 79
     5
170
     0
171
     0
290
     0
174
     0
 93
        1
 44
0.0
173
     0
291
     1
 45
0.0
1001
ACAD
1000
AcDbSavedByObjectVersion
1070
     0
  0
VISUALSTYLE
  5
400
102
{ACAD_XDICTIONARY
360
1766
102
}
102
{ACAD_REACTORS
330
3F2
102
}
330
3F2
100
AcDbVisualStyle
  2
Linepattern
 70
    14
 71
     2
 72
     2
 73
     0
 90
        0
 40
-0.6
 41
-30.0
 62
     5
 63
     7
 74
     1
 91
        4
 64
     7
 65
   257
 75
     7
175
     7
 42
1.0
 92
        8
 66
     7
 43
1.0
 76
     1
 77
     6
 78
     2
 67
     7
 79
     5
170
     0
171
     0
290
     0
174
     0
 93
        1
 44
0.0
173
     0
291
     1
 45
0.0
1001
ACAD
1000
AcDbSavedByObjectVersion
1070
     0
  0
VISUALSTYLE
  5
BDE
102
{ACAD_XDICTIONARY
360
1777
102
}
102
{ACAD_REACTORS
330
3F2
102
}
330
3F2
100
AcDbVisualStyle
  2
OverhangOff
 70
    21
 71
     2
 72
     2
 73
     0
 90
        0
 40
-0.6
 41
-30.0
 62
     5
 63
     7
 74
     1
 91
        4
 64
     7
 65
   257
 75
     1
175
     1
 42
1.0
 92
        9
 66
     7
 43
1.0
 76
     1
 77
     6
 78
     2
 67
     7
 79
     5
170
     0
171
     0
290
     0
174
     0
 93
        1
 44
0.0
173
     0
291
     1
 45
0.0
1001
ACAD
1000
AcDbSavedByObjectVersion
1070
     0
  0
VISUALSTYLE
  5
3FC
102
{ACAD_XDICTIONARY
360
175E
102
}
102
{ACAD_REACTORS
330
3F2
102
}
330
3F2
100
AcDbVisualStyle
  2
Realistic
 70
     8
 71
     2
 72
     2
 73
     0
 90
        0
 40
-0.6
 41
-30.0
 62
     5
 63
     7
 74
     1
 91
        0
 64
     7
 65
   257
 75
     1
175
     1
 42
1.0
 92
        8
 66
     8
 43
1.0
 76
     1
 77
     6
 78
     2
 67
     7
 79
     5
170
     0
171
     0
290
     0
174
     0
 93
       13
 44
0.0
173
     0
291
     0
 45
0.0
1001
ACAD
1000
AcDbSavedByObjectVersion
1070
     0
  0
VISUALSTYLE
  5
CEC
102
{ACAD_XDICTIONARY
360
1787
102
}
102
{ACAD_REACTORS
330
3F2
102
}
330
3F2
100
AcDbVisualStyle
  2
Shaded
 70
    27
 71
     2
 72
     2
 73
     1
 90
        2
 40
-0.6
 41
30.0
 62
     5
 63
     7
 74
     0
 91
        4
 64
     7
 65
   257
 75
     1
175
     1
 42
1.0
 92
        8
 66
   257
 43
1.0
 76
     1
 77
     6
 78
     2
 67
     8
 79
     3
170
     0
171
     0
290
     0
174
     0
 93
        5
 44
0.0
173
     0
291
     0
 45
0.0
1001
ACAD
1000
AcDbSavedByObjectVersion
1070
     0
  0
VISUALSTYLE
  5
CEB
102
{ACAD_XDICTIONARY
360
1785
102
}
102
{ACAD_REACTORS
330
3F2
102
}
330
3F2
100
AcDbVisualStyle
  2
Shaded with edges
 70
    26
 71
     2
 72
     2
 73
     1
 90
        2
 40
-0.6
 41
30.0
 62
     5
 63
     7
 74
     1
 91
       10
 64
     7
 65
   257
 75
     2
175
     1
 42
1.0
 92
        8
 66
   257
 43
1.0
 76
     1
 77
     6
 78
     2
 67
     7
 79
     3
170
     0
171
     0
290
     0
174
     0
 93
        5
 44
0.0
173
     0
291
     0
 45
0.0
1001
ACAD
1000
AcDbSavedByObjectVersion
1070
     0
  0
VISUALSTYLE
  5
CE8
102
{ACAD_XDICTIONARY
360
177F
102
}
102
{ACAD_REACTORS
330
3F2
102
}
330
3F2
100
AcDbVisualStyle
  2
Shades of Gray
 70
    23
 71
     2
 72
     2
 73
     3
 90
        0
 40
-0.6
 41
-30.0
 62
     5
 63
     7
 74
     2
 91
        2
 64
     7
 65
     7
 75
     1
175
     1
 42
40.0
 92
        8
 66
     7
 43
1.0
 76
     1
 77
     6
 78
     2
 67
     7
 79
     3
170
     0
171
     0
290
     0
174
     0
 93
        1
 44
0.0
173
     0
291
     0
 45
0.0
1001
ACAD
1000
AcDbSavedByObjectVersion
1070
     0
  0
VISUALSTYLE
  5
CE9
102
{ACAD_XDICTIONARY
360
1781
102
}
102
{ACAD_REACTORS
330
3F2
102
}
330
3F2
100
AcDbVisualStyle
  2
Sketchy
 70
    24
 71
     1
 72
     2
 73
     2
 90
        0
 40
-0.6
 41
-30.0
 62
     5
 63
     7
 74
     2
 91
        2
 64
     7
 65
     7
 75
     1
175
     1
 42
40.0
 92
       11
 66
     7
 43
1.0
 76
     1
 77
     6
 78
     2
 67
     7
 79
     6
170
     0
171
     0
290
     0
174
     0
 93
        1
 44
0.0
173
     0
291
     0
 45
0.0
1001
ACAD
1000
AcDbSavedByObjectVersion
1070
     0
  0
VISUALSTYLE
  5
3FF
102
{ACAD_XDICTIONARY
360
1764
102
}
102
{ACAD_REACTORS
330
3F2
102
}
330
3F2
100
AcDbVisualStyle
  2
Thicken
 70
    13
 71
     2
 72
     2
 73
     0
 90
        0
 40
-0.6
 41
-30.0
 62
     5
 63
     7
 74
     1
 91
        4
 64
     7
 65
   257
 75
     1
175
     1
 42
1.0
 92
       12
 66
     7
 43
1.0
 76
     1
 77
     6
 78
     2
 67
     7
 79
     5
170
     0
171
     0
290
     0
174
     0
 93
        1
 44
0.0
173
     0
291
     1
 45
0.0
1001
ACAD
1000
AcDbSavedByObjectVersion
1070
     0
  0
VISUALSTYLE
  5
CE6
102
{ACAD_XDICTIONARY
360
177B
102
}
102
{ACAD_REACTORS
330
3F2
102
}
330
3F2
100
AcDbVisualStyle
  2
Wireframe
 70
     5
 71
     0
 72
     2
 73
     0
 90
        0
 40
-0.6
 41
-30.0
 62
     5
 63
     7
 74
     1
 91
        4
 64
     7
 65
   257
 75
     1
175
     1
 42
1.0
 92
        0
 66
   257
 43
1.0
 76
     1
 77
     6
 78
     2
 67
     7
 79
     3
170
     0
171
     0
290
     0
174
     0
 93
        1
 44
0.0
173
     0
291
     0
 45
0.0
1001
ACAD
1000
AcDbSavedByObjectVersion
1070
     0
  0
VISUALSTYLE
  5
CEA
102
{ACAD_XDICTIONARY
360
1783
102
}
102
{ACAD_REACTORS
330
3F2
102
}
330
3F2
100
AcDbVisualStyle
  2
X-Ray
 70
    25
 71
     2
 72
     2
 73
     1
 90
        1
 40
0.5
 41
-30.0
 62
     5
 63
     7
 74
     1
 91
        0
 64
     7
 65
   257
 75
     1
175
     1
 42
1.0
 92
        8
 66
     7
 43
1.0
 76
     1
 77
     6
 78
     2
 67
     7
 79
     3
170
     0
171
     0
290
     0
174
     0
 93
       13
 44
0.0
173
     0
291
     0
 45
0.0
1001
ACAD
1000
AcDbSavedByObjectVersion
1070
     0
  0
DICTIONARYVAR
  5
57C
102
{ACAD_REACTORS
330
357
102
}
330
357
100
DictionaryVariables
280
     0
  1
1:1
  0
DICTIONARYVAR
  5
57A
102
{ACAD_REACTORS
330
357
102
}
330
357
100
DictionaryVariables
280
     0
  1
STANDARD
  0
DICTIONARYVAR
  5
38E
102
{ACAD_REACTORS
330
357
102
}
330
357
100
DictionaryVariables
280
     0
  1
STANDARD
  0
DICTIONARYVAR
  5
D2C
102
{ACAD_REACTORS
330
357
102
}
330
357
100
DictionaryVariables
280
     0
  1
Metric50
  0
DICTIONARYVAR
  5
D2D
102
{ACAD_REACTORS
330
357
102
}
330
357
100
DictionaryVariables
280
     0
  1
Metric50
  0
DICTIONARYVAR
  5
359
102
{ACAD_REACTORS
330
357
102
}
330
357
100
DictionaryVariables
280
     0
  1
2
  0
DICTIONARYVAR
  5
358
102
{ACAD_REACTORS
330
357
102
}
330
357
100
DictionaryVariables
280
     0
  1
1
  0
DICTIONARYVAR
  5
ACC
102
{ACAD_REACTORS
330
357
102
}
330
357
100
DictionaryVariables
280
     0
  1
0
  0
DICTIONARYVAR
  5
BF1
102
{ACAD_REACTORS
330
357
102
}
330
357
100
DictionaryVariables
280
     0
  1
1
  0
DICTIONARYVAR
  5
BF2
102
{ACAD_REACTORS
330
357
102
}
330
357
100
DictionaryVariables
280
     0
  1
15
  0
DICTIONARYVAR
  5
57D
102
{ACAD_REACTORS
330
357
102
}
330
357
100
DictionaryVariables
280
     0
  1
0
  0
DICTIONARYVAR
  5
57B
102
{ACAD_REACTORS
330
357
102
}
330
357
100
DictionaryVariables
280
     0
  1
0
  0
DICTIONARYVAR
  5
1735
102
{ACAD_REACTORS
330
357
102
}
330
357
100
DictionaryVariables
280
     0
  1
1
  0
DICTIONARYVAR
  5
ACB
102
{ACAD_REACTORS
330
357
102
}
330
357
100
DictionaryVariables
280
     0
  1
127
  0
DICTIONARYVAR
  5
1734
102
{ACAD_REACTORS
330
357
102
}
330
357
100
DictionaryVariables
280
     0
  1
0
  0
DICTIONARY
  5
1743
102
{ACAD_REACTORS
330
1741
102
}
330
1741
100
AcDbDictionary
281
     1
  0
DICTIONARY
  5
1742
102
{ACAD_REACTORS
330
1741
102
}
330
1741
100
AcDbDictionary
281
     1
  3
8796088156992
350
173C
  3
8796088157008
350
173D
  3
8796088157024
350
173E
  3
8796088157040
350
173F
  3
8796088157056
350
1740
  0
DICTIONARY
  5
4DC
102
{ACAD_REACTORS
330
4D1
102
}
330
4D1
100
AcDbDictionary
281
     1
  0
XRECORD
  5
4F3
102
{ACAD_REACTORS
330
4D1
102
}
330
4D1
100
AcDbXrecord
280
     1
 90
-1023410169
  0
XRECORD
  5
8E9
102
{ACAD_REACTORS
330
567
102
}
330
567
100
AcDbXrecord
280
     1
 91
     1023
301

290
     0
302
1
  8
200
 90
        8
 62
     2
370
    50
331
14
  1
Color_2
  8
160
 90
        8
 62
     1
370
    35
331
14
  1
Color_1
  8
150
 90
        8
 62
    96
370
    50
331
14
  1
Color_96
 92
-1040154880
  8
140
 90
        8
 62
     5
370
    35
331
14
  1
Color_5
  8
130
 90
        8
 62
     6
370
    35
331
14
  1
Color_6
  8
120
 90
        8
 62
     3
370
    50
331
14
  1
Color_3
  8
110
 90
        8
 62
     7
370
    25
331
14
  1
Color_7
  8
100
 90
        8
 62
     4
370
    50
331
14
  1
Color_4
  8
INFTEXT69
 90
        8
 62
     5
370
    -3
331
14
  1
Color_5
  8
INFTEXT68
 90
        8
 62
     5
370
    -3
331
14
  1
Color_5
  8
INFTEXT67
 90
        8
 62
     5
370
    -3
331
14
  1
Color_5
  8
INFTEXT66
 90
        8
 62
     5
370
    -3
331
14
  1
Color_5
  8
INFTEXT65
 90
        8
 62
     5
370
    -3
331
14
  1
Color_5
  8
INFTEXT64
 90
        8
 62
     5
370
    -3
331
14
  1
Color_5
  8
INFTEXT63
 90
        8
 62
     5
370
    -3
331
14
  1
Color_5
  8
INFTEXT62
 90
        8
 62
     5
370
    -3
331
14
  1
Color_5
  8
RECON69
 90
        8
 62
     5
370
    35
331
14
  1
Color_5
  8
RECON68
 90
        8
 62
     5
370
    35
331
14
  1
Color_5
  8
RECON67
 90
        8
 62
     5
370
    35
331
14
  1
Color_5
  8
RECON66
 90
        8
 62
     5
370
    35
331
14
  1
Color_5
  8
RECON65
 90
        8
 62
     5
370
    35
331
14
  1
Color_5
  8
RECON64
 90
        8
 62
     5
370
    35
331
14
  1
Color_5
  8
RECON63
 90
        8
 62
     5
370
    35
331
14
  1
Color_5
  8
RECON62
 90
        8
 62
     5
370
    35
331
14
  1
Color_5
  8
RECON61
 90
        8
 62
     5
370
    35
331
14
  1
Color_5
  8
SK69
 90
        8
 62
     5
370
    35
331
14
  1
Color_5
  8
SK68
 90
        8
 62
     5
370
    35
331
14
  1
Color_5
  8
SK67
 90
        8
 62
     5
370
    35
331
14
  1
Color_5
  8
SK66
 90
        8
 62
     5
370
    35
331
14
  1
Color_5
  8
SK65
 90
        8
 62
     5
370
    35
331
14
  1
Color_5
  8
SK64
 90
        8
 62
     5
370
    35
331
14
  1
Color_5
  8
SK63
 90
        8
 62
     5
370
    35
331
14
  1
Color_5
  8
SK62
 90
        8
 62
     5
370
    35
331
14
  1
Color_5
  8
SK61
 90
        8
 62
     5
370
    35
331
14
  1
Color_5
  8
SKVIEW69
 90
        8
 62
     5
370
    35
331
14
  1
Color_5
  8
SKVIEW68
 90
        8
 62
     5
370
    35
331
14
  1
Color_5
  8
SKVIEW67
 90
        8
 62
     5
370
    35
331
14
  1
Color_5
  8
SKVIEW66
 90
        8
 62
     5
370
    35
331
14
  1
Color_5
  8
SKVIEW65
 90
        8
 62
     5
370
    35
331
14
  1
Color_5
  8
SKVIEW64
 90
        8
 62
     5
370
    35
331
14
  1
Color_5
  8
SKVIEW63
 90
        8
 62
     5
370
    35
331
14
  1
Color_5
  8
SKVIEW62
 90
        8
 62
     5
370
    35
331
14
  1
Color_5
  8
SKVIEW61
 90
        8
 62
     5
370
    35
331
14
  1
Color_5
  8
69
 90
        8
 62
     5
370
    35
331
14
  1
Color_5
  8
68
 90
        8
 62
     5
370
    35
331
14
  1
Color_5
  8
67
 90
        8
 62
     5
370
    35
331
14
  1
Color_5
  8
66
 90
        8
 62
     5
370
    35
331
14
  1
Color_5
  8
65
 90
        8
 62
     5
370
    35
331
14
  1
Color_5
  8
64
 90
        8
 62
     5
370
    35
331
14
  1
Color_5
  8
63
 90
        8
 62
     5
370
    35
331
14
  1
Color_5
  8
62
 90
        8
 62
     5
370
    35
331
14
  1
Color_5
  8
61
 90
        8
 62
     5
370
    35
331
14
  1
Color_5
  8
59
 90
        8
 62
     5
370
    -3
331
14
  1
Color_5
  8
58
 90
        8
 62
     5
370
    -3
331
14
  1
Color_5
  8
57
 90
        8
 62
     5
370
    -3
331
14
  1
Color_5
  8
56
 90
        8
 62
     5
370
    -3
331
14
  1
Color_5
  8
55
 90
        8
 62
     5
370
    -3
331
14
  1
Color_5
  8
54
 90
        8
 62
     5
370
    -3
331
14
  1
Color_5
  8
53
 90
        8
 62
     5
370
    -3
331
14
  1
Color_5
  8
52
 90
        8
 62
     5
370
    -3
331
14
  1
Color_5
  8
51
 90
        8
 62
     5
370
    -3
331
14
  1
Color_5
  8
FRAME59
 90
        8
 62
     7
370
    -3
331
14
  1
Color_7
  8
FRAME58
 90
        8
 62
     7
370
    -3
331
14
  1
Color_7
  8
FRAME57
 90
        8
 62
     7
370
    -3
331
14
  1
Color_7
  8
FRAME56
 90
        8
 62
     7
370
    -3
331
14
  1
Color_7
  8
FRAME55
 90
        8
 62
     7
370
    -3
331
14
  1
Color_7
  8
FRAME54
 90
        8
 62
     7
370
    -3
331
14
  1
Color_7
  8
FRAME53
 90
        8
 62
     7
370
    -3
331
14
  1
Color_7
  8
FRAME52
 90
        8
 62
     7
370
    -3
331
14
  1
Color_7
  8
RECON7
 90
        8
 62
     5
370
    25
331
14
  1
Color_5
  8
RECON6
 90
        8
 62
     5
370
    35
331
14
  1
Color_5
  8
RECON4
 90
        8
 62
     2
370
    25
331
14
  1
Color_2
  8
RECON3
 90
        8
 62
     1
370
    35
331
14
  1
Color_1
  8
RECON2
 90
        8
 62
     7
370
    25
331
14
  1
Color_7
  8
RECON1
 90
        8
 62
     4
370
    50
331
14
  1
Color_4
  8
SKVIEW7
 90
        8
 62
     5
370
    25
331
14
  1
Color_5
  8
SK7
 90
        8
 62
     5
370
    25
331
14
  1
Color_5
  8
7
 90
        8
 62
     5
370
    25
331
14
  1
Color_5
  8
INFMAINVIEW
 90
        8
 62
     9
370
    18
331
14
  1
Color_9
  8
INFTOTAL
 90
        8
 62
     9
370
    18
331
14
  1
Color_9
  8
INFTEXT61
 90
        8
 62
     5
370
    -3
331
14
  1
Color_5
  8
INFWKP
 90
        8
 62
    30
370
    25
331
14
  1
Color_30
  8
SKVIEW6
 90
        8
 62
     5
370
    35
331
14
  1
Color_5
  8
SKVIEW4
 90
        8
 62
     2
370
    25
331
14
  1
Color_2
  8
SKVIEW3
 90
        8
 62
     1
370
    35
331
14
  1
Color_1
  8
SKVIEW2
 90
        8
 62
     7
370
    25
331
14
  1
Color_7
  8
SKVIEW1
 90
        8
 62
     4
370
    50
331
14
  1
Color_4
  8
NOCUT
 90
        8
 62
     7
370
    25
331
14
  1
Color_7
  8
CUT
 90
        8
 62
     1
370
    25
331
14
  1
Color_1
  8
DEFPOINTS
 90
        0
 62
     7
370
    -3
331
14
  1
Color_7
  8
SK6
 90
        8
 62
     5
370
    35
331
14
  1
Color_5
  8
6
 90
        8
 62
     5
370
    35
331
14
  1
Color_5
  8
FRAME51
 90
        8
 62
     7
370
    -3
331
14
  1
Color_7
  8
SK4
 90
        8
 62
     2
370
    25
331
14
  1
Color_2
  8
4
 90
        8
 62
     2
370
    25
331
14
  1
Color_2
  8
SK3
 90
        8
 62
     1
370
    35
331
14
  1
Color_1
  8
3
 90
        8
 62
     1
370
    35
331
14
  1
Color_1
  8
SK2
 90
        8
 62
     7
370
    25
331
14
  1
Color_7
  8
2
 90
        8
 62
     7
370
    25
331
14
  1
Color_7
  8
SK1
 90
        8
 62
     4
370
    50
331
14
  1
Color_4
  8
1
 90
        8
 62
     4
370
    50
331
14
  1
Color_4
  8
0
 90
        0
 62
     7
370
    -3
331
14
  1
Color_7
  0
DICTIONARY
  5
D27
330
CF0
100
AcDbDictionary
280
     1
281
     1
  3
ACAD_XREC_ROUNDTRIP
360
178A
  0
DICTIONARY
  5
B74
330
B57
100
AcDbDictionary
280
     1
281
     1
  3
ACAD_XREC_ROUNDTRIP
360
1772
  0
DICTIONARY
  5
BEF
330
303
100
AcDbDictionary
280
     1
281
     1
  3
ACAD_XREC_ROUNDTRIP
360
1744
  0
DICTIONARY
  5
1748
330
3F0
100
AcDbDictionary
280
     1
281
     1
  3
ACAD_XREC_ROUNDTRIP
360
1749
  0
DICTIONARY
  5
1746
330
3EF
100
AcDbDictionary
280
     1
281
     1
  3
ACAD_XREC_ROUNDTRIP
360
1747
  0
DICTIONARY
  5
174A
330
3F1
100
AcDbDictionary
280
     1
281
     1
  3
ACAD_XREC_ROUNDTRIP
360
174B
  0
DICTIONARY
  5
176C
330
470
100
AcDbDictionary
280
     1
281
     1
  3
ACAD_XREC_ROUNDTRIP
360
176D
  0
DICTIONARY
  5
176E
330
7EF
100
AcDbDictionary
280
     1
281
     1
  3
ACAD_XREC_ROUNDTRIP
360
176F
  0
DICTIONARY
  5
1770
330
7F8
100
AcDbDictionary
280
     1
281
     1
  3
ACAD_XREC_ROUNDTRIP
360
1771
  0
DICTIONARY
  5
D25
330
CEE
100
AcDbDictionary
280
     1
281
     1
  3
ACAD_XREC_ROUNDTRIP
360
1789
  0
DICTIONARY
  5
577
330
389
100
AcDbDictionary
280
     1
281
     1
  3
ACAD_ROUNDTRIP_2008_TABLESTYLE_CELLSTYLEMAP
360
1736
  3
ACAD_XREC_ROUNDTRIP
360
1745
  0
DICTIONARY
  5
1756
330
3F8
100
AcDbDictionary
280
     1
281
     1
  3
ACAD_XREC_ROUNDTRIP
360
1757
  0
DICTIONARY
  5
175A
330
3FA
100
AcDbDictionary
280
     1
281
     1
  3
ACAD_XREC_ROUNDTRIP
360
175B
  0
DICTIONARY
  5
1758
330
3F9
100
AcDbDictionary
280
     1
281
     1
  3
ACAD_XREC_ROUNDTRIP
360
1759
  0
DICTIONARY
  5
1754
330
3F7
100
AcDbDictionary
280
     1
281
     1
  3
ACAD_XREC_ROUNDTRIP
360
1755
  0
DICTIONARY
  5
1762
330
3FE
100
AcDbDictionary
280
     1
281
     1
  3
ACAD_XREC_ROUNDTRIP
360
1763
  0
DICTIONARY
  5
176A
330
402
100
AcDbDictionary
280
     1
281
     1
  3
ACAD_XREC_ROUNDTRIP
360
176B
  0
DICTIONARY
  5
175C
330
3FB
100
AcDbDictionary
280
     1
281
     1
  3
ACAD_XREC_ROUNDTRIP
360
175D
  0
DICTIONARY
  5
1760
330
3FD
100
AcDbDictionary
280
     1
281
     1
  3
ACAD_XREC_ROUNDTRIP
360
1761
  0
DICTIONARY
  5
1779
330
BDF
100
AcDbDictionary
280
     1
281
     1
  3
ACAD_XREC_ROUNDTRIP
360
177A
  0
DICTIONARY
  5
1768
330
401
100
AcDbDictionary
280
     1
281
     1
  3
ACAD_XREC_ROUNDTRIP
360
1769
  0
DICTIONARY
  5
174C
330
3F3
100
AcDbDictionary
280
     1
281
     1
  3
ACAD_XREC_ROUNDTRIP
360
174D
  0
DICTIONARY
  5
174E
330
3F4
100
AcDbDictionary
280
     1
281
     1
  3
ACAD_XREC_ROUNDTRIP
360
174F
  0
DICTIONARY
  5
1750
330
3F5
100
AcDbDictionary
280
     1
281
     1
  3
ACAD_XREC_ROUNDTRIP
360
1751
  0
DICTIONARY
  5
1752
330
3F6
100
AcDbDictionary
280
     1
281
     1
  3
ACAD_XREC_ROUNDTRIP
360
1753
  0
DICTIONARY
  5
177D
330
CE7
100
AcDbDictionary
280
     1
281
     1
  3
ACAD_XREC_ROUNDTRIP
360
177E
  0
DICTIONARY
  5
1775
330
BDD
100
AcDbDictionary
280
     1
281
     1
  3
ACAD_XREC_ROUNDTRIP
360
1776
  0
DICTIONARY
  5
1766
330
400
100
AcDbDictionary
280
     1
281
     1
  3
ACAD_XREC_ROUNDTRIP
360
1767
  0
DICTIONARY
  5
1777
330
BDE
100
AcDbDictionary
280
     1
281
     1
  3
ACAD_XREC_ROUNDTRIP
360
1778
  0
DICTIONARY
  5
175E
330
3FC
100
AcDbDictionary
280
     1
281
     1
  3
ACAD_XREC_ROUNDTRIP
360
175F
  0
DICTIONARY
  5
1787
330
CEC
100
AcDbDictionary
280
     1
281
     1
  3
ACAD_XREC_ROUNDTRIP
360
1788
  0
DICTIONARY
  5
1785
330
CEB
100
AcDbDictionary
280
     1
281
     1
  3
ACAD_XREC_ROUNDTRIP
360
1786
  0
DICTIONARY
  5
177F
330
CE8
100
AcDbDictionary
280
     1
281
     1
  3
ACAD_XREC_ROUNDTRIP
360
1780
  0
DICTIONARY
  5
1781
330
CE9
100
AcDbDictionary
280
     1
281
     1
  3
ACAD_XREC_ROUNDTRIP
360
1782
  0
DICTIONARY
  5
1764
330
3FF
100
AcDbDictionary
280
     1
281
     1
  3
ACAD_XREC_ROUNDTRIP
360
1765
  0
DICTIONARY
  5
177B
330
CE6
100
AcDbDictionary
280
     1
281
     1
  3
ACAD_XREC_ROUNDTRIP
360
177C
  0
DICTIONARY
  5
1783
330
CEA
100
AcDbDictionary
280
     1
281
     1
  3
ACAD_XREC_ROUNDTRIP
360
1784
  0
XRECORD
  5
173C
102
{ACAD_REACTORS
330
1742
102
}
330
1742
100
AcDbXrecord
280
     1
  1
AcDb_Thumbnail_Schema
102
{ATTRRECORD
341
173D
  2
AcDbDs::TreatedAsObjectData
280
     1
291
     1
102
ATTRRECORD}
102
{ATTRRECORD
341
173E
  2
AcDbDs::Legacy
280
     1
291
     1
102
ATTRRECORD}
  2
AcDbDs::ID
280
    10
 91
        8
102
{ATTRRECORD
341
173F
  2
AcDs:Indexable
280
     1
291
     1
102
ATTRRECORD}
102
{ATTRRECORD
341
1740
  2
AcDbDs::HandleAttribute
280
     7
282
     1
102
ATTRRECORD}
  2
Thumbnail_Data
280
    15
 91
        0
  0
XRECORD
  5
173D
102
{ACAD_REACTORS
330
1742
102
}
330
1742
100
AcDbXrecord
280
     1
  1
AcDbDs::TreatedAsObjectDataSchema
  2
AcDbDs::TreatedAsObjectData
280
     1
 91
        0
  0
XRECORD
  5
173E
102
{ACAD_REACTORS
330
1742
102
}
330
1742
100
AcDbXrecord
280
     1
  1
AcDbDs::LegacySchema
  2
AcDbDs::Legacy
280
     1
 91
        0
  0
XRECORD
  5
173F
102
{ACAD_REACTORS
330
1742
102
}
330
1742
100
AcDbXrecord
280
     1
  1
AcDbDs::IndexedPropertySchema
  2
AcDs:Indexable
280
     1
 91
        0
  0
XRECORD
  5
1740
102
{ACAD_REACTORS
330
1742
102
}
330
1742
100
AcDbXrecord
280
     1
  1
AcDbDs::HandleAttributeSchema
  2
AcDbDs::HandleAttribute
280
     7
 91
        1
284
     1
  0
XRECORD
  5
178A
102
{ACAD_REACTORS
330
D27
102
}
330
D27
100
AcDbXrecord
280
     1
102
DISPLAYNAME
  1
Metric50
102
FLAGS
 90
        0
  0
XRECORD
  5
1772
102
{ACAD_REACTORS
330
B74
102
}
330
B74
100
AcDbXrecord
280
     1
102
SHADEPLOT
 70
     0
102
SHADEPLOTRESLEVEL
 70
     2
102
SHADEPLOTCUSTOMDPI
 70
   300
  0
XRECORD
  5
1744
102
{ACAD_REACTORS
330
BEF
102
}
330
BEF
100
AcDbXrecord
280
     1
102
SHADEPLOT
 70
     0
102
SHADEPLOTRESLEVEL
 70
     2
102
SHADEPLOTCUSTOMDPI
 70
   300
  0
XRECORD
  5
1749
102
{ACAD_REACTORS
330
1748
102
}
330
1748
100
AcDbXrecord
280
     1
102
MATERIAL
148
0.0
149
0.0
149
0.0
 93
        0
 94
       63
282
     0
 72
     1
 77
     1
171
     1
175
     1
179
     1
273
     0
  0
XRECORD
  5
1747
102
{ACAD_REACTORS
330
1746
102
}
330
1746
100
AcDbXrecord
280
     1
102
MATERIAL
148
0.0
149
0.0
149
0.0
 93
        0
 94
       63
282
     0
 72
     1
 77
     1
171
     1
175
     1
179
     1
273
     0
  0
XRECORD
  5
174B
102
{ACAD_REACTORS
330
174A
102
}
330
174A
100
AcDbXrecord
280
     1
102
MATERIAL
148
0.0
149
0.0
149
0.0
 93
        0
 94
       63
282
     0
 72
     1
 77
     1
171
     1
175
     1
179
     1
273
     0
  0
XRECORD
  5
176D
102
{ACAD_REACTORS
330
176C
102
}
330
176C
100
AcDbXrecord
280
     1
102
ACAD_ROUNDTRIP_2012_MLEADER_STYLE
298
     1
  0
XRECORD
  5
176F
102
{ACAD_REACTORS
330
176E
102
}
330
176E
100
AcDbXrecord
280
     1
102
SHADEPLOT
 70
     0
102
SHADEPLOTRESLEVEL
 70
     2
102
SHADEPLOTCUSTOMDPI
 70
   300
  0
XRECORD
  5
1771
102
{ACAD_REACTORS
330
1770
102
}
330
1770
100
AcDbXrecord
280
     1
102
SHADEPLOT
 70
     0
102
SHADEPLOTRESLEVEL
 70
     2
102
SHADEPLOTCUSTOMDPI
 70
   300
  0
XRECORD
  5
1789
102
{ACAD_REACTORS
330
D25
102
}
330
D25
100
AcDbXrecord
280
     1
102
DISPLAYNAME
  1
Metric50
102
FLAGS
 90
        0
  0
CELLSTYLEMAP
  5
1736
102
{ACAD_REACTORS
330
577
102
}
330
577
100
AcDbCellStyleMap
 90
        3
300
CELLSTYLE
  1
TABLEFORMAT_BEGIN
 90
        5
170
     1
 91
        0
 92
    32768
 62
   257
 93
        1
300
CONTENTFORMAT
  1
CONTENTFORMAT_BEGIN
 90
        0
 91
        0
 92
        4
 93
        0
300

 40
0.0
140
1.0
 94
        5
 62
     0
340
1E
144
6.0
309
CONTENTFORMAT_END
171
     1
301
MARGIN
  1
CELLMARGIN_BEGIN
 40
1.5
 40
1.5
 40
1.5
 40
1.5
 40
0.18
 40
0.18
309
CELLMARGIN_END
 94
        6
 95
        1
302
GRIDFORMAT
  1
GRIDFORMAT_BEGIN
 90
        0
 91
        1
 62
     0
 92
       -2
340
0
 93
        0
 40
0.045
309
GRIDFORMAT_END
 95
        2
302
GRIDFORMAT
  1
GRIDFORMAT_BEGIN
 90
        0
 91
        1
 62
     0
 92
       -2
340
0
 93
        0
 40
0.045
309
GRIDFORMAT_END
 95
        4
302
GRIDFORMAT
  1
GRIDFORMAT_BEGIN
 90
        0
 91
        1
 62
     0
 92
       -2
340
0
 93
        0
 40
0.045
309
GRIDFORMAT_END
 95
        8
302
GRIDFORMAT
  1
GRIDFORMAT_BEGIN
 90
        0
 91
        1
 62
     0
 92
       -2
340
0
 93
        0
 40
0.045
309
GRIDFORMAT_END
 95
       16
302
GRIDFORMAT
  1
GRIDFORMAT_BEGIN
 90
        0
 91
        1
 62
     0
 92
       -2
340
0
 93
        0
 40
0.045
309
GRIDFORMAT_END
 95
       32
302
GRIDFORMAT
  1
GRIDFORMAT_BEGIN
 90
        0
 91
        1
 62
     0
 92
       -2
340
0
 93
        0
 40
0.045
309
GRIDFORMAT_END
309
TABLEFORMAT_END
  1
CELLSTYLE_BEGIN
 90
        1
 91
        1
300
_TITLE
309
CELLSTYLE_END
300
CELLSTYLE
  1
TABLEFORMAT_BEGIN
 90
        5
170
     1
 91
        0
 92
        0
 62
   257
 93
        1
300
CONTENTFORMAT
  1
CONTENTFORMAT_BEGIN
 90
        0
 91
        0
 92
        4
 93
        0
300

 40
0.0
140
1.0
 94
        5
 62
     0
340
10
144
4.5
309
CONTENTFORMAT_END
171
     1
301
MARGIN
  1
CELLMARGIN_BEGIN
 40
1.5
 40
1.5
 40
1.5
 40
1.5
 40
0.18
 40
0.18
309
CELLMARGIN_END
 94
        6
 95
        1
302
GRIDFORMAT
  1
GRIDFORMAT_BEGIN
 90
        0
 91
        1
 62
     0
 92
       -2
340
0
 93
        0
 40
0.045
309
GRIDFORMAT_END
 95
        2
302
GRIDFORMAT
  1
GRIDFORMAT_BEGIN
 90
        0
 91
        1
 62
     0
 92
       -2
340
0
 93
        0
 40
0.045
309
GRIDFORMAT_END
 95
        4
302
GRIDFORMAT
  1
GRIDFORMAT_BEGIN
 90
        0
 91
        1
 62
     0
 92
       -2
340
0
 93
        0
 40
0.045
309
GRIDFORMAT_END
 95
        8
302
GRIDFORMAT
  1
GRIDFORMAT_BEGIN
 90
        0
 91
        1
 62
     0
 92
       -2
340
0
 93
        0
 40
0.045
309
GRIDFORMAT_END
 95
       16
302
GRIDFORMAT
  1
GRIDFORMAT_BEGIN
 90
        0
 91
        1
 62
     0
 92
       -2
340
0
 93
        0
 40
0.045
309
GRIDFORMAT_END
 95
       32
302
GRIDFORMAT
  1
GRIDFORMAT_BEGIN
 90
        0
 91
        1
 62
     0
 92
       -2
340
0
 93
        0
 40
0.045
309
GRIDFORMAT_END
309
TABLEFORMAT_END
  1
CELLSTYLE_BEGIN
 90
        2
 91
        1
300
_HEADER
309
CELLSTYLE_END
300
CELLSTYLE
  1
TABLEFORMAT_BEGIN
 90
        5
170
     1
 91
        0
 92
        0
 62
   257
 93
        1
300
CONTENTFORMAT
  1
CONTENTFORMAT_BEGIN
 90
        0
 91
        0
 92
        4
 93
        0
300

 40
0.0
140
1.0
 94
        2
 62
     0
340
10
144
4.5
309
CONTENTFORMAT_END
171
     1
301
MARGIN
  1
CELLMARGIN_BEGIN
 40
1.5
 40
1.5
 40
1.5
 40
1.5
 40
0.18
 40
0.18
309
CELLMARGIN_END
 94
        6
 95
        1
302
GRIDFORMAT
  1
GRIDFORMAT_BEGIN
 90
        0
 91
        1
 62
     0
 92
       -2
340
0
 93
        0
 40
0.045
309
GRIDFORMAT_END
 95
        2
302
GRIDFORMAT
  1
GRIDFORMAT_BEGIN
 90
        0
 91
        1
 62
     0
 92
       -2
340
0
 93
        0
 40
0.045
309
GRIDFORMAT_END
 95
        4
302
GRIDFORMAT
  1
GRIDFORMAT_BEGIN
 90
        0
 91
        1
 62
     0
 92
       -2
340
0
 93
        0
 40
0.045
309
GRIDFORMAT_END
 95
        8
302
GRIDFORMAT
  1
GRIDFORMAT_BEGIN
 90
        0
 91
        1
 62
     0
 92
       -2
340
0
 93
        0
 40
0.045
309
GRIDFORMAT_END
 95
       16
302
GRIDFORMAT
  1
GRIDFORMAT_BEGIN
 90
        0
 91
        1
 62
     0
 92
       -2
340
0
 93
        0
 40
0.045
309
GRIDFORMAT_END
 95
       32
302
GRIDFORMAT
  1
GRIDFORMAT_BEGIN
 90
        0
 91
        1
 62
     0
 92
       -2
340
0
 93
        0
 40
0.045
309
GRIDFORMAT_END
309
TABLEFORMAT_END
  1
CELLSTYLE_BEGIN
 90
        3
 91
        2
300
_DATA
309
CELLSTYLE_END
  0
XRECORD
  5
1745
102
{ACAD_REACTORS
330
577
102
}
330
577
100
AcDbXrecord
280
     1
102
ACAD_ROUNDTRIP_PRE2007_TABLESTYLE
 90
        4
 91
        0
  1

 92
        4
 93
        0
  2

 94
        4
 95
        0
  3

  0
XRECORD
  5
1757
102
{ACAD_REACTORS
330
1756
102
}
330
1756
100
AcDbXrecord
280
     1
102
RTVSPost2010Prop28
280
     1
102
RTVSPost2010PropOp28
 70
     1
102
RTVSPost2010Prop29
280
     1
102
RTVSPost2010PropOp29
 70
     1
102
RTVSPost2010Prop30
280
     0
102
RTVSPost2010PropOp30
 70
     1
102
RTVSPost2010Prop31
280
     0
102
RTVSPost2010PropOp31
 70
     1
102
RTVSPost2010Prop32
280
     0
102
RTVSPost2010PropOp32
 70
     1
102
RTVSPost2010Prop33
280
     0
102
RTVSPost2010PropOp33
 70
     1
102
RTVSPost2010Prop34
280
     0
102
RTVSPost2010PropOp34
 70
     1
102
RTVSPost2010Prop35
280
     0
102
RTVSPost2010PropOp35
 70
     1
102
RTVSPost2010Prop36
280
     0
102
RTVSPost2010PropOp36
 70
     1
102
RTVSPost2010Prop37
 90
       50
102
RTVSPost2010PropOp37
 70
     1
102
RTVSPost2010Prop38
140
0.0
102
RTVSPost2010PropOp38
 70
     1
102
RTVSPost2010Prop39
140
1.0
102
RTVSPost2010PropOp39
 70
     1
102
RTVSPost2010Prop40
 90
        0
102
RTVSPost2010PropOp40
 70
     1
102
RTVSPost2010Prop41ColorIndex
 90
       18
102
RTVSPost2010Prop41ColorRGB
 90
        0
102
RTVSPost2010PropOp41
 70
     1
102
RTVSPost2010Prop42
 90
       50
102
RTVSPost2010PropOp42
 70
     1
102
RTVSPost2010Prop43
 90
        3
102
RTVSPost2010PropOp43
 70
     1
102
RTVSPost2010Prop44ColorIndex
 90
        5
102
RTVSPost2010Prop44ColorRGB
 90
      255
102
RTVSPost2010PropOp44
 70
     1
102
RTVSPost2010Prop45
280
     0
102
RTVSPost2010PropOp45
 70
     1
102
RTVSPost2010Prop46
 90
       50
102
RTVSPost2010PropOp46
 70
     1
102
RTVSPost2010Prop47
 90
       50
102
RTVSPost2010PropOp47
 70
     1
102
RTVSPost2010Prop48
 90
       50
102
RTVSPost2010PropOp48
 70
     1
102
RTVSPost2010Prop49
280
     0
102
RTVSPost2010PropOp49
 70
     1
102
RTVSPost2010Prop50
 90
       50
102
RTVSPost2010PropOp50
 70
     1
102
RTVSPost2010Prop51ColorIndex
 90
      256
102
RTVSPost2010Prop51ColorRGB
 90
-16777216
102
RTVSPost2010PropOp51
 70
     0
102
RTVSPost2010Prop52
140
1.0
102
RTVSPost2010PropOp52
 70
     0
102
RTVSPost2010Prop53
 90
        2
102
RTVSPost2010PropOp53
 70
     1
102
RTVSPost2010Prop54
  1
strokes_ogs.tif
102
RTVSPost2010PropOp54
 70
     1
102
RTVSPost2010Prop55
280
     0
102
RTVSPost2010PropOp55
 70
     1
102
RTVSPost2010Prop56
140
1.0
102
RTVSPost2010PropOp56
 70
     1
102
RTVSPost2010Prop57
140
1.0
102
RTVSPost2010PropOp57
 70
     1
102
RTVSPropertyOp0
 70
     1
102
RTVSPropertyOp1
 70
     1
102
RTVSPropertyOp2
 70
     1
102
RTVSPropertyOp3
 70
     1
102
RTVSPropertyOp4
 70
     1
102
RTVSPropertyOp5
 70
     1
102
RTVSPropertyOp6
 70
     1
102
RTVSPropertyOp7
 70
     1
102
RTVSPropertyOp8
 70
     1
102
RTVSPropertyOp9
 70
     1
102
RTVSPropertyOp10
 70
     1
102
RTVSPropertyOp11
 70
     1
102
RTVSPropertyOp12
 70
     1
102
RTVSPropertyOp13
 70
     1
102
RTVSPropertyOp14
 70
     1
102
RTVSPropertyOp15
 70
     1
102
RTVSPropertyOp16
 70
     1
102
RTVSPropertyOp17
 70
     1
102
RTVSPropertyOp18
 70
     1
102
RTVSPropertyOp19
 70
     1
102
RTVSPropertyOp20
 70
     1
102
RTVSPropertyOp21
 70
     1
102
RTVSPropertyOp22
 70
     1
102
RTVSPropertyOp23
 70
     1
102
RTVSPropertyOp24
 70
     1
102
RTVSPropertyOp25
 70
     1
102
RTVSPropertyOp26
 70
     1
102
RTVSPropertyOp27
 70
     1
102
RTVSPropertyOp28
 70
     1
102
RTVSPropertyOp29
 70
     1
102
RTVSPropertyOp30
 70
     1
102
RTVSPropertyOp31
 70
     1
102
RTVSPropertyOp32
 70
     1
102
RTVSPropertyOp33
 70
     1
102
RTVSPropertyOp34
 70
     1
102
RTVSPropertyOp35
 70
     1
102
RTVSPropertyOp36
 70
     1
102
RTVSPropertyOp37
 70
     1
102
RTVSPropertyOp38
 70
     1
102
RTVSPropertyOp39
 70
     1
102
RTVSPropertyOp40
 70
     1
102
RTVSPropertyOp41
 70
     1
102
RTVSPropertyOp42
 70
     1
102
RTVSPropertyOp43
 70
     1
102
RTVSPropertyOp44
 70
     1
102
RTVSPropertyOp45
 70
     1
102
RTVSPropertyOp46
 70
     1
102
RTVSPropertyOp47
 70
     1
102
RTVSPropertyOp48
 70
     1
102
RTVSPropertyOp49
 70
     1
102
RTVSPropertyOp50
 70
     1
102
RTVSPropertyOp51
 70
     0
102
RTVSPropertyOp52
 70
     0
102
RTVSPropertyOp53
 70
     1
102
RTVSPropertyOp54
 70
     1
102
RTVSPropertyOp55
 70
     1
102
RTVSPropertyOp56
 70
     1
102
RTVSPropertyOp57
 70
     1
102
RTVSPropertyOp58
 70
     1
102
RTVSPropertyOp59
 70
     1
102
RTVSPropertyOp60
 70
     1
102
RTVSPropertyOp61
 70
     1
102
RTVSPropertyOp62
 70
     1
  0
XRECORD
  5
175B
102
{ACAD_REACTORS
330
175A
102
}
330
175A
100
AcDbXrecord
280
     1
102
RTVSPost2010Prop28
280
     0
102
RTVSPost2010PropOp28
 70
     1
102
RTVSPost2010Prop29
280
     1
102
RTVSPost2010PropOp29
 70
     1
102
RTVSPost2010Prop30
280
     1
102
RTVSPost2010PropOp30
 70
     1
102
RTVSPost2010Prop31
280
     0
102
RTVSPost2010PropOp31
 70
     1
102
RTVSPost2010Prop32
280
     0
102
RTVSPost2010PropOp32
 70
     1
102
RTVSPost2010Prop33
280
     0
102
RTVSPost2010PropOp33
 70
     1
102
RTVSPost2010Prop34
280
     0
102
RTVSPost2010PropOp34
 70
     1
102
RTVSPost2010Prop35
280
     0
102
RTVSPost2010PropOp35
 70
     1
102
RTVSPost2010Prop36
280
     0
102
RTVSPost2010PropOp36
 70
     1
102
RTVSPost2010Prop37
 90
       50
102
RTVSPost2010PropOp37
 70
     1
102
RTVSPost2010Prop38
140
0.0
102
RTVSPost2010PropOp38
 70
     1
102
RTVSPost2010Prop39
140
1.0
102
RTVSPost2010PropOp39
 70
     1
102
RTVSPost2010Prop40
 90
        0
102
RTVSPost2010PropOp40
 70
     1
102
RTVSPost2010Prop41ColorIndex
 90
       18
102
RTVSPost2010Prop41ColorRGB
 90
        0
102
RTVSPost2010PropOp41
 70
     1
102
RTVSPost2010Prop42
 90
       50
102
RTVSPost2010PropOp42
 70
     1
102
RTVSPost2010Prop43
 90
        3
102
RTVSPost2010PropOp43
 70
     1
102
RTVSPost2010Prop44ColorIndex
 90
        5
102
RTVSPost2010Prop44ColorRGB
 90
      255
102
RTVSPost2010PropOp44
 70
     1
102
RTVSPost2010Prop45
280
     0
102
RTVSPost2010PropOp45
 70
     1
102
RTVSPost2010Prop46
 90
       50
102
RTVSPost2010PropOp46
 70
     1
102
RTVSPost2010Prop47
 90
       50
102
RTVSPost2010PropOp47
 70
     1
102
RTVSPost2010Prop48
 90
       50
102
RTVSPost2010PropOp48
 70
     1
102
RTVSPost2010Prop49
280
     0
102
RTVSPost2010PropOp49
 70
     1
102
RTVSPost2010Prop50
 90
       50
102
RTVSPost2010PropOp50
 70
     1
102
RTVSPost2010Prop51ColorIndex
 90
      256
102
RTVSPost2010Prop51ColorRGB
 90
-16777216
102
RTVSPost2010PropOp51
 70
     0
102
RTVSPost2010Prop52
140
1.0
102
RTVSPost2010PropOp52
 70
     0
102
RTVSPost2010Prop53
 90
        2
102
RTVSPost2010PropOp53
 70
     1
102
RTVSPost2010Prop54
  1
strokes_ogs.tif
102
RTVSPost2010PropOp54
 70
     1
102
RTVSPost2010Prop55
280
     0
102
RTVSPost2010PropOp55
 70
     1
102
RTVSPost2010Prop56
140
1.0
102
RTVSPost2010PropOp56
 70
     1
102
RTVSPost2010Prop57
140
1.0
102
RTVSPost2010PropOp57
 70
     1
102
RTVSPropertyOp0
 70
     1
102
RTVSPropertyOp1
 70
     1
102
RTVSPropertyOp2
 70
     1
102
RTVSPropertyOp3
 70
     1
102
RTVSPropertyOp4
 70
     1
102
RTVSPropertyOp5
 70
     1
102
RTVSPropertyOp6
 70
     1
102
RTVSPropertyOp7
 70
     1
102
RTVSPropertyOp8
 70
     1
102
RTVSPropertyOp9
 70
     1
102
RTVSPropertyOp10
 70
     1
102
RTVSPropertyOp11
 70
     1
102
RTVSPropertyOp12
 70
     1
102
RTVSPropertyOp13
 70
     1
102
RTVSPropertyOp14
 70
     1
102
RTVSPropertyOp15
 70
     1
102
RTVSPropertyOp16
 70
     1
102
RTVSPropertyOp17
 70
     1
102
RTVSPropertyOp18
 70
     1
102
RTVSPropertyOp19
 70
     1
102
RTVSPropertyOp20
 70
     1
102
RTVSPropertyOp21
 70
     1
102
RTVSPropertyOp22
 70
     1
102
RTVSPropertyOp23
 70
     1
102
RTVSPropertyOp24
 70
     1
102
RTVSPropertyOp25
 70
     1
102
RTVSPropertyOp26
 70
     1
102
RTVSPropertyOp27
 70
     1
102
RTVSPropertyOp28
 70
     1
102
RTVSPropertyOp29
 70
     1
102
RTVSPropertyOp30
 70
     1
102
RTVSPropertyOp31
 70
     1
102
RTVSPropertyOp32
 70
     1
102
RTVSPropertyOp33
 70
     1
102
RTVSPropertyOp34
 70
     1
102
RTVSPropertyOp35
 70
     1
102
RTVSPropertyOp36
 70
     1
102
RTVSPropertyOp37
 70
     1
102
RTVSPropertyOp38
 70
     1
102
RTVSPropertyOp39
 70
     1
102
RTVSPropertyOp40
 70
     1
102
RTVSPropertyOp41
 70
     1
102
RTVSPropertyOp42
 70
     1
102
RTVSPropertyOp43
 70
     1
102
RTVSPropertyOp44
 70
     1
102
RTVSPropertyOp45
 70
     1
102
RTVSPropertyOp46
 70
     1
102
RTVSPropertyOp47
 70
     1
102
RTVSPropertyOp48
 70
     1
102
RTVSPropertyOp49
 70
     1
102
RTVSPropertyOp50
 70
     1
102
RTVSPropertyOp51
 70
     0
102
RTVSPropertyOp52
 70
     0
102
RTVSPropertyOp53
 70
     1
102
RTVSPropertyOp54
 70
     1
102
RTVSPropertyOp55
 70
     1
102
RTVSPropertyOp56
 70
     1
102
RTVSPropertyOp57
 70
     1
102
RTVSPropertyOp58
 70
     1
102
RTVSPropertyOp59
 70
     1
102
RTVSPropertyOp60
 70
     1
102
RTVSPropertyOp61
 70
     1
102
RTVSPropertyOp62
 70
     1
  0
XRECORD
  5
1759
102
{ACAD_REACTORS
330
1758
102
}
330
1758
100
AcDbXrecord
280
     1
102
RTVSPost2010Prop28
280
     0
102
RTVSPost2010PropOp28
 70
     1
102
RTVSPost2010Prop29
280
     1
102
RTVSPost2010PropOp29
 70
     1
102
RTVSPost2010Prop30
280
     1
102
RTVSPost2010PropOp30
 70
     1
102
RTVSPost2010Prop31
280
     0
102
RTVSPost2010PropOp31
 70
     1
102
RTVSPost2010Prop32
280
     0
102
RTVSPost2010PropOp32
 70
     1
102
RTVSPost2010Prop33
280
     0
102
RTVSPost2010PropOp33
 70
     1
102
RTVSPost2010Prop34
280
     0
102
RTVSPost2010PropOp34
 70
     1
102
RTVSPost2010Prop35
280
     0
102
RTVSPost2010PropOp35
 70
     1
102
RTVSPost2010Prop36
280
     0
102
RTVSPost2010PropOp36
 70
     1
102
RTVSPost2010Prop37
 90
       50
102
RTVSPost2010PropOp37
 70
     1
102
RTVSPost2010Prop38
140
0.0
102
RTVSPost2010PropOp38
 70
     1
102
RTVSPost2010Prop39
140
1.0
102
RTVSPost2010PropOp39
 70
     1
102
RTVSPost2010Prop40
 90
        0
102
RTVSPost2010PropOp40
 70
     1
102
RTVSPost2010Prop41ColorIndex
 90
       18
102
RTVSPost2010Prop41ColorRGB
 90
        0
102
RTVSPost2010PropOp41
 70
     1
102
RTVSPost2010Prop42
 90
       50
102
RTVSPost2010PropOp42
 70
     1
102
RTVSPost2010Prop43
 90
        3
102
RTVSPost2010PropOp43
 70
     1
102
RTVSPost2010Prop44ColorIndex
 90
        5
102
RTVSPost2010Prop44ColorRGB
 90
      255
102
RTVSPost2010PropOp44
 70
     1
102
RTVSPost2010Prop45
280
     0
102
RTVSPost2010PropOp45
 70
     1
102
RTVSPost2010Prop46
 90
       50
102
RTVSPost2010PropOp46
 70
     1
102
RTVSPost2010Prop47
 90
       50
102
RTVSPost2010PropOp47
 70
     1
102
RTVSPost2010Prop48
 90
       50
102
RTVSPost2010PropOp48
 70
     1
102
RTVSPost2010Prop49
280
     0
102
RTVSPost2010PropOp49
 70
     1
102
RTVSPost2010Prop50
 90
       50
102
RTVSPost2010PropOp50
 70
     1
102
RTVSPost2010Prop51ColorIndex
 90
      256
102
RTVSPost2010Prop51ColorRGB
 90
-16777216
102
RTVSPost2010PropOp51
 70
     0
102
RTVSPost2010Prop52
140
1.0
102
RTVSPost2010PropOp52
 70
     0
102
RTVSPost2010Prop53
 90
        2
102
RTVSPost2010PropOp53
 70
     1
102
RTVSPost2010Prop54
  1
strokes_ogs.tif
102
RTVSPost2010PropOp54
 70
     1
102
RTVSPost2010Prop55
280
     0
102
RTVSPost2010PropOp55
 70
     1
102
RTVSPost2010Prop56
140
1.0
102
RTVSPost2010PropOp56
 70
     1
102
RTVSPost2010Prop57
140
1.0
102
RTVSPost2010PropOp57
 70
     1
102
RTVSPropertyOp0
 70
     1
102
RTVSPropertyOp1
 70
     1
102
RTVSPropertyOp2
 70
     1
102
RTVSPropertyOp3
 70
     1
102
RTVSPropertyOp4
 70
     1
102
RTVSPropertyOp5
 70
     1
102
RTVSPropertyOp6
 70
     1
102
RTVSPropertyOp7
 70
     1
102
RTVSPropertyOp8
 70
     1
102
RTVSPropertyOp9
 70
     1
102
RTVSPropertyOp10
 70
     1
102
RTVSPropertyOp11
 70
     1
102
RTVSPropertyOp12
 70
     1
102
RTVSPropertyOp13
 70
     1
102
RTVSPropertyOp14
 70
     1
102
RTVSPropertyOp15
 70
     1
102
RTVSPropertyOp16
 70
     1
102
RTVSPropertyOp17
 70
     1
102
RTVSPropertyOp18
 70
     1
102
RTVSPropertyOp19
 70
     1
102
RTVSPropertyOp20
 70
     1
102
RTVSPropertyOp21
 70
     1
102
RTVSPropertyOp22
 70
     1
102
RTVSPropertyOp23
 70
     1
102
RTVSPropertyOp24
 70
     1
102
RTVSPropertyOp25
 70
     1
102
RTVSPropertyOp26
 70
     1
102
RTVSPropertyOp27
 70
     1
102
RTVSPropertyOp28
 70
     1
102
RTVSPropertyOp29
 70
     1
102
RTVSPropertyOp30
 70
     1
102
RTVSPropertyOp31
 70
     1
102
RTVSPropertyOp32
 70
     1
102
RTVSPropertyOp33
 70
     1
102
RTVSPropertyOp34
 70
     1
102
RTVSPropertyOp35
 70
     1
102
RTVSPropertyOp36
 70
     1
102
RTVSPropertyOp37
 70
     1
102
RTVSPropertyOp38
 70
     1
102
RTVSPropertyOp39
 70
     1
102
RTVSPropertyOp40
 70
     1
102
RTVSPropertyOp41
 70
     1
102
RTVSPropertyOp42
 70
     1
102
RTVSPropertyOp43
 70
     1
102
RTVSPropertyOp44
 70
     1
102
RTVSPropertyOp45
 70
     1
102
RTVSPropertyOp46
 70
     1
102
RTVSPropertyOp47
 70
     1
102
RTVSPropertyOp48
 70
     1
102
RTVSPropertyOp49
 70
     1
102
RTVSPropertyOp50
 70
     1
102
RTVSPropertyOp51
 70
     0
102
RTVSPropertyOp52
 70
     0
102
RTVSPropertyOp53
 70
     1
102
RTVSPropertyOp54
 70
     1
102
RTVSPropertyOp55
 70
     1
102
RTVSPropertyOp56
 70
     1
102
RTVSPropertyOp57
 70
     1
102
RTVSPropertyOp58
 70
     1
102
RTVSPropertyOp59
 70
     1
102
RTVSPropertyOp60
 70
     1
102
RTVSPropertyOp61
 70
     1
102
RTVSPropertyOp62
 70
     1
  0
XRECORD
  5
1755
102
{ACAD_REACTORS
330
1754
102
}
330
1754
100
AcDbXrecord
280
     1
102
RTVSPost2010Prop28
280
     0
102
RTVSPost2010PropOp28
 70
     1
102
RTVSPost2010Prop29
280
     1
102
RTVSPost2010PropOp29
 70
     1
102
RTVSPost2010Prop30
280
     1
102
RTVSPost2010PropOp30
 70
     1
102
RTVSPost2010Prop31
280
     0
102
RTVSPost2010PropOp31
 70
     1
102
RTVSPost2010Prop32
280
     0
102
RTVSPost2010PropOp32
 70
     1
102
RTVSPost2010Prop33
280
     0
102
RTVSPost2010PropOp33
 70
     1
102
RTVSPost2010Prop34
280
     0
102
RTVSPost2010PropOp34
 70
     1
102
RTVSPost2010Prop35
280
     0
102
RTVSPost2010PropOp35
 70
     1
102
RTVSPost2010Prop36
280
     0
102
RTVSPost2010PropOp36
 70
     1
102
RTVSPost2010Prop37
 90
       50
102
RTVSPost2010PropOp37
 70
     1
102
RTVSPost2010Prop38
140
0.0
102
RTVSPost2010PropOp38
 70
     1
102
RTVSPost2010Prop39
140
1.0
102
RTVSPost2010PropOp39
 70
     1
102
RTVSPost2010Prop40
 90
        0
102
RTVSPost2010PropOp40
 70
     1
102
RTVSPost2010Prop41ColorIndex
 90
       18
102
RTVSPost2010Prop41ColorRGB
 90
        0
102
RTVSPost2010PropOp41
 70
     1
102
RTVSPost2010Prop42
 90
       50
102
RTVSPost2010PropOp42
 70
     1
102
RTVSPost2010Prop43
 90
        3
102
RTVSPost2010PropOp43
 70
     1
102
RTVSPost2010Prop44ColorIndex
 90
        5
102
RTVSPost2010Prop44ColorRGB
 90
      255
102
RTVSPost2010PropOp44
 70
     1
102
RTVSPost2010Prop45
280
     0
102
RTVSPost2010PropOp45
 70
     1
102
RTVSPost2010Prop46
 90
       50
102
RTVSPost2010PropOp46
 70
     1
102
RTVSPost2010Prop47
 90
       50
102
RTVSPost2010PropOp47
 70
     1
102
RTVSPost2010Prop48
 90
       50
102
RTVSPost2010PropOp48
 70
     1
102
RTVSPost2010Prop49
280
     0
102
RTVSPost2010PropOp49
 70
     1
102
RTVSPost2010Prop50
 90
       50
102
RTVSPost2010PropOp50
 70
     1
102
RTVSPost2010Prop51ColorIndex
 90
      256
102
RTVSPost2010Prop51ColorRGB
 90
-16777216
102
RTVSPost2010PropOp51
 70
     0
102
RTVSPost2010Prop52
140
1.0
102
RTVSPost2010PropOp52
 70
     0
102
RTVSPost2010Prop53
 90
        2
102
RTVSPost2010PropOp53
 70
     1
102
RTVSPost2010Prop54
  1
strokes_ogs.tif
102
RTVSPost2010PropOp54
 70
     1
102
RTVSPost2010Prop55
280
     0
102
RTVSPost2010PropOp55
 70
     1
102
RTVSPost2010Prop56
140
1.0
102
RTVSPost2010PropOp56
 70
     1
102
RTVSPost2010Prop57
140
1.0
102
RTVSPost2010PropOp57
 70
     1
102
RTVSPropertyOp0
 70
     1
102
RTVSPropertyOp1
 70
     1
102
RTVSPropertyOp2
 70
     1
102
RTVSPropertyOp3
 70
     1
102
RTVSPropertyOp4
 70
     1
102
RTVSPropertyOp5
 70
     1
102
RTVSPropertyOp6
 70
     1
102
RTVSPropertyOp7
 70
     1
102
RTVSPropertyOp8
 70
     1
102
RTVSPropertyOp9
 70
     1
102
RTVSPropertyOp10
 70
     1
102
RTVSPropertyOp11
 70
     1
102
RTVSPropertyOp12
 70
     1
102
RTVSPropertyOp13
 70
     1
102
RTVSPropertyOp14
 70
     1
102
RTVSPropertyOp15
 70
     1
102
RTVSPropertyOp16
 70
     1
102
RTVSPropertyOp17
 70
     1
102
RTVSPropertyOp18
 70
     1
102
RTVSPropertyOp19
 70
     1
102
RTVSPropertyOp20
 70
     1
102
RTVSPropertyOp21
 70
     1
102
RTVSPropertyOp22
 70
     1
102
RTVSPropertyOp23
 70
     1
102
RTVSPropertyOp24
 70
     1
102
RTVSPropertyOp25
 70
     1
102
RTVSPropertyOp26
 70
     1
102
RTVSPropertyOp27
 70
     1
102
RTVSPropertyOp28
 70
     1
102
RTVSPropertyOp29
 70
     1
102
RTVSPropertyOp30
 70
     1
102
RTVSPropertyOp31
 70
     1
102
RTVSPropertyOp32
 70
     1
102
RTVSPropertyOp33
 70
     1
102
RTVSPropertyOp34
 70
     1
102
RTVSPropertyOp35
 70
     1
102
RTVSPropertyOp36
 70
     1
102
RTVSPropertyOp37
 70
     1
102
RTVSPropertyOp38
 70
     1
102
RTVSPropertyOp39
 70
     1
102
RTVSPropertyOp40
 70
     1
102
RTVSPropertyOp41
 70
     1
102
RTVSPropertyOp42
 70
     1
102
RTVSPropertyOp43
 70
     1
102
RTVSPropertyOp44
 70
     1
102
RTVSPropertyOp45
 70
     1
102
RTVSPropertyOp46
 70
     1
102
RTVSPropertyOp47
 70
     1
102
RTVSPropertyOp48
 70
     1
102
RTVSPropertyOp49
 70
     1
102
RTVSPropertyOp50
 70
     1
102
RTVSPropertyOp51
 70
     0
102
RTVSPropertyOp52
 70
     0
102
RTVSPropertyOp53
 70
     1
102
RTVSPropertyOp54
 70
     1
102
RTVSPropertyOp55
 70
     1
102
RTVSPropertyOp56
 70
     1
102
RTVSPropertyOp57
 70
     1
102
RTVSPropertyOp58
 70
     1
102
RTVSPropertyOp59
 70
     1
102
RTVSPropertyOp60
 70
     1
102
RTVSPropertyOp61
 70
     1
102
RTVSPropertyOp62
 70
     1
  0
XRECORD
  5
1763
102
{ACAD_REACTORS
330
1762
102
}
330
1762
100
AcDbXrecord
280
     1
102
RTVSPost2010Prop28
280
     0
102
RTVSPost2010PropOp28
 70
     1
102
RTVSPost2010Prop29
280
     1
102
RTVSPost2010PropOp29
 70
     1
102
RTVSPost2010Prop30
280
     1
102
RTVSPost2010PropOp30
 70
     1
102
RTVSPost2010Prop31
280
     0
102
RTVSPost2010PropOp31
 70
     1
102
RTVSPost2010Prop32
280
     0
102
RTVSPost2010PropOp32
 70
     1
102
RTVSPost2010Prop33
280
     0
102
RTVSPost2010PropOp33
 70
     1
102
RTVSPost2010Prop34
280
     0
102
RTVSPost2010PropOp34
 70
     1
102
RTVSPost2010Prop35
280
     0
102
RTVSPost2010PropOp35
 70
     1
102
RTVSPost2010Prop36
280
     0
102
RTVSPost2010PropOp36
 70
     1
102
RTVSPost2010Prop37
 90
       50
102
RTVSPost2010PropOp37
 70
     1
102
RTVSPost2010Prop38
140
0.0
102
RTVSPost2010PropOp38
 70
     1
102
RTVSPost2010Prop39
140
1.0
102
RTVSPost2010PropOp39
 70
     1
102
RTVSPost2010Prop40
 90
        0
102
RTVSPost2010PropOp40
 70
     1
102
RTVSPost2010Prop41ColorIndex
 90
       18
102
RTVSPost2010Prop41ColorRGB
 90
        0
102
RTVSPost2010PropOp41
 70
     1
102
RTVSPost2010Prop42
 90
       50
102
RTVSPost2010PropOp42
 70
     1
102
RTVSPost2010Prop43
 90
        3
102
RTVSPost2010PropOp43
 70
     1
102
RTVSPost2010Prop44ColorIndex
 90
        5
102
RTVSPost2010Prop44ColorRGB
 90
      255
102
RTVSPost2010PropOp44
 70
     1
102
RTVSPost2010Prop45
280
     0
102
RTVSPost2010PropOp45
 70
     1
102
RTVSPost2010Prop46
 90
       50
102
RTVSPost2010PropOp46
 70
     1
102
RTVSPost2010Prop47
 90
       50
102
RTVSPost2010PropOp47
 70
     1
102
RTVSPost2010Prop48
 90
       50
102
RTVSPost2010PropOp48
 70
     1
102
RTVSPost2010Prop49
280
     0
102
RTVSPost2010PropOp49
 70
     1
102
RTVSPost2010Prop50
 90
       50
102
RTVSPost2010PropOp50
 70
     1
102
RTVSPost2010Prop51ColorIndex
 90
      256
102
RTVSPost2010Prop51ColorRGB
 90
-16777216
102
RTVSPost2010PropOp51
 70
     0
102
RTVSPost2010Prop52
140
1.0
102
RTVSPost2010PropOp52
 70
     0
102
RTVSPost2010Prop53
 90
        2
102
RTVSPost2010PropOp53
 70
     1
102
RTVSPost2010Prop54
  1
strokes_ogs.tif
102
RTVSPost2010PropOp54
 70
     1
102
RTVSPost2010Prop55
280
     0
102
RTVSPost2010PropOp55
 70
     1
102
RTVSPost2010Prop56
140
1.0
102
RTVSPost2010PropOp56
 70
     1
102
RTVSPost2010Prop57
140
1.0
102
RTVSPost2010PropOp57
 70
     1
102
RTVSPropertyOp0
 70
     1
102
RTVSPropertyOp1
 70
     1
102
RTVSPropertyOp2
 70
     1
102
RTVSPropertyOp3
 70
     1
102
RTVSPropertyOp4
 70
     1
102
RTVSPropertyOp5
 70
     1
102
RTVSPropertyOp6
 70
     1
102
RTVSPropertyOp7
 70
     1
102
RTVSPropertyOp8
 70
     1
102
RTVSPropertyOp9
 70
     1
102
RTVSPropertyOp10
 70
     1
102
RTVSPropertyOp11
 70
     1
102
RTVSPropertyOp12
 70
     1
102
RTVSPropertyOp13
 70
     1
102
RTVSPropertyOp14
 70
     1
102
RTVSPropertyOp15
 70
     1
102
RTVSPropertyOp16
 70
     1
102
RTVSPropertyOp17
 70
     1
102
RTVSPropertyOp18
 70
     1
102
RTVSPropertyOp19
 70
     1
102
RTVSPropertyOp20
 70
     1
102
RTVSPropertyOp21
 70
     1
102
RTVSPropertyOp22
 70
     1
102
RTVSPropertyOp23
 70
     1
102
RTVSPropertyOp24
 70
     1
102
RTVSPropertyOp25
 70
     1
102
RTVSPropertyOp26
 70
     1
102
RTVSPropertyOp27
 70
     1
102
RTVSPropertyOp28
 70
     1
102
RTVSPropertyOp29
 70
     1
102
RTVSPropertyOp30
 70
     1
102
RTVSPropertyOp31
 70
     1
102
RTVSPropertyOp32
 70
     1
102
RTVSPropertyOp33
 70
     1
102
RTVSPropertyOp34
 70
     1
102
RTVSPropertyOp35
 70
     1
102
RTVSPropertyOp36
 70
     1
102
RTVSPropertyOp37
 70
     1
102
RTVSPropertyOp38
 70
     1
102
RTVSPropertyOp39
 70
     1
102
RTVSPropertyOp40
 70
     1
102
RTVSPropertyOp41
 70
     1
102
RTVSPropertyOp42
 70
     1
102
RTVSPropertyOp43
 70
     1
102
RTVSPropertyOp44
 70
     1
102
RTVSPropertyOp45
 70
     1
102
RTVSPropertyOp46
 70
     1
102
RTVSPropertyOp47
 70
     1
102
RTVSPropertyOp48
 70
     1
102
RTVSPropertyOp49
 70
     1
102
RTVSPropertyOp50
 70
     1
102
RTVSPropertyOp51
 70
     0
102
RTVSPropertyOp52
 70
     0
102
RTVSPropertyOp53
 70
     1
102
RTVSPropertyOp54
 70
     1
102
RTVSPropertyOp55
 70
     1
102
RTVSPropertyOp56
 70
     1
102
RTVSPropertyOp57
 70
     1
102
RTVSPropertyOp58
 70
     1
102
RTVSPropertyOp59
 70
     1
102
RTVSPropertyOp60
 70
     1
102
RTVSPropertyOp61
 70
     1
102
RTVSPropertyOp62
 70
     1
  0
XRECORD
  5
176B
102
{ACAD_REACTORS
330
176A
102
}
330
176A
100
AcDbXrecord
280
     1
102
RTVSPost2010Prop28
280
     0
102
RTVSPost2010PropOp28
 70
     1
102
RTVSPost2010Prop29
280
     1
102
RTVSPost2010PropOp29
 70
     1
102
RTVSPost2010Prop30
280
     1
102
RTVSPost2010PropOp30
 70
     1
102
RTVSPost2010Prop31
280
     0
102
RTVSPost2010PropOp31
 70
     1
102
RTVSPost2010Prop32
280
     0
102
RTVSPost2010PropOp32
 70
     1
102
RTVSPost2010Prop33
280
     0
102
RTVSPost2010PropOp33
 70
     1
102
RTVSPost2010Prop34
280
     0
102
RTVSPost2010PropOp34
 70
     1
102
RTVSPost2010Prop35
280
     0
102
RTVSPost2010PropOp35
 70
     1
102
RTVSPost2010Prop36
280
     0
102
RTVSPost2010PropOp36
 70
     1
102
RTVSPost2010Prop37
 90
       50
102
RTVSPost2010PropOp37
 70
     1
102
RTVSPost2010Prop38
140
0.0
102
RTVSPost2010PropOp38
 70
     1
102
RTVSPost2010Prop39
140
1.0
102
RTVSPost2010PropOp39
 70
     1
102
RTVSPost2010Prop40
 90
        0
102
RTVSPost2010PropOp40
 70
     1
102
RTVSPost2010Prop41ColorIndex
 90
       18
102
RTVSPost2010Prop41ColorRGB
 90
        0
102
RTVSPost2010PropOp41
 70
     1
102
RTVSPost2010Prop42
 90
       50
102
RTVSPost2010PropOp42
 70
     1
102
RTVSPost2010Prop43
 90
        3
102
RTVSPost2010PropOp43
 70
     1
102
RTVSPost2010Prop44ColorIndex
 90
        5
102
RTVSPost2010Prop44ColorRGB
 90
      255
102
RTVSPost2010PropOp44
 70
     1
102
RTVSPost2010Prop45
280
     0
102
RTVSPost2010PropOp45
 70
     1
102
RTVSPost2010Prop46
 90
       50
102
RTVSPost2010PropOp46
 70
     1
102
RTVSPost2010Prop47
 90
       50
102
RTVSPost2010PropOp47
 70
     1
102
RTVSPost2010Prop48
 90
       50
102
RTVSPost2010PropOp48
 70
     1
102
RTVSPost2010Prop49
280
     0
102
RTVSPost2010PropOp49
 70
     1
102
RTVSPost2010Prop50
 90
       50
102
RTVSPost2010PropOp50
 70
     1
102
RTVSPost2010Prop51ColorIndex
 90
      256
102
RTVSPost2010Prop51ColorRGB
 90
-16777216
102
RTVSPost2010PropOp51
 70
     0
102
RTVSPost2010Prop52
140
1.0
102
RTVSPost2010PropOp52
 70
     0
102
RTVSPost2010Prop53
 90
        2
102
RTVSPost2010PropOp53
 70
     1
102
RTVSPost2010Prop54
  1
strokes_ogs.tif
102
RTVSPost2010PropOp54
 70
     1
102
RTVSPost2010Prop55
280
     0
102
RTVSPost2010PropOp55
 70
     1
102
RTVSPost2010Prop56
140
1.0
102
RTVSPost2010PropOp56
 70
     1
102
RTVSPost2010Prop57
140
1.0
102
RTVSPost2010PropOp57
 70
     1
102
RTVSPropertyOp0
 70
     1
102
RTVSPropertyOp1
 70
     1
102
RTVSPropertyOp2
 70
     1
102
RTVSPropertyOp3
 70
     1
102
RTVSPropertyOp4
 70
     1
102
RTVSPropertyOp5
 70
     1
102
RTVSPropertyOp6
 70
     1
102
RTVSPropertyOp7
 70
     1
102
RTVSPropertyOp8
 70
     1
102
RTVSPropertyOp9
 70
     1
102
RTVSPropertyOp10
 70
     1
102
RTVSPropertyOp11
 70
     1
102
RTVSPropertyOp12
 70
     1
102
RTVSPropertyOp13
 70
     1
102
RTVSPropertyOp14
 70
     1
102
RTVSPropertyOp15
 70
     1
102
RTVSPropertyOp16
 70
     1
102
RTVSPropertyOp17
 70
     1
102
RTVSPropertyOp18
 70
     1
102
RTVSPropertyOp19
 70
     1
102
RTVSPropertyOp20
 70
     1
102
RTVSPropertyOp21
 70
     1
102
RTVSPropertyOp22
 70
     1
102
RTVSPropertyOp23
 70
     1
102
RTVSPropertyOp24
 70
     1
102
RTVSPropertyOp25
 70
     1
102
RTVSPropertyOp26
 70
     1
102
RTVSPropertyOp27
 70
     1
102
RTVSPropertyOp28
 70
     1
102
RTVSPropertyOp29
 70
     1
102
RTVSPropertyOp30
 70
     1
102
RTVSPropertyOp31
 70
     1
102
RTVSPropertyOp32
 70
     1
102
RTVSPropertyOp33
 70
     1
102
RTVSPropertyOp34
 70
     1
102
RTVSPropertyOp35
 70
     1
102
RTVSPropertyOp36
 70
     1
102
RTVSPropertyOp37
 70
     1
102
RTVSPropertyOp38
 70
     1
102
RTVSPropertyOp39
 70
     1
102
RTVSPropertyOp40
 70
     1
102
RTVSPropertyOp41
 70
     1
102
RTVSPropertyOp42
 70
     1
102
RTVSPropertyOp43
 70
     1
102
RTVSPropertyOp44
 70
     1
102
RTVSPropertyOp45
 70
     1
102
RTVSPropertyOp46
 70
     1
102
RTVSPropertyOp47
 70
     1
102
RTVSPropertyOp48
 70
     1
102
RTVSPropertyOp49
 70
     1
102
RTVSPropertyOp50
 70
     1
102
RTVSPropertyOp51
 70
     0
102
RTVSPropertyOp52
 70
     0
102
RTVSPropertyOp53
 70
     1
102
RTVSPropertyOp54
 70
     1
102
RTVSPropertyOp55
 70
     1
102
RTVSPropertyOp56
 70
     1
102
RTVSPropertyOp57
 70
     1
102
RTVSPropertyOp58
 70
     1
102
RTVSPropertyOp59
 70
     1
102
RTVSPropertyOp60
 70
     1
102
RTVSPropertyOp61
 70
     1
102
RTVSPropertyOp62
 70
     1
  0
XRECORD
  5
175D
102
{ACAD_REACTORS
330
175C
102
}
330
175C
100
AcDbXrecord
280
     1
102
RTVSPost2010Prop28
280
     0
102
RTVSPost2010PropOp28
 70
     1
102
RTVSPost2010Prop29
280
     1
102
RTVSPost2010PropOp29
 70
     1
102
RTVSPost2010Prop30
280
     1
102
RTVSPost2010PropOp30
 70
     1
102
RTVSPost2010Prop31
280
     0
102
RTVSPost2010PropOp31
 70
     1
102
RTVSPost2010Prop32
280
     0
102
RTVSPost2010PropOp32
 70
     1
102
RTVSPost2010Prop33
280
     0
102
RTVSPost2010PropOp33
 70
     1
102
RTVSPost2010Prop34
280
     0
102
RTVSPost2010PropOp34
 70
     1
102
RTVSPost2010Prop35
280
     0
102
RTVSPost2010PropOp35
 70
     1
102
RTVSPost2010Prop36
280
     0
102
RTVSPost2010PropOp36
 70
     1
102
RTVSPost2010Prop37
 90
       50
102
RTVSPost2010PropOp37
 70
     1
102
RTVSPost2010Prop38
140
0.0
102
RTVSPost2010PropOp38
 70
     1
102
RTVSPost2010Prop39
140
1.0
102
RTVSPost2010PropOp39
 70
     1
102
RTVSPost2010Prop40
 90
        0
102
RTVSPost2010PropOp40
 70
     1
102
RTVSPost2010Prop41ColorIndex
 90
       18
102
RTVSPost2010Prop41ColorRGB
 90
        0
102
RTVSPost2010PropOp41
 70
     1
102
RTVSPost2010Prop42
 90
       50
102
RTVSPost2010PropOp42
 70
     1
102
RTVSPost2010Prop43
 90
        3
102
RTVSPost2010PropOp43
 70
     1
102
RTVSPost2010Prop44ColorIndex
 90
        5
102
RTVSPost2010Prop44ColorRGB
 90
      255
102
RTVSPost2010PropOp44
 70
     1
102
RTVSPost2010Prop45
280
     0
102
RTVSPost2010PropOp45
 70
     1
102
RTVSPost2010Prop46
 90
       50
102
RTVSPost2010PropOp46
 70
     1
102
RTVSPost2010Prop47
 90
       50
102
RTVSPost2010PropOp47
 70
     1
102
RTVSPost2010Prop48
 90
       50
102
RTVSPost2010PropOp48
 70
     1
102
RTVSPost2010Prop49
280
     0
102
RTVSPost2010PropOp49
 70
     1
102
RTVSPost2010Prop50
 90
       50
102
RTVSPost2010PropOp50
 70
     1
102
RTVSPost2010Prop51ColorIndex
 90
      256
102
RTVSPost2010Prop51ColorRGB
 90
-16777216
102
RTVSPost2010PropOp51
 70
     0
102
RTVSPost2010Prop52
140
1.0
102
RTVSPost2010PropOp52
 70
     0
102
RTVSPost2010Prop53
 90
        2
102
RTVSPost2010PropOp53
 70
     1
102
RTVSPost2010Prop54
  1
strokes_ogs.tif
102
RTVSPost2010PropOp54
 70
     1
102
RTVSPost2010Prop55
280
     0
102
RTVSPost2010PropOp55
 70
     1
102
RTVSPost2010Prop56
140
1.0
102
RTVSPost2010PropOp56
 70
     1
102
RTVSPost2010Prop57
140
1.0
102
RTVSPost2010PropOp57
 70
     1
102
RTVSPropertyOp0
 70
     1
102
RTVSPropertyOp1
 70
     1
102
RTVSPropertyOp2
 70
     1
102
RTVSPropertyOp3
 70
     1
102
RTVSPropertyOp4
 70
     1
102
RTVSPropertyOp5
 70
     1
102
RTVSPropertyOp6
 70
     1
102
RTVSPropertyOp7
 70
     1
102
RTVSPropertyOp8
 70
     1
102
RTVSPropertyOp9
 70
     1
102
RTVSPropertyOp10
 70
     1
102
RTVSPropertyOp11
 70
     1
102
RTVSPropertyOp12
 70
     1
102
RTVSPropertyOp13
 70
     1
102
RTVSPropertyOp14
 70
     1
102
RTVSPropertyOp15
 70
     1
102
RTVSPropertyOp16
 70
     1
102
RTVSPropertyOp17
 70
     1
102
RTVSPropertyOp18
 70
     1
102
RTVSPropertyOp19
 70
     1
102
RTVSPropertyOp20
 70
     1
102
RTVSPropertyOp21
 70
     1
102
RTVSPropertyOp22
 70
     1
102
RTVSPropertyOp23
 70
     1
102
RTVSPropertyOp24
 70
     1
102
RTVSPropertyOp25
 70
     1
102
RTVSPropertyOp26
 70
     1
102
RTVSPropertyOp27
 70
     1
102
RTVSPropertyOp28
 70
     1
102
RTVSPropertyOp29
 70
     1
102
RTVSPropertyOp30
 70
     1
102
RTVSPropertyOp31
 70
     1
102
RTVSPropertyOp32
 70
     1
102
RTVSPropertyOp33
 70
     1
102
RTVSPropertyOp34
 70
     1
102
RTVSPropertyOp35
 70
     1
102
RTVSPropertyOp36
 70
     1
102
RTVSPropertyOp37
 70
     1
102
RTVSPropertyOp38
 70
     1
102
RTVSPropertyOp39
 70
     1
102
RTVSPropertyOp40
 70
     1
102
RTVSPropertyOp41
 70
     1
102
RTVSPropertyOp42
 70
     1
102
RTVSPropertyOp43
 70
     1
102
RTVSPropertyOp44
 70
     1
102
RTVSPropertyOp45
 70
     1
102
RTVSPropertyOp46
 70
     1
102
RTVSPropertyOp47
 70
     1
102
RTVSPropertyOp48
 70
     1
102
RTVSPropertyOp49
 70
     1
102
RTVSPropertyOp50
 70
     1
102
RTVSPropertyOp51
 70
     0
102
RTVSPropertyOp52
 70
     0
102
RTVSPropertyOp53
 70
     1
102
RTVSPropertyOp54
 70
     1
102
RTVSPropertyOp55
 70
     1
102
RTVSPropertyOp56
 70
     1
102
RTVSPropertyOp57
 70
     1
102
RTVSPropertyOp58
 70
     1
102
RTVSPropertyOp59
 70
     1
102
RTVSPropertyOp60
 70
     1
102
RTVSPropertyOp61
 70
     1
102
RTVSPropertyOp62
 70
     1
  0
XRECORD
  5
1761
102
{ACAD_REACTORS
330
1760
102
}
330
1760
100
AcDbXrecord
280
     1
102
RTVSPost2010Prop28
280
     0
102
RTVSPost2010PropOp28
 70
     1
102
RTVSPost2010Prop29
280
     1
102
RTVSPost2010PropOp29
 70
     1
102
RTVSPost2010Prop30
280
     1
102
RTVSPost2010PropOp30
 70
     1
102
RTVSPost2010Prop31
280
     0
102
RTVSPost2010PropOp31
 70
     1
102
RTVSPost2010Prop32
280
     0
102
RTVSPost2010PropOp32
 70
     1
102
RTVSPost2010Prop33
280
     0
102
RTVSPost2010PropOp33
 70
     1
102
RTVSPost2010Prop34
280
     0
102
RTVSPost2010PropOp34
 70
     1
102
RTVSPost2010Prop35
280
     0
102
RTVSPost2010PropOp35
 70
     1
102
RTVSPost2010Prop36
280
     0
102
RTVSPost2010PropOp36
 70
     1
102
RTVSPost2010Prop37
 90
       50
102
RTVSPost2010PropOp37
 70
     1
102
RTVSPost2010Prop38
140
0.0
102
RTVSPost2010PropOp38
 70
     1
102
RTVSPost2010Prop39
140
1.0
102
RTVSPost2010PropOp39
 70
     1
102
RTVSPost2010Prop40
 90
        0
102
RTVSPost2010PropOp40
 70
     1
102
RTVSPost2010Prop41ColorIndex
 90
       18
102
RTVSPost2010Prop41ColorRGB
 90
        0
102
RTVSPost2010PropOp41
 70
     1
102
RTVSPost2010Prop42
 90
       50
102
RTVSPost2010PropOp42
 70
     1
102
RTVSPost2010Prop43
 90
        3
102
RTVSPost2010PropOp43
 70
     1
102
RTVSPost2010Prop44ColorIndex
 90
        5
102
RTVSPost2010Prop44ColorRGB
 90
      255
102
RTVSPost2010PropOp44
 70
     1
102
RTVSPost2010Prop45
280
     0
102
RTVSPost2010PropOp45
 70
     1
102
RTVSPost2010Prop46
 90
       50
102
RTVSPost2010PropOp46
 70
     1
102
RTVSPost2010Prop47
 90
       50
102
RTVSPost2010PropOp47
 70
     1
102
RTVSPost2010Prop48
 90
       50
102
RTVSPost2010PropOp48
 70
     1
102
RTVSPost2010Prop49
280
     0
102
RTVSPost2010PropOp49
 70
     1
102
RTVSPost2010Prop50
 90
       50
102
RTVSPost2010PropOp50
 70
     1
102
RTVSPost2010Prop51ColorIndex
 90
      256
102
RTVSPost2010Prop51ColorRGB
 90
-16777216
102
RTVSPost2010PropOp51
 70
     0
102
RTVSPost2010Prop52
140
1.0
102
RTVSPost2010PropOp52
 70
     0
102
RTVSPost2010Prop53
 90
        2
102
RTVSPost2010PropOp53
 70
     1
102
RTVSPost2010Prop54
  1
strokes_ogs.tif
102
RTVSPost2010PropOp54
 70
     1
102
RTVSPost2010Prop55
280
     0
102
RTVSPost2010PropOp55
 70
     1
102
RTVSPost2010Prop56
140
1.0
102
RTVSPost2010PropOp56
 70
     1
102
RTVSPost2010Prop57
140
1.0
102
RTVSPost2010PropOp57
 70
     1
102
RTVSPropertyOp0
 70
     1
102
RTVSPropertyOp1
 70
     1
102
RTVSPropertyOp2
 70
     1
102
RTVSPropertyOp3
 70
     1
102
RTVSPropertyOp4
 70
     1
102
RTVSPropertyOp5
 70
     1
102
RTVSPropertyOp6
 70
     1
102
RTVSPropertyOp7
 70
     1
102
RTVSPropertyOp8
 70
     1
102
RTVSPropertyOp9
 70
     1
102
RTVSPropertyOp10
 70
     1
102
RTVSPropertyOp11
 70
     1
102
RTVSPropertyOp12
 70
     1
102
RTVSPropertyOp13
 70
     1
102
RTVSPropertyOp14
 70
     1
102
RTVSPropertyOp15
 70
     1
102
RTVSPropertyOp16
 70
     1
102
RTVSPropertyOp17
 70
     1
102
RTVSPropertyOp18
 70
     1
102
RTVSPropertyOp19
 70
     1
102
RTVSPropertyOp20
 70
     1
102
RTVSPropertyOp21
 70
     1
102
RTVSPropertyOp22
 70
     1
102
RTVSPropertyOp23
 70
     1
102
RTVSPropertyOp24
 70
     1
102
RTVSPropertyOp25
 70
     1
102
RTVSPropertyOp26
 70
     1
102
RTVSPropertyOp27
 70
     1
102
RTVSPropertyOp28
 70
     1
102
RTVSPropertyOp29
 70
     1
102
RTVSPropertyOp30
 70
     1
102
RTVSPropertyOp31
 70
     1
102
RTVSPropertyOp32
 70
     1
102
RTVSPropertyOp33
 70
     1
102
RTVSPropertyOp34
 70
     1
102
RTVSPropertyOp35
 70
     1
102
RTVSPropertyOp36
 70
     1
102
RTVSPropertyOp37
 70
     1
102
RTVSPropertyOp38
 70
     1
102
RTVSPropertyOp39
 70
     1
102
RTVSPropertyOp40
 70
     1
102
RTVSPropertyOp41
 70
     1
102
RTVSPropertyOp42
 70
     1
102
RTVSPropertyOp43
 70
     1
102
RTVSPropertyOp44
 70
     1
102
RTVSPropertyOp45
 70
     1
102
RTVSPropertyOp46
 70
     1
102
RTVSPropertyOp47
 70
     1
102
RTVSPropertyOp48
 70
     1
102
RTVSPropertyOp49
 70
     1
102
RTVSPropertyOp50
 70
     1
102
RTVSPropertyOp51
 70
     0
102
RTVSPropertyOp52
 70
     0
102
RTVSPropertyOp53
 70
     1
102
RTVSPropertyOp54
 70
     1
102
RTVSPropertyOp55
 70
     1
102
RTVSPropertyOp56
 70
     1
102
RTVSPropertyOp57
 70
     1
102
RTVSPropertyOp58
 70
     1
102
RTVSPropertyOp59
 70
     1
102
RTVSPropertyOp60
 70
     1
102
RTVSPropertyOp61
 70
     1
102
RTVSPropertyOp62
 70
     1
  0
XRECORD
  5
177A
102
{ACAD_REACTORS
330
1779
102
}
330
1779
100
AcDbXrecord
280
     1
102
RTVSPost2010Prop28
280
     0
102
RTVSPost2010PropOp28
 70
     1
102
RTVSPost2010Prop29
280
     1
102
RTVSPost2010PropOp29
 70
     1
102
RTVSPost2010Prop30
280
     1
102
RTVSPost2010PropOp30
 70
     1
102
RTVSPost2010Prop31
280
     0
102
RTVSPost2010PropOp31
 70
     1
102
RTVSPost2010Prop32
280
     0
102
RTVSPost2010PropOp32
 70
     1
102
RTVSPost2010Prop33
280
     0
102
RTVSPost2010PropOp33
 70
     1
102
RTVSPost2010Prop34
280
     0
102
RTVSPost2010PropOp34
 70
     1
102
RTVSPost2010Prop35
280
     0
102
RTVSPost2010PropOp35
 70
     1
102
RTVSPost2010Prop36
280
     0
102
RTVSPost2010PropOp36
 70
     1
102
RTVSPost2010Prop37
 90
       50
102
RTVSPost2010PropOp37
 70
     1
102
RTVSPost2010Prop38
140
0.0
102
RTVSPost2010PropOp38
 70
     1
102
RTVSPost2010Prop39
140
1.0
102
RTVSPost2010PropOp39
 70
     1
102
RTVSPost2010Prop40
 90
        0
102
RTVSPost2010PropOp40
 70
     1
102
RTVSPost2010Prop41ColorIndex
 90
       18
102
RTVSPost2010Prop41ColorRGB
 90
        0
102
RTVSPost2010PropOp41
 70
     1
102
RTVSPost2010Prop42
 90
       50
102
RTVSPost2010PropOp42
 70
     1
102
RTVSPost2010Prop43
 90
        3
102
RTVSPost2010PropOp43
 70
     1
102
RTVSPost2010Prop44ColorIndex
 90
        5
102
RTVSPost2010Prop44ColorRGB
 90
      255
102
RTVSPost2010PropOp44
 70
     1
102
RTVSPost2010Prop45
280
     0
102
RTVSPost2010PropOp45
 70
     1
102
RTVSPost2010Prop46
 90
       50
102
RTVSPost2010PropOp46
 70
     1
102
RTVSPost2010Prop47
 90
       50
102
RTVSPost2010PropOp47
 70
     1
102
RTVSPost2010Prop48
 90
       50
102
RTVSPost2010PropOp48
 70
     1
102
RTVSPost2010Prop49
280
     0
102
RTVSPost2010PropOp49
 70
     1
102
RTVSPost2010Prop50
 90
       50
102
RTVSPost2010PropOp50
 70
     1
102
RTVSPost2010Prop51ColorIndex
 90
      256
102
RTVSPost2010Prop51ColorRGB
 90
-16777216
102
RTVSPost2010PropOp51
 70
     0
102
RTVSPost2010Prop52
140
1.0
102
RTVSPost2010PropOp52
 70
     0
102
RTVSPost2010Prop53
 90
        2
102
RTVSPost2010PropOp53
 70
     1
102
RTVSPost2010Prop54
  1
strokes_ogs.tif
102
RTVSPost2010PropOp54
 70
     1
102
RTVSPost2010Prop55
280
     0
102
RTVSPost2010PropOp55
 70
     1
102
RTVSPost2010Prop56
140
1.0
102
RTVSPost2010PropOp56
 70
     1
102
RTVSPost2010Prop57
140
1.0
102
RTVSPost2010PropOp57
 70
     1
102
RTVSPropertyOp0
 70
     0
102
RTVSPropertyOp1
 70
     0
102
RTVSPropertyOp2
 70
     0
102
RTVSPropertyOp3
 70
     0
102
RTVSPropertyOp4
 70
     0
102
RTVSPropertyOp5
 70
     0
102
RTVSPropertyOp6
 70
     0
102
RTVSPropertyOp7
 70
     0
102
RTVSPropertyOp8
 70
     0
102
RTVSPropertyOp9
 70
     0
102
RTVSPropertyOp10
 70
     0
102
RTVSPropertyOp11
 70
     0
102
RTVSPropertyOp12
 70
     0
102
RTVSPropertyOp13
 70
     0
102
RTVSPropertyOp14
 70
     2
102
RTVSPropertyOp15
 70
     0
102
RTVSPropertyOp16
 70
     0
102
RTVSPropertyOp17
 70
     0
102
RTVSPropertyOp18
 70
     0
102
RTVSPropertyOp19
 70
     0
102
RTVSPropertyOp20
 70
     0
102
RTVSPropertyOp21
 70
     0
102
RTVSPropertyOp22
 70
     0
102
RTVSPropertyOp23
 70
     0
102
RTVSPropertyOp24
 70
     0
102
RTVSPropertyOp25
 70
     0
102
RTVSPropertyOp26
 70
     0
102
RTVSPropertyOp27
 70
     0
102
RTVSPropertyOp28
 70
     1
102
RTVSPropertyOp29
 70
     1
102
RTVSPropertyOp30
 70
     1
102
RTVSPropertyOp31
 70
     1
102
RTVSPropertyOp32
 70
     1
102
RTVSPropertyOp33
 70
     1
102
RTVSPropertyOp34
 70
     1
102
RTVSPropertyOp35
 70
     1
102
RTVSPropertyOp36
 70
     1
102
RTVSPropertyOp37
 70
     1
102
RTVSPropertyOp38
 70
     1
102
RTVSPropertyOp39
 70
     1
102
RTVSPropertyOp40
 70
     1
102
RTVSPropertyOp41
 70
     1
102
RTVSPropertyOp42
 70
     1
102
RTVSPropertyOp43
 70
     1
102
RTVSPropertyOp44
 70
     1
102
RTVSPropertyOp45
 70
     1
102
RTVSPropertyOp46
 70
     1
102
RTVSPropertyOp47
 70
     1
102
RTVSPropertyOp48
 70
     1
102
RTVSPropertyOp49
 70
     1
102
RTVSPropertyOp50
 70
     1
102
RTVSPropertyOp51
 70
     0
102
RTVSPropertyOp52
 70
     0
102
RTVSPropertyOp53
 70
     1
102
RTVSPropertyOp54
 70
     1
102
RTVSPropertyOp55
 70
     1
102
RTVSPropertyOp56
 70
     1
102
RTVSPropertyOp57
 70
     1
102
RTVSPropertyOp58
 70
     1
102
RTVSPropertyOp59
 70
     1
102
RTVSPropertyOp60
 70
     1
102
RTVSPropertyOp61
 70
     1
102
RTVSPropertyOp62
 70
     1
  0
XRECORD
  5
1769
102
{ACAD_REACTORS
330
1768
102
}
330
1768
100
AcDbXrecord
280
     1
102
RTVSPost2010Prop28
280
     0
102
RTVSPost2010PropOp28
 70
     1
102
RTVSPost2010Prop29
280
     1
102
RTVSPost2010PropOp29
 70
     1
102
RTVSPost2010Prop30
280
     1
102
RTVSPost2010PropOp30
 70
     1
102
RTVSPost2010Prop31
280
     0
102
RTVSPost2010PropOp31
 70
     1
102
RTVSPost2010Prop32
280
     0
102
RTVSPost2010PropOp32
 70
     1
102
RTVSPost2010Prop33
280
     0
102
RTVSPost2010PropOp33
 70
     1
102
RTVSPost2010Prop34
280
     0
102
RTVSPost2010PropOp34
 70
     1
102
RTVSPost2010Prop35
280
     0
102
RTVSPost2010PropOp35
 70
     1
102
RTVSPost2010Prop36
280
     0
102
RTVSPost2010PropOp36
 70
     1
102
RTVSPost2010Prop37
 90
       50
102
RTVSPost2010PropOp37
 70
     1
102
RTVSPost2010Prop38
140
0.0
102
RTVSPost2010PropOp38
 70
     1
102
RTVSPost2010Prop39
140
1.0
102
RTVSPost2010PropOp39
 70
     1
102
RTVSPost2010Prop40
 90
        0
102
RTVSPost2010PropOp40
 70
     1
102
RTVSPost2010Prop41ColorIndex
 90
       18
102
RTVSPost2010Prop41ColorRGB
 90
        0
102
RTVSPost2010PropOp41
 70
     1
102
RTVSPost2010Prop42
 90
       50
102
RTVSPost2010PropOp42
 70
     1
102
RTVSPost2010Prop43
 90
        3
102
RTVSPost2010PropOp43
 70
     1
102
RTVSPost2010Prop44ColorIndex
 90
        5
102
RTVSPost2010Prop44ColorRGB
 90
      255
102
RTVSPost2010PropOp44
 70
     1
102
RTVSPost2010Prop45
280
     0
102
RTVSPost2010PropOp45
 70
     1
102
RTVSPost2010Prop46
 90
       50
102
RTVSPost2010PropOp46
 70
     1
102
RTVSPost2010Prop47
 90
       50
102
RTVSPost2010PropOp47
 70
     1
102
RTVSPost2010Prop48
 90
       50
102
RTVSPost2010PropOp48
 70
     1
102
RTVSPost2010Prop49
280
     0
102
RTVSPost2010PropOp49
 70
     1
102
RTVSPost2010Prop50
 90
       50
102
RTVSPost2010PropOp50
 70
     1
102
RTVSPost2010Prop51ColorIndex
 90
      256
102
RTVSPost2010Prop51ColorRGB
 90
-16777216
102
RTVSPost2010PropOp51
 70
     0
102
RTVSPost2010Prop52
140
1.0
102
RTVSPost2010PropOp52
 70
     0
102
RTVSPost2010Prop53
 90
        2
102
RTVSPost2010PropOp53
 70
     1
102
RTVSPost2010Prop54
  1
strokes_ogs.tif
102
RTVSPost2010PropOp54
 70
     1
102
RTVSPost2010Prop55
280
     0
102
RTVSPost2010PropOp55
 70
     1
102
RTVSPost2010Prop56
140
1.0
102
RTVSPost2010PropOp56
 70
     1
102
RTVSPost2010Prop57
140
1.0
102
RTVSPost2010PropOp57
 70
     1
102
RTVSPropertyOp0
 70
     1
102
RTVSPropertyOp1
 70
     1
102
RTVSPropertyOp2
 70
     1
102
RTVSPropertyOp3
 70
     1
102
RTVSPropertyOp4
 70
     1
102
RTVSPropertyOp5
 70
     1
102
RTVSPropertyOp6
 70
     1
102
RTVSPropertyOp7
 70
     1
102
RTVSPropertyOp8
 70
     1
102
RTVSPropertyOp9
 70
     1
102
RTVSPropertyOp10
 70
     1
102
RTVSPropertyOp11
 70
     1
102
RTVSPropertyOp12
 70
     1
102
RTVSPropertyOp13
 70
     1
102
RTVSPropertyOp14
 70
     1
102
RTVSPropertyOp15
 70
     1
102
RTVSPropertyOp16
 70
     1
102
RTVSPropertyOp17
 70
     1
102
RTVSPropertyOp18
 70
     1
102
RTVSPropertyOp19
 70
     1
102
RTVSPropertyOp20
 70
     1
102
RTVSPropertyOp21
 70
     1
102
RTVSPropertyOp22
 70
     1
102
RTVSPropertyOp23
 70
     1
102
RTVSPropertyOp24
 70
     1
102
RTVSPropertyOp25
 70
     1
102
RTVSPropertyOp26
 70
     1
102
RTVSPropertyOp27
 70
     1
102
RTVSPropertyOp28
 70
     1
102
RTVSPropertyOp29
 70
     1
102
RTVSPropertyOp30
 70
     1
102
RTVSPropertyOp31
 70
     1
102
RTVSPropertyOp32
 70
     1
102
RTVSPropertyOp33
 70
     1
102
RTVSPropertyOp34
 70
     1
102
RTVSPropertyOp35
 70
     1
102
RTVSPropertyOp36
 70
     1
102
RTVSPropertyOp37
 70
     1
102
RTVSPropertyOp38
 70
     1
102
RTVSPropertyOp39
 70
     1
102
RTVSPropertyOp40
 70
     1
102
RTVSPropertyOp41
 70
     1
102
RTVSPropertyOp42
 70
     1
102
RTVSPropertyOp43
 70
     1
102
RTVSPropertyOp44
 70
     1
102
RTVSPropertyOp45
 70
     1
102
RTVSPropertyOp46
 70
     1
102
RTVSPropertyOp47
 70
     1
102
RTVSPropertyOp48
 70
     1
102
RTVSPropertyOp49
 70
     1
102
RTVSPropertyOp50
 70
     1
102
RTVSPropertyOp51
 70
     0
102
RTVSPropertyOp52
 70
     0
102
RTVSPropertyOp53
 70
     1
102
RTVSPropertyOp54
 70
     1
102
RTVSPropertyOp55
 70
     1
102
RTVSPropertyOp56
 70
     1
102
RTVSPropertyOp57
 70
     1
102
RTVSPropertyOp58
 70
     1
102
RTVSPropertyOp59
 70
     1
102
RTVSPropertyOp60
 70
     1
102
RTVSPropertyOp61
 70
     1
102
RTVSPropertyOp62
 70
     1
  0
XRECORD
  5
174D
102
{ACAD_REACTORS
330
174C
102
}
330
174C
100
AcDbXrecord
280
     1
102
RTVSPost2010Prop28
280
     0
102
RTVSPost2010PropOp28
 70
     1
102
RTVSPost2010Prop29
280
     1
102
RTVSPost2010PropOp29
 70
     1
102
RTVSPost2010Prop30
280
     1
102
RTVSPost2010PropOp30
 70
     1
102
RTVSPost2010Prop31
280
     0
102
RTVSPost2010PropOp31
 70
     1
102
RTVSPost2010Prop32
280
     0
102
RTVSPost2010PropOp32
 70
     1
102
RTVSPost2010Prop33
280
     0
102
RTVSPost2010PropOp33
 70
     1
102
RTVSPost2010Prop34
280
     0
102
RTVSPost2010PropOp34
 70
     1
102
RTVSPost2010Prop35
280
     0
102
RTVSPost2010PropOp35
 70
     1
102
RTVSPost2010Prop36
280
     0
102
RTVSPost2010PropOp36
 70
     1
102
RTVSPost2010Prop37
 90
       50
102
RTVSPost2010PropOp37
 70
     1
102
RTVSPost2010Prop38
140
0.0
102
RTVSPost2010PropOp38
 70
     1
102
RTVSPost2010Prop39
140
1.0
102
RTVSPost2010PropOp39
 70
     1
102
RTVSPost2010Prop40
 90
        0
102
RTVSPost2010PropOp40
 70
     1
102
RTVSPost2010Prop41ColorIndex
 90
       18
102
RTVSPost2010Prop41ColorRGB
 90
        0
102
RTVSPost2010PropOp41
 70
     1
102
RTVSPost2010Prop42
 90
       50
102
RTVSPost2010PropOp42
 70
     1
102
RTVSPost2010Prop43
 90
        3
102
RTVSPost2010PropOp43
 70
     1
102
RTVSPost2010Prop44ColorIndex
 90
        5
102
RTVSPost2010Prop44ColorRGB
 90
      255
102
RTVSPost2010PropOp44
 70
     1
102
RTVSPost2010Prop45
280
     0
102
RTVSPost2010PropOp45
 70
     1
102
RTVSPost2010Prop46
 90
       50
102
RTVSPost2010PropOp46
 70
     1
102
RTVSPost2010Prop47
 90
       50
102
RTVSPost2010PropOp47
 70
     1
102
RTVSPost2010Prop48
 90
       50
102
RTVSPost2010PropOp48
 70
     1
102
RTVSPost2010Prop49
280
     0
102
RTVSPost2010PropOp49
 70
     1
102
RTVSPost2010Prop50
 90
       50
102
RTVSPost2010PropOp50
 70
     1
102
RTVSPost2010Prop51ColorIndex
 90
      256
102
RTVSPost2010Prop51ColorRGB
 90
-16777216
102
RTVSPost2010PropOp51
 70
     0
102
RTVSPost2010Prop52
140
1.0
102
RTVSPost2010PropOp52
 70
     0
102
RTVSPost2010Prop53
 90
        2
102
RTVSPost2010PropOp53
 70
     1
102
RTVSPost2010Prop54
  1
strokes_ogs.tif
102
RTVSPost2010PropOp54
 70
     1
102
RTVSPost2010Prop55
280
     0
102
RTVSPost2010PropOp55
 70
     1
102
RTVSPost2010Prop56
140
1.0
102
RTVSPost2010PropOp56
 70
     1
102
RTVSPost2010Prop57
140
1.0
102
RTVSPost2010PropOp57
 70
     1
102
RTVSPropertyOp0
 70
     1
102
RTVSPropertyOp1
 70
     1
102
RTVSPropertyOp2
 70
     1
102
RTVSPropertyOp3
 70
     1
102
RTVSPropertyOp4
 70
     1
102
RTVSPropertyOp5
 70
     1
102
RTVSPropertyOp6
 70
     1
102
RTVSPropertyOp7
 70
     1
102
RTVSPropertyOp8
 70
     1
102
RTVSPropertyOp9
 70
     1
102
RTVSPropertyOp10
 70
     1
102
RTVSPropertyOp11
 70
     1
102
RTVSPropertyOp12
 70
     1
102
RTVSPropertyOp13
 70
     1
102
RTVSPropertyOp14
 70
     1
102
RTVSPropertyOp15
 70
     1
102
RTVSPropertyOp16
 70
     1
102
RTVSPropertyOp17
 70
     1
102
RTVSPropertyOp18
 70
     1
102
RTVSPropertyOp19
 70
     1
102
RTVSPropertyOp20
 70
     1
102
RTVSPropertyOp21
 70
     1
102
RTVSPropertyOp22
 70
     1
102
RTVSPropertyOp23
 70
     1
102
RTVSPropertyOp24
 70
     1
102
RTVSPropertyOp25
 70
     1
102
RTVSPropertyOp26
 70
     1
102
RTVSPropertyOp27
 70
     1
102
RTVSPropertyOp28
 70
     1
102
RTVSPropertyOp29
 70
     1
102
RTVSPropertyOp30
 70
     1
102
RTVSPropertyOp31
 70
     1
102
RTVSPropertyOp32
 70
     1
102
RTVSPropertyOp33
 70
     1
102
RTVSPropertyOp34
 70
     1
102
RTVSPropertyOp35
 70
     1
102
RTVSPropertyOp36
 70
     1
102
RTVSPropertyOp37
 70
     1
102
RTVSPropertyOp38
 70
     1
102
RTVSPropertyOp39
 70
     1
102
RTVSPropertyOp40
 70
     1
102
RTVSPropertyOp41
 70
     1
102
RTVSPropertyOp42
 70
     1
102
RTVSPropertyOp43
 70
     1
102
RTVSPropertyOp44
 70
     1
102
RTVSPropertyOp45
 70
     1
102
RTVSPropertyOp46
 70
     1
102
RTVSPropertyOp47
 70
     1
102
RTVSPropertyOp48
 70
     1
102
RTVSPropertyOp49
 70
     1
102
RTVSPropertyOp50
 70
     1
102
RTVSPropertyOp51
 70
     0
102
RTVSPropertyOp52
 70
     0
102
RTVSPropertyOp53
 70
     1
102
RTVSPropertyOp54
 70
     1
102
RTVSPropertyOp55
 70
     1
102
RTVSPropertyOp56
 70
     1
102
RTVSPropertyOp57
 70
     1
102
RTVSPropertyOp58
 70
     1
102
RTVSPropertyOp59
 70
     1
102
RTVSPropertyOp60
 70
     1
102
RTVSPropertyOp61
 70
     1
102
RTVSPropertyOp62
 70
     1
  0
XRECORD
  5
174F
102
{ACAD_REACTORS
330
174E
102
}
330
174E
100
AcDbXrecord
280
     1
102
RTVSPost2010Prop28
280
     0
102
RTVSPost2010PropOp28
 70
     1
102
RTVSPost2010Prop29
280
     1
102
RTVSPost2010PropOp29
 70
     1
102
RTVSPost2010Prop30
280
     1
102
RTVSPost2010PropOp30
 70
     1
102
RTVSPost2010Prop31
280
     0
102
RTVSPost2010PropOp31
 70
     1
102
RTVSPost2010Prop32
280
     0
102
RTVSPost2010PropOp32
 70
     1
102
RTVSPost2010Prop33
280
     0
102
RTVSPost2010PropOp33
 70
     1
102
RTVSPost2010Prop34
280
     0
102
RTVSPost2010PropOp34
 70
     1
102
RTVSPost2010Prop35
280
     0
102
RTVSPost2010PropOp35
 70
     1
102
RTVSPost2010Prop36
280
     0
102
RTVSPost2010PropOp36
 70
     1
102
RTVSPost2010Prop37
 90
       50
102
RTVSPost2010PropOp37
 70
     1
102
RTVSPost2010Prop38
140
0.0
102
RTVSPost2010PropOp38
 70
     1
102
RTVSPost2010Prop39
140
1.0
102
RTVSPost2010PropOp39
 70
     1
102
RTVSPost2010Prop40
 90
        0
102
RTVSPost2010PropOp40
 70
     1
102
RTVSPost2010Prop41ColorIndex
 90
       18
102
RTVSPost2010Prop41ColorRGB
 90
        0
102
RTVSPost2010PropOp41
 70
     1
102
RTVSPost2010Prop42
 90
       50
102
RTVSPost2010PropOp42
 70
     1
102
RTVSPost2010Prop43
 90
        3
102
RTVSPost2010PropOp43
 70
     1
102
RTVSPost2010Prop44ColorIndex
 90
        5
102
RTVSPost2010Prop44ColorRGB
 90
      255
102
RTVSPost2010PropOp44
 70
     1
102
RTVSPost2010Prop45
280
     0
102
RTVSPost2010PropOp45
 70
     1
102
RTVSPost2010Prop46
 90
       50
102
RTVSPost2010PropOp46
 70
     1
102
RTVSPost2010Prop47
 90
       50
102
RTVSPost2010PropOp47
 70
     1
102
RTVSPost2010Prop48
 90
       50
102
RTVSPost2010PropOp48
 70
     1
102
RTVSPost2010Prop49
280
     0
102
RTVSPost2010PropOp49
 70
     1
102
RTVSPost2010Prop50
 90
       50
102
RTVSPost2010PropOp50
 70
     1
102
RTVSPost2010Prop51ColorIndex
 90
      256
102
RTVSPost2010Prop51ColorRGB
 90
-16777216
102
RTVSPost2010PropOp51
 70
     0
102
RTVSPost2010Prop52
140
1.0
102
RTVSPost2010PropOp52
 70
     0
102
RTVSPost2010Prop53
 90
        2
102
RTVSPost2010PropOp53
 70
     1
102
RTVSPost2010Prop54
  1
strokes_ogs.tif
102
RTVSPost2010PropOp54
 70
     1
102
RTVSPost2010Prop55
280
     0
102
RTVSPost2010PropOp55
 70
     1
102
RTVSPost2010Prop56
140
1.0
102
RTVSPost2010PropOp56
 70
     1
102
RTVSPost2010Prop57
140
1.0
102
RTVSPost2010PropOp57
 70
     1
102
RTVSPropertyOp0
 70
     1
102
RTVSPropertyOp1
 70
     1
102
RTVSPropertyOp2
 70
     1
102
RTVSPropertyOp3
 70
     1
102
RTVSPropertyOp4
 70
     1
102
RTVSPropertyOp5
 70
     1
102
RTVSPropertyOp6
 70
     1
102
RTVSPropertyOp7
 70
     1
102
RTVSPropertyOp8
 70
     1
102
RTVSPropertyOp9
 70
     1
102
RTVSPropertyOp10
 70
     1
102
RTVSPropertyOp11
 70
     1
102
RTVSPropertyOp12
 70
     1
102
RTVSPropertyOp13
 70
     1
102
RTVSPropertyOp14
 70
     1
102
RTVSPropertyOp15
 70
     1
102
RTVSPropertyOp16
 70
     1
102
RTVSPropertyOp17
 70
     1
102
RTVSPropertyOp18
 70
     1
102
RTVSPropertyOp19
 70
     1
102
RTVSPropertyOp20
 70
     1
102
RTVSPropertyOp21
 70
     1
102
RTVSPropertyOp22
 70
     1
102
RTVSPropertyOp23
 70
     1
102
RTVSPropertyOp24
 70
     1
102
RTVSPropertyOp25
 70
     1
102
RTVSPropertyOp26
 70
     1
102
RTVSPropertyOp27
 70
     1
102
RTVSPropertyOp28
 70
     1
102
RTVSPropertyOp29
 70
     1
102
RTVSPropertyOp30
 70
     1
102
RTVSPropertyOp31
 70
     1
102
RTVSPropertyOp32
 70
     1
102
RTVSPropertyOp33
 70
     1
102
RTVSPropertyOp34
 70
     1
102
RTVSPropertyOp35
 70
     1
102
RTVSPropertyOp36
 70
     1
102
RTVSPropertyOp37
 70
     1
102
RTVSPropertyOp38
 70
     1
102
RTVSPropertyOp39
 70
     1
102
RTVSPropertyOp40
 70
     1
102
RTVSPropertyOp41
 70
     1
102
RTVSPropertyOp42
 70
     1
102
RTVSPropertyOp43
 70
     1
102
RTVSPropertyOp44
 70
     1
102
RTVSPropertyOp45
 70
     1
102
RTVSPropertyOp46
 70
     1
102
RTVSPropertyOp47
 70
     1
102
RTVSPropertyOp48
 70
     1
102
RTVSPropertyOp49
 70
     1
102
RTVSPropertyOp50
 70
     1
102
RTVSPropertyOp51
 70
     0
102
RTVSPropertyOp52
 70
     0
102
RTVSPropertyOp53
 70
     1
102
RTVSPropertyOp54
 70
     1
102
RTVSPropertyOp55
 70
     1
102
RTVSPropertyOp56
 70
     1
102
RTVSPropertyOp57
 70
     1
102
RTVSPropertyOp58
 70
     1
102
RTVSPropertyOp59
 70
     1
102
RTVSPropertyOp60
 70
     1
102
RTVSPropertyOp61
 70
     1
102
RTVSPropertyOp62
 70
     1
  0
XRECORD
  5
1751
102
{ACAD_REACTORS
330
1750
102
}
330
1750
100
AcDbXrecord
280
     1
102
RTVSPost2010Prop28
280
     0
102
RTVSPost2010PropOp28
 70
     1
102
RTVSPost2010Prop29
280
     1
102
RTVSPost2010PropOp29
 70
     1
102
RTVSPost2010Prop30
280
     1
102
RTVSPost2010PropOp30
 70
     1
102
RTVSPost2010Prop31
280
     0
102
RTVSPost2010PropOp31
 70
     1
102
RTVSPost2010Prop32
280
     0
102
RTVSPost2010PropOp32
 70
     1
102
RTVSPost2010Prop33
280
     0
102
RTVSPost2010PropOp33
 70
     1
102
RTVSPost2010Prop34
280
     0
102
RTVSPost2010PropOp34
 70
     1
102
RTVSPost2010Prop35
280
     0
102
RTVSPost2010PropOp35
 70
     1
102
RTVSPost2010Prop36
280
     0
102
RTVSPost2010PropOp36
 70
     1
102
RTVSPost2010Prop37
 90
       50
102
RTVSPost2010PropOp37
 70
     1
102
RTVSPost2010Prop38
140
0.0
102
RTVSPost2010PropOp38
 70
     1
102
RTVSPost2010Prop39
140
1.0
102
RTVSPost2010PropOp39
 70
     1
102
RTVSPost2010Prop40
 90
        0
102
RTVSPost2010PropOp40
 70
     1
102
RTVSPost2010Prop41ColorIndex
 90
       18
102
RTVSPost2010Prop41ColorRGB
 90
        0
102
RTVSPost2010PropOp41
 70
     1
102
RTVSPost2010Prop42
 90
       50
102
RTVSPost2010PropOp42
 70
     1
102
RTVSPost2010Prop43
 90
        3
102
RTVSPost2010PropOp43
 70
     1
102
RTVSPost2010Prop44ColorIndex
 90
        5
102
RTVSPost2010Prop44ColorRGB
 90
      255
102
RTVSPost2010PropOp44
 70
     1
102
RTVSPost2010Prop45
280
     0
102
RTVSPost2010PropOp45
 70
     1
102
RTVSPost2010Prop46
 90
       50
102
RTVSPost2010PropOp46
 70
     1
102
RTVSPost2010Prop47
 90
       50
102
RTVSPost2010PropOp47
 70
     1
102
RTVSPost2010Prop48
 90
       50
102
RTVSPost2010PropOp48
 70
     1
102
RTVSPost2010Prop49
280
     0
102
RTVSPost2010PropOp49
 70
     1
102
RTVSPost2010Prop50
 90
       50
102
RTVSPost2010PropOp50
 70
     1
102
RTVSPost2010Prop51ColorIndex
 90
      256
102
RTVSPost2010Prop51ColorRGB
 90
-16777216
102
RTVSPost2010PropOp51
 70
     0
102
RTVSPost2010Prop52
140
1.0
102
RTVSPost2010PropOp52
 70
     0
102
RTVSPost2010Prop53
 90
        2
102
RTVSPost2010PropOp53
 70
     1
102
RTVSPost2010Prop54
  1
strokes_ogs.tif
102
RTVSPost2010PropOp54
 70
     1
102
RTVSPost2010Prop55
280
     0
102
RTVSPost2010PropOp55
 70
     1
102
RTVSPost2010Prop56
140
1.0
102
RTVSPost2010PropOp56
 70
     1
102
RTVSPost2010Prop57
140
1.0
102
RTVSPost2010PropOp57
 70
     1
102
RTVSPropertyOp0
 70
     1
102
RTVSPropertyOp1
 70
     1
102
RTVSPropertyOp2
 70
     1
102
RTVSPropertyOp3
 70
     1
102
RTVSPropertyOp4
 70
     1
102
RTVSPropertyOp5
 70
     1
102
RTVSPropertyOp6
 70
     1
102
RTVSPropertyOp7
 70
     1
102
RTVSPropertyOp8
 70
     1
102
RTVSPropertyOp9
 70
     1
102
RTVSPropertyOp10
 70
     1
102
RTVSPropertyOp11
 70
     1
102
RTVSPropertyOp12
 70
     1
102
RTVSPropertyOp13
 70
     1
102
RTVSPropertyOp14
 70
     1
102
RTVSPropertyOp15
 70
     1
102
RTVSPropertyOp16
 70
     1
102
RTVSPropertyOp17
 70
     1
102
RTVSPropertyOp18
 70
     1
102
RTVSPropertyOp19
 70
     1
102
RTVSPropertyOp20
 70
     1
102
RTVSPropertyOp21
 70
     1
102
RTVSPropertyOp22
 70
     1
102
RTVSPropertyOp23
 70
     1
102
RTVSPropertyOp24
 70
     1
102
RTVSPropertyOp25
 70
     1
102
RTVSPropertyOp26
 70
     1
102
RTVSPropertyOp27
 70
     1
102
RTVSPropertyOp28
 70
     1
102
RTVSPropertyOp29
 70
     1
102
RTVSPropertyOp30
 70
     1
102
RTVSPropertyOp31
 70
     1
102
RTVSPropertyOp32
 70
     1
102
RTVSPropertyOp33
 70
     1
102
RTVSPropertyOp34
 70
     1
102
RTVSPropertyOp35
 70
     1
102
RTVSPropertyOp36
 70
     1
102
RTVSPropertyOp37
 70
     1
102
RTVSPropertyOp38
 70
     1
102
RTVSPropertyOp39
 70
     1
102
RTVSPropertyOp40
 70
     1
102
RTVSPropertyOp41
 70
     1
102
RTVSPropertyOp42
 70
     1
102
RTVSPropertyOp43
 70
     1
102
RTVSPropertyOp44
 70
     1
102
RTVSPropertyOp45
 70
     1
102
RTVSPropertyOp46
 70
     1
102
RTVSPropertyOp47
 70
     1
102
RTVSPropertyOp48
 70
     1
102
RTVSPropertyOp49
 70
     1
102
RTVSPropertyOp50
 70
     1
102
RTVSPropertyOp51
 70
     0
102
RTVSPropertyOp52
 70
     0
102
RTVSPropertyOp53
 70
     1
102
RTVSPropertyOp54
 70
     1
102
RTVSPropertyOp55
 70
     1
102
RTVSPropertyOp56
 70
     1
102
RTVSPropertyOp57
 70
     1
102
RTVSPropertyOp58
 70
     1
102
RTVSPropertyOp59
 70
     1
102
RTVSPropertyOp60
 70
     1
102
RTVSPropertyOp61
 70
     1
102
RTVSPropertyOp62
 70
     1
  0
XRECORD
  5
1753
102
{ACAD_REACTORS
330
1752
102
}
330
1752
100
AcDbXrecord
280
     1
102
RTVSPost2010Prop28
280
     0
102
RTVSPost2010PropOp28
 70
     1
102
RTVSPost2010Prop29
280
     1
102
RTVSPost2010PropOp29
 70
     1
102
RTVSPost2010Prop30
280
     1
102
RTVSPost2010PropOp30
 70
     1
102
RTVSPost2010Prop31
280
     0
102
RTVSPost2010PropOp31
 70
     1
102
RTVSPost2010Prop32
280
     0
102
RTVSPost2010PropOp32
 70
     1
102
RTVSPost2010Prop33
280
     0
102
RTVSPost2010PropOp33
 70
     1
102
RTVSPost2010Prop34
280
     0
102
RTVSPost2010PropOp34
 70
     1
102
RTVSPost2010Prop35
280
     0
102
RTVSPost2010PropOp35
 70
     1
102
RTVSPost2010Prop36
280
     0
102
RTVSPost2010PropOp36
 70
     1
102
RTVSPost2010Prop37
 90
       50
102
RTVSPost2010PropOp37
 70
     1
102
RTVSPost2010Prop38
140
0.0
102
RTVSPost2010PropOp38
 70
     1
102
RTVSPost2010Prop39
140
1.0
102
RTVSPost2010PropOp39
 70
     1
102
RTVSPost2010Prop40
 90
        0
102
RTVSPost2010PropOp40
 70
     1
102
RTVSPost2010Prop41ColorIndex
 90
       18
102
RTVSPost2010Prop41ColorRGB
 90
        0
102
RTVSPost2010PropOp41
 70
     1
102
RTVSPost2010Prop42
 90
       50
102
RTVSPost2010PropOp42
 70
     1
102
RTVSPost2010Prop43
 90
        3
102
RTVSPost2010PropOp43
 70
     1
102
RTVSPost2010Prop44ColorIndex
 90
        5
102
RTVSPost2010Prop44ColorRGB
 90
      255
102
RTVSPost2010PropOp44
 70
     1
102
RTVSPost2010Prop45
280
     0
102
RTVSPost2010PropOp45
 70
     1
102
RTVSPost2010Prop46
 90
       50
102
RTVSPost2010PropOp46
 70
     1
102
RTVSPost2010Prop47
 90
       50
102
RTVSPost2010PropOp47
 70
     1
102
RTVSPost2010Prop48
 90
       50
102
RTVSPost2010PropOp48
 70
     1
102
RTVSPost2010Prop49
280
     0
102
RTVSPost2010PropOp49
 70
     1
102
RTVSPost2010Prop50
 90
       50
102
RTVSPost2010PropOp50
 70
     1
102
RTVSPost2010Prop51ColorIndex
 90
      256
102
RTVSPost2010Prop51ColorRGB
 90
-16777216
102
RTVSPost2010PropOp51
 70
     0
102
RTVSPost2010Prop52
140
1.0
102
RTVSPost2010PropOp52
 70
     0
102
RTVSPost2010Prop53
 90
        2
102
RTVSPost2010PropOp53
 70
     1
102
RTVSPost2010Prop54
  1
strokes_ogs.tif
102
RTVSPost2010PropOp54
 70
     1
102
RTVSPost2010Prop55
280
     0
102
RTVSPost2010PropOp55
 70
     1
102
RTVSPost2010Prop56
140
1.0
102
RTVSPost2010PropOp56
 70
     1
102
RTVSPost2010Prop57
140
1.0
102
RTVSPost2010PropOp57
 70
     1
102
RTVSPropertyOp0
 70
     1
102
RTVSPropertyOp1
 70
     1
102
RTVSPropertyOp2
 70
     1
102
RTVSPropertyOp3
 70
     1
102
RTVSPropertyOp4
 70
     1
102
RTVSPropertyOp5
 70
     1
102
RTVSPropertyOp6
 70
     1
102
RTVSPropertyOp7
 70
     1
102
RTVSPropertyOp8
 70
     1
102
RTVSPropertyOp9
 70
     1
102
RTVSPropertyOp10
 70
     1
102
RTVSPropertyOp11
 70
     1
102
RTVSPropertyOp12
 70
     1
102
RTVSPropertyOp13
 70
     1
102
RTVSPropertyOp14
 70
     1
102
RTVSPropertyOp15
 70
     1
102
RTVSPropertyOp16
 70
     1
102
RTVSPropertyOp17
 70
     1
102
RTVSPropertyOp18
 70
     1
102
RTVSPropertyOp19
 70
     1
102
RTVSPropertyOp20
 70
     1
102
RTVSPropertyOp21
 70
     1
102
RTVSPropertyOp22
 70
     1
102
RTVSPropertyOp23
 70
     1
102
RTVSPropertyOp24
 70
     1
102
RTVSPropertyOp25
 70
     1
102
RTVSPropertyOp26
 70
     1
102
RTVSPropertyOp27
 70
     1
102
RTVSPropertyOp28
 70
     1
102
RTVSPropertyOp29
 70
     1
102
RTVSPropertyOp30
 70
     1
102
RTVSPropertyOp31
 70
     1
102
RTVSPropertyOp32
 70
     1
102
RTVSPropertyOp33
 70
     1
102
RTVSPropertyOp34
 70
     1
102
RTVSPropertyOp35
 70
     1
102
RTVSPropertyOp36
 70
     1
102
RTVSPropertyOp37
 70
     1
102
RTVSPropertyOp38
 70
     1
102
RTVSPropertyOp39
 70
     1
102
RTVSPropertyOp40
 70
     1
102
RTVSPropertyOp41
 70
     1
102
RTVSPropertyOp42
 70
     1
102
RTVSPropertyOp43
 70
     1
102
RTVSPropertyOp44
 70
     1
102
RTVSPropertyOp45
 70
     1
102
RTVSPropertyOp46
 70
     1
102
RTVSPropertyOp47
 70
     1
102
RTVSPropertyOp48
 70
     1
102
RTVSPropertyOp49
 70
     1
102
RTVSPropertyOp50
 70
     1
102
RTVSPropertyOp51
 70
     0
102
RTVSPropertyOp52
 70
     0
102
RTVSPropertyOp53
 70
     1
102
RTVSPropertyOp54
 70
     1
102
RTVSPropertyOp55
 70
     1
102
RTVSPropertyOp56
 70
     1
102
RTVSPropertyOp57
 70
     1
102
RTVSPropertyOp58
 70
     1
102
RTVSPropertyOp59
 70
     1
102
RTVSPropertyOp60
 70
     1
102
RTVSPropertyOp61
 70
     1
102
RTVSPropertyOp62
 70
     1
  0
XRECORD
  5
177E
102
{ACAD_REACTORS
330
177D
102
}
330
177D
100
AcDbXrecord
280
     1
102
RTVSPost2010Prop28
280
     0
102
RTVSPost2010PropOp28
 70
     1
102
RTVSPost2010Prop29
280
     1
102
RTVSPost2010PropOp29
 70
     1
102
RTVSPost2010Prop30
280
     1
102
RTVSPost2010PropOp30
 70
     1
102
RTVSPost2010Prop31
280
     0
102
RTVSPost2010PropOp31
 70
     1
102
RTVSPost2010Prop32
280
     0
102
RTVSPost2010PropOp32
 70
     1
102
RTVSPost2010Prop33
280
     0
102
RTVSPost2010PropOp33
 70
     1
102
RTVSPost2010Prop34
280
     0
102
RTVSPost2010PropOp34
 70
     1
102
RTVSPost2010Prop35
280
     0
102
RTVSPost2010PropOp35
 70
     1
102
RTVSPost2010Prop36
280
     0
102
RTVSPost2010PropOp36
 70
     1
102
RTVSPost2010Prop37
 90
       50
102
RTVSPost2010PropOp37
 70
     1
102
RTVSPost2010Prop38
140
0.0
102
RTVSPost2010PropOp38
 70
     1
102
RTVSPost2010Prop39
140
1.0
102
RTVSPost2010PropOp39
 70
     1
102
RTVSPost2010Prop40
 90
        0
102
RTVSPost2010PropOp40
 70
     1
102
RTVSPost2010Prop41ColorIndex
 90
       18
102
RTVSPost2010Prop41ColorRGB
 90
        0
102
RTVSPost2010PropOp41
 70
     1
102
RTVSPost2010Prop42
 90
       50
102
RTVSPost2010PropOp42
 70
     1
102
RTVSPost2010Prop43
 90
        3
102
RTVSPost2010PropOp43
 70
     1
102
RTVSPost2010Prop44ColorIndex
 90
        5
102
RTVSPost2010Prop44ColorRGB
 90
      255
102
RTVSPost2010PropOp44
 70
     1
102
RTVSPost2010Prop45
280
     0
102
RTVSPost2010PropOp45
 70
     1
102
RTVSPost2010Prop46
 90
       50
102
RTVSPost2010PropOp46
 70
     1
102
RTVSPost2010Prop47
 90
       50
102
RTVSPost2010PropOp47
 70
     1
102
RTVSPost2010Prop48
 90
       50
102
RTVSPost2010PropOp48
 70
     1
102
RTVSPost2010Prop49
280
     0
102
RTVSPost2010PropOp49
 70
     1
102
RTVSPost2010Prop50
 90
       50
102
RTVSPost2010PropOp50
 70
     1
102
RTVSPost2010Prop51ColorIndex
 90
      256
102
RTVSPost2010Prop51ColorRGB
 90
-16777216
102
RTVSPost2010PropOp51
 70
     0
102
RTVSPost2010Prop52
140
1.0
102
RTVSPost2010PropOp52
 70
     0
102
RTVSPost2010Prop53
 90
        2
102
RTVSPost2010PropOp53
 70
     1
102
RTVSPost2010Prop54
  1
strokes_ogs.tif
102
RTVSPost2010PropOp54
 70
     1
102
RTVSPost2010Prop55
280
     0
102
RTVSPost2010PropOp55
 70
     1
102
RTVSPost2010Prop56
140
1.0
102
RTVSPost2010PropOp56
 70
     1
102
RTVSPost2010Prop57
140
1.0
102
RTVSPost2010PropOp57
 70
     1
102
RTVSPropertyOp0
 70
     1
102
RTVSPropertyOp1
 70
     1
102
RTVSPropertyOp2
 70
     1
102
RTVSPropertyOp3
 70
     1
102
RTVSPropertyOp4
 70
     1
102
RTVSPropertyOp5
 70
     1
102
RTVSPropertyOp6
 70
     1
102
RTVSPropertyOp7
 70
     1
102
RTVSPropertyOp8
 70
     1
102
RTVSPropertyOp9
 70
     1
102
RTVSPropertyOp10
 70
     1
102
RTVSPropertyOp11
 70
     1
102
RTVSPropertyOp12
 70
     1
102
RTVSPropertyOp13
 70
     1
102
RTVSPropertyOp14
 70
     1
102
RTVSPropertyOp15
 70
     1
102
RTVSPropertyOp16
 70
     1
102
RTVSPropertyOp17
 70
     1
102
RTVSPropertyOp18
 70
     1
102
RTVSPropertyOp19
 70
     1
102
RTVSPropertyOp20
 70
     1
102
RTVSPropertyOp21
 70
     1
102
RTVSPropertyOp22
 70
     1
102
RTVSPropertyOp23
 70
     1
102
RTVSPropertyOp24
 70
     1
102
RTVSPropertyOp25
 70
     1
102
RTVSPropertyOp26
 70
     1
102
RTVSPropertyOp27
 70
     1
102
RTVSPropertyOp28
 70
     1
102
RTVSPropertyOp29
 70
     1
102
RTVSPropertyOp30
 70
     1
102
RTVSPropertyOp31
 70
     1
102
RTVSPropertyOp32
 70
     1
102
RTVSPropertyOp33
 70
     1
102
RTVSPropertyOp34
 70
     1
102
RTVSPropertyOp35
 70
     1
102
RTVSPropertyOp36
 70
     1
102
RTVSPropertyOp37
 70
     1
102
RTVSPropertyOp38
 70
     1
102
RTVSPropertyOp39
 70
     1
102
RTVSPropertyOp40
 70
     1
102
RTVSPropertyOp41
 70
     1
102
RTVSPropertyOp42
 70
     1
102
RTVSPropertyOp43
 70
     1
102
RTVSPropertyOp44
 70
     1
102
RTVSPropertyOp45
 70
     1
102
RTVSPropertyOp46
 70
     1
102
RTVSPropertyOp47
 70
     1
102
RTVSPropertyOp48
 70
     1
102
RTVSPropertyOp49
 70
     1
102
RTVSPropertyOp50
 70
     1
102
RTVSPropertyOp51
 70
     0
102
RTVSPropertyOp52
 70
     0
102
RTVSPropertyOp53
 70
     1
102
RTVSPropertyOp54
 70
     1
102
RTVSPropertyOp55
 70
     1
102
RTVSPropertyOp56
 70
     1
102
RTVSPropertyOp57
 70
     1
102
RTVSPropertyOp58
 70
     1
102
RTVSPropertyOp59
 70
     1
102
RTVSPropertyOp60
 70
     1
102
RTVSPropertyOp61
 70
     1
102
RTVSPropertyOp62
 70
     1
  0
XRECORD
  5
1776
102
{ACAD_REACTORS
330
1775
102
}
330
1775
100
AcDbXrecord
280
     1
102
RTVSPost2010Prop28
280
     0
102
RTVSPost2010PropOp28
 70
     1
102
RTVSPost2010Prop29
280
     1
102
RTVSPost2010PropOp29
 70
     1
102
RTVSPost2010Prop30
280
     1
102
RTVSPost2010PropOp30
 70
     1
102
RTVSPost2010Prop31
280
     0
102
RTVSPost2010PropOp31
 70
     1
102
RTVSPost2010Prop32
280
     0
102
RTVSPost2010PropOp32
 70
     1
102
RTVSPost2010Prop33
280
     0
102
RTVSPost2010PropOp33
 70
     1
102
RTVSPost2010Prop34
280
     0
102
RTVSPost2010PropOp34
 70
     1
102
RTVSPost2010Prop35
280
     0
102
RTVSPost2010PropOp35
 70
     1
102
RTVSPost2010Prop36
280
     0
102
RTVSPost2010PropOp36
 70
     1
102
RTVSPost2010Prop37
 90
       50
102
RTVSPost2010PropOp37
 70
     1
102
RTVSPost2010Prop38
140
0.0
102
RTVSPost2010PropOp38
 70
     1
102
RTVSPost2010Prop39
140
1.0
102
RTVSPost2010PropOp39
 70
     1
102
RTVSPost2010Prop40
 90
        0
102
RTVSPost2010PropOp40
 70
     1
102
RTVSPost2010Prop41ColorIndex
 90
       18
102
RTVSPost2010Prop41ColorRGB
 90
        0
102
RTVSPost2010PropOp41
 70
     1
102
RTVSPost2010Prop42
 90
       50
102
RTVSPost2010PropOp42
 70
     1
102
RTVSPost2010Prop43
 90
        3
102
RTVSPost2010PropOp43
 70
     1
102
RTVSPost2010Prop44ColorIndex
 90
        5
102
RTVSPost2010Prop44ColorRGB
 90
      255
102
RTVSPost2010PropOp44
 70
     1
102
RTVSPost2010Prop45
280
     0
102
RTVSPost2010PropOp45
 70
     1
102
RTVSPost2010Prop46
 90
       50
102
RTVSPost2010PropOp46
 70
     1
102
RTVSPost2010Prop47
 90
       50
102
RTVSPost2010PropOp47
 70
     1
102
RTVSPost2010Prop48
 90
       50
102
RTVSPost2010PropOp48
 70
     1
102
RTVSPost2010Prop49
280
     0
102
RTVSPost2010PropOp49
 70
     1
102
RTVSPost2010Prop50
 90
       50
102
RTVSPost2010PropOp50
 70
     1
102
RTVSPost2010Prop51ColorIndex
 90
      256
102
RTVSPost2010Prop51ColorRGB
 90
-16777216
102
RTVSPost2010PropOp51
 70
     0
102
RTVSPost2010Prop52
140
1.0
102
RTVSPost2010PropOp52
 70
     0
102
RTVSPost2010Prop53
 90
        2
102
RTVSPost2010PropOp53
 70
     1
102
RTVSPost2010Prop54
  1
strokes_ogs.tif
102
RTVSPost2010PropOp54
 70
     1
102
RTVSPost2010Prop55
280
     0
102
RTVSPost2010PropOp55
 70
     1
102
RTVSPost2010Prop56
140
1.0
102
RTVSPost2010PropOp56
 70
     1
102
RTVSPost2010Prop57
140
1.0
102
RTVSPost2010PropOp57
 70
     1
102
RTVSPropertyOp0
 70
     0
102
RTVSPropertyOp1
 70
     0
102
RTVSPropertyOp2
 70
     0
102
RTVSPropertyOp3
 70
     0
102
RTVSPropertyOp4
 70
     0
102
RTVSPropertyOp5
 70
     0
102
RTVSPropertyOp6
 70
     0
102
RTVSPropertyOp7
 70
     0
102
RTVSPropertyOp8
 70
     0
102
RTVSPropertyOp9
 70
     0
102
RTVSPropertyOp10
 70
     0
102
RTVSPropertyOp11
 70
     0
102
RTVSPropertyOp12
 70
     0
102
RTVSPropertyOp13
 70
     0
102
RTVSPropertyOp14
 70
     2
102
RTVSPropertyOp15
 70
     0
102
RTVSPropertyOp16
 70
     0
102
RTVSPropertyOp17
 70
     0
102
RTVSPropertyOp18
 70
     0
102
RTVSPropertyOp19
 70
     0
102
RTVSPropertyOp20
 70
     0
102
RTVSPropertyOp21
 70
     0
102
RTVSPropertyOp22
 70
     0
102
RTVSPropertyOp23
 70
     0
102
RTVSPropertyOp24
 70
     0
102
RTVSPropertyOp25
 70
     0
102
RTVSPropertyOp26
 70
     0
102
RTVSPropertyOp27
 70
     0
102
RTVSPropertyOp28
 70
     1
102
RTVSPropertyOp29
 70
     1
102
RTVSPropertyOp30
 70
     1
102
RTVSPropertyOp31
 70
     1
102
RTVSPropertyOp32
 70
     1
102
RTVSPropertyOp33
 70
     1
102
RTVSPropertyOp34
 70
     1
102
RTVSPropertyOp35
 70
     1
102
RTVSPropertyOp36
 70
     1
102
RTVSPropertyOp37
 70
     1
102
RTVSPropertyOp38
 70
     1
102
RTVSPropertyOp39
 70
     1
102
RTVSPropertyOp40
 70
     1
102
RTVSPropertyOp41
 70
     1
102
RTVSPropertyOp42
 70
     1
102
RTVSPropertyOp43
 70
     1
102
RTVSPropertyOp44
 70
     1
102
RTVSPropertyOp45
 70
     1
102
RTVSPropertyOp46
 70
     1
102
RTVSPropertyOp47
 70
     1
102
RTVSPropertyOp48
 70
     1
102
RTVSPropertyOp49
 70
     1
102
RTVSPropertyOp50
 70
     1
102
RTVSPropertyOp51
 70
     0
102
RTVSPropertyOp52
 70
     0
102
RTVSPropertyOp53
 70
     1
102
RTVSPropertyOp54
 70
     1
102
RTVSPropertyOp55
 70
     1
102
RTVSPropertyOp56
 70
     1
102
RTVSPropertyOp57
 70
     1
102
RTVSPropertyOp58
 70
     1
102
RTVSPropertyOp59
 70
     1
102
RTVSPropertyOp60
 70
     1
102
RTVSPropertyOp61
 70
     1
102
RTVSPropertyOp62
 70
     1
  0
XRECORD
  5
1767
102
{ACAD_REACTORS
330
1766
102
}
330
1766
100
AcDbXrecord
280
     1
102
RTVSPost2010Prop28
280
     0
102
RTVSPost2010PropOp28
 70
     1
102
RTVSPost2010Prop29
280
     1
102
RTVSPost2010PropOp29
 70
     1
102
RTVSPost2010Prop30
280
     1
102
RTVSPost2010PropOp30
 70
     1
102
RTVSPost2010Prop31
280
     0
102
RTVSPost2010PropOp31
 70
     1
102
RTVSPost2010Prop32
280
     0
102
RTVSPost2010PropOp32
 70
     1
102
RTVSPost2010Prop33
280
     0
102
RTVSPost2010PropOp33
 70
     1
102
RTVSPost2010Prop34
280
     0
102
RTVSPost2010PropOp34
 70
     1
102
RTVSPost2010Prop35
280
     0
102
RTVSPost2010PropOp35
 70
     1
102
RTVSPost2010Prop36
280
     0
102
RTVSPost2010PropOp36
 70
     1
102
RTVSPost2010Prop37
 90
       50
102
RTVSPost2010PropOp37
 70
     1
102
RTVSPost2010Prop38
140
0.0
102
RTVSPost2010PropOp38
 70
     1
102
RTVSPost2010Prop39
140
1.0
102
RTVSPost2010PropOp39
 70
     1
102
RTVSPost2010Prop40
 90
        0
102
RTVSPost2010PropOp40
 70
     1
102
RTVSPost2010Prop41ColorIndex
 90
       18
102
RTVSPost2010Prop41ColorRGB
 90
        0
102
RTVSPost2010PropOp41
 70
     1
102
RTVSPost2010Prop42
 90
       50
102
RTVSPost2010PropOp42
 70
     1
102
RTVSPost2010Prop43
 90
        3
102
RTVSPost2010PropOp43
 70
     1
102
RTVSPost2010Prop44ColorIndex
 90
        5
102
RTVSPost2010Prop44ColorRGB
 90
      255
102
RTVSPost2010PropOp44
 70
     1
102
RTVSPost2010Prop45
280
     0
102
RTVSPost2010PropOp45
 70
     1
102
RTVSPost2010Prop46
 90
       50
102
RTVSPost2010PropOp46
 70
     1
102
RTVSPost2010Prop47
 90
       50
102
RTVSPost2010PropOp47
 70
     1
102
RTVSPost2010Prop48
 90
       50
102
RTVSPost2010PropOp48
 70
     1
102
RTVSPost2010Prop49
280
     0
102
RTVSPost2010PropOp49
 70
     1
102
RTVSPost2010Prop50
 90
       50
102
RTVSPost2010PropOp50
 70
     1
102
RTVSPost2010Prop51ColorIndex
 90
      256
102
RTVSPost2010Prop51ColorRGB
 90
-16777216
102
RTVSPost2010PropOp51
 70
     0
102
RTVSPost2010Prop52
140
1.0
102
RTVSPost2010PropOp52
 70
     0
102
RTVSPost2010Prop53
 90
        2
102
RTVSPost2010PropOp53
 70
     1
102
RTVSPost2010Prop54
  1
strokes_ogs.tif
102
RTVSPost2010PropOp54
 70
     1
102
RTVSPost2010Prop55
280
     0
102
RTVSPost2010PropOp55
 70
     1
102
RTVSPost2010Prop56
140
1.0
102
RTVSPost2010PropOp56
 70
     1
102
RTVSPost2010Prop57
140
1.0
102
RTVSPost2010PropOp57
 70
     1
102
RTVSPropertyOp0
 70
     1
102
RTVSPropertyOp1
 70
     1
102
RTVSPropertyOp2
 70
     1
102
RTVSPropertyOp3
 70
     1
102
RTVSPropertyOp4
 70
     1
102
RTVSPropertyOp5
 70
     1
102
RTVSPropertyOp6
 70
     1
102
RTVSPropertyOp7
 70
     1
102
RTVSPropertyOp8
 70
     1
102
RTVSPropertyOp9
 70
     1
102
RTVSPropertyOp10
 70
     1
102
RTVSPropertyOp11
 70
     1
102
RTVSPropertyOp12
 70
     1
102
RTVSPropertyOp13
 70
     1
102
RTVSPropertyOp14
 70
     1
102
RTVSPropertyOp15
 70
     1
102
RTVSPropertyOp16
 70
     1
102
RTVSPropertyOp17
 70
     1
102
RTVSPropertyOp18
 70
     1
102
RTVSPropertyOp19
 70
     1
102
RTVSPropertyOp20
 70
     1
102
RTVSPropertyOp21
 70
     1
102
RTVSPropertyOp22
 70
     1
102
RTVSPropertyOp23
 70
     1
102
RTVSPropertyOp24
 70
     1
102
RTVSPropertyOp25
 70
     1
102
RTVSPropertyOp26
 70
     1
102
RTVSPropertyOp27
 70
     1
102
RTVSPropertyOp28
 70
     1
102
RTVSPropertyOp29
 70
     1
102
RTVSPropertyOp30
 70
     1
102
RTVSPropertyOp31
 70
     1
102
RTVSPropertyOp32
 70
     1
102
RTVSPropertyOp33
 70
     1
102
RTVSPropertyOp34
 70
     1
102
RTVSPropertyOp35
 70
     1
102
RTVSPropertyOp36
 70
     1
102
RTVSPropertyOp37
 70
     1
102
RTVSPropertyOp38
 70
     1
102
RTVSPropertyOp39
 70
     1
102
RTVSPropertyOp40
 70
     1
102
RTVSPropertyOp41
 70
     1
102
RTVSPropertyOp42
 70
     1
102
RTVSPropertyOp43
 70
     1
102
RTVSPropertyOp44
 70
     1
102
RTVSPropertyOp45
 70
     1
102
RTVSPropertyOp46
 70
     1
102
RTVSPropertyOp47
 70
     1
102
RTVSPropertyOp48
 70
     1
102
RTVSPropertyOp49
 70
     1
102
RTVSPropertyOp50
 70
     1
102
RTVSPropertyOp51
 70
     0
102
RTVSPropertyOp52
 70
     0
102
RTVSPropertyOp53
 70
     1
102
RTVSPropertyOp54
 70
     1
102
RTVSPropertyOp55
 70
     1
102
RTVSPropertyOp56
 70
     1
102
RTVSPropertyOp57
 70
     1
102
RTVSPropertyOp58
 70
     1
102
RTVSPropertyOp59
 70
     1
102
RTVSPropertyOp60
 70
     1
102
RTVSPropertyOp61
 70
     1
102
RTVSPropertyOp62
 70
     1
  0
XRECORD
  5
1778
102
{ACAD_REACTORS
330
1777
102
}
330
1777
100
AcDbXrecord
280
     1
102
RTVSPost2010Prop28
280
     0
102
RTVSPost2010PropOp28
 70
     1
102
RTVSPost2010Prop29
280
     1
102
RTVSPost2010PropOp29
 70
     1
102
RTVSPost2010Prop30
280
     1
102
RTVSPost2010PropOp30
 70
     1
102
RTVSPost2010Prop31
280
     0
102
RTVSPost2010PropOp31
 70
     1
102
RTVSPost2010Prop32
280
     0
102
RTVSPost2010PropOp32
 70
     1
102
RTVSPost2010Prop33
280
     0
102
RTVSPost2010PropOp33
 70
     1
102
RTVSPost2010Prop34
280
     0
102
RTVSPost2010PropOp34
 70
     1
102
RTVSPost2010Prop35
280
     0
102
RTVSPost2010PropOp35
 70
     1
102
RTVSPost2010Prop36
280
     0
102
RTVSPost2010PropOp36
 70
     1
102
RTVSPost2010Prop37
 90
       50
102
RTVSPost2010PropOp37
 70
     1
102
RTVSPost2010Prop38
140
0.0
102
RTVSPost2010PropOp38
 70
     1
102
RTVSPost2010Prop39
140
1.0
102
RTVSPost2010PropOp39
 70
     1
102
RTVSPost2010Prop40
 90
        0
102
RTVSPost2010PropOp40
 70
     1
102
RTVSPost2010Prop41ColorIndex
 90
       18
102
RTVSPost2010Prop41ColorRGB
 90
        0
102
RTVSPost2010PropOp41
 70
     1
102
RTVSPost2010Prop42
 90
       50
102
RTVSPost2010PropOp42
 70
     1
102
RTVSPost2010Prop43
 90
        3
102
RTVSPost2010PropOp43
 70
     1
102
RTVSPost2010Prop44ColorIndex
 90
        5
102
RTVSPost2010Prop44ColorRGB
 90
      255
102
RTVSPost2010PropOp44
 70
     1
102
RTVSPost2010Prop45
280
     0
102
RTVSPost2010PropOp45
 70
     1
102
RTVSPost2010Prop46
 90
       50
102
RTVSPost2010PropOp46
 70
     1
102
RTVSPost2010Prop47
 90
       50
102
RTVSPost2010PropOp47
 70
     1
102
RTVSPost2010Prop48
 90
       50
102
RTVSPost2010PropOp48
 70
     1
102
RTVSPost2010Prop49
280
     0
102
RTVSPost2010PropOp49
 70
     1
102
RTVSPost2010Prop50
 90
       50
102
RTVSPost2010PropOp50
 70
     1
102
RTVSPost2010Prop51ColorIndex
 90
      256
102
RTVSPost2010Prop51ColorRGB
 90
-16777216
102
RTVSPost2010PropOp51
 70
     0
102
RTVSPost2010Prop52
140
1.0
102
RTVSPost2010PropOp52
 70
     0
102
RTVSPost2010Prop53
 90
        2
102
RTVSPost2010PropOp53
 70
     1
102
RTVSPost2010Prop54
  1
strokes_ogs.tif
102
RTVSPost2010PropOp54
 70
     1
102
RTVSPost2010Prop55
280
     0
102
RTVSPost2010PropOp55
 70
     1
102
RTVSPost2010Prop56
140
1.0
102
RTVSPost2010PropOp56
 70
     1
102
RTVSPost2010Prop57
140
1.0
102
RTVSPost2010PropOp57
 70
     1
102
RTVSPropertyOp0
 70
     0
102
RTVSPropertyOp1
 70
     0
102
RTVSPropertyOp2
 70
     0
102
RTVSPropertyOp3
 70
     0
102
RTVSPropertyOp4
 70
     0
102
RTVSPropertyOp5
 70
     0
102
RTVSPropertyOp6
 70
     0
102
RTVSPropertyOp7
 70
     0
102
RTVSPropertyOp8
 70
     0
102
RTVSPropertyOp9
 70
     0
102
RTVSPropertyOp10
 70
     0
102
RTVSPropertyOp11
 70
     0
102
RTVSPropertyOp12
 70
     0
102
RTVSPropertyOp13
 70
     0
102
RTVSPropertyOp14
 70
     2
102
RTVSPropertyOp15
 70
     0
102
RTVSPropertyOp16
 70
     0
102
RTVSPropertyOp17
 70
     0
102
RTVSPropertyOp18
 70
     0
102
RTVSPropertyOp19
 70
     0
102
RTVSPropertyOp20
 70
     0
102
RTVSPropertyOp21
 70
     0
102
RTVSPropertyOp22
 70
     0
102
RTVSPropertyOp23
 70
     0
102
RTVSPropertyOp24
 70
     0
102
RTVSPropertyOp25
 70
     0
102
RTVSPropertyOp26
 70
     0
102
RTVSPropertyOp27
 70
     0
102
RTVSPropertyOp28
 70
     1
102
RTVSPropertyOp29
 70
     1
102
RTVSPropertyOp30
 70
     1
102
RTVSPropertyOp31
 70
     1
102
RTVSPropertyOp32
 70
     1
102
RTVSPropertyOp33
 70
     1
102
RTVSPropertyOp34
 70
     1
102
RTVSPropertyOp35
 70
     1
102
RTVSPropertyOp36
 70
     1
102
RTVSPropertyOp37
 70
     1
102
RTVSPropertyOp38
 70
     1
102
RTVSPropertyOp39
 70
     1
102
RTVSPropertyOp40
 70
     1
102
RTVSPropertyOp41
 70
     1
102
RTVSPropertyOp42
 70
     1
102
RTVSPropertyOp43
 70
     1
102
RTVSPropertyOp44
 70
     1
102
RTVSPropertyOp45
 70
     1
102
RTVSPropertyOp46
 70
     1
102
RTVSPropertyOp47
 70
     1
102
RTVSPropertyOp48
 70
     1
102
RTVSPropertyOp49
 70
     1
102
RTVSPropertyOp50
 70
     1
102
RTVSPropertyOp51
 70
     0
102
RTVSPropertyOp52
 70
     0
102
RTVSPropertyOp53
 70
     1
102
RTVSPropertyOp54
 70
     1
102
RTVSPropertyOp55
 70
     1
102
RTVSPropertyOp56
 70
     1
102
RTVSPropertyOp57
 70
     1
102
RTVSPropertyOp58
 70
     1
102
RTVSPropertyOp59
 70
     1
102
RTVSPropertyOp60
 70
     1
102
RTVSPropertyOp61
 70
     1
102
RTVSPropertyOp62
 70
     1
  0
XRECORD
  5
175F
102
{ACAD_REACTORS
330
175E
102
}
330
175E
100
AcDbXrecord
280
     1
102
RTVSPost2010Prop28
280
     0
102
RTVSPost2010PropOp28
 70
     1
102
RTVSPost2010Prop29
280
     1
102
RTVSPost2010PropOp29
 70
     1
102
RTVSPost2010Prop30
280
     1
102
RTVSPost2010PropOp30
 70
     1
102
RTVSPost2010Prop31
280
     0
102
RTVSPost2010PropOp31
 70
     1
102
RTVSPost2010Prop32
280
     0
102
RTVSPost2010PropOp32
 70
     1
102
RTVSPost2010Prop33
280
     0
102
RTVSPost2010PropOp33
 70
     1
102
RTVSPost2010Prop34
280
     0
102
RTVSPost2010PropOp34
 70
     1
102
RTVSPost2010Prop35
280
     0
102
RTVSPost2010PropOp35
 70
     1
102
RTVSPost2010Prop36
280
     0
102
RTVSPost2010PropOp36
 70
     1
102
RTVSPost2010Prop37
 90
       50
102
RTVSPost2010PropOp37
 70
     1
102
RTVSPost2010Prop38
140
0.0
102
RTVSPost2010PropOp38
 70
     1
102
RTVSPost2010Prop39
140
1.0
102
RTVSPost2010PropOp39
 70
     1
102
RTVSPost2010Prop40
 90
        0
102
RTVSPost2010PropOp40
 70
     1
102
RTVSPost2010Prop41ColorIndex
 90
       18
102
RTVSPost2010Prop41ColorRGB
 90
        0
102
RTVSPost2010PropOp41
 70
     1
102
RTVSPost2010Prop42
 90
       50
102
RTVSPost2010PropOp42
 70
     1
102
RTVSPost2010Prop43
 90
        3
102
RTVSPost2010PropOp43
 70
     1
102
RTVSPost2010Prop44ColorIndex
 90
        5
102
RTVSPost2010Prop44ColorRGB
 90
      255
102
RTVSPost2010PropOp44
 70
     1
102
RTVSPost2010Prop45
280
     0
102
RTVSPost2010PropOp45
 70
     1
102
RTVSPost2010Prop46
 90
       50
102
RTVSPost2010PropOp46
 70
     1
102
RTVSPost2010Prop47
 90
       50
102
RTVSPost2010PropOp47
 70
     1
102
RTVSPost2010Prop48
 90
       50
102
RTVSPost2010PropOp48
 70
     1
102
RTVSPost2010Prop49
280
     0
102
RTVSPost2010PropOp49
 70
     1
102
RTVSPost2010Prop50
 90
       50
102
RTVSPost2010PropOp50
 70
     1
102
RTVSPost2010Prop51ColorIndex
 90
      256
102
RTVSPost2010Prop51ColorRGB
 90
-16777216
102
RTVSPost2010PropOp51
 70
     0
102
RTVSPost2010Prop52
140
1.0
102
RTVSPost2010PropOp52
 70
     0
102
RTVSPost2010Prop53
 90
        2
102
RTVSPost2010PropOp53
 70
     1
102
RTVSPost2010Prop54
  1
strokes_ogs.tif
102
RTVSPost2010PropOp54
 70
     1
102
RTVSPost2010Prop55
280
     0
102
RTVSPost2010PropOp55
 70
     1
102
RTVSPost2010Prop56
140
1.0
102
RTVSPost2010PropOp56
 70
     1
102
RTVSPost2010Prop57
140
1.0
102
RTVSPost2010PropOp57
 70
     1
102
RTVSPropertyOp0
 70
     1
102
RTVSPropertyOp1
 70
     1
102
RTVSPropertyOp2
 70
     1
102
RTVSPropertyOp3
 70
     1
102
RTVSPropertyOp4
 70
     1
102
RTVSPropertyOp5
 70
     1
102
RTVSPropertyOp6
 70
     1
102
RTVSPropertyOp7
 70
     1
102
RTVSPropertyOp8
 70
     1
102
RTVSPropertyOp9
 70
     1
102
RTVSPropertyOp10
 70
     1
102
RTVSPropertyOp11
 70
     1
102
RTVSPropertyOp12
 70
     1
102
RTVSPropertyOp13
 70
     1
102
RTVSPropertyOp14
 70
     1
102
RTVSPropertyOp15
 70
     1
102
RTVSPropertyOp16
 70
     1
102
RTVSPropertyOp17
 70
     1
102
RTVSPropertyOp18
 70
     1
102
RTVSPropertyOp19
 70
     1
102
RTVSPropertyOp20
 70
     1
102
RTVSPropertyOp21
 70
     1
102
RTVSPropertyOp22
 70
     1
102
RTVSPropertyOp23
 70
     1
102
RTVSPropertyOp24
 70
     1
102
RTVSPropertyOp25
 70
     1
102
RTVSPropertyOp26
 70
     1
102
RTVSPropertyOp27
 70
     1
102
RTVSPropertyOp28
 70
     1
102
RTVSPropertyOp29
 70
     1
102
RTVSPropertyOp30
 70
     1
102
RTVSPropertyOp31
 70
     1
102
RTVSPropertyOp32
 70
     1
102
RTVSPropertyOp33
 70
     1
102
RTVSPropertyOp34
 70
     1
102
RTVSPropertyOp35
 70
     1
102
RTVSPropertyOp36
 70
     1
102
RTVSPropertyOp37
 70
     1
102
RTVSPropertyOp38
 70
     1
102
RTVSPropertyOp39
 70
     1
102
RTVSPropertyOp40
 70
     1
102
RTVSPropertyOp41
 70
     1
102
RTVSPropertyOp42
 70
     1
102
RTVSPropertyOp43
 70
     1
102
RTVSPropertyOp44
 70
     1
102
RTVSPropertyOp45
 70
     1
102
RTVSPropertyOp46
 70
     1
102
RTVSPropertyOp47
 70
     1
102
RTVSPropertyOp48
 70
     1
102
RTVSPropertyOp49
 70
     1
102
RTVSPropertyOp50
 70
     1
102
RTVSPropertyOp51
 70
     0
102
RTVSPropertyOp52
 70
     0
102
RTVSPropertyOp53
 70
     1
102
RTVSPropertyOp54
 70
     1
102
RTVSPropertyOp55
 70
     1
102
RTVSPropertyOp56
 70
     1
102
RTVSPropertyOp57
 70
     1
102
RTVSPropertyOp58
 70
     1
102
RTVSPropertyOp59
 70
     1
102
RTVSPropertyOp60
 70
     1
102
RTVSPropertyOp61
 70
     1
102
RTVSPropertyOp62
 70
     1
  0
XRECORD
  5
1788
102
{ACAD_REACTORS
330
1787
102
}
330
1787
100
AcDbXrecord
280
     1
102
RTVSPost2010Prop28
280
     0
102
RTVSPost2010PropOp28
 70
     1
102
RTVSPost2010Prop29
280
     1
102
RTVSPost2010PropOp29
 70
     1
102
RTVSPost2010Prop30
280
     1
102
RTVSPost2010PropOp30
 70
     1
102
RTVSPost2010Prop31
280
     0
102
RTVSPost2010PropOp31
 70
     1
102
RTVSPost2010Prop32
280
     0
102
RTVSPost2010PropOp32
 70
     1
102
RTVSPost2010Prop33
280
     0
102
RTVSPost2010PropOp33
 70
     1
102
RTVSPost2010Prop34
280
     0
102
RTVSPost2010PropOp34
 70
     1
102
RTVSPost2010Prop35
280
     0
102
RTVSPost2010PropOp35
 70
     1
102
RTVSPost2010Prop36
280
     0
102
RTVSPost2010PropOp36
 70
     1
102
RTVSPost2010Prop37
 90
       50
102
RTVSPost2010PropOp37
 70
     1
102
RTVSPost2010Prop38
140
0.0
102
RTVSPost2010PropOp38
 70
     1
102
RTVSPost2010Prop39
140
1.0
102
RTVSPost2010PropOp39
 70
     1
102
RTVSPost2010Prop40
 90
        0
102
RTVSPost2010PropOp40
 70
     1
102
RTVSPost2010Prop41ColorIndex
 90
       18
102
RTVSPost2010Prop41ColorRGB
 90
        0
102
RTVSPost2010PropOp41
 70
     1
102
RTVSPost2010Prop42
 90
       50
102
RTVSPost2010PropOp42
 70
     1
102
RTVSPost2010Prop43
 90
        3
102
RTVSPost2010PropOp43
 70
     1
102
RTVSPost2010Prop44ColorIndex
 90
        5
102
RTVSPost2010Prop44ColorRGB
 90
      255
102
RTVSPost2010PropOp44
 70
     1
102
RTVSPost2010Prop45
280
     0
102
RTVSPost2010PropOp45
 70
     1
102
RTVSPost2010Prop46
 90
       50
102
RTVSPost2010PropOp46
 70
     1
102
RTVSPost2010Prop47
 90
       50
102
RTVSPost2010PropOp47
 70
     1
102
RTVSPost2010Prop48
 90
       50
102
RTVSPost2010PropOp48
 70
     1
102
RTVSPost2010Prop49
280
     0
102
RTVSPost2010PropOp49
 70
     1
102
RTVSPost2010Prop50
 90
       50
102
RTVSPost2010PropOp50
 70
     1
102
RTVSPost2010Prop51ColorIndex
 90
      256
102
RTVSPost2010Prop51ColorRGB
 90
-16777216
102
RTVSPost2010PropOp51
 70
     0
102
RTVSPost2010Prop52
140
1.0
102
RTVSPost2010PropOp52
 70
     0
102
RTVSPost2010Prop53
 90
        2
102
RTVSPost2010PropOp53
 70
     1
102
RTVSPost2010Prop54
  1
strokes_ogs.tif
102
RTVSPost2010PropOp54
 70
     1
102
RTVSPost2010Prop55
280
     0
102
RTVSPost2010PropOp55
 70
     1
102
RTVSPost2010Prop56
140
1.0
102
RTVSPost2010PropOp56
 70
     1
102
RTVSPost2010Prop57
140
1.0
102
RTVSPost2010PropOp57
 70
     1
102
RTVSPropertyOp0
 70
     1
102
RTVSPropertyOp1
 70
     1
102
RTVSPropertyOp2
 70
     1
102
RTVSPropertyOp3
 70
     1
102
RTVSPropertyOp4
 70
     1
102
RTVSPropertyOp5
 70
     1
102
RTVSPropertyOp6
 70
     1
102
RTVSPropertyOp7
 70
     1
102
RTVSPropertyOp8
 70
     1
102
RTVSPropertyOp9
 70
     1
102
RTVSPropertyOp10
 70
     1
102
RTVSPropertyOp11
 70
     1
102
RTVSPropertyOp12
 70
     1
102
RTVSPropertyOp13
 70
     1
102
RTVSPropertyOp14
 70
     1
102
RTVSPropertyOp15
 70
     1
102
RTVSPropertyOp16
 70
     1
102
RTVSPropertyOp17
 70
     1
102
RTVSPropertyOp18
 70
     1
102
RTVSPropertyOp19
 70
     1
102
RTVSPropertyOp20
 70
     1
102
RTVSPropertyOp21
 70
     1
102
RTVSPropertyOp22
 70
     1
102
RTVSPropertyOp23
 70
     1
102
RTVSPropertyOp24
 70
     1
102
RTVSPropertyOp25
 70
     1
102
RTVSPropertyOp26
 70
     1
102
RTVSPropertyOp27
 70
     1
102
RTVSPropertyOp28
 70
     1
102
RTVSPropertyOp29
 70
     1
102
RTVSPropertyOp30
 70
     1
102
RTVSPropertyOp31
 70
     1
102
RTVSPropertyOp32
 70
     1
102
RTVSPropertyOp33
 70
     1
102
RTVSPropertyOp34
 70
     1
102
RTVSPropertyOp35
 70
     1
102
RTVSPropertyOp36
 70
     1
102
RTVSPropertyOp37
 70
     1
102
RTVSPropertyOp38
 70
     1
102
RTVSPropertyOp39
 70
     1
102
RTVSPropertyOp40
 70
     1
102
RTVSPropertyOp41
 70
     1
102
RTVSPropertyOp42
 70
     1
102
RTVSPropertyOp43
 70
     1
102
RTVSPropertyOp44
 70
     1
102
RTVSPropertyOp45
 70
     1
102
RTVSPropertyOp46
 70
     1
102
RTVSPropertyOp47
 70
     1
102
RTVSPropertyOp48
 70
     1
102
RTVSPropertyOp49
 70
     1
102
RTVSPropertyOp50
 70
     1
102
RTVSPropertyOp51
 70
     0
102
RTVSPropertyOp52
 70
     0
102
RTVSPropertyOp53
 70
     1
102
RTVSPropertyOp54
 70
     1
102
RTVSPropertyOp55
 70
     1
102
RTVSPropertyOp56
 70
     1
102
RTVSPropertyOp57
 70
     1
102
RTVSPropertyOp58
 70
     1
102
RTVSPropertyOp59
 70
     1
102
RTVSPropertyOp60
 70
     1
102
RTVSPropertyOp61
 70
     1
102
RTVSPropertyOp62
 70
     1
  0
XRECORD
  5
1786
102
{ACAD_REACTORS
330
1785
102
}
330
1785
100
AcDbXrecord
280
     1
102
RTVSPost2010Prop28
280
     0
102
RTVSPost2010PropOp28
 70
     1
102
RTVSPost2010Prop29
280
     1
102
RTVSPost2010PropOp29
 70
     1
102
RTVSPost2010Prop30
280
     1
102
RTVSPost2010PropOp30
 70
     1
102
RTVSPost2010Prop31
280
     0
102
RTVSPost2010PropOp31
 70
     1
102
RTVSPost2010Prop32
280
     0
102
RTVSPost2010PropOp32
 70
     1
102
RTVSPost2010Prop33
280
     0
102
RTVSPost2010PropOp33
 70
     1
102
RTVSPost2010Prop34
280
     0
102
RTVSPost2010PropOp34
 70
     1
102
RTVSPost2010Prop35
280
     0
102
RTVSPost2010PropOp35
 70
     1
102
RTVSPost2010Prop36
280
     0
102
RTVSPost2010PropOp36
 70
     1
102
RTVSPost2010Prop37
 90
       50
102
RTVSPost2010PropOp37
 70
     1
102
RTVSPost2010Prop38
140
0.0
102
RTVSPost2010PropOp38
 70
     1
102
RTVSPost2010Prop39
140
1.0
102
RTVSPost2010PropOp39
 70
     1
102
RTVSPost2010Prop40
 90
        0
102
RTVSPost2010PropOp40
 70
     1
102
RTVSPost2010Prop41ColorIndex
 90
       18
102
RTVSPost2010Prop41ColorRGB
 90
        0
102
RTVSPost2010PropOp41
 70
     1
102
RTVSPost2010Prop42
 90
       50
102
RTVSPost2010PropOp42
 70
     1
102
RTVSPost2010Prop43
 90
        3
102
RTVSPost2010PropOp43
 70
     1
102
RTVSPost2010Prop44ColorIndex
 90
        5
102
RTVSPost2010Prop44ColorRGB
 90
      255
102
RTVSPost2010PropOp44
 70
     1
102
RTVSPost2010Prop45
280
     0
102
RTVSPost2010PropOp45
 70
     1
102
RTVSPost2010Prop46
 90
       50
102
RTVSPost2010PropOp46
 70
     1
102
RTVSPost2010Prop47
 90
       50
102
RTVSPost2010PropOp47
 70
     1
102
RTVSPost2010Prop48
 90
       50
102
RTVSPost2010PropOp48
 70
     1
102
RTVSPost2010Prop49
280
     0
102
RTVSPost2010PropOp49
 70
     1
102
RTVSPost2010Prop50
 90
       50
102
RTVSPost2010PropOp50
 70
     1
102
RTVSPost2010Prop51ColorIndex
 90
      256
102
RTVSPost2010Prop51ColorRGB
 90
-16777216
102
RTVSPost2010PropOp51
 70
     0
102
RTVSPost2010Prop52
140
1.0
102
RTVSPost2010PropOp52
 70
     0
102
RTVSPost2010Prop53
 90
        2
102
RTVSPost2010PropOp53
 70
     1
102
RTVSPost2010Prop54
  1
strokes_ogs.tif
102
RTVSPost2010PropOp54
 70
     1
102
RTVSPost2010Prop55
280
     0
102
RTVSPost2010PropOp55
 70
     1
102
RTVSPost2010Prop56
140
1.0
102
RTVSPost2010PropOp56
 70
     1
102
RTVSPost2010Prop57
140
1.0
102
RTVSPost2010PropOp57
 70
     1
102
RTVSPropertyOp0
 70
     1
102
RTVSPropertyOp1
 70
     1
102
RTVSPropertyOp2
 70
     1
102
RTVSPropertyOp3
 70
     1
102
RTVSPropertyOp4
 70
     1
102
RTVSPropertyOp5
 70
     1
102
RTVSPropertyOp6
 70
     1
102
RTVSPropertyOp7
 70
     1
102
RTVSPropertyOp8
 70
     1
102
RTVSPropertyOp9
 70
     1
102
RTVSPropertyOp10
 70
     1
102
RTVSPropertyOp11
 70
     1
102
RTVSPropertyOp12
 70
     1
102
RTVSPropertyOp13
 70
     1
102
RTVSPropertyOp14
 70
     1
102
RTVSPropertyOp15
 70
     1
102
RTVSPropertyOp16
 70
     1
102
RTVSPropertyOp17
 70
     1
102
RTVSPropertyOp18
 70
     1
102
RTVSPropertyOp19
 70
     1
102
RTVSPropertyOp20
 70
     1
102
RTVSPropertyOp21
 70
     1
102
RTVSPropertyOp22
 70
     1
102
RTVSPropertyOp23
 70
     1
102
RTVSPropertyOp24
 70
     1
102
RTVSPropertyOp25
 70
     1
102
RTVSPropertyOp26
 70
     1
102
RTVSPropertyOp27
 70
     1
102
RTVSPropertyOp28
 70
     1
102
RTVSPropertyOp29
 70
     1
102
RTVSPropertyOp30
 70
     1
102
RTVSPropertyOp31
 70
     1
102
RTVSPropertyOp32
 70
     1
102
RTVSPropertyOp33
 70
     1
102
RTVSPropertyOp34
 70
     1
102
RTVSPropertyOp35
 70
     1
102
RTVSPropertyOp36
 70
     1
102
RTVSPropertyOp37
 70
     1
102
RTVSPropertyOp38
 70
     1
102
RTVSPropertyOp39
 70
     1
102
RTVSPropertyOp40
 70
     1
102
RTVSPropertyOp41
 70
     1
102
RTVSPropertyOp42
 70
     1
102
RTVSPropertyOp43
 70
     1
102
RTVSPropertyOp44
 70
     1
102
RTVSPropertyOp45
 70
     1
102
RTVSPropertyOp46
 70
     1
102
RTVSPropertyOp47
 70
     1
102
RTVSPropertyOp48
 70
     1
102
RTVSPropertyOp49
 70
     1
102
RTVSPropertyOp50
 70
     1
102
RTVSPropertyOp51
 70
     0
102
RTVSPropertyOp52
 70
     0
102
RTVSPropertyOp53
 70
     1
102
RTVSPropertyOp54
 70
     1
102
RTVSPropertyOp55
 70
     1
102
RTVSPropertyOp56
 70
     1
102
RTVSPropertyOp57
 70
     1
102
RTVSPropertyOp58
 70
     1
102
RTVSPropertyOp59
 70
     1
102
RTVSPropertyOp60
 70
     1
102
RTVSPropertyOp61
 70
     1
102
RTVSPropertyOp62
 70
     1
  0
XRECORD
  5
1780
102
{ACAD_REACTORS
330
177F
102
}
330
177F
100
AcDbXrecord
280
     1
102
RTVSPost2010Prop28
280
     0
102
RTVSPost2010PropOp28
 70
     1
102
RTVSPost2010Prop29
280
     1
102
RTVSPost2010PropOp29
 70
     1
102
RTVSPost2010Prop30
280
     1
102
RTVSPost2010PropOp30
 70
     1
102
RTVSPost2010Prop31
280
     0
102
RTVSPost2010PropOp31
 70
     1
102
RTVSPost2010Prop32
280
     0
102
RTVSPost2010PropOp32
 70
     1
102
RTVSPost2010Prop33
280
     0
102
RTVSPost2010PropOp33
 70
     1
102
RTVSPost2010Prop34
280
     0
102
RTVSPost2010PropOp34
 70
     1
102
RTVSPost2010Prop35
280
     0
102
RTVSPost2010PropOp35
 70
     1
102
RTVSPost2010Prop36
280
     0
102
RTVSPost2010PropOp36
 70
     1
102
RTVSPost2010Prop37
 90
       50
102
RTVSPost2010PropOp37
 70
     1
102
RTVSPost2010Prop38
140
0.0
102
RTVSPost2010PropOp38
 70
     1
102
RTVSPost2010Prop39
140
1.0
102
RTVSPost2010PropOp39
 70
     1
102
RTVSPost2010Prop40
 90
        0
102
RTVSPost2010PropOp40
 70
     1
102
RTVSPost2010Prop41ColorIndex
 90
       18
102
RTVSPost2010Prop41ColorRGB
 90
        0
102
RTVSPost2010PropOp41
 70
     1
102
RTVSPost2010Prop42
 90
       50
102
RTVSPost2010PropOp42
 70
     1
102
RTVSPost2010Prop43
 90
        3
102
RTVSPost2010PropOp43
 70
     1
102
RTVSPost2010Prop44ColorIndex
 90
        5
102
RTVSPost2010Prop44ColorRGB
 90
      255
102
RTVSPost2010PropOp44
 70
     1
102
RTVSPost2010Prop45
280
     0
102
RTVSPost2010PropOp45
 70
     1
102
RTVSPost2010Prop46
 90
       50
102
RTVSPost2010PropOp46
 70
     1
102
RTVSPost2010Prop47
 90
       50
102
RTVSPost2010PropOp47
 70
     1
102
RTVSPost2010Prop48
 90
       50
102
RTVSPost2010PropOp48
 70
     1
102
RTVSPost2010Prop49
280
     0
102
RTVSPost2010PropOp49
 70
     1
102
RTVSPost2010Prop50
 90
       50
102
RTVSPost2010PropOp50
 70
     1
102
RTVSPost2010Prop51ColorIndex
 90
      256
102
RTVSPost2010Prop51ColorRGB
 90
-16777216
102
RTVSPost2010PropOp51
 70
     0
102
RTVSPost2010Prop52
140
1.0
102
RTVSPost2010PropOp52
 70
     0
102
RTVSPost2010Prop53
 90
        2
102
RTVSPost2010PropOp53
 70
     1
102
RTVSPost2010Prop54
  1
strokes_ogs.tif
102
RTVSPost2010PropOp54
 70
     1
102
RTVSPost2010Prop55
280
     0
102
RTVSPost2010PropOp55
 70
     1
102
RTVSPost2010Prop56
140
1.0
102
RTVSPost2010PropOp56
 70
     1
102
RTVSPost2010Prop57
140
1.0
102
RTVSPost2010PropOp57
 70
     1
102
RTVSPropertyOp0
 70
     1
102
RTVSPropertyOp1
 70
     1
102
RTVSPropertyOp2
 70
     1
102
RTVSPropertyOp3
 70
     1
102
RTVSPropertyOp4
 70
     1
102
RTVSPropertyOp5
 70
     1
102
RTVSPropertyOp6
 70
     1
102
RTVSPropertyOp7
 70
     1
102
RTVSPropertyOp8
 70
     1
102
RTVSPropertyOp9
 70
     1
102
RTVSPropertyOp10
 70
     1
102
RTVSPropertyOp11
 70
     1
102
RTVSPropertyOp12
 70
     1
102
RTVSPropertyOp13
 70
     1
102
RTVSPropertyOp14
 70
     1
102
RTVSPropertyOp15
 70
     1
102
RTVSPropertyOp16
 70
     1
102
RTVSPropertyOp17
 70
     1
102
RTVSPropertyOp18
 70
     1
102
RTVSPropertyOp19
 70
     1
102
RTVSPropertyOp20
 70
     1
102
RTVSPropertyOp21
 70
     1
102
RTVSPropertyOp22
 70
     1
102
RTVSPropertyOp23
 70
     1
102
RTVSPropertyOp24
 70
     1
102
RTVSPropertyOp25
 70
     1
102
RTVSPropertyOp26
 70
     1
102
RTVSPropertyOp27
 70
     1
102
RTVSPropertyOp28
 70
     1
102
RTVSPropertyOp29
 70
     1
102
RTVSPropertyOp30
 70
     1
102
RTVSPropertyOp31
 70
     1
102
RTVSPropertyOp32
 70
     1
102
RTVSPropertyOp33
 70
     1
102
RTVSPropertyOp34
 70
     1
102
RTVSPropertyOp35
 70
     1
102
RTVSPropertyOp36
 70
     1
102
RTVSPropertyOp37
 70
     1
102
RTVSPropertyOp38
 70
     1
102
RTVSPropertyOp39
 70
     1
102
RTVSPropertyOp40
 70
     1
102
RTVSPropertyOp41
 70
     1
102
RTVSPropertyOp42
 70
     1
102
RTVSPropertyOp43
 70
     1
102
RTVSPropertyOp44
 70
     1
102
RTVSPropertyOp45
 70
     1
102
RTVSPropertyOp46
 70
     1
102
RTVSPropertyOp47
 70
     1
102
RTVSPropertyOp48
 70
     1
102
RTVSPropertyOp49
 70
     1
102
RTVSPropertyOp50
 70
     1
102
RTVSPropertyOp51
 70
     0
102
RTVSPropertyOp52
 70
     0
102
RTVSPropertyOp53
 70
     1
102
RTVSPropertyOp54
 70
     1
102
RTVSPropertyOp55
 70
     1
102
RTVSPropertyOp56
 70
     1
102
RTVSPropertyOp57
 70
     1
102
RTVSPropertyOp58
 70
     1
102
RTVSPropertyOp59
 70
     1
102
RTVSPropertyOp60
 70
     1
102
RTVSPropertyOp61
 70
     1
102
RTVSPropertyOp62
 70
     1
  0
XRECORD
  5
1782
102
{ACAD_REACTORS
330
1781
102
}
330
1781
100
AcDbXrecord
280
     1
102
RTVSPost2010Prop28
280
     0
102
RTVSPost2010PropOp28
 70
     1
102
RTVSPost2010Prop29
280
     1
102
RTVSPost2010PropOp29
 70
     1
102
RTVSPost2010Prop30
280
     1
102
RTVSPost2010PropOp30
 70
     1
102
RTVSPost2010Prop31
280
     0
102
RTVSPost2010PropOp31
 70
     1
102
RTVSPost2010Prop32
280
     0
102
RTVSPost2010PropOp32
 70
     1
102
RTVSPost2010Prop33
280
     0
102
RTVSPost2010PropOp33
 70
     1
102
RTVSPost2010Prop34
280
     0
102
RTVSPost2010PropOp34
 70
     1
102
RTVSPost2010Prop35
280
     0
102
RTVSPost2010PropOp35
 70
     1
102
RTVSPost2010Prop36
280
     0
102
RTVSPost2010PropOp36
 70
     1
102
RTVSPost2010Prop37
 90
       50
102
RTVSPost2010PropOp37
 70
     1
102
RTVSPost2010Prop38
140
0.0
102
RTVSPost2010PropOp38
 70
     1
102
RTVSPost2010Prop39
140
1.0
102
RTVSPost2010PropOp39
 70
     1
102
RTVSPost2010Prop40
 90
        0
102
RTVSPost2010PropOp40
 70
     1
102
RTVSPost2010Prop41ColorIndex
 90
       18
102
RTVSPost2010Prop41ColorRGB
 90
        0
102
RTVSPost2010PropOp41
 70
     1
102
RTVSPost2010Prop42
 90
       50
102
RTVSPost2010PropOp42
 70
     1
102
RTVSPost2010Prop43
 90
        3
102
RTVSPost2010PropOp43
 70
     1
102
RTVSPost2010Prop44ColorIndex
 90
        5
102
RTVSPost2010Prop44ColorRGB
 90
      255
102
RTVSPost2010PropOp44
 70
     1
102
RTVSPost2010Prop45
280
     0
102
RTVSPost2010PropOp45
 70
     1
102
RTVSPost2010Prop46
 90
       50
102
RTVSPost2010PropOp46
 70
     1
102
RTVSPost2010Prop47
 90
       50
102
RTVSPost2010PropOp47
 70
     1
102
RTVSPost2010Prop48
 90
       50
102
RTVSPost2010PropOp48
 70
     1
102
RTVSPost2010Prop49
280
     0
102
RTVSPost2010PropOp49
 70
     1
102
RTVSPost2010Prop50
 90
       50
102
RTVSPost2010PropOp50
 70
     1
102
RTVSPost2010Prop51ColorIndex
 90
      256
102
RTVSPost2010Prop51ColorRGB
 90
-16777216
102
RTVSPost2010PropOp51
 70
     0
102
RTVSPost2010Prop52
140
1.0
102
RTVSPost2010PropOp52
 70
     0
102
RTVSPost2010Prop53
 90
        2
102
RTVSPost2010PropOp53
 70
     1
102
RTVSPost2010Prop54
  1
strokes_ogs.tif
102
RTVSPost2010PropOp54
 70
     1
102
RTVSPost2010Prop55
280
     0
102
RTVSPost2010PropOp55
 70
     1
102
RTVSPost2010Prop56
140
1.0
102
RTVSPost2010PropOp56
 70
     1
102
RTVSPost2010Prop57
140
1.0
102
RTVSPost2010PropOp57
 70
     1
102
RTVSPropertyOp0
 70
     1
102
RTVSPropertyOp1
 70
     1
102
RTVSPropertyOp2
 70
     1
102
RTVSPropertyOp3
 70
     1
102
RTVSPropertyOp4
 70
     1
102
RTVSPropertyOp5
 70
     1
102
RTVSPropertyOp6
 70
     1
102
RTVSPropertyOp7
 70
     1
102
RTVSPropertyOp8
 70
     1
102
RTVSPropertyOp9
 70
     1
102
RTVSPropertyOp10
 70
     1
102
RTVSPropertyOp11
 70
     1
102
RTVSPropertyOp12
 70
     1
102
RTVSPropertyOp13
 70
     1
102
RTVSPropertyOp14
 70
     1
102
RTVSPropertyOp15
 70
     1
102
RTVSPropertyOp16
 70
     1
102
RTVSPropertyOp17
 70
     1
102
RTVSPropertyOp18
 70
     1
102
RTVSPropertyOp19
 70
     1
102
RTVSPropertyOp20
 70
     1
102
RTVSPropertyOp21
 70
     1
102
RTVSPropertyOp22
 70
     1
102
RTVSPropertyOp23
 70
     1
102
RTVSPropertyOp24
 70
     1
102
RTVSPropertyOp25
 70
     1
102
RTVSPropertyOp26
 70
     1
102
RTVSPropertyOp27
 70
     1
102
RTVSPropertyOp28
 70
     1
102
RTVSPropertyOp29
 70
     1
102
RTVSPropertyOp30
 70
     1
102
RTVSPropertyOp31
 70
     1
102
RTVSPropertyOp32
 70
     1
102
RTVSPropertyOp33
 70
     1
102
RTVSPropertyOp34
 70
     1
102
RTVSPropertyOp35
 70
     1
102
RTVSPropertyOp36
 70
     1
102
RTVSPropertyOp37
 70
     1
102
RTVSPropertyOp38
 70
     1
102
RTVSPropertyOp39
 70
     1
102
RTVSPropertyOp40
 70
     1
102
RTVSPropertyOp41
 70
     1
102
RTVSPropertyOp42
 70
     1
102
RTVSPropertyOp43
 70
     1
102
RTVSPropertyOp44
 70
     1
102
RTVSPropertyOp45
 70
     1
102
RTVSPropertyOp46
 70
     1
102
RTVSPropertyOp47
 70
     1
102
RTVSPropertyOp48
 70
     1
102
RTVSPropertyOp49
 70
     1
102
RTVSPropertyOp50
 70
     1
102
RTVSPropertyOp51
 70
     0
102
RTVSPropertyOp52
 70
     0
102
RTVSPropertyOp53
 70
     1
102
RTVSPropertyOp54
 70
     1
102
RTVSPropertyOp55
 70
     1
102
RTVSPropertyOp56
 70
     1
102
RTVSPropertyOp57
 70
     1
102
RTVSPropertyOp58
 70
     1
102
RTVSPropertyOp59
 70
     1
102
RTVSPropertyOp60
 70
     1
102
RTVSPropertyOp61
 70
     1
102
RTVSPropertyOp62
 70
     1
  0
XRECORD
  5
1765
102
{ACAD_REACTORS
330
1764
102
}
330
1764
100
AcDbXrecord
280
     1
102
RTVSPost2010Prop28
280
     0
102
RTVSPost2010PropOp28
 70
     1
102
RTVSPost2010Prop29
280
     1
102
RTVSPost2010PropOp29
 70
     1
102
RTVSPost2010Prop30
280
     1
102
RTVSPost2010PropOp30
 70
     1
102
RTVSPost2010Prop31
280
     0
102
RTVSPost2010PropOp31
 70
     1
102
RTVSPost2010Prop32
280
     0
102
RTVSPost2010PropOp32
 70
     1
102
RTVSPost2010Prop33
280
     0
102
RTVSPost2010PropOp33
 70
     1
102
RTVSPost2010Prop34
280
     0
102
RTVSPost2010PropOp34
 70
     1
102
RTVSPost2010Prop35
280
     0
102
RTVSPost2010PropOp35
 70
     1
102
RTVSPost2010Prop36
280
     0
102
RTVSPost2010PropOp36
 70
     1
102
RTVSPost2010Prop37
 90
       50
102
RTVSPost2010PropOp37
 70
     1
102
RTVSPost2010Prop38
140
0.0
102
RTVSPost2010PropOp38
 70
     1
102
RTVSPost2010Prop39
140
1.0
102
RTVSPost2010PropOp39
 70
     1
102
RTVSPost2010Prop40
 90
        0
102
RTVSPost2010PropOp40
 70
     1
102
RTVSPost2010Prop41ColorIndex
 90
       18
102
RTVSPost2010Prop41ColorRGB
 90
        0
102
RTVSPost2010PropOp41
 70
     1
102
RTVSPost2010Prop42
 90
       50
102
RTVSPost2010PropOp42
 70
     1
102
RTVSPost2010Prop43
 90
        3
102
RTVSPost2010PropOp43
 70
     1
102
RTVSPost2010Prop44ColorIndex
 90
        5
102
RTVSPost2010Prop44ColorRGB
 90
      255
102
RTVSPost2010PropOp44
 70
     1
102
RTVSPost2010Prop45
280
     0
102
RTVSPost2010PropOp45
 70
     1
102
RTVSPost2010Prop46
 90
       50
102
RTVSPost2010PropOp46
 70
     1
102
RTVSPost2010Prop47
 90
       50
102
RTVSPost2010PropOp47
 70
     1
102
RTVSPost2010Prop48
 90
       50
102
RTVSPost2010PropOp48
 70
     1
102
RTVSPost2010Prop49
280
     0
102
RTVSPost2010PropOp49
 70
     1
102
RTVSPost2010Prop50
 90
       50
102
RTVSPost2010PropOp50
 70
     1
102
RTVSPost2010Prop51ColorIndex
 90
      256
102
RTVSPost2010Prop51ColorRGB
 90
-16777216
102
RTVSPost2010PropOp51
 70
     0
102
RTVSPost2010Prop52
140
1.0
102
RTVSPost2010PropOp52
 70
     0
102
RTVSPost2010Prop53
 90
        2
102
RTVSPost2010PropOp53
 70
     1
102
RTVSPost2010Prop54
  1
strokes_ogs.tif
102
RTVSPost2010PropOp54
 70
     1
102
RTVSPost2010Prop55
280
     0
102
RTVSPost2010PropOp55
 70
     1
102
RTVSPost2010Prop56
140
1.0
102
RTVSPost2010PropOp56
 70
     1
102
RTVSPost2010Prop57
140
1.0
102
RTVSPost2010PropOp57
 70
     1
102
RTVSPropertyOp0
 70
     1
102
RTVSPropertyOp1
 70
     1
102
RTVSPropertyOp2
 70
     1
102
RTVSPropertyOp3
 70
     1
102
RTVSPropertyOp4
 70
     1
102
RTVSPropertyOp5
 70
     1
102
RTVSPropertyOp6
 70
     1
102
RTVSPropertyOp7
 70
     1
102
RTVSPropertyOp8
 70
     1
102
RTVSPropertyOp9
 70
     1
102
RTVSPropertyOp10
 70
     1
102
RTVSPropertyOp11
 70
     1
102
RTVSPropertyOp12
 70
     1
102
RTVSPropertyOp13
 70
     1
102
RTVSPropertyOp14
 70
     1
102
RTVSPropertyOp15
 70
     1
102
RTVSPropertyOp16
 70
     1
102
RTVSPropertyOp17
 70
     1
102
RTVSPropertyOp18
 70
     1
102
RTVSPropertyOp19
 70
     1
102
RTVSPropertyOp20
 70
     1
102
RTVSPropertyOp21
 70
     1
102
RTVSPropertyOp22
 70
     1
102
RTVSPropertyOp23
 70
     1
102
RTVSPropertyOp24
 70
     1
102
RTVSPropertyOp25
 70
     1
102
RTVSPropertyOp26
 70
     1
102
RTVSPropertyOp27
 70
     1
102
RTVSPropertyOp28
 70
     1
102
RTVSPropertyOp29
 70
     1
102
RTVSPropertyOp30
 70
     1
102
RTVSPropertyOp31
 70
     1
102
RTVSPropertyOp32
 70
     1
102
RTVSPropertyOp33
 70
     1
102
RTVSPropertyOp34
 70
     1
102
RTVSPropertyOp35
 70
     1
102
RTVSPropertyOp36
 70
     1
102
RTVSPropertyOp37
 70
     1
102
RTVSPropertyOp38
 70
     1
102
RTVSPropertyOp39
 70
     1
102
RTVSPropertyOp40
 70
     1
102
RTVSPropertyOp41
 70
     1
102
RTVSPropertyOp42
 70
     1
102
RTVSPropertyOp43
 70
     1
102
RTVSPropertyOp44
 70
     1
102
RTVSPropertyOp45
 70
     1
102
RTVSPropertyOp46
 70
     1
102
RTVSPropertyOp47
 70
     1
102
RTVSPropertyOp48
 70
     1
102
RTVSPropertyOp49
 70
     1
102
RTVSPropertyOp50
 70
     1
102
RTVSPropertyOp51
 70
     0
102
RTVSPropertyOp52
 70
     0
102
RTVSPropertyOp53
 70
     1
102
RTVSPropertyOp54
 70
     1
102
RTVSPropertyOp55
 70
     1
102
RTVSPropertyOp56
 70
     1
102
RTVSPropertyOp57
 70
     1
102
RTVSPropertyOp58
 70
     1
102
RTVSPropertyOp59
 70
     1
102
RTVSPropertyOp60
 70
     1
102
RTVSPropertyOp61
 70
     1
102
RTVSPropertyOp62
 70
     1
  0
XRECORD
  5
177C
102
{ACAD_REACTORS
330
177B
102
}
330
177B
100
AcDbXrecord
280
     1
102
RTVSPost2010Prop28
280
     0
102
RTVSPost2010PropOp28
 70
     1
102
RTVSPost2010Prop29
280
     1
102
RTVSPost2010PropOp29
 70
     1
102
RTVSPost2010Prop30
280
     1
102
RTVSPost2010PropOp30
 70
     1
102
RTVSPost2010Prop31
280
     0
102
RTVSPost2010PropOp31
 70
     1
102
RTVSPost2010Prop32
280
     0
102
RTVSPost2010PropOp32
 70
     1
102
RTVSPost2010Prop33
280
     0
102
RTVSPost2010PropOp33
 70
     1
102
RTVSPost2010Prop34
280
     0
102
RTVSPost2010PropOp34
 70
     1
102
RTVSPost2010Prop35
280
     0
102
RTVSPost2010PropOp35
 70
     1
102
RTVSPost2010Prop36
280
     0
102
RTVSPost2010PropOp36
 70
     1
102
RTVSPost2010Prop37
 90
       50
102
RTVSPost2010PropOp37
 70
     1
102
RTVSPost2010Prop38
140
0.0
102
RTVSPost2010PropOp38
 70
     1
102
RTVSPost2010Prop39
140
1.0
102
RTVSPost2010PropOp39
 70
     1
102
RTVSPost2010Prop40
 90
        0
102
RTVSPost2010PropOp40
 70
     1
102
RTVSPost2010Prop41ColorIndex
 90
       18
102
RTVSPost2010Prop41ColorRGB
 90
        0
102
RTVSPost2010PropOp41
 70
     1
102
RTVSPost2010Prop42
 90
       50
102
RTVSPost2010PropOp42
 70
     1
102
RTVSPost2010Prop43
 90
        3
102
RTVSPost2010PropOp43
 70
     1
102
RTVSPost2010Prop44ColorIndex
 90
        5
102
RTVSPost2010Prop44ColorRGB
 90
      255
102
RTVSPost2010PropOp44
 70
     1
102
RTVSPost2010Prop45
280
     0
102
RTVSPost2010PropOp45
 70
     1
102
RTVSPost2010Prop46
 90
       50
102
RTVSPost2010PropOp46
 70
     1
102
RTVSPost2010Prop47
 90
       50
102
RTVSPost2010PropOp47
 70
     1
102
RTVSPost2010Prop48
 90
       50
102
RTVSPost2010PropOp48
 70
     1
102
RTVSPost2010Prop49
280
     0
102
RTVSPost2010PropOp49
 70
     1
102
RTVSPost2010Prop50
 90
       50
102
RTVSPost2010PropOp50
 70
     1
102
RTVSPost2010Prop51ColorIndex
 90
      256
102
RTVSPost2010Prop51ColorRGB
 90
-16777216
102
RTVSPost2010PropOp51
 70
     0
102
RTVSPost2010Prop52
140
1.0
102
RTVSPost2010PropOp52
 70
     0
102
RTVSPost2010Prop53
 90
        2
102
RTVSPost2010PropOp53
 70
     1
102
RTVSPost2010Prop54
  1
strokes_ogs.tif
102
RTVSPost2010PropOp54
 70
     1
102
RTVSPost2010Prop55
280
     0
102
RTVSPost2010PropOp55
 70
     1
102
RTVSPost2010Prop56
140
1.0
102
RTVSPost2010PropOp56
 70
     1
102
RTVSPost2010Prop57
140
1.0
102
RTVSPost2010PropOp57
 70
     1
102
RTVSPropertyOp0
 70
     1
102
RTVSPropertyOp1
 70
     1
102
RTVSPropertyOp2
 70
     1
102
RTVSPropertyOp3
 70
     1
102
RTVSPropertyOp4
 70
     1
102
RTVSPropertyOp5
 70
     1
102
RTVSPropertyOp6
 70
     1
102
RTVSPropertyOp7
 70
     1
102
RTVSPropertyOp8
 70
     1
102
RTVSPropertyOp9
 70
     1
102
RTVSPropertyOp10
 70
     1
102
RTVSPropertyOp11
 70
     1
102
RTVSPropertyOp12
 70
     1
102
RTVSPropertyOp13
 70
     1
102
RTVSPropertyOp14
 70
     1
102
RTVSPropertyOp15
 70
     1
102
RTVSPropertyOp16
 70
     1
102
RTVSPropertyOp17
 70
     1
102
RTVSPropertyOp18
 70
     1
102
RTVSPropertyOp19
 70
     1
102
RTVSPropertyOp20
 70
     1
102
RTVSPropertyOp21
 70
     1
102
RTVSPropertyOp22
 70
     1
102
RTVSPropertyOp23
 70
     1
102
RTVSPropertyOp24
 70
     1
102
RTVSPropertyOp25
 70
     1
102
RTVSPropertyOp26
 70
     1
102
RTVSPropertyOp27
 70
     1
102
RTVSPropertyOp28
 70
     1
102
RTVSPropertyOp29
 70
     1
102
RTVSPropertyOp30
 70
     1
102
RTVSPropertyOp31
 70
     1
102
RTVSPropertyOp32
 70
     1
102
RTVSPropertyOp33
 70
     1
102
RTVSPropertyOp34
 70
     1
102
RTVSPropertyOp35
 70
     1
102
RTVSPropertyOp36
 70
     1
102
RTVSPropertyOp37
 70
     1
102
RTVSPropertyOp38
 70
     1
102
RTVSPropertyOp39
 70
     1
102
RTVSPropertyOp40
 70
     1
102
RTVSPropertyOp41
 70
     1
102
RTVSPropertyOp42
 70
     1
102
RTVSPropertyOp43
 70
     1
102
RTVSPropertyOp44
 70
     1
102
RTVSPropertyOp45
 70
     1
102
RTVSPropertyOp46
 70
     1
102
RTVSPropertyOp47
 70
     1
102
RTVSPropertyOp48
 70
     1
102
RTVSPropertyOp49
 70
     1
102
RTVSPropertyOp50
 70
     1
102
RTVSPropertyOp51
 70
     0
102
RTVSPropertyOp52
 70
     0
102
RTVSPropertyOp53
 70
     1
102
RTVSPropertyOp54
 70
     1
102
RTVSPropertyOp55
 70
     1
102
RTVSPropertyOp56
 70
     1
102
RTVSPropertyOp57
 70
     1
102
RTVSPropertyOp58
 70
     1
102
RTVSPropertyOp59
 70
     1
102
RTVSPropertyOp60
 70
     1
102
RTVSPropertyOp61
 70
     1
102
RTVSPropertyOp62
 70
     1
  0
XRECORD
  5
1784
102
{ACAD_REACTORS
330
1783
102
}
330
1783
100
AcDbXrecord
280
     1
102
RTVSPost2010Prop28
280
     0
102
RTVSPost2010PropOp28
 70
     1
102
RTVSPost2010Prop29
280
     1
102
RTVSPost2010PropOp29
 70
     1
102
RTVSPost2010Prop30
280
     1
102
RTVSPost2010PropOp30
 70
     1
102
RTVSPost2010Prop31
280
     0
102
RTVSPost2010PropOp31
 70
     1
102
RTVSPost2010Prop32
280
     0
102
RTVSPost2010PropOp32
 70
     1
102
RTVSPost2010Prop33
280
     0
102
RTVSPost2010PropOp33
 70
     1
102
RTVSPost2010Prop34
280
     0
102
RTVSPost2010PropOp34
 70
     1
102
RTVSPost2010Prop35
280
     0
102
RTVSPost2010PropOp35
 70
     1
102
RTVSPost2010Prop36
280
     0
102
RTVSPost2010PropOp36
 70
     1
102
RTVSPost2010Prop37
 90
       50
102
RTVSPost2010PropOp37
 70
     1
102
RTVSPost2010Prop38
140
0.0
102
RTVSPost2010PropOp38
 70
     1
102
RTVSPost2010Prop39
140
1.0
102
RTVSPost2010PropOp39
 70
     1
102
RTVSPost2010Prop40
 90
        0
102
RTVSPost2010PropOp40
 70
     1
102
RTVSPost2010Prop41ColorIndex
 90
       18
102
RTVSPost2010Prop41ColorRGB
 90
        0
102
RTVSPost2010PropOp41
 70
     1
102
RTVSPost2010Prop42
 90
       50
102
RTVSPost2010PropOp42
 70
     1
102
RTVSPost2010Prop43
 90
        3
102
RTVSPost2010PropOp43
 70
     1
102
RTVSPost2010Prop44ColorIndex
 90
        5
102
RTVSPost2010Prop44ColorRGB
 90
      255
102
RTVSPost2010PropOp44
 70
     1
102
RTVSPost2010Prop45
280
     0
102
RTVSPost2010PropOp45
 70
     1
102
RTVSPost2010Prop46
 90
       50
102
RTVSPost2010PropOp46
 70
     1
102
RTVSPost2010Prop47
 90
       50
102
RTVSPost2010PropOp47
 70
     1
102
RTVSPost2010Prop48
 90
       50
102
RTVSPost2010PropOp48
 70
     1
102
RTVSPost2010Prop49
280
     0
102
RTVSPost2010PropOp49
 70
     1
102
RTVSPost2010Prop50
 90
       50
102
RTVSPost2010PropOp50
 70
     1
102
RTVSPost2010Prop51ColorIndex
 90
      256
102
RTVSPost2010Prop51ColorRGB
 90
-16777216
102
RTVSPost2010PropOp51
 70
     0
102
RTVSPost2010Prop52
140
1.0
102
RTVSPost2010PropOp52
 70
     0
102
RTVSPost2010Prop53
 90
        2
102
RTVSPost2010PropOp53
 70
     1
102
RTVSPost2010Prop54
  1
strokes_ogs.tif
102
RTVSPost2010PropOp54
 70
     1
102
RTVSPost2010Prop55
280
     0
102
RTVSPost2010PropOp55
 70
     1
102
RTVSPost2010Prop56
140
1.0
102
RTVSPost2010PropOp56
 70
     1
102
RTVSPost2010Prop57
140
1.0
102
RTVSPost2010PropOp57
 70
     1
102
RTVSPropertyOp0
 70
     1
102
RTVSPropertyOp1
 70
     1
102
RTVSPropertyOp2
 70
     1
102
RTVSPropertyOp3
 70
     1
102
RTVSPropertyOp4
 70
     1
102
RTVSPropertyOp5
 70
     1
102
RTVSPropertyOp6
 70
     1
102
RTVSPropertyOp7
 70
     1
102
RTVSPropertyOp8
 70
     1
102
RTVSPropertyOp9
 70
     1
102
RTVSPropertyOp10
 70
     1
102
RTVSPropertyOp11
 70
     1
102
RTVSPropertyOp12
 70
     1
102
RTVSPropertyOp13
 70
     1
102
RTVSPropertyOp14
 70
     1
102
RTVSPropertyOp15
 70
     1
102
RTVSPropertyOp16
 70
     1
102
RTVSPropertyOp17
 70
     1
102
RTVSPropertyOp18
 70
     1
102
RTVSPropertyOp19
 70
     1
102
RTVSPropertyOp20
 70
     1
102
RTVSPropertyOp21
 70
     1
102
RTVSPropertyOp22
 70
     1
102
RTVSPropertyOp23
 70
     1
102
RTVSPropertyOp24
 70
     1
102
RTVSPropertyOp25
 70
     1
102
RTVSPropertyOp26
 70
     1
102
RTVSPropertyOp27
 70
     1
102
RTVSPropertyOp28
 70
     1
102
RTVSPropertyOp29
 70
     1
102
RTVSPropertyOp30
 70
     1
102
RTVSPropertyOp31
 70
     1
102
RTVSPropertyOp32
 70
     1
102
RTVSPropertyOp33
 70
     1
102
RTVSPropertyOp34
 70
     1
102
RTVSPropertyOp35
 70
     1
102
RTVSPropertyOp36
 70
     1
102
RTVSPropertyOp37
 70
     1
102
RTVSPropertyOp38
 70
     1
102
RTVSPropertyOp39
 70
     1
102
RTVSPropertyOp40
 70
     1
102
RTVSPropertyOp41
 70
     1
102
RTVSPropertyOp42
 70
     1
102
RTVSPropertyOp43
 70
     1
102
RTVSPropertyOp44
 70
     1
102
RTVSPropertyOp45
 70
     1
102
RTVSPropertyOp46
 70
     1
102
RTVSPropertyOp47
 70
     1
102
RTVSPropertyOp48
 70
     1
102
RTVSPropertyOp49
 70
     1
102
RTVSPropertyOp50
 70
     1
102
RTVSPropertyOp51
 70
     0
102
RTVSPropertyOp52
 70
     0
102
RTVSPropertyOp53
 70
     1
102
RTVSPropertyOp54
 70
     1
102
RTVSPropertyOp55
 70
     1
102
RTVSPropertyOp56
 70
     1
102
RTVSPropertyOp57
 70
     1
102
RTVSPropertyOp58
 70
     1
102
RTVSPropertyOp59
 70
     1
102
RTVSPropertyOp60
 70
     1
102
RTVSPropertyOp61
 70
     1
102
RTVSPropertyOp62
 70
     1
  0
ENDSEC
  0
EOF
