  0
SECTION
  2
HEADER
  9
$ACADVER
  1
AC1015
  9
$ACADMAINTVER
 70
    20
  9
$DWGCODEPAGE
  3
ANSI_1252
  9
$INSBASE
 10
0.0
 20
0.0
 30
0.0
  9
$EXTMIN
 10
-12.79453861805905
 20
10.9797680575632
 30
-0.0015258207003583
  9
$EXTMAX
 10
111.5778667304873
 20
94.17678913820623
 30
0.0000000349246037
  9
$LIMMIN
 10
-170.0
 20
-170.0
  9
$LIMMAX
 10
519.0
 20
260.0
  9
$ORTHOMODE
 70
     1
  9
$REGENMODE
 70
     1
  9
$FILLMODE
 70
     1
  9
$QTEXTMODE
 70
     0
  9
$MIRRTEXT
 70
     1
  9
$LTSCALE
 40
10.0
  9
$ATTMODE
 70
     1
  9
$TEXTSIZE
 40
3.5
  9
$TRACEWID
 40
0.05
  9
$TEXTSTYLE
  7
SIMPLEX
  9
$CLAYER
  8
SK6
  9
$CELTYPE
  6
BYLAYER
  9
$CECOLOR
 62
   256
  9
$CELTSCALE
 40
1.0
  9
$DISPSILH
 70
     0
  9
$DIMSCALE
 40
1.0
  9
$DIMASZ
 40
3.5
  9
$DIMEXO
 40
1.0
  9
$DIMDLI
 40
0.5
  9
$DIMRND
 40
0.0
  9
$DIMDLE
 40
0.0
  9
$DIMEXE
 40
1.0
  9
$DIMTP
 40
0.0
  9
$DIMTM
 40
0.0
  9
$DIMTXT
 40
3.5
  9
$DIMCEN
 40
0.0
  9
$DIMTSZ
 40
0.0
  9
$DIMTOL
 70
     0
  9
$DIMLIM
 70
     0
  9
$DIMTIH
 70
     0
  9
$DIMTOH
 70
     0
  9
$DIMSE1
 70
     0
  9
$DIMSE2
 70
     0
  9
$DIMTAD
 70
     1
  9
$DIMZIN
 70
     0
  9
$DIMBLK
  1

  9
$DIMASO
 70
     1
  9
$DIMSHO
 70
     1
  9
$DIMPOST
  1

  9
$DIMAPOST
  1

  9
$DIMALT
 70
     0
  9
$DIMALTD
 70
     2
  9
$DIMALTF
 40
25.4
  9
$DIMLFAC
 40
1.0
  9
$DIMTOFL
 70
     1
  9
$DIMTVP
 40
0.0
  9
$DIMTIX
 70
     0
  9
$DIMSOXD
 70
     0
  9
$DIMSAH
 70
     0
  9
$DIMBLK1
  1

  9
$DIMBLK2
  1

  9
$DIMSTYLE
  2
V-TYGEN_-160
  9
$DIMCLRD
 70
     0
  9
$DIMCLRE
 70
     0
  9
$DIMCLRT
 70
     0
  9
$DIMTFAC
 40
1.0
  9
$DIMGAP
 40
1.0
  9
$DIMJUST
 70
     0
  9
$DIMSD1
 70
     0
  9
$DIMSD2
 70
     0
  9
$DIMTOLJ
 70
     1
  9
$DIMTZIN
 70
     0
  9
$DIMALTZ
 70
     0
  9
$DIMALTTZ
 70
     0
  9
$DIMUPT
 70
     0
  9
$DIMDEC
 70
     0
  9
$DIMTDEC
 70
     0
  9
$DIMALTU
 70
     2
  9
$DIMALTTD
 70
     2
  9
$DIMTXSTY
  7
STANDARD
  9
$DIMAUNIT
 70
     0
  9
$DIMADEC
 70
     0
  9
$DIMALTRND
 40
0.0
  9
$DIMAZIN
 70
     0
  9
$DIMDSEP
 70
    46
  9
$DIMATFIT
 70
     3
  9
$DIMFRAC
 70
     0
  9
$DIMLDRBLK
  1

  9
$DIMLUNIT
 70
     2
  9
$DIMLWD
 70
    -1
  9
$DIMLWE
 70
    -2
  9
$DIMTMOVE
 70
     0
  9
$LUNITS
 70
     2
  9
$LUPREC
 70
     2
  9
$SKETCHINC
 40
0.1
  9
$FILLETRAD
 40
0.0
  9
$AUNITS
 70
     0
  9
$AUPREC
 70
     0
  9
$MENU
  1
TDMWIN
  9
$ELEVATION
 40
0.0
  9
$PELEVATION
 40
0.0
  9
$THICKNESS
 40
0.0
  9
$LIMCHECK
 70
     0
  9
$CHAMFERA
 40
0.0
  9
$CHAMFERB
 40
0.0
  9
$CHAMFERC
 40
0.0
  9
$CHAMFERD
 40
0.0
  9
$SKPOLY
 70
     0
  9
$TDCREATE
 40
2456482.698120116
  9
$TDUCREATE
 40
2456482.468953449
  9
$TDUPDATE
 40
2456482.700881713
  9
$TDUUPDATE
 40
2456482.471715046
  9
$TDINDWG
 40
0.0027619907
  9
$TDUSRTIMER
 40
0.0027619676
  9
$USRTIMER
 70
     1
  9
$ANGBASE
 50
0.0
  9
$ANGDIR
 70
     0
  9
$PDMODE
 70
     2
  9
$PDSIZE
 40
0.0
  9
$PLINEWID
 40
0.0
  9
$SPLFRAME
 70
     0
  9
$SPLINETYPE
 70
     6
  9
$SPLINESEGS
 70
     8
  9
$HANDSEED
  5
1693
  9
$SURFTAB1
 70
     6
  9
$SURFTAB2
 70
     6
  9
$SURFTYPE
 70
     6
  9
$SURFU
 70
     6
  9
$SURFV
 70
     6
  9
$UCSBASE
  2

  9
$UCSNAME
  2

  9
$UCSORG
 10
31.51938124085587
 20
53.42273205855372
 30
0.0
  9
$UCSXDIR
 10
1.0
 20
0.0
 30
0.0
  9
$UCSYDIR
 10
0.0
 20
1.0
 30
0.0
  9
$UCSORTHOREF
  2

  9
$UCSORTHOVIEW
 70
     0
  9
$UCSORGTOP
 10
0.0
 20
0.0
 30
0.0
  9
$UCSORGBOTTOM
 10
0.0
 20
0.0
 30
0.0
  9
$UCSORGLEFT
 10
0.0
 20
0.0
 30
0.0
  9
$UCSORGRIGHT
 10
0.0
 20
0.0
 30
0.0
  9
$UCSORGFRONT
 10
0.0
 20
0.0
 30
0.0
  9
$UCSORGBACK
 10
0.0
 20
0.0
 30
0.0
  9
$PUCSBASE
  2

  9
$PUCSNAME
  2

  9
$PUCSORG
 10
0.0
 20
0.0
 30
0.0
  9
$PUCSXDIR
 10
1.0
 20
0.0
 30
0.0
  9
$PUCSYDIR
 10
0.0
 20
1.0
 30
0.0
  9
$PUCSORTHOREF
  2

  9
$PUCSORTHOVIEW
 70
     0
  9
$PUCSORGTOP
 10
0.0
 20
0.0
 30
0.0
  9
$PUCSORGBOTTOM
 10
0.0
 20
0.0
 30
0.0
  9
$PUCSORGLEFT
 10
0.0
 20
0.0
 30
0.0
  9
$PUCSORGRIGHT
 10
0.0
 20
0.0
 30
0.0
  9
$PUCSORGFRONT
 10
0.0
 20
0.0
 30
0.0
  9
$PUCSORGBACK
 10
0.0
 20
0.0
 30
0.0
  9
$USERI1
 70
     0
  9
$USERI2
 70
     0
  9
$USERI3
 70
     0
  9
$USERI4
 70
     0
  9
$USERI5
 70
     0
  9
$USERR1
 40
0.0
  9
$USERR2
 40
0.0
  9
$USERR3
 40
0.0
  9
$USERR4
 40
0.0
  9
$USERR5
 40
0.0
  9
$WORLDVIEW
 70
     1
  9
$SHADEDGE
 70
     3
  9
$SHADEDIF
 70
    70
  9
$TILEMODE
 70
     1
  9
$MAXACTVP
 70
    16
  9
$PINSBASE
 10
0.0
 20
0.0
 30
0.0
  9
$PLIMCHECK
 70
     0
  9
$PEXTMIN
 10
1.000000000000000E+20
 20
1.000000000000000E+20
 30
1.000000000000000E+20
  9
$PEXTMAX
 10
-1.000000000000000E+20
 20
-1.000000000000000E+20
 30
-1.000000000000000E+20
  9
$PLIMMIN
 10
0.0
 20
0.0
  9
$PLIMMAX
 10
12.0
 20
9.0
  9
$UNITMODE
 70
     0
  9
$VISRETAIN
 70
     0
  9
$PLINEGEN
 70
     0
  9
$PSLTSCALE
 70
     0
  9
$TREEDEPTH
 70
  3020
  9
$CMLSTYLE
  2
STANDARD
  9
$CMLJUST
 70
     0
  9
$CMLSCALE
 40
1.0
  9
$PROXYGRAPHICS
 70
     1
  9
$MEASUREMENT
 70
     1
  9
$CELWEIGHT
370
    -1
  9
$ENDCAPS
280
     0
  9
$JOINSTYLE
280
     0
  9
$LWDISPLAY
290
     0
  9
$INSUNITS
 70
     0
  9
$HYPERLINKBASE
  1

  9
$STYLESHEET
  1

  9
$XEDIT
290
     1
  9
$CEPSNTYPE
380
     0
  9
$PSTYLEMODE
290
     1
  9
$FINGERPRINTGUID
  2
{CE854A5E-B6A7-47E0-839F-469EBF1B0BB2}
  9
$VERSIONGUID
  2
{248F4DCE-1967-4EB0-8AD5-E0892DBCE701}
  9
$EXTNAMES
290
     1
  9
$PSVPSCALE
 40
0.0
  9
$OLESTARTUP
290
     0
  0
ENDSEC
  0
SECTION
  2
CLASSES
  0
CLASS
  1
ACDBDICTIONARYWDFLT
  2
AcDbDictionaryWithDefault
  3
ObjectDBX Classes
 90
        0
280
     0
281
     0
  0
CLASS
  1
ACDBPLACEHOLDER
  2
AcDbPlaceHolder
  3
ObjectDBX Classes
 90
        0
280
     0
281
     0
  0
CLASS
  1
LAYOUT
  2
AcDbLayout
  3
ObjectDBX Classes
 90
        0
280
     0
281
     0
  0
CLASS
  1
MATERIAL
  2
AcDbMaterial
  3
ObjectDBX Classes
 90
     1153
280
     0
281
     0
  0
CLASS
  1
VISUALSTYLE
  2
AcDbVisualStyle
  3
ObjectDBX Classes
 90
     4095
280
     0
281
     0
  0
CLASS
  1
TABLESTYLE
  2
AcDbTableStyle
  3
ObjectDBX Classes
 90
     4095
280
     0
281
     0
  0
CLASS
  1
SCALE
  2
AcDbScale
  3
ObjectDBX Classes
 90
     1153
280
     0
281
     0
  0
CLASS
  1
MLEADERSTYLE
  2
AcDbMLeaderStyle
  3
ACDB_MLEADERSTYLE_CLASS
 90
     4095
280
     0
281
     0
  0
CLASS
  1
DICTIONARYVAR
  2
AcDbDictionaryVar
  3
ObjectDBX Classes
 90
        0
280
     0
281
     0
  0
CLASS
  1
SORTENTSTABLE
  2
AcDbSortentsTable
  3
ObjectDBX Classes
 90
        0
280
     0
281
     0
  0
CLASS
  1
CELLSTYLEMAP
  2
AcDbCellStyleMap
  3
ObjectDBX Classes
 90
     1152
280
     0
281
     0
  0
ENDSEC
  0
SECTION
  2
TABLES
  0
TABLE
  2
VPORT
  5
8
330
0
100
AcDbSymbolTable
 70
     1
  0
VPORT
  5
1288
330
8
100
AcDbSymbolTableRecord
100
AcDbViewportTableRecord
  2
*Active
 70
     0
 10
0.0
 20
0.0
 11
1.0
 21
1.0
 12
49.39166405621416
 22
52.57827859788471
 13
0.0
 23
0.0
 14
5.0
 24
5.0
 15
5.0
 25
5.0
 16
0.0
 26
0.0
 36
1.0
 17
0.0
 27
0.0
 37
0.0
 40
83.73843336533267
 41
1.61129207383279
 42
50.0
 43
0.0
 44
0.0
 50
0.0
 51
0.0
 71
     0
 72
   100
 73
     1
 74
     3
 75
     0
 76
     0
 77
     0
 78
     0
281
     0
 65
     1
110
0.0
120
0.0
130
0.0
111
1.0
121
0.0
131
0.0
112
0.0
122
1.0
132
0.0
 79
     0
146
0.0
  0
ENDTAB
  0
TABLE
  2
LTYPE
  5
5
330
0
100
AcDbSymbolTable
 70
     5
  0
LTYPE
  5
13
330
5
100
AcDbSymbolTableRecord
100
AcDbLinetypeTableRecord
  2
BYBLOCK
 70
     0
  3

 72
    65
 73
     0
 40
0.0
  0
LTYPE
  5
14
330
5
100
AcDbSymbolTableRecord
100
AcDbLinetypeTableRecord
  2
BYLAYER
 70
     0
  3

 72
    65
 73
     0
 40
0.0
  0
LTYPE
  5
15
330
5
100
AcDbSymbolTableRecord
100
AcDbLinetypeTableRecord
  2
CONTINUOUS
 70
     0
  3
Solid line
 72
    65
 73
     0
 40
0.0
  0
LTYPE
  5
20
330
5
100
AcDbSymbolTableRecord
100
AcDbLinetypeTableRecord
  2
CENTER
 70
     0
  3
____ . ____ . ____
 72
    65
 73
     4
 40
1.5
 49
1.0
 74
     0
 49
-0.25
 74
     0
 49
0.0
 74
     0
 49
-0.25
 74
     0
  0
LTYPE
  5
21
330
5
100
AcDbSymbolTableRecord
100
AcDbLinetypeTableRecord
  2
HIDDEN
 70
     0
  3
_ _ _ _ _ _ _ _ _ _ _ _ _ _ _ _ _ _ _ _ _ _ _
 72
    65
 73
     2
 40
0.375
 49
0.25
 74
     0
 49
-0.125
 74
     0
  0
ENDTAB
  0
TABLE
  2
LAYER
  5
2
330
0
100
AcDbSymbolTable
 70
    16
  0
LAYER
  5
F
102
{ACAD_XDICTIONARY
360
1634
102
}
330
2
100
AcDbSymbolTableRecord
100
AcDbLayerTableRecord
  2
0
 70
     0
 62
     7
  6
CONTINUOUS
370
    -3
390
E94
  0
LAYER
  5
1E
102
{ACAD_XDICTIONARY
360
1636
102
}
330
2
100
AcDbSymbolTableRecord
100
AcDbLayerTableRecord
  2
1
 70
     0
 62
     4
  6
CONTINUOUS
370
    -3
390
E94
  0
LAYER
  5
22
102
{ACAD_XDICTIONARY
360
1638
102
}
330
2
100
AcDbSymbolTableRecord
100
AcDbLayerTableRecord
  2
SK1
 70
     0
 62
     4
  6
CONTINUOUS
370
    -3
390
E94
  0
LAYER
  5
23
102
{ACAD_XDICTIONARY
360
163A
102
}
330
2
100
AcDbSymbolTableRecord
100
AcDbLayerTableRecord
  2
2
 70
     0
 62
     7
  6
CONTINUOUS
370
    -3
390
E94
  0
LAYER
  5
24
102
{ACAD_XDICTIONARY
360
163C
102
}
330
2
100
AcDbSymbolTableRecord
100
AcDbLayerTableRecord
  2
2L
 70
     0
 62
     7
  6
CONTINUOUS
370
    -3
390
E94
  0
LAYER
  5
25
102
{ACAD_XDICTIONARY
360
163E
102
}
330
2
100
AcDbSymbolTableRecord
100
AcDbLayerTableRecord
  2
SK2
 70
     0
 62
     7
  6
CONTINUOUS
370
    -3
390
E94
  0
LAYER
  5
26
102
{ACAD_XDICTIONARY
360
1640
102
}
330
2
100
AcDbSymbolTableRecord
100
AcDbLayerTableRecord
  2
3
 70
     0
 62
     1
  6
HIDDEN
370
    -3
390
E94
  0
LAYER
  5
27
102
{ACAD_XDICTIONARY
360
1642
102
}
330
2
100
AcDbSymbolTableRecord
100
AcDbLayerTableRecord
  2
SK3
 70
     0
 62
     1
  6
HIDDEN
370
    -3
390
E94
  0
LAYER
  5
28
102
{ACAD_XDICTIONARY
360
1644
102
}
330
2
100
AcDbSymbolTableRecord
100
AcDbLayerTableRecord
  2
4
 70
     0
 62
     2
  6
CENTER
370
    -3
390
E94
  0
LAYER
  5
29
102
{ACAD_XDICTIONARY
360
1646
102
}
330
2
100
AcDbSymbolTableRecord
100
AcDbLayerTableRecord
  2
SK4
 70
     0
 62
     2
  6
CENTER
370
    -3
390
E94
  0
LAYER
  5
2A
102
{ACAD_XDICTIONARY
360
1648
102
}
330
2
100
AcDbSymbolTableRecord
100
AcDbLayerTableRecord
  2
5
 70
     0
 62
     7
  6
CONTINUOUS
370
    -3
390
E94
  0
LAYER
  5
2B
102
{ACAD_XDICTIONARY
360
164A
102
}
330
2
100
AcDbSymbolTableRecord
100
AcDbLayerTableRecord
  2
6
 70
     0
 62
     5
  6
CONTINUOUS
370
    -3
390
E94
  0
LAYER
  5
2C
102
{ACAD_XDICTIONARY
360
164C
102
}
330
2
100
AcDbSymbolTableRecord
100
AcDbLayerTableRecord
  2
SK6
 70
     0
 62
     5
  6
CONTINUOUS
370
    -3
390
E94
  0
LAYER
  5
2D
102
{ACAD_XDICTIONARY
360
164E
102
}
330
2
100
AcDbSymbolTableRecord
100
AcDbLayerTableRecord
  2
243
 70
     0
 62
     7
  6
CONTINUOUS
370
    -3
390
E94
  0
LAYER
  5
2E
330
2
100
AcDbSymbolTableRecord
100
AcDbLayerTableRecord
  2
DEFPOINTS
 70
     0
 62
     7
  6
CONTINUOUS
290
     0
370
    -3
390
E94
  0
LAYER
  5
C07
102
{ACAD_XDICTIONARY
360
1650
102
}
330
2
100
AcDbSymbolTableRecord
100
AcDbLayerTableRecord
  2
FRONT
 70
     0
 62
     7
  6
CONTINUOUS
370
    -3
390
E94
  0
ENDTAB
  0
TABLE
  2
STYLE
  5
3
330
0
100
AcDbSymbolTable
 70
     4
  0
STYLE
  5
10
330
3
100
AcDbSymbolTableRecord
100
AcDbTextStyleTableRecord
  2
STANDARD
 70
     0
 40
0.0
 41
1.0
 50
0.0
 71
     0
 42
5.0
  3
txt
  4

  0
STYLE
  5
1F
330
3
100
AcDbSymbolTableRecord
100
AcDbTextStyleTableRecord
  2
SIMPLEX
 70
     0
 40
0.0
 41
1.0
 50
0.0
 71
     0
 42
3.5
  3
simplex
  4

  0
STYLE
  5
2F
330
3
100
AcDbSymbolTableRecord
100
AcDbTextStyleTableRecord
  2
TXT
 70
     0
 40
8.0
 41
1.0
 50
0.0
 71
     0
 42
8.0
  3
txt
  4

  0
STYLE
  5
C08
330
3
100
AcDbSymbolTableRecord
100
AcDbTextStyleTableRecord
  2
UGMTXT
 70
     0
 40
0.0
 41
1.0
 50
0.0
 71
     0
 42
0.2
  3
ugmtxt
  4
bigfont
  0
ENDTAB
  0
TABLE
  2
VIEW
  5
6
330
0
100
AcDbSymbolTable
 70
     0
  0
ENDTAB
  0
TABLE
  2
UCS
  5
7
330
0
100
AcDbSymbolTable
 70
     0
  0
ENDTAB
  0
TABLE
  2
APPID
  5
9
330
0
100
AcDbSymbolTable
 70
     6
  0
APPID
  5
11
330
9
100
AcDbSymbolTableRecord
100
AcDbRegAppTableRecord
  2
ACAD
 70
     0
  0
APPID
  5
E8F
330
9
100
AcDbSymbolTableRecord
100
AcDbRegAppTableRecord
  2
CONTENTBLOCKICON
 70
     0
  0
APPID
  5
12D6
330
9
100
AcDbSymbolTableRecord
100
AcDbRegAppTableRecord
  2
ACAD_DSTYLE_DIMJAG
 70
     0
  0
APPID
  5
12D7
330
9
100
AcDbSymbolTableRecord
100
AcDbRegAppTableRecord
  2
ACAD_DSTYLE_DIMTALN
 70
     0
  0
APPID
  5
157E
330
9
100
AcDbSymbolTableRecord
100
AcDbRegAppTableRecord
  2
ACAD_EXEMPT_FROM_CAD_STANDARDS
 70
     0
  0
APPID
  5
1692
330
9
100
AcDbSymbolTableRecord
100
AcDbRegAppTableRecord
  2
ACAD_MLEADERVER
 70
     0
  0
ENDTAB
  0
TABLE
  2
DIMSTYLE
  5
A
330
0
100
AcDbSymbolTable
 70
     6
100
AcDbDimStyleTable
 71
     5
340
D91
340
1273
340
D93
340
D92
340
980
  0
DIMSTYLE
105
980
330
A
100
AcDbSymbolTableRecord
100
AcDbDimStyleTableRecord
  2
STANDARD
 70
     0
340
10
  0
DIMSTYLE
105
D91
102
{ACAD_REACTORS
330
158E
330
159E
330
15B4
330
15C1
330
15CE
102
}
330
A
100
AcDbSymbolTableRecord
100
AcDbDimStyleTableRecord
  2
V-TYGEN_-160
 70
     0
 41
3.5
 42
1.0
 43
0.5
 44
1.0
 73
     0
 74
     0
 77
     1
140
3.5
141
0.0
147
1.0
172
     1
271
     0
272
     0
340
10
371
    -1
1001
ACAD_DSTYLE_DIMJAG
1070
   388
1040
1.5
1001
ACAD_DSTYLE_DIMTALN
1070
   392
1070
     0
  0
DIMSTYLE
105
D92
330
A
100
AcDbSymbolTableRecord
100
AcDbDimStyleTableRecord
  2
V-TYG_160-300
 70
     0
 41
5.0
 42
1.0
 43
0.5
 44
1.0
 73
     0
 74
     0
 77
     1
140
5.0
141
0.0
147
1.0
271
     0
272
     0
340
10
  0
DIMSTYLE
105
D93
330
A
100
AcDbSymbolTableRecord
100
AcDbDimStyleTableRecord
  2
V-TYG_300-
 70
     0
 41
8.0
 42
1.0
 43
0.5
 44
1.0
 73
     0
 74
     0
 77
     1
140
8.0
141
0.0
147
1.0
271
     0
272
     0
340
10
  0
DIMSTYLE
105
1273
330
A
100
AcDbSymbolTableRecord
100
AcDbDimStyleTableRecord
  2
Inserts
 70
     0
 41
0.5
 42
1.0
 43
0.5
 44
1.0
 73
     0
 74
     0
 77
     1
140
0.8
141
0.0
147
1.0
271
     0
272
     0
340
10
371
    -1
  0
ENDTAB
  0
TABLE
  2
BLOCK_RECORD
  5
1
330
0
100
AcDbSymbolTable
 70
     9
  0
BLOCK_RECORD
  5
19
102
{ACAD_XDICTIONARY
360
E8D
102
}
330
1
100
AcDbSymbolTableRecord
100
AcDbBlockTableRecord
  2
*MODEL_SPACE
340
E95
  0
BLOCK_RECORD
  5
16
102
{ACAD_XDICTIONARY
360
E8B
102
}
330
1
100
AcDbSymbolTableRecord
100
AcDbBlockTableRecord
  2
*PAPER_SPACE
340
E96
  0
BLOCK_RECORD
  5
A8B
330
1
100
AcDbSymbolTableRecord
100
AcDbBlockTableRecord
  2
2D00035417
340
0
310
2800000020000000200000000100080000000000000400000000000000000000000000000000000000000000000080000080000000808000800000008000800080800000C0C0C000C0DCC000F0CAA6000020400000206000002080000020A0000020C0000020E00000400000004020000040400000406000004080000040A0
310
000040C0000040E00000600000006020000060400000606000006080000060A0000060C0000060E00000800000008020000080400000806000008080000080A0000080C0000080E00000A0000000A0200000A0400000A0600000A0800000A0A00000A0C00000A0E00000C0000000C0200000C0400000C0600000C0800000C0
310
A00000C0C00000C0E00000E0000000E0200000E0400000E0600000E0800000E0A00000E0C00000E0E00040000000400020004000400040006000400080004000A0004000C0004000E00040200000402020004020400040206000402080004020A0004020C0004020E000404000004040200040404000404060004040800040
310
40A0004040C0004040E00040600000406020004060400040606000406080004060A0004060C0004060E00040800000408020004080400040806000408080004080A0004080C0004080E00040A0000040A0200040A0400040A0600040A0800040A0A00040A0C00040A0E00040C0000040C0200040C0400040C0600040C08000
310
40C0A00040C0C00040C0E00040E0000040E0200040E0400040E0600040E0800040E0A00040E0C00040E0E00080000000800020008000400080006000800080008000A0008000C0008000E00080200000802020008020400080206000802080008020A0008020C0008020E00080400000804020008040400080406000804080
310
008040A0008040C0008040E00080600000806020008060400080606000806080008060A0008060C0008060E00080800000808020008080400080806000808080008080A0008080C0008080E00080A0000080A0200080A0400080A0600080A0800080A0A00080A0C00080A0E00080C0000080C0200080C0400080C0600080C0
310
800080C0A00080C0C00080C0E00080E0000080E0200080E0400080E0600080E0800080E0A00080E0C00080E0E000C0000000C0002000C0004000C0006000C0008000C000A000C000C000C000E000C0200000C0202000C0204000C0206000C0208000C020A000C020C000C020E000C0400000C0402000C0404000C0406000C0
310
408000C040A000C040C000C040E000C0600000C0602000C0604000C0606000C0608000C060A000C060C000C060E000C0800000C0802000C0804000C0806000C0808000C080A000C080C000C080E000C0A00000C0A02000C0A04000C0A06000C0A08000C0A0A000C0A0C000C0A0E000C0C00000C0C02000C0C04000C0C06000
310
C0C08000C0C0A000F0FBFF00A4A0A000808080000000FF0000FF000000FFFF00FF000000FF00FF00FFFF0000FFFFFF0000000000000000000000000000000000000000000000000000000000000000000000000000000000000000000000000000000000000000000000000000000000000000000000000000000000000000
310
00000000000000000000000000000000000000000000000000000000000000000000000000000000000000000000000000000000000000000000000000000000000000000000000000000000000000000000000000000000000000000000000000000000000000000000000000000000000000000000000000000000000000
310
00000000000000000000000000000000000000000000000000000000000000000000000000000000000000000000000000000000000000000000000000000000000000000000000000000000000000000000000000000000000000000000000000000000000000000000000000000000000000000000000000000000000000
310
00000000000000000000000000000000000000000000000000000000000000000000000000000000000000000000000000000000000000000000000000000000000000000000000000000000000000000000000000FEFEFEFEFEFEFEFEFEFEFEFEFEFEFEFEFEFEFEFEFEFE000000FEFEFEFE0000FEFE000000000000000000
310
0000000000000000000000FEFEFEFEFEFEFEFE0000FEFE0000000000000000000000000000000000000000FEFE0000FEFEFE000000FEFE0000000000000000000000000000000000000000FEFE0000FEFEFE000000FEFE0000000000000000000000000000000000000000FEFEFEFEFEFEFEFE000000FEFEFEFEFEFEFEFEFE
310
FEFEFEFEFEFEFEFEFEFEFEFEFE000000FEFEFEFE0000000000000000000000000000000000000000000000000000000000000000000000000000000000000000000000000000000000000000000000000000000000000000000000000000000000000000000000000000000000000000000000000000000000000000000000
310
00000000000000000000000000000000000000000000000000000000000000000000000000000000000000000000000000000000000000000000000000000000000000000000000000000000000000000000000000000000000000000000000000000000000000000000000000000000000000000000000000000000000000
310
00000000000000000000000000000000000000000000000000000000000000000000000000000000000000000000000000000000000000000000000000000000000000000000000000000000000000000000000000000000000000000000000000000000000000000000000000000000000000000000000000000000000000
310
0000000000000000000000000000000000000000000000000000000000000000000000000000000000000000000000000000000000000000
102
{BLKREFS
331
C04
102
}
  0
BLOCK_RECORD
  5
C03
330
1
100
AcDbSymbolTableRecord
100
AcDbBlockTableRecord
  2
ROFFE
340
0
310
2800000020000000200000000100080000000000000400000000000000000000000000000000000000000000000080000080000000808000800000008000800080800000C0C0C000C0DCC000F0CAA6000020400000206000002080000020A0000020C0000020E00000400000004020000040400000406000004080000040A0
310
000040C0000040E00000600000006020000060400000606000006080000060A0000060C0000060E00000800000008020000080400000806000008080000080A0000080C0000080E00000A0000000A0200000A0400000A0600000A0800000A0A00000A0C00000A0E00000C0000000C0200000C0400000C0600000C0800000C0
310
A00000C0C00000C0E00000E0000000E0200000E0400000E0600000E0800000E0A00000E0C00000E0E00040000000400020004000400040006000400080004000A0004000C0004000E00040200000402020004020400040206000402080004020A0004020C0004020E000404000004040200040404000404060004040800040
310
40A0004040C0004040E00040600000406020004060400040606000406080004060A0004060C0004060E00040800000408020004080400040806000408080004080A0004080C0004080E00040A0000040A0200040A0400040A0600040A0800040A0A00040A0C00040A0E00040C0000040C0200040C0400040C0600040C08000
310
40C0A00040C0C00040C0E00040E0000040E0200040E0400040E0600040E0800040E0A00040E0C00040E0E00080000000800020008000400080006000800080008000A0008000C0008000E00080200000802020008020400080206000802080008020A0008020C0008020E00080400000804020008040400080406000804080
310
008040A0008040C0008040E00080600000806020008060400080606000806080008060A0008060C0008060E00080800000808020008080400080806000808080008080A0008080C0008080E00080A0000080A0200080A0400080A0600080A0800080A0A00080A0C00080A0E00080C0000080C0200080C0400080C0600080C0
310
800080C0A00080C0C00080C0E00080E0000080E0200080E0400080E0600080E0800080E0A00080E0C00080E0E000C0000000C0002000C0004000C0006000C0008000C000A000C000C000C000E000C0200000C0202000C0204000C0206000C0208000C020A000C020C000C020E000C0400000C0402000C0404000C0406000C0
310
408000C040A000C040C000C040E000C0600000C0602000C0604000C0606000C0608000C060A000C060C000C060E000C0800000C0802000C0804000C0806000C0808000C080A000C080C000C080E000C0A00000C0A02000C0A04000C0A06000C0A08000C0A0A000C0A0C000C0A0E000C0C00000C0C02000C0C04000C0C06000
310
C0C08000C0C0A000F0FBFF00A4A0A000808080000000FF0000FF000000FFFF00FF000000FF00FF00FFFF0000FFFFFF0000000000000000000000000000000000000000000000000000000000000000000000000000000000000000000000000000000000000000000000000000000000000000000000000000000000000000
310
00000000000000000000000000000000000000000000000000000000000000000000000000000000000000000000000000000000000000000000000000000000000000000000000000000000000000000000000000000000000000000000000000000000000000000000000000000000000000000000000000000000000000
310
00000000000000000000000000000000000000000000000000000000000000000000000000000000000000000000000000000000000000000000000000000000000000000000000000000000000000000000000000000000000000000000000000000000000000000000000000000000000000000000000000000000000000
310
00000000000000000000000000000000000000000000000000000000000000000000000000000000000000000000000000000000000000000000000000000000000000000000000000000000000000000000000000FEFEFEFEFEFEFEFEFEFEFEFEFEFEFEFEFEFEFEFEFEFE000000FEFEFEFE0000FEFE000000000000000000
310
0000000000000000000000FEFEFEFEFEFEFEFE0000FEFE0000000000000000000000000000000000000000FEFE0000FEFEFE000000FEFE0000000000000000000000000000000000000000FEFE0000FEFEFE000000FEFE0000000000000000000000000000000000000000FEFEFEFEFEFEFEFE000000FEFEFEFEFEFEFEFEFE
310
FEFEFEFEFEFEFEFEFEFEFEFEFE000000FEFEFEFE0000000000000000000000000000000000000000000000000000000000000000000000000000000000000000000000000000000000000000000000000000000000000000000000000000000000000000000000000000000000000000000000000000000000000000000000
310
00000000000000000000000000000000000000000000000000000000000000000000000000000000000000000000000000000000000000000000000000000000000000000000000000000000000000000000000000000000000000000000000000000000000000000000000000000000000000000000000000000000000000
310
00000000000000000000000000000000000000000000000000000000000000000000000000000000000000000000000000000000000000000000000000000000000000000000000000000000000000000000000000000000000000000000000000000000000000000000000000000000000000000000000000000000000000
310
0000000000000000000000000000000000000000000000000000000000000000000000000000000000000000000000000000000000000000
  0
BLOCK_RECORD
  5
158F
330
1
100
AcDbSymbolTableRecord
100
AcDbBlockTableRecord
  2
*D4
340
0
  0
BLOCK_RECORD
  5
159F
330
1
100
AcDbSymbolTableRecord
100
AcDbBlockTableRecord
  2
*D5
340
0
  0
BLOCK_RECORD
  5
15B5
330
1
100
AcDbSymbolTableRecord
100
AcDbBlockTableRecord
  2
*D6
340
0
  0
BLOCK_RECORD
  5
15C2
330
1
100
AcDbSymbolTableRecord
100
AcDbBlockTableRecord
  2
*D7
340
0
  0
BLOCK_RECORD
  5
15CF
330
1
100
AcDbSymbolTableRecord
100
AcDbBlockTableRecord
  2
*D8
340
0
  0
ENDTAB
  0
ENDSEC
  0
SECTION
  2
BLOCKS
  0
BLOCK
  5
1A
330
19
100
AcDbEntity
  8
0
100
AcDbBlockBegin
  2
*MODEL_SPACE
 70
     0
 10
0.0
 20
0.0
 30
0.0
  3
*MODEL_SPACE
  1

  0
ENDBLK
  5
1B
330
19
100
AcDbEntity
  8
0
100
AcDbBlockEnd
  0
BLOCK
  5
17
330
16
100
AcDbEntity
 67
     1
  8
0
100
AcDbBlockBegin
  2
*PAPER_SPACE
 70
     0
 10
0.0
 20
0.0
 30
0.0
  3
*PAPER_SPACE
  1

  0
ENDBLK
  5
18
330
16
100
AcDbEntity
 67
     1
  8
0
100
AcDbBlockEnd
  0
BLOCK
  5
C01
330
A8B
100
AcDbEntity
  8
0
100
AcDbBlockBegin
  2
2D00035417
 70
     0
 10
0.0
 20
0.0
 30
0.0
  3
2D00035417
  1

  0
LINE
  5
A8C
330
A8B
100
AcDbEntity
  8
FRONT
  6
Continuous
 62
     4
100
AcDbLine
 10
0.8660254037844552
 20
5.5
 30
0.0
 11
0.0
 21
6.000000000000002
 31
0.0
  0
LINE
  5
A8D
330
A8B
100
AcDbEntity
  8
FRONT
  6
Continuous
 62
     4
100
AcDbLine
 10
0.0
 20
-6.000000000000002
 30
0.0
 11
0.8660254037844552
 21
-5.5
 31
0.0
  0
LINE
  5
A8E
330
A8B
100
AcDbEntity
  8
FRONT
  6
Continuous
 62
     4
100
AcDbLine
 10
-62.0
 20
5.5
 30
0.0
 11
-62.0
 21
-5.499999999999992
 31
0.0
  0
LINE
  5
A8F
330
A8B
100
AcDbEntity
  8
FRONT
  6
Continuous
 62
     4
100
AcDbLine
 10
-61.5
 20
6.0
 30
0.0
 11
-61.5
 21
-5.999999999999992
 31
0.0
  0
LINE
  5
A90
330
A8B
100
AcDbEntity
  8
FRONT
  6
Continuous
 62
     4
100
AcDbLine
 10
0.0
 20
6.000000000000007
 30
0.0
 11
0.0
 21
-6.000000000000007
 31
0.0
  0
LINE
  5
A91
330
A8B
100
AcDbEntity
  8
FRONT
  6
Continuous
 62
     4
100
AcDbLine
 10
-61.5
 20
-6.0
 30
0.0
 11
0.0
 21
-6.0
 31
0.0
  0
LINE
  5
A92
330
A8B
100
AcDbEntity
  8
FRONT
  6
Continuous
 62
     4
100
AcDbLine
 10
-62.0
 20
-5.499999999999992
 30
0.0
 11
-61.5
 21
-5.999999999999992
 31
0.0
  0
LINE
  5
A93
330
A8B
100
AcDbEntity
  8
FRONT
  6
Continuous
 62
     4
100
AcDbLine
 10
0.0
 20
6.0
 30
0.0
 11
-61.5
 21
6.000000000000007
 31
0.0
  0
LINE
  5
A94
330
A8B
100
AcDbEntity
  8
FRONT
  6
Continuous
 62
     4
100
AcDbLine
 10
-61.5
 20
6.0
 30
0.0
 11
-62.0
 21
5.5
 31
0.0
  0
LINE
  5
A95
330
A8B
100
AcDbEntity
  8
FRONT
  6
Continuous
 62
     4
100
AcDbLine
 10
17.29745226804206
 20
3.509679345658438
 30
0.0
 11
17.29745226804206
 21
-5.017742724400552
 31
0.0
  0
LINE
  5
A96
330
A8B
100
AcDbEntity
  8
FRONT
  6
Continuous
 62
     4
100
AcDbLine
 10
11.19220462092714
 20
3.417991427849383
 30
0.0
 11
11.19220462092714
 21
-5.268704490765056
 31
0.0
  0
LINE
  5
A97
330
A8B
100
AcDbEntity
  8
FRONT
  6
Continuous
 62
     4
100
AcDbLine
 10
12.3980252578104
 20
3.543839759641738
 30
0.0
 11
12.3980252578104
 21
-4.715335514294036
 31
0.0
  0
LINE
  5
A98
330
A8B
100
AcDbEntity
  8
FRONT
  6
Continuous
 62
     4
100
AcDbLine
 10
0.8660254037844552
 20
5.5
 30
0.0
 11
0.8660254037844552
 21
-5.5
 31
0.0
  0
LINE
  5
A99
330
A8B
100
AcDbEntity
  8
FRONT
  6
Continuous
 62
     4
100
AcDbLine
 10
13.74838568128198
 20
3.593205653172365
 30
0.0
 11
13.74838568128198
 21
-5.032064792663311
 31
0.0
  0
LINE
  5
A9A
330
A8B
100
AcDbEntity
  8
FRONT
  6
Continuous
 62
     4
100
AcDbLine
 10
17.48879939540238
 20
-4.816380228107217
 30
0.0
 11
17.48879939540238
 21
3.479278271624338
 31
0.0
  0
LINE
  5
A9B
330
A8B
100
AcDbEntity
  8
FRONT
  6
Continuous
 62
     4
100
AcDbLine
 10
12.52411245174376
 20
-5.148811565010388
 30
0.0
 11
12.2699596882263
 21
-5.474819161767424
 31
0.0
  0
ELLIPSE
  5
A9C
330
A8B
100
AcDbEntity
  8
FRONT
  6
Continuous
 62
     4
100
AcDbEllipse
 10
12.59483653351634
 20
-4.836421402054659
 30
0.0
 11
-0.1764278460445979
 21
0.0941977448772153
 31
0.0
210
0.0
220
0.0
230
1.0
 40
0.9833059182774052
 41
0.6405173247906966
 42
2.071687311428429
  0
ELLIPSE
  5
A9D
330
A8B
100
AcDbEntity
  8
FRONT
  6
Continuous
 62
     4
100
AcDbEllipse
 10
12.58626641887234
 20
-4.852472814633401
 30
0.0
 11
-0.264641769065345
 21
0.1412966173186371
 31
0.0
210
0.0
220
0.0
230
1.0
 40
0.9833059182774
 41
0.6405173248015057
 42
2.071687311439271
  0
ELLIPSE
  5
A9E
330
A8B
100
AcDbEntity
  8
FRONT
  6
Continuous
 62
     4
100
AcDbEllipse
 10
12.53491299669396
 20
-4.91373583192963
 30
0.0
 11
-0.1776346087653321
 21
-0.1633261946229406
 31
0.0
210
0.0
220
0.0
230
1.0
 40
0.9518042298991375
 41
5.720439864303834
 42
7.08930315248491
  0
SPLINE
  5
A9F
330
A8B
100
AcDbEntity
  8
FRONT
  6
Continuous
 62
     4
100
AcDbSpline
210
0.0
220
0.0
230
1.0
 70
     8
 71
     2
 72
     6
 73
     3
 74
     0
 42
0.0000000001
 43
0.0000000001
 40
0.0
 40
0.0
 40
0.0
 40
1.0
 40
1.0
 40
1.0
 10
14.62245185943817
 20
-5.87714135957826
 30
0.0
 10
13.33868913679801
 20
-5.833317719863607
 30
0.0
 10
12.05492333661389
 20
-5.761440262542944
 30
0.0
  0
SPLINE
  5
AA0
330
A8B
100
AcDbEntity
  8
FRONT
  6
Continuous
 62
     4
100
AcDbSpline
210
0.0
220
0.0
230
1.0
 70
     8
 71
     2
 72
     6
 73
     3
 74
     0
 42
0.0000000001
 43
0.0000000001
 40
0.0
 40
0.0
 40
0.0
 40
1.0
 40
1.0
 40
1.0
 10
12.03715634521592
 20
-5.830492901738484
 30
0.0
 10
12.99283696601092
 20
-5.878254479706018
 30
0.0
 10
13.94849592177253
 20
-5.91037423780608
 30
0.0
  0
SPLINE
  5
AA1
330
A8B
100
AcDbEntity
  8
FRONT
  6
Continuous
 62
     4
100
AcDbSpline
210
0.0
220
0.0
230
1.0
 70
     8
 71
     3
 72
    10
 73
     6
 74
     0
 42
0.0000000001
 43
0.0000000001
 40
0.0
 40
0.0
 40
0.0
 40
0.0
 40
0.413998097170399
 40
0.8317102975705793
 40
1.0
 40
1.0
 40
1.0
 40
1.0
 10
13.65251602410751
 20
-5.651687726725348
 30
0.0
 10
13.45228491644905
 20
-5.637638509379486
 30
0.0
 10
13.05861779128649
 20
-5.600401635138268
 30
0.0
 10
12.59642516693621
 20
-5.539019558091952
 30
0.0
 10
12.34205829435077
 20
-5.489820631199273
 30
0.0
 10
12.2699596882263
 20
-5.474819161767424
 30
0.0
  0
SPLINE
  5
AA2
330
A8B
100
AcDbEntity
  8
FRONT
  6
Continuous
 62
     4
100
AcDbSpline
210
0.0
220
0.0
230
1.0
 70
     8
 71
     2
 72
     6
 73
     3
 74
     0
 42
0.0000000001
 43
0.0000000001
 40
0.0
 40
0.0
 40
0.0
 40
1.0
 40
1.0
 40
1.0
 10
13.61429623476742
 20
-5.667122247227887
 30
0.0
 10
12.88790047388035
 20
-5.627861963387118
 30
0.0
 10
12.16152824195172
 20
-5.579846203347781
 30
0.0
  0
SPLINE
  5
AA3
330
A8B
100
AcDbEntity
  8
FRONT
  6
Continuous
 62
     4
100
AcDbSpline
210
0.0
220
0.0
230
1.0
 70
     8
 71
     2
 72
     6
 73
     3
 74
     0
 42
0.0000000001
 43
0.0000000001
 40
0.0
 40
0.0
 40
0.0
 40
1.0
 40
1.0
 40
1.0
 10
17.4863838813945
 20
-5.914121941707049
 30
0.0
 10
14.77806455657193
 20
-5.88204522422477
 30
0.0
 10
12.06951141172709
 20
-5.72451506620573
 30
0.0
  0
SPLINE
  5
AA4
330
A8B
100
AcDbEntity
  8
FRONT
  6
Continuous
 62
     4
100
AcDbSpline
210
0.0
220
0.0
230
1.0
 70
     8
 71
     3
 72
    13
 73
     9
 74
     0
 42
0.0000000001
 43
0.0000000001
 40
0.0
 40
0.0
 40
0.0
 40
0.0
 40
0.1221948788939986
 40
0.3409322576720923
 40
0.5593089850044601
 40
0.7634079375909129
 40
0.9483404453246466
 40
1.0
 40
1.0
 40
1.0
 40
1.0
 10
13.21765994700341
 20
-5.008998841068255
 30
0.0
 10
13.21008985781698
 20
-4.986912363625971
 30
0.0
 10
13.17823433448347
 20
-4.926841776453724
 30
0.0
 10
13.07361191277297
 20
-4.829791137456387
 30
0.0
 10
12.88884659553877
 20
-4.74181959386623
 30
0.0
 10
12.67056256702776
 20
-4.697037384916851
 30
0.0
 10
12.50187045502288
 20
-4.699685032400541
 30
0.0
 10
12.41657811424804
 20
-4.712092428703162
 30
0.0
 10
12.39802525781035
 20
-4.715335514293908
 30
0.0
  0
ELLIPSE
  5
AA5
330
A8B
100
AcDbEntity
  8
FRONT
  6
Continuous
 62
     4
100
AcDbEllipse
 10
5.66201983816218
 20
-0.0000000000335509
 30
0.0
 11
-30.04133316929991
 21
2.588839177181584
 31
0.0
210
0.0
220
0.0
230
1.0
 40
0.1615314150625295
 41
1.478397138584063
 42
1.76983915316551
  0
SPLINE
  5
AA6
330
A8B
100
AcDbEntity
  8
FRONT
  6
Continuous
 62
     4
100
AcDbSpline
210
0.0
220
0.0
230
1.0
 70
     8
 71
     3
 72
    13
 73
     9
 74
     0
 42
0.0000000001
 43
0.0000000001
 40
0.0
 40
0.0
 40
0.0
 40
0.0
 40
0.111195031304195
 40
0.2657804119641697
 40
0.4822058427557557
 40
0.6989752890855822
 40
0.9172035917595028
 40
1.0
 40
1.0
 40
1.0
 40
1.0
 10
1.345325372781969
 20
-5.499999327115823
 30
0.0
 10
1.398511539679659
 20
-5.499310768582706
 30
0.0
 10
1.538983733379424
 20
-5.487567585039426
 30
0.0
 10
1.854584013762765
 20
-5.418189805484521
 30
0.0
 10
2.329371189940173
 20
-5.271647579637816
 30
0.0
 10
2.940699872587572
 20
-5.059593436719063
 30
0.0
 10
3.480267253473383
 20
-4.873448667483954
 30
0.0
 10
3.808123122364646
 20
-4.762436312820168
 30
0.0
 10
3.899607151901193
 20
-4.731554934786731
 30
0.0
  0
LINE
  5
AA7
330
A8B
100
AcDbEntity
  8
FRONT
  6
Continuous
 62
     4
100
AcDbLine
 10
0.8660254037844552
 20
-5.5
 30
0.0
 11
1.352746725880145
 21
-5.5
 31
0.0
  0
ELLIPSE
  5
AA8
330
A8B
100
AcDbEntity
  8
FRONT
  6
Continuous
 62
     4
100
AcDbEllipse
 10
12.00000899116139
 20
-16.06832890666516
 30
0.0
 11
-14.85880604145566
 21
5.93421040515988
 31
0.0
210
0.0
220
0.0
230
0.9999999999999998
 40
0.8742329960678898
 41
5.792900081455464
 42
5.811533204192437
  0
SPLINE
  5
AA9
330
A8B
100
AcDbEntity
  8
FRONT
  6
Continuous
 62
     4
100
AcDbSpline
210
0.0
220
0.0
230
1.0
 70
     8
 71
     3
 72
    13
 73
     9
 74
     0
 42
0.0000000001
 43
0.0000000001
 40
0.0
 40
0.0
 40
0.0
 40
0.0
 40
0.0708887435082171
 40
0.2571724611284706
 40
0.5329963062952721
 40
0.7291217371113851
 40
0.9254339909461146
 40
1.0
 40
1.0
 40
1.0
 40
1.0
 10
1.195562502632583
 20
-4.790625489461174
 30
0.0
 10
1.213912861725795
 20
-4.776794773960335
 30
0.0
 10
1.285762723978912
 20
-4.729112862436839
 30
0.0
 10
1.488346843837938
 20
-4.648305888484085
 30
0.0
 10
1.783730465684264
 20
-4.592365381939607
 30
0.0
 10
2.095253569585678
 20
-4.572953003185091
 30
0.0
 10
2.314409026134284
 20
-4.578924439658588
 30
0.0
 10
2.439434992623304
 20
-4.589560477122677
 30
0.0
 10
2.473778129000647
 20
-4.593052498405127
 30
0.0
  0
SPLINE
  5
AAA
330
A8B
100
AcDbEntity
  8
FRONT
  6
Continuous
 62
     4
100
AcDbSpline
210
0.0
220
0.0
230
1.0
 70
     8
 71
     2
 72
     6
 73
     3
 74
     0
 42
0.0000000001
 43
0.0000000001
 40
0.0
 40
0.0
 40
0.0
 40
1.0
 40
1.0
 40
1.0
 10
1.120663577351435
 20
-4.879877191273159
 30
0.0
 10
1.140463196528336
 20
-4.832984670632592
 30
0.0
 10
1.195562502632583
 20
-4.790625489461174
 30
0.0
  0
SPLINE
  5
AAB
330
A8B
100
AcDbEntity
  8
FRONT
  6
Continuous
 62
     4
100
AcDbSpline
210
0.0
220
0.0
230
1.0
 70
     8
 71
     3
 72
    12
 73
     8
 74
     0
 42
0.0000000001
 43
0.0000000001
 40
0.0
 40
0.0
 40
0.0
 40
0.0
 40
0.2338452144524324
 40
0.4675970184665896
 40
0.701762765663897
 40
0.9359711320872667
 40
1.0
 40
1.0
 40
1.0
 40
1.0
 10
1.120663577351435
 20
-4.879877191273159
 30
0.0
 10
1.081791927506593
 20
-4.975462956792688
 30
0.0
 10
1.030111601870139
 20
-5.144886500420123
 30
0.0
 10
1.027342870416914
 20
-5.338220270821794
 30
0.0
 10
1.109594465876227
 20
-5.457981564958576
 30
0.0
 10
1.233664404095364
 20
-5.496508749567235
 30
0.0
 10
1.324763405221041
 20
-5.50007654266059
 30
0.0
 10
1.345325372781969
 20
-5.499999327115823
 30
0.0
  0
LINE
  5
AAC
330
A8B
100
AcDbEntity
  8
FRONT
  6
Continuous
 62
     4
100
AcDbLine
 10
12.26430749227676
 20
-4.727059865963761
 30
0.0
 11
12.29104950531358
 21
-4.894695500397101
 31
0.0
  0
LINE
  5
AAD
330
A8B
100
AcDbEntity
  8
FRONT
  6
Continuous
 62
     4
100
AcDbLine
 10
12.05195883253294
 20
-5.282066276975115
 30
0.0
 11
12.07142987167434
 21
-5.257090327121177
 31
0.0
  0
LINE
  5
AAE
330
A8B
100
AcDbEntity
  8
FRONT
  6
Continuous
 62
     4
100
AcDbLine
 10
11.73862963750702
 20
-5.461687541797807
 30
0.0
 11
11.75466693733003
 21
-5.546759538624929
 31
0.0
  0
LINE
  5
AAF
330
A8B
100
AcDbEntity
  8
FRONT
  6
Continuous
 62
     4
100
AcDbLine
 10
12.37475758366253
 20
-4.718713550200847
 30
0.0
 11
12.3980252578104
 21
-4.864569859230441
 31
0.0
  0
LINE
  5
AB0
330
A8B
100
AcDbEntity
  8
FRONT
  6
Continuous
 62
     4
100
AcDbLine
 10
12.29104950531358
 20
-4.894695500397101
 30
0.0
 11
12.30173417735763
 21
-4.961673695881327
 31
0.0
  0
LINE
  5
AB1
330
A8B
100
AcDbEntity
  8
FRONT
  6
Continuous
 62
     4
100
AcDbLine
 10
12.1154520297858
 20
-5.200622092145676
 30
0.0
 11
12.30173417735763
 21
-4.961673695881327
 31
0.0
  0
ELLIPSE
  5
AB2
330
A8B
100
AcDbEntity
  8
FRONT
  6
Continuous
 62
     4
100
AcDbEllipse
 10
12.16010065627367
 20
-5.364110026768818
 30
0.0
 11
-0.1629665045002963
 21
0.162301935942986
 31
0.0
210
0.0
220
0.0
230
1.0
 40
0.885395213116765
 41
0.9406572002840926
 42
2.300026522294225
  0
ELLIPSE
  5
AB3
330
A8B
100
AcDbEntity
  8
FRONT
  6
Continuous
 62
     4
100
AcDbEllipse
 10
10.7327861538169
 20
-6.237521875482824
 30
0.0
 11
-0.1862107868856989
 21
2.621605320212951
 31
0.0
210
0.0
220
0.0
230
0.9999999999999998
 40
0.4178728177031461
 41
4.983018135371414
 42
5.015339106062617
  0
ELLIPSE
  5
AB4
330
A8B
100
AcDbEntity
  8
FRONT
  6
Continuous
 62
     4
100
AcDbEllipse
 10
10.87421353467201
 20
-0.0952172533848828
 30
0.0
 11
-0.6453609818231091
 21
5.423953475707063
 31
0.0
210
0.0
220
0.0
230
1.0
 40
0.4002139493379774
 41
3.301152841311651
 42
3.433631365786768
  0
ELLIPSE
  5
AB5
330
A8B
100
AcDbEntity
  8
FRONT
  6
Continuous
 62
     4
100
AcDbEllipse
 10
12.05114473010541
 20
-5.545182037602573
 30
0.0
 11
-0.2141351294070844
 21
0.0839413268520247
 31
0.0
210
0.0
220
0.0
230
1.0
 40
0.7465216560962231
 41
0.5997695972309498
 42
1.937897467873524
  0
ELLIPSE
  5
AB6
330
A8B
100
AcDbEntity
  8
FRONT
  6
Continuous
 62
     4
100
AcDbEllipse
 10
12.05060526702193
 20
-5.546128395411039
 30
0.0
 11
-0.1654325527084979
 21
0.1597875793175752
 31
0.0
210
0.0
220
0.0
230
1.0
 40
0.882922871075139
 41
0.9271183505009291
 42
2.296772776618916
  0
ELLIPSE
  5
AB7
330
A8B
100
AcDbEntity
  8
FRONT
  6
Continuous
 62
     4
100
AcDbEllipse
 10
12.29961961995718
 20
-4.878644087818582
 30
0.0
 11
-0.0987513760092463
 21
-0.0157532770020267
 31
0.0
210
0.0
220
0.0
230
1.0
 40
0.1458931740710974
 41
1.460656485145534
 42
3.031452811938669
  0
ELLIPSE
  5
AB8
330
A8B
100
AcDbEntity
  8
FRONT
  6
Continuous
 62
     4
100
AcDbEllipse
 10
335.219081173506
 20
-27.65352952608379
 30
0.0
 11
-342.1452092599433
 21
28.7644353191734
 31
0.0
210
0.0
220
0.0
230
1.0
 40
0.0434239235819959
 41
0.3305623080092169
 42
0.336553522992711
  0
ELLIPSE
  5
AB9
330
A8B
100
AcDbEntity
  8
FRONT
  6
Continuous
 62
     4
100
AcDbEllipse
 10
12.61274556700008
 20
-7.087755426446605
 30
0.0
 11
-0.6874421685867658
 21
4.776216476972511
 31
0.0
210
0.0
220
0.0
230
1.0
 40
0.0505508379540167
 41
1.059760007862942
 42
1.160653432741368
  0
SPLINE
  5
ABA
330
A8B
100
AcDbEntity
  8
FRONT
  6
Continuous
 62
     4
100
AcDbSpline
210
0.0
220
0.0
230
1.0
 70
    24
 71
     1
 72
     4
 73
     2
 74
     0
 42
0.0000000001
 43
0.0000000001
 40
0.0
 40
0.0
 40
1.0
 40
1.0
 10
11.83847321585812
 20
-5.567069085629718
 30
0.0
 10
11.83901267894247
 20
-5.566122727825887
 30
0.0
  0
SPLINE
  5
ABB
330
A8B
100
AcDbEntity
  8
FRONT
  6
Continuous
 62
     4
100
AcDbSpline
210
0.0
220
0.0
230
1.0
 70
     8
 71
     3
 72
    12
 73
     8
 74
     0
 42
0.0000000001
 43
0.0000000001
 40
0.0
 40
0.0
 40
0.0
 40
0.0
 40
0.0007970805857311
 40
0.2615790368690925
 40
0.5223632910078863
 40
0.9992029194147567
 40
1.0
 40
1.0
 40
1.0
 40
1.0
 10
12.06951141172706
 20
-5.72451506620573
 30
0.0
 10
12.06948314701705
 20
-5.724610988602324
 30
0.0
 10
12.06830139779342
 20
-5.728621512447585
 30
0.0
 10
12.06584538067532
 20
-5.73637821965794
 30
0.0
 10
12.0610158647334
 20
-5.749472267031436
 30
0.0
 10
12.05732682921892
 20
-5.75726605425465
 30
0.0
 10
12.05497323553964
 20
-5.761353601725923
 30
0.0
 10
12.05492333661389
 20
-5.761440262542944
 30
0.0
  0
SPLINE
  5
ABC
330
A8B
100
AcDbEntity
  8
FRONT
  6
Continuous
 62
     4
100
AcDbSpline
210
0.0
220
0.0
230
1.0
 70
    24
 71
     1
 72
     4
 73
     2
 74
     0
 42
0.0000000001
 43
0.0000000001
 40
0.0
 40
0.0
 40
1.0
 40
1.0
 10
11.77084472479986
 20
-5.637701490563106
 30
0.0
 10
11.83847321585812
 20
-5.567069085629722
 30
0.0
  0
SPLINE
  5
ABD
330
A8B
100
AcDbEntity
  8
FRONT
  6
Continuous
 62
     4
100
AcDbSpline
210
0.0
220
0.0
230
1.0
 70
     8
 71
     2
 72
     6
 73
     3
 74
     0
 42
0.0000000001
 43
0.0000000001
 40
0.0
 40
0.0
 40
0.0
 40
1.0
 40
1.0
 40
1.0
 10
12.26612713977722
 20
-5.47418946266737
 30
0.0
 10
12.21369198338541
 20
-5.526401979383564
 30
0.0
 10
12.16152824195172
 20
-5.579846203347781
 30
0.0
  0
SPLINE
  5
ABE
330
A8B
100
AcDbEntity
  8
FRONT
  6
Continuous
 62
     4
100
AcDbSpline
210
0.0
220
0.0
230
1.0
 70
    24
 71
     1
 72
     4
 73
     2
 74
     0
 42
0.0000000001
 43
0.0000000001
 40
0.0
 40
0.0
 40
1.0
 40
1.0
 10
12.2699596882263
 20
-5.474819161767427
 30
0.0
 10
12.26612713977731
 20
-5.474189462667332
 30
0.0
  0
SPLINE
  5
ABF
330
A8B
100
AcDbEntity
  8
FRONT
  6
Continuous
 62
     4
100
AcDbSpline
210
0.0
220
0.0
230
1.0
 70
    24
 71
     1
 72
     4
 73
     2
 74
     0
 42
0.0000000001
 43
0.0000000001
 40
0.0
 40
0.0
 40
1.0
 40
1.0
 10
11.75466693733006
 20
-5.546759538624929
 30
0.0
 10
11.77084472479986
 20
-5.637701490563197
 30
0.0
  0
SPLINE
  5
AC0
330
A8B
100
AcDbEntity
  8
FRONT
  6
Continuous
 62
     4
100
AcDbSpline
210
0.0
220
0.0
230
1.0
 70
     8
 71
     3
 72
    12
 73
     8
 74
     0
 42
0.0000000001
 43
0.0000000001
 40
0.0
 40
0.0
 40
0.0
 40
0.0
 40
0.0001979715625893
 40
0.3804243462904076
 40
0.6884015213626393
 40
0.9998020284374039
 40
1.0
 40
1.0
 40
1.0
 40
1.0
 10
12.16152824195172
 20
-5.579846203347781
 30
0.0
 10
12.16145494845797
 20
-5.579914233221867
 30
0.0
 10
12.14800020764509
 20
-5.592402712335362
 30
0.0
 10
12.12460907423586
 20
-5.619318961954996
 30
0.0
 10
12.09413125687514
 20
-5.668815656959997
 30
0.0
 10
12.07735989436437
 20
-5.705022480727572
 30
0.0
 10
12.06954876176722
 20
-5.72442230320394
 30
0.0
 10
12.06951141172706
 20
-5.72451506620573
 30
0.0
  0
SPLINE
  5
AC1
330
A8B
100
AcDbEntity
  8
FRONT
  6
Continuous
 62
     4
100
AcDbSpline
210
0.0
220
0.0
230
1.0
 70
     8
 71
     3
 72
    11
 73
     7
 74
     0
 42
0.0000000001
 43
0.0000000001
 40
0.0
 40
0.0
 40
0.0
 40
0.0
 40
0.0003046676542752
 40
0.2859486271382446
 40
0.5715925864685599
 40
1.0
 40
1.0
 40
1.0
 40
1.0
 10
12.05492333661392
 20
-5.761440262542944
 30
0.0
 10
12.05485458948857
 20
-5.761512883702093
 30
0.0
 10
12.04890508266609
 20
-5.767797656751879
 30
0.0
 10
12.0368932920704
 20
-5.780516646112557
 30
0.0
 10
12.01590433567814
 20
-5.802847200540763
 30
0.0
 10
12.00092977263713
 20
-5.818873351337892
 30
0.0
 10
11.99195171433706
 20
-5.82851593948345
 30
0.0
  0
SPLINE
  5
AC2
330
A8B
100
AcDbEntity
  8
FRONT
  6
Continuous
 62
     4
100
AcDbSpline
210
0.0
220
0.0
230
1.0
 70
     8
 71
     3
 72
    10
 73
     6
 74
     0
 42
0.0000000001
 43
0.0000000001
 40
0.0
 40
0.0
 40
0.0
 40
0.0
 40
0.3783609825527917
 40
0.8357001481048397
 40
1.0
 40
1.0
 40
1.0
 40
1.0
 10
11.92547454029552
 20
-4.97636464574548
 30
0.0
 10
11.92640289606277
 20
-5.008713239544544
 30
0.0
 10
11.9475704542029
 20
-5.078030220539246
 30
0.0
 10
12.02773237930664
 20
-5.158970478124096
 30
0.0
 10
12.09728872776178
 20
-5.203611051795411
 30
0.0
 10
12.11721712142133
 20
-5.215153759323888
 30
0.0
  0
SPLINE
  5
AC3
330
A8B
100
AcDbEntity
  8
FRONT
  6
Continuous
 62
     4
100
AcDbSpline
210
0.0
220
0.0
230
1.0
 70
    24
 71
     1
 72
     4
 73
     2
 74
     0
 42
0.0000000001
 43
0.0000000001
 40
0.0
 40
0.0
 40
1.0
 40
1.0
 10
11.99195171433702
 20
-5.828515939483446
 30
0.0
 10
12.03715635432748
 20
-5.830493677100303
 30
0.0
  0
SPLINE
  5
AC4
330
A8B
100
AcDbEntity
  8
FRONT
  6
Continuous
 62
     4
100
AcDbSpline
210
0.0
220
0.0
230
1.0
 70
    24
 71
     1
 72
     4
 73
     2
 74
     0
 42
0.0000000001
 43
0.0000000001
 40
0.0
 40
0.0
 40
1.0
 40
1.0
 10
11.83901267894153
 20
-5.566122727821471
 30
0.0
 10
11.9479686051097
 20
-5.385050716987656
 30
0.0
  0
SPLINE
  5
AC5
330
A8B
100
AcDbEntity
  8
FRONT
  6
Continuous
 62
     4
100
AcDbSpline
210
0.0
220
0.0
230
1.0
 70
    24
 71
     1
 72
     4
 73
     2
 74
     0
 42
0.0000000001
 43
0.0000000001
 40
0.0
 40
0.0
 40
1.0
 40
1.0
 10
11.9479686051097
 20
-5.385050716987656
 30
0.0
 10
12.05195883253294
 20
-5.282066276975115
 30
0.0
  0
SPLINE
  5
AC6
330
A8B
100
AcDbEntity
  8
FRONT
  6
Continuous
 62
     4
100
AcDbSpline
210
0.0
220
0.0
230
1.0
 70
     8
 71
     3
 72
    12
 73
     8
 74
     0
 42
0.0000000001
 43
0.0000000001
 40
0.0
 40
0.0
 40
0.0
 40
0.0
 40
0.2440298709825522
 40
0.488120310074948
 40
0.7306421972591243
 40
0.9701993202335991
 40
1.0
 40
1.0
 40
1.0
 40
1.0
 10
11.99195171433709
 20
-5.82851593948345
 30
0.0
 10
11.96562176469131
 20
-5.827267267325022
 30
0.0
 10
11.91614572163951
 20
-5.817153042582487
 30
0.0
 10
11.84798307522928
 20
-5.777355599814407
 30
0.0
 10
11.79694752140735
 20
-5.718879229510209
 30
0.0
 10
11.77656470249855
 20
-5.668220081294727
 30
0.0
 10
11.77135854082036
 20
-5.640760675661914
 30
0.0
 10
11.77084472479986
 20
-5.637701490563109
 30
0.0
  0
SPLINE
  5
AC7
330
A8B
100
AcDbEntity
  8
FRONT
  6
Continuous
 62
     4
100
AcDbSpline
210
0.0
220
0.0
230
1.0
 70
     8
 71
     3
 72
    12
 73
     8
 74
     0
 42
0.0000000001
 43
0.0000000001
 40
0.0
 40
0.0
 40
0.0
 40
0.0
 40
0.2494158432111992
 40
0.4988262431130359
 40
0.7483784991253286
 40
0.9306372409059042
 40
1.0
 40
1.0
 40
1.0
 40
1.0
 10
12.26612713977725
 20
-5.474189462667368
 30
0.0
 10
12.24074389915803
 20
-5.470905762207362
 30
0.0
 10
12.19300726095426
 20
-5.45734271395117
 30
0.0
 10
12.12696856456717
 20
-5.413990106048153
 30
0.0
 10
12.08152368192698
 20
-5.359081947772208
 30
0.0
 10
12.0601917046491
 20
-5.312655749461065
 30
0.0
 10
12.05351014507608
 20
-5.288741533352951
 30
0.0
 10
12.05195883253294
 20
-5.282066276975186
 30
0.0
  0
SPLINE
  5
AC8
330
A8B
100
AcDbEntity
  8
FRONT
  6
Continuous
 62
     4
100
AcDbSpline
210
0.0
220
0.0
230
1.0
 70
     8
 71
     3
 72
    12
 73
     8
 74
     0
 42
0.0000000001
 43
0.0000000001
 40
0.0
 40
0.0
 40
0.0
 40
0.0
 40
0.2310224464948759
 40
0.4620128681126269
 40
0.700559328220569
 40
0.9585437245442095
 40
1.0
 40
1.0
 40
1.0
 40
1.0
 10
12.39802525781044
 20
-4.715335514294038
 30
0.0
 10
12.33170953226865
 20
-4.714864780624963
 30
0.0
 10
12.21155122598614
 20
-4.724956838763256
 30
0.0
 10
12.06026597347468
 20
-4.778355069166565
 30
0.0
 10
11.95757756141464
 20
-4.859331154412664
 30
0.0
 10
11.92685169980244
 20
-4.930597414275522
 30
0.0
 10
11.92538238415322
 20
-4.970764610147099
 30
0.0
 10
11.92547454029552
 20
-4.97636464574548
 30
0.0
  0
LINE
  5
AC9
330
A8B
100
AcDbEntity
  8
FRONT
  6
Continuous
 62
     4
100
AcDbLine
 10
15.84223636732298
 20
-3.792713428712794
 30
0.0
 11
15.84224378306065
 21
-3.174912246999863
 31
0.0
  0
LINE
  5
ACA
330
A8B
100
AcDbEntity
  8
FRONT
  6
Continuous
 62
     4
100
AcDbLine
 10
17.89827503693186
 20
-4.305849194799658
 30
0.0
 11
17.5908596611797
 21
-2.933128552700321
 31
0.0
  0
ELLIPSE
  5
ACB
330
A8B
100
AcDbEntity
  8
FRONT
  6
Continuous
 62
     4
100
AcDbEllipse
 10
15.54074239609756
 20
-0.0033845369197216
 30
0.0
 11
-0.0787240753221909
 21
-5.634958844023342
 31
0.0
210
0.0
220
0.0
230
0.9999999999999998
 40
0.0848761530590921
 41
0.8344445634990043
 42
0.9971121243690364
  0
ELLIPSE
  5
ACC
330
A8B
100
AcDbEntity
  8
FRONT
  6
Continuous
 62
     4
100
AcDbEllipse
 10
14.84592289431094
 20
-3.161093469702696
 30
0.0
 11
-0.7939253072066414
 21
0.4238898519389809
 31
0.0
210
0.0
220
0.0
230
1.0
 40
0.9833059182791441
 41
3.141592653589792
 42
6.283185307179584
  0
ELLIPSE
  5
ACD
330
A8B
100
AcDbEntity
  8
FRONT
  6
Continuous
 62
     4
100
AcDbEllipse
 10
14.82057983206995
 20
-3.208559806495621
 30
0.0
 11
-0.6124566485468032
 21
0.3270007338409036
 31
0.0
210
0.0
220
0.0
230
1.0
 40
0.9833059182791558
 41
0.0
 42
6.283185307179584
  0
ELLIPSE
  5
ACE
330
A8B
100
AcDbEntity
  8
FRONT
  6
Continuous
 62
     4
100
AcDbEllipse
 10
13.53332915049316
 20
-0.0034367749653255
 30
0.0
 11
-0.0799385486845723
 21
-5.721889020223127
 31
0.0
210
0.0
220
0.0
230
1.0
 40
0.0848761529690107
 41
0.8609885795557556
 42
1.010813097306145
  0
ELLIPSE
  5
ACF
330
A8B
100
AcDbEntity
  8
FRONT
  6
Continuous
 62
     4
100
AcDbEllipse
 10
14.84592289431431
 20
-3.161093469702228
 30
0.0
 11
-0.793925307234311
 21
0.42388985189299
 31
0.0
210
0.0
220
0.0
230
1.0
 40
0.9833059182785405
 41
0.0
 42
1.217655899238259
  0
ELLIPSE
  5
AD0
330
A8B
100
AcDbEntity
  8
FRONT
  6
Continuous
 62
     4
100
AcDbEllipse
 10
14.80294988243549
 20
-3.241579854311311
 30
0.0
 11
-0.7939252851528728
 21
0.4238898401648104
 31
0.0
210
0.0
220
0.0
230
1.0
 40
0.9833059182791334
 41
3.193165641446312
 42
5.213279965006496
  0
LINE
  5
AD1
330
A8B
100
AcDbEntity
  8
FRONT
  6
Continuous
 62
     4
100
AcDbLine
 10
12.59147932455181
 20
-5.148581112793888
 30
0.0
 11
16.67361660422962
 21
-5.134616718352519
 31
0.0
  0
ELLIPSE
  5
AD2
330
A8B
100
AcDbEntity
  8
FRONT
  6
Continuous
 62
     4
100
AcDbEllipse
 10
14.84592289572717
 20
-3.161093470714305
 30
0.0
 11
-0.7939253088795834
 21
0.4238898451415228
 31
0.0
210
0.0
220
0.0
230
0.9999999999999998
 40
0.9833059192021876
 41
2.862822081785346
 42
3.141592646178711
  0
ELLIPSE
  5
AD3
330
A8B
100
AcDbEntity
  8
FRONT
  6
Continuous
 62
     4
100
AcDbEllipse
 10
26.03145212602744
 20
0.4201256460465415
 30
0.0
 11
-60.22774572573949
 21
0.8391642046853387
 31
0.0
210
0.0
220
0.0
230
1.0
 40
0.0733360947234748
 41
1.395961454238489
 42
1.401822529636017
  0
ELLIPSE
  5
AD4
330
A8B
100
AcDbEntity
  8
FRONT
  6
Continuous
 62
     4
100
AcDbEllipse
 10
-2.102243007827921
 20
0.5190125394426035
 30
0.0
 11
-74.39203540301211
 21
1.036502535843046
 31
0.0
210
0.0
220
0.0
230
1.0
 40
0.0733366707427299
 41
1.786532921110053
 42
1.835644438831914
  0
SPLINE
  5
AD5
330
A8B
100
AcDbEntity
  8
FRONT
  6
Continuous
 62
     4
100
AcDbSpline
210
0.0
220
0.0
230
1.0
 70
    24
 71
     1
 72
     4
 73
     2
 74
     0
 42
0.0000000001
 43
0.0000000001
 40
0.0
 40
0.0
 40
1.0
 40
1.0
 10
17.59489872014192
 20
-5.975264142052814
 30
0.0
 10
14.60613712230076
 20
-5.930601946215396
 30
0.0
  0
SPLINE
  5
AD6
330
A8B
100
AcDbEntity
  8
FRONT
  6
Continuous
 62
     4
100
AcDbSpline
210
0.0
220
0.0
230
1.0
 70
     8
 71
     2
 72
     6
 73
     3
 74
     0
 42
0.0000000001
 43
0.0000000001
 40
0.0
 40
0.0
 40
0.0
 40
1.0
 40
1.0
 40
1.0
 10
17.53382959937809
 20
-5.939844692875301
 30
0.0
 10
16.07823206326433
 20
-5.926820755708295
 30
0.0
 10
14.62245185943817
 20
-5.87714135957826
 30
0.0
  0
SPLINE
  5
AD7
330
A8B
100
AcDbEntity
  8
FRONT
  6
Continuous
 62
     4
100
AcDbSpline
210
0.0
220
0.0
230
1.0
 70
    24
 71
     1
 72
     4
 73
     2
 74
     0
 42
0.0000000001
 43
0.0000000001
 40
0.0
 40
0.0
 40
1.0
 40
1.0
 10
15.13868294684773
 20
-5.711454223476931
 30
0.0
 10
17.25016942408504
 20
-5.752170042241942
 30
0.0
  0
SPLINE
  5
AD8
330
A8B
100
AcDbEntity
  8
FRONT
  6
Continuous
 62
     4
100
AcDbSpline
210
0.0
220
0.0
230
1.0
 70
     8
 71
     2
 72
     6
 73
     3
 74
     0
 42
0.0000000001
 43
0.0000000001
 40
0.0
 40
0.0
 40
0.0
 40
1.0
 40
1.0
 40
1.0
 10
17.29538407867861
 20
-5.788382807545392
 30
0.0
 10
16.20626920503309
 20
-5.775330117086896
 30
0.0
 10
15.12493514742535
 20
-5.739186742282312
 30
0.0
  0
SPLINE
  5
AD9
330
A8B
100
AcDbEntity
  8
FRONT
  6
Continuous
 62
     4
100
AcDbSpline
210
0.0
220
0.0
230
1.0
 70
     8
 71
     2
 72
     6
 73
     3
 74
     0
 42
0.0000000001
 43
0.0000000001
 40
0.0
 40
0.0
 40
0.0
 40
1.0
 40
1.0
 40
1.0
 10
17.31289606147389
 20
-5.809345576655007
 30
0.0
 10
16.21894412271205
 20
-5.784442697072787
 30
0.0
 10
15.12493514742539
 20
-5.739186742282306
 30
0.0
  0
LINE
  5
ADA
330
A8B
100
AcDbEntity
  8
FRONT
  6
Continuous
 62
     4
100
AcDbLine
 10
13.21506101770313
 20
-5.031717125328196
 30
0.0
 11
13.70168904333385
 21
-5.030052442043299
 31
0.0
  0
LINE
  5
ADB
330
A8B
100
AcDbEntity
  8
FRONT
  6
Continuous
 62
     4
100
AcDbLine
 10
12.59831180396925
 20
-5.033826934161636
 30
0.0
 11
13.21506101770313
 21
-5.031717125328196
 31
0.0
  0
LINE
  5
ADC
330
A8B
100
AcDbEntity
  8
FRONT
  6
Continuous
 62
     4
100
AcDbLine
 10
12.52411245174376
 20
-5.148811565010388
 30
0.0
 11
12.59147932455181
 21
-5.148581112793888
 31
0.0
  0
LINE
  5
ADD
330
A8B
100
AcDbEntity
  8
FRONT
  6
Continuous
 62
     4
100
AcDbLine
 10
13.73039490001062
 20
-5.644465229015402
 30
0.0
 11
13.65251602410751
 21
-5.651687726725348
 31
0.0
  0
ELLIPSE
  5
ADE
330
A8B
100
AcDbEntity
  8
FRONT
  6
Continuous
 62
     4
100
AcDbEllipse
 10
14.19019065232725
 20
-5.217546069540356
 30
0.0
 11
-0.0261303380478747
 21
-0.4993167493651739
 31
0.0
210
0.0
220
0.0
230
1.0
 40
0.207227326156888
 41
0.293361878369899
 42
0.4309508045600884
  0
ELLIPSE
  5
ADF
330
A8B
100
AcDbEntity
  8
FRONT
  6
Continuous
 62
     4
100
AcDbEllipse
 10
35.35054063342625
 20
0.000151900276844
 30
0.0
 11
-66.41326335410838
 21
0.9269833922146549
 31
0.0
210
0.0
220
0.0
230
1.0
 40
0.0848785527739216
 41
1.232222219062653
 42
1.240685434065807
  0
ELLIPSE
  5
AE0
330
A8B
100
AcDbEntity
  8
FRONT
  6
Continuous
 62
     4
100
AcDbEllipse
 10
15.11920026906091
 20
-5.25552853925582
 30
0.0
 11
-0.0157629108455211
 21
-0.4997514551771808
 31
0.0
210
0.0
220
0.0
230
0.9999999999999998
 40
0.1634163455934212
 41
0.2596728804504972
 42
0.4271027027017509
  0
ELLIPSE
  5
AE1
330
A8B
100
AcDbEntity
  8
FRONT
  6
Continuous
 62
     4
100
AcDbEllipse
 10
26.03106406187677
 20
0.4200021500912944
 30
0.0
 11
-60.22680518323547
 21
0.8391789498204172
 31
0.0
210
0.0
220
0.0
230
0.9999999999999998
 40
0.073335099090449
 41
1.368153266464279
 42
1.373756158617132
  0
ELLIPSE
  5
AE2
330
A8B
100
AcDbEntity
  8
FRONT
  6
Continuous
 62
     4
100
AcDbEllipse
 10
12.60004943919611
 20
-5.132529700220393
 30
0.0
 11
-0.000342083369458
 21
0.0999994148984049
 31
0.0
210
0.0
220
0.0
230
0.9999999999999998
 40
0.0873785520673491
 41
0.1609135457003019
 42
1.731709872424159
  0
SPLINE
  5
AE3
330
A8B
100
AcDbEntity
  8
FRONT
  6
Continuous
 62
     4
100
AcDbSpline
210
0.0
220
0.0
230
1.0
 70
     8
 71
     3
 72
    10
 73
     6
 74
     0
 42
0.0000000001
 43
0.0000000001
 40
0.0
 40
0.0
 40
0.0
 40
0.0
 40
0.2568958804124872
 40
0.5137917608271178
 40
1.0
 40
1.0
 40
1.0
 40
1.0
 10
14.6061371218886
 20
-5.930601824966093
 30
0.0
 10
14.60753377257093
 20
-5.926009260558598
 30
0.0
 10
14.61032728581661
 20
-5.916831653154844
 30
0.0
 10
14.61576516470299
 20
-5.898998421367481
 30
0.0
 10
14.61980695983203
 20
-5.885777952760061
 30
0.0
 10
14.62245185943814
 20
-5.87714135957826
 30
0.0
  0
SPLINE
  5
AE4
330
A8B
100
AcDbEntity
  8
FRONT
  6
Continuous
 62
     4
100
AcDbSpline
210
0.0
220
0.0
230
1.0
 70
    24
 71
     1
 72
     4
 73
     2
 74
     0
 42
0.0000000001
 43
0.0000000001
 40
0.0
 40
0.0
 40
1.0
 40
1.0
 10
13.65251602410751
 20
-5.651687726725348
 30
0.0
 10
13.57741475365825
 20
-5.65512213110166
 30
0.0
  0
SPLINE
  5
AE5
330
A8B
100
AcDbEntity
  8
FRONT
  6
Continuous
 62
     4
100
AcDbSpline
210
0.0
220
0.0
230
1.0
 70
     8
 71
     3
 72
    15
 73
    11
 74
     0
 42
0.0000000001
 43
0.0000000001
 40
0.0
 40
0.0
 40
0.0
 40
0.0
 40
0.140976339028535
 40
0.2892431856819297
 40
0.4121436114845082
 40
0.5144916745071848
 40
0.6168092444520747
 40
0.7567233522043856
 40
0.9739203035115163
 40
1.0
 40
1.0
 40
1.0
 40
1.0
 10
15.49450213479355
 20
-3.783439226602423
 30
0.0
 10
15.44981998562096
 20
-3.834784754789421
 30
0.0
 10
15.34586240619185
 20
-3.929717956575207
 30
0.0
 10
15.16411478532275
 20
-4.042164088828029
 30
0.0
 10
14.96509713276188
 20
-4.105578478492558
 30
0.0
 10
14.77588171470955
 20
-4.116965143829848
 30
0.0
 10
14.5865234857672
 20
-4.081240257906233
 30
0.0
 10
14.37534379397539
 20
-3.975845413349876
 30
0.0
 10
14.24980172860958
 20
-3.846984870652867
 30
0.0
 10
14.1867895891514
 20
-3.756804337707721
 30
0.0
 10
14.18025452780808
 20
-3.746989982441069
 30
0.0
  0
SPLINE
  5
AE6
330
A8B
100
AcDbEntity
  8
FRONT
  6
Continuous
 62
     4
100
AcDbSpline
210
0.0
220
0.0
230
1.0
 70
    24
 71
     1
 72
     4
 73
     2
 74
     0
 42
0.0000000001
 43
0.0000000001
 40
0.0
 40
0.0
 40
1.0
 40
1.0
 10
13.69211008638281
 20
-5.664088371972116
 30
0.0
 10
13.57741475365825
 20
-5.65512213110166
 30
0.0
  0
SPLINE
  5
AE7
330
A8B
100
AcDbEntity
  8
FRONT
  6
Continuous
 62
     4
100
AcDbSpline
210
0.0
220
0.0
230
1.0
 70
    24
 71
     1
 72
     4
 73
     2
 74
     0
 42
0.0000000001
 43
0.0000000001
 40
0.0
 40
0.0
 40
1.0
 40
1.0
 10
14.19509791486686
 20
-5.697096415954096
 30
0.0
 10
13.67240432655448
 20
-5.670248142954241
 30
0.0
  0
SPLINE
  5
AE8
330
A8B
100
AcDbEntity
  8
FRONT
  6
Continuous
 62
     4
100
AcDbSpline
210
0.0
220
0.0
230
1.0
 70
    24
 71
     1
 72
     4
 73
     2
 74
     0
 42
0.0000000001
 43
0.0000000001
 40
0.0
 40
0.0
 40
1.0
 40
1.0
 10
14.60613712230153
 20
-5.930601946215417
 30
0.0
 10
13.9484959168259
 20
-5.910374237639902
 30
0.0
  0
SPLINE
  5
AE9
330
A8B
100
AcDbEntity
  8
FRONT
  6
Continuous
 62
     4
100
AcDbSpline
210
0.0
220
0.0
230
1.0
 70
    24
 71
     1
 72
     4
 73
     2
 74
     0
 42
0.0000000001
 43
0.0000000001
 40
0.0
 40
0.0
 40
1.0
 40
1.0
 10
13.73039490001062
 20
-5.644465229015402
 30
0.0
 10
14.20967333082538
 20
-5.673471778213071
 30
0.0
  0
SPLINE
  5
AEA
330
A8B
100
AcDbEntity
  8
FRONT
  6
Continuous
 62
     4
100
AcDbSpline
210
0.0
220
0.0
230
1.0
 70
    24
 71
     1
 72
     4
 73
     2
 74
     0
 42
0.0000000001
 43
0.0000000001
 40
0.0
 40
0.0
 40
1.0
 40
1.0
 10
14.19509791486686
 20
-5.697096415954096
 30
0.0
 10
13.69211008638281
 20
-5.664088371972116
 30
0.0
  0
SPLINE
  5
AEB
330
A8B
100
AcDbEntity
  8
FRONT
  6
Continuous
 62
     4
100
AcDbSpline
210
0.0
220
0.0
230
1.0
 70
     8
 71
     3
 72
    11
 73
     7
 74
     0
 42
0.0000000001
 43
0.0000000001
 40
0.0
 40
0.0
 40
0.0
 40
0.0
 40
0.000063183656549
 40
0.6610072159485929
 40
0.9999368181050073
 40
1.0
 40
1.0
 40
1.0
 40
1.0
 10
15.12493514742537
 20
-5.739186742282305
 30
0.0
 10
15.12483521826678
 20
-5.739182978870811
 30
0.0
 10
14.91946003926739
 20
-5.731448386494392
 30
0.0
 10
14.60906890037243
 20
-5.718477412827605
 30
0.0
 10
14.29980413634301
 20
-5.702773299872545
 30
0.0
 10
14.1951977682056
 20
-5.697101829728066
 30
0.0
 10
14.19509791485794
 20
-5.697096415953659
 30
0.0
  0
SPLINE
  5
AEC
330
A8B
100
AcDbEntity
  8
FRONT
  6
Continuous
 62
     4
100
AcDbSpline
210
0.0
220
0.0
230
1.0
 70
    24
 71
     1
 72
     4
 73
     2
 74
     0
 42
0.0000000001
 43
0.0000000001
 40
0.0
 40
0.0
 40
1.0
 40
1.0
 10
14.20967333286792
 20
-5.673471778307494
 30
0.0
 10
15.13868294684773
 20
-5.711454223476938
 30
0.0
  0
SPLINE
  5
AED
330
A8B
100
AcDbEntity
  8
FRONT
  6
Continuous
 62
     4
100
AcDbSpline
210
0.0
220
0.0
230
1.0
 70
    24
 71
     1
 72
     4
 73
     2
 74
     0
 42
0.0000000001
 43
0.0000000001
 40
0.0
 40
0.0
 40
1.0
 40
1.0
 10
13.67240432655448
 20
-5.670248142954241
 30
0.0
 10
13.61429623476742
 20
-5.667122247227887
 30
0.0
  0
LINE
  5
AEE
330
A8B
100
AcDbEntity
  8
FRONT
  6
Continuous
 62
     4
100
AcDbLine
 10
17.94014373270267
 20
-4.696380917179419
 30
0.0
 11
17.94014637934187
 21
-4.697134583006601
 31
0.0
  0
LINE
  5
AEF
330
A8B
100
AcDbEntity
  8
FRONT
  6
Continuous
 62
     4
100
AcDbLine
 10
17.9296204316509
 20
-4.690827415632082
 30
0.0
 11
17.93253772748869
 21
-5.521566331524031
 31
0.0
  0
LINE
  5
AF0
330
A8B
100
AcDbEntity
  8
FRONT
  6
Continuous
 62
     4
100
AcDbLine
 10
17.9955352574119
 20
-4.703931962073951
 30
0.0
 11
17.99860264302532
 21
-5.577410944240646
 31
0.0
  0
LINE
  5
AF1
330
A8B
100
AcDbEntity
  8
FRONT
  6
Continuous
 62
     4
100
AcDbLine
 10
17.58943827622755
 20
-4.872056962875418
 30
0.0
 11
17.58957197281752
 21
-4.91012885081491
 31
0.0
  0
LINE
  5
AF2
330
A8B
100
AcDbEntity
  8
FRONT
  6
Continuous
 62
     4
100
AcDbLine
 10
17.58943827622755
 20
-4.872056962875418
 30
0.0
 11
17.86767576873332
 21
-4.704849480079047
 31
0.0
  0
LINE
  5
AF3
330
A8B
100
AcDbEntity
  8
FRONT
  6
Continuous
 62
     4
100
AcDbLine
 10
17.87708664776414
 20
-4.686615922447828
 30
0.0
 11
17.87984322178274
 21
-5.471587155772794
 31
0.0
  0
LINE
  5
AF4
330
A8B
100
AcDbEntity
  8
FRONT
  6
Continuous
 62
     4
100
AcDbLine
 10
17.94014637934187
 20
-4.697134583006601
 30
0.0
 11
17.94307446467377
 21
-5.53094595129999
 31
0.0
  0
LINE
  5
AF5
330
A8B
100
AcDbEntity
  8
FRONT
  6
Continuous
 62
     4
100
AcDbLine
 10
17.90527073750188
 20
-4.337218884751768
 30
0.0
 11
17.82020488840544
 21
-4.404730119587552
 31
0.0
  0
LINE
  5
AF6
330
A8B
100
AcDbEntity
  8
FRONT
  6
Continuous
 62
     4
100
AcDbLine
 10
17.82020488840544
 20
-4.404730119587552
 30
0.0
 11
17.86767576873332
 21
-4.704849480079047
 31
0.0
  0
LINE
  5
AF7
330
A8B
100
AcDbEntity
  8
FRONT
  6
Continuous
 62
     4
100
AcDbLine
 10
17.57701616247765
 20
-4.794187397985162
 30
0.0
 11
17.48879939540238
 21
-4.241189622687848
 31
0.0
  0
LINE
  5
AF8
330
A8B
100
AcDbEntity
  8
FRONT
  6
Continuous
 62
     4
100
AcDbLine
 10
17.58943827622755
 20
-4.872056962875418
 30
0.0
 11
17.57701616247765
 21
-4.794187397985162
 31
0.0
  0
ELLIPSE
  5
AF9
330
A8B
100
AcDbEntity
  8
FRONT
  6
Continuous
 62
     4
100
AcDbEllipse
 10
17.28179924891806
 20
-4.836410083749438
 30
0.0
 11
-0.2646417690684293
 21
0.1412966173143831
 31
0.0
210
0.0
220
0.0
230
1.0
 40
0.9833059182785888
 41
2.071687311421135
 42
3.782109978374953
  0
ELLIPSE
  5
AFA
330
A8B
100
AcDbEntity
  8
FRONT
  6
Continuous
 62
     4
100
AcDbEllipse
 10
18.78976301780029
 20
-4.225196264847973
 30
0.0
 11
-0.9665041965168652
 21
0.3765818908141549
 31
0.0
210
0.0
220
0.0
230
0.9999999999999998
 40
0.8498862410049405
 41
0.6298734289431917
 42
0.7760221204517431
  0
ELLIPSE
  5
AFB
330
A8B
100
AcDbEntity
  8
FRONT
  6
Continuous
 62
     4
100
AcDbEllipse
 10
17.29036936377426
 20
-4.820358671225433
 30
0.0
 11
-0.1764278450464169
 21
0.094197746298221
 31
0.0
210
0.0
220
0.0
230
1.0
 40
0.9833059187880415
 41
3.524855636639208
 42
3.716574258287971
  0
ELLIPSE
  5
AFC
330
A8B
100
AcDbEntity
  8
FRONT
  6
Continuous
 62
     4
100
AcDbEllipse
 10
17.43752785348189
 20
-3.994735409268031
 30
0.0
 11
-0.6378505702784448
 21
2.576726862152773
 31
0.0
210
0.0
220
0.0
230
1.0
 40
0.1420514033894129
 41
4.544013824159174
 42
4.556279548729346
  0
ELLIPSE
  5
AFD
330
A8B
100
AcDbEntity
  8
FRONT
  6
Continuous
 62
     4
100
AcDbEllipse
 10
17.29558226924102
 20
-5.116466969333043
 30
0.0
 11
-0.0003420833691217
 21
0.0999994148939525
 31
0.0
210
0.0
220
0.0
230
1.0
 40
0.0873785520668444
 41
0.1609135456945704
 42
1.732484486224235
  0
ELLIPSE
  5
AFE
330
A8B
100
AcDbEntity
  8
FRONT
  6
Continuous
 62
     4
100
AcDbEllipse
 10
17.91251036989776
 20
1.921767689627283
 30
0.0
 11
-0.2231549673139982
 21
7.545048101838847
 31
0.0
210
0.0
220
0.0
230
1.0
 40
0.1565419392169584
 41
2.98028837913766
 42
3.026543021602508
  0
ELLIPSE
  5
AFF
330
A8B
100
AcDbEntity
  8
FRONT
  6
Continuous
 62
     4
100
AcDbEllipse
 10
17.74265415408251
 20
-4.702133472814753
 30
0.0
 11
-0.1999999433238031
 21
-0.0001525554653821
 31
0.0
210
0.0
220
0.0
230
1.0
 40
0.1775485647405439
 41
3.300064853530633
 42
3.503329043719288
  0
ELLIPSE
  5
B00
330
A8B
100
AcDbEntity
  8
FRONT
  6
Continuous
 62
     4
100
AcDbEllipse
 10
17.58558627712221
 20
-4.778135985406353
 30
0.0
 11
-0.0987513760100169
 21
-0.0157532770022912
 31
0.0
210
0.0
220
0.0
230
1.0
 40
0.1458931740712325
 41
0.1778612733484125
 42
1.460656485136271
  0
ELLIPSE
  5
B01
330
A8B
100
AcDbEntity
  8
FRONT
  6
Continuous
 62
     4
100
AcDbEllipse
 10
67.64350291379154
 20
34.55023588267693
 30
0.0
 11
-52.91333538115097
 21
-41.25130454679958
 31
0.0
210
0.0
220
0.0
230
1.0
 40
0.0120306976498371
 41
0.3393916290940456
 42
0.3422858615911428
  0
ELLIPSE
  5
B02
330
A8B
100
AcDbEntity
  8
FRONT
  6
Continuous
 62
     4
100
AcDbEllipse
 10
17.29036936356746
 20
-4.820358671193344
 30
0.0
 11
-0.1764278461941974
 21
0.0941977445624821
 31
0.0
210
0.0
220
0.0
230
0.9999999999999998
 40
0.9833059182720552
 41
2.071687309673813
 42
2.454396003569158
  0
ELLIPSE
  5
B03
330
A8B
100
AcDbEntity
  8
FRONT
  6
Continuous
 62
     4
100
AcDbEllipse
 10
17.29036936356451
 20
-4.820358671172773
 30
0.0
 11
-0.1764278460477521
 21
0.0941977448654515
 31
0.0
210
0.0
220
0.0
230
1.0
 40
0.9833059182873423
 41
2.454396005236844
 42
3.524855627886243
  0
ELLIPSE
  5
B04
330
A8B
100
AcDbEntity
  8
FRONT
  6
Continuous
 62
     4
100
AcDbEllipse
 10
17.80753817497214
 20
1.984604698993624
 30
0.0
 11
-0.0579833643088966
 21
6.690109145654452
 31
0.0
210
0.0
220
0.0
230
1.0
 40
0.0234081852915922
 41
3.155384266539653
 42
3.216552275148325
  0
ELLIPSE
  5
B05
330
A8B
100
AcDbEntity
  8
FRONT
  6
Continuous
 62
     4
100
AcDbEllipse
 10
69.31113081533111
 20
35.56042935518711
 30
0.0
 11
-54.58145203794352
 21
-42.26950703433849
 31
0.0
210
0.0
220
0.0
230
1.0
 40
0.0166389419643796
 41
0.3320360213461808
 42
0.3350067550538322
  0
ELLIPSE
  5
B06
330
A8B
100
AcDbEntity
  8
FRONT
  6
Continuous
 62
     4
100
AcDbEllipse
 10
17.74265577240787
 20
-4.702887859456103
 30
0.0
 11
-0.1999987668190257
 21
-0.0007023332506881
 31
0.0
210
0.0
220
0.0
230
1.0
 40
0.1608116416752289
 41
3.299567109250761
 42
3.504047308224818
  0
SPLINE
  5
B07
330
A8B
100
AcDbEntity
  8
FRONT
  6
Continuous
 62
     4
100
AcDbSpline
210
0.0
220
0.0
230
1.0
 70
     8
 71
     2
 72
     6
 73
     3
 74
     0
 42
0.0000000001
 43
0.0000000001
 40
0.0
 40
0.0
 40
0.0
 40
1.0
 40
1.0
 40
1.0
 10
17.94014476251969
 20
-4.696380196294287
 30
0.0
 10
17.93820990995539
 20
-4.62484467721253
 30
0.0
 10
17.91370298271945
 20
-4.559914968743824
 30
0.0
  0
SPLINE
  5
B08
330
A8B
100
AcDbEntity
  8
FRONT
  6
Continuous
 62
     4
100
AcDbSpline
210
0.0
220
0.0
230
1.0
 70
     8
 71
     3
 72
    11
 73
     7
 74
     0
 42
0.0000000001
 43
0.0000000001
 40
0.0
 40
0.0
 40
0.0
 40
0.0
 40
0.2797385983135209
 40
0.5594467342961888
 40
0.7797158294879042
 40
1.0
 40
1.0
 40
1.0
 40
1.0
 10
17.5948987190443
 20
-5.975264142050702
 30
0.0
 10
17.65745563319629
 20
-5.974483801919768
 30
0.0
 10
17.77036020044778
 20
-5.950887920362924
 30
0.0
 10
17.90567908297141
 20
-5.850401171714425
 30
0.0
 10
17.98283180302257
 20
-5.717078973008215
 30
0.0
 10
17.99830296929953
 20
-5.626215792883595
 30
0.0
 10
17.99860264302532
 20
-5.577410944240646
 30
0.0
  0
SPLINE
  5
B09
330
A8B
100
AcDbEntity
  8
FRONT
  6
Continuous
 62
     4
100
AcDbSpline
210
0.0
220
0.0
230
1.0
 70
    24
 71
     1
 72
     4
 73
     2
 74
     0
 42
0.0000000001
 43
0.0000000001
 40
0.0
 40
0.0
 40
1.0
 40
1.0
 10
17.93253772748869
 20
-5.521566331524028
 30
0.0
 10
17.87984322178274
 20
-5.471587155772789
 30
0.0
  0
SPLINE
  5
B0A
330
A8B
100
AcDbEntity
  8
FRONT
  6
Continuous
 62
     4
100
AcDbSpline
210
0.0
220
0.0
230
1.0
 70
     8
 71
     2
 72
     6
 73
     3
 74
     0
 42
0.0000000001
 43
0.0000000001
 40
0.0
 40
0.0
 40
0.0
 40
1.0
 40
1.0
 40
1.0
 10
17.53382959937809
 20
-5.939844692875301
 30
0.0
 10
17.5478348404841
 20
-5.948879112898527
 30
0.0
 10
17.56310864296497
 20
-5.957732756903237
 30
0.0
  0
SPLINE
  5
B0B
330
A8B
100
AcDbEntity
  8
FRONT
  6
Continuous
 62
     4
100
AcDbSpline
210
0.0
220
0.0
230
1.0
 70
    24
 71
     1
 72
     4
 73
     2
 74
     0
 42
0.0000000001
 43
0.0000000001
 40
0.0
 40
0.0
 40
1.0
 40
1.0
 10
17.9387785253627
 20
-5.526976438079115
 30
0.0
 10
17.93253772748869
 20
-5.521566331524034
 30
0.0
  0
SPLINE
  5
B0C
330
A8B
100
AcDbEntity
  8
FRONT
  6
Continuous
 62
     4
100
AcDbSpline
210
0.0
220
0.0
230
1.0
 70
     8
 71
     2
 72
     6
 73
     3
 74
     0
 42
0.0000000001
 43
0.0000000001
 40
0.0
 40
0.0
 40
0.0
 40
1.0
 40
1.0
 40
1.0
 10
17.56310862460081
 20
-5.957732669274165
 30
0.0
 10
17.57839777531656
 20
-5.966594955161369
 30
0.0
 10
17.59489682987357
 20
-5.975263315085282
 30
0.0
  0
SPLINE
  5
B0D
330
A8B
100
AcDbEntity
  8
FRONT
  6
Continuous
 62
     4
100
AcDbSpline
210
0.0
220
0.0
230
1.0
 70
     8
 71
     2
 72
     6
 73
     3
 74
     0
 42
0.0000000001
 43
0.0000000001
 40
0.0
 40
0.0
 40
0.0
 40
1.0
 40
1.0
 40
1.0
 10
17.92970126088954
 20
-4.689423949520302
 30
0.0
 10
17.93325498333023
 20
-4.621665100236254
 30
0.0
 10
17.91370204730798
 20
-4.559913475421751
 30
0.0
  0
SPLINE
  5
B0E
330
A8B
100
AcDbEntity
  8
FRONT
  6
Continuous
 62
     4
100
AcDbSpline
210
0.0
220
0.0
230
1.0
 70
     8
 71
     2
 72
     6
 73
     3
 74
     0
 42
0.0000000001
 43
0.0000000001
 40
0.0
 40
0.0
 40
0.0
 40
1.0
 40
1.0
 40
1.0
 10
17.48753914728162
 20
-4.842620158601206
 30
0.0
 10
17.49069400018172
 20
-4.813353923430181
 30
0.0
 10
17.48589383548049
 20
-4.784463510063917
 30
0.0
  0
SPLINE
  5
B0F
330
A8B
100
AcDbEntity
  8
FRONT
  6
Continuous
 62
     4
100
AcDbSpline
210
0.0
220
0.0
230
1.0
 70
     8
 71
     2
 72
     6
 73
     3
 74
     0
 42
0.0000000001
 43
0.0000000001
 40
0.0
 40
0.0
 40
0.0
 40
1.0
 40
1.0
 40
1.0
 10
17.9296204316509
 20
-4.690827415632076
 30
0.0
 10
17.90811236517729
 20
-4.654740894371965
 30
0.0
 10
17.89274962395551
 20
-4.643583112873108
 30
0.0
  0
SPLINE
  5
B10
330
A8B
100
AcDbEntity
  8
FRONT
  6
Continuous
 62
     4
100
AcDbSpline
210
0.0
220
0.0
230
1.0
 70
    24
 71
     1
 72
     4
 73
     2
 74
     0
 42
0.0000000001
 43
0.0000000001
 40
0.0
 40
0.0
 40
1.0
 40
1.0
 10
17.28962519580169
 20
-5.781691499550616
 30
0.0
 10
17.29561436988828
 20
-5.788108146748303
 30
0.0
  0
SPLINE
  5
B11
330
A8B
100
AcDbEntity
  8
FRONT
  6
Continuous
 62
     4
100
AcDbSpline
210
0.0
220
0.0
230
1.0
 70
    24
 71
     1
 72
     4
 73
     2
 74
     0
 42
0.0000000001
 43
0.0000000001
 40
0.0
 40
0.0
 40
1.0
 40
1.0
 10
17.9955352574119
 20
-4.703931962073951
 30
0.0
 10
17.99520039268492
 20
-4.657821589441176
 30
0.0
  0
SPLINE
  5
B12
330
A8B
100
AcDbEntity
  8
FRONT
  6
Continuous
 62
     4
100
AcDbSpline
210
0.0
220
0.0
230
1.0
 70
     8
 71
     3
 72
    14
 73
    10
 74
     0
 42
0.0000000001
 43
0.0000000001
 40
0.0
 40
0.0
 40
0.0
 40
0.0
 40
0.1248883957440875
 40
0.2497714879519448
 40
0.3746545211303977
 40
0.4995231745160237
 40
0.6243751603251047
 40
0.7494560896066159
 40
1.0
 40
1.0
 40
1.0
 40
1.0
 10
17.87984322178273
 20
-5.471587155772789
 30
0.0
 10
17.87987268926037
 20
-5.50489258238397
 30
0.0
 10
17.87177012324012
 20
-5.568441189966804
 30
0.0
 10
17.83414334612334
 20
-5.657603560500879
 30
0.0
 10
17.77401488846159
 20
-5.731535238533902
 30
0.0
 10
17.6954628151493
 20
-5.785183731153777
 30
0.0
 10
17.60367529558672
 20
-5.815264208756982
 30
0.0
 10
17.47391022284451
 20
-5.813531480830889
 30
0.0
 10
17.37763835799498
 20
-5.813847709256805
 30
0.0
 10
17.31289606147389
 20
-5.809345576655006
 30
0.0
  0
SPLINE
  5
B13
330
A8B
100
AcDbEntity
  8
FRONT
  6
Continuous
 62
     4
100
AcDbSpline
210
0.0
220
0.0
230
1.0
 70
     8
 71
     2
 72
     6
 73
     3
 74
     0
 42
0.0000000001
 43
0.0000000001
 40
0.0
 40
0.0
 40
0.0
 40
1.0
 40
1.0
 40
1.0
 10
17.96624821359698
 20
-4.521740220909061
 30
0.0
 10
17.9945056831512
 20
-4.587389658473393
 30
0.0
 10
17.99520039268492
 20
-4.657821589442201
 30
0.0
  0
SPLINE
  5
B14
330
A8B
100
AcDbEntity
  8
FRONT
  6
Continuous
 62
     4
100
AcDbSpline
210
0.0
220
0.0
230
1.0
 70
    24
 71
     1
 72
     4
 73
     2
 74
     0
 42
0.0000000001
 43
0.0000000001
 40
0.0
 40
0.0
 40
1.0
 40
1.0
 10
17.89274962395551
 20
-4.643583112873108
 30
0.0
 10
17.87708664776414
 20
-4.686615922447828
 30
0.0
  0
SPLINE
  5
B15
330
A8B
100
AcDbEntity
  8
FRONT
  6
Continuous
 62
     4
100
AcDbSpline
210
0.0
220
0.0
230
1.0
 70
     8
 71
     2
 72
     6
 73
     3
 74
     0
 42
0.0000000001
 43
0.0000000001
 40
0.0
 40
0.0
 40
0.0
 40
1.0
 40
1.0
 40
1.0
 10
17.87578472966787
 20
-4.531787042132242
 30
0.0
 10
17.89175394076562
 20
-4.53831240951705
 30
0.0
 10
17.91370204730901
 20
-4.559913475424244
 30
0.0
  0
SPLINE
  5
B16
330
A8B
100
AcDbEntity
  8
FRONT
  6
Continuous
 62
     4
100
AcDbSpline
210
0.0
220
0.0
230
1.0
 70
    24
 71
     1
 72
     4
 73
     2
 74
     0
 42
0.0000000001
 43
0.0000000001
 40
0.0
 40
0.0
 40
1.0
 40
1.0
 10
17.9296204316509
 20
-4.690827415632076
 30
0.0
 10
17.92970126089028
 20
-4.689423949521914
 30
0.0
  0
SPLINE
  5
B17
330
A8B
100
AcDbEntity
  8
FRONT
  6
Continuous
 62
     4
100
AcDbSpline
210
0.0
220
0.0
230
1.0
 70
     8
 71
     2
 72
     6
 73
     3
 74
     0
 42
0.0000000001
 43
0.0000000001
 40
0.0
 40
0.0
 40
0.0
 40
1.0
 40
1.0
 40
1.0
 10
17.87984322178273
 20
-5.471587155772789
 30
0.0
 10
17.73244831207634
 20
-5.298438713033085
 30
0.0
 10
17.58957197281752
 20
-4.910128850814881
 30
0.0
  0
SPLINE
  5
B18
330
A8B
100
AcDbEntity
  8
FRONT
  6
Continuous
 62
     4
100
AcDbSpline
210
0.0
220
0.0
230
1.0
 70
    24
 71
     1
 72
     4
 73
     2
 74
     0
 42
0.0000000001
 43
0.0000000001
 40
0.0
 40
0.0
 40
1.0
 40
1.0
 10
17.28677117630373
 20
-5.132617233954769
 30
0.0
 10
16.67361660422959
 20
-5.134616718352519
 30
0.0
  0
SPLINE
  5
B19
330
A8B
100
AcDbEntity
  8
FRONT
  6
Continuous
 62
     4
100
AcDbSpline
210
0.0
220
0.0
230
1.0
 70
    24
 71
     1
 72
     4
 73
     2
 74
     0
 42
0.0000000001
 43
0.0000000001
 40
0.0
 40
0.0
 40
1.0
 40
1.0
 10
17.94182141506172
 20
-4.461266655075608
 30
0.0
 10
17.90527073750188
 20
-4.337218884751768
 30
0.0
  0
SPLINE
  5
B1A
330
A8B
100
AcDbEntity
  8
FRONT
  6
Continuous
 62
     4
100
AcDbSpline
210
0.0
220
0.0
230
1.0
 70
     8
 71
     2
 72
     6
 73
     3
 74
     0
 42
0.0000000001
 43
0.0000000001
 40
0.0
 40
0.0
 40
0.0
 40
1.0
 40
1.0
 40
1.0
 10
17.4863838813945
 20
-5.914121941707049
 30
0.0
 10
17.50241434520515
 20
-5.922316462127195
 30
0.0
 10
17.5149609852006
 20
-5.929071224485984
 30
0.0
  0
SPLINE
  5
B1B
330
A8B
100
AcDbEntity
  8
FRONT
  6
Continuous
 62
     4
100
AcDbSpline
210
0.0
220
0.0
230
1.0
 70
     8
 71
     3
 72
    10
 73
     6
 74
     0
 42
0.0000000001
 43
0.0000000001
 40
0.0
 40
0.0
 40
0.0
 40
0.0
 40
0.2802834343870607
 40
0.561500176492782
 40
1.0
 40
1.0
 40
1.0
 40
1.0
 10
17.93253772748871
 20
-5.521566331524031
 30
0.0
 10
17.92998166710049
 20
-5.58748102827846
 30
0.0
 10
17.90119279899605
 20
-5.70400075827699
 30
0.0
 10
17.73853112752677
 20
-5.870209334555772
 30
0.0
 10
17.59319445825168
 20
-5.912750987343615
 30
0.0
 10
17.4863838813945
 20
-5.914121941707049
 30
0.0
  0
SPLINE
  5
B1C
330
A8B
100
AcDbEntity
  8
FRONT
  6
Continuous
 62
     4
100
AcDbSpline
210
0.0
220
0.0
230
1.0
 70
     8
 71
     2
 72
     6
 73
     3
 74
     0
 42
0.0000000001
 43
0.0000000001
 40
0.0
 40
0.0
 40
0.0
 40
1.0
 40
1.0
 40
1.0
 10
17.29745226804206
 20
-5.017742724400553
 30
0.0
 10
17.334810636267
 20
-5.017343599018348
 30
0.0
 10
17.36829733251894
 20
-5.003728771550662
 30
0.0
  0
SPLINE
  5
B1D
330
A8B
100
AcDbEntity
  8
FRONT
  6
Continuous
 62
     4
100
AcDbSpline
210
0.0
220
0.0
230
1.0
 70
    24
 71
     1
 72
     4
 73
     2
 74
     0
 42
0.0000000001
 43
0.0000000001
 40
0.0
 40
0.0
 40
1.0
 40
1.0
 10
17.25039528434257
 20
-5.752276639961346
 30
0.0
 10
17.25582938323384
 20
-5.75599142494071
 30
0.0
  0
SPLINE
  5
B1E
330
A8B
100
AcDbEntity
  8
FRONT
  6
Continuous
 62
     4
100
AcDbSpline
210
0.0
220
0.0
230
1.0
 70
     8
 71
     2
 72
     6
 73
     3
 74
     0
 42
0.0000000001
 43
0.0000000001
 40
0.0
 40
0.0
 40
0.0
 40
1.0
 40
1.0
 40
1.0
 10
17.31289606147389
 20
-5.809345576655006
 30
0.0
 10
17.35705677144961
 20
-5.849142853119974
 30
0.0
 10
17.48638388139446
 20
-5.914121941707049
 30
0.0
  0
SPLINE
  5
B1F
330
A8B
100
AcDbEntity
  8
FRONT
  6
Continuous
 62
     4
100
AcDbSpline
210
0.0
220
0.0
230
1.0
 70
    24
 71
     1
 72
     4
 73
     2
 74
     0
 42
0.0000000001
 43
0.0000000001
 40
0.0
 40
0.0
 40
1.0
 40
1.0
 10
17.29561436988828
 20
-5.788108146748303
 30
0.0
 10
17.31289606147389
 20
-5.809345576655006
 30
0.0
  0
SPLINE
  5
B20
330
A8B
100
AcDbEntity
  8
FRONT
  6
Continuous
 62
     4
100
AcDbSpline
210
0.0
220
0.0
230
1.0
 70
    24
 71
     1
 72
     4
 73
     2
 74
     0
 42
0.0000000001
 43
0.0000000001
 40
0.0
 40
0.0
 40
1.0
 40
1.0
 10
17.96624821359698
 20
-4.521740220909061
 30
0.0
 10
17.94182141506172
 20
-4.461266655075608
 30
0.0
  0
SPLINE
  5
B21
330
A8B
100
AcDbEntity
  8
FRONT
  6
Continuous
 62
     4
100
AcDbSpline
210
0.0
220
0.0
230
1.0
 70
     8
 71
     3
 72
    11
 73
     7
 74
     0
 42
0.0000000001
 43
0.0000000001
 40
0.0
 40
0.0
 40
0.0
 40
0.0
 40
0.2627757061120019
 40
0.5667558013116807
 40
0.8797139751218168
 40
1.0
 40
1.0
 40
1.0
 40
1.0
 10
17.36829733251894
 20
-5.003728771550662
 30
0.0
 10
17.38587714511173
 20
-4.996404794424628
 30
0.0
 10
17.41990969395924
 20
-4.976439430695343
 30
0.0
 10
17.46158084441127
 20
-4.929333558277144
 30
0.0
 10
17.48149927690769
 20
-4.880797777468139
 30
0.0
 10
17.4866141760235
 20
-4.851053802725655
 30
0.0
 10
17.48753914728162
 20
-4.842620158601206
 30
0.0
  0
SPLINE
  5
B22
330
A8B
100
AcDbEntity
  8
FRONT
  6
Continuous
 62
     4
100
AcDbSpline
210
0.0
220
0.0
230
1.0
 70
     8
 71
     3
 72
    11
 73
     7
 74
     0
 42
0.0000000001
 43
0.0000000001
 40
0.0
 40
0.0
 40
0.0
 40
0.0
 40
0.2793522346033047
 40
0.5593335184216813
 40
0.7797559679565327
 40
1.0
 40
1.0
 40
1.0
 40
1.0
 10
17.94307446467377
 20
-5.530945951299988
 30
0.0
 10
17.94180307462405
 20
-5.594501577118919
 30
0.0
 10
17.91667550799417
 20
-5.709260710265843
 30
0.0
 10
17.81058445331001
 20
-5.846075908549162
 30
0.0
 10
17.67367926843748
 20
-5.924340080915007
 30
0.0
 10
17.58243171918843
 20
-5.939723916719522
 30
0.0
 10
17.53382959937809
 20
-5.939844692875301
 30
0.0
  0
SPLINE
  5
B23
330
A8B
100
AcDbEntity
  8
FRONT
  6
Continuous
 62
     4
100
AcDbSpline
210
0.0
220
0.0
230
1.0
 70
     8
 71
     3
 72
    14
 73
    10
 74
     0
 42
0.0000000001
 43
0.0000000001
 40
0.0
 40
0.0
 40
0.0
 40
0.0
 40
0.1951062385720619
 40
0.3339125582488692
 40
0.4501474463006513
 40
0.566328053941413
 40
0.7231136318596933
 40
0.9477057072569012
 40
1.0
 40
1.0
 40
1.0
 40
1.0
 10
17.89274962394844
 20
-4.643583112868443
 30
0.0
 10
17.89474514222996
 20
-4.639748694764659
 30
0.0
 10
17.89724314910162
 20
-4.631244618840346
 30
0.0
 10
17.89924971527219
 20
-4.615701729296858
 30
0.0
 10
17.89842728956798
 20
-4.599454138182963
 30
0.0
 10
17.8951461020218
 20
-4.581218840503261
 30
0.0
 10
17.88844700421837
 20
-4.558968223287878
 30
0.0
 10
17.8812580747526
 20
-4.542461472099691
 30
0.0
 10
17.8766627348089
 20
-4.533439686083934
 30
0.0
 10
17.87578472966787
 20
-4.531787042132242
 30
0.0
  0
SPLINE
  5
B24
330
A8B
100
AcDbEntity
  8
FRONT
  6
Continuous
 62
     4
100
AcDbSpline
210
0.0
220
0.0
230
1.0
 70
     8
 71
     2
 72
     6
 73
     3
 74
     0
 42
0.0000000001
 43
0.0000000001
 40
0.0
 40
0.0
 40
0.0
 40
1.0
 40
1.0
 40
1.0
 10
17.51496097087978
 20
-5.929071210841827
 30
0.0
 10
17.52734365897923
 20
-5.93571427869794
 30
0.0
 10
17.53382959937809
 20
-5.939844692875301
 30
0.0
  0
SPLINE
  5
B25
330
A8B
100
AcDbEntity
  8
FRONT
  6
Continuous
 62
     4
100
AcDbSpline
210
0.0
220
0.0
230
1.0
 70
     8
 71
     2
 72
     6
 73
     3
 74
     0
 42
0.0000000001
 43
0.0000000001
 40
0.0
 40
0.0
 40
0.0
 40
1.0
 40
1.0
 40
1.0
 10
16.67361660422962
 20
-5.134616718352519
 30
0.0
 10
16.8166102911388
 20
-5.470334999613283
 30
0.0
 10
17.25016942408499
 20
-5.752170042241946
 30
0.0
  0
SPLINE
  5
B26
330
A8B
100
AcDbEntity
  8
FRONT
  6
Continuous
 62
     4
100
AcDbSpline
210
0.0
220
0.0
230
1.0
 70
    24
 71
     1
 72
     4
 73
     2
 74
     0
 42
0.0000000001
 43
0.0000000001
 40
0.0
 40
0.0
 40
1.0
 40
1.0
 10
17.25582938323384
 20
-5.75599142494071
 30
0.0
 10
17.28962519580169
 20
-5.781691499550616
 30
0.0
  0
SPLINE
  5
B27
330
A8B
100
AcDbEntity
  8
FRONT
  6
Continuous
 62
     4
100
AcDbSpline
210
0.0
220
0.0
230
1.0
 70
    24
 71
     1
 72
     4
 73
     2
 74
     0
 42
0.0000000001
 43
0.0000000001
 40
0.0
 40
0.0
 40
1.0
 40
1.0
 10
17.94307446467377
 20
-5.530945951299988
 30
0.0
 10
17.9387785253627
 20
-5.526976438079117
 30
0.0
  0
SPLINE
  5
B28
330
A8B
100
AcDbEntity
  8
FRONT
  6
Continuous
 62
     4
100
AcDbSpline
210
0.0
220
0.0
230
1.0
 70
     8
 71
     3
 72
    14
 73
    10
 74
     0
 42
0.0000000001
 43
0.0000000001
 40
0.0
 40
0.0
 40
0.0
 40
0.0
 40
0.142151055421
 40
0.2416441906233231
 40
0.337512840946061
 40
0.5226088307748542
 40
0.7069349958419002
 40
0.7832535482434971
 40
1.0
 40
1.0
 40
1.0
 40
1.0
 10
17.58957197281758
 20
-4.910128850814881
 30
0.0
 10
17.58968669457347
 20
-4.930933722154952
 30
0.0
 10
17.58527280217872
 20
-4.96494050117826
 30
0.0
 10
17.56744498013549
 20
-5.00997609003333
 30
0.0
 10
17.53896901385022
 20
-5.056105771769582
 30
0.0
 10
17.48959095851773
 20
-5.102732691476537
 30
0.0
 10
17.42845235015919
 20
-5.125843715274846
 30
0.0
 10
17.36038010976709
 20
-5.134920028137988
 30
0.0
 10
17.31826363289789
 20
-5.135515785459636
 30
0.0
 10
17.28677048324978
 20
-5.132574095267016
 30
0.0
  0
ELLIPSE
  5
B29
330
A8B
100
AcDbEntity
  8
FRONT
  6
Continuous
 62
     4
100
AcDbEllipse
 10
14.84592289431094
 20
-3.161093469702648
 30
0.0
 11
-0.8821392302302177
 21
0.4709887243754463
 31
0.0
210
0.0
220
0.0
230
1.0
 40
0.9833059182791327
 41
3.625030345689558
 42
6.283185307179584
  0
SPLINE
  5
B2A
330
A8B
100
AcDbEntity
  8
FRONT
  6
Continuous
 62
     4
100
AcDbSpline
210
0.0
220
0.0
230
1.0
 70
     8
 71
     3
 72
    16
 73
    12
 74
     0
 42
0.0000000001
 43
0.0000000001
 40
0.0
 40
0.0
 40
0.0
 40
0.0
 40
0.129148378034396
 40
0.2674644537203973
 40
0.3841582685837871
 40
0.5013560291580168
 40
0.6062428686698798
 40
0.7064204883265523
 40
0.8086161864158006
 40
0.91809676777724
 40
1.0
 40
1.0
 40
1.0
 40
1.0
 10
15.89972191180696
 20
-3.067258476064097
 30
0.0
 10
15.90909121726365
 20
-2.958913954357801
 30
0.0
 10
15.89382133999201
 20
-2.73905812340351
 30
0.0
 10
15.7767083394974
 20
-2.417696763445265
 30
0.0
 10
15.55374765832576
 20
-2.152776320541678
 30
0.0
 10
15.26778494996267
 20
-1.989804342125394
 30
0.0
 10
14.95334031998964
 20
-1.939085852191666
 30
0.0
 10
14.65311205059481
 20
-1.989438808047074
 30
0.0
 10
14.38058061019693
 20
-2.127700253828795
 30
0.0
 10
14.17726057529053
 20
-2.322863280499757
 30
0.0
 10
14.08156978624059
 20
-2.467674156401074
 30
0.0
 10
14.04700334616364
 20
-2.534248306255424
 30
0.0
  0
ELLIPSE
  5
B2B
330
A8B
100
AcDbEntity
  8
FRONT
  6
Continuous
 62
     4
100
AcDbEllipse
 10
14.80294988243358
 20
-3.241579854307761
 30
0.0
 11
-0.7939252851790806
 21
0.4238898401086228
 31
0.0
210
0.0
220
0.0
230
1.0
 40
0.9833059182800139
 41
5.213279964936608
 42
6.231612357172
  0
SPLINE
  5
B2C
330
A8B
100
AcDbEntity
  8
FRONT
  6
Continuous
 62
     4
100
AcDbSpline
210
0.0
220
0.0
230
1.0
 70
     8
 71
     3
 72
    10
 73
     6
 74
     0
 42
0.0000000001
 43
0.0000000001
 40
0.0
 40
0.0
 40
0.0
 40
0.0
 40
0.1975215270407752
 40
0.8880294744614507
 40
1.0
 40
1.0
 40
1.0
 40
1.0
 10
14.04700334616364
 20
-2.534248306255423
 30
0.0
 10
14.02979995309934
 20
-2.56708149719274
 30
0.0
 10
13.95915311772168
 20
-2.715260042725278
 30
0.0
 10
13.91596124117772
 20
-2.891939134658462
 30
0.0
 10
13.90359775925108
 20
-3.029307479047951
 30
0.0
 10
13.90234343681433
 20
-3.048492528079988
 30
0.0
  0
LINE
  5
B2D
330
A8B
100
AcDbEntity
  8
FRONT
  6
Continuous
 62
     4
100
AcDbLine
 10
15.89972191180696
 20
-3.067258476064095
 30
0.0
 11
15.84224378306065
 21
-3.174912246999863
 31
0.0
  0
ELLIPSE
  5
B2E
330
A8B
100
AcDbEntity
  8
FRONT
  6
Continuous
 62
     4
100
AcDbEllipse
 10
17.97951315599034
 20
-2.391212493543383
 30
0.0
 11
-0.4845839650356391
 21
2.565417656625252
 31
0.0
210
0.0
220
0.0
230
0.9999999999999998
 40
0.1877462969956187
 41
1.545777644991644
 42
1.748054161917929
  0
ELLIPSE
  5
B2F
330
A8B
100
AcDbEntity
  8
FRONT
  6
Continuous
 62
     4
100
AcDbEllipse
 10
12.46509142978946
 20
4.4053773937274
 30
0.0
 11
-0.7820027716041942
 21
-0.3331240993350395
 31
0.0
210
0.0
220
0.0
230
1.0
 40
0.3528380920404428
 41
1.238775038219452
 42
1.609788972500551
  0
ELLIPSE
  5
B30
330
A8B
100
AcDbEntity
  8
FRONT
  6
Continuous
 62
     4
100
AcDbEllipse
 10
12.30437911162724
 20
5.324732699532396
 30
0.0
 11
-0.1775236042668109
 21
0.8312552970357225
 31
0.0
210
0.0
220
0.0
230
1.0
 40
0.1700246401022982
 41
4.325383915281284
 42
4.740398743479548
  0
SPLINE
  5
B31
330
A8B
100
AcDbEntity
  8
FRONT
  6
Continuous
 62
     4
100
AcDbSpline
210
0.0
220
0.0
230
1.0
 70
    24
 71
     1
 72
     4
 73
     2
 74
     0
 42
0.0000000001
 43
0.0000000001
 40
0.0
 40
0.0
 40
1.0
 40
1.0
 10
12.44068581249327
 20
5.378184466683816
 30
0.0
 10
12.71058671127498
 20
5.473403005394003
 30
0.0
  0
SPLINE
  5
B32
330
A8B
100
AcDbEntity
  8
FRONT
  6
Continuous
 62
     4
100
AcDbSpline
210
0.0
220
0.0
230
1.0
 70
    24
 71
     1
 72
     4
 73
     2
 74
     0
 42
0.0000000001
 43
0.0000000001
 40
0.0
 40
0.0
 40
1.0
 40
1.0
 10
12.4453969153142
 20
4.793762731808075
 30
0.0
 10
12.55914221892536
 20
4.254904835094778
 30
0.0
  0
SPLINE
  5
B33
330
A8B
100
AcDbEntity
  8
FRONT
  6
Continuous
 62
     4
100
AcDbSpline
210
0.0
220
0.0
230
1.0
 70
    24
 71
     1
 72
     4
 73
     2
 74
     0
 42
0.0000000001
 43
0.0000000001
 40
0.0
 40
0.0
 40
1.0
 40
1.0
 10
12.3980252578104
 20
3.54383975964174
 30
0.0
 10
13.21291955543235
 20
3.601539892142867
 30
0.0
  0
SPLINE
  5
B34
330
A8B
100
AcDbEntity
  8
FRONT
  6
Continuous
 62
     4
100
AcDbSpline
210
0.0
220
0.0
230
1.0
 70
    24
 71
     1
 72
     4
 73
     2
 74
     0
 42
0.0000000001
 43
0.0000000001
 40
0.0
 40
0.0
 40
1.0
 40
1.0
 10
12.73849007715883
 20
3.667718842522095
 30
0.0
 10
12.44268010034102
 20
3.606971866039024
 30
0.0
  0
SPLINE
  5
B35
330
A8B
100
AcDbEntity
  8
FRONT
  6
Continuous
 62
     4
100
AcDbSpline
210
0.0
220
0.0
230
1.0
 70
    24
 71
     1
 72
     4
 73
     2
 74
     0
 42
0.0000000001
 43
0.0000000001
 40
0.0
 40
0.0
 40
1.0
 40
1.0
 10
12.55915629769893
 20
4.254835323750993
 30
0.0
 10
12.26801481276993
 20
4.191302768065273
 30
0.0
  0
SPLINE
  5
B36
330
A8B
100
AcDbEntity
  8
FRONT
  6
Continuous
 62
     4
100
AcDbSpline
210
0.0
220
0.0
230
1.0
 70
     8
 71
     3
 72
    12
 73
     8
 74
     0
 42
0.0000000001
 43
0.0000000001
 40
0.0
 40
0.0
 40
0.0
 40
0.0
 40
0.2744697384182955
 40
0.551325202075647
 40
0.7557784030006751
 40
0.9601016673759271
 40
1.0
 40
1.0
 40
1.0
 40
1.0
 10
12.50226080994402
 20
5.038954222702709
 30
0.0
 10
12.49336678341477
 20
5.036925287209341
 30
0.0
 10
12.47674970363677
 20
5.030709459633406
 30
0.0
 10
12.45543597836243
 20
5.016913564102337
 30
0.0
 10
12.44193220855824
 20
4.998754955080447
 30
0.0
 10
12.43759971455943
 20
4.985018509162411
 30
0.0
 10
12.43655385903655
 20
4.977536033076629
 30
0.0
 10
12.43641987849389
 20
4.976306217531559
 30
0.0
  0
SPLINE
  5
B37
330
A8B
100
AcDbEntity
  8
FRONT
  6
Continuous
 62
     4
100
AcDbSpline
210
0.0
220
0.0
230
1.0
 70
     8
 71
     2
 72
     6
 73
     3
 74
     0
 42
0.0000000001
 43
0.0000000001
 40
0.0
 40
0.0
 40
0.0
 40
1.0
 40
1.0
 40
1.0
 10
12.03715634521592
 20
5.830492901738478
 30
0.0
 10
12.99283696601092
 20
5.878254479706012
 30
0.0
 10
13.94849592177253
 20
5.910374237806076
 30
0.0
  0
ELLIPSE
  5
B38
330
A8B
100
AcDbEntity
  8
FRONT
  6
Continuous
 62
     4
100
AcDbEllipse
 10
5.662019838117116
 20
-0.0000000000333795
 30
0.0
 11
-30.04133316949641
 21
-2.588839177206942
 31
0.0
210
0.0
220
0.0
230
1.0
 40
0.161531415063552
 41
4.513346154013638
 42
4.756988358425918
  0
SPLINE
  5
B39
330
A8B
100
AcDbEntity
  8
FRONT
  6
Continuous
 62
     4
100
AcDbSpline
210
0.0
220
0.0
230
1.0
 70
     8
 71
     3
 72
    19
 73
    15
 74
     0
 42
0.0000000001
 43
0.0000000001
 40
0.0
 40
0.0
 40
0.0
 40
0.0
 40
0.0378701787910131
 40
0.0905179988905895
 40
0.1642269556926017
 40
0.2380530753730911
 40
0.3123760441477659
 40
0.3869895302976412
 40
0.46147450164389
 40
0.5851496942702218
 40
0.7092835185565466
 40
0.833157903598639
 40
0.9165781401482579
 40
1.0
 40
1.0
 40
1.0
 40
1.0
 10
1.345325372781964
 20
5.49999932711582
 30
0.0
 10
1.398511539679653
 20
5.499310768582702
 30
0.0
 10
1.538982385476854
 20
5.487566690474291
 30
0.0
 10
1.854591910925284
 20
5.418195046609993
 30
0.0
 10
2.32932910901607
 20
5.271619651707619
 30
0.0
 10
2.940855747626413
 20
5.059696886614688
 30
0.0
 10
3.6216964289096
 20
4.824065572811823
 30
0.0
 10
4.352948688096573
 20
4.581228769111549
 30
0.0
 10
5.29008644652346
 20
4.292383252863228
 30
0.0
 10
6.451194759052143
 20
3.98739059815945
 30
0.0
 10
7.838486420970312
 20
3.705173860574058
 30
0.0
 10
9.103089126275692
 20
3.529868020428326
 30
0.0
 10
10.22364537502219
 20
3.441763234081208
 30
0.0
 10
10.86882686552338
 20
3.420927197378751
 30
0.0
 10
11.19220462092714
 20
3.417991427849379
 30
0.0
  0
LINE
  5
B3A
330
A8B
100
AcDbEntity
  8
FRONT
  6
Continuous
 62
     4
100
AcDbLine
 10
1.352746725880145
 20
5.5
 30
0.0
 11
0.8660254037844552
 21
5.5
 31
0.0
  0
LINE
  5
B3B
330
A8B
100
AcDbEntity
  8
FRONT
  6
Continuous
 62
     4
100
AcDbLine
 10
11.18782140983618
 20
3.622780017417606
 30
0.0
 11
11.58072561727361
 21
4.835384189051726
 31
0.0
  0
LINE
  5
B3C
330
A8B
100
AcDbEntity
  8
FRONT
  6
Continuous
 62
     4
100
AcDbLine
 10
11.18782140983618
 20
3.622780017417606
 30
0.0
 11
12.32131357354198
 21
4.035942971686977
 31
0.0
  0
LINE
  5
B3D
330
A8B
100
AcDbEntity
  8
FRONT
  6
Continuous
 62
     4
100
AcDbLine
 10
12.1287291577043
 20
4.721327038522023
 30
0.0
 11
11.58072561727361
 21
4.835384189051726
 31
0.0
  0
LINE
  5
B3E
330
A8B
100
AcDbEntity
  8
FRONT
  6
Continuous
 62
     4
100
AcDbLine
 10
11.73862963750702
 20
5.461687541797799
 30
0.0
 11
11.82908573895635
 21
5.442860719673216
 31
0.0
  0
LINE
  5
B3F
330
A8B
100
AcDbEntity
  8
FRONT
  6
Continuous
 62
     4
100
AcDbLine
 10
11.73862963750702
 20
5.461687541797799
 30
0.0
 11
11.75466693733003
 21
5.546759538624923
 31
0.0
  0
ELLIPSE
  5
B40
330
A8B
100
AcDbEntity
  8
FRONT
  6
Continuous
 62
     4
100
AcDbEllipse
 10
11.95540632460577
 20
5.633722551958136
 30
0.0
 11
-0.806489772482009
 21
-0.5912480410211467
 31
0.0
210
0.0
220
0.0
230
1.0
 40
0.0811337619020885
 41
1.354388177432271
 42
1.745711778396149
  0
ELLIPSE
  5
B41
330
A8B
100
AcDbEntity
  8
FRONT
  6
Continuous
 62
     4
100
AcDbEllipse
 10
335.1698859889653
 20
27.65013668158367
 30
0.0
 11
-342.0959389744787
 21
-28.76099667904112
 31
0.0
210
0.0
220
0.0
230
1.0
 40
0.0434265181053538
 41
5.947803486633389
 42
5.952599622232146
  0
ELLIPSE
  5
B42
330
A8B
100
AcDbEntity
  8
FRONT
  6
Continuous
 62
     4
100
AcDbEllipse
 10
5.102677341749099
 20
0.6587726038256668
 30
0.0
 11
-7.307339427366882
 21
-3.063816270399228
 31
0.0
210
0.0
220
0.0
230
0.9999999999999998
 40
0.2481866287351503
 41
3.052623486450511
 42
3.080913953302548
  0
ELLIPSE
  5
B43
330
A8B
100
AcDbEntity
  8
FRONT
  6
Continuous
 62
     4
100
AcDbEllipse
 10
12.27250701395665
 20
5.090761460477818
 30
0.0
 11
-0.8217836972268276
 21
-0.2171901358713434
 31
0.0
210
0.0
220
0.0
230
0.9999999999999998
 40
0.3920499365775708
 41
1.292632269327997
 42
1.678371035082333
  0
ELLIPSE
  5
B44
330
A8B
100
AcDbEntity
  8
FRONT
  6
Continuous
 62
     4
100
AcDbEllipse
 10
5.40409941978987
 20
0.7686420975624931
 30
0.0
 11
-5.980729945729562
 21
-2.409864499793021
 31
0.0
210
0.0
220
0.0
230
0.9999999999999998
 40
0.3085337035018759
 41
3.290405811667822
 42
3.332639300504348
  0
ELLIPSE
  5
B45
330
A8B
100
AcDbEntity
  8
FRONT
  6
Continuous
 62
     4
100
AcDbEllipse
 10
12.04589348063163
 20
3.189576309002418
 30
0.0
 11
-0.6673421078069362
 21
-2.286566163010705
 31
0.0
210
0.0
220
0.0
230
0.9999999999999998
 40
0.3978450525441507
 41
4.63866320637629
 42
4.650929689634258
  0
ELLIPSE
  5
B46
330
A8B
100
AcDbEntity
  8
FRONT
  6
Continuous
 62
     4
100
AcDbEllipse
 10
10.73278510489058
 20
6.237522743498638
 30
0.0
 11
-0.1862105098576039
 21
-2.621606840087076
 31
0.0
210
0.0
220
0.0
230
0.9999999999999998
 40
0.4178730016605411
 41
1.036429758151679
 42
1.300166956177833
  0
ELLIPSE
  5
B47
330
A8B
100
AcDbEntity
  8
FRONT
  6
Continuous
 62
     4
100
AcDbEllipse
 10
12.25172592005139
 20
5.268705240183141
 30
0.0
 11
-0.8496785632609061
 21
0.0233738973287866
 31
0.0
210
0.0
220
0.0
230
0.9999999999999998
 40
0.3469230430269695
 41
1.426511375320845
 42
1.799447862846502
  0
ELLIPSE
  5
B48
330
A8B
100
AcDbEntity
  8
FRONT
  6
Continuous
 62
     4
100
AcDbEllipse
 10
11.78356539115273
 20
2.802384415741716
 30
0.0
 11
-1.329462075118444
 21
-0.5309569405100488
 31
0.0
210
0.0
220
0.0
230
0.9999999999999998
 40
0.8742324331760295
 41
4.730475183920662
 42
5.327454682651223
  0
SPLINE
  5
B49
330
A8B
100
AcDbEntity
  8
FRONT
  6
Continuous
 62
     4
100
AcDbSpline
210
0.0
220
0.0
230
1.0
 70
    24
 71
     1
 72
     4
 73
     2
 74
     0
 42
0.0000000001
 43
0.0000000001
 40
0.0
 40
0.0
 40
1.0
 40
1.0
 10
12.44268010034102
 20
3.606971866039025
 30
0.0
 10
12.32131357354198
 20
4.03594297168698
 30
0.0
  0
SPLINE
  5
B4A
330
A8B
100
AcDbEntity
  8
FRONT
  6
Continuous
 62
     4
100
AcDbSpline
210
0.0
220
0.0
230
1.0
 70
    24
 71
     1
 72
     4
 73
     2
 74
     0
 42
0.0000000001
 43
0.0000000001
 40
0.0
 40
0.0
 40
1.0
 40
1.0
 10
11.19220462092714
 20
3.417991427849379
 30
0.0
 10
12.3980252578104
 20
3.543839759641738
 30
0.0
  0
SPLINE
  5
B4B
330
A8B
100
AcDbEntity
  8
FRONT
  6
Continuous
 62
     4
100
AcDbSpline
210
0.0
220
0.0
230
1.0
 70
    24
 71
     1
 72
     4
 73
     2
 74
     0
 42
0.0000000001
 43
0.0000000001
 40
0.0
 40
0.0
 40
1.0
 40
1.0
 10
11.13483081029059
 20
3.485051129667143
 30
0.0
 10
11.17890053972468
 20
3.595016077432556
 30
0.0
  0
SPLINE
  5
B4C
330
A8B
100
AcDbEntity
  8
FRONT
  6
Continuous
 62
     4
100
AcDbSpline
210
0.0
220
0.0
230
1.0
 70
    24
 71
     1
 72
     4
 73
     2
 74
     0
 42
0.0000000001
 43
0.0000000001
 40
0.0
 40
0.0
 40
1.0
 40
1.0
 10
11.82908573895635
 20
5.442860719673213
 30
0.0
 10
11.75466693733006
 20
5.546759538624925
 30
0.0
  0
SPLINE
  5
B4D
330
A8B
100
AcDbEntity
  8
FRONT
  6
Continuous
 62
     4
100
AcDbSpline
210
0.0
220
0.0
230
1.0
 70
    24
 71
     1
 72
     4
 73
     2
 74
     0
 42
0.0000000001
 43
0.0000000001
 40
0.0
 40
0.0
 40
1.0
 40
1.0
 10
11.99195171433702
 20
5.828515939483442
 30
0.0
 10
12.03715635432748
 20
5.830493677100296
 30
0.0
  0
SPLINE
  5
B4E
330
A8B
100
AcDbEntity
  8
FRONT
  6
Continuous
 62
     4
100
AcDbSpline
210
0.0
220
0.0
230
1.0
 70
     8
 71
     2
 72
     6
 73
     3
 74
     0
 42
0.0000000001
 43
0.0000000001
 40
0.0
 40
0.0
 40
0.0
 40
1.0
 40
1.0
 40
1.0
 10
12.12153033356313
 20
4.980355974952971
 30
0.0
 10
12.25725557980072
 20
5.188642474664766
 30
0.0
 10
12.44068581249289
 20
5.378184466685091
 30
0.0
  0
SPLINE
  5
B4F
330
A8B
100
AcDbEntity
  8
FRONT
  6
Continuous
 62
     4
100
AcDbSpline
210
0.0
220
0.0
230
1.0
 70
    24
 71
     1
 72
     4
 73
     2
 74
     0
 42
0.0000000001
 43
0.0000000001
 40
0.0
 40
0.0
 40
1.0
 40
1.0
 10
12.14299382353853
 20
5.672179305901577
 30
0.0
 10
12.44068581249117
 20
5.378184466683152
 30
0.0
  0
SPLINE
  5
B50
330
A8B
100
AcDbEntity
  8
FRONT
  6
Continuous
 62
     4
100
AcDbSpline
210
0.0
220
0.0
230
1.0
 70
    24
 71
     1
 72
     4
 73
     2
 74
     0
 42
0.0000000001
 43
0.0000000001
 40
0.0
 40
0.0
 40
1.0
 40
1.0
 10
12.43641987849358
 20
4.976306217531615
 30
0.0
 10
12.44539691531411
 20
4.793762731808084
 30
0.0
  0
SPLINE
  5
B51
330
A8B
100
AcDbEntity
  8
FRONT
  6
Continuous
 62
     4
100
AcDbSpline
210
0.0
220
0.0
230
1.0
 70
    24
 71
     1
 72
     4
 73
     2
 74
     0
 42
0.0000000001
 43
0.0000000001
 40
0.0
 40
0.0
 40
1.0
 40
1.0
 10
12.1287291577043
 20
4.721327038522023
 30
0.0
 10
12.12153033357644
 20
4.980355974944933
 30
0.0
  0
SPLINE
  5
B52
330
A8B
100
AcDbEntity
  8
FRONT
  6
Continuous
 62
     4
100
AcDbSpline
210
0.0
220
0.0
230
1.0
 70
    24
 71
     1
 72
     4
 73
     2
 74
     0
 42
0.0000000001
 43
0.0000000001
 40
0.0
 40
0.0
 40
1.0
 40
1.0
 10
11.75466693733006
 20
5.546759538624923
 30
0.0
 10
11.77084472479986
 20
5.637701490563192
 30
0.0
  0
SPLINE
  5
B53
330
A8B
100
AcDbEntity
  8
FRONT
  6
Continuous
 62
     4
100
AcDbSpline
210
0.0
220
0.0
230
1.0
 70
    24
 71
     1
 72
     4
 73
     2
 74
     0
 42
0.0000000001
 43
0.0000000001
 40
0.0
 40
0.0
 40
1.0
 40
1.0
 10
12.26801481277344
 20
4.191302768055223
 30
0.0
 10
12.12872915770442
 20
4.721327038522042
 30
0.0
  0
SPLINE
  5
B54
330
A8B
100
AcDbEntity
  8
FRONT
  6
Continuous
 62
     4
100
AcDbSpline
210
0.0
220
0.0
230
1.0
 70
    24
 71
     1
 72
     4
 73
     2
 74
     0
 42
0.0000000001
 43
0.0000000001
 40
0.0
 40
0.0
 40
1.0
 40
1.0
 10
12.32131357354198
 20
4.035942971686977
 30
0.0
 10
12.26802043571945
 20
4.191303577397426
 30
0.0
  0
SPLINE
  5
B55
330
A8B
100
AcDbEntity
  8
FRONT
  6
Continuous
 62
     4
100
AcDbSpline
210
0.0
220
0.0
230
1.0
 70
     8
 71
     3
 72
    12
 73
     8
 74
     0
 42
0.0000000001
 43
0.0000000001
 40
0.0
 40
0.0
 40
0.0
 40
0.0
 40
0.2440298709825523
 40
0.488120310074948
 40
0.7306421972591242
 40
0.9701993202335991
 40
1.0
 40
1.0
 40
1.0
 40
1.0
 10
11.99195171433709
 20
5.828515939483442
 30
0.0
 10
11.96562176469131
 20
5.827267267325016
 30
0.0
 10
11.91614572163948
 20
5.81715304258248
 30
0.0
 10
11.84798307522928
 20
5.777355599814397
 30
0.0
 10
11.79694752140736
 20
5.718879229510207
 30
0.0
 10
11.77656470249855
 20
5.668220081294717
 30
0.0
 10
11.77135854082036
 20
5.640760675661909
 30
0.0
 10
11.77084472479986
 20
5.637701490563106
 30
0.0
  0
SPLINE
  5
B56
330
A8B
100
AcDbEntity
  8
FRONT
  6
Continuous
 62
     4
100
AcDbSpline
210
0.0
220
0.0
230
1.0
 70
    24
 71
     1
 72
     4
 73
     2
 74
     0
 42
0.0000000001
 43
0.0000000001
 40
0.0
 40
0.0
 40
1.0
 40
1.0
 10
11.10699408027199
 20
3.430964201513405
 30
0.0
 10
11.13483081029059
 20
3.485051129667143
 30
0.0
  0
SPLINE
  5
B57
330
A8B
100
AcDbEntity
  8
FRONT
  6
Continuous
 62
     4
100
AcDbSpline
210
0.0
220
0.0
230
1.0
 70
     8
 71
     2
 72
     6
 73
     3
 74
     0
 42
0.0000000001
 43
0.0000000001
 40
0.0
 40
0.0
 40
0.0
 40
1.0
 40
1.0
 40
1.0
 10
12.03715634521592
 20
5.830492901738478
 30
0.0
 10
12.08883088585918
 20
5.750552258515644
 30
0.0
 10
12.14299382353853
 20
5.672179305901581
 30
0.0
  0
SPLINE
  5
B58
330
A8B
100
AcDbEntity
  8
FRONT
  6
Continuous
 62
     4
100
AcDbSpline
210
0.0
220
0.0
230
1.0
 70
     8
 71
     2
 72
     6
 73
     3
 74
     0
 42
0.0000000001
 43
0.0000000001
 40
0.0
 40
0.0
 40
0.0
 40
1.0
 40
1.0
 40
1.0
 10
12.12153033357693
 20
4.98035597495837
 30
0.0
 10
11.94052361365615
 20
5.188224351265906
 30
0.0
 10
11.82908573895635
 20
5.442860719673213
 30
0.0
  0
LINE
  5
B59
330
A8B
100
AcDbEntity
  8
FRONT
  6
Continuous
 62
     4
100
AcDbLine
 10
17.89827503693186
 20
4.305849194799654
 30
0.0
 11
17.5908596611797
 21
2.933128552700317
 31
0.0
  0
LINE
  5
B5A
330
A8B
100
AcDbEntity
  8
FRONT
  6
Continuous
 62
     4
100
AcDbLine
 10
17.48879939540238
 20
2.948133384037639
 30
0.0
 11
17.5908596611797
 21
2.933128552700317
 31
0.0
  0
ELLIPSE
  5
B5B
330
A8B
100
AcDbEntity
  8
FRONT
  6
Continuous
 62
     4
100
AcDbEllipse
 10
17.97951315555683
 20
2.391212493729724
 30
0.0
 11
-0.4845839648273406
 21
-2.565417655414864
 31
0.0
210
0.0
220
0.0
230
1.0
 40
0.1877462969075319
 41
4.535131145218768
 42
4.737407662240475
  0
ELLIPSE
  5
B5C
330
A8B
100
AcDbEntity
  8
FRONT
  6
Continuous
 62
     4
100
AcDbEllipse
 10
14.515607907233
 20
3.779757555175363
 30
0.0
 11
-1.088811819638892
 21
-0.5813346379390692
 31
0.0
210
0.0
220
0.0
230
0.9999999999999998
 40
0.9833059182791359
 41
3.141592653589792
 42
5.933643914404618
  0
ELLIPSE
  5
B5D
330
A8B
100
AcDbEntity
  8
FRONT
  6
Continuous
 62
     4
100
AcDbEllipse
 10
14.59586354321826
 20
3.865394052024021
 30
0.0
 11
-1.19524239155921
 21
-0.6381596805011488
 31
0.0
210
0.0
220
0.0
230
0.9999999999999998
 40
0.9833059182791515
 41
2.398313761510258
 42
5.985009272386527
  0
ELLIPSE
  5
B5E
330
A8B
100
AcDbEntity
  8
FRONT
  6
Continuous
 62
     4
100
AcDbEllipse
 10
14.58257986552084
 20
3.890273741521
 30
0.0
 11
-1.274184406475827
 21
-0.6803081278529028
 31
0.0
210
0.0
220
0.0
230
1.0
 40
0.9833059182793167
 41
2.393939591548555
 42
4.152487722051174
  0
ELLIPSE
  5
B5F
330
A8B
100
AcDbEntity
  8
FRONT
  6
Continuous
 62
     4
100
AcDbEllipse
 10
14.624437821126
 20
3.811875803681258
 30
0.0
 11
-1.09830870118782
 21
-0.5864051800623212
 31
0.0
210
0.0
220
0.0
230
0.9999999999999998
 40
0.9833059182791778
 41
2.421430119237939
 42
4.646060335807838
  0
ELLIPSE
  5
B60
330
A8B
100
AcDbEntity
  8
FRONT
  6
Continuous
 62
     4
100
AcDbEllipse
 10
14.59586354321826
 20
3.865394052023983
 30
0.0
 11
-1.151135430047241
 21
-0.6146102442832692
 31
0.0
210
0.0
220
0.0
230
0.9999999999999998
 40
0.9833059182791597
 41
2.854453356631227
 42
5.726113818514622
  0
ELLIPSE
  5
B61
330
A8B
100
AcDbEntity
  8
FRONT
  6
Continuous
 62
     4
100
AcDbEllipse
 10
14.61409458346563
 20
3.831248190399238
 30
0.0
 11
-1.141300807152083
 21
-0.6093593764552427
 31
0.0
210
0.0
220
0.0
230
1.0
 40
0.9833059182793387
 41
2.854453356640041
 42
4.211497995772412
  0
ELLIPSE
  5
B62
330
A8B
100
AcDbEntity
  8
FRONT
  6
Continuous
 62
     4
100
AcDbEllipse
 10
14.58172285405612
 20
3.891878882778576
 30
0.0
 11
-1.289463506136375
 21
-0.6884658918589805
 31
0.0
210
0.0
220
0.0
230
0.9999999999999998
 40
0.9833059182791195
 41
2.395557650275635
 42
4.152487722049663
  0
SPLINE
  5
B63
330
A8B
100
AcDbEntity
  8
FRONT
  6
Continuous
 62
     4
100
AcDbSpline
210
0.0
220
0.0
230
1.0
 70
    24
 71
     1
 72
     4
 73
     2
 74
     0
 42
0.0000000001
 43
0.0000000001
 40
0.0
 40
0.0
 40
1.0
 40
1.0
 10
17.29745226804206
 20
3.509679345658438
 30
0.0
 10
13.748385681282
 20
3.593205653172363
 30
0.0
  0
SPLINE
  5
B64
330
A8B
100
AcDbEntity
  8
FRONT
  6
Continuous
 62
     4
100
AcDbSpline
210
0.0
220
0.0
230
1.0
 70
    24
 71
     1
 72
     4
 73
     2
 74
     0
 42
0.0000000001
 43
0.0000000001
 40
0.0
 40
0.0
 40
1.0
 40
1.0
 10
16.11893557758381
 20
4.995450787331964
 30
0.0
 10
15.12498870412169
 20
5.250072189631183
 30
0.0
  0
SPLINE
  5
B65
330
A8B
100
AcDbEntity
  8
FRONT
  6
Continuous
 62
     4
100
AcDbSpline
210
0.0
220
0.0
230
1.0
 70
    24
 71
     1
 72
     4
 73
     2
 74
     0
 42
0.0000000001
 43
0.0000000001
 40
0.0
 40
0.0
 40
1.0
 40
1.0
 10
17.59489872014192
 20
5.975264142052812
 30
0.0
 10
14.60613712230076
 20
5.930601946215392
 30
0.0
  0
SPLINE
  5
B66
330
A8B
100
AcDbEntity
  8
FRONT
  6
Continuous
 62
     4
100
AcDbSpline
210
0.0
220
0.0
230
1.0
 70
    24
 71
     1
 72
     4
 73
     2
 74
     0
 42
0.0000000001
 43
0.0000000001
 40
0.0
 40
0.0
 40
1.0
 40
1.0
 10
14.92350318018168
 20
5.636516777042869
 30
0.0
 10
16.19668973819389
 20
5.335334408581799
 30
0.0
  0
LINE
  5
B67
330
A8B
100
AcDbEntity
  8
FRONT
  6
Continuous
 62
     4
100
AcDbLine
 10
15.10230670790777
 20
4.183313301931558
 30
0.0
 11
15.04448787470278
 21
4.291605195933396
 31
0.0
  0
LINE
  5
B68
330
A8B
100
AcDbEntity
  8
FRONT
  6
Continuous
 62
     4
100
AcDbLine
 10
15.1976496365405
 20
3.611859513448073
 30
0.0
 11
15.22617856444389
 21
3.55842620348231
 31
0.0
  0
LINE
  5
B69
330
A8B
100
AcDbEntity
  8
FRONT
  6
Continuous
 62
     4
100
AcDbLine
 10
13.80446405246526
 20
3.591885864106183
 30
0.0
 11
13.80379348619884
 21
3.593141802474725
 31
0.0
  0
LINE
  5
B6A
330
A8B
100
AcDbEntity
  8
FRONT
  6
Continuous
 62
     4
100
AcDbLine
 10
14.83756674726533
 20
5.331362856545027
 30
0.0
 11
14.69295620412083
 21
5.331857548057461
 31
0.0
  0
LINE
  5
B6B
330
A8B
100
AcDbEntity
  8
FRONT
  6
Continuous
 62
     4
100
AcDbLine
 10
14.05370990737933
 20
4.186900398182689
 30
0.0
 11
13.99589107417434
 21
4.295192292184527
 31
0.0
  0
LINE
  5
B6C
330
A8B
100
AcDbEntity
  8
FRONT
  6
Continuous
 62
     4
100
AcDbLine
 10
14.44227717851973
 20
4.461613941808328
 30
0.0
 11
14.40175106321881
 21
4.382834230900383
 31
0.0
  0
LINE
  5
B6D
330
A8B
100
AcDbEntity
  8
FRONT
  6
Continuous
 62
     4
100
AcDbLine
 10
14.36658232700411
 20
4.549988550519463
 30
0.0
 11
14.38057235479898
 21
4.577184109163312
 31
0.0
  0
LINE
  5
B6E
330
A8B
100
AcDbEntity
  8
FRONT
  6
Continuous
 62
     4
100
AcDbLine
 10
14.40175106321881
 20
4.382834230900383
 30
0.0
 11
14.3439322300138
 21
4.491126124902223
 31
0.0
  0
LINE
  5
B6F
330
A8B
100
AcDbEntity
  8
FRONT
  6
Continuous
 62
     4
100
AcDbLine
 10
13.934096024833
 20
4.306515336617805
 30
0.0
 11
13.903565927193
 21
4.308647770791533
 31
0.0
  0
LINE
  5
B70
330
A8B
100
AcDbEntity
  8
FRONT
  6
Continuous
 62
     4
100
AcDbLine
 10
13.77533931878937
 20
4.042581236833521
 30
0.0
 11
13.75872784864233
 21
4.067853483548937
 31
0.0
  0
LINE
  5
B71
330
A8B
100
AcDbEntity
  8
FRONT
  6
Continuous
 62
     4
100
AcDbLine
 10
13.96527075091378
 20
4.193077603436552
 30
0.0
 11
14.05370990737933
 21
4.186900398182689
 31
0.0
  0
LINE
  5
B72
330
A8B
100
AcDbEntity
  8
FRONT
  6
Continuous
 62
     4
100
AcDbLine
 10
13.96527075091378
 20
4.193077603436552
 30
0.0
 11
13.903565927193
 21
4.308647770791533
 31
0.0
  0
LINE
  5
B73
330
A8B
100
AcDbEntity
  8
FRONT
  6
Continuous
 62
     4
100
AcDbLine
 10
15.248091543825
 20
4.037543166926568
 30
0.0
 11
15.26559078171205
 21
4.062698725899988
 31
0.0
  0
LINE
  5
B74
330
A8B
100
AcDbEntity
  8
FRONT
  6
Continuous
 62
     4
100
AcDbLine
 10
15.19095269576139
 20
4.18888472481321
 30
0.0
 11
15.10230670790777
 21
4.183313301931558
 31
0.0
  0
LINE
  5
B75
330
A8B
100
AcDbEntity
  8
FRONT
  6
Continuous
 62
     4
100
AcDbLine
 10
14.71128105223291
 20
4.474369018649596
 30
0.0
 11
14.76822961098702
 21
4.367707106841534
 31
0.0
  0
LINE
  5
B76
330
A8B
100
AcDbEntity
  8
FRONT
  6
Continuous
 62
     4
100
AcDbLine
 10
15.09864637409872
 20
4.302531580239758
 30
0.0
 11
15.12924787204065
 21
4.304454892168187
 31
0.0
  0
LINE
  5
B77
330
A8B
100
AcDbEntity
  8
FRONT
  6
Continuous
 62
     4
100
AcDbLine
 10
15.19095269576139
 20
4.18888472481321
 30
0.0
 11
15.12924787204065
 21
4.304454892168187
 31
0.0
  0
LINE
  5
B78
330
A8B
100
AcDbEntity
  8
FRONT
  6
Continuous
 62
     4
100
AcDbLine
 10
13.88468018453357
 20
3.851921520671986
 30
0.0
 11
13.82879362639822
 21
3.956594356394368
 31
0.0
  0
LINE
  5
B79
330
A8B
100
AcDbEntity
  8
FRONT
  6
Continuous
 62
     4
100
AcDbLine
 10
14.44227717851973
 20
4.461613941808328
 30
0.0
 11
14.38057235479898
 21
4.577184109163312
 31
0.0
  0
LINE
  5
B7A
330
A8B
100
AcDbEntity
  8
FRONT
  6
Continuous
 62
     4
100
AcDbLine
 10
14.67478420277406
 20
4.548934236990556
 30
0.0
 11
14.66175334302106
 21
4.576222230137708
 31
0.0
  0
LINE
  5
B7B
330
A8B
100
AcDbEntity
  8
FRONT
  6
Continuous
 62
     4
100
AcDbLine
 10
15.22782923901037
 20
3.55838735530968
 30
0.0
 11
15.21184500108873
 21
3.588325064231844
 31
0.0
  0
ELLIPSE
  5
B7C
330
A8B
100
AcDbEntity
  8
FRONT
  6
Continuous
 62
     4
100
AcDbEllipse
 10
14.57425026010683
 20
3.669923248444872
 30
0.0
 11
-0.5697208004759025
 21
-0.3041833576987884
 31
0.0
210
0.0
220
0.0
230
1.0
 40
0.9833059182803454
 41
3.141592653589792
 42
4.211497995854738
  0
ELLIPSE
  5
B7D
330
A8B
100
AcDbEntity
  8
FRONT
  6
Continuous
 62
     4
100
AcDbEllipse
 10
14.69467022705201
 20
5.328647265550291
 30
0.0
 11
-0.0012380506136597
 21
-0.0199616439988246
 31
0.0
210
0.0
220
0.0
230
1.0
 40
0.0966394604989199
 41
4.556861561911704
 42
5.60405911256103
  0
ELLIPSE
  5
B7E
330
A8B
100
AcDbEntity
  8
FRONT
  6
Continuous
 62
     4
100
AcDbEllipse
 10
15.13698707744814
 20
4.149555768557871
 30
0.0
 11
-0.1387163939545198
 21
-0.0740629769062388
 31
0.0
210
0.0
220
0.0
230
1.0
 40
0.983305918279537
 41
3.141592653589792
 42
4.278357181632673
  0
ELLIPSE
  5
B7F
330
A8B
100
AcDbEntity
  8
FRONT
  6
Continuous
 62
     4
100
AcDbEllipse
 10
14.56910786775645
 20
3.679554149551463
 30
0.0
 11
-0.5697232499858903
 21
-0.3041793370702448
 31
0.0
210
0.0
220
0.0
230
1.0
 40
0.9833058533003276
 41
2.4521226627569
 42
2.51349782037308
  0
ELLIPSE
  5
B80
330
A8B
100
AcDbEntity
  8
FRONT
  6
Continuous
 62
     4
100
AcDbEllipse
 10
15.13698707744945
 20
4.149555768557799
 30
0.0
 11
-0.1387163939436924
 21
-0.0740629769240791
 31
0.0
210
0.0
220
0.0
230
1.0
 40
0.9833059182820004
 41
2.05024370739385
 42
3.141592653473066
  0
ELLIPSE
  5
B81
330
A8B
100
AcDbEntity
  8
FRONT
  6
Continuous
 62
     4
100
AcDbEllipse
 10
13.95207889255067
 20
4.038250081933183
 30
0.0
 11
-0.138716393954182
 21
-0.0740629769072034
 31
0.0
210
0.0
220
0.0
230
1.0
 40
0.9833059182793643
 41
4.144638809916375
 42
6.033222504441043
  0
ELLIPSE
  5
B82
330
A8B
100
AcDbEntity
  8
FRONT
  6
Continuous
 62
     4
100
AcDbEllipse
 10
14.50740336589031
 20
3.795124266565245
 30
0.0
 11
-0.6878480648487471
 21
-0.3672534576645039
 31
0.0
210
0.0
220
0.0
230
1.0
 40
0.9833059182825293
 41
3.364014017275521
 42
4.011784423528292
  0
ELLIPSE
  5
B83
330
A8B
100
AcDbEntity
  8
FRONT
  6
Continuous
 62
     4
100
AcDbEllipse
 10
15.19869190116777
 20
4.03398560119947
 30
0.0
 11
-0.1387163939305158
 21
-0.0740629769569428
 31
0.0
210
0.0
220
0.0
230
0.9999999999999998
 40
0.9833059182794855
 41
3.579055150075236
 42
4.278357181272085
  0
ELLIPSE
  5
B84
330
A8B
100
AcDbEntity
  8
FRONT
  6
Continuous
 62
     4
100
AcDbEllipse
 10
14.57425026010534
 20
3.669923248441066
 30
0.0
 11
-0.5697208004536415
 21
-0.3041833577478669
 31
0.0
210
0.0
220
0.0
230
1.0
 40
0.9833059182795919
 41
4.211497995770305
 42
5.916687780929657
  0
ELLIPSE
  5
B85
330
A8B
100
AcDbEntity
  8
FRONT
  6
Continuous
 62
     4
100
AcDbEllipse
 10
14.51995578064691
 20
4.508250739867492
 30
0.0
 11
-0.1387190760836097
 21
-0.074062710247625
 31
0.0
210
0.0
220
0.0
230
1.0
 40
0.9832989179835243
 41
3.097450943316431
 42
3.141602023580455
  0
ELLIPSE
  5
B86
330
A8B
100
AcDbEntity
  8
FRONT
  6
Continuous
 62
     4
100
AcDbEllipse
 10
14.51995778039392
 20
4.508251751292131
 30
0.0
 11
-0.1387163939537963
 21
-0.0740629769078515
 31
0.0
210
0.0
220
0.0
230
1.0
 40
0.9833059182791126
 41
3.141592653589792
 42
5.325554732817813
  0
ELLIPSE
  5
B87
330
A8B
100
AcDbEntity
  8
FRONT
  6
Continuous
 62
     4
100
AcDbEllipse
 10
14.60429708204515
 20
3.613646995939661
 30
0.0
 11
-0.3532268962687824
 21
-0.1885936818296914
 31
0.0
210
0.0
220
0.0
230
1.0
 40
0.9833059182785307
 41
3.188548543609073
 42
4.2114979956971
  0
ELLIPSE
  5
B88
330
A8B
100
AcDbEntity
  8
FRONT
  6
Continuous
 62
     4
100
AcDbEllipse
 10
14.08380160591652
 20
4.540074528313537
 30
0.0
 11
-0.3164233418824987
 21
-0.1689436554341971
 31
0.0
210
0.0
220
0.0
230
1.0
 40
0.9833059182770933
 41
1.003046156315968
 42
2.183962079224544
  0
ELLIPSE
  5
B89
330
A8B
100
AcDbEntity
  8
FRONT
  6
Continuous
 62
     4
100
AcDbEllipse
 10
14.50740336587441
 20
3.795124266572471
 30
0.0
 11
-0.6878480647677431
 21
-0.3672534578178684
 31
0.0
210
0.0
220
0.0
230
1.0
 40
0.9833059182652659
 41
4.411211568248791
 42
5.058981974505009
  0
ELLIPSE
  5
B8A
330
A8B
100
AcDbEntity
  8
FRONT
  6
Continuous
 62
     4
100
AcDbEllipse
 10
14.58172285396982
 20
3.891878882787051
 30
0.0
 11
-1.289463505490719
 21
-0.6884658929129687
 31
0.0
210
0.0
220
0.0
230
1.0
 40
0.9833059182902299
 41
5.42507150311212
 42
5.993725673721996
  0
ELLIPSE
  5
B8B
330
A8B
100
AcDbEntity
  8
FRONT
  6
Continuous
 62
     4
100
AcDbEllipse
 10
13.97044885753497
 20
5.616005562204333
 30
0.0
 11
-0.0211384512596285
 21
-0.8497371156793303
 31
0.0
210
0.0
220
0.0
230
0.9999999999999998
 40
0.1896634436923256
 41
1.168100390367426
 42
1.749625419812159
  0
ELLIPSE
  5
B8C
330
A8B
100
AcDbEntity
  8
FRONT
  6
Continuous
 62
     4
100
AcDbEllipse
 10
14.58166260411466
 20
4.392681583937155
 30
0.0
 11
-0.138716393954067
 21
-0.0740629769073293
 31
0.0
210
0.0
220
0.0
230
1.0
 40
0.9833059182794162
 41
3.353232323526823
 42
5.325554732821572
  0
ELLIPSE
  5
B8D
330
A8B
100
AcDbEntity
  8
FRONT
  6
Continuous
 62
     4
100
AcDbEllipse
 10
13.89037417432644
 20
4.153820311544767
 30
0.0
 11
-0.1387164275215775
 21
-0.0740631738835355
 31
0.0
210
0.0
220
0.0
230
1.0
 40
0.9833055364643515
 41
6.283184319510271
 42
6.372751261455347
  0
ELLIPSE
  5
B8E
330
A8B
100
AcDbEntity
  8
FRONT
  6
Continuous
 62
     4
100
AcDbEllipse
 10
14.50740336586205
 20
3.795124266556618
 30
0.0
 11
-0.6878480646011706
 21
-0.3672534581129616
 31
0.0
210
0.0
220
0.0
230
1.0
 40
0.9833059182837756
 41
5.458409119012037
 42
6.053253327806824
  0
ELLIPSE
  5
B8F
330
A8B
100
AcDbEntity
  8
FRONT
  6
Continuous
 62
     4
100
AcDbEllipse
 10
14.58207327753735
 20
3.891222556444417
 30
0.0
 11
-1.314616796581824
 21
-0.7018956497286183
 31
0.0
210
0.0
220
0.0
230
1.0
 40
0.9833059182747907
 41
4.552187304562112
 42
5.292715336509727
  0
ELLIPSE
  5
B90
330
A8B
100
AcDbEntity
  8
FRONT
  6
Continuous
 62
     4
100
AcDbEllipse
 10
14.58688798533232
 20
3.646253396861238
 30
0.0
 11
-0.3532268962957501
 21
-0.1885936817720534
 31
0.0
210
0.0
220
0.0
230
1.0
 40
0.9833059182800568
 41
3.141592653589792
 42
4.211497995858031
  0
ELLIPSE
  5
B91
330
A8B
100
AcDbEntity
  8
FRONT
  6
Continuous
 62
     4
100
AcDbEllipse
 10
5.175521261857809
 20
0.522334779761014
 30
0.0
 11
-7.504621568768301
 21
-3.321134731786813
 31
0.0
210
0.0
220
0.0
230
1.0
 40
0.3415132900699109
 41
3.041715105904696
 42
3.07577658346799
  0
ELLIPSE
  5
B92
330
A8B
100
AcDbEntity
  8
FRONT
  6
Continuous
 62
     4
100
AcDbEllipse
 10
14.58688798535681
 20
3.646253396862428
 30
0.0
 11
-0.3532268961353468
 21
-0.1885936820254782
 31
0.0
210
0.0
220
0.0
230
1.0
 40
0.9833059183033368
 41
2.433542523355816
 42
3.141592652947553
  0
ELLIPSE
  5
B93
330
A8B
100
AcDbEntity
  8
FRONT
  6
Continuous
 62
     4
100
AcDbEllipse
 10
14.60429708204586
 20
3.613646995941261
 30
0.0
 11
-0.3532268962799985
 21
-0.1885936818057033
 31
0.0
210
0.0
220
0.0
230
1.0
 40
0.9833059182790311
 41
4.211497995764053
 42
5.866656694161925
  0
ELLIPSE
  5
B94
330
A8B
100
AcDbEntity
  8
FRONT
  6
Continuous
 62
     4
100
AcDbEllipse
 10
14.61409458346357
 20
3.831248190401323
 30
0.0
 11
-1.141300807144346
 21
-0.6093593764680998
 31
0.0
210
0.0
220
0.0
230
1.0
 40
0.9833059182778084
 41
4.211497995759971
 42
5.305260955205678
  0
ELLIPSE
  5
B95
330
A8B
100
AcDbEntity
  8
FRONT
  6
Continuous
 62
     4
100
AcDbEllipse
 10
14.58172613529574
 20
3.891872737174622
 30
0.0
 11
-1.2898928947353
 21
-0.6886951495342341
 31
0.0
210
0.0
220
0.0
230
0.9999999999999998
 40
0.9833059182785364
 41
4.211497995763918
 42
5.292715336570157
  0
ELLIPSE
  5
B96
330
A8B
100
AcDbEntity
  8
FRONT
  6
Continuous
 62
     4
100
AcDbEllipse
 10
14.56910818960469
 20
3.679554099198936
 30
0.0
 11
-0.5697208004516448
 21
-0.3041833577510329
 31
0.0
210
0.0
220
0.0
230
0.9999999999999998
 40
0.9833059182790732
 41
4.211497995764176
 42
5.932188545061793
  0
ELLIPSE
  5
B97
330
A8B
100
AcDbEntity
  8
FRONT
  6
Continuous
 62
     4
100
AcDbEllipse
 10
12.57015373105181
 20
5.400676431794027
 30
0.0
 11
-0.2869743301033756
 21
0.8000910781621206
 31
0.0
210
0.0
220
0.0
230
1.0
 40
0.1844576932552187
 41
4.318012958595913
 42
4.737148911237754
  0
ELLIPSE
  5
B98
330
A8B
100
AcDbEntity
  8
FRONT
  6
Continuous
 62
     4
100
AcDbEllipse
 10
14.50740336588399
 20
3.79512426655381
 30
0.0
 11
-0.8808790105358404
 21
-0.4703158722400647
 31
0.0
210
0.0
220
0.0
230
1.0
 40
0.9833059182791467
 41
2.390668816843747
 42
5.988551940869403
  0
ELLIPSE
  5
B99
330
A8B
100
AcDbEntity
  8
FRONT
  6
Continuous
 62
     4
100
AcDbEllipse
 10
14.76472077294693
 20
5.467799863486599
 30
0.0
 11
-0.2364016993902184
 21
-0.8164644729534451
 31
0.0
210
0.0
220
0.0
230
0.9999999999999998
 40
0.1280545533618557
 41
1.440078277354396
 42
1.815854610802254
  0
ELLIPSE
  5
B9A
330
A8B
100
AcDbEntity
  8
FRONT
  6
Continuous
 62
     4
100
AcDbEllipse
 10
14.58257986552555
 20
3.890273741520238
 30
0.0
 11
-1.274184406513254
 21
-0.6803081277927215
 31
0.0
210
0.0
220
0.0
230
0.9999999999999998
 40
0.9833059182784806
 41
5.425071504014952
 42
5.994214383758207
  0
ELLIPSE
  5
B9B
330
A8B
100
AcDbEntity
  8
FRONT
  6
Continuous
 62
     4
100
AcDbEllipse
 10
13.78292511660905
 20
5.616499995611142
 30
0.0
 11
-0.0163260565688646
 21
0.8498431972198538
 31
0.0
210
0.0
220
0.0
230
1.0
 40
0.1967958030989425
 41
4.311714536223275
 42
4.876679898782334
  0
ELLIPSE
  5
B9C
330
A8B
100
AcDbEntity
  8
FRONT
  6
Continuous
 62
     4
100
AcDbEllipse
 10
14.50740336587235
 20
3.795124266552682
 30
0.0
 11
-0.6878480648432717
 21
-0.3672534577212541
 31
0.0
210
0.0
220
0.0
230
1.0
 40
0.9833059182736951
 41
2.316816466017689
 42
2.964586872260165
  0
ELLIPSE
  5
B9D
330
A8B
100
AcDbEntity
  8
FRONT
  6
Continuous
 62
     4
100
AcDbEllipse
 10
14.56910818960365
 20
3.679554099196997
 30
0.0
 11
-0.5697208004383743
 21
-0.3041833577798674
 31
0.0
210
0.0
220
0.0
230
0.9999999999999998
 40
0.9833059182783683
 41
3.141592653589792
 42
4.211497995714275
  0
ELLIPSE
  5
B9E
330
A8B
100
AcDbEntity
  8
FRONT
  6
Continuous
 62
     4
100
AcDbEllipse
 10
14.61736004955248
 20
5.312895778975766
 30
0.0
 11
-0.0004109759370388
 21
-0.119983668084697
 31
0.0
210
0.0
220
0.0
230
0.9999999999999998
 40
0.0873685432136738
 41
4.487162694202337
 42
4.526241732837313
  0
ELLIPSE
  5
B9F
330
A8B
100
AcDbEntity
  8
FRONT
  6
Continuous
 62
     4
100
AcDbEllipse
 10
14.56910819127553
 20
3.679554099860636
 30
0.0
 11
-0.5697207959968914
 21
-0.3041833623035364
 31
0.0
210
0.0
220
0.0
230
1.0
 40
0.9833059196149559
 41
2.938742608956589
 42
3.141592644282478
  0
ELLIPSE
  5
BA0
330
A8B
100
AcDbEntity
  8
FRONT
  6
Continuous
 62
     4
100
AcDbEllipse
 10
15.08465295287089
 20
4.536650762276023
 30
0.0
 11
-0.3164233418788596
 21
-0.1689436554438716
 31
0.0
210
0.0
220
0.0
230
0.9999999999999998
 40
0.9833059182783118
 41
0.0
 42
1.136764527997376
  0
ELLIPSE
  5
BA1
330
A8B
100
AcDbEntity
  8
FRONT
  6
Continuous
 62
     4
100
AcDbEllipse
 10
14.58258259988541
 20
3.890268620186363
 30
0.0
 11
-1.274168156721289
 21
-0.6802994518514309
 31
0.0
210
0.0
220
0.0
230
0.9999999999999998
 40
0.9833059182777518
 41
4.211497995758451
 42
5.292715337516466
  0
ELLIPSE
  5
BA2
330
A8B
100
AcDbEntity
  8
FRONT
  6
Continuous
 62
     4
100
AcDbEllipse
 10
13.89037406882998
 20
4.153820249288088
 30
0.0
 11
-0.1387163939551331
 21
-0.0740629769055295
 31
0.0
210
0.0
220
0.0
230
0.9999999999999998
 40
0.9833059182795551
 41
4.144638809929066
 42
6.283185307179584
  0
ELLIPSE
  5
BA3
330
A8B
100
AcDbEntity
  8
FRONT
  6
Continuous
 62
     4
100
AcDbEllipse
 10
13.56825684262709
 20
3.682977865236207
 30
0.0
 11
-0.3164233420262994
 21
-0.1689436552114316
 31
0.0
210
0.0
220
0.0
230
0.9999999999999998
 40
0.983305918256555
 41
2.372365793430126
 42
3.141592654310951
  0
ELLIPSE
  5
BA4
330
A8B
100
AcDbEntity
  8
FRONT
  6
Continuous
 62
     4
100
AcDbEllipse
 10
14.5868879853312
 20
3.646253396859196
 30
0.0
 11
-0.3532268962794111
 21
-0.1885936818066905
 31
0.0
210
0.0
220
0.0
230
1.0
 40
0.9833059182788758
 41
4.211497995761056
 42
5.951301366806
  0
SPLINE
  5
BA5
330
A8B
100
AcDbEntity
  8
FRONT
  6
Continuous
 62
     4
100
AcDbSpline
210
0.0
220
0.0
230
1.0
 70
    24
 71
     1
 72
     4
 73
     2
 74
     0
 42
0.0000000001
 43
0.0000000001
 40
0.0
 40
0.0
 40
1.0
 40
1.0
 10
14.69249519034973
 20
5.313189824235679
 30
0.0
 10
14.60768112625891
 20
5.315938369092338
 30
0.0
  0
SPLINE
  5
BA6
330
A8B
100
AcDbEntity
  8
FRONT
  6
Continuous
 62
     4
100
AcDbSpline
210
0.0
220
0.0
230
1.0
 70
    24
 71
     1
 72
     4
 73
     2
 74
     0
 42
0.0000000001
 43
0.0000000001
 40
0.0
 40
0.0
 40
1.0
 40
1.0
 10
14.83756674726533
 20
5.331362856545028
 30
0.0
 10
14.68992440208029
 20
5.336837850675596
 30
0.0
  0
SPLINE
  5
BA7
330
A8B
100
AcDbEntity
  8
FRONT
  6
Continuous
 62
     4
100
AcDbSpline
210
0.0
220
0.0
230
1.0
 70
    24
 71
     1
 72
     4
 73
     2
 74
     0
 42
0.0000000001
 43
0.0000000001
 40
0.0
 40
0.0
 40
1.0
 40
1.0
 10
12.81667247474081
 20
5.142126865126981
 30
0.0
 10
12.502260809944
 20
5.038954222702708
 30
0.0
  0
SPLINE
  5
BA8
330
A8B
100
AcDbEntity
  8
FRONT
  6
Continuous
 62
     4
100
AcDbSpline
210
0.0
220
0.0
230
1.0
 70
     8
 71
     2
 72
     6
 73
     3
 74
     0
 42
0.0000000001
 43
0.0000000001
 40
0.0
 40
0.0
 40
0.0
 40
1.0
 40
1.0
 40
1.0
 10
13.94329233751025
 20
5.287986048440243
 30
0.0
 10
13.36904800632871
 20
5.308177948949881
 30
0.0
 10
12.81667247474081
 20
5.142126865127038
 30
0.0
  0
SPLINE
  5
BA9
330
A8B
100
AcDbEntity
  8
FRONT
  6
Continuous
 62
     4
100
AcDbSpline
210
0.0
220
0.0
230
1.0
 70
     8
 71
     3
 72
    11
 73
     7
 74
     0
 42
0.0000000001
 43
0.0000000001
 40
0.0
 40
0.0
 40
0.0
 40
0.0
 40
0.2500000000004002
 40
0.5000000000000384
 40
0.7500000000002445
 40
1.0
 40
1.0
 40
1.0
 40
1.0
 10
13.24329890969342
 20
4.393410854946448
 30
0.0
 10
13.24233341373558
 20
4.393971351428181
 30
0.0
 10
13.24014478598936
 20
4.395146401648325
 30
0.0
 10
13.23597462327683
 20
4.397127664258944
 30
0.0
 10
13.23126018027509
 20
4.399158067618833
 30
0.0
 10
13.22803724322823
 20
4.400426501220721
 30
0.0
 10
13.22638220773661
 20
4.401049253290286
 30
0.0
  0
SPLINE
  5
BAA
330
A8B
100
AcDbEntity
  8
FRONT
  6
Continuous
 62
     4
100
AcDbSpline
210
0.0
220
0.0
230
1.0
 70
    24
 71
     1
 72
     4
 73
     2
 74
     0
 42
0.0000000001
 43
0.0000000001
 40
0.0
 40
0.0
 40
1.0
 40
1.0
 10
14.13280283862451
 20
5.763209387832385
 30
0.0
 10
14.60909340460244
 20
5.711114127719043
 30
0.0
  0
SPLINE
  5
BAB
330
A8B
100
AcDbEntity
  8
FRONT
  6
Continuous
 62
     4
100
AcDbSpline
210
0.0
220
0.0
230
1.0
 70
    24
 71
     1
 72
     4
 73
     2
 74
     0
 42
0.0000000001
 43
0.0000000001
 40
0.0
 40
0.0
 40
1.0
 40
1.0
 10
14.6090865051094
 20
5.711625498686736
 30
0.0
 10
14.92350318018168
 20
5.636516777042869
 30
0.0
  0
SPLINE
  5
BAC
330
A8B
100
AcDbEntity
  8
FRONT
  6
Continuous
 62
     4
100
AcDbSpline
210
0.0
220
0.0
230
1.0
 70
    24
 71
     1
 72
     4
 73
     2
 74
     0
 42
0.0000000001
 43
0.0000000001
 40
0.0
 40
0.0
 40
1.0
 40
1.0
 10
14.70338694437526
 20
4.489896482910467
 30
0.0
 10
14.71097785761778
 20
4.474938976988299
 30
0.0
  0
SPLINE
  5
BAD
330
A8B
100
AcDbEntity
  8
FRONT
  6
Continuous
 62
     4
100
AcDbSpline
210
0.0
220
0.0
230
1.0
 70
    24
 71
     1
 72
     4
 73
     2
 74
     0
 42
0.0000000001
 43
0.0000000001
 40
0.0
 40
0.0
 40
1.0
 40
1.0
 10
13.94524870938069
 20
5.758663903675718
 30
0.0
 10
13.94849591684476
 20
5.910374238520851
 30
0.0
  0
SPLINE
  5
BAE
330
A8B
100
AcDbEntity
  8
FRONT
  6
Continuous
 62
     4
100
AcDbSpline
210
0.0
220
0.0
230
1.0
 70
     8
 71
     3
 72
    27
 73
    23
 74
     0
 42
0.0000000001
 43
0.0000000001
 40
0.0
 40
0.0
 40
0.0
 40
0.0
 40
0.2366252197469015
 40
0.5011857703755036
 40
0.6170954909511118
 40
0.6813809129738626
 40
0.7150700700809978
 40
0.7322963567034382
 40
0.7410042896839962
 40
0.7453818723743754
 40
0.7475765575058172
 40
0.7486753722519263
 40
0.7492251475017373
 40
0.7495001270756441
 40
0.7496376398473227
 40
0.7497064019790262
 40
0.7497407844813076
 40
0.7497751679411861
 40
0.7516543580812576
 40
0.7684406215659994
 40
0.8166950275236356
 40
1.0
 40
1.0
 40
1.0
 40
1.0
 10
14.60909339101644
 20
5.711114124413491
 30
0.0
 10
14.60948781698238
 20
5.682031763659281
 30
0.0
 10
14.61005082917718
 20
5.620220915826541
 30
0.0
 10
14.61001311662804
 20
5.543096055524626
 30
0.0
 10
14.60961852963504
 20
5.487687827984436
 30
0.0
 10
14.60933943853557
 20
5.461104315057176
 30
0.0
 10
14.60916381097548
 20
5.446814350617032
 30
0.0
 10
14.60906622380328
 20
5.439426844543143
 30
0.0
 10
14.60901490310633
 20
5.435673462883299
 30
0.0
 10
14.60898860047587
 20
5.4337819906927
 30
0.0
 10
14.60897045899501
 20
5.432493419559841
 30
0.0
 10
14.60896905688914
 20
5.432393429389828
 30
0.0
 10
14.60896765478331
 20
5.432293439219815
 30
0.0
 10
14.60896625267744
 20
5.432193449049803
 30
0.0
 10
14.6089648505716
 20
5.43209345887979
 30
0.0
 10
14.60896344846577
 20
5.431993468709777
 30
0.0
 10
14.60896204635992
 20
5.431893478539762
 30
0.0
 10
14.60895863749725
 20
5.431652428828829
 30
0.0
 10
14.60892682016698
 20
5.429338529498513
 30
0.0
 10
14.60881020481483
 20
5.421061993311028
 30
0.0
 10
14.6083339813956
 20
5.390397134061578
 30
0.0
 10
14.60776482101609
 20
5.362037547077322
 30
0.0
 10
14.60723379104669
 20
5.339726363785728
 30
0.0
  0
SPLINE
  5
BAF
330
A8B
100
AcDbEntity
  8
FRONT
  6
Continuous
 62
     4
100
AcDbSpline
210
0.0
220
0.0
230
1.0
 70
    24
 71
     1
 72
     4
 73
     2
 74
     0
 42
0.0000000001
 43
0.0000000001
 40
0.0
 40
0.0
 40
1.0
 40
1.0
 10
13.77533931878937
 20
4.042581236833521
 30
0.0
 10
13.81073371171078
 20
3.987366922169501
 30
0.0
  0
SPLINE
  5
BB0
330
A8B
100
AcDbEntity
  8
FRONT
  6
Continuous
 62
     4
100
AcDbSpline
210
0.0
220
0.0
230
1.0
 70
    24
 71
     1
 72
     4
 73
     2
 74
     0
 42
0.0000000001
 43
0.0000000001
 40
0.0
 40
0.0
 40
1.0
 40
1.0
 10
15.248091543825
 20
4.037543166926567
 30
0.0
 10
15.21878522660067
 20
3.982550183926618
 30
0.0
  0
SPLINE
  5
BB1
330
A8B
100
AcDbEntity
  8
FRONT
  6
Continuous
 62
     4
100
AcDbSpline
210
0.0
220
0.0
230
1.0
 70
     8
 71
     3
 72
    13
 73
     9
 74
     0
 42
0.0000000001
 43
0.0000000001
 40
0.0
 40
0.0
 40
0.0
 40
0.0
 40
0.2195179240467221
 40
0.3900257003637577
 40
0.5330606690638802
 40
0.6760211201067881
 40
0.8783846008238288
 40
1.0
 40
1.0
 40
1.0
 40
1.0
 10
13.99589107417438
 20
4.295192292184528
 30
0.0
 10
14.02503990650797
 20
4.289018514220859
 30
0.0
 10
14.07813545040565
 20
4.286623059621509
 30
0.0
 10
14.15671911404191
 20
4.301478243787753
 30
0.0
 10
14.22171844805865
 20
4.332770470360475
 30
0.0
 10
14.28033457719675
 20
4.380945161854135
 30
0.0
 10
14.3195727746653
 20
4.436285674998737
 30
0.0
 10
14.33825358880528
 20
4.475847256447878
 30
0.0
 10
14.3439322300138
 20
4.491126124902221
 30
0.0
  0
SPLINE
  5
BB2
330
A8B
100
AcDbEntity
  8
FRONT
  6
Continuous
 62
     4
100
AcDbSpline
210
0.0
220
0.0
230
1.0
 70
    24
 71
     1
 72
     4
 73
     2
 74
     0
 42
0.0000000001
 43
0.0000000001
 40
0.0
 40
0.0
 40
1.0
 40
1.0
 10
14.67478420277406
 20
4.548934236990556
 30
0.0
 10
14.70338694437526
 20
4.489896482910471
 30
0.0
  0
SPLINE
  5
BB3
330
A8B
100
AcDbEntity
  8
FRONT
  6
Continuous
 62
     4
100
AcDbSpline
210
0.0
220
0.0
230
1.0
 70
     8
 71
     3
 72
    11
 73
     7
 74
     0
 42
0.0000000001
 43
0.0000000001
 40
0.0
 40
0.0
 40
0.0
 40
0.0
 40
0.2500000000000269
 40
0.5000000000000613
 40
0.7499999999997869
 40
1.0
 40
1.0
 40
1.0
 40
1.0
 10
13.32453443224985
 20
4.565040025424456
 30
0.0
 10
13.32359602231685
 20
4.565724324465811
 30
0.0
 10
13.3214696827018
 20
4.567186493161131
 30
0.0
 10
13.31741499243888
 20
4.569735924742813
 30
0.0
 10
13.31284498611547
 20
4.572415134760538
 30
0.0
 10
13.30974180656181
 20
4.574123313175141
 30
0.0
 10
13.30815217000305
 20
4.574971618696021
 30
0.0
  0
SPLINE
  5
BB4
330
A8B
100
AcDbEntity
  8
FRONT
  6
Continuous
 62
     4
100
AcDbSpline
210
0.0
220
0.0
230
1.0
 70
     8
 71
     2
 72
     6
 73
     3
 74
     0
 42
0.0000000001
 43
0.0000000001
 40
0.0
 40
0.0
 40
0.0
 40
1.0
 40
1.0
 40
1.0
 10
13.22638220773663
 20
4.401049253290271
 30
0.0
 10
13.2613789349715
 20
4.490908928155922
 30
0.0
 10
13.308152170003
 20
4.574971618696058
 30
0.0
  0
SPLINE
  5
BB5
330
A8B
100
AcDbEntity
  8
FRONT
  6
Continuous
 62
     4
100
AcDbSpline
210
0.0
220
0.0
230
1.0
 70
    24
 71
     1
 72
     4
 73
     2
 74
     0
 42
0.0000000001
 43
0.0000000001
 40
0.0
 40
0.0
 40
1.0
 40
1.0
 10
13.80267447603256
 20
3.591914630017021
 30
0.0
 10
13.80379348619884
 20
3.593141802474727
 30
0.0
  0
SPLINE
  5
BB6
330
A8B
100
AcDbEntity
  8
FRONT
  6
Continuous
 62
     4
100
AcDbSpline
210
0.0
220
0.0
230
1.0
 70
    24
 71
     1
 72
     4
 73
     2
 74
     0
 42
0.0000000001
 43
0.0000000001
 40
0.0
 40
0.0
 40
1.0
 40
1.0
 10
14.60909339101634
 20
5.711114124413048
 30
0.0
 10
14.6090865051094
 20
5.711625498686736
 30
0.0
  0
SPLINE
  5
BB7
330
A8B
100
AcDbEntity
  8
FRONT
  6
Continuous
 62
     4
100
AcDbSpline
210
0.0
220
0.0
230
1.0
 70
    24
 71
     1
 72
     4
 73
     2
 74
     0
 42
0.0000000001
 43
0.0000000001
 40
0.0
 40
0.0
 40
1.0
 40
1.0
 10
14.60713440708852
 20
5.335136932445034
 30
0.0
 10
14.69295620412083
 20
5.331857548057462
 30
0.0
  0
SPLINE
  5
BB8
330
A8B
100
AcDbEntity
  8
FRONT
  6
Continuous
 62
     4
100
AcDbSpline
210
0.0
220
0.0
230
1.0
 70
     8
 71
     3
 72
    13
 73
     9
 74
     0
 42
0.0000000001
 43
0.0000000001
 40
0.0
 40
0.0
 40
0.0
 40
0.0
 40
0.1870906036410149
 40
0.3646813612908705
 40
0.5136542261935185
 40
0.6625496942781221
 40
0.8732997954630318
 40
1.0
 40
1.0
 40
1.0
 40
1.0
 10
14.71097785761778
 20
4.474938976988299
 30
0.0
 10
14.72258946069355
 20
4.452117336803171
 30
0.0
 10
14.75023929494702
 20
4.410179915390369
 30
0.0
 10
14.80309030761751
 20
4.354724829831821
 30
0.0
 10
14.86319833542792
 20
4.314941243102536
 30
0.0
 10
14.93091957239508
 20
4.289394301276414
 30
0.0
 10
14.99207346962869
 20
4.284228893684812
 30
0.0
 10
15.03052376342849
 20
4.28859592198095
 30
0.0
 10
15.04448787470278
 20
4.291605195933395
 30
0.0
  0
SPLINE
  5
BB9
330
A8B
100
AcDbEntity
  8
FRONT
  6
Continuous
 62
     4
100
AcDbSpline
210
0.0
220
0.0
230
1.0
 70
    24
 71
     1
 72
     4
 73
     2
 74
     0
 42
0.0000000001
 43
0.0000000001
 40
0.0
 40
0.0
 40
1.0
 40
1.0
 10
14.36658232700411
 20
4.549988550519462
 30
0.0
 10
14.3439322300138
 20
4.491126124902221
 30
0.0
  0
SPLINE
  5
BBA
330
A8B
100
AcDbEntity
  8
FRONT
  6
Continuous
 62
     4
100
AcDbSpline
210
0.0
220
0.0
230
1.0
 70
    24
 71
     1
 72
     4
 73
     2
 74
     0
 42
0.0000000001
 43
0.0000000001
 40
0.0
 40
0.0
 40
1.0
 40
1.0
 10
12.81667247474081
 20
5.142126865126981
 30
0.0
 10
13.28408820193523
 20
4.587414672117768
 30
0.0
  0
SPLINE
  5
BBB
330
A8B
100
AcDbEntity
  8
FRONT
  6
Continuous
 62
     4
100
AcDbSpline
210
0.0
220
0.0
230
1.0
 70
    24
 71
     1
 72
     4
 73
     2
 74
     0
 42
0.0000000001
 43
0.0000000001
 40
0.0
 40
0.0
 40
1.0
 40
1.0
 10
14.68992440208029
 20
5.336837850675596
 30
0.0
 10
14.60723379104648
 20
5.339726363791863
 30
0.0
  0
SPLINE
  5
BBC
330
A8B
100
AcDbEntity
  8
FRONT
  6
Continuous
 62
     4
100
AcDbSpline
210
0.0
220
0.0
230
1.0
 70
    24
 71
     1
 72
     4
 73
     2
 74
     0
 42
0.0000000001
 43
0.0000000001
 40
0.0
 40
0.0
 40
1.0
 40
1.0
 10
13.934096024833
 20
4.306515336617805
 30
0.0
 10
13.99589107417434
 20
4.295192292184527
 30
0.0
  0
SPLINE
  5
BBD
330
A8B
100
AcDbEntity
  8
FRONT
  6
Continuous
 62
     4
100
AcDbSpline
210
0.0
220
0.0
230
1.0
 70
    24
 71
     1
 72
     4
 73
     2
 74
     0
 42
0.0000000001
 43
0.0000000001
 40
0.0
 40
0.0
 40
1.0
 40
1.0
 10
13.82870159920979
 20
3.956766489145926
 30
0.0
 10
13.81073371171078
 20
3.987366922169501
 30
0.0
  0
SPLINE
  5
BBE
330
A8B
100
AcDbEntity
  8
FRONT
  6
Continuous
 62
     4
100
AcDbSpline
210
0.0
220
0.0
230
1.0
 70
    24
 71
     1
 72
     4
 73
     2
 74
     0
 42
0.0000000001
 43
0.0000000001
 40
0.0
 40
0.0
 40
1.0
 40
1.0
 10
15.12498870412169
 20
5.250072189631183
 30
0.0
 10
14.83756674726533
 20
5.331362856545028
 30
0.0
  0
SPLINE
  5
BBF
330
A8B
100
AcDbEntity
  8
FRONT
  6
Continuous
 62
     4
100
AcDbSpline
210
0.0
220
0.0
230
1.0
 70
    24
 71
     1
 72
     4
 73
     2
 74
     0
 42
0.0000000001
 43
0.0000000001
 40
0.0
 40
0.0
 40
1.0
 40
1.0
 10
14.60613712230153
 20
5.930601946215412
 30
0.0
 10
13.9484959168259
 20
5.910374237639897
 30
0.0
  0
SPLINE
  5
BC0
330
A8B
100
AcDbEntity
  8
FRONT
  6
Continuous
 62
     4
100
AcDbSpline
210
0.0
220
0.0
230
1.0
 70
     8
 71
     3
 72
    13
 73
     9
 74
     0
 42
0.0000000001
 43
0.0000000001
 40
0.0
 40
0.0
 40
0.0
 40
0.0
 40
0.2347537562056165
 40
0.4839866866904262
 40
0.5952214255276555
 40
0.7119727950652918
 40
0.96740910102467
 40
1.0
 40
1.0
 40
1.0
 40
1.0
 10
13.28408820191653
 20
4.587414672136794
 30
0.0
 10
13.25012566103997
 20
4.527227778404608
 30
0.0
 10
13.16675985793541
 20
4.419327616560915
 30
0.0
 10
13.02099432060977
 20
4.324734681857227
 30
0.0
 10
12.89482138585317
 20
4.276802417204223
 30
0.0
 10
12.76176035094723
 20
4.247019780138493
 30
0.0
 10
12.64742901726418
 20
4.245333565339181
 30
0.0
 10
12.56818868716331
 20
4.25379454225212
 30
0.0
 10
12.55922715270803
 20
4.25489452478367
 30
0.0
  0
SPLINE
  5
BC1
330
A8B
100
AcDbEntity
  8
FRONT
  6
Continuous
 62
     4
100
AcDbSpline
210
0.0
220
0.0
230
1.0
 70
    24
 71
     1
 72
     4
 73
     2
 74
     0
 42
0.0000000001
 43
0.0000000001
 40
0.0
 40
0.0
 40
1.0
 40
1.0
 10
15.19781587154303
 20
3.611548393029448
 30
0.0
 10
15.21184500108873
 20
3.588325064231846
 30
0.0
  0
SPLINE
  5
BC2
330
A8B
100
AcDbEntity
  8
FRONT
  6
Continuous
 62
     4
100
AcDbSpline
210
0.0
220
0.0
230
1.0
 70
     8
 71
     3
 72
    13
 73
     9
 74
     0
 42
0.0000000001
 43
0.0000000001
 40
0.0
 40
0.0
 40
0.0
 40
0.0
 40
0.2396506614303369
 40
0.4258576417570409
 40
0.5820550163389703
 40
0.7381714217428096
 40
0.9591299429654435
 40
1.0
 40
1.0
 40
1.0
 40
1.0
 10
13.80379348619884
 20
3.593141802474731
 30
0.0
 10
13.82192418679251
 20
3.611675128293107
 30
0.0
 10
13.84805114611859
 20
3.651068053755462
 30
0.0
 10
13.87223513902732
 20
3.72087154530691
 30
0.0
 10
13.87761343104861
 20
3.791029577212136
 30
0.0
 10
13.86710343122898
 20
3.867335533638517
 30
0.0
 10
13.84678182979217
 20
3.921569727755633
 30
0.0
 10
13.83122577128982
 20
3.952077271441022
 30
0.0
 10
13.82870159920979
 20
3.956766489145926
 30
0.0
  0
SPLINE
  5
BC3
330
A8B
100
AcDbEntity
  8
FRONT
  6
Continuous
 62
     4
100
AcDbSpline
210
0.0
220
0.0
230
1.0
 70
    24
 71
     1
 72
     4
 73
     2
 74
     0
 42
0.0000000001
 43
0.0000000001
 40
0.0
 40
0.0
 40
1.0
 40
1.0
 10
13.32453443224985
 20
4.565040025424456
 30
0.0
 10
13.24329890969339
 20
4.393410854946447
 30
0.0
  0
SPLINE
  5
BC4
330
A8B
100
AcDbEntity
  8
FRONT
  6
Continuous
 62
     4
100
AcDbSpline
210
0.0
220
0.0
230
1.0
 70
    24
 71
     1
 72
     4
 73
     2
 74
     0
 42
0.0000000001
 43
0.0000000001
 40
0.0
 40
0.0
 40
1.0
 40
1.0
 10
14.11043689694178
 20
5.279305060039821
 30
0.0
 10
13.94329233739435
 20
5.287986047480941
 30
0.0
  0
SPLINE
  5
BC5
330
A8B
100
AcDbEntity
  8
FRONT
  6
Continuous
 62
     4
100
AcDbSpline
210
0.0
220
0.0
230
1.0
 70
     8
 71
     3
 72
    11
 73
     7
 74
     0
 42
0.0000000001
 43
0.0000000001
 40
0.0
 40
0.0
 40
0.0
 40
0.0
 40
0.1281905622924043
 40
0.421624799894869
 40
0.7263899413642454
 40
1.0
 40
1.0
 40
1.0
 40
1.0
 10
12.73853609935463
 20
3.667760942170496
 30
0.0
 10
12.76672223532988
 20
3.693449167011665
 30
0.0
 10
12.85617813617569
 20
3.780688567568847
 30
0.0
 10
12.99312764578302
 20
3.948243292988441
 30
0.0
 10
13.12308988273993
 20
4.171774666937092
 30
0.0
 10
13.19571953861603
 20
4.326067837016096
 30
0.0
 10
13.2263821747769
 20
4.401049180529136
 30
0.0
  0
SPLINE
  5
BC6
330
A8B
100
AcDbEntity
  8
FRONT
  6
Continuous
 62
     4
100
AcDbSpline
210
0.0
220
0.0
230
1.0
 70
    24
 71
     1
 72
     4
 73
     2
 74
     0
 42
0.0000000001
 43
0.0000000001
 40
0.0
 40
0.0
 40
1.0
 40
1.0
 10
15.23230844269541
 20
3.558198880030202
 30
0.0
 10
15.21184500108873
 20
3.588325064231844
 30
0.0
  0
SPLINE
  5
BC7
330
A8B
100
AcDbEntity
  8
FRONT
  6
Continuous
 62
     4
100
AcDbSpline
210
0.0
220
0.0
230
1.0
 70
     8
 71
     2
 72
     6
 73
     3
 74
     0
 42
0.0000000001
 43
0.0000000001
 40
0.0
 40
0.0
 40
0.0
 40
1.0
 40
1.0
 40
1.0
 10
14.60723379104669
 20
5.339726363785726
 30
0.0
 10
14.35457942540308
 20
5.348825046804551
 30
0.0
 10
14.11043689694178
 20
5.279305060039821
 30
0.0
  0
SPLINE
  5
BC8
330
A8B
100
AcDbEntity
  8
FRONT
  6
Continuous
 62
     4
100
AcDbSpline
210
0.0
220
0.0
230
1.0
 70
    24
 71
     1
 72
     4
 73
     2
 74
     0
 42
0.0000000001
 43
0.0000000001
 40
0.0
 40
0.0
 40
1.0
 40
1.0
 10
13.94524848483674
 20
5.758663915957267
 30
0.0
 10
14.13280283862451
 20
5.763209387832385
 30
0.0
  0
SPLINE
  5
BC9
330
A8B
100
AcDbEntity
  8
FRONT
  6
Continuous
 62
     4
100
AcDbSpline
210
0.0
220
0.0
230
1.0
 70
    24
 71
     1
 72
     4
 73
     2
 74
     0
 42
0.0000000001
 43
0.0000000001
 40
0.0
 40
0.0
 40
1.0
 40
1.0
 10
13.31078889119694
 20
4.573561762749701
 30
0.0
 10
13.28408820191651
 20
4.587414672136792
 30
0.0
  0
SPLINE
  5
BCA
330
A8B
100
AcDbEntity
  8
FRONT
  6
Continuous
 62
     4
100
AcDbSpline
210
0.0
220
0.0
230
1.0
 70
     8
 71
     3
 72
    10
 73
     6
 74
     0
 42
0.0000000001
 43
0.0000000001
 40
0.0
 40
0.0
 40
0.0
 40
0.0
 40
0.4926947242044152
 40
0.9999538112423723
 40
1.0
 40
1.0
 40
1.0
 40
1.0
 10
12.71058671127498
 20
5.473403005394001
 30
0.0
 10
12.90547943076539
 20
5.555788825541005
 30
0.0
 10
13.30796995905596
 20
5.686507873440067
 30
0.0
 10
13.73025717117942
 20
5.748973858563186
 30
0.0
 10
13.94514876776342
 20
5.758657162767132
 30
0.0
 10
13.94524866639153
 20
5.758661664333676
 30
0.0
  0
SPLINE
  5
BCB
330
A8B
100
AcDbEntity
  8
FRONT
  6
Continuous
 62
     4
100
AcDbSpline
210
0.0
220
0.0
230
1.0
 70
     8
 71
     2
 72
     6
 73
     3
 74
     0
 42
0.0000000001
 43
0.0000000001
 40
0.0
 40
0.0
 40
0.0
 40
1.0
 40
1.0
 40
1.0
 10
12.55931172980702
 20
4.254879951245562
 30
0.0
 10
12.58336828364422
 20
4.198188936261384
 30
0.0
 10
12.61302558883277
 20
4.142652858215962
 30
0.0
  0
SPLINE
  5
BCC
330
A8B
100
AcDbEntity
  8
FRONT
  6
Continuous
 62
     4
100
AcDbSpline
210
0.0
220
0.0
230
1.0
 70
     8
 71
     3
 72
    11
 73
     7
 74
     0
 42
0.0000000001
 43
0.0000000001
 40
0.0
 40
0.0
 40
0.0
 40
0.0
 40
0.3213498426608201
 40
0.6577811939102644
 40
0.9998827329771151
 40
1.0
 40
1.0
 40
1.0
 40
1.0
 10
12.61302558883341
 20
4.142652858218689
 30
0.0
 10
12.63661235923142
 20
4.096595077435822
 30
0.0
 10
12.67812392222471
 20
3.999067509734118
 30
0.0
 10
12.71731265817428
 20
3.837886834830852
 30
0.0
 10
12.73306739599114
 20
3.725263586159053
 30
0.0
 10
12.7384250930861
 20
3.668060358493228
 30
0.0
 10
12.73843441834863
 20
3.667960794245231
 30
0.0
  0
SPLINE
  5
BCD
330
A8B
100
AcDbEntity
  8
FRONT
  6
Continuous
 62
     4
100
AcDbSpline
210
0.0
220
0.0
230
1.0
 70
    24
 71
     1
 72
     4
 73
     2
 74
     0
 42
0.0000000001
 43
0.0000000001
 40
0.0
 40
0.0
 40
1.0
 40
1.0
 10
15.09864637409872
 20
4.302531580239758
 30
0.0
 10
15.04448787470278
 20
4.291605195933395
 30
0.0
  0
SPLINE
  5
BCE
330
A8B
100
AcDbEntity
  8
FRONT
  6
Continuous
 62
     4
100
AcDbSpline
210
0.0
220
0.0
230
1.0
 70
     8
 71
     3
 72
    13
 73
     9
 74
     0
 42
0.0000000001
 43
0.0000000001
 40
0.0
 40
0.0
 40
0.0
 40
0.0
 40
0.2396506614303343
 40
0.4258576417570496
 40
0.5820550163389778
 40
0.7381714217428188
 40
0.9591299429654512
 40
1.0
 40
1.0
 40
1.0
 40
1.0
 10
15.21878522660069
 20
3.982550183926613
 30
0.0
 10
15.20446185940899
 20
3.956885905746576
 30
0.0
 10
15.18382701449337
 20
3.907206514117078
 30
0.0
 10
15.16499089997498
 20
3.827386703527638
 30
0.0
 10
15.16059144136004
 20
3.755395363725888
 30
0.0
 10
15.16830971452799
 20
3.684318177059933
 30
0.0
 10
15.18379083088686
 20
3.63914997870789
 30
0.0
 10
15.19585560171569
 20
3.615181448933922
 30
0.0
 10
15.19781587154303
 20
3.611548393029448
 30
0.0
  0
LINE
  5
BCF
330
A8B
100
AcDbEntity
  8
FRONT
  6
Continuous
 62
     4
100
AcDbLine
 10
17.89827503693186
 20
4.305849194799654
 30
0.0
 11
16.84081100360065
 21
3.750289208641194
 31
0.0
  0
LINE
  5
BD0
330
A8B
100
AcDbEntity
  8
FRONT
  6
Continuous
 62
     4
100
AcDbLine
 10
17.9955352574119
 20
4.703931962073951
 30
0.0
 11
17.99860264302532
 21
5.577410944240638
 31
0.0
  0
LINE
  5
BD1
330
A8B
100
AcDbEntity
  8
FRONT
  6
Continuous
 62
     4
100
AcDbLine
 10
16.71085065679104
 20
4.613894536173183
 30
0.0
 11
16.71002253368082
 21
4.378075430726665
 31
0.0
  0
LINE
  5
BD2
330
A8B
100
AcDbEntity
  8
FRONT
  6
Continuous
 62
     4
100
AcDbLine
 10
16.39808469837355
 20
4.364837484698021
 30
0.0
 11
16.39891265055782
 21
4.600607916707208
 31
0.0
  0
LINE
  5
BD3
330
A8B
100
AcDbEntity
  8
FRONT
  6
Continuous
 62
     4
100
AcDbLine
 10
17.66367077329101
 20
4.879093702836494
 30
0.0
 11
17.66526427735394
 21
5.332865247206258
 31
0.0
  0
LINE
  5
BD4
330
A8B
100
AcDbEntity
  8
FRONT
  6
Continuous
 62
     4
100
AcDbLine
 10
15.64053491978258
 20
4.293450173624481
 30
0.0
 11
15.60441972687181
 21
4.361092193114611
 31
0.0
  0
LINE
  5
BD5
330
A8B
100
AcDbEntity
  8
FRONT
  6
Continuous
 62
     4
100
AcDbLine
 10
16.71002253368082
 20
4.378075430726665
 30
0.0
 11
17.66367077329101
 21
4.879093702836494
 31
0.0
  0
LINE
  5
BD6
330
A8B
100
AcDbEntity
  8
FRONT
  6
Continuous
 62
     4
100
AcDbLine
 10
17.82736069662903
 20
5.451970850041035
 30
0.0
 11
17.82538373039164
 21
4.889003337034266
 31
0.0
  0
ELLIPSE
  5
BD7
330
A8B
100
AcDbEntity
  8
FRONT
  6
Continuous
 62
     4
100
AcDbEllipse
 10
14.59586354314858
 20
3.865394052025882
 30
0.0
 11
-1.151135430529534
 21
-0.6146102435097502
 31
0.0
210
0.0
220
0.0
230
0.9999999999999998
 40
0.9833059182658811
 41
2.387532948130643
 42
2.854453357321848
  0
ELLIPSE
  5
BD8
330
A8B
100
AcDbEntity
  8
FRONT
  6
Continuous
 62
     4
100
AcDbEllipse
 10
23.34289700321895
 20
7.404971643362473
 30
0.0
 11
-5.502211667105154
 21
-2.588827676295629
 31
0.0
210
0.0
220
0.0
230
1.0
 40
0.1586239430231971
 41
6.208012116159168
 42
6.457681703334741
  0
ELLIPSE
  5
BD9
330
A8B
100
AcDbEntity
  8
FRONT
  6
Continuous
 62
     4
100
AcDbEllipse
 10
23.98792439919572
 20
7.261422965178862
 30
0.0
 11
-7.504621521697405
 21
-3.321134711197779
 31
0.0
210
0.0
220
0.0
230
1.0
 40
0.3415132911448714
 41
6.131781412421299
 42
6.217369236841816
  0
ELLIPSE
  5
BDA
330
A8B
100
AcDbEntity
  8
FRONT
  6
Continuous
 62
     4
100
AcDbEllipse
 10
16.32523872390661
 20
4.501274491612504
 30
0.0
 11
-0.8499947589592117
 21
0.0029849163490714
 31
0.0
210
0.0
220
0.0
230
1.0
 40
0.1608116416914428
 41
1.657167966400878
 42
2.041140401843712
  0
ELLIPSE
  5
BDB
330
A8B
100
AcDbEntity
  8
FRONT
  6
Continuous
 62
     4
100
AcDbEllipse
 10
23.91507831970675
 20
7.397859926833847
 30
0.0
 11
-7.163008401427503
 21
-3.337131822624029
 31
0.0
210
0.0
220
0.0
230
1.0
 40
0.2488347320293084
 41
6.1272315578895
 42
6.212819382930589
  0
ELLIPSE
  5
BDC
330
A8B
100
AcDbEntity
  8
FRONT
  6
Continuous
 62
     4
100
AcDbEllipse
 10
18.11635760682543
 20
4.734153631805039
 30
0.0
 11
-0.9999938318006432
 21
0.0035116660557411
 31
0.0
210
0.0
220
0.0
230
1.0
 40
0.1608116414610818
 41
5.008200129322958
 42
5.18273305487219
  0
ELLIPSE
  5
BDD
330
A8B
100
AcDbEntity
  8
FRONT
  6
Continuous
 62
     4
100
AcDbEllipse
 10
16.56225603727189
 20
3.633285833833903
 30
0.0
 11
-0.7801070765252688
 21
-0.3375395473105581
 31
0.0
210
0.0
220
0.0
230
1.0
 40
0.0040693916708658
 41
1.563153189442481
 42
1.934167124601573
  0
ELLIPSE
  5
BDE
330
A8B
100
AcDbEntity
  8
FRONT
  6
Continuous
 62
     4
100
AcDbEllipse
 10
14.51560790726658
 20
3.779757555178877
 30
0.0
 11
-1.088811819437994
 21
-0.5813346382489481
 31
0.0
210
0.0
220
0.0
230
1.0
 40
0.983305918289052
 41
2.448217296598584
 42
3.141592653297247
  0
ELLIPSE
  5
BDF
330
A8B
100
AcDbEntity
  8
FRONT
  6
Continuous
 62
     4
100
AcDbEllipse
 10
23.63387088225076
 20
7.250121938023302
 30
0.0
 11
-5.931785057190547
 21
-2.503957966687563
 31
0.0
210
0.0
220
0.0
230
1.0
 40
0.3000603614080196
 41
6.212003631040982
 42
6.468355228140294
  0
ELLIPSE
  5
BE0
330
A8B
100
AcDbEntity
  8
FRONT
  6
Continuous
 62
     4
100
AcDbEllipse
 10
14.55172310019603
 20
3.712115535694636
 30
0.0
 11
-1.088811819366767
 21
-0.5813346383414362
 31
0.0
210
0.0
220
0.0
230
1.0
 40
0.9833059182967726
 41
2.505541426623854
 42
3.141592653205357
  0
ELLIPSE
  5
BE1
330
A8B
100
AcDbEntity
  8
FRONT
  6
Continuous
 62
     4
100
AcDbEllipse
 10
17.43753142984373
 20
3.994737951825666
 30
0.0
 11
-0.6378475908704978
 21
-2.576716806991784
 31
0.0
210
0.0
220
0.0
230
1.0
 40
0.1420508862706076
 41
1.726905085211521
 42
1.739170856938258
  0
SPLINE
  5
BE2
330
A8B
100
AcDbEntity
  8
FRONT
  6
Continuous
 62
     4
100
AcDbSpline
210
0.0
220
0.0
230
1.0
 70
    24
 71
     1
 72
     4
 73
     2
 74
     0
 42
0.0000000001
 43
0.0000000001
 40
0.0
 40
0.0
 40
1.0
 40
1.0
 10
16.49595502931909
 20
5.475699839190808
 30
0.0
 10
17.5948987190443
 20
5.975264142050702
 30
0.0
  0
SPLINE
  5
BE3
330
A8B
100
AcDbEntity
  8
FRONT
  6
Continuous
 62
     4
100
AcDbSpline
210
0.0
220
0.0
230
1.0
 70
    24
 71
     1
 72
     4
 73
     2
 74
     0
 42
0.0000000001
 43
0.0000000001
 40
0.0
 40
0.0
 40
1.0
 40
1.0
 10
17.67701948821644
 20
5.341527188321591
 30
0.0
 10
17.77311705953044
 20
5.412174745271188
 30
0.0
  0
SPLINE
  5
BE4
330
A8B
100
AcDbEntity
  8
FRONT
  6
Continuous
 62
     4
100
AcDbSpline
210
0.0
220
0.0
230
1.0
 70
    24
 71
     1
 72
     4
 73
     2
 74
     0
 42
0.0000000001
 43
0.0000000001
 40
0.0
 40
0.0
 40
1.0
 40
1.0
 10
16.90020018818717
 20
3.583522341359216
 30
0.0
 10
16.91843118442867
 20
3.518558886112968
 30
0.0
  0
SPLINE
  5
BE5
330
A8B
100
AcDbEntity
  8
FRONT
  6
Continuous
 62
     4
100
AcDbSpline
210
0.0
220
0.0
230
1.0
 70
    24
 71
     1
 72
     4
 73
     2
 74
     0
 42
0.0000000001
 43
0.0000000001
 40
0.0
 40
0.0
 40
1.0
 40
1.0
 10
16.60738235910093
 20
3.52622347312716
 30
0.0
 10
16.55766717029034
 20
3.62753152931504
 30
0.0
  0
SPLINE
  5
BE6
330
A8B
100
AcDbEntity
  8
FRONT
  6
Continuous
 62
     4
100
AcDbSpline
210
0.0
220
0.0
230
1.0
 70
     8
 71
     2
 72
     6
 73
     3
 74
     0
 42
0.0000000001
 43
0.0000000001
 40
0.0
 40
0.0
 40
0.0
 40
1.0
 40
1.0
 40
1.0
 10
17.96624821359698
 20
4.521740220909058
 30
0.0
 10
17.99450568315117
 20
4.587389658473391
 30
0.0
 10
17.99520039268492
 20
4.657821589442201
 30
0.0
  0
SPLINE
  5
BE7
330
A8B
100
AcDbEntity
  8
FRONT
  6
Continuous
 62
     4
100
AcDbSpline
210
0.0
220
0.0
230
1.0
 70
    24
 71
     1
 72
     4
 73
     2
 74
     0
 42
0.0000000001
 43
0.0000000001
 40
0.0
 40
0.0
 40
1.0
 40
1.0
 10
16.71141267560334
 20
4.194303491672547
 30
0.0
 10
16.84081100360065
 20
3.750289208641194
 30
0.0
  0
SPLINE
  5
BE8
330
A8B
100
AcDbEntity
  8
FRONT
  6
Continuous
 62
     4
100
AcDbSpline
210
0.0
220
0.0
230
1.0
 70
    24
 71
     1
 72
     4
 73
     2
 74
     0
 42
0.0000000001
 43
0.0000000001
 40
0.0
 40
0.0
 40
1.0
 40
1.0
 10
16.42495563095343
 20
4.116038923035028
 30
0.0
 10
16.71141267560334
 20
4.194303491672548
 30
0.0
  0
SPLINE
  5
BE9
330
A8B
100
AcDbEntity
  8
FRONT
  6
Continuous
 62
     4
100
AcDbSpline
210
0.0
220
0.0
230
1.0
 70
    24
 71
     1
 72
     4
 73
     2
 74
     0
 42
0.0000000001
 43
0.0000000001
 40
0.0
 40
0.0
 40
1.0
 40
1.0
 10
16.49314501744483
 20
5.474374826890542
 30
0.0
 10
16.49474485326082
 20
5.475120305234273
 30
0.0
  0
SPLINE
  5
BEA
330
A8B
100
AcDbEntity
  8
FRONT
  6
Continuous
 62
     4
100
AcDbSpline
210
0.0
220
0.0
230
1.0
 70
    24
 71
     1
 72
     4
 73
     2
 74
     0
 42
0.0000000001
 43
0.0000000001
 40
0.0
 40
0.0
 40
1.0
 40
1.0
 10
16.84081100360065
 20
3.750289208641194
 30
0.0
 10
16.90019487381277
 20
3.583520954077106
 30
0.0
  0
SPLINE
  5
BEB
330
A8B
100
AcDbEntity
  8
FRONT
  6
Continuous
 62
     4
100
AcDbSpline
210
0.0
220
0.0
230
1.0
 70
     8
 71
     3
 72
    12
 73
     8
 74
     0
 42
0.0000000001
 43
0.0000000001
 40
0.0
 40
0.0
 40
0.0
 40
0.0
 40
0.1495624586559048
 40
0.3981305669337531
 40
0.6362518309539893
 40
0.8431419366934655
 40
1.0
 40
1.0
 40
1.0
 40
1.0
 10
17.48589383548178
 20
3.463369935461981
 30
0.0
 10
17.4886026749378
 20
3.466280125578256
 30
0.0
 10
17.49078367105906
 20
3.47398973939262
 30
0.0
 10
17.47309542125874
 20
3.486777129879093
 30
0.0
 10
17.42482211552024
 20
3.49917167572542
 30
0.0
 10
17.36085181227452
 20
3.507004690170802
 30
0.0
 10
17.31746007618845
 20
3.509155435452544
 30
0.0
 10
17.29745226804206
 20
3.509679345658438
 30
0.0
  0
SPLINE
  5
BEC
330
A8B
100
AcDbEntity
  8
FRONT
  6
Continuous
 62
     4
100
AcDbSpline
210
0.0
220
0.0
230
1.0
 70
    24
 71
     1
 72
     4
 73
     2
 74
     0
 42
0.0000000001
 43
0.0000000001
 40
0.0
 40
0.0
 40
1.0
 40
1.0
 10
16.39885559051127
 20
4.600607322908822
 30
0.0
 10
16.71077838865055
 20
4.613840528244288
 30
0.0
  0
SPLINE
  5
BED
330
A8B
100
AcDbEntity
  8
FRONT
  6
Continuous
 62
     4
100
AcDbSpline
210
0.0
220
0.0
230
1.0
 70
     8
 71
     3
 72
    11
 73
     7
 74
     0
 42
0.0000000001
 43
0.0000000001
 40
0.0
 40
0.0
 40
0.0
 40
0.0
 40
0.0001349180935091
 40
0.1930788600656165
 40
0.9998650818819635
 40
1.0
 40
1.0
 40
1.0
 40
1.0
 10
16.19667844852219
 20
5.335343228005077
 30
0.0
 10
16.19672500268154
 20
5.335254725404842
 30
0.0
 10
16.20989169584736
 20
5.310223947250959
 30
0.0
 10
16.32367950371092
 20
5.208467742036122
 30
0.0
 10
16.43522792301602
 20
5.114125861270784
 30
0.0
 10
16.50623019806864
 20
5.020733760974486
 30
0.0
 10
16.50629071951281
 20
5.020654154726011
 30
0.0
  0
SPLINE
  5
BEE
330
A8B
100
AcDbEntity
  8
FRONT
  6
Continuous
 62
     4
100
AcDbSpline
210
0.0
220
0.0
230
1.0
 70
    24
 71
     1
 72
     4
 73
     2
 74
     0
 42
0.0000000001
 43
0.0000000001
 40
0.0
 40
0.0
 40
1.0
 40
1.0
 10
17.45883754226277
 20
5.180035611251119
 30
0.0
 10
17.66526427735394
 20
5.332865247206231
 30
0.0
  0
SPLINE
  5
BEF
330
A8B
100
AcDbEntity
  8
FRONT
  6
Continuous
 62
     4
100
AcDbSpline
210
0.0
220
0.0
230
1.0
 70
     8
 71
     3
 72
    11
 73
     7
 74
     0
 42
0.0000000001
 43
0.0000000001
 40
0.0
 40
0.0
 40
0.0
 40
0.0
 40
0.0001278625790222
 40
0.8000466519499596
 40
0.9998721041576972
 40
1.0
 40
1.0
 40
1.0
 40
1.0
 10
16.50629071951281
 20
5.020654154726011
 30
0.0
 10
16.50635300832185
 20
5.020575923630723
 30
0.0
 10
16.58269256964586
 20
4.924697907350288
 30
0.0
 10
16.65651612623752
 20
4.786080692263082
 30
0.0
 10
16.70188763166069
 20
4.642377138962474
 30
0.0
 10
16.71073896129634
 20
4.613939119367898
 30
0.0
 10
16.71076868003114
 20
4.613843637449183
 30
0.0
  0
SPLINE
  5
BF0
330
A8B
100
AcDbEntity
  8
FRONT
  6
Continuous
 62
     4
100
AcDbSpline
210
0.0
220
0.0
230
1.0
 70
    24
 71
     1
 72
     4
 73
     2
 74
     0
 42
0.0000000001
 43
0.0000000001
 40
0.0
 40
0.0
 40
1.0
 40
1.0
 10
16.94611636433103
 20
4.794203885304684
 30
0.0
 10
17.45883754226277
 20
5.180035611251119
 30
0.0
  0
SPLINE
  5
BF1
330
A8B
100
AcDbEntity
  8
FRONT
  6
Continuous
 62
     4
100
AcDbSpline
210
0.0
220
0.0
230
1.0
 70
    24
 71
     1
 72
     4
 73
     2
 74
     0
 42
0.0000000001
 43
0.0000000001
 40
0.0
 40
0.0
 40
1.0
 40
1.0
 10
17.9955352574119
 20
4.70393196207395
 30
0.0
 10
17.99520039268492
 20
4.657821589441173
 30
0.0
  0
SPLINE
  5
BF2
330
A8B
100
AcDbEntity
  8
FRONT
  6
Continuous
 62
     4
100
AcDbSpline
210
0.0
220
0.0
230
1.0
 70
    24
 71
     1
 72
     4
 73
     2
 74
     0
 42
0.0000000001
 43
0.0000000001
 40
0.0
 40
0.0
 40
1.0
 40
1.0
 10
17.66526427735397
 20
5.332865247206213
 30
0.0
 10
17.67698916139616
 20
5.341504848748127
 30
0.0
  0
SPLINE
  5
BF3
330
A8B
100
AcDbEntity
  8
FRONT
  6
Continuous
 62
     4
100
AcDbSpline
210
0.0
220
0.0
230
1.0
 70
     8
 71
     2
 72
     6
 73
     3
 74
     0
 42
0.0000000001
 43
0.0000000001
 40
0.0
 40
0.0
 40
0.0
 40
1.0
 40
1.0
 40
1.0
 10
17.45883752894693
 20
5.180035602533471
 30
0.0
 10
17.56761241759019
 20
5.260934079266407
 30
0.0
 10
17.67698907835551
 20
5.341504790199523
 30
0.0
  0
SPLINE
  5
BF4
330
A8B
100
AcDbEntity
  8
FRONT
  6
Continuous
 62
     4
100
AcDbSpline
210
0.0
220
0.0
230
1.0
 70
    24
 71
     1
 72
     4
 73
     2
 74
     0
 42
0.0000000001
 43
0.0000000001
 40
0.0
 40
0.0
 40
1.0
 40
1.0
 10
16.19667844839965
 20
5.335343227947221
 30
0.0
 10
16.49314024556977
 20
5.474388270071903
 30
0.0
  0
SPLINE
  5
BF5
330
A8B
100
AcDbEntity
  8
FRONT
  6
Continuous
 62
     4
100
AcDbSpline
210
0.0
220
0.0
230
1.0
 70
     8
 71
     3
 72
    11
 73
     7
 74
     0
 42
0.0000000001
 43
0.0000000001
 40
0.0
 40
0.0
 40
0.0
 40
0.0
 40
0.1632580369825384
 40
0.5369633765782555
 40
0.9250992724447831
 40
1.0
 40
1.0
 40
1.0
 40
1.0
 10
16.42490960875768
 20
4.115996823386628
 30
0.0
 10
16.39672347278242
 20
4.090308598545457
 30
0.0
 10
16.30722024578586
 20
4.003092807454835
 30
0.0
 10
16.17072554691022
 20
3.8353111918573
 30
0.0
 10
16.07136739334606
 20
3.667560355337826
 30
0.0
 10
16.0239448572469
 20
3.571267493264961
 30
0.0
 10
16.01647812761165
 20
3.555577697676341
 30
0.0
  0
SPLINE
  5
BF6
330
A8B
100
AcDbEntity
  8
FRONT
  6
Continuous
 62
     4
100
AcDbSpline
210
0.0
220
0.0
230
1.0
 70
    24
 71
     1
 72
     4
 73
     2
 74
     0
 42
0.0000000001
 43
0.0000000001
 40
0.0
 40
0.0
 40
1.0
 40
1.0
 10
17.96624821359698
 20
4.521740220909058
 30
0.0
 10
17.94182141506172
 20
4.461266655075603
 30
0.0
  0
SPLINE
  5
BF7
330
A8B
100
AcDbEntity
  8
FRONT
  6
Continuous
 62
     4
100
AcDbSpline
210
0.0
220
0.0
230
1.0
 70
    24
 71
     1
 72
     4
 73
     2
 74
     0
 42
0.0000000001
 43
0.0000000001
 40
0.0
 40
0.0
 40
1.0
 40
1.0
 10
16.68230017246027
 20
3.52498673459668
 30
0.0
 10
16.90020018819045
 20
3.583522341348273
 30
0.0
  0
SPLINE
  5
BF8
330
A8B
100
AcDbEntity
  8
FRONT
  6
Continuous
 62
     4
100
AcDbSpline
210
0.0
220
0.0
230
1.0
 70
    24
 71
     1
 72
     4
 73
     2
 74
     0
 42
0.0000000001
 43
0.0000000001
 40
0.0
 40
0.0
 40
1.0
 40
1.0
 10
17.94182141506172
 20
4.461266655075603
 30
0.0
 10
17.90527073750188
 20
4.337218884751766
 30
0.0
  0
SPLINE
  5
BF9
330
A8B
100
AcDbEntity
  8
FRONT
  6
Continuous
 62
     4
100
AcDbSpline
210
0.0
220
0.0
230
1.0
 70
     8
 71
     3
 72
    11
 73
     7
 74
     0
 42
0.0000000001
 43
0.0000000001
 40
0.0
 40
0.0
 40
0.0
 40
0.0
 40
0.3061272518132776
 40
0.6075448394179293
 40
0.8160124276962045
 40
1.0
 40
1.0
 40
1.0
 40
1.0
 10
16.39885559067653
 20
4.600607322599127
 30
0.0
 10
16.39520629565713
 20
4.65475168102716
 30
0.0
 10
16.37252336682536
 20
4.755034069650048
 30
0.0
 10
16.30304229067195
 20
4.879805706769669
 30
0.0
 10
16.21150627020276
 20
4.959021904353886
 30
0.0
 10
16.15015294733186
 20
4.986161952864643
 30
0.0
 10
16.11893736108915
 20
4.995457742129388
 30
0.0
  0
SPLINE
  5
BFA
330
A8B
100
AcDbEntity
  8
FRONT
  6
Continuous
 62
     4
100
AcDbSpline
210
0.0
220
0.0
230
1.0
 70
     8
 71
     3
 72
    11
 73
     7
 74
     0
 42
0.0000000001
 43
0.0000000001
 40
0.0
 40
0.0
 40
0.0
 40
0.0
 40
0.3213498426608153
 40
0.6577811939102688
 40
0.999882732977116
 40
1.0
 40
1.0
 40
1.0
 40
1.0
 10
16.55766717029036
 20
3.62753152931504
 30
0.0
 10
16.53240165908376
 20
3.676733510899357
 30
0.0
 10
16.48805584972428
 20
3.779569485735088
 30
0.0
 10
16.44656881178055
 20
3.945054769776882
 30
0.0
 10
16.43037839129144
 20
4.058494031060566
 30
0.0
 10
16.42502061513865
 20
4.11569740707443
 30
0.0
 10
16.42501128976365
 20
4.115796971311895
 30
0.0
  0
SPLINE
  5
BFB
330
A8B
100
AcDbEntity
  8
FRONT
  6
Continuous
 62
     4
100
AcDbSpline
210
0.0
220
0.0
230
1.0
 70
     8
 71
     2
 72
     6
 73
     3
 74
     0
 42
0.0000000001
 43
0.0000000001
 40
0.0
 40
0.0
 40
0.0
 40
1.0
 40
1.0
 40
1.0
 10
17.77370085353426
 20
5.412603271966885
 30
0.0
 10
17.88564682468245
 20
5.494754377154666
 30
0.0
 10
17.9986026430253
 20
5.57741094424067
 30
0.0
  0
SPLINE
  5
BFC
330
A8B
100
AcDbEntity
  8
FRONT
  6
Continuous
 62
     4
100
AcDbSpline
210
0.0
220
0.0
230
1.0
 70
    24
 71
     1
 72
     4
 73
     2
 74
     0
 42
0.0000000001
 43
0.0000000001
 40
0.0
 40
0.0
 40
1.0
 40
1.0
 10
16.49474485326082
 20
5.475120305234273
 30
0.0
 10
16.49595979536792
 20
5.475686399041637
 30
0.0
  0
SPLINE
  5
BFD
330
A8B
100
AcDbEntity
  8
FRONT
  6
Continuous
 62
     4
100
AcDbSpline
210
0.0
220
0.0
230
1.0
 70
    24
 71
     1
 72
     4
 73
     2
 74
     0
 42
0.0000000001
 43
0.0000000001
 40
0.0
 40
0.0
 40
1.0
 40
1.0
 10
16.71081487216573
 20
4.613866942044376
 30
0.0
 10
16.946116364331
 20
4.794203885304684
 30
0.0
  0
SPLINE
  5
BFE
330
A8B
100
AcDbEntity
  8
FRONT
  6
Continuous
 62
     4
100
AcDbSpline
210
0.0
220
0.0
230
1.0
 70
     8
 71
     2
 72
     6
 73
     3
 74
     0
 42
0.0000000001
 43
0.0000000001
 40
0.0
 40
0.0
 40
0.0
 40
1.0
 40
1.0
 40
1.0
 10
16.11893379407845
 20
4.995443832534546
 30
0.0
 10
16.16268975661965
 20
5.166852128994873
 30
0.0
 10
16.19668973819385
 20
5.335334408581799
 30
0.0
  0
SPLINE
  5
BFF
330
A8B
100
AcDbEntity
  8
FRONT
  6
Continuous
 62
     4
100
AcDbSpline
210
0.0
220
0.0
230
1.0
 70
     8
 71
     3
 72
    11
 73
     7
 74
     0
 42
0.0000000001
 43
0.0000000001
 40
0.0
 40
0.0
 40
0.0
 40
0.0
 40
0.2797385983135212
 40
0.5594467342961896
 40
0.779715829487904
 40
1.0
 40
1.0
 40
1.0
 40
1.0
 10
17.5948987190443
 20
5.975264142050701
 30
0.0
 10
17.65745563319629
 20
5.974483801919762
 30
0.0
 10
17.77036020044778
 20
5.950887920362918
 30
0.0
 10
17.90567908297141
 20
5.85040117171442
 30
0.0
 10
17.98283180302257
 20
5.717078973008209
 30
0.0
 10
17.99830296929956
 20
5.626215792883588
 30
0.0
 10
17.99860264302532
 20
5.577410944240644
 30
0.0
  0
ELLIPSE
  5
C00
330
A8B
100
AcDbEntity
  8
FRONT
  6
Continuous
 62
     4
100
AcDbEllipse
 10
177.0605964205228
 20
-0.0000000000000062
 30
-0.000000000000001
 11
328.7085881680908
 21
-5.639364115381655
 31
0.9119127835859078
210
-0.0173763522628257
220
-0.9870276605374339
230
0.1596072044615736
 40
0.0173763522628256
 41
2.090738282879778
 42
2.09261634979419
  0
ENDBLK
  5
C02
330
A8B
100
AcDbEntity
  8
0
100
AcDbBlockEnd
  0
BLOCK
  5
C05
330
C03
100
AcDbEntity
  8
0
100
AcDbBlockBegin
  2
ROFFE
 70
     0
 10
0.0
 20
0.0
 30
0.0
  3
ROFFE
  1

  0
INSERT
  5
C04
330
C03
100
AcDbEntity
  8
0
  6
Continuous
100
AcDbBlockReference
  2
2D00035417
 10
0.0
 20
0.0
 30
0.0
  0
ENDBLK
  5
C06
330
C03
100
AcDbEntity
  8
0
100
AcDbBlockEnd
  0
BLOCK
  5
1590
330
158F
100
AcDbEntity
  8
0
100
AcDbBlockBegin
  2
*D4
 70
     1
 10
0.0
 20
0.0
 30
0.0
  3
*D4
  1

  0
LINE
  5
1608
330
158F
100
AcDbEntity
  8
SK2
 62
     0
370
    -2
100
AcDbLine
 10
30.51938124085586
 20
78.42273205855372
 30
0.0
 11
-9.272421280773173
 21
78.42273205855372
 31
0.0
  0
LINE
  5
1609
330
158F
100
AcDbEntity
  8
SK2
 62
     0
370
    -2
100
AcDbLine
 10
30.51938124085586
 20
28.42273205855372
 30
0.0
 11
-9.27242128077319
 21
28.42273205855374
 31
0.0
  0
LINE
  5
160A
330
158F
100
AcDbEntity
  8
SK2
 62
     0
100
AcDbLine
 10
-8.272421280773178
 20
74.92273205855372
 30
0.0
 11
-8.272421280773187
 21
31.92273205855374
 31
0.0
  0
SOLID
  5
160B
330
158F
100
AcDbEntity
  8
SK2
 62
     0
100
AcDbTrace
 10
-8.855754614106512
 20
74.92273205855372
 30
0.0
 11
-7.689087947439844
 21
74.92273205855372
 31
0.0
 12
-8.272421280773176
 22
78.42273205855372
 32
0.0
 13
-8.272421280773176
 23
78.42273205855372
 33
0.0
  0
SOLID
  5
160C
330
158F
100
AcDbEntity
  8
SK2
 62
     0
100
AcDbTrace
 10
-8.855754614106521
 20
31.92273205855374
 30
0.0
 11
-7.689087947439854
 21
31.92273205855373
 31
0.0
 12
-8.272421280773187
 22
28.42273205855374
 32
0.0
 13
-8.272421280773187
 23
28.42273205855374
 33
0.0
  0
MTEXT
  5
160D
330
158F
100
AcDbEntity
  8
SK2
 62
     0
100
AcDbMText
 10
-11.02242128077319
 20
53.42273205855373
 30
0.0
 40
3.5
 41
0.0
 71
     5
 72
     1
  1
\A1;%%C50
 11
0.0000000000000001
 21
1.0
 31
0.0
 73
     1
 44
1.0
1001
ACAD
1000
MTEXTBEGIN
1070
    73
1070
     1
1070
    44
1040
1.0
1070
    74
1070
     0
1000
MTEXTEND
  0
POINT
  5
160E
330
158F
100
AcDbEntity
  8
DEFPOINTS
 62
     0
100
AcDbPoint
 10
31.51938124085587
 20
78.42273205855372
 30
0.0
  0
POINT
  5
160F
330
158F
100
AcDbEntity
  8
DEFPOINTS
 62
     0
100
AcDbPoint
 10
31.51938124085586
 20
28.42273205855372
 30
0.0
  0
POINT
  5
1610
330
158F
100
AcDbEntity
  8
DEFPOINTS
 62
     0
100
AcDbPoint
 10
-8.272421280773187
 20
28.42273205855374
 30
0.0
  0
ENDBLK
  5
1591
330
158F
100
AcDbEntity
  8
0
100
AcDbBlockEnd
  0
BLOCK
  5
15A0
330
159F
100
AcDbEntity
  8
0
100
AcDbBlockBegin
  2
*D5
 70
     1
 10
0.0
 20
0.0
 30
0.0
  3
*D5
  1

  0
LINE
  5
162B
330
159F
100
AcDbEntity
  8
2
 62
     0
370
    -2
100
AcDbLine
 10
102.5232762408558
 20
71.1989493788697
 30
0.0
 11
111.5390054878476
 21
71.1989493788697
 31
0.0
  0
LINE
  5
162C
330
159F
100
AcDbEntity
  8
2
 62
     0
370
    -2
100
AcDbLine
 10
105.8822877128545
 20
53.42273205855372
 30
0.0
 11
111.5390054878476
 21
53.42273205855372
 31
0.0
  0
LINE
  5
162D
330
159F
100
AcDbEntity
  8
2
 62
     0
100
AcDbLine
 10
110.5390054878476
 20
67.6989493788697
 30
0.0
 11
110.5390054878476
 21
56.92273205855371
 31
0.0
  0
SOLID
  5
162E
330
159F
100
AcDbEntity
  8
2
 62
     0
100
AcDbTrace
 10
109.9556721545142
 20
67.6989493788697
 30
0.0
 11
111.1223388211809
 21
67.6989493788697
 31
0.0
 12
110.5390054878476
 22
71.1989493788697
 32
0.0
 13
110.5390054878476
 23
71.1989493788697
 33
0.0
  0
SOLID
  5
162F
330
159F
100
AcDbEntity
  8
2
 62
     0
100
AcDbTrace
 10
109.9556721545142
 20
56.92273205855371
 30
0.0
 11
111.1223388211809
 21
56.92273205855371
 31
0.0
 12
110.5390054878476
 22
53.42273205855372
 32
0.0
 13
110.5390054878476
 23
53.42273205855372
 33
0.0
  0
MTEXT
  5
1630
330
159F
100
AcDbEntity
  8
2
 62
     0
100
AcDbMText
 10
107.7890054878476
 20
62.31084071871173
 30
0.0
 40
3.5
 41
0.0
 71
     5
 72
     1
  1
\A1;17.8
 11
0.0000000000000001
 21
1.0
 31
0.0
 73
     1
 44
1.0
1001
ACAD
1000
MTEXTBEGIN
1070
    73
1070
     1
1070
    44
1040
1.0
1070
    74
1070
     0
1000
MTEXTEND
  0
POINT
  5
1631
330
159F
100
AcDbEntity
  8
DEFPOINTS
 62
     0
100
AcDbPoint
 10
101.5232762408558
 20
71.1989493788697
 30
0.0
  0
POINT
  5
1632
330
159F
100
AcDbEntity
  8
DEFPOINTS
 62
     0
100
AcDbPoint
 10
104.8822877128545
 20
53.42273205855372
 30
0.0
  0
POINT
  5
1633
330
159F
100
AcDbEntity
  8
DEFPOINTS
 62
     0
100
AcDbPoint
 10
110.5390054878476
 20
53.42273205855372
 30
0.0
  0
ENDBLK
  5
15A1
330
159F
100
AcDbEntity
  8
0
100
AcDbBlockEnd
  0
BLOCK
  5
15B6
330
15B5
100
AcDbEntity
  8
0
100
AcDbBlockBegin
  2
*D6
 70
     1
 10
0.0
 20
0.0
 30
0.0
  3
*D6
  1

  0
LINE
  5
1622
330
15B5
100
AcDbEntity
  8
2
 62
     0
370
    -2
100
AcDbLine
 10
101.5232762408558
 20
72.19894937886969
 30
0.0
 11
101.5232762408558
 21
90.64678597370789
 31
0.0
  0
LINE
  5
1623
330
15B5
100
AcDbEntity
  8
2
 62
     0
370
    -2
100
AcDbLine
 10
31.51938124085587
 20
79.42273205855371
 30
0.0
 11
31.51938124085587
 21
90.64678597370789
 31
0.0
  0
LINE
  5
1624
330
15B5
100
AcDbEntity
  8
2
 62
     0
100
AcDbLine
 10
98.02327624085586
 20
89.6467859737079
 30
0.0
 11
35.01938124085587
 21
89.6467859737079
 31
0.0
  0
SOLID
  5
1625
330
15B5
100
AcDbEntity
  8
2
 62
     0
100
AcDbTrace
 10
98.02327624085586
 20
90.23011930704122
 30
0.0
 11
98.02327624085586
 21
89.06345264037456
 31
0.0
 12
101.5232762408558
 22
89.6467859737079
 32
0.0
 13
101.5232762408558
 23
89.6467859737079
 33
0.0
  0
SOLID
  5
1626
330
15B5
100
AcDbEntity
  8
2
 62
     0
100
AcDbTrace
 10
35.01938124085587
 20
90.23011930704122
 30
0.0
 11
35.01938124085587
 21
89.06345264037456
 31
0.0
 12
31.51938124085587
 22
89.6467859737079
 32
0.0
 13
31.51938124085587
 23
89.6467859737079
 33
0.0
  0
MTEXT
  5
1627
330
15B5
100
AcDbEntity
  8
2
 62
     0
100
AcDbMText
 10
66.52132874085586
 20
92.39678597370788
 30
0.0
 40
3.5
 41
0.0
 71
     5
 72
     1
  1
\A1;70
 73
     1
 44
1.0
1001
ACAD
1000
MTEXTBEGIN
1070
    73
1070
     1
1070
    44
1040
1.0
1070
    74
1070
     0
1000
MTEXTEND
  0
POINT
  5
1628
330
15B5
100
AcDbEntity
  8
DEFPOINTS
 62
     0
100
AcDbPoint
 10
101.5232762408558
 20
71.1989493788697
 30
0.0
  0
POINT
  5
1629
330
15B5
100
AcDbEntity
  8
DEFPOINTS
 62
     0
100
AcDbPoint
 10
31.51938124085587
 20
78.42273205855372
 30
0.0
  0
POINT
  5
162A
330
15B5
100
AcDbEntity
  8
DEFPOINTS
 62
     0
100
AcDbPoint
 10
31.51938124085587
 20
89.6467859737079
 30
0.0
  0
ENDBLK
  5
15B7
330
15B5
100
AcDbEntity
  8
0
100
AcDbBlockEnd
  0
BLOCK
  5
15C3
330
15C2
100
AcDbEntity
  8
0
100
AcDbBlockBegin
  2
*D7
 70
     1
 10
0.0
 20
0.0
 30
0.0
  3
*D7
  1

  0
LINE
  5
1619
330
15C2
100
AcDbEntity
  8
2
 62
     0
370
    -2
100
AcDbLine
 10
54.51938124085586
 20
66.92273205855371
 30
0.0
 11
54.51938124085586
 21
81.25143067608723
 31
0.0
  0
LINE
  5
161A
330
15C2
100
AcDbEntity
  8
2
 62
     0
370
    -2
100
AcDbLine
 10
101.5232762408558
 20
72.19894937886969
 30
0.0
 11
101.5232762408558
 21
81.25143067608723
 31
0.0
  0
LINE
  5
161B
330
15C2
100
AcDbEntity
  8
2
 62
     0
100
AcDbLine
 10
58.01938124085586
 20
80.25143067608723
 30
0.0
 11
98.02327624085586
 21
80.25143067608723
 31
0.0
  0
SOLID
  5
161C
330
15C2
100
AcDbEntity
  8
2
 62
     0
100
AcDbTrace
 10
58.01938124085586
 20
80.83476400942057
 30
0.0
 11
58.01938124085586
 21
79.66809734275391
 31
0.0
 12
54.51938124085586
 22
80.25143067608723
 32
0.0
 13
54.51938124085586
 23
80.25143067608723
 33
0.0
  0
SOLID
  5
161D
330
15C2
100
AcDbEntity
  8
2
 62
     0
100
AcDbTrace
 10
98.02327624085586
 20
80.83476400942057
 30
0.0
 11
98.02327624085586
 21
79.66809734275391
 31
0.0
 12
101.5232762408558
 22
80.25143067608723
 32
0.0
 13
101.5232762408558
 23
80.25143067608723
 33
0.0
  0
MTEXT
  5
161E
330
15C2
100
AcDbEntity
  8
2
 62
     0
100
AcDbMText
 10
78.02132874085586
 20
83.00143067608724
 30
0.0
 40
3.5
 41
0.0
 71
     5
 72
     1
  1
\A1;47
 73
     1
 44
1.0
1001
ACAD
1000
MTEXTBEGIN
1070
    73
1070
     1
1070
    44
1040
1.0
1070
    74
1070
     0
1000
MTEXTEND
  0
POINT
  5
161F
330
15C2
100
AcDbEntity
  8
DEFPOINTS
 62
     0
100
AcDbPoint
 10
54.51938124085586
 20
65.92273205855372
 30
0.0
  0
POINT
  5
1620
330
15C2
100
AcDbEntity
  8
DEFPOINTS
 62
     0
100
AcDbPoint
 10
101.5232762408558
 20
71.1989493788697
 30
0.0
  0
POINT
  5
1621
330
15C2
100
AcDbEntity
  8
DEFPOINTS
 62
     0
100
AcDbPoint
 10
101.5232762408558
 20
80.25143067608723
 30
0.0
  0
ENDBLK
  5
15C4
330
15C2
100
AcDbEntity
  8
0
100
AcDbBlockEnd
  0
BLOCK
  5
15D0
330
15CF
100
AcDbEntity
  8
0
100
AcDbBlockBegin
  2
*D8
 70
     1
 10
0.0
 20
0.0
 30
0.0
  3
*D8
  1

  0
LINE
  5
1611
330
15CF
100
AcDbEntity
  8
2
 62
     0
100
AcDbLine
 10
62.7474308834751
 20
62.42273205855372
 30
0.0
 11
62.74743088347509
 21
44.42273205855372
 31
0.0
  0
LINE
  5
1612
330
15CF
100
AcDbEntity
  8
2
 62
     0
100
AcDbLine
 10
62.74743088347509
 20
40.92273205855373
 30
0.0
 11
62.74743088347509
 21
25.43274562427093
 31
0.0
  0
SOLID
  5
1613
330
15CF
100
AcDbEntity
  8
2
 62
     0
100
AcDbTrace
 10
62.16409755014177
 20
62.42273205855372
 30
0.0
 11
63.33076421680844
 21
62.42273205855372
 31
0.0
 12
62.7474308834751
 22
65.92273205855372
 32
0.0
 13
62.7474308834751
 23
65.92273205855372
 33
0.0
  0
SOLID
  5
1614
330
15CF
100
AcDbEntity
  8
2
 62
     0
100
AcDbTrace
 10
62.16409755014176
 20
44.42273205855372
 30
0.0
 11
63.33076421680843
 21
44.42273205855372
 31
0.0
 12
62.74743088347509
 22
40.92273205855373
 32
0.0
 13
62.74743088347509
 23
40.92273205855373
 33
0.0
  0
MTEXT
  5
1615
330
15CF
100
AcDbEntity
  8
2
 62
     0
100
AcDbMText
 10
59.99743088347509
 20
31.09941229093761
 30
0.0
 40
3.5
 41
0.0
 71
     5
 72
     1
  1
\A1;%%C25
 11
0.0000000000000001
 21
1.0
 31
0.0
 73
     1
 44
1.0
1001
ACAD
1000
MTEXTBEGIN
1070
    73
1070
     1
1070
    44
1040
1.0
1070
    74
1070
     0
1000
MTEXTEND
  0
POINT
  5
1616
330
15CF
100
AcDbEntity
  8
DEFPOINTS
 62
     0
100
AcDbPoint
 10
62.74743088347509
 20
65.92273205855372
 30
0.0
  0
POINT
  5
1617
330
15CF
100
AcDbEntity
  8
DEFPOINTS
 62
     0
100
AcDbPoint
 10
62.74743088347509
 20
40.92273205855373
 30
0.0
  0
POINT
  5
1618
330
15CF
100
AcDbEntity
  8
DEFPOINTS
 62
     0
100
AcDbPoint
 10
62.74743088347509
 20
40.92273205855373
 30
0.0
  0
ENDBLK
  5
15D1
330
15CF
100
AcDbEntity
  8
0
100
AcDbBlockEnd
  0
ENDSEC
  0
SECTION
  2
ENTITIES
  0
LINE
  5
1434
330
19
100
AcDbEntity
  8
1
100
AcDbLine
 10
100.9656782408558
 20
49.86324505855371
 30
0.0
 11
100.9656782408558
 21
50.10335505855372
 31
0.0
  0
LINE
  5
1435
330
19
100
AcDbEntity
  8
1
100
AcDbLine
 10
101.1177452408558
 20
47.85147905855372
 30
0.0
 11
101.1177452408558
 21
49.77730405855372
 31
0.0
  0
LINE
  5
1436
330
19
100
AcDbEntity
  8
1
100
AcDbLine
 10
95.59939924085588
 20
42.51894605855372
 30
0.0
 11
101.1177452408558
 21
47.85147905855372
 31
0.0
  0
LINE
  5
1437
330
19
100
AcDbEntity
  8
1
100
AcDbLine
 10
81.43102024085587
 20
57.03433605855372
 30
0.0
 11
81.33103524085587
 21
57.20280405855373
 31
0.0
  0
LINE
  5
1438
330
19
100
AcDbEntity
  8
1
100
AcDbLine
 10
75.62398424085587
 20
43.01852305855371
 30
0.0
 11
75.58862724085587
 21
55.61468905855372
 31
0.0
  0
LINE
  5
1439
330
19
100
AcDbEntity
  8
1
100
AcDbLine
 10
76.51938124085586
 20
43.00960905855371
 30
0.0
 11
76.51938124085586
 21
40.92273205855372
 31
0.0
  0
LINE
  5
143A
330
19
100
AcDbEntity
  8
1
100
AcDbLine
 10
76.51938124085586
 20
65.92273205855372
 30
0.0
 11
76.51938124085586
 21
65.86344505855372
 31
0.0
  0
LINE
  5
143B
330
19
100
AcDbEntity
  8
1
100
AcDbLine
 10
82.33895824085587
 20
59.82921705855372
 30
0.0
 11
82.14140024085587
 21
59.94071405855372
 31
0.0
  0
LINE
  5
143C
330
19
100
AcDbEntity
  8
1
100
AcDbLine
 10
72.18635324085586
 20
56.08527405855372
 30
0.0
 11
72.64000324085586
 21
55.24746705855372
 31
0.0
  0
LINE
  5
143D
330
19
100
AcDbEntity
  8
SK1
100
AcDbLine
 10
7.069381240855861
 20
56.39976105855372
 30
0.0
 11
7.069381240855861
 21
50.44570305855372
 31
0.0
  0
LINE
  5
143E
330
19
100
AcDbEntity
  8
1
100
AcDbLine
 10
82.28256424085587
 20
60.64504005855372
 30
0.0
 11
92.16902824085586
 21
66.14367405855372
 31
0.0
  0
LINE
  5
143F
330
19
100
AcDbEntity
  8
1
100
AcDbLine
 10
93.00931524085587
 20
54.35348905855372
 30
0.0
 11
101.1177452408558
 21
49.77730405855372
 31
0.0
  0
LINE
  5
1440
330
19
100
AcDbEntity
  8
1
100
AcDbLine
 10
101.1177452408558
 20
47.85147905855372
 30
0.0
 11
101.1139272408558
 21
47.79694105855371
 31
0.0
  0
LINE
  5
1441
330
19
100
AcDbEntity
  8
SK1
100
AcDbLine
 10
1.519381240855864
 20
56.23404605855371
 30
0.0
 11
1.519381240855864
 21
50.61141805855372
 31
0.0
  0
LINE
  5
1442
330
19
100
AcDbEntity
  8
1
100
AcDbLine
 10
101.0477302408558
 20
46.85123805855371
 30
0.0
 11
100.8689432408558
 21
44.29705505855372
 31
0.0
  0
LINE
  5
1443
330
19
100
AcDbEntity
  8
1
100
AcDbLine
 10
76.69258624085586
 20
42.69941005855372
 30
0.0
 11
76.69258624085586
 21
40.62273205855372
 31
0.0
  0
LINE
  5
1444
330
19
100
AcDbEntity
  8
1
100
AcDbLine
 10
76.69258624085586
 20
66.22273205855371
 30
0.0
 11
76.69258624085586
 21
66.17222405855372
 31
0.0
  0
LINE
  5
1445
330
19
100
AcDbEntity
  8
1
100
AcDbLine
 10
75.57859224085587
 20
59.18974105855372
 30
0.0
 11
75.55986424085587
 21
65.86175505855371
 31
0.0
  0
LINE
  5
1446
330
19
100
AcDbEntity
  8
1
100
AcDbLine
 10
92.16902824085586
 20
66.14367405855372
 30
0.0
 11
92.16902824085586
 21
66.19377705855372
 31
0.0
  0
LINE
  5
1447
330
19
100
AcDbEntity
  8
1
100
AcDbLine
 10
51.17001624085586
 20
53.42273205855372
 30
0.0
 11
51.17001624085586
 21
28.42273205855372
 31
0.0
  0
LINE
  5
1448
330
19
100
AcDbEntity
  8
1
100
AcDbLine
 10
51.17001624085586
 20
78.42273205855372
 30
0.0
 11
51.17001624085586
 21
53.42273205855372
 31
0.0
  0
LINE
  5
1449
330
19
100
AcDbEntity
  8
1
100
AcDbLine
 10
84.24807924085587
 20
58.65653405855372
 30
0.0
 11
84.22354524085587
 21
58.63732205855372
 31
0.0
  0
LINE
  5
144A
330
19
100
AcDbEntity
  8
SK1
100
AcDbLine
 10
1.519381240855864
 20
37.15515005855372
 30
0.0
 11
31.51938124085587
 21
36.10752705855372
 31
0.0
  0
LINE
  5
144B
330
19
100
AcDbEntity
  8
SK1
100
AcDbLine
 10
31.51938124085587
 20
70.73793705855371
 30
0.0
 11
1.519381240855864
 21
69.69031405855372
 31
0.0
  0
LINE
  5
144C
330
19
100
AcDbEntity
  8
1
100
AcDbLine
 10
76.51938124085586
 20
40.92273205855372
 30
0.0
 11
76.69258624085586
 21
40.62273205855372
 31
0.0
  0
LINE
  5
144D
330
19
100
AcDbEntity
  8
1
100
AcDbLine
 10
76.69258624085586
 20
66.22273205855371
 30
0.0
 11
76.51938124085586
 21
65.92273205855372
 31
0.0
  0
LINE
  5
144E
330
19
100
AcDbEntity
  8
1
100
AcDbLine
 10
76.69258624085586
 20
40.62273205855372
 30
0.0
 11
95.26369924085587
 21
40.62273205855372
 31
0.0
  0
LINE
  5
144F
330
19
100
AcDbEntity
  8
1
100
AcDbLine
 10
92.15500724085586
 20
66.22273205855371
 30
0.0
 11
76.69258624085586
 21
66.22273205855371
 31
0.0
  0
LINE
  5
1450
330
19
100
AcDbEntity
  8
1
100
AcDbLine
 10
54.51938124085586
 20
40.92273205855372
 30
0.0
 11
76.51938124085586
 21
40.92273205855372
 31
0.0
  0
LINE
  5
1451
330
19
100
AcDbEntity
  8
1
100
AcDbLine
 10
76.51938124085586
 20
65.92273205855372
 30
0.0
 11
54.51938124085586
 21
65.92273205855372
 31
0.0
  0
LINE
  5
1452
330
19
100
AcDbEntity
  8
1
100
AcDbLine
 10
54.51938124085586
 20
65.92273205855372
 30
0.0
 11
51.17001624085586
 21
78.42273205855372
 31
0.0
  0
LINE
  5
1453
330
19
100
AcDbEntity
  8
1
100
AcDbLine
 10
51.17001624085586
 20
28.42273205855372
 30
0.0
 11
54.51938124085586
 21
40.92273205855372
 31
0.0
  0
LINE
  5
1454
330
19
100
AcDbEntity
  8
1
100
AcDbLine
 10
51.17001624085586
 20
78.42273205855372
 30
0.0
 11
31.51938124085587
 21
78.42273205855372
 31
0.0
  0
LINE
  5
1455
330
19
100
AcDbEntity
  8
1
100
AcDbLine
 10
31.51938124085587
 20
28.42273205855372
 30
0.0
 11
51.17001624085586
 21
28.42273205855372
 31
0.0
  0
LINE
  5
1456
330
19
100
AcDbEntity
  8
1
100
AcDbLine
 10
84.65769824085587
 20
54.17390405855371
 30
0.0
 11
84.60550524085586
 21
53.42825605855371
 31
0.0
  0
LINE
  5
1457
330
19
100
AcDbEntity
  8
1
100
AcDbLine
 10
82.58777924085586
 20
52.81101205855371
 30
0.0
 11
82.63994124085586
 21
53.55620905855372
 31
0.0
  0
LINE
  5
1458
330
19
100
AcDbEntity
  8
1
100
AcDbLine
 10
85.01689224085586
 20
52.43063605855372
 30
0.0
 11
84.97399024085586
 21
51.81773505855372
 31
0.0
  0
LINE
  5
1459
330
19
100
AcDbEntity
  8
1
100
AcDbLine
 10
82.99025624085587
 20
51.68609205855371
 30
0.0
 11
83.00117424085586
 21
51.84207305855372
 31
0.0
  0
LINE
  5
145A
330
19
100
AcDbEntity
  8
1
100
AcDbLine
 10
79.82565324085587
 20
53.09375805855371
 30
0.0
 11
79.81718624085586
 21
52.97279705855372
 31
0.0
  0
LINE
  5
145B
330
19
100
AcDbEntity
  8
1
100
AcDbLine
 10
83.82891524085586
 20
60.68848105855372
 30
0.0
 11
83.75779324085586
 21
59.67240905855371
 31
0.0
  0
LINE
  5
145C
330
19
100
AcDbEntity
  8
1
100
AcDbLine
 10
87.79765824085586
 20
52.41418205855372
 30
0.0
 11
87.80612524085587
 21
52.53514305855372
 31
0.0
  0
LINE
  5
145D
330
19
100
AcDbEntity
  8
1
100
AcDbLine
 10
95.66016724085587
 20
59.34460305855371
 30
0.0
 11
93.30175524085587
 21
61.98707505855371
 31
0.0
  0
LINE
  5
145E
330
19
100
AcDbEntity
  8
1
100
AcDbLine
 10
101.4490512408558
 20
51.01948405855371
 30
0.0
 11
101.5201742408558
 21
52.03555605855372
 31
0.0
  0
LINE
  5
145F
330
19
100
AcDbEntity
  8
1
100
AcDbLine
 10
86.75429924085587
 20
48.47982705855372
 30
0.0
 11
89.93380924085586
 21
51.14896405855372
 31
0.0
  0
LINE
  5
1460
330
19
100
AcDbEntity
  8
1
100
AcDbLine
 10
79.41308224085587
 20
52.92815205855372
 30
0.0
 11
79.34911624085586
 21
52.01432705855371
 31
0.0
  0
LINE
  5
1461
330
19
100
AcDbEntity
  8
1
100
AcDbLine
 10
84.22300724085586
 20
58.63688505855371
 30
0.0
 11
80.91999824085586
 21
55.86407305855371
 31
0.0
  0
LINE
  5
1462
330
19
100
AcDbEntity
  8
1
100
AcDbLine
 10
79.32585124085587
 20
51.98667205855372
 30
0.0
 11
78.97074324085586
 21
51.68856605855371
 31
0.0
  0
LINE
  5
1463
330
19
100
AcDbEntity
  8
1
100
AcDbLine
 10
78.07031824085587
 20
49.85361405855371
 30
0.0
 11
77.92778124085586
 21
47.81730805855372
 31
0.0
  0
LINE
  5
1464
330
19
100
AcDbEntity
  8
1
100
AcDbLine
 10
92.15751324085585
 20
65.97916705855372
 30
0.0
 11
92.16902824085586
 21
66.14367405855372
 31
0.0
  0
LINE
  5
1465
330
19
100
AcDbEntity
  8
1
100
AcDbLine
 10
82.37103524085586
 20
60.31206505855371
 30
0.0
 11
83.97999324085587
 21
61.20693205855372
 31
0.0
  0
LINE
  5
1466
330
19
100
AcDbEntity
  8
1
100
AcDbLine
 10
82.27104924085587
 20
60.48053305855372
 30
0.0
 11
84.36651624085586
 21
61.64598605855371
 31
0.0
  0
LINE
  5
1467
330
19
100
AcDbEntity
  8
1
100
AcDbLine
 10
91.21860824085587
 20
65.45696905855371
 30
0.0
 11
92.15751324085585
 21
65.97916705855372
 31
0.0
  0
LINE
  5
1468
330
19
100
AcDbEntity
  8
1
100
AcDbLine
 10
82.27104924085587
 20
60.48053305855372
 30
0.0
 11
82.28256424085587
 21
60.64504005855372
 31
0.0
  0
LINE
  5
1469
330
19
100
AcDbEntity
  8
1
100
AcDbLine
 10
82.33895824085587
 20
59.82921705855372
 30
0.0
 11
83.82668924085587
 21
60.6566610585537
 31
0.0
  0
LINE
  5
146A
330
19
100
AcDbEntity
  8
1
100
AcDbLine
 10
82.18468624085586
 20
59.24673205855372
 30
0.0
 11
82.22977124085586
 21
59.89082805855372
 31
0.0
  0
LINE
  5
146B
330
19
100
AcDbEntity
  8
1
100
AcDbLine
 10
82.35418624085587
 20
60.07135705855372
 30
0.0
 11
82.37103524085586
 21
60.31206505855371
 31
0.0
  0
LINE
  5
146C
330
19
100
AcDbEntity
  8
1
100
AcDbLine
 10
82.23048324085587
 20
58.30411305855372
 30
0.0
 11
83.81806724085587
 21
59.18709305855371
 31
0.0
  0
LINE
  5
146D
330
19
100
AcDbEntity
  8
1
100
AcDbLine
 10
82.18468624085586
 20
59.24673205855372
 30
0.0
 11
83.79061824085587
 21
60.13991605855372
 31
0.0
  0
LINE
  5
146E
330
19
100
AcDbEntity
  8
1
100
AcDbLine
 10
82.23048324085587
 20
58.30411305855372
 30
0.0
 11
82.28467124085588
 21
59.07826305855372
 31
0.0
  0
LINE
  5
146F
330
19
100
AcDbEntity
  8
1
100
AcDbLine
 10
92.15751324085585
 20
65.83687705855371
 30
0.0
 11
92.15751324085585
 21
65.97916705855372
 31
0.0
  0
LINE
  5
1470
330
19
100
AcDbEntity
  8
1
100
AcDbLine
 10
82.28467124085588
 20
59.07826305855372
 30
0.0
 11
83.77420424085586
 21
59.90670905855371
 31
0.0
  0
LINE
  5
1471
330
19
100
AcDbEntity
  8
1
100
AcDbLine
 10
31.51938124085587
 20
78.42273205855372
 30
0.0
 11
31.51938124085587
 21
28.42273205855372
 31
0.0
  0
LINE
  5
1472
330
19
100
AcDbEntity
  8
SK1
100
AcDbLine
 10
1.519381240855864
 20
40.10971205855372
 30
0.0
 11
31.51938124085587
 21
39.48464405855372
 31
0.0
  0
LINE
  5
1473
330
19
100
AcDbEntity
  8
SK1
100
AcDbLine
 10
1.519381240855864
 20
37.30439305855372
 30
0.0
 11
31.51938124085587
 21
36.26377705855372
 31
0.0
  0
LINE
  5
1474
330
19
100
AcDbEntity
  8
1
100
AcDbLine
 10
43.26938124085586
 20
29.73369905855372
 30
0.0
 11
43.26938124085586
 21
45.43338105855371
 31
0.0
  0
LINE
  5
1475
330
19
100
AcDbEntity
  8
1
100
AcDbLine
 10
39.76938124085587
 20
29.73369905855372
 30
0.0
 11
39.76938124085587
 21
45.43338105855371
 31
0.0
  0
LINE
  5
1476
330
19
100
AcDbEntity
  8
1
100
AcDbLine
 10
43.26938124085586
 20
61.41208305855371
 30
0.0
 11
43.26938124085586
 21
77.11176505855371
 31
0.0
  0
LINE
  5
1477
330
19
100
AcDbEntity
  8
1
100
AcDbLine
 10
39.76938124085587
 20
61.41208305855371
 30
0.0
 11
39.76938124085587
 21
77.11176505855371
 31
0.0
  0
LINE
  5
1478
330
19
100
AcDbEntity
  8
SK1
100
AcDbLine
 10
1.519381240855864
 20
37.30439305855372
 30
0.0
 11
1.519381240855864
 21
37.15515005855372
 31
0.0
  0
LINE
  5
1479
330
19
100
AcDbEntity
  8
SK1
100
AcDbLine
 10
1.519381240855864
 20
37.30439305855372
 30
0.0
 11
1.519381240855864
 21
40.10971205855372
 31
0.0
  0
LINE
  5
147A
330
19
100
AcDbEntity
  8
SK1
100
AcDbLine
 10
1.519381240855864
 20
56.23404605855371
 30
0.0
 11
1.519381240855864
 21
66.73575205855373
 31
0.0
  0
LINE
  5
147B
330
19
100
AcDbEntity
  8
SK1
100
AcDbLine
 10
1.519381240855864
 20
40.10971205855372
 30
0.0
 11
1.519381240855864
 21
50.61141805855372
 31
0.0
  0
LINE
  5
147C
330
19
100
AcDbEntity
  8
SK1
100
AcDbLine
 10
1.519381240855864
 20
66.73575205855373
 30
0.0
 11
1.519381240855864
 21
69.54107105855372
 31
0.0
  0
LINE
  5
147D
330
19
100
AcDbEntity
  8
SK1
100
AcDbLine
 10
1.519381240855864
 20
69.69031405855372
 30
0.0
 11
1.519381240855864
 21
69.54107105855372
 31
0.0
  0
LINE
  5
147E
330
19
100
AcDbEntity
  8
SK1
100
AcDbLine
 10
1.519381240855864
 20
69.54107105855372
 30
0.0
 11
31.51938124085587
 21
70.58168705855371
 31
0.0
  0
LINE
  5
147F
330
19
100
AcDbEntity
  8
SK1
100
AcDbLine
 10
1.519381240855864
 20
66.73575205855373
 30
0.0
 11
31.51938124085587
 21
67.36082005855371
 31
0.0
  0
LINE
  5
1480
330
19
100
AcDbEntity
  8
1
100
AcDbLine
 10
54.51938124085586
 20
53.42273205855372
 30
0.0
 11
54.51938124085586
 21
40.92273205855372
 31
0.0
  0
LINE
  5
1481
330
19
100
AcDbEntity
  8
1
100
AcDbLine
 10
54.51938124085586
 20
65.92273205855372
 30
0.0
 11
54.51938124085586
 21
53.42273205855372
 31
0.0
  0
LINE
  5
1482
330
19
100
AcDbEntity
  8
1
100
AcDbLine
 10
39.76938124085587
 20
45.43338105855371
 30
0.0
 11
43.26938124085586
 21
45.43338105855371
 31
0.0
  0
LINE
  5
1483
330
19
100
AcDbEntity
  8
1
100
AcDbLine
 10
43.26938124085586
 20
29.73369905855372
 30
0.0
 11
39.76938124085587
 21
29.73369905855372
 31
0.0
  0
LINE
  5
1484
330
19
100
AcDbEntity
  8
1
100
AcDbLine
 10
39.76938124085587
 20
77.11176505855371
 30
0.0
 11
43.26938124085586
 21
77.11176505855371
 31
0.0
  0
LINE
  5
1485
330
19
100
AcDbEntity
  8
1
100
AcDbLine
 10
43.26938124085586
 20
61.41208305855371
 30
0.0
 11
39.76938124085587
 21
61.41208305855371
 31
0.0
  0
LINE
  5
1486
330
19
100
AcDbEntity
  8
1
100
AcDbLine
 10
93.69627424085587
 20
66.64827605855371
 30
0.0
 11
101.5088942408558
 21
66.61626105855372
 31
0.0
  0
LINE
  5
1487
330
19
100
AcDbEntity
  8
1
100
AcDbLine
 10
87.79765824085586
 20
52.41418205855372
 30
0.0
 11
87.79767624085586
 21
52.41442805855372
 31
0.0
  0
LINE
  5
1488
330
19
100
AcDbEntity
  8
1
100
AcDbLine
 10
82.97862024085587
 20
51.70411405855372
 30
0.0
 11
82.98510024085587
 21
51.79668805855371
 31
0.0
  0
LINE
  5
1489
330
19
100
AcDbEntity
  8
1
100
AcDbLine
 10
82.27897224085586
 20
52.48461005855372
 30
0.0
 11
82.32319424085586
 21
53.11637205855372
 31
0.0
  0
LINE
  5
148A
330
19
100
AcDbEntity
  8
1
100
AcDbLine
 10
84.66456524085586
 20
54.20260005855372
 30
0.0
 11
84.67304624085587
 21
54.32375705855372
 31
0.0
  0
LINE
  5
148B
330
19
100
AcDbEntity
  8
1
100
AcDbLine
 10
83.16037824085587
 20
53.53871805855371
 30
0.0
 11
83.21257224085586
 21
54.28436605855371
 31
0.0
  0
LINE
  5
148C
330
19
100
AcDbEntity
  8
1
100
AcDbLine
 10
83.11570424085585
 20
53.58726805855372
 30
0.0
 11
83.16753124085586
 21
54.32767305855371
 31
0.0
  0
LINE
  5
148D
330
19
100
AcDbEntity
  8
1
100
AcDbLine
 10
83.02266924085586
 20
53.64719805855371
 30
0.0
 11
83.07394124085586
 21
54.37967805855372
 31
0.0
  0
LINE
  5
148E
330
19
100
AcDbEntity
  8
1
100
AcDbLine
 10
85.13471724085587
 20
52.90435205855371
 30
0.0
 11
85.18654324085586
 21
53.64475705855372
 31
0.0
  0
LINE
  5
148F
330
19
100
AcDbEntity
  8
1
100
AcDbLine
 10
82.33416624085586
 20
52.41765205855371
 30
0.0
 11
82.38419824085587
 21
53.13241405855372
 31
0.0
  0
LINE
  5
1490
330
19
100
AcDbEntity
  8
1
100
AcDbLine
 10
82.53600824085586
 20
53.90126005855371
 30
0.0
 11
82.53800424085588
 21
53.92976905855372
 31
0.0
  0
LINE
  5
1491
330
19
100
AcDbEntity
  8
1
100
AcDbLine
 10
101.5088942408558
 20
66.61626105855372
 30
0.0
 11
101.5193812408558
 21
69.00867505855372
 31
0.0
  0
LINE
  5
1492
330
19
100
AcDbEntity
  8
1
100
AcDbLine
 10
85.07149924085586
 20
52.89229605855371
 30
0.0
 11
85.12369324085588
 21
53.63794405855371
 31
0.0
  0
LINE
  5
1493
330
19
100
AcDbEntity
  8
1
100
AcDbLine
 10
99.49856624085587
 20
50.99819205855371
 30
0.0
 11
99.47788824085586
 21
50.70278505855371
 31
0.0
  0
LINE
  5
1494
330
19
100
AcDbEntity
  8
1
100
AcDbLine
 10
84.60561624085586
 20
53.41429205855371
 30
0.0
 11
84.65781024085586
 21
54.15994005855371
 31
0.0
  0
LINE
  5
1495
330
19
100
AcDbEntity
  8
1
100
AcDbLine
 10
84.50071724085587
 20
59.46258405855371
 30
0.0
 11
84.45502824085586
 21
58.80986905855372
 31
0.0
  0
LINE
  5
1496
330
19
100
AcDbEntity
  8
1
100
AcDbLine
 10
82.20070424085587
 20
52.64065005855371
 30
0.0
 11
82.23033124085587
 21
53.06390905855372
 31
0.0
  0
LINE
  5
1497
330
19
100
AcDbEntity
  8
1
100
AcDbLine
 10
85.24177124085587
 20
52.89660305855372
 30
0.0
 11
85.29304324085586
 21
53.62908405855371
 31
0.0
  0
LINE
  5
1498
330
19
100
AcDbEntity
  8
1
100
AcDbLine
 10
83.88293624085587
 20
53.72884805855372
 30
0.0
 11
83.93476324085588
 21
54.46925305855372
 31
0.0
  0
LINE
  5
1499
330
19
100
AcDbEntity
  8
1
100
AcDbLine
 10
83.95033924085586
 20
53.81838505855371
 30
0.0
 11
84.00161124085586
 21
54.55086505855371
 31
0.0
  0
LINE
  5
149A
330
19
100
AcDbEntity
  8
1
100
AcDbLine
 10
84.50071724085587
 20
59.46258405855371
 30
0.0
 11
84.97689924085587
 21
59.19384005855372
 31
0.0
  0
LINE
  5
149B
330
19
100
AcDbEntity
  8
1
100
AcDbLine
 10
93.17275524085586
 20
54.56831405855372
 30
0.0
 11
99.49856624085587
 21
50.99819205855371
 31
0.0
  0
LINE
  5
149C
330
19
100
AcDbEntity
  8
1
100
AcDbLine
 10
83.85745424085587
 20
53.66735205855372
 30
0.0
 11
83.90964824085587
 21
54.41300005855372
 31
0.0
  0
LINE
  5
149D
330
19
100
AcDbEntity
  8
1
100
AcDbLine
 10
85.06412324085587
 20
51.93928605855372
 30
0.0
 11
85.08121724085587
 21
52.18349205855372
 31
0.0
  0
LINE
  5
149E
330
19
100
AcDbEntity
  8
1
100
AcDbLine
 10
85.01799824085587
 20
51.86886905855371
 30
0.0
 11
85.04348124085586
 21
52.23293205855371
 31
0.0
  0
LINE
  5
149F
330
19
100
AcDbEntity
  8
1
100
AcDbLine
 10
84.47944324085588
 20
58.52645005855372
 30
0.0
 11
84.43821224085587
 21
58.49416205855371
 31
0.0
  0
LINE
  5
14A0
330
19
100
AcDbEntity
  8
1
100
AcDbLine
 10
87.47495324085587
 20
50.50117605855373
 30
0.0
 11
89.81712424085587
 21
52.46738305855372
 31
0.0
  0
LINE
  5
14A1
330
19
100
AcDbEntity
  8
1
100
AcDbLine
 10
79.52381924085587
 20
51.82947905855371
 30
0.0
 11
79.16871124085587
 21
51.53137205855371
 31
0.0
  0
LINE
  5
14A2
330
19
100
AcDbEntity
  8
1
100
AcDbLine
 10
90.27581324085586
 20
61.67320805855371
 30
0.0
 11
94.19174724085587
 21
57.28561705855371
 31
0.0
  0
LINE
  5
14A3
330
19
100
AcDbEntity
  8
1
100
AcDbLine
 10
82.39170624085586
 20
46.81738305855371
 30
0.0
 11
82.50337924085586
 21
48.41277505855372
 31
0.0
  0
LINE
  5
14A4
330
19
100
AcDbEntity
  8
1
100
AcDbLine
 10
84.43821224085587
 20
58.49416205855371
 30
0.0
 11
82.09604124085586
 21
56.52795405855371
 31
0.0
  0
LINE
  5
14A5
330
19
100
AcDbEntity
  8
1
100
AcDbLine
 10
95.21291124085587
 20
57.77755505855371
 30
0.0
 11
95.20290224085586
 21
57.63456805855371
 31
0.0
  0
LINE
  5
14A6
330
19
100
AcDbEntity
  8
1
100
AcDbLine
 10
86.61746524085586
 20
48.37096005855372
 30
0.0
 11
89.93771124085588
 21
51.15824305855372
 31
0.0
  0
LINE
  5
14A7
330
19
100
AcDbEntity
  8
1
100
AcDbLine
 10
89.98795624085586
 20
52.15678805855372
 30
0.0
 11
86.68858824085587
 21
49.38703205855372
 31
0.0
  0
LINE
  5
14A8
330
19
100
AcDbEntity
  8
1
100
AcDbLine
 10
86.61746524085586
 20
48.37096005855372
 30
0.0
 11
86.68858824085587
 21
49.38703205855372
 31
0.0
  0
LINE
  5
14A9
330
19
100
AcDbEntity
  8
1
100
AcDbLine
 10
95.69557924085586
 20
58.51355205855371
 30
0.0
 11
95.72572524085586
 21
58.94422205855372
 31
0.0
  0
LINE
  5
14AA
330
19
100
AcDbEntity
  8
1
100
AcDbLine
 10
82.65960724085585
 20
46.89044005855372
 30
0.0
 11
82.77052024085588
 21
48.47496205855371
 31
0.0
  0
LINE
  5
14AB
330
19
100
AcDbEntity
  8
1
100
AcDbLine
 10
90.00874624085588
 20
52.17306905855372
 30
0.0
 11
89.98795624085586
 21
52.15678805855372
 31
0.0
  0
LINE
  5
14AC
330
19
100
AcDbEntity
  8
1
100
AcDbLine
 10
89.93771124085588
 20
51.15824305855372
 30
0.0
 11
90.00874624085588
 21
52.17306905855372
 31
0.0
  0
LINE
  5
14AD
330
19
100
AcDbEntity
  8
1
100
AcDbLine
 10
79.41864524085587
 20
52.15261705855372
 30
0.0
 11
79.42370324085587
 21
52.22488805855372
 31
0.0
  0
LINE
  5
14AE
330
19
100
AcDbEntity
  8
1
100
AcDbLine
 10
89.81712424085587
 20
52.46738305855372
 30
0.0
 11
89.85835524085587
 21
52.49967205855371
 31
0.0
  0
LINE
  5
14AF
330
19
100
AcDbEntity
  8
1
100
AcDbLine
 10
79.16871124085587
 20
51.53137205855371
 30
0.0
 11
80.56263624085586
 21
49.96955405855371
 31
0.0
  0
LINE
  5
14B0
330
19
100
AcDbEntity
  8
1
100
AcDbLine
 10
82.50337924085586
 20
48.41277505855372
 30
0.0
 11
82.14827124085587
 21
48.11466805855372
 31
0.0
  0
LINE
  5
14B1
330
19
100
AcDbEntity
  8
1
100
AcDbLine
 10
80.56263624085586
 20
49.96955405855371
 30
0.0
 11
81.95656224085587
 21
48.40773705855372
 31
0.0
  0
LINE
  5
14B2
330
19
100
AcDbEntity
  8
1
100
AcDbLine
 10
81.95656224085587
 20
48.40773705855372
 30
0.0
 11
82.31167024085587
 21
48.70584405855372
 31
0.0
  0
LINE
  5
14B3
330
19
100
AcDbEntity
  8
1
100
AcDbLine
 10
78.91274924085587
 20
51.63958305855371
 30
0.0
 11
78.91022424085587
 21
51.63146805855372
 31
0.0
  0
LINE
  5
14B4
330
19
100
AcDbEntity
  8
1
100
AcDbLine
 10
81.98220824085586
 20
46.50328905855372
 30
0.0
 11
82.09165424085586
 21
48.06684805855372
 31
0.0
  0
LINE
  5
14B5
330
19
100
AcDbEntity
  8
1
100
AcDbLine
 10
84.50071724085587
 20
61.73137605855372
 30
0.0
 11
91.18426424085591
 21
65.44861805855373
 31
0.0
  0
LINE
  5
14B6
330
19
100
AcDbEntity
  8
1
100
AcDbLine
 10
101.5232762408558
 20
52.12429105855372
 30
0.0
 11
101.5232762408559
 21
69.20275765941766
 31
0.0
  0
LINE
  5
14B7
330
19
100
AcDbEntity
  8
1
100
AcDbLine
 10
84.43821224085587
 20
58.49416205855371
 30
0.0
 11
89.81712424085587
 21
52.46738305855372
 31
0.0
  0
LINE
  5
14B8
330
19
100
AcDbEntity
  8
1
100
AcDbLine
 10
101.5193812408558
 20
69.00867505855372
 30
0.0
 11
97.70941624085587
 21
69.02428705855371
 31
0.0
  0
LINE
  5
14B9
330
19
100
AcDbEntity
  8
1
100
AcDbLine
 10
101.5232762408558
 20
65.40625005855372
 30
0.0
 11
91.18426424085587
 21
65.44861805855372
 31
0.0
  0
LINE
  5
14BA
330
19
100
AcDbEntity
  8
1
100
AcDbLine
 10
93.69627424085587
 20
66.64827605855371
 30
0.0
 11
97.70941624085587
 21
69.02428705855371
 31
0.0
  0
LINE
  5
14BB
330
19
100
AcDbEntity
  8
1
100
AcDbLine
 10
97.70941624085587
 20
69.02428705855371
 30
0.0
 11
98.05577624085586
 21
69.21692505855371
 31
0.0
  0
LINE
  5
14BC
330
19
100
AcDbEntity
  8
1
100
AcDbLine
 10
101.5193812408558
 20
69.20273205855372
 30
0.0
 11
98.05577624085586
 21
69.21692505855371
 31
0.0
  0
LINE
  5
14BD
330
19
100
AcDbEntity
  8
1
100
AcDbLine
 10
101.5193812408558
 20
69.00867505855372
 30
0.0
 11
101.5193812408558
 21
69.20273205855372
 31
0.0
  0
LINE
  5
14BE
330
19
100
AcDbEntity
  8
1
100
AcDbLine
 10
95.71494424085587
 20
58.58431605855371
 30
0.0
 11
95.74628224085586
 21
59.03201805855371
 31
0.0
  0
ELLIPSE
  5
14BF
330
19
100
AcDbEntity
  8
1
100
AcDbEllipse
 10
67.51996324085587
 20
53.93255405855372
 30
0.0
 11
-10.81978949115594
 21
-4.901373759257724
 31
0.0
210
0.0
220
0.0
230
1.0
 40
0.205626
 41
2.314737093015892
 42
3.784064658690165
  0
ELLIPSE
  5
14C0
330
19
100
AcDbEntity
  8
1
100
AcDbEllipse
 10
72.28888524085586
 20
56.36244105855372
 30
0.0
 11
1.134976249348862
 21
-2.227516310470908
 31
0.0
210
0.0
220
0.0
230
1.0
 40
0.087156
 41
0.7170350205516982
 42
1.962912801348765
  0
ELLIPSE
  5
14C1
330
19
100
AcDbEntity
  8
1
100
AcDbEllipse
 10
72.28888524085586
 20
56.36244105855372
 30
0.0
 11
0.6809857496093072
 21
-1.336509786282524
 31
0.0
210
0.0
220
0.0
230
1.0
 40
0.087156
 41
4.584627170338606
 42
4.88180220132873
  0
ELLIPSE
  5
14C2
330
19
100
AcDbEntity
  8
1
100
AcDbEllipse
 10
72.28888524085586
 20
56.36244105855372
 30
0.0
 11
0.6809857496093072
 21
-1.336509786282524
 31
0.0
210
0.0
220
0.0
230
1.0
 40
0.087156
 41
4.88180220132873
 42
6.283185307179585
  0
ELLIPSE
  5
14C3
330
19
100
AcDbEntity
  8
1
100
AcDbEllipse
 10
72.28888524085586
 20
56.36244105855372
 30
0.0
 11
0.6809857496093072
 21
-1.336509786282524
 31
0.0
210
0.0
220
0.0
230
1.0
 40
0.087156
 41
0.0
 42
2.126429345560846
  0
ELLIPSE
  5
14C4
330
19
100
AcDbEntity
  8
1
100
AcDbEllipse
 10
79.65754524085586
 20
53.42273205855372
 30
0.0
 11
-9.016452269683359
 21
10.35095146348107
 31
0.0
210
0.0
220
0.0
230
1.0
 40
0.7772120000000001
 41
5.786870845480374
 42
8.242162728120504
  0
ELLIPSE
  5
14C5
330
19
100
AcDbEntity
  8
1
100
AcDbEllipse
 10
74.06928024085586
 20
57.26959805855371
 30
0.0
 11
-0.3042033895106627
 21
-2.662624539278286
 31
0.0
210
0.0
220
0.0
230
1.0
 40
0.757874
 41
2.458751279099363
 42
5.257856069541846
  0
ELLIPSE
  5
14C6
330
19
100
AcDbEntity
  8
1
100
AcDbEllipse
 10
323.9143142408559
 20
53.4227320585537
 30
0.0
 11
-755.7675570933895
 21
3.097880982545774
 31
0.0
210
0.0
220
0.0
230
1.0
 40
0.016433
 41
1.237616337914932
 42
1.263972289939765
  0
ELLIPSE
  5
14C7
330
19
100
AcDbEntity
  8
1
100
AcDbEllipse
 10
80.15207924085586
 20
48.16302705855372
 30
0.0
 11
-2.493897803686626
 21
0.1745673072686021
 31
0.0
210
0.0
220
0.0
230
1.0
 40
0.970148
 41
5.783850584269816
 42
8.778799180864876
  0
ELLIPSE
  5
14C8
330
19
100
AcDbEntity
  8
1
100
AcDbEllipse
 10
83.68236324085586
 20
58.28648305855371
 30
0.0
 11
2.593653715834094
 21
-0.1815499995593462
 31
0.0
210
0.0
220
0.0
230
1.0
 40
0.970148
 41
3.732995531778782
 42
3.955950601963888
  0
ELLIPSE
  5
14C9
330
19
100
AcDbEntity
  8
1
100
AcDbEllipse
 10
323.9144162408559
 20
53.4227270585537
 30
0.0
 11
-755.7677342585245
 21
3.097883034101089
 31
0.0
210
0.0
220
0.0
230
1.0
 40
0.016433
 41
5.024112804292863
 42
5.045703747650517
  0
ELLIPSE
  5
14CA
330
19
100
AcDbEntity
  8
1
100
AcDbEllipse
 10
74.06928024085586
 20
57.26959805855371
 30
0.0
 11
-0.304203389510578
 21
-2.662624539278299
 31
0.0
210
0.0
220
0.0
230
1.0
 40
0.757874
 41
5.656887448265472
 42
7.272609020604617
  0
ELLIPSE
  5
14CB
330
19
100
AcDbEntity
  8
1
100
AcDbEllipse
 10
94.80189424085587
 20
58.09225805855373
 30
0.0
 11
-1.995118242949303
 21
0.1396538458148817
 31
0.0
210
0.0
220
0.0
230
1.0
 40
0.970148
 41
3.281064149564711
 42
4.649914984973802
  0
ELLIPSE
  5
14CC
330
19
100
AcDbEntity
  8
1
100
AcDbEllipse
 10
82.79731724085586
 20
45.92883005855371
 30
0.0
 11
0.997559121474646
 21
-0.0698269229074405
 31
0.0
210
0.0
220
0.0
230
1.0
 40
0.970148
 41
1.47242051620811
 42
2.495613873685293
  0
ELLIPSE
  5
14CD
330
19
100
AcDbEntity
  8
1
100
AcDbEllipse
 10
101.0808292408558
 20
47.79900805855372
 30
0.0
 11
-0.0071497390653923
 21
-2.292424229597851
 31
0.0
210
0.0
220
0.0
230
1.0
 40
0.014441
 41
4.743475422867373
 42
5.138658270295433
  0
ELLIPSE
  5
14CE
330
19
100
AcDbEntity
  8
1
100
AcDbEllipse
 10
94.81656024085587
 20
58.30176805855372
 30
0.0
 11
3.491456925161279
 21
-0.2443942301760431
 31
0.0
210
0.0
220
0.0
230
1.0
 40
0.970148
 41
0.7881122895439481
 42
1.959926413578554
  0
ELLIPSE
  5
14CF
330
19
100
AcDbEntity
  8
1
100
AcDbEllipse
 10
101.3910912408558
 20
47.62390405855372
 30
0.0
 11
-1.446386988446916
 21
-1.478286617104236
 31
0.0
210
0.0
220
0.0
230
1.0
 40
0.154391
 41
4.746315202650849
 42
7.460782102729548
  0
ELLIPSE
  5
14D0
330
19
100
AcDbEntity
  8
1
100
AcDbEllipse
 10
83.58237824085586
 20
58.45495105855372
 30
0.0
 11
2.59365371583409
 21
-0.181549999559346
 31
0.0
210
0.0
220
0.0
230
1.0
 40
0.970148
 41
2.162199204983881
 42
3.732995531778783
  0
ELLIPSE
  5
14D1
330
19
100
AcDbEntity
  8
1
100
AcDbEllipse
 10
107.7376082408558
 20
53.42273205855372
 30
0.0
 11
-12.72101150473276
 21
-12.71726773981958
 31
0.0
210
0.0
220
0.0
230
1.0
 40
0.114218
 41
5.845669978099211
 42
7.174052598533761
  0
ELLIPSE
  5
14D2
330
19
100
AcDbEntity
  8
1
100
AcDbEllipse
 10
92.10255424085586
 20
53.42273205855372
 30
0.0
 11
-0.0524670243027044
 21
-12.79999997082183
 31
0.0
210
0.0
220
0.0
230
1.0
 40
0.016433
 41
3.074385459045354
 42
3.141663748458483
  0
ELLIPSE
  5
14D3
330
19
100
AcDbEntity
  8
1
100
AcDbEllipse
 10
83.69870624085587
 20
51.14035105855371
 30
0.0
 11
-4.439138090562199
 21
0.3107298069381118
 31
0.0
210
0.0
220
0.0
230
1.0
 40
0.9701479999999998
 41
1.472420516208097
 42
2.773504344993976
  0
ELLIPSE
  5
14D4
330
19
100
AcDbEntity
  8
1
100
AcDbEllipse
 10
80.03896024085587
 20
46.54698805855372
 30
0.0
 11
-2.493897803686626
 21
0.1745673072686021
 31
0.0
210
0.0
220
0.0
230
1.0
 40
0.970148
 41
5.783850584269806
 42
5.942712894007679
  0
ELLIPSE
  5
14D5
330
19
100
AcDbEntity
  8
1
100
AcDbEllipse
 10
83.82943624085587
 20
53.00798805855372
 30
0.0
 11
1.421791940936909
 21
-0.0995222780414876
 31
0.0
210
0.0
220
0.0
230
1.0
 40
0.970148
 41
4.740535975797917
 42
5.203822625591577
  0
ELLIPSE
  5
14D6
330
19
100
AcDbEntity
  8
1
100
AcDbEllipse
 10
83.46863124085587
 20
54.81075405855371
 30
0.0
 11
0.5994277053552097
 21
-0.0419586080357304
 31
0.0
210
0.0
220
0.0
230
1.0
 40
0.970148
 41
4.339914278579254
 42
4.396341229255712
  0
ELLIPSE
  5
14D7
330
19
100
AcDbEntity
  8
1
100
AcDbEllipse
 10
83.82943624085587
 20
53.00798805855372
 30
0.0
 11
1.421791940936909
 21
-0.0995222780414876
 31
0.0
210
0.0
220
0.0
230
1.0
 40
0.970148
 41
0.5517457710115218
 42
1.015032420805194
  0
ELLIPSE
  5
14D8
330
19
100
AcDbEntity
  8
1
100
AcDbEllipse
 10
83.67084824085585
 20
58.12197605855371
 30
0.0
 11
2.593653715834094
 21
-0.1815499995593462
 31
0.0
210
0.0
220
0.0
230
1.0
 40
0.970148
 41
2.16219920498387
 42
3.389285708805435
  0
ELLIPSE
  5
14D9
330
19
100
AcDbEntity
  8
1
100
AcDbEllipse
 10
83.57086324085587
 20
58.29044505855371
 30
0.0
 11
2.59365371583409
 21
-0.181549999559346
 31
0.0
210
0.0
220
0.0
230
1.0
 40
0.970148
 41
2.162199204983874
 42
3.108874090059641
  0
ELLIPSE
  5
14DA
330
19
100
AcDbEntity
  8
1
100
AcDbEllipse
 10
80.93871724085586
 20
59.16668605855372
 30
0.0
 11
-1.487240233120973
 21
-0.8683899603133314
 31
0.0
210
0.0
220
0.0
230
1.0
 40
0.175179
 41
2.681707125711636
 42
3.367310722036481
  0
ELLIPSE
  5
14DB
330
19
100
AcDbEntity
  8
1
100
AcDbEllipse
 10
83.48449924085587
 20
57.05664305855371
 30
0.0
 11
2.59365371583409
 21
-0.181549999559346
 31
0.0
210
0.0
220
0.0
230
1.0
 40
0.970148
 41
2.162199204983876
 42
2.825394480459801
  0
ELLIPSE
  5
14DC
330
19
100
AcDbEntity
  8
1
100
AcDbEllipse
 10
83.58448524085586
 20
56.88817505855372
 30
0.0
 11
2.593653715834094
 21
-0.1815499995593462
 31
0.0
210
0.0
220
0.0
230
1.0
 40
0.970148
 41
2.162199204983876
 42
2.893920394723617
  0
ELLIPSE
  5
14DD
330
19
100
AcDbEntity
  8
1
100
AcDbEllipse
 10
83.53029624085587
 20
56.11402405855372
 30
0.0
 11
2.593653715834095
 21
-0.1815499995593464
 31
0.0
210
0.0
220
0.0
230
1.0
 40
0.9701480000000001
 41
2.162199204983875
 42
2.705203700820263
  0
ELLIPSE
  5
14DE
330
19
100
AcDbEntity
  8
1
100
AcDbEllipse
 10
52.70202724085587
 20
53.42273205855372
 30
0.0
 11
-11.70927234972714
 21
-24.67718644093728
 31
0.0
210
0.0
220
0.0
230
1.0
 40
0.3419989999999999
 41
5.198544183597786
 42
6.118780658363126
  0
ELLIPSE
  5
14DF
330
19
100
AcDbEntity
  8
1
100
AcDbEllipse
 10
30.33673524085586
 20
53.42273205855372
 30
0.0
 11
-11.70927234972797
 21
24.67718644093833
 31
0.0
210
0.0
220
0.0
230
1.0
 40
0.341999
 41
3.305997302406248
 42
4.226233777171559
  0
ELLIPSE
  5
14E0
330
19
100
AcDbEntity
  8
1
100
AcDbEllipse
 10
52.70202724085587
 20
53.42273205855372
 30
0.0
 11
-11.70927234972632
 21
24.67718644093624
 31
0.0
210
0.0
220
0.0
230
1.0
 40
0.3419989999999999
 41
0.1644046488164658
 42
1.08464112358183
  0
ELLIPSE
  5
14E1
330
19
100
AcDbEntity
  8
1
100
AcDbEllipse
 10
30.33673524085586
 20
53.42273205855372
 30
0.0
 11
-11.70927234972755
 21
-24.67718644093785
 31
0.0
210
0.0
220
0.0
230
1.0
 40
0.341999
 41
2.056951530008011
 42
2.977188004773336
  0
ELLIPSE
  5
14E2
330
19
100
AcDbEntity
  8
1
100
AcDbEllipse
 10
83.80742224085587
 20
52.69349005855372
 30
0.0
 11
4.289504222341001
 21
-0.3002557685019957
 31
0.0
210
0.0
220
0.0
230
1.0
 40
0.970148
 41
3.406034383170536
 42
3.924981749498149
  0
ELLIPSE
  5
14E3
330
19
100
AcDbEntity
  8
1
100
AcDbEllipse
 10
89.79116624085586
 20
52.37728005855372
 30
0.0
 11
-0.1889794353330136
 21
0.2330472495001639
 31
0.0
210
0.0
220
0.0
230
1.0
 40
0.260541
 41
3.321318821390391
 42
4.892115148184835
  0
ELLIPSE
  5
14E4
330
19
100
AcDbEntity
  8
1
100
AcDbEllipse
 10
83.80742224085587
 20
52.69349005855372
 30
0.0
 11
4.289504222341001
 21
-0.3002557685019957
 31
0.0
210
0.0
220
0.0
230
1.0
 40
0.970148
 41
3.924981749498149
 42
4.443929115825763
  0
ELLIPSE
  5
14E5
330
19
100
AcDbEntity
  8
1
100
AcDbEllipse
 10
76.01351624085586
 20
66.75954505855371
 30
0.0
 11
-21.17522818824117
 21
1.482218942634726
 31
0.0
210
0.0
220
0.0
230
1.0
 40
0.970148
 41
2.354185422703253
 42
2.732937788588936
  0
ELLIPSE
  5
14E6
330
19
100
AcDbEntity
  8
1
100
AcDbEllipse
 10
90.22941424085585
 20
61.56709805855371
 30
0.0
 11
0.098408076000352
 21
-0.2834005126634547
 31
0.0
210
0.0
220
0.0
230
1.0
 40
0.273333
 41
1.858130445380566
 42
3.36998611784845
  0
ELLIPSE
  5
14E7
330
19
100
AcDbEntity
  8
1
100
AcDbEllipse
 10
83.80703524085587
 20
52.68796605855371
 30
0.0
 11
-4.204505186418416
 21
0.29430602477172
 31
0.0
210
0.0
220
0.0
230
1.0
 40
0.970148
 41
1.401856625424261
 42
2.354185422703253
  0
ELLIPSE
  5
14E8
330
19
100
AcDbEntity
  8
1
100
AcDbEllipse
 10
93.42985824085586
 20
66.82327105855371
 30
0.0
 11
-2.420613581470838
 21
-1.36821807955363
 31
0.0
210
0.0
220
0.0
230
1.0
 40
0.102077
 41
0.32907430275088
 42
1.623263763125948
  0
ELLIPSE
  5
14E9
330
19
100
AcDbEntity
  8
1
100
AcDbEllipse
 10
83.80742224085587
 20
52.69349005855372
 30
0.0
 11
4.289504222341001
 21
-0.3002557685019957
 31
0.0
210
0.0
220
0.0
230
1.0
 40
0.970148
 41
5.801969921866755
 42
8.331178884309133
  0
ELLIPSE
  5
14EA
330
19
100
AcDbEntity
  8
1
100
AcDbEllipse
 10
83.81588924085587
 20
52.81445105855372
 30
0.0
 11
3.990236485898606
 21
-0.2793076916297635
 31
0.0
210
0.0
220
0.0
230
1.0
 40
0.970148
 41
0.0
 42
6.283185307179585
  0
ELLIPSE
  5
14EB
330
19
100
AcDbEntity
  8
1
100
AcDbEllipse
 10
83.80234224085587
 20
52.62091305855372
 30
0.0
 11
4.389260134488466
 21
-0.3072384607927399
 31
0.0
210
0.0
220
0.0
230
1.0
 40
0.9701480000000001
 41
2.354185422703254
 42
3.306514219982243
  0
ELLIPSE
  5
14EC
330
19
100
AcDbEntity
  8
1
100
AcDbEllipse
 10
101.5324312408558
 20
66.79006705855371
 30
0.0
 11
-0.0057369829500547
 21
-1.399988245317304
 31
0.0
210
0.0
220
0.0
230
1.0
 40
0.016431
 41
4.836925616402269
 42
6.131115076777125
  0
ELLIPSE
  5
14ED
330
19
100
AcDbEntity
  8
1
100
AcDbEllipse
 10
98.16045024085585
 20
43.03953005855372
 30
0.0
 11
-20.25797386382104
 21
6.61539294786292
 31
0.0
210
0.0
220
0.0
230
0.9999999999999998
 40
0.9313979999999999
 41
5.397357670689975
 42
5.725281022005892
  0
ELLIPSE
  5
14EE
330
19
100
AcDbEntity
  8
1
100
AcDbEllipse
 10
83.80742224085587
 20
52.69349005855372
 30
0.0
 11
3.990236485898606
 21
-0.2793076916297635
 31
0.0
210
0.0
220
0.0
230
1.0
 40
0.970148
 41
3.141557902036482
 42
4.780192926157242
  0
ELLIPSE
  5
14EF
330
19
100
AcDbEntity
  8
1
100
AcDbEllipse
 10
83.80742224085587
 20
52.69349005855372
 30
0.0
 11
3.990236485898606
 21
-0.2793076916297635
 31
0.0
210
0.0
220
0.0
230
1.0
 40
0.970148
 41
4.780193176190994
 42
6.283185307179585
  0
ELLIPSE
  5
14F0
330
19
100
AcDbEntity
  8
1
100
AcDbEllipse
 10
83.77600624085586
 20
52.24467705855372
 30
0.0
 11
1.246948901843313
 21
-0.0872836536343012
 31
0.0
210
0.0
220
0.0
230
1.0
 40
0.970148
 41
0.2493291798857271
 42
3.103073335951323
  0
ELLIPSE
  5
14F1
330
19
100
AcDbEntity
  8
1
100
AcDbEllipse
 10
83.77600624085586
 20
52.24467705855372
 30
0.0
 11
1.246948901843313
 21
-0.0872836536343012
 31
0.0
210
0.0
220
0.0
230
1.0
 40
0.970148
 41
5.960351888254569
 42
6.082383272999181
  0
ELLIPSE
  5
14F2
330
19
100
AcDbEntity
  8
1
100
AcDbEllipse
 10
83.76170024085586
 20
52.04030105855372
 30
0.0
 11
1.246948901843313
 21
-0.0872836536343011
 31
0.0
210
0.0
220
0.0
230
1.0
 40
0.970148
 41
0.2009288383409466
 42
2.936175729695389
  0
ELLIPSE
  5
14F3
330
19
100
AcDbEntity
  8
1
100
AcDbEllipse
 10
85.10449724085587
 20
59.57814305855372
 30
0.0
 11
-1.34670481399078
 21
0.0942663459250452
 31
0.0
210
0.0
220
0.0
230
1.0
 40
0.9701480000000001
 41
0.0000308855401379
 42
0.8996063572050161
  0
ELLIPSE
  5
14F4
330
19
100
AcDbEntity
  8
1
100
AcDbEllipse
 10
100.1023472408558
 20
51.11375105855372
 30
0.0
 11
-1.34670481399078
 21
0.0942663459250452
 31
0.0
210
0.0
220
0.0
230
1.0
 40
0.9701480000000001
 41
2.156766563096065
 42
3.141590563378335
  0
ELLIPSE
  5
14F5
330
19
100
AcDbEntity
  8
1
100
AcDbEllipse
 10
95.10120124085586
 20
59.51055805855371
 30
0.0
 11
-2.568714737797228
 21
0.1798043264866602
 31
0.0
210
0.0
220
0.0
230
1.0
 40
0.970148
 41
4.780192979562531
 42
5.374641370927754
  0
ELLIPSE
  5
14F6
330
19
100
AcDbEntity
  8
1
100
AcDbEllipse
 10
95.10120124085586
 20
59.51055805855371
 30
0.0
 11
-2.568714737797228
 21
0.1798043264866602
 31
0.0
210
0.0
220
0.0
230
1.0
 40
0.970148
 41
3.269676167704091
 42
4.780193367964468
  0
ELLIPSE
  5
14F7
330
19
100
AcDbEntity
  8
1
100
AcDbEllipse
 10
94.94142424085586
 20
57.90244605855372
 30
0.0
 11
0.2992677364423954
 21
-0.0209480768722323
 31
0.0
210
0.0
220
0.0
230
1.0
 40
0.970148
 41
5.57357796173843
 42
5.911776458327269
  0
ELLIPSE
  5
14F8
330
19
100
AcDbEntity
  8
1
100
AcDbEllipse
 10
95.17418624085587
 20
60.55324205855372
 30
0.0
 11
3.740846705529942
 21
-0.2618509609029033
 31
0.0
210
0.0
220
0.0
230
1.0
 40
0.970148
 41
4.657376342295717
 42
4.780193026170758
  0
ELLIPSE
  5
14F9
330
19
100
AcDbEntity
  8
1
100
AcDbEllipse
 10
95.17418624085587
 20
60.55324205855372
 30
0.0
 11
3.740846705529942
 21
-0.2618509609029033
 31
0.0
210
0.0
220
0.0
230
1.0
 40
0.970148
 41
4.780193026170761
 42
6.283185307179585
  0
ELLIPSE
  5
14FA
330
19
100
AcDbEntity
  8
1
100
AcDbEllipse
 10
95.17418624085587
 20
60.55324205855372
 30
0.0
 11
3.740846705529942
 21
-0.2618509609029033
 31
0.0
210
0.0
220
0.0
230
1.0
 40
0.970148
 41
0.0
 42
2.720977400253602
  0
ELLIPSE
  5
14FB
330
19
100
AcDbEntity
  8
1
100
AcDbEllipse
 10
95.14577024085587
 20
60.14727905855372
 30
0.0
 11
-2.568714737797228
 21
0.1798043264866602
 31
0.0
210
0.0
220
0.0
230
1.0
 40
0.970148
 41
4.780192979562531
 42
5.555282969846423
  0
ELLIPSE
  5
14FC
330
19
100
AcDbEntity
  8
1
100
AcDbEllipse
 10
95.14577024085587
 20
60.14727905855372
 30
0.0
 11
-2.568714737797228
 21
0.1798043264866602
 31
0.0
210
0.0
220
0.0
230
1.0
 40
0.970148
 41
1.66932930213267
 42
4.780193367964468
  0
ELLIPSE
  5
14FD
330
19
100
AcDbEntity
  8
1
100
AcDbEllipse
 10
89.74092124085586
 20
51.37873505855371
 30
0.0
 11
-0.1928876685754493
 21
0.2297702054478074
 31
0.0
210
0.0
220
0.0
230
1.0
 40
0.171138
 41
3.141574216843963
 42
3.316889337607844
  0
ELLIPSE
  5
14FE
330
19
100
AcDbEntity
  8
1
100
AcDbEllipse
 10
82.70016924085586
 20
48.19228305855371
 30
0.0
 11
-0.2992677364423954
 21
0.0209480768722323
 31
0.0
210
0.0
220
0.0
230
1.0
 40
0.970148
 41
4.543449279014061
 42
5.495778076293035
  0
ELLIPSE
  5
14FF
330
19
100
AcDbEntity
  8
1
100
AcDbEllipse
 10
79.16363024085587
 20
51.45879605855371
 30
0.0
 11
0.1928876685754493
 21
-0.2297702054478074
 31
0.0
210
0.0
220
0.0
230
1.0
 40
0.171138
 41
1.746093010812941
 42
3.14161994369845
  0
ELLIPSE
  5
1500
330
19
100
AcDbEntity
  8
1
100
AcDbEllipse
 10
95.44701424085586
 20
59.05296605855372
 30
0.0
 11
-0.2992677364423954
 21
0.0209480768722323
 31
0.0
210
0.0
220
0.0
230
1.0
 40
0.970148
 41
2.830758291200687
 42
3.135329674973515
  0
ELLIPSE
  5
1501
330
19
100
AcDbEntity
  8
1
100
AcDbEllipse
 10
81.11288524085585
 20
55.63430305855371
 30
0.0
 11
0.1928876685754493
 21
-0.2297702054478074
 31
0.0
210
0.0
220
0.0
230
1.0
 40
0.171138
 41
2.138748632664446
 42
3.141594878132998
  0
ELLIPSE
  5
1502
330
19
100
AcDbEntity
  8
1
100
AcDbEllipse
 10
81.11288524085585
 20
55.63430305855371
 30
0.0
 11
0.1928876685754493
 21
-0.2297702054478074
 31
0.0
210
0.0
220
0.0
230
1.0
 40
0.171138
 41
3.141593694266767
 42
3.316889337607844
  0
ELLIPSE
  5
1503
330
19
100
AcDbEntity
  8
1
100
AcDbEllipse
 10
84.41225324085586
 20
58.40405905855371
 30
0.0
 11
-0.1889794353331429
 21
0.2330472495004918
 31
0.0
210
0.0
220
0.0
230
1.0
 40
0.260541
 41
4.892115148186844
 42
6.287601168455831
  0
ELLIPSE
  5
1504
330
19
100
AcDbEntity
  8
1
100
AcDbEllipse
 10
76.13095024085587
 20
67.88048205855372
 30
0.0
 11
-19.96332001001572
 21
6.552935230690573
 31
0.0
210
0.0
220
0.0
230
1.0
 40
0.930799
 41
2.584979130751389
 42
2.912902482067778
  0
ELLIPSE
  5
1505
330
19
100
AcDbEntity
  8
1
100
AcDbEllipse
 10
79.51873924085586
 20
51.75690205855372
 30
0.0
 11
0.1928876685754493
 21
-0.2297702054478074
 31
0.0
210
0.0
220
0.0
230
1.0
 40
0.171138
 41
1.746093010812918
 42
3.141580988852723
  0
ELLIPSE
  5
1506
330
19
100
AcDbEntity
  8
1
100
AcDbEllipse
 10
79.72224724085586
 20
52.25189005855371
 30
0.0
 11
0.2985007456755091
 21
0.0299550468396398
 31
0.0
210
0.0
220
0.0
230
1.0
 40
0.239223
 41
1.922435142108006
 42
3.100575847051457
  0
ELLIPSE
  5
1507
330
19
100
AcDbEntity
  8
1
100
AcDbEllipse
 10
79.12516024085586
 20
52.19788605855372
 30
0.0
 11
-0.2992677364423952
 21
0.0209480768722323
 31
0.0
210
0.0
220
0.0
230
1.0
 40
0.9701479999999998
 41
3.141671731816226
 42
3.306514219982246
  0
ELLIPSE
  5
1508
330
19
100
AcDbEntity
  8
1
100
AcDbEllipse
 10
94.14534924085588
 20
57.17950705855372
 30
0.0
 11
0.2538238658580023
 21
-0.1599169944718162
 31
0.0
210
0.0
220
0.0
230
1.0
 40
0.382339
 41
0.1166592454517957
 42
1.628514917919684
  0
ELLIPSE
  5
1509
330
19
100
AcDbEntity
  8
1
100
AcDbEllipse
 10
79.13024024085586
 20
52.27046305855371
 30
0.0
 11
0.5985354728847906
 21
-0.0418961537444645
 31
0.0
210
0.0
220
0.0
230
1.0
 40
0.970148
 41
5.495778076293042
 42
5.655691730181639
  0
ELLIPSE
  5
150A
330
19
100
AcDbEntity
  8
1
100
AcDbEllipse
 10
76.08455224085587
 20
67.77437205855372
 30
0.0
 11
-20.25797386370267
 21
6.61539294778342
 31
0.0
210
0.0
220
0.0
230
1.0
 40
0.931398
 41
2.583688368412068
 42
2.911611719728851
  0
ELLIPSE
  5
150B
330
19
100
AcDbEntity
  8
1
100
AcDbEllipse
 10
82.70524924085586
 20
48.26486005855372
 30
0.0
 11
0.5985354728847909
 21
-0.0418961537444646
 31
0.0
210
0.0
220
0.0
230
1.0
 40
0.970148
 41
2.194271768814674
 42
2.354185422703258
  0
ELLIPSE
  5
150C
330
19
100
AcDbEntity
  8
1
100
AcDbEllipse
 10
80.34686124085586
 20
47.64797805855372
 30
0.0
 11
-2.41908086957603
 21
0.1693302880505442
 31
0.0
210
0.0
220
0.0
230
1.0
 40
0.970148
 41
0.0000033754373625
 42
0.4385010610134473
  0
ELLIPSE
  5
150D
330
19
100
AcDbEntity
  8
1
100
AcDbEllipse
 10
86.49179824085587
 20
49.60752405855372
 30
0.0
 11
0.1928876685754493
 21
-0.2297702054478074
 31
0.0
210
0.0
220
0.0
230
1.0
 40
0.171138
 41
0.1752966840180519
 42
1.353437388961442
  0
ELLIPSE
  5
150E
330
19
100
AcDbEntity
  8
1
100
AcDbEllipse
 10
83.80234224085587
 20
52.62091305855372
 30
0.0
 11
4.389260134488466
 21
-0.3072384607927399
 31
0.0
210
0.0
220
0.0
230
1.0
 40
0.9701480000000001
 41
4.543449279014058
 42
5.495778076293046
  0
ELLIPSE
  5
150F
330
19
100
AcDbEntity
  8
1
100
AcDbEllipse
 10
81.89486524085586
 20
48.28734005855372
 30
0.0
 11
-0.1942634738031566
 21
0.2286081860868729
 31
0.0
210
0.0
220
0.0
230
1.0
 40
0.137966
 41
3.315961312487389
 42
4.88675763928219
  0
ELLIPSE
  5
1510
330
19
100
AcDbEntity
  8
1
100
AcDbEllipse
 10
79.12637624085586
 20
50.92656705855372
 30
0.0
 11
1.865173116361368
 21
1.664670912223438
 31
0.0
210
0.0
220
0.0
230
1.0
 40
0.171827
 41
1.396188368626584
 42
1.430285884526081
  0
ELLIPSE
  5
1511
330
19
100
AcDbEntity
  8
1
100
AcDbEllipse
 10
82.84087224085586
 20
48.75764005855372
 30
0.0
 11
-0.0695236263976964
 21
-0.2918329408625995
 31
0.0
210
0.0
220
0.0
230
1.0
 40
0.040776
 41
4.863440646201068
 42
6.041581351144572
  0
ELLIPSE
  5
1512
330
19
100
AcDbEntity
  8
1
100
AcDbEllipse
 10
79.10701424085587
 20
51.41097605855371
 30
0.0
 11
0.1942634738031566
 21
-0.2286081860868729
 31
0.0
210
0.0
220
0.0
230
1.0
 40
0.137966
 41
1.745164985692374
 42
3.141616501064191
  0
ELLIPSE
  5
1513
330
19
100
AcDbEntity
  8
1
100
AcDbEllipse
 10
81.95148124085587
 20
48.33516005855371
 30
0.0
 11
0.1928876685754493
 21
-0.2297702054478074
 31
0.0
210
0.0
220
0.0
230
1.0
 40
0.171138
 41
0.1752966840180518
 42
1.746093010812941
  0
ELLIPSE
  5
1514
330
19
100
AcDbEntity
  8
1
100
AcDbEllipse
 10
82.11101624085586
 20
47.58244005855371
 30
0.0
 11
1.641352342398004
 21
1.464910402756625
 31
0.0
210
0.0
220
0.0
230
1.0
 40
0.171827
 41
1.396188368626585
 42
1.430285884526084
  0
ELLIPSE
  5
1515
330
19
100
AcDbEntity
  8
1
100
AcDbEllipse
 10
98.20684824085587
 20
43.14564005855372
 30
0.0
 11
-19.96332000987641
 21
6.552935233168696
 31
0.0
210
0.0
220
0.0
230
1.0
 40
0.930799
 41
5.398648433144379
 42
5.726571784454757
  0
ELLIPSE
  5
1516
330
19
100
AcDbEntity
  8
1
100
AcDbEllipse
 10
82.30659024085587
 20
48.63326705855371
 30
0.0
 11
0.1928876685754493
 21
-0.2297702054478074
 31
0.0
210
0.0
220
0.0
230
1.0
 40
0.171138
 41
0.175296684018056
 42
1.746093010812941
  0
ELLIPSE
  5
1517
330
19
100
AcDbEntity
  8
1
100
AcDbEllipse
 10
81.91422724085587
 20
47.80293205855372
 30
0.0
 11
-1.865173116361368
 21
-1.664670912223438
 31
0.0
210
0.0
220
0.0
230
1.0
 40
0.171827
 41
4.537781022216377
 42
4.571878538115877
  0
ELLIPSE
  5
1518
330
19
100
AcDbEntity
  8
1
100
AcDbEllipse
 10
83.25318924085587
 20
54.36786505855372
 30
0.0
 11
0.0950847642607504
 21
-0.006655722313373
 31
0.0
210
0.0
220
0.0
230
1.0
 40
0.970148
 41
3.663182361698916
 42
4.339914278579148
  0
ELLIPSE
  5
1519
330
19
100
AcDbEntity
  8
1
100
AcDbEllipse
 10
85.14476524085585
 20
53.72805405855372
 30
0.0
 11
0.0950847642607486
 21
-0.0066557223133729
 31
0.0
210
0.0
220
0.0
230
1.0
 40
0.970148
 41
4.557246771613619
 42
5.23397868849392
  0
ELLIPSE
  5
151A
330
19
100
AcDbEntity
  8
1
100
AcDbEllipse
 10
82.04153324085586
 20
53.61273305855371
 30
0.0
 11
0.5994277053552097
 21
-0.0419586080357304
 31
0.0
210
0.0
220
0.0
230
1.0
 40
0.970148
 41
5.387111829775861
 42
5.443538780452308
  0
ELLIPSE
  5
151B
330
19
100
AcDbEntity
  8
1
100
AcDbEllipse
 10
84.57700024085587
 20
51.72849505855372
 30
0.0
 11
0.0950847642607505
 21
-0.006655722313373
 31
0.0
210
0.0
220
0.0
230
1.0
 40
0.970148
 41
3.663182361698984
 42
4.863513054177692
  0
ELLIPSE
  5
151C
330
19
100
AcDbEntity
  8
1
100
AcDbEllipse
 10
83.12394224085586
 20
53.79845605855372
 30
0.0
 11
0.5994277053552095
 21
-0.0419586080357303
 31
0.0
210
0.0
220
0.0
230
1.0
 40
0.970148
 41
1.721920400587764
 42
2.986450444818726
  0
ELLIPSE
  5
151D
330
19
100
AcDbEntity
  8
1
100
AcDbEllipse
 10
84.17953624085587
 20
53.99324905855372
 30
0.0
 11
0.5994277053552095
 21
-0.0419586080357303
 31
0.0
210
0.0
220
0.0
230
1.0
 40
0.970148
 41
0.6747228493911636
 42
1.939252893622122
  0
ELLIPSE
  5
151E
330
19
100
AcDbEntity
  8
1
100
AcDbEllipse
 10
84.02983524085588
 20
54.46241205855372
 30
0.0
 11
0.0950847642607483
 21
-0.0066557223133729
 31
0.0
210
0.0
220
0.0
230
1.0
 40
0.970148
 41
1.939252893622056
 42
3.1395835861007
  0
ELLIPSE
  5
151F
330
19
100
AcDbEntity
  8
1
100
AcDbEllipse
 10
85.22832224085588
 20
53.56146105855372
 30
0.0
 11
0.0950847642607483
 21
-0.0066557223133729
 31
0.0
210
0.0
220
0.0
230
1.0
 40
0.970148
 41
0.8920553424255682
 42
2.092386034904083
  0
ELLIPSE
  5
1520
330
19
100
AcDbEntity
  8
1
100
AcDbEllipse
 10
83.83969124085586
 20
54.47609405855371
 30
0.0
 11
0.0950847642607486
 21
-0.0066557223133729
 31
0.0
210
0.0
220
0.0
230
1.0
 40
0.970148
 41
5.604444322810188
 42
6.281176239690512
  0
ELLIPSE
  5
1521
330
19
100
AcDbEntity
  8
1
100
AcDbEllipse
 10
82.40233824085587
 20
51.80996705855372
 30
0.0
 11
0.5994277053552097
 21
-0.0419586080357304
 31
0.0
210
0.0
220
0.0
230
1.0
 40
0.970148
 41
0.1511240737928795
 42
0.2075510244693212
  0
ELLIPSE
  5
1522
330
19
100
AcDbEntity
  8
1
100
AcDbEllipse
 10
85.61733924085586
 20
52.40324405855372
 30
0.0
 11
0.5994277053552097
 21
-0.0419586080357304
 31
0.0
210
0.0
220
0.0
230
1.0
 40
0.970148
 41
3.45362226974059
 42
3.510049220417029
  0
ELLIPSE
  5
1523
330
19
100
AcDbEntity
  8
1
100
AcDbEllipse
 10
82.51410724085586
 20
52.28792305855371
 30
0.0
 11
0.0950847642607486
 21
-0.0066557223133729
 31
0.0
210
0.0
220
0.0
230
1.0
 40
0.970148
 41
1.415654118023903
 42
2.092386034904129
  0
ELLIPSE
  5
1524
330
19
100
AcDbEntity
  8
1
100
AcDbEllipse
 10
84.19024124085586
 20
51.20522205855372
 30
0.0
 11
0.5994277053552097
 21
-0.0419586080357304
 31
0.0
210
0.0
220
0.0
230
1.0
 40
0.970148
 41
1.198321624989494
 42
1.25474857566594
  0
ELLIPSE
  5
1525
330
19
100
AcDbEntity
  8
1
100
AcDbEllipse
 10
83.62903824085586
 20
51.55356405855371
 30
0.0
 11
0.0950847642607483
 21
-0.0066557223133729
 31
0.0
210
0.0
220
0.0
230
1.0
 40
0.970148
 41
5.080845547211946
 42
6.281176239690537
  0
ELLIPSE
  5
1526
330
19
100
AcDbEntity
  8
1
100
AcDbEllipse
 10
82.52436224085586
 20
53.75602905855372
 30
0.0
 11
0.0950847642607486
 21
-0.0066557223133729
 31
0.0
210
0.0
220
0.0
230
1.0
 40
0.970148
 41
0.3684565668272681
 42
1.045188483707558
  0
ELLIPSE
  5
1527
330
19
100
AcDbEntity
  8
1
100
AcDbEllipse
 10
84.75278324085588
 20
54.16724805855372
 30
0.0
 11
0.0950847642607504
 21
-0.006655722313373
 31
0.0
210
0.0
220
0.0
230
1.0
 40
0.970148
 41
2.615984810502429
 42
3.292716727382581
  0
ELLIPSE
  5
1528
330
19
100
AcDbEntity
  8
1
100
AcDbEllipse
 10
82.04153324085586
 20
53.61273305855371
 30
0.0
 11
0.5994277053552097
 21
-0.0419586080357304
 31
0.0
210
0.0
220
0.0
230
1.0
 40
0.970148
 41
0.3120296161507984
 42
0.3684565668272411
  0
ELLIPSE
  5
1529
330
19
100
AcDbEntity
  8
1
100
AcDbEllipse
 10
85.25653424085588
 20
54.20600905855372
 30
0.0
 11
0.5994277053552097
 21
-0.0419586080357304
 31
0.0
210
0.0
220
0.0
230
1.0
 40
0.970148
 41
3.292716727382673
 42
3.349143678059113
  0
ELLIPSE
  5
152A
330
19
100
AcDbEntity
  8
1
100
AcDbEllipse
 10
83.82943624085587
 20
53.00798805855372
 30
0.0
 11
1.421791940936909
 21
-0.0995222780414876
 31
0.0
210
0.0
220
0.0
230
1.0
 40
0.970148
 41
3.693338424601317
 42
4.156625074394986
  0
ELLIPSE
  5
152B
330
19
100
AcDbEntity
  8
1
100
AcDbEllipse
 10
85.02792424085587
 20
52.10703705855372
 30
0.0
 11
0.0950847642607483
 21
-0.0066557223133729
 31
0.0
210
0.0
220
0.0
230
1.0
 40
0.970148
 41
6.128043098408469
 42
7.328373790887041
  0
ELLIPSE
  5
152C
330
19
100
AcDbEntity
  8
1
100
AcDbEllipse
 10
83.46863124085587
 20
54.81075405855371
 30
0.0
 11
0.5994277053552097
 21
-0.0419586080357304
 31
0.0
210
0.0
220
0.0
230
1.0
 40
0.970148
 41
5.548017372133771
 42
5.604444322810222
  0
ELLIPSE
  5
152D
330
19
100
AcDbEntity
  8
1
100
AcDbEllipse
 10
83.47933624085587
 20
52.02272805855372
 30
0.0
 11
0.5994277053552095
 21
-0.0419586080357303
 31
0.0
210
0.0
220
0.0
230
1.0
 40
0.970148
 41
3.816315502980978
 42
5.080845547211938
  0
ELLIPSE
  5
152E
330
19
100
AcDbEntity
  8
1
100
AcDbEllipse
 10
85.32903024085587
 20
52.80737105855371
 30
0.0
 11
0.0950847642607504
 21
-0.006655722313373
 31
0.0
210
0.0
220
0.0
230
1.0
 40
0.970148
 41
1.568787259305922
 42
2.245519176186116
  0
ELLIPSE
  5
152F
330
19
100
AcDbEntity
  8
1
100
AcDbEllipse
 10
84.59476224085587
 20
54.27133005855371
 30
0.0
 11
0.0950847642607505
 21
-0.006655722313373
 31
0.0
210
0.0
220
0.0
230
1.0
 40
0.970148
 41
5.757577464092184
 42
6.957908156570703
  0
ELLIPSE
  5
1530
330
19
100
AcDbEntity
  8
1
100
AcDbEllipse
 10
83.82943624085587
 20
53.00798805855372
 30
0.0
 11
1.797619557240529
 21
-0.1258293764632095
 31
0.0
210
0.0
220
0.0
230
1.0
 40
0.970148
 41
0.0
 42
6.283185307179585
  0
ELLIPSE
  5
1531
330
19
100
AcDbEntity
  8
1
100
AcDbEllipse
 10
83.08187224085585
 20
54.28748105855373
 30
0.0
 11
0.0950847642607505
 21
-0.006655722313373
 31
0.0
210
0.0
220
0.0
230
1.0
 40
0.970148
 41
0.521589708109199
 42
1.721920400587744
  0
ELLIPSE
  5
1532
330
19
100
AcDbEntity
  8
1
100
AcDbEllipse
 10
83.82943624085587
 20
53.00798805855372
 30
0.0
 11
1.421791940936909
 21
-0.0995222780414876
 31
0.0
210
0.0
220
0.0
230
1.0
 40
0.970148
 41
5.787733526994509
 42
6.251020176788181
  0
ELLIPSE
  5
1533
330
19
100
AcDbEntity
  8
1
100
AcDbEllipse
 10
82.40233824085587
 20
51.80996705855372
 30
0.0
 11
0.5994277053552097
 21
-0.0419586080357304
 31
0.0
210
0.0
220
0.0
230
1.0
 40
0.970148
 41
1.359227167347389
 42
1.415654118023834
  0
ELLIPSE
  5
1534
330
19
100
AcDbEntity
  8
1
100
AcDbEllipse
 10
85.34232624085587
 20
52.99183705855371
 30
0.0
 11
0.0950847642607505
 21
-0.006655722313373
 31
0.0
210
0.0
220
0.0
230
1.0
 40
0.970148
 41
4.710379912895492
 42
5.910710605374177
  0
ELLIPSE
  5
1535
330
19
100
AcDbEntity
  8
1
100
AcDbEllipse
 10
85.25653424085588
 20
54.20600905855372
 30
0.0
 11
0.5994277053552097
 21
-0.0419586080357304
 31
0.0
210
0.0
220
0.0
230
1.0
 40
0.970148
 41
4.500819820937195
 42
4.557246771613641
  0
ELLIPSE
  5
1536
330
19
100
AcDbEntity
  8
1
100
AcDbEllipse
 10
83.82943624085587
 20
53.00798805855372
 30
0.0
 11
1.421791940936909
 21
-0.0995222780414876
 31
0.0
210
0.0
220
0.0
230
1.0
 40
0.970148
 41
2.646140873404721
 42
3.109427523198383
  0
ELLIPSE
  5
1537
330
19
100
AcDbEntity
  8
1
100
AcDbEllipse
 10
85.61733924085586
 20
52.40324405855372
 30
0.0
 11
0.5994277053552097
 21
-0.0419586080357304
 31
0.0
210
0.0
220
0.0
230
1.0
 40
0.970148
 41
2.245519176186076
 42
2.301946126862529
  0
ELLIPSE
  5
1538
330
19
100
AcDbEntity
  8
1
100
AcDbEllipse
 10
82.32984224085587
 20
53.20860505855371
 30
0.0
 11
0.0950847642607504
 21
-0.006655722313373
 31
0.0
210
0.0
220
0.0
230
1.0
 40
0.970148
 41
4.710379912895641
 42
5.387111829775882
  0
ELLIPSE
  5
1539
330
19
100
AcDbEntity
  8
1
100
AcDbEllipse
 10
84.53493024085586
 20
52.21752105855371
 30
0.0
 11
0.5994277053552095
 21
-0.0419586080357303
 31
0.0
210
0.0
220
0.0
230
1.0
 40
0.970148
 41
4.86351305417758
 42
6.128043098408521
  0
ELLIPSE
  5
153A
330
19
100
AcDbEntity
  8
1
100
AcDbEllipse
 10
84.40568324085587
 20
51.64811205855372
 30
0.0
 11
0.0950847642607504
 21
-0.006655722313373
 31
0.0
210
0.0
220
0.0
230
1.0
 40
0.970148
 41
0.5215897081092625
 42
1.198321624989574
  0
ELLIPSE
  5
153B
330
19
100
AcDbEntity
  8
1
100
AcDbEllipse
 10
84.19024124085586
 20
51.20522205855372
 30
0.0
 11
0.5994277053552097
 21
-0.0419586080357304
 31
0.0
210
0.0
220
0.0
230
1.0
 40
0.970148
 41
2.406424718543994
 42
2.462851669220436
  0
ELLIPSE
  5
153C
330
19
100
AcDbEntity
  8
1
100
AcDbEllipse
 10
82.31654624085587
 20
53.02414005855371
 30
0.0
 11
0.0950847642607505
 21
-0.006655722313373
 31
0.0
210
0.0
220
0.0
230
1.0
 40
0.970148
 41
1.568787259305848
 42
2.769117951784389
  0
ELLIPSE
  5
153D
330
19
100
AcDbEntity
  8
1
100
AcDbEllipse
 10
83.06411024085587
 20
51.74464705855372
 30
0.0
 11
0.0950847642607505
 21
-0.006655722313373
 31
0.0
210
0.0
220
0.0
230
1.0
 40
0.970148
 41
2.615984810502433
 42
3.816315502980953
  0
ELLIPSE
  5
153E
330
19
100
AcDbEntity
  8
1
100
AcDbEllipse
 10
82.90608924085587
 20
51.84872805855372
 30
0.0
 11
0.0950847642607504
 21
-0.006655722313373
 31
0.0
210
0.0
220
0.0
230
1.0
 40
0.970148
 41
5.757577464092261
 42
6.434309380972454
  0
ELLIPSE
  5
153F
330
19
100
AcDbEntity
  8
1
100
AcDbEllipse
 10
82.63094924085587
 20
53.90894005855372
 30
0.0
 11
0.0950847642607483
 21
-0.0066557223133729
 31
0.0
210
0.0
220
0.0
230
1.0
 40
0.970148
 41
2.986450444818709
 42
4.186781137297334
  0
ELLIPSE
  5
1540
330
19
100
AcDbEntity
  8
1
100
AcDbEllipse
 10
82.77384224085587
 20
52.81319505855371
 30
0.0
 11
0.5994277053552095
 21
-0.0419586080357303
 31
0.0
210
0.0
220
0.0
230
1.0
 40
0.970148
 41
2.769117951784366
 42
4.033647996015329
  0
ELLIPSE
  5
1541
330
19
100
AcDbEntity
  8
1
100
AcDbEllipse
 10
82.43055124085586
 20
52.45451605855372
 30
0.0
 11
0.0950847642607483
 21
-0.0066557223133729
 31
0.0
210
0.0
220
0.0
230
1.0
 40
0.970148
 41
4.033647996015282
 42
5.233978688493856
  0
ELLIPSE
  5
1542
330
19
100
AcDbEntity
  8
1
100
AcDbEllipse
 10
83.81918124085586
 20
51.53988205855371
 30
0.0
 11
0.0950847642607486
 21
-0.0066557223133729
 31
0.0
210
0.0
220
0.0
230
1.0
 40
0.970148
 41
2.462851669220389
 42
3.139583586100711
  0
ELLIPSE
  5
1543
330
19
100
AcDbEntity
  8
1
100
AcDbEllipse
 10
85.13451024085588
 20
52.25994805855371
 30
0.0
 11
0.0950847642607486
 21
-0.0066557223133729
 31
0.0
210
0.0
220
0.0
230
1.0
 40
0.970148
 41
3.510049220416985
 42
4.186781137297351
  0
ELLIPSE
  5
1544
330
19
100
AcDbEntity
  8
1
100
AcDbEllipse
 10
84.88503024085586
 20
53.20278105855371
 30
0.0
 11
0.5994277053552095
 21
-0.0419586080357303
 31
0.0
210
0.0
220
0.0
230
1.0
 40
0.970148
 41
5.910710605374169
 42
7.17524064960513
  0
ELLIPSE
  5
1545
330
19
100
AcDbEntity
  8
1
100
AcDbEllipse
 10
83.80703524085587
 20
52.68796605855371
 30
0.0
 11
-4.204505186418416
 21
0.29430602477172
 31
0.0
210
0.0
220
0.0
230
1.0
 40
0.970148
 41
5.495778076293046
 42
6.448106873572032
  0
ELLIPSE
  5
1546
330
19
100
AcDbEntity
  8
1
100
AcDbEllipse
 10
100.1734692408558
 20
52.12982305855371
 30
0.0
 11
1.34670481399078
 21
-0.0942663459250452
 31
0.0
210
0.0
220
0.0
230
1.0
 40
0.9701480000000001
 41
4.256594307377069
 42
6.350989409770268
  0
ELLIPSE
  5
1547
330
19
100
AcDbEntity
  8
1
100
AcDbEllipse
 10
83.82943624085587
 20
53.00798805855372
 30
0.0
 11
1.421791940936909
 21
-0.0995222780414876
 31
0.0
210
0.0
220
0.0
230
1.0
 40
0.970148
 41
1.598943322208122
 42
2.062229972001786
  0
ELLIPSE
  5
1548
330
19
100
AcDbEntity
  8
1
100
AcDbEllipse
 10
85.17562024085586
 20
60.59421505855372
 30
0.0
 11
1.34670481399078
 21
-0.0942663459250452
 31
0.0
210
0.0
220
0.0
230
1.0
 40
0.9701480000000001
 41
2.162199204983878
 42
4.256594307377078
  0
SPLINE
  5
1549
330
19
100
AcDbEntity
  8
1
100
AcDbSpline
210
0.0
220
0.0
230
1.0
 70
    24
 71
     1
 72
     4
 73
     2
 74
     0
 42
0.0000000001
 43
0.0000000001
 40
0.0
 40
0.0
 40
1.0
 40
1.0
 10
78.97074299187639
 20
51.68856583769713
 30
0.0
 10
78.91275042962177
 20
51.63958395343763
 30
0.0
  0
SPLINE
  5
154A
330
19
100
AcDbEntity
  8
1
100
AcDbSpline
210
0.0
220
0.0
230
1.0
 70
     8
 71
     3
 72
    10
 73
     6
 74
     0
 42
0.0000000001
 43
0.0000000001
 40
0.0
 40
0.0
 40
0.0
 40
0.0
 40
0.0423686232029947
 40
0.5602323692168171
 40
1.0
 40
1.0
 40
1.0
 40
1.0
 10
79.42366925534819
 20
52.17709972032905
 30
0.0
 10
79.42373483051977
 20
52.17406918058246
 30
0.0
 10
79.42377282381816
 20
52.13417862488611
 30
0.0
 10
79.396712907348
 20
52.06339443185576
 30
0.0
 10
79.35215322240051
 20
52.00948128661339
 30
0.0
 10
79.32585143292989
 20
51.98667254458183
 30
0.0
  0
SPLINE
  5
154B
330
19
100
AcDbEntity
  8
1
100
AcDbSpline
210
0.0
220
0.0
230
1.0
 70
     8
 71
     3
 72
    12
 73
     8
 74
     0
 42
0.0000000001
 43
0.0000000001
 40
0.0
 40
0.0
 40
0.0
 40
0.0
 40
0.3339813144081263
 40
0.3339813144081263
 40
0.9968250848598152
 40
0.9968250848598152
 40
1.0
 40
1.0
 40
1.0
 40
1.0
 10
96.42803848519227
 20
58.01894890202689
 30
0.0
 10
96.37316806326367
 20
58.12242240484661
 30
0.0
 10
96.31078010821864
 20
58.22175162092067
 30
0.0
 10
96.10305602488407
 20
58.50164745993518
 30
0.0
 10
95.93286943845148
 20
58.67014897320825
 30
0.0
 10
95.73642234753583
 20
58.80388931106748
 30
0.0
 10
95.73548343234831
 20
58.80452728646552
 30
0.0
 10
95.73454379029287
 20
58.80516452187162
 30
0.0
  0
SPLINE
  5
154C
330
19
100
AcDbEntity
  8
1
100
AcDbSpline
210
0.0
220
0.0
230
1.0
 70
    12
 71
     2
 72
     6
 73
     3
 74
     0
 42
0.0000000001
 43
0.0000000001
 40
0.0
 40
0.0
 40
0.0
 40
1.0
 40
1.0
 40
1.0
 10
75.62398421796297
 20
43.01852352238961
 30
0.0
 41
0.5000000382522469
 10
76.07157994375453
 20
43.01406172473163
 30
0.0
 41
0.4999999617477531
 10
76.51938124085596
 20
43.0096085604651
 30
0.0
 41
0.5000000382522469
  0
SPLINE
  5
154D
330
19
100
AcDbEntity
  8
1
100
AcDbSpline
210
0.0
220
0.0
230
1.0
 70
     8
 71
     3
 72
     8
 73
     4
 74
     0
 42
0.0000000001
 43
0.0000000001
 40
0.0
 40
0.0
 40
0.0
 40
0.0
 40
1.0
 40
1.0
 40
1.0
 40
1.0
 10
76.69258632161277
 20
66.17222401666175
 30
0.0
 10
76.63478334608905
 20
66.06933373163565
 30
0.0
 10
76.57704662048918
 20
65.96640817575686
 30
0.0
 10
76.51938124085586
 20
65.86344481021921
 30
0.0
  0
SPLINE
  5
154E
330
19
100
AcDbEntity
  8
1
100
AcDbSpline
210
0.0
220
0.0
230
1.0
 70
    12
 71
     2
 72
     6
 73
     3
 74
     0
 42
0.0000000001
 43
0.0000000001
 40
0.0
 40
0.0
 40
0.0
 40
1.0
 40
1.0
 40
1.0
 10
76.519381240856
 20
65.86344481021921
 30
0.0
 41
0.4999999469292947
 10
76.03950445565215
 20
65.86260562531293
 30
0.0
 41
0.5000000530707054
 10
75.55986377657747
 20
65.86175459115477
 30
0.0
 41
0.4999999469292947
  0
SPLINE
  5
154F
330
19
100
AcDbEntity
  8
1
100
AcDbSpline
210
0.0
220
0.0
230
1.0
 70
     8
 71
     3
 72
     8
 73
     4
 74
     0
 42
0.0000000001
 43
0.0000000001
 40
0.0
 40
0.0
 40
0.0
 40
0.0
 40
1.0
 40
1.0
 40
1.0
 40
1.0
 10
76.51938124085586
 20
43.00960856046512
 30
0.0
 10
76.57704662048918
 20
42.90617258338821
 30
0.0
 10
76.63478334608905
 20
42.80277383123588
 30
0.0
 10
76.69258632161277
 20
42.6994098069678
 30
0.0
  0
SPLINE
  5
1550
330
19
100
AcDbEntity
  8
1
100
AcDbSpline
210
0.0
220
0.0
230
1.0
 70
     8
 71
     3
 72
    14
 73
    10
 74
     0
 42
0.0000000001
 43
0.0000000001
 40
0.0
 40
0.0
 40
0.0
 40
0.0
 40
0.2633327418731061
 40
0.2633327418731061
 40
0.5262465729023864
 40
0.5262465729023864
 40
0.7908778783391776
 40
0.7908778783391776
 40
1.0
 40
1.0
 40
1.0
 40
1.0
 10
82.14139993226071
 20
59.94071390623055
 30
0.0
 10
82.08423086750618
 20
59.86831089457266
 30
0.0
 10
82.00265300318489
 20
59.78048263923425
 30
0.0
 10
81.81946152430411
 20
59.57996890813338
 30
0.0
 10
81.71531154052537
 20
59.46411735390707
 30
0.0
 10
81.50979531356862
 20
59.20887320888685
 30
0.0
 10
81.40530538244606
 20
59.06491173613622
 30
0.0
 10
81.24246170518885
 20
58.79876900512892
 30
0.0
 10
81.17723624355576
 20
58.67523078839283
 30
0.0
 10
81.12384946889251
 20
58.55468667238707
 30
0.0
  0
SPLINE
  5
1551
330
19
100
AcDbEntity
  8
1
100
AcDbSpline
210
0.0
220
0.0
230
1.0
 70
     8
 71
     3
 72
    20
 73
    16
 74
     0
 42
0.0000000001
 43
0.0000000001
 40
0.0
 40
0.0
 40
0.0
 40
0.0
 40
0.0374087756414961
 40
0.0374087756414961
 40
0.2218831892126988
 40
0.2218831892126988
 40
0.3935557366064434
 40
0.3935557366064434
 40
0.5415169333861538
 40
0.5415169333861538
 40
0.6858187358819146
 40
0.6858187358819146
 40
0.8440905071689073
 40
0.8440905071689073
 40
1.0
 40
1.0
 40
1.0
 40
1.0
 10
81.06950441467574
 20
58.19319664931581
 30
0.0
 10
81.07179696713536
 20
58.22716394405095
 30
0.0
 10
81.0745991207507
 20
58.26160559961455
 30
0.0
 10
81.09461560338786
 20
58.46705427705295
 30
0.0
 10
81.12627181100103
 20
58.65129958328143
 30
0.0
 10
81.2256282441686
 20
58.99660841541754
 30
0.0
 10
81.29266287160575
 20
59.16372139594836
 30
0.0
 10
81.44453561799693
 20
59.44042175691317
 30
0.0
 10
81.52759552336016
 20
59.55841493766212
 30
0.0
 10
81.69971719752325
 20
59.75327372621279
 30
0.0
 10
81.79057517533795
 20
59.83368694340796
 30
0.0
 10
81.97457528186118
 20
59.96364684421476
 30
0.0
 10
82.0694451011834
 20
60.01137638659661
 30
0.0
 10
82.23308735441433
 20
60.06761230587496
 30
0.0
 10
82.30416135283919
 20
60.07755151468322
 30
0.0
 10
82.35418592182339
 20
60.07135740864654
 30
0.0
  0
SPLINE
  5
1552
330
19
100
AcDbEntity
  8
SK1
100
AcDbSpline
210
0.0
220
0.0
230
1.0
 70
     8
 71
     3
 72
     8
 73
     4
 74
     0
 42
0.0000000001
 43
0.0000000001
 40
0.0
 40
0.0
 40
0.0
 40
0.0
 40
1.0
 40
1.0
 40
1.0
 40
1.0
 10
1.519381240855864
 20
56.23404561235265
 30
0.0
 10
3.369291991162498
 20
56.29244775183228
 30
0.0
 10
5.219301971045069
 20
56.34752516141633
 30
0.0
 10
7.069381240855861
 20
56.39976098045758
 30
0.0
  0
SPLINE
  5
1553
330
19
100
AcDbEntity
  8
SK1
100
AcDbSpline
210
0.0
220
0.0
230
1.0
 70
     8
 71
     3
 72
     8
 73
     4
 74
     0
 42
0.0000000001
 43
0.0000000001
 40
0.0
 40
0.0
 40
0.0
 40
0.0
 40
1.0
 40
1.0
 40
1.0
 40
1.0
 10
7.069381240855861
 20
50.44570313664986
 30
0.0
 10
5.219301971045069
 20
50.49793895569111
 30
0.0
 10
3.369291991162498
 20
50.55301636527516
 30
0.0
 10
1.519381240855864
 20
50.61141850475479
 30
0.0
  0
SPLINE
  5
1554
330
19
100
AcDbEntity
  8
SK1
100
AcDbSpline
210
0.0
220
0.0
230
1.0
 70
     8
 71
     3
 72
    14
 73
    10
 74
     0
 42
0.0000000001
 43
0.0000000001
 40
0.0
 40
0.0
 40
0.0
 40
0.0
 40
0.25
 40
0.25
 40
0.5
 40
0.5
 40
0.75
 40
0.75
 40
1.0
 40
1.0
 40
1.0
 40
1.0
 10
7.069381240855861
 20
56.39976098045757
 30
0.0
 10
7.439069850147376
 20
55.96659996173579
 30
0.0
 10
7.794927215549137
 20
55.52258029314298
 30
0.0
 10
8.396713928434394
 20
54.55530662952213
 30
0.0
 10
8.649396550619144
 20
54.00216420847555
 30
0.0
 10
8.652176156061074
 20
52.85350276848401
 30
0.0
 10
8.405904154307663
 20
52.30736962416791
 30
0.0
 10
7.800663422030936
 20
51.32972271709329
 30
0.0
 10
7.441044033975799
 20
50.88117728987666
 30
0.0
 10
7.069381240855861
 20
50.44570313664987
 30
0.0
  0
SPLINE
  5
1555
330
19
100
AcDbEntity
  8
1
100
AcDbSpline
210
0.0
220
0.0
230
1.0
 70
     8
 71
     3
 72
    23
 73
    19
 74
     0
 42
0.0000000001
 43
0.0000000001
 40
0.0
 40
0.0
 40
0.0
 40
0.0
 40
0.0022023220768399
 40
0.0022023220768399
 40
0.0104112284781728
 40
0.0104112284781728
 40
0.0464415395470117
 40
0.0464415395470117
 40
0.227370688526138
 40
0.227370688526138
 40
0.227370688526138
 40
0.5053174239461795
 40
0.5053174239461795
 40
0.7085561934626551
 40
0.7085561934626551
 40
0.8526747263658567
 40
0.8526747263658567
 40
1.0
 40
1.0
 40
1.0
 40
1.0
 10
78.63379799772291
 20
47.78106647374691
 30
0.0
 10
78.63222677716959
 20
47.78339725664283
 30
0.0
 10
78.63065836122274
 20
47.78573039637802
 30
0.0
 10
78.62320909448708
 20
47.79684282128576
 30
0.0
 10
78.61736506284319
 20
47.80565301746905
 30
0.0
 10
78.58609011460074
 20
47.8533029329253
 30
0.0
 10
78.56138333941051
 20
47.89274957515615
 30
0.0
 10
78.41790144883532
 20
48.13301960829186
 30
0.0
 10
78.31750264795172
 20
48.34941378381422
 30
0.0
 10
78.24035584666877
 20
48.5768440454249
 30
0.0
 10
78.12286221249457
 20
48.92321755039795
 30
0.0
 10
78.05697900387797
 20
49.30380835693464
 30
0.0
 10
78.06811607903352
 20
49.97581801646889
 30
0.0
 10
78.11244208835301
 20
50.27099588664966
 30
0.0
 10
78.27048191200598
 20
50.75465398470943
 30
0.0
 10
78.36210082342275
 20
50.95321192259857
 30
0.0
 10
78.596834848458
 20
51.31948158013578
 30
0.0
 10
78.74437602499023
 20
51.49074622576224
 30
0.0
 10
78.91022441649383
 20
51.63146767233404
 30
0.0
  0
SPLINE
  5
1556
330
19
100
AcDbEntity
  8
1
100
AcDbSpline
210
0.0
220
0.0
230
1.0
 70
     8
 71
     3
 72
    14
 73
    10
 74
     0
 42
0.0000000001
 43
0.0000000001
 40
0.0
 40
0.0
 40
0.0
 40
0.0
 40
0.2507929421871269
 40
0.2507929421871269
 40
0.5031302917957732
 40
0.5031302917957732
 40
0.7397543249042774
 40
0.7397543249042774
 40
1.0
 40
1.0
 40
1.0
 40
1.0
 10
83.16037807050106
 20
53.53871806167815
 30
0.0
 10
83.21600659445854
 20
53.50872753414307
 30
0.0
 10
83.27732611415221
 20
53.48722051377921
 30
0.0
 10
83.40299065094644
 20
53.46621128898418
 30
0.0
 10
83.46916153392959
 20
53.46667386234303
 30
0.0
 10
83.59181398147256
 20
53.48985396192763
 30
0.0
 10
83.65023779592563
 20
53.51148080761595
 30
0.0
 10
83.76088845398598
 20
53.57405151780771
 30
0.0
 10
83.81363138098677
 20
53.61753460261986
 30
0.0
 10
83.85745454934797
 20
53.66735228219397
 30
0.0
  0
SPLINE
  5
1557
330
19
100
AcDbEntity
  8
1
100
AcDbSpline
210
0.0
220
0.0
230
1.0
 70
     8
 71
     3
 72
    10
 73
     6
 74
     0
 42
0.0000000001
 43
0.0000000001
 40
0.0
 40
0.0
 40
0.0
 40
0.0
 40
0.5248306442862237
 40
0.5248306442862237
 40
1.0
 40
1.0
 40
1.0
 40
1.0
 10
83.11570426689867
 20
53.58726763597329
 30
0.0
 10
83.12051426269261
 20
53.57656078140589
 30
0.0
 10
83.12718480241441
 20
53.56654870116816
 30
0.0
 10
83.14249373309609
 20
53.5503667774607
 30
0.0
 10
83.15106999527859
 20
53.54373624419313
 30
0.0
 10
83.16037807050106
 20
53.53871806167815
 30
0.0
  0
SPLINE
  5
1558
330
19
100
AcDbEntity
  8
1
100
AcDbSpline
210
0.0
220
0.0
230
1.0
 70
     8
 71
     3
 72
    14
 73
    10
 74
     0
 42
0.0000000001
 43
0.0000000001
 40
0.0
 40
0.0
 40
0.0
 40
0.0
 40
0.2999179254532324
 40
0.2999179254532324
 40
0.6022059468492498
 40
0.6022059468492498
 40
0.8952802827286227
 40
0.8952802827286227
 40
1.0
 40
1.0
 40
1.0
 40
1.0
 10
83.11570426689867
 20
53.58726763597329
 30
0.0
 10
83.11088958693
 20
53.5979849173227
 30
0.0
 10
83.10420983348825
 20
53.60800581500803
 30
0.0
 10
83.08808226360573
 20
53.62504825574295
 30
0.0
 10
83.07837514860887
 20
53.63228717491708
 30
0.0
 10
83.0576530697821
 20
53.64252934270949
 30
0.0
 10
83.04637733236374
 20
53.64579655895839
 30
0.0
 10
83.03093920617049
 20
53.64725968882678
 30
0.0
 10
83.02679502773024
 20
53.64737108928941
 30
0.0
 10
83.02266905195439
 20
53.64719801902637
 30
0.0
  0
SPLINE
  5
1559
330
19
100
AcDbEntity
  8
1
100
AcDbSpline
210
0.0
220
0.0
230
1.0
 70
     8
 71
     3
 72
    14
 73
    10
 74
     0
 42
0.0000000001
 43
0.0000000001
 40
0.0
 40
0.0
 40
0.0
 40
0.0
 40
0.4409965618105426
 40
0.4409965618105426
 40
0.6998821103760001
 40
0.6998821103760001
 40
0.9157060205436799
 40
0.9157060205436799
 40
1.0
 40
1.0
 40
1.0
 40
1.0
 10
95.2029026810556
 20
57.63456788155093
 30
0.0
 10
95.1915054933525
 20
57.61746718734856
 30
0.0
 10
95.17542487401867
 20
57.599233696269
 30
0.0
 10
95.13935065983297
 20
57.57028605179849
 30
0.0
 10
95.12335365106162
 20
57.55936830761442
 30
0.0
 10
95.08940203789833
 20
57.5405297747136
 30
0.0
 10
95.07182988766194
 20
57.53224180402068
 30
0.0
 10
95.04582987589643
 20
57.52219513483641
 30
0.0
 10
95.03825271221785
 20
57.51949495758037
 30
0.0
 10
95.030579645637
 20
57.51698689673237
 30
0.0
  0
SPLINE
  5
155A
330
19
100
AcDbEntity
  8
1
100
AcDbSpline
210
0.0
220
0.0
230
1.0
 70
     8
 71
     3
 72
    16
 73
    12
 74
     0
 42
0.0000000001
 43
0.0000000001
 40
0.0
 40
0.0
 40
0.0
 40
0.0
 40
0.2499495720584061
 40
0.2499495720584061
 40
0.5031199684182668
 40
0.5031199684182668
 40
0.7289188282071698
 40
0.7289188282071698
 40
0.9516598131021421
 40
0.9516598131021421
 40
1.0
 40
1.0
 40
1.0
 40
1.0
 10
83.24363171938797
 20
54.27106455263857
 30
0.0
 10
83.29393078303862
 20
54.24547373576323
 30
0.0
 10
83.34915984837612
 20
54.22666768200578
 30
0.0
 10
83.46381252501478
 20
54.20802852848026
 30
0.0
 10
83.52500394688453
 20
54.20839686821172
 30
0.0
 10
83.6361001114612
 20
54.22928043676124
 30
0.0
 10
83.68789011806567
 20
54.24786256628935
 30
0.0
 10
83.78135817776536
 20
54.29786604728166
 30
0.0
 10
83.82431347416304
 20
54.3295783747636
 30
0.0
 10
83.8701539603152
 20
54.37326510288601
 30
0.0
 10
83.87816342656822
 20
54.38133207871818
 30
0.0
 10
83.88593564495698
 20
54.38959138191347
 30
0.0
  0
SPLINE
  5
155B
330
19
100
AcDbEntity
  8
1
100
AcDbSpline
210
0.0
220
0.0
230
1.0
 70
     8
 71
     3
 72
     8
 73
     4
 74
     0
 42
0.0000000001
 43
0.0000000001
 40
0.0
 40
0.0
 40
0.0
 40
0.0
 40
1.0
 40
1.0
 40
1.0
 40
1.0
 10
95.69557899288609
 20
58.51355198946726
 30
0.0
 10
95.51392050806629
 20
58.12280357704171
 30
0.0
 10
95.35674809462291
 20
57.8654023154821
 30
0.0
 10
95.2029026810556
 20
57.63456788155093
 30
0.0
  0
SPLINE
  5
155C
330
19
100
AcDbEntity
  8
1
100
AcDbSpline
210
0.0
220
0.0
230
1.0
 70
     8
 71
     3
 72
    16
 73
    12
 74
     0
 42
0.0000000001
 43
0.0000000001
 40
0.0
 40
0.0
 40
0.0
 40
0.0
 40
0.2499495720584058
 40
0.2499495720584058
 40
0.5031199684182669
 40
0.5031199684182669
 40
0.7289188282071704
 40
0.7289188282071704
 40
0.9516598131021432
 40
0.9516598131021432
 40
1.0
 40
1.0
 40
1.0
 40
1.0
 10
82.41148497890646
 20
53.15181840412588
 30
0.0
 10
82.45416987317886
 20
53.17878822204974
 30
0.0
 10
82.49392208210759
 20
53.21363698363
 30
0.0
 10
82.56126371263311
 20
53.29768288156651
 30
0.0
 10
82.58954774489472
 20
53.34846574925588
 30
0.0
 10
82.62611370965771
 20
53.4523810975758
 30
0.0
 10
82.63668701041643
 20
53.50595012272513
 30
0.0
 10
82.64357727653884
 20
53.6121036586551
 30
0.0
 10
82.64026748191458
 20
53.66590766369677
 30
0.0
 10
82.62927361438109
 20
53.72890793260217
 30
0.0
 10
82.62702392247481
 20
53.74016166043057
 30
0.0
 10
82.62451259995669
 20
53.75132595866013
 30
0.0
  0
SPLINE
  5
155D
330
19
100
AcDbEntity
  8
1
100
AcDbSpline
210
0.0
220
0.0
230
1.0
 70
     8
 71
     3
 72
    14
 73
    10
 74
     0
 42
0.0000000001
 43
0.0000000001
 40
0.0
 40
0.0
 40
0.0
 40
0.0
 40
0.2716289778019939
 40
0.2716289778019939
 40
0.5443569972681804
 40
0.5443569972681804
 40
0.8285118330910069
 40
0.8285118330910069
 40
1.0
 40
1.0
 40
1.0
 40
1.0
 10
83.95033917291184
 20
53.81838457678053
 30
0.0
 10
83.94017050060263
 20
53.8150029368274
 30
0.0
 10
83.93047647550245
 20
53.80976802766354
 30
0.0
 10
83.91353736016146
 20
53.79659921181391
 30
0.0
 10
83.90607095084906
 20
53.78848334786323
 30
0.0
 10
83.89394462453161
 20
53.77021379018067
 30
0.0
 10
83.88924901823832
 20
53.75975011114168
 30
0.0
 10
83.88456661264962
 20
53.74239406622852
 30
0.0
 10
83.88342400654734
 20
53.73562911673431
 30
0.0
 10
83.88293640334323
 20
53.72884795150696
 30
0.0
  0
SPLINE
  5
155E
330
19
100
AcDbEntity
  8
1
100
AcDbSpline
210
0.0
220
0.0
230
1.0
 70
     8
 71
     3
 72
     8
 73
     4
 74
     0
 42
0.0000000001
 43
0.0000000001
 40
0.0
 40
0.0
 40
0.0
 40
0.0
 40
1.0
 40
1.0
 40
1.0
 40
1.0
 10
84.60559027122961
 20
53.42937464753042
 30
0.0
 10
84.60523376435368
 20
53.42434735878878
 30
0.0
 10
84.60523751487526
 20
53.41929334088873
 30
0.0
 10
84.60561661627776
 20
53.41429213011901
 30
0.0
  0
SPLINE
  5
155F
330
19
100
AcDbEntity
  8
1
100
AcDbSpline
210
0.0
220
0.0
230
1.0
 70
     8
 71
     3
 72
    14
 73
    10
 74
     0
 42
0.0000000001
 43
0.0000000001
 40
0.0
 40
0.0
 40
0.0
 40
0.0
 40
0.2613951173850591
 40
0.2613951173850591
 40
0.5232343940936952
 40
0.5232343940936952
 40
0.7827359298391584
 40
0.7827359298391584
 40
1.0
 40
1.0
 40
1.0
 40
1.0
 10
84.62177408269935
 20
53.59127680442781
 30
0.0
 10
84.58463475705721
 20
53.64584777187923
 30
0.0
 10
84.53771420264828
 20
53.69483352622651
 30
0.0
 10
84.43161074712637
 20
53.77339006778069
 30
0.0
 10
84.37093960739415
 20
53.80400236337479
 30
0.0
 10
84.2451383687244
 20
53.84240670907198
 30
0.0
 10
84.17833312396046
 20
53.85092587513786
 30
0.0
 10
84.05785368562927
 20
53.84595125331682
 30
0.0
 10
84.00261982603762
 20
53.83577075464237
 30
0.0
 10
83.95033917291184
 20
53.81838457678053
 30
0.0
  0
SPLINE
  5
1560
330
19
100
AcDbEntity
  8
1
100
AcDbSpline
210
0.0
220
0.0
230
1.0
 70
     8
 71
     3
 72
    12
 73
     8
 74
     0
 42
0.0000000001
 43
0.0000000001
 40
0.0
 40
0.0
 40
0.0
 40
0.0
 40
0.1302723414693273
 40
0.1302723414693273
 40
0.8831398177324501
 40
0.8831398177324501
 40
1.0
 40
1.0
 40
1.0
 40
1.0
 10
86.57179212224951
 20
49.59020739532423
 30
0.0
 10
86.61456679155365
 20
49.62611590757052
 30
0.0
 10
86.65705276003809
 20
49.66239975510766
 30
0.0
 10
86.94254480244683
 20
49.91051583406473
 30
0.0
 10
87.18376625861287
 20
50.13040139961095
 30
0.0
 10
87.41787200480059
 20
50.41926657760021
 30
0.0
 10
87.44839422990876
 20
50.45915345713367
 30
0.0
 10
87.47495372176594
 20
50.5011757762012
 30
0.0
  0
SPLINE
  5
1561
330
19
100
AcDbEntity
  8
1
100
AcDbSpline
210
0.0
220
0.0
230
1.0
 70
     8
 71
     3
 72
    10
 73
     6
 74
     0
 42
0.0000000001
 43
0.0000000001
 40
0.0
 40
0.0
 40
0.0
 40
0.0
 40
0.5136908193386533
 40
0.5136908193386533
 40
1.0
 40
1.0
 40
1.0
 40
1.0
 10
83.85745454934797
 20
53.66735228219397
 30
0.0
 10
83.86508646210101
 20
53.67602815384556
 30
0.0
 10
83.87126515637788
 20
53.6861669759974
 30
0.0
 10
83.87964734594191
 20
53.70702409949055
 30
0.0
 10
83.88215198799256
 20
53.71793897868933
 30
0.0
 10
83.88293640334323
 20
53.72884795150696
 30
0.0
  0
SPLINE
  5
1562
330
19
100
AcDbEntity
  8
1
100
AcDbSpline
210
0.0
220
0.0
230
1.0
 70
     8
 71
     3
 72
    12
 73
     8
 74
     0
 42
0.0000000001
 43
0.0000000001
 40
0.0
 40
0.0
 40
0.0
 40
0.0
 40
0.440725191466568
 40
0.440725191466568
 40
0.88230311550204
 40
0.88230311550204
 40
1.0
 40
1.0
 40
1.0
 40
1.0
 10
83.02266905195439
 20
53.64719801902637
 30
0.0
 10
82.95767238105311
 20
53.644471635853
 30
0.0
 10
82.89230944939658
 20
53.63048318466024
 30
0.0
 10
82.77163376510523
 20
53.58187418169393
 30
0.0
 10
82.71468270700548
 20
53.54653551345267
 30
0.0
 10
82.65303545079458
 20
53.49153469182671
 30
0.0
 10
82.64055156087302
 20
53.47929763661643
 30
0.0
 10
82.62862500911927
 20
53.46648550636608
 30
0.0
  0
SPLINE
  5
1563
330
19
100
AcDbEntity
  8
1
100
AcDbSpline
210
0.0
220
0.0
230
1.0
 70
     8
 71
     3
 72
    16
 73
    12
 74
     0
 42
0.0000000001
 43
0.0000000001
 40
0.0
 40
0.0
 40
0.0
 40
0.0
 40
0.2499495720584055
 40
0.2499495720584055
 40
0.5031199684182663
 40
0.5031199684182663
 40
0.7289188282071693
 40
0.7289188282071693
 40
0.9516598131021416
 40
0.9516598131021416
 40
1.0
 40
1.0
 40
1.0
 40
1.0
 10
84.66158318312414
 20
54.12723447738527
 30
0.0
 10
84.66881114318267
 20
54.06915639152804
 30
0.0
 10
84.68395273651706
 20
54.01071195173023
 30
0.0
 10
84.73079601058088
 20
53.90134423038732
 30
0.0
 10
84.76357066020355
 20
53.84903335675416
 30
0.0
 10
84.83810546479615
 20
53.76606736162694
 30
0.0
 10
84.87943163460686
 20
53.73264428655149
 30
0.0
 10
84.96639591276716
 20
53.68201561513
 30
0.0
 10
85.01293794603729
 20
53.66388038093443
 30
0.0
 10
85.07016771043643
 20
53.65021574386368
 30
0.0
 10
85.08050036027057
 20
53.64807890624913
 30
0.0
 10
85.09085948764292
 20
53.64625375212591
 30
0.0
  0
SPLINE
  5
1564
330
19
100
AcDbEntity
  8
1
100
AcDbSpline
210
0.0
220
0.0
230
1.0
 70
     8
 71
     3
 72
    10
 73
     6
 74
     0
 42
0.0000000001
 43
0.0000000001
 40
0.0
 40
0.0
 40
0.0
 40
0.0
 40
0.3817685354232307
 40
0.3817685354232307
 40
1.0
 40
1.0
 40
1.0
 40
1.0
 10
95.71514770474992
 20
58.58724144259166
 30
0.0
 10
95.71466985675371
 20
58.57899087719005
 30
0.0
 10
95.71354678386569
 20
58.5703334503978
 30
0.0
 10
95.70860209081338
 20
58.54652078837765
 30
0.0
 10
95.70344246342655
 20
58.5304663583881
 30
0.0
 10
95.69557899288609
 20
58.51355198946726
 30
0.0
  0
SPLINE
  5
1565
330
19
100
AcDbEntity
  8
1
100
AcDbSpline
210
0.0
220
0.0
230
1.0
 70
     8
 71
     3
 72
    12
 73
     8
 74
     0
 42
0.0000000001
 43
0.0000000001
 40
0.0
 40
0.0
 40
0.0
 40
0.0
 40
0.1754504451271313
 40
0.1754504451271313
 40
0.9280934395537608
 40
0.9280934395537608
 40
1.0
 40
1.0
 40
1.0
 40
1.0
 10
82.38878647122218
 20
48.76073899196929
 30
0.0
 10
82.41250880019263
 20
48.75259512640325
 30
0.0
 10
82.43816275081947
 20
48.75011755245802
 30
0.0
 10
82.57140514791506
 20
48.74183651031714
 30
0.0
 10
82.68139232985005
 20
48.74506939250146
 30
0.0
 10
82.79821312592877
 20
48.72122034530868
 30
0.0
 10
82.80845246727293
 20
48.71895686430494
 30
0.0
 10
82.8186461265656
 20
48.7165284195989
 30
0.0
  0
SPLINE
  5
1566
330
19
100
AcDbEntity
  8
1
100
AcDbSpline
210
0.0
220
0.0
230
1.0
 70
     8
 71
     3
 72
    12
 73
     8
 74
     0
 42
0.0000000001
 43
0.0000000001
 40
0.0
 40
0.0
 40
0.0
 40
0.0
 40
0.3551392462387813
 40
0.3551392462387813
 40
0.7124324348832446
 40
0.7124324348832446
 40
1.0
 40
1.0
 40
1.0
 40
1.0
 10
82.33200417695558
 20
52.38676603174926
 30
0.0
 10
82.38249223913397
 20
52.4165802677776
 30
0.0
 10
82.42877341570501
 20
52.4557064357106
 30
0.0
 10
82.50529068624153
 20
52.54857137278917
 30
0.0
 10
82.53644322562683
 20
52.60381485910208
 30
0.0
 10
82.57392732787295
 20
52.71071911985288
 30
0.0
 10
82.58430813263398
 20
52.76208598345566
 30
0.0
 10
82.58796231486783
 20
52.81382037791249
 30
0.0
  0
SPLINE
  5
1567
330
19
100
AcDbEntity
  8
1
100
AcDbSpline
210
0.0
220
0.0
230
1.0
 70
     8
 71
     3
 72
    10
 73
     6
 74
     0
 42
0.0000000001
 43
0.0000000001
 40
0.0
 40
0.0
 40
0.0
 40
0.0
 40
0.4309568932504283
 40
0.4309568932504283
 40
1.0
 40
1.0
 40
1.0
 40
1.0
 10
93.3026456573822
 20
61.98503645701214
 30
0.0
 10
93.18668127025345
 20
62.11399071883073
 30
0.0
 10
92.88091798639326
 20
62.1793996806436
 30
0.0
 10
91.8685150696977
 20
62.14258466584031
 30
0.0
 10
91.0978837987367
 20
61.9808766301281
 30
0.0
 10
90.27581298610849
 20
61.67320826895118
 30
0.0
  0
SPLINE
  5
1568
330
19
100
AcDbEntity
  8
1
100
AcDbSpline
210
0.0
220
0.0
230
1.0
 70
     8
 71
     3
 72
    14
 73
    10
 74
     0
 42
0.0000000001
 43
0.0000000001
 40
0.0
 40
0.0
 40
0.0
 40
0.0
 40
0.2717858932208426
 40
0.2717858932208426
 40
0.5445238082361966
 40
0.5445238082361966
 40
0.8286899649330369
 40
0.8286899649330369
 40
1.0
 40
1.0
 40
1.0
 40
1.0
 10
85.24177154104323
 20
52.89660341101165
 30
0.0
 10
85.23394631515795
 20
52.90326585807381
 30
0.0
 10
85.22482609625074
 20
52.90852832701216
 30
0.0
 10
85.20558257889888
 20
52.91553965320378
 30
0.0
 10
85.19520037557544
 20
52.91737663037101
 30
0.0
 10
85.17415673623984
 20
52.91759818034771
 30
0.0
 10
85.16322293067865
 20
52.9158442382021
 30
0.0
 10
85.14664213113205
 20
52.91033759473485
 30
0.0
 10
85.14052324046772
 20
52.90762274178131
 30
0.0
 10
85.13471694484726
 20
52.90435189096692
 30
0.0
  0
SPLINE
  5
1569
330
19
100
AcDbEntity
  8
1
100
AcDbSpline
210
0.0
220
0.0
230
1.0
 70
     8
 71
     3
 72
     8
 73
     4
 74
     0
 42
0.0000000001
 43
0.0000000001
 40
0.0
 40
0.0
 40
0.0
 40
0.0
 40
1.0
 40
1.0
 40
1.0
 40
1.0
 10
85.26827864941072
 20
52.87247900301339
 30
0.0
 10
85.25969527372849
 20
52.88082270151706
 30
0.0
 10
85.25085126090067
 20
52.88887287980705
 30
0.0
 10
85.24177154104323
 20
52.89660341101165
 30
0.0
  0
SPLINE
  5
156A
330
19
100
AcDbEntity
  8
1
100
AcDbSpline
210
0.0
220
0.0
230
1.0
 70
     8
 71
     3
 72
    10
 73
     6
 74
     0
 42
0.0000000001
 43
0.0000000001
 40
0.0
 40
0.0
 40
0.0
 40
0.0
 40
0.5129573319197497
 40
0.5129573319197497
 40
1.0
 40
1.0
 40
1.0
 40
1.0
 10
85.0714995151582
 20
52.89229570909452
 30
0.0
 10
85.08242069886032
 20
52.8906161884952
 30
0.0
 10
85.09381224652443
 20
52.89094493610497
 30
0.0
 10
85.11512336352629
 20
52.89524258086034
 30
0.0
 10
85.12535269938451
 20
52.8990767462103
 30
0.0
 10
85.13471694484726
 20
52.90435189096692
 30
0.0
  0
SPLINE
  5
156B
330
19
100
AcDbEntity
  8
1
100
AcDbSpline
210
0.0
220
0.0
230
1.0
 70
     8
 71
     3
 72
    14
 73
    10
 74
     0
 42
0.0000000001
 43
0.0000000001
 40
0.0
 40
0.0
 40
0.0
 40
0.0
 40
0.2507567061811375
 40
0.2507567061811375
 40
0.5030972153867392
 40
0.5030972153867392
 40
0.7397226172948218
 40
0.7397226172948218
 40
1.0
 40
1.0
 40
1.0
 40
1.0
 10
84.60561661627776
 20
53.41429213011901
 30
0.0
 10
84.61046700213524
 20
53.35030449560339
 30
0.0
 10
84.62525244397246
 20
53.28607230137925
 30
0.0
 10
84.67404396051593
 20
53.16724548320862
 30
0.0
 10
84.70896223608573
 20
53.11108664027011
 30
0.0
 10
84.79136618294775
 20
53.01954180829388
 30
0.0
 10
84.83900351133057
 20
52.98188561661516
 30
0.0
 10
84.94650877797061
 20
52.92260797979944
 30
0.0
 10
85.00869158591532
 20
52.90195466309086
 30
0.0
 10
85.0714995151582
 20
52.89229570909452
 30
0.0
  0
SPLINE
  5
156C
330
19
100
AcDbEntity
  8
1
100
AcDbSpline
210
0.0
220
0.0
230
1.0
 70
     8
 71
     3
 72
    16
 73
    12
 74
     0
 42
0.0000000001
 43
0.0000000001
 40
0.0
 40
0.0
 40
0.0
 40
0.0
 40
0.284105536881455
 40
0.284105536881455
 40
0.5770024502676149
 40
0.5770024502676149
 40
0.762267305710961
 40
0.762267305710961
 40
0.9112282022202785
 40
0.9112282022202785
 40
1.0
 40
1.0
 40
1.0
 40
1.0
 10
94.87368065405039
 20
57.23605507238366
 30
0.0
 10
94.9208117838347
 20
57.32447976088349
 30
0.0
 10
94.96755182326467
 20
57.41025041303875
 30
0.0
 10
95.05453632959101
 20
57.5655294681344
 30
0.0
 10
95.09605316063574
 20
57.63719897283202
 30
0.0
 10
95.15184580035777
 20
57.726304874976
 30
0.0
 10
95.17102535544008
 20
57.75470620444497
 30
0.0
 10
95.1969189903024
 20
57.78625168164284
 30
0.0
 10
95.20553008067151
 20
57.79338762726256
 30
0.0
 10
95.21239723653163
 20
57.79001963861495
 30
0.0
 10
95.21346306507743
 20
57.78543529727869
 30
0.0
 10
95.21291149171494
 20
57.77755542779562
 30
0.0
  0
SPLINE
  5
156D
330
19
100
AcDbEntity
  8
1
100
AcDbSpline
210
0.0
220
0.0
230
1.0
 70
     8
 71
     3
 72
    10
 73
     6
 74
     0
 42
0.0000000001
 43
0.0000000001
 40
0.0
 40
0.0
 40
0.0
 40
0.0
 40
0.9315835130362614
 40
0.9315835130362614
 40
1.0
 40
1.0
 40
1.0
 40
1.0
 10
86.75533055010506
 20
48.48071256552161
 30
0.0
 10
86.71330136464774
 20
48.44567568745159
 30
0.0
 10
86.67054046839465
 20
48.41154145859461
 30
0.0
 10
86.62388059005953
 20
48.37584497846741
 30
0.0
 10
86.62067488255555
 20
48.37340023133037
 30
0.0
 10
86.61746507776506
 20
48.37096006130639
 30
0.0
  0
SPLINE
  5
156E
330
19
100
AcDbEntity
  8
1
100
AcDbSpline
210
0.0
220
0.0
230
1.0
 70
     8
 71
     3
 72
    17
 73
    13
 74
     0
 42
0.0000000001
 43
0.0000000001
 40
0.0
 40
0.0
 40
0.0
 40
0.0
 40
0.2164646434797251
 40
0.2164646434797251
 40
0.4327303646084986
 40
0.4327303646084986
 40
0.6619621483079348
 40
0.6619621483079348
 40
0.9151865271354953
 40
0.9151865271354953
 40
0.9151865271354953
 40
1.0
 40
1.0
 40
1.0
 40
1.0
 10
95.72572496333624
 20
58.9442223748444
 30
0.0
 10
95.73187516825221
 20
59.0320852328571
 30
0.0
 10
95.713587151075
 20
59.06077428207367
 30
0.0
 10
95.63078328886547
 20
59.00201014728526
 30
0.0
 10
95.5652647804651
 20
58.91457415465897
 30
0.0
 10
95.38828226601388
 20
58.64319641069537
 30
0.0
 10
95.27203973383441
 20
58.45083806655177
 30
0.0
 10
94.98596062113277
 20
57.97621696678925
 30
0.0
 10
94.80778586224397
 20
57.68040154528319
 30
0.0
 10
94.61117277959067
 20
57.36288231726527
 30
0.0
 10
94.54457020913446
 20
57.25532285850558
 30
0.0
 10
94.47553078617653
 20
57.14468825618777
 30
0.0
 10
94.40456420507098
 20
57.0319725511359
 30
0.0
  0
SPLINE
  5
156F
330
19
100
AcDbEntity
  8
1
100
AcDbSpline
210
0.0
220
0.0
230
1.0
 70
     8
 71
     3
 72
     8
 73
     4
 74
     0
 42
0.0000000001
 43
0.0000000001
 40
0.0
 40
0.0
 40
0.0
 40
0.0
 40
1.0
 40
1.0
 40
1.0
 40
1.0
 10
84.47944300247918
 20
58.52645030432809
 30
0.0
 10
84.38852963419583
 20
58.62831378328651
 30
0.0
 10
84.28763887760238
 20
58.68272214798031
 30
0.0
 10
84.24846544747998
 20
58.65595429578497
 30
0.0
  0
SPLINE
  5
1570
330
19
100
AcDbEntity
  8
1
100
AcDbSpline
210
0.0
220
0.0
230
1.0
 70
     8
 71
     3
 72
    17
 73
    13
 74
     0
 42
0.0000000001
 43
0.0000000001
 40
0.0
 40
0.0
 40
0.0
 40
0.0
 40
0.0956850703809783
 40
0.0956850703809783
 40
0.0956850703809783
 40
0.3819001355116708
 40
0.3819001355116708
 40
0.6423914637503792
 40
0.6423914637503792
 40
0.8899647349567267
 40
0.8899647349567267
 40
1.0
 40
1.0
 40
1.0
 40
1.0
 10
94.19174734752607
 20
57.28561703832397
 30
0.0
 10
94.27023599109809
 20
57.40333723517686
 30
0.0
 10
94.34672280395664
 20
57.51875160985864
 30
0.0
 10
94.42060658573684
 20
57.63078610488893
 30
0.0
 10
94.63902637021373
 20
57.96198937668799
 30
0.0
 10
94.8379161475057
 20
58.26903741029825
 30
0.0
 10
95.15866765784013
 20
58.75918914566771
 30
0.0
 10
95.2896123311047
 20
58.95637273349162
 30
0.0
 10
95.48994476125285
 20
59.232282644839
 30
0.0
 10
95.5643488495461
 20
59.31911428351725
 30
0.0
 10
95.63249932199896
 20
59.35753172172489
 30
0.0
 10
95.64830604168466
 20
59.35746856193876
 30
0.0
 10
95.65885332565107
 20
59.34551115735557
 30
0.0
  0
SPLINE
  5
1571
330
19
100
AcDbEntity
  8
1
100
AcDbSpline
210
0.0
220
0.0
230
1.0
 70
     8
 71
     3
 72
     8
 73
     4
 74
     0
 42
0.0000000001
 43
0.0000000001
 40
0.0
 40
0.0
 40
0.0
 40
0.0
 40
1.0
 40
1.0
 40
1.0
 40
1.0
 10
90.00874669066357
 20
52.17306948235151
 30
0.0
 10
90.03304085783813
 20
52.22862864308834
 30
0.0
 10
89.96139437966983
 20
52.38422227663986
 30
0.0
 10
89.8583556452621
 20
52.49967156811845
 30
0.0
  0
SPLINE
  5
1572
330
19
100
AcDbEntity
  8
1
100
AcDbSpline
210
0.0
220
0.0
230
1.0
 70
     8
 71
     3
 72
    22
 73
    18
 74
     0
 42
0.0000000001
 43
0.0000000001
 40
0.0
 40
0.0
 40
0.0
 40
0.0
 40
0.1473252736341432
 40
0.1473252736341432
 40
0.291443806537345
 40
0.291443806537345
 40
0.4946825760538204
 40
0.4946825760538204
 40
0.7726293114738621
 40
0.7726293114738621
 40
0.9535584604529883
 40
0.9535584604529883
 40
0.9895887715218272
 40
0.9895887715218272
 40
0.99779767792316
 40
0.99779767792316
 40
1.0
 40
1.0
 40
1.0
 40
1.0
 10
82.09165445521298
 20
48.06684854177103
 30
0.0
 10
81.92580606370936
 20
47.92612709519922
 30
0.0
 10
81.73755163931005
 20
47.80047942698486
 30
0.0
 10
81.35536452146409
 20
47.59942293116954
 30
0.0
 10
81.15718163016847
 20
47.52026413036088
 30
0.0
 10
80.69102240182802
 20
47.38183704825295
 30
0.0
 10
80.41980009106373
 20
47.34088412941189
 30
0.0
 10
79.82538536345177
 20
47.32240532017828
 30
0.0
 10
79.50727957536665
 20
47.37205327637096
 30
0.0
 10
79.05236226460349
 20
47.52604359622094
 30
0.0
 10
78.88779050637653
 20
47.60653450462195
 30
0.0
 10
78.71338035324846
 20
47.72244519733826
 30
0.0
 10
78.68504537897447
 20
47.74242894727622
 30
0.0
 10
78.65118993235532
 20
47.76775409293375
 30
0.0
 10
78.64494624529889
 20
47.77248752738183
 30
0.0
 10
78.63709131600248
 20
47.77852262081963
 30
0.0
 10
78.63544325347318
 20
47.77979337008074
 30
0.0
 10
78.63379799772291
 20
47.78106647374691
 30
0.0
  0
SPLINE
  5
1573
330
19
100
AcDbEntity
  8
1
100
AcDbSpline
210
0.0
220
0.0
230
1.0
 70
     8
 71
     3
 72
    22
 73
    18
 74
     0
 42
0.0000000001
 43
0.0000000001
 40
0.0
 40
0.0
 40
0.0
 40
0.0
 40
0.0022382472472888
 40
0.0022382472472888
 40
0.0096221427866966
 40
0.0096221427866966
 40
0.0444605741321962
 40
0.0444605741321962
 40
0.2275883542724527
 40
0.2275883542724527
 40
0.5057126007308912
 40
0.5057126007308912
 40
0.7089783087407425
 40
0.7089783087407425
 40
0.8529902089604645
 40
0.8529902089604645
 40
1.0
 40
1.0
 40
1.0
 40
1.0
 10
78.63379799772291
 20
47.78106647374691
 30
0.0
 10
78.63527177606338
 20
47.78007328835174
 30
0.0
 10
78.63674843630294
 20
47.77908252064408
 30
0.0
 10
78.64314872246405
 20
47.77480706169579
 30
0.0
 10
78.64810133108353
 20
47.77154670663459
 30
0.0
 10
78.67659847283229
 20
47.75305967897607
 30
0.0
 10
78.70082021602654
 20
47.73840196433321
 30
0.0
 10
78.85608147948286
 20
47.65085103141088
 30
0.0
 10
79.0060330717672
 20
47.59372216773471
 30
0.0
 10
79.42309715670418
 20
47.49848271854221
 30
0.0
 10
79.71748572894743
 20
47.48363563420413
 30
0.0
 10
80.27551309821594
 20
47.55468703809538
 30
0.0
 10
80.53235383545294
 20
47.61594016720311
 30
0.0
 10
80.97868593215101
 20
47.78174772768989
 30
0.0
 10
81.16981884555029
 20
47.87024520213729
 30
0.0
 10
81.54180731273674
 20
48.08399601279747
 30
0.0
 10
81.72690159838099
 20
48.21291016677986
 30
0.0
 10
81.89222470002839
 20
48.35339612476622
 30
0.0
  0
SPLINE
  5
1574
330
19
100
AcDbEntity
  8
1
100
AcDbSpline
210
0.0
220
0.0
230
1.0
 70
     8
 71
     3
 72
    23
 73
    19
 74
     0
 42
0.0000000001
 43
0.0000000001
 40
0.0
 40
0.0
 40
0.0
 40
0.0
 40
0.1470097910395354
 40
0.1470097910395354
 40
0.2910216912592576
 40
0.2910216912592576
 40
0.4942873992691088
 40
0.4942873992691088
 40
0.7724116457275472
 40
0.7724116457275472
 40
0.7724116457275472
 40
0.9555394258678035
 40
0.9555394258678035
 40
0.9903778572133031
 40
0.9903778572133031
 40
0.9977617527527112
 40
0.9977617527527112
 40
1.0
 40
1.0
 40
1.0
 40
1.0
 10
79.10437363517139
 20
51.47703144536267
 30
0.0
 10
78.93905053352402
 20
51.33654548737633
 30
0.0
 10
78.78968362987492
 20
51.16760074721257
 30
0.0
 10
78.54689436445234
 20
50.80908926583011
 30
0.0
 10
78.44915435594372
 20
50.61595012666576
 30
0.0
 10
78.27284518544188
 20
50.14759658003582
 30
0.0
 10
78.21481893358904
 20
49.86358264543866
 30
0.0
 10
78.16792627222757
 20
49.21983263245471
 30
0.0
 10
78.20998256308548
 20
48.85771156700039
 30
0.0
 10
78.30290916198757
 20
48.53000526252856
 30
0.0
 10
78.36461624632177
 20
48.3123947957106
 30
0.0
 10
78.44952485279702
 20
48.10637559473743
 30
0.0
 10
78.57387145307604
 20
47.88064114090076
 30
0.0
 10
78.59455211439554
 20
47.84498815620714
 30
0.0
 10
78.62047689331236
 20
47.8024983850156
 30
0.0
 10
78.62504331013816
 20
47.79509319037316
 30
0.0
 10
78.6310241834019
 20
47.78549623433599
 30
0.0
 10
78.63240965061688
 20
47.78328014407276
 30
0.0
 10
78.63379799772291
 20
47.78106647374691
 30
0.0
  0
SPLINE
  5
1575
330
19
100
AcDbEntity
  8
1
100
AcDbSpline
210
0.0
220
0.0
230
1.0
 70
     8
 71
     3
 72
    16
 73
    12
 74
     0
 42
0.0000000001
 43
0.0000000001
 40
0.0
 40
0.0
 40
0.0
 40
0.0
 40
0.2499495720584059
 40
0.2499495720584059
 40
0.5031199684182665
 40
0.5031199684182665
 40
0.7289188282071697
 40
0.7289188282071697
 40
0.9516598131021421
 40
0.9516598131021421
 40
1.0
 40
1.0
 40
1.0
 40
1.0
 10
84.41524116589731
 20
51.74491210510655
 30
0.0
 10
84.36416968360722
 20
51.7594680198659
 30
0.0
 10
84.308270092121
 20
51.7686948247031
 30
0.0
 10
84.19268187138362
 20
51.77396863846688
 30
0.0
 10
84.13122496954299
 20
51.76980760738492
 30
0.0
 10
84.02013801452415
 20
51.74905560812175
 30
0.0
 10
83.96856693584952
 20
51.73360111968519
 30
0.0
 10
83.87587184531595
 20
51.6946404057252
 30
0.0
 10
83.83347043341458
 20
51.6708409649716
 30
0.0
 10
83.78842076868952
 20
51.63845204427367
 30
0.0
 10
83.7805582857862
 20
51.63248489720487
 30
0.0
 10
83.7729372403283
 20
51.62638527583166
 30
0.0
  0
SPLINE
  5
1576
330
19
100
AcDbEntity
  8
1
100
AcDbSpline
210
0.0
220
0.0
230
1.0
 70
     8
 71
     3
 72
    16
 73
    12
 74
     0
 42
0.0000000001
 43
0.0000000001
 40
0.0
 40
0.0
 40
0.0
 40
0.0
 40
0.2499495720584055
 40
0.2499495720584055
 40
0.5031199684182665
 40
0.5031199684182665
 40
0.7289188282071701
 40
0.7289188282071701
 40
0.951659813102143
 40
0.951659813102143
 40
1.0
 40
1.0
 40
1.0
 40
1.0
 10
82.99728970216111
 20
51.88874218035987
 30
0.0
 10
82.98928932346319
 20
51.93578536410109
 30
0.0
 10
82.97347720398004
 20
51.98465055497866
 30
0.0
 10
82.92569838581753
 20
52.08065293655983
 30
0.0
 10
82.89265825622395
 20
52.12917111884248
 30
0.0
 10
82.81813266118918
 20
52.21226868325605
 30
0.0
 10
82.77702541930835
 20
52.24881939942306
 30
0.0
 10
82.69083411031415
 20
52.31049083787687
 30
0.0
 10
82.64484596154035
 20
52.33653895880078
 30
0.0
 10
82.58840701856827
 20
52.361501403296
 30
0.0
 10
82.57822135208382
 20
52.36573806967392
 30
0.0
 10
82.56801339764233
 20
52.36972290561922
 30
0.0
  0
SPLINE
  5
1577
330
19
100
AcDbEntity
  8
1
100
AcDbSpline
210
0.0
220
0.0
230
1.0
 70
     8
 71
     3
 72
    14
 73
    10
 74
     0
 42
0.0000000001
 43
0.0000000001
 40
0.0
 40
0.0
 40
0.0
 40
0.0
 40
0.3066437610996938
 40
0.3066437610996938
 40
0.6629421624180456
 40
0.6629421624180456
 40
0.9454012556961576
 40
0.9454012556961576
 40
1.0
 40
1.0
 40
1.0
 40
1.0
 10
79.61270508309137
 20
52.30861079637435
 30
0.0
 10
79.61698382259853
 20
52.26597334231612
 30
0.0
 10
79.61782232434849
 20
52.22318784897476
 30
0.0
 10
79.61320183058983
 20
52.13161706835362
 30
0.0
 10
79.60639295378266
 20
52.0829236688304
 30
0.0
 10
79.59325033557576
 20
51.99626701369789
 30
0.0
 10
79.58599481199937
 20
51.95772796302303
 30
0.0
 10
79.58849395149027
 20
51.91087030343465
 30
0.0
 10
79.58933903563691
 20
51.9031990893728
 30
0.0
 10
79.59089208660768
 20
51.8956273054987
 30
0.0
  0
SPLINE
  5
1578
330
19
100
AcDbEntity
  8
1
100
AcDbSpline
210
0.0
220
0.0
230
1.0
 70
     8
 71
     3
 72
    10
 73
     6
 74
     0
 42
0.0000000001
 43
0.0000000001
 40
0.0
 40
0.0
 40
0.0
 40
0.0
 40
0.2008908525262509
 40
0.2008908525262509
 40
1.0
 40
1.0
 40
1.0
 40
1.0
 10
82.09604107898183
 20
56.52795451241313
 30
0.0
 10
82.01581063725091
 20
56.49450004911142
 30
0.0
 10
81.94056173733196
 20
56.44965496644807
 30
0.0
 10
81.57457686684493
 20
56.2210664774815
 30
0.0
 10
81.30420124321062
 20
56.00560420009774
 30
0.0
 10
81.04227912983503
 20
55.78572562315644
 30
0.0
  0
SPLINE
  5
1579
330
19
100
AcDbEntity
  8
1
100
AcDbSpline
210
0.0
220
0.0
230
1.0
 70
     8
 71
     3
 72
    16
 73
    12
 74
     0
 42
0.0000000001
 43
0.0000000001
 40
0.0
 40
0.0
 40
0.0
 40
0.0
 40
0.2499495720584057
 40
0.2499495720584057
 40
0.5031199684182665
 40
0.5031199684182665
 40
0.7289188282071699
 40
0.7289188282071699
 40
0.9516598131021424
 40
0.9516598131021424
 40
1.0
 40
1.0
 40
1.0
 40
1.0
 10
85.24738790637879
 20
52.86415825361927
 30
0.0
 10
85.20393059346696
 20
52.82615353357939
 30
0.0
 10
85.1635078583895
 20
52.78172552307889
 30
0.0
 10
85.0952306837653
 20
52.68431428538064
 30
0.0
 10
85.0666811715328
 20
52.62973872634076
 30
0.0
 10
85.03012441632764
 20
52.52595494730718
 30
0.0
 10
85.01977004349878
 20
52.4755135632494
 30
0.0
 10
85.01365274654245
 20
52.38040279435177
 30
0.0
 10
85.01751642566306
 20
52.33451167603843
 30
0.0
 10
85.02930111462362
 20
52.28280921455752
 30
0.0
 10
85.03169778987958
 20
52.27365531549247
 30
0.0
 10
85.03436028532858
 20
52.26465069908501
 30
0.0
  0
SPLINE
  5
157A
330
19
100
AcDbEntity
  8
1
100
AcDbSpline
210
0.0
220
0.0
230
1.0
 70
     8
 71
     3
 72
    11
 73
     7
 74
     0
 42
0.0000000001
 43
0.0000000001
 40
0.0
 40
0.0
 40
0.0
 40
0.0
 40
0.3495402502780895
 40
0.6807220090273211
 40
0.9631652554858309
 40
1.0
 40
1.0
 40
1.0
 40
1.0
 10
95.73999657665961
 20
59.03114287800031
 30
0.0
 10
95.74684619943109
 20
59.05761331414431
 30
0.0
 10
95.75135563701914
 20
59.11731895469289
 30
0.0
 10
95.73428230978526
 20
59.20619606446209
 30
0.0
 10
95.7068417695835
 20
59.30251207649366
 30
0.0
 10
95.66254678053672
 20
59.33762908497421
 30
0.0
 10
95.65719342698189
 20
59.34165253009786
 30
0.0
  0
SPLINE
  5
157B
330
19
100
AcDbEntity
  8
1
100
AcDbSpline
210
0.0
220
0.0
230
1.0
 70
    24
 71
     1
 72
     4
 73
     2
 74
     0
 42
0.0000000001
 43
0.0000000001
 40
0.0
 40
0.0
 40
1.0
 40
1.0
 10
90.21135843566897
 20
61.87329679087492
 30
0.0
 10
90.12986550254456
 20
61.84516983169448
 30
0.0
  0
SPLINE
  5
157C
330
19
100
AcDbEntity
  8
1
100
AcDbSpline
210
0.0
220
0.0
230
1.0
 70
     8
 71
     3
 72
    16
 73
    12
 74
     0
 42
0.0000000001
 43
0.0000000001
 40
0.0
 40
0.0
 40
0.0
 40
0.0
 40
0.0663221393693026
 40
0.1588450961876094
 40
0.2752183633103209
 40
0.4119708775437846
 40
0.54496023615568
 40
0.6797498356689051
 40
0.814013973318247
 40
0.948472386860158
 40
1.0
 40
1.0
 40
1.0
 40
1.0
 10
93.29566433089707
 20
61.98691410348146
 30
0.0
 10
93.26111890478143
 20
62.02535608150654
 30
0.0
 10
93.17201365465376
 20
62.10639524292763
 30
0.0
 10
92.98575360650959
 20
62.18881972412581
 30
0.0
 10
92.72365088878279
 20
62.25134681053349
 30
0.0
 10
92.37392396796158
 20
62.27887684269093
 30
0.0
 10
91.94777637038484
 20
62.26296538244305
 30
0.0
 10
91.4762880966492
 20
62.20504721668682
 30
0.0
 10
90.96349613279707
 20
62.09965520274689
 30
0.0
 10
90.53673066110489
 20
61.98740432770788
 30
0.0
 10
90.28237431552405
 20
61.89914665155645
 30
0.0
 10
90.21135843566897
 20
61.87329679087492
 30
0.0
  0
SPLINE
  5
157D
330
19
100
AcDbEntity
  8
1
100
AcDbSpline
210
0.0
220
0.0
230
1.0
 70
     8
 71
     3
 72
    13
 73
     9
 74
     0
 42
0.0000000001
 43
0.0000000001
 40
0.0
 40
0.0
 40
0.0
 40
0.0
 40
0.0249245305841689
 40
0.3793630314300016
 40
0.6818015878307965
 40
0.8559016387945433
 40
0.9770173192928648
 40
1.0
 40
1.0
 40
1.0
 40
1.0
 10
94.87181491948042
 20
57.22927355991661
 30
0.0
 10
94.87478791912225
 20
57.23490731119285
 30
0.0
 10
94.91989062855834
 20
57.32022136180965
 30
0.0
 10
94.99843722542296
 20
57.46312015229268
 30
0.0
 10
95.08218918361118
 20
57.60893951595598
 30
0.0
 10
95.12859018609471
 20
57.68325499707247
 30
0.0
 10
95.14455161380682
 20
57.70562342150096
 30
0.0
 10
95.14574430087865
 20
57.70707451702998
 30
0.0
 10
95.14572461624766
 20
57.70704630686617
 30
0.0
  0
LINE
  5
1585
330
19
100
AcDbEntity
  8
4
100
AcDbLine
 10
31.51938124085587
 20
53.42273205855372
 30
0.0
 11
104.8822877128545
 21
53.42273205855372
 31
0.0
  0
LINE
  5
1586
330
19
100
AcDbEntity
  8
SK4
100
AcDbLine
 10
104.8822877128545
 20
53.42273205855372
 30
0.0
 11
-1.547984743228198
 21
53.42273205855372
 31
0.0
  0
MTEXT
  5
158D
330
19
100
AcDbEntity
  8
SK6
100
AcDbMText
 10
1.51938124085586
 20
21.61900044336812
 30
0.0
 40
3.5
 41
54.99436831313346
 71
     1
 72
     5
  1
{\fMonospac821 BT|b0|i0|c0|p49;C5-CNR-18070-22CHD\P02555841}
  7
SIMPLEX
 73
     1
 44
1.0
1001
ACAD
1000
ACAD_MTEXT_COLUMN_INFO_BEGIN
1070
    75
1070
     2
1070
    79
1070
     0
1070
    76
1070
     1
1070
    78
1070
     0
1070
    48
1040
54.99436831313346
1070
    49
1040
17.5
1070
    50
1070
     1
1040
0.0
1000
ACAD_MTEXT_COLUMN_INFO_END
1000
MTEXTBEGIN
1070
    73
1070
     1
1070
    44
1040
1.0
1070
    74
1070
     0
1000
MTEXTEND
  0
DIMENSION
  5
158E
330
19
100
AcDbEntity
  8
SK2
100
AcDbDimension
  2
*D4
 10
-8.272421280773187
 20
28.42273205855374
 30
0.0
 11
-11.02242128077319
 21
53.42273205855373
 31
0.0
 70
    32
  1
%%C<>
 71
     5
 42
50.0
  3
V-TYGEN_-160
100
AcDbAlignedDimension
 13
31.51938124085587
 23
78.42273205855372
 33
0.0
 14
31.51938124085586
 24
28.42273205855372
 34
0.0
 50
90.0
100
AcDbRotatedDimension
  0
LINE
  5
159B
330
19
100
AcDbEntity
  8
3
100
AcDbLine
 10
99.06159530261936
 20
69.82981652557906
 30
0.0
 11
101.5232762408558
 21
71.1989493788697
 31
0.0
  0
LINE
  5
159D
330
19
100
AcDbEntity
  8
3
100
AcDbLine
 10
101.5232762408559
 20
69.61765893932216
 30
0.0
 11
101.5232762408558
 21
71.1989493788697
 31
0.0
  0
DIMENSION
  5
159E
330
19
100
AcDbEntity
  8
2
100
AcDbDimension
  2
*D5
 10
110.5390054878476
 20
53.42273205855372
 30
0.0
 11
107.7890054878476
 21
62.31084071871173
 31
0.0
 70
    32
 71
     5
 42
17.77621732031598
  3
V-TYGEN_-160
100
AcDbAlignedDimension
 13
101.5232762408558
 23
71.1989493788697
 33
0.0
 14
104.8822877128545
 24
53.42273205855372
 34
0.0
 50
90.0
100
AcDbRotatedDimension
1001
ACAD
1000
DSTYLE
1002
{
1070
   271
1070
     1
1002
}
  0
DIMENSION
  5
15B4
330
19
100
AcDbEntity
  8
2
100
AcDbDimension
  2
*D6
 10
31.51938124085587
 20
89.6467859737079
 30
0.0
 11
66.52132874085586
 21
92.39678597370788
 31
0.0
 70
    32
 71
     5
 42
70.003895
  3
V-TYGEN_-160
100
AcDbAlignedDimension
 13
101.5232762408558
 23
71.1989493788697
 33
0.0
 14
31.51938124085587
 24
78.42273205855372
 34
0.0
100
AcDbRotatedDimension
  0
DIMENSION
  5
15C1
330
19
100
AcDbEntity
  8
2
100
AcDbDimension
  2
*D7
 10
101.5232762408558
 20
80.25143067608723
 30
0.0
 11
78.02132874085586
 21
83.00143067608724
 31
0.0
 70
    32
 71
     5
 42
47.00389499999999
  3
V-TYGEN_-160
100
AcDbAlignedDimension
 13
54.51938124085586
 23
65.92273205855372
 33
0.0
 14
101.5232762408558
 24
71.1989493788697
 34
0.0
100
AcDbRotatedDimension
  0
DIMENSION
  5
15CE
330
19
100
AcDbEntity
  8
2
100
AcDbDimension
  2
*D8
 10
62.74743088347509
 20
40.92273205855373
 30
0.0
 11
62.74743088347509
 21
31.09941229093761
 31
0.0
 70
   160
  1
%%C<>
 71
     5
 42
25.0
  3
V-TYGEN_-160
100
AcDbAlignedDimension
 13
62.74743088347509
 23
65.92273205855372
 33
0.0
 14
62.74743088347509
 24
40.92273205855373
 34
0.0
 50
90.0
100
AcDbRotatedDimension
  0
ENDSEC
  0
SECTION
  2
OBJECTS
  0
DICTIONARY
  5
C
330
0
100
AcDbDictionary
281
     1
  3
ACAD_COLOR
350
12BC
  3
ACAD_GROUP
350
D
  3
ACAD_LAYOUT
350
A85
  3
ACAD_MATERIAL
350
128A
  3
ACAD_MLEADERSTYLE
350
12D1
  3
ACAD_MLINESTYLE
350
E
  3
ACAD_PLOTSETTINGS
350
A86
  3
ACAD_PLOTSTYLENAME
350
E93
  3
ACAD_SCALELIST
350
12BF
  3
ACAD_TABLESTYLE
350
12BD
  3
ACAD_VISUALSTYLE
350
12A3
  3
ACDB_RECOMPOSE_DATA
350
1658
  3
AcDbVariableDictionary
350
12D8
  3
DWGPROPS
350
1659
  0
DICTIONARY
  5
1634
330
F
100
AcDbDictionary
280
     1
281
     1
  3
ADSK_XREC_LAYER_RECONCILED
360
1635
  0
DICTIONARY
  5
1636
330
1E
100
AcDbDictionary
280
     1
281
     1
  3
ADSK_XREC_LAYER_RECONCILED
360
1637
  0
DICTIONARY
  5
1638
330
22
100
AcDbDictionary
280
     1
281
     1
  3
ADSK_XREC_LAYER_RECONCILED
360
1639
  0
DICTIONARY
  5
163A
330
23
100
AcDbDictionary
280
     1
281
     1
  3
ADSK_XREC_LAYER_RECONCILED
360
163B
  0
DICTIONARY
  5
163C
330
24
100
AcDbDictionary
280
     1
281
     1
  3
ADSK_XREC_LAYER_RECONCILED
360
163D
  0
DICTIONARY
  5
163E
330
25
100
AcDbDictionary
280
     1
281
     1
  3
ADSK_XREC_LAYER_RECONCILED
360
163F
  0
DICTIONARY
  5
1640
330
26
100
AcDbDictionary
280
     1
281
     1
  3
ADSK_XREC_LAYER_RECONCILED
360
1641
  0
DICTIONARY
  5
1642
330
27
100
AcDbDictionary
280
     1
281
     1
  3
ADSK_XREC_LAYER_RECONCILED
360
1643
  0
DICTIONARY
  5
1644
330
28
100
AcDbDictionary
280
     1
281
     1
  3
ADSK_XREC_LAYER_RECONCILED
360
1645
  0
DICTIONARY
  5
1646
330
29
100
AcDbDictionary
280
     1
281
     1
  3
ADSK_XREC_LAYER_RECONCILED
360
1647
  0
DICTIONARY
  5
1648
330
2A
100
AcDbDictionary
280
     1
281
     1
  3
ADSK_XREC_LAYER_RECONCILED
360
1649
  0
DICTIONARY
  5
164A
330
2B
100
AcDbDictionary
280
     1
281
     1
  3
ADSK_XREC_LAYER_RECONCILED
360
164B
  0
DICTIONARY
  5
164C
330
2C
100
AcDbDictionary
280
     1
281
     1
  3
ADSK_XREC_LAYER_RECONCILED
360
164D
  0
DICTIONARY
  5
164E
330
2D
100
AcDbDictionary
280
     1
281
     1
  3
ADSK_XREC_LAYER_RECONCILED
360
164F
  0
DICTIONARY
  5
1650
330
C07
100
AcDbDictionary
280
     1
281
     1
  3
ADSK_XREC_LAYER_RECONCILED
360
1651
  0
DICTIONARY
  5
E8D
330
19
100
AcDbDictionary
280
     1
281
     1
  3
ACAD_SORTENTS
360
159C
  0
DICTIONARY
  5
E8B
330
16
100
AcDbDictionary
280
     1
281
     1
  0
DICTIONARY
  5
12BC
102
{ACAD_REACTORS
330
C
102
}
330
C
100
AcDbDictionary
281
     1
  0
DICTIONARY
  5
D
102
{ACAD_REACTORS
330
C
102
}
330
C
100
AcDbDictionary
281
     1
  0
DICTIONARY
  5
A85
102
{ACAD_REACTORS
330
C
102
}
330
C
100
AcDbDictionary
281
     1
  3
Layout1
350
E96
  3
Model
350
E95
  0
DICTIONARY
  5
128A
102
{ACAD_REACTORS
330
C
102
}
330
C
100
AcDbDictionary
281
     1
  3
ByBlock
350
1293
  3
ByLayer
350
128B
  3
Global
350
129B
  0
DICTIONARY
  5
12D1
102
{ACAD_REACTORS
330
C
102
}
330
C
100
AcDbDictionary
281
     1
  3
Standard
350
12D2
  0
DICTIONARY
  5
E
102
{ACAD_REACTORS
330
C
102
}
330
C
100
AcDbDictionary
281
     1
  3
STANDARD
350
1C
  0
DICTIONARY
  5
A86
102
{ACAD_REACTORS
330
C
102
}
330
C
100
AcDbDictionary
281
     1
  0
ACDBDICTIONARYWDFLT
  5
E93
102
{ACAD_REACTORS
330
C
102
}
330
C
100
AcDbDictionary
281
     1
  3
Normal
350
E94
100
AcDbDictionaryWithDefault
340
E94
  0
DICTIONARY
  5
12BF
102
{ACAD_REACTORS
330
C
102
}
330
C
100
AcDbDictionary
281
     1
  3
A0
350
12C0
  3
A1
350
12C1
  3
A2
350
12C2
  3
A3
350
12C3
  3
A4
350
12C4
  3
A5
350
12C5
  3
A6
350
12C6
  3
A7
350
12C7
  3
A8
350
12C8
  3
A9
350
12C9
  3
B0
350
12CA
  3
B1
350
12CB
  3
B2
350
12CC
  3
B3
350
12CD
  3
B4
350
12CE
  3
B5
350
12CF
  3
B6
350
12D0
  0
DICTIONARY
  5
12BD
102
{ACAD_REACTORS
330
C
102
}
330
C
100
AcDbDictionary
281
     1
  3
Standard
350
12BE
  0
DICTIONARY
  5
12A3
102
{ACAD_REACTORS
330
C
102
}
330
C
100
AcDbDictionary
281
     1
  3
2dWireframe
350
12A9
  3
Basic
350
12A8
  3
Brighten
350
12AF
  3
ColorChange
350
12B3
  3
Conceptual
350
12AC
  3
Dim
350
12AE
  3
EdgeColorOff
350
12BB
  3
Facepattern
350
12B2
  3
Flat
350
12A4
  3
FlatWithEdges
350
12A5
  3
Gouraud
350
12A6
  3
GouraudWithEdges
350
12A7
  3
Hidden
350
12AB
  3
JitterOff
350
12B9
  3
Linepattern
350
12B1
  3
OverhangOff
350
12BA
  3
Realistic
350
12AD
  3
Shaded
350
12B8
  3
Shaded with edges
350
12B7
  3
Shades of Gray
350
12B4
  3
Sketchy
350
12B5
  3
Thicken
350
12B0
  3
Wireframe
350
12AA
  3
X-Ray
350
12B6
  0
XRECORD
  5
1658
102
{ACAD_REACTORS
330
C
102
}
330
C
100
AcDbXrecord
280
     1
 90
        1
330
12BE
330
158D
  0
DICTIONARY
  5
12D8
102
{ACAD_REACTORS
330
C
102
}
330
C
100
AcDbDictionary
281
     1
  3
CANNOSCALE
350
12DC
  3
CMLEADERSTYLE
350
12DA
  3
CTABLESTYLE
350
12D9
  3
DIMASSOC
350
1654
  3
INDEXCTL
350
1653
  3
LAYEREVAL
350
12DE
  3
LAYERNOTIFY
350
12DF
  3
LIGHTINGUNITS
350
12DD
  3
MSLTSCALE
350
12DB
  3
SORTENTS
350
1652
  3
XCLIPFRAME
350
1655
  0
XRECORD
  5
1659
102
{ACAD_REACTORS
330
C
102
}
330
C
100
AcDbXrecord
280
     1
  1
DWGPROPS COOKIE
  2

  3

  4

  6

  7

  8
inpunjamk
  9

300
=
301
=
302
=
303
=
304
=
305
=
306
=
307
=
308
=
309
=
 40
0.0027618402777778
 41
2456482.698120116
 42
2456482.700881713
  1

 90
        0
  0
XRECORD
  5
1635
102
{ACAD_REACTORS
330
1634
102
}
330
1634
100
AcDbXrecord
280
     1
290
     1
  0
XRECORD
  5
1637
102
{ACAD_REACTORS
330
1636
102
}
330
1636
100
AcDbXrecord
280
     1
290
     1
  0
XRECORD
  5
1639
102
{ACAD_REACTORS
330
1638
102
}
330
1638
100
AcDbXrecord
280
     1
290
     1
  0
XRECORD
  5
163B
102
{ACAD_REACTORS
330
163A
102
}
330
163A
100
AcDbXrecord
280
     1
290
     1
  0
XRECORD
  5
163D
102
{ACAD_REACTORS
330
163C
102
}
330
163C
100
AcDbXrecord
280
     1
290
     1
  0
XRECORD
  5
163F
102
{ACAD_REACTORS
330
163E
102
}
330
163E
100
AcDbXrecord
280
     1
290
     1
  0
XRECORD
  5
1641
102
{ACAD_REACTORS
330
1640
102
}
330
1640
100
AcDbXrecord
280
     1
290
     1
  0
XRECORD
  5
1643
102
{ACAD_REACTORS
330
1642
102
}
330
1642
100
AcDbXrecord
280
     1
290
     1
  0
XRECORD
  5
1645
102
{ACAD_REACTORS
330
1644
102
}
330
1644
100
AcDbXrecord
280
     1
290
     1
  0
XRECORD
  5
1647
102
{ACAD_REACTORS
330
1646
102
}
330
1646
100
AcDbXrecord
280
     1
290
     1
  0
XRECORD
  5
1649
102
{ACAD_REACTORS
330
1648
102
}
330
1648
100
AcDbXrecord
280
     1
290
     1
  0
XRECORD
  5
164B
102
{ACAD_REACTORS
330
164A
102
}
330
164A
100
AcDbXrecord
280
     1
290
     1
  0
XRECORD
  5
164D
102
{ACAD_REACTORS
330
164C
102
}
330
164C
100
AcDbXrecord
280
     1
290
     1
  0
XRECORD
  5
164F
102
{ACAD_REACTORS
330
164E
102
}
330
164E
100
AcDbXrecord
280
     1
290
     1
  0
XRECORD
  5
1651
102
{ACAD_REACTORS
330
1650
102
}
330
1650
100
AcDbXrecord
280
     1
290
     1
  0
SORTENTSTABLE
  5
159C
102
{ACAD_REACTORS
330
E8D
102
}
330
E8D
100
AcDbSortentsTable
330
19
331
153E
  5
1540
331
151C
  5
151E
331
14FA
  5
14FC
331
14D8
  5
14DA
331
1558
  5
155A
331
157A
  5
157C
331
152D
  5
152F
331
150B
  5
150D
331
14E9
  5
14EB
331
14CF
  5
14D1
331
14AD
  5
14AD
331
148B
  5
148B
331
1469
  5
1469
331
144F
  5
144F
331
1569
  5
156B
331
154F
  5
1551
331
14BE
  5
14C0
331
149C
  5
149C
331
147A
  5
147A
331
143E
  5
143E
331
153C
  5
153E
331
151A
  5
151C
331
14F8
  5
14FA
331
1556
  5
1558
331
1578
  5
157A
331
152B
  5
152D
331
1509
  5
150B
331
14E7
  5
14E9
331
14CD
  5
14CF
331
14AB
  5
14AB
331
1489
  5
1489
331
1467
  5
1467
331
144D
  5
144D
331
154D
  5
154F
331
1567
  5
1569
331
14BC
  5
14BE
331
149A
  5
149A
331
1478
  5
1478
331
145E
  5
145E
331
143C
  5
143C
331
153A
  5
153C
331
1518
  5
151A
331
1554
  5
1556
331
1576
  5
1578
331
1529
  5
152B
331
1507
  5
1509
331
14E5
  5
14E7
331
14CB
  5
14CD
331
14A9
  5
14A9
331
1487
  5
1487
331
1465
  5
1465
331
144B
  5
144B
331
154B
  5
154D
331
1565
  5
1567
331
14F6
  5
14F8
331
14BA
  5
14BC
331
1498
  5
1498
331
1476
  5
1476
331
145C
  5
145C
331
143A
  5
143A
331
1538
  5
153A
331
1552
  5
1554
331
1574
  5
1576
331
1527
  5
1529
331
1505
  5
1507
331
14E3
  5
14E5
331
14C9
  5
14CB
331
14A7
  5
14A7
331
1485
  5
1485
331
1463
  5
1463
331
1449
  5
1449
331
1549
  5
154B
331
1563
  5
1565
331
1585
  5
158D
331
1516
  5
1518
331
14F4
  5
14F6
331
14B8
  5
14BA
331
1496
  5
1496
331
1474
  5
1474
331
145A
  5
145A
331
1438
  5
1438
331
1550
  5
1552
331
1572
  5
1574
331
1525
  5
1527
331
1503
  5
1505
331
14E1
  5
14E3
331
14C7
  5
14C9
331
14A5
  5
14A5
331
1483
  5
1483
331
1461
  5
1461
331
1547
  5
1549
331
1561
  5
1563
331
1536
  5
1538
331
1514
  5
1516
331
14F2
  5
14F4
331
14B6
  5
14B7
331
1494
  5
1494
331
1472
  5
1472
331
1458
  5
1458
331
1447
  5
1447
331
1436
  5
1436
331
1570
  5
1572
331
1523
  5
1525
331
1501
  5
1503
331
14DF
  5
14E1
331
14C5
  5
14C7
331
14A3
  5
14A3
331
1481
  5
1481
331
1545
  5
1547
331
155F
  5
1561
331
1534
  5
1536
331
1512
  5
1514
331
14F0
  5
14F2
331
14D6
  5
14D8
331
14B4
  5
14B4
331
1492
  5
1492
331
1470
  5
1470
331
1456
  5
1456
331
1445
  5
1445
331
1434
  5
1434
331
1543
  5
1545
331
1521
  5
1523
331
14FF
  5
1501
331
14DD
  5
14DF
331
14C3
  5
14C5
331
14A1
  5
14A1
331
155D
  5
155F
331
1532
  5
1534
331
1510
  5
1512
331
14EE
  5
14F0
331
14D4
  5
14D6
331
14B2
  5
14B2
331
1490
  5
1490
331
146E
  5
146E
331
1454
  5
1454
331
156E
  5
1570
331
147F
  5
147F
331
1443
  5
1443
331
1541
  5
1543
331
151F
  5
1521
331
14FD
  5
14FF
331
14DB
  5
14DD
331
14C1
  5
14C3
331
155B
  5
155D
331
157D
  5
1586
331
1530
  5
1532
331
150E
  5
1510
331
14EC
  5
14EE
331
14D2
  5
14D4
331
14B0
  5
14B0
331
148E
  5
148E
331
146C
  5
146C
331
1452
  5
1452
331
156C
  5
156E
331
158E
  5
159D
331
149F
  5
149F
331
147D
  5
147D
331
1441
  5
1441
331
153F
  5
1541
331
151D
  5
151F
331
14FB
  5
14FD
331
14D9
  5
14DB
331
1559
  5
155B
331
157B
  5
157D
331
159D
  5
14B8
331
152E
  5
1530
331
150C
  5
150E
331
14EA
  5
14EC
331
14D0
  5
14D2
331
14AE
  5
14AE
331
148C
  5
148C
331
146A
  5
146A
331
1450
  5
1450
331
156A
  5
156C
331
14BF
  5
14C1
331
149D
  5
149D
331
147B
  5
147B
331
143F
  5
143F
331
153D
  5
153F
331
151B
  5
151D
331
14F9
  5
14FB
331
1557
  5
1559
331
1579
  5
157B
331
159B
  5
14B6
331
152C
  5
152E
331
150A
  5
150C
331
14E8
  5
14EA
331
14CE
  5
14D0
331
14AC
  5
14AC
331
148A
  5
148A
331
1468
  5
1468
331
144E
  5
144E
331
154E
  5
1550
331
1568
  5
156A
331
14BD
  5
14BF
331
149B
  5
149B
331
1479
  5
1479
331
145F
  5
145F
331
143D
  5
143D
331
153B
  5
153D
331
1519
  5
151B
331
1555
  5
1557
331
1577
  5
1579
331
152A
  5
152C
331
1508
  5
150A
331
14E6
  5
14E8
331
14CC
  5
14CE
331
14AA
  5
14AA
331
1488
  5
1488
331
1466
  5
1466
331
144C
  5
144C
331
154C
  5
154E
331
1566
  5
1568
331
14F7
  5
14F9
331
14BB
  5
14BD
331
1499
  5
1499
331
1477
  5
1477
331
145D
  5
145D
331
143B
  5
143B
331
1539
  5
153B
331
1553
  5
1555
331
1575
  5
1577
331
1528
  5
152A
331
1506
  5
1508
331
14E4
  5
14E6
331
14CA
  5
14CC
331
14A8
  5
14A8
331
1486
  5
1486
331
1464
  5
1464
331
144A
  5
144A
331
154A
  5
154C
331
1564
  5
1566
331
1586
  5
158E
331
1517
  5
1519
331
14F5
  5
14F7
331
14B9
  5
14BB
331
1497
  5
1497
331
1475
  5
1475
331
145B
  5
145B
331
1439
  5
1439
331
1551
  5
1553
331
1573
  5
1575
331
1526
  5
1528
331
1504
  5
1506
331
14E2
  5
14E4
331
14C8
  5
14CA
331
14A6
  5
14A6
331
1484
  5
1484
331
1462
  5
1462
331
1448
  5
1448
331
1548
  5
154A
331
1562
  5
1564
331
1537
  5
1539
331
1515
  5
1517
331
14F3
  5
14F5
331
14B7
  5
14B9
331
1495
  5
1495
331
1473
  5
1473
331
1459
  5
1459
331
1437
  5
1437
331
1571
  5
1573
331
1524
  5
1526
331
1502
  5
1504
331
14E0
  5
14E2
331
14C6
  5
14C8
331
14A4
  5
14A4
331
1482
  5
1482
331
1460
  5
1460
331
1546
  5
1548
331
1560
  5
1562
331
1535
  5
1537
331
1513
  5
1515
331
14F1
  5
14F3
331
14D7
  5
14D9
331
14B5
  5
14B5
331
1493
  5
1493
331
1471
  5
1471
331
1457
  5
1457
331
1446
  5
1446
331
1435
  5
1435
331
1544
  5
1546
331
1522
  5
1524
331
1500
  5
1502
331
14DE
  5
14E0
331
14C4
  5
14C6
331
14A2
  5
14A2
331
1480
  5
1480
331
155E
  5
1560
331
1533
  5
1535
331
1511
  5
1513
331
14EF
  5
14F1
331
14D5
  5
14D7
331
14B3
  5
14B3
331
1491
  5
1491
331
146F
  5
146F
331
1455
  5
1455
331
156F
  5
1571
331
1444
  5
1444
331
1542
  5
1544
331
1520
  5
1522
331
14FE
  5
1500
331
14DC
  5
14DE
331
14C2
  5
14C4
331
14A0
  5
14A0
331
155C
  5
155E
331
1531
  5
1533
331
150F
  5
1511
331
14ED
  5
14EF
331
14D3
  5
14D5
331
14B1
  5
14B1
331
148F
  5
148F
331
146D
  5
146D
331
1453
  5
1453
331
156D
  5
156F
331
147E
  5
147E
331
1442
  5
1442
331
1540
  5
1542
331
151E
  5
1520
331
14FC
  5
14FE
331
14DA
  5
14DC
331
14C0
  5
14C2
331
155A
  5
155C
331
157C
  5
1585
331
152F
  5
1531
331
150D
  5
150F
331
14EB
  5
14ED
331
14D1
  5
14D3
331
14AF
  5
14AF
331
148D
  5
148D
331
146B
  5
146B
331
1451
  5
1451
331
156B
  5
156D
331
158D
  5
159B
331
149E
  5
149E
331
147C
  5
147C
331
1440
  5
1440
  0
LAYOUT
  5
E96
102
{ACAD_XDICTIONARY
360
165C
102
}
102
{ACAD_REACTORS
330
A85
102
}
330
A85
100
AcDbPlotSettings
  1

  2
\\SECO_TOOLS\Q_HP8100_WMM.LANDSKAP.PL1.HUS_A.FAGERSTA.SE.SECO_TOOLS
  4

  6

 40
0.0
 41
0.0
 42
0.0
 43
0.0
 44
0.0
 45
0.0
 46
0.0
 47
0.0
 48
0.0
 49
0.0
140
0.0
141
0.0
142
1.0
143
1.0
 70
   688
 72
     0
 73
     0
 74
     5
  7

 75
    16
147
1.0
148
0.0
149
0.0
100
AcDbLayout
  1
Layout1
 70
     0
 71
     1
 10
0.0
 20
0.0
 11
12.0
 21
9.0
 12
0.0
 22
0.0
 32
0.0
 14
1.000000000000000E+20
 24
1.000000000000000E+20
 34
1.000000000000000E+20
 15
-1.000000000000000E+20
 25
-1.000000000000000E+20
 35
-1.000000000000000E+20
146
0.0
 13
0.0
 23
0.0
 33
0.0
 16
1.0
 26
0.0
 36
0.0
 17
0.0
 27
1.0
 37
0.0
 76
     0
330
16
  0
LAYOUT
  5
E95
102
{ACAD_XDICTIONARY
360
165A
102
}
102
{ACAD_REACTORS
330
A85
102
}
330
A85
100
AcDbPlotSettings
  1

  2
\\SECO_TOOLS\Q_HP8100_WMM.LANDSKAP.PL1.HUS_A.FAGERSTA.SE.SECO_TOOLS
  4

  6

 40
0.0
 41
0.0
 42
0.0
 43
0.0
 44
0.0
 45
0.0
 46
0.0
 47
0.0
 48
0.0
 49
0.0
140
0.0
141
0.0
142
1.0
143
1.0
 70
  1712
 72
     0
 73
     0
 74
     0
  7

 75
     0
147
1.0
148
0.0
149
0.0
100
AcDbLayout
  1
Model
 70
     1
 71
     0
 10
0.0
 20
0.0
 11
12.0
 21
9.0
 12
0.0
 22
0.0
 32
0.0
 14
0.0
 24
0.0
 34
0.0
 15
0.0
 25
0.0
 35
0.0
146
0.0
 13
0.0
 23
0.0
 33
0.0
 16
1.0
 26
0.0
 36
0.0
 17
0.0
 27
1.0
 37
0.0
 76
     0
330
19
331
1288
  0
MATERIAL
  5
1293
102
{ACAD_XDICTIONARY
360
1294
102
}
102
{ACAD_REACTORS
330
128A
102
}
330
128A
100
AcDbMaterial
  1
ByBlock
 72
     0
 43
0.0208333333333333
 43
0.0
 43
0.0
 43
0.0
 43
0.0
 43
0.0208333333333333
 43
0.0
 43
0.0
 43
0.0
 43
0.0
 43
1.0
 43
0.0
 43
0.0
 43
0.0
 43
0.0
 43
1.0
 77
     0
 47
0.0208333333333333
 47
0.0
 47
0.0
 47
0.0
 47
0.0
 47
0.0208333333333333
 47
0.0
 47
0.0
 47
0.0
 47
0.0
 47
1.0
 47
0.0
 47
0.0
 47
0.0
 47
0.0
 47
1.0
171
     0
 49
0.0208333333333333
 49
0.0
 49
0.0
 49
0.0
 49
0.0
 49
0.0208333333333333
 49
0.0
 49
0.0
 49
0.0
 49
0.0
 49
1.0
 49
0.0
 49
0.0
 49
0.0
 49
0.0
 49
1.0
175
     0
142
0.0208333333333333
142
0.0
142
0.0
142
0.0
142
0.0
142
0.0208333333333333
142
0.0
142
0.0
142
0.0
142
0.0
142
1.0
142
0.0
142
0.0
142
0.0
142
0.0
142
1.0
179
     0
144
0.0208333333333333
144
0.0
144
0.0
144
0.0
144
0.0
144
0.0208333333333333
144
0.0
144
0.0
144
0.0
144
0.0
144
1.0
144
0.0
144
0.0
144
0.0
144
0.0
144
1.0
147
0.0208333333333333
147
0.0
147
0.0
147
0.0
147
0.0
147
0.0208333333333333
147
0.0
147
0.0
147
0.0
147
0.0
147
1.0
147
0.0
147
0.0
147
0.0
147
0.0
147
1.0
  0
MATERIAL
  5
128B
102
{ACAD_XDICTIONARY
360
128C
102
}
102
{ACAD_REACTORS
330
128A
102
}
330
128A
100
AcDbMaterial
  1
ByLayer
 72
     0
 43
0.0208333333333333
 43
0.0
 43
0.0
 43
0.0
 43
0.0
 43
0.0208333333333333
 43
0.0
 43
0.0
 43
0.0
 43
0.0
 43
1.0
 43
0.0
 43
0.0
 43
0.0
 43
0.0
 43
1.0
 77
     0
 47
0.0208333333333333
 47
0.0
 47
0.0
 47
0.0
 47
0.0
 47
0.0208333333333333
 47
0.0
 47
0.0
 47
0.0
 47
0.0
 47
1.0
 47
0.0
 47
0.0
 47
0.0
 47
0.0
 47
1.0
171
     0
 49
0.0208333333333333
 49
0.0
 49
0.0
 49
0.0
 49
0.0
 49
0.0208333333333333
 49
0.0
 49
0.0
 49
0.0
 49
0.0
 49
1.0
 49
0.0
 49
0.0
 49
0.0
 49
0.0
 49
1.0
175
     0
142
0.0208333333333333
142
0.0
142
0.0
142
0.0
142
0.0
142
0.0208333333333333
142
0.0
142
0.0
142
0.0
142
0.0
142
1.0
142
0.0
142
0.0
142
0.0
142
0.0
142
1.0
179
     0
144
0.0208333333333333
144
0.0
144
0.0
144
0.0
144
0.0
144
0.0208333333333333
144
0.0
144
0.0
144
0.0
144
0.0
144
1.0
144
0.0
144
0.0
144
0.0
144
0.0
144
1.0
147
0.0208333333333333
147
0.0
147
0.0
147
0.0
147
0.0
147
0.0208333333333333
147
0.0
147
0.0
147
0.0
147
0.0
147
1.0
147
0.0
147
0.0
147
0.0
147
0.0
147
1.0
  0
MATERIAL
  5
129B
102
{ACAD_XDICTIONARY
360
129C
102
}
102
{ACAD_REACTORS
330
128A
102
}
330
128A
100
AcDbMaterial
  1
Global
 72
     0
 43
0.0208333333333333
 43
0.0
 43
0.0
 43
0.0
 43
0.0
 43
0.0208333333333333
 43
0.0
 43
0.0
 43
0.0
 43
0.0
 43
1.0
 43
0.0
 43
0.0
 43
0.0
 43
0.0
 43
1.0
 77
     0
 47
0.0208333333333333
 47
0.0
 47
0.0
 47
0.0
 47
0.0
 47
0.0208333333333333
 47
0.0
 47
0.0
 47
0.0
 47
0.0
 47
1.0
 47
0.0
 47
0.0
 47
0.0
 47
0.0
 47
1.0
171
     0
 49
0.0208333333333333
 49
0.0
 49
0.0
 49
0.0
 49
0.0
 49
0.0208333333333333
 49
0.0
 49
0.0
 49
0.0
 49
0.0
 49
1.0
 49
0.0
 49
0.0
 49
0.0
 49
0.0
 49
1.0
175
     0
142
0.0208333333333333
142
0.0
142
0.0
142
0.0
142
0.0
142
0.0208333333333333
142
0.0
142
0.0
142
0.0
142
0.0
142
1.0
142
0.0
142
0.0
142
0.0
142
0.0
142
1.0
179
     0
144
0.0208333333333333
144
0.0
144
0.0
144
0.0
144
0.0
144
0.0208333333333333
144
0.0
144
0.0
144
0.0
144
0.0
144
1.0
144
0.0
144
0.0
144
0.0
144
0.0
144
1.0
147
0.0208333333333333
147
0.0
147
0.0
147
0.0
147
0.0
147
0.0208333333333333
147
0.0
147
0.0
147
0.0
147
0.0
147
1.0
147
0.0
147
0.0
147
0.0
147
0.0
147
1.0
  0
MLEADERSTYLE
  5
12D2
102
{ACAD_REACTORS
330
12D1
102
}
330
12D1
100
AcDbMLeaderStyle
170
     2
171
     1
172
     0
 90
        2
 40
0.0
 41
0.0
173
     1
 91
-1056964608
340
13
 92
       -2
290
     1
 42
2.0
291
     1
 43
0.36
  3
Standard
 44
4.0
300

342
10
174
     1
178
     6
175
     1
176
     0
 93
-1056964608
 45
4.0
292
     0
297
     0
 46
4.0
 94
-1056964608
 47
1.0
 49
1.0
140
1.0
293
     1
141
0.0
294
     1
177
     0
142
1.0
295
     0
296
     0
143
0.125
1001
ACAD_MLEADERVER
1070
     2
  0
MLINESTYLE
  5
1C
102
{ACAD_REACTORS
330
E
102
}
330
E
100
AcDbMlineStyle
  2
STANDARD
 70
     0
  3

 62
     0
 51
90.0
 52
90.0
 71
     2
 49
0.5
 62
   256
  6
BYLAYER
 49
-0.5
 62
   256
  6
BYLAYER
  0
ACDBPLACEHOLDER
  5
E94
102
{ACAD_REACTORS
330
E93
102
}
330
E93
  0
SCALE
  5
12C0
102
{ACAD_REACTORS
330
12BF
102
}
330
12BF
100
AcDbScale
 70
     0
300
1:1
140
1.0
141
1.0
290
     1
  0
SCALE
  5
12C1
102
{ACAD_REACTORS
330
12BF
102
}
330
12BF
100
AcDbScale
 70
     0
300
1:2
140
1.0
141
2.0
290
     0
  0
SCALE
  5
12C2
102
{ACAD_REACTORS
330
12BF
102
}
330
12BF
100
AcDbScale
 70
     0
300
1:4
140
1.0
141
4.0
290
     0
  0
SCALE
  5
12C3
102
{ACAD_REACTORS
330
12BF
102
}
330
12BF
100
AcDbScale
 70
     0
300
1:5
140
1.0
141
5.0
290
     0
  0
SCALE
  5
12C4
102
{ACAD_REACTORS
330
12BF
102
}
330
12BF
100
AcDbScale
 70
     0
300
1:8
140
1.0
141
8.0
290
     0
  0
SCALE
  5
12C5
102
{ACAD_REACTORS
330
12BF
102
}
330
12BF
100
AcDbScale
 70
     0
300
1:10
140
1.0
141
10.0
290
     0
  0
SCALE
  5
12C6
102
{ACAD_REACTORS
330
12BF
102
}
330
12BF
100
AcDbScale
 70
     0
300
1:16
140
1.0
141
16.0
290
     0
  0
SCALE
  5
12C7
102
{ACAD_REACTORS
330
12BF
102
}
330
12BF
100
AcDbScale
 70
     0
300
1:20
140
1.0
141
20.0
290
     0
  0
SCALE
  5
12C8
102
{ACAD_REACTORS
330
12BF
102
}
330
12BF
100
AcDbScale
 70
     0
300
1:30
140
1.0
141
30.0
290
     0
  0
SCALE
  5
12C9
102
{ACAD_REACTORS
330
12BF
102
}
330
12BF
100
AcDbScale
 70
     0
300
1:40
140
1.0
141
40.0
290
     0
  0
SCALE
  5
12CA
102
{ACAD_REACTORS
330
12BF
102
}
330
12BF
100
AcDbScale
 70
     0
300
1:50
140
1.0
141
50.0
290
     0
  0
SCALE
  5
12CB
102
{ACAD_REACTORS
330
12BF
102
}
330
12BF
100
AcDbScale
 70
     0
300
1:100
140
1.0
141
100.0
290
     0
  0
SCALE
  5
12CC
102
{ACAD_REACTORS
330
12BF
102
}
330
12BF
100
AcDbScale
 70
     0
300
2:1
140
2.0
141
1.0
290
     0
  0
SCALE
  5
12CD
102
{ACAD_REACTORS
330
12BF
102
}
330
12BF
100
AcDbScale
 70
     0
300
4:1
140
4.0
141
1.0
290
     0
  0
SCALE
  5
12CE
102
{ACAD_REACTORS
330
12BF
102
}
330
12BF
100
AcDbScale
 70
     0
300
8:1
140
8.0
141
1.0
290
     0
  0
SCALE
  5
12CF
102
{ACAD_REACTORS
330
12BF
102
}
330
12BF
100
AcDbScale
 70
     0
300
10:1
140
10.0
141
1.0
290
     0
  0
SCALE
  5
12D0
102
{ACAD_REACTORS
330
12BF
102
}
330
12BF
100
AcDbScale
 70
     0
300
100:1
140
100.0
141
1.0
290
     0
  0
TABLESTYLE
  5
12BE
102
{ACAD_XDICTIONARY
360
1656
102
}
102
{ACAD_REACTORS
330
12BD
102
}
330
12BD
100
AcDbTableStyle
  3
Standard
 70
     0
 71
     0
 40
1.5
 41
1.5
280
     0
281
     0
  7
STANDARD
140
4.5
170
     2
 62
     0
 63
     7
283
     0
274
    -2
284
     1
 64
     0
275
    -2
285
     1
 65
     0
276
    -2
286
     1
 66
     0
277
    -2
287
     1
 67
     0
278
    -2
288
     1
 68
     0
279
    -2
289
     1
 69
     0
  7
STANDARD
140
6.0
170
     5
 62
     0
 63
     7
283
     0
274
    -2
284
     1
 64
     0
275
    -2
285
     1
 65
     0
276
    -2
286
     1
 66
     0
277
    -2
287
     1
 67
     0
278
    -2
288
     1
 68
     0
279
    -2
289
     1
 69
     0
  7
STANDARD
140
4.5
170
     5
 62
     0
 63
     7
283
     0
274
    -2
284
     1
 64
     0
275
    -2
285
     1
 65
     0
276
    -2
286
     1
 66
     0
277
    -2
287
     1
 67
     0
278
    -2
288
     1
 68
     0
279
    -2
289
     1
 69
     0
  0
VISUALSTYLE
  5
12A9
102
{ACAD_XDICTIONARY
360
166B
102
}
102
{ACAD_REACTORS
330
12A3
102
}
330
12A3
100
AcDbVisualStyle
  2
2dWireframe
 70
     4
 71
     0
 72
     2
 73
     0
 90
        0
 40
-0.6
 41
-30.0
 62
     5
 63
     7
 74
     1
 91
        4
 64
     7
 65
   257
 75
     1
175
     1
 42
1.0
 92
        0
 66
   257
 43
1.0
 76
     1
 77
     6
 78
     2
 67
     7
 79
     5
170
     0
171
     0
290
     0
174
     0
 93
        1
 44
0.0
173
     0
291
     0
 45
0.0
1001
ACAD
1000
AcDbSavedByObjectVersion
1070
     0
  0
VISUALSTYLE
  5
12A8
102
{ACAD_XDICTIONARY
360
1669
102
}
102
{ACAD_REACTORS
330
12A3
102
}
330
12A3
100
AcDbVisualStyle
  2
Basic
 70
     7
 71
     1
 72
     0
 73
     1
 90
        0
 40
-0.6
 41
-30.0
 62
     5
 63
     7
 74
     0
 91
        4
 64
     7
 65
   257
 75
     1
175
     1
 42
1.0
 92
        8
 66
     7
 43
1.0
 76
     1
 77
     6
 78
     2
 67
     7
 79
     5
170
     0
171
     0
290
     0
174
     0
 93
        1
 44
0.0
173
     0
291
     1
 45
0.0
1001
ACAD
1000
AcDbSavedByObjectVersion
1070
     0
  0
VISUALSTYLE
  5
12AF
102
{ACAD_XDICTIONARY
360
1677
102
}
102
{ACAD_REACTORS
330
12A3
102
}
330
12A3
100
AcDbVisualStyle
  2
Brighten
 70
    12
 71
     2
 72
     2
 73
     0
 90
        0
 40
-0.6
 41
-30.0
 62
     5
 63
     7
 74
     1
 91
        4
 64
     7
 65
   257
 75
     1
175
     1
 42
1.0
 92
        8
 66
     7
 43
1.0
 76
     1
 77
     6
 78
     2
 67
     7
 79
     5
170
     0
171
     0
290
     0
174
     0
 93
        1
 44
50.0
173
     0
291
     1
 45
0.0
1001
ACAD
1000
AcDbSavedByObjectVersion
1070
     0
  0
VISUALSTYLE
  5
12B3
102
{ACAD_XDICTIONARY
360
167F
102
}
102
{ACAD_REACTORS
330
12A3
102
}
330
12A3
100
AcDbVisualStyle
  2
ColorChange
 70
    16
 71
     2
 72
     2
 73
     3
 90
        0
 40
-0.6
 41
-30.0
 62
     5
 63
     8
 74
     1
 91
        4
 64
     7
 65
   257
 75
     1
175
     1
 42
1.0
 92
        8
 66
     8
 43
1.0
 76
     1
 77
     6
 78
     2
 67
     7
 79
     5
170
     0
171
     0
290
     0
174
     0
 93
        1
 44
0.0
173
     0
291
     1
 45
0.0
1001
ACAD
1000
AcDbSavedByObjectVersion
1070
     0
  0
VISUALSTYLE
  5
12AC
102
{ACAD_XDICTIONARY
360
1671
102
}
102
{ACAD_REACTORS
330
12A3
102
}
330
12A3
100
AcDbVisualStyle
  2
Conceptual
 70
     9
 71
     3
 72
     2
 73
     0
 90
        0
 40
-0.6
 41
-30.0
 62
     5
 63
     7
 74
     2
 91
        2
 64
     7
 65
   257
 75
     1
175
     1
 42
179.0
 92
        8
 66
     7
 43
1.0
 76
     1
 77
     6
 78
     2
 67
     7
 79
     3
170
     0
171
     0
290
     0
174
     0
 93
        1
 44
0.0
173
     0
291
     0
 45
0.0
1001
ACAD
1000
AcDbSavedByObjectVersion
1070
     0
  0
VISUALSTYLE
  5
12AE
102
{ACAD_XDICTIONARY
360
1675
102
}
102
{ACAD_REACTORS
330
12A3
102
}
330
12A3
100
AcDbVisualStyle
  2
Dim
 70
    11
 71
     2
 72
     2
 73
     0
 90
        0
 40
-0.6
 41
-30.0
 62
     5
 63
     7
 74
     1
 91
        4
 64
     7
 65
   257
 75
     1
175
     1
 42
1.0
 92
        8
 66
     7
 43
1.0
 76
     1
 77
     6
 78
     2
 67
     7
 79
     5
170
     0
171
     0
290
     0
174
     0
 93
        1
 44
-50.0
173
     0
291
     1
 45
0.0
1001
ACAD
1000
AcDbSavedByObjectVersion
1070
     0
  0
VISUALSTYLE
  5
12BB
102
{ACAD_XDICTIONARY
360
168F
102
}
102
{ACAD_REACTORS
330
12A3
102
}
330
12A3
100
AcDbVisualStyle
  2
EdgeColorOff
 70
    22
 71
     2
 72
     2
 73
     0
 90
        0
 40
-0.6
 41
-30.0
 62
     5
 63
     7
 74
     1
 91
        4
 64
     7
 65
   257
 75
     1
175
     1
 42
1.0
 92
        8
 66
     7
 43
1.0
 76
     1
 77
     6
 78
     2
 67
     7
 79
     5
170
     0
171
     0
290
     0
174
     0
 93
        1
 44
0.0
173
     0
291
     1
 45
0.0
1001
ACAD
1000
AcDbSavedByObjectVersion
1070
     0
  0
VISUALSTYLE
  5
12B2
102
{ACAD_XDICTIONARY
360
167D
102
}
102
{ACAD_REACTORS
330
12A3
102
}
330
12A3
100
AcDbVisualStyle
  2
Facepattern
 70
    15
 71
     2
 72
     2
 73
     0
 90
        0
 40
-0.6
 41
-30.0
 62
     5
 63
     7
 74
     1
 91
        4
 64
     7
 65
   257
 75
     1
175
     1
 42
1.0
 92
        8
 66
     7
 43
1.0
 76
     1
 77
     6
 78
     2
 67
     7
 79
     5
170
     0
171
     0
290
     0
174
     0
 93
        1
 44
0.0
173
     0
291
     1
 45
0.0
1001
ACAD
1000
AcDbSavedByObjectVersion
1070
     0
  0
VISUALSTYLE
  5
12A4
102
{ACAD_XDICTIONARY
360
1661
102
}
102
{ACAD_REACTORS
330
12A3
102
}
330
12A3
100
AcDbVisualStyle
  2
Flat
 70
     0
 71
     2
 72
     1
 73
     1
 90
        2
 40
-0.6
 41
30.0
 62
     5
 63
     7
 74
     0
 91
        0
 64
     7
 65
   257
 75
     1
175
     1
 42
1.0
 92
        8
 66
     7
 43
1.0
 76
     1
 77
     6
 78
     2
 67
     7
 79
     5
170
     0
171
     0
290
     0
174
     0
 93
       13
 44
0.0
173
     0
291
     1
 45
0.0
1001
ACAD
1000
AcDbSavedByObjectVersion
1070
     0
  0
VISUALSTYLE
  5
12A5
102
{ACAD_XDICTIONARY
360
1663
102
}
102
{ACAD_REACTORS
330
12A3
102
}
330
12A3
100
AcDbVisualStyle
  2
FlatWithEdges
 70
     1
 71
     2
 72
     1
 73
     1
 90
        2
 40
-0.6
 41
30.0
 62
     5
 63
     7
 74
     1
 91
        0
 64
     7
 65
   257
 75
     1
175
     1
 42
1.0
 92
        0
 66
   257
 43
1.0
 76
     1
 77
     6
 78
     2
 67
     7
 79
     5
170
     0
171
     0
290
     0
174
     0
 93
       13
 44
0.0
173
     0
291
     1
 45
0.0
1001
ACAD
1000
AcDbSavedByObjectVersion
1070
     0
  0
VISUALSTYLE
  5
12A6
102
{ACAD_XDICTIONARY
360
1665
102
}
102
{ACAD_REACTORS
330
12A3
102
}
330
12A3
100
AcDbVisualStyle
  2
Gouraud
 70
     2
 71
     2
 72
     2
 73
     1
 90
        2
 40
-0.6
 41
30.0
 62
     5
 63
     7
 74
     0
 91
        0
 64
     7
 65
   257
 75
     1
175
     1
 42
1.0
 92
        0
 66
     7
 43
1.0
 76
     1
 77
     6
 78
     2
 67
     7
 79
     5
170
     0
171
     0
290
     0
174
     0
 93
       13
 44
0.0
173
     0
291
     1
 45
0.0
1001
ACAD
1000
AcDbSavedByObjectVersion
1070
     0
  0
VISUALSTYLE
  5
12A7
102
{ACAD_XDICTIONARY
360
1667
102
}
102
{ACAD_REACTORS
330
12A3
102
}
330
12A3
100
AcDbVisualStyle
  2
GouraudWithEdges
 70
     3
 71
     2
 72
     2
 73
     1
 90
        2
 40
-0.6
 41
30.0
 62
     5
 63
     7
 74
     1
 91
        0
 64
     7
 65
   257
 75
     1
175
     1
 42
1.0
 92
        0
 66
   257
 43
1.0
 76
     1
 77
     6
 78
     2
 67
     7
 79
     5
170
     0
171
     0
290
     0
174
     0
 93
       13
 44
0.0
173
     0
291
     1
 45
0.0
1001
ACAD
1000
AcDbSavedByObjectVersion
1070
     0
  0
VISUALSTYLE
  5
12AB
102
{ACAD_XDICTIONARY
360
166F
102
}
102
{ACAD_REACTORS
330
12A3
102
}
330
12A3
100
AcDbVisualStyle
  2
Hidden
 70
     6
 71
     1
 72
     2
 73
     2
 90
        0
 40
-0.6
 41
-30.0
 62
     5
 63
     7
 74
     2
 91
        2
 64
     7
 65
   257
 75
     2
175
     1
 42
40.0
 92
        0
 66
   257
 43
1.0
 76
     1
 77
     6
 78
     2
 67
     7
 79
     3
170
     0
171
     0
290
     0
174
     0
 93
        1
 44
0.0
173
     0
291
     0
 45
0.0
1001
ACAD
1000
AcDbSavedByObjectVersion
1070
     0
  0
VISUALSTYLE
  5
12B9
102
{ACAD_XDICTIONARY
360
168B
102
}
102
{ACAD_REACTORS
330
12A3
102
}
330
12A3
100
AcDbVisualStyle
  2
JitterOff
 70
    20
 71
     2
 72
     2
 73
     0
 90
        0
 40
-0.6
 41
-30.0
 62
     5
 63
     7
 74
     1
 91
        4
 64
     7
 65
   257
 75
     1
175
     1
 42
1.0
 92
       10
 66
     7
 43
1.0
 76
     1
 77
     6
 78
     2
 67
     7
 79
     5
170
     0
171
     0
290
     0
174
     0
 93
        1
 44
0.0
173
     0
291
     1
 45
0.0
1001
ACAD
1000
AcDbSavedByObjectVersion
1070
     0
  0
VISUALSTYLE
  5
12B1
102
{ACAD_XDICTIONARY
360
167B
102
}
102
{ACAD_REACTORS
330
12A3
102
}
330
12A3
100
AcDbVisualStyle
  2
Linepattern
 70
    14
 71
     2
 72
     2
 73
     0
 90
        0
 40
-0.6
 41
-30.0
 62
     5
 63
     7
 74
     1
 91
        4
 64
     7
 65
   257
 75
     7
175
     7
 42
1.0
 92
        8
 66
     7
 43
1.0
 76
     1
 77
     6
 78
     2
 67
     7
 79
     5
170
     0
171
     0
290
     0
174
     0
 93
        1
 44
0.0
173
     0
291
     1
 45
0.0
1001
ACAD
1000
AcDbSavedByObjectVersion
1070
     0
  0
VISUALSTYLE
  5
12BA
102
{ACAD_XDICTIONARY
360
168D
102
}
102
{ACAD_REACTORS
330
12A3
102
}
330
12A3
100
AcDbVisualStyle
  2
OverhangOff
 70
    21
 71
     2
 72
     2
 73
     0
 90
        0
 40
-0.6
 41
-30.0
 62
     5
 63
     7
 74
     1
 91
        4
 64
     7
 65
   257
 75
     1
175
     1
 42
1.0
 92
        9
 66
     7
 43
1.0
 76
     1
 77
     6
 78
     2
 67
     7
 79
     5
170
     0
171
     0
290
     0
174
     0
 93
        1
 44
0.0
173
     0
291
     1
 45
0.0
1001
ACAD
1000
AcDbSavedByObjectVersion
1070
     0
  0
VISUALSTYLE
  5
12AD
102
{ACAD_XDICTIONARY
360
1673
102
}
102
{ACAD_REACTORS
330
12A3
102
}
330
12A3
100
AcDbVisualStyle
  2
Realistic
 70
     8
 71
     2
 72
     3
 73
     0
 90
        2
 40
-0.6
 41
30.0
 62
     5
 63
     7
 74
     0
 91
        0
 64
     7
 65
   257
 75
     1
175
     1
 42
1.0
 92
        8
 66
   257
 43
1.0
 76
     1
 77
     6
 78
     2
 67
     7
 79
     3
170
     0
171
     0
290
     0
174
     0
 93
       13
 44
0.0
173
     0
291
     0
 45
0.0
1001
ACAD
1000
AcDbSavedByObjectVersion
1070
     0
  0
VISUALSTYLE
  5
12B8
102
{ACAD_XDICTIONARY
360
1689
102
}
102
{ACAD_REACTORS
330
12A3
102
}
330
12A3
100
AcDbVisualStyle
  2
Shaded
 70
    27
 71
     2
 72
     2
 73
     1
 90
        2
 40
-0.6
 41
30.0
 62
     5
 63
     7
 74
     0
 91
        4
 64
     7
 65
   257
 75
     1
175
     1
 42
1.0
 92
        8
 66
   257
 43
1.0
 76
     1
 77
     6
 78
     2
 67
     8
 79
     3
170
     0
171
     0
290
     0
174
     0
 93
        5
 44
0.0
173
     0
291
     0
 45
0.0
1001
ACAD
1000
AcDbSavedByObjectVersion
1070
     0
  0
VISUALSTYLE
  5
12B7
102
{ACAD_XDICTIONARY
360
1687
102
}
102
{ACAD_REACTORS
330
12A3
102
}
330
12A3
100
AcDbVisualStyle
  2
Shaded with edges
 70
    26
 71
     2
 72
     2
 73
     1
 90
        2
 40
-0.6
 41
30.0
 62
     5
 63
     7
 74
     1
 91
       10
 64
     7
 65
   257
 75
     2
175
     1
 42
1.0
 92
        8
 66
   257
 43
1.0
 76
     1
 77
     6
 78
     2
 67
     7
 79
     3
170
     0
171
     0
290
     0
174
     0
 93
        5
 44
0.0
173
     0
291
     0
 45
0.0
1001
ACAD
1000
AcDbSavedByObjectVersion
1070
     0
  0
VISUALSTYLE
  5
12B4
102
{ACAD_XDICTIONARY
360
1681
102
}
102
{ACAD_REACTORS
330
12A3
102
}
330
12A3
100
AcDbVisualStyle
  2
Shades of Gray
 70
    23
 71
     2
 72
     2
 73
     3
 90
        0
 40
-0.6
 41
-30.0
 62
     5
 63
     7
 74
     2
 91
        2
 64
     7
 65
     7
 75
     1
175
     1
 42
40.0
 92
        8
 66
     7
 43
1.0
 76
     1
 77
     6
 78
     2
 67
     7
 79
     3
170
     0
171
     0
290
     0
174
     0
 93
        1
 44
0.0
173
     0
291
     0
 45
0.0
1001
ACAD
1000
AcDbSavedByObjectVersion
1070
     0
  0
VISUALSTYLE
  5
12B5
102
{ACAD_XDICTIONARY
360
1683
102
}
102
{ACAD_REACTORS
330
12A3
102
}
330
12A3
100
AcDbVisualStyle
  2
Sketchy
 70
    24
 71
     1
 72
     2
 73
     2
 90
        0
 40
-0.6
 41
-30.0
 62
     5
 63
     7
 74
     2
 91
        2
 64
     7
 65
     7
 75
     1
175
     1
 42
40.0
 92
       11
 66
     7
 43
1.0
 76
     1
 77
     6
 78
     2
 67
     7
 79
     6
170
     0
171
     0
290
     0
174
     0
 93
        1
 44
0.0
173
     0
291
     0
 45
0.0
1001
ACAD
1000
AcDbSavedByObjectVersion
1070
     0
  0
VISUALSTYLE
  5
12B0
102
{ACAD_XDICTIONARY
360
1679
102
}
102
{ACAD_REACTORS
330
12A3
102
}
330
12A3
100
AcDbVisualStyle
  2
Thicken
 70
    13
 71
     2
 72
     2
 73
     0
 90
        0
 40
-0.6
 41
-30.0
 62
     5
 63
     7
 74
     1
 91
        4
 64
     7
 65
   257
 75
     1
175
     1
 42
1.0
 92
       12
 66
     7
 43
1.0
 76
     1
 77
     6
 78
     2
 67
     7
 79
     5
170
     0
171
     0
290
     0
174
     0
 93
        1
 44
0.0
173
     0
291
     1
 45
0.0
1001
ACAD
1000
AcDbSavedByObjectVersion
1070
     0
  0
VISUALSTYLE
  5
12AA
102
{ACAD_XDICTIONARY
360
166D
102
}
102
{ACAD_REACTORS
330
12A3
102
}
330
12A3
100
AcDbVisualStyle
  2
Wireframe
 70
     5
 71
     0
 72
     2
 73
     0
 90
        0
 40
-0.6
 41
-30.0
 62
     5
 63
     7
 74
     1
 91
        4
 64
     7
 65
   257
 75
     1
175
     1
 42
1.0
 92
        0
 66
   257
 43
1.0
 76
     1
 77
     6
 78
     2
 67
     7
 79
     3
170
     0
171
     0
290
     0
174
     0
 93
        1
 44
0.0
173
     0
291
     0
 45
0.0
1001
ACAD
1000
AcDbSavedByObjectVersion
1070
     0
  0
VISUALSTYLE
  5
12B6
102
{ACAD_XDICTIONARY
360
1685
102
}
102
{ACAD_REACTORS
330
12A3
102
}
330
12A3
100
AcDbVisualStyle
  2
X-Ray
 70
    25
 71
     2
 72
     2
 73
     1
 90
        1
 40
0.5
 41
-30.0
 62
     5
 63
     7
 74
     1
 91
        0
 64
     7
 65
   257
 75
     1
175
     1
 42
1.0
 92
        8
 66
     7
 43
1.0
 76
     1
 77
     6
 78
     2
 67
     7
 79
     3
170
     0
171
     0
290
     0
174
     0
 93
       13
 44
0.0
173
     0
291
     0
 45
0.0
1001
ACAD
1000
AcDbSavedByObjectVersion
1070
     0
  0
DICTIONARYVAR
  5
12DC
102
{ACAD_REACTORS
330
12D8
102
}
330
12D8
100
DictionaryVariables
280
     0
  1
1:1
  0
DICTIONARYVAR
  5
12DA
102
{ACAD_REACTORS
330
12D8
102
}
330
12D8
100
DictionaryVariables
280
     0
  1
STANDARD
  0
DICTIONARYVAR
  5
12D9
102
{ACAD_REACTORS
330
12D8
102
}
330
12D8
100
DictionaryVariables
280
     0
  1
STANDARD
  0
DICTIONARYVAR
  5
1654
102
{ACAD_REACTORS
330
12D8
102
}
330
12D8
100
DictionaryVariables
280
     0
  1
1
  0
DICTIONARYVAR
  5
1653
102
{ACAD_REACTORS
330
12D8
102
}
330
12D8
100
DictionaryVariables
280
     0
  1
0
  0
DICTIONARYVAR
  5
12DE
102
{ACAD_REACTORS
330
12D8
102
}
330
12D8
100
DictionaryVariables
280
     0
  1
1
  0
DICTIONARYVAR
  5
12DF
102
{ACAD_REACTORS
330
12D8
102
}
330
12D8
100
DictionaryVariables
280
     0
  1
15
  0
DICTIONARYVAR
  5
12DD
102
{ACAD_REACTORS
330
12D8
102
}
330
12D8
100
DictionaryVariables
280
     0
  1
0
  0
DICTIONARYVAR
  5
12DB
102
{ACAD_REACTORS
330
12D8
102
}
330
12D8
100
DictionaryVariables
280
     0
  1
0
  0
DICTIONARYVAR
  5
1652
102
{ACAD_REACTORS
330
12D8
102
}
330
12D8
100
DictionaryVariables
280
     0
  1
127
  0
DICTIONARYVAR
  5
1655
102
{ACAD_REACTORS
330
12D8
102
}
330
12D8
100
DictionaryVariables
280
     0
  1
2
  0
DICTIONARY
  5
165C
330
E96
100
AcDbDictionary
280
     1
281
     1
  3
ACAD_XREC_ROUNDTRIP
360
165D
  0
DICTIONARY
  5
165A
330
E95
100
AcDbDictionary
280
     1
281
     1
  3
ACAD_XREC_ROUNDTRIP
360
165B
  0
DICTIONARY
  5
1294
330
1293
100
AcDbDictionary
280
     1
281
     1
  3
ACAD_XREC_ROUNDTRIP
360
165F
  3
BUMPTILE
360
1296
  3
DIFFUSETILE
360
1295
  3
OPACITYTILE
360
1299
  3
REFLECTIONTILE
360
1298
  3
REFRACTIONTILE
360
129A
  3
SPECULARTILE
360
1297
  0
DICTIONARY
  5
128C
330
128B
100
AcDbDictionary
280
     1
281
     1
  3
ACAD_XREC_ROUNDTRIP
360
165E
  3
BUMPTILE
360
128E
  3
DIFFUSETILE
360
128D
  3
OPACITYTILE
360
1291
  3
REFLECTIONTILE
360
1290
  3
REFRACTIONTILE
360
1292
  3
SPECULARTILE
360
128F
  0
DICTIONARY
  5
129C
330
129B
100
AcDbDictionary
280
     1
281
     1
  3
ACAD_XREC_ROUNDTRIP
360
1660
  3
BUMPTILE
360
129E
  3
DIFFUSETILE
360
129D
  3
OPACITYTILE
360
12A1
  3
REFLECTIONTILE
360
12A0
  3
REFRACTIONTILE
360
12A2
  3
SPECULARTILE
360
129F
  0
DICTIONARY
  5
1656
330
12BE
100
AcDbDictionary
280
     1
281
     1
  3
ACAD_ROUNDTRIP_2008_TABLESTYLE_CELLSTYLEMAP
360
1657
  3
ACAD_XREC_ROUNDTRIP
360
1691
  0
DICTIONARY
  5
166B
330
12A9
100
AcDbDictionary
280
     1
281
     1
  3
ACAD_XREC_ROUNDTRIP
360
166C
  0
DICTIONARY
  5
1669
330
12A8
100
AcDbDictionary
280
     1
281
     1
  3
ACAD_XREC_ROUNDTRIP
360
166A
  0
DICTIONARY
  5
1677
330
12AF
100
AcDbDictionary
280
     1
281
     1
  3
ACAD_XREC_ROUNDTRIP
360
1678
  0
DICTIONARY
  5
167F
330
12B3
100
AcDbDictionary
280
     1
281
     1
  3
ACAD_XREC_ROUNDTRIP
360
1680
  0
DICTIONARY
  5
1671
330
12AC
100
AcDbDictionary
280
     1
281
     1
  3
ACAD_XREC_ROUNDTRIP
360
1672
  0
DICTIONARY
  5
1675
330
12AE
100
AcDbDictionary
280
     1
281
     1
  3
ACAD_XREC_ROUNDTRIP
360
1676
  0
DICTIONARY
  5
168F
330
12BB
100
AcDbDictionary
280
     1
281
     1
  3
ACAD_XREC_ROUNDTRIP
360
1690
  0
DICTIONARY
  5
167D
330
12B2
100
AcDbDictionary
280
     1
281
     1
  3
ACAD_XREC_ROUNDTRIP
360
167E
  0
DICTIONARY
  5
1661
330
12A4
100
AcDbDictionary
280
     1
281
     1
  3
ACAD_XREC_ROUNDTRIP
360
1662
  0
DICTIONARY
  5
1663
330
12A5
100
AcDbDictionary
280
     1
281
     1
  3
ACAD_XREC_ROUNDTRIP
360
1664
  0
DICTIONARY
  5
1665
330
12A6
100
AcDbDictionary
280
     1
281
     1
  3
ACAD_XREC_ROUNDTRIP
360
1666
  0
DICTIONARY
  5
1667
330
12A7
100
AcDbDictionary
280
     1
281
     1
  3
ACAD_XREC_ROUNDTRIP
360
1668
  0
DICTIONARY
  5
166F
330
12AB
100
AcDbDictionary
280
     1
281
     1
  3
ACAD_XREC_ROUNDTRIP
360
1670
  0
DICTIONARY
  5
168B
330
12B9
100
AcDbDictionary
280
     1
281
     1
  3
ACAD_XREC_ROUNDTRIP
360
168C
  0
DICTIONARY
  5
167B
330
12B1
100
AcDbDictionary
280
     1
281
     1
  3
ACAD_XREC_ROUNDTRIP
360
167C
  0
DICTIONARY
  5
168D
330
12BA
100
AcDbDictionary
280
     1
281
     1
  3
ACAD_XREC_ROUNDTRIP
360
168E
  0
DICTIONARY
  5
1673
330
12AD
100
AcDbDictionary
280
     1
281
     1
  3
ACAD_XREC_ROUNDTRIP
360
1674
  0
DICTIONARY
  5
1689
330
12B8
100
AcDbDictionary
280
     1
281
     1
  3
ACAD_XREC_ROUNDTRIP
360
168A
  0
DICTIONARY
  5
1687
330
12B7
100
AcDbDictionary
280
     1
281
     1
  3
ACAD_XREC_ROUNDTRIP
360
1688
  0
DICTIONARY
  5
1681
330
12B4
100
AcDbDictionary
280
     1
281
     1
  3
ACAD_XREC_ROUNDTRIP
360
1682
  0
DICTIONARY
  5
1683
330
12B5
100
AcDbDictionary
280
     1
281
     1
  3
ACAD_XREC_ROUNDTRIP
360
1684
  0
DICTIONARY
  5
1679
330
12B0
100
AcDbDictionary
280
     1
281
     1
  3
ACAD_XREC_ROUNDTRIP
360
167A
  0
DICTIONARY
  5
166D
330
12AA
100
AcDbDictionary
280
     1
281
     1
  3
ACAD_XREC_ROUNDTRIP
360
166E
  0
DICTIONARY
  5
1685
330
12B6
100
AcDbDictionary
280
     1
281
     1
  3
ACAD_XREC_ROUNDTRIP
360
1686
  0
XRECORD
  5
165D
102
{ACAD_REACTORS
330
165C
102
}
330
165C
100
AcDbXrecord
280
     1
102
SHADEPLOT
 70
     0
102
SHADEPLOTRESLEVEL
 70
     2
102
SHADEPLOTCUSTOMDPI
 70
   300
  0
XRECORD
  5
165B
102
{ACAD_REACTORS
330
165A
102
}
330
165A
100
AcDbXrecord
280
     1
102
SHADEPLOT
 70
     0
102
SHADEPLOTRESLEVEL
 70
     2
102
SHADEPLOTCUSTOMDPI
 70
   300
  0
XRECORD
  5
165F
102
{ACAD_REACTORS
330
1294
102
}
330
1294
100
AcDbXrecord
280
     1
102
MATERIAL
148
0.0
149
0.0
149
0.0
 93
        0
 94
      127
282
     0
 72
     0
 77
     0
171
     0
175
     0
179
     0
273
     0
  0
XRECORD
  5
1296
102
{ACAD_REACTORS
330
1294
102
}
330
1294
100
AcDbXrecord
280
     1
270
     1
271
     1
  0
XRECORD
  5
1295
102
{ACAD_REACTORS
330
1294
102
}
330
1294
100
AcDbXrecord
280
     1
270
     1
271
     1
  0
XRECORD
  5
1299
102
{ACAD_REACTORS
330
1294
102
}
330
1294
100
AcDbXrecord
280
     1
270
     1
271
     1
  0
XRECORD
  5
1298
102
{ACAD_REACTORS
330
1294
102
}
330
1294
100
AcDbXrecord
280
     1
270
     1
271
     1
  0
XRECORD
  5
129A
102
{ACAD_REACTORS
330
1294
102
}
330
1294
100
AcDbXrecord
280
     1
270
     1
271
     1
  0
XRECORD
  5
1297
102
{ACAD_REACTORS
330
1294
102
}
330
1294
100
AcDbXrecord
280
     1
270
     1
271
     1
  0
XRECORD
  5
165E
102
{ACAD_REACTORS
330
128C
102
}
330
128C
100
AcDbXrecord
280
     1
102
MATERIAL
148
0.0
149
0.0
149
0.0
 93
        0
 94
      127
282
     0
 72
     0
 77
     0
171
     0
175
     0
179
     0
273
     0
  0
XRECORD
  5
128E
102
{ACAD_REACTORS
330
128C
102
}
330
128C
100
AcDbXrecord
280
     1
270
     1
271
     1
  0
XRECORD
  5
128D
102
{ACAD_REACTORS
330
128C
102
}
330
128C
100
AcDbXrecord
280
     1
270
     1
271
     1
  0
XRECORD
  5
1291
102
{ACAD_REACTORS
330
128C
102
}
330
128C
100
AcDbXrecord
280
     1
270
     1
271
     1
  0
XRECORD
  5
1290
102
{ACAD_REACTORS
330
128C
102
}
330
128C
100
AcDbXrecord
280
     1
270
     1
271
     1
  0
XRECORD
  5
1292
102
{ACAD_REACTORS
330
128C
102
}
330
128C
100
AcDbXrecord
280
     1
270
     1
271
     1
  0
XRECORD
  5
128F
102
{ACAD_REACTORS
330
128C
102
}
330
128C
100
AcDbXrecord
280
     1
270
     1
271
     1
  0
XRECORD
  5
1660
102
{ACAD_REACTORS
330
129C
102
}
330
129C
100
AcDbXrecord
280
     1
102
MATERIAL
148
0.0
149
0.0
149
0.0
 93
        0
 94
      127
282
     0
 72
     0
 77
     0
171
     0
175
     0
179
     0
273
     0
  0
XRECORD
  5
129E
102
{ACAD_REACTORS
330
129C
102
}
330
129C
100
AcDbXrecord
280
     1
270
     1
271
     1
  0
XRECORD
  5
129D
102
{ACAD_REACTORS
330
129C
102
}
330
129C
100
AcDbXrecord
280
     1
270
     1
271
     1
  0
XRECORD
  5
12A1
102
{ACAD_REACTORS
330
129C
102
}
330
129C
100
AcDbXrecord
280
     1
270
     1
271
     1
  0
XRECORD
  5
12A0
102
{ACAD_REACTORS
330
129C
102
}
330
129C
100
AcDbXrecord
280
     1
270
     1
271
     1
  0
XRECORD
  5
12A2
102
{ACAD_REACTORS
330
129C
102
}
330
129C
100
AcDbXrecord
280
     1
270
     1
271
     1
  0
XRECORD
  5
129F
102
{ACAD_REACTORS
330
129C
102
}
330
129C
100
AcDbXrecord
280
     1
270
     1
271
     1
  0
CELLSTYLEMAP
  5
1657
102
{ACAD_REACTORS
330
1656
102
}
330
1656
100
AcDbCellStyleMap
 90
        3
300
CELLSTYLE
  1
TABLEFORMAT_BEGIN
 90
        5
170
     1
 91
        0
 92
    32768
 62
   257
 93
        1
300
CONTENTFORMAT
  1
CONTENTFORMAT_BEGIN
 90
        0
 91
        0
 92
      512
 93
        0
300

 40
0.0
140
1.0
 94
        5
 62
     0
340
10
144
6.0
309
CONTENTFORMAT_END
171
     1
301
MARGIN
  1
CELLMARGIN_BEGIN
 40
1.5
 40
1.5
 40
1.5
 40
1.5
 40
4.5
 40
4.5
309
CELLMARGIN_END
 94
        6
 95
        1
302
GRIDFORMAT
  1
GRIDFORMAT_BEGIN
 90
        0
 91
        1
 62
     0
 92
       -2
340
0
 93
        0
 40
1.125
309
GRIDFORMAT_END
 95
        2
302
GRIDFORMAT
  1
GRIDFORMAT_BEGIN
 90
        0
 91
        1
 62
     0
 92
       -2
340
0
 93
        0
 40
1.125
309
GRIDFORMAT_END
 95
        4
302
GRIDFORMAT
  1
GRIDFORMAT_BEGIN
 90
        0
 91
        1
 62
     0
 92
       -2
340
0
 93
        0
 40
1.125
309
GRIDFORMAT_END
 95
        8
302
GRIDFORMAT
  1
GRIDFORMAT_BEGIN
 90
        0
 91
        1
 62
     0
 92
       -2
340
0
 93
        0
 40
1.125
309
GRIDFORMAT_END
 95
       16
302
GRIDFORMAT
  1
GRIDFORMAT_BEGIN
 90
        0
 91
        1
 62
     0
 92
       -2
340
0
 93
        0
 40
1.125
309
GRIDFORMAT_END
 95
       32
302
GRIDFORMAT
  1
GRIDFORMAT_BEGIN
 90
        0
 91
        1
 62
     0
 92
       -2
340
0
 93
        0
 40
1.125
309
GRIDFORMAT_END
309
TABLEFORMAT_END
  1
CELLSTYLE_BEGIN
 90
        1
 91
        1
300
_TITLE
309
CELLSTYLE_END
300
CELLSTYLE
  1
TABLEFORMAT_BEGIN
 90
        5
170
     1
 91
        0
 92
        0
 62
   257
 93
        1
300
CONTENTFORMAT
  1
CONTENTFORMAT_BEGIN
 90
        0
 91
        0
 92
      512
 93
        0
300

 40
0.0
140
1.0
 94
        5
 62
     0
340
10
144
4.5
309
CONTENTFORMAT_END
171
     1
301
MARGIN
  1
CELLMARGIN_BEGIN
 40
1.5
 40
1.5
 40
1.5
 40
1.5
 40
4.5
 40
4.5
309
CELLMARGIN_END
 94
        6
 95
        1
302
GRIDFORMAT
  1
GRIDFORMAT_BEGIN
 90
        0
 91
        1
 62
     0
 92
       -2
340
0
 93
        0
 40
1.125
309
GRIDFORMAT_END
 95
        2
302
GRIDFORMAT
  1
GRIDFORMAT_BEGIN
 90
        0
 91
        1
 62
     0
 92
       -2
340
0
 93
        0
 40
1.125
309
GRIDFORMAT_END
 95
        4
302
GRIDFORMAT
  1
GRIDFORMAT_BEGIN
 90
        0
 91
        1
 62
     0
 92
       -2
340
0
 93
        0
 40
1.125
309
GRIDFORMAT_END
 95
        8
302
GRIDFORMAT
  1
GRIDFORMAT_BEGIN
 90
        0
 91
        1
 62
     0
 92
       -2
340
0
 93
        0
 40
1.125
309
GRIDFORMAT_END
 95
       16
302
GRIDFORMAT
  1
GRIDFORMAT_BEGIN
 90
        0
 91
        1
 62
     0
 92
       -2
340
0
 93
        0
 40
1.125
309
GRIDFORMAT_END
 95
       32
302
GRIDFORMAT
  1
GRIDFORMAT_BEGIN
 90
        0
 91
        1
 62
     0
 92
       -2
340
0
 93
        0
 40
1.125
309
GRIDFORMAT_END
309
TABLEFORMAT_END
  1
CELLSTYLE_BEGIN
 90
        2
 91
        1
300
_HEADER
309
CELLSTYLE_END
300
CELLSTYLE
  1
TABLEFORMAT_BEGIN
 90
        5
170
     1
 91
        0
 92
        0
 62
   257
 93
        1
300
CONTENTFORMAT
  1
CONTENTFORMAT_BEGIN
 90
        0
 91
        0
 92
      512
 93
        0
300

 40
0.0
140
1.0
 94
        2
 62
     0
340
10
144
4.5
309
CONTENTFORMAT_END
171
     1
301
MARGIN
  1
CELLMARGIN_BEGIN
 40
1.5
 40
1.5
 40
1.5
 40
1.5
 40
4.5
 40
4.5
309
CELLMARGIN_END
 94
        6
 95
        1
302
GRIDFORMAT
  1
GRIDFORMAT_BEGIN
 90
        0
 91
        1
 62
     0
 92
       -2
340
0
 93
        0
 40
1.125
309
GRIDFORMAT_END
 95
        2
302
GRIDFORMAT
  1
GRIDFORMAT_BEGIN
 90
        0
 91
        1
 62
     0
 92
       -2
340
0
 93
        0
 40
1.125
309
GRIDFORMAT_END
 95
        4
302
GRIDFORMAT
  1
GRIDFORMAT_BEGIN
 90
        0
 91
        1
 62
     0
 92
       -2
340
0
 93
        0
 40
1.125
309
GRIDFORMAT_END
 95
        8
302
GRIDFORMAT
  1
GRIDFORMAT_BEGIN
 90
        0
 91
        1
 62
     0
 92
       -2
340
0
 93
        0
 40
1.125
309
GRIDFORMAT_END
 95
       16
302
GRIDFORMAT
  1
GRIDFORMAT_BEGIN
 90
        0
 91
        1
 62
     0
 92
       -2
340
0
 93
        0
 40
1.125
309
GRIDFORMAT_END
 95
       32
302
GRIDFORMAT
  1
GRIDFORMAT_BEGIN
 90
        0
 91
        1
 62
     0
 92
       -2
340
0
 93
        0
 40
1.125
309
GRIDFORMAT_END
309
TABLEFORMAT_END
  1
CELLSTYLE_BEGIN
 90
        3
 91
        2
300
_DATA
309
CELLSTYLE_END
  0
XRECORD
  5
1691
102
{ACAD_REACTORS
330
1656
102
}
330
1656
100
AcDbXrecord
280
     1
102
ACAD_ROUNDTRIP_PRE2007_TABLESTYLE
 90
      512
 91
        0
  1

 92
      512
 93
        0
  2

 94
      512
 95
        0
  3

  0
XRECORD
  5
166C
102
{ACAD_REACTORS
330
166B
102
}
330
166B
100
AcDbXrecord
280
     1
102
RTVSPropertyOp0
 70
     1
102
RTVSPropertyOp1
 70
     1
102
RTVSPropertyOp2
 70
     1
102
RTVSPropertyOp3
 70
     1
102
RTVSPropertyOp4
 70
     1
102
RTVSPropertyOp5
 70
     1
102
RTVSPropertyOp6
 70
     1
102
RTVSPropertyOp7
 70
     1
102
RTVSPropertyOp8
 70
     1
102
RTVSPropertyOp9
 70
     1
102
RTVSPropertyOp10
 70
     1
102
RTVSPropertyOp11
 70
     1
102
RTVSPropertyOp12
 70
     1
102
RTVSPropertyOp13
 70
     1
102
RTVSPropertyOp14
 70
     1
102
RTVSPropertyOp15
 70
     1
102
RTVSPropertyOp16
 70
     1
102
RTVSPropertyOp17
 70
     1
102
RTVSPropertyOp18
 70
     1
102
RTVSPropertyOp19
 70
     1
102
RTVSPropertyOp20
 70
     1
102
RTVSPropertyOp21
 70
     1
102
RTVSPropertyOp22
 70
     1
102
RTVSPropertyOp23
 70
     1
102
RTVSPropertyOp24
 70
     1
102
RTVSPropertyOp25
 70
     1
102
RTVSPropertyOp26
 70
     1
102
RTVSPropertyOp27
 70
     1
102
RTVSPropertyOp28
 70
     1
102
RTVSPropertyOp29
 70
     1
102
RTVSPropertyOp30
 70
     1
102
RTVSPropertyOp31
 70
     1
102
RTVSPropertyOp32
 70
     1
  0
XRECORD
  5
166A
102
{ACAD_REACTORS
330
1669
102
}
330
1669
100
AcDbXrecord
280
     1
102
RTVSPropertyOp0
 70
     1
102
RTVSPropertyOp1
 70
     1
102
RTVSPropertyOp2
 70
     1
102
RTVSPropertyOp3
 70
     1
102
RTVSPropertyOp4
 70
     1
102
RTVSPropertyOp5
 70
     1
102
RTVSPropertyOp6
 70
     1
102
RTVSPropertyOp7
 70
     1
102
RTVSPropertyOp8
 70
     1
102
RTVSPropertyOp9
 70
     1
102
RTVSPropertyOp10
 70
     1
102
RTVSPropertyOp11
 70
     1
102
RTVSPropertyOp12
 70
     1
102
RTVSPropertyOp13
 70
     1
102
RTVSPropertyOp14
 70
     1
102
RTVSPropertyOp15
 70
     1
102
RTVSPropertyOp16
 70
     1
102
RTVSPropertyOp17
 70
     1
102
RTVSPropertyOp18
 70
     1
102
RTVSPropertyOp19
 70
     1
102
RTVSPropertyOp20
 70
     1
102
RTVSPropertyOp21
 70
     1
102
RTVSPropertyOp22
 70
     1
102
RTVSPropertyOp23
 70
     1
102
RTVSPropertyOp24
 70
     1
102
RTVSPropertyOp25
 70
     1
102
RTVSPropertyOp26
 70
     1
102
RTVSPropertyOp27
 70
     1
102
RTVSPropertyOp28
 70
     1
102
RTVSPropertyOp29
 70
     1
102
RTVSPropertyOp30
 70
     1
102
RTVSPropertyOp31
 70
     1
102
RTVSPropertyOp32
 70
     1
  0
XRECORD
  5
1678
102
{ACAD_REACTORS
330
1677
102
}
330
1677
100
AcDbXrecord
280
     1
102
RTVSPropertyOp0
 70
     1
102
RTVSPropertyOp1
 70
     1
102
RTVSPropertyOp2
 70
     1
102
RTVSPropertyOp3
 70
     1
102
RTVSPropertyOp4
 70
     1
102
RTVSPropertyOp5
 70
     1
102
RTVSPropertyOp6
 70
     1
102
RTVSPropertyOp7
 70
     1
102
RTVSPropertyOp8
 70
     1
102
RTVSPropertyOp9
 70
     1
102
RTVSPropertyOp10
 70
     1
102
RTVSPropertyOp11
 70
     1
102
RTVSPropertyOp12
 70
     1
102
RTVSPropertyOp13
 70
     1
102
RTVSPropertyOp14
 70
     1
102
RTVSPropertyOp15
 70
     1
102
RTVSPropertyOp16
 70
     1
102
RTVSPropertyOp17
 70
     1
102
RTVSPropertyOp18
 70
     1
102
RTVSPropertyOp19
 70
     1
102
RTVSPropertyOp20
 70
     1
102
RTVSPropertyOp21
 70
     1
102
RTVSPropertyOp22
 70
     1
102
RTVSPropertyOp23
 70
     1
102
RTVSPropertyOp24
 70
     1
102
RTVSPropertyOp25
 70
     1
102
RTVSPropertyOp26
 70
     1
102
RTVSPropertyOp27
 70
     1
102
RTVSPropertyOp28
 70
     1
102
RTVSPropertyOp29
 70
     1
102
RTVSPropertyOp30
 70
     1
102
RTVSPropertyOp31
 70
     1
102
RTVSPropertyOp32
 70
     1
  0
XRECORD
  5
1680
102
{ACAD_REACTORS
330
167F
102
}
330
167F
100
AcDbXrecord
280
     1
102
RTVSPropertyOp0
 70
     1
102
RTVSPropertyOp1
 70
     1
102
RTVSPropertyOp2
 70
     1
102
RTVSPropertyOp3
 70
     1
102
RTVSPropertyOp4
 70
     1
102
RTVSPropertyOp5
 70
     1
102
RTVSPropertyOp6
 70
     1
102
RTVSPropertyOp7
 70
     1
102
RTVSPropertyOp8
 70
     1
102
RTVSPropertyOp9
 70
     1
102
RTVSPropertyOp10
 70
     1
102
RTVSPropertyOp11
 70
     1
102
RTVSPropertyOp12
 70
     1
102
RTVSPropertyOp13
 70
     1
102
RTVSPropertyOp14
 70
     1
102
RTVSPropertyOp15
 70
     1
102
RTVSPropertyOp16
 70
     1
102
RTVSPropertyOp17
 70
     1
102
RTVSPropertyOp18
 70
     1
102
RTVSPropertyOp19
 70
     1
102
RTVSPropertyOp20
 70
     1
102
RTVSPropertyOp21
 70
     1
102
RTVSPropertyOp22
 70
     1
102
RTVSPropertyOp23
 70
     1
102
RTVSPropertyOp24
 70
     1
102
RTVSPropertyOp25
 70
     1
102
RTVSPropertyOp26
 70
     1
102
RTVSPropertyOp27
 70
     1
102
RTVSPropertyOp28
 70
     1
102
RTVSPropertyOp29
 70
     1
102
RTVSPropertyOp30
 70
     1
102
RTVSPropertyOp31
 70
     1
102
RTVSPropertyOp32
 70
     1
  0
XRECORD
  5
1672
102
{ACAD_REACTORS
330
1671
102
}
330
1671
100
AcDbXrecord
280
     1
102
RTVSPropertyOp0
 70
     1
102
RTVSPropertyOp1
 70
     1
102
RTVSPropertyOp2
 70
     1
102
RTVSPropertyOp3
 70
     1
102
RTVSPropertyOp4
 70
     1
102
RTVSPropertyOp5
 70
     1
102
RTVSPropertyOp6
 70
     1
102
RTVSPropertyOp7
 70
     1
102
RTVSPropertyOp8
 70
     1
102
RTVSPropertyOp9
 70
     1
102
RTVSPropertyOp10
 70
     1
102
RTVSPropertyOp11
 70
     1
102
RTVSPropertyOp12
 70
     1
102
RTVSPropertyOp13
 70
     1
102
RTVSPropertyOp14
 70
     1
102
RTVSPropertyOp15
 70
     1
102
RTVSPropertyOp16
 70
     1
102
RTVSPropertyOp17
 70
     1
102
RTVSPropertyOp18
 70
     1
102
RTVSPropertyOp19
 70
     1
102
RTVSPropertyOp20
 70
     1
102
RTVSPropertyOp21
 70
     1
102
RTVSPropertyOp22
 70
     1
102
RTVSPropertyOp23
 70
     1
102
RTVSPropertyOp24
 70
     1
102
RTVSPropertyOp25
 70
     1
102
RTVSPropertyOp26
 70
     1
102
RTVSPropertyOp27
 70
     1
102
RTVSPropertyOp28
 70
     1
102
RTVSPropertyOp29
 70
     1
102
RTVSPropertyOp30
 70
     1
102
RTVSPropertyOp31
 70
     1
102
RTVSPropertyOp32
 70
     1
  0
XRECORD
  5
1676
102
{ACAD_REACTORS
330
1675
102
}
330
1675
100
AcDbXrecord
280
     1
102
RTVSPropertyOp0
 70
     1
102
RTVSPropertyOp1
 70
     1
102
RTVSPropertyOp2
 70
     1
102
RTVSPropertyOp3
 70
     1
102
RTVSPropertyOp4
 70
     1
102
RTVSPropertyOp5
 70
     1
102
RTVSPropertyOp6
 70
     1
102
RTVSPropertyOp7
 70
     1
102
RTVSPropertyOp8
 70
     1
102
RTVSPropertyOp9
 70
     1
102
RTVSPropertyOp10
 70
     1
102
RTVSPropertyOp11
 70
     1
102
RTVSPropertyOp12
 70
     1
102
RTVSPropertyOp13
 70
     1
102
RTVSPropertyOp14
 70
     1
102
RTVSPropertyOp15
 70
     1
102
RTVSPropertyOp16
 70
     1
102
RTVSPropertyOp17
 70
     1
102
RTVSPropertyOp18
 70
     1
102
RTVSPropertyOp19
 70
     1
102
RTVSPropertyOp20
 70
     1
102
RTVSPropertyOp21
 70
     1
102
RTVSPropertyOp22
 70
     1
102
RTVSPropertyOp23
 70
     1
102
RTVSPropertyOp24
 70
     1
102
RTVSPropertyOp25
 70
     1
102
RTVSPropertyOp26
 70
     1
102
RTVSPropertyOp27
 70
     1
102
RTVSPropertyOp28
 70
     1
102
RTVSPropertyOp29
 70
     1
102
RTVSPropertyOp30
 70
     1
102
RTVSPropertyOp31
 70
     1
102
RTVSPropertyOp32
 70
     1
  0
XRECORD
  5
1690
102
{ACAD_REACTORS
330
168F
102
}
330
168F
100
AcDbXrecord
280
     1
102
RTVSPropertyOp0
 70
     0
102
RTVSPropertyOp1
 70
     0
102
RTVSPropertyOp2
 70
     0
102
RTVSPropertyOp3
 70
     0
102
RTVSPropertyOp4
 70
     0
102
RTVSPropertyOp5
 70
     0
102
RTVSPropertyOp6
 70
     0
102
RTVSPropertyOp7
 70
     0
102
RTVSPropertyOp8
 70
     0
102
RTVSPropertyOp9
 70
     0
102
RTVSPropertyOp10
 70
     0
102
RTVSPropertyOp11
 70
     0
102
RTVSPropertyOp12
 70
     0
102
RTVSPropertyOp13
 70
     0
102
RTVSPropertyOp14
 70
     2
102
RTVSPropertyOp15
 70
     0
102
RTVSPropertyOp16
 70
     0
102
RTVSPropertyOp17
 70
     0
102
RTVSPropertyOp18
 70
     0
102
RTVSPropertyOp19
 70
     0
102
RTVSPropertyOp20
 70
     0
102
RTVSPropertyOp21
 70
     0
102
RTVSPropertyOp22
 70
     0
102
RTVSPropertyOp23
 70
     0
102
RTVSPropertyOp24
 70
     0
102
RTVSPropertyOp25
 70
     0
102
RTVSPropertyOp26
 70
     0
102
RTVSPropertyOp27
 70
     0
102
RTVSPropertyOp28
 70
     1
102
RTVSPropertyOp29
 70
     1
102
RTVSPropertyOp30
 70
     1
102
RTVSPropertyOp31
 70
     1
102
RTVSPropertyOp32
 70
     1
  0
XRECORD
  5
167E
102
{ACAD_REACTORS
330
167D
102
}
330
167D
100
AcDbXrecord
280
     1
102
RTVSPropertyOp0
 70
     1
102
RTVSPropertyOp1
 70
     1
102
RTVSPropertyOp2
 70
     1
102
RTVSPropertyOp3
 70
     1
102
RTVSPropertyOp4
 70
     1
102
RTVSPropertyOp5
 70
     1
102
RTVSPropertyOp6
 70
     1
102
RTVSPropertyOp7
 70
     1
102
RTVSPropertyOp8
 70
     1
102
RTVSPropertyOp9
 70
     1
102
RTVSPropertyOp10
 70
     1
102
RTVSPropertyOp11
 70
     1
102
RTVSPropertyOp12
 70
     1
102
RTVSPropertyOp13
 70
     1
102
RTVSPropertyOp14
 70
     1
102
RTVSPropertyOp15
 70
     1
102
RTVSPropertyOp16
 70
     1
102
RTVSPropertyOp17
 70
     1
102
RTVSPropertyOp18
 70
     1
102
RTVSPropertyOp19
 70
     1
102
RTVSPropertyOp20
 70
     1
102
RTVSPropertyOp21
 70
     1
102
RTVSPropertyOp22
 70
     1
102
RTVSPropertyOp23
 70
     1
102
RTVSPropertyOp24
 70
     1
102
RTVSPropertyOp25
 70
     1
102
RTVSPropertyOp26
 70
     1
102
RTVSPropertyOp27
 70
     1
102
RTVSPropertyOp28
 70
     1
102
RTVSPropertyOp29
 70
     1
102
RTVSPropertyOp30
 70
     1
102
RTVSPropertyOp31
 70
     1
102
RTVSPropertyOp32
 70
     1
  0
XRECORD
  5
1662
102
{ACAD_REACTORS
330
1661
102
}
330
1661
100
AcDbXrecord
280
     1
102
RTVSPropertyOp0
 70
     1
102
RTVSPropertyOp1
 70
     1
102
RTVSPropertyOp2
 70
     1
102
RTVSPropertyOp3
 70
     1
102
RTVSPropertyOp4
 70
     1
102
RTVSPropertyOp5
 70
     1
102
RTVSPropertyOp6
 70
     1
102
RTVSPropertyOp7
 70
     1
102
RTVSPropertyOp8
 70
     1
102
RTVSPropertyOp9
 70
     1
102
RTVSPropertyOp10
 70
     1
102
RTVSPropertyOp11
 70
     1
102
RTVSPropertyOp12
 70
     1
102
RTVSPropertyOp13
 70
     1
102
RTVSPropertyOp14
 70
     1
102
RTVSPropertyOp15
 70
     1
102
RTVSPropertyOp16
 70
     1
102
RTVSPropertyOp17
 70
     1
102
RTVSPropertyOp18
 70
     1
102
RTVSPropertyOp19
 70
     1
102
RTVSPropertyOp20
 70
     1
102
RTVSPropertyOp21
 70
     1
102
RTVSPropertyOp22
 70
     1
102
RTVSPropertyOp23
 70
     1
102
RTVSPropertyOp24
 70
     1
102
RTVSPropertyOp25
 70
     1
102
RTVSPropertyOp26
 70
     1
102
RTVSPropertyOp27
 70
     1
102
RTVSPropertyOp28
 70
     1
102
RTVSPropertyOp29
 70
     1
102
RTVSPropertyOp30
 70
     1
102
RTVSPropertyOp31
 70
     1
102
RTVSPropertyOp32
 70
     1
  0
XRECORD
  5
1664
102
{ACAD_REACTORS
330
1663
102
}
330
1663
100
AcDbXrecord
280
     1
102
RTVSPropertyOp0
 70
     1
102
RTVSPropertyOp1
 70
     1
102
RTVSPropertyOp2
 70
     1
102
RTVSPropertyOp3
 70
     1
102
RTVSPropertyOp4
 70
     1
102
RTVSPropertyOp5
 70
     1
102
RTVSPropertyOp6
 70
     1
102
RTVSPropertyOp7
 70
     1
102
RTVSPropertyOp8
 70
     1
102
RTVSPropertyOp9
 70
     1
102
RTVSPropertyOp10
 70
     1
102
RTVSPropertyOp11
 70
     1
102
RTVSPropertyOp12
 70
     1
102
RTVSPropertyOp13
 70
     1
102
RTVSPropertyOp14
 70
     1
102
RTVSPropertyOp15
 70
     1
102
RTVSPropertyOp16
 70
     1
102
RTVSPropertyOp17
 70
     1
102
RTVSPropertyOp18
 70
     1
102
RTVSPropertyOp19
 70
     1
102
RTVSPropertyOp20
 70
     1
102
RTVSPropertyOp21
 70
     1
102
RTVSPropertyOp22
 70
     1
102
RTVSPropertyOp23
 70
     1
102
RTVSPropertyOp24
 70
     1
102
RTVSPropertyOp25
 70
     1
102
RTVSPropertyOp26
 70
     1
102
RTVSPropertyOp27
 70
     1
102
RTVSPropertyOp28
 70
     1
102
RTVSPropertyOp29
 70
     1
102
RTVSPropertyOp30
 70
     1
102
RTVSPropertyOp31
 70
     1
102
RTVSPropertyOp32
 70
     1
  0
XRECORD
  5
1666
102
{ACAD_REACTORS
330
1665
102
}
330
1665
100
AcDbXrecord
280
     1
102
RTVSPropertyOp0
 70
     1
102
RTVSPropertyOp1
 70
     1
102
RTVSPropertyOp2
 70
     1
102
RTVSPropertyOp3
 70
     1
102
RTVSPropertyOp4
 70
     1
102
RTVSPropertyOp5
 70
     1
102
RTVSPropertyOp6
 70
     1
102
RTVSPropertyOp7
 70
     1
102
RTVSPropertyOp8
 70
     1
102
RTVSPropertyOp9
 70
     1
102
RTVSPropertyOp10
 70
     1
102
RTVSPropertyOp11
 70
     1
102
RTVSPropertyOp12
 70
     1
102
RTVSPropertyOp13
 70
     1
102
RTVSPropertyOp14
 70
     1
102
RTVSPropertyOp15
 70
     1
102
RTVSPropertyOp16
 70
     1
102
RTVSPropertyOp17
 70
     1
102
RTVSPropertyOp18
 70
     1
102
RTVSPropertyOp19
 70
     1
102
RTVSPropertyOp20
 70
     1
102
RTVSPropertyOp21
 70
     1
102
RTVSPropertyOp22
 70
     1
102
RTVSPropertyOp23
 70
     1
102
RTVSPropertyOp24
 70
     1
102
RTVSPropertyOp25
 70
     1
102
RTVSPropertyOp26
 70
     1
102
RTVSPropertyOp27
 70
     1
102
RTVSPropertyOp28
 70
     1
102
RTVSPropertyOp29
 70
     1
102
RTVSPropertyOp30
 70
     1
102
RTVSPropertyOp31
 70
     1
102
RTVSPropertyOp32
 70
     1
  0
XRECORD
  5
1668
102
{ACAD_REACTORS
330
1667
102
}
330
1667
100
AcDbXrecord
280
     1
102
RTVSPropertyOp0
 70
     1
102
RTVSPropertyOp1
 70
     1
102
RTVSPropertyOp2
 70
     1
102
RTVSPropertyOp3
 70
     1
102
RTVSPropertyOp4
 70
     1
102
RTVSPropertyOp5
 70
     1
102
RTVSPropertyOp6
 70
     1
102
RTVSPropertyOp7
 70
     1
102
RTVSPropertyOp8
 70
     1
102
RTVSPropertyOp9
 70
     1
102
RTVSPropertyOp10
 70
     1
102
RTVSPropertyOp11
 70
     1
102
RTVSPropertyOp12
 70
     1
102
RTVSPropertyOp13
 70
     1
102
RTVSPropertyOp14
 70
     1
102
RTVSPropertyOp15
 70
     1
102
RTVSPropertyOp16
 70
     1
102
RTVSPropertyOp17
 70
     1
102
RTVSPropertyOp18
 70
     1
102
RTVSPropertyOp19
 70
     1
102
RTVSPropertyOp20
 70
     1
102
RTVSPropertyOp21
 70
     1
102
RTVSPropertyOp22
 70
     1
102
RTVSPropertyOp23
 70
     1
102
RTVSPropertyOp24
 70
     1
102
RTVSPropertyOp25
 70
     1
102
RTVSPropertyOp26
 70
     1
102
RTVSPropertyOp27
 70
     1
102
RTVSPropertyOp28
 70
     1
102
RTVSPropertyOp29
 70
     1
102
RTVSPropertyOp30
 70
     1
102
RTVSPropertyOp31
 70
     1
102
RTVSPropertyOp32
 70
     1
  0
XRECORD
  5
1670
102
{ACAD_REACTORS
330
166F
102
}
330
166F
100
AcDbXrecord
280
     1
102
RTVSPropertyOp0
 70
     1
102
RTVSPropertyOp1
 70
     1
102
RTVSPropertyOp2
 70
     1
102
RTVSPropertyOp3
 70
     1
102
RTVSPropertyOp4
 70
     1
102
RTVSPropertyOp5
 70
     1
102
RTVSPropertyOp6
 70
     1
102
RTVSPropertyOp7
 70
     1
102
RTVSPropertyOp8
 70
     1
102
RTVSPropertyOp9
 70
     1
102
RTVSPropertyOp10
 70
     1
102
RTVSPropertyOp11
 70
     1
102
RTVSPropertyOp12
 70
     1
102
RTVSPropertyOp13
 70
     1
102
RTVSPropertyOp14
 70
     1
102
RTVSPropertyOp15
 70
     1
102
RTVSPropertyOp16
 70
     1
102
RTVSPropertyOp17
 70
     1
102
RTVSPropertyOp18
 70
     1
102
RTVSPropertyOp19
 70
     1
102
RTVSPropertyOp20
 70
     1
102
RTVSPropertyOp21
 70
     1
102
RTVSPropertyOp22
 70
     1
102
RTVSPropertyOp23
 70
     1
102
RTVSPropertyOp24
 70
     1
102
RTVSPropertyOp25
 70
     1
102
RTVSPropertyOp26
 70
     1
102
RTVSPropertyOp27
 70
     1
102
RTVSPropertyOp28
 70
     1
102
RTVSPropertyOp29
 70
     1
102
RTVSPropertyOp30
 70
     1
102
RTVSPropertyOp31
 70
     1
102
RTVSPropertyOp32
 70
     1
  0
XRECORD
  5
168C
102
{ACAD_REACTORS
330
168B
102
}
330
168B
100
AcDbXrecord
280
     1
102
RTVSPropertyOp0
 70
     0
102
RTVSPropertyOp1
 70
     0
102
RTVSPropertyOp2
 70
     0
102
RTVSPropertyOp3
 70
     0
102
RTVSPropertyOp4
 70
     0
102
RTVSPropertyOp5
 70
     0
102
RTVSPropertyOp6
 70
     0
102
RTVSPropertyOp7
 70
     0
102
RTVSPropertyOp8
 70
     0
102
RTVSPropertyOp9
 70
     0
102
RTVSPropertyOp10
 70
     0
102
RTVSPropertyOp11
 70
     0
102
RTVSPropertyOp12
 70
     0
102
RTVSPropertyOp13
 70
     0
102
RTVSPropertyOp14
 70
     2
102
RTVSPropertyOp15
 70
     0
102
RTVSPropertyOp16
 70
     0
102
RTVSPropertyOp17
 70
     0
102
RTVSPropertyOp18
 70
     0
102
RTVSPropertyOp19
 70
     0
102
RTVSPropertyOp20
 70
     0
102
RTVSPropertyOp21
 70
     0
102
RTVSPropertyOp22
 70
     0
102
RTVSPropertyOp23
 70
     0
102
RTVSPropertyOp24
 70
     0
102
RTVSPropertyOp25
 70
     0
102
RTVSPropertyOp26
 70
     0
102
RTVSPropertyOp27
 70
     0
102
RTVSPropertyOp28
 70
     1
102
RTVSPropertyOp29
 70
     1
102
RTVSPropertyOp30
 70
     1
102
RTVSPropertyOp31
 70
     1
102
RTVSPropertyOp32
 70
     1
  0
XRECORD
  5
167C
102
{ACAD_REACTORS
330
167B
102
}
330
167B
100
AcDbXrecord
280
     1
102
RTVSPropertyOp0
 70
     1
102
RTVSPropertyOp1
 70
     1
102
RTVSPropertyOp2
 70
     1
102
RTVSPropertyOp3
 70
     1
102
RTVSPropertyOp4
 70
     1
102
RTVSPropertyOp5
 70
     1
102
RTVSPropertyOp6
 70
     1
102
RTVSPropertyOp7
 70
     1
102
RTVSPropertyOp8
 70
     1
102
RTVSPropertyOp9
 70
     1
102
RTVSPropertyOp10
 70
     1
102
RTVSPropertyOp11
 70
     1
102
RTVSPropertyOp12
 70
     1
102
RTVSPropertyOp13
 70
     1
102
RTVSPropertyOp14
 70
     1
102
RTVSPropertyOp15
 70
     1
102
RTVSPropertyOp16
 70
     1
102
RTVSPropertyOp17
 70
     1
102
RTVSPropertyOp18
 70
     1
102
RTVSPropertyOp19
 70
     1
102
RTVSPropertyOp20
 70
     1
102
RTVSPropertyOp21
 70
     1
102
RTVSPropertyOp22
 70
     1
102
RTVSPropertyOp23
 70
     1
102
RTVSPropertyOp24
 70
     1
102
RTVSPropertyOp25
 70
     1
102
RTVSPropertyOp26
 70
     1
102
RTVSPropertyOp27
 70
     1
102
RTVSPropertyOp28
 70
     1
102
RTVSPropertyOp29
 70
     1
102
RTVSPropertyOp30
 70
     1
102
RTVSPropertyOp31
 70
     1
102
RTVSPropertyOp32
 70
     1
  0
XRECORD
  5
168E
102
{ACAD_REACTORS
330
168D
102
}
330
168D
100
AcDbXrecord
280
     1
102
RTVSPropertyOp0
 70
     0
102
RTVSPropertyOp1
 70
     0
102
RTVSPropertyOp2
 70
     0
102
RTVSPropertyOp3
 70
     0
102
RTVSPropertyOp4
 70
     0
102
RTVSPropertyOp5
 70
     0
102
RTVSPropertyOp6
 70
     0
102
RTVSPropertyOp7
 70
     0
102
RTVSPropertyOp8
 70
     0
102
RTVSPropertyOp9
 70
     0
102
RTVSPropertyOp10
 70
     0
102
RTVSPropertyOp11
 70
     0
102
RTVSPropertyOp12
 70
     0
102
RTVSPropertyOp13
 70
     0
102
RTVSPropertyOp14
 70
     2
102
RTVSPropertyOp15
 70
     0
102
RTVSPropertyOp16
 70
     0
102
RTVSPropertyOp17
 70
     0
102
RTVSPropertyOp18
 70
     0
102
RTVSPropertyOp19
 70
     0
102
RTVSPropertyOp20
 70
     0
102
RTVSPropertyOp21
 70
     0
102
RTVSPropertyOp22
 70
     0
102
RTVSPropertyOp23
 70
     0
102
RTVSPropertyOp24
 70
     0
102
RTVSPropertyOp25
 70
     0
102
RTVSPropertyOp26
 70
     0
102
RTVSPropertyOp27
 70
     0
102
RTVSPropertyOp28
 70
     1
102
RTVSPropertyOp29
 70
     1
102
RTVSPropertyOp30
 70
     1
102
RTVSPropertyOp31
 70
     1
102
RTVSPropertyOp32
 70
     1
  0
XRECORD
  5
1674
102
{ACAD_REACTORS
330
1673
102
}
330
1673
100
AcDbXrecord
280
     1
102
RTVSPropertyOp0
 70
     1
102
RTVSPropertyOp1
 70
     1
102
RTVSPropertyOp2
 70
     1
102
RTVSPropertyOp3
 70
     1
102
RTVSPropertyOp4
 70
     1
102
RTVSPropertyOp5
 70
     1
102
RTVSPropertyOp6
 70
     1
102
RTVSPropertyOp7
 70
     1
102
RTVSPropertyOp8
 70
     1
102
RTVSPropertyOp9
 70
     1
102
RTVSPropertyOp10
 70
     1
102
RTVSPropertyOp11
 70
     1
102
RTVSPropertyOp12
 70
     1
102
RTVSPropertyOp13
 70
     1
102
RTVSPropertyOp14
 70
     1
102
RTVSPropertyOp15
 70
     1
102
RTVSPropertyOp16
 70
     1
102
RTVSPropertyOp17
 70
     1
102
RTVSPropertyOp18
 70
     1
102
RTVSPropertyOp19
 70
     1
102
RTVSPropertyOp20
 70
     1
102
RTVSPropertyOp21
 70
     1
102
RTVSPropertyOp22
 70
     1
102
RTVSPropertyOp23
 70
     1
102
RTVSPropertyOp24
 70
     1
102
RTVSPropertyOp25
 70
     1
102
RTVSPropertyOp26
 70
     1
102
RTVSPropertyOp27
 70
     1
102
RTVSPropertyOp28
 70
     1
102
RTVSPropertyOp29
 70
     1
102
RTVSPropertyOp30
 70
     1
102
RTVSPropertyOp31
 70
     1
102
RTVSPropertyOp32
 70
     1
  0
XRECORD
  5
168A
102
{ACAD_REACTORS
330
1689
102
}
330
1689
100
AcDbXrecord
280
     1
102
RTVSPropertyOp0
 70
     1
102
RTVSPropertyOp1
 70
     1
102
RTVSPropertyOp2
 70
     1
102
RTVSPropertyOp3
 70
     1
102
RTVSPropertyOp4
 70
     1
102
RTVSPropertyOp5
 70
     1
102
RTVSPropertyOp6
 70
     1
102
RTVSPropertyOp7
 70
     1
102
RTVSPropertyOp8
 70
     1
102
RTVSPropertyOp9
 70
     1
102
RTVSPropertyOp10
 70
     1
102
RTVSPropertyOp11
 70
     1
102
RTVSPropertyOp12
 70
     1
102
RTVSPropertyOp13
 70
     1
102
RTVSPropertyOp14
 70
     1
102
RTVSPropertyOp15
 70
     1
102
RTVSPropertyOp16
 70
     1
102
RTVSPropertyOp17
 70
     1
102
RTVSPropertyOp18
 70
     1
102
RTVSPropertyOp19
 70
     1
102
RTVSPropertyOp20
 70
     1
102
RTVSPropertyOp21
 70
     1
102
RTVSPropertyOp22
 70
     1
102
RTVSPropertyOp23
 70
     1
102
RTVSPropertyOp24
 70
     1
102
RTVSPropertyOp25
 70
     1
102
RTVSPropertyOp26
 70
     1
102
RTVSPropertyOp27
 70
     1
102
RTVSPropertyOp28
 70
     1
102
RTVSPropertyOp29
 70
     1
102
RTVSPropertyOp30
 70
     1
102
RTVSPropertyOp31
 70
     1
102
RTVSPropertyOp32
 70
     1
  0
XRECORD
  5
1688
102
{ACAD_REACTORS
330
1687
102
}
330
1687
100
AcDbXrecord
280
     1
102
RTVSPropertyOp0
 70
     1
102
RTVSPropertyOp1
 70
     1
102
RTVSPropertyOp2
 70
     1
102
RTVSPropertyOp3
 70
     1
102
RTVSPropertyOp4
 70
     1
102
RTVSPropertyOp5
 70
     1
102
RTVSPropertyOp6
 70
     1
102
RTVSPropertyOp7
 70
     1
102
RTVSPropertyOp8
 70
     1
102
RTVSPropertyOp9
 70
     1
102
RTVSPropertyOp10
 70
     1
102
RTVSPropertyOp11
 70
     1
102
RTVSPropertyOp12
 70
     1
102
RTVSPropertyOp13
 70
     1
102
RTVSPropertyOp14
 70
     1
102
RTVSPropertyOp15
 70
     1
102
RTVSPropertyOp16
 70
     1
102
RTVSPropertyOp17
 70
     1
102
RTVSPropertyOp18
 70
     1
102
RTVSPropertyOp19
 70
     1
102
RTVSPropertyOp20
 70
     1
102
RTVSPropertyOp21
 70
     1
102
RTVSPropertyOp22
 70
     1
102
RTVSPropertyOp23
 70
     1
102
RTVSPropertyOp24
 70
     1
102
RTVSPropertyOp25
 70
     1
102
RTVSPropertyOp26
 70
     1
102
RTVSPropertyOp27
 70
     1
102
RTVSPropertyOp28
 70
     1
102
RTVSPropertyOp29
 70
     1
102
RTVSPropertyOp30
 70
     1
102
RTVSPropertyOp31
 70
     1
102
RTVSPropertyOp32
 70
     1
  0
XRECORD
  5
1682
102
{ACAD_REACTORS
330
1681
102
}
330
1681
100
AcDbXrecord
280
     1
102
RTVSPropertyOp0
 70
     1
102
RTVSPropertyOp1
 70
     1
102
RTVSPropertyOp2
 70
     1
102
RTVSPropertyOp3
 70
     1
102
RTVSPropertyOp4
 70
     1
102
RTVSPropertyOp5
 70
     1
102
RTVSPropertyOp6
 70
     1
102
RTVSPropertyOp7
 70
     1
102
RTVSPropertyOp8
 70
     1
102
RTVSPropertyOp9
 70
     1
102
RTVSPropertyOp10
 70
     1
102
RTVSPropertyOp11
 70
     1
102
RTVSPropertyOp12
 70
     1
102
RTVSPropertyOp13
 70
     1
102
RTVSPropertyOp14
 70
     1
102
RTVSPropertyOp15
 70
     1
102
RTVSPropertyOp16
 70
     1
102
RTVSPropertyOp17
 70
     1
102
RTVSPropertyOp18
 70
     1
102
RTVSPropertyOp19
 70
     1
102
RTVSPropertyOp20
 70
     1
102
RTVSPropertyOp21
 70
     1
102
RTVSPropertyOp22
 70
     1
102
RTVSPropertyOp23
 70
     1
102
RTVSPropertyOp24
 70
     1
102
RTVSPropertyOp25
 70
     1
102
RTVSPropertyOp26
 70
     1
102
RTVSPropertyOp27
 70
     1
102
RTVSPropertyOp28
 70
     1
102
RTVSPropertyOp29
 70
     1
102
RTVSPropertyOp30
 70
     1
102
RTVSPropertyOp31
 70
     1
102
RTVSPropertyOp32
 70
     1
  0
XRECORD
  5
1684
102
{ACAD_REACTORS
330
1683
102
}
330
1683
100
AcDbXrecord
280
     1
102
RTVSPropertyOp0
 70
     1
102
RTVSPropertyOp1
 70
     1
102
RTVSPropertyOp2
 70
     1
102
RTVSPropertyOp3
 70
     1
102
RTVSPropertyOp4
 70
     1
102
RTVSPropertyOp5
 70
     1
102
RTVSPropertyOp6
 70
     1
102
RTVSPropertyOp7
 70
     1
102
RTVSPropertyOp8
 70
     1
102
RTVSPropertyOp9
 70
     1
102
RTVSPropertyOp10
 70
     1
102
RTVSPropertyOp11
 70
     1
102
RTVSPropertyOp12
 70
     1
102
RTVSPropertyOp13
 70
     1
102
RTVSPropertyOp14
 70
     1
102
RTVSPropertyOp15
 70
     1
102
RTVSPropertyOp16
 70
     1
102
RTVSPropertyOp17
 70
     1
102
RTVSPropertyOp18
 70
     1
102
RTVSPropertyOp19
 70
     1
102
RTVSPropertyOp20
 70
     1
102
RTVSPropertyOp21
 70
     1
102
RTVSPropertyOp22
 70
     1
102
RTVSPropertyOp23
 70
     1
102
RTVSPropertyOp24
 70
     1
102
RTVSPropertyOp25
 70
     1
102
RTVSPropertyOp26
 70
     1
102
RTVSPropertyOp27
 70
     1
102
RTVSPropertyOp28
 70
     1
102
RTVSPropertyOp29
 70
     1
102
RTVSPropertyOp30
 70
     1
102
RTVSPropertyOp31
 70
     1
102
RTVSPropertyOp32
 70
     1
  0
XRECORD
  5
167A
102
{ACAD_REACTORS
330
1679
102
}
330
1679
100
AcDbXrecord
280
     1
102
RTVSPropertyOp0
 70
     1
102
RTVSPropertyOp1
 70
     1
102
RTVSPropertyOp2
 70
     1
102
RTVSPropertyOp3
 70
     1
102
RTVSPropertyOp4
 70
     1
102
RTVSPropertyOp5
 70
     1
102
RTVSPropertyOp6
 70
     1
102
RTVSPropertyOp7
 70
     1
102
RTVSPropertyOp8
 70
     1
102
RTVSPropertyOp9
 70
     1
102
RTVSPropertyOp10
 70
     1
102
RTVSPropertyOp11
 70
     1
102
RTVSPropertyOp12
 70
     1
102
RTVSPropertyOp13
 70
     1
102
RTVSPropertyOp14
 70
     1
102
RTVSPropertyOp15
 70
     1
102
RTVSPropertyOp16
 70
     1
102
RTVSPropertyOp17
 70
     1
102
RTVSPropertyOp18
 70
     1
102
RTVSPropertyOp19
 70
     1
102
RTVSPropertyOp20
 70
     1
102
RTVSPropertyOp21
 70
     1
102
RTVSPropertyOp22
 70
     1
102
RTVSPropertyOp23
 70
     1
102
RTVSPropertyOp24
 70
     1
102
RTVSPropertyOp25
 70
     1
102
RTVSPropertyOp26
 70
     1
102
RTVSPropertyOp27
 70
     1
102
RTVSPropertyOp28
 70
     1
102
RTVSPropertyOp29
 70
     1
102
RTVSPropertyOp30
 70
     1
102
RTVSPropertyOp31
 70
     1
102
RTVSPropertyOp32
 70
     1
  0
XRECORD
  5
166E
102
{ACAD_REACTORS
330
166D
102
}
330
166D
100
AcDbXrecord
280
     1
102
RTVSPropertyOp0
 70
     1
102
RTVSPropertyOp1
 70
     1
102
RTVSPropertyOp2
 70
     1
102
RTVSPropertyOp3
 70
     1
102
RTVSPropertyOp4
 70
     1
102
RTVSPropertyOp5
 70
     1
102
RTVSPropertyOp6
 70
     1
102
RTVSPropertyOp7
 70
     1
102
RTVSPropertyOp8
 70
     1
102
RTVSPropertyOp9
 70
     1
102
RTVSPropertyOp10
 70
     1
102
RTVSPropertyOp11
 70
     1
102
RTVSPropertyOp12
 70
     1
102
RTVSPropertyOp13
 70
     1
102
RTVSPropertyOp14
 70
     1
102
RTVSPropertyOp15
 70
     1
102
RTVSPropertyOp16
 70
     1
102
RTVSPropertyOp17
 70
     1
102
RTVSPropertyOp18
 70
     1
102
RTVSPropertyOp19
 70
     1
102
RTVSPropertyOp20
 70
     1
102
RTVSPropertyOp21
 70
     1
102
RTVSPropertyOp22
 70
     1
102
RTVSPropertyOp23
 70
     1
102
RTVSPropertyOp24
 70
     1
102
RTVSPropertyOp25
 70
     1
102
RTVSPropertyOp26
 70
     1
102
RTVSPropertyOp27
 70
     1
102
RTVSPropertyOp28
 70
     1
102
RTVSPropertyOp29
 70
     1
102
RTVSPropertyOp30
 70
     1
102
RTVSPropertyOp31
 70
     1
102
RTVSPropertyOp32
 70
     1
  0
XRECORD
  5
1686
102
{ACAD_REACTORS
330
1685
102
}
330
1685
100
AcDbXrecord
280
     1
102
RTVSPropertyOp0
 70
     1
102
RTVSPropertyOp1
 70
     1
102
RTVSPropertyOp2
 70
     1
102
RTVSPropertyOp3
 70
     1
102
RTVSPropertyOp4
 70
     1
102
RTVSPropertyOp5
 70
     1
102
RTVSPropertyOp6
 70
     1
102
RTVSPropertyOp7
 70
     1
102
RTVSPropertyOp8
 70
     1
102
RTVSPropertyOp9
 70
     1
102
RTVSPropertyOp10
 70
     1
102
RTVSPropertyOp11
 70
     1
102
RTVSPropertyOp12
 70
     1
102
RTVSPropertyOp13
 70
     1
102
RTVSPropertyOp14
 70
     1
102
RTVSPropertyOp15
 70
     1
102
RTVSPropertyOp16
 70
     1
102
RTVSPropertyOp17
 70
     1
102
RTVSPropertyOp18
 70
     1
102
RTVSPropertyOp19
 70
     1
102
RTVSPropertyOp20
 70
     1
102
RTVSPropertyOp21
 70
     1
102
RTVSPropertyOp22
 70
     1
102
RTVSPropertyOp23
 70
     1
102
RTVSPropertyOp24
 70
     1
102
RTVSPropertyOp25
 70
     1
102
RTVSPropertyOp26
 70
     1
102
RTVSPropertyOp27
 70
     1
102
RTVSPropertyOp28
 70
     1
102
RTVSPropertyOp29
 70
     1
102
RTVSPropertyOp30
 70
     1
102
RTVSPropertyOp31
 70
     1
102
RTVSPropertyOp32
 70
     1
  0
ENDSEC
  0
EOF
