  0
SECTION
  2
HEADER
  9
$ACADVER
  1
AC1015
  9
$ACADMAINTVER
 70
    20
  9
$DWGCODEPAGE
  3
ANSI_1252
  9
$INSBASE
 10
0.0
 20
0.0
 30
0.0
  9
$EXTMIN
 10
92.96931648553504
 20
118.9784254098526
 30
-0.0000000000000058
  9
$EXTMAX
 10
227.3819287549493
 20
196.0406503407757
 30
0.0000000000000104
  9
$LIMMIN
 10
-170.0
 20
-170.0
  9
$LIMMAX
 10
519.0
 20
260.0
  9
$ORTHOMODE
 70
     0
  9
$REGENMODE
 70
     1
  9
$FILLMODE
 70
     1
  9
$QTEXTMODE
 70
     0
  9
$MIRRTEXT
 70
     0
  9
$LTSCALE
 40
1.0
  9
$ATTMODE
 70
     1
  9
$TEXTSIZE
 40
5.0
  9
$TRACEWID
 40
1.0
  9
$TEXTSTYLE
  7
USER1
  9
$CLAYER
  8
0
  9
$CELTYPE
  6
BYLAYER
  9
$CECOLOR
 62
   256
  9
$CELTSCALE
 40
1.0
  9
$DISPSILH
 70
     0
  9
$DIMSCALE
 40
1.0
  9
$DIMASZ
 40
2.5
  9
$DIMEXO
 40
1.0
  9
$DIMDLI
 40
15.0
  9
$DIMRND
 40
0.0
  9
$DIMDLE
 40
0.0
  9
$DIMEXE
 40
2.0
  9
$DIMTP
 40
0.0
  9
$DIMTM
 40
0.000000001
  9
$DIMTXT
 40
3.5
  9
$DIMCEN
 40
0.09
  9
$DIMTSZ
 40
0.0
  9
$DIMTOL
 70
     0
  9
$DIMLIM
 70
     0
  9
$DIMTIH
 70
     0
  9
$DIMTOH
 70
     0
  9
$DIMSE1
 70
     0
  9
$DIMSE2
 70
     0
  9
$DIMTAD
 70
     1
  9
$DIMZIN
 70
     8
  9
$DIMBLK
  1

  9
$DIMASO
 70
     1
  9
$DIMSHO
 70
     1
  9
$DIMPOST
  1

  9
$DIMAPOST
  1

  9
$DIMALT
 70
     0
  9
$DIMALTD
 70
     3
  9
$DIMALTF
 40
0.0393701
  9
$DIMLFAC
 40
1.0
  9
$DIMTOFL
 70
     1
  9
$DIMTVP
 40
0.0
  9
$DIMTIX
 70
     0
  9
$DIMSOXD
 70
     0
  9
$DIMSAH
 70
     0
  9
$DIMBLK1
  1

  9
$DIMBLK2
  1

  9
$DIMSTYLE
  2
AM_DIN
  9
$DIMCLRD
 70
     0
  9
$DIMCLRE
 70
     0
  9
$DIMCLRT
 70
     0
  9
$DIMTFAC
 40
0.7071069999999999
  9
$DIMGAP
 40
1.0
  9
$DIMJUST
 70
     0
  9
$DIMSD1
 70
     0
  9
$DIMSD2
 70
     0
  9
$DIMTOLJ
 70
     1
  9
$DIMTZIN
 70
     8
  9
$DIMALTZ
 70
    11
  9
$DIMALTTZ
 70
     8
  9
$DIMUPT
 70
     0
  9
$DIMDEC
 70
     2
  9
$DIMTDEC
 70
     2
  9
$DIMALTU
 70
     3
  9
$DIMALTTD
 70
     3
  9
$DIMTXSTY
  7
STANDARD 3.5 mm
  9
$DIMAUNIT
 70
     0
  9
$DIMADEC
 70
     0
  9
$DIMALTRND
 40
0.0
  9
$DIMAZIN
 70
     2
  9
$DIMDSEP
 70
    46
  9
$DIMATFIT
 70
     3
  9
$DIMFRAC
 70
     0
  9
$DIMLDRBLK
  1

  9
$DIMLUNIT
 70
     2
  9
$DIMLWD
 70
    -1
  9
$DIMLWE
 70
    -1
  9
$DIMTMOVE
 70
     0
  9
$LUNITS
 70
     2
  9
$LUPREC
 70
     2
  9
$SKETCHINC
 40
1.0
  9
$FILLETRAD
 40
0.0
  9
$AUNITS
 70
     0
  9
$AUPREC
 70
     0
  9
$MENU
  1
c:\tdm21\cad\caduti13\tdm13
  9
$ELEVATION
 40
0.0
  9
$PELEVATION
 40
0.0
  9
$THICKNESS
 40
0.0
  9
$LIMCHECK
 70
     0
  9
$CHAMFERA
 40
0.0
  9
$CHAMFERB
 40
0.0
  9
$CHAMFERC
 40
0.0
  9
$CHAMFERD
 40
0.0
  9
$SKPOLY
 70
     0
  9
$TDCREATE
 40
2457702.370465359
  9
$TDUCREATE
 40
2457702.141298693
  9
$TDUPDATE
 40
2457708.385707709
  9
$TDUUPDATE
 40
2457708.156541042
  9
$TDINDWG
 40
0.0445298148
  9
$TDUSRTIMER
 40
0.0445296412
  9
$USRTIMER
 70
     1
  9
$ANGBASE
 50
0.0
  9
$ANGDIR
 70
     0
  9
$PDMODE
 70
     1
  9
$PDSIZE
 40
0.0
  9
$PLINEWID
 40
0.0
  9
$SPLFRAME
 70
     0
  9
$SPLINETYPE
 70
     6
  9
$SPLINESEGS
 70
     8
  9
$HANDSEED
  5
1C0D
  9
$SURFTAB1
 70
     6
  9
$SURFTAB2
 70
     6
  9
$SURFTYPE
 70
     6
  9
$SURFU
 70
     6
  9
$SURFV
 70
     6
  9
$UCSBASE
  2

  9
$UCSNAME
  2

  9
$UCSORG
 10
129.297009682103
 20
155.4484922970154
 30
0.0
  9
$UCSXDIR
 10
0.9999999999979328
 20
0.0000020333364383
 30
0.0
  9
$UCSYDIR
 10
-0.0000020333364383
 20
0.9999999999979328
 30
0.0
  9
$UCSORTHOREF
  2

  9
$UCSORTHOVIEW
 70
     0
  9
$UCSORGTOP
 10
0.0
 20
0.0
 30
0.0
  9
$UCSORGBOTTOM
 10
0.0
 20
0.0
 30
0.0
  9
$UCSORGLEFT
 10
0.0
 20
0.0
 30
0.0
  9
$UCSORGRIGHT
 10
0.0
 20
0.0
 30
0.0
  9
$UCSORGFRONT
 10
0.0
 20
0.0
 30
0.0
  9
$UCSORGBACK
 10
0.0
 20
0.0
 30
0.0
  9
$PUCSBASE
  2

  9
$PUCSNAME
  2

  9
$PUCSORG
 10
0.0
 20
0.0
 30
0.0
  9
$PUCSXDIR
 10
1.0
 20
0.0
 30
0.0
  9
$PUCSYDIR
 10
0.0
 20
1.0
 30
0.0
  9
$PUCSORTHOREF
  2

  9
$PUCSORTHOVIEW
 70
     0
  9
$PUCSORGTOP
 10
0.0
 20
0.0
 30
0.0
  9
$PUCSORGBOTTOM
 10
0.0
 20
0.0
 30
0.0
  9
$PUCSORGLEFT
 10
0.0
 20
0.0
 30
0.0
  9
$PUCSORGRIGHT
 10
0.0
 20
0.0
 30
0.0
  9
$PUCSORGFRONT
 10
0.0
 20
0.0
 30
0.0
  9
$PUCSORGBACK
 10
0.0
 20
0.0
 30
0.0
  9
$USERI1
 70
     0
  9
$USERI2
 70
     0
  9
$USERI3
 70
     0
  9
$USERI4
 70
     0
  9
$USERI5
 70
     0
  9
$USERR1
 40
0.0
  9
$USERR2
 40
0.0
  9
$USERR3
 40
0.0
  9
$USERR4
 40
0.0
  9
$USERR5
 40
0.0
  9
$WORLDVIEW
 70
     1
  9
$SHADEDGE
 70
     3
  9
$SHADEDIF
 70
    70
  9
$TILEMODE
 70
     1
  9
$MAXACTVP
 70
    64
  9
$PINSBASE
 10
0.0
 20
0.0
 30
0.0
  9
$PLIMCHECK
 70
     0
  9
$PEXTMIN
 10
-0.0226558438690745
 20
-0.0160192835437556
 30
-0.000000000000013
  9
$PEXTMAX
 10
297.000001383183
 20
210.0000009780083
 30
0.0000000000000023
  9
$PLIMMIN
 10
0.0
 20
0.0
  9
$PLIMMAX
 10
297.0
 20
210.0
  9
$UNITMODE
 70
     0
  9
$VISRETAIN
 70
     0
  9
$PLINEGEN
 70
     0
  9
$PSLTSCALE
 70
     1
  9
$TREEDEPTH
 70
  3020
  9
$CMLSTYLE
  2
STANDARD
  9
$CMLJUST
 70
     0
  9
$CMLSCALE
 40
20.0
  9
$PROXYGRAPHICS
 70
     1
  9
$MEASUREMENT
 70
     1
  9
$CELWEIGHT
370
    -1
  9
$ENDCAPS
280
     0
  9
$JOINSTYLE
280
     0
  9
$LWDISPLAY
290
     0
  9
$INSUNITS
 70
     0
  9
$HYPERLINKBASE
  1
HTTP://WWW.SECOTOOLS.COM/
  9
$STYLESHEET
  1
MONOCHROME.CTB
  9
$XEDIT
290
     1
  9
$CEPSNTYPE
380
     0
  9
$PSTYLEMODE
290
     1
  9
$FINGERPRINTGUID
  2
{6BD734E8-F938-48FB-95F3-787F8196118E}
  9
$VERSIONGUID
  2
{1FA1BF6B-1868-48DC-A74A-570E33337EFE}
  9
$EXTNAMES
290
     1
  9
$PSVPSCALE
 40
0.0
  9
$OLESTARTUP
290
     0
  0
ENDSEC
  0
SECTION
  2
CLASSES
  0
CLASS
  1
ACDBDICTIONARYWDFLT
  2
AcDbDictionaryWithDefault
  3
ObjectDBX Classes
 90
        0
280
     0
281
     0
  0
CLASS
  1
ACDBPLACEHOLDER
  2
AcDbPlaceHolder
  3
ObjectDBX Classes
 90
        0
280
     0
281
     0
  0
CLASS
  1
LAYOUT
  2
AcDbLayout
  3
ObjectDBX Classes
 90
        0
280
     0
281
     0
  0
CLASS
  1
DICTIONARYVAR
  2
AcDbDictionaryVar
  3
ObjectDBX Classes
 90
        0
280
     0
281
     0
  0
CLASS
  1
TABLESTYLE
  2
AcDbTableStyle
  3
ObjectDBX Classes
 90
     4095
280
     0
281
     0
  0
CLASS
  1
MATERIAL
  2
AcDbMaterial
  3
ObjectDBX Classes
 90
     1153
280
     0
281
     0
  0
CLASS
  1
VISUALSTYLE
  2
AcDbVisualStyle
  3
ObjectDBX Classes
 90
     4095
280
     0
281
     0
  0
CLASS
  1
SCALE
  2
AcDbScale
  3
ObjectDBX Classes
 90
     1153
280
     0
281
     0
  0
CLASS
  1
MLEADERSTYLE
  2
AcDbMLeaderStyle
  3
ACDB_MLEADERSTYLE_CLASS
 90
     4095
280
     0
281
     0
  0
CLASS
  1
ACME_DOCUMENT
  2
AcMeDbDoc
  3
AcMeServices
 90
     1024
280
     0
281
     0
  0
CLASS
  1
AMGSETTINGSOBJ
  2
AmgSettingsObj
  3
"AcadM|Product Description: AutoCAD Mechanical|Company: Autodesk, Inc."
 90
     1024
280
     0
281
     0
  0
CLASS
  1
ACMESCOPE
  2
AcMeScope
  3
AcMeServices
 90
     1024
280
     0
281
     0
  0
CLASS
  1
ACMECOMMANDHISTORY
  2
AcMeCommandHistory
  3
AcMeServices
 90
     1024
280
     0
281
     0
  0
CLASS
  1
ACIMSYSVARMAN
  2
AcImSysVarManager
  3
AcMeServices
 90
     1024
280
     0
281
     0
  0
CLASS
  1
ACIMINTSYSVAR
  2
AcImIntSysVar
  3
AcMeServices
 90
     1024
280
     0
281
     0
  0
CLASS
  1
ACMEDRAWINGMAN
  2
AcMeDrawingMan
  3
AcMeServices
 90
    33792
280
     0
281
     0
  0
CLASS
  1
ACMEVIEW
  2
AcMeView
  3
AcMeServices
 90
    33792
280
     0
281
     0
  0
CLASS
  1
ACDBENTITYCACHE
  2
AcMeEntityCache
  3
AcMeServices
 90
     1024
280
     0
281
     0
  0
CLASS
  1
GSMANAGER
  2
AcMeGSManager
  3
AcMeServices
 90
    33792
280
     0
281
     0
  0
CLASS
  1
AMDTINTERNALREACTOR
  2
AmdtInternalReactor
  3
AcMeServices
 90
    33792
280
     0
281
     0
  0
CLASS
  1
ACMESTATEMGR
  2
AcMeStateMgr
  3
AcMeServices
 90
     1024
280
     0
281
     0
  0
CLASS
  1
ACGREFMASTER
  2
AcGrefMaster
  3
AcAttribServices
 90
     1024
280
     0
281
     0
  0
CLASS
  1
AM_DRAWING_MGR
  2
AcDmDwgMgr
  3
AcMechDwgViewMgmt
 90
    33792
280
     0
281
     0
  0
CLASS
  1
AM_DWG_DOCUMENT
  2
AcDmDwgDocument
  3
AcMechDwgViewMgmt
 90
    33792
280
     0
281
     0
  0
CLASS
  1
AM_DWG_SHEET
  2
AcDmSheet
  3
AcMechDwgViewMgmt
 90
    33792
280
     0
281
     0
  0
CLASS
  1
AM_VIEWDIMPARMAP
  2
AcDmViewDimParMap
  3
AcMechDwgViewMgmt
 90
    33792
280
     0
281
     0
  0
CLASS
  1
ACIMREALSYSVAR
  2
AcImRealSysVar
  3
AcMeServices
 90
    33792
280
     0
281
     0
  0
CLASS
  1
AM_DWGMGR_NAME
  2
AcDmDwgMgrName
  3
AcMechDwgViewMgmt
 90
    33792
280
     0
281
     0
  0
CLASS
  1
ACME_DATABASE
  2
AcMeDbDatabase
  3
AcMeServices
 90
     1024
280
     0
281
     0
  0
CLASS
  1
ACRFINSADJUSTERMGR
  2
AcRfInsAdjusterMgr
  3
AcMeServices
 90
     1024
280
     0
281
     0
  0
CLASS
  1
ACGREFACADMASTER
  2
AcGrefacadMaster
  3
AcGrefServices
 90
     1024
280
     0
281
     0
  0
CLASS
  1
AMDTMENUSTATEMGR
  2
AmdtMenuStateMgr
  3
McadcomServices
 90
     1024
280
     0
281
     0
  0
CLASS
  1
AMDTMCOMMENUSTATE
  2
AmdtMcomMenuState
  3
McadcomServices
 90
     1024
280
     0
281
     0
  0
CLASS
  1
AMIMASTER
  2
AmiMaster
  3
AmiServices
 90
     1024
280
     0
281
     0
  0
CLASS
  1
MAPIAMMOUDLE
  2
MApiAmModule
  3
MApiAmServices
 90
     1024
280
     0
281
     0
  0
CLASS
  1
ACIMSTRSYSVAR
  2
AcImStrSysVar
  3
AcMeServices
 90
     1024
280
     0
281
     0
  0
CLASS
  1
AMDTADMENUSTATE
  2
AmdtAdMenuState
  3
DesignerServices
 90
    33792
280
     0
281
     0
  0
CLASS
  1
ADAPPL
  2
AcAdAppl
  3
DesignerAssemblies
 90
    33792
280
     0
281
     0
  0
CLASS
  1
DEPMGR
  2
AcAdDepMgr
  3
DesignerAssemblies
 90
    33792
280
     0
281
     0
  0
CLASS
  1
PARAMMGR
  2
AcAdParamMgr
  3
DesignerAssemblies
 90
    33792
280
     0
281
     0
  0
CLASS
  1
PARAMSCOPE
  2
AcAdParamScope
  3
DesignerAssemblies
 90
    33792
280
     0
281
     0
  0
CLASS
  1
NAMEDAPPL
  2
AcAdNamedAppl
  3
DesignerAssemblies
 90
    33792
280
     0
281
     0
  0
CLASS
  1
AMDTDMMENUSTATE
  2
AmdtDmMenuState
  3
AcMechDwgViewMgmt
 90
    33792
280
     0
281
     0
  0
CLASS
  1
AMDTAMMENUSTATE
  2
AmdtAmMenuState
  3
DesignerAssemblies
 90
     1024
280
     0
281
     0
  0
CLASS
  1
ACAMPROJECT
  2
AcAmProject
  3
DesignerAssemblies
 90
     1024
280
     0
281
     0
  0
CLASS
  1
ACAMGRCOMPDEF
  2
AcAmGrCompDef
  3
DesignerAssemblies
 90
     1024
280
     0
281
     0
  0
CLASS
  1
ACCMCONTEXT
  2
AcCmContext
  3
DesignerAssemblies
 90
    33792
280
     0
281
     0
  0
CLASS
  1
ACAMCOMPDEF
  2
AcAmCompDef
  3
DesignerAssemblies
 90
     1024
280
     0
281
     0
  0
CLASS
  1
ACAMCOMPDEFMGR
  2
AcAmCompDefMgr
  3
DesignerAssemblies
 90
     1024
280
     0
281
     0
  0
CLASS
  1
AMCONTEXTMGR
  2
AcAmContextMgr
  3
DesignerAssemblies
 90
     1024
280
     0
281
     0
  0
CLASS
  1
ACAMCONTEXTMODELER
  2
AcAmContextModeler
  3
DesignerAssemblies
 90
     1024
280
     0
281
     0
  0
CLASS
  1
ACMDATADICTIONARY
  2
AcmDataDictionary
  3
"AcmSymBB|Product Description: AutoCAD Mechanical|Company: Autodesk, Inc."
 90
     1024
280
     0
281
     0
  0
CLASS
  1
CATALOGSTATE
  2
AcAmCatalogState
  3
DesignerAssemblies
 90
    33792
280
     0
281
     0
  0
CLASS
  1
ACAMGRCOMPDEFSET
  2
AcAmGrCompDefSet
  3
DesignerAssemblies
 90
     1024
280
     0
281
     0
  0
CLASS
  1
AMDTBROWSERDBTAB
  2
AmdtBrowserDbTab
  3
McadcomServices
 90
     1024
280
     0
281
     0
  0
CLASS
  1
CBROWSERAPPOBJECT
  2
CBrowserAppObject
  3
McadcomServices
 90
     1024
280
     0
281
     0
  0
CLASS
  1
DM_PLACEHOLDER
  2
AcDmSelsetPlaceholder
  3
McadcomServices
 90
     1024
280
     0
281
     0
  0
CLASS
  1
ACMSTANDARDDIN
  2
AcmStandardDIN
  3
"Amdt_StdImp|Product Description: AutoCAD Mechanical|Company: Autodesk, Inc."
 90
    33792
280
     0
281
     0
  0
CLASS
  1
AMGOBJPROPCFG
  2
AmgObjPropCfg
  3
"AmgLay|Product Description: AutoCAD Mechanical|Company: Autodesk, Inc."
 90
     1024
280
     0
281
     0
  0
CLASS
  1
AMDTEDGESTANDARDDIN13715
  2
AmdtEdgeStdDIN13715
  3
"Amdt_StdImp|Product Description: AutoCAD Mechanical|Company: Autodesk, Inc."
 90
    33792
280
     0
281
     0
  0
CLASS
  1
ACMSURFSTANDARDDIN2002
  2
AcmSurfTextStdDIN2002
  3
"Amdt_StdImp|Product Description: AutoCAD Mechanical|Company: Autodesk, Inc."
 90
    33792
280
     0
281
     0
  0
CLASS
  1
ACMFCFSTANDARDDIN
  2
AcmFCFStdDIN
  3
"Amdt_StdImp|Product Description: AutoCAD Mechanical|Company: Autodesk, Inc."
 90
    33792
280
     0
281
     0
  0
CLASS
  1
ACMWELDSTANDARDDIN
  2
AcmWeldingStdDIN
  3
"Amdt_StdImp|Product Description: AutoCAD Mechanical|Company: Autodesk, Inc."
 90
    33792
280
     0
281
     0
  0
CLASS
  1
ACMIDSTANDARDDIN
  2
AcmIdStdDIN
  3
"Amdt_StdImp|Product Description: AutoCAD Mechanical|Company: Autodesk, Inc."
 90
    33792
280
     0
281
     0
  0
CLASS
  1
ACMDATUMSTANDARDDIN
  2
AcmDatumStdDIN
  3
"Amdt_StdImp|Product Description: AutoCAD Mechanical|Company: Autodesk, Inc."
 90
    33792
280
     0
281
     0
  0
CLASS
  1
ACMBOMSTANDARDDIN
  2
AcmBOMStdDIN
  3
"Amdt_StdImp|Product Description: AutoCAD Mechanical|Company: Autodesk, Inc."
 90
    33792
280
     0
281
     0
  0
CLASS
  1
ACMDETAILSTANDARDDIN
  2
AmdtDetailSymStdDIN
  3
"Amdt_StdImp|Product Description: AutoCAD Mechanical|Company: Autodesk, Inc."
 90
    33792
280
     0
281
     0
  0
CLASS
  1
ACMSECTIONSTANDARDDIN
  2
AmdtSectionSymStdDIN
  3
"Amdt_StdImp|Product Description: AutoCAD Mechanical|Company: Autodesk, Inc."
 90
    33792
280
     0
281
     0
  0
CLASS
  1
ACMCENTERLINESTANDARDDIN
  2
AmdtCenterLineStdDIN
  3
"Amdt_StdImp|Product Description: AutoCAD Mechanical|Company: Autodesk, Inc."
 90
    33792
280
     0
281
     0
  0
CLASS
  1
ACMTHREADLINESTANDARDDIN
  2
AmdtThreadLineStdDIN
  3
"Amdt_StdImp|Product Description: AutoCAD Mechanical|Company: Autodesk, Inc."
 90
    33792
280
     0
281
     0
  0
CLASS
  1
ACMNOTESTANDARDDIN
  2
AmdtNoteStdDIN
  3
"Amdt_StdImp|Product Description: AutoCAD Mechanical|Company: Autodesk, Inc."
 90
    33792
280
     0
281
     0
  0
CLASS
  1
ACMTAPERSTANDARDDIN
  2
AcmTaperStdDIN
  3
"Amdt_StdImp|Product Description: AutoCAD Mechanical|Company: Autodesk, Inc."
 90
    33792
280
     0
281
     0
  0
CLASS
  1
ACMANOOTATIONVIEWSTANDARDDIN
  2
AmdtAnViewStdDIN
  3
"Amdt_StdImp|Product Description: AutoCAD Mechanical|Company: Autodesk, Inc."
 90
    33792
280
     0
281
     0
  0
CLASS
  1
AMDTNOTETEMPLATEDB
  2
AmdtNoteTemplateDB
  3
AcmSymBB|Product Description: AutoCAD Mechanical|Company: Autodesk, Inc.
 90
     1024
280
     0
281
     0
  0
CLASS
  1
ACAMGLAYSTD
  2
AcAmgLayStd
  3
"AmgLay|Product Description: AutoCAD Mechanical|Company: Autodesk, Inc."
 90
     1024
280
     0
281
     0
  0
CLASS
  1
ACAMGDIMSTD
  2
AcAmgDimStd
  3
"AmgDim|Product Description: AutoCAD Mechanical|Company: Autodesk, Inc."
 90
     1024
280
     0
281
     0
  0
CLASS
  1
ACAMGHOLECHARTSTDDIN
  2
AcAmgHoleChartStdDIN
  3
AmgDim|Product Description: AutoCAD Mechanical|Company: Autodesk, Inc.
 90
    33792
280
     0
281
     0
  0
CLASS
  1
ACAMGTITLESTD
  2
AcAmgTitleStd
  3
"AmgTitle|Product Description: AutoCAD Mechanical|Company: Autodesk, Inc."
 90
     1024
280
     0
281
     0
  0
CLASS
  1
ACAMGFILTERDAT
  2
AcAmgFilterDat
  3
"AcadM|Product Description: AutoCAD Mechanical|Company: Autodesk, Inc."
 90
    33792
280
     0
281
     0
  0
CLASS
  1
CAMSSTRUCTBTNSTATE
  2
StructBtnState
  3
DesignerAssemblies
 90
     1024
280
     0
281
     0
  0
CLASS
  1
CELLSTYLEMAP
  2
AcDbCellStyleMap
  3
ObjectDBX Classes
 90
     1152
280
     0
281
     0
  0
CLASS
  1
SORTENTSTABLE
  2
AcDbSortentsTable
  3
ObjectDBX Classes
 90
        0
280
     0
281
     0
  0
CLASS
  1
PLOTSETTINGS
  2
AcDbPlotSettings
  3
ObjectDBX Classes
 90
        0
280
     0
281
     0
  0
CLASS
  1
SOLID_BACKGROUND
  2
AcDbSolidBackground
  3
SCENEOE
 90
    36863
280
     0
281
     0
  0
CLASS
  1
NPOCOLLECTION
  2
AcDbImpNonPersistentObjectsCollection
  3
ObjectDBX Classes
 90
     1153
280
     0
281
     0
  0
CLASS
  1
ACDBSECTIONVIEWSTYLE
  2
AcDbSectionViewStyle
  3
ObjectDBX Classes
 90
     1025
280
     0
281
     0
  0
CLASS
  1
ACDBDETAILVIEWSTYLE
  2
AcDbDetailViewStyle
  3
ObjectDBX Classes
 90
     1025
280
     0
281
     0
  0
CLASS
  1
ACMSECTIONSTANDARDCUSTOM
  2
AmdtSectionSymStdCustom
  3
"Amdt_StdImp|Product Description: AutoCAD Mechanical|Company: Autodesk, Inc."
 90
     1024
280
     0
281
     0
  0
CLASS
  1
ACMDETAILTANDARDCUSTOM
  2
AmdtDetailSymStdCustom
  3
"Amdt_StdImp|Product Description: AutoCAD Mechanical|Company: Autodesk, Inc."
 90
     1024
280
     0
281
     0
  0
CLASS
  1
FIELD
  2
AcDbField
  3
ObjectDBX Classes
 90
     1152
280
     0
281
     0
  0
CLASS
  1
FIELDLIST
  2
AcDbFieldList
  3
ObjectDBX Classes
 90
     1152
280
     0
281
     0
  0
CLASS
  1
DIMASSOC
  2
AcDbDimAssoc
  3
"AcDbDimAssoc|Product Desc:     AcDim ARX App For Dimension|Company:          Autodesk, Inc.|WEB Address:      www.autodesk.com"
 90
    32768
280
     0
281
     0
  0
CLASS
  1
ACMSTANDARDISO
  2
AcmStandardISO
  3
"Amdt_StdImp|Product Description: AutoCAD Mechanical|Company: Autodesk, Inc."
 90
     1024
280
     0
281
     0
  0
CLASS
  1
AMDTEDGESTANDARDISO13715
  2
AmdtEdgeStdISO13715
  3
"Amdt_StdImp|Product Description: AutoCAD Mechanical|Company: Autodesk, Inc."
 90
     1024
280
     0
281
     0
  0
CLASS
  1
ACMSURFSTANDARDISO2002
  2
AcmSurfTextStdISO2002
  3
"Amdt_StdImp|Product Description: AutoCAD Mechanical|Company: Autodesk, Inc."
 90
     1024
280
     0
281
     0
  0
CLASS
  1
ACMFCFSTANDARDISO2004
  2
AcmFCFStdISO2004
  3
"Amdt_StdImp|Product Description: AutoCAD Mechanical|Company: Autodesk, Inc."
 90
     1024
280
     0
281
     0
  0
CLASS
  1
ACMWELDSTANDARDISO
  2
AcmWeldingStdISO
  3
"Amdt_StdImp|Product Description: AutoCAD Mechanical|Company: Autodesk, Inc."
 90
     1024
280
     0
281
     0
  0
CLASS
  1
ACMIDSTANDARDISO2004
  2
AcmIdStdISO2004
  3
"Amdt_StdImp|Product Description: AutoCAD Mechanical|Company: Autodesk, Inc."
 90
     1024
280
     0
281
     0
  0
CLASS
  1
ACMDATUMSTANDARDISO
  2
AcmDatumStdISO
  3
"Amdt_StdImp|Product Description: AutoCAD Mechanical|Company: Autodesk, Inc."
 90
     1024
280
     0
281
     0
  0
CLASS
  1
ACMBOMSTANDARDISO
  2
AcmBOMStdISO
  3
"Amdt_StdImp|Product Description: AutoCAD Mechanical|Company: Autodesk, Inc."
 90
     1024
280
     0
281
     0
  0
CLASS
  1
ACMDETAILSTANDARDISO
  2
AmdtDetailSymStdISO
  3
"Amdt_StdImp|Product Description: AutoCAD Mechanical|Company: Autodesk, Inc."
 90
     1024
280
     0
281
     0
  0
CLASS
  1
ACMSECTIONSTANDARDISO2001
  2
AmdtSectionSymStdISO2001
  3
"Amdt_StdImp|Product Description: AutoCAD Mechanical|Company: Autodesk, Inc."
 90
     1024
280
     0
281
     0
  0
CLASS
  1
ACMCENTERLINESTANDARDISO
  2
AmdtCenterLineStdISO
  3
"Amdt_StdImp|Product Description: AutoCAD Mechanical|Company: Autodesk, Inc."
 90
     1024
280
     0
281
     0
  0
CLASS
  1
ACMTHREADLINESTANDARDISO
  2
AmdtThreadLineStdISO
  3
"Amdt_StdImp|Product Description: AutoCAD Mechanical|Company: Autodesk, Inc."
 90
     1024
280
     0
281
     0
  0
CLASS
  1
ACMNOTESTANDARDISO
  2
AmdtNoteStdISO
  3
"Amdt_StdImp|Product Description: AutoCAD Mechanical|Company: Autodesk, Inc."
 90
     1024
280
     0
281
     0
  0
CLASS
  1
ACMTAPERSTANDARDISO
  2
AcmTaperStdISO
  3
"Amdt_StdImp|Product Description: AutoCAD Mechanical|Company: Autodesk, Inc."
 90
     1024
280
     0
281
     0
  0
CLASS
  1
ACMANOOTATIONVIEWSTANDARDISO
  2
AmdtAnViewStdISO
  3
"Amdt_StdImp|Product Description: AutoCAD Mechanical|Company: Autodesk, Inc."
 90
     1024
280
     0
281
     0
  0
CLASS
  1
ACAMGHOLECHARTSTDISO
  2
AcAmgHoleChartStdISO
  3
AmgDim|Product Description: AutoCAD Mechanical|Company: Autodesk, Inc.
 90
     1024
280
     0
281
     0
  0
CLASS
  1
EXACXREFPANELOBJECT
  2
ExAcXREFPanelObject
  3
EXAC_ESW
 90
     1025
280
     0
281
     0
  0
ENDSEC
  0
SECTION
  2
TABLES
  0
TABLE
  2
VPORT
  5
8
102
{ACAD_XDICTIONARY
360
A45
102
}
330
0
100
AcDbSymbolTable
 70
     1
  0
VPORT
  5
AD1
330
8
100
AcDbSymbolTableRecord
100
AcDbViewportTableRecord
  2
*Active
 70
     0
 10
0.0
 20
0.0
 11
1.0
 21
1.0
 12
160.1756226202421
 22
157.5095378753142
 13
0.0
 23
0.0
 14
5.0
 24
5.0
 15
5.0
 25
5.0
 16
0.0
 26
0.0
 36
1.0
 17
0.0
 27
0.0
 37
0.0
 40
77.54788114847709
 41
1.834685598377282
 42
50.0
 43
0.0
 44
0.0
 50
0.0
 51
0.0
 71
     0
 72
  2000
 73
     1
 74
     3
 75
     0
 76
     0
 77
     0
 78
     0
281
     0
 65
     0
110
129.297009682103
120
155.4484922970154
130
0.0
111
0.9999999999979328
121
0.0000020333364383
131
0.0
112
-0.0000020333364383
122
0.9999999999979328
132
0.0
 79
     0
146
0.0
1001
ACAD_NAV_VCDISPLAY
1070
     3
  0
ENDTAB
  0
TABLE
  2
LTYPE
  5
5
330
0
100
AcDbSymbolTable
 70
    12
  0
LTYPE
  5
12
330
5
100
AcDbSymbolTableRecord
100
AcDbLinetypeTableRecord
  2
BYBLOCK
 70
     0
  3

 72
    65
 73
     0
 40
0.0
  0
LTYPE
  5
13
330
5
100
AcDbSymbolTableRecord
100
AcDbLinetypeTableRecord
  2
BYLAYER
 70
     0
  3

 72
    65
 73
     0
 40
0.0
  0
LTYPE
  5
1808
330
5
100
AcDbSymbolTableRecord
100
AcDbLinetypeTableRecord
  2
Continuous
 70
     0
  3
Solid line
 72
    65
 73
     0
 40
0.0
  0
LTYPE
  5
4EF
330
5
100
AcDbSymbolTableRecord
100
AcDbLinetypeTableRecord
  2
ACDINWELD
 70
     0
  3
_ _ _ _ _
 72
    65
 73
     2
 40
2.0
 49
2.0
 74
     0
 49
-1.0
 74
     0
  0
LTYPE
  5
4F0
330
5
100
AcDbSymbolTableRecord
100
AcDbLinetypeTableRecord
  2
ACDINTGB
 70
     0
  3
__ . . __ . .
 72
    65
 73
     6
 40
9.0
 49
4.0
 74
     0
 49
-1.0
 74
     0
 49
1.0
 74
     0
 49
-1.0
 74
     0
 49
1.0
 74
     0
 49
-1.0
 74
     0
  0
LTYPE
  5
4F1
330
5
100
AcDbSymbolTableRecord
100
AcDbLinetypeTableRecord
  2
ACDINTGL
 70
     0
  3
_ _ _ _ _
 72
    65
 73
     2
 40
3.0
 49
2.0
 74
     0
 49
-1.0
 74
     0
  0
LTYPE
  5
916
330
5
100
AcDbSymbolTableRecord
100
AcDbLinetypeTableRecord
  2
LONGDASH_DASH
 70
     0
  3
ISO center line ____ _ ____ _ ____ _ ____ _ ___ _ ___
 72
    65
 73
     4
 40
10.5
 49
6.0
 74
     0
 49
-0.75
 74
     0
 49
3.0
 74
     0
 49
-0.75
 74
     0
  0
LTYPE
  5
917
330
5
100
AcDbSymbolTableRecord
100
AcDbLinetypeTableRecord
  2
DASH
 70
     0
  3
ISO hidden line __ __ __ __ __ __ __ __ __ __ __ __ __
 72
    65
 73
     2
 40
3.75
 49
3.0
 74
     0
 49
-0.75
 74
     0
  0
LTYPE
  5
CFA
330
5
100
AcDbSymbolTableRecord
100
AcDbLinetypeTableRecord
  2
HIDDEN
 70
     0
  3
Hidden __ __ __ __ __ __ __ __ __ __ __ __ __ _
 72
    65
 73
     2
 40
9.524999999999996
 49
6.349999999999997
 74
     0
 49
-3.174999999999998
 74
     0
  0
LTYPE
  5
CFB
330
5
100
AcDbSymbolTableRecord
100
AcDbLinetypeTableRecord
  2
PHANTOM2
 70
     0
  3
Phantom (.5x) ___ _ _ ___ _ _ ___ _ _ ___ _ _
 72
    65
 73
     6
 40
31.75
 49
15.875
 74
     0
 49
-3.174999999999998
 74
     0
 49
3.174999999999998
 74
     0
 49
-3.174999999999998
 74
     0
 49
3.174999999999998
 74
     0
 49
-3.174999999999998
 74
     0
  0
LTYPE
  5
CFC
330
5
100
AcDbSymbolTableRecord
100
AcDbLinetypeTableRecord
  2
CENTER
 70
     0
  3
Center ____ _ ____ _ ____ _ ____ _ ____ _ ____
 72
    65
 73
     4
 40
50.8
 49
31.75
 74
     0
 49
-6.349999999999997
 74
     0
 49
6.349999999999997
 74
     0
 49
-6.349999999999997
 74
     0
  0
LTYPE
  5
185D
330
5
100
AcDbSymbolTableRecord
100
AcDbLinetypeTableRecord
  2
ACISOWELD
 70
     0
  3
_ _ _ _ _
 72
    65
 73
     2
 40
2.0
 49
2.0
 74
     0
 49
-1.0
 74
     0
  0
LTYPE
  5
185E
330
5
100
AcDbSymbolTableRecord
100
AcDbLinetypeTableRecord
  2
ACISOTGL
 70
     0
  3
_ _ _ _ _
 72
    65
 73
     2
 40
3.0
 49
2.0
 74
     0
 49
-1.0
 74
     0
  0
LTYPE
  5
185F
330
5
100
AcDbSymbolTableRecord
100
AcDbLinetypeTableRecord
  2
ACISOTGB
 70
     0
  3
__ . . __ . .
 72
    65
 73
     6
 40
9.0
 49
4.0
 74
     0
 49
-1.0
 74
     0
 49
1.0
 74
     0
 49
-1.0
 74
     0
 49
1.0
 74
     0
 49
-1.0
 74
     0
  0
ENDTAB
  0
TABLE
  2
LAYER
  5
2
102
{ACAD_XDICTIONARY
360
43C
102
}
330
0
100
AcDbSymbolTable
 70
    10
  0
LAYER
  5
F
102
{ACAD_XDICTIONARY
360
52D
102
}
330
2
100
AcDbSymbolTableRecord
100
AcDbLayerTableRecord
  2
0
 70
     0
 62
     7
  6
Continuous
290
     0
370
    -3
390
300
  0
LAYER
  5
23
102
{ACAD_XDICTIONARY
360
52F
102
}
330
2
100
AcDbSymbolTableRecord
100
AcDbLayerTableRecord
  2
1
 70
     0
 62
     4
  6
Continuous
370
    50
390
300
  0
LAYER
  5
24
102
{ACAD_XDICTIONARY
360
531
102
}
330
2
100
AcDbSymbolTableRecord
100
AcDbLayerTableRecord
  2
SK1
 70
     0
 62
     4
  6
Continuous
370
    50
390
300
  0
LAYER
  5
25
102
{ACAD_XDICTIONARY
360
533
102
}
330
2
100
AcDbSymbolTableRecord
100
AcDbLayerTableRecord
  2
2
 70
     0
 62
     7
  6
Continuous
370
    25
390
300
  0
LAYER
  5
27
102
{ACAD_XDICTIONARY
360
537
102
}
330
2
100
AcDbSymbolTableRecord
100
AcDbLayerTableRecord
  2
SK2
 70
     0
 62
     7
  6
Continuous
370
    25
390
300
  0
LAYER
  5
28
102
{ACAD_XDICTIONARY
360
539
102
}
330
2
100
AcDbSymbolTableRecord
100
AcDbLayerTableRecord
  2
3
 70
     0
 62
     1
  6
DASH
370
    35
390
300
  0
LAYER
  5
2A
102
{ACAD_XDICTIONARY
360
53D
102
}
330
2
100
AcDbSymbolTableRecord
100
AcDbLayerTableRecord
  2
4
 70
     0
 62
     2
  6
LONGDASH_DASH
370
    25
390
300
  0
LAYER
  5
2B
102
{ACAD_XDICTIONARY
360
53F
102
}
330
2
100
AcDbSymbolTableRecord
100
AcDbLayerTableRecord
  2
SK4
 70
     0
 62
     2
  6
LONGDASH_DASH
370
    25
390
300
  0
LAYER
  5
2E
102
{ACAD_XDICTIONARY
360
545
102
}
330
2
100
AcDbSymbolTableRecord
100
AcDbLayerTableRecord
  2
SK6
 70
     0
 62
     5
  6
Continuous
370
    35
390
300
  0
LAYER
  5
1A05
330
2
100
AcDbSymbolTableRecord
100
AcDbLayerTableRecord
  2
Defpoints
 70
     0
 62
     7
  6
Continuous
290
     0
370
    -3
390
300
  0
ENDTAB
  0
TABLE
  2
STYLE
  5
3
330
0
100
AcDbSymbolTable
 70
     8
  0
STYLE
  5
10
330
3
100
AcDbSymbolTableRecord
100
AcDbTextStyleTableRecord
  2
STANDARD
 70
     0
 40
0.0
 41
1.0
 50
0.0
 71
     0
 42
5.0
  3
monos.ttf
  4

1001
ACAD
1000
Monospac821 BT
1071
       49
  0
STYLE
  5
1E
330
3
100
AcDbSymbolTableRecord
100
AcDbTextStyleTableRecord
  2
STANDARD 5 mm
 70
     0
 40
5.0
 41
1.0
 50
0.0
 71
     0
 42
3.5
  3
monos.ttf
  4

1001
ACAD
1000
Monospac821 BT
1071
       49
  0
STYLE
  5
4DF
330
3
100
AcDbSymbolTableRecord
100
AcDbTextStyleTableRecord
  2
ACDINTS
 70
     0
 40
1.0
 41
1.0
 50
0.0
 71
     0
 42
3.5
  3
monos.ttf
  4

1001
ACAD
1000
Monospac821 BT
1071
       49
  0
STYLE
  5
4EE
330
3
100
AcDbSymbolTableRecord
100
AcDbTextStyleTableRecord
  2
ACDINGDT
 70
     0
 40
0.0
 41
1.0
 50
0.0
 71
     0
 42
3.5
  3
monos.ttf
  4

1001
ACAD
1000
Monospac821 BT
1071
       49
  0
STYLE
  5
7DE
330
3
100
AcDbSymbolTableRecord
100
AcDbTextStyleTableRecord
  2
STANDARD 3.5 mm
 70
     0
 40
3.5
 41
1.0
 50
0.0
 71
     0
 42
3.5
  3
monos.ttf
  4

1001
ACAD
1000
Monospac821 BT
1071
       49
  0
STYLE
  5
E90
330
3
100
AcDbSymbolTableRecord
100
AcDbTextStyleTableRecord
  2
USER1
 70
     0
 40
0.0
 41
1.0
 50
0.0
 71
     0
 42
5.0
  3
TXT.SHX
  4

  0
STYLE
  5
185B
330
3
100
AcDbSymbolTableRecord
100
AcDbTextStyleTableRecord
  2
ACISOTS
 70
     0
 40
0.0
 41
1.0
 50
0.0
 71
     0
 42
5.0
  3
isocp.shx
  4

  0
STYLE
  5
185C
330
3
100
AcDbSymbolTableRecord
100
AcDbTextStyleTableRecord
  2
ACISOGDT
 70
     0
 40
0.0
 41
1.0
 50
0.0
 71
     0
 42
5.0
  3
amgdt.shx
  4

  0
ENDTAB
  0
TABLE
  2
VIEW
  5
6
330
0
100
AcDbSymbolTable
 70
     6
  0
VIEW
  5
758
330
6
100
AcDbSymbolTableRecord
100
AcDbViewTableRecord
  2
AM_VIEW1
 70
     1
 40
148.5265045166015
 10
121.0318359737553
 20
219.614756822586
 41
248.4136475334483
 11
0.0
 21
0.0
 31
1.0
 12
0.0
 22
0.0
 32
0.0
 42
50.0
 43
0.0
 44
0.0
 50
0.0
 71
     0
281
     0
 72
     0
  0
VIEW
  5
759
330
6
100
AcDbSymbolTableRecord
100
AcDbViewTableRecord
  2
AM_VIEW2
 70
     1
 40
148.5265045166015
 10
292.4378600711665
 20
219.614756822586
 41
248.4136475334483
 11
0.0
 21
0.0
 31
1.0
 12
0.0
 22
0.0
 32
0.0
 42
50.0
 43
0.0
 44
0.0
 50
0.0
 71
     0
281
     0
 72
     0
  0
VIEW
  5
75A
330
6
100
AcDbSymbolTableRecord
100
AcDbViewTableRecord
  2
AM_VIEW3
 70
     1
 40
148.5265045166015
 10
121.0318359737553
 20
71.0882523059845
 41
248.4136475334483
 11
0.0
 21
0.0
 31
1.0
 12
0.0
 22
0.0
 32
0.0
 42
50.0
 43
0.0
 44
0.0
 50
0.0
 71
     0
281
     0
 72
     0
  0
VIEW
  5
75B
330
6
100
AcDbSymbolTableRecord
100
AcDbViewTableRecord
  2
AM_VIEW4
 70
     1
 40
148.5265045166015
 10
292.4378600711665
 20
71.0882523059845
 41
248.4136475334483
 11
0.0
 21
0.0
 31
1.0
 12
0.0
 22
0.0
 32
0.0
 42
50.0
 43
0.0
 44
0.0
 50
0.0
 71
     0
281
     0
 72
     0
  0
VIEW
  5
75C
330
6
100
AcDbSymbolTableRecord
100
AcDbViewTableRecord
  2
AM_VIEW5
 70
     1
 40
148.5265045166015
 10
206.7348480224609
 20
145.3515045642852
 41
248.4136475334483
 11
0.0
 21
0.0
 31
1.0
 12
0.0
 22
0.0
 32
0.0
 42
50.0
 43
0.0
 44
0.0
 50
0.0
 71
     0
281
     0
 72
     0
  0
VIEW
  5
75D
330
6
100
AcDbSymbolTableRecord
100
AcDbViewTableRecord
  2
AM_VIEW6
 70
     1
 40
297.0500385031128
 10
206.7348480224609
 20
145.3515045642852
 41
496.8223267939458
 11
0.0
 21
0.0
 31
1.0
 12
0.0
 22
0.0
 32
0.0
 42
50.0
 43
0.0
 44
0.0
 50
0.0
 71
     0
281
     0
 72
     0
  0
ENDTAB
  0
TABLE
  2
UCS
  5
7
330
0
100
AcDbSymbolTable
 70
     0
  0
ENDTAB
  0
TABLE
  2
APPID
  5
9
330
0
100
AcDbSymbolTable
 70
    39
  0
APPID
  5
11
330
9
100
AcDbSymbolTableRecord
100
AcDbRegAppTableRecord
  2
ACAD
 70
     0
  0
APPID
  5
3A6
330
9
100
AcDbSymbolTableRecord
100
AcDbRegAppTableRecord
  2
ACAD_PSEXT
 70
     0
  0
APPID
  5
3A8
330
9
100
AcDbSymbolTableRecord
100
AcDbRegAppTableRecord
  2
ACAD_EXEMPT_FROM_CAD_STANDARDS
 70
     0
  0
APPID
  5
433
330
9
100
AcDbSymbolTableRecord
100
AcDbRegAppTableRecord
  2
AcAecLayerStandard
 70
     0
  0
APPID
  5
471
330
9
100
AcDbSymbolTableRecord
100
AcDbRegAppTableRecord
  2
ACAD_MLEADERVER
 70
     0
  0
APPID
  5
47D
330
9
100
AcDbSymbolTableRecord
100
AcDbRegAppTableRecord
  2
MCAD_NO_VIS
 70
     0
  0
APPID
  5
47E
330
9
100
AcDbSymbolTableRecord
100
AcDbRegAppTableRecord
  2
ACAD_TEMP_GRAPHIC
 70
     0
  0
APPID
  5
4AC
330
9
100
AcDbSymbolTableRecord
100
AcDbRegAppTableRecord
  2
AD_DRAW
 70
     0
  0
APPID
  5
4AF
330
9
100
AcDbSymbolTableRecord
100
AcDbRegAppTableRecord
  2
ACATTRIBSERVICES
 70
     0
  0
APPID
  5
4D0
330
9
100
AcDbSymbolTableRecord
100
AcDbRegAppTableRecord
  2
DESIGNERASSEMBLIES
 70
     0
  0
APPID
  5
4D6
330
9
100
AcDbSymbolTableRecord
100
AcDbRegAppTableRecord
  2
ACADM_DIM_EDIT
 70
     0
  0
APPID
  5
4D7
330
9
100
AcDbSymbolTableRecord
100
AcDbRegAppTableRecord
  2
AMDT_DM_ADJ
 70
     0
  0
APPID
  5
5CD
330
9
100
AcDbSymbolTableRecord
100
AcDbRegAppTableRecord
  2
AcDbAttr
 70
     0
  0
APPID
  5
5CE
330
9
100
AcDbSymbolTableRecord
100
AcDbRegAppTableRecord
  2
ACAUTHENVIRON
 70
     0
  0
APPID
  5
5CF
330
9
100
AcDbSymbolTableRecord
100
AcDbRegAppTableRecord
  2
AcDbDynamicBlockTrueName
 70
     0
  0
APPID
  5
5D0
330
9
100
AcDbSymbolTableRecord
100
AcDbRegAppTableRecord
  2
ACDBBLOCKREPETAG
 70
     0
  0
APPID
  5
723
330
9
100
AcDbSymbolTableRecord
100
AcDbRegAppTableRecord
  2
GENIUS_GENTRA_14
 70
     0
  0
APPID
  5
752
330
9
100
AcDbSymbolTableRecord
100
AcDbRegAppTableRecord
  2
GENIUS_GENOENT_13
 70
     0
  0
APPID
  5
753
330
9
100
AcDbSymbolTableRecord
100
AcDbRegAppTableRecord
  2
GENIUS_GENOBJ-N-TIT_13
 70
     0
  0
APPID
  5
754
330
9
100
AcDbSymbolTableRecord
100
AcDbRegAppTableRecord
  2
GENIUS_GENODEF_13
 70
     0
  0
APPID
  5
755
330
9
100
AcDbSymbolTableRecord
100
AcDbRegAppTableRecord
  2
GENIUS_GENOLIS_13
 70
     0
  0
APPID
  5
756
330
9
100
AcDbSymbolTableRecord
100
AcDbRegAppTableRecord
  2
GENIUS_GENTITLE_13
 70
     0
  0
APPID
  5
757
330
9
100
AcDbSymbolTableRecord
100
AcDbRegAppTableRecord
  2
GENIUS_GENOREF_13
 70
     0
  0
APPID
  5
75E
330
9
100
AcDbSymbolTableRecord
100
AcDbRegAppTableRecord
  2
GENIUS_GENSCREG_15
 70
     0
  0
APPID
  5
75F
330
9
100
AcDbSymbolTableRecord
100
AcDbRegAppTableRecord
  2
GENIUS_GENOBJ-N-SDF_13
 70
     0
  0
APPID
  5
7BE
330
9
100
AcDbSymbolTableRecord
100
AcDbRegAppTableRecord
  2
AcadAnnoPO
 70
     0
  0
APPID
  5
7BF
330
9
100
AcDbSymbolTableRecord
100
AcDbRegAppTableRecord
  2
ACAD_DSTYLE_DIMJAG
 70
     0
  0
APPID
  5
7C0
330
9
100
AcDbSymbolTableRecord
100
AcDbRegAppTableRecord
  2
ACAD_DSTYLE_DIMTALN
 70
     0
  0
APPID
  5
A53
330
9
100
AcDbSymbolTableRecord
100
AcDbRegAppTableRecord
  2
ACAD_DSTYLE_DIMARC_LENGTH_SYMBOL
 70
     0
  0
APPID
  5
A65
330
9
100
AcDbSymbolTableRecord
100
AcDbRegAppTableRecord
  2
ACAD_DSTYLE_DIMJOGGED_JOGANGLE_SYMBOL
 70
     0
  0
APPID
  5
CCE
330
9
100
AcDbSymbolTableRecord
100
AcDbRegAppTableRecord
  2
ACAD_DSTYLE_DIMBREAK
 70
     0
  0
APPID
  5
D24
330
9
100
AcDbSymbolTableRecord
100
AcDbRegAppTableRecord
  2
ACAD_NAV_VCDISPLAY
 70
     0
  0
APPID
  5
D4A
330
9
100
AcDbSymbolTableRecord
100
AcDbRegAppTableRecord
  2
GENIUS_GENREC_14
 70
     0
  0
APPID
  5
D4B
330
9
100
AcDbSymbolTableRecord
100
AcDbRegAppTableRecord
  2
GENIUS_GENOBJ-N-REC_13
 70
     0
  0
APPID
  5
DC9
330
9
100
AcDbSymbolTableRecord
100
AcDbRegAppTableRecord
  2
ACAD_DSTYLE_DIMRADIAL_EXTENSION
 70
     0
  0
APPID
  5
F18
330
9
100
AcDbSymbolTableRecord
100
AcDbRegAppTableRecord
  2
ACAD_DSTYLE_DIMINSPECT
 70
     0
  0
APPID
  5
1959
330
9
100
AcDbSymbolTableRecord
100
AcDbRegAppTableRecord
  2
ACAD_DSTYLE_DIM_LINETYPE
 70
     0
  0
APPID
  5
195A
330
9
100
AcDbSymbolTableRecord
100
AcDbRegAppTableRecord
  2
ACAD_DSTYLE_DIM_EXT1_LINETYPE
 70
     0
  0
APPID
  5
195B
330
9
100
AcDbSymbolTableRecord
100
AcDbRegAppTableRecord
  2
ACAD_DSTYLE_DIM_EXT2_LINETYPE
 70
     0
  0
ENDTAB
  0
TABLE
  2
DIMSTYLE
  5
A
330
0
100
AcDbSymbolTable
 70
    15
100
AcDbDimStyleTable
 71
     4
340
4FC
340
3F
340
501
340
506
  0
DIMSTYLE
105
3F
330
A
100
AcDbSymbolTableRecord
100
AcDbDimStyleTableRecord
  2
STANDARD
 70
     0
 41
5.0
 42
1.0
 43
15.0
 44
2.0
 48
0.000000001
 73
     0
 74
     0
 77
     1
 78
     9
 79
     2
140
3.5
143
0.0393700787401575
147
2.299999999999998
171
     3
172
     1
271
     2
272
     2
273
     3
274
     3
284
     8
285
    11
286
     8
340
7DE
1001
ACAD_DSTYLE_DIMJAG
1070
   388
1040
1.5
1001
ACAD_DSTYLE_DIMTALN
1070
   392
1070
     0
1001
ACAD_DSTYLE_DIMARC_LENGTH_SYMBOL
1070
   379
1070
     1
1001
ACAD_DSTYLE_DIMJOGGED_JOGANGLE_SYMBOL
1070
   384
1040
1.570796326794896
  0
DIMSTYLE
105
4FC
102
{ACAD_REACTORS
330
12EF
330
12F3
330
12F4
330
12F5
330
12F6
330
12F7
330
12F8
330
12FA
102
}
330
A
100
AcDbSymbolTableRecord
100
AcDbDimStyleTableRecord
  2
AM_DIN
 70
     0
 41
2.5
 42
1.0
 43
15.0
 44
2.0
 48
0.000000001
 73
     0
 74
     0
 77
     1
 78
     8
 79
     2
140
3.5
143
0.0393701
146
0.7071069999999999
147
1.0
171
     3
172
     1
271
     2
272
     2
273
     3
274
     3
284
     8
285
    11
286
     8
340
7DE
371
    -1
372
    -1
1001
ACAD_DSTYLE_DIMJAG
1070
   388
1040
1.5
1001
ACAD_DSTYLE_DIMTALN
1070
   392
1070
     0
1001
ACAD_DSTYLE_DIMARC_LENGTH_SYMBOL
1070
   379
1070
     1
1001
ACAD_DSTYLE_DIMJOGGED_JOGANGLE_SYMBOL
1070
   384
1040
1.570796326794896
  0
DIMSTYLE
105
4FD
330
A
100
AcDbSymbolTableRecord
100
AcDbDimStyleTableRecord
  2
AM_DIN$3
 70
     0
 41
2.5
 42
1.0
 43
10.0
 44
2.0
 48
0.000000001
 73
     0
 77
     1
 78
     8
 79
     2
140
3.5
143
0.0393701
146
0.7071069999999999
147
1.0
171
     3
271
     2
272
     3
273
     3
274
     4
284
     8
285
    11
286
     8
288
     1
289
     0
340
7DE
371
    -1
372
    -1
1001
ACAD_DSTYLE_DIMBREAK
1070
   391
1040
3.75
1001
ACAD_DSTYLE_DIMJAG
1070
   388
1040
1.5
1001
ACAD_DSTYLE_DIMTALN
1070
   392
1070
     0
1001
ACAD_DSTYLE_DIMARC_LENGTH_SYMBOL
1070
   379
1070
     1
1001
ACAD_DSTYLE_DIMJOGGED_JOGANGLE_SYMBOL
1070
   384
1040
1.570796326794896
  0
DIMSTYLE
105
4FE
330
A
100
AcDbSymbolTableRecord
100
AcDbDimStyleTableRecord
  2
AM_DIN$4
 70
     0
 41
2.5
 42
1.0
 43
10.0
 44
2.0
 48
0.000000001
 73
     0
 77
     1
 78
     8
 79
     2
140
3.5
143
0.0393701
146
0.7071069999999999
147
1.0
171
     3
271
     2
272
     3
273
     3
274
     4
284
     8
285
    11
286
     8
288
     1
289
     0
340
7DE
371
    -1
372
    -1
1001
ACAD_DSTYLE_DIMBREAK
1070
   391
1040
3.75
1001
ACAD_DSTYLE_DIMJAG
1070
   388
1040
1.5
1001
ACAD_DSTYLE_DIMTALN
1070
   392
1070
     0
1001
ACAD_DSTYLE_DIMARC_LENGTH_SYMBOL
1070
   379
1070
     1
1001
ACAD_DSTYLE_DIMJOGGED_JOGANGLE_SYMBOL
1070
   384
1040
1.570796326794896
  0
DIMSTYLE
105
4FF
330
A
100
AcDbSymbolTableRecord
100
AcDbDimStyleTableRecord
  2
AM_DIN$6
 70
     0
 41
2.5
 42
1.0
 43
10.0
 44
2.0
 48
0.000000001
 73
     0
 74
     0
 78
     8
 79
     2
140
3.5
143
0.0393701
146
0.7071069999999999
147
1.0
171
     3
172
     1
271
     2
272
     2
273
     3
274
     3
284
     8
285
    11
286
     8
340
7DE
371
    -1
372
    -1
1001
ACAD_DSTYLE_DIMBREAK
1070
   391
1040
3.75
1001
ACAD_DSTYLE_DIMJAG
1070
   388
1040
1.5
1001
ACAD_DSTYLE_DIMTALN
1070
   392
1070
     0
1001
ACAD_DSTYLE_DIMARC_LENGTH_SYMBOL
1070
   379
1070
     1
1001
ACAD_DSTYLE_DIMJOGGED_JOGANGLE_SYMBOL
1070
   384
1040
1.570796326794896
  0
DIMSTYLE
105
500
330
A
100
AcDbSymbolTableRecord
100
AcDbDimStyleTableRecord
  2
AM_DIN$7
 70
     0
 41
2.5
 42
1.0
 43
10.0
 44
2.0
 48
0.000000001
 73
     0
 74
     0
 77
     1
 78
     8
 79
     2
140
5.0
143
0.0393701
146
0.7071069999999999
147
1.0
171
     3
172
     1
271
     2
272
     3
273
     3
274
     4
284
     8
285
    11
286
     8
340
7DE
371
    -1
372
    -1
1001
ACAD_DSTYLE_DIMBREAK
1070
   391
1040
3.75
1001
ACAD_DSTYLE_DIMJAG
1070
   388
1040
1.5
1001
ACAD_DSTYLE_DIMTALN
1070
   392
1070
     0
1001
ACAD_DSTYLE_DIMARC_LENGTH_SYMBOL
1070
   379
1070
     1
1001
ACAD_DSTYLE_DIMJOGGED_JOGANGLE_SYMBOL
1070
   384
1040
1.570796326794896
  0
DIMSTYLE
105
501
330
A
100
AcDbSymbolTableRecord
100
AcDbDimStyleTableRecord
  2
AM_DIN$SF
 70
     0
 41
2.5
 42
1.0
 43
10.0
 44
2.0
 48
0.000000001
 73
     0
 74
     0
 75
     1
 76
     1
 77
     1
 78
     8
 79
     2
140
3.5
143
0.0393701
146
0.7071069999999999
147
1.0
171
     3
172
     1
271
     2
272
     2
273
     3
274
     3
284
     8
285
    11
286
     8
340
7DE
371
    -1
372
    -1
1001
ACAD_DSTYLE_DIMBREAK
1070
   391
1040
3.75
1001
ACAD_DSTYLE_DIMJAG
1070
   388
1040
1.5
1001
ACAD_DSTYLE_DIMTALN
1070
   392
1070
     0
1001
ACAD_DSTYLE_DIMARC_LENGTH_SYMBOL
1070
   379
1070
     1
1001
ACAD_DSTYLE_DIMJOGGED_JOGANGLE_SYMBOL
1070
   384
1040
1.570796326794896
  0
DIMSTYLE
105
506
330
A
100
AcDbSymbolTableRecord
100
AcDbDimStyleTableRecord
  2
AM_DIN$SH
 70
     0
 41
2.5
 42
1.0
 43
10.0
 44
2.0
 48
0.000000001
 73
     0
 74
     0
 75
     1
 76
     1
 77
     1
 78
     8
 79
     2
140
3.5
143
0.0393701
144
2.0
146
0.7071069999999999
147
1.0
171
     3
172
     1
271
     2
272
     2
273
     3
274
     3
284
     8
285
    11
286
     8
340
7DE
371
    -1
372
    -1
1001
ACAD_DSTYLE_DIMBREAK
1070
   391
1040
3.75
1001
ACAD_DSTYLE_DIMJAG
1070
   388
1040
1.5
1001
ACAD_DSTYLE_DIMTALN
1070
   392
1070
     0
1001
ACAD_DSTYLE_DIMARC_LENGTH_SYMBOL
1070
   379
1070
     1
1001
ACAD_DSTYLE_DIMJOGGED_JOGANGLE_SYMBOL
1070
   384
1040
1.570796326794896
  0
DIMSTYLE
105
184B
102
{ACAD_REACTORS
330
1AA1
102
}
330
A
100
AcDbSymbolTableRecord
100
AcDbDimStyleTableRecord
  2
AM_ISO
 70
     0
  4
"
 41
3.5
 42
1.0
 43
10.0
 44
1.0
 47
0.1
 48
0.1
 73
     0
 74
     0
 77
     1
 78
     8
 79
     2
140
3.5
141
0.0
143
0.0393701
146
0.71
147
1.5
172
     1
176
   256
177
   256
178
     2
271
     2
272
     3
274
     4
283
     0
284
     8
340
10
371
    -1
372
    -1
1001
ACAD_DSTYLE_DIMJAG
1070
   388
1040
1.5
1001
ACAD_DSTYLE_DIMBREAK
1070
   391
1040
3.75
1001
ACAD_DSTYLE_DIMARC_LENGTH_SYMBOL
1070
   379
1070
     1
1001
ACAD_DSTYLE_DIM_LINETYPE
1070
   380
1005
12
1001
ACAD_DSTYLE_DIM_EXT1_LINETYPE
1070
   381
1005
12
1001
ACAD_DSTYLE_DIM_EXT2_LINETYPE
1070
   382
1005
12
  0
DIMSTYLE
105
184D
330
A
100
AcDbSymbolTableRecord
100
AcDbDimStyleTableRecord
  2
AM_ISO$3
 70
     0
  4
"
 41
3.5
 42
1.0
 43
10.0
 44
1.0
 47
0.1
 48
0.1
 73
     0
 77
     1
 78
     8
 79
     2
140
3.5
141
0.0
143
0.0393701
146
0.71
147
1.5
176
   256
177
   256
178
     2
271
     2
272
     3
274
     4
283
     0
284
     8
288
     1
289
     0
340
10
371
    -1
372
    -1
1001
ACAD_DSTYLE_DIMBREAK
1070
   391
1040
3.75
1001
ACAD_DSTYLE_DIMJAG
1070
   388
1040
1.5
1001
ACAD_DSTYLE_DIMARC_LENGTH_SYMBOL
1070
   379
1070
     1
1001
ACAD_DSTYLE_DIM_LINETYPE
1070
   380
1005
12
1001
ACAD_DSTYLE_DIM_EXT1_LINETYPE
1070
   381
1005
12
1001
ACAD_DSTYLE_DIM_EXT2_LINETYPE
1070
   382
1005
12
  0
DIMSTYLE
105
184E
330
A
100
AcDbSymbolTableRecord
100
AcDbDimStyleTableRecord
  2
AM_ISO$4
 70
     0
  4
"
 41
3.5
 42
1.0
 43
10.0
 44
1.0
 47
0.1
 48
0.1
 73
     0
 77
     1
 78
     8
 79
     2
140
3.5
141
0.0
143
0.0393701
146
0.71
147
1.5
176
   256
177
   256
178
     2
271
     2
272
     3
274
     4
283
     0
284
     8
288
     1
289
     0
340
10
371
    -1
372
    -1
1001
ACAD_DSTYLE_DIMBREAK
1070
   391
1040
3.75
1001
ACAD_DSTYLE_DIMJAG
1070
   388
1040
1.5
1001
ACAD_DSTYLE_DIMARC_LENGTH_SYMBOL
1070
   379
1070
     1
1001
ACAD_DSTYLE_DIM_LINETYPE
1070
   380
1005
12
1001
ACAD_DSTYLE_DIM_EXT1_LINETYPE
1070
   381
1005
12
1001
ACAD_DSTYLE_DIM_EXT2_LINETYPE
1070
   382
1005
12
  0
DIMSTYLE
105
184F
330
A
100
AcDbSymbolTableRecord
100
AcDbDimStyleTableRecord
  2
AM_ISO$6
 70
     0
  4
"
 41
3.5
 42
1.0
 43
10.0
 44
1.0
 47
0.1
 48
0.1
 73
     0
 74
     0
 78
     8
 79
     2
140
3.5
141
0.0
143
0.0393701
146
0.71
147
1.5
172
     1
176
   256
177
   256
178
     2
271
     2
272
     3
274
     4
283
     0
284
     8
340
10
371
    -1
372
    -1
1001
ACAD_DSTYLE_DIMBREAK
1070
   391
1040
3.75
1001
ACAD_DSTYLE_DIMJAG
1070
   388
1040
1.5
1001
ACAD_DSTYLE_DIMARC_LENGTH_SYMBOL
1070
   379
1070
     1
1001
ACAD_DSTYLE_DIM_LINETYPE
1070
   380
1005
12
1001
ACAD_DSTYLE_DIM_EXT1_LINETYPE
1070
   381
1005
12
1001
ACAD_DSTYLE_DIM_EXT2_LINETYPE
1070
   382
1005
12
  0
DIMSTYLE
105
1850
330
A
100
AcDbSymbolTableRecord
100
AcDbDimStyleTableRecord
  2
AM_ISO$7
 70
     0
  4
"
 41
3.5
 42
1.0
 43
10.0
 44
1.0
 47
0.1
 48
0.1
 73
     0
 74
     0
 77
     1
 78
     8
 79
     2
140
3.5
141
0.0
143
0.0393701
146
0.71
147
1.5
172
     1
176
   256
177
   256
178
     2
271
     2
272
     3
274
     4
283
     0
284
     8
340
10
371
    -1
372
    -1
1001
ACAD_DSTYLE_DIMBREAK
1070
   391
1040
3.75
1001
ACAD_DSTYLE_DIMJAG
1070
   388
1040
1.5
1001
ACAD_DSTYLE_DIMARC_LENGTH_SYMBOL
1070
   379
1070
     1
1001
ACAD_DSTYLE_DIM_LINETYPE
1070
   380
1005
12
1001
ACAD_DSTYLE_DIM_EXT1_LINETYPE
1070
   381
1005
12
1001
ACAD_DSTYLE_DIM_EXT2_LINETYPE
1070
   382
1005
12
  0
DIMSTYLE
105
1851
330
A
100
AcDbSymbolTableRecord
100
AcDbDimStyleTableRecord
  2
AM_ISO$SF
 70
     0
  4
"
 41
3.5
 42
1.0
 43
10.0
 44
1.0
 47
0.1
 48
0.1
 73
     0
 74
     0
 75
     1
 76
     1
 77
     1
 78
     8
 79
     2
140
3.5
141
0.0
143
0.0393701
146
0.71
147
1.5
172
     1
176
   256
177
   256
178
     2
271
     2
272
     3
274
     4
283
     0
284
     8
340
10
371
    -1
372
    -1
1001
ACAD_DSTYLE_DIMBREAK
1070
   391
1040
3.75
1001
ACAD_DSTYLE_DIMJAG
1070
   388
1040
1.5
1001
ACAD_DSTYLE_DIMARC_LENGTH_SYMBOL
1070
   379
1070
     1
1001
ACAD_DSTYLE_DIM_LINETYPE
1070
   380
1005
12
1001
ACAD_DSTYLE_DIM_EXT1_LINETYPE
1070
   381
1005
12
1001
ACAD_DSTYLE_DIM_EXT2_LINETYPE
1070
   382
1005
12
  0
DIMSTYLE
105
1856
330
A
100
AcDbSymbolTableRecord
100
AcDbDimStyleTableRecord
  2
AM_ISO$SH
 70
     0
  4
"
 41
3.5
 42
1.0
 43
10.0
 44
1.0
 47
0.1
 48
0.1
 73
     0
 74
     0
 75
     1
 76
     1
 77
     1
 78
     8
 79
     2
140
3.5
141
0.0
143
0.0393701
144
2.0
146
0.71
147
1.5
172
     1
173
     1
176
   256
177
   256
178
     2
271
     2
272
     3
274
     4
283
     0
284
     8
340
10
343
1852
371
    -1
372
    -1
1001
ACAD_DSTYLE_DIMBREAK
1070
   391
1040
3.75
1001
ACAD_DSTYLE_DIMJAG
1070
   388
1040
1.5
1001
ACAD_DSTYLE_DIMARC_LENGTH_SYMBOL
1070
   379
1070
     1
1001
ACAD_DSTYLE_DIM_LINETYPE
1070
   380
1005
12
1001
ACAD_DSTYLE_DIM_EXT1_LINETYPE
1070
   381
1005
12
1001
ACAD_DSTYLE_DIM_EXT2_LINETYPE
1070
   382
1005
12
  0
ENDTAB
  0
TABLE
  2
BLOCK_RECORD
  5
1
330
0
100
AcDbSymbolTable
 70
    20
  0
BLOCK_RECORD
  5
18
102
{ACAD_XDICTIONARY
360
DB1
102
}
330
1
100
AcDbSymbolTableRecord
100
AcDbBlockTableRecord
  2
*MODEL_SPACE
340
303
  0
BLOCK_RECORD
  5
B56
330
1
100
AcDbSymbolTableRecord
100
AcDbBlockTableRecord
  2
*Paper_Space
340
B57
  0
BLOCK_RECORD
  5
D0B
330
1
100
AcDbSymbolTableRecord
100
AcDbBlockTableRecord
  2
_ACMFILLED15
340
0
  0
BLOCK_RECORD
  5
D16
330
1
100
AcDbSymbolTableRecord
100
AcDbBlockTableRecord
  2
_ACMFILLED30
340
0
  0
BLOCK_RECORD
  5
EB6
330
1
100
AcDbSymbolTableRecord
100
AcDbBlockTableRecord
  2
*D2
340
0
  0
BLOCK_RECORD
  5
EC4
330
1
100
AcDbSymbolTableRecord
100
AcDbBlockTableRecord
  2
*D3
340
0
  0
BLOCK_RECORD
  5
ED0
330
1
100
AcDbSymbolTableRecord
100
AcDbBlockTableRecord
  2
*D4
340
0
  0
BLOCK_RECORD
  5
EDC
330
1
100
AcDbSymbolTableRecord
100
AcDbBlockTableRecord
  2
*D5
340
0
  0
BLOCK_RECORD
  5
EE8
330
1
100
AcDbSymbolTableRecord
100
AcDbBlockTableRecord
  2
*D6
340
0
  0
BLOCK_RECORD
  5
EF6
330
1
100
AcDbSymbolTableRecord
100
AcDbBlockTableRecord
  2
*D7
340
0
  0
BLOCK_RECORD
  5
F02
330
1
100
AcDbSymbolTableRecord
100
AcDbBlockTableRecord
  2
*D8
340
0
  0
BLOCK_RECORD
  5
F0E
330
1
100
AcDbSymbolTableRecord
100
AcDbBlockTableRecord
  2
*D9
340
0
  0
BLOCK_RECORD
  5
12FC
330
1
100
AcDbSymbolTableRecord
100
AcDbBlockTableRecord
  2
*D10
340
0
  0
BLOCK_RECORD
  5
130A
330
1
100
AcDbSymbolTableRecord
100
AcDbBlockTableRecord
  2
*D11
340
0
  0
BLOCK_RECORD
  5
1316
330
1
100
AcDbSymbolTableRecord
100
AcDbBlockTableRecord
  2
*D12
340
0
  0
BLOCK_RECORD
  5
1322
330
1
100
AcDbSymbolTableRecord
100
AcDbBlockTableRecord
  2
*D13
340
0
  0
BLOCK_RECORD
  5
132E
330
1
100
AcDbSymbolTableRecord
100
AcDbBlockTableRecord
  2
*D14
340
0
  0
BLOCK_RECORD
  5
133C
330
1
100
AcDbSymbolTableRecord
100
AcDbBlockTableRecord
  2
*D15
340
0
  0
BLOCK_RECORD
  5
1348
330
1
100
AcDbSymbolTableRecord
100
AcDbBlockTableRecord
  2
*D16
340
0
  0
BLOCK_RECORD
  5
1354
330
1
100
AcDbSymbolTableRecord
100
AcDbBlockTableRecord
  2
*D17
340
0
  0
BLOCK_RECORD
  5
1852
330
1
100
AcDbSymbolTableRecord
100
AcDbBlockTableRecord
  2
GENAXEH
340
0
  0
ENDTAB
  0
ENDSEC
  0
SECTION
  2
BLOCKS
  0
BLOCK
  5
32
330
18
100
AcDbEntity
  8
0
100
AcDbBlockBegin
  2
*MODEL_SPACE
 70
     0
 10
0.0
 20
0.0
 30
0.0
  3
*MODEL_SPACE
  1

  0
ENDBLK
  5
33
330
18
100
AcDbEntity
  8
0
100
AcDbBlockEnd
  0
BLOCK
  5
B58
330
B56
100
AcDbEntity
 67
     1
  8
0
100
AcDbBlockBegin
  2
*Paper_Space
 70
     0
 10
0.0
 20
0.0
 30
0.0
  3
*Paper_Space
  1

  0
ENDBLK
  5
B59
330
B56
100
AcDbEntity
 67
     1
  8
0
100
AcDbBlockEnd
  0
BLOCK
  5
D0D
330
D0B
100
AcDbEntity
  8
0
100
AcDbBlockBegin
  2
_ACMFILLED15
 70
     0
 10
0.0
 20
0.0
 30
0.0
  3
_ACMFILLED15
  1

  0
TRACE
  5
D0C
330
D0B
100
AcDbEntity
  8
1
 62
     0
100
AcDbTrace
 10
-1.0
 20
-0.131652497
 30
0.0
 11
-1.0
 21
0.131652497
 31
0.0
 12
0.0
 22
0.0
 32
0.0
 13
0.0
 23
0.0
 33
0.0
  0
ENDBLK
  5
D0E
330
D0B
100
AcDbEntity
  8
0
100
AcDbBlockEnd
  0
BLOCK
  5
D18
330
D16
100
AcDbEntity
  8
0
100
AcDbBlockBegin
  2
_ACMFILLED30
 70
     0
 10
0.0
 20
0.0
 30
0.0
  3
_ACMFILLED30
  1

  0
TRACE
  5
D17
330
D16
100
AcDbEntity
  8
1
 62
     0
100
AcDbTrace
 10
-1.0
 20
-0.26794919
 30
0.0
 11
-1.0
 21
0.26794919
 31
0.0
 12
0.0
 22
0.0
 32
0.0
 13
0.0
 23
0.0
 33
0.0
  0
ENDBLK
  5
D19
330
D16
100
AcDbEntity
  8
0
100
AcDbBlockEnd
  0
BLOCK
  5
EB7
330
EB6
100
AcDbEntity
  8
0
100
AcDbBlockBegin
  2
*D2
 70
     1
 10
0.0
 20
0.0
 30
0.0
  3
*D2
  1

  0
LINE
  5
EB8
330
EB6
100
AcDbEntity
  8
2
 62
     0
100
AcDbLine
 10
287.0538211833392
 20
130.3155371599881
 30
0.0
 11
287.0538211833392
 21
123.28746666758
 31
0.0
  0
LINE
  5
EB9
330
EB6
100
AcDbEntity
  8
2
 62
     0
100
AcDbLine
 10
284.0538211833392
 20
130.733244159988
 30
0.0
 11
284.0538211833392
 21
123.28746666758
 31
0.0
  0
LINE
  5
EBA
330
EB6
100
AcDbEntity
  8
2
 62
     0
100
AcDbLine
 10
289.5538211833392
 20
125.28746666758
 30
0.0
 11
292.0538211833392
 21
125.28746666758
 31
0.0
  0
LINE
  5
EBB
330
EB6
100
AcDbEntity
  8
2
 62
     0
100
AcDbLine
 10
281.5538211833391
 20
125.28746666758
 30
0.0
 11
274.608986327401
 21
125.28746666758
 31
0.0
  0
LINE
  5
EBC
330
EB6
100
AcDbEntity
  8
2
 62
     0
100
AcDbLine
 10
287.0538211833392
 20
125.28746666758
 30
0.0
 11
284.0538211833392
 21
125.28746666758
 31
0.0
  0
SOLID
  5
EBD
330
EB6
100
AcDbEntity
  8
2
 62
     0
100
AcDbTrace
 10
289.5538211833392
 20
125.7041333342467
 30
0.0
 11
289.5538211833392
 21
124.8708000009133
 31
0.0
 12
287.0538211833392
 22
125.28746666758
 32
0.0
 13
287.0538211833392
 23
125.28746666758
 33
0.0
  0
SOLID
  5
EBE
330
EB6
100
AcDbEntity
  8
2
 62
     0
100
AcDbTrace
 10
281.5538211833391
 20
125.7041333342467
 30
0.0
 11
281.5538211833391
 21
124.8708000009133
 31
0.0
 12
284.0538211833392
 22
125.28746666758
 32
0.0
 13
284.0538211833392
 23
125.28746666758
 33
0.0
  0
MTEXT
  5
EBF
330
EB6
100
AcDbEntity
  8
2
 62
     0
100
AcDbMText
 10
276.83140375537
 20
128.0989564778399
 30
0.0
 40
3.5
 41
0.0
 71
     5
 72
     1
  1
\A1;3
  7
STANDARD 3.5 mm
 73
     1
 44
1.0
1001
ACAD
1000
MTEXTBEGIN
1070
    73
1070
     1
1070
    44
1040
1.0
1070
    74
1070
     0
1000
MTEXTEND
  0
ENDBLK
  5
EC3
330
EB6
100
AcDbEntity
  8
0
100
AcDbBlockEnd
  0
BLOCK
  5
EC5
330
EC4
100
AcDbEntity
  8
0
100
AcDbBlockBegin
  2
*D3
 70
     1
 10
0.0
 20
0.0
 30
0.0
  3
*D3
  1

  0
LINE
  5
EC6
330
EC4
100
AcDbEntity
  8
2
 62
     0
100
AcDbLine
 10
287.0538211833392
 20
130.3155371599881
 30
0.0
 11
287.0538211833392
 21
107.28746666758
 31
0.0
  0
LINE
  5
EC7
330
EC4
100
AcDbEntity
  8
2
 62
     0
100
AcDbLine
 10
212.0542631833392
 20
125.2083631599881
 30
0.0
 11
212.0542631833392
 21
107.28746666758
 31
0.0
  0
LINE
  5
EC8
330
EC4
100
AcDbEntity
  8
2
 62
     0
100
AcDbLine
 10
284.5538211833392
 20
109.28746666758
 30
0.0
 11
214.5542631833392
 21
109.28746666758
 31
0.0
  0
SOLID
  5
EC9
330
EC4
100
AcDbEntity
  8
2
 62
     0
100
AcDbTrace
 10
284.5538211833392
 20
109.7041333342467
 30
0.0
 11
284.5538211833392
 21
108.8708000009133
 31
0.0
 12
287.0538211833392
 22
109.28746666758
 32
0.0
 13
287.0538211833392
 23
109.28746666758
 33
0.0
  0
SOLID
  5
ECA
330
EC4
100
AcDbEntity
  8
2
 62
     0
100
AcDbTrace
 10
214.5542631833392
 20
109.7041333342467
 30
0.0
 11
214.5542631833392
 21
108.8708000009133
 31
0.0
 12
212.0542631833392
 22
109.28746666758
 32
0.0
 13
212.0542631833392
 23
109.28746666758
 33
0.0
  0
MTEXT
  5
ECB
330
EC4
100
AcDbEntity
  8
2
 62
     0
100
AcDbMText
 10
249.5540421833392
 20
112.0878883119932
 30
0.0
 40
3.5
 41
0.0
 71
     5
 72
     1
  1
\A1;75
  7
STANDARD 3.5 mm
 73
     1
 44
1.0
1001
ACAD
1000
MTEXTBEGIN
1070
    73
1070
     1
1070
    44
1040
1.0
1070
    74
1070
     0
1000
MTEXTEND
  0
ENDBLK
  5
ECF
330
EC4
100
AcDbEntity
  8
0
100
AcDbBlockEnd
  0
BLOCK
  5
ED1
330
ED0
100
AcDbEntity
  8
0
100
AcDbBlockBegin
  2
*D4
 70
     1
 10
0.0
 20
0.0
 30
0.0
  3
*D4
  1

  0
LINE
  5
ED2
330
ED0
100
AcDbEntity
  8
2
 62
     0
100
AcDbLine
 10
287.0538211833392
 20
130.3155371599881
 30
0.0
 11
287.0538211833392
 21
115.28746666758
 31
0.0
  0
LINE
  5
ED3
330
ED0
100
AcDbEntity
  8
2
 62
     0
100
AcDbLine
 10
233.6542591833392
 20
135.7989601599881
 30
0.0
 11
233.6542591833392
 21
115.28746666758
 31
0.0
  0
LINE
  5
ED4
330
ED0
100
AcDbEntity
  8
2
 62
     0
100
AcDbLine
 10
284.5538211833392
 20
117.28746666758
 30
0.0
 11
236.1542591833392
 21
117.28746666758
 31
0.0
  0
SOLID
  5
ED5
330
ED0
100
AcDbEntity
  8
2
 62
     0
100
AcDbTrace
 10
284.5538211833392
 20
117.7041333342467
 30
0.0
 11
284.5538211833392
 21
116.8708000009133
 31
0.0
 12
287.0538211833392
 22
117.28746666758
 32
0.0
 13
287.0538211833392
 23
117.28746666758
 33
0.0
  0
SOLID
  5
ED6
330
ED0
100
AcDbEntity
  8
2
 62
     0
100
AcDbTrace
 10
236.1542591833392
 20
117.7041333342467
 30
0.0
 11
236.1542591833392
 21
116.8708000009133
 31
0.0
 12
233.6542591833392
 22
117.28746666758
 32
0.0
 13
233.6542591833392
 23
117.28746666758
 33
0.0
  0
MTEXT
  5
ED7
330
ED0
100
AcDbEntity
  8
2
 62
     0
100
AcDbMText
 10
259.3040436833391
 20
120.09895647784
 30
0.0
 40
3.5
 41
0.0
 71
     5
 72
     1
  1
\A1;53
  7
STANDARD 3.5 mm
 73
     1
 44
1.0
1001
ACAD
1000
MTEXTBEGIN
1070
    73
1070
     1
1070
    44
1040
1.0
1070
    74
1070
     0
1000
MTEXTEND
  0
ENDBLK
  5
EDB
330
ED0
100
AcDbEntity
  8
0
100
AcDbBlockEnd
  0
BLOCK
  5
EDD
330
EDC
100
AcDbEntity
  8
0
100
AcDbBlockBegin
  2
*D5
 70
     1
 10
0.0
 20
0.0
 30
0.0
  3
*D5
  1

  0
LINE
  5
EDE
330
EDC
100
AcDbEntity
  8
2
 62
     0
100
AcDbLine
 10
288.0538211833392
 20
131.3155371599881
 30
0.0
 11
306.9404726924105
 21
131.3155371599881
 31
0.0
  0
LINE
  5
EDF
330
EDC
100
AcDbEntity
  8
2
 62
     0
100
AcDbLine
 10
291.8073445926662
 20
145.798957159988
 30
0.0
 11
306.9404726924105
 21
145.798957159988
 31
0.0
  0
LINE
  5
EE0
330
EDC
100
AcDbEntity
  8
2
 62
     0
100
AcDbLine
 10
304.9404726924105
 20
133.8155371599881
 30
0.0
 11
304.9404726924105
 21
143.298957159988
 31
0.0
  0
SOLID
  5
EE1
330
EDC
100
AcDbEntity
  8
2
 62
     0
100
AcDbTrace
 10
304.5238060257438
 20
133.8155371599881
 30
0.0
 11
305.3571393590772
 21
133.8155371599881
 31
0.0
 12
304.9404726924105
 22
131.3155371599881
 32
0.0
 13
304.9404726924105
 23
131.3155371599881
 33
0.0
  0
SOLID
  5
EE2
330
EDC
100
AcDbEntity
  8
2
 62
     0
100
AcDbTrace
 10
304.5238060257438
 20
143.298957159988
 30
0.0
 11
305.3571393590772
 21
143.298957159988
 31
0.0
 12
304.9404726924105
 22
145.798957159988
 32
0.0
 13
304.9404726924105
 23
145.798957159988
 33
0.0
  0
MTEXT
  5
EE3
330
EDC
100
AcDbEntity
  8
2
 62
     0
100
AcDbMText
 10
302.1289828821504
 20
138.5572471599881
 30
0.0
 40
3.5
 41
0.0
 71
     5
 72
     1
  1
\A1;14.5
  7
STANDARD 3.5 mm
 11
0.0000000000000001
 21
1.0
 31
0.0
 73
     1
 44
1.0
1001
ACAD
1000
MTEXTBEGIN
1070
    73
1070
     1
1070
    44
1040
1.0
1070
    74
1070
     0
1000
MTEXTEND
  0
ENDBLK
  5
EE7
330
EDC
100
AcDbEntity
  8
0
100
AcDbBlockEnd
  0
BLOCK
  5
EE9
330
EE8
100
AcDbEntity
  8
0
100
AcDbBlockBegin
  2
*D6
 70
     1
 10
0.0
 20
0.0
 30
0.0
  3
*D6
  1

  0
LINE
  5
EEA
330
EE8
100
AcDbEntity
  8
2
 62
     0
100
AcDbLine
 10
288.0538211833392
 20
131.3155371599881
 30
0.0
 11
298.9404726924103
 21
131.3155371599881
 31
0.0
  0
LINE
  5
EEB
330
EE8
100
AcDbEntity
  8
2
 62
     0
100
AcDbLine
 10
285.354264183339
 20
136.8169581599881
 30
0.0
 11
298.9404726924103
 21
136.8169581599881
 31
0.0
  0
LINE
  5
EEC
330
EE8
100
AcDbEntity
  8
2
 62
     0
100
AcDbLine
 10
296.9404726924103
 20
139.3169581599881
 30
0.0
 11
296.9404726924103
 21
141.8169581599881
 31
0.0
  0
LINE
  5
EED
330
EE8
100
AcDbEntity
  8
2
 62
     0
100
AcDbLine
 10
296.9404726924103
 20
128.8155371599881
 30
0.0
 11
296.9404726924103
 21
113.2951205176278
 31
0.0
  0
LINE
  5
EEE
330
EE8
100
AcDbEntity
  8
2
 62
     0
100
AcDbLine
 10
296.9404726924103
 20
136.8169581599881
 30
0.0
 11
296.9404726924103
 21
131.3155371599881
 31
0.0
  0
SOLID
  5
EEF
330
EE8
100
AcDbEntity
  8
2
 62
     0
100
AcDbTrace
 10
296.5238060257437
 20
139.3169581599881
 30
0.0
 11
297.3571393590771
 21
139.3169581599881
 31
0.0
 12
296.9404726924103
 22
136.8169581599881
 32
0.0
 13
296.9404726924103
 23
136.8169581599881
 33
0.0
  0
SOLID
  5
EF0
330
EE8
100
AcDbEntity
  8
2
 62
     0
100
AcDbTrace
 10
296.5238060257437
 20
128.8155371599881
 30
0.0
 11
297.3571393590771
 21
128.8155371599881
 31
0.0
 12
296.9404726924103
 22
131.3155371599881
 32
0.0
 13
296.9404726924103
 23
131.3155371599881
 33
0.0
  0
MTEXT
  5
EF1
330
EE8
100
AcDbEntity
  8
2
 62
     0
100
AcDbMText
 10
294.1400510479971
 20
118.5465259990052
 30
0.0
 40
3.5
 41
0.0
 71
     5
 72
     1
  1
\A1;5.5
  7
STANDARD 3.5 mm
 11
0.0000000000000001
 21
1.0
 31
0.0
 73
     1
 44
1.0
1001
ACAD
1000
MTEXTBEGIN
1070
    73
1070
     1
1070
    44
1040
1.0
1070
    74
1070
     0
1000
MTEXTEND
  0
ENDBLK
  5
EF5
330
EE8
100
AcDbEntity
  8
0
100
AcDbBlockEnd
  0
BLOCK
  5
EF7
330
EF6
100
AcDbEntity
  8
0
100
AcDbBlockBegin
  2
*D7
 70
     1
 10
0.0
 20
0.0
 30
0.0
  3
*D7
  1

  0
LINE
  5
EF8
330
EF6
100
AcDbEntity
  8
SK2
 62
     0
100
AcDbLine
 10
211.0542631833392
 20
165.798957159988
 30
0.0
 11
179.7903096932182
 21
165.7989571599881
 31
0.0
  0
LINE
  5
EF9
330
EF6
100
AcDbEntity
  8
SK2
 62
     0
100
AcDbLine
 10
211.0542631833392
 20
125.7989651599881
 30
0.0
 11
179.7903096932182
 21
125.7989651599881
 31
0.0
  0
LINE
  5
EFA
330
EF6
100
AcDbEntity
  8
SK2
 62
     0
100
AcDbLine
 10
181.7903096932182
 20
163.2989571599881
 30
0.0
 11
181.7903096932182
 21
128.2989651599881
 31
0.0
  0
SOLID
  5
EFB
330
EF6
100
AcDbEntity
  8
SK2
 62
     0
100
AcDbTrace
 10
181.3736430265516
 20
163.2989571599881
 30
0.0
 11
182.2069763598849
 21
163.2989571599881
 31
0.0
 12
181.7903096932182
 22
165.7989571599881
 32
0.0
 13
181.7903096932182
 23
165.7989571599881
 33
0.0
  0
SOLID
  5
EFC
330
EF6
100
AcDbEntity
  8
SK2
 62
     0
100
AcDbTrace
 10
181.3736430265516
 20
128.2989651599881
 30
0.0
 11
182.2069763598849
 21
128.2989651599881
 31
0.0
 12
181.7903096932182
 22
125.7989651599881
 32
0.0
 13
181.7903096932182
 23
125.7989651599881
 33
0.0
  0
MTEXT
  5
EFD
330
EF6
100
AcDbEntity
  8
SK2
 62
     0
100
AcDbMText
 10
178.9271684423398
 20
145.2216311160048
 30
0.0
 40
3.5
 41
0.0
 71
     5
 72
     1
  1
\A1;%%c40
  7
STANDARD 3.5 mm
 11
0.0000000000000001
 21
1.0
 31
0.0
 73
     1
 44
1.0
1001
ACAD
1000
MTEXTBEGIN
1070
    73
1070
     1
1070
    44
1040
1.0
1070
    74
1070
     0
1000
MTEXTEND
  0
ENDBLK
  5
F01
330
EF6
100
AcDbEntity
  8
0
100
AcDbBlockEnd
  0
BLOCK
  5
F03
330
F02
100
AcDbEntity
  8
0
100
AcDbBlockBegin
  2
*D8
 70
     1
 10
0.0
 20
0.0
 30
0.0
  3
*D8
  1

  0
LINE
  5
F04
330
F02
100
AcDbEntity
  8
2
 62
     0
100
AcDbLine
 10
287.0538211833392
 20
132.3155371599881
 30
0.0
 11
287.0538211833392
 21
158.8272406466867
 31
0.0
  0
LINE
  5
F05
330
F02
100
AcDbEntity
  8
2
 62
     0
100
AcDbLine
 10
256.5542661833392
 20
150.4989591599881
 30
0.0
 11
256.5542661833392
 21
158.8272406466867
 31
0.0
  0
LINE
  5
F06
330
F02
100
AcDbEntity
  8
2
 62
     0
100
AcDbLine
 10
284.5538211833392
 20
156.8272406466866
 30
0.0
 11
259.0542661833392
 21
156.8272406466866
 31
0.0
  0
SOLID
  5
F07
330
F02
100
AcDbEntity
  8
2
 62
     0
100
AcDbTrace
 10
284.5538211833392
 20
157.2439073133534
 30
0.0
 11
284.5538211833392
 21
156.4105739800201
 31
0.0
 12
287.0538211833392
 22
156.8272406466866
 32
0.0
 13
287.0538211833392
 23
156.8272406466866
 33
0.0
  0
SOLID
  5
F08
330
F02
100
AcDbEntity
  8
2
 62
     0
100
AcDbTrace
 10
259.0542661833392
 20
157.2439073133534
 30
0.0
 11
259.0542661833392
 21
156.4105739800201
 31
0.0
 12
256.5542661833392
 22
156.8272406466866
 32
0.0
 13
256.5542661833392
 23
156.8272406466866
 33
0.0
  0
MTEXT
  5
F09
330
F02
100
AcDbEntity
  8
2
 62
     0
100
AcDbMText
 10
272.3840202839524
 20
159.6387304569467
 30
0.0
 40
3.5
 41
0.0
 71
     5
 72
     1
  1
\A1;30
  7
STANDARD 3.5 mm
 73
     1
 44
1.0
1001
ACAD
1000
MTEXTBEGIN
1070
    73
1070
     1
1070
    44
1040
1.0
1070
    74
1070
     0
1000
MTEXTEND
  0
ENDBLK
  5
F0D
330
F02
100
AcDbEntity
  8
0
100
AcDbBlockEnd
  0
BLOCK
  5
F0F
330
F0E
100
AcDbEntity
  8
0
100
AcDbBlockBegin
  2
*D9
 70
     1
 10
0.0
 20
0.0
 30
0.0
  3
*D9
  1

  0
LINE
  5
F10
330
F0E
100
AcDbEntity
  8
2
 62
     0
100
AcDbLine
 10
240.7083786833391
 20
154.7989631599881
 30
0.0
 11
241.7083786833392
 21
154.7989631599881
 31
0.0
  0
LINE
  5
F11
330
F0E
100
AcDbEntity
  8
2
 62
     0
100
AcDbLine
 10
241.4583786833391
 20
136.7989601599881
 30
0.0
 11
237.7083786833392
 21
136.7989601599881
 31
0.0
  0
LINE
  5
F12
330
F0E
100
AcDbEntity
  8
2
 62
     0
100
AcDbLine
 10
239.7083786833392
 20
152.2989631599881
 30
0.0
 11
239.7083786833392
 21
139.2989601599881
 31
0.0
  0
LINE
  5
F13
330
F0E
100
AcDbEntity
  8
2
 62
     0
100
AcDbLine
 10
239.7083786833392
 20
136.7989601599881
 30
0.0
 11
239.7083786833392
 21
122.5987669062987
 31
0.0
  0
SOLID
  5
F14
330
F0E
100
AcDbEntity
  8
2
 62
     0
100
AcDbTrace
 10
239.2917120166725
 20
152.2989631599881
 30
0.0
 11
240.1250453500058
 21
152.2989631599881
 31
0.0
 12
239.7083786833392
 22
154.7989631599881
 32
0.0
 13
239.7083786833392
 23
154.7989631599881
 33
0.0
  0
SOLID
  5
F15
330
F0E
100
AcDbEntity
  8
2
 62
     0
100
AcDbTrace
 10
239.2917120166725
 20
139.2989601599881
 30
0.0
 11
240.1250453500058
 21
139.2989601599881
 31
0.0
 12
239.7083786833392
 22
136.7989601599881
 32
0.0
 13
239.7083786833392
 23
136.7989601599881
 33
0.0
  0
MTEXT
  5
F16
330
F0E
100
AcDbEntity
  8
2
 62
     0
100
AcDbMText
 10
236.8452374324607
 20
127.9239601599881
 30
0.0
 40
3.5
 41
0.0
 71
     5
 72
     1
  1
\A1;%%c18
  7
STANDARD 3.5 mm
 11
0.0000000000000001
 21
1.0
 31
0.0
 73
     1
 44
1.0
1001
ACAD
1000
MTEXTBEGIN
1070
    73
1070
     1
1070
    44
1040
1.0
1070
    74
1070
     0
1000
MTEXTEND
  0
ENDBLK
  5
F17
330
F0E
100
AcDbEntity
  8
0
100
AcDbBlockEnd
  0
BLOCK
  5
12FD
330
12FC
100
AcDbEntity
  8
0
100
AcDbBlockBegin
  2
*D10
 70
     1
 10
0.0
 20
0.0
 30
0.0
  3
*D10
  1

  0
LINE
  5
15E5
330
12FC
100
AcDbEntity
  8
2
 62
     0
100
AcDbLine
 10
204.296567682103
 20
170.9319222970153
 30
0.0
 11
204.296567682103
 21
176.0887448954308
 31
0.0
  0
LINE
  5
15E6
330
12FC
100
AcDbEntity
  8
2
 62
     0
100
AcDbLine
 10
201.296567682103
 20
170.5142152970154
 30
0.0
 11
201.296567682103
 21
176.0887448954308
 31
0.0
  0
LINE
  5
15E7
330
12FC
100
AcDbEntity
  8
2
 62
     0
100
AcDbLine
 10
206.796567682103
 20
174.0887448954308
 30
0.0
 11
209.296567682103
 21
174.0887448954308
 31
0.0
  0
LINE
  5
15E8
330
12FC
100
AcDbEntity
  8
2
 62
     0
100
AcDbLine
 10
198.796567682103
 20
174.0887448954308
 30
0.0
 11
191.8517328261648
 21
174.0887448954308
 31
0.0
  0
LINE
  5
15E9
330
12FC
100
AcDbEntity
  8
2
 62
     0
100
AcDbLine
 10
204.296567682103
 20
174.0887448954308
 30
0.0
 11
201.296567682103
 21
174.0887448954308
 31
0.0
  0
SOLID
  5
15EA
330
12FC
100
AcDbEntity
  8
2
 62
     0
100
AcDbTrace
 10
206.796567682103
 20
174.5054115620975
 30
0.0
 11
206.796567682103
 21
173.672078228764
 31
0.0
 12
204.296567682103
 22
174.0887448954308
 32
0.0
 13
204.296567682103
 23
174.0887448954308
 33
0.0
  0
SOLID
  5
15EB
330
12FC
100
AcDbEntity
  8
2
 62
     0
100
AcDbTrace
 10
198.796567682103
 20
174.5054115620975
 30
0.0
 11
198.796567682103
 21
173.672078228764
 31
0.0
 12
201.296567682103
 22
174.0887448954308
 32
0.0
 13
201.296567682103
 23
174.0887448954308
 33
0.0
  0
MTEXT
  5
15EC
330
12FC
100
AcDbEntity
  8
2
 62
     0
100
AcDbMText
 10
194.0741502541339
 20
176.9002347056908
 30
0.0
 40
3.5
 41
0.0
 71
     5
 72
     1
  1
\A1;3
  7
STANDARD 3.5 mm
 73
     1
 44
1.0
1001
ACAD
1000
MTEXTBEGIN
1070
    73
1070
     1
1070
    44
1040
1.0
1070
    74
1070
     0
1000
MTEXTEND
  0
ENDBLK
  5
12FE
330
12FC
100
AcDbEntity
  8
0
100
AcDbBlockEnd
  0
BLOCK
  5
130B
330
130A
100
AcDbEntity
  8
0
100
AcDbBlockBegin
  2
*D11
 70
     1
 10
0.0
 20
0.0
 30
0.0
  3
*D11
  1

  0
LINE
  5
15F9
330
130A
100
AcDbEntity
  8
2
 62
     0
100
AcDbLine
 10
204.296567682103
 20
170.9319222970153
 30
0.0
 11
204.296567682103
 21
192.0887448954308
 31
0.0
  0
LINE
  5
15FA
330
130A
100
AcDbEntity
  8
2
 62
     0
100
AcDbLine
 10
129.297009682103
 20
176.0390962970153
 30
0.0
 11
129.297009682103
 21
192.0887448954308
 31
0.0
  0
LINE
  5
15FB
330
130A
100
AcDbEntity
  8
2
 62
     0
100
AcDbLine
 10
201.7965676821031
 20
190.0887448954308
 30
0.0
 11
131.797009682103
 21
190.0887448954308
 31
0.0
  0
SOLID
  5
15FC
330
130A
100
AcDbEntity
  8
2
 62
     0
100
AcDbTrace
 10
201.7965676821031
 20
190.5054115620975
 30
0.0
 11
201.7965676821031
 21
189.672078228764
 31
0.0
 12
204.296567682103
 22
190.0887448954308
 32
0.0
 13
204.296567682103
 23
190.0887448954308
 33
0.0
  0
SOLID
  5
15FD
330
130A
100
AcDbEntity
  8
2
 62
     0
100
AcDbTrace
 10
131.797009682103
 20
190.5054115620975
 30
0.0
 11
131.797009682103
 21
189.672078228764
 31
0.0
 12
129.297009682103
 22
190.0887448954308
 32
0.0
 13
129.297009682103
 23
190.0887448954308
 33
0.0
  0
MTEXT
  5
15FE
330
130A
100
AcDbEntity
  8
2
 62
     0
100
AcDbMText
 10
166.796788682103
 20
192.889166539844
 30
0.0
 40
3.5
 41
0.0
 71
     5
 72
     1
  1
\A1;75
  7
STANDARD 3.5 mm
 73
     1
 44
1.0
1001
ACAD
1000
MTEXTBEGIN
1070
    73
1070
     1
1070
    44
1040
1.0
1070
    74
1070
     0
1000
MTEXTEND
  0
ENDBLK
  5
130C
330
130A
100
AcDbEntity
  8
0
100
AcDbBlockEnd
  0
BLOCK
  5
1317
330
1316
100
AcDbEntity
  8
0
100
AcDbBlockBegin
  2
*D12
 70
     1
 10
0.0
 20
0.0
 30
0.0
  3
*D12
  1

  0
LINE
  5
15F0
330
1316
100
AcDbEntity
  8
2
 62
     0
100
AcDbLine
 10
204.296567682103
 20
170.9319222970153
 30
0.0
 11
204.296567682103
 21
184.0887448954308
 31
0.0
  0
LINE
  5
15F1
330
1316
100
AcDbEntity
  8
2
 62
     0
100
AcDbLine
 10
150.897005682103
 20
165.4484992970153
 30
0.0
 11
150.897005682103
 21
184.0887448954308
 31
0.0
  0
LINE
  5
15F2
330
1316
100
AcDbEntity
  8
2
 62
     0
100
AcDbLine
 10
201.7965676821031
 20
182.0887448954309
 30
0.0
 11
153.397005682103
 21
182.0887448954309
 31
0.0
  0
SOLID
  5
15F3
330
1316
100
AcDbEntity
  8
2
 62
     0
100
AcDbTrace
 10
201.7965676821031
 20
182.5054115620975
 30
0.0
 11
201.7965676821031
 21
181.6720782287642
 31
0.0
 12
204.296567682103
 22
182.0887448954309
 32
0.0
 13
204.296567682103
 23
182.0887448954309
 33
0.0
  0
SOLID
  5
15F4
330
1316
100
AcDbEntity
  8
2
 62
     0
100
AcDbTrace
 10
153.397005682103
 20
182.5054115620975
 30
0.0
 11
153.397005682103
 21
181.6720782287642
 31
0.0
 12
150.897005682103
 22
182.0887448954309
 32
0.0
 13
150.897005682103
 23
182.0887448954309
 33
0.0
  0
MTEXT
  5
15F5
330
1316
100
AcDbEntity
  8
2
 62
     0
100
AcDbMText
 10
176.546790182103
 20
184.9002347056909
 30
0.0
 40
3.5
 41
0.0
 71
     5
 72
     1
  1
\A1;53
  7
STANDARD 3.5 mm
 73
     1
 44
1.0
1001
ACAD
1000
MTEXTBEGIN
1070
    73
1070
     1
1070
    44
1040
1.0
1070
    74
1070
     0
1000
MTEXTEND
  0
ENDBLK
  5
1318
330
1316
100
AcDbEntity
  8
0
100
AcDbBlockEnd
  0
BLOCK
  5
1323
330
1322
100
AcDbEntity
  8
0
100
AcDbBlockBegin
  2
*D13
 70
     1
 10
0.0
 20
0.0
 30
0.0
  3
*D13
  1

  0
LINE
  5
1B02
330
1322
100
AcDbEntity
  8
2
 62
     0
100
AcDbLine
 10
205.296567682103
 20
169.9319222970153
 30
0.0
 11
227.3755698875008
 21
169.9319222970153
 31
0.0
  0
LINE
  5
1B03
330
1322
100
AcDbEntity
  8
2
 62
     0
100
AcDbLine
 10
209.05009109143
 20
155.4485022970154
 30
0.0
 11
227.3755698875008
 21
155.4485022970154
 31
0.0
  0
LINE
  5
1B04
330
1322
100
AcDbEntity
  8
2
 62
     0
100
AcDbLine
 10
225.3755698875008
 20
157.9485022970154
 30
0.0
 11
225.3755698875008
 21
167.4319222970153
 31
0.0
  0
LINE
  5
1B05
330
1322
100
AcDbEntity
  8
2
 62
     0
100
AcDbLine
 10
225.3755698875008
 20
169.9319222970153
 30
0.0
 11
225.3755698875008
 21
185.625531034459
 31
0.0
  0
SOLID
  5
1B06
330
1322
100
AcDbEntity
  8
2
 62
     0
100
AcDbTrace
 10
224.9589032208342
 20
157.9485022970154
 30
0.0
 11
225.7922365541675
 21
157.9485022970154
 31
0.0
 12
225.3755698875008
 22
155.4485022970154
 32
0.0
 13
225.3755698875008
 23
155.4485022970154
 33
0.0
  0
SOLID
  5
1B07
330
1322
100
AcDbEntity
  8
2
 62
     0
100
AcDbTrace
 10
224.9589032208342
 20
167.4319222970153
 30
0.0
 11
225.7922365541675
 21
167.4319222970153
 31
0.0
 12
225.3755698875008
 22
169.9319222970153
 32
0.0
 13
225.3755698875008
 23
169.9319222970153
 33
0.0
  0
MTEXT
  5
1B08
330
1322
100
AcDbEntity
  8
2
 62
     0
100
AcDbMText
 10
222.5640800772408
 20
179.0287285045926
 30
0.0
 40
3.5
 41
0.0
 71
     5
 72
     1
  1
\A1;14.5
  7
STANDARD 3.5 mm
 11
0.0000000000000001
 21
1.0
 31
0.0
 73
     1
 44
1.0
1001
ACAD
1000
MTEXTBEGIN
1070
    73
1070
     1
1070
    44
1040
1.0
1070
    74
1070
     0
1000
MTEXTEND
  0
POINT
  5
1B09
330
1322
100
AcDbEntity
  8
Defpoints
 62
     0
100
AcDbPoint
 10
204.296567682103
 20
169.9319222970153
 30
0.0
  0
POINT
  5
1B0A
330
1322
100
AcDbEntity
  8
Defpoints
 62
     0
100
AcDbPoint
 10
208.05009109143
 20
155.4485022970154
 30
0.0
  0
POINT
  5
1B0B
330
1322
100
AcDbEntity
  8
Defpoints
 62
     0
100
AcDbPoint
 10
225.3755698875008
 20
155.4485022970154
 30
0.0
  0
ENDBLK
  5
1324
330
1322
100
AcDbEntity
  8
0
100
AcDbBlockEnd
  0
BLOCK
  5
132F
330
132E
100
AcDbEntity
  8
0
100
AcDbBlockBegin
  2
*D14
 70
     1
 10
0.0
 20
0.0
 30
0.0
  3
*D14
  1

  0
LINE
  5
1AE3
330
132E
100
AcDbEntity
  8
2
 62
     0
100
AcDbLine
 10
205.296567682103
 20
169.9319222970153
 30
0.0
 11
218.7320088143781
 21
169.9319222970153
 31
0.0
  0
LINE
  5
1AE4
330
132E
100
AcDbEntity
  8
2
 62
     0
100
AcDbLine
 10
202.5970106821029
 20
164.4305012970153
 30
0.0
 11
218.7320088143781
 21
164.4305012970153
 31
0.0
  0
LINE
  5
1AE5
330
132E
100
AcDbEntity
  8
2
 62
     0
100
AcDbLine
 10
216.7320088143781
 20
161.9305012970153
 30
0.0
 11
216.7320088143781
 21
159.4305012970153
 31
0.0
  0
LINE
  5
1AE6
330
132E
100
AcDbEntity
  8
2
 62
     0
100
AcDbLine
 10
216.7320088143781
 20
172.4319222970153
 30
0.0
 11
216.7320088143781
 21
185.4435334396325
 31
0.0
  0
LINE
  5
1AE7
330
132E
100
AcDbEntity
  8
2
 62
     0
100
AcDbLine
 10
216.7320088143781
 20
164.4305012970153
 30
0.0
 11
216.7320088143781
 21
169.9319222970153
 31
0.0
  0
SOLID
  5
1AE8
330
132E
100
AcDbEntity
  8
2
 62
     0
100
AcDbTrace
 10
216.3153421477115
 20
161.9305012970153
 30
0.0
 11
217.1486754810448
 21
161.9305012970153
 31
0.0
 12
216.7320088143781
 22
164.4305012970153
 32
0.0
 13
216.7320088143781
 23
164.4305012970153
 33
0.0
  0
SOLID
  5
1AE9
330
132E
100
AcDbEntity
  8
2
 62
     0
100
AcDbTrace
 10
216.3153421477115
 20
172.4319222970153
 30
0.0
 11
217.1486754810448
 21
172.4319222970153
 31
0.0
 12
216.7320088143781
 22
169.9319222970153
 32
0.0
 13
216.7320088143781
 23
169.9319222970153
 33
0.0
  0
MTEXT
  5
1AEA
330
132E
100
AcDbEntity
  8
2
 62
     0
100
AcDbMText
 10
213.9315871699649
 20
180.1921279582552
 30
0.0
 40
3.5
 41
0.0
 71
     5
 72
     1
  1
\A1;5.5
  7
STANDARD 3.5 mm
 11
0.0000000000000001
 21
1.0
 31
0.0
 73
     1
 44
1.0
1001
ACAD
1000
MTEXTBEGIN
1070
    73
1070
     1
1070
    44
1040
1.0
1070
    74
1070
     0
1000
MTEXTEND
  0
POINT
  5
1AEB
330
132E
100
AcDbEntity
  8
Defpoints
 62
     0
100
AcDbPoint
 10
204.296567682103
 20
169.9319222970153
 30
0.0
  0
POINT
  5
1AEC
330
132E
100
AcDbEntity
  8
Defpoints
 62
     0
100
AcDbPoint
 10
201.5970106821029
 20
164.4305012970153
 30
0.0
  0
POINT
  5
1AED
330
132E
100
AcDbEntity
  8
Defpoints
 62
     0
100
AcDbPoint
 10
216.7320088143781
 20
164.4305012970153
 30
0.0
  0
ENDBLK
  5
1330
330
132E
100
AcDbEntity
  8
0
100
AcDbBlockEnd
  0
BLOCK
  5
133D
330
133C
100
AcDbEntity
  8
0
100
AcDbBlockBegin
  2
*D15
 70
     1
 10
0.0
 20
0.0
 30
0.0
  3
*D15
  1

  0
LINE
  5
13E6
330
133C
100
AcDbEntity
  8
SK2
 62
     0
100
AcDbLine
 10
128.297009682103
 20
135.4485022970154
 30
0.0
 11
97.03305619198204
 21
135.4485022970154
 31
0.0
  0
LINE
  5
13E7
330
133C
100
AcDbEntity
  8
SK2
 62
     0
100
AcDbLine
 10
128.297009682103
 20
175.4484942970153
 30
0.0
 11
97.03305619198209
 21
175.4484942970153
 31
0.0
  0
LINE
  5
13E8
330
133C
100
AcDbEntity
  8
SK2
 62
     0
100
AcDbLine
 10
99.03305619198206
 20
137.9485022970154
 30
0.0
 11
99.03305619198206
 21
172.9484942970153
 31
0.0
  0
SOLID
  5
13E9
330
133C
100
AcDbEntity
  8
SK2
 62
     0
100
AcDbTrace
 10
98.6163895253154
 20
137.9485022970154
 30
0.0
 11
99.44972285864873
 21
137.9485022970154
 31
0.0
 12
99.03305619198206
 22
135.4485022970154
 32
0.0
 13
99.03305619198206
 23
135.4485022970154
 33
0.0
  0
SOLID
  5
13EA
330
133C
100
AcDbEntity
  8
SK2
 62
     0
100
AcDbTrace
 10
98.6163895253154
 20
172.9484942970153
 30
0.0
 11
99.44972285864874
 21
172.9484942970153
 31
0.0
 12
99.03305619198206
 22
175.4484942970153
 32
0.0
 13
99.03305619198206
 23
175.4484942970153
 33
0.0
  0
MTEXT
  5
13EB
330
133C
100
AcDbEntity
  8
SK2
 62
     0
100
AcDbMText
 10
96.16991494110365
 20
156.0258283409987
 30
0.0
 40
3.5
 41
0.0
 71
     5
 72
     1
  1
\A1;%%c40
  7
STANDARD 3.5 mm
 11
0.0000000000000001
 21
1.0
 31
0.0
 73
     1
 44
1.0
1001
ACAD
1000
MTEXTBEGIN
1070
    73
1070
     1
1070
    44
1040
1.0
1070
    74
1070
     0
1000
MTEXTEND
  0
ENDBLK
  5
133E
330
133C
100
AcDbEntity
  8
0
100
AcDbBlockEnd
  0
BLOCK
  5
1349
330
1348
100
AcDbEntity
  8
0
100
AcDbBlockBegin
  2
*D16
 70
     1
 10
0.0
 20
0.0
 30
0.0
  3
*D16
  1

  0
LINE
  5
1AC5
330
1348
100
AcDbEntity
  8
2
 62
     0
100
AcDbLine
 10
204.296567682103
 20
168.9319222970153
 30
0.0
 11
204.296567682103
 21
142.4202188103167
 31
0.0
  0
LINE
  5
1AC6
330
1348
100
AcDbEntity
  8
2
 62
     0
100
AcDbLine
 10
173.797012682103
 20
150.7485002970153
 30
0.0
 11
173.797012682103
 21
142.4202188103167
 31
0.0
  0
LINE
  5
1AC7
330
1348
100
AcDbEntity
  8
2
 62
     0
100
AcDbLine
 10
201.796567682103
 20
144.4202188103167
 30
0.0
 11
176.297012682103
 21
144.4202188103167
 31
0.0
  0
SOLID
  5
1AC8
330
1348
100
AcDbEntity
  8
2
 62
     0
100
AcDbTrace
 10
201.796567682103
 20
144.8368854769833
 30
0.0
 11
201.796567682103
 21
144.00355214365
 31
0.0
 12
204.296567682103
 22
144.4202188103167
 32
0.0
 13
204.296567682103
 23
144.4202188103167
 33
0.0
  0
SOLID
  5
1AC9
330
1348
100
AcDbEntity
  8
2
 62
     0
100
AcDbTrace
 10
176.297012682103
 20
144.8368854769833
 30
0.0
 11
176.297012682103
 21
144.00355214365
 31
0.0
 12
173.797012682103
 22
144.4202188103167
 32
0.0
 13
173.797012682103
 23
144.4202188103167
 33
0.0
  0
MTEXT
  5
1ACA
330
1348
100
AcDbEntity
  8
2
 62
     0
100
AcDbMText
 10
189.6267667827162
 20
147.2317086205767
 30
0.0
 40
3.5
 41
0.0
 71
     5
 72
     1
  1
\A1;30
  7
STANDARD 3.5 mm
 73
     1
 44
1.0
1001
ACAD
1000
MTEXTBEGIN
1070
    73
1070
     1
1070
    44
1040
1.0
1070
    74
1070
     0
1000
MTEXTEND
  0
POINT
  5
1ACB
330
1348
100
AcDbEntity
  8
Defpoints
 62
     0
100
AcDbPoint
 10
204.296567682103
 20
169.9319222970153
 30
0.0
  0
POINT
  5
1ACC
330
1348
100
AcDbEntity
  8
Defpoints
 62
     0
100
AcDbPoint
 10
173.797012682103
 20
151.7485002970153
 30
0.0
  0
POINT
  5
1ACD
330
1348
100
AcDbEntity
  8
Defpoints
 62
     0
100
AcDbPoint
 10
173.797012682103
 20
144.4202188103167
 30
0.0
  0
ENDBLK
  5
134A
330
1348
100
AcDbEntity
  8
0
100
AcDbBlockEnd
  0
BLOCK
  5
1355
330
1354
100
AcDbEntity
  8
0
100
AcDbBlockBegin
  2
*D17
 70
     1
 10
0.0
 20
0.0
 30
0.0
  3
*D17
  1

  0
LINE
  5
1B65
330
1354
100
AcDbEntity
  8
2
 62
     0
100
AcDbLine
 10
157.9511251821029
 20
146.4484962970153
 30
0.0
 11
160.9572371104894
 21
146.4484962970153
 31
0.0
  0
LINE
  5
1B66
330
1354
100
AcDbEntity
  8
2
 62
     0
100
AcDbLine
 10
158.7011251821029
 20
164.4484992970153
 30
0.0
 11
156.9572371104894
 21
164.4484992970153
 31
0.0
  0
LINE
  5
1B67
330
1354
100
AcDbEntity
  8
2
 62
     0
100
AcDbLine
 10
158.9572371104894
 20
161.9484992970153
 30
0.0
 11
158.9572371104894
 21
148.9484962970153
 31
0.0
  0
LINE
  5
1B68
330
1354
100
AcDbEntity
  8
2
 62
     0
100
AcDbLine
 10
158.9572371104894
 20
146.4484962970153
 30
0.0
 11
158.9572371104894
 21
133.2981097896365
 31
0.0
  0
SOLID
  5
1B69
330
1354
100
AcDbEntity
  8
2
 62
     0
100
AcDbTrace
 10
158.5405704438228
 20
161.9484992970153
 30
0.0
 11
159.3739037771561
 21
161.9484992970153
 31
0.0
 12
158.9572371104894
 22
164.4484992970153
 32
0.0
 13
158.9572371104894
 23
164.4484992970153
 33
0.0
  0
SOLID
  5
1B6A
330
1354
100
AcDbEntity
  8
2
 62
     0
100
AcDbTrace
 10
158.5405704438228
 20
148.9484962970153
 30
0.0
 11
159.3739037771561
 21
148.9484962970153
 31
0.0
 12
158.9572371104894
 22
146.4484962970153
 32
0.0
 13
158.9572371104894
 23
146.4484962970153
 33
0.0
  0
MTEXT
  5
1B6B
330
1354
100
AcDbEntity
  8
2
 62
     0
100
AcDbMText
 10
156.094095859611
 20
138.6233030433259
 30
0.0
 40
3.5
 41
0.0
 71
     5
 72
     1
  1
\A1;%%c18
  7
STANDARD 3.5 mm
 11
0.0000000000000001
 21
1.0
 31
0.0
 73
     1
 44
1.0
1001
ACAD
1000
MTEXTBEGIN
1070
    73
1070
     1
1070
    44
1040
1.0
1070
    74
1070
     0
1000
MTEXTEND
  0
POINT
  5
1B6C
330
1354
100
AcDbEntity
  8
Defpoints
 62
     0
100
AcDbPoint
 10
156.9511251821029
 20
146.4484962970153
 30
0.0
  0
POINT
  5
1B6D
330
1354
100
AcDbEntity
  8
Defpoints
 62
     0
100
AcDbPoint
 10
159.7011251821029
 20
164.4484992970153
 30
0.0
  0
POINT
  5
1B6E
330
1354
100
AcDbEntity
  8
Defpoints
 62
     0
100
AcDbPoint
 10
158.9572371104894
 20
164.4484992970153
 30
0.0
  0
ENDBLK
  5
1356
330
1354
100
AcDbEntity
  8
0
100
AcDbBlockEnd
  0
BLOCK
  5
1854
330
1852
100
AcDbEntity
  8
0
100
AcDbBlockBegin
  2
GENAXEH
 70
     0
 10
0.0
 20
0.0
 30
0.0
  3
GENAXEH
  1

  0
LINE
  5
1853
330
1852
100
AcDbEntity
  8
0
100
AcDbLine
 10
-1.0
 20
0.0
 30
0.0
 11
1.0
 21
0.0
 31
0.0
  0
ENDBLK
  5
1855
330
1852
100
AcDbEntity
  8
0
100
AcDbBlockEnd
  0
ENDSEC
  0
SECTION
  2
ENTITIES
  0
CIRCLE
  5
110E
330
18
100
AcDbEntity
  8
1
100
AcDbCircle
 10
195.7970136821029
 20
158.2484902970154
 30
0.0
 40
3.9
  0
ARC
  5
110F
330
18
100
AcDbEntity
  8
1
100
AcDbCircle
 10
195.7970136821029
 20
158.2484902970154
 30
0.0
 40
1.25
100
AcDbArc
 50
128.9634589999997
 51
171.0365419999991
  0
ARC
  5
1110
330
18
100
AcDbEntity
  8
1
100
AcDbCircle
 10
195.7970136821029
 20
158.2484902970154
 30
0.0
 40
1.25
100
AcDbArc
 50
188.9634580000009
 51
231.0365410000003
  0
ARC
  5
1111
330
18
100
AcDbEntity
  8
1
100
AcDbCircle
 10
195.7970136821029
 20
158.2484902970154
 30
0.0
 40
1.25
100
AcDbArc
 50
248.9634580000008
 51
291.0365419999992
  0
ARC
  5
1112
330
18
100
AcDbEntity
  8
1
100
AcDbCircle
 10
195.7970136821029
 20
158.2484902970154
 30
0.0
 40
1.25
100
AcDbArc
 50
308.9634589999997
 51
351.0365419999991
  0
ARC
  5
1113
330
18
100
AcDbEntity
  8
1
100
AcDbCircle
 10
195.7970136821029
 20
158.2484902970154
 30
0.0
 40
1.25
100
AcDbArc
 50
8.963458000000898
 51
51.03654100000032
  0
ARC
  5
1114
330
18
100
AcDbEntity
  8
1
100
AcDbCircle
 10
195.7970136821029
 20
158.2484902970154
 30
0.0
 40
1.25
100
AcDbArc
 50
68.96345800000084
 51
111.0365419999991
  0
ARC
  5
1115
330
18
100
AcDbEntity
  8
1
100
AcDbCircle
 10
195.7970136821029
 20
158.2484902970154
 30
0.0
 40
1.25
100
AcDbArc
 50
51.03654100000032
 51
68.96345800000084
  0
ARC
  5
1116
330
18
100
AcDbEntity
  8
1
100
AcDbCircle
 10
195.7970136821029
 20
158.2484902970154
 30
0.0
 40
1.25
100
AcDbArc
 50
351.0365419999991
 51
8.963458000000898
  0
ARC
  5
1117
330
18
100
AcDbEntity
  8
1
100
AcDbCircle
 10
195.7970136821029
 20
158.2484902970154
 30
0.0
 40
1.25
100
AcDbArc
 50
291.0365419999992
 51
308.9634589999997
  0
ARC
  5
1118
330
18
100
AcDbEntity
  8
1
100
AcDbCircle
 10
195.7970136821029
 20
158.2484902970154
 30
0.0
 40
1.25
100
AcDbArc
 50
231.0365410000003
 51
248.9634580000008
  0
ARC
  5
1119
330
18
100
AcDbEntity
  8
1
100
AcDbCircle
 10
195.7970136821029
 20
158.2484902970154
 30
0.0
 40
1.25
100
AcDbArc
 50
171.0365419999991
 51
188.9634580000009
  0
ARC
  5
111A
330
18
100
AcDbEntity
  8
1
100
AcDbCircle
 10
195.7970136821029
 20
158.2484902970154
 30
0.0
 40
1.25
100
AcDbArc
 50
111.0365419999991
 51
128.9634589999997
  0
CIRCLE
  5
111B
330
18
100
AcDbEntity
  8
1
100
AcDbCircle
 10
195.7970136821029
 20
158.2484902970154
 30
0.0
 40
3.75
  0
ARC
  5
111C
330
18
100
AcDbEntity
  8
1
100
AcDbCircle
 10
195.7970136821029
 20
158.2484902970154
 30
0.0
 40
1.676399999999999
100
AcDbArc
 50
270.0
 51
330.0000000000001
  0
ARC
  5
111D
330
18
100
AcDbEntity
  8
1
100
AcDbCircle
 10
195.7970136821029
 20
158.2484902970154
 30
0.0
 40
1.676399999999999
100
AcDbArc
 50
209.9999999999998
 51
270.0
  0
ARC
  5
111E
330
18
100
AcDbEntity
  8
1
100
AcDbCircle
 10
195.7970136821029
 20
158.2484902970154
 30
0.0
 40
1.676399999999999
100
AcDbArc
 50
150.0000000000001
 51
209.9999999999998
  0
ARC
  5
111F
330
18
100
AcDbEntity
  8
1
100
AcDbCircle
 10
195.7970136821029
 20
158.2484902970154
 30
0.0
 40
1.676399999999999
100
AcDbArc
 50
90.00000000000005
 51
150.0000000000001
  0
ARC
  5
1120
330
18
100
AcDbEntity
  8
1
100
AcDbCircle
 10
195.7970136821029
 20
158.2484902970154
 30
0.0
 40
1.676399999999999
100
AcDbArc
 50
29.99999999999984
 51
90.00000000000005
  0
ARC
  5
1121
330
18
100
AcDbEntity
  8
1
100
AcDbCircle
 10
195.7970136821029
 20
158.2484902970154
 30
0.0
 40
1.676399999999999
100
AcDbArc
 50
330.0000000000001
 51
29.99999999999984
  0
CIRCLE
  5
1122
330
18
100
AcDbEntity
  8
1
100
AcDbCircle
 10
195.7970136821029
 20
158.2484902970154
 30
0.0
 40
2.431049
  0
ARC
  5
1123
330
18
100
AcDbEntity
  8
1
100
AcDbCircle
 10
150.897005682103
 20
144.8484972970153
 30
0.0
 40
1.6
100
AcDbArc
 50
90.00000000000005
 51
180.0
  0
ARC
  5
1124
330
18
100
AcDbEntity
  8
1
100
AcDbCircle
 10
150.897005682103
 20
166.0484992970153
 30
0.0
 40
1.6
100
AcDbArc
 50
180.0
 51
270.0
  0
LINE
  5
1125
330
18
100
AcDbEntity
  8
1
100
AcDbLine
 10
189.2246196821029
 20
151.8295632970154
 30
0.0
 11
189.2246196821029
 21
152.0196562970154
 31
0.0
  0
LINE
  5
1126
330
18
100
AcDbEntity
  8
1
100
AcDbLine
 10
189.414045682103
 20
164.1362612970153
 30
0.0
 11
190.1076566821029
 21
164.4171912970154
 31
0.0
  0
LINE
  5
1127
330
18
100
AcDbEntity
  8
1
100
AcDbLine
 10
194.192557682103
 20
164.4357702970153
 30
0.0
 11
193.922006682103
 21
164.3177182970154
 31
0.0
  0
LINE
  5
1128
330
18
100
AcDbEntity
  8
1
100
AcDbLine
 10
140.797010682103
 20
150.8775142970153
 30
0.0
 11
140.797010682103
 21
135.9778542970153
 31
0.0
  0
LINE
  5
1129
330
18
100
AcDbEntity
  8
1
100
AcDbLine
 10
137.797011682103
 20
150.8775142970153
 30
0.0
 11
137.797011682103
 21
135.9778542970153
 31
0.0
  0
LINE
  5
112A
330
18
100
AcDbEntity
  8
1
100
AcDbLine
 10
140.797010682103
 20
174.9191422970153
 30
0.0
 11
140.797010682103
 21
160.0194822970153
 31
0.0
  0
LINE
  5
112B
330
18
100
AcDbEntity
  8
1
100
AcDbLine
 10
137.797011682103
 20
174.9191422970153
 30
0.0
 11
137.797011682103
 21
160.0194822970153
 31
0.0
  0
LINE
  5
112C
330
18
100
AcDbEntity
  8
SK1
100
AcDbLine
 10
105.297009682103
 20
153.5697552970153
 30
0.0
 11
129.297009682103
 21
153.2586912970154
 31
0.0
  0
LINE
  5
112D
330
18
100
AcDbEntity
  8
SK1
100
AcDbLine
 10
105.297009682103
 20
157.3272412970153
 30
0.0
 11
129.297009682103
 21
157.6383052970153
 31
0.0
  0
LINE
  5
112E
330
18
100
AcDbEntity
  8
1
100
AcDbLine
 10
149.2970056821029
 20
174.8416752970153
 30
0.0
 11
149.2970056821029
 21
174.9485002970153
 31
0.0
  0
LINE
  5
112F
330
18
100
AcDbEntity
  8
1
100
AcDbLine
 10
149.2970056821029
 20
174.5223762970153
 30
0.0
 11
149.2970056821029
 21
174.8416752970153
 31
0.0
  0
LINE
  5
1130
330
18
100
AcDbEntity
  8
1
100
AcDbLine
 10
149.2970056821029
 20
173.9941012970153
 30
0.0
 11
149.2970056821029
 21
174.5223762970153
 31
0.0
  0
LINE
  5
1131
330
18
100
AcDbEntity
  8
1
100
AcDbLine
 10
149.2970056821029
 20
173.2626292970153
 30
0.0
 11
149.2970056821029
 21
173.9941012970153
 31
0.0
  0
LINE
  5
1132
330
18
100
AcDbEntity
  8
1
100
AcDbLine
 10
149.2970056821029
 20
172.3359902970153
 30
0.0
 11
149.2970056821029
 21
173.2626292970153
 31
0.0
  0
LINE
  5
1133
330
18
100
AcDbEntity
  8
1
100
AcDbLine
 10
149.2970056821029
 20
171.2243212970153
 30
0.0
 11
149.2970056821029
 21
172.3359902970153
 31
0.0
  0
LINE
  5
1134
330
18
100
AcDbEntity
  8
1
100
AcDbLine
 10
149.2970056821029
 20
169.9398192970153
 30
0.0
 11
149.2970056821029
 21
171.2243212970153
 31
0.0
  0
LINE
  5
1135
330
18
100
AcDbEntity
  8
1
100
AcDbLine
 10
149.2970056821029
 20
168.4965442970153
 30
0.0
 11
149.2970056821029
 21
169.9398192970153
 31
0.0
  0
LINE
  5
1136
330
18
100
AcDbEntity
  8
1
100
AcDbLine
 10
149.2970056821029
 20
166.9103042970154
 30
0.0
 11
149.2970056821029
 21
168.4965442970153
 31
0.0
  0
LINE
  5
1137
330
18
100
AcDbEntity
  8
1
100
AcDbLine
 10
149.2970056821029
 20
165.1984902970154
 30
0.0
 11
149.2970056821029
 21
166.9103042970154
 31
0.0
  0
LINE
  5
1138
330
18
100
AcDbEntity
  8
1
100
AcDbLine
 10
149.2970056821029
 20
163.3798632970155
 30
0.0
 11
149.2970056821029
 21
165.1984902970154
 31
0.0
  0
LINE
  5
1139
330
18
100
AcDbEntity
  8
1
100
AcDbLine
 10
149.2970056821029
 20
161.4743232970153
 30
0.0
 11
149.2970056821029
 21
163.3798632970155
 31
0.0
  0
LINE
  5
113A
330
18
100
AcDbEntity
  8
1
100
AcDbLine
 10
149.2970056821029
 20
159.5027742970154
 30
0.0
 11
149.2970056821029
 21
161.4743232970153
 31
0.0
  0
LINE
  5
113B
330
18
100
AcDbEntity
  8
1
100
AcDbLine
 10
149.2970056821029
 20
157.4868002970154
 30
0.0
 11
149.2970056821029
 21
159.5027742970154
 31
0.0
  0
LINE
  5
113C
330
18
100
AcDbEntity
  8
1
100
AcDbLine
 10
149.2970056821029
 20
155.4484922970154
 30
0.0
 11
149.2970056821029
 21
157.4868002970154
 31
0.0
  0
LINE
  5
113D
330
18
100
AcDbEntity
  8
1
100
AcDbLine
 10
149.2970056821029
 20
153.4101962970154
 30
0.0
 11
149.2970056821029
 21
155.4484922970154
 31
0.0
  0
LINE
  5
113E
330
18
100
AcDbEntity
  8
1
100
AcDbLine
 10
149.2970056821029
 20
151.3942212970153
 30
0.0
 11
149.2970056821029
 21
153.4101962970154
 31
0.0
  0
LINE
  5
113F
330
18
100
AcDbEntity
  8
1
100
AcDbLine
 10
149.2970056821029
 20
149.4226612970154
 30
0.0
 11
149.2970056821029
 21
151.3942212970153
 31
0.0
  0
LINE
  5
1140
330
18
100
AcDbEntity
  8
1
100
AcDbLine
 10
149.2970056821029
 20
147.5171322970153
 30
0.0
 11
149.2970056821029
 21
149.4226612970154
 31
0.0
  0
LINE
  5
1141
330
18
100
AcDbEntity
  8
1
100
AcDbLine
 10
149.2970056821029
 20
145.6984942970153
 30
0.0
 11
149.2970056821029
 21
147.5171322970153
 31
0.0
  0
LINE
  5
1142
330
18
100
AcDbEntity
  8
1
100
AcDbLine
 10
149.2970056821029
 20
143.9866792970153
 30
0.0
 11
149.2970056821029
 21
145.6984942970153
 31
0.0
  0
LINE
  5
1143
330
18
100
AcDbEntity
  8
1
100
AcDbLine
 10
149.2970056821029
 20
142.4004512970153
 30
0.0
 11
149.2970056821029
 21
143.9866792970153
 31
0.0
  0
LINE
  5
1144
330
18
100
AcDbEntity
  8
1
100
AcDbLine
 10
149.2970056821029
 20
140.9571772970153
 30
0.0
 11
149.2970056821029
 21
142.4004512970153
 31
0.0
  0
LINE
  5
1145
330
18
100
AcDbEntity
  8
1
100
AcDbLine
 10
149.2970056821029
 20
139.6726622970154
 30
0.0
 11
149.2970056821029
 21
140.9571772970153
 31
0.0
  0
LINE
  5
1146
330
18
100
AcDbEntity
  8
1
100
AcDbLine
 10
149.2970056821029
 20
138.5610052970154
 30
0.0
 11
149.2970056821029
 21
139.6726622970154
 31
0.0
  0
LINE
  5
1147
330
18
100
AcDbEntity
  8
1
100
AcDbLine
 10
149.2970056821029
 20
137.6343542970153
 30
0.0
 11
149.2970056821029
 21
138.5610052970154
 31
0.0
  0
LINE
  5
1148
330
18
100
AcDbEntity
  8
1
100
AcDbLine
 10
149.2970056821029
 20
136.9028942970153
 30
0.0
 11
149.2970056821029
 21
137.6343542970153
 31
0.0
  0
LINE
  5
1149
330
18
100
AcDbEntity
  8
1
100
AcDbLine
 10
149.2970056821029
 20
136.3746202970153
 30
0.0
 11
149.2970056821029
 21
136.9028942970153
 31
0.0
  0
LINE
  5
114A
330
18
100
AcDbEntity
  8
1
100
AcDbLine
 10
149.2970056821029
 20
136.0553202970153
 30
0.0
 11
149.2970056821029
 21
136.3746202970153
 31
0.0
  0
LINE
  5
114B
330
18
100
AcDbEntity
  8
1
100
AcDbLine
 10
149.2970056821029
 20
135.9484952970153
 30
0.0
 11
149.2970056821029
 21
136.0553202970153
 31
0.0
  0
LINE
  5
114C
330
18
100
AcDbEntity
  8
1
100
AcDbLine
 10
200.997010682103
 20
164.1293452970153
 30
0.0
 11
200.997010682103
 21
160.1336952970154
 31
0.0
  0
LINE
  5
114D
330
18
100
AcDbEntity
  8
1
100
AcDbLine
 10
201.5970106821029
 20
165.1027592970153
 30
0.0
 11
203.997009682103
 21
165.1027592970153
 31
0.0
  0
LINE
  5
114E
330
18
100
AcDbEntity
  8
1
100
AcDbLine
 10
189.2970106821029
 20
152.0215212970154
 30
0.0
 11
189.3693896821029
 21
152.0202012970153
 31
0.0
  0
LINE
  5
114F
330
18
100
AcDbEntity
  8
1
100
AcDbLine
 10
189.193819682103
 20
152.0188202970153
 30
0.0
 11
189.2970106821029
 21
152.0215212970154
 31
0.0
  0
LINE
  5
1150
330
18
100
AcDbEntity
  8
1
100
AcDbLine
 10
189.036306682103
 20
152.0033652970154
 30
0.0
 11
189.193819682103
 21
152.0188202970153
 31
0.0
  0
LINE
  5
1151
330
18
100
AcDbEntity
  8
1
100
AcDbLine
 10
188.9073176821028
 20
151.9765622970154
 30
0.0
 11
189.036306682103
 21
152.0033652970154
 31
0.0
  0
LINE
  5
1152
330
18
100
AcDbEntity
  8
1
100
AcDbLine
 10
188.8244736821029
 20
151.9435222970153
 30
0.0
 11
188.9073176821028
 21
151.9765622970154
 31
0.0
  0
LINE
  5
1153
330
18
100
AcDbEntity
  8
1
100
AcDbLine
 10
188.797016682103
 20
151.9098272970153
 30
0.0
 11
188.8244736821029
 21
151.9435222970153
 31
0.0
  0
LINE
  5
1154
330
18
100
AcDbEntity
  8
1
100
AcDbLine
 10
188.8261936821029
 20
151.8797902970153
 30
0.0
 11
188.797016682103
 21
151.9098272970153
 31
0.0
  0
LINE
  5
1155
330
18
100
AcDbEntity
  8
1
100
AcDbLine
 10
188.9074146821029
 20
151.8559542970153
 30
0.0
 11
188.8261936821029
 21
151.8797902970153
 31
0.0
  0
LINE
  5
1156
330
18
100
AcDbEntity
  8
1
100
AcDbLine
 10
189.0314866821029
 20
151.8394582970153
 30
0.0
 11
188.9074146821029
 21
151.8559542970153
 31
0.0
  0
LINE
  5
1157
330
18
100
AcDbEntity
  8
1
100
AcDbLine
 10
189.185001682103
 20
151.8305682970154
 30
0.0
 11
189.0314866821029
 21
151.8394582970153
 31
0.0
  0
LINE
  5
1158
330
18
100
AcDbEntity
  8
1
100
AcDbLine
 10
189.2246196821029
 20
151.8295632970154
 30
0.0
 11
189.185001682103
 21
151.8305682970154
 31
0.0
  0
LINE
  5
1159
330
18
100
AcDbEntity
  8
1
100
AcDbLine
 10
194.5591166821029
 20
151.8637062970153
 30
0.0
 11
199.821646682103
 21
151.7731352970153
 31
0.0
  0
LINE
  5
115A
330
18
100
AcDbEntity
  8
1
100
AcDbLine
 10
189.3693896821029
 20
152.0202012970153
 30
0.0
 11
194.5591166821029
 21
151.8637062970153
 31
0.0
  0
LINE
  5
115B
330
18
100
AcDbEntity
  8
1
100
AcDbLine
 10
173.797012682103
 20
156.7701892970154
 30
0.0
 11
173.797012682103
 21
158.0985002970153
 31
0.0
  0
LINE
  5
115C
330
18
100
AcDbEntity
  8
1
100
AcDbLine
 10
173.797012682103
 20
155.5422482970153
 30
0.0
 11
173.797012682103
 21
156.7701892970154
 31
0.0
  0
LINE
  5
115D
330
18
100
AcDbEntity
  8
1
100
AcDbLine
 10
173.797012682103
 20
154.4456222970153
 30
0.0
 11
173.797012682103
 21
155.5422482970153
 31
0.0
  0
LINE
  5
115E
330
18
100
AcDbEntity
  8
1
100
AcDbLine
 10
173.797012682103
 20
153.5079852970153
 30
0.0
 11
173.797012682103
 21
154.4456222970153
 31
0.0
  0
LINE
  5
115F
330
18
100
AcDbEntity
  8
1
100
AcDbLine
 10
173.797012682103
 20
152.7529932970154
 30
0.0
 11
173.797012682103
 21
153.5079852970153
 31
0.0
  0
LINE
  5
1160
330
18
100
AcDbEntity
  8
1
100
AcDbLine
 10
173.797012682103
 20
152.1996832970154
 30
0.0
 11
173.797012682103
 21
152.7529932970154
 31
0.0
  0
LINE
  5
1161
330
18
100
AcDbEntity
  8
1
100
AcDbLine
 10
173.797012682103
 20
151.8620102970154
 30
0.0
 11
173.797012682103
 21
152.1996832970154
 31
0.0
  0
LINE
  5
1162
330
18
100
AcDbEntity
  8
1
100
AcDbLine
 10
173.797012682103
 20
151.7485002970153
 30
0.0
 11
173.797012682103
 21
151.8620102970154
 31
0.0
  0
LINE
  5
1163
330
18
100
AcDbEntity
  8
1
100
AcDbLine
 10
199.803527682103
 20
151.7550162970153
 30
0.0
 11
189.2246196821029
 21
151.8295632970154
 31
0.0
  0
LINE
  5
1164
330
18
100
AcDbEntity
  8
1
100
AcDbLine
 10
201.5970106821029
 20
164.1293452970153
 30
0.0
 11
201.5970106821029
 21
165.1027592970153
 31
0.0
  0
LINE
  5
1165
330
18
100
AcDbEntity
  8
1
100
AcDbLine
 10
201.5970106821029
 20
165.1027592970153
 30
0.0
 11
201.5970106821029
 21
165.8906232970153
 31
0.0
  0
LINE
  5
1166
330
18
100
AcDbEntity
  8
1
100
AcDbLine
 10
201.5970106821029
 20
165.9556632970153
 30
0.0
 11
201.5970106821029
 21
165.8906232970153
 31
0.0
  0
LINE
  5
1167
330
18
100
AcDbEntity
  8
1
100
AcDbLine
 10
201.5970106821029
 20
165.9784932970153
 30
0.0
 11
201.5970106821029
 21
165.9556632970153
 31
0.0
  0
LINE
  5
1168
330
18
100
AcDbEntity
  8
1
100
AcDbLine
 10
201.5970106821029
 20
165.8906232970153
 30
0.0
 11
203.997009682103
 21
165.8906232970153
 31
0.0
  0
LINE
  5
1169
330
18
100
AcDbEntity
  8
1
100
AcDbLine
 10
202.7970096821029
 20
165.9334502970154
 30
0.0
 11
203.0701886821029
 21
165.9784932970153
 31
0.0
  0
LINE
  5
116A
330
18
100
AcDbEntity
  8
1
100
AcDbLine
 10
202.5238316821031
 20
165.9784932970153
 30
0.0
 11
202.7970096821029
 21
165.9334502970154
 31
0.0
  0
LINE
  5
116B
330
18
100
AcDbEntity
  8
1
100
AcDbLine
 10
200.547232682103
 20
152.4987202970153
 30
0.0
 11
201.002775682103
 21
152.9542642970153
 31
0.0
  0
LINE
  5
116C
330
18
100
AcDbEntity
  8
1
100
AcDbLine
 10
200.195799682103
 20
152.1472882970154
 30
0.0
 11
200.547232682103
 21
152.4987202970153
 31
0.0
  0
LINE
  5
116D
330
18
100
AcDbEntity
  8
1
100
AcDbLine
 10
199.952912682103
 20
151.9044012970153
 30
0.0
 11
200.195799682103
 21
152.1472882970154
 31
0.0
  0
LINE
  5
116E
330
18
100
AcDbEntity
  8
1
100
AcDbLine
 10
199.821646682103
 20
151.7731352970153
 30
0.0
 11
199.952912682103
 21
151.9044012970153
 31
0.0
  0
LINE
  5
116F
330
18
100
AcDbEntity
  8
1
100
AcDbLine
 10
188.362377682103
 20
153.5745992970153
 30
0.0
 11
189.2970106821029
 21
152.9542642970153
 31
0.0
  0
LINE
  5
1170
330
18
100
AcDbEntity
  8
1
100
AcDbLine
 10
187.5121756821028
 20
154.3063742970153
 30
0.0
 11
188.362377682103
 21
153.5745992970153
 31
0.0
  0
LINE
  5
1171
330
18
100
AcDbEntity
  8
1
100
AcDbLine
 10
186.759616682103
 20
155.1382272970153
 30
0.0
 11
187.5121756821028
 21
154.3063742970153
 31
0.0
  0
LINE
  5
1172
330
18
100
AcDbEntity
  8
1
100
AcDbLine
 10
186.116378682103
 20
156.0572482970154
 30
0.0
 11
186.759616682103
 21
155.1382272970153
 31
0.0
  0
LINE
  5
1173
330
18
100
AcDbEntity
  8
1
100
AcDbLine
 10
185.592452682103
 20
157.0491332970154
 30
0.0
 11
186.116378682103
 21
156.0572482970154
 31
0.0
  0
LINE
  5
1174
330
18
100
AcDbEntity
  8
1
100
AcDbLine
 10
185.1959896821029
 20
158.0985002970153
 30
0.0
 11
185.592452682103
 21
157.0491332970154
 31
0.0
  0
LINE
  5
1175
330
18
100
AcDbEntity
  8
1
100
AcDbLine
 10
189.2970106821029
 20
163.2427232970153
 30
0.0
 11
189.2970106821029
 21
152.9542642970153
 31
0.0
  0
LINE
  5
1176
330
18
100
AcDbEntity
  8
1
100
AcDbLine
 10
189.2970106821029
 20
152.9542642970153
 30
0.0
 11
201.002775682103
 21
152.9542642970153
 31
0.0
  0
LINE
  5
1177
330
18
100
AcDbEntity
  8
1
100
AcDbLine
 10
203.997009682103
 20
155.9484982970153
 30
0.0
 11
201.002775682103
 21
152.9542642970153
 31
0.0
  0
LINE
  5
1178
330
18
100
AcDbEntity
  8
1
100
AcDbLine
 10
203.997009682103
 20
160.1336952970154
 30
0.0
 11
200.997010682103
 21
160.1336952970154
 31
0.0
  0
LINE
  5
1179
330
18
100
AcDbEntity
  8
1
100
AcDbLine
 10
200.154305682103
 20
163.2427232970153
 30
0.0
 11
200.997010682103
 21
160.1336952970154
 31
0.0
  0
LINE
  5
117A
330
18
100
AcDbEntity
  8
1
100
AcDbLine
 10
203.997009682103
 20
165.9556632970153
 30
0.0
 11
203.997009682103
 21
165.8906232970153
 31
0.0
  0
LINE
  5
117B
330
18
100
AcDbEntity
  8
1
100
AcDbLine
 10
203.997009682103
 20
165.9784932970153
 30
0.0
 11
203.997009682103
 21
165.9556632970153
 31
0.0
  0
LINE
  5
117C
330
18
100
AcDbEntity
  8
1
100
AcDbLine
 10
203.997009682103
 20
165.1027592970153
 30
0.0
 11
203.997009682103
 21
165.8906232970153
 31
0.0
  0
LINE
  5
117D
330
18
100
AcDbEntity
  8
1
100
AcDbLine
 10
203.997009682103
 20
160.1336952970154
 30
0.0
 11
203.997009682103
 21
165.1027592970153
 31
0.0
  0
LINE
  5
117E
330
18
100
AcDbEntity
  8
1
100
AcDbLine
 10
203.997009682103
 20
155.9484982970153
 30
0.0
 11
203.997009682103
 21
160.1336952970154
 31
0.0
  0
LINE
  5
117F
330
18
100
AcDbEntity
  8
1
100
AcDbLine
 10
150.897005682103
 20
164.3376902970154
 30
0.0
 11
150.897005682103
 21
164.4484992970153
 31
0.0
  0
LINE
  5
1180
330
18
100
AcDbEntity
  8
1
100
AcDbLine
 10
150.897005682103
 20
164.0080102970153
 30
0.0
 11
150.897005682103
 21
164.3376902970154
 31
0.0
  0
LINE
  5
1181
330
18
100
AcDbEntity
  8
1
100
AcDbLine
 10
150.897005682103
 20
163.4675522970153
 30
0.0
 11
150.897005682103
 21
164.0080102970153
 31
0.0
  0
LINE
  5
1182
330
18
100
AcDbEntity
  8
1
100
AcDbLine
 10
150.897005682103
 20
162.7296482970153
 30
0.0
 11
150.897005682103
 21
163.4675522970153
 31
0.0
  0
LINE
  5
1183
330
18
100
AcDbEntity
  8
1
100
AcDbLine
 10
150.897005682103
 20
161.8124562970153
 30
0.0
 11
150.897005682103
 21
162.7296482970153
 31
0.0
  0
LINE
  5
1184
330
18
100
AcDbEntity
  8
1
100
AcDbLine
 10
150.897005682103
 20
160.7385642970154
 30
0.0
 11
150.897005682103
 21
161.8124562970153
 31
0.0
  0
LINE
  5
1185
330
18
100
AcDbEntity
  8
1
100
AcDbLine
 10
150.897005682103
 20
159.5344102970153
 30
0.0
 11
150.897005682103
 21
160.7385642970154
 31
0.0
  0
LINE
  5
1186
330
18
100
AcDbEntity
  8
1
100
AcDbLine
 10
150.897005682103
 20
158.2296452970153
 30
0.0
 11
150.897005682103
 21
159.5344102970153
 31
0.0
  0
LINE
  5
1187
330
18
100
AcDbEntity
  8
1
100
AcDbLine
 10
150.897005682103
 20
156.8564122970154
 30
0.0
 11
150.897005682103
 21
158.2296452970153
 31
0.0
  0
LINE
  5
1188
330
18
100
AcDbEntity
  8
1
100
AcDbLine
 10
150.897005682103
 20
155.4484922970154
 30
0.0
 11
150.897005682103
 21
156.8564122970154
 31
0.0
  0
LINE
  5
1189
330
18
100
AcDbEntity
  8
1
100
AcDbLine
 10
150.897005682103
 20
154.0405842970153
 30
0.0
 11
150.897005682103
 21
155.4484922970154
 31
0.0
  0
LINE
  5
118A
330
18
100
AcDbEntity
  8
1
100
AcDbLine
 10
150.897005682103
 20
152.6673392970154
 30
0.0
 11
150.897005682103
 21
154.0405842970153
 31
0.0
  0
LINE
  5
118B
330
18
100
AcDbEntity
  8
1
100
AcDbLine
 10
150.897005682103
 20
151.3625862970154
 30
0.0
 11
150.897005682103
 21
152.6673392970154
 31
0.0
  0
LINE
  5
118C
330
18
100
AcDbEntity
  8
1
100
AcDbLine
 10
150.897005682103
 20
150.1584322970153
 30
0.0
 11
150.897005682103
 21
151.3625862970154
 31
0.0
  0
LINE
  5
118D
330
18
100
AcDbEntity
  8
1
100
AcDbLine
 10
150.897005682103
 20
149.0845392970154
 30
0.0
 11
150.897005682103
 21
150.1584322970153
 31
0.0
  0
LINE
  5
118E
330
18
100
AcDbEntity
  8
1
100
AcDbLine
 10
150.897005682103
 20
148.1673472970154
 30
0.0
 11
150.897005682103
 21
149.0845392970154
 31
0.0
  0
LINE
  5
118F
330
18
100
AcDbEntity
  8
1
100
AcDbLine
 10
150.897005682103
 20
147.4294322970154
 30
0.0
 11
150.897005682103
 21
148.1673472970154
 31
0.0
  0
LINE
  5
1190
330
18
100
AcDbEntity
  8
1
100
AcDbLine
 10
150.897005682103
 20
146.8889852970153
 30
0.0
 11
150.897005682103
 21
147.4294322970154
 31
0.0
  0
LINE
  5
1191
330
18
100
AcDbEntity
  8
1
100
AcDbLine
 10
150.897005682103
 20
146.5593062970153
 30
0.0
 11
150.897005682103
 21
146.8889852970153
 31
0.0
  0
LINE
  5
1192
330
18
100
AcDbEntity
  8
1
100
AcDbLine
 10
150.897005682103
 20
146.4484962970153
 30
0.0
 11
150.897005682103
 21
146.5593062970153
 31
0.0
  0
LINE
  5
1193
330
18
100
AcDbEntity
  8
1
100
AcDbLine
 10
173.0227136821029
 20
156.7270962970154
 30
0.0
 11
173.797012682103
 21
158.0985002970153
 31
0.0
  0
LINE
  5
1194
330
18
100
AcDbEntity
  8
1
100
AcDbLine
 10
172.2949356821029
 20
155.3349692970153
 30
0.0
 11
173.0227136821029
 21
156.7270962970154
 31
0.0
  0
LINE
  5
1195
330
18
100
AcDbEntity
  8
1
100
AcDbLine
 10
171.563415682103
 20
153.8349522970154
 30
0.0
 11
172.2949356821029
 21
155.3349692970153
 31
0.0
  0
LINE
  5
1196
330
18
100
AcDbEntity
  8
1
100
AcDbLine
 10
170.9020216821029
 20
152.3918112970154
 30
0.0
 11
171.563415682103
 21
153.8349522970154
 31
0.0
  0
LINE
  5
1197
330
18
100
AcDbEntity
  8
1
100
AcDbLine
 10
170.3271416821029
 20
151.0704042970154
 30
0.0
 11
170.9020216821029
 21
152.3918112970154
 31
0.0
  0
LINE
  5
1198
330
18
100
AcDbEntity
  8
1
100
AcDbLine
 10
169.8282376821029
 20
149.8731182970154
 30
0.0
 11
170.3271416821029
 21
151.0704042970154
 31
0.0
  0
LINE
  5
1199
330
18
100
AcDbEntity
  8
1
100
AcDbLine
 10
169.408726682103
 20
148.8299762970154
 30
0.0
 11
169.8282376821029
 21
149.8731182970154
 31
0.0
  0
LINE
  5
119A
330
18
100
AcDbEntity
  8
1
100
AcDbLine
 10
169.0693696821029
 20
147.9618852970153
 30
0.0
 11
169.408726682103
 21
148.8299762970154
 31
0.0
  0
LINE
  5
119B
330
18
100
AcDbEntity
  8
1
100
AcDbLine
 10
168.804475682103
 20
147.2691582970153
 30
0.0
 11
169.0693696821029
 21
147.9618852970153
 31
0.0
  0
LINE
  5
119C
330
18
100
AcDbEntity
  8
1
100
AcDbLine
 10
168.623127682103
 20
146.7872962970153
 30
0.0
 11
168.804475682103
 21
147.2691582970153
 31
0.0
  0
LINE
  5
119D
330
18
100
AcDbEntity
  8
1
100
AcDbLine
 10
168.518603682103
 20
146.5067052970153
 30
0.0
 11
168.623127682103
 21
146.7872962970153
 31
0.0
  0
LINE
  5
119E
330
18
100
AcDbEntity
  8
1
100
AcDbLine
 10
168.505256682103
 20
146.4707212970153
 30
0.0
 11
168.518603682103
 21
146.5067052970153
 31
0.0
  0
LINE
  5
119F
330
18
100
AcDbEntity
  8
1
100
AcDbLine
 10
173.797012682103
 20
158.0985002970153
 30
0.0
 11
185.1959896821029
 21
158.0985002970153
 31
0.0
  0
LINE
  5
11A0
330
18
100
AcDbEntity
  8
1
100
AcDbLine
 10
185.592452682103
 20
159.1478542970154
 30
0.0
 11
185.1959896821029
 21
158.0985002970153
 31
0.0
  0
LINE
  5
11A1
330
18
100
AcDbEntity
  8
1
100
AcDbLine
 10
186.116378682103
 20
160.1397512970153
 30
0.0
 11
185.592452682103
 21
159.1478542970154
 31
0.0
  0
LINE
  5
11A2
330
18
100
AcDbEntity
  8
1
100
AcDbLine
 10
186.759616682103
 20
161.0587602970153
 30
0.0
 11
186.116378682103
 21
160.1397512970153
 31
0.0
  0
LINE
  5
11A3
330
18
100
AcDbEntity
  8
1
100
AcDbLine
 10
187.5121756821028
 20
161.8906132970154
 30
0.0
 11
186.759616682103
 21
161.0587602970153
 31
0.0
  0
LINE
  5
11A4
330
18
100
AcDbEntity
  8
1
100
AcDbLine
 10
188.362377682103
 20
162.6224002970153
 30
0.0
 11
187.5121756821028
 21
161.8906132970154
 31
0.0
  0
LINE
  5
11A5
330
18
100
AcDbEntity
  8
1
100
AcDbLine
 10
189.2970106821029
 20
163.2427232970153
 30
0.0
 11
188.362377682103
 21
162.6224002970153
 31
0.0
  0
LINE
  5
11A6
330
18
100
AcDbEntity
  8
1
100
AcDbLine
 10
200.154305682103
 20
163.2427232970153
 30
0.0
 11
189.2970106821029
 21
163.2427232970153
 31
0.0
  0
LINE
  5
11A7
330
18
100
AcDbEntity
  8
1
100
AcDbLine
 10
200.542653682103
 20
163.7542472970154
 30
0.0
 11
200.154305682103
 21
163.2427232970153
 31
0.0
  0
LINE
  5
11A8
330
18
100
AcDbEntity
  8
1
100
AcDbLine
 10
200.997010682103
 20
164.1293452970153
 30
0.0
 11
200.542653682103
 21
163.7542472970154
 31
0.0
  0
LINE
  5
11A9
330
18
100
AcDbEntity
  8
1
100
AcDbLine
 10
201.5970106821029
 20
164.1293452970153
 30
0.0
 11
200.997010682103
 21
164.1293452970153
 31
0.0
  0
LINE
  5
11AA
330
18
100
AcDbEntity
  8
1
100
AcDbLine
 10
200.997010682103
 20
164.4305012970153
 30
0.0
 11
201.5970106821029
 21
164.4305012970153
 31
0.0
  0
LINE
  5
11AB
330
18
100
AcDbEntity
  8
1
100
AcDbLine
 10
200.997010682103
 20
164.4328152970154
 30
0.0
 11
200.997010682103
 21
164.4349592970153
 31
0.0
  0
LINE
  5
11AC
330
18
100
AcDbEntity
  8
1
100
AcDbLine
 10
200.997010682103
 20
164.4305012970153
 30
0.0
 11
200.997010682103
 21
164.4328152970154
 31
0.0
  0
LINE
  5
11AD
330
18
100
AcDbEntity
  8
1
100
AcDbLine
 10
193.3383336821028
 20
164.3025902970154
 30
0.0
 11
200.997010682103
 21
164.4349592970153
 31
0.0
  0
LINE
  5
11AE
330
18
100
AcDbEntity
  8
1
100
AcDbLine
 10
192.734349682103
 20
164.2553672970154
 30
0.0
 11
193.3383336821028
 21
164.3025902970154
 31
0.0
  0
LINE
  5
11AF
330
18
100
AcDbEntity
  8
1
100
AcDbLine
 10
191.7429006821029
 20
164.1961772970153
 30
0.0
 11
192.734349682103
 21
164.2553672970154
 31
0.0
  0
LINE
  5
11B0
330
18
100
AcDbEntity
  8
1
100
AcDbLine
 10
190.7391586821029
 20
164.1564272970153
 30
0.0
 11
191.7429006821029
 21
164.1961772970153
 31
0.0
  0
LINE
  5
11B1
330
18
100
AcDbEntity
  8
1
100
AcDbLine
 10
189.414081682103
 20
164.1362732970153
 30
0.0
 11
190.7391586821029
 21
164.1564272970153
 31
0.0
  0
LINE
  5
11B2
330
18
100
AcDbEntity
  8
1
100
AcDbLine
 10
189.414081682103
 20
164.1362732970153
 30
0.0
 11
187.2307366821029
 21
164.1362732970153
 31
0.0
  0
LINE
  5
11B3
330
18
100
AcDbEntity
  8
1
100
AcDbLine
 10
187.1360236821029
 20
164.3701012970153
 30
0.0
 11
187.1042786821029
 21
164.4484992970153
 31
0.0
  0
LINE
  5
11B4
330
18
100
AcDbEntity
  8
1
100
AcDbLine
 10
187.2307366821029
 20
164.1362732970153
 30
0.0
 11
187.1360236821029
 21
164.3701012970153
 31
0.0
  0
LINE
  5
11B5
330
18
100
AcDbEntity
  8
1
100
AcDbLine
 10
187.116959682103
 20
164.4171912970154
 30
0.0
 11
190.1076566821029
 21
164.4171912970154
 31
0.0
  0
LINE
  5
11B6
330
18
100
AcDbEntity
  8
1
100
AcDbLine
 10
191.396749682103
 20
164.4231982970153
 30
0.0
 11
190.1076566821029
 21
164.4171912970154
 31
0.0
  0
LINE
  5
11B7
330
18
100
AcDbEntity
  8
1
100
AcDbLine
 10
192.641900682103
 20
164.4378172970154
 30
0.0
 11
191.396749682103
 21
164.4231982970153
 31
0.0
  0
LINE
  5
11B8
330
18
100
AcDbEntity
  8
1
100
AcDbLine
 10
193.2033616821029
 20
164.4449142970153
 30
0.0
 11
192.641900682103
 21
164.4378172970154
 31
0.0
  0
LINE
  5
11B9
330
18
100
AcDbEntity
  8
1
100
AcDbLine
 10
193.721364682103
 20
164.4484992970153
 30
0.0
 11
193.2033616821029
 21
164.4449142970153
 31
0.0
  0
LINE
  5
11BA
330
18
100
AcDbEntity
  8
1
100
AcDbLine
 10
193.859474682103
 20
164.4480032970153
 30
0.0
 11
193.721364682103
 21
164.4484992970153
 31
0.0
  0
LINE
  5
11BB
330
18
100
AcDbEntity
  8
1
100
AcDbLine
 10
194.1133466821029
 20
164.4419952970153
 30
0.0
 11
193.859474682103
 21
164.4480032970153
 31
0.0
  0
LINE
  5
11BC
330
18
100
AcDbEntity
  8
1
100
AcDbLine
 10
194.192557682103
 20
164.4357702970153
 30
0.0
 11
194.1133466821029
 21
164.4419952970153
 31
0.0
  0
LINE
  5
11BD
330
18
100
AcDbEntity
  8
1
100
AcDbLine
 10
200.9159716821029
 20
164.4343052970153
 30
0.0
 11
194.192557682103
 21
164.4357702970153
 31
0.0
  0
LINE
  5
11BE
330
18
100
AcDbEntity
  8
SK1
100
AcDbLine
 10
105.297009682103
 20
142.5664902970154
 30
0.0
 11
105.297009682103
 21
142.4631292970153
 31
0.0
  0
LINE
  5
11BF
330
18
100
AcDbEntity
  8
SK1
100
AcDbLine
 10
105.297009682103
 20
142.8753132970154
 30
0.0
 11
105.297009682103
 21
142.5664902970154
 31
0.0
  0
LINE
  5
11C0
330
18
100
AcDbEntity
  8
SK1
100
AcDbLine
 10
105.297009682103
 20
143.3860142970154
 30
0.0
 11
105.297009682103
 21
142.8753132970154
 31
0.0
  0
LINE
  5
11C1
330
18
100
AcDbEntity
  8
SK1
100
AcDbLine
 10
105.297009682103
 20
144.0925962970153
 30
0.0
 11
105.297009682103
 21
143.3860142970154
 31
0.0
  0
LINE
  5
11C2
330
18
100
AcDbEntity
  8
SK1
100
AcDbLine
 10
105.297009682103
 20
144.9868002970154
 30
0.0
 11
105.297009682103
 21
144.0925962970153
 31
0.0
  0
LINE
  5
11C3
330
18
100
AcDbEntity
  8
SK1
100
AcDbLine
 10
105.297009682103
 20
146.0581612970153
 30
0.0
 11
105.297009682103
 21
144.9868002970154
 31
0.0
  0
LINE
  5
11C4
330
18
100
AcDbEntity
  8
SK1
100
AcDbLine
 10
105.297009682103
 20
147.2941452970153
 30
0.0
 11
105.297009682103
 21
146.0581612970153
 31
0.0
  0
LINE
  5
11C5
330
18
100
AcDbEntity
  8
SK1
100
AcDbLine
 10
105.297009682103
 20
148.6802762970153
 30
0.0
 11
105.297009682103
 21
147.2941452970153
 31
0.0
  0
LINE
  5
11C6
330
18
100
AcDbEntity
  8
SK1
100
AcDbLine
 10
105.297009682103
 20
150.2003382970154
 30
0.0
 11
105.297009682103
 21
148.6802762970153
 31
0.0
  0
LINE
  5
11C7
330
18
100
AcDbEntity
  8
SK1
100
AcDbLine
 10
105.297009682103
 20
151.8365512970153
 30
0.0
 11
105.297009682103
 21
150.2003382970154
 31
0.0
  0
LINE
  5
11C8
330
18
100
AcDbEntity
  8
SK1
100
AcDbLine
 10
105.297009682103
 20
153.5697552970153
 30
0.0
 11
105.297009682103
 21
151.8365512970153
 31
0.0
  0
LINE
  5
11C9
330
18
100
AcDbEntity
  8
SK1
100
AcDbLine
 10
105.297009682103
 20
154.8086202970154
 30
0.0
 11
105.297009682103
 21
153.5697552970153
 31
0.0
  0
LINE
  5
11CA
330
18
100
AcDbEntity
  8
SK1
100
AcDbLine
 10
105.297009682103
 20
156.0883752970154
 30
0.0
 11
105.297009682103
 21
154.8086202970154
 31
0.0
  0
LINE
  5
11CB
330
18
100
AcDbEntity
  8
SK1
100
AcDbLine
 10
105.297009682103
 20
157.3272412970153
 30
0.0
 11
105.297009682103
 21
156.0883752970154
 31
0.0
  0
LINE
  5
11CC
330
18
100
AcDbEntity
  8
SK1
100
AcDbLine
 10
105.297009682103
 20
159.0604442970153
 30
0.0
 11
105.297009682103
 21
157.3272412970153
 31
0.0
  0
LINE
  5
11CD
330
18
100
AcDbEntity
  8
SK1
100
AcDbLine
 10
105.297009682103
 20
160.6966572970153
 30
0.0
 11
105.297009682103
 21
159.0604442970153
 31
0.0
  0
LINE
  5
11CE
330
18
100
AcDbEntity
  8
SK1
100
AcDbLine
 10
105.297009682103
 20
162.2167192970153
 30
0.0
 11
105.297009682103
 21
160.6966572970153
 31
0.0
  0
LINE
  5
11CF
330
18
100
AcDbEntity
  8
SK1
100
AcDbLine
 10
105.297009682103
 20
163.6028512970153
 30
0.0
 11
105.297009682103
 21
162.2167192970153
 31
0.0
  0
LINE
  5
11D0
330
18
100
AcDbEntity
  8
SK1
100
AcDbLine
 10
105.297009682103
 20
164.8388342970154
 30
0.0
 11
105.297009682103
 21
163.6028512970153
 31
0.0
  0
LINE
  5
11D1
330
18
100
AcDbEntity
  8
SK1
100
AcDbLine
 10
105.297009682103
 20
165.9101832970153
 30
0.0
 11
105.297009682103
 21
164.8388342970154
 31
0.0
  0
LINE
  5
11D2
330
18
100
AcDbEntity
  8
SK1
100
AcDbLine
 10
105.297009682103
 20
166.8044002970154
 30
0.0
 11
105.297009682103
 21
165.9101832970153
 31
0.0
  0
LINE
  5
11D3
330
18
100
AcDbEntity
  8
SK1
100
AcDbLine
 10
105.297009682103
 20
167.5109822970154
 30
0.0
 11
105.297009682103
 21
166.8044002970154
 31
0.0
  0
LINE
  5
11D4
330
18
100
AcDbEntity
  8
SK1
100
AcDbLine
 10
105.297009682103
 20
168.0216702970153
 30
0.0
 11
105.297009682103
 21
167.5109822970154
 31
0.0
  0
LINE
  5
11D5
330
18
100
AcDbEntity
  8
SK1
100
AcDbLine
 10
105.297009682103
 20
168.3305062970154
 30
0.0
 11
105.297009682103
 21
168.0216702970153
 31
0.0
  0
LINE
  5
11D6
330
18
100
AcDbEntity
  8
SK1
100
AcDbLine
 10
105.297009682103
 20
168.4338542970154
 30
0.0
 11
105.297009682103
 21
168.3305062970154
 31
0.0
  0
LINE
  5
11D7
330
18
100
AcDbEntity
  8
1
100
AcDbLine
 10
137.277275682103
 20
136.4831042970154
 30
0.0
 11
137.797011682103
 21
135.9778542970153
 31
0.0
  0
LINE
  5
11D8
330
18
100
AcDbEntity
  8
1
100
AcDbLine
 10
136.845852682103
 20
137.1503962970153
 30
0.0
 11
137.277275682103
 21
136.4831042970154
 31
0.0
  0
LINE
  5
11D9
330
18
100
AcDbEntity
  8
1
100
AcDbLine
 10
136.506410682103
 20
137.9740382970154
 30
0.0
 11
136.845852682103
 21
137.1503962970153
 31
0.0
  0
LINE
  5
11DA
330
18
100
AcDbEntity
  8
1
100
AcDbLine
 10
136.261858682103
 20
138.9469922970153
 30
0.0
 11
136.506410682103
 21
137.9740382970154
 31
0.0
  0
LINE
  5
11DB
330
18
100
AcDbEntity
  8
1
100
AcDbLine
 10
136.114289682103
 20
140.0609382970154
 30
0.0
 11
136.261858682103
 21
138.9469922970153
 31
0.0
  0
LINE
  5
11DC
330
18
100
AcDbEntity
  8
1
100
AcDbLine
 10
136.064958682103
 20
141.3063562970154
 30
0.0
 11
136.114289682103
 21
140.0609382970154
 31
0.0
  0
LINE
  5
11DD
330
18
100
AcDbEntity
  8
1
100
AcDbLine
 10
136.114289682103
 20
142.6726122970153
 30
0.0
 11
136.064958682103
 21
141.3063562970154
 31
0.0
  0
LINE
  5
11DE
330
18
100
AcDbEntity
  8
1
100
AcDbLine
 10
136.261858682103
 20
144.1480312970153
 30
0.0
 11
136.114289682103
 21
142.6726122970153
 31
0.0
  0
LINE
  5
11DF
330
18
100
AcDbEntity
  8
1
100
AcDbLine
 10
136.506410682103
 20
145.7200042970153
 30
0.0
 11
136.261858682103
 21
144.1480312970153
 31
0.0
  0
LINE
  5
11E0
330
18
100
AcDbEntity
  8
1
100
AcDbLine
 10
136.845852682103
 20
147.3751112970154
 30
0.0
 11
136.506410682103
 21
145.7200042970153
 31
0.0
  0
LINE
  5
11E1
330
18
100
AcDbEntity
  8
1
100
AcDbLine
 10
137.277275682103
 20
149.0991822970153
 30
0.0
 11
136.845852682103
 21
147.3751112970154
 31
0.0
  0
LINE
  5
11E2
330
18
100
AcDbEntity
  8
1
100
AcDbLine
 10
137.797011682103
 20
150.8775142970153
 30
0.0
 11
137.277275682103
 21
149.0991822970153
 31
0.0
  0
LINE
  5
11E3
330
18
100
AcDbEntity
  8
1
100
AcDbLine
 10
140.797010682103
 20
150.8775142970153
 30
0.0
 11
137.797011682103
 21
150.8775142970153
 31
0.0
  0
LINE
  5
11E4
330
18
100
AcDbEntity
  8
1
100
AcDbLine
 10
141.316739682103
 20
149.0991822970153
 30
0.0
 11
140.797010682103
 21
150.8775142970153
 31
0.0
  0
LINE
  5
11E5
330
18
100
AcDbEntity
  8
1
100
AcDbLine
 10
141.748169682103
 20
147.3751112970154
 30
0.0
 11
141.316739682103
 21
149.0991822970153
 31
0.0
  0
LINE
  5
11E6
330
18
100
AcDbEntity
  8
1
100
AcDbLine
 10
142.087610682103
 20
145.7200042970153
 30
0.0
 11
141.748169682103
 21
147.3751112970154
 31
0.0
  0
LINE
  5
11E7
330
18
100
AcDbEntity
  8
1
100
AcDbLine
 10
142.332157682103
 20
144.1480312970153
 30
0.0
 11
142.087610682103
 21
145.7200042970153
 31
0.0
  0
LINE
  5
11E8
330
18
100
AcDbEntity
  8
1
100
AcDbLine
 10
142.479731682103
 20
142.6726122970153
 30
0.0
 11
142.332157682103
 21
144.1480312970153
 31
0.0
  0
LINE
  5
11E9
330
18
100
AcDbEntity
  8
1
100
AcDbLine
 10
142.529062682103
 20
141.3063562970154
 30
0.0
 11
142.479731682103
 21
142.6726122970153
 31
0.0
  0
LINE
  5
11EA
330
18
100
AcDbEntity
  8
1
100
AcDbLine
 10
142.479731682103
 20
140.0609382970154
 30
0.0
 11
142.529062682103
 21
141.3063562970154
 31
0.0
  0
LINE
  5
11EB
330
18
100
AcDbEntity
  8
1
100
AcDbLine
 10
142.332157682103
 20
138.9469922970153
 30
0.0
 11
142.479731682103
 21
140.0609382970154
 31
0.0
  0
LINE
  5
11EC
330
18
100
AcDbEntity
  8
1
100
AcDbLine
 10
142.087610682103
 20
137.9740382970154
 30
0.0
 11
142.332157682103
 21
138.9469922970153
 31
0.0
  0
LINE
  5
11ED
330
18
100
AcDbEntity
  8
1
100
AcDbLine
 10
141.748169682103
 20
137.1503962970153
 30
0.0
 11
142.087610682103
 21
137.9740382970154
 31
0.0
  0
LINE
  5
11EE
330
18
100
AcDbEntity
  8
1
100
AcDbLine
 10
141.316739682103
 20
136.4831042970154
 30
0.0
 11
141.748169682103
 21
137.1503962970153
 31
0.0
  0
LINE
  5
11EF
330
18
100
AcDbEntity
  8
1
100
AcDbLine
 10
140.797010682103
 20
135.9778542970153
 30
0.0
 11
141.316739682103
 21
136.4831042970154
 31
0.0
  0
LINE
  5
11F0
330
18
100
AcDbEntity
  8
1
100
AcDbLine
 10
137.797011682103
 20
135.9778542970153
 30
0.0
 11
140.797010682103
 21
135.9778542970153
 31
0.0
  0
LINE
  5
11F1
330
18
100
AcDbEntity
  8
1
100
AcDbLine
 10
137.277275682103
 20
161.7978132970153
 30
0.0
 11
137.797011682103
 21
160.0194822970153
 31
0.0
  0
LINE
  5
11F2
330
18
100
AcDbEntity
  8
1
100
AcDbLine
 10
136.845852682103
 20
163.5218842970154
 30
0.0
 11
137.277275682103
 21
161.7978132970153
 31
0.0
  0
LINE
  5
11F3
330
18
100
AcDbEntity
  8
1
100
AcDbLine
 10
136.506410682103
 20
165.1769802970154
 30
0.0
 11
136.845852682103
 21
163.5218842970154
 31
0.0
  0
LINE
  5
11F4
330
18
100
AcDbEntity
  8
1
100
AcDbLine
 10
136.261858682103
 20
166.7489522970153
 30
0.0
 11
136.506410682103
 21
165.1769802970154
 31
0.0
  0
LINE
  5
11F5
330
18
100
AcDbEntity
  8
1
100
AcDbLine
 10
136.114289682103
 20
168.2243712970153
 30
0.0
 11
136.261858682103
 21
166.7489522970153
 31
0.0
  0
LINE
  5
11F6
330
18
100
AcDbEntity
  8
1
100
AcDbLine
 10
136.064958682103
 20
169.5906272970153
 30
0.0
 11
136.114289682103
 21
168.2243712970153
 31
0.0
  0
LINE
  5
11F7
330
18
100
AcDbEntity
  8
1
100
AcDbLine
 10
136.114289682103
 20
170.8360582970153
 30
0.0
 11
136.064958682103
 21
169.5906272970153
 31
0.0
  0
LINE
  5
11F8
330
18
100
AcDbEntity
  8
1
100
AcDbLine
 10
136.261858682103
 20
171.9500042970153
 30
0.0
 11
136.114289682103
 21
170.8360582970153
 31
0.0
  0
LINE
  5
11F9
330
18
100
AcDbEntity
  8
1
100
AcDbLine
 10
136.506410682103
 20
172.9229462970153
 30
0.0
 11
136.261858682103
 21
171.9500042970153
 31
0.0
  0
LINE
  5
11FA
330
18
100
AcDbEntity
  8
1
100
AcDbLine
 10
136.845852682103
 20
173.7465872970154
 30
0.0
 11
136.506410682103
 21
172.9229462970153
 31
0.0
  0
LINE
  5
11FB
330
18
100
AcDbEntity
  8
1
100
AcDbLine
 10
137.277275682103
 20
174.4138912970154
 30
0.0
 11
136.845852682103
 21
173.7465872970154
 31
0.0
  0
LINE
  5
11FC
330
18
100
AcDbEntity
  8
1
100
AcDbLine
 10
137.797011682103
 20
174.9191422970153
 30
0.0
 11
137.277275682103
 21
174.4138912970154
 31
0.0
  0
LINE
  5
11FD
330
18
100
AcDbEntity
  8
1
100
AcDbLine
 10
140.797010682103
 20
174.9191422970153
 30
0.0
 11
137.797011682103
 21
174.9191422970153
 31
0.0
  0
LINE
  5
11FE
330
18
100
AcDbEntity
  8
1
100
AcDbLine
 10
141.316739682103
 20
174.4138912970154
 30
0.0
 11
140.797010682103
 21
174.9191422970153
 31
0.0
  0
LINE
  5
11FF
330
18
100
AcDbEntity
  8
1
100
AcDbLine
 10
141.748169682103
 20
173.7465872970154
 30
0.0
 11
141.316739682103
 21
174.4138912970154
 31
0.0
  0
LINE
  5
1200
330
18
100
AcDbEntity
  8
1
100
AcDbLine
 10
142.087610682103
 20
172.9229462970153
 30
0.0
 11
141.748169682103
 21
173.7465872970154
 31
0.0
  0
LINE
  5
1201
330
18
100
AcDbEntity
  8
1
100
AcDbLine
 10
142.332157682103
 20
171.9500042970153
 30
0.0
 11
142.087610682103
 21
172.9229462970153
 31
0.0
  0
LINE
  5
1202
330
18
100
AcDbEntity
  8
1
100
AcDbLine
 10
142.479731682103
 20
170.8360582970153
 30
0.0
 11
142.332157682103
 21
171.9500042970153
 31
0.0
  0
LINE
  5
1203
330
18
100
AcDbEntity
  8
1
100
AcDbLine
 10
142.529062682103
 20
169.5906272970153
 30
0.0
 11
142.479731682103
 21
170.8360582970153
 31
0.0
  0
LINE
  5
1204
330
18
100
AcDbEntity
  8
1
100
AcDbLine
 10
142.479731682103
 20
168.2243712970153
 30
0.0
 11
142.529062682103
 21
169.5906272970153
 31
0.0
  0
LINE
  5
1205
330
18
100
AcDbEntity
  8
1
100
AcDbLine
 10
142.332157682103
 20
166.7489522970153
 30
0.0
 11
142.479731682103
 21
168.2243712970153
 31
0.0
  0
LINE
  5
1206
330
18
100
AcDbEntity
  8
1
100
AcDbLine
 10
142.087610682103
 20
165.1769802970154
 30
0.0
 11
142.332157682103
 21
166.7489522970153
 31
0.0
  0
LINE
  5
1207
330
18
100
AcDbEntity
  8
1
100
AcDbLine
 10
141.748169682103
 20
163.5218842970154
 30
0.0
 11
142.087610682103
 21
165.1769802970154
 31
0.0
  0
LINE
  5
1208
330
18
100
AcDbEntity
  8
1
100
AcDbLine
 10
141.316739682103
 20
161.7978132970153
 30
0.0
 11
141.748169682103
 21
163.5218842970154
 31
0.0
  0
LINE
  5
1209
330
18
100
AcDbEntity
  8
1
100
AcDbLine
 10
140.797010682103
 20
160.0194822970153
 30
0.0
 11
141.316739682103
 21
161.7978132970153
 31
0.0
  0
LINE
  5
120A
330
18
100
AcDbEntity
  8
1
100
AcDbLine
 10
137.797011682103
 20
160.0194822970153
 30
0.0
 11
140.797010682103
 21
160.0194822970153
 31
0.0
  0
LINE
  5
120B
330
18
100
AcDbEntity
  8
1
100
AcDbLine
 10
129.297009682103
 20
135.5511122970153
 30
0.0
 11
129.297009682103
 21
135.4485022970154
 31
0.0
  0
LINE
  5
120C
330
18
100
AcDbEntity
  8
1
100
AcDbLine
 10
129.297009682103
 20
135.8579002970153
 30
0.0
 11
129.297009682103
 21
135.5511122970153
 31
0.0
  0
LINE
  5
120D
330
18
100
AcDbEntity
  8
1
100
AcDbLine
 10
129.297009682103
 20
136.3657062970153
 30
0.0
 11
129.297009682103
 21
135.8579002970153
 31
0.0
  0
LINE
  5
120E
330
18
100
AcDbEntity
  8
1
100
AcDbLine
 10
129.297009682103
 20
137.0693452970153
 30
0.0
 11
129.297009682103
 21
136.3657062970153
 31
0.0
  0
LINE
  5
120F
330
18
100
AcDbEntity
  8
1
100
AcDbLine
 10
129.297009682103
 20
137.9615632970153
 30
0.0
 11
129.297009682103
 21
137.0693452970153
 31
0.0
  0
LINE
  5
1210
330
18
100
AcDbEntity
  8
1
100
AcDbLine
 10
129.297009682103
 20
139.0332272970153
 30
0.0
 11
129.297009682103
 21
137.9615632970153
 31
0.0
  0
LINE
  5
1211
330
18
100
AcDbEntity
  8
1
100
AcDbLine
 10
129.297009682103
 20
140.2733282970153
 30
0.0
 11
129.297009682103
 21
139.0332272970153
 31
0.0
  0
LINE
  5
1212
330
18
100
AcDbEntity
  8
1
100
AcDbLine
 10
129.297009682103
 20
141.6691612970154
 30
0.0
 11
129.297009682103
 21
140.2733282970153
 31
0.0
  0
LINE
  5
1213
330
18
100
AcDbEntity
  8
1
100
AcDbLine
 10
129.297009682103
 20
143.2063732970154
 30
0.0
 11
129.297009682103
 21
141.6691612970154
 31
0.0
  0
LINE
  5
1214
330
18
100
AcDbEntity
  8
1
100
AcDbLine
 10
129.297009682103
 20
144.8692202970153
 30
0.0
 11
129.297009682103
 21
143.2063732970154
 31
0.0
  0
LINE
  5
1215
330
18
100
AcDbEntity
  8
1
100
AcDbLine
 10
129.297009682103
 20
146.6406112970153
 30
0.0
 11
129.297009682103
 21
144.8692202970153
 31
0.0
  0
LINE
  5
1216
330
18
100
AcDbEntity
  8
1
100
AcDbLine
 10
129.297009682103
 20
148.5023922970153
 30
0.0
 11
129.297009682103
 21
146.6406112970153
 31
0.0
  0
LINE
  5
1217
330
18
100
AcDbEntity
  8
1
100
AcDbLine
 10
129.297009682103
 20
150.4354502970153
 30
0.0
 11
129.297009682103
 21
148.5023922970153
 31
0.0
  0
LINE
  5
1218
330
18
100
AcDbEntity
  8
1
100
AcDbLine
 10
129.297009682103
 20
152.4199462970153
 30
0.0
 11
129.297009682103
 21
150.4354502970153
 31
0.0
  0
LINE
  5
1219
330
18
100
AcDbEntity
  8
1
100
AcDbLine
 10
129.297009682103
 20
154.4355092970153
 30
0.0
 11
129.297009682103
 21
152.4199462970153
 31
0.0
  0
LINE
  5
121A
330
18
100
AcDbEntity
  8
1
100
AcDbLine
 10
129.297009682103
 20
156.4614752970153
 30
0.0
 11
129.297009682103
 21
154.4355092970153
 31
0.0
  0
LINE
  5
121B
330
18
100
AcDbEntity
  8
1
100
AcDbLine
 10
129.297009682103
 20
158.4770502970154
 30
0.0
 11
129.297009682103
 21
156.4614752970153
 31
0.0
  0
LINE
  5
121C
330
18
100
AcDbEntity
  8
1
100
AcDbLine
 10
129.297009682103
 20
160.4615462970153
 30
0.0
 11
129.297009682103
 21
158.4770502970154
 31
0.0
  0
LINE
  5
121D
330
18
100
AcDbEntity
  8
1
100
AcDbLine
 10
129.297009682103
 20
162.3946042970153
 30
0.0
 11
129.297009682103
 21
160.4615462970153
 31
0.0
  0
LINE
  5
121E
330
18
100
AcDbEntity
  8
1
100
AcDbLine
 10
129.297009682103
 20
164.2563842970154
 30
0.0
 11
129.297009682103
 21
162.3946042970153
 31
0.0
  0
LINE
  5
121F
330
18
100
AcDbEntity
  8
1
100
AcDbLine
 10
129.297009682103
 20
166.0277762970153
 30
0.0
 11
129.297009682103
 21
164.2563842970154
 31
0.0
  0
LINE
  5
1220
330
18
100
AcDbEntity
  8
1
100
AcDbLine
 10
129.297009682103
 20
167.6906102970153
 30
0.0
 11
129.297009682103
 21
166.0277762970153
 31
0.0
  0
LINE
  5
1221
330
18
100
AcDbEntity
  8
1
100
AcDbLine
 10
129.297009682103
 20
169.2278352970154
 30
0.0
 11
129.297009682103
 21
167.6906102970153
 31
0.0
  0
LINE
  5
1222
330
18
100
AcDbEntity
  8
1
100
AcDbLine
 10
129.297009682103
 20
170.6236552970153
 30
0.0
 11
129.297009682103
 21
169.2278352970154
 31
0.0
  0
LINE
  5
1223
330
18
100
AcDbEntity
  8
1
100
AcDbLine
 10
129.297009682103
 20
171.8637692970153
 30
0.0
 11
129.297009682103
 21
170.6236552970153
 31
0.0
  0
LINE
  5
1224
330
18
100
AcDbEntity
  8
1
100
AcDbLine
 10
129.297009682103
 20
172.9354332970153
 30
0.0
 11
129.297009682103
 21
171.8637692970153
 31
0.0
  0
LINE
  5
1225
330
18
100
AcDbEntity
  8
1
100
AcDbLine
 10
129.297009682103
 20
173.8276512970153
 30
0.0
 11
129.297009682103
 21
172.9354332970153
 31
0.0
  0
LINE
  5
1226
330
18
100
AcDbEntity
  8
1
100
AcDbLine
 10
129.297009682103
 20
174.5312782970153
 30
0.0
 11
129.297009682103
 21
173.8276512970153
 31
0.0
  0
LINE
  5
1227
330
18
100
AcDbEntity
  8
1
100
AcDbLine
 10
129.297009682103
 20
175.0390962970153
 30
0.0
 11
129.297009682103
 21
174.5312782970153
 31
0.0
  0
LINE
  5
1228
330
18
100
AcDbEntity
  8
1
100
AcDbLine
 10
129.297009682103
 20
175.3458842970153
 30
0.0
 11
129.297009682103
 21
175.0390962970153
 31
0.0
  0
LINE
  5
1229
330
18
100
AcDbEntity
  8
1
100
AcDbLine
 10
129.297009682103
 20
175.4484942970153
 30
0.0
 11
129.297009682103
 21
175.3458842970153
 31
0.0
  0
LINE
  5
122A
330
18
100
AcDbEntity
  8
1
100
AcDbLine
 10
148.797012682103
 20
135.5511122970153
 30
0.0
 11
148.797012682103
 21
135.4485022970154
 31
0.0
  0
LINE
  5
122B
330
18
100
AcDbEntity
  8
1
100
AcDbLine
 10
148.797012682103
 20
135.8579002970153
 30
0.0
 11
148.797012682103
 21
135.5511122970153
 31
0.0
  0
LINE
  5
122C
330
18
100
AcDbEntity
  8
1
100
AcDbLine
 10
148.797012682103
 20
136.3657062970153
 30
0.0
 11
148.797012682103
 21
135.8579002970153
 31
0.0
  0
LINE
  5
122D
330
18
100
AcDbEntity
  8
1
100
AcDbLine
 10
148.797012682103
 20
137.0693452970153
 30
0.0
 11
148.797012682103
 21
136.3657062970153
 31
0.0
  0
LINE
  5
122E
330
18
100
AcDbEntity
  8
1
100
AcDbLine
 10
148.797012682103
 20
137.9615632970153
 30
0.0
 11
148.797012682103
 21
137.0693452970153
 31
0.0
  0
LINE
  5
122F
330
18
100
AcDbEntity
  8
1
100
AcDbLine
 10
148.797012682103
 20
139.0332272970153
 30
0.0
 11
148.797012682103
 21
137.9615632970153
 31
0.0
  0
LINE
  5
1230
330
18
100
AcDbEntity
  8
1
100
AcDbLine
 10
148.797012682103
 20
140.2733282970153
 30
0.0
 11
148.797012682103
 21
139.0332272970153
 31
0.0
  0
LINE
  5
1231
330
18
100
AcDbEntity
  8
1
100
AcDbLine
 10
148.797012682103
 20
141.6691612970154
 30
0.0
 11
148.797012682103
 21
140.2733282970153
 31
0.0
  0
LINE
  5
1232
330
18
100
AcDbEntity
  8
1
100
AcDbLine
 10
148.797012682103
 20
143.2063732970154
 30
0.0
 11
148.797012682103
 21
141.6691612970154
 31
0.0
  0
LINE
  5
1233
330
18
100
AcDbEntity
  8
1
100
AcDbLine
 10
148.797012682103
 20
144.8692202970153
 30
0.0
 11
148.797012682103
 21
143.2063732970154
 31
0.0
  0
LINE
  5
1234
330
18
100
AcDbEntity
  8
1
100
AcDbLine
 10
148.797012682103
 20
146.6406112970153
 30
0.0
 11
148.797012682103
 21
144.8692202970153
 31
0.0
  0
LINE
  5
1235
330
18
100
AcDbEntity
  8
1
100
AcDbLine
 10
148.797012682103
 20
148.5023922970153
 30
0.0
 11
148.797012682103
 21
146.6406112970153
 31
0.0
  0
LINE
  5
1236
330
18
100
AcDbEntity
  8
1
100
AcDbLine
 10
148.797012682103
 20
150.4354502970153
 30
0.0
 11
148.797012682103
 21
148.5023922970153
 31
0.0
  0
LINE
  5
1237
330
18
100
AcDbEntity
  8
1
100
AcDbLine
 10
148.797012682103
 20
152.4199462970153
 30
0.0
 11
148.797012682103
 21
150.4354502970153
 31
0.0
  0
LINE
  5
1238
330
18
100
AcDbEntity
  8
1
100
AcDbLine
 10
148.797012682103
 20
154.4355092970153
 30
0.0
 11
148.797012682103
 21
152.4199462970153
 31
0.0
  0
LINE
  5
1239
330
18
100
AcDbEntity
  8
1
100
AcDbLine
 10
148.797012682103
 20
156.4614752970153
 30
0.0
 11
148.797012682103
 21
154.4355092970153
 31
0.0
  0
LINE
  5
123A
330
18
100
AcDbEntity
  8
1
100
AcDbLine
 10
148.797012682103
 20
158.4770502970154
 30
0.0
 11
148.797012682103
 21
156.4614752970153
 31
0.0
  0
LINE
  5
123B
330
18
100
AcDbEntity
  8
1
100
AcDbLine
 10
148.797012682103
 20
160.4615462970153
 30
0.0
 11
148.797012682103
 21
158.4770502970154
 31
0.0
  0
LINE
  5
123C
330
18
100
AcDbEntity
  8
1
100
AcDbLine
 10
148.797012682103
 20
162.3946042970153
 30
0.0
 11
148.797012682103
 21
160.4615462970153
 31
0.0
  0
LINE
  5
123D
330
18
100
AcDbEntity
  8
1
100
AcDbLine
 10
148.797012682103
 20
164.2563842970154
 30
0.0
 11
148.797012682103
 21
162.3946042970153
 31
0.0
  0
LINE
  5
123E
330
18
100
AcDbEntity
  8
1
100
AcDbLine
 10
148.797012682103
 20
166.0277762970153
 30
0.0
 11
148.797012682103
 21
164.2563842970154
 31
0.0
  0
LINE
  5
123F
330
18
100
AcDbEntity
  8
1
100
AcDbLine
 10
148.797012682103
 20
167.6906102970153
 30
0.0
 11
148.797012682103
 21
166.0277762970153
 31
0.0
  0
LINE
  5
1240
330
18
100
AcDbEntity
  8
1
100
AcDbLine
 10
148.797012682103
 20
169.2278352970154
 30
0.0
 11
148.797012682103
 21
167.6906102970153
 31
0.0
  0
LINE
  5
1241
330
18
100
AcDbEntity
  8
1
100
AcDbLine
 10
148.797012682103
 20
170.6236552970153
 30
0.0
 11
148.797012682103
 21
169.2278352970154
 31
0.0
  0
LINE
  5
1242
330
18
100
AcDbEntity
  8
1
100
AcDbLine
 10
148.797012682103
 20
171.8637692970153
 30
0.0
 11
148.797012682103
 21
170.6236552970153
 31
0.0
  0
LINE
  5
1243
330
18
100
AcDbEntity
  8
1
100
AcDbLine
 10
148.797012682103
 20
172.9354332970153
 30
0.0
 11
148.797012682103
 21
171.8637692970153
 31
0.0
  0
LINE
  5
1244
330
18
100
AcDbEntity
  8
1
100
AcDbLine
 10
148.797012682103
 20
173.8276512970153
 30
0.0
 11
148.797012682103
 21
172.9354332970153
 31
0.0
  0
LINE
  5
1245
330
18
100
AcDbEntity
  8
1
100
AcDbLine
 10
148.797012682103
 20
174.5312782970153
 30
0.0
 11
148.797012682103
 21
173.8276512970153
 31
0.0
  0
LINE
  5
1246
330
18
100
AcDbEntity
  8
1
100
AcDbLine
 10
148.797012682103
 20
175.0390962970153
 30
0.0
 11
148.797012682103
 21
174.5312782970153
 31
0.0
  0
LINE
  5
1247
330
18
100
AcDbEntity
  8
1
100
AcDbLine
 10
148.797012682103
 20
175.3458842970153
 30
0.0
 11
148.797012682103
 21
175.0390962970153
 31
0.0
  0
LINE
  5
1248
330
18
100
AcDbEntity
  8
1
100
AcDbLine
 10
148.797012682103
 20
175.4484942970153
 30
0.0
 11
148.797012682103
 21
175.3458842970153
 31
0.0
  0
LINE
  5
1249
330
18
100
AcDbEntity
  8
1
100
AcDbLine
 10
199.821682682103
 20
151.7731712970153
 30
0.0
 11
199.803527682103
 21
151.7550162970153
 31
0.0
  0
LINE
  5
124A
330
18
100
AcDbEntity
  8
1
100
AcDbLine
 10
203.8704546821031
 20
166.2166692970153
 30
0.0
 11
203.771647682103
 21
166.2051752970153
 31
0.0
  0
LINE
  5
124B
330
18
100
AcDbEntity
  8
1
100
AcDbLine
 10
204.0253626821029
 20
166.2240092970153
 30
0.0
 11
203.8704546821031
 21
166.2166692970153
 31
0.0
  0
LINE
  5
124C
330
18
100
AcDbEntity
  8
1
100
AcDbLine
 10
201.7235656821029
 20
166.2166692970153
 30
0.0
 11
201.5686576821031
 21
166.2240092970153
 31
0.0
  0
LINE
  5
124D
330
18
100
AcDbEntity
  8
1
100
AcDbLine
 10
201.822372682103
 20
166.2051752970153
 30
0.0
 11
201.7235656821029
 21
166.2166692970153
 31
0.0
  0
LINE
  5
124E
330
18
100
AcDbEntity
  8
1
100
AcDbLine
 10
201.729584682103
 20
166.4532952970153
 30
0.0
 11
201.5752336821029
 21
166.4826412970153
 31
0.0
  0
LINE
  5
124F
330
18
100
AcDbEntity
  8
1
100
AcDbLine
 10
201.826720682103
 20
166.3758772970153
 30
0.0
 11
201.729584682103
 21
166.4532952970153
 31
0.0
  0
LINE
  5
1250
330
18
100
AcDbEntity
  8
1
100
AcDbLine
 10
203.8644356821029
 20
166.4532952970153
 30
0.0
 11
203.767299682103
 21
166.3758772970153
 31
0.0
  0
LINE
  5
1251
330
18
100
AcDbEntity
  8
1
100
AcDbLine
 10
204.0187866821029
 20
166.4826412970153
 30
0.0
 11
203.8644356821029
 21
166.4532952970153
 31
0.0
  0
LINE
  5
1252
330
18
100
AcDbEntity
  8
1
100
AcDbLine
 10
201.940981682103
 20
166.1797042970153
 30
0.0
 11
201.826720682103
 21
166.3758772970153
 31
0.0
  0
LINE
  5
1253
330
18
100
AcDbEntity
  8
1
100
AcDbLine
 10
201.822372682103
 20
166.2051752970153
 30
0.0
 11
201.826720682103
 21
166.3758772970153
 31
0.0
  0
LINE
  5
1254
330
18
100
AcDbEntity
  8
1
100
AcDbLine
 10
201.847685682103
 20
165.9784932970153
 30
0.0
 11
201.822372682103
 21
166.2051752970153
 31
0.0
  0
LINE
  5
1255
330
18
100
AcDbEntity
  8
1
100
AcDbLine
 10
203.771647682103
 20
166.2051752970153
 30
0.0
 11
203.746334682103
 21
165.9784932970153
 31
0.0
  0
LINE
  5
1256
330
18
100
AcDbEntity
  8
1
100
AcDbLine
 10
203.767299682103
 20
166.3758772970153
 30
0.0
 11
203.771647682103
 21
166.2051752970153
 31
0.0
  0
LINE
  5
1257
330
18
100
AcDbEntity
  8
1
100
AcDbLine
 10
203.653038682103
 20
166.1797042970153
 30
0.0
 11
203.767299682103
 21
166.3758772970153
 31
0.0
  0
LINE
  5
1258
330
18
100
AcDbEntity
  8
1
100
AcDbLine
 10
201.5970106821029
 20
165.7533012970153
 30
0.0
 11
201.462050682103
 21
165.7533012970153
 31
0.0
  0
LINE
  5
1259
330
18
100
AcDbEntity
  8
1
100
AcDbLine
 10
201.5686576821031
 20
166.2240092970153
 30
0.0
 11
201.5970106821029
 21
165.7932452970154
 31
0.0
  0
LINE
  5
125A
330
18
100
AcDbEntity
  8
1
100
AcDbLine
 10
201.462050682103
 20
165.7533012970153
 30
0.0
 11
201.480823682103
 21
165.3244512970153
 31
0.0
  0
LINE
  5
125B
330
18
100
AcDbEntity
  8
1
100
AcDbLine
 10
201.441448682103
 20
166.2240092970153
 30
0.0
 11
201.462050682103
 21
165.7533012970153
 31
0.0
  0
LINE
  5
125C
330
18
100
AcDbEntity
  8
1
100
AcDbLine
 10
204.1131966821029
 20
165.3244512970153
 30
0.0
 11
204.131969682103
 21
165.7533012970153
 31
0.0
  0
LINE
  5
125D
330
18
100
AcDbEntity
  8
1
100
AcDbLine
 10
204.131969682103
 20
165.7533012970153
 30
0.0
 11
204.152571682103
 21
166.2240092970153
 31
0.0
  0
LINE
  5
125E
330
18
100
AcDbEntity
  8
1
100
AcDbLine
 10
203.997009682103
 20
165.7932452970154
 30
0.0
 11
204.0253626821029
 21
166.2240092970153
 31
0.0
  0
LINE
  5
125F
330
18
100
AcDbEntity
  8
1
100
AcDbLine
 10
204.131969682103
 20
165.7533012970153
 30
0.0
 11
203.997009682103
 21
165.7533012970153
 31
0.0
  0
LINE
  5
1260
330
18
100
AcDbEntity
  8
1
100
AcDbLine
 10
204.0253626821029
 20
166.2240092970153
 30
0.0
 11
204.0187866821029
 21
166.4826412970153
 31
0.0
  0
LINE
  5
1261
330
18
100
AcDbEntity
  8
1
100
AcDbLine
 10
204.152571682103
 20
166.2240092970153
 30
0.0
 11
204.0253626821029
 21
166.2240092970153
 31
0.0
  0
LINE
  5
1262
330
18
100
AcDbEntity
  8
1
100
AcDbLine
 10
204.152571682103
 20
166.2240092970153
 30
0.0
 11
204.296567682103
 21
169.5142152970154
 31
0.0
  0
LINE
  5
1263
330
18
100
AcDbEntity
  8
1
100
AcDbLine
 10
204.000218682103
 20
169.9191442970153
 30
0.0
 11
203.900479682103
 21
169.9319222970153
 31
0.0
  0
LINE
  5
1264
330
18
100
AcDbEntity
  8
1
100
AcDbLine
 10
204.121589682103
 20
169.8642782970154
 30
0.0
 11
204.000218682103
 21
169.9191442970153
 31
0.0
  0
LINE
  5
1265
330
18
100
AcDbEntity
  8
1
100
AcDbLine
 10
204.218822682103
 20
169.7708612970154
 30
0.0
 11
204.121589682103
 21
169.8642782970154
 31
0.0
  0
LINE
  5
1266
330
18
100
AcDbEntity
  8
1
100
AcDbLine
 10
204.279695682103
 20
169.6491392970154
 30
0.0
 11
204.218822682103
 21
169.7708612970154
 31
0.0
  0
LINE
  5
1267
330
18
100
AcDbEntity
  8
1
100
AcDbLine
 10
204.296567682103
 20
169.5142152970154
 30
0.0
 11
204.279695682103
 21
169.6491392970154
 31
0.0
  0
LINE
  5
1268
330
18
100
AcDbEntity
  8
1
100
AcDbLine
 10
201.6935406821029
 20
169.9319222970153
 30
0.0
 11
203.900479682103
 21
169.9319222970153
 31
0.0
  0
LINE
  5
1269
330
18
100
AcDbEntity
  8
1
100
AcDbLine
 10
201.307687682103
 20
169.6243222970153
 30
0.0
 11
201.297440682103
 21
169.5142152970154
 31
0.0
  0
LINE
  5
126A
330
18
100
AcDbEntity
  8
1
100
AcDbLine
 10
201.3590766821029
 20
169.7472432970154
 30
0.0
 11
201.307687682103
 21
169.6243222970153
 31
0.0
  0
LINE
  5
126B
330
18
100
AcDbEntity
  8
1
100
AcDbLine
 10
201.447249682103
 20
169.8457722970153
 30
0.0
 11
201.3590766821029
 21
169.7472432970154
 31
0.0
  0
LINE
  5
126C
330
18
100
AcDbEntity
  8
1
100
AcDbLine
 10
201.5630376821029
 20
169.9097822970153
 30
0.0
 11
201.447249682103
 21
169.8457722970153
 31
0.0
  0
LINE
  5
126D
330
18
100
AcDbEntity
  8
1
100
AcDbLine
 10
201.6935406821029
 20
169.9319222970153
 30
0.0
 11
201.5630376821029
 21
169.9097822970153
 31
0.0
  0
LINE
  5
126E
330
18
100
AcDbEntity
  8
1
100
AcDbLine
 10
201.297440682103
 20
169.5142152970154
 30
0.0
 11
201.441448682103
 21
166.2240092970153
 31
0.0
  0
LINE
  5
126F
330
18
100
AcDbEntity
  8
1
100
AcDbLine
 10
201.5686576821031
 20
166.2240092970153
 30
0.0
 11
201.441448682103
 21
166.2240092970153
 31
0.0
  0
LINE
  5
1270
330
18
100
AcDbEntity
  8
1
100
AcDbLine
 10
201.5752336821029
 20
166.4826412970153
 30
0.0
 11
201.5686576821031
 21
166.2240092970153
 31
0.0
  0
LINE
  5
1271
330
18
100
AcDbEntity
  8
1
100
AcDbLine
 10
204.0187866821029
 20
166.4826412970153
 30
0.0
 11
201.5752336821029
 21
166.4826412970153
 31
0.0
  0
LINE
  5
1272
330
18
100
AcDbEntity
  8
1
100
AcDbLine
 10
203.653038682103
 20
165.9784932970153
 30
0.0
 11
203.653038682103
 21
166.1797042970153
 31
0.0
  0
LINE
  5
1273
330
18
100
AcDbEntity
  8
1
100
AcDbLine
 10
203.653038682103
 20
166.1797042970153
 30
0.0
 11
203.4546616821029
 21
166.0241912970153
 31
0.0
  0
LINE
  5
1274
330
18
100
AcDbEntity
  8
1
100
AcDbLine
 10
202.1393586821029
 20
166.0241912970153
 30
0.0
 11
201.940981682103
 21
166.1797042970153
 31
0.0
  0
LINE
  5
1275
330
18
100
AcDbEntity
  8
1
100
AcDbLine
 10
201.940981682103
 20
166.1797042970153
 30
0.0
 11
201.940981682103
 21
165.9784932970153
 31
0.0
  0
LINE
  5
1276
330
18
100
AcDbEntity
  8
1
100
AcDbLine
 10
203.4546616821029
 20
166.0241912970153
 30
0.0
 11
203.338667682103
 21
165.9784932970153
 31
0.0
  0
LINE
  5
1277
330
18
100
AcDbEntity
  8
1
100
AcDbLine
 10
203.4546616821029
 20
166.0241912970153
 30
0.0
 11
203.4546616821029
 21
165.9783962970153
 31
0.0
  0
LINE
  5
1278
330
18
100
AcDbEntity
  8
1
100
AcDbLine
 10
202.1393586821029
 20
166.0241912970153
 30
0.0
 11
202.255352682103
 21
165.9784932970153
 31
0.0
  0
LINE
  5
1279
330
18
100
AcDbEntity
  8
1
100
AcDbLine
 10
202.1393586821029
 20
165.9783962970153
 30
0.0
 11
202.1393586821029
 21
166.0241912970153
 31
0.0
  0
LINE
  5
127A
330
18
100
AcDbEntity
  8
1
100
AcDbLine
 10
201.480823682103
 20
165.3244512970153
 30
0.0
 11
201.5970106821029
 21
165.3244512970153
 31
0.0
  0
LINE
  5
127B
330
18
100
AcDbEntity
  8
1
100
AcDbLine
 10
201.480823682103
 20
165.3244512970153
 30
0.0
 11
201.497004682103
 21
164.9545972970153
 31
0.0
  0
LINE
  5
127C
330
18
100
AcDbEntity
  8
1
100
AcDbLine
 10
201.497004682103
 20
164.9545972970153
 30
0.0
 11
201.497004682103
 21
164.4304652970154
 31
0.0
  0
LINE
  5
127D
330
18
100
AcDbEntity
  8
1
100
AcDbLine
 10
204.097015682103
 20
164.9545972970153
 30
0.0
 11
204.1131966821029
 21
165.3244512970153
 31
0.0
  0
LINE
  5
127E
330
18
100
AcDbEntity
  8
1
100
AcDbLine
 10
203.997009682103
 20
165.3244512970153
 30
0.0
 11
204.1131966821029
 21
165.3244512970153
 31
0.0
  0
LINE
  5
127F
330
18
100
AcDbEntity
  8
1
100
AcDbLine
 10
204.0530866821029
 20
157.5517182970154
 30
0.0
 11
204.097015682103
 21
157.7080072970153
 31
0.0
  0
LINE
  5
1280
330
18
100
AcDbEntity
  8
1
100
AcDbLine
 10
203.997009682103
 20
157.5068332970154
 30
0.0
 11
204.0530866821029
 21
157.5517182970154
 31
0.0
  0
LINE
  5
1281
330
18
100
AcDbEntity
  8
1
100
AcDbLine
 10
204.097015682103
 20
157.7080072970153
 30
0.0
 11
204.097015682103
 21
164.9545972970153
 31
0.0
  0
LINE
  5
1282
330
18
100
AcDbEntity
  8
1
100
AcDbLine
 10
197.203698682103
 20
159.1458802970153
 30
0.0
 11
197.2488146821028
 21
159.0866902970154
 31
0.0
  0
LINE
  5
1283
330
18
100
AcDbEntity
  8
1
100
AcDbLine
 10
197.139070682103
 20
159.1952232970153
 30
0.0
 11
197.203698682103
 21
159.1458802970153
 31
0.0
  0
LINE
  5
1284
330
18
100
AcDbEntity
  8
1
100
AcDbLine
 10
197.055076682103
 20
159.2266772970154
 30
0.0
 11
197.139070682103
 21
159.1952232970153
 31
0.0
  0
LINE
  5
1285
330
18
100
AcDbEntity
  8
1
100
AcDbLine
 10
196.938113682103
 20
159.2269802970154
 30
0.0
 11
197.055076682103
 21
159.2266772970154
 31
0.0
  0
LINE
  5
1286
330
18
100
AcDbEntity
  8
1
100
AcDbLine
 10
196.0680366821029
 20
159.7417372970154
 30
0.0
 11
196.073849682103
 21
159.7259682970153
 31
0.0
  0
LINE
  5
1287
330
18
100
AcDbEntity
  8
1
100
AcDbLine
 10
196.010190682103
 20
159.8324902970154
 30
0.0
 11
196.0680366821029
 21
159.7417372970154
 31
0.0
  0
LINE
  5
1288
330
18
100
AcDbEntity
  8
1
100
AcDbLine
 10
195.950213682103
 20
159.8814942970153
 30
0.0
 11
196.010190682103
 21
159.8324902970154
 31
0.0
  0
LINE
  5
1289
330
18
100
AcDbEntity
  8
1
100
AcDbLine
 10
195.8832846821029
 20
159.9118702970153
 30
0.0
 11
195.950213682103
 21
159.8814942970153
 31
0.0
  0
LINE
  5
128A
330
18
100
AcDbEntity
  8
1
100
AcDbLine
 10
195.808131682103
 20
159.9246842970154
 30
0.0
 11
195.8832846821029
 21
159.9118702970153
 31
0.0
  0
LINE
  5
128B
330
18
100
AcDbEntity
  8
1
100
AcDbLine
 10
195.7970136821029
 20
159.9249022970153
 30
0.0
 11
195.808131682103
 21
159.9246842970154
 31
0.0
  0
LINE
  5
128C
330
18
100
AcDbEntity
  8
1
100
AcDbLine
 10
196.093179682103
 20
159.6685342970153
 30
0.0
 11
196.073849682103
 21
159.7259682970153
 31
0.0
  0
LINE
  5
128D
330
18
100
AcDbEntity
  8
1
100
AcDbLine
 10
196.1236766821029
 20
159.5930552970154
 30
0.0
 11
196.093179682103
 21
159.6685342970153
 31
0.0
  0
LINE
  5
128E
330
18
100
AcDbEntity
  8
1
100
AcDbLine
 10
196.2457146821029
 20
159.4151832970154
 30
0.0
 11
196.1236766821029
 21
159.5930552970154
 31
0.0
  0
LINE
  5
128F
330
18
100
AcDbEntity
  8
1
100
AcDbLine
 10
196.6749516821029
 20
159.2048762970154
 30
0.0
 11
196.583036682103
 21
159.2204272970153
 31
0.0
  0
LINE
  5
1290
330
18
100
AcDbEntity
  8
1
100
AcDbLine
 10
196.8787186821029
 20
159.2150012970153
 30
0.0
 11
196.6749516821029
 21
159.2048762970154
 31
0.0
  0
LINE
  5
1291
330
18
100
AcDbEntity
  8
1
100
AcDbLine
 10
196.938113682103
 20
159.2269802970154
 30
0.0
 11
196.8787186821029
 21
159.2150012970153
 31
0.0
  0
LINE
  5
1292
330
18
100
AcDbEntity
  8
1
100
AcDbLine
 10
197.277530682103
 20
157.4790242970153
 30
0.0
 11
197.2488146821028
 21
157.4102912970154
 31
0.0
  0
LINE
  5
1293
330
18
100
AcDbEntity
  8
1
100
AcDbLine
 10
197.2879346821029
 20
157.5596522970153
 30
0.0
 11
197.277530682103
 21
157.4790242970153
 31
0.0
  0
LINE
  5
1294
330
18
100
AcDbEntity
  8
1
100
AcDbLine
 10
197.273146682103
 20
157.6481392970154
 30
0.0
 11
197.2879346821029
 21
157.5596522970153
 31
0.0
  0
LINE
  5
1295
330
18
100
AcDbEntity
  8
1
100
AcDbLine
 10
197.2149506821029
 20
157.7495142970154
 30
0.0
 11
197.273146682103
 21
157.6481392970154
 31
0.0
  0
LINE
  5
1296
330
18
100
AcDbEntity
  8
1
100
AcDbLine
 10
197.225705682103
 20
158.7604022970153
 30
0.0
 11
197.2149506821029
 21
158.7474792970153
 31
0.0
  0
LINE
  5
1297
330
18
100
AcDbEntity
  8
1
100
AcDbLine
 10
197.275375682103
 20
158.8558662970154
 30
0.0
 11
197.225705682103
 21
158.7604022970153
 31
0.0
  0
LINE
  5
1298
330
18
100
AcDbEntity
  8
1
100
AcDbLine
 10
197.287825682103
 20
158.9323152970153
 30
0.0
 11
197.275375682103
 21
158.8558662970154
 31
0.0
  0
LINE
  5
1299
330
18
100
AcDbEntity
  8
1
100
AcDbLine
 10
197.280667682103
 20
159.0054572970153
 30
0.0
 11
197.287825682103
 21
158.9323152970153
 31
0.0
  0
LINE
  5
129A
330
18
100
AcDbEntity
  8
1
100
AcDbLine
 10
197.254191682103
 20
159.0769522970154
 30
0.0
 11
197.280667682103
 21
159.0054572970153
 31
0.0
  0
LINE
  5
129B
330
18
100
AcDbEntity
  8
1
100
AcDbLine
 10
197.2488146821028
 20
159.0866902970154
 30
0.0
 11
197.254191682103
 21
159.0769522970154
 31
0.0
  0
LINE
  5
129C
330
18
100
AcDbEntity
  8
1
100
AcDbLine
 10
197.174884682103
 20
158.7020242970153
 30
0.0
 11
197.2149506821029
 21
158.7474792970153
 31
0.0
  0
LINE
  5
129D
330
18
100
AcDbEntity
  8
1
100
AcDbLine
 10
197.124815682103
 20
158.6379412970154
 30
0.0
 11
197.174884682103
 21
158.7020242970153
 31
0.0
  0
LINE
  5
129E
330
18
100
AcDbEntity
  8
1
100
AcDbLine
 10
197.0317486821029
 20
158.4432462970154
 30
0.0
 11
197.124815682103
 21
158.6379412970154
 31
0.0
  0
LINE
  5
129F
330
18
100
AcDbEntity
  8
1
100
AcDbLine
 10
197.064256682103
 20
157.9663132970154
 30
0.0
 11
197.0317486821029
 21
158.0537352970154
 31
0.0
  0
LINE
  5
12A0
330
18
100
AcDbEntity
  8
1
100
AcDbLine
 10
197.174884682103
 20
157.7949692970153
 30
0.0
 11
197.064256682103
 21
157.9663132970154
 31
0.0
  0
LINE
  5
12A1
330
18
100
AcDbEntity
  8
1
100
AcDbLine
 10
197.2149506821029
 20
157.7495142970154
 30
0.0
 11
197.174884682103
 21
157.7949692970153
 31
0.0
  0
LINE
  5
12A2
330
18
100
AcDbEntity
  8
1
100
AcDbLine
 10
196.1862706821029
 20
157.0099642970154
 30
0.0
 11
196.2457146821029
 21
157.0818102970154
 31
0.0
  0
LINE
  5
12A3
330
18
100
AcDbEntity
  8
1
100
AcDbLine
 10
196.093179682103
 20
156.8284582970154
 30
0.0
 11
196.1862706821029
 21
157.0099642970154
 31
0.0
  0
LINE
  5
12A4
330
18
100
AcDbEntity
  8
1
100
AcDbLine
 10
196.073849682103
 20
156.7710252970153
 30
0.0
 11
196.093179682103
 21
156.8284582970154
 31
0.0
  0
LINE
  5
12A5
330
18
100
AcDbEntity
  8
1
100
AcDbLine
 10
195.8708336821029
 20
156.5815742970154
 30
0.0
 11
195.7970136821029
 21
156.5720912970154
 31
0.0
  0
LINE
  5
12A6
330
18
100
AcDbEntity
  8
1
100
AcDbLine
 10
195.945865682103
 20
156.6128712970154
 30
0.0
 11
195.8708336821029
 21
156.5815742970154
 31
0.0
  0
LINE
  5
12A7
330
18
100
AcDbEntity
  8
1
100
AcDbLine
 10
196.0151086821029
 20
156.6698922970154
 30
0.0
 11
195.945865682103
 21
156.6128712970154
 31
0.0
  0
LINE
  5
12A8
330
18
100
AcDbEntity
  8
1
100
AcDbLine
 10
196.073849682103
 20
156.7710252970153
 30
0.0
 11
196.0151086821029
 21
156.6698922970154
 31
0.0
  0
LINE
  5
12A9
330
18
100
AcDbEntity
  8
1
100
AcDbLine
 10
196.9547436821029
 20
157.2671552970153
 30
0.0
 11
196.938113682103
 21
157.2700132970154
 31
0.0
  0
LINE
  5
12AA
330
18
100
AcDbEntity
  8
1
100
AcDbLine
 10
197.0622346821029
 20
157.2718912970153
 30
0.0
 11
196.9547436821029
 21
157.2671552970153
 31
0.0
  0
LINE
  5
12AB
330
18
100
AcDbEntity
  8
1
100
AcDbLine
 10
197.134661682103
 20
157.2993362970153
 30
0.0
 11
197.0622346821029
 21
157.2718912970153
 31
0.0
  0
LINE
  5
12AC
330
18
100
AcDbEntity
  8
1
100
AcDbLine
 10
197.1944206821028
 20
157.3421262970153
 30
0.0
 11
197.134661682103
 21
157.2993362970153
 31
0.0
  0
LINE
  5
12AD
330
18
100
AcDbEntity
  8
1
100
AcDbLine
 10
197.243097682103
 20
157.4008072970154
 30
0.0
 11
197.1944206821028
 21
157.3421262970153
 31
0.0
  0
LINE
  5
12AE
330
18
100
AcDbEntity
  8
1
100
AcDbLine
 10
197.2488146821028
 20
157.4102912970154
 30
0.0
 11
197.243097682103
 21
157.4008072970154
 31
0.0
  0
LINE
  5
12AF
330
18
100
AcDbEntity
  8
1
100
AcDbLine
 10
196.8787186821029
 20
157.2819922970154
 30
0.0
 11
196.938113682103
 21
157.2700132970154
 31
0.0
  0
LINE
  5
12B0
330
18
100
AcDbEntity
  8
1
100
AcDbLine
 10
196.798175682103
 20
157.2933042970153
 30
0.0
 11
196.8787186821029
 21
157.2819922970154
 31
0.0
  0
LINE
  5
12B1
330
18
100
AcDbEntity
  8
1
100
AcDbLine
 10
196.583036682103
 20
157.2765662970154
 30
0.0
 11
196.798175682103
 21
157.2933042970153
 31
0.0
  0
LINE
  5
12B2
330
18
100
AcDbEntity
  8
1
100
AcDbLine
 10
195.5259906821029
 20
156.7552552970154
 30
0.0
 11
195.520164682103
 21
156.7710252970153
 31
0.0
  0
LINE
  5
12B3
330
18
100
AcDbEntity
  8
1
100
AcDbLine
 10
195.583823682103
 20
156.6645032970154
 30
0.0
 11
195.5259906821029
 21
156.7552552970154
 31
0.0
  0
LINE
  5
12B4
330
18
100
AcDbEntity
  8
1
100
AcDbLine
 10
195.6438126821029
 20
156.6154992970153
 30
0.0
 11
195.583823682103
 21
156.6645032970154
 31
0.0
  0
LINE
  5
12B5
330
18
100
AcDbEntity
  8
1
100
AcDbLine
 10
195.710741682103
 20
156.5851232970153
 30
0.0
 11
195.6438126821029
 21
156.6154992970153
 31
0.0
  0
LINE
  5
12B6
330
18
100
AcDbEntity
  8
1
100
AcDbLine
 10
195.7858946821028
 20
156.5723092970154
 30
0.0
 11
195.710741682103
 21
156.5851232970153
 31
0.0
  0
LINE
  5
12B7
330
18
100
AcDbEntity
  8
1
100
AcDbLine
 10
195.7970136821029
 20
156.5720912970154
 30
0.0
 11
195.7858946821028
 21
156.5723092970154
 31
0.0
  0
LINE
  5
12B8
330
18
100
AcDbEntity
  8
1
100
AcDbLine
 10
195.5008346821029
 20
156.8284582970154
 30
0.0
 11
195.520164682103
 21
156.7710252970153
 31
0.0
  0
LINE
  5
12B9
330
18
100
AcDbEntity
  8
1
100
AcDbLine
 10
195.4703376821029
 20
156.9039382970153
 30
0.0
 11
195.5008346821029
 21
156.8284582970154
 31
0.0
  0
LINE
  5
12BA
330
18
100
AcDbEntity
  8
1
100
AcDbLine
 10
195.348300682103
 20
157.0818102970154
 30
0.0
 11
195.4703376821029
 21
156.9039382970153
 31
0.0
  0
LINE
  5
12BB
330
18
100
AcDbEntity
  8
1
100
AcDbLine
 10
194.9190756821029
 20
157.2921172970153
 30
0.0
 11
195.0109786821029
 21
157.2765662970154
 31
0.0
  0
LINE
  5
12BC
330
18
100
AcDbEntity
  8
1
100
AcDbLine
 10
194.7153086821029
 20
157.2819922970154
 30
0.0
 11
194.9190756821029
 21
157.2921172970153
 31
0.0
  0
LINE
  5
12BD
330
18
100
AcDbEntity
  8
1
100
AcDbLine
 10
194.6559126821029
 20
157.2700132970154
 30
0.0
 11
194.7153086821029
 21
157.2819922970154
 31
0.0
  0
LINE
  5
12BE
330
18
100
AcDbEntity
  8
1
100
AcDbLine
 10
194.390328682103
 20
157.3511132970154
 30
0.0
 11
194.345200682103
 21
157.4102912970154
 31
0.0
  0
LINE
  5
12BF
330
18
100
AcDbEntity
  8
1
100
AcDbLine
 10
194.454944682103
 20
157.3017702970153
 30
0.0
 11
194.390328682103
 21
157.3511132970154
 31
0.0
  0
LINE
  5
12C0
330
18
100
AcDbEntity
  8
1
100
AcDbLine
 10
194.538950682103
 20
157.2703162970154
 30
0.0
 11
194.454944682103
 21
157.3017702970153
 31
0.0
  0
LINE
  5
12C1
330
18
100
AcDbEntity
  8
1
100
AcDbLine
 10
194.6559126821029
 20
157.2700132970154
 30
0.0
 11
194.538950682103
 21
157.2703162970154
 31
0.0
  0
LINE
  5
12C2
330
18
100
AcDbEntity
  8
1
100
AcDbLine
 10
194.3683096821029
 20
157.7365912970154
 30
0.0
 11
194.379064682103
 21
157.7495142970154
 31
0.0
  0
LINE
  5
12C3
330
18
100
AcDbEntity
  8
1
100
AcDbLine
 10
194.318639682103
 20
157.6411272970153
 30
0.0
 11
194.3683096821029
 21
157.7365912970154
 31
0.0
  0
LINE
  5
12C4
330
18
100
AcDbEntity
  8
1
100
AcDbLine
 10
194.3061886821029
 20
157.5646782970153
 30
0.0
 11
194.318639682103
 21
157.6411272970153
 31
0.0
  0
LINE
  5
12C5
330
18
100
AcDbEntity
  8
1
100
AcDbLine
 10
194.3133586821029
 20
157.4915232970153
 30
0.0
 11
194.3061886821029
 21
157.5646782970153
 31
0.0
  0
LINE
  5
12C6
330
18
100
AcDbEntity
  8
1
100
AcDbLine
 10
194.339822682103
 20
157.4200402970154
 30
0.0
 11
194.3133586821029
 21
157.4915232970153
 31
0.0
  0
LINE
  5
12C7
330
18
100
AcDbEntity
  8
1
100
AcDbLine
 10
194.345200682103
 20
157.4102912970154
 30
0.0
 11
194.339822682103
 21
157.4200402970154
 31
0.0
  0
LINE
  5
12C8
330
18
100
AcDbEntity
  8
1
100
AcDbLine
 10
194.419129682103
 20
157.7949692970153
 30
0.0
 11
194.379064682103
 21
157.7495142970154
 31
0.0
  0
LINE
  5
12C9
330
18
100
AcDbEntity
  8
1
100
AcDbLine
 10
194.469199682103
 20
157.8590522970154
 30
0.0
 11
194.419129682103
 21
157.7949692970153
 31
0.0
  0
LINE
  5
12CA
330
18
100
AcDbEntity
  8
1
100
AcDbLine
 10
194.562277682103
 20
158.0537352970154
 30
0.0
 11
194.469199682103
 21
157.8590522970154
 31
0.0
  0
LINE
  5
12CB
330
18
100
AcDbEntity
  8
1
100
AcDbLine
 10
194.529769682103
 20
158.5306802970154
 30
0.0
 11
194.562277682103
 21
158.4432462970154
 31
0.0
  0
LINE
  5
12CC
330
18
100
AcDbEntity
  8
1
100
AcDbLine
 10
194.419129682103
 20
158.7020242970153
 30
0.0
 11
194.529769682103
 21
158.5306802970154
 31
0.0
  0
LINE
  5
12CD
330
18
100
AcDbEntity
  8
1
100
AcDbLine
 10
194.379064682103
 20
158.7474792970153
 30
0.0
 11
194.419129682103
 21
158.7020242970153
 31
0.0
  0
LINE
  5
12CE
330
18
100
AcDbEntity
  8
1
100
AcDbLine
 10
194.316495682103
 20
159.0179692970153
 30
0.0
 11
194.345200682103
 21
159.0866902970154
 31
0.0
  0
LINE
  5
12CF
330
18
100
AcDbEntity
  8
1
100
AcDbLine
 10
194.3060916821029
 20
158.9373412970154
 30
0.0
 11
194.316495682103
 21
159.0179692970153
 31
0.0
  0
LINE
  5
12D0
330
18
100
AcDbEntity
  8
1
100
AcDbLine
 10
194.3208676821029
 20
158.8488532970153
 30
0.0
 11
194.3060916821029
 21
158.9373412970154
 31
0.0
  0
LINE
  5
12D1
330
18
100
AcDbEntity
  8
1
100
AcDbLine
 10
194.379064682103
 20
158.7474792970153
 30
0.0
 11
194.3208676821029
 21
158.8488532970153
 31
0.0
  0
LINE
  5
12D2
330
18
100
AcDbEntity
  8
1
100
AcDbLine
 10
195.723180682103
 20
159.9154192970154
 30
0.0
 11
195.7970136821029
 21
159.9249022970153
 31
0.0
  0
LINE
  5
12D3
330
18
100
AcDbEntity
  8
1
100
AcDbLine
 10
195.648148682103
 20
159.8841222970154
 30
0.0
 11
195.723180682103
 21
159.9154192970154
 31
0.0
  0
LINE
  5
12D4
330
18
100
AcDbEntity
  8
1
100
AcDbLine
 10
195.578906682103
 20
159.8271002970153
 30
0.0
 11
195.648148682103
 21
159.8841222970154
 31
0.0
  0
LINE
  5
12D5
330
18
100
AcDbEntity
  8
1
100
AcDbLine
 10
195.520164682103
 20
159.7259682970153
 30
0.0
 11
195.578906682103
 21
159.8271002970153
 31
0.0
  0
LINE
  5
12D6
330
18
100
AcDbEntity
  8
1
100
AcDbLine
 10
194.6392836821029
 20
159.2298382970153
 30
0.0
 11
194.6559126821029
 21
159.2269802970154
 31
0.0
  0
LINE
  5
12D7
330
18
100
AcDbEntity
  8
1
100
AcDbLine
 10
194.5317806821029
 20
159.2251022970154
 30
0.0
 11
194.6392836821029
 21
159.2298382970153
 31
0.0
  0
LINE
  5
12D8
330
18
100
AcDbEntity
  8
1
100
AcDbLine
 10
194.459352682103
 20
159.1976572970154
 30
0.0
 11
194.5317806821029
 21
159.2251022970154
 31
0.0
  0
LINE
  5
12D9
330
18
100
AcDbEntity
  8
1
100
AcDbLine
 10
194.3995936821029
 20
159.1548672970153
 30
0.0
 11
194.459352682103
 21
159.1976572970154
 31
0.0
  0
LINE
  5
12DA
330
18
100
AcDbEntity
  8
1
100
AcDbLine
 10
194.350929682103
 20
159.0961862970154
 30
0.0
 11
194.3995936821029
 21
159.1548672970153
 31
0.0
  0
LINE
  5
12DB
330
18
100
AcDbEntity
  8
1
100
AcDbLine
 10
194.345200682103
 20
159.0866902970154
 30
0.0
 11
194.350929682103
 21
159.0961862970154
 31
0.0
  0
LINE
  5
12DC
330
18
100
AcDbEntity
  8
1
100
AcDbLine
 10
194.7153086821029
 20
159.2150012970153
 30
0.0
 11
194.6559126821029
 21
159.2269802970154
 31
0.0
  0
LINE
  5
12DD
330
18
100
AcDbEntity
  8
1
100
AcDbLine
 10
194.7958386821029
 20
159.2036892970154
 30
0.0
 11
194.7153086821029
 21
159.2150012970153
 31
0.0
  0
LINE
  5
12DE
330
18
100
AcDbEntity
  8
1
100
AcDbLine
 10
195.0109786821029
 20
159.2204272970153
 30
0.0
 11
194.7958386821029
 21
159.2036892970154
 31
0.0
  0
LINE
  5
12DF
330
18
100
AcDbEntity
  8
1
100
AcDbLine
 10
195.4077446821029
 20
159.4870292970153
 30
0.0
 11
195.348300682103
 21
159.4151832970154
 31
0.0
  0
LINE
  5
12E0
330
18
100
AcDbEntity
  8
1
100
AcDbLine
 10
195.5008346821029
 20
159.6685342970153
 30
0.0
 11
195.4077446821029
 21
159.4870292970153
 31
0.0
  0
LINE
  5
12E1
330
18
100
AcDbEntity
  8
1
100
AcDbLine
 10
195.520164682103
 20
159.7259682970153
 30
0.0
 11
195.5008346821029
 21
159.6685342970153
 31
0.0
  0
LINE
  5
12E2
330
18
100
AcDbEntity
  8
1
100
AcDbLine
 10
201.5970106821029
 20
165.9784932970153
 30
0.0
 11
202.5238316821031
 21
165.9784932970153
 31
0.0
  0
LINE
  5
12E3
330
18
100
AcDbEntity
  8
1
100
AcDbLine
 10
203.0701886821029
 20
165.9784932970153
 30
0.0
 11
203.997009682103
 21
165.9784932970153
 31
0.0
  0
LINE
  5
12E4
330
18
100
AcDbEntity
  8
1
100
AcDbLine
 10
197.4622946821028
 20
151.7485002970153
 30
0.0
 11
173.797012682103
 21
151.7485002970153
 31
0.0
  0
LINE
  5
12E5
330
18
100
AcDbEntity
  8
1
100
AcDbLine
 10
168.5052446821029
 20
146.4484962970153
 30
0.0
 11
150.897005682103
 21
146.4484962970153
 31
0.0
  0
LINE
  5
12E6
330
18
100
AcDbEntity
  8
1
100
AcDbLine
 10
150.897005682103
 20
164.4484992970153
 30
0.0
 11
187.1042786821029
 21
164.4484992970153
 31
0.0
  0
LINE
  5
12E7
330
18
100
AcDbEntity
  8
1
100
AcDbLine
 10
193.721364682103
 20
164.4484992970153
 30
0.0
 11
197.4622946821028
 21
164.4484992970153
 31
0.0
  0
LINE
  5
12E8
330
18
100
AcDbEntity
  8
1
100
AcDbLine
 10
173.797012682103
 20
151.7485002970153
 30
0.0
 11
168.4970086821029
 21
146.4484962970153
 31
0.0
  0
LINE
  5
12E9
330
18
100
AcDbEntity
  8
SK1
100
AcDbLine
 10
129.297009682103
 20
141.6250382970154
 30
0.0
 11
105.297009682103
 21
142.4631292970153
 31
0.0
  0
LINE
  5
12EA
330
18
100
AcDbEntity
  8
SK1
100
AcDbLine
 10
105.297009682103
 20
168.4338542970154
 30
0.0
 11
129.297009682103
 21
169.2719572970153
 31
0.0
  0
LINE
  5
12EB
330
18
100
AcDbEntity
  8
1
100
AcDbLine
 10
148.797012682103
 20
135.4485022970154
 30
0.0
 11
129.297009682103
 21
135.4485022970154
 31
0.0
  0
LINE
  5
12EC
330
18
100
AcDbEntity
  8
1
100
AcDbLine
 10
129.297009682103
 20
175.4484942970153
 30
0.0
 11
148.797012682103
 21
175.4484942970153
 31
0.0
  0
LINE
  5
12ED
330
18
100
AcDbEntity
  8
1
100
AcDbLine
 10
149.2970056821029
 20
135.9484952970153
 30
0.0
 11
148.797012682103
 21
135.4485022970154
 31
0.0
  0
LINE
  5
12EE
330
18
100
AcDbEntity
  8
1
100
AcDbLine
 10
148.797012682103
 20
175.4484942970153
 30
0.0
 11
149.2970056821029
 21
174.9485002970153
 31
0.0
  0
DIMENSION
  5
12EF
330
18
100
AcDbEntity
  8
2
100
AcDbDimension
  2
*D10
 10
201.296567682103
 20
174.0887448954308
 30
0.0
 11
194.0741502541339
 21
176.9002347056908
 31
0.0
 70
    32
 71
     5
 42
3.000000000000055
  3
AM_DIN
100
AcDbAlignedDimension
 13
204.296567682103
 23
169.9319222970153
 33
0.0
 14
201.296567682103
 24
169.5142152970154
 34
0.0
100
AcDbRotatedDimension
1001
ACAD
1000
DSTYLE
1002
{
1070
   279
1070
     0
1070
    48
1040
0.0
1070
   146
1040
1.0
1070
   272
1070
     0
1070
   274
1070
     2
1070
   284
1070
     0
1070
   286
1070
     0
1002
}
  0
LINE
  5
12F0
330
18
100
AcDbEntity
  8
4
100
AcDbLine
 10
129.297009682103
 20
155.4485022970154
 30
0.0
 11
208.05009109143
 21
155.4485022970154
 31
0.0
  0
LINE
  5
12F1
330
18
100
AcDbEntity
  8
SK4
100
AcDbLine
 10
208.05009109143
 20
155.4485022970154
 30
0.0
 11
102.1148108222393
 21
155.4485022970154
 31
0.0
  0
LINE
  5
12F2
330
18
100
AcDbEntity
  8
3
100
AcDbLine
 10
204.296567682103
 20
169.7770303145491
 30
0.0
 11
204.296567682103
 21
169.9319222970153
 31
0.0
  0
DIMENSION
  5
12F3
330
18
100
AcDbEntity
  8
2
100
AcDbDimension
  2
*D11
 10
129.297009682103
 20
190.0887448954308
 30
0.0
 11
166.796788682103
 21
190.0887448954308
 31
0.0
 70
   160
 71
     5
 42
74.99955800000002
  3
AM_DIN
100
AcDbAlignedDimension
 13
204.296567682103
 23
169.9319222970153
 33
0.0
 14
129.297009682103
 24
175.0390962970153
 34
0.0
100
AcDbRotatedDimension
1001
ACAD
1000
DSTYLE
1002
{
1070
   279
1070
     0
1070
   286
1070
     0
1070
   274
1070
     2
1070
   284
1070
     0
1070
   283
1070
     1
1070
   146
1040
1.0
1070
   272
1070
     0
1070
    47
1040
0.0
1070
    48
1040
0.0
1070
    72
1070
     0
1070
    71
1070
     0
1002
}
  0
DIMENSION
  5
12F4
330
18
100
AcDbEntity
  8
2
100
AcDbDimension
  2
*D12
 10
150.897005682103
 20
182.0887448954309
 30
0.0
 11
176.546790182103
 21
182.0887448954309
 31
0.0
 70
   160
 71
     5
 42
53.399562
  3
AM_DIN
100
AcDbAlignedDimension
 13
204.296567682103
 23
169.9319222970153
 33
0.0
 14
150.897005682103
 24
164.4484992970153
 34
0.0
100
AcDbRotatedDimension
1001
ACAD_DSTYLE_DIMINSPECT
1070
   396
1000
100%
1070
   395
1000

1070
   394
1070
    33
1070
   393
1070
     0
1001
ACAD
1000
DSTYLE
1002
{
1070
   279
1070
     0
1070
    48
1040
0.0
1070
   146
1040
1.0
1070
   271
1070
     0
1070
   272
1070
     0
1070
   274
1070
     2
1070
   284
1070
     0
1070
   286
1070
     0
1002
}
  0
DIMENSION
  5
12F5
330
18
100
AcDbEntity
  8
2
100
AcDbDimension
  2
*D13
 10
225.3755698875008
 20
155.4485022970154
 30
0.0
 11
225.3755698875008
 21
179.0287285045926
 31
0.0
 70
   160
 71
     5
 42
14.48341999999988
  3
AM_DIN
100
AcDbAlignedDimension
 13
204.296567682103
 23
169.9319222970153
 33
0.0
 14
208.05009109143
 24
155.4485022970154
 34
0.0
 50
270.0
100
AcDbRotatedDimension
1001
ACAD_DSTYLE_DIMINSPECT
1070
   396
1000
100%
1070
   395
1000

1070
   394
1070
    33
1070
   393
1070
     0
1001
ACAD
1000
DSTYLE
1002
{
1070
    48
1040
0.0
1070
   146
1040
1.0
1070
   271
1070
     1
1070
   272
1070
     0
1070
   274
1070
     2
1070
   284
1070
     0
1070
   286
1070
     0
1002
}
  0
DIMENSION
  5
12F6
330
18
100
AcDbEntity
  8
2
100
AcDbDimension
  2
*D14
 10
216.7320088143781
 20
164.4305012970153
 30
0.0
 11
216.7320088143781
 21
180.1921279582552
 31
0.0
 70
   160
 71
     5
 42
5.501420999999993
  3
AM_DIN
100
AcDbAlignedDimension
 13
204.296567682103
 23
169.9319222970153
 33
0.0
 14
201.5970106821029
 24
164.4305012970153
 34
0.0
 50
270.0
100
AcDbRotatedDimension
1001
ACAD_DSTYLE_DIMINSPECT
1070
   396
1000
100%
1070
   395
1000

1070
   394
1070
    33
1070
   393
1070
     0
1001
ACAD
1000
DSTYLE
1002
{
1070
    48
1040
0.0
1070
   146
1040
1.0
1070
   271
1070
     1
1070
   272
1070
     0
1070
   274
1070
     2
1070
   284
1070
     0
1070
   286
1070
     0
1002
}
  0
DIMENSION
  5
12F7
330
18
100
AcDbEntity
  8
SK2
100
AcDbDimension
  2
*D15
 10
99.03305619198206
 20
175.4484942970153
 30
0.0
 11
99.03305619198205
 21
156.0258283409987
 31
0.0
 70
   160
  1
%%c<>
 71
     5
 42
39.99999199999991
  3
AM_DIN
100
AcDbAlignedDimension
 13
129.297009682103
 23
135.4485022970154
 33
0.0
 14
129.297009682103
 24
175.4484942970153
 34
0.0
 50
270.0
100
AcDbRotatedDimension
1001
ACAD
1000
DSTYLE
1002
{
1070
    48
1040
0.0
1070
   146
1040
1.0
1070
   272
1070
     0
1070
   274
1070
     2
1070
   284
1070
     0
1070
   286
1070
     0
1002
}
  0
DIMENSION
  5
12F8
330
18
100
AcDbEntity
  8
2
100
AcDbDimension
  2
*D16
 10
173.797012682103
 20
144.4202188103167
 30
0.0
 11
189.6267667827162
 21
144.4202188103167
 31
0.0
 70
   160
 71
     5
 42
30.49955500000002
  3
AM_DIN
100
AcDbAlignedDimension
 13
204.296567682103
 23
169.9319222970153
 33
0.0
 14
173.797012682103
 24
151.7485002970153
 34
0.0
100
AcDbRotatedDimension
1001
ACAD
1000
DSTYLE
1002
{
1070
    48
1040
0.0
1070
   146
1040
1.0
1070
   271
1070
     0
1070
   272
1070
     0
1070
   274
1070
     2
1070
   284
1070
     0
1070
   286
1070
     0
1002
}
1001
ACAD_DSTYLE_DIMINSPECT
1070
   396
1000
100%
1070
   395
1000

1070
   394
1070
    33
1070
   393
1070
     0
  0
DIMENSION
  5
12FA
330
18
100
AcDbEntity
  8
2
100
AcDbDimension
  2
*D17
 10
158.9572371104894
 20
164.4484992970153
 30
0.0
 11
158.9572371104894
 21
138.6233030433259
 31
0.0
 70
   160
  1
%%c<>
 71
     5
 42
18.00000299999999
  3
AM_DIN
100
AcDbAlignedDimension
 13
156.9511251821029
 23
146.4484962970153
 33
0.0
 14
159.7011251821029
 24
164.4484992970153
 34
0.0
 50
270.0
100
AcDbRotatedDimension
1001
ACAD
1000
DSTYLE
1002
{
1070
    48
1040
0.0
1070
   146
1040
1.0
1070
   272
1070
     0
1070
   274
1070
     2
1070
   284
1070
     0
1070
   286
1070
     0
1002
}
  0
LINE
  5
12FB
330
18
100
AcDbEntity
  8
3
100
AcDbLine
 10
204.2227166627142
 20
169.9319222970153
 30
0.0
 11
204.296567682103
 21
169.9319222970153
 31
0.0
  0
MTEXT
  5
13B4
330
18
100
AcDbEntity
  8
SK6
100
AcDbMText
 10
105.297009682103
 20
129.6227049066833
 30
0.0
 40
3.5
 41
69.82639750096557
 71
     1
 72
     5
  1
C4-CGFR-15075-1303\P00054085
  7
STANDARD 3.5 mm
 73
     1
 44
1.0
1001
ACAD
1000
ACAD_MTEXT_COLUMN_INFO_BEGIN
1070
    75
1070
     2
1070
    79
1070
     0
1070
    76
1070
     1
1070
    78
1070
     0
1070
    48
1040
69.82639750096557
1070
    49
1040
25.0
1070
    50
1070
     1
1040
0.0
1000
ACAD_MTEXT_COLUMN_INFO_END
1000
MTEXTBEGIN
1070
    73
1070
     1
1070
    44
1040
1.0
1070
    74
1070
     0
1000
MTEXTEND
  0
VIEWPORT
  5
B5D
102
{ACAD_XDICTIONARY
360
B5E
102
}
330
B56
100
AcDbEntity
 67
     1
  8
0
100
AcDbViewport
 10
148.4886727696569
 20
104.9919908472322
 30
0.0
 40
360.5799308901367
 41
215.6936333192457
 68
     1
 69
     1
 12
148.4886727696569
 22
104.9919908472322
 13
0.0
 23
0.0
 14
10.0
 24
10.0
 15
10.0
 25
10.0
 16
0.0
 26
0.0
 36
1.0
 17
0.0
 27
0.0
 37
0.0
 42
50.0
 43
0.0
 44
0.0
 45
215.6936333192457
 50
0.0
 51
0.0
 72
  2000
 90
   819232
  1

281
     0
 71
     1
 74
     0
110
0.0
120
0.0
130
0.0
111
1.0
121
0.0
131
0.0
112
0.0
122
1.0
132
0.0
 79
     0
146
0.0
1001
GENIUS_GENOBJ-N-SDF_13
1002
{
1000
OWNER
1000
GEN
1002
}
1001
GENIUS_GENODEF_13
1002
{
1000
HIER
1070
     0
1002
}
1002
{
1000
MANEDIT
1070
     0
1002
}
1002
{
1000
NOSEL
1070
     0
1002
}
1002
{
1000
BEHIND
1070
     0
1002
}
1002
{
1000
OTHER
1070
     0
1002
}
1002
{
1000
REACTOR
1002
}
1001
GENIUS_GENSCREG_15
1000
PF
1040
1.0
1000
DF
1040
1.0
1000
MIN
1011
-31.80129267541145
1021
-2.854825812390629
1031
0.0
1000
MAX
1011
328.7786382147253
1021
212.8388075068551
1031
0.0
1000
FLAGS
1070
     4
  0
VIEWPORT
  5
B61
102
{ACAD_XDICTIONARY
360
B62
102
}
330
B56
100
AcDbEntity
 67
     1
  8
1
100
AcDbViewport
 10
148.5
 20
105.0
 30
0.0
 40
297.0
 41
210.0
 68
     2
 69
     2
 12
0.3212157160238718
 22
-0.0519849240370149
 13
0.0
 23
0.0
 14
5.0
 24
5.0
 15
5.0
 25
5.0
 16
0.0
 26
0.0
 36
1.0
 17
0.0
 27
0.0
 37
0.0
 42
50.0
 43
0.0
 44
0.0
 45
210.0000000373879
 50
0.0
 51
0.0
 72
  2000
 90
   819232
  1

281
     0
 71
     1
 74
     0
110
0.0
120
0.0
130
0.0
111
1.0
121
0.0
131
0.0
112
0.0
122
1.0
132
0.0
 79
     0
146
0.0
1001
GENIUS_GENOBJ-N-SDF_13
1002
{
1000
OWNER
1000
GEN
1002
}
1001
GENIUS_GENODEF_13
1002
{
1000
HIER
1070
     0
1002
}
1002
{
1000
MANEDIT
1070
     0
1002
}
1002
{
1000
NOSEL
1070
     0
1002
}
1002
{
1000
BEHIND
1070
     0
1002
}
1002
{
1000
OTHER
1070
     0
1002
}
1002
{
1000
REACTOR
1002
}
1001
GENIUS_GENSCREG_15
1000
PF
1040
0.0
1000
DF
1040
0.0
1000
MIN
1011
0.0
1021
0.0
1031
0.0
1000
MAX
1011
297.0
1021
210.0
1031
0.0
1000
FLAGS
1070
     4
  0
ENDSEC
  0
SECTION
  2
OBJECTS
  0
DICTIONARY
  5
C
330
0
100
AcDbDictionary
281
     1
  3
ACAD_2007HEADERVARS_RT
350
1BC2
  3
ACAD_BACKGROUND
350
B0F
  3
ACAD_CIP_PREVIOUS_PRODUCT_INFO
350
CF7
  3
ACAD_COLOR
350
387
  3
ACAD_DETAILVIEWSTYLE
350
CEF
  3
ACAD_FIELDLIST
350
D13
  3
ACAD_GROUP
350
D
  3
ACAD_LAYOUT
350
301
  3
ACAD_MATERIAL
350
386
  3
ACAD_MLEADERSTYLE
350
46F
  3
ACAD_MLINESTYLE
350
E
  3
ACAD_PLOTSETTINGS
350
302
  3
ACAD_PLOTSTYLENAME
350
2FF
  3
ACAD_SCALELIST
350
44D
  3
ACAD_SECTIONVIEWSTYLE
350
CED
  3
ACAD_TABLESTYLE
350
388
  3
ACAD_VISUALSTYLE
350
3F2
  3
ACDB_RECOMPOSE_DATA
350
1BC0
  3
AcDbVariableDictionary
350
357
  3
AcmDictionary
350
4D1
  3
AMG
350
478
  3
AMGSNAPSETTINGS
350
51E
  3
DWGPROPS
350
1BC1
  0
DICTIONARY
  5
A45
330
8
100
AcDbDictionary
280
     1
281
     1
  0
DICTIONARY
  5
43C
330
2
100
AcDbDictionary
280
     1
281
     1
  3
ACAD_LAYERFILTERS
360
B21
  3
ACAD_LAYERSTATES
360
567
  3
ACLYDICTIONARY
360
B20
  3
AMLAYER_GROUPCOLORS
360
E31
  0
DICTIONARY
  5
52D
330
F
100
AcDbDictionary
280
     1
281
     1
  3
ADSK_XREC_LAYER_RECONCILED
360
17A6
  0
DICTIONARY
  5
52F
330
23
100
AcDbDictionary
280
     1
281
     1
  3
ADSK_XREC_LAYER_RECONCILED
360
17A7
  0
DICTIONARY
  5
531
330
24
100
AcDbDictionary
280
     1
281
     1
  3
ADSK_XREC_LAYER_RECONCILED
360
17A8
  0
DICTIONARY
  5
533
330
25
100
AcDbDictionary
280
     1
281
     1
  3
ADSK_XREC_LAYER_RECONCILED
360
17A9
  0
DICTIONARY
  5
537
330
27
100
AcDbDictionary
280
     1
281
     1
  3
ADSK_XREC_LAYER_RECONCILED
360
17AA
  0
DICTIONARY
  5
539
330
28
100
AcDbDictionary
280
     1
281
     1
  3
ADSK_XREC_LAYER_RECONCILED
360
17AB
  0
DICTIONARY
  5
53D
330
2A
100
AcDbDictionary
280
     1
281
     1
  3
ADSK_XREC_LAYER_RECONCILED
360
17AC
  0
DICTIONARY
  5
53F
330
2B
100
AcDbDictionary
280
     1
281
     1
  3
ADSK_XREC_LAYER_RECONCILED
360
17AD
  0
DICTIONARY
  5
545
330
2E
100
AcDbDictionary
280
     1
281
     1
  3
ADSK_XREC_LAYER_RECONCILED
360
17AE
  0
DICTIONARY
  5
DB1
330
18
100
AcDbDictionary
280
     1
281
     1
  3
ACAD_SORTENTS
360
DB2
  0
DICTIONARY
  5
B5E
330
B5D
100
AcDbDictionary
280
     1
281
     1
  3
ACAD_XREC_ROUNDTRIP
360
1BF3
  3
ASDK_XREC_ANNOTATION_SCALE_INFO
360
B5F
  0
DICTIONARY
  5
B62
330
B61
100
AcDbDictionary
280
     1
281
     1
  3
ACAD_XREC_ROUNDTRIP
360
1BF4
  3
ASDK_XREC_ANNOTATION_SCALE_INFO
360
B63
  0
DICTIONARY
  5
1BC2
102
{ACAD_REACTORS
330
C
102
}
330
C
100
AcDbDictionary
281
     1
  3
DIMARCSYM
350
1BC3
  3
DIMJOGANG
350
1BC4
  3
DIMLTEX1
350
1BC6
  3
DIMLTEX2
350
1BC7
  3
DIMLTYPE
350
1BC5
  0
DICTIONARY
  5
B0F
102
{ACAD_REACTORS
330
C
102
}
330
C
100
AcDbDictionary
281
     1
  0
XRECORD
  5
CF7
102
{ACAD_REACTORS
330
C
102
}
330
C
100
AcDbXrecord
280
     1
300
AMECH_PP
300
2014
300
86138AMECH_PP_2014_0F
  0
DICTIONARY
  5
387
102
{ACAD_REACTORS
330
C
102
}
330
C
100
AcDbDictionary
281
     1
  0
DICTIONARY
  5
CEF
102
{ACAD_REACTORS
330
C
102
}
330
C
100
AcDbDictionary
281
     1
  3
Metric50
350
CF0
  0
FIELDLIST
  5
D13
102
{ACAD_REACTORS
330
C
102
}
330
C
100
AcDbIdSet
 90
        3
330
1ABB
330
1ABC
330
1ABD
100
AcDbFieldList
  0
DICTIONARY
  5
D
102
{ACAD_REACTORS
330
C
102
}
330
C
100
AcDbDictionary
281
     1
  0
DICTIONARY
  5
301
102
{ACAD_REACTORS
330
C
102
}
330
C
100
AcDbDictionary
281
     1
  3
Layout1
350
B57
  3
Model
350
303
  0
DICTIONARY
  5
386
102
{ACAD_REACTORS
330
C
102
}
330
C
100
AcDbDictionary
281
     1
  3
ByBlock
350
3F0
  3
ByLayer
350
3EF
  3
Global
350
3F1
  0
DICTIONARY
  5
46F
102
{ACAD_REACTORS
330
C
102
}
330
C
100
AcDbDictionary
281
     1
  3
Standard
350
470
  0
DICTIONARY
  5
E
102
{ACAD_REACTORS
330
C
102
}
330
C
100
AcDbDictionary
281
     1
  3
STANDARD
350
1B
  0
DICTIONARY
  5
302
102
{ACAD_REACTORS
330
C
102
}
330
C
100
AcDbDictionary
281
     1
  3
DWG To PDF A4 - landscape
350
7EF
  3
DWG To PDF A4 - portrait
350
7F8
  0
ACDBDICTIONARYWDFLT
  5
2FF
102
{ACAD_REACTORS
330
C
102
}
330
C
100
AcDbDictionary
281
     1
  3
Normal
350
300
100
AcDbDictionaryWithDefault
340
300
  0
DICTIONARY
  5
44D
102
{ACAD_REACTORS
330
C
102
}
330
C
100
AcDbDictionary
281
     1
  3
A0
350
BFC
  3
A1
350
BFD
  3
A2
350
BFE
  3
A3
350
BFF
  3
A4
350
C00
  3
A5
350
C01
  3
A6
350
44E
  3
A7
350
C02
  3
A8
350
C03
  3
A9
350
C04
  3
B0
350
C05
  3
B1
350
C06
  3
B2
350
C07
  0
DICTIONARY
  5
CED
102
{ACAD_REACTORS
330
C
102
}
330
C
100
AcDbDictionary
281
     1
  3
Metric50
350
CEE
  0
DICTIONARY
  5
388
102
{ACAD_REACTORS
330
C
102
}
330
C
100
AcDbDictionary
281
     1
  3
Standard
350
389
  0
DICTIONARY
  5
3F2
102
{ACAD_REACTORS
330
C
102
}
330
C
100
AcDbDictionary
281
     1
  3
2dWireframe
350
3F8
  3
3D Hidden
350
3FA
  3
3dWireframe
350
3F9
  3
Basic
350
3F7
  3
Brighten
350
3FE
  3
ColorChange
350
402
  3
Conceptual
350
3FB
  3
Dim
350
3FD
  3
EdgeColorOff
350
BDF
  3
Facepattern
350
401
  3
Flat
350
3F3
  3
FlatWithEdges
350
3F4
  3
Gouraud
350
3F5
  3
GouraudWithEdges
350
3F6
  3
Hidden
350
CE7
  3
JitterOff
350
BDD
  3
Linepattern
350
400
  3
OverhangOff
350
BDE
  3
Realistic
350
3FC
  3
Shaded
350
CEC
  3
Shaded with edges
350
CEB
  3
Shades of Gray
350
CE8
  3
Sketchy
350
CE9
  3
Thicken
350
3FF
  3
Wireframe
350
CE6
  3
X-Ray
350
CEA
  0
XRECORD
  5
1BC0
102
{ACAD_REACTORS
330
C
102
}
330
C
100
AcDbXrecord
280
     1
 90
        1
330
389
330
13B4
  0
DICTIONARY
  5
357
102
{ACAD_REACTORS
330
C
102
}
330
C
100
AcDbDictionary
281
     1
  3
CANNOSCALE
350
57C
  3
CMLEADERSTYLE
350
57A
  3
CTABLESTYLE
350
38E
  3
CVIEWDETAILSTYLE
350
D2C
  3
CVIEWSECTIONSTYLE
350
D2D
  3
DIMASSOC
350
359
  3
HIDETEXT
350
358
  3
INDEXCTL
350
ACC
  3
LAYEREVAL
350
BF1
  3
LAYERNOTIFY
350
BF2
  3
LIGHTINGUNITS
350
57D
  3
MSLTSCALE
350
57B
  3
SOLIDHIST
350
17B0
  3
SORTENTS
350
ACB
  3
XCLIPFRAME
350
1BBE
  0
DICTIONARY
  5
4D1
102
{ACAD_REACTORS
330
C
102
}
330
C
100
AcDbDictionary
281
     1
  3
AcmStdDictionary
350
4DC
  3
AMDTSECTSYM_ARROWCOLOR
350
4F3
  0
DICTIONARY
  5
478
102
{ACAD_REACTORS
330
C
102
}
330
C
100
AcDbDictionary
281
     1
  0
DICTIONARY
  5
51E
102
{ACAD_REACTORS
330
C
102
}
330
C
100
AcDbDictionary
281
     1
  0
XRECORD
  5
1BC1
102
{ACAD_REACTORS
330
C
102
}
330
C
100
AcDbXrecord
280
     1
  1
DWGPROPS COOKIE
  2

  3

  4
Philippe Vogel
  6
Secotools DIN Template metric
  7

  8
inpunganp
  9

300
=
301
=
302
=
303
=
304
=
305
=
306
=
307
=
308
=
309
=
 40
0.0445280439814815
 41
2457702.370465359
 42
2457708.385707709
  1
HTTP://WWW.SECOTOOLS.COM/
 90
        0
  0
DICTIONARY
  5
B21
102
{ACAD_REACTORS
330
43C
102
}
330
43C
100
AcDbDictionary
281
     1
  0
DICTIONARY
  5
567
102
{ACAD_REACTORS
330
43C
102
}
330
43C
100
AcDbDictionary
281
     1
  3
BMG3.0
350
8E9
  0
DICTIONARY
  5
B20
102
{ACAD_REACTORS
330
43C
102
}
330
43C
100
AcDbDictionary
281
     1
1001
ACAD
1000
<All
  0
DICTIONARY
  5
E31
102
{ACAD_REACTORS
330
43C
102
}
330
43C
100
AcDbDictionary
280
     1
281
     1
  0
XRECORD
  5
17A6
102
{ACAD_REACTORS
330
52D
102
}
330
52D
100
AcDbXrecord
280
     1
290
     1
  0
XRECORD
  5
17A7
102
{ACAD_REACTORS
330
52F
102
}
330
52F
100
AcDbXrecord
280
     1
290
     1
  0
XRECORD
  5
17A8
102
{ACAD_REACTORS
330
531
102
}
330
531
100
AcDbXrecord
280
     1
290
     1
  0
XRECORD
  5
17A9
102
{ACAD_REACTORS
330
533
102
}
330
533
100
AcDbXrecord
280
     1
290
     1
  0
XRECORD
  5
17AA
102
{ACAD_REACTORS
330
537
102
}
330
537
100
AcDbXrecord
280
     1
290
     1
  0
XRECORD
  5
17AB
102
{ACAD_REACTORS
330
539
102
}
330
539
100
AcDbXrecord
280
     1
290
     1
  0
XRECORD
  5
17AC
102
{ACAD_REACTORS
330
53D
102
}
330
53D
100
AcDbXrecord
280
     1
290
     1
  0
XRECORD
  5
17AD
102
{ACAD_REACTORS
330
53F
102
}
330
53F
100
AcDbXrecord
280
     1
290
     1
  0
XRECORD
  5
17AE
102
{ACAD_REACTORS
330
545
102
}
330
545
100
AcDbXrecord
280
     1
290
     1
  0
SORTENTSTABLE
  5
DB2
102
{ACAD_REACTORS
330
DB1
102
}
330
DB1
100
AcDbSortentsTable
330
18
  0
XRECORD
  5
1BF3
102
{ACAD_REACTORS
330
B5E
102
}
330
B5E
100
AcDbXrecord
280
     1
102
SHADEPLOT
 70
     0
  0
XRECORD
  5
B5F
102
{ACAD_REACTORS
330
B5E
102
}
330
B5E
100
AcDbXrecord
280
     1
 90
        1
340
44E
  0
XRECORD
  5
1BF4
102
{ACAD_REACTORS
330
B62
102
}
330
B62
100
AcDbXrecord
280
     1
102
SHADEPLOT
 70
     0
  0
XRECORD
  5
B63
102
{ACAD_REACTORS
330
B62
102
}
330
B62
100
AcDbXrecord
280
     1
 90
        1
340
44E
  0
XRECORD
  5
1BC3
102
{ACAD_REACTORS
330
1BC2
102
}
330
1BC2
100
AcDbXrecord
280
     1
 70
     1
  0
XRECORD
  5
1BC4
102
{ACAD_REACTORS
330
1BC2
102
}
330
1BC2
100
AcDbXrecord
280
     1
 40
1.570796326794896
  0
XRECORD
  5
1BC6
102
{ACAD_REACTORS
330
1BC2
102
}
330
1BC2
100
AcDbXrecord
280
     1
340
12
  0
XRECORD
  5
1BC7
102
{ACAD_REACTORS
330
1BC2
102
}
330
1BC2
100
AcDbXrecord
280
     1
340
12
  0
XRECORD
  5
1BC5
102
{ACAD_REACTORS
330
1BC2
102
}
330
1BC2
100
AcDbXrecord
280
     1
340
12
  0
ACDBDETAILVIEWSTYLE
  5
CF0
102
{ACAD_XDICTIONARY
360
1C0B
102
}
102
{ACAD_REACTORS
330
CEF
330
1AB6
102
}
330
CEF
100
AcDbModelDocViewStyle
 70
     0
  3
Metric50
290
     0
100
AcDbDetailViewStyle
 70
     0
 71
     0
 90
        3
 71
     1
340
10
 40
5.0
340
0
 40
5.0
300

 40
0.0
280
     1
 71
     2
340
14
 90
       25
 71
     3
340
10
 40
5.0
 90
        0
 40
15.0
 90
        1
300
%<\AcVar ViewDetailId>% (%<\AcVar ViewScale \f "%sn">%)
 71
     4
340
14
 90
       25
340
14
 90
       25
280
     0
  0
LAYOUT
  5
B57
102
{ACAD_XDICTIONARY
360
1BF1
102
}
102
{ACAD_REACTORS
330
301
102
}
330
301
100
AcDbPlotSettings
  1

  2
DWG To PDF.pc3
  4
UserDefinedMetric (297.00 x 210.00mm)
  6

 40
0.0
 41
0.0
 42
0.0
 43
0.0
 44
297.0
 45
210.0
 46
0.0
 47
0.0
 48
0.0
 49
0.0
140
0.0
141
0.0
142
1.0
143
1.0
 70
   688
 72
     1
 73
     0
 74
     5
  7
monochrome.ctb
 75
    16
147
1.0
148
0.0
149
0.0
100
AcDbLayout
  1
Layout1
 70
     1
 71
     1
 10
0.0
 20
0.0
 11
297.0
 21
210.0
 12
0.0
 22
0.0
 32
0.0
 14
-0.0226558438690745
 24
-0.0160192835437556
 34
-0.000000000000013
 15
297.000001383183
 25
210.0000009780083
 35
0.0000000000000023
146
0.0
 13
0.0
 23
0.0
 33
0.0
 16
1.0
 26
0.0
 36
0.0
 17
0.0
 27
1.0
 37
0.0
 76
     0
330
B56
331
B5D
1001
ACAD_PSEXT
1000
DWG To PDF.pc3
1000
PDF
1000
Datei
1000

1070
     0
  0
LAYOUT
  5
303
102
{ACAD_XDICTIONARY
360
1BC8
102
}
102
{ACAD_REACTORS
330
301
102
}
330
301
100
AcDbPlotSettings
  1

  2
Default Windows System Printer.pc3
  4
A4
  6

 40
4.233333110809326
 41
4.995328426361083
 42
4.233322143554686
 43
4.995330810546875
 44
209.9733276367186
 45
296.9683227539062
 46
0.0
 47
97.55556227323861
 48
0.0
 49
0.0
140
0.0
141
0.0
142
1.0
143
6.090554118624327
 70
  3764
 72
     1
 73
     1
 74
     1
  7
monochrome.ctb
 75
     0
147
0.164188673234525
148
197.0402205952446
149
599.055175279564
100
AcDbLayout
  1
Model
 70
     1
 71
     0
 10
0.0
 20
0.0
 11
12.0
 21
9.0
 12
0.0
 22
0.0
 32
0.0
 14
0.0
 24
0.0
 34
0.0
 15
0.0
 25
0.0
 35
0.0
146
0.0
 13
0.0
 23
0.0
 33
0.0
 16
1.0
 26
0.0
 36
0.0
 17
0.0
 27
1.0
 37
0.0
 76
     0
330
18
331
AD1
1001
ACAD_PSEXT
1000
Default Windows System Printer.pc3
1000
HP LaserJet 5100 PCL 6
1000
HPLaserJet5100Series
1000

1070
     0
  0
MATERIAL
  5
3F0
102
{ACAD_XDICTIONARY
360
17C3
102
}
102
{ACAD_REACTORS
330
386
102
}
330
386
100
AcDbMaterial
  1
ByBlock
 73
     1
 78
     1
172
     1
176
     1
270
     1
274
     1
  0
MATERIAL
  5
3EF
102
{ACAD_XDICTIONARY
360
17C1
102
}
102
{ACAD_REACTORS
330
386
102
}
330
386
100
AcDbMaterial
  1
ByLayer
 73
     1
 78
     1
172
     1
176
     1
270
     1
274
     1
  0
MATERIAL
  5
3F1
102
{ACAD_XDICTIONARY
360
17C5
102
}
102
{ACAD_REACTORS
330
386
102
}
330
386
100
AcDbMaterial
  1
Global
 73
     1
 78
     1
172
     1
176
     1
270
     1
274
     1
  0
MLEADERSTYLE
  5
470
102
{ACAD_XDICTIONARY
360
1BEB
102
}
102
{ACAD_REACTORS
330
46F
102
}
330
46F
100
AcDbMLeaderStyle
170
     2
171
     1
172
     0
 90
        2
 40
0.0
 41
0.0
173
     1
 91
-1056964608
340
12
 92
       -2
290
     1
 42
2.0
291
     1
 43
0.36
  3
Standard
 44
5.0
300

342
10
174
     0
178
     6
175
     1
176
     0
 93
-1056964608
 45
3.5
292
     0
297
     0
 46
4.0
 94
-1056964608
 47
1.0
 49
1.0
140
1.0
293
     1
141
0.0
294
     1
177
     0
142
1.0
295
     0
296
     0
143
0.125
1001
ACAD_MLEADERVER
1070
     2
  0
MLINESTYLE
  5
1B
102
{ACAD_REACTORS
330
E
102
}
330
E
100
AcDbMlineStyle
  2
STANDARD
 70
     0
  3

 62
     0
 51
90.0
 52
90.0
 71
     2
 49
0.5
 62
   256
  6
BYLAYER
 49
-0.5
 62
   256
  6
BYLAYER
  0
PLOTSETTINGS
  5
7EF
102
{ACAD_XDICTIONARY
360
1BED
102
}
102
{ACAD_REACTORS
330
302
102
}
330
302
100
AcDbPlotSettings
  1
DWG To PDF A4 - landscape
  2
DWG To PDF.pc3
  4
ISO_expand_A4_(297.00_x_210.00_MM)
  6

 40
5.793749809265136
 41
10.79374980926513
 42
5.79376220703125
 43
10.79374694824219
 44
297.0
 45
210.0
 46
99.7577788938406
 47
0.0
 48
0.0
 49
0.0
140
0.0
141
0.0
142
1.0
143
6.513831472368249
 70
 11956
 72
     1
 73
     0
 74
     1
  7
monochrome.ctb
 75
     0
147
0.153519476861201
148
197.0402205952446
149
599.055175279564
1001
ACAD_PSEXT
1000
DWG To PDF.pc3
1000
PDF
1000
Datei
1000

1070
     0
  0
PLOTSETTINGS
  5
7F8
102
{ACAD_XDICTIONARY
360
1BEF
102
}
102
{ACAD_REACTORS
330
302
102
}
330
302
100
AcDbPlotSettings
  1
DWG To PDF A4 - portrait
  2
DWG To PDF.pc3
  4
ISO_expand_A4_(210.00_x_297.00_MM)
  6

 40
5.793749809265136
 41
10.79374980926513
 42
5.793746948242187
 43
10.79376220703125
 44
210.0
 45
297.0
 46
36.42621619811505
 47
0.0
 48
0.0
 49
0.0
140
0.0
141
0.0
142
1.0
143
4.456178811620381
 70
 11956
 72
     1
 73
     0
 74
     1
  7
monochrome.ctb
 75
     0
147
0.2244075119679441
148
197.0402205952446
149
599.055175279564
1001
ACAD_PSEXT
1000
DWG To PDF.pc3
1000
PDF
1000
Datei
1000

1070
     0
  0
ACDBPLACEHOLDER
  5
300
102
{ACAD_REACTORS
330
2FF
102
}
330
2FF
  0
SCALE
  5
BFC
102
{ACAD_REACTORS
330
44D
102
}
330
44D
100
AcDbScale
 70
     0
300
100:1
140
100.0
141
1.0
290
     0
  0
SCALE
  5
BFD
102
{ACAD_REACTORS
330
44D
102
}
330
44D
100
AcDbScale
 70
     0
300
50:1
140
50.0
141
1.0
290
     0
  0
SCALE
  5
BFE
102
{ACAD_REACTORS
330
44D
102
}
330
44D
100
AcDbScale
 70
     0
300
20:1
140
20.0
141
1.0
290
     0
  0
SCALE
  5
BFF
102
{ACAD_REACTORS
330
44D
102
}
330
44D
100
AcDbScale
 70
     0
300
10:1
140
10.0
141
1.0
290
     0
  0
SCALE
  5
C00
102
{ACAD_REACTORS
330
44D
102
}
330
44D
100
AcDbScale
 70
     0
300
5:1
140
5.0
141
1.0
290
     0
  0
SCALE
  5
C01
102
{ACAD_REACTORS
330
44D
102
}
330
44D
100
AcDbScale
 70
     0
300
2:1
140
2.0
141
1.0
290
     0
  0
SCALE
  5
44E
102
{ACAD_REACTORS
330
44D
102
}
330
44D
100
AcDbScale
 70
     0
300
1:1
140
1.0
141
1.0
290
     1
  0
SCALE
  5
C02
102
{ACAD_REACTORS
330
44D
102
}
330
44D
100
AcDbScale
 70
     0
300
1:2
140
1.0
141
2.0
290
     0
  0
SCALE
  5
C03
102
{ACAD_REACTORS
330
44D
102
}
330
44D
100
AcDbScale
 70
     0
300
1:5
140
1.0
141
5.0
290
     0
  0
SCALE
  5
C04
102
{ACAD_REACTORS
330
44D
102
}
330
44D
100
AcDbScale
 70
     0
300
1:10
140
1.0
141
10.0
290
     0
  0
SCALE
  5
C05
102
{ACAD_REACTORS
330
44D
102
}
330
44D
100
AcDbScale
 70
     0
300
1:20
140
1.0
141
20.0
290
     0
  0
SCALE
  5
C06
102
{ACAD_REACTORS
330
44D
102
}
330
44D
100
AcDbScale
 70
     0
300
1:50
140
1.0
141
50.0
290
     0
  0
SCALE
  5
C07
102
{ACAD_REACTORS
330
44D
102
}
330
44D
100
AcDbScale
 70
     0
300
1:100
140
1.0
141
100.0
290
     0
  0
ACDBSECTIONVIEWSTYLE
  5
CEE
102
{ACAD_XDICTIONARY
360
1C09
102
}
102
{ACAD_REACTORS
330
CED
330
1AB5
102
}
330
CED
100
AcDbModelDocViewStyle
 70
     0
  3
Metric50
290
     0
100
AcDbSectionViewStyle
 70
     0
 71
     0
 90
      102
 71
     1
340
10
 40
5.0
340
0
340
0
 40
5.0
300
I, O, Q, S, X, Z
 40
10.0
 90
        0
 40
2.5
 90
        0
 71
     2
340
14
 90
       25
340
14
 90
       50
 40
5.0
 40
2.5
 40
5.0
 71
     3
340
10
 40
5.0
 90
        0
 40
15.0
 90
        1
300
%<\AcVar ViewSectionStartId>%-%<\AcVar ViewSectionEndId>% (%<\AcVar ViewScale \f "%sn">%)
 71
     4
300
ANSI31
 40
1.0
 90
        0
290
     0
290
     0
 90
        6
 40
0.0
 40
1.570796326794896
 40
0.2617993877991494
 40
1.308996938995747
 40
-0.2617993877991494
 40
1.832595714594044
  0
TABLESTYLE
  5
389
102
{ACAD_XDICTIONARY
360
577
102
}
102
{ACAD_REACTORS
330
388
102
}
330
388
100
AcDbTableStyle
  3
Standard
 70
     0
 71
     0
 40
1.5
 41
1.5
280
     0
281
     0
  7
STANDARD
140
4.5
170
     2
 62
     0
 63
     7
283
     0
274
    -2
284
     1
 64
     0
275
    -2
285
     1
 65
     0
276
    -2
286
     1
 66
     0
277
    -2
287
     1
 67
     0
278
    -2
288
     1
 68
     0
279
    -2
289
     1
 69
     0
  7
STANDARD 5 mm
140
6.0
170
     5
 62
     0
 63
     7
283
     0
274
    -2
284
     1
 64
     0
275
    -2
285
     1
 65
     0
276
    -2
286
     1
 66
     0
277
    -2
287
     1
 67
     0
278
    -2
288
     1
 68
     0
279
    -2
289
     1
 69
     0
  7
STANDARD
140
4.5
170
     5
 62
     0
 63
     7
283
     0
274
    -2
284
     1
 64
     0
275
    -2
285
     1
 65
     0
276
    -2
286
     1
 66
     0
277
    -2
287
     1
 67
     0
278
    -2
288
     1
 68
     0
279
    -2
289
     1
 69
     0
  0
VISUALSTYLE
  5
3F8
102
{ACAD_XDICTIONARY
360
1BD5
102
}
102
{ACAD_REACTORS
330
3F2
102
}
330
3F2
100
AcDbVisualStyle
  2

 70
     4
 71
     0
 72
     2
 73
     0
 90
        0
 40
-0.6
 41
-30.0
 62
     5
 63
     7
 74
     1
 91
        4
 64
     7
 65
   257
 75
     1
175
     1
 42
1.0
 92
        0
 66
   257
 43
1.0
 76
     1
 77
     6
 78
     2
 67
     7
 79
     5
170
     0
171
     0
290
     0
174
     0
 93
        1
 44
0.0
173
     0
291
     0
 45
0.0
1001
ACAD
1000
AcDbSavedByObjectVersion
1070
     0
  0
VISUALSTYLE
  5
3FA
102
{ACAD_XDICTIONARY
360
1BD9
102
}
102
{ACAD_REACTORS
330
3F2
102
}
330
3F2
100
AcDbVisualStyle
  2

 70
     6
 71
     1
 72
     2
 73
     2
 90
        0
 40
-0.6
 41
-30.0
 62
     5
 63
     7
 74
     2
 91
        2
 64
     7
 65
   257
 75
     2
175
     1
 42
40.0
 92
        0
 66
   257
 43
1.0
 76
     1
 77
     6
 78
     2
 67
     7
 79
     3
170
     0
171
     0
290
     0
174
     0
 93
        1
 44
0.0
173
     0
291
     0
 45
0.0
1001
ACAD
1000
AcDbSavedByObjectVersion
1070
     0
  0
VISUALSTYLE
  5
3F9
102
{ACAD_XDICTIONARY
360
1BD7
102
}
102
{ACAD_REACTORS
330
3F2
102
}
330
3F2
100
AcDbVisualStyle
  2

 70
     5
 71
     0
 72
     2
 73
     0
 90
        0
 40
-0.6
 41
-30.0
 62
     5
 63
     7
 74
     1
 91
        4
 64
     7
 65
   257
 75
     1
175
     1
 42
1.0
 92
        0
 66
   257
 43
1.0
 76
     1
 77
     6
 78
     2
 67
     7
 79
     5
170
     0
171
     0
290
     0
174
     0
 93
        1
 44
0.0
173
     0
291
     0
 45
0.0
1001
ACAD
1000
AcDbSavedByObjectVersion
1070
     0
  0
VISUALSTYLE
  5
3F7
102
{ACAD_XDICTIONARY
360
1BD3
102
}
102
{ACAD_REACTORS
330
3F2
102
}
330
3F2
100
AcDbVisualStyle
  2

 70
     7
 71
     1
 72
     0
 73
     1
 90
        0
 40
-0.6
 41
-30.0
 62
     5
 63
     7
 74
     0
 91
        4
 64
     7
 65
   257
 75
     1
175
     1
 42
1.0
 92
        8
 66
     7
 43
1.0
 76
     1
 77
     6
 78
     2
 67
     7
 79
     5
170
     0
171
     0
290
     0
174
     0
 93
        1
 44
0.0
173
     0
291
     1
 45
0.0
1001
ACAD
1000
AcDbSavedByObjectVersion
1070
     0
  0
VISUALSTYLE
  5
3FE
102
{ACAD_XDICTIONARY
360
1BE1
102
}
102
{ACAD_REACTORS
330
3F2
102
}
330
3F2
100
AcDbVisualStyle
  2

 70
    12
 71
     2
 72
     2
 73
     0
 90
        0
 40
-0.6
 41
-30.0
 62
     5
 63
     7
 74
     1
 91
        4
 64
     7
 65
   257
 75
     1
175
     1
 42
1.0
 92
        8
 66
     7
 43
1.0
 76
     1
 77
     6
 78
     2
 67
     7
 79
     5
170
     0
171
     0
290
     0
174
     0
 93
        1
 44
50.0
173
     0
291
     1
 45
0.0
1001
ACAD
1000
AcDbSavedByObjectVersion
1070
     0
  0
VISUALSTYLE
  5
402
102
{ACAD_XDICTIONARY
360
1BE9
102
}
102
{ACAD_REACTORS
330
3F2
102
}
330
3F2
100
AcDbVisualStyle
  2

 70
    16
 71
     2
 72
     2
 73
     3
 90
        0
 40
-0.6
 41
-30.0
 62
     5
 63
     8
 74
     1
 91
        4
 64
     7
 65
   257
 75
     1
175
     1
 42
1.0
 92
        8
 66
     8
 43
1.0
 76
     1
 77
     6
 78
     2
 67
     7
 79
     5
170
     0
171
     0
290
     0
174
     0
 93
        1
 44
0.0
173
     0
291
     1
 45
0.0
1001
ACAD
1000
AcDbSavedByObjectVersion
1070
     0
  0
VISUALSTYLE
  5
3FB
102
{ACAD_XDICTIONARY
360
1BDB
102
}
102
{ACAD_REACTORS
330
3F2
102
}
330
3F2
100
AcDbVisualStyle
  2

 70
     9
 71
     3
 72
     2
 73
     0
 90
        0
 40
-0.6
 41
-30.0
 62
     5
 63
     7
 74
     2
 91
        2
 64
     7
 65
   257
 75
     1
175
     1
 42
40.0
 92
        8
 66
     7
 43
1.0
 76
     1
 77
     6
 78
     2
 67
     7
 79
     3
170
     0
171
     0
290
     0
174
     0
 93
        1
 44
0.0
173
     0
291
     0
 45
0.0
1001
ACAD
1000
AcDbSavedByObjectVersion
1070
     0
  0
VISUALSTYLE
  5
3FD
102
{ACAD_XDICTIONARY
360
1BDF
102
}
102
{ACAD_REACTORS
330
3F2
102
}
330
3F2
100
AcDbVisualStyle
  2

 70
    11
 71
     2
 72
     2
 73
     0
 90
        0
 40
-0.6
 41
-30.0
 62
     5
 63
     7
 74
     1
 91
        4
 64
     7
 65
   257
 75
     1
175
     1
 42
1.0
 92
        8
 66
     7
 43
1.0
 76
     1
 77
     6
 78
     2
 67
     7
 79
     5
170
     0
171
     0
290
     0
174
     0
 93
        1
 44
-50.0
173
     0
291
     1
 45
0.0
1001
ACAD
1000
AcDbSavedByObjectVersion
1070
     0
  0
VISUALSTYLE
  5
BDF
102
{ACAD_XDICTIONARY
360
1BF9
102
}
102
{ACAD_REACTORS
330
3F2
102
}
330
3F2
100
AcDbVisualStyle
  2

 70
    22
 71
     2
 72
     2
 73
     0
 90
        0
 40
-0.6
 41
-30.0
 62
     5
 63
     7
 74
     1
 91
        4
 64
     7
 65
   257
 75
     1
175
     1
 42
1.0
 92
        8
 66
     7
 43
1.0
 76
     1
 77
     6
 78
     2
 67
     7
 79
     5
170
     0
171
     0
290
     0
174
     0
 93
        1
 44
0.0
173
     0
291
     1
 45
0.0
1001
ACAD
1000
AcDbSavedByObjectVersion
1070
     0
  0
VISUALSTYLE
  5
401
102
{ACAD_XDICTIONARY
360
1BE7
102
}
102
{ACAD_REACTORS
330
3F2
102
}
330
3F2
100
AcDbVisualStyle
  2

 70
    15
 71
     2
 72
     2
 73
     0
 90
        0
 40
-0.6
 41
-30.0
 62
     5
 63
     7
 74
     1
 91
        4
 64
     7
 65
   257
 75
     1
175
     1
 42
1.0
 92
        8
 66
     7
 43
1.0
 76
     1
 77
     6
 78
     2
 67
     7
 79
     5
170
     0
171
     0
290
     0
174
     0
 93
        1
 44
0.0
173
     0
291
     1
 45
0.0
1001
ACAD
1000
AcDbSavedByObjectVersion
1070
     0
  0
VISUALSTYLE
  5
3F3
102
{ACAD_XDICTIONARY
360
1BCB
102
}
102
{ACAD_REACTORS
330
3F2
102
}
330
3F2
100
AcDbVisualStyle
  2

 70
     0
 71
     2
 72
     1
 73
     1
 90
        2
 40
-0.6
 41
30.0
 62
     5
 63
     7
 74
     0
 91
        4
 64
     7
 65
   257
 75
     1
175
     1
 42
1.0
 92
        8
 66
     7
 43
1.0
 76
     1
 77
     6
 78
     2
 67
     7
 79
     5
170
     0
171
     0
290
     0
174
     0
 93
       13
 44
0.0
173
     0
291
     1
 45
0.0
1001
ACAD
1000
AcDbSavedByObjectVersion
1070
     0
  0
VISUALSTYLE
  5
3F4
102
{ACAD_XDICTIONARY
360
1BCD
102
}
102
{ACAD_REACTORS
330
3F2
102
}
330
3F2
100
AcDbVisualStyle
  2

 70
     1
 71
     2
 72
     1
 73
     1
 90
        2
 40
-0.6
 41
30.0
 62
     5
 63
     7
 74
     1
 91
        4
 64
     7
 65
   257
 75
     1
175
     1
 42
1.0
 92
        0
 66
   257
 43
1.0
 76
     1
 77
     6
 78
     2
 67
     7
 79
     5
170
     0
171
     0
290
     0
174
     0
 93
       13
 44
0.0
173
     0
291
     1
 45
0.0
1001
ACAD
1000
AcDbSavedByObjectVersion
1070
     0
  0
VISUALSTYLE
  5
3F5
102
{ACAD_XDICTIONARY
360
1BCF
102
}
102
{ACAD_REACTORS
330
3F2
102
}
330
3F2
100
AcDbVisualStyle
  2

 70
     2
 71
     2
 72
     2
 73
     1
 90
        2
 40
-0.6
 41
30.0
 62
     5
 63
     7
 74
     0
 91
        4
 64
     7
 65
   257
 75
     1
175
     1
 42
1.0
 92
        0
 66
     7
 43
1.0
 76
     1
 77
     6
 78
     2
 67
     7
 79
     5
170
     0
171
     0
290
     0
174
     0
 93
       13
 44
0.0
173
     0
291
     1
 45
0.0
1001
ACAD
1000
AcDbSavedByObjectVersion
1070
     0
  0
VISUALSTYLE
  5
3F6
102
{ACAD_XDICTIONARY
360
1BD1
102
}
102
{ACAD_REACTORS
330
3F2
102
}
330
3F2
100
AcDbVisualStyle
  2

 70
     3
 71
     2
 72
     2
 73
     1
 90
        2
 40
-0.6
 41
30.0
 62
     5
 63
     7
 74
     1
 91
        4
 64
     7
 65
   257
 75
     1
175
     1
 42
1.0
 92
        0
 66
   257
 43
1.0
 76
     1
 77
     6
 78
     2
 67
     7
 79
     5
170
     0
171
     0
290
     0
174
     0
 93
       13
 44
0.0
173
     0
291
     1
 45
0.0
1001
ACAD
1000
AcDbSavedByObjectVersion
1070
     0
  0
VISUALSTYLE
  5
CE7
102
{ACAD_XDICTIONARY
360
1BFD
102
}
102
{ACAD_REACTORS
330
3F2
102
}
330
3F2
100
AcDbVisualStyle
  2

 70
     6
 71
     1
 72
     2
 73
     2
 90
        0
 40
-0.6
 41
-30.0
 62
     5
 63
     7
 74
     2
 91
        2
 64
     7
 65
   257
 75
     2
175
     1
 42
40.0
 92
        0
 66
   257
 43
1.0
 76
     1
 77
     6
 78
     2
 67
     7
 79
     3
170
     0
171
     0
290
     0
174
     0
 93
        1
 44
0.0
173
     0
291
     0
 45
0.0
1001
ACAD
1000
AcDbSavedByObjectVersion
1070
     0
  0
VISUALSTYLE
  5
BDD
102
{ACAD_XDICTIONARY
360
1BF5
102
}
102
{ACAD_REACTORS
330
3F2
102
}
330
3F2
100
AcDbVisualStyle
  2

 70
    20
 71
     2
 72
     2
 73
     0
 90
        0
 40
-0.6
 41
-30.0
 62
     5
 63
     7
 74
     1
 91
        4
 64
     7
 65
   257
 75
     1
175
     1
 42
1.0
 92
       10
 66
     7
 43
1.0
 76
     1
 77
     6
 78
     2
 67
     7
 79
     5
170
     0
171
     0
290
     0
174
     0
 93
        1
 44
0.0
173
     0
291
     1
 45
0.0
1001
ACAD
1000
AcDbSavedByObjectVersion
1070
     0
  0
VISUALSTYLE
  5
400
102
{ACAD_XDICTIONARY
360
1BE5
102
}
102
{ACAD_REACTORS
330
3F2
102
}
330
3F2
100
AcDbVisualStyle
  2

 70
    14
 71
     2
 72
     2
 73
     0
 90
        0
 40
-0.6
 41
-30.0
 62
     5
 63
     7
 74
     1
 91
        4
 64
     7
 65
   257
 75
     7
175
     7
 42
1.0
 92
        8
 66
     7
 43
1.0
 76
     1
 77
     6
 78
     2
 67
     7
 79
     5
170
     0
171
     0
290
     0
174
     0
 93
        1
 44
0.0
173
     0
291
     1
 45
0.0
1001
ACAD
1000
AcDbSavedByObjectVersion
1070
     0
  0
VISUALSTYLE
  5
BDE
102
{ACAD_XDICTIONARY
360
1BF7
102
}
102
{ACAD_REACTORS
330
3F2
102
}
330
3F2
100
AcDbVisualStyle
  2

 70
    21
 71
     2
 72
     2
 73
     0
 90
        0
 40
-0.6
 41
-30.0
 62
     5
 63
     7
 74
     1
 91
        4
 64
     7
 65
   257
 75
     1
175
     1
 42
1.0
 92
        9
 66
     7
 43
1.0
 76
     1
 77
     6
 78
     2
 67
     7
 79
     5
170
     0
171
     0
290
     0
174
     0
 93
        1
 44
0.0
173
     0
291
     1
 45
0.0
1001
ACAD
1000
AcDbSavedByObjectVersion
1070
     0
  0
VISUALSTYLE
  5
3FC
102
{ACAD_XDICTIONARY
360
1BDD
102
}
102
{ACAD_REACTORS
330
3F2
102
}
330
3F2
100
AcDbVisualStyle
  2

 70
     8
 71
     2
 72
     2
 73
     0
 90
        0
 40
-0.6
 41
-30.0
 62
     5
 63
     7
 74
     1
 91
        0
 64
     7
 65
   257
 75
     1
175
     1
 42
1.0
 92
        8
 66
     8
 43
1.0
 76
     1
 77
     6
 78
     2
 67
     7
 79
     5
170
     0
171
     0
290
     0
174
     0
 93
       13
 44
0.0
173
     0
291
     0
 45
0.0
1001
ACAD
1000
AcDbSavedByObjectVersion
1070
     0
  0
VISUALSTYLE
  5
CEC
102
{ACAD_XDICTIONARY
360
1C07
102
}
102
{ACAD_REACTORS
330
3F2
102
}
330
3F2
100
AcDbVisualStyle
  2

 70
    27
 71
     2
 72
     2
 73
     1
 90
        2
 40
-0.6
 41
30.0
 62
     5
 63
     7
 74
     0
 91
        4
 64
     7
 65
   257
 75
     1
175
     1
 42
1.0
 92
        8
 66
   257
 43
1.0
 76
     1
 77
     6
 78
     2
 67
     8
 79
     3
170
     0
171
     0
290
     0
174
     0
 93
        5
 44
0.0
173
     0
291
     0
 45
0.0
1001
ACAD
1000
AcDbSavedByObjectVersion
1070
     0
  0
VISUALSTYLE
  5
CEB
102
{ACAD_XDICTIONARY
360
1C05
102
}
102
{ACAD_REACTORS
330
3F2
102
}
330
3F2
100
AcDbVisualStyle
  2

 70
    26
 71
     2
 72
     2
 73
     1
 90
        2
 40
-0.6
 41
30.0
 62
     5
 63
     7
 74
     1
 91
       10
 64
     7
 65
   257
 75
     2
175
     1
 42
1.0
 92
        8
 66
   257
 43
1.0
 76
     1
 77
     6
 78
     2
 67
     7
 79
     3
170
     0
171
     0
290
     0
174
     0
 93
        5
 44
0.0
173
     0
291
     0
 45
0.0
1001
ACAD
1000
AcDbSavedByObjectVersion
1070
     0
  0
VISUALSTYLE
  5
CE8
102
{ACAD_XDICTIONARY
360
1BFF
102
}
102
{ACAD_REACTORS
330
3F2
102
}
330
3F2
100
AcDbVisualStyle
  2

 70
    23
 71
     2
 72
     2
 73
     3
 90
        0
 40
-0.6
 41
-30.0
 62
     5
 63
     7
 74
     2
 91
        2
 64
     7
 65
     7
 75
     1
175
     1
 42
40.0
 92
        8
 66
     7
 43
1.0
 76
     1
 77
     6
 78
     2
 67
     7
 79
     3
170
     0
171
     0
290
     0
174
     0
 93
        1
 44
0.0
173
     0
291
     0
 45
0.0
1001
ACAD
1000
AcDbSavedByObjectVersion
1070
     0
  0
VISUALSTYLE
  5
CE9
102
{ACAD_XDICTIONARY
360
1C01
102
}
102
{ACAD_REACTORS
330
3F2
102
}
330
3F2
100
AcDbVisualStyle
  2

 70
    24
 71
     1
 72
     2
 73
     2
 90
        0
 40
-0.6
 41
-30.0
 62
     5
 63
     7
 74
     2
 91
        2
 64
     7
 65
     7
 75
     1
175
     1
 42
40.0
 92
       11
 66
     7
 43
1.0
 76
     1
 77
     6
 78
     2
 67
     7
 79
     6
170
     0
171
     0
290
     0
174
     0
 93
        1
 44
0.0
173
     0
291
     0
 45
0.0
1001
ACAD
1000
AcDbSavedByObjectVersion
1070
     0
  0
VISUALSTYLE
  5
3FF
102
{ACAD_XDICTIONARY
360
1BE3
102
}
102
{ACAD_REACTORS
330
3F2
102
}
330
3F2
100
AcDbVisualStyle
  2

 70
    13
 71
     2
 72
     2
 73
     0
 90
        0
 40
-0.6
 41
-30.0
 62
     5
 63
     7
 74
     1
 91
        4
 64
     7
 65
   257
 75
     1
175
     1
 42
1.0
 92
       12
 66
     7
 43
1.0
 76
     1
 77
     6
 78
     2
 67
     7
 79
     5
170
     0
171
     0
290
     0
174
     0
 93
        1
 44
0.0
173
     0
291
     1
 45
0.0
1001
ACAD
1000
AcDbSavedByObjectVersion
1070
     0
  0
VISUALSTYLE
  5
CE6
102
{ACAD_XDICTIONARY
360
1BFB
102
}
102
{ACAD_REACTORS
330
3F2
102
}
330
3F2
100
AcDbVisualStyle
  2

 70
     5
 71
     0
 72
     2
 73
     0
 90
        0
 40
-0.6
 41
-30.0
 62
     5
 63
     7
 74
     1
 91
        4
 64
     7
 65
   257
 75
     1
175
     1
 42
1.0
 92
        0
 66
   257
 43
1.0
 76
     1
 77
     6
 78
     2
 67
     7
 79
     3
170
     0
171
     0
290
     0
174
     0
 93
        1
 44
0.0
173
     0
291
     0
 45
0.0
1001
ACAD
1000
AcDbSavedByObjectVersion
1070
     0
  0
VISUALSTYLE
  5
CEA
102
{ACAD_XDICTIONARY
360
1C03
102
}
102
{ACAD_REACTORS
330
3F2
102
}
330
3F2
100
AcDbVisualStyle
  2

 70
    25
 71
     2
 72
     2
 73
     1
 90
        1
 40
0.5
 41
-30.0
 62
     5
 63
     7
 74
     1
 91
        0
 64
     7
 65
   257
 75
     1
175
     1
 42
1.0
 92
        8
 66
     7
 43
1.0
 76
     1
 77
     6
 78
     2
 67
     7
 79
     3
170
     0
171
     0
290
     0
174
     0
 93
       13
 44
0.0
173
     0
291
     0
 45
0.0
1001
ACAD
1000
AcDbSavedByObjectVersion
1070
     0
  0
DICTIONARYVAR
  5
57C
102
{ACAD_REACTORS
330
357
102
}
330
357
100
DictionaryVariables
280
     0
  1
1:1
  0
DICTIONARYVAR
  5
57A
102
{ACAD_REACTORS
330
357
102
}
330
357
100
DictionaryVariables
280
     0
  1
STANDARD
  0
DICTIONARYVAR
  5
38E
102
{ACAD_REACTORS
330
357
102
}
330
357
100
DictionaryVariables
280
     0
  1
STANDARD
  0
DICTIONARYVAR
  5
D2C
102
{ACAD_REACTORS
330
357
102
}
330
357
100
DictionaryVariables
280
     0
  1
Metric50
  0
DICTIONARYVAR
  5
D2D
102
{ACAD_REACTORS
330
357
102
}
330
357
100
DictionaryVariables
280
     0
  1
Metric50
  0
DICTIONARYVAR
  5
359
102
{ACAD_REACTORS
330
357
102
}
330
357
100
DictionaryVariables
280
     0
  1
2
  0
DICTIONARYVAR
  5
358
102
{ACAD_REACTORS
330
357
102
}
330
357
100
DictionaryVariables
280
     0
  1
1
  0
DICTIONARYVAR
  5
ACC
102
{ACAD_REACTORS
330
357
102
}
330
357
100
DictionaryVariables
280
     0
  1
0
  0
DICTIONARYVAR
  5
BF1
102
{ACAD_REACTORS
330
357
102
}
330
357
100
DictionaryVariables
280
     0
  1
1
  0
DICTIONARYVAR
  5
BF2
102
{ACAD_REACTORS
330
357
102
}
330
357
100
DictionaryVariables
280
     0
  1
15
  0
DICTIONARYVAR
  5
57D
102
{ACAD_REACTORS
330
357
102
}
330
357
100
DictionaryVariables
280
     0
  1
0
  0
DICTIONARYVAR
  5
57B
102
{ACAD_REACTORS
330
357
102
}
330
357
100
DictionaryVariables
280
     0
  1
0
  0
DICTIONARYVAR
  5
17B0
102
{ACAD_REACTORS
330
357
102
}
330
357
100
DictionaryVariables
280
     0
  1
1
  0
DICTIONARYVAR
  5
ACB
102
{ACAD_REACTORS
330
357
102
}
330
357
100
DictionaryVariables
280
     0
  1
127
  0
DICTIONARYVAR
  5
1BBE
102
{ACAD_REACTORS
330
357
102
}
330
357
100
DictionaryVariables
280
     0
  1
2
  0
DICTIONARY
  5
4DC
102
{ACAD_REACTORS
330
4D1
102
}
330
4D1
100
AcDbDictionary
281
     1
  0
XRECORD
  5
4F3
102
{ACAD_REACTORS
330
4D1
102
}
330
4D1
100
AcDbXrecord
280
     1
 90
-1023410169
  0
XRECORD
  5
8E9
102
{ACAD_REACTORS
330
567
102
}
330
567
100
AcDbXrecord
280
     1
 91
     1023
301

290
     0
302
1
  8
200
 90
        8
 62
     2
370
    50
331
14
  1
Color_2
  8
160
 90
        8
 62
     1
370
    35
331
14
  1
Color_1
  8
150
 90
        8
 62
    96
370
    50
331
14
  1
Color_96
 92
-1040154880
  8
140
 90
        8
 62
     5
370
    35
331
14
  1
Color_5
  8
130
 90
        8
 62
     6
370
    35
331
14
  1
Color_6
  8
120
 90
        8
 62
     3
370
    50
331
14
  1
Color_3
  8
110
 90
        8
 62
     7
370
    25
331
14
  1
Color_7
  8
100
 90
        8
 62
     4
370
    50
331
14
  1
Color_4
  8
INFTEXT69
 90
        8
 62
     5
370
    -3
331
14
  1
Color_5
  8
INFTEXT68
 90
        8
 62
     5
370
    -3
331
14
  1
Color_5
  8
INFTEXT67
 90
        8
 62
     5
370
    -3
331
14
  1
Color_5
  8
INFTEXT66
 90
        8
 62
     5
370
    -3
331
14
  1
Color_5
  8
INFTEXT65
 90
        8
 62
     5
370
    -3
331
14
  1
Color_5
  8
INFTEXT64
 90
        8
 62
     5
370
    -3
331
14
  1
Color_5
  8
INFTEXT63
 90
        8
 62
     5
370
    -3
331
14
  1
Color_5
  8
INFTEXT62
 90
        8
 62
     5
370
    -3
331
14
  1
Color_5
  8
RECON69
 90
        8
 62
     5
370
    35
331
14
  1
Color_5
  8
RECON68
 90
        8
 62
     5
370
    35
331
14
  1
Color_5
  8
RECON67
 90
        8
 62
     5
370
    35
331
14
  1
Color_5
  8
RECON66
 90
        8
 62
     5
370
    35
331
14
  1
Color_5
  8
RECON65
 90
        8
 62
     5
370
    35
331
14
  1
Color_5
  8
RECON64
 90
        8
 62
     5
370
    35
331
14
  1
Color_5
  8
RECON63
 90
        8
 62
     5
370
    35
331
14
  1
Color_5
  8
RECON62
 90
        8
 62
     5
370
    35
331
14
  1
Color_5
  8
RECON61
 90
        8
 62
     5
370
    35
331
14
  1
Color_5
  8
SK69
 90
        8
 62
     5
370
    35
331
14
  1
Color_5
  8
SK68
 90
        8
 62
     5
370
    35
331
14
  1
Color_5
  8
SK67
 90
        8
 62
     5
370
    35
331
14
  1
Color_5
  8
SK66
 90
        8
 62
     5
370
    35
331
14
  1
Color_5
  8
SK65
 90
        8
 62
     5
370
    35
331
14
  1
Color_5
  8
SK64
 90
        8
 62
     5
370
    35
331
14
  1
Color_5
  8
SK63
 90
        8
 62
     5
370
    35
331
14
  1
Color_5
  8
SK62
 90
        8
 62
     5
370
    35
331
14
  1
Color_5
  8
SK61
 90
        8
 62
     5
370
    35
331
14
  1
Color_5
  8
SKVIEW69
 90
        8
 62
     5
370
    35
331
14
  1
Color_5
  8
SKVIEW68
 90
        8
 62
     5
370
    35
331
14
  1
Color_5
  8
SKVIEW67
 90
        8
 62
     5
370
    35
331
14
  1
Color_5
  8
SKVIEW66
 90
        8
 62
     5
370
    35
331
14
  1
Color_5
  8
SKVIEW65
 90
        8
 62
     5
370
    35
331
14
  1
Color_5
  8
SKVIEW64
 90
        8
 62
     5
370
    35
331
14
  1
Color_5
  8
SKVIEW63
 90
        8
 62
     5
370
    35
331
14
  1
Color_5
  8
SKVIEW62
 90
        8
 62
     5
370
    35
331
14
  1
Color_5
  8
SKVIEW61
 90
        8
 62
     5
370
    35
331
14
  1
Color_5
  8
69
 90
        8
 62
     5
370
    35
331
14
  1
Color_5
  8
68
 90
        8
 62
     5
370
    35
331
14
  1
Color_5
  8
67
 90
        8
 62
     5
370
    35
331
14
  1
Color_5
  8
66
 90
        8
 62
     5
370
    35
331
14
  1
Color_5
  8
65
 90
        8
 62
     5
370
    35
331
14
  1
Color_5
  8
64
 90
        8
 62
     5
370
    35
331
14
  1
Color_5
  8
63
 90
        8
 62
     5
370
    35
331
14
  1
Color_5
  8
62
 90
        8
 62
     5
370
    35
331
14
  1
Color_5
  8
61
 90
        8
 62
     5
370
    35
331
14
  1
Color_5
  8
59
 90
        8
 62
     5
370
    -3
331
14
  1
Color_5
  8
58
 90
        8
 62
     5
370
    -3
331
14
  1
Color_5
  8
57
 90
        8
 62
     5
370
    -3
331
14
  1
Color_5
  8
56
 90
        8
 62
     5
370
    -3
331
14
  1
Color_5
  8
55
 90
        8
 62
     5
370
    -3
331
14
  1
Color_5
  8
54
 90
        8
 62
     5
370
    -3
331
14
  1
Color_5
  8
53
 90
        8
 62
     5
370
    -3
331
14
  1
Color_5
  8
52
 90
        8
 62
     5
370
    -3
331
14
  1
Color_5
  8
51
 90
        8
 62
     5
370
    -3
331
14
  1
Color_5
  8
FRAME59
 90
        8
 62
     7
370
    -3
331
14
  1
Color_7
  8
FRAME58
 90
        8
 62
     7
370
    -3
331
14
  1
Color_7
  8
FRAME57
 90
        8
 62
     7
370
    -3
331
14
  1
Color_7
  8
FRAME56
 90
        8
 62
     7
370
    -3
331
14
  1
Color_7
  8
FRAME55
 90
        8
 62
     7
370
    -3
331
14
  1
Color_7
  8
FRAME54
 90
        8
 62
     7
370
    -3
331
14
  1
Color_7
  8
FRAME53
 90
        8
 62
     7
370
    -3
331
14
  1
Color_7
  8
FRAME52
 90
        8
 62
     7
370
    -3
331
14
  1
Color_7
  8
RECON7
 90
        8
 62
     5
370
    25
331
14
  1
Color_5
  8
RECON6
 90
        8
 62
     5
370
    35
331
14
  1
Color_5
  8
RECON4
 90
        8
 62
     2
370
    25
331
14
  1
Color_2
  8
RECON3
 90
        8
 62
     1
370
    35
331
14
  1
Color_1
  8
RECON2
 90
        8
 62
     7
370
    25
331
14
  1
Color_7
  8
RECON1
 90
        8
 62
     4
370
    50
331
14
  1
Color_4
  8
SKVIEW7
 90
        8
 62
     5
370
    25
331
14
  1
Color_5
  8
SK7
 90
        8
 62
     5
370
    25
331
14
  1
Color_5
  8
7
 90
        8
 62
     5
370
    25
331
14
  1
Color_5
  8
INFMAINVIEW
 90
        8
 62
     9
370
    18
331
14
  1
Color_9
  8
INFTOTAL
 90
        8
 62
     9
370
    18
331
14
  1
Color_9
  8
INFTEXT61
 90
        8
 62
     5
370
    -3
331
14
  1
Color_5
  8
INFWKP
 90
        8
 62
    30
370
    25
331
14
  1
Color_30
  8
SKVIEW6
 90
        8
 62
     5
370
    35
331
14
  1
Color_5
  8
SKVIEW4
 90
        8
 62
     2
370
    25
331
14
  1
Color_2
  8
SKVIEW3
 90
        8
 62
     1
370
    35
331
14
  1
Color_1
  8
SKVIEW2
 90
        8
 62
     7
370
    25
331
14
  1
Color_7
  8
SKVIEW1
 90
        8
 62
     4
370
    50
331
14
  1
Color_4
  8
NOCUT
 90
        8
 62
     7
370
    25
331
14
  1
Color_7
  8
CUT
 90
        8
 62
     1
370
    25
331
14
  1
Color_1
  8
DEFPOINTS
 90
        0
 62
     7
370
    -3
331
14
  1
Color_7
  8
SK6
 90
        8
 62
     5
370
    35
331
14
  1
Color_5
  8
6
 90
        8
 62
     5
370
    35
331
14
  1
Color_5
  8
FRAME51
 90
        8
 62
     7
370
    -3
331
14
  1
Color_7
  8
SK4
 90
        8
 62
     2
370
    25
331
14
  1
Color_2
  8
4
 90
        8
 62
     2
370
    25
331
14
  1
Color_2
  8
SK3
 90
        8
 62
     1
370
    35
331
14
  1
Color_1
  8
3
 90
        8
 62
     1
370
    35
331
14
  1
Color_1
  8
SK2
 90
        8
 62
     7
370
    25
331
14
  1
Color_7
  8
2
 90
        8
 62
     7
370
    25
331
14
  1
Color_7
  8
SK1
 90
        8
 62
     4
370
    50
331
14
  1
Color_4
  8
1
 90
        8
 62
     4
370
    50
331
14
  1
Color_4
  8
0
 90
        0
 62
     7
370
    -3
331
14
  1
Color_7
  0
DICTIONARY
  5
1C0B
330
CF0
100
AcDbDictionary
280
     1
281
     1
  3
ACAD_XREC_ROUNDTRIP
360
1C0C
  0
DICTIONARY
  5
1BF1
330
B57
100
AcDbDictionary
280
     1
281
     1
  3
ACAD_XREC_ROUNDTRIP
360
1BF2
  0
DICTIONARY
  5
1BC8
330
303
100
AcDbDictionary
280
     1
281
     1
  3
ACAD_XREC_ROUNDTRIP
360
1BC9
  0
DICTIONARY
  5
17C3
330
3F0
100
AcDbDictionary
280
     1
281
     1
  3
ACAD_XREC_ROUNDTRIP
360
17C4
  0
DICTIONARY
  5
17C1
330
3EF
100
AcDbDictionary
280
     1
281
     1
  3
ACAD_XREC_ROUNDTRIP
360
17C2
  0
DICTIONARY
  5
17C5
330
3F1
100
AcDbDictionary
280
     1
281
     1
  3
ACAD_XREC_ROUNDTRIP
360
17C6
  0
DICTIONARY
  5
1BEB
330
470
100
AcDbDictionary
280
     1
281
     1
  3
ACAD_XREC_ROUNDTRIP
360
1BEC
  0
DICTIONARY
  5
1BED
330
7EF
100
AcDbDictionary
280
     1
281
     1
  3
ACAD_XREC_ROUNDTRIP
360
1BEE
  0
DICTIONARY
  5
1BEF
330
7F8
100
AcDbDictionary
280
     1
281
     1
  3
ACAD_XREC_ROUNDTRIP
360
1BF0
  0
DICTIONARY
  5
1C09
330
CEE
100
AcDbDictionary
280
     1
281
     1
  3
ACAD_XREC_ROUNDTRIP
360
1C0A
  0
DICTIONARY
  5
577
330
389
100
AcDbDictionary
280
     1
281
     1
  3
ACAD_ROUNDTRIP_2008_TABLESTYLE_CELLSTYLEMAP
360
1BBF
  3
ACAD_XREC_ROUNDTRIP
360
1BCA
  0
DICTIONARY
  5
1BD5
330
3F8
100
AcDbDictionary
280
     1
281
     1
  3
ACAD_XREC_ROUNDTRIP
360
1BD6
  0
DICTIONARY
  5
1BD9
330
3FA
100
AcDbDictionary
280
     1
281
     1
  3
ACAD_XREC_ROUNDTRIP
360
1BDA
  0
DICTIONARY
  5
1BD7
330
3F9
100
AcDbDictionary
280
     1
281
     1
  3
ACAD_XREC_ROUNDTRIP
360
1BD8
  0
DICTIONARY
  5
1BD3
330
3F7
100
AcDbDictionary
280
     1
281
     1
  3
ACAD_XREC_ROUNDTRIP
360
1BD4
  0
DICTIONARY
  5
1BE1
330
3FE
100
AcDbDictionary
280
     1
281
     1
  3
ACAD_XREC_ROUNDTRIP
360
1BE2
  0
DICTIONARY
  5
1BE9
330
402
100
AcDbDictionary
280
     1
281
     1
  3
ACAD_XREC_ROUNDTRIP
360
1BEA
  0
DICTIONARY
  5
1BDB
330
3FB
100
AcDbDictionary
280
     1
281
     1
  3
ACAD_XREC_ROUNDTRIP
360
1BDC
  0
DICTIONARY
  5
1BDF
330
3FD
100
AcDbDictionary
280
     1
281
     1
  3
ACAD_XREC_ROUNDTRIP
360
1BE0
  0
DICTIONARY
  5
1BF9
330
BDF
100
AcDbDictionary
280
     1
281
     1
  3
ACAD_XREC_ROUNDTRIP
360
1BFA
  0
DICTIONARY
  5
1BE7
330
401
100
AcDbDictionary
280
     1
281
     1
  3
ACAD_XREC_ROUNDTRIP
360
1BE8
  0
DICTIONARY
  5
1BCB
330
3F3
100
AcDbDictionary
280
     1
281
     1
  3
ACAD_XREC_ROUNDTRIP
360
1BCC
  0
DICTIONARY
  5
1BCD
330
3F4
100
AcDbDictionary
280
     1
281
     1
  3
ACAD_XREC_ROUNDTRIP
360
1BCE
  0
DICTIONARY
  5
1BCF
330
3F5
100
AcDbDictionary
280
     1
281
     1
  3
ACAD_XREC_ROUNDTRIP
360
1BD0
  0
DICTIONARY
  5
1BD1
330
3F6
100
AcDbDictionary
280
     1
281
     1
  3
ACAD_XREC_ROUNDTRIP
360
1BD2
  0
DICTIONARY
  5
1BFD
330
CE7
100
AcDbDictionary
280
     1
281
     1
  3
ACAD_XREC_ROUNDTRIP
360
1BFE
  0
DICTIONARY
  5
1BF5
330
BDD
100
AcDbDictionary
280
     1
281
     1
  3
ACAD_XREC_ROUNDTRIP
360
1BF6
  0
DICTIONARY
  5
1BE5
330
400
100
AcDbDictionary
280
     1
281
     1
  3
ACAD_XREC_ROUNDTRIP
360
1BE6
  0
DICTIONARY
  5
1BF7
330
BDE
100
AcDbDictionary
280
     1
281
     1
  3
ACAD_XREC_ROUNDTRIP
360
1BF8
  0
DICTIONARY
  5
1BDD
330
3FC
100
AcDbDictionary
280
     1
281
     1
  3
ACAD_XREC_ROUNDTRIP
360
1BDE
  0
DICTIONARY
  5
1C07
330
CEC
100
AcDbDictionary
280
     1
281
     1
  3
ACAD_XREC_ROUNDTRIP
360
1C08
  0
DICTIONARY
  5
1C05
330
CEB
100
AcDbDictionary
280
     1
281
     1
  3
ACAD_XREC_ROUNDTRIP
360
1C06
  0
DICTIONARY
  5
1BFF
330
CE8
100
AcDbDictionary
280
     1
281
     1
  3
ACAD_XREC_ROUNDTRIP
360
1C00
  0
DICTIONARY
  5
1C01
330
CE9
100
AcDbDictionary
280
     1
281
     1
  3
ACAD_XREC_ROUNDTRIP
360
1C02
  0
DICTIONARY
  5
1BE3
330
3FF
100
AcDbDictionary
280
     1
281
     1
  3
ACAD_XREC_ROUNDTRIP
360
1BE4
  0
DICTIONARY
  5
1BFB
330
CE6
100
AcDbDictionary
280
     1
281
     1
  3
ACAD_XREC_ROUNDTRIP
360
1BFC
  0
DICTIONARY
  5
1C03
330
CEA
100
AcDbDictionary
280
     1
281
     1
  3
ACAD_XREC_ROUNDTRIP
360
1C04
  0
XRECORD
  5
1C0C
102
{ACAD_REACTORS
330
1C0B
102
}
330
1C0B
100
AcDbXrecord
280
     1
102
DISPLAYNAME
  1
Metric50
102
FLAGS
 90
        0
  0
XRECORD
  5
1BF2
102
{ACAD_REACTORS
330
1BF1
102
}
330
1BF1
100
AcDbXrecord
280
     1
102
SHADEPLOT
 70
     0
102
SHADEPLOTRESLEVEL
 70
     2
102
SHADEPLOTCUSTOMDPI
 70
   300
  0
XRECORD
  5
1BC9
102
{ACAD_REACTORS
330
1BC8
102
}
330
1BC8
100
AcDbXrecord
280
     1
102
SHADEPLOT
 70
     0
102
SHADEPLOTRESLEVEL
 70
     2
102
SHADEPLOTCUSTOMDPI
 70
   300
  0
XRECORD
  5
17C4
102
{ACAD_REACTORS
330
17C3
102
}
330
17C3
100
AcDbXrecord
280
     1
102
MATERIAL
148
0.0
149
0.0
149
0.0
 93
        0
 94
      127
282
     0
 72
     1
 77
     1
171
     1
175
     1
179
     1
273
     0
  0
XRECORD
  5
17C2
102
{ACAD_REACTORS
330
17C1
102
}
330
17C1
100
AcDbXrecord
280
     1
102
MATERIAL
148
0.0
149
0.0
149
0.0
 93
        0
 94
      127
282
     0
 72
     1
 77
     1
171
     1
175
     1
179
     1
273
     0
  0
XRECORD
  5
17C6
102
{ACAD_REACTORS
330
17C5
102
}
330
17C5
100
AcDbXrecord
280
     1
102
MATERIAL
148
0.0
149
0.0
149
0.0
 93
        0
 94
      127
282
     0
 72
     1
 77
     1
171
     1
175
     1
179
     1
273
     0
  0
XRECORD
  5
1BEC
102
{ACAD_REACTORS
330
1BEB
102
}
330
1BEB
100
AcDbXrecord
280
     1
102
ACAD_ROUNDTRIP_2012_MLEADER_STYLE
298
     1
  0
XRECORD
  5
1BEE
102
{ACAD_REACTORS
330
1BED
102
}
330
1BED
100
AcDbXrecord
280
     1
102
SHADEPLOT
 70
     0
102
SHADEPLOTRESLEVEL
 70
     2
102
SHADEPLOTCUSTOMDPI
 70
   300
  0
XRECORD
  5
1BF0
102
{ACAD_REACTORS
330
1BEF
102
}
330
1BEF
100
AcDbXrecord
280
     1
102
SHADEPLOT
 70
     0
102
SHADEPLOTRESLEVEL
 70
     2
102
SHADEPLOTCUSTOMDPI
 70
   300
  0
XRECORD
  5
1C0A
102
{ACAD_REACTORS
330
1C09
102
}
330
1C09
100
AcDbXrecord
280
     1
102
DISPLAYNAME
  1
Metric50
102
FLAGS
 90
        0
  0
CELLSTYLEMAP
  5
1BBF
102
{ACAD_REACTORS
330
577
102
}
330
577
100
AcDbCellStyleMap
 90
        3
300
CELLSTYLE
  1
TABLEFORMAT_BEGIN
 90
        5
170
     1
 91
        0
 92
    32768
 62
   257
 93
        1
300
CONTENTFORMAT
  1
CONTENTFORMAT_BEGIN
 90
        0
 91
        0
 92
        4
 93
        0
300

 40
0.0
140
1.0
 94
        5
 62
     0
340
1E
144
6.0
309
CONTENTFORMAT_END
171
     1
301
MARGIN
  1
CELLMARGIN_BEGIN
 40
1.5
 40
1.5
 40
1.5
 40
1.5
 40
0.18
 40
0.18
309
CELLMARGIN_END
 94
        6
 95
        1
302
GRIDFORMAT
  1
GRIDFORMAT_BEGIN
 90
        0
 91
        1
 62
     0
 92
       -2
340
0
 93
        0
 40
0.045
309
GRIDFORMAT_END
 95
        2
302
GRIDFORMAT
  1
GRIDFORMAT_BEGIN
 90
        0
 91
        1
 62
     0
 92
       -2
340
0
 93
        0
 40
0.045
309
GRIDFORMAT_END
 95
        4
302
GRIDFORMAT
  1
GRIDFORMAT_BEGIN
 90
        0
 91
        1
 62
     0
 92
       -2
340
0
 93
        0
 40
0.045
309
GRIDFORMAT_END
 95
        8
302
GRIDFORMAT
  1
GRIDFORMAT_BEGIN
 90
        0
 91
        1
 62
     0
 92
       -2
340
0
 93
        0
 40
0.045
309
GRIDFORMAT_END
 95
       16
302
GRIDFORMAT
  1
GRIDFORMAT_BEGIN
 90
        0
 91
        1
 62
     0
 92
       -2
340
0
 93
        0
 40
0.045
309
GRIDFORMAT_END
 95
       32
302
GRIDFORMAT
  1
GRIDFORMAT_BEGIN
 90
        0
 91
        1
 62
     0
 92
       -2
340
0
 93
        0
 40
0.045
309
GRIDFORMAT_END
309
TABLEFORMAT_END
  1
CELLSTYLE_BEGIN
 90
        1
 91
        1
300
_TITLE
309
CELLSTYLE_END
300
CELLSTYLE
  1
TABLEFORMAT_BEGIN
 90
        5
170
     1
 91
        0
 92
        0
 62
   257
 93
        1
300
CONTENTFORMAT
  1
CONTENTFORMAT_BEGIN
 90
        0
 91
        0
 92
        4
 93
        0
300

 40
0.0
140
1.0
 94
        5
 62
     0
340
10
144
4.5
309
CONTENTFORMAT_END
171
     1
301
MARGIN
  1
CELLMARGIN_BEGIN
 40
1.5
 40
1.5
 40
1.5
 40
1.5
 40
0.18
 40
0.18
309
CELLMARGIN_END
 94
        6
 95
        1
302
GRIDFORMAT
  1
GRIDFORMAT_BEGIN
 90
        0
 91
        1
 62
     0
 92
       -2
340
0
 93
        0
 40
0.045
309
GRIDFORMAT_END
 95
        2
302
GRIDFORMAT
  1
GRIDFORMAT_BEGIN
 90
        0
 91
        1
 62
     0
 92
       -2
340
0
 93
        0
 40
0.045
309
GRIDFORMAT_END
 95
        4
302
GRIDFORMAT
  1
GRIDFORMAT_BEGIN
 90
        0
 91
        1
 62
     0
 92
       -2
340
0
 93
        0
 40
0.045
309
GRIDFORMAT_END
 95
        8
302
GRIDFORMAT
  1
GRIDFORMAT_BEGIN
 90
        0
 91
        1
 62
     0
 92
       -2
340
0
 93
        0
 40
0.045
309
GRIDFORMAT_END
 95
       16
302
GRIDFORMAT
  1
GRIDFORMAT_BEGIN
 90
        0
 91
        1
 62
     0
 92
       -2
340
0
 93
        0
 40
0.045
309
GRIDFORMAT_END
 95
       32
302
GRIDFORMAT
  1
GRIDFORMAT_BEGIN
 90
        0
 91
        1
 62
     0
 92
       -2
340
0
 93
        0
 40
0.045
309
GRIDFORMAT_END
309
TABLEFORMAT_END
  1
CELLSTYLE_BEGIN
 90
        2
 91
        1
300
_HEADER
309
CELLSTYLE_END
300
CELLSTYLE
  1
TABLEFORMAT_BEGIN
 90
        5
170
     1
 91
        0
 92
        0
 62
   257
 93
        1
300
CONTENTFORMAT
  1
CONTENTFORMAT_BEGIN
 90
        0
 91
        0
 92
        4
 93
        0
300

 40
0.0
140
1.0
 94
        2
 62
     0
340
10
144
4.5
309
CONTENTFORMAT_END
171
     1
301
MARGIN
  1
CELLMARGIN_BEGIN
 40
1.5
 40
1.5
 40
1.5
 40
1.5
 40
0.18
 40
0.18
309
CELLMARGIN_END
 94
        6
 95
        1
302
GRIDFORMAT
  1
GRIDFORMAT_BEGIN
 90
        0
 91
        1
 62
     0
 92
       -2
340
0
 93
        0
 40
0.045
309
GRIDFORMAT_END
 95
        2
302
GRIDFORMAT
  1
GRIDFORMAT_BEGIN
 90
        0
 91
        1
 62
     0
 92
       -2
340
0
 93
        0
 40
0.045
309
GRIDFORMAT_END
 95
        4
302
GRIDFORMAT
  1
GRIDFORMAT_BEGIN
 90
        0
 91
        1
 62
     0
 92
       -2
340
0
 93
        0
 40
0.045
309
GRIDFORMAT_END
 95
        8
302
GRIDFORMAT
  1
GRIDFORMAT_BEGIN
 90
        0
 91
        1
 62
     0
 92
       -2
340
0
 93
        0
 40
0.045
309
GRIDFORMAT_END
 95
       16
302
GRIDFORMAT
  1
GRIDFORMAT_BEGIN
 90
        0
 91
        1
 62
     0
 92
       -2
340
0
 93
        0
 40
0.045
309
GRIDFORMAT_END
 95
       32
302
GRIDFORMAT
  1
GRIDFORMAT_BEGIN
 90
        0
 91
        1
 62
     0
 92
       -2
340
0
 93
        0
 40
0.045
309
GRIDFORMAT_END
309
TABLEFORMAT_END
  1
CELLSTYLE_BEGIN
 90
        3
 91
        2
300
_DATA
309
CELLSTYLE_END
  0
XRECORD
  5
1BCA
102
{ACAD_REACTORS
330
577
102
}
330
577
100
AcDbXrecord
280
     1
102
ACAD_ROUNDTRIP_PRE2007_TABLESTYLE
 90
        4
 91
        0
  1

 92
        4
 93
        0
  2

 94
        4
 95
        0
  3

  0
XRECORD
  5
1BD6
102
{ACAD_REACTORS
330
1BD5
102
}
330
1BD5
100
AcDbXrecord
280
     1
102
RTVSPost2010Prop28
280
     1
102
RTVSPost2010PropOp28
 70
     1
102
RTVSPost2010Prop29
280
     1
102
RTVSPost2010PropOp29
 70
     1
102
RTVSPost2010Prop30
280
     0
102
RTVSPost2010PropOp30
 70
     1
102
RTVSPost2010Prop31
280
     0
102
RTVSPost2010PropOp31
 70
     1
102
RTVSPost2010Prop32
280
     0
102
RTVSPost2010PropOp32
 70
     1
102
RTVSPost2010Prop33
280
     0
102
RTVSPost2010PropOp33
 70
     1
102
RTVSPost2010Prop34
280
     0
102
RTVSPost2010PropOp34
 70
     1
102
RTVSPost2010Prop35
280
     0
102
RTVSPost2010PropOp35
 70
     1
102
RTVSPost2010Prop36
280
     0
102
RTVSPost2010PropOp36
 70
     1
102
RTVSPost2010Prop37
 90
       50
102
RTVSPost2010PropOp37
 70
     1
102
RTVSPost2010Prop38
140
0.0
102
RTVSPost2010PropOp38
 70
     1
102
RTVSPost2010Prop39
140
1.0
102
RTVSPost2010PropOp39
 70
     1
102
RTVSPost2010Prop40
 90
        0
102
RTVSPost2010PropOp40
 70
     1
102
RTVSPost2010Prop41ColorIndex
 90
       18
102
RTVSPost2010Prop41ColorRGB
 90
        0
102
RTVSPost2010PropOp41
 70
     1
102
RTVSPost2010Prop42
 90
       50
102
RTVSPost2010PropOp42
 70
     1
102
RTVSPost2010Prop43
 90
        3
102
RTVSPost2010PropOp43
 70
     1
102
RTVSPost2010Prop44ColorIndex
 90
        5
102
RTVSPost2010Prop44ColorRGB
 90
      255
102
RTVSPost2010PropOp44
 70
     1
102
RTVSPost2010Prop45
280
     0
102
RTVSPost2010PropOp45
 70
     1
102
RTVSPost2010Prop46
 90
       50
102
RTVSPost2010PropOp46
 70
     1
102
RTVSPost2010Prop47
 90
       50
102
RTVSPost2010PropOp47
 70
     1
102
RTVSPost2010Prop48
 90
       50
102
RTVSPost2010PropOp48
 70
     1
102
RTVSPost2010Prop49
280
     0
102
RTVSPost2010PropOp49
 70
     1
102
RTVSPost2010Prop50
 90
       50
102
RTVSPost2010PropOp50
 70
     1
102
RTVSPost2010Prop51ColorIndex
 90
      256
102
RTVSPost2010Prop51ColorRGB
 90
-16777216
102
RTVSPost2010PropOp51
 70
     0
102
RTVSPost2010Prop52
140
1.0
102
RTVSPost2010PropOp52
 70
     0
102
RTVSPost2010Prop53
 90
        2
102
RTVSPost2010PropOp53
 70
     1
102
RTVSPost2010Prop54
  1
strokes_ogs.tif
102
RTVSPost2010PropOp54
 70
     1
102
RTVSPost2010Prop55
280
     0
102
RTVSPost2010PropOp55
 70
     1
102
RTVSPost2010Prop56
140
1.0
102
RTVSPost2010PropOp56
 70
     1
102
RTVSPost2010Prop57
140
1.0
102
RTVSPost2010PropOp57
 70
     1
102
RTVSPropertyOp0
 70
     1
102
RTVSPropertyOp1
 70
     1
102
RTVSPropertyOp2
 70
     1
102
RTVSPropertyOp3
 70
     1
102
RTVSPropertyOp4
 70
     1
102
RTVSPropertyOp5
 70
     1
102
RTVSPropertyOp6
 70
     1
102
RTVSPropertyOp7
 70
     1
102
RTVSPropertyOp8
 70
     1
102
RTVSPropertyOp9
 70
     1
102
RTVSPropertyOp10
 70
     1
102
RTVSPropertyOp11
 70
     1
102
RTVSPropertyOp12
 70
     1
102
RTVSPropertyOp13
 70
     1
102
RTVSPropertyOp14
 70
     1
102
RTVSPropertyOp15
 70
     1
102
RTVSPropertyOp16
 70
     1
102
RTVSPropertyOp17
 70
     1
102
RTVSPropertyOp18
 70
     1
102
RTVSPropertyOp19
 70
     1
102
RTVSPropertyOp20
 70
     1
102
RTVSPropertyOp21
 70
     1
102
RTVSPropertyOp22
 70
     1
102
RTVSPropertyOp23
 70
     1
102
RTVSPropertyOp24
 70
     1
102
RTVSPropertyOp25
 70
     1
102
RTVSPropertyOp26
 70
     1
102
RTVSPropertyOp27
 70
     1
102
RTVSPropertyOp28
 70
     1
102
RTVSPropertyOp29
 70
     1
102
RTVSPropertyOp30
 70
     1
102
RTVSPropertyOp31
 70
     1
102
RTVSPropertyOp32
 70
     1
102
RTVSPropertyOp33
 70
     1
102
RTVSPropertyOp34
 70
     1
102
RTVSPropertyOp35
 70
     1
102
RTVSPropertyOp36
 70
     1
102
RTVSPropertyOp37
 70
     1
102
RTVSPropertyOp38
 70
     1
102
RTVSPropertyOp39
 70
     1
102
RTVSPropertyOp40
 70
     1
102
RTVSPropertyOp41
 70
     1
102
RTVSPropertyOp42
 70
     1
102
RTVSPropertyOp43
 70
     1
102
RTVSPropertyOp44
 70
     1
102
RTVSPropertyOp45
 70
     1
102
RTVSPropertyOp46
 70
     1
102
RTVSPropertyOp47
 70
     1
102
RTVSPropertyOp48
 70
     1
102
RTVSPropertyOp49
 70
     1
102
RTVSPropertyOp50
 70
     1
102
RTVSPropertyOp51
 70
     0
102
RTVSPropertyOp52
 70
     0
102
RTVSPropertyOp53
 70
     1
102
RTVSPropertyOp54
 70
     1
102
RTVSPropertyOp55
 70
     1
102
RTVSPropertyOp56
 70
     1
102
RTVSPropertyOp57
 70
     1
102
RTVSPropertyOp58
 70
     1
102
RTVSPropertyOp59
 70
     1
102
RTVSPropertyOp60
 70
     1
102
RTVSPropertyOp61
 70
     1
102
RTVSPropertyOp62
 70
     1
  0
XRECORD
  5
1BDA
102
{ACAD_REACTORS
330
1BD9
102
}
330
1BD9
100
AcDbXrecord
280
     1
102
RTVSPost2010Prop28
280
     0
102
RTVSPost2010PropOp28
 70
     1
102
RTVSPost2010Prop29
280
     1
102
RTVSPost2010PropOp29
 70
     1
102
RTVSPost2010Prop30
280
     1
102
RTVSPost2010PropOp30
 70
     1
102
RTVSPost2010Prop31
280
     0
102
RTVSPost2010PropOp31
 70
     1
102
RTVSPost2010Prop32
280
     0
102
RTVSPost2010PropOp32
 70
     1
102
RTVSPost2010Prop33
280
     0
102
RTVSPost2010PropOp33
 70
     1
102
RTVSPost2010Prop34
280
     0
102
RTVSPost2010PropOp34
 70
     1
102
RTVSPost2010Prop35
280
     0
102
RTVSPost2010PropOp35
 70
     1
102
RTVSPost2010Prop36
280
     0
102
RTVSPost2010PropOp36
 70
     1
102
RTVSPost2010Prop37
 90
       50
102
RTVSPost2010PropOp37
 70
     1
102
RTVSPost2010Prop38
140
0.0
102
RTVSPost2010PropOp38
 70
     1
102
RTVSPost2010Prop39
140
1.0
102
RTVSPost2010PropOp39
 70
     1
102
RTVSPost2010Prop40
 90
        0
102
RTVSPost2010PropOp40
 70
     1
102
RTVSPost2010Prop41ColorIndex
 90
       18
102
RTVSPost2010Prop41ColorRGB
 90
        0
102
RTVSPost2010PropOp41
 70
     1
102
RTVSPost2010Prop42
 90
       50
102
RTVSPost2010PropOp42
 70
     1
102
RTVSPost2010Prop43
 90
        3
102
RTVSPost2010PropOp43
 70
     1
102
RTVSPost2010Prop44ColorIndex
 90
        5
102
RTVSPost2010Prop44ColorRGB
 90
      255
102
RTVSPost2010PropOp44
 70
     1
102
RTVSPost2010Prop45
280
     0
102
RTVSPost2010PropOp45
 70
     1
102
RTVSPost2010Prop46
 90
       50
102
RTVSPost2010PropOp46
 70
     1
102
RTVSPost2010Prop47
 90
       50
102
RTVSPost2010PropOp47
 70
     1
102
RTVSPost2010Prop48
 90
       50
102
RTVSPost2010PropOp48
 70
     1
102
RTVSPost2010Prop49
280
     0
102
RTVSPost2010PropOp49
 70
     1
102
RTVSPost2010Prop50
 90
       50
102
RTVSPost2010PropOp50
 70
     1
102
RTVSPost2010Prop51ColorIndex
 90
      256
102
RTVSPost2010Prop51ColorRGB
 90
-16777216
102
RTVSPost2010PropOp51
 70
     0
102
RTVSPost2010Prop52
140
1.0
102
RTVSPost2010PropOp52
 70
     0
102
RTVSPost2010Prop53
 90
        2
102
RTVSPost2010PropOp53
 70
     1
102
RTVSPost2010Prop54
  1
strokes_ogs.tif
102
RTVSPost2010PropOp54
 70
     1
102
RTVSPost2010Prop55
280
     0
102
RTVSPost2010PropOp55
 70
     1
102
RTVSPost2010Prop56
140
1.0
102
RTVSPost2010PropOp56
 70
     1
102
RTVSPost2010Prop57
140
1.0
102
RTVSPost2010PropOp57
 70
     1
102
RTVSPropertyOp0
 70
     1
102
RTVSPropertyOp1
 70
     1
102
RTVSPropertyOp2
 70
     1
102
RTVSPropertyOp3
 70
     1
102
RTVSPropertyOp4
 70
     1
102
RTVSPropertyOp5
 70
     1
102
RTVSPropertyOp6
 70
     1
102
RTVSPropertyOp7
 70
     1
102
RTVSPropertyOp8
 70
     1
102
RTVSPropertyOp9
 70
     1
102
RTVSPropertyOp10
 70
     1
102
RTVSPropertyOp11
 70
     1
102
RTVSPropertyOp12
 70
     1
102
RTVSPropertyOp13
 70
     1
102
RTVSPropertyOp14
 70
     1
102
RTVSPropertyOp15
 70
     1
102
RTVSPropertyOp16
 70
     1
102
RTVSPropertyOp17
 70
     1
102
RTVSPropertyOp18
 70
     1
102
RTVSPropertyOp19
 70
     1
102
RTVSPropertyOp20
 70
     1
102
RTVSPropertyOp21
 70
     1
102
RTVSPropertyOp22
 70
     1
102
RTVSPropertyOp23
 70
     1
102
RTVSPropertyOp24
 70
     1
102
RTVSPropertyOp25
 70
     1
102
RTVSPropertyOp26
 70
     1
102
RTVSPropertyOp27
 70
     1
102
RTVSPropertyOp28
 70
     1
102
RTVSPropertyOp29
 70
     1
102
RTVSPropertyOp30
 70
     1
102
RTVSPropertyOp31
 70
     1
102
RTVSPropertyOp32
 70
     1
102
RTVSPropertyOp33
 70
     1
102
RTVSPropertyOp34
 70
     1
102
RTVSPropertyOp35
 70
     1
102
RTVSPropertyOp36
 70
     1
102
RTVSPropertyOp37
 70
     1
102
RTVSPropertyOp38
 70
     1
102
RTVSPropertyOp39
 70
     1
102
RTVSPropertyOp40
 70
     1
102
RTVSPropertyOp41
 70
     1
102
RTVSPropertyOp42
 70
     1
102
RTVSPropertyOp43
 70
     1
102
RTVSPropertyOp44
 70
     1
102
RTVSPropertyOp45
 70
     1
102
RTVSPropertyOp46
 70
     1
102
RTVSPropertyOp47
 70
     1
102
RTVSPropertyOp48
 70
     1
102
RTVSPropertyOp49
 70
     1
102
RTVSPropertyOp50
 70
     1
102
RTVSPropertyOp51
 70
     0
102
RTVSPropertyOp52
 70
     0
102
RTVSPropertyOp53
 70
     1
102
RTVSPropertyOp54
 70
     1
102
RTVSPropertyOp55
 70
     1
102
RTVSPropertyOp56
 70
     1
102
RTVSPropertyOp57
 70
     1
102
RTVSPropertyOp58
 70
     1
102
RTVSPropertyOp59
 70
     1
102
RTVSPropertyOp60
 70
     1
102
RTVSPropertyOp61
 70
     1
102
RTVSPropertyOp62
 70
     1
  0
XRECORD
  5
1BD8
102
{ACAD_REACTORS
330
1BD7
102
}
330
1BD7
100
AcDbXrecord
280
     1
102
RTVSPost2010Prop28
280
     0
102
RTVSPost2010PropOp28
 70
     1
102
RTVSPost2010Prop29
280
     1
102
RTVSPost2010PropOp29
 70
     1
102
RTVSPost2010Prop30
280
     1
102
RTVSPost2010PropOp30
 70
     1
102
RTVSPost2010Prop31
280
     0
102
RTVSPost2010PropOp31
 70
     1
102
RTVSPost2010Prop32
280
     0
102
RTVSPost2010PropOp32
 70
     1
102
RTVSPost2010Prop33
280
     0
102
RTVSPost2010PropOp33
 70
     1
102
RTVSPost2010Prop34
280
     0
102
RTVSPost2010PropOp34
 70
     1
102
RTVSPost2010Prop35
280
     0
102
RTVSPost2010PropOp35
 70
     1
102
RTVSPost2010Prop36
280
     0
102
RTVSPost2010PropOp36
 70
     1
102
RTVSPost2010Prop37
 90
       50
102
RTVSPost2010PropOp37
 70
     1
102
RTVSPost2010Prop38
140
0.0
102
RTVSPost2010PropOp38
 70
     1
102
RTVSPost2010Prop39
140
1.0
102
RTVSPost2010PropOp39
 70
     1
102
RTVSPost2010Prop40
 90
        0
102
RTVSPost2010PropOp40
 70
     1
102
RTVSPost2010Prop41ColorIndex
 90
       18
102
RTVSPost2010Prop41ColorRGB
 90
        0
102
RTVSPost2010PropOp41
 70
     1
102
RTVSPost2010Prop42
 90
       50
102
RTVSPost2010PropOp42
 70
     1
102
RTVSPost2010Prop43
 90
        3
102
RTVSPost2010PropOp43
 70
     1
102
RTVSPost2010Prop44ColorIndex
 90
        5
102
RTVSPost2010Prop44ColorRGB
 90
      255
102
RTVSPost2010PropOp44
 70
     1
102
RTVSPost2010Prop45
280
     0
102
RTVSPost2010PropOp45
 70
     1
102
RTVSPost2010Prop46
 90
       50
102
RTVSPost2010PropOp46
 70
     1
102
RTVSPost2010Prop47
 90
       50
102
RTVSPost2010PropOp47
 70
     1
102
RTVSPost2010Prop48
 90
       50
102
RTVSPost2010PropOp48
 70
     1
102
RTVSPost2010Prop49
280
     0
102
RTVSPost2010PropOp49
 70
     1
102
RTVSPost2010Prop50
 90
       50
102
RTVSPost2010PropOp50
 70
     1
102
RTVSPost2010Prop51ColorIndex
 90
      256
102
RTVSPost2010Prop51ColorRGB
 90
-16777216
102
RTVSPost2010PropOp51
 70
     0
102
RTVSPost2010Prop52
140
1.0
102
RTVSPost2010PropOp52
 70
     0
102
RTVSPost2010Prop53
 90
        2
102
RTVSPost2010PropOp53
 70
     1
102
RTVSPost2010Prop54
  1
strokes_ogs.tif
102
RTVSPost2010PropOp54
 70
     1
102
RTVSPost2010Prop55
280
     0
102
RTVSPost2010PropOp55
 70
     1
102
RTVSPost2010Prop56
140
1.0
102
RTVSPost2010PropOp56
 70
     1
102
RTVSPost2010Prop57
140
1.0
102
RTVSPost2010PropOp57
 70
     1
102
RTVSPropertyOp0
 70
     1
102
RTVSPropertyOp1
 70
     1
102
RTVSPropertyOp2
 70
     1
102
RTVSPropertyOp3
 70
     1
102
RTVSPropertyOp4
 70
     1
102
RTVSPropertyOp5
 70
     1
102
RTVSPropertyOp6
 70
     1
102
RTVSPropertyOp7
 70
     1
102
RTVSPropertyOp8
 70
     1
102
RTVSPropertyOp9
 70
     1
102
RTVSPropertyOp10
 70
     1
102
RTVSPropertyOp11
 70
     1
102
RTVSPropertyOp12
 70
     1
102
RTVSPropertyOp13
 70
     1
102
RTVSPropertyOp14
 70
     1
102
RTVSPropertyOp15
 70
     1
102
RTVSPropertyOp16
 70
     1
102
RTVSPropertyOp17
 70
     1
102
RTVSPropertyOp18
 70
     1
102
RTVSPropertyOp19
 70
     1
102
RTVSPropertyOp20
 70
     1
102
RTVSPropertyOp21
 70
     1
102
RTVSPropertyOp22
 70
     1
102
RTVSPropertyOp23
 70
     1
102
RTVSPropertyOp24
 70
     1
102
RTVSPropertyOp25
 70
     1
102
RTVSPropertyOp26
 70
     1
102
RTVSPropertyOp27
 70
     1
102
RTVSPropertyOp28
 70
     1
102
RTVSPropertyOp29
 70
     1
102
RTVSPropertyOp30
 70
     1
102
RTVSPropertyOp31
 70
     1
102
RTVSPropertyOp32
 70
     1
102
RTVSPropertyOp33
 70
     1
102
RTVSPropertyOp34
 70
     1
102
RTVSPropertyOp35
 70
     1
102
RTVSPropertyOp36
 70
     1
102
RTVSPropertyOp37
 70
     1
102
RTVSPropertyOp38
 70
     1
102
RTVSPropertyOp39
 70
     1
102
RTVSPropertyOp40
 70
     1
102
RTVSPropertyOp41
 70
     1
102
RTVSPropertyOp42
 70
     1
102
RTVSPropertyOp43
 70
     1
102
RTVSPropertyOp44
 70
     1
102
RTVSPropertyOp45
 70
     1
102
RTVSPropertyOp46
 70
     1
102
RTVSPropertyOp47
 70
     1
102
RTVSPropertyOp48
 70
     1
102
RTVSPropertyOp49
 70
     1
102
RTVSPropertyOp50
 70
     1
102
RTVSPropertyOp51
 70
     0
102
RTVSPropertyOp52
 70
     0
102
RTVSPropertyOp53
 70
     1
102
RTVSPropertyOp54
 70
     1
102
RTVSPropertyOp55
 70
     1
102
RTVSPropertyOp56
 70
     1
102
RTVSPropertyOp57
 70
     1
102
RTVSPropertyOp58
 70
     1
102
RTVSPropertyOp59
 70
     1
102
RTVSPropertyOp60
 70
     1
102
RTVSPropertyOp61
 70
     1
102
RTVSPropertyOp62
 70
     1
  0
XRECORD
  5
1BD4
102
{ACAD_REACTORS
330
1BD3
102
}
330
1BD3
100
AcDbXrecord
280
     1
102
RTVSPost2010Prop28
280
     0
102
RTVSPost2010PropOp28
 70
     1
102
RTVSPost2010Prop29
280
     1
102
RTVSPost2010PropOp29
 70
     1
102
RTVSPost2010Prop30
280
     1
102
RTVSPost2010PropOp30
 70
     1
102
RTVSPost2010Prop31
280
     0
102
RTVSPost2010PropOp31
 70
     1
102
RTVSPost2010Prop32
280
     0
102
RTVSPost2010PropOp32
 70
     1
102
RTVSPost2010Prop33
280
     0
102
RTVSPost2010PropOp33
 70
     1
102
RTVSPost2010Prop34
280
     0
102
RTVSPost2010PropOp34
 70
     1
102
RTVSPost2010Prop35
280
     0
102
RTVSPost2010PropOp35
 70
     1
102
RTVSPost2010Prop36
280
     0
102
RTVSPost2010PropOp36
 70
     1
102
RTVSPost2010Prop37
 90
       50
102
RTVSPost2010PropOp37
 70
     1
102
RTVSPost2010Prop38
140
0.0
102
RTVSPost2010PropOp38
 70
     1
102
RTVSPost2010Prop39
140
1.0
102
RTVSPost2010PropOp39
 70
     1
102
RTVSPost2010Prop40
 90
        0
102
RTVSPost2010PropOp40
 70
     1
102
RTVSPost2010Prop41ColorIndex
 90
       18
102
RTVSPost2010Prop41ColorRGB
 90
        0
102
RTVSPost2010PropOp41
 70
     1
102
RTVSPost2010Prop42
 90
       50
102
RTVSPost2010PropOp42
 70
     1
102
RTVSPost2010Prop43
 90
        3
102
RTVSPost2010PropOp43
 70
     1
102
RTVSPost2010Prop44ColorIndex
 90
        5
102
RTVSPost2010Prop44ColorRGB
 90
      255
102
RTVSPost2010PropOp44
 70
     1
102
RTVSPost2010Prop45
280
     0
102
RTVSPost2010PropOp45
 70
     1
102
RTVSPost2010Prop46
 90
       50
102
RTVSPost2010PropOp46
 70
     1
102
RTVSPost2010Prop47
 90
       50
102
RTVSPost2010PropOp47
 70
     1
102
RTVSPost2010Prop48
 90
       50
102
RTVSPost2010PropOp48
 70
     1
102
RTVSPost2010Prop49
280
     0
102
RTVSPost2010PropOp49
 70
     1
102
RTVSPost2010Prop50
 90
       50
102
RTVSPost2010PropOp50
 70
     1
102
RTVSPost2010Prop51ColorIndex
 90
      256
102
RTVSPost2010Prop51ColorRGB
 90
-16777216
102
RTVSPost2010PropOp51
 70
     0
102
RTVSPost2010Prop52
140
1.0
102
RTVSPost2010PropOp52
 70
     0
102
RTVSPost2010Prop53
 90
        2
102
RTVSPost2010PropOp53
 70
     1
102
RTVSPost2010Prop54
  1
strokes_ogs.tif
102
RTVSPost2010PropOp54
 70
     1
102
RTVSPost2010Prop55
280
     0
102
RTVSPost2010PropOp55
 70
     1
102
RTVSPost2010Prop56
140
1.0
102
RTVSPost2010PropOp56
 70
     1
102
RTVSPost2010Prop57
140
1.0
102
RTVSPost2010PropOp57
 70
     1
102
RTVSPropertyOp0
 70
     1
102
RTVSPropertyOp1
 70
     1
102
RTVSPropertyOp2
 70
     1
102
RTVSPropertyOp3
 70
     1
102
RTVSPropertyOp4
 70
     1
102
RTVSPropertyOp5
 70
     1
102
RTVSPropertyOp6
 70
     1
102
RTVSPropertyOp7
 70
     1
102
RTVSPropertyOp8
 70
     1
102
RTVSPropertyOp9
 70
     1
102
RTVSPropertyOp10
 70
     1
102
RTVSPropertyOp11
 70
     1
102
RTVSPropertyOp12
 70
     1
102
RTVSPropertyOp13
 70
     1
102
RTVSPropertyOp14
 70
     1
102
RTVSPropertyOp15
 70
     1
102
RTVSPropertyOp16
 70
     1
102
RTVSPropertyOp17
 70
     1
102
RTVSPropertyOp18
 70
     1
102
RTVSPropertyOp19
 70
     1
102
RTVSPropertyOp20
 70
     1
102
RTVSPropertyOp21
 70
     1
102
RTVSPropertyOp22
 70
     1
102
RTVSPropertyOp23
 70
     1
102
RTVSPropertyOp24
 70
     1
102
RTVSPropertyOp25
 70
     1
102
RTVSPropertyOp26
 70
     1
102
RTVSPropertyOp27
 70
     1
102
RTVSPropertyOp28
 70
     1
102
RTVSPropertyOp29
 70
     1
102
RTVSPropertyOp30
 70
     1
102
RTVSPropertyOp31
 70
     1
102
RTVSPropertyOp32
 70
     1
102
RTVSPropertyOp33
 70
     1
102
RTVSPropertyOp34
 70
     1
102
RTVSPropertyOp35
 70
     1
102
RTVSPropertyOp36
 70
     1
102
RTVSPropertyOp37
 70
     1
102
RTVSPropertyOp38
 70
     1
102
RTVSPropertyOp39
 70
     1
102
RTVSPropertyOp40
 70
     1
102
RTVSPropertyOp41
 70
     1
102
RTVSPropertyOp42
 70
     1
102
RTVSPropertyOp43
 70
     1
102
RTVSPropertyOp44
 70
     1
102
RTVSPropertyOp45
 70
     1
102
RTVSPropertyOp46
 70
     1
102
RTVSPropertyOp47
 70
     1
102
RTVSPropertyOp48
 70
     1
102
RTVSPropertyOp49
 70
     1
102
RTVSPropertyOp50
 70
     1
102
RTVSPropertyOp51
 70
     0
102
RTVSPropertyOp52
 70
     0
102
RTVSPropertyOp53
 70
     1
102
RTVSPropertyOp54
 70
     1
102
RTVSPropertyOp55
 70
     1
102
RTVSPropertyOp56
 70
     1
102
RTVSPropertyOp57
 70
     1
102
RTVSPropertyOp58
 70
     1
102
RTVSPropertyOp59
 70
     1
102
RTVSPropertyOp60
 70
     1
102
RTVSPropertyOp61
 70
     1
102
RTVSPropertyOp62
 70
     1
  0
XRECORD
  5
1BE2
102
{ACAD_REACTORS
330
1BE1
102
}
330
1BE1
100
AcDbXrecord
280
     1
102
RTVSPost2010Prop28
280
     0
102
RTVSPost2010PropOp28
 70
     1
102
RTVSPost2010Prop29
280
     1
102
RTVSPost2010PropOp29
 70
     1
102
RTVSPost2010Prop30
280
     1
102
RTVSPost2010PropOp30
 70
     1
102
RTVSPost2010Prop31
280
     0
102
RTVSPost2010PropOp31
 70
     1
102
RTVSPost2010Prop32
280
     0
102
RTVSPost2010PropOp32
 70
     1
102
RTVSPost2010Prop33
280
     0
102
RTVSPost2010PropOp33
 70
     1
102
RTVSPost2010Prop34
280
     0
102
RTVSPost2010PropOp34
 70
     1
102
RTVSPost2010Prop35
280
     0
102
RTVSPost2010PropOp35
 70
     1
102
RTVSPost2010Prop36
280
     0
102
RTVSPost2010PropOp36
 70
     1
102
RTVSPost2010Prop37
 90
       50
102
RTVSPost2010PropOp37
 70
     1
102
RTVSPost2010Prop38
140
0.0
102
RTVSPost2010PropOp38
 70
     1
102
RTVSPost2010Prop39
140
1.0
102
RTVSPost2010PropOp39
 70
     1
102
RTVSPost2010Prop40
 90
        0
102
RTVSPost2010PropOp40
 70
     1
102
RTVSPost2010Prop41ColorIndex
 90
       18
102
RTVSPost2010Prop41ColorRGB
 90
        0
102
RTVSPost2010PropOp41
 70
     1
102
RTVSPost2010Prop42
 90
       50
102
RTVSPost2010PropOp42
 70
     1
102
RTVSPost2010Prop43
 90
        3
102
RTVSPost2010PropOp43
 70
     1
102
RTVSPost2010Prop44ColorIndex
 90
        5
102
RTVSPost2010Prop44ColorRGB
 90
      255
102
RTVSPost2010PropOp44
 70
     1
102
RTVSPost2010Prop45
280
     0
102
RTVSPost2010PropOp45
 70
     1
102
RTVSPost2010Prop46
 90
       50
102
RTVSPost2010PropOp46
 70
     1
102
RTVSPost2010Prop47
 90
       50
102
RTVSPost2010PropOp47
 70
     1
102
RTVSPost2010Prop48
 90
       50
102
RTVSPost2010PropOp48
 70
     1
102
RTVSPost2010Prop49
280
     0
102
RTVSPost2010PropOp49
 70
     1
102
RTVSPost2010Prop50
 90
       50
102
RTVSPost2010PropOp50
 70
     1
102
RTVSPost2010Prop51ColorIndex
 90
      256
102
RTVSPost2010Prop51ColorRGB
 90
-16777216
102
RTVSPost2010PropOp51
 70
     0
102
RTVSPost2010Prop52
140
1.0
102
RTVSPost2010PropOp52
 70
     0
102
RTVSPost2010Prop53
 90
        2
102
RTVSPost2010PropOp53
 70
     1
102
RTVSPost2010Prop54
  1
strokes_ogs.tif
102
RTVSPost2010PropOp54
 70
     1
102
RTVSPost2010Prop55
280
     0
102
RTVSPost2010PropOp55
 70
     1
102
RTVSPost2010Prop56
140
1.0
102
RTVSPost2010PropOp56
 70
     1
102
RTVSPost2010Prop57
140
1.0
102
RTVSPost2010PropOp57
 70
     1
102
RTVSPropertyOp0
 70
     1
102
RTVSPropertyOp1
 70
     1
102
RTVSPropertyOp2
 70
     1
102
RTVSPropertyOp3
 70
     1
102
RTVSPropertyOp4
 70
     1
102
RTVSPropertyOp5
 70
     1
102
RTVSPropertyOp6
 70
     1
102
RTVSPropertyOp7
 70
     1
102
RTVSPropertyOp8
 70
     1
102
RTVSPropertyOp9
 70
     1
102
RTVSPropertyOp10
 70
     1
102
RTVSPropertyOp11
 70
     1
102
RTVSPropertyOp12
 70
     1
102
RTVSPropertyOp13
 70
     1
102
RTVSPropertyOp14
 70
     1
102
RTVSPropertyOp15
 70
     1
102
RTVSPropertyOp16
 70
     1
102
RTVSPropertyOp17
 70
     1
102
RTVSPropertyOp18
 70
     1
102
RTVSPropertyOp19
 70
     1
102
RTVSPropertyOp20
 70
     1
102
RTVSPropertyOp21
 70
     1
102
RTVSPropertyOp22
 70
     1
102
RTVSPropertyOp23
 70
     1
102
RTVSPropertyOp24
 70
     1
102
RTVSPropertyOp25
 70
     1
102
RTVSPropertyOp26
 70
     1
102
RTVSPropertyOp27
 70
     1
102
RTVSPropertyOp28
 70
     1
102
RTVSPropertyOp29
 70
     1
102
RTVSPropertyOp30
 70
     1
102
RTVSPropertyOp31
 70
     1
102
RTVSPropertyOp32
 70
     1
102
RTVSPropertyOp33
 70
     1
102
RTVSPropertyOp34
 70
     1
102
RTVSPropertyOp35
 70
     1
102
RTVSPropertyOp36
 70
     1
102
RTVSPropertyOp37
 70
     1
102
RTVSPropertyOp38
 70
     1
102
RTVSPropertyOp39
 70
     1
102
RTVSPropertyOp40
 70
     1
102
RTVSPropertyOp41
 70
     1
102
RTVSPropertyOp42
 70
     1
102
RTVSPropertyOp43
 70
     1
102
RTVSPropertyOp44
 70
     1
102
RTVSPropertyOp45
 70
     1
102
RTVSPropertyOp46
 70
     1
102
RTVSPropertyOp47
 70
     1
102
RTVSPropertyOp48
 70
     1
102
RTVSPropertyOp49
 70
     1
102
RTVSPropertyOp50
 70
     1
102
RTVSPropertyOp51
 70
     0
102
RTVSPropertyOp52
 70
     0
102
RTVSPropertyOp53
 70
     1
102
RTVSPropertyOp54
 70
     1
102
RTVSPropertyOp55
 70
     1
102
RTVSPropertyOp56
 70
     1
102
RTVSPropertyOp57
 70
     1
102
RTVSPropertyOp58
 70
     1
102
RTVSPropertyOp59
 70
     1
102
RTVSPropertyOp60
 70
     1
102
RTVSPropertyOp61
 70
     1
102
RTVSPropertyOp62
 70
     1
  0
XRECORD
  5
1BEA
102
{ACAD_REACTORS
330
1BE9
102
}
330
1BE9
100
AcDbXrecord
280
     1
102
RTVSPost2010Prop28
280
     0
102
RTVSPost2010PropOp28
 70
     1
102
RTVSPost2010Prop29
280
     1
102
RTVSPost2010PropOp29
 70
     1
102
RTVSPost2010Prop30
280
     1
102
RTVSPost2010PropOp30
 70
     1
102
RTVSPost2010Prop31
280
     0
102
RTVSPost2010PropOp31
 70
     1
102
RTVSPost2010Prop32
280
     0
102
RTVSPost2010PropOp32
 70
     1
102
RTVSPost2010Prop33
280
     0
102
RTVSPost2010PropOp33
 70
     1
102
RTVSPost2010Prop34
280
     0
102
RTVSPost2010PropOp34
 70
     1
102
RTVSPost2010Prop35
280
     0
102
RTVSPost2010PropOp35
 70
     1
102
RTVSPost2010Prop36
280
     0
102
RTVSPost2010PropOp36
 70
     1
102
RTVSPost2010Prop37
 90
       50
102
RTVSPost2010PropOp37
 70
     1
102
RTVSPost2010Prop38
140
0.0
102
RTVSPost2010PropOp38
 70
     1
102
RTVSPost2010Prop39
140
1.0
102
RTVSPost2010PropOp39
 70
     1
102
RTVSPost2010Prop40
 90
        0
102
RTVSPost2010PropOp40
 70
     1
102
RTVSPost2010Prop41ColorIndex
 90
       18
102
RTVSPost2010Prop41ColorRGB
 90
        0
102
RTVSPost2010PropOp41
 70
     1
102
RTVSPost2010Prop42
 90
       50
102
RTVSPost2010PropOp42
 70
     1
102
RTVSPost2010Prop43
 90
        3
102
RTVSPost2010PropOp43
 70
     1
102
RTVSPost2010Prop44ColorIndex
 90
        5
102
RTVSPost2010Prop44ColorRGB
 90
      255
102
RTVSPost2010PropOp44
 70
     1
102
RTVSPost2010Prop45
280
     0
102
RTVSPost2010PropOp45
 70
     1
102
RTVSPost2010Prop46
 90
       50
102
RTVSPost2010PropOp46
 70
     1
102
RTVSPost2010Prop47
 90
       50
102
RTVSPost2010PropOp47
 70
     1
102
RTVSPost2010Prop48
 90
       50
102
RTVSPost2010PropOp48
 70
     1
102
RTVSPost2010Prop49
280
     0
102
RTVSPost2010PropOp49
 70
     1
102
RTVSPost2010Prop50
 90
       50
102
RTVSPost2010PropOp50
 70
     1
102
RTVSPost2010Prop51ColorIndex
 90
      256
102
RTVSPost2010Prop51ColorRGB
 90
-16777216
102
RTVSPost2010PropOp51
 70
     0
102
RTVSPost2010Prop52
140
1.0
102
RTVSPost2010PropOp52
 70
     0
102
RTVSPost2010Prop53
 90
        2
102
RTVSPost2010PropOp53
 70
     1
102
RTVSPost2010Prop54
  1
strokes_ogs.tif
102
RTVSPost2010PropOp54
 70
     1
102
RTVSPost2010Prop55
280
     0
102
RTVSPost2010PropOp55
 70
     1
102
RTVSPost2010Prop56
140
1.0
102
RTVSPost2010PropOp56
 70
     1
102
RTVSPost2010Prop57
140
1.0
102
RTVSPost2010PropOp57
 70
     1
102
RTVSPropertyOp0
 70
     1
102
RTVSPropertyOp1
 70
     1
102
RTVSPropertyOp2
 70
     1
102
RTVSPropertyOp3
 70
     1
102
RTVSPropertyOp4
 70
     1
102
RTVSPropertyOp5
 70
     1
102
RTVSPropertyOp6
 70
     1
102
RTVSPropertyOp7
 70
     1
102
RTVSPropertyOp8
 70
     1
102
RTVSPropertyOp9
 70
     1
102
RTVSPropertyOp10
 70
     1
102
RTVSPropertyOp11
 70
     1
102
RTVSPropertyOp12
 70
     1
102
RTVSPropertyOp13
 70
     1
102
RTVSPropertyOp14
 70
     1
102
RTVSPropertyOp15
 70
     1
102
RTVSPropertyOp16
 70
     1
102
RTVSPropertyOp17
 70
     1
102
RTVSPropertyOp18
 70
     1
102
RTVSPropertyOp19
 70
     1
102
RTVSPropertyOp20
 70
     1
102
RTVSPropertyOp21
 70
     1
102
RTVSPropertyOp22
 70
     1
102
RTVSPropertyOp23
 70
     1
102
RTVSPropertyOp24
 70
     1
102
RTVSPropertyOp25
 70
     1
102
RTVSPropertyOp26
 70
     1
102
RTVSPropertyOp27
 70
     1
102
RTVSPropertyOp28
 70
     1
102
RTVSPropertyOp29
 70
     1
102
RTVSPropertyOp30
 70
     1
102
RTVSPropertyOp31
 70
     1
102
RTVSPropertyOp32
 70
     1
102
RTVSPropertyOp33
 70
     1
102
RTVSPropertyOp34
 70
     1
102
RTVSPropertyOp35
 70
     1
102
RTVSPropertyOp36
 70
     1
102
RTVSPropertyOp37
 70
     1
102
RTVSPropertyOp38
 70
     1
102
RTVSPropertyOp39
 70
     1
102
RTVSPropertyOp40
 70
     1
102
RTVSPropertyOp41
 70
     1
102
RTVSPropertyOp42
 70
     1
102
RTVSPropertyOp43
 70
     1
102
RTVSPropertyOp44
 70
     1
102
RTVSPropertyOp45
 70
     1
102
RTVSPropertyOp46
 70
     1
102
RTVSPropertyOp47
 70
     1
102
RTVSPropertyOp48
 70
     1
102
RTVSPropertyOp49
 70
     1
102
RTVSPropertyOp50
 70
     1
102
RTVSPropertyOp51
 70
     0
102
RTVSPropertyOp52
 70
     0
102
RTVSPropertyOp53
 70
     1
102
RTVSPropertyOp54
 70
     1
102
RTVSPropertyOp55
 70
     1
102
RTVSPropertyOp56
 70
     1
102
RTVSPropertyOp57
 70
     1
102
RTVSPropertyOp58
 70
     1
102
RTVSPropertyOp59
 70
     1
102
RTVSPropertyOp60
 70
     1
102
RTVSPropertyOp61
 70
     1
102
RTVSPropertyOp62
 70
     1
  0
XRECORD
  5
1BDC
102
{ACAD_REACTORS
330
1BDB
102
}
330
1BDB
100
AcDbXrecord
280
     1
102
RTVSPost2010Prop28
280
     0
102
RTVSPost2010PropOp28
 70
     1
102
RTVSPost2010Prop29
280
     1
102
RTVSPost2010PropOp29
 70
     1
102
RTVSPost2010Prop30
280
     1
102
RTVSPost2010PropOp30
 70
     1
102
RTVSPost2010Prop31
280
     0
102
RTVSPost2010PropOp31
 70
     1
102
RTVSPost2010Prop32
280
     0
102
RTVSPost2010PropOp32
 70
     1
102
RTVSPost2010Prop33
280
     0
102
RTVSPost2010PropOp33
 70
     1
102
RTVSPost2010Prop34
280
     0
102
RTVSPost2010PropOp34
 70
     1
102
RTVSPost2010Prop35
280
     0
102
RTVSPost2010PropOp35
 70
     1
102
RTVSPost2010Prop36
280
     0
102
RTVSPost2010PropOp36
 70
     1
102
RTVSPost2010Prop37
 90
       50
102
RTVSPost2010PropOp37
 70
     1
102
RTVSPost2010Prop38
140
0.0
102
RTVSPost2010PropOp38
 70
     1
102
RTVSPost2010Prop39
140
1.0
102
RTVSPost2010PropOp39
 70
     1
102
RTVSPost2010Prop40
 90
        0
102
RTVSPost2010PropOp40
 70
     1
102
RTVSPost2010Prop41ColorIndex
 90
       18
102
RTVSPost2010Prop41ColorRGB
 90
        0
102
RTVSPost2010PropOp41
 70
     1
102
RTVSPost2010Prop42
 90
       50
102
RTVSPost2010PropOp42
 70
     1
102
RTVSPost2010Prop43
 90
        3
102
RTVSPost2010PropOp43
 70
     1
102
RTVSPost2010Prop44ColorIndex
 90
        5
102
RTVSPost2010Prop44ColorRGB
 90
      255
102
RTVSPost2010PropOp44
 70
     1
102
RTVSPost2010Prop45
280
     0
102
RTVSPost2010PropOp45
 70
     1
102
RTVSPost2010Prop46
 90
       50
102
RTVSPost2010PropOp46
 70
     1
102
RTVSPost2010Prop47
 90
       50
102
RTVSPost2010PropOp47
 70
     1
102
RTVSPost2010Prop48
 90
       50
102
RTVSPost2010PropOp48
 70
     1
102
RTVSPost2010Prop49
280
     0
102
RTVSPost2010PropOp49
 70
     1
102
RTVSPost2010Prop50
 90
       50
102
RTVSPost2010PropOp50
 70
     1
102
RTVSPost2010Prop51ColorIndex
 90
      256
102
RTVSPost2010Prop51ColorRGB
 90
-16777216
102
RTVSPost2010PropOp51
 70
     0
102
RTVSPost2010Prop52
140
1.0
102
RTVSPost2010PropOp52
 70
     0
102
RTVSPost2010Prop53
 90
        2
102
RTVSPost2010PropOp53
 70
     1
102
RTVSPost2010Prop54
  1
strokes_ogs.tif
102
RTVSPost2010PropOp54
 70
     1
102
RTVSPost2010Prop55
280
     0
102
RTVSPost2010PropOp55
 70
     1
102
RTVSPost2010Prop56
140
1.0
102
RTVSPost2010PropOp56
 70
     1
102
RTVSPost2010Prop57
140
1.0
102
RTVSPost2010PropOp57
 70
     1
102
RTVSPropertyOp0
 70
     1
102
RTVSPropertyOp1
 70
     1
102
RTVSPropertyOp2
 70
     1
102
RTVSPropertyOp3
 70
     1
102
RTVSPropertyOp4
 70
     1
102
RTVSPropertyOp5
 70
     1
102
RTVSPropertyOp6
 70
     1
102
RTVSPropertyOp7
 70
     1
102
RTVSPropertyOp8
 70
     1
102
RTVSPropertyOp9
 70
     1
102
RTVSPropertyOp10
 70
     1
102
RTVSPropertyOp11
 70
     1
102
RTVSPropertyOp12
 70
     1
102
RTVSPropertyOp13
 70
     1
102
RTVSPropertyOp14
 70
     1
102
RTVSPropertyOp15
 70
     1
102
RTVSPropertyOp16
 70
     1
102
RTVSPropertyOp17
 70
     1
102
RTVSPropertyOp18
 70
     1
102
RTVSPropertyOp19
 70
     1
102
RTVSPropertyOp20
 70
     1
102
RTVSPropertyOp21
 70
     1
102
RTVSPropertyOp22
 70
     1
102
RTVSPropertyOp23
 70
     1
102
RTVSPropertyOp24
 70
     1
102
RTVSPropertyOp25
 70
     1
102
RTVSPropertyOp26
 70
     1
102
RTVSPropertyOp27
 70
     1
102
RTVSPropertyOp28
 70
     1
102
RTVSPropertyOp29
 70
     1
102
RTVSPropertyOp30
 70
     1
102
RTVSPropertyOp31
 70
     1
102
RTVSPropertyOp32
 70
     1
102
RTVSPropertyOp33
 70
     1
102
RTVSPropertyOp34
 70
     1
102
RTVSPropertyOp35
 70
     1
102
RTVSPropertyOp36
 70
     1
102
RTVSPropertyOp37
 70
     1
102
RTVSPropertyOp38
 70
     1
102
RTVSPropertyOp39
 70
     1
102
RTVSPropertyOp40
 70
     1
102
RTVSPropertyOp41
 70
     1
102
RTVSPropertyOp42
 70
     1
102
RTVSPropertyOp43
 70
     1
102
RTVSPropertyOp44
 70
     1
102
RTVSPropertyOp45
 70
     1
102
RTVSPropertyOp46
 70
     1
102
RTVSPropertyOp47
 70
     1
102
RTVSPropertyOp48
 70
     1
102
RTVSPropertyOp49
 70
     1
102
RTVSPropertyOp50
 70
     1
102
RTVSPropertyOp51
 70
     0
102
RTVSPropertyOp52
 70
     0
102
RTVSPropertyOp53
 70
     1
102
RTVSPropertyOp54
 70
     1
102
RTVSPropertyOp55
 70
     1
102
RTVSPropertyOp56
 70
     1
102
RTVSPropertyOp57
 70
     1
102
RTVSPropertyOp58
 70
     1
102
RTVSPropertyOp59
 70
     1
102
RTVSPropertyOp60
 70
     1
102
RTVSPropertyOp61
 70
     1
102
RTVSPropertyOp62
 70
     1
  0
XRECORD
  5
1BE0
102
{ACAD_REACTORS
330
1BDF
102
}
330
1BDF
100
AcDbXrecord
280
     1
102
RTVSPost2010Prop28
280
     0
102
RTVSPost2010PropOp28
 70
     1
102
RTVSPost2010Prop29
280
     1
102
RTVSPost2010PropOp29
 70
     1
102
RTVSPost2010Prop30
280
     1
102
RTVSPost2010PropOp30
 70
     1
102
RTVSPost2010Prop31
280
     0
102
RTVSPost2010PropOp31
 70
     1
102
RTVSPost2010Prop32
280
     0
102
RTVSPost2010PropOp32
 70
     1
102
RTVSPost2010Prop33
280
     0
102
RTVSPost2010PropOp33
 70
     1
102
RTVSPost2010Prop34
280
     0
102
RTVSPost2010PropOp34
 70
     1
102
RTVSPost2010Prop35
280
     0
102
RTVSPost2010PropOp35
 70
     1
102
RTVSPost2010Prop36
280
     0
102
RTVSPost2010PropOp36
 70
     1
102
RTVSPost2010Prop37
 90
       50
102
RTVSPost2010PropOp37
 70
     1
102
RTVSPost2010Prop38
140
0.0
102
RTVSPost2010PropOp38
 70
     1
102
RTVSPost2010Prop39
140
1.0
102
RTVSPost2010PropOp39
 70
     1
102
RTVSPost2010Prop40
 90
        0
102
RTVSPost2010PropOp40
 70
     1
102
RTVSPost2010Prop41ColorIndex
 90
       18
102
RTVSPost2010Prop41ColorRGB
 90
        0
102
RTVSPost2010PropOp41
 70
     1
102
RTVSPost2010Prop42
 90
       50
102
RTVSPost2010PropOp42
 70
     1
102
RTVSPost2010Prop43
 90
        3
102
RTVSPost2010PropOp43
 70
     1
102
RTVSPost2010Prop44ColorIndex
 90
        5
102
RTVSPost2010Prop44ColorRGB
 90
      255
102
RTVSPost2010PropOp44
 70
     1
102
RTVSPost2010Prop45
280
     0
102
RTVSPost2010PropOp45
 70
     1
102
RTVSPost2010Prop46
 90
       50
102
RTVSPost2010PropOp46
 70
     1
102
RTVSPost2010Prop47
 90
       50
102
RTVSPost2010PropOp47
 70
     1
102
RTVSPost2010Prop48
 90
       50
102
RTVSPost2010PropOp48
 70
     1
102
RTVSPost2010Prop49
280
     0
102
RTVSPost2010PropOp49
 70
     1
102
RTVSPost2010Prop50
 90
       50
102
RTVSPost2010PropOp50
 70
     1
102
RTVSPost2010Prop51ColorIndex
 90
      256
102
RTVSPost2010Prop51ColorRGB
 90
-16777216
102
RTVSPost2010PropOp51
 70
     0
102
RTVSPost2010Prop52
140
1.0
102
RTVSPost2010PropOp52
 70
     0
102
RTVSPost2010Prop53
 90
        2
102
RTVSPost2010PropOp53
 70
     1
102
RTVSPost2010Prop54
  1
strokes_ogs.tif
102
RTVSPost2010PropOp54
 70
     1
102
RTVSPost2010Prop55
280
     0
102
RTVSPost2010PropOp55
 70
     1
102
RTVSPost2010Prop56
140
1.0
102
RTVSPost2010PropOp56
 70
     1
102
RTVSPost2010Prop57
140
1.0
102
RTVSPost2010PropOp57
 70
     1
102
RTVSPropertyOp0
 70
     1
102
RTVSPropertyOp1
 70
     1
102
RTVSPropertyOp2
 70
     1
102
RTVSPropertyOp3
 70
     1
102
RTVSPropertyOp4
 70
     1
102
RTVSPropertyOp5
 70
     1
102
RTVSPropertyOp6
 70
     1
102
RTVSPropertyOp7
 70
     1
102
RTVSPropertyOp8
 70
     1
102
RTVSPropertyOp9
 70
     1
102
RTVSPropertyOp10
 70
     1
102
RTVSPropertyOp11
 70
     1
102
RTVSPropertyOp12
 70
     1
102
RTVSPropertyOp13
 70
     1
102
RTVSPropertyOp14
 70
     1
102
RTVSPropertyOp15
 70
     1
102
RTVSPropertyOp16
 70
     1
102
RTVSPropertyOp17
 70
     1
102
RTVSPropertyOp18
 70
     1
102
RTVSPropertyOp19
 70
     1
102
RTVSPropertyOp20
 70
     1
102
RTVSPropertyOp21
 70
     1
102
RTVSPropertyOp22
 70
     1
102
RTVSPropertyOp23
 70
     1
102
RTVSPropertyOp24
 70
     1
102
RTVSPropertyOp25
 70
     1
102
RTVSPropertyOp26
 70
     1
102
RTVSPropertyOp27
 70
     1
102
RTVSPropertyOp28
 70
     1
102
RTVSPropertyOp29
 70
     1
102
RTVSPropertyOp30
 70
     1
102
RTVSPropertyOp31
 70
     1
102
RTVSPropertyOp32
 70
     1
102
RTVSPropertyOp33
 70
     1
102
RTVSPropertyOp34
 70
     1
102
RTVSPropertyOp35
 70
     1
102
RTVSPropertyOp36
 70
     1
102
RTVSPropertyOp37
 70
     1
102
RTVSPropertyOp38
 70
     1
102
RTVSPropertyOp39
 70
     1
102
RTVSPropertyOp40
 70
     1
102
RTVSPropertyOp41
 70
     1
102
RTVSPropertyOp42
 70
     1
102
RTVSPropertyOp43
 70
     1
102
RTVSPropertyOp44
 70
     1
102
RTVSPropertyOp45
 70
     1
102
RTVSPropertyOp46
 70
     1
102
RTVSPropertyOp47
 70
     1
102
RTVSPropertyOp48
 70
     1
102
RTVSPropertyOp49
 70
     1
102
RTVSPropertyOp50
 70
     1
102
RTVSPropertyOp51
 70
     0
102
RTVSPropertyOp52
 70
     0
102
RTVSPropertyOp53
 70
     1
102
RTVSPropertyOp54
 70
     1
102
RTVSPropertyOp55
 70
     1
102
RTVSPropertyOp56
 70
     1
102
RTVSPropertyOp57
 70
     1
102
RTVSPropertyOp58
 70
     1
102
RTVSPropertyOp59
 70
     1
102
RTVSPropertyOp60
 70
     1
102
RTVSPropertyOp61
 70
     1
102
RTVSPropertyOp62
 70
     1
  0
XRECORD
  5
1BFA
102
{ACAD_REACTORS
330
1BF9
102
}
330
1BF9
100
AcDbXrecord
280
     1
102
RTVSPost2010Prop28
280
     0
102
RTVSPost2010PropOp28
 70
     1
102
RTVSPost2010Prop29
280
     1
102
RTVSPost2010PropOp29
 70
     1
102
RTVSPost2010Prop30
280
     1
102
RTVSPost2010PropOp30
 70
     1
102
RTVSPost2010Prop31
280
     0
102
RTVSPost2010PropOp31
 70
     1
102
RTVSPost2010Prop32
280
     0
102
RTVSPost2010PropOp32
 70
     1
102
RTVSPost2010Prop33
280
     0
102
RTVSPost2010PropOp33
 70
     1
102
RTVSPost2010Prop34
280
     0
102
RTVSPost2010PropOp34
 70
     1
102
RTVSPost2010Prop35
280
     0
102
RTVSPost2010PropOp35
 70
     1
102
RTVSPost2010Prop36
280
     0
102
RTVSPost2010PropOp36
 70
     1
102
RTVSPost2010Prop37
 90
       50
102
RTVSPost2010PropOp37
 70
     1
102
RTVSPost2010Prop38
140
0.0
102
RTVSPost2010PropOp38
 70
     1
102
RTVSPost2010Prop39
140
1.0
102
RTVSPost2010PropOp39
 70
     1
102
RTVSPost2010Prop40
 90
        0
102
RTVSPost2010PropOp40
 70
     1
102
RTVSPost2010Prop41ColorIndex
 90
       18
102
RTVSPost2010Prop41ColorRGB
 90
        0
102
RTVSPost2010PropOp41
 70
     1
102
RTVSPost2010Prop42
 90
       50
102
RTVSPost2010PropOp42
 70
     1
102
RTVSPost2010Prop43
 90
        3
102
RTVSPost2010PropOp43
 70
     1
102
RTVSPost2010Prop44ColorIndex
 90
        5
102
RTVSPost2010Prop44ColorRGB
 90
      255
102
RTVSPost2010PropOp44
 70
     1
102
RTVSPost2010Prop45
280
     0
102
RTVSPost2010PropOp45
 70
     1
102
RTVSPost2010Prop46
 90
       50
102
RTVSPost2010PropOp46
 70
     1
102
RTVSPost2010Prop47
 90
       50
102
RTVSPost2010PropOp47
 70
     1
102
RTVSPost2010Prop48
 90
       50
102
RTVSPost2010PropOp48
 70
     1
102
RTVSPost2010Prop49
280
     0
102
RTVSPost2010PropOp49
 70
     1
102
RTVSPost2010Prop50
 90
       50
102
RTVSPost2010PropOp50
 70
     1
102
RTVSPost2010Prop51ColorIndex
 90
      256
102
RTVSPost2010Prop51ColorRGB
 90
-16777216
102
RTVSPost2010PropOp51
 70
     0
102
RTVSPost2010Prop52
140
1.0
102
RTVSPost2010PropOp52
 70
     0
102
RTVSPost2010Prop53
 90
        2
102
RTVSPost2010PropOp53
 70
     1
102
RTVSPost2010Prop54
  1
strokes_ogs.tif
102
RTVSPost2010PropOp54
 70
     1
102
RTVSPost2010Prop55
280
     0
102
RTVSPost2010PropOp55
 70
     1
102
RTVSPost2010Prop56
140
1.0
102
RTVSPost2010PropOp56
 70
     1
102
RTVSPost2010Prop57
140
1.0
102
RTVSPost2010PropOp57
 70
     1
102
RTVSPropertyOp0
 70
     0
102
RTVSPropertyOp1
 70
     0
102
RTVSPropertyOp2
 70
     0
102
RTVSPropertyOp3
 70
     0
102
RTVSPropertyOp4
 70
     0
102
RTVSPropertyOp5
 70
     0
102
RTVSPropertyOp6
 70
     0
102
RTVSPropertyOp7
 70
     0
102
RTVSPropertyOp8
 70
     0
102
RTVSPropertyOp9
 70
     0
102
RTVSPropertyOp10
 70
     0
102
RTVSPropertyOp11
 70
     0
102
RTVSPropertyOp12
 70
     0
102
RTVSPropertyOp13
 70
     0
102
RTVSPropertyOp14
 70
     2
102
RTVSPropertyOp15
 70
     0
102
RTVSPropertyOp16
 70
     0
102
RTVSPropertyOp17
 70
     0
102
RTVSPropertyOp18
 70
     0
102
RTVSPropertyOp19
 70
     0
102
RTVSPropertyOp20
 70
     0
102
RTVSPropertyOp21
 70
     0
102
RTVSPropertyOp22
 70
     0
102
RTVSPropertyOp23
 70
     0
102
RTVSPropertyOp24
 70
     0
102
RTVSPropertyOp25
 70
     0
102
RTVSPropertyOp26
 70
     0
102
RTVSPropertyOp27
 70
     0
102
RTVSPropertyOp28
 70
     1
102
RTVSPropertyOp29
 70
     1
102
RTVSPropertyOp30
 70
     1
102
RTVSPropertyOp31
 70
     1
102
RTVSPropertyOp32
 70
     1
102
RTVSPropertyOp33
 70
     1
102
RTVSPropertyOp34
 70
     1
102
RTVSPropertyOp35
 70
     1
102
RTVSPropertyOp36
 70
     1
102
RTVSPropertyOp37
 70
     1
102
RTVSPropertyOp38
 70
     1
102
RTVSPropertyOp39
 70
     1
102
RTVSPropertyOp40
 70
     1
102
RTVSPropertyOp41
 70
     1
102
RTVSPropertyOp42
 70
     1
102
RTVSPropertyOp43
 70
     1
102
RTVSPropertyOp44
 70
     1
102
RTVSPropertyOp45
 70
     1
102
RTVSPropertyOp46
 70
     1
102
RTVSPropertyOp47
 70
     1
102
RTVSPropertyOp48
 70
     1
102
RTVSPropertyOp49
 70
     1
102
RTVSPropertyOp50
 70
     1
102
RTVSPropertyOp51
 70
     0
102
RTVSPropertyOp52
 70
     0
102
RTVSPropertyOp53
 70
     1
102
RTVSPropertyOp54
 70
     1
102
RTVSPropertyOp55
 70
     1
102
RTVSPropertyOp56
 70
     1
102
RTVSPropertyOp57
 70
     1
102
RTVSPropertyOp58
 70
     1
102
RTVSPropertyOp59
 70
     1
102
RTVSPropertyOp60
 70
     1
102
RTVSPropertyOp61
 70
     1
102
RTVSPropertyOp62
 70
     1
  0
XRECORD
  5
1BE8
102
{ACAD_REACTORS
330
1BE7
102
}
330
1BE7
100
AcDbXrecord
280
     1
102
RTVSPost2010Prop28
280
     0
102
RTVSPost2010PropOp28
 70
     1
102
RTVSPost2010Prop29
280
     1
102
RTVSPost2010PropOp29
 70
     1
102
RTVSPost2010Prop30
280
     1
102
RTVSPost2010PropOp30
 70
     1
102
RTVSPost2010Prop31
280
     0
102
RTVSPost2010PropOp31
 70
     1
102
RTVSPost2010Prop32
280
     0
102
RTVSPost2010PropOp32
 70
     1
102
RTVSPost2010Prop33
280
     0
102
RTVSPost2010PropOp33
 70
     1
102
RTVSPost2010Prop34
280
     0
102
RTVSPost2010PropOp34
 70
     1
102
RTVSPost2010Prop35
280
     0
102
RTVSPost2010PropOp35
 70
     1
102
RTVSPost2010Prop36
280
     0
102
RTVSPost2010PropOp36
 70
     1
102
RTVSPost2010Prop37
 90
       50
102
RTVSPost2010PropOp37
 70
     1
102
RTVSPost2010Prop38
140
0.0
102
RTVSPost2010PropOp38
 70
     1
102
RTVSPost2010Prop39
140
1.0
102
RTVSPost2010PropOp39
 70
     1
102
RTVSPost2010Prop40
 90
        0
102
RTVSPost2010PropOp40
 70
     1
102
RTVSPost2010Prop41ColorIndex
 90
       18
102
RTVSPost2010Prop41ColorRGB
 90
        0
102
RTVSPost2010PropOp41
 70
     1
102
RTVSPost2010Prop42
 90
       50
102
RTVSPost2010PropOp42
 70
     1
102
RTVSPost2010Prop43
 90
        3
102
RTVSPost2010PropOp43
 70
     1
102
RTVSPost2010Prop44ColorIndex
 90
        5
102
RTVSPost2010Prop44ColorRGB
 90
      255
102
RTVSPost2010PropOp44
 70
     1
102
RTVSPost2010Prop45
280
     0
102
RTVSPost2010PropOp45
 70
     1
102
RTVSPost2010Prop46
 90
       50
102
RTVSPost2010PropOp46
 70
     1
102
RTVSPost2010Prop47
 90
       50
102
RTVSPost2010PropOp47
 70
     1
102
RTVSPost2010Prop48
 90
       50
102
RTVSPost2010PropOp48
 70
     1
102
RTVSPost2010Prop49
280
     0
102
RTVSPost2010PropOp49
 70
     1
102
RTVSPost2010Prop50
 90
       50
102
RTVSPost2010PropOp50
 70
     1
102
RTVSPost2010Prop51ColorIndex
 90
      256
102
RTVSPost2010Prop51ColorRGB
 90
-16777216
102
RTVSPost2010PropOp51
 70
     0
102
RTVSPost2010Prop52
140
1.0
102
RTVSPost2010PropOp52
 70
     0
102
RTVSPost2010Prop53
 90
        2
102
RTVSPost2010PropOp53
 70
     1
102
RTVSPost2010Prop54
  1
strokes_ogs.tif
102
RTVSPost2010PropOp54
 70
     1
102
RTVSPost2010Prop55
280
     0
102
RTVSPost2010PropOp55
 70
     1
102
RTVSPost2010Prop56
140
1.0
102
RTVSPost2010PropOp56
 70
     1
102
RTVSPost2010Prop57
140
1.0
102
RTVSPost2010PropOp57
 70
     1
102
RTVSPropertyOp0
 70
     1
102
RTVSPropertyOp1
 70
     1
102
RTVSPropertyOp2
 70
     1
102
RTVSPropertyOp3
 70
     1
102
RTVSPropertyOp4
 70
     1
102
RTVSPropertyOp5
 70
     1
102
RTVSPropertyOp6
 70
     1
102
RTVSPropertyOp7
 70
     1
102
RTVSPropertyOp8
 70
     1
102
RTVSPropertyOp9
 70
     1
102
RTVSPropertyOp10
 70
     1
102
RTVSPropertyOp11
 70
     1
102
RTVSPropertyOp12
 70
     1
102
RTVSPropertyOp13
 70
     1
102
RTVSPropertyOp14
 70
     1
102
RTVSPropertyOp15
 70
     1
102
RTVSPropertyOp16
 70
     1
102
RTVSPropertyOp17
 70
     1
102
RTVSPropertyOp18
 70
     1
102
RTVSPropertyOp19
 70
     1
102
RTVSPropertyOp20
 70
     1
102
RTVSPropertyOp21
 70
     1
102
RTVSPropertyOp22
 70
     1
102
RTVSPropertyOp23
 70
     1
102
RTVSPropertyOp24
 70
     1
102
RTVSPropertyOp25
 70
     1
102
RTVSPropertyOp26
 70
     1
102
RTVSPropertyOp27
 70
     1
102
RTVSPropertyOp28
 70
     1
102
RTVSPropertyOp29
 70
     1
102
RTVSPropertyOp30
 70
     1
102
RTVSPropertyOp31
 70
     1
102
RTVSPropertyOp32
 70
     1
102
RTVSPropertyOp33
 70
     1
102
RTVSPropertyOp34
 70
     1
102
RTVSPropertyOp35
 70
     1
102
RTVSPropertyOp36
 70
     1
102
RTVSPropertyOp37
 70
     1
102
RTVSPropertyOp38
 70
     1
102
RTVSPropertyOp39
 70
     1
102
RTVSPropertyOp40
 70
     1
102
RTVSPropertyOp41
 70
     1
102
RTVSPropertyOp42
 70
     1
102
RTVSPropertyOp43
 70
     1
102
RTVSPropertyOp44
 70
     1
102
RTVSPropertyOp45
 70
     1
102
RTVSPropertyOp46
 70
     1
102
RTVSPropertyOp47
 70
     1
102
RTVSPropertyOp48
 70
     1
102
RTVSPropertyOp49
 70
     1
102
RTVSPropertyOp50
 70
     1
102
RTVSPropertyOp51
 70
     0
102
RTVSPropertyOp52
 70
     0
102
RTVSPropertyOp53
 70
     1
102
RTVSPropertyOp54
 70
     1
102
RTVSPropertyOp55
 70
     1
102
RTVSPropertyOp56
 70
     1
102
RTVSPropertyOp57
 70
     1
102
RTVSPropertyOp58
 70
     1
102
RTVSPropertyOp59
 70
     1
102
RTVSPropertyOp60
 70
     1
102
RTVSPropertyOp61
 70
     1
102
RTVSPropertyOp62
 70
     1
  0
XRECORD
  5
1BCC
102
{ACAD_REACTORS
330
1BCB
102
}
330
1BCB
100
AcDbXrecord
280
     1
102
RTVSPost2010Prop28
280
     0
102
RTVSPost2010PropOp28
 70
     1
102
RTVSPost2010Prop29
280
     1
102
RTVSPost2010PropOp29
 70
     1
102
RTVSPost2010Prop30
280
     1
102
RTVSPost2010PropOp30
 70
     1
102
RTVSPost2010Prop31
280
     0
102
RTVSPost2010PropOp31
 70
     1
102
RTVSPost2010Prop32
280
     0
102
RTVSPost2010PropOp32
 70
     1
102
RTVSPost2010Prop33
280
     0
102
RTVSPost2010PropOp33
 70
     1
102
RTVSPost2010Prop34
280
     0
102
RTVSPost2010PropOp34
 70
     1
102
RTVSPost2010Prop35
280
     0
102
RTVSPost2010PropOp35
 70
     1
102
RTVSPost2010Prop36
280
     0
102
RTVSPost2010PropOp36
 70
     1
102
RTVSPost2010Prop37
 90
       50
102
RTVSPost2010PropOp37
 70
     1
102
RTVSPost2010Prop38
140
0.0
102
RTVSPost2010PropOp38
 70
     1
102
RTVSPost2010Prop39
140
1.0
102
RTVSPost2010PropOp39
 70
     1
102
RTVSPost2010Prop40
 90
        0
102
RTVSPost2010PropOp40
 70
     1
102
RTVSPost2010Prop41ColorIndex
 90
       18
102
RTVSPost2010Prop41ColorRGB
 90
        0
102
RTVSPost2010PropOp41
 70
     1
102
RTVSPost2010Prop42
 90
       50
102
RTVSPost2010PropOp42
 70
     1
102
RTVSPost2010Prop43
 90
        3
102
RTVSPost2010PropOp43
 70
     1
102
RTVSPost2010Prop44ColorIndex
 90
        5
102
RTVSPost2010Prop44ColorRGB
 90
      255
102
RTVSPost2010PropOp44
 70
     1
102
RTVSPost2010Prop45
280
     0
102
RTVSPost2010PropOp45
 70
     1
102
RTVSPost2010Prop46
 90
       50
102
RTVSPost2010PropOp46
 70
     1
102
RTVSPost2010Prop47
 90
       50
102
RTVSPost2010PropOp47
 70
     1
102
RTVSPost2010Prop48
 90
       50
102
RTVSPost2010PropOp48
 70
     1
102
RTVSPost2010Prop49
280
     0
102
RTVSPost2010PropOp49
 70
     1
102
RTVSPost2010Prop50
 90
       50
102
RTVSPost2010PropOp50
 70
     1
102
RTVSPost2010Prop51ColorIndex
 90
      256
102
RTVSPost2010Prop51ColorRGB
 90
-16777216
102
RTVSPost2010PropOp51
 70
     0
102
RTVSPost2010Prop52
140
1.0
102
RTVSPost2010PropOp52
 70
     0
102
RTVSPost2010Prop53
 90
        2
102
RTVSPost2010PropOp53
 70
     1
102
RTVSPost2010Prop54
  1
strokes_ogs.tif
102
RTVSPost2010PropOp54
 70
     1
102
RTVSPost2010Prop55
280
     0
102
RTVSPost2010PropOp55
 70
     1
102
RTVSPost2010Prop56
140
1.0
102
RTVSPost2010PropOp56
 70
     1
102
RTVSPost2010Prop57
140
1.0
102
RTVSPost2010PropOp57
 70
     1
102
RTVSPropertyOp0
 70
     1
102
RTVSPropertyOp1
 70
     1
102
RTVSPropertyOp2
 70
     1
102
RTVSPropertyOp3
 70
     1
102
RTVSPropertyOp4
 70
     1
102
RTVSPropertyOp5
 70
     1
102
RTVSPropertyOp6
 70
     1
102
RTVSPropertyOp7
 70
     1
102
RTVSPropertyOp8
 70
     1
102
RTVSPropertyOp9
 70
     1
102
RTVSPropertyOp10
 70
     1
102
RTVSPropertyOp11
 70
     1
102
RTVSPropertyOp12
 70
     1
102
RTVSPropertyOp13
 70
     1
102
RTVSPropertyOp14
 70
     1
102
RTVSPropertyOp15
 70
     1
102
RTVSPropertyOp16
 70
     1
102
RTVSPropertyOp17
 70
     1
102
RTVSPropertyOp18
 70
     1
102
RTVSPropertyOp19
 70
     1
102
RTVSPropertyOp20
 70
     1
102
RTVSPropertyOp21
 70
     1
102
RTVSPropertyOp22
 70
     1
102
RTVSPropertyOp23
 70
     1
102
RTVSPropertyOp24
 70
     1
102
RTVSPropertyOp25
 70
     1
102
RTVSPropertyOp26
 70
     1
102
RTVSPropertyOp27
 70
     1
102
RTVSPropertyOp28
 70
     1
102
RTVSPropertyOp29
 70
     1
102
RTVSPropertyOp30
 70
     1
102
RTVSPropertyOp31
 70
     1
102
RTVSPropertyOp32
 70
     1
102
RTVSPropertyOp33
 70
     1
102
RTVSPropertyOp34
 70
     1
102
RTVSPropertyOp35
 70
     1
102
RTVSPropertyOp36
 70
     1
102
RTVSPropertyOp37
 70
     1
102
RTVSPropertyOp38
 70
     1
102
RTVSPropertyOp39
 70
     1
102
RTVSPropertyOp40
 70
     1
102
RTVSPropertyOp41
 70
     1
102
RTVSPropertyOp42
 70
     1
102
RTVSPropertyOp43
 70
     1
102
RTVSPropertyOp44
 70
     1
102
RTVSPropertyOp45
 70
     1
102
RTVSPropertyOp46
 70
     1
102
RTVSPropertyOp47
 70
     1
102
RTVSPropertyOp48
 70
     1
102
RTVSPropertyOp49
 70
     1
102
RTVSPropertyOp50
 70
     1
102
RTVSPropertyOp51
 70
     0
102
RTVSPropertyOp52
 70
     0
102
RTVSPropertyOp53
 70
     1
102
RTVSPropertyOp54
 70
     1
102
RTVSPropertyOp55
 70
     1
102
RTVSPropertyOp56
 70
     1
102
RTVSPropertyOp57
 70
     1
102
RTVSPropertyOp58
 70
     1
102
RTVSPropertyOp59
 70
     1
102
RTVSPropertyOp60
 70
     1
102
RTVSPropertyOp61
 70
     1
102
RTVSPropertyOp62
 70
     1
  0
XRECORD
  5
1BCE
102
{ACAD_REACTORS
330
1BCD
102
}
330
1BCD
100
AcDbXrecord
280
     1
102
RTVSPost2010Prop28
280
     0
102
RTVSPost2010PropOp28
 70
     1
102
RTVSPost2010Prop29
280
     1
102
RTVSPost2010PropOp29
 70
     1
102
RTVSPost2010Prop30
280
     1
102
RTVSPost2010PropOp30
 70
     1
102
RTVSPost2010Prop31
280
     0
102
RTVSPost2010PropOp31
 70
     1
102
RTVSPost2010Prop32
280
     0
102
RTVSPost2010PropOp32
 70
     1
102
RTVSPost2010Prop33
280
     0
102
RTVSPost2010PropOp33
 70
     1
102
RTVSPost2010Prop34
280
     0
102
RTVSPost2010PropOp34
 70
     1
102
RTVSPost2010Prop35
280
     0
102
RTVSPost2010PropOp35
 70
     1
102
RTVSPost2010Prop36
280
     0
102
RTVSPost2010PropOp36
 70
     1
102
RTVSPost2010Prop37
 90
       50
102
RTVSPost2010PropOp37
 70
     1
102
RTVSPost2010Prop38
140
0.0
102
RTVSPost2010PropOp38
 70
     1
102
RTVSPost2010Prop39
140
1.0
102
RTVSPost2010PropOp39
 70
     1
102
RTVSPost2010Prop40
 90
        0
102
RTVSPost2010PropOp40
 70
     1
102
RTVSPost2010Prop41ColorIndex
 90
       18
102
RTVSPost2010Prop41ColorRGB
 90
        0
102
RTVSPost2010PropOp41
 70
     1
102
RTVSPost2010Prop42
 90
       50
102
RTVSPost2010PropOp42
 70
     1
102
RTVSPost2010Prop43
 90
        3
102
RTVSPost2010PropOp43
 70
     1
102
RTVSPost2010Prop44ColorIndex
 90
        5
102
RTVSPost2010Prop44ColorRGB
 90
      255
102
RTVSPost2010PropOp44
 70
     1
102
RTVSPost2010Prop45
280
     0
102
RTVSPost2010PropOp45
 70
     1
102
RTVSPost2010Prop46
 90
       50
102
RTVSPost2010PropOp46
 70
     1
102
RTVSPost2010Prop47
 90
       50
102
RTVSPost2010PropOp47
 70
     1
102
RTVSPost2010Prop48
 90
       50
102
RTVSPost2010PropOp48
 70
     1
102
RTVSPost2010Prop49
280
     0
102
RTVSPost2010PropOp49
 70
     1
102
RTVSPost2010Prop50
 90
       50
102
RTVSPost2010PropOp50
 70
     1
102
RTVSPost2010Prop51ColorIndex
 90
      256
102
RTVSPost2010Prop51ColorRGB
 90
-16777216
102
RTVSPost2010PropOp51
 70
     0
102
RTVSPost2010Prop52
140
1.0
102
RTVSPost2010PropOp52
 70
     0
102
RTVSPost2010Prop53
 90
        2
102
RTVSPost2010PropOp53
 70
     1
102
RTVSPost2010Prop54
  1
strokes_ogs.tif
102
RTVSPost2010PropOp54
 70
     1
102
RTVSPost2010Prop55
280
     0
102
RTVSPost2010PropOp55
 70
     1
102
RTVSPost2010Prop56
140
1.0
102
RTVSPost2010PropOp56
 70
     1
102
RTVSPost2010Prop57
140
1.0
102
RTVSPost2010PropOp57
 70
     1
102
RTVSPropertyOp0
 70
     1
102
RTVSPropertyOp1
 70
     1
102
RTVSPropertyOp2
 70
     1
102
RTVSPropertyOp3
 70
     1
102
RTVSPropertyOp4
 70
     1
102
RTVSPropertyOp5
 70
     1
102
RTVSPropertyOp6
 70
     1
102
RTVSPropertyOp7
 70
     1
102
RTVSPropertyOp8
 70
     1
102
RTVSPropertyOp9
 70
     1
102
RTVSPropertyOp10
 70
     1
102
RTVSPropertyOp11
 70
     1
102
RTVSPropertyOp12
 70
     1
102
RTVSPropertyOp13
 70
     1
102
RTVSPropertyOp14
 70
     1
102
RTVSPropertyOp15
 70
     1
102
RTVSPropertyOp16
 70
     1
102
RTVSPropertyOp17
 70
     1
102
RTVSPropertyOp18
 70
     1
102
RTVSPropertyOp19
 70
     1
102
RTVSPropertyOp20
 70
     1
102
RTVSPropertyOp21
 70
     1
102
RTVSPropertyOp22
 70
     1
102
RTVSPropertyOp23
 70
     1
102
RTVSPropertyOp24
 70
     1
102
RTVSPropertyOp25
 70
     1
102
RTVSPropertyOp26
 70
     1
102
RTVSPropertyOp27
 70
     1
102
RTVSPropertyOp28
 70
     1
102
RTVSPropertyOp29
 70
     1
102
RTVSPropertyOp30
 70
     1
102
RTVSPropertyOp31
 70
     1
102
RTVSPropertyOp32
 70
     1
102
RTVSPropertyOp33
 70
     1
102
RTVSPropertyOp34
 70
     1
102
RTVSPropertyOp35
 70
     1
102
RTVSPropertyOp36
 70
     1
102
RTVSPropertyOp37
 70
     1
102
RTVSPropertyOp38
 70
     1
102
RTVSPropertyOp39
 70
     1
102
RTVSPropertyOp40
 70
     1
102
RTVSPropertyOp41
 70
     1
102
RTVSPropertyOp42
 70
     1
102
RTVSPropertyOp43
 70
     1
102
RTVSPropertyOp44
 70
     1
102
RTVSPropertyOp45
 70
     1
102
RTVSPropertyOp46
 70
     1
102
RTVSPropertyOp47
 70
     1
102
RTVSPropertyOp48
 70
     1
102
RTVSPropertyOp49
 70
     1
102
RTVSPropertyOp50
 70
     1
102
RTVSPropertyOp51
 70
     0
102
RTVSPropertyOp52
 70
     0
102
RTVSPropertyOp53
 70
     1
102
RTVSPropertyOp54
 70
     1
102
RTVSPropertyOp55
 70
     1
102
RTVSPropertyOp56
 70
     1
102
RTVSPropertyOp57
 70
     1
102
RTVSPropertyOp58
 70
     1
102
RTVSPropertyOp59
 70
     1
102
RTVSPropertyOp60
 70
     1
102
RTVSPropertyOp61
 70
     1
102
RTVSPropertyOp62
 70
     1
  0
XRECORD
  5
1BD0
102
{ACAD_REACTORS
330
1BCF
102
}
330
1BCF
100
AcDbXrecord
280
     1
102
RTVSPost2010Prop28
280
     0
102
RTVSPost2010PropOp28
 70
     1
102
RTVSPost2010Prop29
280
     1
102
RTVSPost2010PropOp29
 70
     1
102
RTVSPost2010Prop30
280
     1
102
RTVSPost2010PropOp30
 70
     1
102
RTVSPost2010Prop31
280
     0
102
RTVSPost2010PropOp31
 70
     1
102
RTVSPost2010Prop32
280
     0
102
RTVSPost2010PropOp32
 70
     1
102
RTVSPost2010Prop33
280
     0
102
RTVSPost2010PropOp33
 70
     1
102
RTVSPost2010Prop34
280
     0
102
RTVSPost2010PropOp34
 70
     1
102
RTVSPost2010Prop35
280
     0
102
RTVSPost2010PropOp35
 70
     1
102
RTVSPost2010Prop36
280
     0
102
RTVSPost2010PropOp36
 70
     1
102
RTVSPost2010Prop37
 90
       50
102
RTVSPost2010PropOp37
 70
     1
102
RTVSPost2010Prop38
140
0.0
102
RTVSPost2010PropOp38
 70
     1
102
RTVSPost2010Prop39
140
1.0
102
RTVSPost2010PropOp39
 70
     1
102
RTVSPost2010Prop40
 90
        0
102
RTVSPost2010PropOp40
 70
     1
102
RTVSPost2010Prop41ColorIndex
 90
       18
102
RTVSPost2010Prop41ColorRGB
 90
        0
102
RTVSPost2010PropOp41
 70
     1
102
RTVSPost2010Prop42
 90
       50
102
RTVSPost2010PropOp42
 70
     1
102
RTVSPost2010Prop43
 90
        3
102
RTVSPost2010PropOp43
 70
     1
102
RTVSPost2010Prop44ColorIndex
 90
        5
102
RTVSPost2010Prop44ColorRGB
 90
      255
102
RTVSPost2010PropOp44
 70
     1
102
RTVSPost2010Prop45
280
     0
102
RTVSPost2010PropOp45
 70
     1
102
RTVSPost2010Prop46
 90
       50
102
RTVSPost2010PropOp46
 70
     1
102
RTVSPost2010Prop47
 90
       50
102
RTVSPost2010PropOp47
 70
     1
102
RTVSPost2010Prop48
 90
       50
102
RTVSPost2010PropOp48
 70
     1
102
RTVSPost2010Prop49
280
     0
102
RTVSPost2010PropOp49
 70
     1
102
RTVSPost2010Prop50
 90
       50
102
RTVSPost2010PropOp50
 70
     1
102
RTVSPost2010Prop51ColorIndex
 90
      256
102
RTVSPost2010Prop51ColorRGB
 90
-16777216
102
RTVSPost2010PropOp51
 70
     0
102
RTVSPost2010Prop52
140
1.0
102
RTVSPost2010PropOp52
 70
     0
102
RTVSPost2010Prop53
 90
        2
102
RTVSPost2010PropOp53
 70
     1
102
RTVSPost2010Prop54
  1
strokes_ogs.tif
102
RTVSPost2010PropOp54
 70
     1
102
RTVSPost2010Prop55
280
     0
102
RTVSPost2010PropOp55
 70
     1
102
RTVSPost2010Prop56
140
1.0
102
RTVSPost2010PropOp56
 70
     1
102
RTVSPost2010Prop57
140
1.0
102
RTVSPost2010PropOp57
 70
     1
102
RTVSPropertyOp0
 70
     1
102
RTVSPropertyOp1
 70
     1
102
RTVSPropertyOp2
 70
     1
102
RTVSPropertyOp3
 70
     1
102
RTVSPropertyOp4
 70
     1
102
RTVSPropertyOp5
 70
     1
102
RTVSPropertyOp6
 70
     1
102
RTVSPropertyOp7
 70
     1
102
RTVSPropertyOp8
 70
     1
102
RTVSPropertyOp9
 70
     1
102
RTVSPropertyOp10
 70
     1
102
RTVSPropertyOp11
 70
     1
102
RTVSPropertyOp12
 70
     1
102
RTVSPropertyOp13
 70
     1
102
RTVSPropertyOp14
 70
     1
102
RTVSPropertyOp15
 70
     1
102
RTVSPropertyOp16
 70
     1
102
RTVSPropertyOp17
 70
     1
102
RTVSPropertyOp18
 70
     1
102
RTVSPropertyOp19
 70
     1
102
RTVSPropertyOp20
 70
     1
102
RTVSPropertyOp21
 70
     1
102
RTVSPropertyOp22
 70
     1
102
RTVSPropertyOp23
 70
     1
102
RTVSPropertyOp24
 70
     1
102
RTVSPropertyOp25
 70
     1
102
RTVSPropertyOp26
 70
     1
102
RTVSPropertyOp27
 70
     1
102
RTVSPropertyOp28
 70
     1
102
RTVSPropertyOp29
 70
     1
102
RTVSPropertyOp30
 70
     1
102
RTVSPropertyOp31
 70
     1
102
RTVSPropertyOp32
 70
     1
102
RTVSPropertyOp33
 70
     1
102
RTVSPropertyOp34
 70
     1
102
RTVSPropertyOp35
 70
     1
102
RTVSPropertyOp36
 70
     1
102
RTVSPropertyOp37
 70
     1
102
RTVSPropertyOp38
 70
     1
102
RTVSPropertyOp39
 70
     1
102
RTVSPropertyOp40
 70
     1
102
RTVSPropertyOp41
 70
     1
102
RTVSPropertyOp42
 70
     1
102
RTVSPropertyOp43
 70
     1
102
RTVSPropertyOp44
 70
     1
102
RTVSPropertyOp45
 70
     1
102
RTVSPropertyOp46
 70
     1
102
RTVSPropertyOp47
 70
     1
102
RTVSPropertyOp48
 70
     1
102
RTVSPropertyOp49
 70
     1
102
RTVSPropertyOp50
 70
     1
102
RTVSPropertyOp51
 70
     0
102
RTVSPropertyOp52
 70
     0
102
RTVSPropertyOp53
 70
     1
102
RTVSPropertyOp54
 70
     1
102
RTVSPropertyOp55
 70
     1
102
RTVSPropertyOp56
 70
     1
102
RTVSPropertyOp57
 70
     1
102
RTVSPropertyOp58
 70
     1
102
RTVSPropertyOp59
 70
     1
102
RTVSPropertyOp60
 70
     1
102
RTVSPropertyOp61
 70
     1
102
RTVSPropertyOp62
 70
     1
  0
XRECORD
  5
1BD2
102
{ACAD_REACTORS
330
1BD1
102
}
330
1BD1
100
AcDbXrecord
280
     1
102
RTVSPost2010Prop28
280
     0
102
RTVSPost2010PropOp28
 70
     1
102
RTVSPost2010Prop29
280
     1
102
RTVSPost2010PropOp29
 70
     1
102
RTVSPost2010Prop30
280
     1
102
RTVSPost2010PropOp30
 70
     1
102
RTVSPost2010Prop31
280
     0
102
RTVSPost2010PropOp31
 70
     1
102
RTVSPost2010Prop32
280
     0
102
RTVSPost2010PropOp32
 70
     1
102
RTVSPost2010Prop33
280
     0
102
RTVSPost2010PropOp33
 70
     1
102
RTVSPost2010Prop34
280
     0
102
RTVSPost2010PropOp34
 70
     1
102
RTVSPost2010Prop35
280
     0
102
RTVSPost2010PropOp35
 70
     1
102
RTVSPost2010Prop36
280
     0
102
RTVSPost2010PropOp36
 70
     1
102
RTVSPost2010Prop37
 90
       50
102
RTVSPost2010PropOp37
 70
     1
102
RTVSPost2010Prop38
140
0.0
102
RTVSPost2010PropOp38
 70
     1
102
RTVSPost2010Prop39
140
1.0
102
RTVSPost2010PropOp39
 70
     1
102
RTVSPost2010Prop40
 90
        0
102
RTVSPost2010PropOp40
 70
     1
102
RTVSPost2010Prop41ColorIndex
 90
       18
102
RTVSPost2010Prop41ColorRGB
 90
        0
102
RTVSPost2010PropOp41
 70
     1
102
RTVSPost2010Prop42
 90
       50
102
RTVSPost2010PropOp42
 70
     1
102
RTVSPost2010Prop43
 90
        3
102
RTVSPost2010PropOp43
 70
     1
102
RTVSPost2010Prop44ColorIndex
 90
        5
102
RTVSPost2010Prop44ColorRGB
 90
      255
102
RTVSPost2010PropOp44
 70
     1
102
RTVSPost2010Prop45
280
     0
102
RTVSPost2010PropOp45
 70
     1
102
RTVSPost2010Prop46
 90
       50
102
RTVSPost2010PropOp46
 70
     1
102
RTVSPost2010Prop47
 90
       50
102
RTVSPost2010PropOp47
 70
     1
102
RTVSPost2010Prop48
 90
       50
102
RTVSPost2010PropOp48
 70
     1
102
RTVSPost2010Prop49
280
     0
102
RTVSPost2010PropOp49
 70
     1
102
RTVSPost2010Prop50
 90
       50
102
RTVSPost2010PropOp50
 70
     1
102
RTVSPost2010Prop51ColorIndex
 90
      256
102
RTVSPost2010Prop51ColorRGB
 90
-16777216
102
RTVSPost2010PropOp51
 70
     0
102
RTVSPost2010Prop52
140
1.0
102
RTVSPost2010PropOp52
 70
     0
102
RTVSPost2010Prop53
 90
        2
102
RTVSPost2010PropOp53
 70
     1
102
RTVSPost2010Prop54
  1
strokes_ogs.tif
102
RTVSPost2010PropOp54
 70
     1
102
RTVSPost2010Prop55
280
     0
102
RTVSPost2010PropOp55
 70
     1
102
RTVSPost2010Prop56
140
1.0
102
RTVSPost2010PropOp56
 70
     1
102
RTVSPost2010Prop57
140
1.0
102
RTVSPost2010PropOp57
 70
     1
102
RTVSPropertyOp0
 70
     1
102
RTVSPropertyOp1
 70
     1
102
RTVSPropertyOp2
 70
     1
102
RTVSPropertyOp3
 70
     1
102
RTVSPropertyOp4
 70
     1
102
RTVSPropertyOp5
 70
     1
102
RTVSPropertyOp6
 70
     1
102
RTVSPropertyOp7
 70
     1
102
RTVSPropertyOp8
 70
     1
102
RTVSPropertyOp9
 70
     1
102
RTVSPropertyOp10
 70
     1
102
RTVSPropertyOp11
 70
     1
102
RTVSPropertyOp12
 70
     1
102
RTVSPropertyOp13
 70
     1
102
RTVSPropertyOp14
 70
     1
102
RTVSPropertyOp15
 70
     1
102
RTVSPropertyOp16
 70
     1
102
RTVSPropertyOp17
 70
     1
102
RTVSPropertyOp18
 70
     1
102
RTVSPropertyOp19
 70
     1
102
RTVSPropertyOp20
 70
     1
102
RTVSPropertyOp21
 70
     1
102
RTVSPropertyOp22
 70
     1
102
RTVSPropertyOp23
 70
     1
102
RTVSPropertyOp24
 70
     1
102
RTVSPropertyOp25
 70
     1
102
RTVSPropertyOp26
 70
     1
102
RTVSPropertyOp27
 70
     1
102
RTVSPropertyOp28
 70
     1
102
RTVSPropertyOp29
 70
     1
102
RTVSPropertyOp30
 70
     1
102
RTVSPropertyOp31
 70
     1
102
RTVSPropertyOp32
 70
     1
102
RTVSPropertyOp33
 70
     1
102
RTVSPropertyOp34
 70
     1
102
RTVSPropertyOp35
 70
     1
102
RTVSPropertyOp36
 70
     1
102
RTVSPropertyOp37
 70
     1
102
RTVSPropertyOp38
 70
     1
102
RTVSPropertyOp39
 70
     1
102
RTVSPropertyOp40
 70
     1
102
RTVSPropertyOp41
 70
     1
102
RTVSPropertyOp42
 70
     1
102
RTVSPropertyOp43
 70
     1
102
RTVSPropertyOp44
 70
     1
102
RTVSPropertyOp45
 70
     1
102
RTVSPropertyOp46
 70
     1
102
RTVSPropertyOp47
 70
     1
102
RTVSPropertyOp48
 70
     1
102
RTVSPropertyOp49
 70
     1
102
RTVSPropertyOp50
 70
     1
102
RTVSPropertyOp51
 70
     0
102
RTVSPropertyOp52
 70
     0
102
RTVSPropertyOp53
 70
     1
102
RTVSPropertyOp54
 70
     1
102
RTVSPropertyOp55
 70
     1
102
RTVSPropertyOp56
 70
     1
102
RTVSPropertyOp57
 70
     1
102
RTVSPropertyOp58
 70
     1
102
RTVSPropertyOp59
 70
     1
102
RTVSPropertyOp60
 70
     1
102
RTVSPropertyOp61
 70
     1
102
RTVSPropertyOp62
 70
     1
  0
XRECORD
  5
1BFE
102
{ACAD_REACTORS
330
1BFD
102
}
330
1BFD
100
AcDbXrecord
280
     1
102
RTVSPost2010Prop28
280
     0
102
RTVSPost2010PropOp28
 70
     1
102
RTVSPost2010Prop29
280
     1
102
RTVSPost2010PropOp29
 70
     1
102
RTVSPost2010Prop30
280
     1
102
RTVSPost2010PropOp30
 70
     1
102
RTVSPost2010Prop31
280
     0
102
RTVSPost2010PropOp31
 70
     1
102
RTVSPost2010Prop32
280
     0
102
RTVSPost2010PropOp32
 70
     1
102
RTVSPost2010Prop33
280
     0
102
RTVSPost2010PropOp33
 70
     1
102
RTVSPost2010Prop34
280
     0
102
RTVSPost2010PropOp34
 70
     1
102
RTVSPost2010Prop35
280
     0
102
RTVSPost2010PropOp35
 70
     1
102
RTVSPost2010Prop36
280
     0
102
RTVSPost2010PropOp36
 70
     1
102
RTVSPost2010Prop37
 90
       50
102
RTVSPost2010PropOp37
 70
     1
102
RTVSPost2010Prop38
140
0.0
102
RTVSPost2010PropOp38
 70
     1
102
RTVSPost2010Prop39
140
1.0
102
RTVSPost2010PropOp39
 70
     1
102
RTVSPost2010Prop40
 90
        0
102
RTVSPost2010PropOp40
 70
     1
102
RTVSPost2010Prop41ColorIndex
 90
       18
102
RTVSPost2010Prop41ColorRGB
 90
        0
102
RTVSPost2010PropOp41
 70
     1
102
RTVSPost2010Prop42
 90
       50
102
RTVSPost2010PropOp42
 70
     1
102
RTVSPost2010Prop43
 90
        3
102
RTVSPost2010PropOp43
 70
     1
102
RTVSPost2010Prop44ColorIndex
 90
        5
102
RTVSPost2010Prop44ColorRGB
 90
      255
102
RTVSPost2010PropOp44
 70
     1
102
RTVSPost2010Prop45
280
     0
102
RTVSPost2010PropOp45
 70
     1
102
RTVSPost2010Prop46
 90
       50
102
RTVSPost2010PropOp46
 70
     1
102
RTVSPost2010Prop47
 90
       50
102
RTVSPost2010PropOp47
 70
     1
102
RTVSPost2010Prop48
 90
       50
102
RTVSPost2010PropOp48
 70
     1
102
RTVSPost2010Prop49
280
     0
102
RTVSPost2010PropOp49
 70
     1
102
RTVSPost2010Prop50
 90
       50
102
RTVSPost2010PropOp50
 70
     1
102
RTVSPost2010Prop51ColorIndex
 90
      256
102
RTVSPost2010Prop51ColorRGB
 90
-16777216
102
RTVSPost2010PropOp51
 70
     0
102
RTVSPost2010Prop52
140
1.0
102
RTVSPost2010PropOp52
 70
     0
102
RTVSPost2010Prop53
 90
        2
102
RTVSPost2010PropOp53
 70
     1
102
RTVSPost2010Prop54
  1
strokes_ogs.tif
102
RTVSPost2010PropOp54
 70
     1
102
RTVSPost2010Prop55
280
     0
102
RTVSPost2010PropOp55
 70
     1
102
RTVSPost2010Prop56
140
1.0
102
RTVSPost2010PropOp56
 70
     1
102
RTVSPost2010Prop57
140
1.0
102
RTVSPost2010PropOp57
 70
     1
102
RTVSPropertyOp0
 70
     1
102
RTVSPropertyOp1
 70
     1
102
RTVSPropertyOp2
 70
     1
102
RTVSPropertyOp3
 70
     1
102
RTVSPropertyOp4
 70
     1
102
RTVSPropertyOp5
 70
     1
102
RTVSPropertyOp6
 70
     1
102
RTVSPropertyOp7
 70
     1
102
RTVSPropertyOp8
 70
     1
102
RTVSPropertyOp9
 70
     1
102
RTVSPropertyOp10
 70
     1
102
RTVSPropertyOp11
 70
     1
102
RTVSPropertyOp12
 70
     1
102
RTVSPropertyOp13
 70
     1
102
RTVSPropertyOp14
 70
     1
102
RTVSPropertyOp15
 70
     1
102
RTVSPropertyOp16
 70
     1
102
RTVSPropertyOp17
 70
     1
102
RTVSPropertyOp18
 70
     1
102
RTVSPropertyOp19
 70
     1
102
RTVSPropertyOp20
 70
     1
102
RTVSPropertyOp21
 70
     1
102
RTVSPropertyOp22
 70
     1
102
RTVSPropertyOp23
 70
     1
102
RTVSPropertyOp24
 70
     1
102
RTVSPropertyOp25
 70
     1
102
RTVSPropertyOp26
 70
     1
102
RTVSPropertyOp27
 70
     1
102
RTVSPropertyOp28
 70
     1
102
RTVSPropertyOp29
 70
     1
102
RTVSPropertyOp30
 70
     1
102
RTVSPropertyOp31
 70
     1
102
RTVSPropertyOp32
 70
     1
102
RTVSPropertyOp33
 70
     1
102
RTVSPropertyOp34
 70
     1
102
RTVSPropertyOp35
 70
     1
102
RTVSPropertyOp36
 70
     1
102
RTVSPropertyOp37
 70
     1
102
RTVSPropertyOp38
 70
     1
102
RTVSPropertyOp39
 70
     1
102
RTVSPropertyOp40
 70
     1
102
RTVSPropertyOp41
 70
     1
102
RTVSPropertyOp42
 70
     1
102
RTVSPropertyOp43
 70
     1
102
RTVSPropertyOp44
 70
     1
102
RTVSPropertyOp45
 70
     1
102
RTVSPropertyOp46
 70
     1
102
RTVSPropertyOp47
 70
     1
102
RTVSPropertyOp48
 70
     1
102
RTVSPropertyOp49
 70
     1
102
RTVSPropertyOp50
 70
     1
102
RTVSPropertyOp51
 70
     0
102
RTVSPropertyOp52
 70
     0
102
RTVSPropertyOp53
 70
     1
102
RTVSPropertyOp54
 70
     1
102
RTVSPropertyOp55
 70
     1
102
RTVSPropertyOp56
 70
     1
102
RTVSPropertyOp57
 70
     1
102
RTVSPropertyOp58
 70
     1
102
RTVSPropertyOp59
 70
     1
102
RTVSPropertyOp60
 70
     1
102
RTVSPropertyOp61
 70
     1
102
RTVSPropertyOp62
 70
     1
  0
XRECORD
  5
1BF6
102
{ACAD_REACTORS
330
1BF5
102
}
330
1BF5
100
AcDbXrecord
280
     1
102
RTVSPost2010Prop28
280
     0
102
RTVSPost2010PropOp28
 70
     1
102
RTVSPost2010Prop29
280
     1
102
RTVSPost2010PropOp29
 70
     1
102
RTVSPost2010Prop30
280
     1
102
RTVSPost2010PropOp30
 70
     1
102
RTVSPost2010Prop31
280
     0
102
RTVSPost2010PropOp31
 70
     1
102
RTVSPost2010Prop32
280
     0
102
RTVSPost2010PropOp32
 70
     1
102
RTVSPost2010Prop33
280
     0
102
RTVSPost2010PropOp33
 70
     1
102
RTVSPost2010Prop34
280
     0
102
RTVSPost2010PropOp34
 70
     1
102
RTVSPost2010Prop35
280
     0
102
RTVSPost2010PropOp35
 70
     1
102
RTVSPost2010Prop36
280
     0
102
RTVSPost2010PropOp36
 70
     1
102
RTVSPost2010Prop37
 90
       50
102
RTVSPost2010PropOp37
 70
     1
102
RTVSPost2010Prop38
140
0.0
102
RTVSPost2010PropOp38
 70
     1
102
RTVSPost2010Prop39
140
1.0
102
RTVSPost2010PropOp39
 70
     1
102
RTVSPost2010Prop40
 90
        0
102
RTVSPost2010PropOp40
 70
     1
102
RTVSPost2010Prop41ColorIndex
 90
       18
102
RTVSPost2010Prop41ColorRGB
 90
        0
102
RTVSPost2010PropOp41
 70
     1
102
RTVSPost2010Prop42
 90
       50
102
RTVSPost2010PropOp42
 70
     1
102
RTVSPost2010Prop43
 90
        3
102
RTVSPost2010PropOp43
 70
     1
102
RTVSPost2010Prop44ColorIndex
 90
        5
102
RTVSPost2010Prop44ColorRGB
 90
      255
102
RTVSPost2010PropOp44
 70
     1
102
RTVSPost2010Prop45
280
     0
102
RTVSPost2010PropOp45
 70
     1
102
RTVSPost2010Prop46
 90
       50
102
RTVSPost2010PropOp46
 70
     1
102
RTVSPost2010Prop47
 90
       50
102
RTVSPost2010PropOp47
 70
     1
102
RTVSPost2010Prop48
 90
       50
102
RTVSPost2010PropOp48
 70
     1
102
RTVSPost2010Prop49
280
     0
102
RTVSPost2010PropOp49
 70
     1
102
RTVSPost2010Prop50
 90
       50
102
RTVSPost2010PropOp50
 70
     1
102
RTVSPost2010Prop51ColorIndex
 90
      256
102
RTVSPost2010Prop51ColorRGB
 90
-16777216
102
RTVSPost2010PropOp51
 70
     0
102
RTVSPost2010Prop52
140
1.0
102
RTVSPost2010PropOp52
 70
     0
102
RTVSPost2010Prop53
 90
        2
102
RTVSPost2010PropOp53
 70
     1
102
RTVSPost2010Prop54
  1
strokes_ogs.tif
102
RTVSPost2010PropOp54
 70
     1
102
RTVSPost2010Prop55
280
     0
102
RTVSPost2010PropOp55
 70
     1
102
RTVSPost2010Prop56
140
1.0
102
RTVSPost2010PropOp56
 70
     1
102
RTVSPost2010Prop57
140
1.0
102
RTVSPost2010PropOp57
 70
     1
102
RTVSPropertyOp0
 70
     0
102
RTVSPropertyOp1
 70
     0
102
RTVSPropertyOp2
 70
     0
102
RTVSPropertyOp3
 70
     0
102
RTVSPropertyOp4
 70
     0
102
RTVSPropertyOp5
 70
     0
102
RTVSPropertyOp6
 70
     0
102
RTVSPropertyOp7
 70
     0
102
RTVSPropertyOp8
 70
     0
102
RTVSPropertyOp9
 70
     0
102
RTVSPropertyOp10
 70
     0
102
RTVSPropertyOp11
 70
     0
102
RTVSPropertyOp12
 70
     0
102
RTVSPropertyOp13
 70
     0
102
RTVSPropertyOp14
 70
     2
102
RTVSPropertyOp15
 70
     0
102
RTVSPropertyOp16
 70
     0
102
RTVSPropertyOp17
 70
     0
102
RTVSPropertyOp18
 70
     0
102
RTVSPropertyOp19
 70
     0
102
RTVSPropertyOp20
 70
     0
102
RTVSPropertyOp21
 70
     0
102
RTVSPropertyOp22
 70
     0
102
RTVSPropertyOp23
 70
     0
102
RTVSPropertyOp24
 70
     0
102
RTVSPropertyOp25
 70
     0
102
RTVSPropertyOp26
 70
     0
102
RTVSPropertyOp27
 70
     0
102
RTVSPropertyOp28
 70
     1
102
RTVSPropertyOp29
 70
     1
102
RTVSPropertyOp30
 70
     1
102
RTVSPropertyOp31
 70
     1
102
RTVSPropertyOp32
 70
     1
102
RTVSPropertyOp33
 70
     1
102
RTVSPropertyOp34
 70
     1
102
RTVSPropertyOp35
 70
     1
102
RTVSPropertyOp36
 70
     1
102
RTVSPropertyOp37
 70
     1
102
RTVSPropertyOp38
 70
     1
102
RTVSPropertyOp39
 70
     1
102
RTVSPropertyOp40
 70
     1
102
RTVSPropertyOp41
 70
     1
102
RTVSPropertyOp42
 70
     1
102
RTVSPropertyOp43
 70
     1
102
RTVSPropertyOp44
 70
     1
102
RTVSPropertyOp45
 70
     1
102
RTVSPropertyOp46
 70
     1
102
RTVSPropertyOp47
 70
     1
102
RTVSPropertyOp48
 70
     1
102
RTVSPropertyOp49
 70
     1
102
RTVSPropertyOp50
 70
     1
102
RTVSPropertyOp51
 70
     0
102
RTVSPropertyOp52
 70
     0
102
RTVSPropertyOp53
 70
     1
102
RTVSPropertyOp54
 70
     1
102
RTVSPropertyOp55
 70
     1
102
RTVSPropertyOp56
 70
     1
102
RTVSPropertyOp57
 70
     1
102
RTVSPropertyOp58
 70
     1
102
RTVSPropertyOp59
 70
     1
102
RTVSPropertyOp60
 70
     1
102
RTVSPropertyOp61
 70
     1
102
RTVSPropertyOp62
 70
     1
  0
XRECORD
  5
1BE6
102
{ACAD_REACTORS
330
1BE5
102
}
330
1BE5
100
AcDbXrecord
280
     1
102
RTVSPost2010Prop28
280
     0
102
RTVSPost2010PropOp28
 70
     1
102
RTVSPost2010Prop29
280
     1
102
RTVSPost2010PropOp29
 70
     1
102
RTVSPost2010Prop30
280
     1
102
RTVSPost2010PropOp30
 70
     1
102
RTVSPost2010Prop31
280
     0
102
RTVSPost2010PropOp31
 70
     1
102
RTVSPost2010Prop32
280
     0
102
RTVSPost2010PropOp32
 70
     1
102
RTVSPost2010Prop33
280
     0
102
RTVSPost2010PropOp33
 70
     1
102
RTVSPost2010Prop34
280
     0
102
RTVSPost2010PropOp34
 70
     1
102
RTVSPost2010Prop35
280
     0
102
RTVSPost2010PropOp35
 70
     1
102
RTVSPost2010Prop36
280
     0
102
RTVSPost2010PropOp36
 70
     1
102
RTVSPost2010Prop37
 90
       50
102
RTVSPost2010PropOp37
 70
     1
102
RTVSPost2010Prop38
140
0.0
102
RTVSPost2010PropOp38
 70
     1
102
RTVSPost2010Prop39
140
1.0
102
RTVSPost2010PropOp39
 70
     1
102
RTVSPost2010Prop40
 90
        0
102
RTVSPost2010PropOp40
 70
     1
102
RTVSPost2010Prop41ColorIndex
 90
       18
102
RTVSPost2010Prop41ColorRGB
 90
        0
102
RTVSPost2010PropOp41
 70
     1
102
RTVSPost2010Prop42
 90
       50
102
RTVSPost2010PropOp42
 70
     1
102
RTVSPost2010Prop43
 90
        3
102
RTVSPost2010PropOp43
 70
     1
102
RTVSPost2010Prop44ColorIndex
 90
        5
102
RTVSPost2010Prop44ColorRGB
 90
      255
102
RTVSPost2010PropOp44
 70
     1
102
RTVSPost2010Prop45
280
     0
102
RTVSPost2010PropOp45
 70
     1
102
RTVSPost2010Prop46
 90
       50
102
RTVSPost2010PropOp46
 70
     1
102
RTVSPost2010Prop47
 90
       50
102
RTVSPost2010PropOp47
 70
     1
102
RTVSPost2010Prop48
 90
       50
102
RTVSPost2010PropOp48
 70
     1
102
RTVSPost2010Prop49
280
     0
102
RTVSPost2010PropOp49
 70
     1
102
RTVSPost2010Prop50
 90
       50
102
RTVSPost2010PropOp50
 70
     1
102
RTVSPost2010Prop51ColorIndex
 90
      256
102
RTVSPost2010Prop51ColorRGB
 90
-16777216
102
RTVSPost2010PropOp51
 70
     0
102
RTVSPost2010Prop52
140
1.0
102
RTVSPost2010PropOp52
 70
     0
102
RTVSPost2010Prop53
 90
        2
102
RTVSPost2010PropOp53
 70
     1
102
RTVSPost2010Prop54
  1
strokes_ogs.tif
102
RTVSPost2010PropOp54
 70
     1
102
RTVSPost2010Prop55
280
     0
102
RTVSPost2010PropOp55
 70
     1
102
RTVSPost2010Prop56
140
1.0
102
RTVSPost2010PropOp56
 70
     1
102
RTVSPost2010Prop57
140
1.0
102
RTVSPost2010PropOp57
 70
     1
102
RTVSPropertyOp0
 70
     1
102
RTVSPropertyOp1
 70
     1
102
RTVSPropertyOp2
 70
     1
102
RTVSPropertyOp3
 70
     1
102
RTVSPropertyOp4
 70
     1
102
RTVSPropertyOp5
 70
     1
102
RTVSPropertyOp6
 70
     1
102
RTVSPropertyOp7
 70
     1
102
RTVSPropertyOp8
 70
     1
102
RTVSPropertyOp9
 70
     1
102
RTVSPropertyOp10
 70
     1
102
RTVSPropertyOp11
 70
     1
102
RTVSPropertyOp12
 70
     1
102
RTVSPropertyOp13
 70
     1
102
RTVSPropertyOp14
 70
     1
102
RTVSPropertyOp15
 70
     1
102
RTVSPropertyOp16
 70
     1
102
RTVSPropertyOp17
 70
     1
102
RTVSPropertyOp18
 70
     1
102
RTVSPropertyOp19
 70
     1
102
RTVSPropertyOp20
 70
     1
102
RTVSPropertyOp21
 70
     1
102
RTVSPropertyOp22
 70
     1
102
RTVSPropertyOp23
 70
     1
102
RTVSPropertyOp24
 70
     1
102
RTVSPropertyOp25
 70
     1
102
RTVSPropertyOp26
 70
     1
102
RTVSPropertyOp27
 70
     1
102
RTVSPropertyOp28
 70
     1
102
RTVSPropertyOp29
 70
     1
102
RTVSPropertyOp30
 70
     1
102
RTVSPropertyOp31
 70
     1
102
RTVSPropertyOp32
 70
     1
102
RTVSPropertyOp33
 70
     1
102
RTVSPropertyOp34
 70
     1
102
RTVSPropertyOp35
 70
     1
102
RTVSPropertyOp36
 70
     1
102
RTVSPropertyOp37
 70
     1
102
RTVSPropertyOp38
 70
     1
102
RTVSPropertyOp39
 70
     1
102
RTVSPropertyOp40
 70
     1
102
RTVSPropertyOp41
 70
     1
102
RTVSPropertyOp42
 70
     1
102
RTVSPropertyOp43
 70
     1
102
RTVSPropertyOp44
 70
     1
102
RTVSPropertyOp45
 70
     1
102
RTVSPropertyOp46
 70
     1
102
RTVSPropertyOp47
 70
     1
102
RTVSPropertyOp48
 70
     1
102
RTVSPropertyOp49
 70
     1
102
RTVSPropertyOp50
 70
     1
102
RTVSPropertyOp51
 70
     0
102
RTVSPropertyOp52
 70
     0
102
RTVSPropertyOp53
 70
     1
102
RTVSPropertyOp54
 70
     1
102
RTVSPropertyOp55
 70
     1
102
RTVSPropertyOp56
 70
     1
102
RTVSPropertyOp57
 70
     1
102
RTVSPropertyOp58
 70
     1
102
RTVSPropertyOp59
 70
     1
102
RTVSPropertyOp60
 70
     1
102
RTVSPropertyOp61
 70
     1
102
RTVSPropertyOp62
 70
     1
  0
XRECORD
  5
1BF8
102
{ACAD_REACTORS
330
1BF7
102
}
330
1BF7
100
AcDbXrecord
280
     1
102
RTVSPost2010Prop28
280
     0
102
RTVSPost2010PropOp28
 70
     1
102
RTVSPost2010Prop29
280
     1
102
RTVSPost2010PropOp29
 70
     1
102
RTVSPost2010Prop30
280
     1
102
RTVSPost2010PropOp30
 70
     1
102
RTVSPost2010Prop31
280
     0
102
RTVSPost2010PropOp31
 70
     1
102
RTVSPost2010Prop32
280
     0
102
RTVSPost2010PropOp32
 70
     1
102
RTVSPost2010Prop33
280
     0
102
RTVSPost2010PropOp33
 70
     1
102
RTVSPost2010Prop34
280
     0
102
RTVSPost2010PropOp34
 70
     1
102
RTVSPost2010Prop35
280
     0
102
RTVSPost2010PropOp35
 70
     1
102
RTVSPost2010Prop36
280
     0
102
RTVSPost2010PropOp36
 70
     1
102
RTVSPost2010Prop37
 90
       50
102
RTVSPost2010PropOp37
 70
     1
102
RTVSPost2010Prop38
140
0.0
102
RTVSPost2010PropOp38
 70
     1
102
RTVSPost2010Prop39
140
1.0
102
RTVSPost2010PropOp39
 70
     1
102
RTVSPost2010Prop40
 90
        0
102
RTVSPost2010PropOp40
 70
     1
102
RTVSPost2010Prop41ColorIndex
 90
       18
102
RTVSPost2010Prop41ColorRGB
 90
        0
102
RTVSPost2010PropOp41
 70
     1
102
RTVSPost2010Prop42
 90
       50
102
RTVSPost2010PropOp42
 70
     1
102
RTVSPost2010Prop43
 90
        3
102
RTVSPost2010PropOp43
 70
     1
102
RTVSPost2010Prop44ColorIndex
 90
        5
102
RTVSPost2010Prop44ColorRGB
 90
      255
102
RTVSPost2010PropOp44
 70
     1
102
RTVSPost2010Prop45
280
     0
102
RTVSPost2010PropOp45
 70
     1
102
RTVSPost2010Prop46
 90
       50
102
RTVSPost2010PropOp46
 70
     1
102
RTVSPost2010Prop47
 90
       50
102
RTVSPost2010PropOp47
 70
     1
102
RTVSPost2010Prop48
 90
       50
102
RTVSPost2010PropOp48
 70
     1
102
RTVSPost2010Prop49
280
     0
102
RTVSPost2010PropOp49
 70
     1
102
RTVSPost2010Prop50
 90
       50
102
RTVSPost2010PropOp50
 70
     1
102
RTVSPost2010Prop51ColorIndex
 90
      256
102
RTVSPost2010Prop51ColorRGB
 90
-16777216
102
RTVSPost2010PropOp51
 70
     0
102
RTVSPost2010Prop52
140
1.0
102
RTVSPost2010PropOp52
 70
     0
102
RTVSPost2010Prop53
 90
        2
102
RTVSPost2010PropOp53
 70
     1
102
RTVSPost2010Prop54
  1
strokes_ogs.tif
102
RTVSPost2010PropOp54
 70
     1
102
RTVSPost2010Prop55
280
     0
102
RTVSPost2010PropOp55
 70
     1
102
RTVSPost2010Prop56
140
1.0
102
RTVSPost2010PropOp56
 70
     1
102
RTVSPost2010Prop57
140
1.0
102
RTVSPost2010PropOp57
 70
     1
102
RTVSPropertyOp0
 70
     0
102
RTVSPropertyOp1
 70
     0
102
RTVSPropertyOp2
 70
     0
102
RTVSPropertyOp3
 70
     0
102
RTVSPropertyOp4
 70
     0
102
RTVSPropertyOp5
 70
     0
102
RTVSPropertyOp6
 70
     0
102
RTVSPropertyOp7
 70
     0
102
RTVSPropertyOp8
 70
     0
102
RTVSPropertyOp9
 70
     0
102
RTVSPropertyOp10
 70
     0
102
RTVSPropertyOp11
 70
     0
102
RTVSPropertyOp12
 70
     0
102
RTVSPropertyOp13
 70
     0
102
RTVSPropertyOp14
 70
     2
102
RTVSPropertyOp15
 70
     0
102
RTVSPropertyOp16
 70
     0
102
RTVSPropertyOp17
 70
     0
102
RTVSPropertyOp18
 70
     0
102
RTVSPropertyOp19
 70
     0
102
RTVSPropertyOp20
 70
     0
102
RTVSPropertyOp21
 70
     0
102
RTVSPropertyOp22
 70
     0
102
RTVSPropertyOp23
 70
     0
102
RTVSPropertyOp24
 70
     0
102
RTVSPropertyOp25
 70
     0
102
RTVSPropertyOp26
 70
     0
102
RTVSPropertyOp27
 70
     0
102
RTVSPropertyOp28
 70
     1
102
RTVSPropertyOp29
 70
     1
102
RTVSPropertyOp30
 70
     1
102
RTVSPropertyOp31
 70
     1
102
RTVSPropertyOp32
 70
     1
102
RTVSPropertyOp33
 70
     1
102
RTVSPropertyOp34
 70
     1
102
RTVSPropertyOp35
 70
     1
102
RTVSPropertyOp36
 70
     1
102
RTVSPropertyOp37
 70
     1
102
RTVSPropertyOp38
 70
     1
102
RTVSPropertyOp39
 70
     1
102
RTVSPropertyOp40
 70
     1
102
RTVSPropertyOp41
 70
     1
102
RTVSPropertyOp42
 70
     1
102
RTVSPropertyOp43
 70
     1
102
RTVSPropertyOp44
 70
     1
102
RTVSPropertyOp45
 70
     1
102
RTVSPropertyOp46
 70
     1
102
RTVSPropertyOp47
 70
     1
102
RTVSPropertyOp48
 70
     1
102
RTVSPropertyOp49
 70
     1
102
RTVSPropertyOp50
 70
     1
102
RTVSPropertyOp51
 70
     0
102
RTVSPropertyOp52
 70
     0
102
RTVSPropertyOp53
 70
     1
102
RTVSPropertyOp54
 70
     1
102
RTVSPropertyOp55
 70
     1
102
RTVSPropertyOp56
 70
     1
102
RTVSPropertyOp57
 70
     1
102
RTVSPropertyOp58
 70
     1
102
RTVSPropertyOp59
 70
     1
102
RTVSPropertyOp60
 70
     1
102
RTVSPropertyOp61
 70
     1
102
RTVSPropertyOp62
 70
     1
  0
XRECORD
  5
1BDE
102
{ACAD_REACTORS
330
1BDD
102
}
330
1BDD
100
AcDbXrecord
280
     1
102
RTVSPost2010Prop28
280
     0
102
RTVSPost2010PropOp28
 70
     1
102
RTVSPost2010Prop29
280
     1
102
RTVSPost2010PropOp29
 70
     1
102
RTVSPost2010Prop30
280
     1
102
RTVSPost2010PropOp30
 70
     1
102
RTVSPost2010Prop31
280
     0
102
RTVSPost2010PropOp31
 70
     1
102
RTVSPost2010Prop32
280
     0
102
RTVSPost2010PropOp32
 70
     1
102
RTVSPost2010Prop33
280
     0
102
RTVSPost2010PropOp33
 70
     1
102
RTVSPost2010Prop34
280
     0
102
RTVSPost2010PropOp34
 70
     1
102
RTVSPost2010Prop35
280
     0
102
RTVSPost2010PropOp35
 70
     1
102
RTVSPost2010Prop36
280
     0
102
RTVSPost2010PropOp36
 70
     1
102
RTVSPost2010Prop37
 90
       50
102
RTVSPost2010PropOp37
 70
     1
102
RTVSPost2010Prop38
140
0.0
102
RTVSPost2010PropOp38
 70
     1
102
RTVSPost2010Prop39
140
1.0
102
RTVSPost2010PropOp39
 70
     1
102
RTVSPost2010Prop40
 90
        0
102
RTVSPost2010PropOp40
 70
     1
102
RTVSPost2010Prop41ColorIndex
 90
       18
102
RTVSPost2010Prop41ColorRGB
 90
        0
102
RTVSPost2010PropOp41
 70
     1
102
RTVSPost2010Prop42
 90
       50
102
RTVSPost2010PropOp42
 70
     1
102
RTVSPost2010Prop43
 90
        3
102
RTVSPost2010PropOp43
 70
     1
102
RTVSPost2010Prop44ColorIndex
 90
        5
102
RTVSPost2010Prop44ColorRGB
 90
      255
102
RTVSPost2010PropOp44
 70
     1
102
RTVSPost2010Prop45
280
     0
102
RTVSPost2010PropOp45
 70
     1
102
RTVSPost2010Prop46
 90
       50
102
RTVSPost2010PropOp46
 70
     1
102
RTVSPost2010Prop47
 90
       50
102
RTVSPost2010PropOp47
 70
     1
102
RTVSPost2010Prop48
 90
       50
102
RTVSPost2010PropOp48
 70
     1
102
RTVSPost2010Prop49
280
     0
102
RTVSPost2010PropOp49
 70
     1
102
RTVSPost2010Prop50
 90
       50
102
RTVSPost2010PropOp50
 70
     1
102
RTVSPost2010Prop51ColorIndex
 90
      256
102
RTVSPost2010Prop51ColorRGB
 90
-16777216
102
RTVSPost2010PropOp51
 70
     0
102
RTVSPost2010Prop52
140
1.0
102
RTVSPost2010PropOp52
 70
     0
102
RTVSPost2010Prop53
 90
        2
102
RTVSPost2010PropOp53
 70
     1
102
RTVSPost2010Prop54
  1
strokes_ogs.tif
102
RTVSPost2010PropOp54
 70
     1
102
RTVSPost2010Prop55
280
     0
102
RTVSPost2010PropOp55
 70
     1
102
RTVSPost2010Prop56
140
1.0
102
RTVSPost2010PropOp56
 70
     1
102
RTVSPost2010Prop57
140
1.0
102
RTVSPost2010PropOp57
 70
     1
102
RTVSPropertyOp0
 70
     1
102
RTVSPropertyOp1
 70
     1
102
RTVSPropertyOp2
 70
     1
102
RTVSPropertyOp3
 70
     1
102
RTVSPropertyOp4
 70
     1
102
RTVSPropertyOp5
 70
     1
102
RTVSPropertyOp6
 70
     1
102
RTVSPropertyOp7
 70
     1
102
RTVSPropertyOp8
 70
     1
102
RTVSPropertyOp9
 70
     1
102
RTVSPropertyOp10
 70
     1
102
RTVSPropertyOp11
 70
     1
102
RTVSPropertyOp12
 70
     1
102
RTVSPropertyOp13
 70
     1
102
RTVSPropertyOp14
 70
     1
102
RTVSPropertyOp15
 70
     1
102
RTVSPropertyOp16
 70
     1
102
RTVSPropertyOp17
 70
     1
102
RTVSPropertyOp18
 70
     1
102
RTVSPropertyOp19
 70
     1
102
RTVSPropertyOp20
 70
     1
102
RTVSPropertyOp21
 70
     1
102
RTVSPropertyOp22
 70
     1
102
RTVSPropertyOp23
 70
     1
102
RTVSPropertyOp24
 70
     1
102
RTVSPropertyOp25
 70
     1
102
RTVSPropertyOp26
 70
     1
102
RTVSPropertyOp27
 70
     1
102
RTVSPropertyOp28
 70
     1
102
RTVSPropertyOp29
 70
     1
102
RTVSPropertyOp30
 70
     1
102
RTVSPropertyOp31
 70
     1
102
RTVSPropertyOp32
 70
     1
102
RTVSPropertyOp33
 70
     1
102
RTVSPropertyOp34
 70
     1
102
RTVSPropertyOp35
 70
     1
102
RTVSPropertyOp36
 70
     1
102
RTVSPropertyOp37
 70
     1
102
RTVSPropertyOp38
 70
     1
102
RTVSPropertyOp39
 70
     1
102
RTVSPropertyOp40
 70
     1
102
RTVSPropertyOp41
 70
     1
102
RTVSPropertyOp42
 70
     1
102
RTVSPropertyOp43
 70
     1
102
RTVSPropertyOp44
 70
     1
102
RTVSPropertyOp45
 70
     1
102
RTVSPropertyOp46
 70
     1
102
RTVSPropertyOp47
 70
     1
102
RTVSPropertyOp48
 70
     1
102
RTVSPropertyOp49
 70
     1
102
RTVSPropertyOp50
 70
     1
102
RTVSPropertyOp51
 70
     0
102
RTVSPropertyOp52
 70
     0
102
RTVSPropertyOp53
 70
     1
102
RTVSPropertyOp54
 70
     1
102
RTVSPropertyOp55
 70
     1
102
RTVSPropertyOp56
 70
     1
102
RTVSPropertyOp57
 70
     1
102
RTVSPropertyOp58
 70
     1
102
RTVSPropertyOp59
 70
     1
102
RTVSPropertyOp60
 70
     1
102
RTVSPropertyOp61
 70
     1
102
RTVSPropertyOp62
 70
     1
  0
XRECORD
  5
1C08
102
{ACAD_REACTORS
330
1C07
102
}
330
1C07
100
AcDbXrecord
280
     1
102
RTVSPost2010Prop28
280
     0
102
RTVSPost2010PropOp28
 70
     1
102
RTVSPost2010Prop29
280
     1
102
RTVSPost2010PropOp29
 70
     1
102
RTVSPost2010Prop30
280
     1
102
RTVSPost2010PropOp30
 70
     1
102
RTVSPost2010Prop31
280
     0
102
RTVSPost2010PropOp31
 70
     1
102
RTVSPost2010Prop32
280
     0
102
RTVSPost2010PropOp32
 70
     1
102
RTVSPost2010Prop33
280
     0
102
RTVSPost2010PropOp33
 70
     1
102
RTVSPost2010Prop34
280
     0
102
RTVSPost2010PropOp34
 70
     1
102
RTVSPost2010Prop35
280
     0
102
RTVSPost2010PropOp35
 70
     1
102
RTVSPost2010Prop36
280
     0
102
RTVSPost2010PropOp36
 70
     1
102
RTVSPost2010Prop37
 90
       50
102
RTVSPost2010PropOp37
 70
     1
102
RTVSPost2010Prop38
140
0.0
102
RTVSPost2010PropOp38
 70
     1
102
RTVSPost2010Prop39
140
1.0
102
RTVSPost2010PropOp39
 70
     1
102
RTVSPost2010Prop40
 90
        0
102
RTVSPost2010PropOp40
 70
     1
102
RTVSPost2010Prop41ColorIndex
 90
       18
102
RTVSPost2010Prop41ColorRGB
 90
        0
102
RTVSPost2010PropOp41
 70
     1
102
RTVSPost2010Prop42
 90
       50
102
RTVSPost2010PropOp42
 70
     1
102
RTVSPost2010Prop43
 90
        3
102
RTVSPost2010PropOp43
 70
     1
102
RTVSPost2010Prop44ColorIndex
 90
        5
102
RTVSPost2010Prop44ColorRGB
 90
      255
102
RTVSPost2010PropOp44
 70
     1
102
RTVSPost2010Prop45
280
     0
102
RTVSPost2010PropOp45
 70
     1
102
RTVSPost2010Prop46
 90
       50
102
RTVSPost2010PropOp46
 70
     1
102
RTVSPost2010Prop47
 90
       50
102
RTVSPost2010PropOp47
 70
     1
102
RTVSPost2010Prop48
 90
       50
102
RTVSPost2010PropOp48
 70
     1
102
RTVSPost2010Prop49
280
     0
102
RTVSPost2010PropOp49
 70
     1
102
RTVSPost2010Prop50
 90
       50
102
RTVSPost2010PropOp50
 70
     1
102
RTVSPost2010Prop51ColorIndex
 90
      256
102
RTVSPost2010Prop51ColorRGB
 90
-16777216
102
RTVSPost2010PropOp51
 70
     0
102
RTVSPost2010Prop52
140
1.0
102
RTVSPost2010PropOp52
 70
     0
102
RTVSPost2010Prop53
 90
        2
102
RTVSPost2010PropOp53
 70
     1
102
RTVSPost2010Prop54
  1
strokes_ogs.tif
102
RTVSPost2010PropOp54
 70
     1
102
RTVSPost2010Prop55
280
     0
102
RTVSPost2010PropOp55
 70
     1
102
RTVSPost2010Prop56
140
1.0
102
RTVSPost2010PropOp56
 70
     1
102
RTVSPost2010Prop57
140
1.0
102
RTVSPost2010PropOp57
 70
     1
102
RTVSPropertyOp0
 70
     1
102
RTVSPropertyOp1
 70
     1
102
RTVSPropertyOp2
 70
     1
102
RTVSPropertyOp3
 70
     1
102
RTVSPropertyOp4
 70
     1
102
RTVSPropertyOp5
 70
     1
102
RTVSPropertyOp6
 70
     1
102
RTVSPropertyOp7
 70
     1
102
RTVSPropertyOp8
 70
     1
102
RTVSPropertyOp9
 70
     1
102
RTVSPropertyOp10
 70
     1
102
RTVSPropertyOp11
 70
     1
102
RTVSPropertyOp12
 70
     1
102
RTVSPropertyOp13
 70
     1
102
RTVSPropertyOp14
 70
     1
102
RTVSPropertyOp15
 70
     1
102
RTVSPropertyOp16
 70
     1
102
RTVSPropertyOp17
 70
     1
102
RTVSPropertyOp18
 70
     1
102
RTVSPropertyOp19
 70
     1
102
RTVSPropertyOp20
 70
     1
102
RTVSPropertyOp21
 70
     1
102
RTVSPropertyOp22
 70
     1
102
RTVSPropertyOp23
 70
     1
102
RTVSPropertyOp24
 70
     1
102
RTVSPropertyOp25
 70
     1
102
RTVSPropertyOp26
 70
     1
102
RTVSPropertyOp27
 70
     1
102
RTVSPropertyOp28
 70
     1
102
RTVSPropertyOp29
 70
     1
102
RTVSPropertyOp30
 70
     1
102
RTVSPropertyOp31
 70
     1
102
RTVSPropertyOp32
 70
     1
102
RTVSPropertyOp33
 70
     1
102
RTVSPropertyOp34
 70
     1
102
RTVSPropertyOp35
 70
     1
102
RTVSPropertyOp36
 70
     1
102
RTVSPropertyOp37
 70
     1
102
RTVSPropertyOp38
 70
     1
102
RTVSPropertyOp39
 70
     1
102
RTVSPropertyOp40
 70
     1
102
RTVSPropertyOp41
 70
     1
102
RTVSPropertyOp42
 70
     1
102
RTVSPropertyOp43
 70
     1
102
RTVSPropertyOp44
 70
     1
102
RTVSPropertyOp45
 70
     1
102
RTVSPropertyOp46
 70
     1
102
RTVSPropertyOp47
 70
     1
102
RTVSPropertyOp48
 70
     1
102
RTVSPropertyOp49
 70
     1
102
RTVSPropertyOp50
 70
     1
102
RTVSPropertyOp51
 70
     0
102
RTVSPropertyOp52
 70
     0
102
RTVSPropertyOp53
 70
     1
102
RTVSPropertyOp54
 70
     1
102
RTVSPropertyOp55
 70
     1
102
RTVSPropertyOp56
 70
     1
102
RTVSPropertyOp57
 70
     1
102
RTVSPropertyOp58
 70
     1
102
RTVSPropertyOp59
 70
     1
102
RTVSPropertyOp60
 70
     1
102
RTVSPropertyOp61
 70
     1
102
RTVSPropertyOp62
 70
     1
  0
XRECORD
  5
1C06
102
{ACAD_REACTORS
330
1C05
102
}
330
1C05
100
AcDbXrecord
280
     1
102
RTVSPost2010Prop28
280
     0
102
RTVSPost2010PropOp28
 70
     1
102
RTVSPost2010Prop29
280
     1
102
RTVSPost2010PropOp29
 70
     1
102
RTVSPost2010Prop30
280
     1
102
RTVSPost2010PropOp30
 70
     1
102
RTVSPost2010Prop31
280
     0
102
RTVSPost2010PropOp31
 70
     1
102
RTVSPost2010Prop32
280
     0
102
RTVSPost2010PropOp32
 70
     1
102
RTVSPost2010Prop33
280
     0
102
RTVSPost2010PropOp33
 70
     1
102
RTVSPost2010Prop34
280
     0
102
RTVSPost2010PropOp34
 70
     1
102
RTVSPost2010Prop35
280
     0
102
RTVSPost2010PropOp35
 70
     1
102
RTVSPost2010Prop36
280
     0
102
RTVSPost2010PropOp36
 70
     1
102
RTVSPost2010Prop37
 90
       50
102
RTVSPost2010PropOp37
 70
     1
102
RTVSPost2010Prop38
140
0.0
102
RTVSPost2010PropOp38
 70
     1
102
RTVSPost2010Prop39
140
1.0
102
RTVSPost2010PropOp39
 70
     1
102
RTVSPost2010Prop40
 90
        0
102
RTVSPost2010PropOp40
 70
     1
102
RTVSPost2010Prop41ColorIndex
 90
       18
102
RTVSPost2010Prop41ColorRGB
 90
        0
102
RTVSPost2010PropOp41
 70
     1
102
RTVSPost2010Prop42
 90
       50
102
RTVSPost2010PropOp42
 70
     1
102
RTVSPost2010Prop43
 90
        3
102
RTVSPost2010PropOp43
 70
     1
102
RTVSPost2010Prop44ColorIndex
 90
        5
102
RTVSPost2010Prop44ColorRGB
 90
      255
102
RTVSPost2010PropOp44
 70
     1
102
RTVSPost2010Prop45
280
     0
102
RTVSPost2010PropOp45
 70
     1
102
RTVSPost2010Prop46
 90
       50
102
RTVSPost2010PropOp46
 70
     1
102
RTVSPost2010Prop47
 90
       50
102
RTVSPost2010PropOp47
 70
     1
102
RTVSPost2010Prop48
 90
       50
102
RTVSPost2010PropOp48
 70
     1
102
RTVSPost2010Prop49
280
     0
102
RTVSPost2010PropOp49
 70
     1
102
RTVSPost2010Prop50
 90
       50
102
RTVSPost2010PropOp50
 70
     1
102
RTVSPost2010Prop51ColorIndex
 90
      256
102
RTVSPost2010Prop51ColorRGB
 90
-16777216
102
RTVSPost2010PropOp51
 70
     0
102
RTVSPost2010Prop52
140
1.0
102
RTVSPost2010PropOp52
 70
     0
102
RTVSPost2010Prop53
 90
        2
102
RTVSPost2010PropOp53
 70
     1
102
RTVSPost2010Prop54
  1
strokes_ogs.tif
102
RTVSPost2010PropOp54
 70
     1
102
RTVSPost2010Prop55
280
     0
102
RTVSPost2010PropOp55
 70
     1
102
RTVSPost2010Prop56
140
1.0
102
RTVSPost2010PropOp56
 70
     1
102
RTVSPost2010Prop57
140
1.0
102
RTVSPost2010PropOp57
 70
     1
102
RTVSPropertyOp0
 70
     1
102
RTVSPropertyOp1
 70
     1
102
RTVSPropertyOp2
 70
     1
102
RTVSPropertyOp3
 70
     1
102
RTVSPropertyOp4
 70
     1
102
RTVSPropertyOp5
 70
     1
102
RTVSPropertyOp6
 70
     1
102
RTVSPropertyOp7
 70
     1
102
RTVSPropertyOp8
 70
     1
102
RTVSPropertyOp9
 70
     1
102
RTVSPropertyOp10
 70
     1
102
RTVSPropertyOp11
 70
     1
102
RTVSPropertyOp12
 70
     1
102
RTVSPropertyOp13
 70
     1
102
RTVSPropertyOp14
 70
     1
102
RTVSPropertyOp15
 70
     1
102
RTVSPropertyOp16
 70
     1
102
RTVSPropertyOp17
 70
     1
102
RTVSPropertyOp18
 70
     1
102
RTVSPropertyOp19
 70
     1
102
RTVSPropertyOp20
 70
     1
102
RTVSPropertyOp21
 70
     1
102
RTVSPropertyOp22
 70
     1
102
RTVSPropertyOp23
 70
     1
102
RTVSPropertyOp24
 70
     1
102
RTVSPropertyOp25
 70
     1
102
RTVSPropertyOp26
 70
     1
102
RTVSPropertyOp27
 70
     1
102
RTVSPropertyOp28
 70
     1
102
RTVSPropertyOp29
 70
     1
102
RTVSPropertyOp30
 70
     1
102
RTVSPropertyOp31
 70
     1
102
RTVSPropertyOp32
 70
     1
102
RTVSPropertyOp33
 70
     1
102
RTVSPropertyOp34
 70
     1
102
RTVSPropertyOp35
 70
     1
102
RTVSPropertyOp36
 70
     1
102
RTVSPropertyOp37
 70
     1
102
RTVSPropertyOp38
 70
     1
102
RTVSPropertyOp39
 70
     1
102
RTVSPropertyOp40
 70
     1
102
RTVSPropertyOp41
 70
     1
102
RTVSPropertyOp42
 70
     1
102
RTVSPropertyOp43
 70
     1
102
RTVSPropertyOp44
 70
     1
102
RTVSPropertyOp45
 70
     1
102
RTVSPropertyOp46
 70
     1
102
RTVSPropertyOp47
 70
     1
102
RTVSPropertyOp48
 70
     1
102
RTVSPropertyOp49
 70
     1
102
RTVSPropertyOp50
 70
     1
102
RTVSPropertyOp51
 70
     0
102
RTVSPropertyOp52
 70
     0
102
RTVSPropertyOp53
 70
     1
102
RTVSPropertyOp54
 70
     1
102
RTVSPropertyOp55
 70
     1
102
RTVSPropertyOp56
 70
     1
102
RTVSPropertyOp57
 70
     1
102
RTVSPropertyOp58
 70
     1
102
RTVSPropertyOp59
 70
     1
102
RTVSPropertyOp60
 70
     1
102
RTVSPropertyOp61
 70
     1
102
RTVSPropertyOp62
 70
     1
  0
XRECORD
  5
1C00
102
{ACAD_REACTORS
330
1BFF
102
}
330
1BFF
100
AcDbXrecord
280
     1
102
RTVSPost2010Prop28
280
     0
102
RTVSPost2010PropOp28
 70
     1
102
RTVSPost2010Prop29
280
     1
102
RTVSPost2010PropOp29
 70
     1
102
RTVSPost2010Prop30
280
     1
102
RTVSPost2010PropOp30
 70
     1
102
RTVSPost2010Prop31
280
     0
102
RTVSPost2010PropOp31
 70
     1
102
RTVSPost2010Prop32
280
     0
102
RTVSPost2010PropOp32
 70
     1
102
RTVSPost2010Prop33
280
     0
102
RTVSPost2010PropOp33
 70
     1
102
RTVSPost2010Prop34
280
     0
102
RTVSPost2010PropOp34
 70
     1
102
RTVSPost2010Prop35
280
     0
102
RTVSPost2010PropOp35
 70
     1
102
RTVSPost2010Prop36
280
     0
102
RTVSPost2010PropOp36
 70
     1
102
RTVSPost2010Prop37
 90
       50
102
RTVSPost2010PropOp37
 70
     1
102
RTVSPost2010Prop38
140
0.0
102
RTVSPost2010PropOp38
 70
     1
102
RTVSPost2010Prop39
140
1.0
102
RTVSPost2010PropOp39
 70
     1
102
RTVSPost2010Prop40
 90
        0
102
RTVSPost2010PropOp40
 70
     1
102
RTVSPost2010Prop41ColorIndex
 90
       18
102
RTVSPost2010Prop41ColorRGB
 90
        0
102
RTVSPost2010PropOp41
 70
     1
102
RTVSPost2010Prop42
 90
       50
102
RTVSPost2010PropOp42
 70
     1
102
RTVSPost2010Prop43
 90
        3
102
RTVSPost2010PropOp43
 70
     1
102
RTVSPost2010Prop44ColorIndex
 90
        5
102
RTVSPost2010Prop44ColorRGB
 90
      255
102
RTVSPost2010PropOp44
 70
     1
102
RTVSPost2010Prop45
280
     0
102
RTVSPost2010PropOp45
 70
     1
102
RTVSPost2010Prop46
 90
       50
102
RTVSPost2010PropOp46
 70
     1
102
RTVSPost2010Prop47
 90
       50
102
RTVSPost2010PropOp47
 70
     1
102
RTVSPost2010Prop48
 90
       50
102
RTVSPost2010PropOp48
 70
     1
102
RTVSPost2010Prop49
280
     0
102
RTVSPost2010PropOp49
 70
     1
102
RTVSPost2010Prop50
 90
       50
102
RTVSPost2010PropOp50
 70
     1
102
RTVSPost2010Prop51ColorIndex
 90
      256
102
RTVSPost2010Prop51ColorRGB
 90
-16777216
102
RTVSPost2010PropOp51
 70
     0
102
RTVSPost2010Prop52
140
1.0
102
RTVSPost2010PropOp52
 70
     0
102
RTVSPost2010Prop53
 90
        2
102
RTVSPost2010PropOp53
 70
     1
102
RTVSPost2010Prop54
  1
strokes_ogs.tif
102
RTVSPost2010PropOp54
 70
     1
102
RTVSPost2010Prop55
280
     0
102
RTVSPost2010PropOp55
 70
     1
102
RTVSPost2010Prop56
140
1.0
102
RTVSPost2010PropOp56
 70
     1
102
RTVSPost2010Prop57
140
1.0
102
RTVSPost2010PropOp57
 70
     1
102
RTVSPropertyOp0
 70
     1
102
RTVSPropertyOp1
 70
     1
102
RTVSPropertyOp2
 70
     1
102
RTVSPropertyOp3
 70
     1
102
RTVSPropertyOp4
 70
     1
102
RTVSPropertyOp5
 70
     1
102
RTVSPropertyOp6
 70
     1
102
RTVSPropertyOp7
 70
     1
102
RTVSPropertyOp8
 70
     1
102
RTVSPropertyOp9
 70
     1
102
RTVSPropertyOp10
 70
     1
102
RTVSPropertyOp11
 70
     1
102
RTVSPropertyOp12
 70
     1
102
RTVSPropertyOp13
 70
     1
102
RTVSPropertyOp14
 70
     1
102
RTVSPropertyOp15
 70
     1
102
RTVSPropertyOp16
 70
     1
102
RTVSPropertyOp17
 70
     1
102
RTVSPropertyOp18
 70
     1
102
RTVSPropertyOp19
 70
     1
102
RTVSPropertyOp20
 70
     1
102
RTVSPropertyOp21
 70
     1
102
RTVSPropertyOp22
 70
     1
102
RTVSPropertyOp23
 70
     1
102
RTVSPropertyOp24
 70
     1
102
RTVSPropertyOp25
 70
     1
102
RTVSPropertyOp26
 70
     1
102
RTVSPropertyOp27
 70
     1
102
RTVSPropertyOp28
 70
     1
102
RTVSPropertyOp29
 70
     1
102
RTVSPropertyOp30
 70
     1
102
RTVSPropertyOp31
 70
     1
102
RTVSPropertyOp32
 70
     1
102
RTVSPropertyOp33
 70
     1
102
RTVSPropertyOp34
 70
     1
102
RTVSPropertyOp35
 70
     1
102
RTVSPropertyOp36
 70
     1
102
RTVSPropertyOp37
 70
     1
102
RTVSPropertyOp38
 70
     1
102
RTVSPropertyOp39
 70
     1
102
RTVSPropertyOp40
 70
     1
102
RTVSPropertyOp41
 70
     1
102
RTVSPropertyOp42
 70
     1
102
RTVSPropertyOp43
 70
     1
102
RTVSPropertyOp44
 70
     1
102
RTVSPropertyOp45
 70
     1
102
RTVSPropertyOp46
 70
     1
102
RTVSPropertyOp47
 70
     1
102
RTVSPropertyOp48
 70
     1
102
RTVSPropertyOp49
 70
     1
102
RTVSPropertyOp50
 70
     1
102
RTVSPropertyOp51
 70
     0
102
RTVSPropertyOp52
 70
     0
102
RTVSPropertyOp53
 70
     1
102
RTVSPropertyOp54
 70
     1
102
RTVSPropertyOp55
 70
     1
102
RTVSPropertyOp56
 70
     1
102
RTVSPropertyOp57
 70
     1
102
RTVSPropertyOp58
 70
     1
102
RTVSPropertyOp59
 70
     1
102
RTVSPropertyOp60
 70
     1
102
RTVSPropertyOp61
 70
     1
102
RTVSPropertyOp62
 70
     1
  0
XRECORD
  5
1C02
102
{ACAD_REACTORS
330
1C01
102
}
330
1C01
100
AcDbXrecord
280
     1
102
RTVSPost2010Prop28
280
     0
102
RTVSPost2010PropOp28
 70
     1
102
RTVSPost2010Prop29
280
     1
102
RTVSPost2010PropOp29
 70
     1
102
RTVSPost2010Prop30
280
     1
102
RTVSPost2010PropOp30
 70
     1
102
RTVSPost2010Prop31
280
     0
102
RTVSPost2010PropOp31
 70
     1
102
RTVSPost2010Prop32
280
     0
102
RTVSPost2010PropOp32
 70
     1
102
RTVSPost2010Prop33
280
     0
102
RTVSPost2010PropOp33
 70
     1
102
RTVSPost2010Prop34
280
     0
102
RTVSPost2010PropOp34
 70
     1
102
RTVSPost2010Prop35
280
     0
102
RTVSPost2010PropOp35
 70
     1
102
RTVSPost2010Prop36
280
     0
102
RTVSPost2010PropOp36
 70
     1
102
RTVSPost2010Prop37
 90
       50
102
RTVSPost2010PropOp37
 70
     1
102
RTVSPost2010Prop38
140
0.0
102
RTVSPost2010PropOp38
 70
     1
102
RTVSPost2010Prop39
140
1.0
102
RTVSPost2010PropOp39
 70
     1
102
RTVSPost2010Prop40
 90
        0
102
RTVSPost2010PropOp40
 70
     1
102
RTVSPost2010Prop41ColorIndex
 90
       18
102
RTVSPost2010Prop41ColorRGB
 90
        0
102
RTVSPost2010PropOp41
 70
     1
102
RTVSPost2010Prop42
 90
       50
102
RTVSPost2010PropOp42
 70
     1
102
RTVSPost2010Prop43
 90
        3
102
RTVSPost2010PropOp43
 70
     1
102
RTVSPost2010Prop44ColorIndex
 90
        5
102
RTVSPost2010Prop44ColorRGB
 90
      255
102
RTVSPost2010PropOp44
 70
     1
102
RTVSPost2010Prop45
280
     0
102
RTVSPost2010PropOp45
 70
     1
102
RTVSPost2010Prop46
 90
       50
102
RTVSPost2010PropOp46
 70
     1
102
RTVSPost2010Prop47
 90
       50
102
RTVSPost2010PropOp47
 70
     1
102
RTVSPost2010Prop48
 90
       50
102
RTVSPost2010PropOp48
 70
     1
102
RTVSPost2010Prop49
280
     0
102
RTVSPost2010PropOp49
 70
     1
102
RTVSPost2010Prop50
 90
       50
102
RTVSPost2010PropOp50
 70
     1
102
RTVSPost2010Prop51ColorIndex
 90
      256
102
RTVSPost2010Prop51ColorRGB
 90
-16777216
102
RTVSPost2010PropOp51
 70
     0
102
RTVSPost2010Prop52
140
1.0
102
RTVSPost2010PropOp52
 70
     0
102
RTVSPost2010Prop53
 90
        2
102
RTVSPost2010PropOp53
 70
     1
102
RTVSPost2010Prop54
  1
strokes_ogs.tif
102
RTVSPost2010PropOp54
 70
     1
102
RTVSPost2010Prop55
280
     0
102
RTVSPost2010PropOp55
 70
     1
102
RTVSPost2010Prop56
140
1.0
102
RTVSPost2010PropOp56
 70
     1
102
RTVSPost2010Prop57
140
1.0
102
RTVSPost2010PropOp57
 70
     1
102
RTVSPropertyOp0
 70
     1
102
RTVSPropertyOp1
 70
     1
102
RTVSPropertyOp2
 70
     1
102
RTVSPropertyOp3
 70
     1
102
RTVSPropertyOp4
 70
     1
102
RTVSPropertyOp5
 70
     1
102
RTVSPropertyOp6
 70
     1
102
RTVSPropertyOp7
 70
     1
102
RTVSPropertyOp8
 70
     1
102
RTVSPropertyOp9
 70
     1
102
RTVSPropertyOp10
 70
     1
102
RTVSPropertyOp11
 70
     1
102
RTVSPropertyOp12
 70
     1
102
RTVSPropertyOp13
 70
     1
102
RTVSPropertyOp14
 70
     1
102
RTVSPropertyOp15
 70
     1
102
RTVSPropertyOp16
 70
     1
102
RTVSPropertyOp17
 70
     1
102
RTVSPropertyOp18
 70
     1
102
RTVSPropertyOp19
 70
     1
102
RTVSPropertyOp20
 70
     1
102
RTVSPropertyOp21
 70
     1
102
RTVSPropertyOp22
 70
     1
102
RTVSPropertyOp23
 70
     1
102
RTVSPropertyOp24
 70
     1
102
RTVSPropertyOp25
 70
     1
102
RTVSPropertyOp26
 70
     1
102
RTVSPropertyOp27
 70
     1
102
RTVSPropertyOp28
 70
     1
102
RTVSPropertyOp29
 70
     1
102
RTVSPropertyOp30
 70
     1
102
RTVSPropertyOp31
 70
     1
102
RTVSPropertyOp32
 70
     1
102
RTVSPropertyOp33
 70
     1
102
RTVSPropertyOp34
 70
     1
102
RTVSPropertyOp35
 70
     1
102
RTVSPropertyOp36
 70
     1
102
RTVSPropertyOp37
 70
     1
102
RTVSPropertyOp38
 70
     1
102
RTVSPropertyOp39
 70
     1
102
RTVSPropertyOp40
 70
     1
102
RTVSPropertyOp41
 70
     1
102
RTVSPropertyOp42
 70
     1
102
RTVSPropertyOp43
 70
     1
102
RTVSPropertyOp44
 70
     1
102
RTVSPropertyOp45
 70
     1
102
RTVSPropertyOp46
 70
     1
102
RTVSPropertyOp47
 70
     1
102
RTVSPropertyOp48
 70
     1
102
RTVSPropertyOp49
 70
     1
102
RTVSPropertyOp50
 70
     1
102
RTVSPropertyOp51
 70
     0
102
RTVSPropertyOp52
 70
     0
102
RTVSPropertyOp53
 70
     1
102
RTVSPropertyOp54
 70
     1
102
RTVSPropertyOp55
 70
     1
102
RTVSPropertyOp56
 70
     1
102
RTVSPropertyOp57
 70
     1
102
RTVSPropertyOp58
 70
     1
102
RTVSPropertyOp59
 70
     1
102
RTVSPropertyOp60
 70
     1
102
RTVSPropertyOp61
 70
     1
102
RTVSPropertyOp62
 70
     1
  0
XRECORD
  5
1BE4
102
{ACAD_REACTORS
330
1BE3
102
}
330
1BE3
100
AcDbXrecord
280
     1
102
RTVSPost2010Prop28
280
     0
102
RTVSPost2010PropOp28
 70
     1
102
RTVSPost2010Prop29
280
     1
102
RTVSPost2010PropOp29
 70
     1
102
RTVSPost2010Prop30
280
     1
102
RTVSPost2010PropOp30
 70
     1
102
RTVSPost2010Prop31
280
     0
102
RTVSPost2010PropOp31
 70
     1
102
RTVSPost2010Prop32
280
     0
102
RTVSPost2010PropOp32
 70
     1
102
RTVSPost2010Prop33
280
     0
102
RTVSPost2010PropOp33
 70
     1
102
RTVSPost2010Prop34
280
     0
102
RTVSPost2010PropOp34
 70
     1
102
RTVSPost2010Prop35
280
     0
102
RTVSPost2010PropOp35
 70
     1
102
RTVSPost2010Prop36
280
     0
102
RTVSPost2010PropOp36
 70
     1
102
RTVSPost2010Prop37
 90
       50
102
RTVSPost2010PropOp37
 70
     1
102
RTVSPost2010Prop38
140
0.0
102
RTVSPost2010PropOp38
 70
     1
102
RTVSPost2010Prop39
140
1.0
102
RTVSPost2010PropOp39
 70
     1
102
RTVSPost2010Prop40
 90
        0
102
RTVSPost2010PropOp40
 70
     1
102
RTVSPost2010Prop41ColorIndex
 90
       18
102
RTVSPost2010Prop41ColorRGB
 90
        0
102
RTVSPost2010PropOp41
 70
     1
102
RTVSPost2010Prop42
 90
       50
102
RTVSPost2010PropOp42
 70
     1
102
RTVSPost2010Prop43
 90
        3
102
RTVSPost2010PropOp43
 70
     1
102
RTVSPost2010Prop44ColorIndex
 90
        5
102
RTVSPost2010Prop44ColorRGB
 90
      255
102
RTVSPost2010PropOp44
 70
     1
102
RTVSPost2010Prop45
280
     0
102
RTVSPost2010PropOp45
 70
     1
102
RTVSPost2010Prop46
 90
       50
102
RTVSPost2010PropOp46
 70
     1
102
RTVSPost2010Prop47
 90
       50
102
RTVSPost2010PropOp47
 70
     1
102
RTVSPost2010Prop48
 90
       50
102
RTVSPost2010PropOp48
 70
     1
102
RTVSPost2010Prop49
280
     0
102
RTVSPost2010PropOp49
 70
     1
102
RTVSPost2010Prop50
 90
       50
102
RTVSPost2010PropOp50
 70
     1
102
RTVSPost2010Prop51ColorIndex
 90
      256
102
RTVSPost2010Prop51ColorRGB
 90
-16777216
102
RTVSPost2010PropOp51
 70
     0
102
RTVSPost2010Prop52
140
1.0
102
RTVSPost2010PropOp52
 70
     0
102
RTVSPost2010Prop53
 90
        2
102
RTVSPost2010PropOp53
 70
     1
102
RTVSPost2010Prop54
  1
strokes_ogs.tif
102
RTVSPost2010PropOp54
 70
     1
102
RTVSPost2010Prop55
280
     0
102
RTVSPost2010PropOp55
 70
     1
102
RTVSPost2010Prop56
140
1.0
102
RTVSPost2010PropOp56
 70
     1
102
RTVSPost2010Prop57
140
1.0
102
RTVSPost2010PropOp57
 70
     1
102
RTVSPropertyOp0
 70
     1
102
RTVSPropertyOp1
 70
     1
102
RTVSPropertyOp2
 70
     1
102
RTVSPropertyOp3
 70
     1
102
RTVSPropertyOp4
 70
     1
102
RTVSPropertyOp5
 70
     1
102
RTVSPropertyOp6
 70
     1
102
RTVSPropertyOp7
 70
     1
102
RTVSPropertyOp8
 70
     1
102
RTVSPropertyOp9
 70
     1
102
RTVSPropertyOp10
 70
     1
102
RTVSPropertyOp11
 70
     1
102
RTVSPropertyOp12
 70
     1
102
RTVSPropertyOp13
 70
     1
102
RTVSPropertyOp14
 70
     1
102
RTVSPropertyOp15
 70
     1
102
RTVSPropertyOp16
 70
     1
102
RTVSPropertyOp17
 70
     1
102
RTVSPropertyOp18
 70
     1
102
RTVSPropertyOp19
 70
     1
102
RTVSPropertyOp20
 70
     1
102
RTVSPropertyOp21
 70
     1
102
RTVSPropertyOp22
 70
     1
102
RTVSPropertyOp23
 70
     1
102
RTVSPropertyOp24
 70
     1
102
RTVSPropertyOp25
 70
     1
102
RTVSPropertyOp26
 70
     1
102
RTVSPropertyOp27
 70
     1
102
RTVSPropertyOp28
 70
     1
102
RTVSPropertyOp29
 70
     1
102
RTVSPropertyOp30
 70
     1
102
RTVSPropertyOp31
 70
     1
102
RTVSPropertyOp32
 70
     1
102
RTVSPropertyOp33
 70
     1
102
RTVSPropertyOp34
 70
     1
102
RTVSPropertyOp35
 70
     1
102
RTVSPropertyOp36
 70
     1
102
RTVSPropertyOp37
 70
     1
102
RTVSPropertyOp38
 70
     1
102
RTVSPropertyOp39
 70
     1
102
RTVSPropertyOp40
 70
     1
102
RTVSPropertyOp41
 70
     1
102
RTVSPropertyOp42
 70
     1
102
RTVSPropertyOp43
 70
     1
102
RTVSPropertyOp44
 70
     1
102
RTVSPropertyOp45
 70
     1
102
RTVSPropertyOp46
 70
     1
102
RTVSPropertyOp47
 70
     1
102
RTVSPropertyOp48
 70
     1
102
RTVSPropertyOp49
 70
     1
102
RTVSPropertyOp50
 70
     1
102
RTVSPropertyOp51
 70
     0
102
RTVSPropertyOp52
 70
     0
102
RTVSPropertyOp53
 70
     1
102
RTVSPropertyOp54
 70
     1
102
RTVSPropertyOp55
 70
     1
102
RTVSPropertyOp56
 70
     1
102
RTVSPropertyOp57
 70
     1
102
RTVSPropertyOp58
 70
     1
102
RTVSPropertyOp59
 70
     1
102
RTVSPropertyOp60
 70
     1
102
RTVSPropertyOp61
 70
     1
102
RTVSPropertyOp62
 70
     1
  0
XRECORD
  5
1BFC
102
{ACAD_REACTORS
330
1BFB
102
}
330
1BFB
100
AcDbXrecord
280
     1
102
RTVSPost2010Prop28
280
     0
102
RTVSPost2010PropOp28
 70
     1
102
RTVSPost2010Prop29
280
     1
102
RTVSPost2010PropOp29
 70
     1
102
RTVSPost2010Prop30
280
     1
102
RTVSPost2010PropOp30
 70
     1
102
RTVSPost2010Prop31
280
     0
102
RTVSPost2010PropOp31
 70
     1
102
RTVSPost2010Prop32
280
     0
102
RTVSPost2010PropOp32
 70
     1
102
RTVSPost2010Prop33
280
     0
102
RTVSPost2010PropOp33
 70
     1
102
RTVSPost2010Prop34
280
     0
102
RTVSPost2010PropOp34
 70
     1
102
RTVSPost2010Prop35
280
     0
102
RTVSPost2010PropOp35
 70
     1
102
RTVSPost2010Prop36
280
     0
102
RTVSPost2010PropOp36
 70
     1
102
RTVSPost2010Prop37
 90
       50
102
RTVSPost2010PropOp37
 70
     1
102
RTVSPost2010Prop38
140
0.0
102
RTVSPost2010PropOp38
 70
     1
102
RTVSPost2010Prop39
140
1.0
102
RTVSPost2010PropOp39
 70
     1
102
RTVSPost2010Prop40
 90
        0
102
RTVSPost2010PropOp40
 70
     1
102
RTVSPost2010Prop41ColorIndex
 90
       18
102
RTVSPost2010Prop41ColorRGB
 90
        0
102
RTVSPost2010PropOp41
 70
     1
102
RTVSPost2010Prop42
 90
       50
102
RTVSPost2010PropOp42
 70
     1
102
RTVSPost2010Prop43
 90
        3
102
RTVSPost2010PropOp43
 70
     1
102
RTVSPost2010Prop44ColorIndex
 90
        5
102
RTVSPost2010Prop44ColorRGB
 90
      255
102
RTVSPost2010PropOp44
 70
     1
102
RTVSPost2010Prop45
280
     0
102
RTVSPost2010PropOp45
 70
     1
102
RTVSPost2010Prop46
 90
       50
102
RTVSPost2010PropOp46
 70
     1
102
RTVSPost2010Prop47
 90
       50
102
RTVSPost2010PropOp47
 70
     1
102
RTVSPost2010Prop48
 90
       50
102
RTVSPost2010PropOp48
 70
     1
102
RTVSPost2010Prop49
280
     0
102
RTVSPost2010PropOp49
 70
     1
102
RTVSPost2010Prop50
 90
       50
102
RTVSPost2010PropOp50
 70
     1
102
RTVSPost2010Prop51ColorIndex
 90
      256
102
RTVSPost2010Prop51ColorRGB
 90
-16777216
102
RTVSPost2010PropOp51
 70
     0
102
RTVSPost2010Prop52
140
1.0
102
RTVSPost2010PropOp52
 70
     0
102
RTVSPost2010Prop53
 90
        2
102
RTVSPost2010PropOp53
 70
     1
102
RTVSPost2010Prop54
  1
strokes_ogs.tif
102
RTVSPost2010PropOp54
 70
     1
102
RTVSPost2010Prop55
280
     0
102
RTVSPost2010PropOp55
 70
     1
102
RTVSPost2010Prop56
140
1.0
102
RTVSPost2010PropOp56
 70
     1
102
RTVSPost2010Prop57
140
1.0
102
RTVSPost2010PropOp57
 70
     1
102
RTVSPropertyOp0
 70
     1
102
RTVSPropertyOp1
 70
     1
102
RTVSPropertyOp2
 70
     1
102
RTVSPropertyOp3
 70
     1
102
RTVSPropertyOp4
 70
     1
102
RTVSPropertyOp5
 70
     1
102
RTVSPropertyOp6
 70
     1
102
RTVSPropertyOp7
 70
     1
102
RTVSPropertyOp8
 70
     1
102
RTVSPropertyOp9
 70
     1
102
RTVSPropertyOp10
 70
     1
102
RTVSPropertyOp11
 70
     1
102
RTVSPropertyOp12
 70
     1
102
RTVSPropertyOp13
 70
     1
102
RTVSPropertyOp14
 70
     1
102
RTVSPropertyOp15
 70
     1
102
RTVSPropertyOp16
 70
     1
102
RTVSPropertyOp17
 70
     1
102
RTVSPropertyOp18
 70
     1
102
RTVSPropertyOp19
 70
     1
102
RTVSPropertyOp20
 70
     1
102
RTVSPropertyOp21
 70
     1
102
RTVSPropertyOp22
 70
     1
102
RTVSPropertyOp23
 70
     1
102
RTVSPropertyOp24
 70
     1
102
RTVSPropertyOp25
 70
     1
102
RTVSPropertyOp26
 70
     1
102
RTVSPropertyOp27
 70
     1
102
RTVSPropertyOp28
 70
     1
102
RTVSPropertyOp29
 70
     1
102
RTVSPropertyOp30
 70
     1
102
RTVSPropertyOp31
 70
     1
102
RTVSPropertyOp32
 70
     1
102
RTVSPropertyOp33
 70
     1
102
RTVSPropertyOp34
 70
     1
102
RTVSPropertyOp35
 70
     1
102
RTVSPropertyOp36
 70
     1
102
RTVSPropertyOp37
 70
     1
102
RTVSPropertyOp38
 70
     1
102
RTVSPropertyOp39
 70
     1
102
RTVSPropertyOp40
 70
     1
102
RTVSPropertyOp41
 70
     1
102
RTVSPropertyOp42
 70
     1
102
RTVSPropertyOp43
 70
     1
102
RTVSPropertyOp44
 70
     1
102
RTVSPropertyOp45
 70
     1
102
RTVSPropertyOp46
 70
     1
102
RTVSPropertyOp47
 70
     1
102
RTVSPropertyOp48
 70
     1
102
RTVSPropertyOp49
 70
     1
102
RTVSPropertyOp50
 70
     1
102
RTVSPropertyOp51
 70
     0
102
RTVSPropertyOp52
 70
     0
102
RTVSPropertyOp53
 70
     1
102
RTVSPropertyOp54
 70
     1
102
RTVSPropertyOp55
 70
     1
102
RTVSPropertyOp56
 70
     1
102
RTVSPropertyOp57
 70
     1
102
RTVSPropertyOp58
 70
     1
102
RTVSPropertyOp59
 70
     1
102
RTVSPropertyOp60
 70
     1
102
RTVSPropertyOp61
 70
     1
102
RTVSPropertyOp62
 70
     1
  0
XRECORD
  5
1C04
102
{ACAD_REACTORS
330
1C03
102
}
330
1C03
100
AcDbXrecord
280
     1
102
RTVSPost2010Prop28
280
     0
102
RTVSPost2010PropOp28
 70
     1
102
RTVSPost2010Prop29
280
     1
102
RTVSPost2010PropOp29
 70
     1
102
RTVSPost2010Prop30
280
     1
102
RTVSPost2010PropOp30
 70
     1
102
RTVSPost2010Prop31
280
     0
102
RTVSPost2010PropOp31
 70
     1
102
RTVSPost2010Prop32
280
     0
102
RTVSPost2010PropOp32
 70
     1
102
RTVSPost2010Prop33
280
     0
102
RTVSPost2010PropOp33
 70
     1
102
RTVSPost2010Prop34
280
     0
102
RTVSPost2010PropOp34
 70
     1
102
RTVSPost2010Prop35
280
     0
102
RTVSPost2010PropOp35
 70
     1
102
RTVSPost2010Prop36
280
     0
102
RTVSPost2010PropOp36
 70
     1
102
RTVSPost2010Prop37
 90
       50
102
RTVSPost2010PropOp37
 70
     1
102
RTVSPost2010Prop38
140
0.0
102
RTVSPost2010PropOp38
 70
     1
102
RTVSPost2010Prop39
140
1.0
102
RTVSPost2010PropOp39
 70
     1
102
RTVSPost2010Prop40
 90
        0
102
RTVSPost2010PropOp40
 70
     1
102
RTVSPost2010Prop41ColorIndex
 90
       18
102
RTVSPost2010Prop41ColorRGB
 90
        0
102
RTVSPost2010PropOp41
 70
     1
102
RTVSPost2010Prop42
 90
       50
102
RTVSPost2010PropOp42
 70
     1
102
RTVSPost2010Prop43
 90
        3
102
RTVSPost2010PropOp43
 70
     1
102
RTVSPost2010Prop44ColorIndex
 90
        5
102
RTVSPost2010Prop44ColorRGB
 90
      255
102
RTVSPost2010PropOp44
 70
     1
102
RTVSPost2010Prop45
280
     0
102
RTVSPost2010PropOp45
 70
     1
102
RTVSPost2010Prop46
 90
       50
102
RTVSPost2010PropOp46
 70
     1
102
RTVSPost2010Prop47
 90
       50
102
RTVSPost2010PropOp47
 70
     1
102
RTVSPost2010Prop48
 90
       50
102
RTVSPost2010PropOp48
 70
     1
102
RTVSPost2010Prop49
280
     0
102
RTVSPost2010PropOp49
 70
     1
102
RTVSPost2010Prop50
 90
       50
102
RTVSPost2010PropOp50
 70
     1
102
RTVSPost2010Prop51ColorIndex
 90
      256
102
RTVSPost2010Prop51ColorRGB
 90
-16777216
102
RTVSPost2010PropOp51
 70
     0
102
RTVSPost2010Prop52
140
1.0
102
RTVSPost2010PropOp52
 70
     0
102
RTVSPost2010Prop53
 90
        2
102
RTVSPost2010PropOp53
 70
     1
102
RTVSPost2010Prop54
  1
strokes_ogs.tif
102
RTVSPost2010PropOp54
 70
     1
102
RTVSPost2010Prop55
280
     0
102
RTVSPost2010PropOp55
 70
     1
102
RTVSPost2010Prop56
140
1.0
102
RTVSPost2010PropOp56
 70
     1
102
RTVSPost2010Prop57
140
1.0
102
RTVSPost2010PropOp57
 70
     1
102
RTVSPropertyOp0
 70
     1
102
RTVSPropertyOp1
 70
     1
102
RTVSPropertyOp2
 70
     1
102
RTVSPropertyOp3
 70
     1
102
RTVSPropertyOp4
 70
     1
102
RTVSPropertyOp5
 70
     1
102
RTVSPropertyOp6
 70
     1
102
RTVSPropertyOp7
 70
     1
102
RTVSPropertyOp8
 70
     1
102
RTVSPropertyOp9
 70
     1
102
RTVSPropertyOp10
 70
     1
102
RTVSPropertyOp11
 70
     1
102
RTVSPropertyOp12
 70
     1
102
RTVSPropertyOp13
 70
     1
102
RTVSPropertyOp14
 70
     1
102
RTVSPropertyOp15
 70
     1
102
RTVSPropertyOp16
 70
     1
102
RTVSPropertyOp17
 70
     1
102
RTVSPropertyOp18
 70
     1
102
RTVSPropertyOp19
 70
     1
102
RTVSPropertyOp20
 70
     1
102
RTVSPropertyOp21
 70
     1
102
RTVSPropertyOp22
 70
     1
102
RTVSPropertyOp23
 70
     1
102
RTVSPropertyOp24
 70
     1
102
RTVSPropertyOp25
 70
     1
102
RTVSPropertyOp26
 70
     1
102
RTVSPropertyOp27
 70
     1
102
RTVSPropertyOp28
 70
     1
102
RTVSPropertyOp29
 70
     1
102
RTVSPropertyOp30
 70
     1
102
RTVSPropertyOp31
 70
     1
102
RTVSPropertyOp32
 70
     1
102
RTVSPropertyOp33
 70
     1
102
RTVSPropertyOp34
 70
     1
102
RTVSPropertyOp35
 70
     1
102
RTVSPropertyOp36
 70
     1
102
RTVSPropertyOp37
 70
     1
102
RTVSPropertyOp38
 70
     1
102
RTVSPropertyOp39
 70
     1
102
RTVSPropertyOp40
 70
     1
102
RTVSPropertyOp41
 70
     1
102
RTVSPropertyOp42
 70
     1
102
RTVSPropertyOp43
 70
     1
102
RTVSPropertyOp44
 70
     1
102
RTVSPropertyOp45
 70
     1
102
RTVSPropertyOp46
 70
     1
102
RTVSPropertyOp47
 70
     1
102
RTVSPropertyOp48
 70
     1
102
RTVSPropertyOp49
 70
     1
102
RTVSPropertyOp50
 70
     1
102
RTVSPropertyOp51
 70
     0
102
RTVSPropertyOp52
 70
     0
102
RTVSPropertyOp53
 70
     1
102
RTVSPropertyOp54
 70
     1
102
RTVSPropertyOp55
 70
     1
102
RTVSPropertyOp56
 70
     1
102
RTVSPropertyOp57
 70
     1
102
RTVSPropertyOp58
 70
     1
102
RTVSPropertyOp59
 70
     1
102
RTVSPropertyOp60
 70
     1
102
RTVSPropertyOp61
 70
     1
102
RTVSPropertyOp62
 70
     1
  0
ENDSEC
  0
EOF
