  0
SECTION
  2
HEADER
  9
$ACADVER
  1
AC1012
  9
$DWGCODEPAGE
  3
ANSI_1252
  9
$INSBASE
 10
0.0
 20
0.0
 30
0.0
  9
$EXTMIN
 10
-34.54958400000001
 20
-47.49622599999999
 30
0.0
  9
$EXTMAX
 10
64.11488300000001
 20
50.996226
 30
0.0
  9
$LIMMIN
 10
-170.0
 20
-170.0
  9
$LIMMAX
 10
519.0
 20
260.0
  9
$ORTHOMODE
 70
     0
  9
$REGENMODE
 70
     1
  9
$FILLMODE
 70
     1
  9
$QTEXTMODE
 70
     0
  9
$MIRRTEXT
 70
     1
  9
$DRAGMODE
 70
     2
  9
$LTSCALE
 40
10.0
  9
$OSMODE
 70
    37
  9
$ATTMODE
 70
     1
  9
$TEXTSIZE
 40
3.5
  9
$TRACEWID
 40
0.05
  9
$TEXTSTYLE
  7
SIMPLEX
  9
$CLAYER
  8
SK6
  9
$CELTYPE
  6
BYLAYER
  9
$CECOLOR
 62
   256
  9
$CELTSCALE
 40
1.0
  9
$DELOBJ
 70
     1
  9
$DISPSILH
 70
     0
  9
$DIMSCALE
 40
0.0
  9
$DIMASZ
 40
3.5
  9
$DIMEXO
 40
1.0
  9
$DIMDLI
 40
0.38
  9
$DIMRND
 40
0.0
  9
$DIMDLE
 40
0.0
  9
$DIMEXE
 40
1.0
  9
$DIMTP
 40
0.0
  9
$DIMTM
 40
0.0
  9
$DIMTXT
 40
3.5
  9
$DIMCEN
 40
0.09
  9
$DIMTSZ
 40
0.0
  9
$DIMTOL
 70
     0
  9
$DIMLIM
 70
     0
  9
$DIMTIH
 70
     0
  9
$DIMTOH
 70
     0
  9
$DIMSE1
 70
     0
  9
$DIMSE2
 70
     0
  9
$DIMTAD
 70
     1
  9
$DIMZIN
 70
     8
  9
$DIMBLK
  1

  9
$DIMASO
 70
     1
  9
$DIMSHO
 70
     1
  9
$DIMPOST
  1

  9
$DIMAPOST
  1

  9
$DIMALT
 70
     0
  9
$DIMALTD
 70
     2
  9
$DIMALTF
 40
25.4
  9
$DIMLFAC
 40
1.0
  9
$DIMTOFL
 70
     0
  9
$DIMTVP
 40
0.0
  9
$DIMTIX
 70
     0
  9
$DIMSOXD
 70
     1
  9
$DIMSAH
 70
     0
  9
$DIMBLK1
  1

  9
$DIMBLK2
  1

  9
$DIMSTYLE
  2
STANDARD
  9
$DIMCLRD
 70
     0
  9
$DIMCLRE
 70
     0
  9
$DIMCLRT
 70
     0
  9
$DIMTFAC
 40
1.0
  9
$DIMGAP
 40
1.0
  9
$DIMJUST
 70
     0
  9
$DIMSD1
 70
     0
  9
$DIMSD2
 70
     0
  9
$DIMTOLJ
 70
     1
  9
$DIMTZIN
 70
     0
  9
$DIMALTZ
 70
     0
  9
$DIMALTTZ
 70
     0
  9
$DIMFIT
 70
     3
  9
$DIMUPT
 70
     0
  9
$DIMUNIT
 70
     2
  9
$DIMDEC
 70
     4
  9
$DIMTDEC
 70
     4
  9
$DIMALTU
 70
     2
  9
$DIMALTTD
 70
     2
  9
$DIMTXSTY
  7
STANDARD
  9
$DIMAUNIT
 70
     0
  9
$LUNITS
 70
     2
  9
$LUPREC
 70
     2
  9
$SKETCHINC
 40
0.1
  9
$FILLETRAD
 40
0.0
  9
$AUNITS
 70
     0
  9
$AUPREC
 70
     0
  9
$MENU
  1
TDMWIN
  9
$ELEVATION
 40
0.0
  9
$PELEVATION
 40
0.0
  9
$THICKNESS
 40
0.0
  9
$LIMCHECK
 70
     0
  9
$BLIPMODE
 70
     0
  9
$CHAMFERA
 40
0.0
  9
$CHAMFERB
 40
0.0
  9
$CHAMFERC
 40
0.0
  9
$CHAMFERD
 40
0.0
  9
$SKPOLY
 70
     0
  9
$TDCREATE
 40
2451654.466244792
  9
$TDUPDATE
 40
2454181.455719224
  9
$TDINDWG
 40
0.0201633449
  9
$TDUSRTIMER
 40
0.0201628241
  9
$USRTIMER
 70
     1
  9
$ANGBASE
 50
0.0
  9
$ANGDIR
 70
     0
  9
$PDMODE
 70
     2
  9
$PDSIZE
 40
0.0
  9
$PLINEWID
 40
0.0
  9
$COORDS
 70
     0
  9
$SPLFRAME
 70
     0
  9
$SPLINETYPE
 70
     6
  9
$SPLINESEGS
 70
     8
  9
$ATTDIA
 70
     0
  9
$ATTREQ
 70
     1
  9
$HANDLING
 70
-16383
  9
$HANDSEED
  5
11DE
  9
$SURFTAB1
 70
     6
  9
$SURFTAB2
 70
     6
  9
$SURFTYPE
 70
     6
  9
$SURFU
 70
     6
  9
$SURFV
 70
     6
  9
$UCSNAME
  2

  9
$UCSORG
 10
0.0
 20
0.0
 30
0.0
  9
$UCSXDIR
 10
1.0
 20
0.0
 30
0.0
  9
$UCSYDIR
 10
0.0
 20
1.0
 30
0.0
  9
$PUCSNAME
  2

  9
$PUCSORG
 10
0.0
 20
0.0
 30
0.0
  9
$PUCSXDIR
 10
1.0
 20
0.0
 30
0.0
  9
$PUCSYDIR
 10
0.0
 20
1.0
 30
0.0
  9
$USERI1
 70
     0
  9
$USERI2
 70
     0
  9
$USERI3
 70
     0
  9
$USERI4
 70
     0
  9
$USERI5
 70
     0
  9
$USERR1
 40
0.0
  9
$USERR2
 40
0.0
  9
$USERR3
 40
0.0
  9
$USERR4
 40
0.0
  9
$USERR5
 40
0.0
  9
$WORLDVIEW
 70
     1
  9
$SHADEDGE
 70
     3
  9
$SHADEDIF
 70
    70
  9
$TILEMODE
 70
     1
  9
$MAXACTVP
 70
    16
  9
$PINSBASE
 10
0.0
 20
0.0
 30
0.0
  9
$PLIMCHECK
 70
     0
  9
$PEXTMIN
 10
1.000000000000000E+20
 20
1.000000000000000E+20
 30
1.000000000000000E+20
  9
$PEXTMAX
 10
-1.000000000000000E+20
 20
-1.000000000000000E+20
 30
-1.000000000000000E+20
  9
$PLIMMIN
 10
0.0
 20
0.0
  9
$PLIMMAX
 10
12.0
 20
9.0
  9
$UNITMODE
 70
     0
  9
$VISRETAIN
 70
     0
  9
$PLINEGEN
 70
     0
  9
$PSLTSCALE
 70
     0
  9
$TREEDEPTH
 70
  3020
  9
$PICKSTYLE
 70
     1
  9
$CMLSTYLE
  2
STANDARD
  9
$CMLJUST
 70
     0
  9
$CMLSCALE
 40
1.0
  9
$SAVEIMAGES
 70
     1
  0
ENDSEC
  0
SECTION
  2
CLASSES
  0
CLASS
  1
ACDBDICTIONARYWDFLT
  2
AcDbDictionaryWithDefault
  3
AutoCAD 2000
 90
    32768
280
     0
281
     0
  0
CLASS
  1
ACDBPLACEHOLDER
  2
AcDbPlaceHolder
  3
AutoCAD 2000
 90
    32768
280
     0
281
     0
  0
CLASS
  1
LAYOUT
  2
AcDbLayout
  3
AutoCAD 2000
 90
    32768
280
     0
281
     0
  0
CLASS
  1
LONG_TRANSACTION
  2
AcDbLongTransaction
  3
AutoCAD 2000
 90
    32768
280
     0
281
     0
  0
CLASS
  1
LWPOLYLINE
  2
AcDbPolyline
  3
AutoCAD 2000
 90
    32768
280
     0
281
     1
  0
CLASS
  1
HATCH
  2
AcDbHatch
  3
AutoCAD 2000
 90
    32768
280
     0
281
     1
  0
CLASS
  1
XRECORD
  2
AcDbXrecord
  3
AutoCAD 2000
 90
    32768
280
     0
281
     0
  0
CLASS
  1
LONG_TRANSACTION
  2
AcDbLongTransaction
  3
AutoCAD 2000
 90
    32768
280
     0
281
     0
  0
CLASS
  1
LWPOLYLINE
  2
AcDbPolyline
  3
AutoCAD 2000
 90
    32768
280
     0
281
     1
  0
CLASS
  1
HATCH
  2
AcDbHatch
  3
AutoCAD 2000
 90
    32768
280
     0
281
     1
  0
CLASS
  1
XRECORD
  2
AcDbXrecord
  3
AutoCAD 2000
 90
    32768
280
     0
281
     0
  0
CLASS
  1
LONG_TRANSACTION
  2
AcDbLongTransaction
  3
AutoCAD 2000
 90
    32768
280
     0
281
     0
  0
CLASS
  1
LWPOLYLINE
  2
AcDbPolyline
  3
AutoCAD 2000
 90
    32768
280
     0
281
     1
  0
CLASS
  1
HATCH
  2
AcDbHatch
  3
AutoCAD 2000
 90
    32768
280
     0
281
     1
  0
CLASS
  1
XRECORD
  2
AcDbXrecord
  3
AutoCAD 2000
 90
    32768
280
     0
281
     0
  0
CLASS
  1
LONG_TRANSACTION
  2
AcDbLongTransaction
  3
AutoCAD 2000
 90
    32768
280
     0
281
     0
  0
CLASS
  1
LWPOLYLINE
  2
AcDbPolyline
  3
AutoCAD 2000
 90
    32768
280
     0
281
     1
  0
CLASS
  1
HATCH
  2
AcDbHatch
  3
AutoCAD 2000
 90
    32768
280
     0
281
     1
  0
CLASS
  1
XRECORD
  2
AcDbXrecord
  3
AutoCAD 2000
 90
    32768
280
     0
281
     0
  0
CLASS
  1
LONG_TRANSACTION
  2
AcDbLongTransaction
  3
AutoCAD 2000
 90
    32768
280
     0
281
     0
  0
CLASS
  1
LWPOLYLINE
  2
AcDbPolyline
  3
AutoCAD 2000
 90
    32768
280
     0
281
     1
  0
CLASS
  1
HATCH
  2
AcDbHatch
  3
AutoCAD 2000
 90
    32768
280
     0
281
     1
  0
CLASS
  1
XRECORD
  2
AcDbXrecord
  3
AutoCAD 2000
 90
    32768
280
     0
281
     0
  0
ENDSEC
  0
SECTION
  2
TABLES
  0
TABLE
  2
VPORT
  5
8
330
0
100
AcDbSymbolTable
 70
     3
  0
VPORT
  5
11D1
330
8
100
AcDbSymbolTableRecord
100
AcDbViewportTableRecord
  2
*ACTIVE
 70
     0
 10
0.0
 20
0.0
 11
1.0
 21
1.0
 12
35.42319070002176
 22
12.89387285911077
 13
0.0
 23
0.0
 14
5.0
 24
5.0
 15
5.0
 25
5.0
 16
0.0
 26
0.0
 36
1.0
 17
0.0
 27
0.0
 37
0.0
 40
129.2085311802861
 41
1.674101610904584
 42
50.0
 43
0.0
 44
0.0
 50
0.0
 51
0.0
 71
     0
 72
   100
 73
     1
 74
     3
 75
     0
 76
     0
 77
     0
 78
     0
  0
ENDTAB
  0
TABLE
  2
LTYPE
  5
5
330
0
100
AcDbSymbolTable
 70
     3
  0
LTYPE
  5
13
330
5
100
AcDbSymbolTableRecord
100
AcDbLinetypeTableRecord
  2
BYBLOCK
 70
     0
  3

 72
    65
 73
     0
 40
0.0
  0
LTYPE
  5
14
330
5
100
AcDbSymbolTableRecord
100
AcDbLinetypeTableRecord
  2
BYLAYER
 70
     0
  3

 72
    65
 73
     0
 40
0.0
  0
LTYPE
  5
15
330
5
100
AcDbSymbolTableRecord
100
AcDbLinetypeTableRecord
  2
CONTINUOUS
 70
     0
  3
Solid line
 72
    65
 73
     0
 40
0.0
  0
LTYPE
  5
20
330
5
100
AcDbSymbolTableRecord
100
AcDbLinetypeTableRecord
  2
CENTER
 70
     0
  3
____ . ____ . ____
 72
    65
 73
     4
 40
1.5
 49
1.0
 74
     0
 49
-0.25
 74
     0
 49
0.0
 74
     0
 49
-0.25
 74
     0
  0
LTYPE
  5
21
330
5
100
AcDbSymbolTableRecord
100
AcDbLinetypeTableRecord
  2
HIDDEN
 70
     0
  3
_ _ _ _ _ _ _ _ _ _ _ _ _ _ _ _ _ _ _ _ _ _ _
 72
    65
 73
     2
 40
0.375
 49
0.25
 74
     0
 49
-0.125
 74
     0
  0
ENDTAB
  0
TABLE
  2
LAYER
  5
2
330
0
100
AcDbSymbolTable
 70
    16
  0
LAYER
  5
F
330
2
100
AcDbSymbolTableRecord
100
AcDbLayerTableRecord
  2
0
 70
     0
 62
     7
  6
CONTINUOUS
  0
LAYER
  5
1E
330
2
100
AcDbSymbolTableRecord
100
AcDbLayerTableRecord
  2
1
 70
     0
 62
     4
  6
CONTINUOUS
  0
LAYER
  5
22
330
2
100
AcDbSymbolTableRecord
100
AcDbLayerTableRecord
  2
SK1
 70
     0
 62
     4
  6
CONTINUOUS
  0
LAYER
  5
23
330
2
100
AcDbSymbolTableRecord
100
AcDbLayerTableRecord
  2
2
 70
     0
 62
     7
  6
CONTINUOUS
  0
LAYER
  5
24
330
2
100
AcDbSymbolTableRecord
100
AcDbLayerTableRecord
  2
2L
 70
     0
 62
     7
  6
CONTINUOUS
  0
LAYER
  5
25
330
2
100
AcDbSymbolTableRecord
100
AcDbLayerTableRecord
  2
SK2
 70
     0
 62
     7
  6
CONTINUOUS
  0
LAYER
  5
26
330
2
100
AcDbSymbolTableRecord
100
AcDbLayerTableRecord
  2
3
 70
     0
 62
     1
  6
HIDDEN
  0
LAYER
  5
27
330
2
100
AcDbSymbolTableRecord
100
AcDbLayerTableRecord
  2
SK3
 70
     0
 62
     1
  6
HIDDEN
  0
LAYER
  5
28
330
2
100
AcDbSymbolTableRecord
100
AcDbLayerTableRecord
  2
4
 70
     0
 62
     2
  6
CENTER
  0
LAYER
  5
29
330
2
100
AcDbSymbolTableRecord
100
AcDbLayerTableRecord
  2
SK4
 70
     0
 62
     2
  6
CENTER
  0
LAYER
  5
2A
330
2
100
AcDbSymbolTableRecord
100
AcDbLayerTableRecord
  2
5
 70
     0
 62
     7
  6
CONTINUOUS
  0
LAYER
  5
2B
330
2
100
AcDbSymbolTableRecord
100
AcDbLayerTableRecord
  2
6
 70
     0
 62
     5
  6
CONTINUOUS
  0
LAYER
  5
2C
330
2
100
AcDbSymbolTableRecord
100
AcDbLayerTableRecord
  2
SK6
 70
     0
 62
     5
  6
CONTINUOUS
  0
LAYER
  5
2D
330
2
100
AcDbSymbolTableRecord
100
AcDbLayerTableRecord
  2
243
 70
     0
 62
     7
  6
CONTINUOUS
  0
LAYER
  5
2E
330
2
100
AcDbSymbolTableRecord
100
AcDbLayerTableRecord
  2
DEFPOINTS
 70
     0
 62
     7
  6
CONTINUOUS
  0
LAYER
  5
A85
330
2
100
AcDbSymbolTableRecord
100
AcDbLayerTableRecord
  2
SKIKT_1
 70
     0
 62
     7
  6
CONTINUOUS
  0
ENDTAB
  0
TABLE
  2
STYLE
  5
3
330
0
100
AcDbSymbolTable
 70
     3
  0
STYLE
  5
10
330
3
100
AcDbSymbolTableRecord
100
AcDbTextStyleTableRecord
  2
STANDARD
 70
     0
 40
0.0
 41
1.0
 50
0.0
 71
     0
 42
5.0
  3
txt
  4

  0
STYLE
  5
1F
330
3
100
AcDbSymbolTableRecord
100
AcDbTextStyleTableRecord
  2
SIMPLEX
 70
     0
 40
0.0
 41
1.0
 50
0.0
 71
     0
 42
3.5
  3
simplex
  4

  0
STYLE
  5
2F
330
3
100
AcDbSymbolTableRecord
100
AcDbTextStyleTableRecord
  2
TXT
 70
     0
 40
8.0
 41
1.0
 50
0.0
 71
     0
 42
8.0
  3
txt
  4

  0
ENDTAB
  0
TABLE
  2
VIEW
  5
6
330
0
100
AcDbSymbolTable
 70
     0
  0
ENDTAB
  0
TABLE
  2
UCS
  5
7
330
0
100
AcDbSymbolTable
 70
     0
  0
ENDTAB
  0
TABLE
  2
APPID
  5
9
330
0
100
AcDbSymbolTable
 70
     1
  0
APPID
  5
11
330
9
100
AcDbSymbolTableRecord
100
AcDbRegAppTableRecord
  2
ACAD
 70
     0
  0
ENDTAB
  0
TABLE
  2
DIMSTYLE
  5
A
330
0
100
AcDbSymbolTable
 70
     1
  0
DIMSTYLE
105
980
102
{ACAD_REACTORS
330
EE5
330
106C
330
1084
330
109E
102
}
330
A
100
AcDbSymbolTableRecord
100
AcDbDimStyleTableRecord
  2
STANDARD
 70
     0
  3

  4

  5

  6

  7

 40
1.0
 41
0.18
 42
0.0625
 43
0.38
 44
0.18
 45
0.0
 46
0.0
 47
0.0
 48
0.0
140
0.18
141
0.09
142
0.0
143
25.4
144
1.0
145
0.0
146
1.0
147
0.09
 71
     0
 72
     0
 73
     1
 74
     1
 75
     0
 76
     0
 77
     0
 78
     0
170
     0
171
     2
172
     0
173
     0
174
     0
175
     0
176
     0
177
     0
178
     0
270
     2
271
     4
272
     4
273
     2
274
     2
340
10
275
     0
280
     0
281
     0
282
     0
283
     1
284
     0
285
     0
286
     0
287
     3
288
     0
  0
ENDTAB
  0
TABLE
  2
BLOCK_RECORD
  5
1
330
0
100
AcDbSymbolTable
 70
    16
  0
BLOCK_RECORD
  5
19
102
{ACAD_XDICTIONARY
360
10E6
102
}
330
1
100
AcDbSymbolTableRecord
100
AcDbBlockTableRecord
  2
*MODEL_SPACE
  0
BLOCK_RECORD
  5
16
102
{ACAD_XDICTIONARY
360
10E4
102
}
330
1
100
AcDbSymbolTableRecord
100
AcDbBlockTableRecord
  2
*PAPER_SPACE
  0
BLOCK_RECORD
  5
A86
330
1
100
AcDbSymbolTableRecord
100
AcDbBlockTableRecord
  2
1444
  0
BLOCK_RECORD
  5
E52
330
1
100
AcDbSymbolTableRecord
100
AcDbBlockTableRecord
  2
*D1
  0
BLOCK_RECORD
  5
E60
330
1
100
AcDbSymbolTableRecord
100
AcDbBlockTableRecord
  2
*D2
  0
BLOCK_RECORD
  5
E84
330
1
100
AcDbSymbolTableRecord
100
AcDbBlockTableRecord
  2
*D3
  0
BLOCK_RECORD
  5
EBD
330
1
100
AcDbSymbolTableRecord
100
AcDbBlockTableRecord
  2
*D4
  0
BLOCK_RECORD
  5
ECA
330
1
100
AcDbSymbolTableRecord
100
AcDbBlockTableRecord
  2
*D5
  0
BLOCK_RECORD
  5
ED8
330
1
100
AcDbSymbolTableRecord
100
AcDbBlockTableRecord
  2
*D6
  0
BLOCK_RECORD
  5
FB2
330
1
100
AcDbSymbolTableRecord
100
AcDbBlockTableRecord
  2
*D7
  0
BLOCK_RECORD
  5
FBF
330
1
100
AcDbSymbolTableRecord
100
AcDbBlockTableRecord
  2
*D8
  0
BLOCK_RECORD
  5
FCC
330
1
100
AcDbSymbolTableRecord
100
AcDbBlockTableRecord
  2
*D9
  0
BLOCK_RECORD
  5
FD9
330
1
100
AcDbSymbolTableRecord
100
AcDbBlockTableRecord
  2
*D10
  0
BLOCK_RECORD
  5
FF1
330
1
100
AcDbSymbolTableRecord
100
AcDbBlockTableRecord
  2
*D11
  0
BLOCK_RECORD
  5
1060
330
1
100
AcDbSymbolTableRecord
100
AcDbBlockTableRecord
  2
*D12
  0
BLOCK_RECORD
  5
1078
330
1
100
AcDbSymbolTableRecord
100
AcDbBlockTableRecord
  2
*D13
  0
BLOCK_RECORD
  5
1085
330
1
100
AcDbSymbolTableRecord
100
AcDbBlockTableRecord
  2
*D14
  0
BLOCK_RECORD
  5
1092
330
1
100
AcDbSymbolTableRecord
100
AcDbBlockTableRecord
  2
*D15
  0
ENDTAB
  0
ENDSEC
  0
SECTION
  2
BLOCKS
  0
BLOCK
  5
1A
330
19
100
AcDbEntity
  8
0
100
AcDbBlockBegin
  2
*MODEL_SPACE
 70
     0
 10
0.0
 20
0.0
 30
0.0
  3
*MODEL_SPACE
  1

  0
ENDBLK
  5
1B
330
19
100
AcDbEntity
  8
0
100
AcDbBlockEnd
  0
BLOCK
  5
17
330
16
100
AcDbEntity
 67
     1
  8
0
100
AcDbBlockBegin
  2
*PAPER_SPACE
 70
     0
 10
0.0
 20
0.0
 30
0.0
  3
*PAPER_SPACE
  1

  0
ENDBLK
  5
18
330
16
100
AcDbEntity
 67
     1
  8
0
100
AcDbBlockEnd
  0
BLOCK
  5
C6B
330
A86
100
AcDbEntity
  8
0
100
AcDbBlockBegin
  2
1444
 70
     0
 10
0.0
 20
0.0
 30
0.0
  3
1444
  1

  0
LINE
  5
A87
330
A86
100
AcDbEntity
  8
SKIKT_1
  6
CONTINUOUS
 62
     7
100
AcDbLine
 10
2.277465
 20
-1.800506
 30
0.0
 11
2.277465
 21
-2.835135999999998
 31
0.0
  0
LINE
  5
A88
330
A86
100
AcDbEntity
  8
SKIKT_1
  6
CONTINUOUS
 62
     7
100
AcDbLine
 10
0.8714259999999999
 20
-1.528580999999999
 30
0.0
 11
0.9377559999999999
 21
-1.601536999999999
 31
0.0
  0
LINE
  5
A89
330
A86
100
AcDbEntity
  8
SKIKT_1
  6
CONTINUOUS
 62
     7
100
AcDbLine
 10
0.4624430000000002
 20
-2.5217
 30
0.0
 11
0.4536030000000002
 21
-2.543316999999999
 31
0.0
  0
LINE
  5
A8A
330
A86
100
AcDbEntity
  8
SKIKT_1
  6
CONTINUOUS
 62
     7
100
AcDbLine
 10
0.4624430000000002
 20
-2.498610999999999
 30
0.0
 11
0.4624430000000002
 21
-2.5217
 31
0.0
  0
LINE
  5
A8B
330
A86
100
AcDbEntity
  8
SKIKT_1
  6
CONTINUOUS
 62
     7
100
AcDbLine
 10
0.4536030000000002
 20
-2.476993999999999
 30
0.0
 11
0.4624430000000002
 21
-2.498610999999999
 31
0.0
  0
LINE
  5
A8C
330
A86
100
AcDbEntity
  8
SKIKT_1
  6
CONTINUOUS
 62
     7
100
AcDbLine
 10
0.4319840000000001
 20
-2.463486
 30
0.0
 11
0.4536030000000002
 21
-2.476993999999999
 31
0.0
  0
LINE
  5
A8D
330
A86
100
AcDbEntity
  8
SKIKT_1
  6
CONTINUOUS
 62
     7
100
AcDbLine
 10
0.4088930000000002
 20
-2.461765999999999
 30
0.0
 11
0.4319840000000001
 21
-2.463486
 31
0.0
  0
LINE
  5
A8E
330
A86
100
AcDbEntity
  8
SKIKT_1
  6
CONTINUOUS
 62
     7
100
AcDbLine
 10
0.387276
 20
-2.470359999999999
 30
0.0
 11
0.4088930000000002
 21
-2.461765999999999
 31
0.0
  0
LINE
  5
A8F
330
A86
100
AcDbEntity
  8
SKIKT_1
  6
CONTINUOUS
 62
     7
100
AcDbLine
 10
0.9780499999999999
 20
-2.211395999999999
 30
0.0
 11
0.9775439999999999
 21
-2.231603999999999
 31
0.0
  0
LINE
  5
A90
330
A86
100
AcDbEntity
  8
SKIKT_1
  6
CONTINUOUS
 62
     7
100
AcDbLine
 10
0.9784649999999999
 20
-2.191650999999998
 30
0.0
 11
0.9780499999999999
 21
-2.211395999999999
 31
0.0
  0
LINE
  5
A91
330
A86
100
AcDbEntity
  8
SKIKT_1
  6
CONTINUOUS
 62
     7
100
AcDbLine
 10
0.9787869999999999
 20
-2.172343
 30
0.0
 11
0.9784649999999999
 21
-2.191650999999998
 31
0.0
  0
LINE
  5
A92
330
A86
100
AcDbEntity
  8
SKIKT_1
  6
CONTINUOUS
 62
     7
100
AcDbLine
 10
0.9790169999999999
 20
-2.153443999999999
 30
0.0
 11
0.9787869999999999
 21
-2.172343
 31
0.0
  0
LINE
  5
A93
330
A86
100
AcDbEntity
  8
SKIKT_1
  6
CONTINUOUS
 62
     7
100
AcDbLine
 10
0.9791549999999999
 20
-2.134927999999999
 30
0.0
 11
0.9790169999999999
 21
-2.153443999999999
 31
0.0
  0
LINE
  5
A94
330
A86
100
AcDbEntity
  8
SKIKT_1
  6
CONTINUOUS
 62
     7
100
AcDbLine
 10
0.9792009999999999
 20
-2.116766
 30
0.0
 11
0.9791549999999999
 21
-2.134927999999999
 31
0.0
  0
LINE
  5
A95
330
A86
100
AcDbEntity
  8
SKIKT_1
  6
CONTINUOUS
 62
     7
100
AcDbLine
 10
0.9791549999999999
 20
-2.098932
 30
0.0
 11
0.9792009999999999
 21
-2.116766
 31
0.0
  0
LINE
  5
A96
330
A86
100
AcDbEntity
  8
SKIKT_1
  6
CONTINUOUS
 62
     7
100
AcDbLine
 10
0.9790169999999999
 20
-2.081398
 30
0.0
 11
0.9791549999999999
 21
-2.098932
 31
0.0
  0
LINE
  5
A97
330
A86
100
AcDbEntity
  8
SKIKT_1
  6
CONTINUOUS
 62
     7
100
AcDbLine
 10
0.978786
 20
-2.064137
 30
0.0
 11
0.9790169999999999
 21
-2.081398
 31
0.0
  0
LINE
  5
A98
330
A86
100
AcDbEntity
  8
SKIKT_1
  6
CONTINUOUS
 62
     7
100
AcDbLine
 10
0.9784639999999999
 20
-2.047122
 30
0.0
 11
0.978786
 21
-2.064137
 31
0.0
  0
LINE
  5
A99
330
A86
100
AcDbEntity
  8
SKIKT_1
  6
CONTINUOUS
 62
     7
100
AcDbLine
 10
0.978049
 20
-2.030324999999999
 30
0.0
 11
0.9784639999999999
 21
-2.047122
 31
0.0
  0
LINE
  5
A9A
330
A86
100
AcDbEntity
  8
SKIKT_1
  6
CONTINUOUS
 62
     7
100
AcDbLine
 10
0.977543
 20
-2.013719
 30
0.0
 11
0.978049
 21
-2.030324999999999
 31
0.0
  0
LINE
  5
A9B
330
A86
100
AcDbEntity
  8
SKIKT_1
  6
CONTINUOUS
 62
     7
100
AcDbLine
 10
0.9769439999999999
 20
-1.997277
 30
0.0
 11
0.977543
 21
-2.013719
 31
0.0
  0
LINE
  5
A9C
330
A86
100
AcDbEntity
  8
SKIKT_1
  6
CONTINUOUS
 62
     7
100
AcDbLine
 10
0.9762529999999999
 20
-1.980970999999999
 30
0.0
 11
0.9769439999999999
 21
-1.997277
 31
0.0
  0
LINE
  5
A9D
330
A86
100
AcDbEntity
  8
SKIKT_1
  6
CONTINUOUS
 62
     7
100
AcDbLine
 10
0.9754699999999999
 20
-1.964774999999999
 30
0.0
 11
0.9762529999999999
 21
-1.980970999999999
 31
0.0
  0
LINE
  5
A9E
330
A86
100
AcDbEntity
  8
SKIKT_1
  6
CONTINUOUS
 62
     7
100
AcDbLine
 10
0.974595
 20
-1.948659999999999
 30
0.0
 11
0.9754699999999999
 21
-1.964774999999999
 31
0.0
  0
LINE
  5
A9F
330
A86
100
AcDbEntity
  8
SKIKT_1
  6
CONTINUOUS
 62
     7
100
AcDbLine
 10
0.973628
 20
-1.9326
 30
0.0
 11
0.974595
 21
-1.948659999999999
 31
0.0
  0
LINE
  5
AA0
330
A86
100
AcDbEntity
  8
SKIKT_1
  6
CONTINUOUS
 62
     7
100
AcDbLine
 10
0.972569
 20
-1.916568
 30
0.0
 11
0.973628
 21
-1.9326
 31
0.0
  0
LINE
  5
AA1
330
A86
100
AcDbEntity
  8
SKIKT_1
  6
CONTINUOUS
 62
     7
100
AcDbLine
 10
0.971418
 20
-1.900534999999999
 30
0.0
 11
0.972569
 21
-1.916568
 31
0.0
  0
LINE
  5
AA2
330
A86
100
AcDbEntity
  8
SKIKT_1
  6
CONTINUOUS
 62
     7
100
AcDbLine
 10
0.9701739999999999
 20
-1.884474999999999
 30
0.0
 11
0.971418
 21
-1.900534999999999
 31
0.0
  0
LINE
  5
AA3
330
A86
100
AcDbEntity
  8
SKIKT_1
  6
CONTINUOUS
 62
     7
100
AcDbLine
 10
0.9688389999999998
 20
-1.868361
 30
0.0
 11
0.9701739999999999
 21
-1.884474999999999
 31
0.0
  0
LINE
  5
AA4
330
A86
100
AcDbEntity
  8
SKIKT_1
  6
CONTINUOUS
 62
     7
100
AcDbLine
 10
0.967411
 20
-1.852165
 30
0.0
 11
0.9688389999999998
 21
-1.868361
 31
0.0
  0
LINE
  5
AA5
330
A86
100
AcDbEntity
  8
SKIKT_1
  6
CONTINUOUS
 62
     7
100
AcDbLine
 10
0.965892
 20
-1.835858999999999
 30
0.0
 11
0.967411
 21
-1.852165
 31
0.0
  0
LINE
  5
AA6
330
A86
100
AcDbEntity
  8
SKIKT_1
  6
CONTINUOUS
 62
     7
100
AcDbLine
 10
0.9642800000000001
 20
-1.819416999999999
 30
0.0
 11
0.965892
 21
-1.835858999999999
 31
0.0
  0
LINE
  5
AA7
330
A86
100
AcDbEntity
  8
SKIKT_1
  6
CONTINUOUS
 62
     7
100
AcDbLine
 10
0.9625759999999999
 20
-1.802811999999999
 30
0.0
 11
0.9642800000000001
 21
-1.819416999999999
 31
0.0
  0
LINE
  5
AA8
330
A86
100
AcDbEntity
  8
SKIKT_1
  6
CONTINUOUS
 62
     7
100
AcDbLine
 10
0.9607799999999999
 20
-1.786015
 30
0.0
 11
0.9625759999999999
 21
-1.802811999999999
 31
0.0
  0
LINE
  5
AA9
330
A86
100
AcDbEntity
  8
SKIKT_1
  6
CONTINUOUS
 62
     7
100
AcDbLine
 10
0.9588919999999999
 20
-1.769
 30
0.0
 11
0.9607799999999999
 21
-1.786015
 31
0.0
  0
LINE
  5
AAA
330
A86
100
AcDbEntity
  8
SKIKT_1
  6
CONTINUOUS
 62
     7
100
AcDbLine
 10
0.9569119999999999
 20
-1.751738999999999
 30
0.0
 11
0.9588919999999999
 21
-1.769
 31
0.0
  0
LINE
  5
AAB
330
A86
100
AcDbEntity
  8
SKIKT_1
  6
CONTINUOUS
 62
     7
100
AcDbLine
 10
0.9548399999999999
 20
-1.734206
 30
0.0
 11
0.9569119999999999
 21
-1.751738999999999
 31
0.0
  0
LINE
  5
AAC
330
A86
100
AcDbEntity
  8
SKIKT_1
  6
CONTINUOUS
 62
     7
100
AcDbLine
 10
0.9526759999999999
 20
-1.716371999999999
 30
0.0
 11
0.9548399999999999
 21
-1.734206
 31
0.0
  0
LINE
  5
AAD
330
A86
100
AcDbEntity
  8
SKIKT_1
  6
CONTINUOUS
 62
     7
100
AcDbLine
 10
0.9504189999999999
 20
-1.698211
 30
0.0
 11
0.9526759999999999
 21
-1.716371999999999
 31
0.0
  0
LINE
  5
AAE
330
A86
100
AcDbEntity
  8
SKIKT_1
  6
CONTINUOUS
 62
     7
100
AcDbLine
 10
0.9480709999999998
 20
-1.679695
 30
0.0
 11
0.9504189999999999
 21
-1.698211
 31
0.0
  0
LINE
  5
AAF
330
A86
100
AcDbEntity
  8
SKIKT_1
  6
CONTINUOUS
 62
     7
100
AcDbLine
 10
0.9456299999999997
 20
-1.660797
 30
0.0
 11
0.9480709999999998
 21
-1.679695
 31
0.0
  0
LINE
  5
AB0
330
A86
100
AcDbEntity
  8
SKIKT_1
  6
CONTINUOUS
 62
     7
100
AcDbLine
 10
0.9430979999999999
 20
-1.64149
 30
0.0
 11
0.9456299999999997
 21
-1.660797
 31
0.0
  0
LINE
  5
AB1
330
A86
100
AcDbEntity
  8
SKIKT_1
  6
CONTINUOUS
 62
     7
100
AcDbLine
 10
0.940473
 20
-1.621744999999999
 30
0.0
 11
0.9430979999999999
 21
-1.64149
 31
0.0
  0
LINE
  5
AB2
330
A86
100
AcDbEntity
  8
SKIKT_1
  6
CONTINUOUS
 62
     7
100
AcDbLine
 10
0.9377559999999999
 20
-1.601536999999999
 30
0.0
 11
0.940473
 21
-1.621744999999999
 31
0.0
  0
LINE
  5
AB3
330
A86
100
AcDbEntity
  8
SKIKT_1
  6
CONTINUOUS
 62
     7
100
AcDbLine
 10
0.644698
 20
-2.676650999999999
 30
0.0
 11
0.63267
 21
-2.662695
 31
0.0
  0
LINE
  5
AB4
330
A86
100
AcDbEntity
  8
SKIKT_1
  6
CONTINUOUS
 62
     7
100
AcDbLine
 10
0.6542140000000001
 20
-2.691809
 30
0.0
 11
0.644698
 21
-2.676650999999999
 31
0.0
  0
LINE
  5
AB5
330
A86
100
AcDbEntity
  8
SKIKT_1
  6
CONTINUOUS
 62
     7
100
AcDbLine
 10
0.661165
 20
-2.707894
 30
0.0
 11
0.6542140000000001
 21
-2.691809
 31
0.0
  0
LINE
  5
AB6
330
A86
100
AcDbEntity
  8
SKIKT_1
  6
CONTINUOUS
 62
     7
100
AcDbLine
 10
0.665496
 20
-2.724634
 30
0.0
 11
0.661165
 21
-2.707894
 31
0.0
  0
LINE
  5
AB7
330
A86
100
AcDbEntity
  8
SKIKT_1
  6
CONTINUOUS
 62
     7
100
AcDbLine
 10
0.6671510000000001
 20
-2.741756
 30
0.0
 11
0.665496
 21
-2.724634
 31
0.0
  0
LINE
  5
AB8
330
A86
100
AcDbEntity
  8
SKIKT_1
  6
CONTINUOUS
 62
     7
100
AcDbLine
 10
0.6660770000000003
 20
-2.758986
 30
0.0
 11
0.6671510000000001
 21
-2.741756
 31
0.0
  0
LINE
  5
AB9
330
A86
100
AcDbEntity
  8
SKIKT_1
  6
CONTINUOUS
 62
     7
100
AcDbLine
 10
0.662219
 20
-2.776053
 30
0.0
 11
0.6660770000000003
 21
-2.758986
 31
0.0
  0
LINE
  5
ABA
330
A86
100
AcDbEntity
  8
SKIKT_1
  6
CONTINUOUS
 62
     7
100
AcDbLine
 10
0.6555210000000004
 20
-2.792682
 30
0.0
 11
0.662219
 21
-2.776053
 31
0.0
  0
LINE
  5
ABB
330
A86
100
AcDbEntity
  8
SKIKT_1
  6
CONTINUOUS
 62
     7
100
AcDbLine
 10
0.64593
 20
-2.8086
 30
0.0
 11
0.6555210000000004
 21
-2.792682
 31
0.0
  0
LINE
  5
ABC
330
A86
100
AcDbEntity
  8
SKIKT_1
  6
CONTINUOUS
 62
     7
100
AcDbLine
 10
0.52656
 20
-2.675963
 30
0.0
 11
0.5729770000000001
 21
-2.722388
 31
0.0
  0
LINE
  5
ABD
330
A86
100
AcDbEntity
  8
SKIKT_1
  6
CONTINUOUS
 62
     7
100
AcDbLine
 10
0.460229
 20
-2.795341
 30
0.0
 11
0.480126
 21
-2.821875999999998
 31
0.0
  0
LINE
  5
ABE
330
A86
100
AcDbEntity
  8
SKIKT_1
  6
CONTINUOUS
 62
     7
100
AcDbLine
 10
0.639304
 20
-2.669332999999999
 30
0.0
 11
0.493398
 21
-2.815241999999998
 31
0.0
  0
LINE
  5
ABF
330
A86
100
AcDbEntity
  8
SKIKT_1
  6
CONTINUOUS
 62
     7
100
AcDbLine
 10
0.632872
 20
-2.82133
 30
0.0
 11
0.64593
 21
-2.8086
 31
0.0
  0
LINE
  5
AC0
330
A86
100
AcDbEntity
  8
SKIKT_1
  6
CONTINUOUS
 62
     7
100
AcDbLine
 10
0.6178650000000001
 20
-2.831631
 30
0.0
 11
0.632872
 21
-2.82133
 31
0.0
  0
LINE
  5
AC1
330
A86
100
AcDbEntity
  8
SKIKT_1
  6
CONTINUOUS
 62
     7
100
AcDbLine
 10
0.6013460000000001
 20
-2.839465
 30
0.0
 11
0.6178650000000001
 21
-2.831631
 31
0.0
  0
LINE
  5
AC2
330
A86
100
AcDbEntity
  8
SKIKT_1
  6
CONTINUOUS
 62
     7
100
AcDbLine
 10
0.583751
 20
-2.844791999999998
 30
0.0
 11
0.6013460000000001
 21
-2.839465
 31
0.0
  0
LINE
  5
AC3
330
A86
100
AcDbEntity
  8
SKIKT_1
  6
CONTINUOUS
 62
     7
100
AcDbLine
 10
0.5655200000000003
 20
-2.847571999999998
 30
0.0
 11
0.583751
 21
-2.844791999999998
 31
0.0
  0
LINE
  5
AC4
330
A86
100
AcDbEntity
  8
SKIKT_1
  6
CONTINUOUS
 62
     7
100
AcDbLine
 10
0.5470890000000001
 20
-2.847766
 30
0.0
 11
0.5655200000000003
 21
-2.847571999999998
 31
0.0
  0
LINE
  5
AC5
330
A86
100
AcDbEntity
  8
SKIKT_1
  6
CONTINUOUS
 62
     7
100
AcDbLine
 10
0.5288970000000001
 20
-2.845331999999998
 30
0.0
 11
0.5470890000000001
 21
-2.847766
 31
0.0
  0
LINE
  5
AC6
330
A86
100
AcDbEntity
  8
SKIKT_1
  6
CONTINUOUS
 62
     7
100
AcDbLine
 10
0.5113810000000001
 20
-2.840232999999998
 30
0.0
 11
0.5288970000000001
 21
-2.845331999999998
 31
0.0
  0
LINE
  5
AC7
330
A86
100
AcDbEntity
  8
SKIKT_1
  6
CONTINUOUS
 62
     7
100
AcDbLine
 10
0.494978
 20
-2.832427
 30
0.0
 11
0.5113810000000001
 21
-2.840232999999998
 31
0.0
  0
LINE
  5
AC8
330
A86
100
AcDbEntity
  8
SKIKT_1
  6
CONTINUOUS
 62
     7
100
AcDbLine
 10
0.480126
 20
-2.821875999999998
 30
0.0
 11
0.494978
 21
-2.832427
 31
0.0
  0
LINE
  5
AC9
330
A86
100
AcDbEntity
  8
SKIKT_1
  6
CONTINUOUS
 62
     7
100
AcDbLine
 10
1.501492999999999
 20
-1.773977999999999
 30
0.0
 11
1.501492999999999
 21
-2.841774
 31
0.0
  0
LINE
  5
ACA
330
A86
100
AcDbEntity
  8
SKIKT_1
  6
CONTINUOUS
 62
     7
100
AcDbLine
 10
1.421902
 20
-1.773977999999999
 30
0.0
 11
1.421902
 21
-2.874931
 31
0.0
  0
LINE
  5
ACB
330
A86
100
AcDbEntity
  8
SKIKT_1
  6
CONTINUOUS
 62
     7
100
AcDbLine
 10
0.877393
 20
-3.060011
 30
0.0
 11
0.8714259999999999
 21
-3.073891999999998
 31
0.0
  0
LINE
  5
ACC
330
A86
100
AcDbEntity
  8
SKIKT_1
  6
CONTINUOUS
 62
     7
100
AcDbLine
 10
0.883117
 20
-3.045983
 30
0.0
 11
0.877393
 21
-3.060011
 31
0.0
  0
LINE
  5
ACD
330
A86
100
AcDbEntity
  8
SKIKT_1
  6
CONTINUOUS
 62
     7
100
AcDbLine
 10
0.8886040000000001
 20
-3.031806
 30
0.0
 11
0.883117
 21
-3.045983
 31
0.0
  0
LINE
  5
ACE
330
A86
100
AcDbEntity
  8
SKIKT_1
  6
CONTINUOUS
 62
     7
100
AcDbLine
 10
0.8938579999999999
 20
-3.017481999999997
 30
0.0
 11
0.8886040000000001
 21
-3.031806
 31
0.0
  0
LINE
  5
ACF
330
A86
100
AcDbEntity
  8
SKIKT_1
  6
CONTINUOUS
 62
     7
100
AcDbLine
 10
0.8988850000000001
 20
-3.003012
 30
0.0
 11
0.8938579999999999
 21
-3.017481999999997
 31
0.0
  0
LINE
  5
AD0
330
A86
100
AcDbEntity
  8
SKIKT_1
  6
CONTINUOUS
 62
     7
100
AcDbLine
 10
0.903691
 20
-2.988395999999998
 30
0.0
 11
0.8988850000000001
 21
-3.003012
 31
0.0
  0
LINE
  5
AD1
330
A86
100
AcDbEntity
  8
SKIKT_1
  6
CONTINUOUS
 62
     7
100
AcDbLine
 10
0.9082799999999997
 20
-2.973634999999998
 30
0.0
 11
0.903691
 21
-2.988395999999998
 31
0.0
  0
LINE
  5
AD2
330
A86
100
AcDbEntity
  8
SKIKT_1
  6
CONTINUOUS
 62
     7
100
AcDbLine
 10
0.912659
 20
-2.958728999999998
 30
0.0
 11
0.9082799999999997
 21
-2.973634999999998
 31
0.0
  0
LINE
  5
AD3
330
A86
100
AcDbEntity
  8
SKIKT_1
  6
CONTINUOUS
 62
     7
100
AcDbLine
 10
0.9168319999999999
 20
-2.94368
 30
0.0
 11
0.912659
 21
-2.958728999999998
 31
0.0
  0
LINE
  5
AD4
330
A86
100
AcDbEntity
  8
SKIKT_1
  6
CONTINUOUS
 62
     7
100
AcDbLine
 10
0.9208059999999999
 20
-2.928488
 30
0.0
 11
0.9168319999999999
 21
-2.94368
 31
0.0
  0
LINE
  5
AD5
330
A86
100
AcDbEntity
  8
SKIKT_1
  6
CONTINUOUS
 62
     7
100
AcDbLine
 10
0.924585
 20
-2.913152999999999
 30
0.0
 11
0.9208059999999999
 21
-2.928488
 31
0.0
  0
LINE
  5
AD6
330
A86
100
AcDbEntity
  8
SKIKT_1
  6
CONTINUOUS
 62
     7
100
AcDbLine
 10
0.9281749999999997
 20
-2.897675999999998
 30
0.0
 11
0.924585
 21
-2.913152999999999
 31
0.0
  0
LINE
  5
AD7
330
A86
100
AcDbEntity
  8
SKIKT_1
  6
CONTINUOUS
 62
     7
100
AcDbLine
 10
0.9315809999999999
 20
-2.882058999999998
 30
0.0
 11
0.9281749999999997
 21
-2.897675999999998
 31
0.0
  0
LINE
  5
AD8
330
A86
100
AcDbEntity
  8
SKIKT_1
  6
CONTINUOUS
 62
     7
100
AcDbLine
 10
0.9348089999999999
 20
-2.866300999999998
 30
0.0
 11
0.9315809999999999
 21
-2.882058999999998
 31
0.0
  0
LINE
  5
AD9
330
A86
100
AcDbEntity
  8
SKIKT_1
  6
CONTINUOUS
 62
     7
100
AcDbLine
 10
0.937865
 20
-2.850404
 30
0.0
 11
0.9348089999999999
 21
-2.866300999999998
 31
0.0
  0
LINE
  5
ADA
330
A86
100
AcDbEntity
  8
SKIKT_1
  6
CONTINUOUS
 62
     7
100
AcDbLine
 10
0.9407519999999999
 20
-2.834366999999998
 30
0.0
 11
0.937865
 21
-2.850404
 31
0.0
  0
LINE
  5
ADB
330
A86
100
AcDbEntity
  8
SKIKT_1
  6
CONTINUOUS
 62
     7
100
AcDbLine
 10
0.9434779999999999
 20
-2.818191999999998
 30
0.0
 11
0.9407519999999999
 21
-2.834366999999998
 31
0.0
  0
LINE
  5
ADC
330
A86
100
AcDbEntity
  8
SKIKT_1
  6
CONTINUOUS
 62
     7
100
AcDbLine
 10
0.9460469999999999
 20
-2.80188
 30
0.0
 11
0.9434779999999999
 21
-2.818191999999998
 31
0.0
  0
LINE
  5
ADD
330
A86
100
AcDbEntity
  8
SKIKT_1
  6
CONTINUOUS
 62
     7
100
AcDbLine
 10
0.948465
 20
-2.785429999999998
 30
0.0
 11
0.9460469999999999
 21
-2.80188
 31
0.0
  0
LINE
  5
ADE
330
A86
100
AcDbEntity
  8
SKIKT_1
  6
CONTINUOUS
 62
     7
100
AcDbLine
 10
0.9507379999999999
 20
-2.768844
 30
0.0
 11
0.948465
 21
-2.785429999999998
 31
0.0
  0
LINE
  5
ADF
330
A86
100
AcDbEntity
  8
SKIKT_1
  6
CONTINUOUS
 62
     7
100
AcDbLine
 10
0.952869
 20
-2.752123
 30
0.0
 11
0.9507379999999999
 21
-2.768844
 31
0.0
  0
LINE
  5
AE0
330
A86
100
AcDbEntity
  8
SKIKT_1
  6
CONTINUOUS
 62
     7
100
AcDbLine
 10
0.9548659999999999
 20
-2.735266
 30
0.0
 11
0.952869
 21
-2.752123
 31
0.0
  0
LINE
  5
AE1
330
A86
100
AcDbEntity
  8
SKIKT_1
  6
CONTINUOUS
 62
     7
100
AcDbLine
 10
0.9567339999999999
 20
-2.718275999999999
 30
0.0
 11
0.9548659999999999
 21
-2.735266
 31
0.0
  0
LINE
  5
AE2
330
A86
100
AcDbEntity
  8
SKIKT_1
  6
CONTINUOUS
 62
     7
100
AcDbLine
 10
0.958477
 20
-2.701150999999998
 30
0.0
 11
0.9567339999999999
 21
-2.718275999999999
 31
0.0
  0
LINE
  5
AE3
330
A86
100
AcDbEntity
  8
SKIKT_1
  6
CONTINUOUS
 62
     7
100
AcDbLine
 10
0.960101
 20
-2.683894
 30
0.0
 11
0.958477
 21
-2.701150999999998
 31
0.0
  0
LINE
  5
AE4
330
A86
100
AcDbEntity
  8
SKIKT_1
  6
CONTINUOUS
 62
     7
100
AcDbLine
 10
0.961613
 20
-2.666504999999999
 30
0.0
 11
0.960101
 21
-2.683894
 31
0.0
  0
LINE
  5
AE5
330
A86
100
AcDbEntity
  8
SKIKT_1
  6
CONTINUOUS
 62
     7
100
AcDbLine
 10
0.963016
 20
-2.648984
 30
0.0
 11
0.961613
 21
-2.666504999999999
 31
0.0
  0
LINE
  5
AE6
330
A86
100
AcDbEntity
  8
SKIKT_1
  6
CONTINUOUS
 62
     7
100
AcDbLine
 10
0.9643169999999999
 20
-2.631332
 30
0.0
 11
0.963016
 21
-2.648984
 31
0.0
  0
LINE
  5
AE7
330
A86
100
AcDbEntity
  8
SKIKT_1
  6
CONTINUOUS
 62
     7
100
AcDbLine
 10
0.96552
 20
-2.61355
 30
0.0
 11
0.9643169999999999
 21
-2.631332
 31
0.0
  0
LINE
  5
AE8
330
A86
100
AcDbEntity
  8
SKIKT_1
  6
CONTINUOUS
 62
     7
100
AcDbLine
 10
0.9666319999999998
 20
-2.595638
 30
0.0
 11
0.96552
 21
-2.61355
 31
0.0
  0
LINE
  5
AE9
330
A86
100
AcDbEntity
  8
SKIKT_1
  6
CONTINUOUS
 62
     7
100
AcDbLine
 10
0.9676579999999999
 20
-2.577596999999999
 30
0.0
 11
0.9666319999999998
 21
-2.595638
 31
0.0
  0
LINE
  5
AEA
330
A86
100
AcDbEntity
  8
SKIKT_1
  6
CONTINUOUS
 62
     7
100
AcDbLine
 10
0.968603
 20
-2.559429
 30
0.0
 11
0.9676579999999999
 21
-2.577596999999999
 31
0.0
  0
LINE
  5
AEB
330
A86
100
AcDbEntity
  8
SKIKT_1
  6
CONTINUOUS
 62
     7
100
AcDbLine
 10
0.9694729999999999
 20
-2.541133
 30
0.0
 11
0.968603
 21
-2.559429
 31
0.0
  0
LINE
  5
AEC
330
A86
100
AcDbEntity
  8
SKIKT_1
  6
CONTINUOUS
 62
     7
100
AcDbLine
 10
0.9702719999999999
 20
-2.52271
 30
0.0
 11
0.9694729999999999
 21
-2.541133
 31
0.0
  0
LINE
  5
AED
330
A86
100
AcDbEntity
  8
SKIKT_1
  6
CONTINUOUS
 62
     7
100
AcDbLine
 10
0.9710069999999999
 20
-2.504159999999999
 30
0.0
 11
0.9702719999999999
 21
-2.52271
 31
0.0
  0
LINE
  5
AEE
330
A86
100
AcDbEntity
  8
SKIKT_1
  6
CONTINUOUS
 62
     7
100
AcDbLine
 10
0.9716829999999999
 20
-2.485485999999998
 30
0.0
 11
0.9710069999999999
 21
-2.504159999999999
 31
0.0
  0
LINE
  5
AEF
330
A86
100
AcDbEntity
  8
SKIKT_1
  6
CONTINUOUS
 62
     7
100
AcDbLine
 10
0.972305
 20
-2.466686
 30
0.0
 11
0.9716829999999999
 21
-2.485485999999998
 31
0.0
  0
LINE
  5
AF0
330
A86
100
AcDbEntity
  8
SKIKT_1
  6
CONTINUOUS
 62
     7
100
AcDbLine
 10
0.972878
 20
-2.447763
 30
0.0
 11
0.972305
 21
-2.466686
 31
0.0
  0
LINE
  5
AF1
330
A86
100
AcDbEntity
  8
SKIKT_1
  6
CONTINUOUS
 62
     7
100
AcDbLine
 10
0.973409
 20
-2.428716
 30
0.0
 11
0.972878
 21
-2.447763
 31
0.0
  0
LINE
  5
AF2
330
A86
100
AcDbEntity
  8
SKIKT_1
  6
CONTINUOUS
 62
     7
100
AcDbLine
 10
0.973902
 20
-2.409545999999999
 30
0.0
 11
0.973409
 21
-2.428716
 31
0.0
  0
LINE
  5
AF3
330
A86
100
AcDbEntity
  8
SKIKT_1
  6
CONTINUOUS
 62
     7
100
AcDbLine
 10
0.9743629999999999
 20
-2.390254
 30
0.0
 11
0.973902
 21
-2.409545999999999
 31
0.0
  0
LINE
  5
AF4
330
A86
100
AcDbEntity
  8
SKIKT_1
  6
CONTINUOUS
 62
     7
100
AcDbLine
 10
0.9747969999999998
 20
-2.37084
 30
0.0
 11
0.9743629999999999
 21
-2.390254
 31
0.0
  0
LINE
  5
AF5
330
A86
100
AcDbEntity
  8
SKIKT_1
  6
CONTINUOUS
 62
     7
100
AcDbLine
 10
0.97521
 20
-2.351306
 30
0.0
 11
0.9747969999999998
 21
-2.37084
 31
0.0
  0
LINE
  5
AF6
330
A86
100
AcDbEntity
  8
SKIKT_1
  6
CONTINUOUS
 62
     7
100
AcDbLine
 10
0.9756069999999999
 20
-2.331652
 30
0.0
 11
0.97521
 21
-2.351306
 31
0.0
  0
LINE
  5
AF7
330
A86
100
AcDbEntity
  8
SKIKT_1
  6
CONTINUOUS
 62
     7
100
AcDbLine
 10
0.975994
 20
-2.311879
 30
0.0
 11
0.9756069999999999
 21
-2.331652
 31
0.0
  0
LINE
  5
AF8
330
A86
100
AcDbEntity
  8
SKIKT_1
  6
CONTINUOUS
 62
     7
100
AcDbLine
 10
0.9763759999999999
 20
-2.291986999999997
 30
0.0
 11
0.975994
 21
-2.311879
 31
0.0
  0
LINE
  5
AF9
330
A86
100
AcDbEntity
  8
SKIKT_1
  6
CONTINUOUS
 62
     7
100
AcDbLine
 10
0.9767569999999999
 20
-2.271975999999999
 30
0.0
 11
0.9763759999999999
 21
-2.291986999999997
 31
0.0
  0
LINE
  5
AFA
330
A86
100
AcDbEntity
  8
SKIKT_1
  6
CONTINUOUS
 62
     7
100
AcDbLine
 10
0.9771449999999999
 20
-2.251848999999999
 30
0.0
 11
0.9767569999999999
 21
-2.271975999999999
 31
0.0
  0
LINE
  5
AFB
330
A86
100
AcDbEntity
  8
SKIKT_1
  6
CONTINUOUS
 62
     7
100
AcDbLine
 10
0.9775439999999999
 20
-2.231603999999999
 30
0.0
 11
0.9771449999999999
 21
-2.251848999999999
 31
0.0
  0
LINE
  5
AFC
330
A86
100
AcDbEntity
  8
SKIKT_1
  6
CONTINUOUS
 62
     7
100
AcDbLine
 10
0.8714259999999999
 20
-2.695856
 30
0.0
 11
0.884693
 21
-2.715749999999998
 31
0.0
  0
LINE
  5
AFD
330
A86
100
AcDbEntity
  8
SKIKT_1
  6
CONTINUOUS
 62
     7
100
AcDbLine
 10
0.8686049999999998
 20
-2.67422
 30
0.0
 11
0.8714259999999999
 21
-2.695856
 31
0.0
  0
LINE
  5
AFE
330
A86
100
AcDbEntity
  8
SKIKT_1
  6
CONTINUOUS
 62
     7
100
AcDbLine
 10
0.8658989999999999
 20
-2.654324
 30
0.0
 11
0.8686049999999998
 21
-2.67422
 31
0.0
  0
LINE
  5
AFF
330
A86
100
AcDbEntity
  8
SKIKT_1
  6
CONTINUOUS
 62
     7
100
AcDbLine
 10
0.8634249999999996
 20
-2.635472
 30
0.0
 11
0.8658989999999999
 21
-2.654324
 31
0.0
  0
LINE
  5
B00
330
A86
100
AcDbEntity
  8
SKIKT_1
  6
CONTINUOUS
 62
     7
100
AcDbLine
 10
0.861298
 20
-2.616967999999999
 30
0.0
 11
0.8634249999999996
 21
-2.635472
 31
0.0
  0
LINE
  5
B01
330
A86
100
AcDbEntity
  8
SKIKT_1
  6
CONTINUOUS
 62
     7
100
AcDbLine
 10
0.859636
 20
-2.598116
 30
0.0
 11
0.861298
 21
-2.616967999999999
 31
0.0
  0
LINE
  5
B02
330
A86
100
AcDbEntity
  8
SKIKT_1
  6
CONTINUOUS
 62
     7
100
AcDbLine
 10
0.858553
 20
-2.578221
 30
0.0
 11
0.859636
 21
-2.598116
 31
0.0
  0
LINE
  5
B03
330
A86
100
AcDbEntity
  8
SKIKT_1
  6
CONTINUOUS
 62
     7
100
AcDbLine
 10
0.8581659999999999
 20
-2.556584999999999
 30
0.0
 11
0.858553
 21
-2.578221
 31
0.0
  0
LINE
  5
B04
330
A86
100
AcDbEntity
  8
SKIKT_1
  6
CONTINUOUS
 62
     7
100
AcDbLine
 10
0.8586879999999997
 20
-2.532020999999998
 30
0.0
 11
0.8581659999999999
 21
-2.556584999999999
 31
0.0
  0
LINE
  5
B05
330
A86
100
AcDbEntity
  8
SKIKT_1
  6
CONTINUOUS
 62
     7
100
AcDbLine
 10
0.8601309999999998
 20
-2.510404999999999
 30
0.0
 11
0.8586879999999997
 21
-2.532020999999998
 31
0.0
  0
LINE
  5
B06
330
A86
100
AcDbEntity
  8
SKIKT_1
  6
CONTINUOUS
 62
     7
100
AcDbLine
 10
0.862311
 20
-2.490261999999999
 30
0.0
 11
0.8601309999999998
 21
-2.510404999999999
 31
0.0
  0
LINE
  5
B07
330
A86
100
AcDbEntity
  8
SKIKT_1
  6
CONTINUOUS
 62
     7
100
AcDbLine
 10
0.865043
 20
-2.470118999999999
 30
0.0
 11
0.862311
 21
-2.490261999999999
 31
0.0
  0
LINE
  5
B08
330
A86
100
AcDbEntity
  8
SKIKT_1
  6
CONTINUOUS
 62
     7
100
AcDbLine
 10
0.868143
 20
-2.448501999999999
 30
0.0
 11
0.865043
 21
-2.470118999999999
 31
0.0
  0
LINE
  5
B09
330
A86
100
AcDbEntity
  8
SKIKT_1
  6
CONTINUOUS
 62
     7
100
AcDbLine
 10
0.8714259999999999
 20
-2.423938999999998
 30
0.0
 11
0.868143
 21
-2.448501999999999
 31
0.0
  0
LINE
  5
B0A
330
A86
100
AcDbEntity
  8
SKIKT_1
  6
CONTINUOUS
 62
     7
100
AcDbLine
 10
0.882726
 20
-2.400108
 30
0.0
 11
0.8714259999999999
 21
-2.423938999999998
 31
0.0
  0
LINE
  5
B0B
330
A86
100
AcDbEntity
  8
SKIKT_1
  6
CONTINUOUS
 62
     7
100
AcDbLine
 10
0.8866579999999999
 20
-2.383649999999998
 30
0.0
 11
0.882726
 21
-2.400108
 31
0.0
  0
LINE
  5
B0C
330
A86
100
AcDbEntity
  8
SKIKT_1
  6
CONTINUOUS
 62
     7
100
AcDbLine
 10
0.897961
 20
-2.37751
 30
0.0
 11
0.8866579999999999
 21
-2.383649999999998
 31
0.0
  0
LINE
  5
B0D
330
A86
100
AcDbEntity
  8
SKIKT_1
  6
CONTINUOUS
 62
     7
100
AcDbLine
 10
0.904593
 20
-2.379720999999999
 30
0.0
 11
0.897961
 21
-2.37751
 31
0.0
  0
LINE
  5
B0E
330
A86
100
AcDbEntity
  8
SKIKT_1
  6
CONTINUOUS
 62
     7
100
AcDbLine
 10
0.911223
 20
-2.386352999999999
 30
0.0
 11
0.904593
 21
-2.379720999999999
 31
0.0
  0
LINE
  5
B0F
330
A86
100
AcDbEntity
  8
SKIKT_1
  6
CONTINUOUS
 62
     7
100
AcDbLine
 10
0.9178549999999999
 20
-2.397403999999998
 30
0.0
 11
0.911223
 21
-2.386352999999999
 31
0.0
  0
LINE
  5
B10
330
A86
100
AcDbEntity
  8
SKIKT_1
  6
CONTINUOUS
 62
     7
100
AcDbLine
 10
0.920316
 20
-2.418649
 30
0.0
 11
0.9178549999999999
 21
-2.397403999999998
 31
0.0
  0
LINE
  5
B11
330
A86
100
AcDbEntity
  8
SKIKT_1
  6
CONTINUOUS
 62
     7
100
AcDbLine
 10
0.9226220000000001
 20
-2.438029
 30
0.0
 11
0.920316
 21
-2.418649
 31
0.0
  0
LINE
  5
B12
330
A86
100
AcDbEntity
  8
SKIKT_1
  6
CONTINUOUS
 62
     7
100
AcDbLine
 10
0.9246169999999999
 20
-2.456163999999998
 30
0.0
 11
0.9226220000000001
 21
-2.438029
 31
0.0
  0
LINE
  5
B13
330
A86
100
AcDbEntity
  8
SKIKT_1
  6
CONTINUOUS
 62
     7
100
AcDbLine
 10
0.9261459999999999
 20
-2.473676999999999
 30
0.0
 11
0.9246169999999999
 21
-2.456163999999998
 31
0.0
  0
LINE
  5
B14
330
A86
100
AcDbEntity
  8
SKIKT_1
  6
CONTINUOUS
 62
     7
100
AcDbLine
 10
0.9270519999999999
 20
-2.49119
 30
0.0
 11
0.9261459999999999
 21
-2.473676999999999
 31
0.0
  0
LINE
  5
B15
330
A86
100
AcDbEntity
  8
SKIKT_1
  6
CONTINUOUS
 62
     7
100
AcDbLine
 10
0.9271819999999999
 20
-2.509325999999999
 30
0.0
 11
0.9270519999999999
 21
-2.49119
 31
0.0
  0
LINE
  5
B16
330
A86
100
AcDbEntity
  8
SKIKT_1
  6
CONTINUOUS
 62
     7
100
AcDbLine
 10
0.926379
 20
-2.528704999999999
 30
0.0
 11
0.9271819999999999
 21
-2.509325999999999
 31
0.0
  0
LINE
  5
B17
330
A86
100
AcDbEntity
  8
SKIKT_1
  6
CONTINUOUS
 62
     7
100
AcDbLine
 10
0.9244889999999998
 20
-2.549950999999999
 30
0.0
 11
0.926379
 21
-2.528704999999999
 31
0.0
  0
LINE
  5
B18
330
A86
100
AcDbEntity
  8
SKIKT_1
  6
CONTINUOUS
 62
     7
100
AcDbLine
 10
0.922658
 20
-2.570352999999998
 30
0.0
 11
0.9244889999999998
 21
-2.549950999999999
 31
0.0
  0
LINE
  5
B19
330
A86
100
AcDbEntity
  8
SKIKT_1
  6
CONTINUOUS
 62
     7
100
AcDbLine
 10
0.920986
 20
-2.59139
 30
0.0
 11
0.922658
 21
-2.570352999999998
 31
0.0
  0
LINE
  5
B1A
330
A86
100
AcDbEntity
  8
SKIKT_1
  6
CONTINUOUS
 62
     7
100
AcDbLine
 10
0.9192350000000001
 20
-2.612506999999999
 30
0.0
 11
0.920986
 21
-2.59139
 31
0.0
  0
LINE
  5
B1B
330
A86
100
AcDbEntity
  8
SKIKT_1
  6
CONTINUOUS
 62
     7
100
AcDbLine
 10
0.9171649999999999
 20
-2.633145999999999
 30
0.0
 11
0.9192350000000001
 21
-2.612506999999999
 31
0.0
  0
LINE
  5
B1C
330
A86
100
AcDbEntity
  8
SKIKT_1
  6
CONTINUOUS
 62
     7
100
AcDbLine
 10
0.9145389999999999
 20
-2.65275
 30
0.0
 11
0.9171649999999999
 21
-2.633145999999999
 31
0.0
  0
LINE
  5
B1D
330
A86
100
AcDbEntity
  8
SKIKT_1
  6
CONTINUOUS
 62
     7
100
AcDbLine
 10
0.9111159999999999
 20
-2.670761999999998
 30
0.0
 11
0.9145389999999999
 21
-2.65275
 31
0.0
  0
LINE
  5
B1E
330
A86
100
AcDbEntity
  8
SKIKT_1
  6
CONTINUOUS
 62
     7
100
AcDbLine
 10
0.9066600000000001
 20
-2.686625999999998
 30
0.0
 11
0.9111159999999999
 21
-2.670761999999998
 31
0.0
  0
LINE
  5
B1F
330
A86
100
AcDbEntity
  8
SKIKT_1
  6
CONTINUOUS
 62
     7
100
AcDbLine
 10
0.900929
 20
-2.699781999999999
 30
0.0
 11
0.9066600000000001
 21
-2.686625999999998
 31
0.0
  0
LINE
  5
B20
330
A86
100
AcDbEntity
  8
SKIKT_1
  6
CONTINUOUS
 62
     7
100
AcDbLine
 10
0.893687
 20
-2.709675999999998
 30
0.0
 11
0.900929
 21
-2.699781999999999
 31
0.0
  0
LINE
  5
B21
330
A86
100
AcDbEntity
  8
SKIKT_1
  6
CONTINUOUS
 62
     7
100
AcDbLine
 10
0.884693
 20
-2.715749999999998
 30
0.0
 11
0.893687
 21
-2.709675999999998
 31
0.0
  0
LINE
  5
B22
330
A86
100
AcDbEntity
  8
SKIKT_1
  6
CONTINUOUS
 62
     7
100
AcDbLine
 10
0.4536030000000002
 20
-2.543316999999999
 30
0.0
 11
0.427067
 21
-2.569843999999998
 31
0.0
  0
LINE
  5
B23
330
A86
100
AcDbEntity
  8
SKIKT_1
  6
CONTINUOUS
 62
     7
100
AcDbLine
 10
0.157795
 20
-2.27042
 30
0.0
 11
0.141882
 21
-2.278025999999999
 31
0.0
  0
LINE
  5
B24
330
A86
100
AcDbEntity
  8
SKIKT_1
  6
CONTINUOUS
 62
     7
100
AcDbLine
 10
0.174363
 20
-2.265325999999999
 30
0.0
 11
0.157795
 21
-2.27042
 31
0.0
  0
LINE
  5
B25
330
A86
100
AcDbEntity
  8
SKIKT_1
  6
CONTINUOUS
 62
     7
100
AcDbLine
 10
0.191258
 20
-2.262798
 30
0.0
 11
0.174363
 21
-2.265325999999999
 31
0.0
  0
LINE
  5
B26
330
A86
100
AcDbEntity
  8
SKIKT_1
  6
CONTINUOUS
 62
     7
100
AcDbLine
 10
0.208153
 20
-2.26289
 30
0.0
 11
0.191258
 21
-2.262798
 31
0.0
  0
LINE
  5
B27
330
A86
100
AcDbEntity
  8
SKIKT_1
  6
CONTINUOUS
 62
     7
100
AcDbLine
 10
0.22472
 20
-2.265656
 30
0.0
 11
0.208153
 21
-2.26289
 31
0.0
  0
LINE
  5
B28
330
A86
100
AcDbEntity
  8
SKIKT_1
  6
CONTINUOUS
 62
     7
100
AcDbLine
 10
0.240632
 20
-2.271150999999999
 30
0.0
 11
0.22472
 21
-2.265656
 31
0.0
  0
LINE
  5
B29
330
A86
100
AcDbEntity
  8
SKIKT_1
  6
CONTINUOUS
 62
     7
100
AcDbLine
 10
0.2555610000000001
 20
-2.279428999999999
 30
0.0
 11
0.240632
 21
-2.271150999999999
 31
0.0
  0
LINE
  5
B2A
330
A86
100
AcDbEntity
  8
SKIKT_1
  6
CONTINUOUS
 62
     7
100
AcDbLine
 10
0.26918
 20
-2.290545
 30
0.0
 11
0.2555610000000001
 21
-2.279428999999999
 31
0.0
  0
LINE
  5
B2B
330
A86
100
AcDbEntity
  8
SKIKT_1
  6
CONTINUOUS
 62
     7
100
AcDbLine
 10
0.2811619999999999
 20
-2.304552999999998
 30
0.0
 11
0.26918
 21
-2.290545
 31
0.0
  0
LINE
  5
B2C
330
A86
100
AcDbEntity
  8
SKIKT_1
  6
CONTINUOUS
 62
     7
100
AcDbLine
 10
0.208213
 20
-2.344348
 30
0.0
 11
0.241367
 21
-2.390781
 31
0.0
  0
LINE
  5
B2D
330
A86
100
AcDbEntity
  8
SKIKT_1
  6
CONTINUOUS
 62
     7
100
AcDbLine
 10
0.108721
 20
-2.4571
 30
0.0
 11
0.128623
 21
-2.470359999999999
 31
0.0
  0
LINE
  5
B2E
330
A86
100
AcDbEntity
  8
SKIKT_1
  6
CONTINUOUS
 62
     7
100
AcDbLine
 10
0.26789
 20
-2.291293
 30
0.0
 11
0.108721
 21
-2.450466
 31
0.0
  0
LINE
  5
B2F
330
A86
100
AcDbEntity
  8
SKIKT_1
  6
CONTINUOUS
 62
     7
100
AcDbLine
 10
0.096456
 20
-2.440281999999998
 30
0.0
 11
0.108721
 21
-2.4571
 31
0.0
  0
LINE
  5
B30
330
A86
100
AcDbEntity
  8
SKIKT_1
  6
CONTINUOUS
 62
     7
100
AcDbLine
 10
0.087125
 20
-2.423572999999999
 30
0.0
 11
0.096456
 21
-2.440281999999998
 31
0.0
  0
LINE
  5
B31
330
A86
100
AcDbEntity
  8
SKIKT_1
  6
CONTINUOUS
 62
     7
100
AcDbLine
 10
0.080603
 20
-2.407081
 30
0.0
 11
0.087125
 21
-2.423572999999999
 31
0.0
  0
LINE
  5
B32
330
A86
100
AcDbEntity
  8
SKIKT_1
  6
CONTINUOUS
 62
     7
100
AcDbLine
 10
0.07676
 20
-2.390915999999998
 30
0.0
 11
0.080603
 21
-2.407081
 31
0.0
  0
LINE
  5
B33
330
A86
100
AcDbEntity
  8
SKIKT_1
  6
CONTINUOUS
 62
     7
100
AcDbLine
 10
0.075472
 20
-2.375184999999999
 30
0.0
 11
0.07676
 21
-2.390915999999998
 31
0.0
  0
LINE
  5
B34
330
A86
100
AcDbEntity
  8
SKIKT_1
  6
CONTINUOUS
 62
     7
100
AcDbLine
 10
0.07661
 20
-2.359996999999999
 30
0.0
 11
0.075472
 21
-2.375184999999999
 31
0.0
  0
LINE
  5
B35
330
A86
100
AcDbEntity
  8
SKIKT_1
  6
CONTINUOUS
 62
     7
100
AcDbLine
 10
0.080049
 20
-2.345461999999999
 30
0.0
 11
0.07661
 21
-2.359996999999999
 31
0.0
  0
LINE
  5
B36
330
A86
100
AcDbEntity
  8
SKIKT_1
  6
CONTINUOUS
 62
     7
100
AcDbLine
 10
0.085661
 20
-2.331687
 30
0.0
 11
0.080049
 21
-2.345461999999999
 31
0.0
  0
LINE
  5
B37
330
A86
100
AcDbEntity
  8
SKIKT_1
  6
CONTINUOUS
 62
     7
100
AcDbLine
 10
0.09332
 20
-2.318780999999999
 30
0.0
 11
0.085661
 21
-2.331687
 31
0.0
  0
LINE
  5
B38
330
A86
100
AcDbEntity
  8
SKIKT_1
  6
CONTINUOUS
 62
     7
100
AcDbLine
 10
0.102898
 20
-2.306853999999999
 30
0.0
 11
0.09332
 21
-2.318780999999999
 31
0.0
  0
LINE
  5
B39
330
A86
100
AcDbEntity
  8
SKIKT_1
  6
CONTINUOUS
 62
     7
100
AcDbLine
 10
0.114269
 20
-2.296013
 30
0.0
 11
0.102898
 21
-2.306853999999999
 31
0.0
  0
LINE
  5
B3A
330
A86
100
AcDbEntity
  8
SKIKT_1
  6
CONTINUOUS
 62
     7
100
AcDbLine
 10
0.127306
 20
-2.286366999999998
 30
0.0
 11
0.114269
 21
-2.296013
 31
0.0
  0
LINE
  5
B3B
330
A86
100
AcDbEntity
  8
SKIKT_1
  6
CONTINUOUS
 62
     7
100
AcDbLine
 10
0.141882
 20
-2.278025999999999
 30
0.0
 11
0.127306
 21
-2.286366999999998
 31
0.0
  0
LINE
  5
B3C
330
A86
100
AcDbEntity
  8
SKIKT_1
  6
CONTINUOUS
 62
     7
100
AcDbLine
 10
0.214835
 20
-2.682595999999999
 30
0.0
 11
0.181678
 21
-2.675963
 31
0.0
  0
LINE
  5
B3D
330
A86
100
AcDbEntity
  8
SKIKT_1
  6
CONTINUOUS
 62
     7
100
AcDbLine
 10
0.241367
 20
-2.70249
 30
0.0
 11
0.214835
 21
-2.682595999999999
 31
0.0
  0
LINE
  5
B3E
330
A86
100
AcDbEntity
  8
SKIKT_1
  6
CONTINUOUS
 62
     7
100
AcDbLine
 10
0.248
 20
-2.742284999999998
 30
0.0
 11
0.241367
 21
-2.70249
 31
0.0
  0
LINE
  5
B3F
330
A86
100
AcDbEntity
  8
SKIKT_1
  6
CONTINUOUS
 62
     7
100
AcDbLine
 10
0.221473
 20
-2.768813
 30
0.0
 11
0.248
 21
-2.742284999999998
 31
0.0
  0
LINE
  5
B40
330
A86
100
AcDbEntity
  8
SKIKT_1
  6
CONTINUOUS
 62
     7
100
AcDbLine
 10
0.17504
 20
-2.775447
 30
0.0
 11
0.221473
 21
-2.768813
 31
0.0
  0
LINE
  5
B41
330
A86
100
AcDbEntity
  8
SKIKT_1
  6
CONTINUOUS
 62
     7
100
AcDbLine
 10
0.155142
 20
-2.742284999999998
 30
0.0
 11
0.17504
 21
-2.775447
 31
0.0
  0
LINE
  5
B42
330
A86
100
AcDbEntity
  8
SKIKT_1
  6
CONTINUOUS
 62
     7
100
AcDbLine
 10
0.148516
 20
-2.70249
 30
0.0
 11
0.155142
 21
-2.742284999999998
 31
0.0
  0
LINE
  5
B43
330
A86
100
AcDbEntity
  8
SKIKT_1
  6
CONTINUOUS
 62
     7
100
AcDbLine
 10
0.181678
 20
-2.675963
 30
0.0
 11
0.148516
 21
-2.70249
 31
0.0
  0
LINE
  5
B44
330
A86
100
AcDbEntity
  8
SKIKT_1
  6
CONTINUOUS
 62
     7
100
AcDbLine
 10
0.168418
 20
-2.735651999999998
 30
0.0
 11
0.16178
 21
-2.695856
 31
0.0
  0
LINE
  5
B45
330
A86
100
AcDbEntity
  8
SKIKT_1
  6
CONTINUOUS
 62
     7
100
AcDbLine
 10
0.188311
 20
-2.748923
 30
0.0
 11
0.168418
 21
-2.735651999999998
 31
0.0
  0
LINE
  5
B46
330
A86
100
AcDbEntity
  8
SKIKT_1
  6
CONTINUOUS
 62
     7
100
AcDbLine
 10
0.221473
 20
-2.748923
 30
0.0
 11
0.188311
 21
-2.748923
 31
0.0
  0
LINE
  5
B47
330
A86
100
AcDbEntity
  8
SKIKT_1
  6
CONTINUOUS
 62
     7
100
AcDbLine
 10
0.241367
 20
-2.722388
 30
0.0
 11
0.221473
 21
-2.748923
 31
0.0
  0
LINE
  5
B48
330
A86
100
AcDbEntity
  8
SKIKT_1
  6
CONTINUOUS
 62
     7
100
AcDbLine
 10
0.180046
 20
-2.654897999999999
 30
0.0
 11
0.201571
 21
-2.649434999999999
 31
0.0
  0
LINE
  5
B49
330
A86
100
AcDbEntity
  8
SKIKT_1
  6
CONTINUOUS
 62
     7
100
AcDbLine
 10
0.162023
 20
-2.664416
 30
0.0
 11
0.180046
 21
-2.654897999999999
 31
0.0
  0
LINE
  5
B4A
330
A86
100
AcDbEntity
  8
SKIKT_1
  6
CONTINUOUS
 62
     7
100
AcDbLine
 10
0.147686
 20
-2.67762
 30
0.0
 11
0.162023
 21
-2.664416
 31
0.0
  0
LINE
  5
B4B
330
A86
100
AcDbEntity
  8
SKIKT_1
  6
CONTINUOUS
 62
     7
100
AcDbLine
 10
0.137218
 20
-2.694139999999998
 30
0.0
 11
0.147686
 21
-2.67762
 31
0.0
  0
LINE
  5
B4C
330
A86
100
AcDbEntity
  8
SKIKT_1
  6
CONTINUOUS
 62
     7
100
AcDbLine
 10
0.130802
 20
-2.713607
 30
0.0
 11
0.137218
 21
-2.694139999999998
 31
0.0
  0
LINE
  5
B4D
330
A86
100
AcDbEntity
  8
SKIKT_1
  6
CONTINUOUS
 62
     7
100
AcDbLine
 10
0.128623
 20
-2.735651999999998
 30
0.0
 11
0.130802
 21
-2.713607
 31
0.0
  0
LINE
  5
B4E
330
A86
100
AcDbEntity
  8
SKIKT_1
  6
CONTINUOUS
 62
     7
100
AcDbLine
 10
0.134548
 20
-2.754842
 30
0.0
 11
0.128623
 21
-2.735651999999998
 31
0.0
  0
LINE
  5
B4F
330
A86
100
AcDbEntity
  8
SKIKT_1
  6
CONTINUOUS
 62
     7
100
AcDbLine
 10
0.145079
 20
-2.772006
 30
0.0
 11
0.134548
 21
-2.754842
 31
0.0
  0
LINE
  5
B50
330
A86
100
AcDbEntity
  8
SKIKT_1
  6
CONTINUOUS
 62
     7
100
AcDbLine
 10
0.159293
 20
-2.786220999999998
 30
0.0
 11
0.145079
 21
-2.772006
 31
0.0
  0
LINE
  5
B51
330
A86
100
AcDbEntity
  8
SKIKT_1
  6
CONTINUOUS
 62
     7
100
AcDbLine
 10
0.176271
 20
-2.796568999999998
 30
0.0
 11
0.159293
 21
-2.786220999999998
 31
0.0
  0
LINE
  5
B52
330
A86
100
AcDbEntity
  8
SKIKT_1
  6
CONTINUOUS
 62
     7
100
AcDbLine
 10
0.195092
 20
-2.802127999999998
 30
0.0
 11
0.176271
 21
-2.796568999999998
 31
0.0
  0
LINE
  5
B53
330
A86
100
AcDbEntity
  8
SKIKT_1
  6
CONTINUOUS
 62
     7
100
AcDbLine
 10
0.214835
 20
-2.801978
 30
0.0
 11
0.195092
 21
-2.802127999999998
 31
0.0
  0
LINE
  5
B54
330
A86
100
AcDbEntity
  8
SKIKT_1
  6
CONTINUOUS
 62
     7
100
AcDbLine
 10
0.233845
 20
-2.799638999999998
 30
0.0
 11
0.214835
 21
-2.801978
 31
0.0
  0
LINE
  5
B55
330
A86
100
AcDbEntity
  8
SKIKT_1
  6
CONTINUOUS
 62
     7
100
AcDbLine
 10
0.250764
 20
-2.793006
 30
0.0
 11
0.233845
 21
-2.799638999999998
 31
0.0
  0
LINE
  5
B56
330
A86
100
AcDbEntity
  8
SKIKT_1
  6
CONTINUOUS
 62
     7
100
AcDbLine
 10
0.265131
 20
-2.782659999999999
 30
0.0
 11
0.250764
 21
-2.793006
 31
0.0
  0
LINE
  5
B57
330
A86
100
AcDbEntity
  8
SKIKT_1
  6
CONTINUOUS
 62
     7
100
AcDbLine
 10
0.27648
 20
-2.769181999999998
 30
0.0
 11
0.265131
 21
-2.782659999999999
 31
0.0
  0
LINE
  5
B58
330
A86
100
AcDbEntity
  8
SKIKT_1
  6
CONTINUOUS
 62
     7
100
AcDbLine
 10
0.284348
 20
-2.753150999999999
 30
0.0
 11
0.27648
 21
-2.769181999999998
 31
0.0
  0
LINE
  5
B59
330
A86
100
AcDbEntity
  8
SKIKT_1
  6
CONTINUOUS
 62
     7
100
AcDbLine
 10
0.288272
 20
-2.735146999999998
 30
0.0
 11
0.284348
 21
-2.753150999999999
 31
0.0
  0
LINE
  5
B5A
330
A86
100
AcDbEntity
  8
SKIKT_1
  6
CONTINUOUS
 62
     7
100
AcDbLine
 10
0.287788
 20
-2.715749999999998
 30
0.0
 11
0.288272
 21
-2.735146999999998
 31
0.0
  0
LINE
  5
B5B
330
A86
100
AcDbEntity
  8
SKIKT_1
  6
CONTINUOUS
 62
     7
100
AcDbLine
 10
0.281864
 20
-2.696561999999998
 30
0.0
 11
0.287788
 21
-2.715749999999998
 31
0.0
  0
LINE
  5
B5C
330
A86
100
AcDbEntity
  8
SKIKT_1
  6
CONTINUOUS
 62
     7
100
AcDbLine
 10
0.271334
 20
-2.679399999999998
 30
0.0
 11
0.281864
 21
-2.696561999999998
 31
0.0
  0
LINE
  5
B5D
330
A86
100
AcDbEntity
  8
SKIKT_1
  6
CONTINUOUS
 62
     7
100
AcDbLine
 10
0.257118
 20
-2.665184999999999
 30
0.0
 11
0.271334
 21
-2.679399999999998
 31
0.0
  0
LINE
  5
B5E
330
A86
100
AcDbEntity
  8
SKIKT_1
  6
CONTINUOUS
 62
     7
100
AcDbLine
 10
0.240138
 20
-2.654838
 30
0.0
 11
0.257118
 21
-2.665184999999999
 31
0.0
  0
LINE
  5
B5F
330
A86
100
AcDbEntity
  8
SKIKT_1
  6
CONTINUOUS
 62
     7
100
AcDbLine
 10
0.221315
 20
-2.649281
 30
0.0
 11
0.240138
 21
-2.654838
 31
0.0
  0
LINE
  5
B60
330
A86
100
AcDbEntity
  8
SKIKT_1
  6
CONTINUOUS
 62
     7
100
AcDbLine
 10
0.201571
 20
-2.649434999999999
 30
0.0
 11
0.221315
 21
-2.649281
 31
0.0
  0
LINE
  5
B61
330
A86
100
AcDbEntity
  8
SKIKT_1
  6
CONTINUOUS
 62
     7
100
AcDbLine
 10
0.183772
 20
-2.599249
 30
0.0
 11
0.201571
 21
-2.596379999999999
 31
0.0
  0
LINE
  5
B62
330
A86
100
AcDbEntity
  8
SKIKT_1
  6
CONTINUOUS
 62
     7
100
AcDbLine
 10
0.166939
 20
-2.604422
 30
0.0
 11
0.183772
 21
-2.599249
 31
0.0
  0
LINE
  5
B63
330
A86
100
AcDbEntity
  8
SKIKT_1
  6
CONTINUOUS
 62
     7
100
AcDbLine
 10
0.151211
 20
-2.611714
 30
0.0
 11
0.166939
 21
-2.604422
 31
0.0
  0
LINE
  5
B64
330
A86
100
AcDbEntity
  8
SKIKT_1
  6
CONTINUOUS
 62
     7
100
AcDbLine
 10
0.136727
 20
-2.62094
 30
0.0
 11
0.151211
 21
-2.611714
 31
0.0
  0
LINE
  5
B65
330
A86
100
AcDbEntity
  8
SKIKT_1
  6
CONTINUOUS
 62
     7
100
AcDbLine
 10
0.123624
 20
-2.631916999999999
 30
0.0
 11
0.136727
 21
-2.62094
 31
0.0
  0
LINE
  5
B66
330
A86
100
AcDbEntity
  8
SKIKT_1
  6
CONTINUOUS
 62
     7
100
AcDbLine
 10
0.112041
 20
-2.64446
 30
0.0
 11
0.123624
 21
-2.631916999999999
 31
0.0
  0
LINE
  5
B67
330
A86
100
AcDbEntity
  8
SKIKT_1
  6
CONTINUOUS
 62
     7
100
AcDbLine
 10
0.102116
 20
-2.658384999999999
 30
0.0
 11
0.112041
 21
-2.64446
 31
0.0
  0
LINE
  5
B68
330
A86
100
AcDbEntity
  8
SKIKT_1
  6
CONTINUOUS
 62
     7
100
AcDbLine
 10
0.093986
 20
-2.673506999999998
 30
0.0
 11
0.102116
 21
-2.658384999999999
 31
0.0
  0
LINE
  5
B69
330
A86
100
AcDbEntity
  8
SKIKT_1
  6
CONTINUOUS
 62
     7
100
AcDbLine
 10
0.087791
 20
-2.689641999999998
 30
0.0
 11
0.093986
 21
-2.673506999999998
 31
0.0
  0
LINE
  5
B6A
330
A86
100
AcDbEntity
  8
SKIKT_1
  6
CONTINUOUS
 62
     7
100
AcDbLine
 10
0.083667
 20
-2.706606999999998
 30
0.0
 11
0.087791
 21
-2.689641999999998
 31
0.0
  0
LINE
  5
B6B
330
A86
100
AcDbEntity
  8
SKIKT_1
  6
CONTINUOUS
 62
     7
100
AcDbLine
 10
0.081754
 20
-2.724216
 30
0.0
 11
0.083667
 21
-2.706606999999998
 31
0.0
  0
LINE
  5
B6C
330
A86
100
AcDbEntity
  8
SKIKT_1
  6
CONTINUOUS
 62
     7
100
AcDbLine
 10
0.082189
 20
-2.742284999999998
 30
0.0
 11
0.081754
 21
-2.724216
 31
0.0
  0
LINE
  5
B6D
330
A86
100
AcDbEntity
  8
SKIKT_1
  6
CONTINUOUS
 62
     7
100
AcDbLine
 10
0.085061
 20
-2.760086999999998
 30
0.0
 11
0.082189
 21
-2.742284999999998
 31
0.0
  0
LINE
  5
B6E
330
A86
100
AcDbEntity
  8
SKIKT_1
  6
CONTINUOUS
 62
     7
100
AcDbLine
 10
0.090236
 20
-2.776920999999998
 30
0.0
 11
0.085061
 21
-2.760086999999998
 31
0.0
  0
LINE
  5
B6F
330
A86
100
AcDbEntity
  8
SKIKT_1
  6
CONTINUOUS
 62
     7
100
AcDbLine
 10
0.097529
 20
-2.79265
 30
0.0
 11
0.090236
 21
-2.776920999999998
 31
0.0
  0
LINE
  5
B70
330
A86
100
AcDbEntity
  8
SKIKT_1
  6
CONTINUOUS
 62
     7
100
AcDbLine
 10
0.106756
 20
-2.807134999999998
 30
0.0
 11
0.097529
 21
-2.79265
 31
0.0
  0
LINE
  5
B71
330
A86
100
AcDbEntity
  8
SKIKT_1
  6
CONTINUOUS
 62
     7
100
AcDbLine
 10
0.117733
 20
-2.820238
 30
0.0
 11
0.106756
 21
-2.807134999999998
 31
0.0
  0
LINE
  5
B72
330
A86
100
AcDbEntity
  8
SKIKT_1
  6
CONTINUOUS
 62
     7
100
AcDbLine
 10
0.130276
 20
-2.831820999999998
 30
0.0
 11
0.117733
 21
-2.820238
 31
0.0
  0
LINE
  5
B73
330
A86
100
AcDbEntity
  8
SKIKT_1
  6
CONTINUOUS
 62
     7
100
AcDbLine
 10
0.1442
 20
-2.841747
 30
0.0
 11
0.130276
 21
-2.831820999999998
 31
0.0
  0
LINE
  5
B74
330
A86
100
AcDbEntity
  8
SKIKT_1
  6
CONTINUOUS
 62
     7
100
AcDbLine
 10
0.159323
 20
-2.849875999999998
 30
0.0
 11
0.1442
 21
-2.841747
 31
0.0
  0
LINE
  5
B75
330
A86
100
AcDbEntity
  8
SKIKT_1
  6
CONTINUOUS
 62
     7
100
AcDbLine
 10
0.175459
 20
-2.856069999999998
 30
0.0
 11
0.159323
 21
-2.849875999999998
 31
0.0
  0
LINE
  5
B76
330
A86
100
AcDbEntity
  8
SKIKT_1
  6
CONTINUOUS
 62
     7
100
AcDbLine
 10
0.192424
 20
-2.860193
 30
0.0
 11
0.175459
 21
-2.856069999999998
 31
0.0
  0
LINE
  5
B77
330
A86
100
AcDbEntity
  8
SKIKT_1
  6
CONTINUOUS
 62
     7
100
AcDbLine
 10
0.210035
 20
-2.862104
 30
0.0
 11
0.192424
 21
-2.860193
 31
0.0
  0
LINE
  5
B78
330
A86
100
AcDbEntity
  8
SKIKT_1
  6
CONTINUOUS
 62
     7
100
AcDbLine
 10
0.228107
 20
-2.861666999999998
 30
0.0
 11
0.210035
 21
-2.862104
 31
0.0
  0
LINE
  5
B79
330
A86
100
AcDbEntity
  8
SKIKT_1
  6
CONTINUOUS
 62
     7
100
AcDbLine
 10
0.245908
 20
-2.858795999999999
 30
0.0
 11
0.228107
 21
-2.861666999999998
 31
0.0
  0
LINE
  5
B7A
330
A86
100
AcDbEntity
  8
SKIKT_1
  6
CONTINUOUS
 62
     7
100
AcDbLine
 10
0.262742
 20
-2.853622
 30
0.0
 11
0.245908
 21
-2.858795999999999
 31
0.0
  0
LINE
  5
B7B
330
A86
100
AcDbEntity
  8
SKIKT_1
  6
CONTINUOUS
 62
     7
100
AcDbLine
 10
0.278471
 20
-2.846328999999998
 30
0.0
 11
0.262742
 21
-2.853622
 31
0.0
  0
LINE
  5
B7C
330
A86
100
AcDbEntity
  8
SKIKT_1
  6
CONTINUOUS
 62
     7
100
AcDbLine
 10
0.292956
 20
-2.837100999999998
 30
0.0
 11
0.278471
 21
-2.846328999999998
 31
0.0
  0
LINE
  5
B7D
330
A86
100
AcDbEntity
  8
SKIKT_1
  6
CONTINUOUS
 62
     7
100
AcDbLine
 10
0.306059
 20
-2.826122999999998
 30
0.0
 11
0.292956
 21
-2.837100999999998
 31
0.0
  0
LINE
  5
B7E
330
A86
100
AcDbEntity
  8
SKIKT_1
  6
CONTINUOUS
 62
     7
100
AcDbLine
 10
0.317642
 20
-2.813579999999998
 30
0.0
 11
0.306059
 21
-2.826122999999998
 31
0.0
  0
LINE
  5
B7F
330
A86
100
AcDbEntity
  8
SKIKT_1
  6
CONTINUOUS
 62
     7
100
AcDbLine
 10
0.327566
 20
-2.799654
 30
0.0
 11
0.317642
 21
-2.813579999999998
 31
0.0
  0
LINE
  5
B80
330
A86
100
AcDbEntity
  8
SKIKT_1
  6
CONTINUOUS
 62
     7
100
AcDbLine
 10
0.3356949999999999
 20
-2.784531
 30
0.0
 11
0.327566
 21
-2.799654
 31
0.0
  0
LINE
  5
B81
330
A86
100
AcDbEntity
  8
SKIKT_1
  6
CONTINUOUS
 62
     7
100
AcDbLine
 10
0.341888
 20
-2.768394999999998
 30
0.0
 11
0.3356949999999999
 21
-2.784531
 31
0.0
  0
LINE
  5
B82
330
A86
100
AcDbEntity
  8
SKIKT_1
  6
CONTINUOUS
 62
     7
100
AcDbLine
 10
0.346009
 20
-2.75143
 30
0.0
 11
0.341888
 21
-2.768394999999998
 31
0.0
  0
LINE
  5
B83
330
A86
100
AcDbEntity
  8
SKIKT_1
  6
CONTINUOUS
 62
     7
100
AcDbLine
 10
0.34792
 20
-2.73382
 30
0.0
 11
0.346009
 21
-2.75143
 31
0.0
  0
LINE
  5
B84
330
A86
100
AcDbEntity
  8
SKIKT_1
  6
CONTINUOUS
 62
     7
100
AcDbLine
 10
0.347481
 20
-2.715749999999998
 30
0.0
 11
0.34792
 21
-2.73382
 31
0.0
  0
LINE
  5
B85
330
A86
100
AcDbEntity
  8
SKIKT_1
  6
CONTINUOUS
 62
     7
100
AcDbLine
 10
0.3446099999999999
 20
-2.69795
 30
0.0
 11
0.347481
 21
-2.715749999999998
 31
0.0
  0
LINE
  5
B86
330
A86
100
AcDbEntity
  8
SKIKT_1
  6
CONTINUOUS
 62
     7
100
AcDbLine
 10
0.339437
 20
-2.681118
 30
0.0
 11
0.3446099999999999
 21
-2.69795
 31
0.0
  0
LINE
  5
B87
330
A86
100
AcDbEntity
  8
SKIKT_1
  6
CONTINUOUS
 62
     7
100
AcDbLine
 10
0.332145
 20
-2.665389999999999
 30
0.0
 11
0.339437
 21
-2.681118
 31
0.0
  0
LINE
  5
B88
330
A86
100
AcDbEntity
  8
SKIKT_1
  6
CONTINUOUS
 62
     7
100
AcDbLine
 10
0.322918
 20
-2.650905999999999
 30
0.0
 11
0.332145
 21
-2.665389999999999
 31
0.0
  0
LINE
  5
B89
330
A86
100
AcDbEntity
  8
SKIKT_1
  6
CONTINUOUS
 62
     7
100
AcDbLine
 10
0.311941
 20
-2.637804
 30
0.0
 11
0.322918
 21
-2.650905999999999
 31
0.0
  0
LINE
  5
B8A
330
A86
100
AcDbEntity
  8
SKIKT_1
  6
CONTINUOUS
 62
     7
100
AcDbLine
 10
0.299399
 20
-2.626220999999999
 30
0.0
 11
0.311941
 21
-2.637804
 31
0.0
  0
LINE
  5
B8B
330
A86
100
AcDbEntity
  8
SKIKT_1
  6
CONTINUOUS
 62
     7
100
AcDbLine
 10
0.285474
 20
-2.616297
 30
0.0
 11
0.299399
 21
-2.626220999999999
 31
0.0
  0
LINE
  5
B8C
330
A86
100
AcDbEntity
  8
SKIKT_1
  6
CONTINUOUS
 62
     7
100
AcDbLine
 10
0.270352
 20
-2.608168
 30
0.0
 11
0.285474
 21
-2.616297
 31
0.0
  0
LINE
  5
B8D
330
A86
100
AcDbEntity
  8
SKIKT_1
  6
CONTINUOUS
 62
     7
100
AcDbLine
 10
0.254216
 20
-2.601974
 30
0.0
 11
0.270352
 21
-2.608168
 31
0.0
  0
LINE
  5
B8E
330
A86
100
AcDbEntity
  8
SKIKT_1
  6
CONTINUOUS
 62
     7
100
AcDbLine
 10
0.237251
 20
-2.597852999999999
 30
0.0
 11
0.254216
 21
-2.601974
 31
0.0
  0
LINE
  5
B8F
330
A86
100
AcDbEntity
  8
SKIKT_1
  6
CONTINUOUS
 62
     7
100
AcDbLine
 10
0.219642
 20
-2.595941999999999
 30
0.0
 11
0.237251
 21
-2.597852999999999
 31
0.0
  0
LINE
  5
B90
330
A86
100
AcDbEntity
  8
SKIKT_1
  6
CONTINUOUS
 62
     7
100
AcDbLine
 10
0.201571
 20
-2.596379999999999
 30
0.0
 11
0.219642
 21
-2.595941999999999
 31
0.0
  0
LINE
  5
B91
330
A86
100
AcDbEntity
  8
SKIKT_1
  6
CONTINUOUS
 62
     7
100
AcDbLine
 10
0.075567
 20
-3.306026
 30
0.0
 11
0.108721
 21
-3.060632
 31
0.0
  0
LINE
  5
B92
330
A86
100
AcDbEntity
  8
SKIKT_1
  6
CONTINUOUS
 62
     7
100
AcDbLine
 10
-0.342271
 20
-2.861666999999998
 30
0.0
 11
-0.143307
 21
-2.861666999999998
 31
0.0
  0
LINE
  5
B93
330
A86
100
AcDbEntity
  8
SKIKT_1
  6
CONTINUOUS
 62
     7
100
AcDbLine
 10
0.049032
 20
-3.339183
 30
0.0
 11
0.075567
 21
-3.306026
 31
0.0
  0
LINE
  5
B94
330
A86
100
AcDbEntity
  8
SKIKT_1
  6
CONTINUOUS
 62
     7
100
AcDbLine
 10
-0.375425
 20
-3.359084999999998
 30
0.0
 11
0.049032
 21
-3.339183
 31
0.0
  0
LINE
  5
B95
330
A86
100
AcDbEntity
  8
SKIKT_1
  6
CONTINUOUS
 62
     7
100
AcDbLine
 10
-0.41522
 20
-3.352455
 30
0.0
 11
-0.375425
 21
-3.359084999999998
 31
0.0
  0
LINE
  5
B96
330
A86
100
AcDbEntity
  8
SKIKT_1
  6
CONTINUOUS
 62
     7
100
AcDbLine
 10
-0.428492
 20
-3.332561
 30
0.0
 11
-0.41522
 21
-3.352455
 31
0.0
  0
LINE
  5
B97
330
A86
100
AcDbEntity
  8
SKIKT_1
  6
CONTINUOUS
 62
     7
100
AcDbLine
 10
-0.375425
 20
-2.901459
 30
0.0
 11
-0.428492
 21
-3.332561
 31
0.0
  0
LINE
  5
B98
330
A86
100
AcDbEntity
  8
SKIKT_1
  6
CONTINUOUS
 62
     7
100
AcDbLine
 10
-0.348905
 20
-2.861666999999998
 30
0.0
 11
-0.375425
 21
-2.901459
 31
0.0
  0
LINE
  5
B99
330
A86
100
AcDbEntity
  8
SKIKT_1
  6
CONTINUOUS
 62
     7
100
AcDbLine
 10
-0.156566
 20
-2.861666999999998
 30
0.0
 11
-0.348905
 21
-2.861666999999998
 31
0.0
  0
LINE
  5
B9A
330
A86
100
AcDbEntity
  8
SKIKT_1
  6
CONTINUOUS
 62
     7
100
AcDbLine
 10
-0.189724
 20
-2.974418999999998
 30
0.0
 11
-0.156566
 21
-2.861666999999998
 31
0.0
  0
LINE
  5
B9B
330
A86
100
AcDbEntity
  8
SKIKT_1
  6
CONTINUOUS
 62
     7
100
AcDbLine
 10
-0.183102
 20
-3.007576999999998
 30
0.0
 11
-0.189724
 21
-2.974418999999998
 31
0.0
  0
LINE
  5
B9C
330
A86
100
AcDbEntity
  8
SKIKT_1
  6
CONTINUOUS
 62
     7
100
AcDbLine
 10
-0.189724
 20
-3.087163
 30
0.0
 11
-0.183102
 21
-3.007576999999998
 31
0.0
  0
LINE
  5
B9D
330
A86
100
AcDbEntity
  8
SKIKT_1
  6
CONTINUOUS
 62
     7
100
AcDbLine
 10
-0.176464
 20
-3.113687
 30
0.0
 11
-0.189724
 21
-3.087163
 31
0.0
  0
LINE
  5
B9E
330
A86
100
AcDbEntity
  8
SKIKT_1
  6
CONTINUOUS
 62
     7
100
AcDbLine
 10
-0.163204
 20
-3.140222
 30
0.0
 11
-0.176464
 21
-3.113687
 31
0.0
  0
LINE
  5
B9F
330
A86
100
AcDbEntity
  8
SKIKT_1
  6
CONTINUOUS
 62
     7
100
AcDbLine
 10
-0.063716
 20
-3.140222
 30
0.0
 11
-0.163204
 21
-3.140222
 31
0.0
  0
LINE
  5
BA0
330
A86
100
AcDbEntity
  8
SKIKT_1
  6
CONTINUOUS
 62
     7
100
AcDbLine
 10
-0.017283
 20
-3.133588999999998
 30
0.0
 11
-0.063716
 21
-3.140222
 31
0.0
  0
LINE
  5
BA1
330
A86
100
AcDbEntity
  8
SKIKT_1
  6
CONTINUOUS
 62
     7
100
AcDbLine
 10
0.108721
 20
-3.060632
 30
0.0
 11
-0.017283
 21
-3.133588999999998
 31
0.0
  0
LINE
  5
BA2
330
A86
100
AcDbEntity
  8
SKIKT_1
  6
CONTINUOUS
 62
     7
100
AcDbLine
 10
0.075567
 20
-3.306026
 30
0.0
 11
0.108721
 21
-3.060632
 31
0.0
  0
LINE
  5
BA3
330
A86
100
AcDbEntity
  8
SKIKT_1
  6
CONTINUOUS
 62
     7
100
AcDbLine
 10
0.168418
 20
-2.423938999999998
 30
0.0
 11
-0.017283
 21
-2.642800999999999
 31
0.0
  0
LINE
  5
BA4
330
A86
100
AcDbEntity
  8
SKIKT_1
  6
CONTINUOUS
 62
     7
100
AcDbLine
 10
0.188063
 20
-2.406499
 30
0.0
 11
0.168418
 21
-2.423938999999998
 31
0.0
  0
LINE
  5
BA5
330
A86
100
AcDbEntity
  8
SKIKT_1
  6
CONTINUOUS
 62
     7
100
AcDbLine
 10
0.201818
 20
-2.394956
 30
0.0
 11
0.188063
 21
-2.406499
 31
0.0
  0
LINE
  5
BA6
330
A86
100
AcDbEntity
  8
SKIKT_1
  6
CONTINUOUS
 62
     7
100
AcDbLine
 10
0.221473
 20
-2.390781
 30
0.0
 11
0.201818
 21
-2.394956
 31
0.0
  0
LINE
  5
BA7
330
A86
100
AcDbEntity
  8
SKIKT_1
  6
CONTINUOUS
 62
     7
100
AcDbLine
 10
0.245789
 20
-2.390284999999999
 30
0.0
 11
0.221473
 21
-2.390781
 31
0.0
  0
LINE
  5
BA8
330
A86
100
AcDbEntity
  8
SKIKT_1
  6
CONTINUOUS
 62
     7
100
AcDbLine
 10
0.265683
 20
-2.400108
 30
0.0
 11
0.245789
 21
-2.390284999999999
 31
0.0
  0
LINE
  5
BA9
330
A86
100
AcDbEntity
  8
SKIKT_1
  6
CONTINUOUS
 62
     7
100
AcDbLine
 10
0.2811619999999999
 20
-2.417304999999998
 30
0.0
 11
0.265683
 21
-2.400108
 31
0.0
  0
LINE
  5
BAA
330
A86
100
AcDbEntity
  8
SKIKT_1
  6
CONTINUOUS
 62
     7
100
AcDbLine
 10
0.493398
 20
-2.636166999999999
 30
0.0
 11
0.2811619999999999
 21
-2.417304999999998
 31
0.0
  0
LINE
  5
BAB
330
A86
100
AcDbEntity
  8
SKIKT_1
  6
CONTINUOUS
 62
     7
100
AcDbLine
 10
0.510834
 20
-2.649923999999999
 30
0.0
 11
0.493398
 21
-2.636166999999999
 31
0.0
  0
LINE
  5
BAC
330
A86
100
AcDbEntity
  8
SKIKT_1
  6
CONTINUOUS
 62
     7
100
AcDbLine
 10
0.5223810000000002
 20
-2.666627999999997
 30
0.0
 11
0.510834
 21
-2.649923999999999
 31
0.0
  0
LINE
  5
BAD
330
A86
100
AcDbEntity
  8
SKIKT_1
  6
CONTINUOUS
 62
     7
100
AcDbLine
 10
0.52656
 20
-2.689229999999998
 30
0.0
 11
0.5223810000000002
 21
-2.666627999999997
 31
0.0
  0
LINE
  5
BAE
330
A86
100
AcDbEntity
  8
SKIKT_1
  6
CONTINUOUS
 62
     7
100
AcDbLine
 10
0.529257
 20
-2.707161
 30
0.0
 11
0.52656
 21
-2.689229999999998
 31
0.0
  0
LINE
  5
BAF
330
A86
100
AcDbEntity
  8
SKIKT_1
  6
CONTINUOUS
 62
     7
100
AcDbLine
 10
0.5260630000000001
 20
-2.722142999999998
 30
0.0
 11
0.529257
 21
-2.707161
 31
0.0
  0
LINE
  5
BB0
330
A86
100
AcDbEntity
  8
SKIKT_1
  6
CONTINUOUS
 62
     7
100
AcDbLine
 10
0.5199180000000001
 20
-2.735651999999998
 30
0.0
 11
0.5260630000000001
 21
-2.722142999999998
 31
0.0
  0
LINE
  5
BB1
330
A86
100
AcDbEntity
  8
SKIKT_1
  6
CONTINUOUS
 62
     7
100
AcDbLine
 10
0.334217
 20
-2.927986
 30
0.0
 11
0.5199180000000001
 21
-2.735651999999998
 31
0.0
  0
LINE
  5
BB2
330
A86
100
AcDbEntity
  8
SKIKT_1
  6
CONTINUOUS
 62
     7
100
AcDbLine
 10
-0.017283
 20
-3.140222
 30
0.0
 11
0.334217
 21
-2.927986
 31
0.0
  0
LINE
  5
BB3
330
A86
100
AcDbEntity
  8
SKIKT_1
  6
CONTINUOUS
 62
     7
100
AcDbLine
 10
-0.123409
 20
-3.140222
 30
0.0
 11
-0.017283
 21
-3.140222
 31
0.0
  0
LINE
  5
BB4
330
A86
100
AcDbEntity
  8
SKIKT_1
  6
CONTINUOUS
 62
     7
100
AcDbLine
 10
-0.13962
 20
-3.142921999999998
 30
0.0
 11
-0.123409
 21
-3.140222
 31
0.0
  0
LINE
  5
BB5
330
A86
100
AcDbEntity
  8
SKIKT_1
  6
CONTINUOUS
 62
     7
100
AcDbLine
 10
-0.151408
 20
-3.139728999999998
 30
0.0
 11
-0.13962
 21
-3.142921999999998
 31
0.0
  0
LINE
  5
BB6
330
A86
100
AcDbEntity
  8
SKIKT_1
  6
CONTINUOUS
 62
     7
100
AcDbLine
 10
-0.163204
 20
-3.133588999999998
 30
0.0
 11
-0.151408
 21
-3.139728999999998
 31
0.0
  0
LINE
  5
BB7
330
A86
100
AcDbEntity
  8
SKIKT_1
  6
CONTINUOUS
 62
     7
100
AcDbLine
 10
-0.178923
 20
-3.12474
 30
0.0
 11
-0.163204
 21
-3.133588999999998
 31
0.0
  0
LINE
  5
BB8
330
A86
100
AcDbEntity
  8
SKIKT_1
  6
CONTINUOUS
 62
     7
100
AcDbLine
 10
-0.18727
 20
-3.111475999999998
 30
0.0
 11
-0.178923
 21
-3.12474
 31
0.0
  0
LINE
  5
BB9
330
A86
100
AcDbEntity
  8
SKIKT_1
  6
CONTINUOUS
 62
     7
100
AcDbLine
 10
-0.189724
 20
-3.093793
 30
0.0
 11
-0.18727
 21
-3.111475999999998
 31
0.0
  0
LINE
  5
BBA
330
A86
100
AcDbEntity
  8
SKIKT_1
  6
CONTINUOUS
 62
     7
100
AcDbLine
 10
-0.189724
 20
-2.981040999999999
 30
0.0
 11
-0.189724
 21
-3.093793
 31
0.0
  0
LINE
  5
BBB
330
A86
100
AcDbEntity
  8
SKIKT_1
  6
CONTINUOUS
 62
     7
100
AcDbLine
 10
-0.163204
 20
-2.881556999999998
 30
0.0
 11
-0.189724
 21
-2.981040999999999
 31
0.0
  0
LINE
  5
BBC
330
A86
100
AcDbEntity
  8
SKIKT_1
  6
CONTINUOUS
 62
     7
100
AcDbLine
 10
-0.017283
 20
-2.642800999999999
 30
0.0
 11
-0.163204
 21
-2.881556999999998
 31
0.0
  0
LINE
  5
BBD
330
A86
100
AcDbEntity
  8
SKIKT_1
  6
CONTINUOUS
 62
     7
100
AcDbLine
 10
0.6658270000000001
 20
-2.297918999999998
 30
0.0
 11
0.6658270000000001
 21
-3.266229999999998
 31
0.0
  0
LINE
  5
BBE
330
A86
100
AcDbEntity
  8
SKIKT_1
  6
CONTINUOUS
 62
     7
100
AcDbLine
 10
0.208213
 20
-1.853561
 30
0.0
 11
0.6658270000000001
 21
-2.297918999999998
 31
0.0
  0
LINE
  5
BBF
330
A86
100
AcDbEntity
  8
SKIKT_1
  6
CONTINUOUS
 62
     7
100
AcDbLine
 10
0.63267
 20
-2.662695
 30
0.0
 11
0.2811619999999999
 21
-2.304552999999998
 31
0.0
  0
LINE
  5
BC0
330
A86
100
AcDbEntity
  8
SKIKT_1
  6
CONTINUOUS
 62
     7
100
AcDbLine
 10
0.367378
 20
-2.496896
 30
0.0
 11
0.387276
 21
-2.470359999999999
 31
0.0
  0
LINE
  5
BC1
330
A86
100
AcDbEntity
  8
SKIKT_1
  6
CONTINUOUS
 62
     7
100
AcDbLine
 10
-0.4281990000000003
 20
-3.316987999999998
 30
0.0
 11
-0.428492
 21
-3.319288999999998
 31
0.0
  0
LINE
  5
BC2
330
A86
100
AcDbEntity
  8
SKIKT_1
  6
CONTINUOUS
 62
     7
100
AcDbLine
 10
-0.427358
 20
-3.310360999999998
 30
0.0
 11
-0.4281990000000003
 21
-3.316987999999998
 31
0.0
  0
LINE
  5
BC3
330
A86
100
AcDbEntity
  8
SKIKT_1
  6
CONTINUOUS
 62
     7
100
AcDbLine
 10
-0.426019
 20
-3.299818
 30
0.0
 11
-0.427358
 21
-3.310360999999998
 31
0.0
  0
LINE
  5
BC4
330
A86
100
AcDbEntity
  8
SKIKT_1
  6
CONTINUOUS
 62
     7
100
AcDbLine
 10
-0.424235
 20
-3.285772
 30
0.0
 11
-0.426019
 21
-3.299818
 31
0.0
  0
LINE
  5
BC5
330
A86
100
AcDbEntity
  8
SKIKT_1
  6
CONTINUOUS
 62
     7
100
AcDbLine
 10
-0.422058
 20
-3.268635999999998
 30
0.0
 11
-0.424235
 21
-3.285772
 31
0.0
  0
LINE
  5
BC6
330
A86
100
AcDbEntity
  8
SKIKT_1
  6
CONTINUOUS
 62
     7
100
AcDbLine
 10
-0.4195420000000001
 20
-3.248820999999998
 30
0.0
 11
-0.422058
 21
-3.268635999999998
 31
0.0
  0
LINE
  5
BC7
330
A86
100
AcDbEntity
  8
SKIKT_1
  6
CONTINUOUS
 62
     7
100
AcDbLine
 10
-0.416737
 20
-3.226739999999998
 30
0.0
 11
-0.4195420000000001
 21
-3.248820999999998
 31
0.0
  0
LINE
  5
BC8
330
A86
100
AcDbEntity
  8
SKIKT_1
  6
CONTINUOUS
 62
     7
100
AcDbLine
 10
-0.4136970000000001
 20
-3.202803999999998
 30
0.0
 11
-0.416737
 21
-3.226739999999998
 31
0.0
  0
LINE
  5
BC9
330
A86
100
AcDbEntity
  8
SKIKT_1
  6
CONTINUOUS
 62
     7
100
AcDbLine
 10
-0.410474
 20
-3.177424999999998
 30
0.0
 11
-0.4136970000000001
 21
-3.202803999999998
 31
0.0
  0
LINE
  5
BCA
330
A86
100
AcDbEntity
  8
SKIKT_1
  6
CONTINUOUS
 62
     7
100
AcDbLine
 10
-0.4071200000000001
 20
-3.151016999999998
 30
0.0
 11
-0.410474
 21
-3.177424999999998
 31
0.0
  0
LINE
  5
BCB
330
A86
100
AcDbEntity
  8
SKIKT_1
  6
CONTINUOUS
 62
     7
100
AcDbLine
 10
-0.403688
 20
-3.12399
 30
0.0
 11
-0.4071200000000001
 21
-3.151016999999998
 31
0.0
  0
LINE
  5
BCC
330
A86
100
AcDbEntity
  8
SKIKT_1
  6
CONTINUOUS
 62
     7
100
AcDbLine
 10
-0.4002290000000003
 20
-3.096758
 30
0.0
 11
-0.403688
 21
-3.12399
 31
0.0
  0
LINE
  5
BCD
330
A86
100
AcDbEntity
  8
SKIKT_1
  6
CONTINUOUS
 62
     7
100
AcDbLine
 10
-0.396796
 20
-3.069730999999998
 30
0.0
 11
-0.4002290000000003
 21
-3.096758
 31
0.0
  0
LINE
  5
BCE
330
A86
100
AcDbEntity
  8
SKIKT_1
  6
CONTINUOUS
 62
     7
100
AcDbLine
 10
-0.393442
 20
-3.043323
 30
0.0
 11
-0.396796
 21
-3.069730999999998
 31
0.0
  0
LINE
  5
BCF
330
A86
100
AcDbEntity
  8
SKIKT_1
  6
CONTINUOUS
 62
     7
100
AcDbLine
 10
-0.390219
 20
-3.017943999999998
 30
0.0
 11
-0.393442
 21
-3.043323
 31
0.0
  0
LINE
  5
BD0
330
A86
100
AcDbEntity
  8
SKIKT_1
  6
CONTINUOUS
 62
     7
100
AcDbLine
 10
-0.387179
 20
-2.994008
 30
0.0
 11
-0.390219
 21
-3.017943999999998
 31
0.0
  0
LINE
  5
BD1
330
A86
100
AcDbEntity
  8
SKIKT_1
  6
CONTINUOUS
 62
     7
100
AcDbLine
 10
-0.384375
 20
-2.971926999999998
 30
0.0
 11
-0.387179
 21
-2.994008
 31
0.0
  0
LINE
  5
BD2
330
A86
100
AcDbEntity
  8
SKIKT_1
  6
CONTINUOUS
 62
     7
100
AcDbLine
 10
-0.381858
 20
-2.952111999999998
 30
0.0
 11
-0.384375
 21
-2.971926999999998
 31
0.0
  0
LINE
  5
BD3
330
A86
100
AcDbEntity
  8
SKIKT_1
  6
CONTINUOUS
 62
     7
100
AcDbLine
 10
-0.379682
 20
-2.934975999999998
 30
0.0
 11
-0.381858
 21
-2.952111999999998
 31
0.0
  0
LINE
  5
BD4
330
A86
100
AcDbEntity
  8
SKIKT_1
  6
CONTINUOUS
 62
     7
100
AcDbLine
 10
-0.377898
 20
-2.920929999999998
 30
0.0
 11
-0.379682
 21
-2.934975999999998
 31
0.0
  0
LINE
  5
BD5
330
A86
100
AcDbEntity
  8
SKIKT_1
  6
CONTINUOUS
 62
     7
100
AcDbLine
 10
-0.376559
 20
-2.910387
 30
0.0
 11
-0.377898
 21
-2.920929999999998
 31
0.0
  0
LINE
  5
BD6
330
A86
100
AcDbEntity
  8
SKIKT_1
  6
CONTINUOUS
 62
     7
100
AcDbLine
 10
-0.375717
 20
-2.903758999999998
 30
0.0
 11
-0.376559
 21
-2.910387
 31
0.0
  0
LINE
  5
BD7
330
A86
100
AcDbEntity
  8
SKIKT_1
  6
CONTINUOUS
 62
     7
100
AcDbLine
 10
-0.375425
 20
-2.901459
 30
0.0
 11
-0.375717
 21
-2.903758999999998
 31
0.0
  0
LINE
  5
BD8
330
A86
100
AcDbEntity
  8
SKIKT_1
  6
CONTINUOUS
 62
     7
100
AcDbLine
 10
-0.362165
 20
-2.868297
 30
0.0
 11
-0.375425
 21
-2.901459
 31
0.0
  0
LINE
  5
BD9
330
A86
100
AcDbEntity
  8
SKIKT_1
  6
CONTINUOUS
 62
     7
100
AcDbLine
 10
-0.342271
 20
-2.855033
 30
0.0
 11
-0.362165
 21
-2.868297
 31
0.0
  0
LINE
  5
BDA
330
A86
100
AcDbEntity
  8
SKIKT_1
  6
CONTINUOUS
 62
     7
100
AcDbLine
 10
-0.282574
 20
-2.297918999999998
 30
0.0
 11
-0.342271
 21
-2.855033
 31
0.0
  0
LINE
  5
BDB
330
A86
100
AcDbEntity
  8
SKIKT_1
  6
CONTINUOUS
 62
     7
100
AcDbLine
 10
0.612772
 20
-1.468892
 30
0.0
 11
-0.282574
 21
-2.297918999999998
 31
0.0
  0
LINE
  5
BDC
330
A86
100
AcDbEntity
  8
SKIKT_1
  6
CONTINUOUS
 62
     7
100
AcDbLine
 10
0.825004
 20
-1.468892
 30
0.0
 11
0.612772
 21
-1.468892
 31
0.0
  0
LINE
  5
BDD
330
A86
100
AcDbEntity
  8
SKIKT_1
  6
CONTINUOUS
 62
     7
100
AcDbLine
 10
0.8714259999999999
 20
-1.521954999999999
 30
0.0
 11
0.825004
 21
-1.468892
 31
0.0
  0
LINE
  5
BDE
330
A86
100
AcDbEntity
  8
SKIKT_1
  6
CONTINUOUS
 62
     7
100
AcDbLine
 10
1.421902
 20
-1.521954999999999
 30
0.0
 11
0.8714259999999999
 21
-1.521954999999999
 31
0.0
  0
LINE
  5
BDF
330
A86
100
AcDbEntity
  8
SKIKT_1
  6
CONTINUOUS
 62
     7
100
AcDbLine
 10
1.421902
 20
-1.800506
 30
0.0
 11
1.421902
 21
-1.521954999999999
 31
0.0
  0
LINE
  5
BE0
330
A86
100
AcDbEntity
  8
SKIKT_1
  6
CONTINUOUS
 62
     7
100
AcDbLine
 10
1.501492999999999
 20
-1.773977999999999
 30
0.0
 11
1.421902
 21
-1.800506
 31
0.0
  0
LINE
  5
BE1
330
A86
100
AcDbEntity
  8
SKIKT_1
  6
CONTINUOUS
 62
     7
100
AcDbLine
 10
2.277465
 20
-1.787245999999995
 30
0.0
 11
1.501492999999999
 21
-1.773977999999999
 31
0.0
  0
LINE
  5
BE2
330
A86
100
AcDbEntity
  8
SKIKT_1
  6
CONTINUOUS
 62
     7
100
AcDbLine
 10
2.350422
 20
-1.873463
 30
0.0
 11
2.277465
 21
-1.787245999999995
 31
0.0
  0
LINE
  5
BE3
330
A86
100
AcDbEntity
  8
SKIKT_1
  6
CONTINUOUS
 62
     7
100
AcDbLine
 10
2.350422
 20
-2.762183
 30
0.0
 11
2.350422
 21
-1.873463
 31
0.0
  0
LINE
  5
BE4
330
A86
100
AcDbEntity
  8
SKIKT_1
  6
CONTINUOUS
 62
     7
100
AcDbLine
 10
2.290725
 20
-2.835135999999998
 30
0.0
 11
2.350422
 21
-2.762183
 31
0.0
  0
LINE
  5
BE5
330
A86
100
AcDbEntity
  8
SKIKT_1
  6
CONTINUOUS
 62
     7
100
AcDbLine
 10
1.508126
 20
-2.841774
 30
0.0
 11
2.290725
 21
-2.835135999999998
 31
0.0
  0
LINE
  5
BE6
330
A86
100
AcDbEntity
  8
SKIKT_1
  6
CONTINUOUS
 62
     7
100
AcDbLine
 10
1.421902
 20
-2.801978
 30
0.0
 11
1.508126
 21
-2.841774
 31
0.0
  0
LINE
  5
BE7
330
A86
100
AcDbEntity
  8
SKIKT_1
  6
CONTINUOUS
 62
     7
100
AcDbLine
 10
1.421902
 20
-3.073891999999998
 30
0.0
 11
1.421902
 21
-2.801978
 31
0.0
  0
LINE
  5
BE8
330
A86
100
AcDbEntity
  8
SKIKT_1
  6
CONTINUOUS
 62
     7
100
AcDbLine
 10
0.8647999999999999
 20
-3.073891999999998
 30
0.0
 11
1.421902
 21
-3.073891999999998
 31
0.0
  0
LINE
  5
BE9
330
A86
100
AcDbEntity
  8
SKIKT_1
  6
CONTINUOUS
 62
     7
100
AcDbLine
 10
0.7520560000000001
 20
-3.259592
 30
0.0
 11
0.8647999999999999
 21
-3.073891999999998
 31
0.0
  0
LINE
  5
BEA
330
A86
100
AcDbEntity
  8
SKIKT_1
  6
CONTINUOUS
 62
     7
100
AcDbLine
 10
0.088827
 20
-3.306026
 30
0.0
 11
0.7520560000000001
 21
-3.259592
 31
0.0
  0
LINE
  5
BEB
330
A86
100
AcDbEntity
  8
SKIKT_1
  6
CONTINUOUS
 62
     7
100
AcDbLine
 10
0.068193
 20
-3.316098999999999
 30
0.0
 11
0.088827
 21
-3.306026
 31
0.0
  0
LINE
  5
BEC
330
A86
100
AcDbEntity
  8
SKIKT_1
  6
CONTINUOUS
 62
     7
100
AcDbLine
 10
0.060823
 20
-3.329118
 30
0.0
 11
0.068193
 21
-3.316098999999999
 31
0.0
  0
LINE
  5
BED
330
A86
100
AcDbEntity
  8
SKIKT_1
  6
CONTINUOUS
 62
     7
100
AcDbLine
 10
0.049032
 20
-3.339183
 30
0.0
 11
0.060823
 21
-3.329118
 31
0.0
  0
LINE
  5
BEE
330
A86
100
AcDbEntity
  8
SKIKT_1
  6
CONTINUOUS
 62
     7
100
AcDbLine
 10
0.046803
 20
-3.339293
 30
0.0
 11
0.049032
 21
-3.339183
 31
0.0
  0
LINE
  5
BEF
330
A86
100
AcDbEntity
  8
SKIKT_1
  6
CONTINUOUS
 62
     7
100
AcDbLine
 10
0.040374
 20
-3.339608
 30
0.0
 11
0.046803
 21
-3.339293
 31
0.0
  0
LINE
  5
BF0
330
A86
100
AcDbEntity
  8
SKIKT_1
  6
CONTINUOUS
 62
     7
100
AcDbLine
 10
0.030135
 20
-3.340109999999998
 30
0.0
 11
0.040374
 21
-3.339608
 31
0.0
  0
LINE
  5
BF1
330
A86
100
AcDbEntity
  8
SKIKT_1
  6
CONTINUOUS
 62
     7
100
AcDbLine
 10
0.016474
 20
-3.340778999999998
 30
0.0
 11
0.030135
 21
-3.340109999999998
 31
0.0
  0
LINE
  5
BF2
330
A86
100
AcDbEntity
  8
SKIKT_1
  6
CONTINUOUS
 62
     7
100
AcDbLine
 10
-0.000217
 20
-3.341596
 30
0.0
 11
0.016474
 21
-3.340778999999998
 31
0.0
  0
LINE
  5
BF3
330
A86
100
AcDbEntity
  8
SKIKT_1
  6
CONTINUOUS
 62
     7
100
AcDbLine
 10
-0.019552
 20
-3.342538999999998
 30
0.0
 11
-0.000217
 21
-3.341596
 31
0.0
  0
LINE
  5
BF4
330
A86
100
AcDbEntity
  8
SKIKT_1
  6
CONTINUOUS
 62
     7
100
AcDbLine
 10
-0.04114
 20
-3.343591
 30
0.0
 11
-0.019552
 21
-3.342538999999998
 31
0.0
  0
LINE
  5
BF5
330
A86
100
AcDbEntity
  8
SKIKT_1
  6
CONTINUOUS
 62
     7
100
AcDbLine
 10
-0.064592
 20
-3.344730999999999
 30
0.0
 11
-0.04114
 21
-3.343591
 31
0.0
  0
LINE
  5
BF6
330
A86
100
AcDbEntity
  8
SKIKT_1
  6
CONTINUOUS
 62
     7
100
AcDbLine
 10
-0.089519
 20
-3.34594
 30
0.0
 11
-0.064592
 21
-3.344730999999999
 31
0.0
  0
LINE
  5
BF7
330
A86
100
AcDbEntity
  8
SKIKT_1
  6
CONTINUOUS
 62
     7
100
AcDbLine
 10
-0.115532
 20
-3.347198
 30
0.0
 11
-0.089519
 21
-3.34594
 31
0.0
  0
LINE
  5
BF8
330
A86
100
AcDbEntity
  8
SKIKT_1
  6
CONTINUOUS
 62
     7
100
AcDbLine
 10
-0.142242
 20
-3.348484999999998
 30
0.0
 11
-0.115532
 21
-3.347198
 31
0.0
  0
LINE
  5
BF9
330
A86
100
AcDbEntity
  8
SKIKT_1
  6
CONTINUOUS
 62
     7
100
AcDbLine
 10
-0.169259
 20
-3.349781999999998
 30
0.0
 11
-0.142242
 21
-3.348484999999998
 31
0.0
  0
LINE
  5
BFA
330
A86
100
AcDbEntity
  8
SKIKT_1
  6
CONTINUOUS
 62
     7
100
AcDbLine
 10
-0.196194
 20
-3.351069999999998
 30
0.0
 11
-0.169259
 21
-3.349781999999998
 31
0.0
  0
LINE
  5
BFB
330
A86
100
AcDbEntity
  8
SKIKT_1
  6
CONTINUOUS
 62
     7
100
AcDbLine
 10
-0.222658
 20
-3.352327999999998
 30
0.0
 11
-0.196194
 21
-3.351069999999998
 31
0.0
  0
LINE
  5
BFC
330
A86
100
AcDbEntity
  8
SKIKT_1
  6
CONTINUOUS
 62
     7
100
AcDbLine
 10
-0.248262
 20
-3.353536
 30
0.0
 11
-0.222658
 21
-3.352327999999998
 31
0.0
  0
LINE
  5
BFD
330
A86
100
AcDbEntity
  8
SKIKT_1
  6
CONTINUOUS
 62
     7
100
AcDbLine
 10
-0.272617
 20
-3.354675999999998
 30
0.0
 11
-0.248262
 21
-3.353536
 31
0.0
  0
LINE
  5
BFE
330
A86
100
AcDbEntity
  8
SKIKT_1
  6
CONTINUOUS
 62
     7
100
AcDbLine
 10
-0.295333
 20
-3.355728
 30
0.0
 11
-0.272617
 21
-3.354675999999998
 31
0.0
  0
LINE
  5
BFF
330
A86
100
AcDbEntity
  8
SKIKT_1
  6
CONTINUOUS
 62
     7
100
AcDbLine
 10
-0.316022
 20
-3.356672
 30
0.0
 11
-0.295333
 21
-3.355728
 31
0.0
  0
LINE
  5
C00
330
A86
100
AcDbEntity
  8
SKIKT_1
  6
CONTINUOUS
 62
     7
100
AcDbLine
 10
-0.334293
 20
-3.357487999999998
 30
0.0
 11
-0.316022
 21
-3.356672
 31
0.0
  0
LINE
  5
C01
330
A86
100
AcDbEntity
  8
SKIKT_1
  6
CONTINUOUS
 62
     7
100
AcDbLine
 10
-0.349758
 20
-3.358156999999998
 30
0.0
 11
-0.334293
 21
-3.357487999999998
 31
0.0
  0
LINE
  5
C02
330
A86
100
AcDbEntity
  8
SKIKT_1
  6
CONTINUOUS
 62
     7
100
AcDbLine
 10
-0.362028
 20
-3.358658999999998
 30
0.0
 11
-0.349758
 21
-3.358156999999998
 31
0.0
  0
LINE
  5
C03
330
A86
100
AcDbEntity
  8
SKIKT_1
  6
CONTINUOUS
 62
     7
100
AcDbLine
 10
-0.370713
 20
-3.358975
 30
0.0
 11
-0.362028
 21
-3.358658999999998
 31
0.0
  0
LINE
  5
C04
330
A86
100
AcDbEntity
  8
SKIKT_1
  6
CONTINUOUS
 62
     7
100
AcDbLine
 10
-0.375425
 20
-3.359084999999998
 30
0.0
 11
-0.370713
 21
-3.358975
 31
0.0
  0
LINE
  5
C05
330
A86
100
AcDbEntity
  8
SKIKT_1
  6
CONTINUOUS
 62
     7
100
AcDbLine
 10
-0.401437
 20
-3.358462999999998
 30
0.0
 11
-0.375425
 21
-3.359084999999998
 31
0.0
  0
LINE
  5
C06
330
A86
100
AcDbEntity
  8
SKIKT_1
  6
CONTINUOUS
 62
     7
100
AcDbLine
 10
-0.4193680000000001
 20
-3.354109999999998
 30
0.0
 11
-0.401437
 21
-3.358462999999998
 31
0.0
  0
LINE
  5
C07
330
A86
100
AcDbEntity
  8
SKIKT_1
  6
CONTINUOUS
 62
     7
100
AcDbLine
 10
-0.4285930000000004
 20
-3.342295999999998
 30
0.0
 11
-0.4193680000000001
 21
-3.354109999999998
 31
0.0
  0
LINE
  5
C08
330
A86
100
AcDbEntity
  8
SKIKT_1
  6
CONTINUOUS
 62
     7
100
AcDbLine
 10
-0.428492
 20
-3.319288999999998
 30
0.0
 11
-0.4285930000000004
 21
-3.342295999999998
 31
0.0
  0
LINE
  5
C09
330
A86
100
AcDbEntity
  8
SKIKT_1
  6
CONTINUOUS
 62
     7
100
AcDbLine
 10
-0.4281990000000003
 20
-3.316987999999998
 30
0.0
 11
-0.428492
 21
-3.319288999999998
 31
0.0
  0
LINE
  5
C0A
330
A86
100
AcDbEntity
  8
SKIKT_1
  6
CONTINUOUS
 62
     7
100
AcDbLine
 10
-0.427358
 20
-3.310360999999998
 30
0.0
 11
-0.4281990000000003
 21
-3.316987999999998
 31
0.0
  0
LINE
  5
C0B
330
A86
100
AcDbEntity
  8
SKIKT_1
  6
CONTINUOUS
 62
     7
100
AcDbLine
 10
-0.426019
 20
-3.299818
 30
0.0
 11
-0.427358
 21
-3.310360999999998
 31
0.0
  0
LINE
  5
C0C
330
A86
100
AcDbEntity
  8
SKIKT_1
  6
CONTINUOUS
 62
     7
100
AcDbLine
 10
-0.424235
 20
-3.285772
 30
0.0
 11
-0.426019
 21
-3.299818
 31
0.0
  0
LINE
  5
C0D
330
A86
100
AcDbEntity
  8
SKIKT_1
  6
CONTINUOUS
 62
     7
100
AcDbLine
 10
-0.422058
 20
-3.268635999999998
 30
0.0
 11
-0.424235
 21
-3.285772
 31
0.0
  0
LINE
  5
C0E
330
A86
100
AcDbEntity
  8
SKIKT_1
  6
CONTINUOUS
 62
     7
100
AcDbLine
 10
-0.4195420000000001
 20
-3.248820999999998
 30
0.0
 11
-0.422058
 21
-3.268635999999998
 31
0.0
  0
LINE
  5
C0F
330
A86
100
AcDbEntity
  8
SKIKT_1
  6
CONTINUOUS
 62
     7
100
AcDbLine
 10
-0.416737
 20
-3.226739999999998
 30
0.0
 11
-0.4195420000000001
 21
-3.248820999999998
 31
0.0
  0
LINE
  5
C10
330
A86
100
AcDbEntity
  8
SKIKT_1
  6
CONTINUOUS
 62
     7
100
AcDbLine
 10
-0.4136970000000001
 20
-3.202803999999998
 30
0.0
 11
-0.416737
 21
-3.226739999999998
 31
0.0
  0
LINE
  5
C11
330
A86
100
AcDbEntity
  8
SKIKT_1
  6
CONTINUOUS
 62
     7
100
AcDbLine
 10
-0.410474
 20
-3.177424999999998
 30
0.0
 11
-0.4136970000000001
 21
-3.202803999999998
 31
0.0
  0
LINE
  5
C12
330
A86
100
AcDbEntity
  8
SKIKT_1
  6
CONTINUOUS
 62
     7
100
AcDbLine
 10
-0.4071200000000001
 20
-3.151016999999998
 30
0.0
 11
-0.410474
 21
-3.177424999999998
 31
0.0
  0
LINE
  5
C13
330
A86
100
AcDbEntity
  8
SKIKT_1
  6
CONTINUOUS
 62
     7
100
AcDbLine
 10
-0.403688
 20
-3.12399
 30
0.0
 11
-0.4071200000000001
 21
-3.151016999999998
 31
0.0
  0
LINE
  5
C14
330
A86
100
AcDbEntity
  8
SKIKT_1
  6
CONTINUOUS
 62
     7
100
AcDbLine
 10
-0.4002290000000003
 20
-3.096758
 30
0.0
 11
-0.403688
 21
-3.12399
 31
0.0
  0
LINE
  5
C15
330
A86
100
AcDbEntity
  8
SKIKT_1
  6
CONTINUOUS
 62
     7
100
AcDbLine
 10
-0.396796
 20
-3.069730999999998
 30
0.0
 11
-0.4002290000000003
 21
-3.096758
 31
0.0
  0
LINE
  5
C16
330
A86
100
AcDbEntity
  8
SKIKT_1
  6
CONTINUOUS
 62
     7
100
AcDbLine
 10
-0.393442
 20
-3.043323
 30
0.0
 11
-0.396796
 21
-3.069730999999998
 31
0.0
  0
LINE
  5
C17
330
A86
100
AcDbEntity
  8
SKIKT_1
  6
CONTINUOUS
 62
     7
100
AcDbLine
 10
-0.390219
 20
-3.017943999999998
 30
0.0
 11
-0.393442
 21
-3.043323
 31
0.0
  0
LINE
  5
C18
330
A86
100
AcDbEntity
  8
SKIKT_1
  6
CONTINUOUS
 62
     7
100
AcDbLine
 10
-0.387179
 20
-2.994008
 30
0.0
 11
-0.390219
 21
-3.017943999999998
 31
0.0
  0
LINE
  5
C19
330
A86
100
AcDbEntity
  8
SKIKT_1
  6
CONTINUOUS
 62
     7
100
AcDbLine
 10
-0.384375
 20
-2.971926999999998
 30
0.0
 11
-0.387179
 21
-2.994008
 31
0.0
  0
LINE
  5
C1A
330
A86
100
AcDbEntity
  8
SKIKT_1
  6
CONTINUOUS
 62
     7
100
AcDbLine
 10
-0.381858
 20
-2.952111999999998
 30
0.0
 11
-0.384375
 21
-2.971926999999998
 31
0.0
  0
LINE
  5
C1B
330
A86
100
AcDbEntity
  8
SKIKT_1
  6
CONTINUOUS
 62
     7
100
AcDbLine
 10
-0.379682
 20
-2.934975999999998
 30
0.0
 11
-0.381858
 21
-2.952111999999998
 31
0.0
  0
LINE
  5
C1C
330
A86
100
AcDbEntity
  8
SKIKT_1
  6
CONTINUOUS
 62
     7
100
AcDbLine
 10
-0.377898
 20
-2.920929999999998
 30
0.0
 11
-0.379682
 21
-2.934975999999998
 31
0.0
  0
LINE
  5
C1D
330
A86
100
AcDbEntity
  8
SKIKT_1
  6
CONTINUOUS
 62
     7
100
AcDbLine
 10
-0.376559
 20
-2.910387
 30
0.0
 11
-0.377898
 21
-2.920929999999998
 31
0.0
  0
LINE
  5
C1E
330
A86
100
AcDbEntity
  8
SKIKT_1
  6
CONTINUOUS
 62
     7
100
AcDbLine
 10
-0.375717
 20
-2.903758999999998
 30
0.0
 11
-0.376559
 21
-2.910387
 31
0.0
  0
LINE
  5
C1F
330
A86
100
AcDbEntity
  8
SKIKT_1
  6
CONTINUOUS
 62
     7
100
AcDbLine
 10
-0.375425
 20
-2.901459
 30
0.0
 11
-0.375717
 21
-2.903758999999998
 31
0.0
  0
LINE
  5
C20
330
A86
100
AcDbEntity
  8
SKIKT_1
  6
CONTINUOUS
 62
     7
100
AcDbLine
 10
-0.362165
 20
-2.868297
 30
0.0
 11
-0.375425
 21
-2.901459
 31
0.0
  0
LINE
  5
C21
330
A86
100
AcDbEntity
  8
SKIKT_1
  6
CONTINUOUS
 62
     7
100
AcDbLine
 10
-0.342271
 20
-2.855033
 30
0.0
 11
-0.362165
 21
-2.868297
 31
0.0
  0
LINE
  5
C22
330
A86
100
AcDbEntity
  8
SKIKT_1
  6
CONTINUOUS
 62
     7
100
AcDbLine
 10
-0.282574
 20
-2.297918999999998
 30
0.0
 11
-0.342271
 21
-2.855033
 31
0.0
  0
LINE
  5
C23
330
A86
100
AcDbEntity
  8
SKIKT_1
  6
CONTINUOUS
 62
     7
100
AcDbLine
 10
0.612772
 20
-1.468892
 30
0.0
 11
-0.282574
 21
-2.297918999999998
 31
0.0
  0
LINE
  5
C24
330
A86
100
AcDbEntity
  8
SKIKT_1
  6
CONTINUOUS
 62
     7
100
AcDbLine
 10
0.825004
 20
-1.468892
 30
0.0
 11
0.612772
 21
-1.468892
 31
0.0
  0
LINE
  5
C25
330
A86
100
AcDbEntity
  8
SKIKT_1
  6
CONTINUOUS
 62
     7
100
AcDbLine
 10
0.8714259999999999
 20
-1.521954999999999
 30
0.0
 11
0.825004
 21
-1.468892
 31
0.0
  0
LINE
  5
C26
330
A86
100
AcDbEntity
  8
SKIKT_1
  6
CONTINUOUS
 62
     7
100
AcDbLine
 10
1.421902
 20
-1.521954999999999
 30
0.0
 11
0.8714259999999999
 21
-1.521954999999999
 31
0.0
  0
LINE
  5
C27
330
A86
100
AcDbEntity
  8
SKIKT_1
  6
CONTINUOUS
 62
     7
100
AcDbLine
 10
1.421902
 20
-1.800506
 30
0.0
 11
1.421902
 21
-1.521954999999999
 31
0.0
  0
LINE
  5
C28
330
A86
100
AcDbEntity
  8
SKIKT_1
  6
CONTINUOUS
 62
     7
100
AcDbLine
 10
1.501492999999999
 20
-1.773977999999999
 30
0.0
 11
1.421902
 21
-1.800506
 31
0.0
  0
LINE
  5
C29
330
A86
100
AcDbEntity
  8
SKIKT_1
  6
CONTINUOUS
 62
     7
100
AcDbLine
 10
2.277465
 20
-1.787245999999995
 30
0.0
 11
1.501492999999999
 21
-1.773977999999999
 31
0.0
  0
LINE
  5
C2A
330
A86
100
AcDbEntity
  8
SKIKT_1
  6
CONTINUOUS
 62
     7
100
AcDbLine
 10
2.350422
 20
-1.873463
 30
0.0
 11
2.277465
 21
-1.787245999999995
 31
0.0
  0
LINE
  5
C2B
330
A86
100
AcDbEntity
  8
SKIKT_1
  6
CONTINUOUS
 62
     7
100
AcDbLine
 10
2.350422
 20
-2.762183
 30
0.0
 11
2.350422
 21
-1.873463
 31
0.0
  0
LINE
  5
C2C
330
A86
100
AcDbEntity
  8
SKIKT_1
  6
CONTINUOUS
 62
     7
100
AcDbLine
 10
2.290725
 20
-2.835135999999998
 30
0.0
 11
2.350422
 21
-2.762183
 31
0.0
  0
LINE
  5
C2D
330
A86
100
AcDbEntity
  8
SKIKT_1
  6
CONTINUOUS
 62
     7
100
AcDbLine
 10
1.508126
 20
-2.841774
 30
0.0
 11
2.290725
 21
-2.835135999999998
 31
0.0
  0
LINE
  5
C2E
330
A86
100
AcDbEntity
  8
SKIKT_1
  6
CONTINUOUS
 62
     7
100
AcDbLine
 10
1.421902
 20
-2.801978
 30
0.0
 11
1.508126
 21
-2.841774
 31
0.0
  0
LINE
  5
C2F
330
A86
100
AcDbEntity
  8
SKIKT_1
  6
CONTINUOUS
 62
     7
100
AcDbLine
 10
1.421902
 20
-3.073891999999998
 30
0.0
 11
1.421902
 21
-2.801978
 31
0.0
  0
LINE
  5
C30
330
A86
100
AcDbEntity
  8
SKIKT_1
  6
CONTINUOUS
 62
     7
100
AcDbLine
 10
0.8647999999999999
 20
-3.073891999999998
 30
0.0
 11
1.421902
 21
-3.073891999999998
 31
0.0
  0
LINE
  5
C31
330
A86
100
AcDbEntity
  8
SKIKT_1
  6
CONTINUOUS
 62
     7
100
AcDbLine
 10
0.7520560000000001
 20
-3.259592
 30
0.0
 11
0.8647999999999999
 21
-3.073891999999998
 31
0.0
  0
LINE
  5
C32
330
A86
100
AcDbEntity
  8
SKIKT_1
  6
CONTINUOUS
 62
     7
100
AcDbLine
 10
0.088827
 20
-3.306026
 30
0.0
 11
0.7520560000000001
 21
-3.259592
 31
0.0
  0
LINE
  5
C33
330
A86
100
AcDbEntity
  8
SKIKT_1
  6
CONTINUOUS
 62
     7
100
AcDbLine
 10
0.068193
 20
-3.316098999999999
 30
0.0
 11
0.088827
 21
-3.306026
 31
0.0
  0
LINE
  5
C34
330
A86
100
AcDbEntity
  8
SKIKT_1
  6
CONTINUOUS
 62
     7
100
AcDbLine
 10
0.060823
 20
-3.329118
 30
0.0
 11
0.068193
 21
-3.316098999999999
 31
0.0
  0
LINE
  5
C35
330
A86
100
AcDbEntity
  8
SKIKT_1
  6
CONTINUOUS
 62
     7
100
AcDbLine
 10
0.049032
 20
-3.339183
 30
0.0
 11
0.060823
 21
-3.329118
 31
0.0
  0
LINE
  5
C36
330
A86
100
AcDbEntity
  8
SKIKT_1
  6
CONTINUOUS
 62
     7
100
AcDbLine
 10
0.046803
 20
-3.339293
 30
0.0
 11
0.049032
 21
-3.339183
 31
0.0
  0
LINE
  5
C37
330
A86
100
AcDbEntity
  8
SKIKT_1
  6
CONTINUOUS
 62
     7
100
AcDbLine
 10
0.040374
 20
-3.339608
 30
0.0
 11
0.046803
 21
-3.339293
 31
0.0
  0
LINE
  5
C38
330
A86
100
AcDbEntity
  8
SKIKT_1
  6
CONTINUOUS
 62
     7
100
AcDbLine
 10
0.030135
 20
-3.340109999999998
 30
0.0
 11
0.040374
 21
-3.339608
 31
0.0
  0
LINE
  5
C39
330
A86
100
AcDbEntity
  8
SKIKT_1
  6
CONTINUOUS
 62
     7
100
AcDbLine
 10
0.016474
 20
-3.340778999999998
 30
0.0
 11
0.030135
 21
-3.340109999999998
 31
0.0
  0
LINE
  5
C3A
330
A86
100
AcDbEntity
  8
SKIKT_1
  6
CONTINUOUS
 62
     7
100
AcDbLine
 10
-0.000217
 20
-3.341596
 30
0.0
 11
0.016474
 21
-3.340778999999998
 31
0.0
  0
LINE
  5
C3B
330
A86
100
AcDbEntity
  8
SKIKT_1
  6
CONTINUOUS
 62
     7
100
AcDbLine
 10
-0.019552
 20
-3.342538999999998
 30
0.0
 11
-0.000217
 21
-3.341596
 31
0.0
  0
LINE
  5
C3C
330
A86
100
AcDbEntity
  8
SKIKT_1
  6
CONTINUOUS
 62
     7
100
AcDbLine
 10
-0.04114
 20
-3.343591
 30
0.0
 11
-0.019552
 21
-3.342538999999998
 31
0.0
  0
LINE
  5
C3D
330
A86
100
AcDbEntity
  8
SKIKT_1
  6
CONTINUOUS
 62
     7
100
AcDbLine
 10
-0.064592
 20
-3.344730999999999
 30
0.0
 11
-0.04114
 21
-3.343591
 31
0.0
  0
LINE
  5
C3E
330
A86
100
AcDbEntity
  8
SKIKT_1
  6
CONTINUOUS
 62
     7
100
AcDbLine
 10
-0.089519
 20
-3.34594
 30
0.0
 11
-0.064592
 21
-3.344730999999999
 31
0.0
  0
LINE
  5
C3F
330
A86
100
AcDbEntity
  8
SKIKT_1
  6
CONTINUOUS
 62
     7
100
AcDbLine
 10
-0.115532
 20
-3.347198
 30
0.0
 11
-0.089519
 21
-3.34594
 31
0.0
  0
LINE
  5
C40
330
A86
100
AcDbEntity
  8
SKIKT_1
  6
CONTINUOUS
 62
     7
100
AcDbLine
 10
-0.142242
 20
-3.348484999999998
 30
0.0
 11
-0.115532
 21
-3.347198
 31
0.0
  0
LINE
  5
C41
330
A86
100
AcDbEntity
  8
SKIKT_1
  6
CONTINUOUS
 62
     7
100
AcDbLine
 10
-0.169259
 20
-3.349781999999998
 30
0.0
 11
-0.142242
 21
-3.348484999999998
 31
0.0
  0
LINE
  5
C42
330
A86
100
AcDbEntity
  8
SKIKT_1
  6
CONTINUOUS
 62
     7
100
AcDbLine
 10
-0.196194
 20
-3.351069999999998
 30
0.0
 11
-0.169259
 21
-3.349781999999998
 31
0.0
  0
LINE
  5
C43
330
A86
100
AcDbEntity
  8
SKIKT_1
  6
CONTINUOUS
 62
     7
100
AcDbLine
 10
-0.222658
 20
-3.352327999999998
 30
0.0
 11
-0.196194
 21
-3.351069999999998
 31
0.0
  0
LINE
  5
C44
330
A86
100
AcDbEntity
  8
SKIKT_1
  6
CONTINUOUS
 62
     7
100
AcDbLine
 10
-0.248262
 20
-3.353536
 30
0.0
 11
-0.222658
 21
-3.352327999999998
 31
0.0
  0
LINE
  5
C45
330
A86
100
AcDbEntity
  8
SKIKT_1
  6
CONTINUOUS
 62
     7
100
AcDbLine
 10
-0.272617
 20
-3.354675999999998
 30
0.0
 11
-0.248262
 21
-3.353536
 31
0.0
  0
LINE
  5
C46
330
A86
100
AcDbEntity
  8
SKIKT_1
  6
CONTINUOUS
 62
     7
100
AcDbLine
 10
-0.295333
 20
-3.355728
 30
0.0
 11
-0.272617
 21
-3.354675999999998
 31
0.0
  0
LINE
  5
C47
330
A86
100
AcDbEntity
  8
SKIKT_1
  6
CONTINUOUS
 62
     7
100
AcDbLine
 10
-0.316022
 20
-3.356672
 30
0.0
 11
-0.295333
 21
-3.355728
 31
0.0
  0
LINE
  5
C48
330
A86
100
AcDbEntity
  8
SKIKT_1
  6
CONTINUOUS
 62
     7
100
AcDbLine
 10
-0.334293
 20
-3.357487999999998
 30
0.0
 11
-0.316022
 21
-3.356672
 31
0.0
  0
LINE
  5
C49
330
A86
100
AcDbEntity
  8
SKIKT_1
  6
CONTINUOUS
 62
     7
100
AcDbLine
 10
-0.349758
 20
-3.358156999999998
 30
0.0
 11
-0.334293
 21
-3.357487999999998
 31
0.0
  0
LINE
  5
C4A
330
A86
100
AcDbEntity
  8
SKIKT_1
  6
CONTINUOUS
 62
     7
100
AcDbLine
 10
-0.362028
 20
-3.358658999999998
 30
0.0
 11
-0.349758
 21
-3.358156999999998
 31
0.0
  0
LINE
  5
C4B
330
A86
100
AcDbEntity
  8
SKIKT_1
  6
CONTINUOUS
 62
     7
100
AcDbLine
 10
-0.370713
 20
-3.358975
 30
0.0
 11
-0.362028
 21
-3.358658999999998
 31
0.0
  0
LINE
  5
C4C
330
A86
100
AcDbEntity
  8
SKIKT_1
  6
CONTINUOUS
 62
     7
100
AcDbLine
 10
-0.375425
 20
-3.359084999999998
 30
0.0
 11
-0.370713
 21
-3.358975
 31
0.0
  0
LINE
  5
C4D
330
A86
100
AcDbEntity
  8
SKIKT_1
  6
CONTINUOUS
 62
     7
100
AcDbLine
 10
-0.401437
 20
-3.358462999999998
 30
0.0
 11
-0.375425
 21
-3.359084999999998
 31
0.0
  0
LINE
  5
C4E
330
A86
100
AcDbEntity
  8
SKIKT_1
  6
CONTINUOUS
 62
     7
100
AcDbLine
 10
-0.4193680000000001
 20
-3.354109999999998
 30
0.0
 11
-0.401437
 21
-3.358462999999998
 31
0.0
  0
LINE
  5
C4F
330
A86
100
AcDbEntity
  8
SKIKT_1
  6
CONTINUOUS
 62
     7
100
AcDbLine
 10
-0.4285930000000004
 20
-3.342295999999998
 30
0.0
 11
-0.4193680000000001
 21
-3.354109999999998
 31
0.0
  0
LINE
  5
C50
330
A86
100
AcDbEntity
  8
SKIKT_1
  6
CONTINUOUS
 62
     7
100
AcDbLine
 10
-0.428492
 20
-3.319288999999998
 30
0.0
 11
-0.4285930000000004
 21
-3.342295999999998
 31
0.0
  0
LINE
  5
C51
330
A86
100
AcDbEntity
  8
SKIKT_1
  6
CONTINUOUS
 62
     7
100
AcDbLine
 10
-0.375425
 20
-2.901459
 30
0.0
 11
-0.428492
 21
-3.319288999999998
 31
0.0
  0
LINE
  5
C52
330
A86
100
AcDbEntity
  8
SKIKT_1
  6
CONTINUOUS
 62
     7
100
AcDbLine
 10
-0.362165
 20
-2.868297
 30
0.0
 11
-0.375425
 21
-2.901459
 31
0.0
  0
LINE
  5
C53
330
A86
100
AcDbEntity
  8
SKIKT_1
  6
CONTINUOUS
 62
     7
100
AcDbLine
 10
-0.342271
 20
-2.855033
 30
0.0
 11
-0.362165
 21
-2.868297
 31
0.0
  0
LINE
  5
C54
330
A86
100
AcDbEntity
  8
SKIKT_1
  6
CONTINUOUS
 62
     7
100
AcDbLine
 10
-0.282574
 20
-2.297918999999998
 30
0.0
 11
-0.342271
 21
-2.855033
 31
0.0
  0
LINE
  5
C55
330
A86
100
AcDbEntity
  8
SKIKT_1
  6
CONTINUOUS
 62
     7
100
AcDbLine
 10
0.612772
 20
-1.468892
 30
0.0
 11
-0.282574
 21
-2.297918999999998
 31
0.0
  0
LINE
  5
C56
330
A86
100
AcDbEntity
  8
SKIKT_1
  6
CONTINUOUS
 62
     7
100
AcDbLine
 10
0.825004
 20
-1.468892
 30
0.0
 11
0.612772
 21
-1.468892
 31
0.0
  0
LINE
  5
C57
330
A86
100
AcDbEntity
  8
SKIKT_1
  6
CONTINUOUS
 62
     7
100
AcDbLine
 10
0.8714259999999999
 20
-1.521954999999999
 30
0.0
 11
0.825004
 21
-1.468892
 31
0.0
  0
LINE
  5
C58
330
A86
100
AcDbEntity
  8
SKIKT_1
  6
CONTINUOUS
 62
     7
100
AcDbLine
 10
1.421902
 20
-1.521954999999999
 30
0.0
 11
0.8714259999999999
 21
-1.521954999999999
 31
0.0
  0
LINE
  5
C59
330
A86
100
AcDbEntity
  8
SKIKT_1
  6
CONTINUOUS
 62
     7
100
AcDbLine
 10
1.421902
 20
-1.800506
 30
0.0
 11
1.421902
 21
-1.521954999999999
 31
0.0
  0
LINE
  5
C5A
330
A86
100
AcDbEntity
  8
SKIKT_1
  6
CONTINUOUS
 62
     7
100
AcDbLine
 10
1.501492999999999
 20
-1.773977999999999
 30
0.0
 11
1.421902
 21
-1.800506
 31
0.0
  0
LINE
  5
C5B
330
A86
100
AcDbEntity
  8
SKIKT_1
  6
CONTINUOUS
 62
     7
100
AcDbLine
 10
2.277465
 20
-1.787245999999995
 30
0.0
 11
1.501492999999999
 21
-1.773977999999999
 31
0.0
  0
LINE
  5
C5C
330
A86
100
AcDbEntity
  8
SKIKT_1
  6
CONTINUOUS
 62
     7
100
AcDbLine
 10
2.350422
 20
-1.873463
 30
0.0
 11
2.277465
 21
-1.787245999999995
 31
0.0
  0
LINE
  5
C5D
330
A86
100
AcDbEntity
  8
SKIKT_1
  6
CONTINUOUS
 62
     7
100
AcDbLine
 10
2.350422
 20
-2.762183
 30
0.0
 11
2.350422
 21
-1.873463
 31
0.0
  0
LINE
  5
C5E
330
A86
100
AcDbEntity
  8
SKIKT_1
  6
CONTINUOUS
 62
     7
100
AcDbLine
 10
2.290725
 20
-2.835135999999998
 30
0.0
 11
2.350422
 21
-2.762183
 31
0.0
  0
LINE
  5
C5F
330
A86
100
AcDbEntity
  8
SKIKT_1
  6
CONTINUOUS
 62
     7
100
AcDbLine
 10
1.508126
 20
-2.841774
 30
0.0
 11
2.290725
 21
-2.835135999999998
 31
0.0
  0
LINE
  5
C60
330
A86
100
AcDbEntity
  8
SKIKT_1
  6
CONTINUOUS
 62
     7
100
AcDbLine
 10
1.421902
 20
-2.801978
 30
0.0
 11
1.508126
 21
-2.841774
 31
0.0
  0
LINE
  5
C61
330
A86
100
AcDbEntity
  8
SKIKT_1
  6
CONTINUOUS
 62
     7
100
AcDbLine
 10
1.421902
 20
-3.073891999999998
 30
0.0
 11
1.421902
 21
-2.801978
 31
0.0
  0
LINE
  5
C62
330
A86
100
AcDbEntity
  8
SKIKT_1
  6
CONTINUOUS
 62
     7
100
AcDbLine
 10
0.8647999999999999
 20
-3.073891999999998
 30
0.0
 11
1.421902
 21
-3.073891999999998
 31
0.0
  0
LINE
  5
C63
330
A86
100
AcDbEntity
  8
SKIKT_1
  6
CONTINUOUS
 62
     7
100
AcDbLine
 10
0.7520560000000001
 20
-3.259592
 30
0.0
 11
0.8647999999999999
 21
-3.073891999999998
 31
0.0
  0
LINE
  5
C64
330
A86
100
AcDbEntity
  8
SKIKT_1
  6
CONTINUOUS
 62
     7
100
AcDbLine
 10
0.088827
 20
-3.306026
 30
0.0
 11
0.7520560000000001
 21
-3.259592
 31
0.0
  0
LINE
  5
C65
330
A86
100
AcDbEntity
  8
SKIKT_1
  6
CONTINUOUS
 62
     7
100
AcDbLine
 10
0.062292
 20
-3.325923
 30
0.0
 11
0.088827
 21
-3.306026
 31
0.0
  0
LINE
  5
C66
330
A86
100
AcDbEntity
  8
SKIKT_1
  6
CONTINUOUS
 62
     7
100
AcDbLine
 10
0.049032
 20
-3.339183
 30
0.0
 11
0.062292
 21
-3.325923
 31
0.0
  0
LINE
  5
C67
330
A86
100
AcDbEntity
  8
SKIKT_1
  6
CONTINUOUS
 62
     7
100
AcDbLine
 10
-0.375425
 20
-3.359084999999998
 30
0.0
 11
0.049032
 21
-3.339183
 31
0.0
  0
LINE
  5
C68
330
A86
100
AcDbEntity
  8
SKIKT_1
  6
CONTINUOUS
 62
     7
100
AcDbLine
 10
-0.4218580000000001
 20
-3.352455
 30
0.0
 11
-0.375425
 21
-3.359084999999998
 31
0.0
  0
LINE
  5
C69
330
A86
100
AcDbEntity
  8
SKIKT_1
  6
CONTINUOUS
 62
     7
100
AcDbLine
 10
-0.428492
 20
-3.339183
 30
0.0
 11
-0.4218580000000001
 21
-3.352455
 31
0.0
  0
LINE
  5
C6A
330
A86
100
AcDbEntity
  8
SKIKT_1
  6
CONTINUOUS
 62
     7
100
AcDbLine
 10
-0.428492
 20
-3.319288999999998
 30
0.0
 11
-0.428492
 21
-3.339183
 31
0.0
  0
ENDBLK
  5
C6C
330
A86
100
AcDbEntity
  8
0
100
AcDbBlockEnd
  0
BLOCK
  5
EB2
330
E52
100
AcDbEntity
  8
0
100
AcDbBlockBegin
  2
*D1
 70
     1
 10
0.0
 20
0.0
 30
0.0
  3
*D1
  1

  0
LINE
  5
EB3
330
E52
100
AcDbEntity
  8
0
  6
BYBLOCK
 62
     0
100
AcDbLine
 10
20.516985
 20
58.637237
 30
0.0
 11
72.72499899999998
 21
58.637237
 31
0.0
  0
LINE
  5
EB4
330
E52
100
AcDbEntity
  8
0
  6
BYBLOCK
 62
     0
100
AcDbLine
 10
20.516985
 20
0.122346
 30
0.0
 11
72.72499899999998
 21
0.122346
 31
0.0
  0
LINE
  5
EB5
330
E52
100
AcDbEntity
  8
0
  6
BYBLOCK
 62
     0
100
AcDbLine
 10
71.724999
 20
55.13723699999999
 30
0.0
 11
71.724999
 21
3.622345999999998
 31
0.0
  0
SOLID
  5
EB6
330
E52
100
AcDbEntity
  8
0
  6
BYBLOCK
 62
     0
100
AcDbTrace
 10
71.141666
 20
55.13723699999999
 30
0.0
 11
72.30833299999997
 21
55.13723699999999
 31
0.0
 12
71.724999
 22
58.637237
 32
0.0
 13
71.724999
 23
58.637237
 33
0.0
  0
SOLID
  5
EB7
330
E52
100
AcDbEntity
  8
0
  6
BYBLOCK
 62
     0
100
AcDbTrace
 10
71.141666
 20
3.622345999999998
 30
0.0
 11
72.30833299999997
 21
3.622345999999998
 31
0.0
 12
71.724999
 22
0.122346
 32
0.0
 13
71.724999
 23
0.122346
 33
0.0
  0
MTEXT
  5
EB8
330
E52
100
AcDbEntity
  8
0
  6
BYBLOCK
 62
     0
100
AcDbMText
 10
68.97499899999999
 20
29.37979099999999
 30
0.0
 40
3.5
 41
0.0
 71
     5
 72
     1
  1
\A1;58.5149
 11
0.0
 21
1.0
 31
0.0
1001
ACAD
1000
MTEXTBEGIN
1070
    73
1070
     1
1070
    44
1040
1.0
1070
    74
1070
     0
1000
MTEXTEND
1000
MTEXTBEGIN
1070
    73
1070
     1
1070
    44
1040
1.0
1070
    74
1070
     0
1000
MTEXTEND
1000
MTEXTBEGIN
1070
    73
1070
     1
1070
    44
1040
1.0
1070
    74
1070
     0
1000
MTEXTEND
1000
MTEXTBEGIN
1070
    73
1070
     1
1070
    44
1040
1.0
1070
    74
1070
     0
1000
MTEXTEND
1000
MTEXTBEGIN
1070
    73
1070
     1
1070
    44
1040
1.0
1070
    74
1070
     0
1000
MTEXTEND
  0
POINT
  5
EB9
330
E52
100
AcDbEntity
  8
DEFPOINTS
  6
BYBLOCK
 62
     0
100
AcDbPoint
 10
19.516985
 20
58.637237
 30
0.0
  0
POINT
  5
EBA
330
E52
100
AcDbEntity
  8
DEFPOINTS
  6
BYBLOCK
 62
     0
100
AcDbPoint
 10
19.516985
 20
0.122346
 30
0.0
  0
POINT
  5
EBB
330
E52
100
AcDbEntity
  8
DEFPOINTS
  6
BYBLOCK
 62
     0
100
AcDbPoint
 10
71.724999
 20
0.122346
 30
0.0
  0
ENDBLK
  5
EBC
330
E52
100
AcDbEntity
  8
0
100
AcDbBlockEnd
  0
BLOCK
  5
E6E
330
E60
100
AcDbEntity
  8
0
100
AcDbBlockBegin
  2
*D2
 70
     1
 10
0.0
 20
0.0
 30
0.0
  3
*D2
  1

  0
LINE
  5
E6F
330
E60
100
AcDbEntity
  8
0
  6
BYBLOCK
 62
     0
100
AcDbLine
 10
19.516985
 20
-0.877654
 30
0.0
 11
19.516985
 21
-34.73107199999999
 31
0.0
  0
LINE
  5
E70
330
E60
100
AcDbEntity
  8
0
  6
BYBLOCK
 62
     0
100
AcDbLine
 10
-45.48180499999999
 20
-10.19653099999999
 30
0.0
 11
-45.48180499999999
 21
-34.73107199999999
 31
0.0
  0
LINE
  5
E71
330
E60
100
AcDbEntity
  8
0
  6
BYBLOCK
 62
     0
100
AcDbLine
 10
16.016985
 20
-33.73107199999999
 30
0.0
 11
-41.981805
 21
-33.73107199999999
 31
0.0
  0
SOLID
  5
E72
330
E60
100
AcDbEntity
  8
0
  6
BYBLOCK
 62
     0
100
AcDbTrace
 10
16.016985
 20
-33.147738
 30
0.0
 11
16.016985
 21
-34.314405
 31
0.0
 12
19.516985
 22
-33.73107199999999
 32
0.0
 13
19.516985
 23
-33.73107199999999
 33
0.0
  0
SOLID
  5
E73
330
E60
100
AcDbEntity
  8
0
  6
BYBLOCK
 62
     0
100
AcDbTrace
 10
-41.981805
 20
-33.147738
 30
0.0
 11
-41.981805
 21
-34.314405
 31
0.0
 12
-45.48180499999999
 22
-33.73107199999999
 32
0.0
 13
-45.48180499999999
 23
-33.73107199999999
 33
0.0
  0
MTEXT
  5
E74
330
E60
100
AcDbEntity
  8
0
  6
BYBLOCK
 62
     0
100
AcDbMText
 10
-12.98240999999999
 20
-30.98107199999999
 30
0.0
 40
3.5
 41
0.0
 71
     5
 72
     1
  1
\A1;64.9988
1001
ACAD
1000
MTEXTBEGIN
1070
    73
1070
     1
1070
    44
1040
1.0
1070
    74
1070
     0
1000
MTEXTEND
1000
MTEXTBEGIN
1070
    73
1070
     1
1070
    44
1040
1.0
1070
    74
1070
     0
1000
MTEXTEND
1000
MTEXTBEGIN
1070
    73
1070
     1
1070
    44
1040
1.0
1070
    74
1070
     0
1000
MTEXTEND
1000
MTEXTBEGIN
1070
    73
1070
     1
1070
    44
1040
1.0
1070
    74
1070
     0
1000
MTEXTEND
1000
MTEXTBEGIN
1070
    73
1070
     1
1070
    44
1040
1.0
1070
    74
1070
     0
1000
MTEXTEND
  0
POINT
  5
E75
330
E60
100
AcDbEntity
  8
DEFPOINTS
  6
BYBLOCK
 62
     0
100
AcDbPoint
 10
19.516985
 20
0.122346
 30
0.0
  0
POINT
  5
E76
330
E60
100
AcDbEntity
  8
DEFPOINTS
  6
BYBLOCK
 62
     0
100
AcDbPoint
 10
-45.48180499999999
 20
-9.196531
 30
0.0
  0
POINT
  5
E77
330
E60
100
AcDbEntity
  8
DEFPOINTS
  6
BYBLOCK
 62
     0
100
AcDbPoint
 10
-45.48180499999999
 20
-33.73107199999999
 30
0.0
  0
ENDBLK
  5
E78
330
E60
100
AcDbEntity
  8
0
100
AcDbBlockEnd
  0
BLOCK
  5
F9B
330
E84
100
AcDbEntity
  8
0
100
AcDbBlockBegin
  2
*D3
 70
     1
 10
0.0
 20
0.0
 30
0.0
  3
*D3
  1

  0
LINE
  5
F9C
330
E84
100
AcDbEntity
  8
0
  6
BYBLOCK
 62
     0
100
AcDbLine
 10
-1.263663999999999
 20
-25.546424
 30
0.0
 11
-1.263663999999999
 21
-48.111351
 31
0.0
  0
LINE
  5
F9D
330
E84
100
AcDbEntity
  8
0
  6
BYBLOCK
 62
     0
100
AcDbLine
 10
50.736336
 20
-33.733511
 30
0.0
 11
50.736336
 21
-48.111351
 31
0.0
  0
LINE
  5
F9E
330
E84
100
AcDbEntity
  8
0
  6
BYBLOCK
 62
     0
100
AcDbLine
 10
2.236336
 20
-47.11135099999999
 30
0.0
 11
47.236336
 21
-47.11135099999999
 31
0.0
  0
SOLID
  5
F9F
330
E84
100
AcDbEntity
  8
0
  6
BYBLOCK
 62
     0
100
AcDbTrace
 10
2.236336
 20
-46.52801799999997
 30
0.0
 11
2.236336
 21
-47.694684
 31
0.0
 12
-1.263663999999999
 22
-47.11135099999999
 32
0.0
 13
-1.263663999999999
 23
-47.11135099999999
 33
0.0
  0
SOLID
  5
FA0
330
E84
100
AcDbEntity
  8
0
  6
BYBLOCK
 62
     0
100
AcDbTrace
 10
47.236336
 20
-46.52801799999997
 30
0.0
 11
47.236336
 21
-47.694684
 31
0.0
 12
50.736336
 22
-47.11135099999999
 32
0.0
 13
50.736336
 23
-47.11135099999999
 33
0.0
  0
MTEXT
  5
FA1
330
E84
100
AcDbEntity
  8
0
  6
BYBLOCK
 62
     0
100
AcDbMText
 10
24.73633599999999
 20
-44.361351
 30
0.0
 40
3.5
 41
0.0
 71
     5
 72
     1
  1
\A1;52
1001
ACAD
1000
MTEXTBEGIN
1070
    73
1070
     1
1070
    44
1040
1.0
1070
    74
1070
     0
1000
MTEXTEND
1000
MTEXTBEGIN
1070
    73
1070
     1
1070
    44
1040
1.0
1070
    74
1070
     0
1000
MTEXTEND
1000
MTEXTBEGIN
1070
    73
1070
     1
1070
    44
1040
1.0
1070
    74
1070
     0
1000
MTEXTEND
1000
MTEXTBEGIN
1070
    73
1070
     1
1070
    44
1040
1.0
1070
    74
1070
     0
1000
MTEXTEND
1000
MTEXTBEGIN
1070
    73
1070
     1
1070
    44
1040
1.0
1070
    74
1070
     0
1000
MTEXTEND
  0
POINT
  5
FA2
330
E84
100
AcDbEntity
  8
DEFPOINTS
  6
BYBLOCK
 62
     0
100
AcDbPoint
 10
-1.263663999999999
 20
-24.546424
 30
0.0
  0
POINT
  5
FA3
330
E84
100
AcDbEntity
  8
DEFPOINTS
  6
BYBLOCK
 62
     0
100
AcDbPoint
 10
50.736336
 20
-32.733511
 30
0.0
  0
POINT
  5
FA4
330
E84
100
AcDbEntity
  8
DEFPOINTS
  6
BYBLOCK
 62
     0
100
AcDbPoint
 10
50.736336
 20
-47.11135099999999
 30
0.0
  0
ENDBLK
  5
FA5
330
E84
100
AcDbEntity
  8
0
100
AcDbBlockEnd
  0
BLOCK
  5
F85
330
EBD
100
AcDbEntity
  8
0
100
AcDbBlockBegin
  2
*D4
 70
     1
 10
0.0
 20
0.0
 30
0.0
  3
*D4
  1

  0
LINE
  5
F86
330
EBD
100
AcDbEntity
  8
0
  6
BYBLOCK
 62
     0
100
AcDbLine
 10
-2.263663999999999
 20
25.465489
 30
0.0
 11
-39.220558
 21
25.465489
 31
0.0
  0
LINE
  5
F87
330
EBD
100
AcDbEntity
  8
0
  6
BYBLOCK
 62
     0
100
AcDbLine
 10
-2.263663999999999
 20
-24.93451099999999
 30
0.0
 11
-39.220558
 21
-24.93451099999999
 31
0.0
  0
LINE
  5
F88
330
EBD
100
AcDbEntity
  8
0
  6
BYBLOCK
 62
     0
100
AcDbLine
 10
-38.220558
 20
21.965489
 30
0.0
 11
-38.220558
 21
-21.43451099999996
 31
0.0
  0
SOLID
  5
F89
330
EBD
100
AcDbEntity
  8
0
  6
BYBLOCK
 62
     0
100
AcDbTrace
 10
-38.80389199999999
 20
21.965489
 30
0.0
 11
-37.637225
 21
21.965489
 31
0.0
 12
-38.220558
 22
25.465489
 32
0.0
 13
-38.220558
 23
25.465489
 33
0.0
  0
SOLID
  5
F8A
330
EBD
100
AcDbEntity
  8
0
  6
BYBLOCK
 62
     0
100
AcDbTrace
 10
-38.80389199999999
 20
-21.43451099999996
 30
0.0
 11
-37.637225
 21
-21.43451099999996
 31
0.0
 12
-38.220558
 22
-24.93451099999999
 32
0.0
 13
-38.220558
 23
-24.93451099999999
 33
0.0
  0
MTEXT
  5
F8B
330
EBD
100
AcDbEntity
  8
0
  6
BYBLOCK
 62
     0
100
AcDbMText
 10
-40.970558
 20
0.265489
 30
0.0
 40
3.5
 41
0.0
 71
     5
 72
     1
  1
\A1;{\U+220563}
 11
0.0
 21
1.0
 31
0.0
1001
ACAD
1000
MTEXTBEGIN
1070
    73
1070
     1
1070
    44
1040
1.0
1070
    74
1070
     0
1000
MTEXTEND
1000
MTEXTBEGIN
1070
    73
1070
     1
1070
    44
1040
1.0
1070
    74
1070
     0
1000
MTEXTEND
1000
MTEXTBEGIN
1070
    73
1070
     1
1070
    44
1040
1.0
1070
    74
1070
     0
1000
MTEXTEND
1000
MTEXTBEGIN
1070
    73
1070
     1
1070
    44
1040
1.0
1070
    74
1070
     0
1000
MTEXTEND
1000
MTEXTBEGIN
1070
    73
1070
     1
1070
    44
1040
1.0
1070
    74
1070
     0
1000
MTEXTEND
  0
POINT
  5
F8C
330
EBD
100
AcDbEntity
  8
DEFPOINTS
  6
BYBLOCK
 62
     0
100
AcDbPoint
 10
-1.263663999999999
 20
25.465489
 30
0.0
  0
POINT
  5
F8D
330
EBD
100
AcDbEntity
  8
DEFPOINTS
  6
BYBLOCK
 62
     0
100
AcDbPoint
 10
-1.263663999999999
 20
-24.93451099999999
 30
0.0
  0
POINT
  5
F8E
330
EBD
100
AcDbEntity
  8
DEFPOINTS
  6
BYBLOCK
 62
     0
100
AcDbPoint
 10
-38.220558
 20
-24.93451099999999
 30
0.0
  0
ENDBLK
  5
F8F
330
EBD
100
AcDbEntity
  8
0
100
AcDbBlockEnd
  0
BLOCK
  5
F90
330
ECA
100
AcDbEntity
  8
0
100
AcDbBlockBegin
  2
*D5
 70
     1
 10
0.0
 20
0.0
 30
0.0
  3
*D5
  1

  0
LINE
  5
F91
330
ECA
100
AcDbEntity
  8
0
  6
BYBLOCK
 62
     0
100
AcDbLine
 10
51.736336
 20
-33.53351099999999
 30
0.0
 11
61.52618399999999
 21
-33.53351099999999
 31
0.0
  0
LINE
  5
F92
330
ECA
100
AcDbEntity
  8
0
  6
BYBLOCK
 62
     0
100
AcDbLine
 10
57.297057
 20
2.466489
 30
0.0
 11
61.52618399999999
 21
2.466489
 31
0.0
  0
LINE
  5
F93
330
ECA
100
AcDbEntity
  8
0
  6
BYBLOCK
 62
     0
100
AcDbLine
 10
60.526184
 20
-30.03351099999999
 30
0.0
 11
60.526184
 21
-1.033511
 31
0.0
  0
SOLID
  5
F94
330
ECA
100
AcDbEntity
  8
0
  6
BYBLOCK
 62
     0
100
AcDbTrace
 10
59.94285099999999
 20
-30.03351099999999
 30
0.0
 11
61.10951700000001
 21
-30.03351099999999
 31
0.0
 12
60.526184
 22
-33.53351099999999
 32
0.0
 13
60.526184
 23
-33.53351099999999
 33
0.0
  0
SOLID
  5
F95
330
ECA
100
AcDbEntity
  8
0
  6
BYBLOCK
 62
     0
100
AcDbTrace
 10
59.94285099999999
 20
-1.033511
 30
0.0
 11
61.10951700000001
 21
-1.033511
 31
0.0
 12
60.526184
 22
2.466489
 32
0.0
 13
60.526184
 23
2.466489
 33
0.0
  0
MTEXT
  5
F96
330
ECA
100
AcDbEntity
  8
0
  6
BYBLOCK
 62
     0
100
AcDbMText
 10
57.77618399999999
 20
-15.53351099999999
 30
0.0
 40
3.5
 41
0.0
 71
     5
 72
     1
  1
\A1;36
 11
0.0
 21
1.0
 31
0.0
1001
ACAD
1000
MTEXTBEGIN
1070
    73
1070
     1
1070
    44
1040
1.0
1070
    74
1070
     0
1000
MTEXTEND
1000
MTEXTBEGIN
1070
    73
1070
     1
1070
    44
1040
1.0
1070
    74
1070
     0
1000
MTEXTEND
1000
MTEXTBEGIN
1070
    73
1070
     1
1070
    44
1040
1.0
1070
    74
1070
     0
1000
MTEXTEND
1000
MTEXTBEGIN
1070
    73
1070
     1
1070
    44
1040
1.0
1070
    74
1070
     0
1000
MTEXTEND
1000
MTEXTBEGIN
1070
    73
1070
     1
1070
    44
1040
1.0
1070
    74
1070
     0
1000
MTEXTEND
  0
POINT
  5
F97
330
ECA
100
AcDbEntity
  8
DEFPOINTS
  6
BYBLOCK
 62
     0
100
AcDbPoint
 10
50.736336
 20
-33.53351099999999
 30
0.0
  0
POINT
  5
F98
330
ECA
100
AcDbEntity
  8
DEFPOINTS
  6
BYBLOCK
 62
     0
100
AcDbPoint
 10
56.29705699999998
 20
2.466489
 30
0.0
  0
POINT
  5
F99
330
ECA
100
AcDbEntity
  8
DEFPOINTS
  6
BYBLOCK
 62
     0
100
AcDbPoint
 10
60.526184
 20
2.466489
 30
0.0
  0
ENDBLK
  5
F9A
330
ECA
100
AcDbEntity
  8
0
100
AcDbBlockEnd
  0
BLOCK
  5
10B6
330
ED8
100
AcDbEntity
  8
0
100
AcDbBlockBegin
  2
*D6
 70
     1
 10
0.0
 20
0.0
 30
0.0
  3
*D6
  1

  0
LINE
  5
11D4
330
ED8
100
AcDbEntity
  8
2
 62
     0
100
AcDbLine
 10
38.07815544240464
 20
-25.32555825769809
 30
0.0
 11
36.69020468306274
 21
-25.2604797457364
 31
0.0
  0
ARC
  5
11D5
330
ED8
100
AcDbEntity
  8
2
 62
     0
100
AcDbCircle
 10
49.81318299999999
 20
-25.87579256978556
 30
0.0
 40
12.13739585223208
100
AcDbArc
 50
193.8953543864871
 51
253.4201158426683
  0
SOLID
  5
11D6
330
ED8
100
AcDbEntity
  8
2
 62
     0
100
AcDbTrace
 10
37.45043249251093
 20
-28.8475583077979
 30
0.0
 11
38.61152036638685
 21
-28.73360191153429
 31
0.0
 12
37.6891072406581
 22
-25.30731648803831
 32
0.0
 13
37.6891072406581
 23
-25.30731648803831
 33
0.0
  0
SOLID
  5
11D7
330
ED8
100
AcDbEntity
  8
2
 62
     0
100
AcDbTrace
 10
46.43386055328381
 20
-36.93131154413459
 30
0.0
 11
46.26564764406316
 21
-38.08578784457676
 31
0.0
 12
49.81318299999999
 22
-38.01318842201763
 32
0.0
 13
49.81318299999999
 23
-38.01318842201763
 33
0.0
  0
MTEXT
  5
11D8
330
ED8
100
AcDbEntity
  8
2
 62
     0
100
AcDbMText
 10
43.0216218931099
 20
-32.35637114101528
 30
0.0
 40
3.5
 41
0.0
 71
     5
 72
     1
  1
\A1;95%%d
 11
0.6903489181921305
 21
-0.7234765864566422
 31
0.0
  0
POINT
  5
11D9
330
ED8
100
AcDbEntity
  8
DEFPOINTS
 62
     0
100
AcDbPoint
 10
39.11748673066775
 20
-31.61325362742882
 30
0.0
  0
POINT
  5
11DA
330
ED8
100
AcDbEntity
  8
DEFPOINTS
 62
     0
100
AcDbPoint
 10
49.81318299999999
 20
-26.59798399999999
 30
0.0
  0
POINT
  5
11DB
330
ED8
100
AcDbEntity
  8
DEFPOINTS
 62
     0
100
AcDbPoint
 10
48.619395
 20
-25.81981799999999
 30
0.0
  0
POINT
  5
11DC
330
ED8
100
AcDbEntity
  8
DEFPOINTS
 62
     0
100
AcDbPoint
 10
39.077058
 20
-25.372395
 30
0.0
  0
POINT
  5
11DD
330
ED8
100
AcDbEntity
  8
DEFPOINTS
 62
     0
100
AcDbPoint
 10
49.813183
 20
-41.75407899999996
 30
0.0
  0
ENDBLK
  5
10C1
330
ED8
100
AcDbEntity
  8
0
100
AcDbBlockEnd
  0
BLOCK
  5
1033
330
FB2
100
AcDbEntity
  8
0
100
AcDbBlockBegin
  2
*D7
 70
     1
 10
0.0
 20
0.0
 30
0.0
  3
*D7
  1

  0
LINE
  5
1034
330
FB2
100
AcDbEntity
  8
0
  6
BYBLOCK
 62
     0
100
AcDbLine
 10
-1.846846
 20
20.002801
 30
0.0
 11
-32.12372399999999
 21
20.002801
 31
0.0
  0
LINE
  5
1035
330
FB2
100
AcDbEntity
  8
0
  6
BYBLOCK
 62
     0
100
AcDbLine
 10
-1.846846
 20
-19.99719899999998
 30
0.0
 11
-32.12372399999999
 21
-19.99719899999998
 31
0.0
  0
LINE
  5
1036
330
FB2
100
AcDbEntity
  8
0
  6
BYBLOCK
 62
     0
100
AcDbLine
 10
-31.12372399999999
 20
16.502801
 30
0.0
 11
-31.12372399999999
 21
-16.497199
 31
0.0
  0
SOLID
  5
1037
330
FB2
100
AcDbEntity
  8
0
  6
BYBLOCK
 62
     0
100
AcDbTrace
 10
-31.707057
 20
16.502801
 30
0.0
 11
-30.54039
 21
16.502801
 31
0.0
 12
-31.12372399999999
 22
20.002801
 32
0.0
 13
-31.12372399999999
 23
20.002801
 33
0.0
  0
SOLID
  5
1038
330
FB2
100
AcDbEntity
  8
0
  6
BYBLOCK
 62
     0
100
AcDbTrace
 10
-31.707057
 20
-16.497199
 30
0.0
 11
-30.54039
 21
-16.497199
 31
0.0
 12
-31.12372399999999
 22
-19.99719899999998
 32
0.0
 13
-31.12372399999999
 23
-19.99719899999998
 33
0.0
  0
MTEXT
  5
1039
330
FB2
100
AcDbEntity
  8
0
  6
BYBLOCK
 62
     0
100
AcDbMText
 10
-33.87372399999998
 20
0.002801
 30
0.0
 40
3.5
 41
0.0
 71
     5
 72
     1
  1
\A1;{\U+220550}
 11
0.0
 21
1.0
 31
0.0
1001
ACAD
1000
MTEXTBEGIN
1070
    73
1070
     1
1070
    44
1040
1.0
1070
    74
1070
     0
1000
MTEXTEND
1000
MTEXTBEGIN
1070
    73
1070
     1
1070
    44
1040
1.0
1070
    74
1070
     0
1000
MTEXTEND
1000
MTEXTBEGIN
1070
    73
1070
     1
1070
    44
1040
1.0
1070
    74
1070
     0
1000
MTEXTEND
1000
MTEXTBEGIN
1070
    73
1070
     1
1070
    44
1040
1.0
1070
    74
1070
     0
1000
MTEXTEND
1000
MTEXTBEGIN
1070
    73
1070
     1
1070
    44
1040
1.0
1070
    74
1070
     0
1000
MTEXTEND
  0
POINT
  5
103A
330
FB2
100
AcDbEntity
  8
DEFPOINTS
  6
BYBLOCK
 62
     0
100
AcDbPoint
 10
-0.8468459999999996
 20
20.002801
 30
0.0
  0
POINT
  5
103B
330
FB2
100
AcDbEntity
  8
DEFPOINTS
  6
BYBLOCK
 62
     0
100
AcDbPoint
 10
-0.8468459999999996
 20
-19.99719899999998
 30
0.0
  0
POINT
  5
103C
330
FB2
100
AcDbEntity
  8
DEFPOINTS
  6
BYBLOCK
 62
     0
100
AcDbPoint
 10
-31.12372399999999
 20
-19.99719899999998
 30
0.0
  0
ENDBLK
  5
103D
330
FB2
100
AcDbEntity
  8
0
100
AcDbBlockEnd
  0
BLOCK
  5
FC0
330
FBF
100
AcDbEntity
  8
0
100
AcDbBlockBegin
  2
*D8
 70
     1
 10
0.0
 20
0.0
 30
0.0
  3
*D8
  1

  0
LINE
  5
FC1
330
FBF
100
AcDbEntity
  8
0
  6
BYBLOCK
 62
     0
100
AcDbLine
 10
50.975079
 20
-32.543325
 30
0.0
 11
63.05329399999999
 21
-32.543325
 31
0.0
  0
LINE
  5
FC2
330
FBF
100
AcDbEntity
  8
0
  6
BYBLOCK
 62
     0
100
AcDbLine
 10
50.975079
 20
2.456675
 30
0.0
 11
63.05329399999999
 21
2.456675
 31
0.0
  0
LINE
  5
FC3
330
FBF
100
AcDbEntity
  8
0
  6
BYBLOCK
 62
     0
100
AcDbLine
 10
62.053294
 20
-29.043325
 30
0.0
 11
62.053294
 21
-1.043325
 31
0.0
  0
SOLID
  5
FC4
330
FBF
100
AcDbEntity
  8
0
  6
BYBLOCK
 62
     0
100
AcDbTrace
 10
61.46996
 20
-29.043325
 30
0.0
 11
62.63662700000001
 21
-29.043325
 31
0.0
 12
62.053294
 22
-32.543325
 32
0.0
 13
62.053294
 23
-32.543325
 33
0.0
  0
SOLID
  5
FC5
330
FBF
100
AcDbEntity
  8
0
  6
BYBLOCK
 62
     0
100
AcDbTrace
 10
61.46996
 20
-1.043325
 30
0.0
 11
62.63662700000001
 21
-1.043325
 31
0.0
 12
62.053294
 22
2.456675
 32
0.0
 13
62.053294
 23
2.456675
 33
0.0
  0
MTEXT
  5
FC6
330
FBF
100
AcDbEntity
  8
0
  6
BYBLOCK
 62
     0
100
AcDbMText
 10
59.30329399999999
 20
-15.043325
 30
0.0
 40
3.5
 41
0.0
 71
     5
 72
     1
  1
\A1;35
 11
0.0
 21
1.0
 31
0.0
1001
ACAD
1000
MTEXTBEGIN
1070
    73
1070
     1
1070
    44
1040
1.0
1070
    74
1070
     0
1000
MTEXTEND
1000
MTEXTBEGIN
1070
    73
1070
     1
1070
    44
1040
1.0
1070
    74
1070
     0
1000
MTEXTEND
1000
MTEXTBEGIN
1070
    73
1070
     1
1070
    44
1040
1.0
1070
    74
1070
     0
1000
MTEXTEND
1000
MTEXTBEGIN
1070
    73
1070
     1
1070
    44
1040
1.0
1070
    74
1070
     0
1000
MTEXTEND
1000
MTEXTBEGIN
1070
    73
1070
     1
1070
    44
1040
1.0
1070
    74
1070
     0
1000
MTEXTEND
  0
POINT
  5
FC7
330
FBF
100
AcDbEntity
  8
DEFPOINTS
  6
BYBLOCK
 62
     0
100
AcDbPoint
 10
49.975079
 20
-32.543325
 30
0.0
  0
POINT
  5
FC8
330
FBF
100
AcDbEntity
  8
DEFPOINTS
  6
BYBLOCK
 62
     0
100
AcDbPoint
 10
49.975079
 20
2.456675
 30
0.0
  0
POINT
  5
FC9
330
FBF
100
AcDbEntity
  8
DEFPOINTS
  6
BYBLOCK
 62
     0
100
AcDbPoint
 10
62.053294
 20
2.456675
 30
0.0
  0
ENDBLK
  5
FCA
330
FBF
100
AcDbEntity
  8
0
100
AcDbBlockEnd
  0
BLOCK
  5
103E
330
FCC
100
AcDbEntity
  8
0
100
AcDbBlockBegin
  2
*D9
 70
     1
 10
0.0
 20
0.0
 30
0.0
  3
*D9
  1

  0
LINE
  5
103F
330
FCC
100
AcDbEntity
  8
0
  6
BYBLOCK
 62
     0
100
AcDbLine
 10
47.11706699999999
 20
-0.598415
 30
0.0
 11
56.69079100000001
 21
-0.598415
 31
0.0
  0
LINE
  5
1040
330
FCC
100
AcDbEntity
  8
0
  6
BYBLOCK
 62
     0
100
AcDbLine
 10
47.11706699999999
 20
-28.598415
 30
0.0
 11
56.69079100000001
 21
-28.598415
 31
0.0
  0
LINE
  5
1041
330
FCC
100
AcDbEntity
  8
0
  6
BYBLOCK
 62
     0
100
AcDbLine
 10
55.690791
 20
-4.098415
 30
0.0
 11
55.690791
 21
-25.098415
 31
0.0
  0
SOLID
  5
1042
330
FCC
100
AcDbEntity
  8
0
  6
BYBLOCK
 62
     0
100
AcDbTrace
 10
55.107457
 20
-4.098415
 30
0.0
 11
56.274124
 21
-4.098415
 31
0.0
 12
55.690791
 22
-0.598415
 32
0.0
 13
55.690791
 23
-0.598415
 33
0.0
  0
SOLID
  5
1043
330
FCC
100
AcDbEntity
  8
0
  6
BYBLOCK
 62
     0
100
AcDbTrace
 10
55.107457
 20
-25.098415
 30
0.0
 11
56.274124
 21
-25.098415
 31
0.0
 12
55.690791
 22
-28.598415
 32
0.0
 13
55.690791
 23
-28.598415
 33
0.0
  0
MTEXT
  5
1044
330
FCC
100
AcDbEntity
  8
0
  6
BYBLOCK
 62
     0
100
AcDbMText
 10
52.94079100000001
 20
-14.598415
 30
0.0
 40
3.5
 41
0.0
 71
     5
 72
     1
  1
\A1;28
 11
0.0
 21
1.0
 31
0.0
1001
ACAD
1000
MTEXTBEGIN
1070
    73
1070
     1
1070
    44
1040
1.0
1070
    74
1070
     0
1000
MTEXTEND
1000
MTEXTBEGIN
1070
    73
1070
     1
1070
    44
1040
1.0
1070
    74
1070
     0
1000
MTEXTEND
1000
MTEXTBEGIN
1070
    73
1070
     1
1070
    44
1040
1.0
1070
    74
1070
     0
1000
MTEXTEND
1000
MTEXTBEGIN
1070
    73
1070
     1
1070
    44
1040
1.0
1070
    74
1070
     0
1000
MTEXTEND
1000
MTEXTBEGIN
1070
    73
1070
     1
1070
    44
1040
1.0
1070
    74
1070
     0
1000
MTEXTEND
  0
POINT
  5
1045
330
FCC
100
AcDbEntity
  8
DEFPOINTS
  6
BYBLOCK
 62
     0
100
AcDbPoint
 10
46.117067
 20
-0.598415
 30
0.0
  0
POINT
  5
1046
330
FCC
100
AcDbEntity
  8
DEFPOINTS
  6
BYBLOCK
 62
     0
100
AcDbPoint
 10
46.117067
 20
-28.598415
 30
0.0
  0
POINT
  5
1047
330
FCC
100
AcDbEntity
  8
DEFPOINTS
  6
BYBLOCK
 62
     0
100
AcDbPoint
 10
55.690791
 20
-28.598415
 30
0.0
  0
ENDBLK
  5
1048
330
FCC
100
AcDbEntity
  8
0
100
AcDbBlockEnd
  0
BLOCK
  5
FE6
330
FD9
100
AcDbEntity
  8
0
100
AcDbBlockBegin
  2
*D10
 70
     1
 10
0.0
 20
0.0
 30
0.0
  3
*D10
  1

  0
LINE
  5
FE7
330
FD9
100
AcDbEntity
  8
0
  6
BYBLOCK
 62
     0
100
AcDbLine
 10
58.441227
 20
-36.286031
 30
0.0
 11
58.441227
 21
-51.739272
 31
0.0
  0
LINE
  5
FE8
330
FD9
100
AcDbEntity
  8
0
  6
BYBLOCK
 62
     0
100
AcDbLine
 10
-6.462166
 20
-36.286031
 30
0.0
 11
-6.462166
 21
-51.739272
 31
0.0
  0
LINE
  5
FE9
330
FD9
100
AcDbEntity
  8
0
  6
BYBLOCK
 62
     0
100
AcDbLine
 10
54.94122700000001
 20
-50.73927199999999
 30
0.0
 11
-2.962165999999998
 21
-50.73927199999999
 31
0.0
  0
SOLID
  5
FEA
330
FD9
100
AcDbEntity
  8
0
  6
BYBLOCK
 62
     0
100
AcDbTrace
 10
54.94122700000001
 20
-50.155939
 30
0.0
 11
54.94122700000001
 21
-51.322606
 31
0.0
 12
58.441227
 22
-50.73927199999999
 32
0.0
 13
58.441227
 23
-50.73927199999999
 33
0.0
  0
SOLID
  5
FEB
330
FD9
100
AcDbEntity
  8
0
  6
BYBLOCK
 62
     0
100
AcDbTrace
 10
-2.962165999999998
 20
-50.155939
 30
0.0
 11
-2.962165999999998
 21
-51.322606
 31
0.0
 12
-6.462166
 22
-50.73927199999999
 32
0.0
 13
-6.462166
 23
-50.73927199999999
 33
0.0
  0
MTEXT
  5
FEC
330
FD9
100
AcDbEntity
  8
0
  6
BYBLOCK
 62
     0
100
AcDbMText
 10
25.98952999999999
 20
-47.989272
 30
0.0
 40
3.5
 41
0.0
 71
     5
 72
     1
  1
\A1;64.9034
1001
ACAD
1000
MTEXTBEGIN
1070
    73
1070
     1
1070
    44
1040
1.0
1070
    74
1070
     0
1000
MTEXTEND
1000
MTEXTBEGIN
1070
    73
1070
     1
1070
    44
1040
1.0
1070
    74
1070
     0
1000
MTEXTEND
1000
MTEXTBEGIN
1070
    73
1070
     1
1070
    44
1040
1.0
1070
    74
1070
     0
1000
MTEXTEND
1000
MTEXTBEGIN
1070
    73
1070
     1
1070
    44
1040
1.0
1070
    74
1070
     0
1000
MTEXTEND
1000
MTEXTBEGIN
1070
    73
1070
     1
1070
    44
1040
1.0
1070
    74
1070
     0
1000
MTEXTEND
  0
POINT
  5
FED
330
FD9
100
AcDbEntity
  8
DEFPOINTS
  6
BYBLOCK
 62
     0
100
AcDbPoint
 10
58.441227
 20
-35.286031
 30
0.0
  0
POINT
  5
FEE
330
FD9
100
AcDbEntity
  8
DEFPOINTS
  6
BYBLOCK
 62
     0
100
AcDbPoint
 10
-6.462166
 20
-35.286031
 30
0.0
  0
POINT
  5
FEF
330
FD9
100
AcDbEntity
  8
DEFPOINTS
  6
BYBLOCK
 62
     0
100
AcDbPoint
 10
-6.462166
 20
-50.73927199999999
 30
0.0
  0
ENDBLK
  5
FF0
330
FD9
100
AcDbEntity
  8
0
100
AcDbBlockEnd
  0
BLOCK
  5
1049
330
FF1
100
AcDbEntity
  8
0
100
AcDbBlockBegin
  2
*D11
 70
     1
 10
0.0
 20
0.0
 30
0.0
  3
*D11
  1

  0
LINE
  5
104A
330
FF1
100
AcDbEntity
  8
0
  6
BYBLOCK
 62
     0
100
AcDbLine
 10
46.917067
 20
-29.598415
 30
0.0
 11
46.917067
 21
-47.865815
 31
0.0
  0
LINE
  5
104B
330
FF1
100
AcDbEntity
  8
0
  6
BYBLOCK
 62
     0
100
AcDbLine
 10
-1.082932999999999
 20
-24.344448
 30
0.0
 11
-1.082932999999999
 21
-47.865815
 31
0.0
  0
LINE
  5
104C
330
FF1
100
AcDbEntity
  8
0
  6
BYBLOCK
 62
     0
100
AcDbLine
 10
43.41706699999998
 20
-46.865815
 30
0.0
 11
2.417066999999998
 21
-46.865815
 31
0.0
  0
SOLID
  5
104D
330
FF1
100
AcDbEntity
  8
0
  6
BYBLOCK
 62
     0
100
AcDbTrace
 10
43.41706699999998
 20
-46.282482
 30
0.0
 11
43.41706699999998
 21
-47.449149
 31
0.0
 12
46.917067
 22
-46.865815
 32
0.0
 13
46.917067
 23
-46.865815
 33
0.0
  0
SOLID
  5
104E
330
FF1
100
AcDbEntity
  8
0
  6
BYBLOCK
 62
     0
100
AcDbTrace
 10
2.417066999999998
 20
-46.282482
 30
0.0
 11
2.417066999999998
 21
-47.449149
 31
0.0
 12
-1.082932999999999
 22
-46.865815
 32
0.0
 13
-1.082932999999999
 23
-46.865815
 33
0.0
  0
MTEXT
  5
104F
330
FF1
100
AcDbEntity
  8
0
  6
BYBLOCK
 62
     0
100
AcDbMText
 10
22.917067
 20
-44.115815
 30
0.0
 40
3.5
 41
0.0
 71
     5
 72
     1
  1
\A1;48
1001
ACAD
1000
MTEXTBEGIN
1070
    73
1070
     1
1070
    44
1040
1.0
1070
    74
1070
     0
1000
MTEXTEND
1000
MTEXTBEGIN
1070
    73
1070
     1
1070
    44
1040
1.0
1070
    74
1070
     0
1000
MTEXTEND
1000
MTEXTBEGIN
1070
    73
1070
     1
1070
    44
1040
1.0
1070
    74
1070
     0
1000
MTEXTEND
1000
MTEXTBEGIN
1070
    73
1070
     1
1070
    44
1040
1.0
1070
    74
1070
     0
1000
MTEXTEND
1000
MTEXTBEGIN
1070
    73
1070
     1
1070
    44
1040
1.0
1070
    74
1070
     0
1000
MTEXTEND
  0
POINT
  5
1050
330
FF1
100
AcDbEntity
  8
DEFPOINTS
  6
BYBLOCK
 62
     0
100
AcDbPoint
 10
46.917067
 20
-28.598415
 30
0.0
  0
POINT
  5
1051
330
FF1
100
AcDbEntity
  8
DEFPOINTS
  6
BYBLOCK
 62
     0
100
AcDbPoint
 10
-1.082932999999999
 20
-23.34444799999999
 30
0.0
  0
POINT
  5
1052
330
FF1
100
AcDbEntity
  8
DEFPOINTS
  6
BYBLOCK
 62
     0
100
AcDbPoint
 10
-1.082932999999999
 20
-46.865815
 30
0.0
  0
ENDBLK
  5
1053
330
FF1
100
AcDbEntity
  8
0
100
AcDbBlockEnd
  0
BLOCK
  5
10C2
330
1060
100
AcDbEntity
  8
0
100
AcDbBlockBegin
  2
*D12
 70
     1
 10
0.0
 20
0.0
 30
0.0
  3
*D12
  1

  0
LINE
  5
11B4
330
1060
100
AcDbEntity
  8
SK2
 62
     0
100
AcDbLine
 10
-1.0
 20
20.60121599999998
 30
0.0
 11
-31.04958399999999
 21
20.60121599999999
 31
0.0
  0
LINE
  5
11B5
330
1060
100
AcDbEntity
  8
SK2
 62
     0
100
AcDbLine
 10
-1.0
 20
-19.39878399999998
 30
0.0
 11
-31.049584
 21
-19.39878399999997
 31
0.0
  0
LINE
  5
11B6
330
1060
100
AcDbEntity
  8
SK2
 62
     0
100
AcDbLine
 10
-30.04958399999999
 20
17.10121599999999
 30
0.0
 11
-30.049584
 21
-15.89878399999997
 31
0.0
  0
SOLID
  5
11B7
330
1060
100
AcDbEntity
  8
SK2
 62
     0
100
AcDbTrace
 10
-30.63291733333333
 20
17.10121599999999
 30
0.0
 11
-29.46625066666666
 21
17.10121599999999
 31
0.0
 12
-30.04958399999999
 22
20.60121599999999
 32
0.0
 13
-30.04958399999999
 23
20.60121599999999
 33
0.0
  0
SOLID
  5
11B8
330
1060
100
AcDbEntity
  8
SK2
 62
     0
100
AcDbTrace
 10
-30.63291733333333
 20
-15.89878399999997
 30
0.0
 11
-29.46625066666667
 21
-15.89878399999997
 31
0.0
 12
-30.049584
 22
-19.39878399999997
 32
0.0
 13
-30.049584
 23
-19.39878399999997
 33
0.0
  0
MTEXT
  5
11B9
330
1060
100
AcDbEntity
  8
SK2
 62
     0
100
AcDbMText
 10
-32.79958399999999
 20
0.6012160000000049
 30
0.0
 40
3.5
 41
0.0
 71
     5
 72
     1
  1
\A1;%%c 40
 11
0.0000000000000001
 21
1.0
 31
0.0
1001
ACAD
1000
MTEXTBEGIN
1070
    73
1070
     1
1070
    44
1040
1.0
1070
    74
1070
     0
1000
MTEXTEND
  0
POINT
  5
11BA
330
1060
100
AcDbEntity
  8
DEFPOINTS
 62
     0
100
AcDbPoint
 10
0.0
 20
20.60121599999998
 30
0.0
  0
POINT
  5
11BB
330
1060
100
AcDbEntity
  8
DEFPOINTS
 62
     0
100
AcDbPoint
 10
0.0
 20
-19.39878399999998
 30
0.0
  0
POINT
  5
11BC
330
1060
100
AcDbEntity
  8
DEFPOINTS
 62
     0
100
AcDbPoint
 10
-30.049584
 20
-19.39878399999997
 30
0.0
  0
ENDBLK
  5
10CC
330
1060
100
AcDbEntity
  8
0
100
AcDbBlockEnd
  0
BLOCK
  5
10AB
330
1078
100
AcDbEntity
  8
0
100
AcDbBlockBegin
  2
*D13
 70
     1
 10
0.0
 20
0.0
 30
0.0
  3
*D13
  1

  0
LINE
  5
11AB
330
1078
100
AcDbEntity
  8
2
 62
     0
100
AcDbLine
 10
49.663269
 20
-26.670767
 30
0.0
 11
49.663269
 21
-47.49622599999999
 31
0.0
  0
LINE
  5
11AC
330
1078
100
AcDbEntity
  8
2
 62
     0
100
AcDbLine
 10
-0.3367310000000001
 20
-26.670767
 30
0.0
 11
-0.3367310000000013
 21
-47.49622599999999
 31
0.0
  0
LINE
  5
11AD
330
1078
100
AcDbEntity
  8
2
 62
     0
100
AcDbLine
 10
46.16326899999999
 20
-46.49622599999999
 30
0.0
 11
3.163268999999998
 21
-46.49622599999999
 31
0.0
  0
SOLID
  5
11AE
330
1078
100
AcDbEntity
  8
2
 62
     0
100
AcDbTrace
 10
46.16326899999999
 20
-45.91289266666666
 30
0.0
 11
46.16326899999999
 21
-47.07955933333333
 31
0.0
 12
49.663269
 22
-46.49622599999999
 32
0.0
 13
49.663269
 23
-46.49622599999999
 33
0.0
  0
SOLID
  5
11AF
330
1078
100
AcDbEntity
  8
2
 62
     0
100
AcDbTrace
 10
3.163268999999998
 20
-45.91289266666666
 30
0.0
 11
3.163268999999998
 21
-47.07955933333333
 31
0.0
 12
-0.3367310000000013
 22
-46.49622599999999
 32
0.0
 13
-0.3367310000000013
 23
-46.49622599999999
 33
0.0
  0
MTEXT
  5
11B0
330
1078
100
AcDbEntity
  8
2
 62
     0
100
AcDbMText
 10
24.663269
 20
-43.74622599999999
 30
0.0
 40
3.5
 41
0.0
 71
     5
 72
     1
  1
\A1;50
1001
ACAD
1000
MTEXTBEGIN
1070
    73
1070
     1
1070
    44
1040
1.0
1070
    74
1070
     0
1000
MTEXTEND
  0
POINT
  5
11B1
330
1078
100
AcDbEntity
  8
DEFPOINTS
 62
     0
100
AcDbPoint
 10
49.663269
 20
-25.670767
 30
0.0
  0
POINT
  5
11B2
330
1078
100
AcDbEntity
  8
DEFPOINTS
 62
     0
100
AcDbPoint
 10
-0.336731
 20
-25.670767
 30
0.0
  0
POINT
  5
11B3
330
1078
100
AcDbEntity
  8
DEFPOINTS
 62
     0
100
AcDbPoint
 10
-0.3367310000000013
 20
-46.49622599999999
 30
0.0
  0
ENDBLK
  5
10B5
330
1078
100
AcDbEntity
  8
0
100
AcDbBlockEnd
  0
BLOCK
  5
1086
330
1085
100
AcDbEntity
  8
0
100
AcDbBlockBegin
  2
*D14
 70
     1
 10
0.0
 20
0.0
 30
0.0
  3
*D14
  1

  0
LINE
  5
1087
330
1085
100
AcDbEntity
  8
0
  6
BYBLOCK
 62
     0
100
AcDbLine
 10
49.965563
 20
-25.97081
 30
0.0
 11
64.493886
 21
-25.97081
 31
0.0
  0
LINE
  5
1088
330
1085
100
AcDbEntity
  8
0
  6
BYBLOCK
 62
     0
100
AcDbLine
 10
49.965563
 20
1.02919
 30
0.0
 11
64.493886
 21
1.02919
 31
0.0
  0
LINE
  5
1089
330
1085
100
AcDbEntity
  8
0
  6
BYBLOCK
 62
     0
100
AcDbLine
 10
63.493886
 20
-22.47081
 30
0.0
 11
63.493886
 21
-2.470809999999999
 31
0.0
  0
SOLID
  5
108A
330
1085
100
AcDbEntity
  8
0
  6
BYBLOCK
 62
     0
100
AcDbTrace
 10
62.910553
 20
-22.47081
 30
0.0
 11
64.07721999999999
 21
-22.47081
 31
0.0
 12
63.493886
 22
-25.97081
 32
0.0
 13
63.493886
 23
-25.97081
 33
0.0
  0
SOLID
  5
108B
330
1085
100
AcDbEntity
  8
0
  6
BYBLOCK
 62
     0
100
AcDbTrace
 10
62.910553
 20
-2.470809999999999
 30
0.0
 11
64.07721999999999
 21
-2.470809999999999
 31
0.0
 12
63.493886
 22
1.02919
 32
0.0
 13
63.493886
 23
1.02919
 33
0.0
  0
MTEXT
  5
108C
330
1085
100
AcDbEntity
  8
0
  6
BYBLOCK
 62
     0
100
AcDbMText
 10
60.74388599999998
 20
-12.47081
 30
0.0
 40
3.5
 41
0.0
 71
     5
 72
     1
  1
\A1;27
 11
0.0
 21
1.0
 31
0.0
1001
ACAD
1000
MTEXTBEGIN
1070
    73
1070
     1
1070
    44
1040
1.0
1070
    74
1070
     0
1000
MTEXTEND
1000
MTEXTBEGIN
1070
    73
1070
     1
1070
    44
1040
1.0
1070
    74
1070
     0
1000
MTEXTEND
1000
MTEXTBEGIN
1070
    73
1070
     1
1070
    44
1040
1.0
1070
    74
1070
     0
1000
MTEXTEND
1000
MTEXTBEGIN
1070
    73
1070
     1
1070
    44
1040
1.0
1070
    74
1070
     0
1000
MTEXTEND
1000
MTEXTBEGIN
1070
    73
1070
     1
1070
    44
1040
1.0
1070
    74
1070
     0
1000
MTEXTEND
  0
POINT
  5
108D
330
1085
100
AcDbEntity
  8
DEFPOINTS
  6
BYBLOCK
 62
     0
100
AcDbPoint
 10
48.965563
 20
-25.97081
 30
0.0
  0
POINT
  5
108E
330
1085
100
AcDbEntity
  8
DEFPOINTS
  6
BYBLOCK
 62
     0
100
AcDbPoint
 10
48.965563
 20
1.02919
 30
0.0
  0
POINT
  5
108F
330
1085
100
AcDbEntity
  8
DEFPOINTS
  6
BYBLOCK
 62
     0
100
AcDbPoint
 10
63.493886
 20
1.02919
 30
0.0
  0
ENDBLK
  5
1090
330
1085
100
AcDbEntity
  8
0
100
AcDbBlockEnd
  0
BLOCK
  5
10A0
330
1092
100
AcDbEntity
  8
0
100
AcDbBlockBegin
  2
*D15
 70
     1
 10
0.0
 20
0.0
 30
0.0
  3
*D15
  1

  0
LINE
  5
11BD
330
1092
100
AcDbEntity
  8
2
 62
     0
100
AcDbLine
 10
47.53198599999998
 20
0.5965519999999998
 30
0.0
 11
64.11488300000001
 21
0.5965519999999951
 31
0.0
  0
LINE
  5
11BE
330
1092
100
AcDbEntity
  8
2
 62
     0
100
AcDbLine
 10
47.53198599999998
 20
-26.40344799999999
 30
0.0
 11
64.11488300000001
 21
-26.40344799999999
 31
0.0
  0
LINE
  5
11BF
330
1092
100
AcDbEntity
  8
2
 62
     0
100
AcDbLine
 10
63.114883
 20
-2.903448000000004
 30
0.0
 11
63.114883
 21
-22.90344799999999
 31
0.0
  0
SOLID
  5
11C0
330
1092
100
AcDbEntity
  8
2
 62
     0
100
AcDbTrace
 10
62.53154966666667
 20
-2.903448000000004
 30
0.0
 11
63.69821633333334
 21
-2.903448000000004
 31
0.0
 12
63.114883
 22
0.5965519999999955
 32
0.0
 13
63.114883
 23
0.5965519999999955
 33
0.0
  0
SOLID
  5
11C1
330
1092
100
AcDbEntity
  8
2
 62
     0
100
AcDbTrace
 10
62.53154966666667
 20
-22.90344799999999
 30
0.0
 11
63.69821633333334
 21
-22.90344799999999
 31
0.0
 12
63.114883
 22
-26.40344799999999
 32
0.0
 13
63.114883
 23
-26.40344799999999
 33
0.0
  0
MTEXT
  5
11C2
330
1092
100
AcDbEntity
  8
2
 62
     0
100
AcDbMText
 10
60.36488300000001
 20
-12.90344799999998
 30
0.0
 40
3.5
 41
0.0
 71
     5
 72
     1
  1
\A1;27
 11
0.0000000000000001
 21
1.0
 31
0.0
1001
ACAD
1000
MTEXTBEGIN
1070
    73
1070
     1
1070
    44
1040
1.0
1070
    74
1070
     0
1000
MTEXTEND
  0
POINT
  5
11C3
330
1092
100
AcDbEntity
  8
DEFPOINTS
 62
     0
100
AcDbPoint
 10
46.53198599999998
 20
0.5965520000000001
 30
0.0
  0
POINT
  5
11C4
330
1092
100
AcDbEntity
  8
DEFPOINTS
 62
     0
100
AcDbPoint
 10
46.53198599999998
 20
-26.40344799999999
 30
0.0
  0
POINT
  5
11C5
330
1092
100
AcDbEntity
  8
DEFPOINTS
 62
     0
100
AcDbPoint
 10
63.114883
 20
-26.40344799999999
 30
0.0
  0
ENDBLK
  5
10AA
330
1092
100
AcDbEntity
  8
0
100
AcDbBlockEnd
  0
ENDSEC
  0
SECTION
  2
ENTITIES
  0
LINE
  5
C6E
330
19
100
AcDbEntity
  8
SK1
100
AcDbLine
 10
-19.23415199999998
 20
14.33903299999998
 30
0.0
 11
-19.23415199999998
 21
-14.040774
 31
0.0
  0
LINE
  5
C6F
330
19
100
AcDbEntity
  8
1
100
AcDbLine
 10
20.588588
 20
20.452254
 30
0.0
 11
19.097406
 21
18.81211
 31
0.0
  0
LINE
  5
C70
330
19
100
AcDbEntity
  8
1
100
AcDbLine
 10
29.78305
 20
-6.994330999999997
 30
0.0
 11
29.98178499999999
 21
-7.480308999999999
 31
0.0
  0
LINE
  5
C71
330
19
100
AcDbEntity
  8
1
100
AcDbLine
 10
29.78305
 20
-6.475260999999997
 30
0.0
 11
29.78305
 21
-6.994330999999997
 31
0.0
  0
LINE
  5
C72
330
19
100
AcDbEntity
  8
1
100
AcDbLine
 10
29.98178499999999
 20
-5.989283
 30
0.0
 11
29.78305
 21
-6.475260999999997
 31
0.0
  0
LINE
  5
C73
330
19
100
AcDbEntity
  8
1
100
AcDbLine
 10
30.467807
 20
-5.685605999999999
 30
0.0
 11
29.98178499999999
 21
-5.989283
 31
0.0
  0
LINE
  5
C74
330
19
100
AcDbEntity
  8
1
100
AcDbLine
 10
30.98692199999999
 20
-5.646937999999997
 30
0.0
 11
30.467807
 21
-5.685605999999999
 31
0.0
  0
LINE
  5
C75
330
19
100
AcDbEntity
  8
1
100
AcDbLine
 10
31.472901
 20
-5.840142
 30
0.0
 11
30.98692199999999
 21
-5.646937999999997
 31
0.0
  0
LINE
  5
C76
330
19
100
AcDbEntity
  8
1
100
AcDbLine
 10
18.191545
 20
3.009031999999998
 30
0.0
 11
18.20292
 21
-0.472602
 31
0.0
  0
LINE
  5
C77
330
19
100
AcDbEntity
  8
1
100
AcDbLine
 10
18.182214
 20
0.4255930000000001
 30
0.0
 11
18.191545
 21
-0.0183
 31
0.0
  0
LINE
  5
C78
330
19
100
AcDbEntity
  8
1
100
AcDbLine
 10
18.174976
 20
3.419662
 30
0.0
 11
18.182214
 21
2.985593
 31
0.0
  0
LINE
  5
C79
330
19
100
AcDbEntity
  8
1
100
AcDbLine
 10
18.169805
 20
3.844535
 30
0.0
 11
18.174976
 21
3.419662
 31
0.0
  0
LINE
  5
C7A
330
19
100
AcDbEntity
  8
1
100
AcDbLine
 10
18.166703
 20
4.260798
 30
0.0
 11
18.169805
 21
3.844535
 31
0.0
  0
LINE
  5
C7B
330
19
100
AcDbEntity
  8
1
100
AcDbLine
 10
18.165669
 20
4.669102999999998
 30
0.0
 11
18.166703
 21
4.260798
 31
0.0
  0
LINE
  5
C7C
330
19
100
AcDbEntity
  8
1
100
AcDbLine
 10
18.166703
 20
5.070033999999997
 30
0.0
 11
18.165669
 21
4.669102999999998
 31
0.0
  0
LINE
  5
C7D
330
19
100
AcDbEntity
  8
1
100
AcDbLine
 10
18.169805
 20
5.464222
 30
0.0
 11
18.166703
 21
5.070033999999997
 31
0.0
  0
LINE
  5
C7E
330
19
100
AcDbEntity
  8
1
100
AcDbLine
 10
18.174998
 20
5.852269999999997
 30
0.0
 11
18.169805
 21
5.464222
 31
0.0
  0
LINE
  5
C7F
330
19
100
AcDbEntity
  8
1
100
AcDbLine
 10
18.182238
 20
6.23479
 30
0.0
 11
18.174998
 21
5.852269999999997
 31
0.0
  0
LINE
  5
C80
330
19
100
AcDbEntity
  8
1
100
AcDbLine
 10
18.191567
 20
6.612408
 30
0.0
 11
18.182238
 21
6.23479
 31
0.0
  0
LINE
  5
C81
330
19
100
AcDbEntity
  8
1
100
AcDbLine
 10
18.20294299999996
 20
6.985732
 30
0.0
 11
18.191567
 21
6.612408
 31
0.0
  0
LINE
  5
C82
330
19
100
AcDbEntity
  8
1
100
AcDbLine
 10
18.216409
 20
7.355369
 30
0.0
 11
18.20294299999996
 21
6.985732
 31
0.0
  0
LINE
  5
C83
330
19
100
AcDbEntity
  8
1
100
AcDbLine
 10
18.23194299999998
 20
7.721949
 30
0.0
 11
18.216409
 21
7.355369
 31
0.0
  0
LINE
  5
C84
330
19
100
AcDbEntity
  8
1
100
AcDbLine
 10
18.24954599999998
 20
8.086055999999999
 30
0.0
 11
18.23194299999998
 21
7.721949
 31
0.0
  0
LINE
  5
C85
330
19
100
AcDbEntity
  8
1
100
AcDbLine
 10
18.269218
 20
8.448341
 30
0.0
 11
18.24954599999998
 21
8.086055999999999
 31
0.0
  0
LINE
  5
C86
330
19
100
AcDbEntity
  8
1
100
AcDbLine
 10
18.290957
 20
8.809389999999996
 30
0.0
 11
18.269218
 21
8.448341
 31
0.0
  0
LINE
  5
C87
330
19
100
AcDbEntity
  8
1
100
AcDbLine
 10
18.314764
 20
9.16981
 30
0.0
 11
18.290957
 21
8.809389999999996
 31
0.0
  0
LINE
  5
C88
330
19
100
AcDbEntity
  8
1
100
AcDbLine
 10
18.34064
 20
9.530253
 30
0.0
 11
18.314764
 21
9.16981
 31
0.0
  0
LINE
  5
C89
330
19
100
AcDbEntity
  8
1
100
AcDbLine
 10
18.368607
 20
9.891301999999999
 30
0.0
 11
18.34064
 21
9.530253
 31
0.0
  0
LINE
  5
C8A
330
19
100
AcDbEntity
  8
1
100
AcDbLine
 10
18.39862
 20
12.813566
 30
0.0
 11
18.368607
 21
9.891301999999999
 31
0.0
  0
LINE
  5
C8B
330
19
100
AcDbEntity
  8
1
100
AcDbLine
 10
18.43072199999999
 20
13.177672
 30
0.0
 11
18.39862
 21
12.813566
 31
0.0
  0
LINE
  5
C8C
330
19
100
AcDbEntity
  8
1
100
AcDbLine
 10
18.464872
 20
13.54425199999999
 30
0.0
 11
18.43072199999999
 21
13.177672
 31
0.0
  0
LINE
  5
C8D
330
19
100
AcDbEntity
  8
1
100
AcDbLine
 10
18.50111199999998
 20
13.91388999999999
 30
0.0
 11
18.464872
 21
13.54425199999999
 31
0.0
  0
LINE
  5
C8E
330
19
100
AcDbEntity
  8
1
100
AcDbLine
 10
18.53941999999999
 20
14.287191
 30
0.0
 11
18.50111199999998
 21
13.91388999999999
 31
0.0
  0
LINE
  5
C8F
330
19
100
AcDbEntity
  8
1
100
AcDbLine
 10
18.57979599999998
 20
14.664809
 30
0.0
 11
18.53941999999999
 21
14.287191
 31
0.0
  0
LINE
  5
C90
330
19
100
AcDbEntity
  8
1
100
AcDbLine
 10
18.62224099999998
 20
15.047328
 30
0.0
 11
18.57979599999998
 21
14.664809
 31
0.0
  0
LINE
  5
C91
330
19
100
AcDbEntity
  8
1
100
AcDbLine
 10
18.666754
 20
15.435378
 30
0.0
 11
18.62224099999998
 21
15.047328
 31
0.0
  0
LINE
  5
C92
330
19
100
AcDbEntity
  8
1
100
AcDbLine
 10
18.713335
 20
15.829542
 30
0.0
 11
18.666754
 21
15.435378
 31
0.0
  0
LINE
  5
C93
330
19
100
AcDbEntity
  8
1
100
AcDbLine
 10
18.761985
 20
16.230473
 30
0.0
 11
18.713335
 21
15.829542
 31
0.0
  0
LINE
  5
C94
330
19
100
AcDbEntity
  8
1
100
AcDbLine
 10
18.812725
 20
16.638755
 30
0.0
 11
18.761985
 21
16.230473
 31
0.0
  0
LINE
  5
C95
330
19
100
AcDbEntity
  8
1
100
AcDbLine
 10
18.86551099999998
 20
17.055019
 30
0.0
 11
18.812725
 21
16.638755
 31
0.0
  0
LINE
  5
C96
330
19
100
AcDbEntity
  8
1
100
AcDbLine
 10
18.92038799999999
 20
17.47987
 30
0.0
 11
18.86551099999998
 21
17.055019
 31
0.0
  0
LINE
  5
C97
330
19
100
AcDbEntity
  8
1
100
AcDbLine
 10
18.97731
 20
17.913916
 30
0.0
 11
18.92038799999999
 21
17.47987
 31
0.0
  0
LINE
  5
C98
330
19
100
AcDbEntity
  8
1
100
AcDbLine
 10
19.03632299999999
 20
18.35781
 30
0.0
 11
18.97731
 21
17.913916
 31
0.0
  0
LINE
  5
C99
330
19
100
AcDbEntity
  8
1
100
AcDbLine
 10
19.097406
 20
18.81211
 30
0.0
 11
19.03632299999999
 21
18.35781
 31
0.0
  0
LINE
  5
C9A
330
19
100
AcDbEntity
  8
1
100
AcDbLine
 10
25.685724
 20
-10.477828
 30
0.0
 11
25.956129
 21
-10.16407899999999
 31
0.0
  0
LINE
  5
C9B
330
19
100
AcDbEntity
  8
1
100
AcDbLine
 10
25.471792
 20
-10.8186
 30
0.0
 11
25.685724
 21
-10.477828
 31
0.0
  0
LINE
  5
C9C
330
19
100
AcDbEntity
  8
1
100
AcDbLine
 10
25.315526
 20
-11.18021
 30
0.0
 11
25.471792
 21
-10.8186
 31
0.0
  0
LINE
  5
C9D
330
19
100
AcDbEntity
  8
1
100
AcDbLine
 10
25.21815899999999
 20
-11.556547
 30
0.0
 11
25.315526
 21
-11.18021
 31
0.0
  0
LINE
  5
C9E
330
19
100
AcDbEntity
  8
1
100
AcDbLine
 10
25.18095199999999
 20
-11.941472
 30
0.0
 11
25.21815899999999
 21
-11.556547
 31
0.0
  0
LINE
  5
C9F
330
19
100
AcDbEntity
  8
1
100
AcDbLine
 10
25.20509699999999
 20
-12.328824
 30
0.0
 11
25.18095199999999
 21
-11.941472
 31
0.0
  0
LINE
  5
CA0
330
19
100
AcDbEntity
  8
1
100
AcDbLine
 10
25.29182999999999
 20
-12.712513
 30
0.0
 11
25.20509699999999
 21
-12.328824
 31
0.0
  0
LINE
  5
CA1
330
19
100
AcDbEntity
  8
1
100
AcDbLine
 10
25.442409
 20
-13.086354
 30
0.0
 11
25.29182999999999
 21
-12.712513
 31
0.0
  0
LINE
  5
CA2
330
19
100
AcDbEntity
  8
1
100
AcDbLine
 10
25.658027
 20
-13.44421
 30
0.0
 11
25.442409
 21
-13.086354
 31
0.0
  0
LINE
  5
CA3
330
19
100
AcDbEntity
  8
1
100
AcDbLine
 10
28.341618
 20
-10.462361
 30
0.0
 11
27.29810399999999
 21
-11.50605399999999
 31
0.0
  0
LINE
  5
CA4
330
19
100
AcDbEntity
  8
1
100
AcDbLine
 10
29.83282299999999
 20
-13.146131
 30
0.0
 11
29.385514
 21
-13.742672
 31
0.0
  0
LINE
  5
CA5
330
19
100
AcDbEntity
  8
1
100
AcDbLine
 10
25.806988
 20
-10.31331
 30
0.0
 11
29.087142
 21
-13.593531
 31
0.0
  0
LINE
  5
CA6
330
19
100
AcDbEntity
  8
1
100
AcDbLine
 10
25.951588
 20
-13.730398
 30
0.0
 11
25.658027
 21
-13.44421
 31
0.0
  0
LINE
  5
CA7
330
19
100
AcDbEntity
  8
1
100
AcDbLine
 10
26.288965
 20
-13.961977
 30
0.0
 11
25.951588
 21
-13.730398
 31
0.0
  0
LINE
  5
CA8
330
19
100
AcDbEntity
  8
1
100
AcDbLine
 10
26.660333
 20
-14.138095
 30
0.0
 11
26.288965
 21
-13.961977
 31
0.0
  0
LINE
  5
CA9
330
19
100
AcDbEntity
  8
1
100
AcDbLine
 10
27.05589
 20
-14.257853
 30
0.0
 11
26.660333
 21
-14.138095
 31
0.0
  0
LINE
  5
CAA
330
19
100
AcDbEntity
  8
1
100
AcDbLine
 10
27.465747
 20
-14.32034999999999
 30
0.0
 11
27.05589
 21
-14.257853
 31
0.0
  0
LINE
  5
CAB
330
19
100
AcDbEntity
  8
1
100
AcDbLine
 10
27.880099
 20
-14.324712
 30
0.0
 11
27.465747
 21
-14.32034999999999
 31
0.0
  0
LINE
  5
CAC
330
19
100
AcDbEntity
  8
1
100
AcDbLine
 10
28.28907899999999
 20
-14.269993
 30
0.0
 11
27.880099
 21
-14.324712
 31
0.0
  0
LINE
  5
CAD
330
19
100
AcDbEntity
  8
1
100
AcDbLine
 10
28.682861
 20
-14.15536099999999
 30
0.0
 11
28.28907899999999
 21
-14.269993
 31
0.0
  0
LINE
  5
CAE
330
19
100
AcDbEntity
  8
1
100
AcDbLine
 10
29.05162199999999
 20
-13.979872
 30
0.0
 11
28.682861
 21
-14.15536099999999
 31
0.0
  0
LINE
  5
CAF
330
19
100
AcDbEntity
  8
1
100
AcDbLine
 10
29.385514
 20
-13.742672
 30
0.0
 11
29.05162199999999
 21
-13.979872
 31
0.0
  0
LINE
  5
CB0
330
19
100
AcDbEntity
  8
SK1
100
AcDbLine
 10
-1.789306999999999
 20
14.935416
 30
0.0
 11
-1.789306999999999
 21
-14.190005
 31
0.0
  0
LINE
  5
CB1
330
19
100
AcDbEntity
  8
1
100
AcDbLine
 10
0.0
 20
14.935416
 30
0.0
 11
0.0
 21
-14.935416
 31
0.0
  0
LINE
  5
CB2
330
19
100
AcDbEntity
  8
1
100
AcDbLine
 10
20.45444299999997
 20
-19.096251
 30
0.0
 11
20.588588
 21
-19.408314
 31
0.0
  0
LINE
  5
CB3
330
19
100
AcDbEntity
  8
1
100
AcDbLine
 10
20.32576
 20
-18.780885
 30
0.0
 11
20.45444299999997
 21
-19.096251
 31
0.0
  0
LINE
  5
CB4
330
19
100
AcDbEntity
  8
1
100
AcDbLine
 10
20.202406
 20
-18.462167
 30
0.0
 11
20.32576
 21
-18.780885
 31
0.0
  0
LINE
  5
CB5
330
19
100
AcDbEntity
  8
1
100
AcDbLine
 10
20.084289
 20
-18.14014599999998
 30
0.0
 11
20.202406
 21
-18.462167
 31
0.0
  0
LINE
  5
CB6
330
19
100
AcDbEntity
  8
1
100
AcDbLine
 10
19.97127499999998
 20
-17.814841
 30
0.0
 11
20.084289
 21
-18.14014599999998
 31
0.0
  0
LINE
  5
CB7
330
19
100
AcDbEntity
  8
1
100
AcDbLine
 10
19.86322999999998
 20
-17.486254
 30
0.0
 11
19.97127499999998
 21
-17.814841
 31
0.0
  0
LINE
  5
CB8
330
19
100
AcDbEntity
  8
1
100
AcDbLine
 10
19.76006299999998
 20
-17.154408
 30
0.0
 11
19.86322999999998
 21
-17.486254
 31
0.0
  0
LINE
  5
CB9
330
19
100
AcDbEntity
  8
1
100
AcDbLine
 10
19.661618
 20
-16.819302
 30
0.0
 11
19.76006299999998
 21
-17.154408
 31
0.0
  0
LINE
  5
CBA
330
19
100
AcDbEntity
  8
1
100
AcDbLine
 10
19.567804
 20
-16.480982
 30
0.0
 11
19.661618
 21
-16.819302
 31
0.0
  0
LINE
  5
CBB
330
19
100
AcDbEntity
  8
1
100
AcDbLine
 10
19.478463
 20
-16.13944599999999
 30
0.0
 11
19.567804
 21
-16.480982
 31
0.0
  0
LINE
  5
CBC
330
19
100
AcDbEntity
  8
1
100
AcDbLine
 10
19.393506
 20
-15.794696
 30
0.0
 11
19.478463
 21
-16.13944599999999
 31
0.0
  0
LINE
  5
CBD
330
19
100
AcDbEntity
  8
1
100
AcDbLine
 10
19.312798
 20
-15.446754
 30
0.0
 11
19.393506
 21
-15.794696
 31
0.0
  0
LINE
  5
CBE
330
19
100
AcDbEntity
  8
1
100
AcDbLine
 10
19.236227
 20
-15.095662
 30
0.0
 11
19.312798
 21
-15.446754
 31
0.0
  0
LINE
  5
CBF
330
19
100
AcDbEntity
  8
1
100
AcDbLine
 10
19.16365799999998
 20
-14.741403
 30
0.0
 11
19.236227
 21
-15.095662
 31
0.0
  0
LINE
  5
CC0
330
19
100
AcDbEntity
  8
1
100
AcDbLine
 10
19.094955
 20
-14.384018
 30
0.0
 11
19.16365799999998
 21
-14.741403
 31
0.0
  0
LINE
  5
CC1
330
19
100
AcDbEntity
  8
1
100
AcDbLine
 10
19.030051
 20
-14.02348599999999
 30
0.0
 11
19.094955
 21
-14.384018
 31
0.0
  0
LINE
  5
CC2
330
19
100
AcDbEntity
  8
1
100
AcDbLine
 10
18.96876699999999
 20
-13.659851
 30
0.0
 11
19.030051
 21
-14.02348599999999
 31
0.0
  0
LINE
  5
CC3
330
19
100
AcDbEntity
  8
1
100
AcDbLine
 10
18.911014
 20
-13.293137
 30
0.0
 11
18.96876699999999
 21
-13.659851
 31
0.0
  0
LINE
  5
CC4
330
19
100
AcDbEntity
  8
1
100
AcDbLine
 10
18.856653
 20
-12.923319
 30
0.0
 11
18.911014
 21
-13.293137
 31
0.0
  0
LINE
  5
CC5
330
19
100
AcDbEntity
  8
1
100
AcDbLine
 10
18.805554
 20
-12.550445
 30
0.0
 11
18.856653
 21
-12.923319
 31
0.0
  0
LINE
  5
CC6
330
19
100
AcDbEntity
  8
1
100
AcDbLine
 10
18.75764599999998
 20
-12.174535
 30
0.0
 11
18.805554
 21
-12.550445
 31
0.0
  0
LINE
  5
CC7
330
19
100
AcDbEntity
  8
1
100
AcDbLine
 10
18.712751
 20
-11.795569
 30
0.0
 11
18.75764599999998
 21
-12.174535
 31
0.0
  0
LINE
  5
CC8
330
19
100
AcDbEntity
  8
1
100
AcDbLine
 10
18.670755
 20
-11.41361099999999
 30
0.0
 11
18.712751
 21
-11.795569
 31
0.0
  0
LINE
  5
CC9
330
19
100
AcDbEntity
  8
1
100
AcDbLine
 10
18.63157
 20
-11.028619
 30
0.0
 11
18.670755
 21
-11.41361099999999
 31
0.0
  0
LINE
  5
CCA
330
19
100
AcDbEntity
  8
1
100
AcDbLine
 10
18.595062
 20
-10.64066
 30
0.0
 11
18.63157
 21
-11.028619
 31
0.0
  0
LINE
  5
CCB
330
19
100
AcDbEntity
  8
1
100
AcDbLine
 10
18.56107
 20
-10.249733
 30
0.0
 11
18.595062
 21
-10.64066
 31
0.0
  0
LINE
  5
CCC
330
19
100
AcDbEntity
  8
1
100
AcDbLine
 10
18.529529
 20
-9.855838
 30
0.0
 11
18.56107
 21
-10.249733
 31
0.0
  0
LINE
  5
CCD
330
19
100
AcDbEntity
  8
1
100
AcDbLine
 10
18.50028
 20
-9.458999
 30
0.0
 11
18.529529
 21
-9.855838
 31
0.0
  0
LINE
  5
CCE
330
19
100
AcDbEntity
  8
1
100
AcDbLine
 10
18.47323499999999
 20
-9.059236999999999
 30
0.0
 11
18.50028
 21
-9.458999
 31
0.0
  0
LINE
  5
CCF
330
19
100
AcDbEntity
  8
1
100
AcDbLine
 10
18.44823599999998
 20
-8.656551999999999
 30
0.0
 11
18.47323499999999
 21
-9.059236999999999
 31
0.0
  0
LINE
  5
CD0
330
19
100
AcDbEntity
  8
1
100
AcDbLine
 10
18.42517
 20
-8.250967999999996
 30
0.0
 11
18.44823599999998
 21
-8.656551999999999
 31
0.0
  0
LINE
  5
CD1
330
19
100
AcDbEntity
  8
1
100
AcDbLine
 10
18.403926
 20
-7.842527
 30
0.0
 11
18.42517
 21
-8.250967999999996
 31
0.0
  0
LINE
  5
CD2
330
19
100
AcDbEntity
  8
1
100
AcDbLine
 10
18.38436599999998
 20
-7.43121
 30
0.0
 11
18.403926
 21
-7.842527
 31
0.0
  0
LINE
  5
CD3
330
19
100
AcDbEntity
  8
1
100
AcDbLine
 10
18.366404
 20
-7.017038
 30
0.0
 11
18.38436599999998
 21
-7.43121
 31
0.0
  0
LINE
  5
CD4
330
19
100
AcDbEntity
  8
1
100
AcDbLine
 10
18.349881
 20
-6.60001
 30
0.0
 11
18.366404
 21
-7.017038
 31
0.0
  0
LINE
  5
CD5
330
19
100
AcDbEntity
  8
1
100
AcDbLine
 10
18.33468299999998
 20
-6.180194
 30
0.0
 11
18.349881
 21
-6.60001
 31
0.0
  0
LINE
  5
CD6
330
19
100
AcDbEntity
  8
1
100
AcDbLine
 10
18.32069999999998
 20
-5.757545999999997
 30
0.0
 11
18.33468299999998
 21
-6.180194
 31
0.0
  0
LINE
  5
CD7
330
19
100
AcDbEntity
  8
1
100
AcDbLine
 10
18.307818
 20
-5.332132999999998
 30
0.0
 11
18.32069999999998
 21
-5.757545999999997
 31
0.0
  0
LINE
  5
CD8
330
19
100
AcDbEntity
  8
1
100
AcDbLine
 10
18.295881
 20
-4.903932
 30
0.0
 11
18.307818
 21
-5.332132999999998
 31
0.0
  0
LINE
  5
CD9
330
19
100
AcDbEntity
  8
1
100
AcDbLine
 10
18.284797
 20
-4.472966
 30
0.0
 11
18.295881
 21
-4.903932
 31
0.0
  0
LINE
  5
CDA
330
19
100
AcDbEntity
  8
1
100
AcDbLine
 10
18.27443299999998
 20
-4.039257
 30
0.0
 11
18.284797
 21
-4.472966
 31
0.0
  0
LINE
  5
CDB
330
19
100
AcDbEntity
  8
1
100
AcDbLine
 10
18.264676
 20
-3.602805
 30
0.0
 11
18.27443299999998
 21
-4.039257
 31
0.0
  0
LINE
  5
CDC
330
19
100
AcDbEntity
  8
1
100
AcDbLine
 10
18.255391
 20
-3.163656
 30
0.0
 11
18.264676
 21
-3.602805
 31
0.0
  0
LINE
  5
CDD
330
19
100
AcDbEntity
  8
1
100
AcDbLine
 10
18.246466
 20
-2.72181
 30
0.0
 11
18.255391
 21
-3.163656
 31
0.0
  0
LINE
  5
CDE
330
19
100
AcDbEntity
  8
1
100
AcDbLine
 10
18.237766
 20
-2.277286
 30
0.0
 11
18.246466
 21
-2.72181
 31
0.0
  0
LINE
  5
CDF
330
19
100
AcDbEntity
  8
1
100
AcDbLine
 10
18.229178
 20
-1.830088999999999
 30
0.0
 11
18.237766
 21
-2.277286
 31
0.0
  0
LINE
  5
CE0
330
19
100
AcDbEntity
  8
1
100
AcDbLine
 10
18.220613
 20
-1.380215999999997
 30
0.0
 11
18.229178
 21
-1.830088999999999
 31
0.0
  0
LINE
  5
CE1
330
19
100
AcDbEntity
  8
1
100
AcDbLine
 10
18.21189
 20
-0.9277359999999999
 30
0.0
 11
18.220613
 21
-1.380215999999997
 31
0.0
  0
LINE
  5
CE2
330
19
100
AcDbEntity
  8
1
100
AcDbLine
 10
18.20292
 20
-0.472602
 30
0.0
 11
18.21189
 21
-0.9277359999999999
 31
0.0
  0
LINE
  5
CE3
330
19
100
AcDbEntity
  8
1
100
AcDbLine
 10
20.588588
 20
-10.90958099999999
 30
0.0
 11
20.29032999999996
 21
-11.356824
 31
0.0
  0
LINE
  5
CE4
330
19
100
AcDbEntity
  8
1
100
AcDbLine
 10
20.652009
 20
-10.423176
 30
0.0
 11
20.588588
 21
-10.90958099999999
 31
0.0
  0
LINE
  5
CE5
330
19
100
AcDbEntity
  8
1
100
AcDbLine
 10
20.712842
 20
-9.975889
 30
0.0
 11
20.652009
 21
-10.423176
 31
0.0
  0
LINE
  5
CE6
330
19
100
AcDbEntity
  8
1
100
AcDbLine
 10
20.76846199999998
 20
-9.552072
 30
0.0
 11
20.712842
 21
-9.975889
 31
0.0
  0
LINE
  5
CE7
330
19
100
AcDbEntity
  8
1
100
AcDbLine
 10
20.816279
 20
-9.136077999999999
 30
0.0
 11
20.76846199999998
 21
-9.552072
 31
0.0
  0
LINE
  5
CE8
330
19
100
AcDbEntity
  8
1
100
AcDbLine
 10
20.85364299999997
 20
-8.712260999999998
 30
0.0
 11
20.816279
 21
-9.136077999999999
 31
0.0
  0
LINE
  5
CE9
330
19
100
AcDbEntity
  8
1
100
AcDbLine
 10
20.87798999999999
 20
-8.264996
 30
0.0
 11
20.85364299999997
 21
-8.712260999999998
 31
0.0
  0
LINE
  5
CEA
330
19
100
AcDbEntity
  8
1
100
AcDbLine
 10
20.88668999999998
 20
-7.778589999999997
 30
0.0
 11
20.87798999999999
 21
-8.264996
 31
0.0
  0
LINE
  5
CEB
330
19
100
AcDbEntity
  8
1
100
AcDbLine
 10
20.874955
 20
-7.22636
 30
0.0
 11
20.88668999999998
 21
-7.778589999999997
 31
0.0
  0
LINE
  5
CEC
330
19
100
AcDbEntity
  8
1
100
AcDbLine
 10
20.842514
 20
-6.740404999999999
 30
0.0
 11
20.874955
 21
-7.22636
 31
0.0
  0
LINE
  5
CED
330
19
100
AcDbEntity
  8
1
100
AcDbLine
 10
20.793506
 20
-6.287564999999997
 30
0.0
 11
20.842514
 21
-6.740404999999999
 31
0.0
  0
LINE
  5
CEE
330
19
100
AcDbEntity
  8
1
100
AcDbLine
 10
20.732086
 20
-5.834724999999997
 30
0.0
 11
20.793506
 21
-6.287564999999997
 31
0.0
  0
LINE
  5
CEF
330
19
100
AcDbEntity
  8
1
100
AcDbLine
 10
20.662394
 20
-5.348747
 30
0.0
 11
20.732086
 21
-5.834724999999997
 31
0.0
  0
LINE
  5
CF0
330
19
100
AcDbEntity
  8
1
100
AcDbLine
 10
20.588588
 20
-4.796539
 30
0.0
 11
20.662394
 21
-5.348747
 31
0.0
  0
LINE
  5
CF1
330
19
100
AcDbEntity
  8
1
100
AcDbLine
 10
20.33455
 20
-4.260787
 30
0.0
 11
20.588588
 21
-4.796539
 31
0.0
  0
LINE
  5
CF2
330
19
100
AcDbEntity
  8
1
100
AcDbLine
 10
20.246154
 20
-3.890789999999998
 30
0.0
 11
20.33455
 21
-4.260787
 31
0.0
  0
LINE
  5
CF3
330
19
100
AcDbEntity
  8
1
100
AcDbLine
 10
19.992048
 20
-3.752755999999998
 30
0.0
 11
20.246154
 21
-3.890789999999998
 31
0.0
  0
LINE
  5
CF4
330
19
100
AcDbEntity
  8
1
100
AcDbLine
 10
19.842952
 20
-3.802462
 30
0.0
 11
19.992048
 21
-3.752755999999998
 31
0.0
  0
LINE
  5
CF5
330
19
100
AcDbEntity
  8
1
100
AcDbLine
 10
19.693901
 20
-3.951558
 30
0.0
 11
19.842952
 21
-3.802462
 31
0.0
  0
LINE
  5
CF6
330
19
100
AcDbEntity
  8
1
100
AcDbLine
 10
19.544806
 20
-4.199997999999999
 30
0.0
 11
19.693901
 21
-3.951558
 31
0.0
  0
LINE
  5
CF7
330
19
100
AcDbEntity
  8
1
100
AcDbLine
 10
19.489478
 20
-4.677613
 30
0.0
 11
19.544806
 21
-4.199997999999999
 31
0.0
  0
LINE
  5
CF8
330
19
100
AcDbEntity
  8
1
100
AcDbLine
 10
19.437638
 20
-5.113299999999997
 30
0.0
 11
19.489478
 21
-4.677613
 31
0.0
  0
LINE
  5
CF9
330
19
100
AcDbEntity
  8
1
100
AcDbLine
 10
19.39278599999997
 20
-5.520998
 30
0.0
 11
19.437638
 21
-5.113299999999997
 31
0.0
  0
LINE
  5
CFA
330
19
100
AcDbEntity
  8
1
100
AcDbLine
 10
19.35841299999998
 20
-5.914712999999997
 30
0.0
 11
19.39278599999997
 21
-5.520998
 31
0.0
  0
LINE
  5
CFB
330
19
100
AcDbEntity
  8
1
100
AcDbLine
 10
19.338045
 20
-6.308427
 30
0.0
 11
19.35841299999998
 21
-5.914712999999997
 31
0.0
  0
LINE
  5
CFC
330
19
100
AcDbEntity
  8
1
100
AcDbLine
 10
19.335122
 20
-6.716147999999997
 30
0.0
 11
19.338045
 21
-6.308427
 31
0.0
  0
LINE
  5
CFD
330
19
100
AcDbEntity
  8
1
100
AcDbLine
 10
19.35317399999998
 20
-7.151813
 30
0.0
 11
19.335122
 21
-6.716147999999997
 31
0.0
  0
LINE
  5
CFE
330
19
100
AcDbEntity
  8
1
100
AcDbLine
 10
19.395664
 20
-7.62945
 30
0.0
 11
19.35317399999998
 21
-7.151813
 31
0.0
  0
LINE
  5
CFF
330
19
100
AcDbEntity
  8
1
100
AcDbLine
 10
19.43682799999998
 20
-8.088113999999999
 30
0.0
 11
19.395664
 21
-7.62945
 31
0.0
  0
LINE
  5
D00
330
19
100
AcDbEntity
  8
1
100
AcDbLine
 10
19.474416
 20
-8.561050999999999
 30
0.0
 11
19.43682799999998
 21
-8.088113999999999
 31
0.0
  0
LINE
  5
D01
330
19
100
AcDbEntity
  8
1
100
AcDbLine
 10
19.51378199999998
 20
-9.035788999999999
 30
0.0
 11
19.474416
 21
-8.561050999999999
 31
0.0
  0
LINE
  5
D02
330
19
100
AcDbEntity
  8
1
100
AcDbLine
 10
19.56031799999998
 20
-9.499779999999999
 30
0.0
 11
19.51378199999998
 21
-9.035788999999999
 31
0.0
  0
LINE
  5
D03
330
19
100
AcDbEntity
  8
1
100
AcDbLine
 10
19.619353
 20
-9.940502999999999
 30
0.0
 11
19.56031799999998
 21
-9.499779999999999
 31
0.0
  0
LINE
  5
D04
330
19
100
AcDbEntity
  8
1
100
AcDbLine
 10
19.696306
 20
-10.34543599999999
 30
0.0
 11
19.619353
 21
-9.940502999999999
 31
0.0
  0
LINE
  5
D05
330
19
100
AcDbEntity
  8
1
100
AcDbLine
 10
19.796483
 20
-10.702078
 30
0.0
 11
19.696306
 21
-10.34543599999999
 31
0.0
  0
LINE
  5
D06
330
19
100
AcDbEntity
  8
1
100
AcDbLine
 10
19.92532399999999
 20
-10.99784199999999
 30
0.0
 11
19.796483
 21
-10.702078
 31
0.0
  0
LINE
  5
D07
330
19
100
AcDbEntity
  8
1
100
AcDbLine
 10
20.08813299999999
 20
-11.22027299999998
 30
0.0
 11
19.92532399999999
 21
-10.99784199999999
 31
0.0
  0
LINE
  5
D08
330
19
100
AcDbEntity
  8
1
100
AcDbLine
 10
20.29032999999996
 20
-11.356824
 30
0.0
 11
20.08813299999999
 21
-11.22027299999998
 31
0.0
  0
LINE
  5
D09
330
19
100
AcDbEntity
  8
1
100
AcDbLine
 10
29.98178499999999
 20
-7.480308999999999
 30
0.0
 11
30.578348
 21
-8.07667
 31
0.0
  0
LINE
  5
D0A
330
19
100
AcDbEntity
  8
1
100
AcDbLine
 10
36.631927
 20
-1.345234999999999
 30
0.0
 11
36.989672
 21
-1.516228
 31
0.0
  0
LINE
  5
D0B
330
19
100
AcDbEntity
  8
1
100
AcDbLine
 10
36.25945699999999
 20
-1.230715
 30
0.0
 11
36.631927
 21
-1.345234999999999
 31
0.0
  0
LINE
  5
D0C
330
19
100
AcDbEntity
  8
1
100
AcDbLine
 10
35.879636
 20
-1.173883
 30
0.0
 11
36.25945699999999
 21
-1.230715
 31
0.0
  0
LINE
  5
D0D
330
19
100
AcDbEntity
  8
1
100
AcDbLine
 10
35.499814
 20
-1.175950999999997
 30
0.0
 11
35.879636
 21
-1.173883
 31
0.0
  0
LINE
  5
D0E
330
19
100
AcDbEntity
  8
1
100
AcDbLine
 10
35.127367
 20
-1.238134
 30
0.0
 11
35.499814
 21
-1.175950999999997
 31
0.0
  0
LINE
  5
D0F
330
19
100
AcDbEntity
  8
1
100
AcDbLine
 10
34.769645
 20
-1.361669
 30
0.0
 11
35.127367
 21
-1.238134
 31
0.0
  0
LINE
  5
D10
330
19
100
AcDbEntity
  8
1
100
AcDbLine
 10
34.43402199999999
 20
-1.547768999999999
 30
0.0
 11
34.769645
 21
-1.361669
 31
0.0
  0
LINE
  5
D11
330
19
100
AcDbEntity
  8
1
100
AcDbLine
 10
34.12785
 20
-1.797671
 30
0.0
 11
34.43402199999999
 21
-1.547768999999999
 31
0.0
  0
LINE
  5
D12
330
19
100
AcDbEntity
  8
1
100
AcDbLine
 10
33.85847899999999
 20
-2.112588999999998
 30
0.0
 11
34.12785
 21
-1.797671
 31
0.0
  0
LINE
  5
D13
330
19
100
AcDbEntity
  8
1
100
AcDbLine
 10
35.498466
 20
-3.007230999999998
 30
0.0
 11
34.75312199999999
 21
-4.051105
 31
0.0
  0
LINE
  5
D14
330
19
100
AcDbEntity
  8
1
100
AcDbLine
 10
37.735174
 20
-5.54204
 30
0.0
 11
37.28775
 21
-5.840142
 31
0.0
  0
LINE
  5
D15
330
19
100
AcDbEntity
  8
1
100
AcDbLine
 10
34.15684999999999
 20
-1.814486999999999
 30
0.0
 11
37.735174
 21
-5.3929
 31
0.0
  0
LINE
  5
D16
330
19
100
AcDbEntity
  8
1
100
AcDbLine
 10
38.010906
 20
-5.163949999999998
 30
0.0
 11
37.735174
 21
-5.54204
 31
0.0
  0
LINE
  5
D17
330
19
100
AcDbEntity
  8
1
100
AcDbLine
 10
38.220679
 20
-4.788311
 30
0.0
 11
38.010906
 21
-5.163949999999998
 31
0.0
  0
LINE
  5
D18
330
19
100
AcDbEntity
  8
1
100
AcDbLine
 10
38.367302
 20
-4.41755
 30
0.0
 11
38.220679
 21
-4.788311
 31
0.0
  0
LINE
  5
D19
330
19
100
AcDbEntity
  8
1
100
AcDbLine
 10
38.45369799999996
 20
-4.054139
 30
0.0
 11
38.367302
 21
-4.41755
 31
0.0
  0
LINE
  5
D1A
330
19
100
AcDbEntity
  8
1
100
AcDbLine
 10
38.48265399999997
 20
-3.700486
 30
0.0
 11
38.45369799999996
 21
-4.054139
 31
0.0
  0
LINE
  5
D1B
330
19
100
AcDbEntity
  8
1
100
AcDbLine
 10
38.45707
 20
-3.359041
 30
0.0
 11
38.48265399999997
 21
-3.700486
 31
0.0
  0
LINE
  5
D1C
330
19
100
AcDbEntity
  8
1
100
AcDbLine
 10
38.379756
 20
-3.032274999999998
 30
0.0
 11
38.45707
 21
-3.359041
 31
0.0
  0
LINE
  5
D1D
330
19
100
AcDbEntity
  8
1
100
AcDbLine
 10
38.25359199999999
 20
-2.722595999999998
 30
0.0
 11
38.379756
 21
-3.032274999999998
 31
0.0
  0
LINE
  5
D1E
330
19
100
AcDbEntity
  8
1
100
AcDbLine
 10
38.081407
 20
-2.432452999999999
 30
0.0
 11
38.25359199999999
 21
-2.722595999999998
 31
0.0
  0
LINE
  5
D1F
330
19
100
AcDbEntity
  8
1
100
AcDbLine
 10
37.86608199999999
 20
-2.164318
 30
0.0
 11
38.081407
 21
-2.432452999999999
 31
0.0
  0
LINE
  5
D20
330
19
100
AcDbEntity
  8
1
100
AcDbLine
 10
37.610447
 20
-1.920598
 30
0.0
 11
37.86608199999999
 21
-2.164318
 31
0.0
  0
LINE
  5
D21
330
19
100
AcDbEntity
  8
1
100
AcDbLine
 10
37.317359
 20
-1.703743999999999
 30
0.0
 11
37.610447
 21
-1.920598
 31
0.0
  0
LINE
  5
D22
330
19
100
AcDbEntity
  8
1
100
AcDbLine
 10
36.989672
 20
-1.516228
 30
0.0
 11
37.317359
 21
-1.703743999999999
 31
0.0
  0
LINE
  5
D23
330
19
100
AcDbEntity
  8
1
100
AcDbLine
 10
35.349595
 20
-10.61147899999999
 30
0.0
 11
36.095006
 21
-10.462361
 31
0.0
  0
LINE
  5
D24
330
19
100
AcDbEntity
  8
1
100
AcDbLine
 10
34.75312199999999
 20
-11.058722
 30
0.0
 11
35.349595
 21
-10.61147899999999
 31
0.0
  0
LINE
  5
D25
330
19
100
AcDbEntity
  8
1
100
AcDbLine
 10
34.604003
 20
-11.953365
 30
0.0
 11
34.75312199999999
 21
-11.058722
 31
0.0
  0
LINE
  5
D26
330
19
100
AcDbEntity
  8
1
100
AcDbLine
 10
35.200364
 20
-12.549748
 30
0.0
 11
34.604003
 21
-11.953365
 31
0.0
  0
LINE
  5
D27
330
19
100
AcDbEntity
  8
1
100
AcDbLine
 10
36.24423699999999
 20
-12.69888899999999
 30
0.0
 11
35.200364
 21
-12.549748
 31
0.0
  0
LINE
  5
D28
330
19
100
AcDbEntity
  8
1
100
AcDbLine
 10
36.69157
 20
-11.953365
 30
0.0
 11
36.24423699999999
 21
-12.69888899999999
 31
0.0
  0
LINE
  5
D29
330
19
100
AcDbEntity
  8
1
100
AcDbLine
 10
36.84053
 20
-11.058722
 30
0.0
 11
36.69157
 21
-11.953365
 31
0.0
  0
LINE
  5
D2A
330
19
100
AcDbEntity
  8
1
100
AcDbLine
 10
36.095006
 20
-10.462361
 30
0.0
 11
36.84053
 21
-11.058722
 31
0.0
  0
LINE
  5
D2B
330
19
100
AcDbEntity
  8
1
100
AcDbLine
 10
36.393108
 20
-11.804246
 30
0.0
 11
36.542338
 21
-10.90958099999999
 31
0.0
  0
LINE
  5
D2C
330
19
100
AcDbEntity
  8
1
100
AcDbLine
 10
35.945888
 20
-12.102595
 30
0.0
 11
36.393108
 21
-11.804246
 31
0.0
  0
LINE
  5
D2D
330
19
100
AcDbEntity
  8
1
100
AcDbLine
 10
35.200364
 20
-12.102595
 30
0.0
 11
35.945888
 21
-12.102595
 31
0.0
  0
LINE
  5
D2E
330
19
100
AcDbEntity
  8
1
100
AcDbLine
 10
34.75312199999999
 20
-11.50605399999999
 30
0.0
 11
35.200364
 21
-12.102595
 31
0.0
  0
LINE
  5
D2F
330
19
100
AcDbEntity
  8
1
100
AcDbLine
 10
36.131696
 20
-9.988792999999999
 30
0.0
 11
35.64778599999999
 21
-9.865978
 31
0.0
  0
LINE
  5
D30
330
19
100
AcDbEntity
  8
1
100
AcDbLine
 10
36.536876
 20
-10.20276999999998
 30
0.0
 11
36.131696
 21
-9.988792999999999
 31
0.0
  0
LINE
  5
D31
330
19
100
AcDbEntity
  8
1
100
AcDbLine
 10
36.85919
 20
-10.499613
 30
0.0
 11
36.536876
 21
-10.20276999999998
 31
0.0
  0
LINE
  5
D32
330
19
100
AcDbEntity
  8
1
100
AcDbLine
 10
37.09452399999999
 20
-10.871003
 30
0.0
 11
36.85919
 21
-10.499613
 31
0.0
  0
LINE
  5
D33
330
19
100
AcDbEntity
  8
1
100
AcDbLine
 10
37.238764
 20
-11.308646
 30
0.0
 11
37.09452399999999
 21
-10.871003
 31
0.0
  0
LINE
  5
D34
330
19
100
AcDbEntity
  8
1
100
AcDbLine
 10
37.28775
 20
-11.804246
 30
0.0
 11
37.238764
 21
-11.308646
 31
0.0
  0
LINE
  5
D35
330
19
100
AcDbEntity
  8
1
100
AcDbLine
 10
37.15455
 20
-12.235662
 30
0.0
 11
37.28775
 21
-11.804246
 31
0.0
  0
LINE
  5
D36
330
19
100
AcDbEntity
  8
1
100
AcDbLine
 10
36.917799
 20
-12.62153099999999
 30
0.0
 11
37.15455
 21
-12.235662
 31
0.0
  0
LINE
  5
D37
330
19
100
AcDbEntity
  8
1
100
AcDbLine
 10
36.59825
 20
-12.941102
 30
0.0
 11
36.917799
 21
-12.62153099999999
 31
0.0
  0
LINE
  5
D38
330
19
100
AcDbEntity
  8
1
100
AcDbLine
 10
36.21656199999996
 20
-13.173738
 30
0.0
 11
36.59825
 21
-12.941102
 31
0.0
  0
LINE
  5
D39
330
19
100
AcDbEntity
  8
1
100
AcDbLine
 10
35.79344199999999
 20
-13.298712
 30
0.0
 11
36.21656199999996
 21
-13.173738
 31
0.0
  0
LINE
  5
D3A
330
19
100
AcDbEntity
  8
1
100
AcDbLine
 10
35.349595
 20
-13.295339
 30
0.0
 11
35.79344199999999
 21
-13.298712
 31
0.0
  0
LINE
  5
D3B
330
19
100
AcDbEntity
  8
1
100
AcDbLine
 10
34.922226
 20
-13.24275599999999
 30
0.0
 11
35.349595
 21
-13.295339
 31
0.0
  0
LINE
  5
D3C
330
19
100
AcDbEntity
  8
1
100
AcDbLine
 10
34.541865
 20
-13.093638
 30
0.0
 11
34.922226
 21
-13.24275599999999
 31
0.0
  0
LINE
  5
D3D
330
19
100
AcDbEntity
  8
1
100
AcDbLine
 10
34.218876
 20
-12.861046
 30
0.0
 11
34.541865
 21
-13.093638
 31
0.0
  0
LINE
  5
D3E
330
19
100
AcDbEntity
  8
1
100
AcDbLine
 10
33.963737
 20
-12.558043
 30
0.0
 11
34.218876
 21
-12.861046
 31
0.0
  0
LINE
  5
D3F
330
19
100
AcDbEntity
  8
1
100
AcDbLine
 10
33.786854
 20
-12.197646
 30
0.0
 11
33.963737
 21
-12.558043
 31
0.0
  0
LINE
  5
D40
330
19
100
AcDbEntity
  8
1
100
AcDbLine
 10
33.69863699999999
 20
-11.79289299999999
 30
0.0
 11
33.786854
 21
-12.197646
 31
0.0
  0
LINE
  5
D41
330
19
100
AcDbEntity
  8
1
100
AcDbLine
 10
33.709518
 20
-11.356824
 30
0.0
 11
33.69863699999999
 21
-11.79289299999999
 31
0.0
  0
LINE
  5
D42
330
19
100
AcDbEntity
  8
1
100
AcDbLine
 10
33.84269699999999
 20
-10.925453
 30
0.0
 11
33.709518
 21
-11.356824
 31
0.0
  0
LINE
  5
D43
330
19
100
AcDbEntity
  8
1
100
AcDbLine
 10
34.079425
 20
-10.53963
 30
0.0
 11
33.84269699999999
 21
-10.925453
 31
0.0
  0
LINE
  5
D44
330
19
100
AcDbEntity
  8
1
100
AcDbLine
 10
34.399019
 20
-10.220058
 30
0.0
 11
34.079425
 21
-10.53963
 31
0.0
  0
LINE
  5
D45
330
19
100
AcDbEntity
  8
1
100
AcDbLine
 10
34.780751
 20
-9.987443999999999
 30
0.0
 11
34.399019
 21
-10.220058
 31
0.0
  0
LINE
  5
D46
330
19
100
AcDbEntity
  8
1
100
AcDbLine
 10
35.20391599999999
 20
-9.862515
 30
0.0
 11
34.780751
 21
-9.987443999999999
 31
0.0
  0
LINE
  5
D47
330
19
100
AcDbEntity
  8
1
100
AcDbLine
 10
35.64778599999999
 20
-9.865978
 30
0.0
 11
35.20391599999999
 21
-9.862515
 31
0.0
  0
LINE
  5
D48
330
19
100
AcDbEntity
  8
1
100
AcDbLine
 10
36.047931
 20
-8.737732000000001
 30
0.0
 11
35.64778599999999
 21
-8.673233999999997
 31
0.0
  0
LINE
  5
D49
330
19
100
AcDbEntity
  8
1
100
AcDbLine
 10
36.426358
 20
-8.854027
 30
0.0
 11
36.047931
 21
-8.737732000000001
 31
0.0
  0
LINE
  5
D4A
330
19
100
AcDbEntity
  8
1
100
AcDbLine
 10
36.779944
 20
-9.017960999999999
 30
0.0
 11
36.426358
 21
-8.854027
 31
0.0
  0
LINE
  5
D4B
330
19
100
AcDbEntity
  8
1
100
AcDbLine
 10
37.105562
 20
-9.225374
 30
0.0
 11
36.779944
 21
-9.017960999999999
 31
0.0
  0
LINE
  5
D4C
330
19
100
AcDbEntity
  8
1
100
AcDbLine
 10
37.400134
 20
-9.472149999999999
 30
0.0
 11
37.105562
 21
-9.225374
 31
0.0
  0
LINE
  5
D4D
330
19
100
AcDbEntity
  8
1
100
AcDbLine
 10
37.66053499999999
 20
-9.754132999999999
 30
0.0
 11
37.400134
 21
-9.472149999999999
 31
0.0
  0
LINE
  5
D4E
330
19
100
AcDbEntity
  8
1
100
AcDbLine
 10
37.883662
 20
-10.06718599999999
 30
0.0
 11
37.66053499999999
 21
-9.754132999999999
 31
0.0
  0
LINE
  5
D4F
330
19
100
AcDbEntity
  8
1
100
AcDbLine
 10
38.066434
 20
-10.407147
 30
0.0
 11
37.883662
 21
-10.06718599999999
 31
0.0
  0
LINE
  5
D50
330
19
100
AcDbEntity
  8
1
100
AcDbLine
 10
38.20570599999999
 20
-10.769882
 30
0.0
 11
38.066434
 21
-10.407147
 31
0.0
  0
LINE
  5
D51
330
19
100
AcDbEntity
  8
1
100
AcDbLine
 10
38.298419
 20
-11.151278
 30
0.0
 11
38.20570599999999
 21
-10.769882
 31
0.0
  0
LINE
  5
D52
330
19
100
AcDbEntity
  8
1
100
AcDbLine
 10
38.34142599999999
 20
-11.54715
 30
0.0
 11
38.298419
 21
-11.151278
 31
0.0
  0
LINE
  5
D53
330
19
100
AcDbEntity
  8
1
100
AcDbLine
 10
38.33164699999999
 20
-11.953365
 30
0.0
 11
38.34142599999999
 21
-11.54715
 31
0.0
  0
LINE
  5
D54
330
19
100
AcDbEntity
  8
1
100
AcDbLine
 10
38.26708099999999
 20
-12.353576
 30
0.0
 11
38.33164699999999
 21
-11.953365
 31
0.0
  0
LINE
  5
D55
330
19
100
AcDbEntity
  8
1
100
AcDbLine
 10
38.15074
 20
-12.732026
 30
0.0
 11
38.26708099999999
 21
-12.353576
 31
0.0
  0
LINE
  5
D56
330
19
100
AcDbEntity
  8
1
100
AcDbLine
 10
37.986783
 20
-13.08563399999999
 30
0.0
 11
38.15074
 21
-12.732026
 31
0.0
  0
LINE
  5
D57
330
19
100
AcDbEntity
  8
1
100
AcDbLine
 10
37.77935
 20
-13.411275
 30
0.0
 11
37.986783
 21
-13.08563399999999
 31
0.0
  0
LINE
  5
D58
330
19
100
AcDbEntity
  8
1
100
AcDbLine
 10
37.53257199999996
 20
-13.705848
 30
0.0
 11
37.77935
 21
-13.411275
 31
0.0
  0
LINE
  5
D59
330
19
100
AcDbEntity
  8
1
100
AcDbLine
 10
37.25059
 20
-13.966248
 30
0.0
 11
37.53257199999996
 21
-13.705848
 31
0.0
  0
LINE
  5
D5A
330
19
100
AcDbEntity
  8
1
100
AcDbLine
 10
36.93756
 20
-14.189398
 30
0.0
 11
37.25059
 21
-13.966248
 31
0.0
  0
LINE
  5
D5B
330
19
100
AcDbEntity
  8
1
100
AcDbLine
 10
36.597576
 20
-14.372148
 30
0.0
 11
36.93756
 21
-14.189398
 31
0.0
  0
LINE
  5
D5C
330
19
100
AcDbEntity
  8
1
100
AcDbLine
 10
36.23481799999999
 20
-14.511397
 30
0.0
 11
36.597576
 21
-14.372148
 31
0.0
  0
LINE
  5
D5D
330
19
100
AcDbEntity
  8
1
100
AcDbLine
 10
35.853423
 20
-14.604087
 30
0.0
 11
36.23481799999999
 21
-14.511397
 31
0.0
  0
LINE
  5
D5E
330
19
100
AcDbEntity
  8
1
100
AcDbLine
 10
35.457505
 20
-14.647049
 30
0.0
 11
35.853423
 21
-14.604087
 31
0.0
  0
LINE
  5
D5F
330
19
100
AcDbEntity
  8
1
100
AcDbLine
 10
35.051223
 20
-14.63722399999999
 30
0.0
 11
35.457505
 21
-14.647049
 31
0.0
  0
LINE
  5
D60
330
19
100
AcDbEntity
  8
1
100
AcDbLine
 10
34.651034
 20
-14.572681
 30
0.0
 11
35.051223
 21
-14.63722399999999
 31
0.0
  0
LINE
  5
D61
330
19
100
AcDbEntity
  8
1
100
AcDbLine
 10
34.272584
 20
-14.456363
 30
0.0
 11
34.651034
 21
-14.572681
 31
0.0
  0
LINE
  5
D62
330
19
100
AcDbEntity
  8
1
100
AcDbLine
 10
33.918976
 20
-14.292407
 30
0.0
 11
34.272584
 21
-14.456363
 31
0.0
  0
LINE
  5
D63
330
19
100
AcDbEntity
  8
1
100
AcDbLine
 10
33.593334
 20
-14.08495
 30
0.0
 11
33.918976
 21
-14.292407
 31
0.0
  0
LINE
  5
D64
330
19
100
AcDbEntity
  8
1
100
AcDbLine
 10
33.29876199999999
 20
-13.83815
 30
0.0
 11
33.593334
 21
-14.08495
 31
0.0
  0
LINE
  5
D65
330
19
100
AcDbEntity
  8
1
100
AcDbLine
 10
33.038362
 20
-13.556167
 30
0.0
 11
33.29876199999999
 21
-13.83815
 31
0.0
  0
LINE
  5
D66
330
19
100
AcDbEntity
  8
1
100
AcDbLine
 10
32.815258
 20
-13.243093
 30
0.0
 11
33.038362
 21
-13.556167
 31
0.0
  0
LINE
  5
D67
330
19
100
AcDbEntity
  8
1
100
AcDbLine
 10
32.632507
 20
-12.90310899999999
 30
0.0
 11
32.815258
 21
-13.243093
 31
0.0
  0
LINE
  5
D68
330
19
100
AcDbEntity
  8
1
100
AcDbLine
 10
32.493281
 20
-12.54035
 30
0.0
 11
32.632507
 21
-12.90310899999999
 31
0.0
  0
LINE
  5
D69
330
19
100
AcDbEntity
  8
1
100
AcDbLine
 10
32.400635
 20
-12.158955
 30
0.0
 11
32.493281
 21
-12.54035
 31
0.0
  0
LINE
  5
D6A
330
19
100
AcDbEntity
  8
1
100
AcDbLine
 10
32.35767399999998
 20
-11.763061
 30
0.0
 11
32.400635
 21
-12.158955
 31
0.0
  0
LINE
  5
D6B
330
19
100
AcDbEntity
  8
1
100
AcDbLine
 10
32.367542
 20
-11.356824
 30
0.0
 11
32.35767399999998
 21
-11.763061
 31
0.0
  0
LINE
  5
D6C
330
19
100
AcDbEntity
  8
1
100
AcDbLine
 10
32.43208599999999
 20
-10.956657
 30
0.0
 11
32.367542
 21
-11.356824
 31
0.0
  0
LINE
  5
D6D
330
19
100
AcDbEntity
  8
1
100
AcDbLine
 10
32.548382
 20
-10.578252
 30
0.0
 11
32.43208599999999
 21
-10.956657
 31
0.0
  0
LINE
  5
D6E
330
19
100
AcDbEntity
  8
1
100
AcDbLine
 10
32.71231599999998
 20
-10.224666
 30
0.0
 11
32.548382
 21
-10.578252
 31
0.0
  0
LINE
  5
D6F
330
19
100
AcDbEntity
  8
1
100
AcDbLine
 10
32.91975
 20
-9.899047999999996
 30
0.0
 11
32.71231599999998
 21
-10.224666
 31
0.0
  0
LINE
  5
D70
330
19
100
AcDbEntity
  8
1
100
AcDbLine
 10
33.166527
 20
-9.604497999999999
 30
0.0
 11
32.91975
 21
-9.899047999999996
 31
0.0
  0
LINE
  5
D71
330
19
100
AcDbEntity
  8
1
100
AcDbLine
 10
33.44848799999999
 20
-9.344097999999997
 30
0.0
 11
33.166527
 21
-9.604497999999999
 31
0.0
  0
LINE
  5
D72
330
19
100
AcDbEntity
  8
1
100
AcDbLine
 10
33.761539
 20
-9.120992999999996
 30
0.0
 11
33.44848799999999
 21
-9.344097999999997
 31
0.0
  0
LINE
  5
D73
330
19
100
AcDbEntity
  8
1
100
AcDbLine
 10
34.101502
 20
-8.938242
 30
0.0
 11
33.761539
 21
-9.120992999999996
 31
0.0
  0
LINE
  5
D74
330
19
100
AcDbEntity
  8
1
100
AcDbLine
 10
34.464259
 20
-8.798994
 30
0.0
 11
34.101502
 21
-8.938242
 31
0.0
  0
LINE
  5
D75
330
19
100
AcDbEntity
  8
1
100
AcDbLine
 10
34.84565399999999
 20
-8.706348
 30
0.0
 11
34.464259
 21
-8.798994
 31
0.0
  0
LINE
  5
D76
330
19
100
AcDbEntity
  8
1
100
AcDbLine
 10
35.241527
 20
-8.663386
 30
0.0
 11
34.84565399999999
 21
-8.706348
 31
0.0
  0
LINE
  5
D77
330
19
100
AcDbEntity
  8
1
100
AcDbLine
 10
35.64778599999999
 20
-8.673233999999997
 30
0.0
 11
35.241527
 21
-8.663386
 31
0.0
  0
LINE
  5
D78
330
19
100
AcDbEntity
  8
1
100
AcDbLine
 10
38.480518
 20
-24.626984
 30
0.0
 11
37.735174
 21
-19.110213
 31
0.0
  0
LINE
  5
D79
330
19
100
AcDbEntity
  8
1
100
AcDbLine
 10
47.87404999999998
 20
-14.63722399999999
 30
0.0
 11
43.40108599999999
 21
-14.63722399999999
 31
0.0
  0
LINE
  5
D7A
330
19
100
AcDbEntity
  8
1
100
AcDbLine
 10
39.077058
 20
-25.372395
 30
0.0
 11
38.480518
 21
-24.626984
 31
0.0
  0
LINE
  5
D7B
330
19
100
AcDbEntity
  8
1
100
AcDbLine
 10
48.619395
 20
-25.81981799999999
 30
0.0
 11
39.077058
 21
-25.372395
 31
0.0
  0
LINE
  5
D7C
330
19
100
AcDbEntity
  8
1
100
AcDbLine
 10
49.514038
 20
-25.670767
 30
0.0
 11
48.619395
 21
-25.81981799999999
 31
0.0
  0
LINE
  5
D7D
330
19
100
AcDbEntity
  8
1
100
AcDbLine
 10
49.812409
 20
-25.223525
 30
0.0
 11
49.514038
 21
-25.670767
 31
0.0
  0
LINE
  5
D7E
330
19
100
AcDbEntity
  8
1
100
AcDbLine
 10
48.619395
 20
-15.5318
 30
0.0
 11
49.812409
 21
-25.223525
 31
0.0
  0
LINE
  5
D7F
330
19
100
AcDbEntity
  8
1
100
AcDbLine
 10
48.023191
 20
-14.63722399999999
 30
0.0
 11
48.619395
 21
-15.5318
 31
0.0
  0
LINE
  5
D80
330
19
100
AcDbEntity
  8
1
100
AcDbLine
 10
43.699164
 20
-14.63722399999999
 30
0.0
 11
48.023191
 21
-14.63722399999999
 31
0.0
  0
LINE
  5
D81
330
19
100
AcDbEntity
  8
1
100
AcDbLine
 10
44.444599
 20
-17.172034
 30
0.0
 11
43.699164
 21
-14.63722399999999
 31
0.0
  0
LINE
  5
D82
330
19
100
AcDbEntity
  8
1
100
AcDbLine
 10
44.295728
 20
-17.917468
 30
0.0
 11
44.444599
 21
-17.172034
 31
0.0
  0
LINE
  5
D83
330
19
100
AcDbEntity
  8
1
100
AcDbLine
 10
44.444599
 20
-19.70666299999998
 30
0.0
 11
44.295728
 21
-17.917468
 31
0.0
  0
LINE
  5
D84
330
19
100
AcDbEntity
  8
1
100
AcDbLine
 10
44.146497
 20
-20.30295699999999
 30
0.0
 11
44.444599
 21
-19.70666299999998
 31
0.0
  0
LINE
  5
D85
330
19
100
AcDbEntity
  8
1
100
AcDbLine
 10
43.848395
 20
-20.899498
 30
0.0
 11
44.146497
 21
-20.30295699999999
 31
0.0
  0
LINE
  5
D86
330
19
100
AcDbEntity
  8
1
100
AcDbLine
 10
41.61177799999999
 20
-20.899498
 30
0.0
 11
43.848395
 21
-20.899498
 31
0.0
  0
LINE
  5
D87
330
19
100
AcDbEntity
  8
1
100
AcDbLine
 10
40.56790399999999
 20
-20.750379
 30
0.0
 11
41.61177799999999
 21
-20.899498
 31
0.0
  0
LINE
  5
D88
330
19
100
AcDbEntity
  8
1
100
AcDbLine
 10
37.735174
 20
-19.110213
 30
0.0
 11
40.56790399999999
 21
-20.750379
 31
0.0
  0
LINE
  5
D89
330
19
100
AcDbEntity
  8
1
100
AcDbLine
 10
38.480518
 20
-24.626984
 30
0.0
 11
37.735174
 21
-19.110213
 31
0.0
  0
LINE
  5
D8A
330
19
100
AcDbEntity
  8
1
100
AcDbLine
 10
36.393108
 20
-4.796539
 30
0.0
 11
40.56790399999999
 21
-9.716836999999999
 31
0.0
  0
LINE
  5
D8B
330
19
100
AcDbEntity
  8
1
100
AcDbLine
 10
35.951464
 20
-4.404466
 30
0.0
 11
36.393108
 21
-4.796539
 31
0.0
  0
LINE
  5
D8C
330
19
100
AcDbEntity
  8
1
100
AcDbLine
 10
35.642234
 20
-4.144963999999998
 30
0.0
 11
35.951464
 21
-4.404466
 31
0.0
  0
LINE
  5
D8D
330
19
100
AcDbEntity
  8
1
100
AcDbLine
 10
35.200364
 20
-4.051105
 30
0.0
 11
35.642234
 21
-4.144963999999998
 31
0.0
  0
LINE
  5
D8E
330
19
100
AcDbEntity
  8
1
100
AcDbLine
 10
34.65370899999999
 20
-4.039953999999998
 30
0.0
 11
35.200364
 21
-4.051105
 31
0.0
  0
LINE
  5
D8F
330
19
100
AcDbEntity
  8
1
100
AcDbLine
 10
34.20646599999999
 20
-4.260787
 30
0.0
 11
34.65370899999999
 21
-4.039953999999998
 31
0.0
  0
LINE
  5
D90
330
19
100
AcDbEntity
  8
1
100
AcDbLine
 10
33.85847899999999
 20
-4.647397999999999
 30
0.0
 11
34.20646599999999
 21
-4.260787
 31
0.0
  0
LINE
  5
D91
330
19
100
AcDbEntity
  8
1
100
AcDbLine
 10
29.087142
 20
-9.567695999999999
 30
0.0
 11
33.85847899999999
 21
-4.647397999999999
 31
0.0
  0
LINE
  5
D92
330
19
100
AcDbEntity
  8
1
100
AcDbLine
 10
28.695158
 20
-9.876970999999999
 30
0.0
 11
29.087142
 21
-9.567695999999999
 31
0.0
  0
LINE
  5
D93
330
19
100
AcDbEntity
  8
1
100
AcDbLine
 10
28.435567
 20
-10.25249799999998
 30
0.0
 11
28.695158
 21
-9.876970999999999
 31
0.0
  0
LINE
  5
D94
330
19
100
AcDbEntity
  8
1
100
AcDbLine
 10
28.341618
 20
-10.76062
 30
0.0
 11
28.435567
 21
-10.25249799999998
 31
0.0
  0
LINE
  5
D95
330
19
100
AcDbEntity
  8
1
100
AcDbLine
 10
28.280986
 20
-11.163732
 30
0.0
 11
28.341618
 21
-10.76062
 31
0.0
  0
LINE
  5
D96
330
19
100
AcDbEntity
  8
1
100
AcDbLine
 10
28.35279099999999
 20
-11.500546
 30
0.0
 11
28.280986
 21
-11.163732
 31
0.0
  0
LINE
  5
D97
330
19
100
AcDbEntity
  8
1
100
AcDbLine
 10
28.490938
 20
-11.804246
 30
0.0
 11
28.35279099999999
 21
-11.500546
 31
0.0
  0
LINE
  5
D98
330
19
100
AcDbEntity
  8
1
100
AcDbLine
 10
32.665734
 20
-16.12816099999999
 30
0.0
 11
28.490938
 21
-11.804246
 31
0.0
  0
LINE
  5
D99
330
19
100
AcDbEntity
  8
1
100
AcDbLine
 10
40.56790399999999
 20
-20.899498
 30
0.0
 11
32.665734
 21
-16.12816099999999
 31
0.0
  0
LINE
  5
D9A
330
19
100
AcDbEntity
  8
1
100
AcDbLine
 10
42.953753
 20
-20.899498
 30
0.0
 11
40.56790399999999
 21
-20.899498
 31
0.0
  0
LINE
  5
D9B
330
19
100
AcDbEntity
  8
1
100
AcDbLine
 10
43.31819699999999
 20
-20.960197
 30
0.0
 11
42.953753
 21
-20.899498
 31
0.0
  0
LINE
  5
D9C
330
19
100
AcDbEntity
  8
1
100
AcDbLine
 10
43.58320599999998
 20
-20.888414
 30
0.0
 11
43.31819699999999
 21
-20.960197
 31
0.0
  0
LINE
  5
D9D
330
19
100
AcDbEntity
  8
1
100
AcDbLine
 10
43.848395
 20
-20.750379
 30
0.0
 11
43.58320599999998
 21
-20.888414
 31
0.0
  0
LINE
  5
D9E
330
19
100
AcDbEntity
  8
1
100
AcDbLine
 10
44.201778
 20
-20.551442
 30
0.0
 11
43.848395
 21
-20.750379
 31
0.0
  0
LINE
  5
D9F
330
19
100
AcDbEntity
  8
1
100
AcDbLine
 10
44.38943
 20
-20.25325
 30
0.0
 11
44.201778
 21
-20.551442
 31
0.0
  0
LINE
  5
DA0
330
19
100
AcDbEntity
  8
1
100
AcDbLine
 10
44.444599
 20
-19.855714
 30
0.0
 11
44.38943
 21
-20.25325
 31
0.0
  0
LINE
  5
DA1
330
19
100
AcDbEntity
  8
1
100
AcDbLine
 10
44.444599
 20
-17.32090499999999
 30
0.0
 11
44.444599
 21
-19.855714
 31
0.0
  0
LINE
  5
DA2
330
19
100
AcDbEntity
  8
1
100
AcDbLine
 10
43.848395
 20
-15.084378
 30
0.0
 11
44.444599
 21
-17.32090499999999
 31
0.0
  0
LINE
  5
DA3
330
19
100
AcDbEntity
  8
1
100
AcDbLine
 10
40.56790399999999
 20
-9.716836999999999
 30
0.0
 11
43.848395
 21
-15.084378
 31
0.0
  0
LINE
  5
DA4
330
19
100
AcDbEntity
  8
1
100
AcDbLine
 10
25.210718
 20
0.8621200000000001
 30
0.0
 11
25.210718
 21
-23.732318
 31
0.0
  0
LINE
  5
DA5
330
19
100
AcDbEntity
  8
1
100
AcDbLine
 10
35.498466
 20
13.146289
 30
0.0
 11
25.210718
 21
0.5965520000000001
 31
0.0
  0
LINE
  5
DA6
330
19
100
AcDbEntity
  8
1
100
AcDbLine
 10
25.956129
 20
-10.16407899999999
 30
0.0
 11
33.85847899999999
 21
-2.112588999999998
 31
0.0
  0
LINE
  5
DA7
330
19
100
AcDbEntity
  8
1
100
AcDbLine
 10
31.920233
 20
-6.436706
 30
0.0
 11
31.472901
 21
-5.840142
 31
0.0
  0
LINE
  5
DA8
330
19
100
AcDbEntity
  8
1
100
AcDbLine
 10
49.805822
 20
-24.873423
 30
0.0
 11
49.812409
 21
-24.92515299999999
 31
0.0
  0
LINE
  5
DA9
330
19
100
AcDbEntity
  8
1
100
AcDbLine
 10
49.786915
 20
-24.72443999999999
 30
0.0
 11
49.805822
 21
-24.873423
 31
0.0
  0
LINE
  5
DAA
330
19
100
AcDbEntity
  8
1
100
AcDbLine
 10
49.756813
 20
-24.48742
 30
0.0
 11
49.786915
 21
-24.72443999999999
 31
0.0
  0
LINE
  5
DAB
330
19
100
AcDbEntity
  8
1
100
AcDbLine
 10
49.716706
 20
-24.171648
 30
0.0
 11
49.756813
 21
-24.48742
 31
0.0
  0
LINE
  5
DAC
330
19
100
AcDbEntity
  8
1
100
AcDbLine
 10
49.667765
 20
-23.786409
 30
0.0
 11
49.716706
 21
-24.171648
 31
0.0
  0
LINE
  5
DAD
330
19
100
AcDbEntity
  8
1
100
AcDbLine
 10
49.61120199999999
 20
-23.340942
 30
0.0
 11
49.667765
 21
-23.786409
 31
0.0
  0
LINE
  5
DAE
330
19
100
AcDbEntity
  8
1
100
AcDbLine
 10
49.548142
 20
-22.844533
 30
0.0
 11
49.61120199999999
 21
-23.340942
 31
0.0
  0
LINE
  5
DAF
330
19
100
AcDbEntity
  8
1
100
AcDbLine
 10
49.47979799999998
 20
-22.306421
 30
0.0
 11
49.548142
 21
-22.844533
 31
0.0
  0
LINE
  5
DB0
330
19
100
AcDbEntity
  8
1
100
AcDbLine
 10
49.407342
 20
-21.735869
 30
0.0
 11
49.47979799999998
 21
-22.306421
 31
0.0
  0
LINE
  5
DB1
330
19
100
AcDbEntity
  8
1
100
AcDbLine
 10
49.331939
 20
-21.142183
 30
0.0
 11
49.407342
 21
-21.735869
 31
0.0
  0
LINE
  5
DB2
330
19
100
AcDbEntity
  8
1
100
AcDbLine
 10
49.254783
 20
-20.534582
 30
0.0
 11
49.331939
 21
-21.142183
 31
0.0
  0
LINE
  5
DB3
330
19
100
AcDbEntity
  8
1
100
AcDbLine
 10
49.177021
 20
-19.92237099999998
 30
0.0
 11
49.254783
 21
-20.534582
 31
0.0
  0
LINE
  5
DB4
330
19
100
AcDbEntity
  8
1
100
AcDbLine
 10
49.099842
 20
-19.31477
 30
0.0
 11
49.177021
 21
-19.92237099999998
 31
0.0
  0
LINE
  5
DB5
330
19
100
AcDbEntity
  8
1
100
AcDbLine
 10
49.024441
 20
-18.721084
 30
0.0
 11
49.099842
 21
-19.31477
 31
0.0
  0
LINE
  5
DB6
330
19
100
AcDbEntity
  8
1
100
AcDbLine
 10
48.951983
 20
-18.150532
 30
0.0
 11
49.024441
 21
-18.721084
 31
0.0
  0
LINE
  5
DB7
330
19
100
AcDbEntity
  8
1
100
AcDbLine
 10
48.88364
 20
-17.61242
 30
0.0
 11
48.951983
 21
-18.150532
 31
0.0
  0
LINE
  5
DB8
330
19
100
AcDbEntity
  8
1
100
AcDbLine
 10
48.820602
 20
-17.116011
 30
0.0
 11
48.88364
 21
-17.61242
 31
0.0
  0
LINE
  5
DB9
330
19
100
AcDbEntity
  8
1
100
AcDbLine
 10
48.764018
 20
-16.670544
 30
0.0
 11
48.820602
 21
-17.116011
 31
0.0
  0
LINE
  5
DBA
330
19
100
AcDbEntity
  8
1
100
AcDbLine
 10
48.715098
 20
-16.28530499999999
 30
0.0
 11
48.764018
 21
-16.670544
 31
0.0
  0
LINE
  5
DBB
330
19
100
AcDbEntity
  8
1
100
AcDbLine
 10
48.67499099999999
 20
-15.969533
 30
0.0
 11
48.715098
 21
-16.28530499999999
 31
0.0
  0
LINE
  5
DBC
330
19
100
AcDbEntity
  8
1
100
AcDbLine
 10
48.644889
 20
-15.732513
 30
0.0
 11
48.67499099999999
 21
-15.969533
 31
0.0
  0
LINE
  5
DBD
330
19
100
AcDbEntity
  8
1
100
AcDbLine
 10
48.62595999999999
 20
-15.58350599999999
 30
0.0
 11
48.644889
 21
-15.732513
 31
0.0
  0
LINE
  5
DBE
330
19
100
AcDbEntity
  8
1
100
AcDbLine
 10
48.619395
 20
-15.5318
 30
0.0
 11
48.62595999999999
 21
-15.58350599999999
 31
0.0
  0
LINE
  5
DBF
330
19
100
AcDbEntity
  8
1
100
AcDbLine
 10
48.321294
 20
-14.78627499999999
 30
0.0
 11
48.619395
 21
-15.5318
 31
0.0
  0
LINE
  5
DC0
330
19
100
AcDbEntity
  8
1
100
AcDbLine
 10
47.87404999999998
 20
-14.48808399999998
 30
0.0
 11
48.321294
 21
-14.78627499999999
 31
0.0
  0
LINE
  5
DC1
330
19
100
AcDbEntity
  8
1
100
AcDbLine
 10
46.53198599999998
 20
0.9694659999999998
 30
0.0
 11
47.87404999999998
 21
-14.48808399999998
 31
0.0
  0
LINE
  5
DC2
330
19
100
AcDbEntity
  8
1
100
AcDbLine
 10
26.403462
 20
21.79413999999999
 30
0.0
 11
46.53198599999998
 21
0.5965520000000001
 31
0.0
  0
LINE
  5
DC3
330
19
100
AcDbEntity
  8
1
100
AcDbLine
 10
21.632214
 20
21.79413999999999
 30
0.0
 11
26.403462
 21
21.79413999999999
 31
0.0
  0
LINE
  5
DC4
330
19
100
AcDbEntity
  8
1
100
AcDbLine
 10
20.588588
 20
20.60121599999998
 30
0.0
 11
21.632214
 21
21.79413999999999
 31
0.0
  0
LINE
  5
DC5
330
19
100
AcDbEntity
  8
1
100
AcDbLine
 10
0.0
 20
20.60121599999998
 30
0.0
 11
20.588588
 21
20.60121599999998
 31
0.0
  0
LINE
  5
DC6
330
19
100
AcDbEntity
  8
1
100
AcDbLine
 10
0.0
 20
14.33903299999998
 30
0.0
 11
0.0
 21
20.60121599999998
 31
0.0
  0
LINE
  5
DC7
330
19
100
AcDbEntity
  8
SK1
100
AcDbLine
 10
-1.789306999999999
 20
14.935416
 30
0.0
 11
0.0
 21
14.33903299999998
 31
0.0
  0
LINE
  5
DC8
330
19
100
AcDbEntity
  8
SK1
100
AcDbLine
 10
-19.23415199999998
 20
14.637134
 30
0.0
 11
-1.789306999999999
 21
14.935416
 31
0.0
  0
LINE
  5
DC9
330
19
100
AcDbEntity
  8
SK1
100
AcDbLine
 10
-20.874318
 20
12.698866
 30
0.0
 11
-19.23415199999998
 21
14.637134
 31
0.0
  0
LINE
  5
DCA
330
19
100
AcDbEntity
  8
SK1
100
AcDbLine
 10
-20.874318
 20
-12.400697
 30
0.0
 11
-20.874318
 21
12.698866
 31
0.0
  0
LINE
  5
DCB
330
19
100
AcDbEntity
  8
SK1
100
AcDbLine
 10
-19.532254
 20
-14.040774
 30
0.0
 11
-20.874318
 21
-12.400697
 31
0.0
  0
LINE
  5
DCC
330
19
100
AcDbEntity
  8
SK1
100
AcDbLine
 10
-1.938425999999999
 20
-14.190005
 30
0.0
 11
-19.532254
 21
-14.040774
 31
0.0
  0
LINE
  5
DCD
330
19
100
AcDbEntity
  8
SK1
100
AcDbLine
 10
0.0
 20
-13.295339
 30
0.0
 11
-1.938425999999999
 21
-14.190005
 31
0.0
  0
LINE
  5
DCE
330
19
100
AcDbEntity
  8
1
100
AcDbLine
 10
0.0
 20
-19.408314
 30
0.0
 11
0.0
 21
-13.295339
 31
0.0
  0
LINE
  5
DCF
330
19
100
AcDbEntity
  8
1
100
AcDbLine
 10
20.73754999999998
 20
-19.408314
 30
0.0
 11
0.0
 21
-19.408314
 31
0.0
  0
LINE
  5
DD0
330
19
100
AcDbEntity
  8
1
100
AcDbLine
 10
23.272178
 20
-23.583088
 30
0.0
 11
20.73754999999998
 21
-19.408314
 31
0.0
  0
LINE
  5
DD1
330
19
100
AcDbEntity
  8
1
100
AcDbLine
 10
38.18241599999996
 20
-24.626984
 30
0.0
 11
23.272178
 21
-23.583088
 31
0.0
  0
LINE
  5
DD2
330
19
100
AcDbEntity
  8
1
100
AcDbLine
 10
38.646294
 20
-24.853438
 30
0.0
 11
38.18241599999996
 21
-24.626984
 31
0.0
  0
LINE
  5
DD3
330
19
100
AcDbEntity
  8
1
100
AcDbLine
 10
38.811982
 20
-25.146122
 30
0.0
 11
38.646294
 21
-24.853438
 31
0.0
  0
LINE
  5
DD4
330
19
100
AcDbEntity
  8
1
100
AcDbLine
 10
39.077058
 20
-25.372395
 30
0.0
 11
38.811982
 21
-25.146122
 31
0.0
  0
LINE
  5
DD5
330
19
100
AcDbEntity
  8
1
100
AcDbLine
 10
39.12717
 20
-25.374869
 30
0.0
 11
39.077058
 21
-25.372395
 31
0.0
  0
LINE
  5
DD6
330
19
100
AcDbEntity
  8
1
100
AcDbLine
 10
39.271702
 20
-25.38194999999999
 30
0.0
 11
39.12717
 21
-25.374869
 31
0.0
  0
LINE
  5
DD7
330
19
100
AcDbEntity
  8
1
100
AcDbLine
 10
39.50188699999999
 20
-25.39323599999999
 30
0.0
 11
39.271702
 21
-25.38194999999999
 31
0.0
  0
LINE
  5
DD8
330
19
100
AcDbEntity
  8
1
100
AcDbLine
 10
39.80900399999999
 20
-25.408276
 30
0.0
 11
39.50188699999999
 21
-25.39323599999999
 31
0.0
  0
LINE
  5
DD9
330
19
100
AcDbEntity
  8
1
100
AcDbLine
 10
40.184239
 20
-25.426642
 30
0.0
 11
39.80900399999999
 21
-25.408276
 31
0.0
  0
LINE
  5
DDA
330
19
100
AcDbEntity
  8
1
100
AcDbLine
 10
40.618914
 20
-25.447842
 30
0.0
 11
40.184239
 21
-25.426642
 31
0.0
  0
LINE
  5
DDB
330
19
100
AcDbEntity
  8
1
100
AcDbLine
 10
41.10424
 20
-25.471493
 30
0.0
 11
40.618914
 21
-25.447842
 31
0.0
  0
LINE
  5
DDC
330
19
100
AcDbEntity
  8
1
100
AcDbLine
 10
41.631471
 20
-25.497122
 30
0.0
 11
41.10424
 21
-25.471493
 31
0.0
  0
LINE
  5
DDD
330
19
100
AcDbEntity
  8
1
100
AcDbLine
 10
42.191862
 20
-25.52430199999999
 30
0.0
 11
41.631471
 21
-25.497122
 31
0.0
  0
LINE
  5
DDE
330
19
100
AcDbEntity
  8
1
100
AcDbLine
 10
42.776668
 20
-25.552583
 30
0.0
 11
42.191862
 21
-25.52430199999999
 31
0.0
  0
LINE
  5
DDF
330
19
100
AcDbEntity
  8
1
100
AcDbLine
 10
43.37714199999999
 20
-25.581516
 30
0.0
 11
42.776668
 21
-25.552583
 31
0.0
  0
LINE
  5
DE0
330
19
100
AcDbEntity
  8
1
100
AcDbLine
 10
43.984519
 20
-25.610674
 30
0.0
 11
43.37714199999999
 21
-25.581516
 31
0.0
  0
LINE
  5
DE1
330
19
100
AcDbEntity
  8
1
100
AcDbLine
 10
44.590053
 20
-25.63963
 30
0.0
 11
43.984519
 21
-25.610674
 31
0.0
  0
LINE
  5
DE2
330
19
100
AcDbEntity
  8
1
100
AcDbLine
 10
45.18499799999999
 20
-25.667912
 30
0.0
 11
44.590053
 21
-25.63963
 31
0.0
  0
LINE
  5
DE3
330
19
100
AcDbEntity
  8
1
100
AcDbLine
 10
45.760608
 20
-25.69507
 30
0.0
 11
45.18499799999999
 21
-25.667912
 31
0.0
  0
LINE
  5
DE4
330
19
100
AcDbEntity
  8
1
100
AcDbLine
 10
46.30813999999999
 20
-25.720698
 30
0.0
 11
45.760608
 21
-25.69507
 31
0.0
  0
LINE
  5
DE5
330
19
100
AcDbEntity
  8
1
100
AcDbLine
 10
46.81882499999999
 20
-25.744348
 30
0.0
 11
46.30813999999999
 21
-25.720698
 31
0.0
  0
LINE
  5
DE6
330
19
100
AcDbEntity
  8
1
100
AcDbLine
 10
47.283939
 20
-25.76557
 30
0.0
 11
46.81882499999999
 21
-25.744348
 31
0.0
  0
LINE
  5
DE7
330
19
100
AcDbEntity
  8
1
100
AcDbLine
 10
47.694695
 20
-25.783915
 30
0.0
 11
47.283939
 21
-25.76557
 31
0.0
  0
LINE
  5
DE8
330
19
100
AcDbEntity
  8
1
100
AcDbLine
 10
48.04236799999999
 20
-25.798955
 30
0.0
 11
47.694695
 21
-25.783915
 31
0.0
  0
LINE
  5
DE9
330
19
100
AcDbEntity
  8
1
100
AcDbLine
 10
48.318214
 20
-25.810241
 30
0.0
 11
48.04236799999999
 21
-25.798955
 31
0.0
  0
LINE
  5
DEA
330
19
100
AcDbEntity
  8
1
100
AcDbLine
 10
48.513463
 20
-25.817346
 30
0.0
 11
48.318214
 21
-25.810241
 31
0.0
  0
LINE
  5
DEB
330
19
100
AcDbEntity
  8
1
100
AcDbLine
 10
48.619395
 20
-25.81981799999999
 30
0.0
 11
48.513463
 21
-25.817346
 31
0.0
  0
LINE
  5
DEC
330
19
100
AcDbEntity
  8
1
100
AcDbLine
 10
49.204178
 20
-25.805835
 30
0.0
 11
48.619395
 21
-25.81981799999999
 31
0.0
  0
LINE
  5
DED
330
19
100
AcDbEntity
  8
1
100
AcDbLine
 10
49.60729
 20
-25.707974
 30
0.0
 11
49.204178
 21
-25.805835
 31
0.0
  0
LINE
  5
DEE
330
19
100
AcDbEntity
  8
1
100
AcDbLine
 10
49.81467999999999
 20
-25.442379
 30
0.0
 11
49.60729
 21
-25.707974
 31
0.0
  0
LINE
  5
DEF
330
19
100
AcDbEntity
  8
1
100
AcDbLine
 10
49.812409
 20
-24.92515299999999
 30
0.0
 11
49.81467999999999
 21
-25.442379
 31
0.0
  0
LINE
  5
DF0
330
19
100
AcDbEntity
  8
1
100
AcDbLine
 10
49.805822
 20
-24.873423
 30
0.0
 11
49.812409
 21
-24.92515299999999
 31
0.0
  0
LINE
  5
DF1
330
19
100
AcDbEntity
  8
1
100
AcDbLine
 10
49.786915
 20
-24.72443999999999
 30
0.0
 11
49.805822
 21
-24.873423
 31
0.0
  0
LINE
  5
DF2
330
19
100
AcDbEntity
  8
1
100
AcDbLine
 10
49.756813
 20
-24.48742
 30
0.0
 11
49.786915
 21
-24.72443999999999
 31
0.0
  0
LINE
  5
DF3
330
19
100
AcDbEntity
  8
1
100
AcDbLine
 10
49.716706
 20
-24.171648
 30
0.0
 11
49.756813
 21
-24.48742
 31
0.0
  0
LINE
  5
DF4
330
19
100
AcDbEntity
  8
1
100
AcDbLine
 10
49.667765
 20
-23.786409
 30
0.0
 11
49.716706
 21
-24.171648
 31
0.0
  0
LINE
  5
DF5
330
19
100
AcDbEntity
  8
1
100
AcDbLine
 10
49.61120199999999
 20
-23.340942
 30
0.0
 11
49.667765
 21
-23.786409
 31
0.0
  0
LINE
  5
DF6
330
19
100
AcDbEntity
  8
1
100
AcDbLine
 10
49.548142
 20
-22.844533
 30
0.0
 11
49.61120199999999
 21
-23.340942
 31
0.0
  0
LINE
  5
DF7
330
19
100
AcDbEntity
  8
1
100
AcDbLine
 10
49.47979799999998
 20
-22.306421
 30
0.0
 11
49.548142
 21
-22.844533
 31
0.0
  0
LINE
  5
DF8
330
19
100
AcDbEntity
  8
1
100
AcDbLine
 10
49.407342
 20
-21.735869
 30
0.0
 11
49.47979799999998
 21
-22.306421
 31
0.0
  0
LINE
  5
DF9
330
19
100
AcDbEntity
  8
1
100
AcDbLine
 10
49.331939
 20
-21.142183
 30
0.0
 11
49.407342
 21
-21.735869
 31
0.0
  0
LINE
  5
DFA
330
19
100
AcDbEntity
  8
1
100
AcDbLine
 10
49.254783
 20
-20.534582
 30
0.0
 11
49.331939
 21
-21.142183
 31
0.0
  0
LINE
  5
DFB
330
19
100
AcDbEntity
  8
1
100
AcDbLine
 10
49.177021
 20
-19.92237099999998
 30
0.0
 11
49.254783
 21
-20.534582
 31
0.0
  0
LINE
  5
DFC
330
19
100
AcDbEntity
  8
1
100
AcDbLine
 10
49.099842
 20
-19.31477
 30
0.0
 11
49.177021
 21
-19.92237099999998
 31
0.0
  0
LINE
  5
DFD
330
19
100
AcDbEntity
  8
1
100
AcDbLine
 10
49.024441
 20
-18.721084
 30
0.0
 11
49.099842
 21
-19.31477
 31
0.0
  0
LINE
  5
DFE
330
19
100
AcDbEntity
  8
1
100
AcDbLine
 10
48.951983
 20
-18.150532
 30
0.0
 11
49.024441
 21
-18.721084
 31
0.0
  0
LINE
  5
DFF
330
19
100
AcDbEntity
  8
1
100
AcDbLine
 10
48.88364
 20
-17.61242
 30
0.0
 11
48.951983
 21
-18.150532
 31
0.0
  0
LINE
  5
E00
330
19
100
AcDbEntity
  8
1
100
AcDbLine
 10
48.820602
 20
-17.116011
 30
0.0
 11
48.88364
 21
-17.61242
 31
0.0
  0
LINE
  5
E01
330
19
100
AcDbEntity
  8
1
100
AcDbLine
 10
48.764018
 20
-16.670544
 30
0.0
 11
48.820602
 21
-17.116011
 31
0.0
  0
LINE
  5
E02
330
19
100
AcDbEntity
  8
1
100
AcDbLine
 10
48.715098
 20
-16.28530499999999
 30
0.0
 11
48.764018
 21
-16.670544
 31
0.0
  0
LINE
  5
E03
330
19
100
AcDbEntity
  8
1
100
AcDbLine
 10
48.67499099999999
 20
-15.969533
 30
0.0
 11
48.715098
 21
-16.28530499999999
 31
0.0
  0
LINE
  5
E04
330
19
100
AcDbEntity
  8
1
100
AcDbLine
 10
48.644889
 20
-15.732513
 30
0.0
 11
48.67499099999999
 21
-15.969533
 31
0.0
  0
LINE
  5
E05
330
19
100
AcDbEntity
  8
1
100
AcDbLine
 10
48.62595999999999
 20
-15.58350599999999
 30
0.0
 11
48.644889
 21
-15.732513
 31
0.0
  0
LINE
  5
E06
330
19
100
AcDbEntity
  8
1
100
AcDbLine
 10
48.619395
 20
-15.5318
 30
0.0
 11
48.62595999999999
 21
-15.58350599999999
 31
0.0
  0
LINE
  5
E07
330
19
100
AcDbEntity
  8
1
100
AcDbLine
 10
48.321294
 20
-14.78627499999999
 30
0.0
 11
48.619395
 21
-15.5318
 31
0.0
  0
LINE
  5
E08
330
19
100
AcDbEntity
  8
1
100
AcDbLine
 10
47.87404999999998
 20
-14.48808399999998
 30
0.0
 11
48.321294
 21
-14.78627499999999
 31
0.0
  0
LINE
  5
E09
330
19
100
AcDbEntity
  8
1
100
AcDbLine
 10
46.53198599999998
 20
-1.963447999999999
 30
0.0
 11
47.87404999999998
 21
-14.48808399999998
 31
0.0
  0
LINE
  5
E0A
330
19
100
AcDbEntity
  8
1
100
AcDbLine
 10
26.403462
 20
21.79413999999999
 30
0.0
 11
46.53198599999998
 21
0.5965520000000001
 31
0.0
  0
LINE
  5
E0B
330
19
100
AcDbEntity
  8
1
100
AcDbLine
 10
21.632214
 20
21.79413999999999
 30
0.0
 11
26.403462
 21
21.79413999999999
 31
0.0
  0
LINE
  5
E0C
330
19
100
AcDbEntity
  8
1
100
AcDbLine
 10
20.588588
 20
20.60121599999998
 30
0.0
 11
21.632214
 21
21.79413999999999
 31
0.0
  0
LINE
  5
E0D
330
19
100
AcDbEntity
  8
1
100
AcDbLine
 10
0.0
 20
20.60121599999998
 30
0.0
 11
12.375405
 21
20.60121599999998
 31
0.0
  0
LINE
  5
E0E
330
19
100
AcDbEntity
  8
1
100
AcDbLine
 10
0.0
 20
14.33903299999998
 30
0.0
 11
0.0
 21
20.60121599999998
 31
0.0
  0
LINE
  5
E0F
330
19
100
AcDbEntity
  8
SK1
100
AcDbLine
 10
-1.789306999999999
 20
14.935416
 30
0.0
 11
0.0
 21
14.33903299999998
 31
0.0
  0
LINE
  5
E10
330
19
100
AcDbEntity
  8
SK1
100
AcDbLine
 10
-19.23415199999998
 20
14.637134
 30
0.0
 11
-1.789306999999999
 21
14.935416
 31
0.0
  0
LINE
  5
E11
330
19
100
AcDbEntity
  8
SK1
100
AcDbLine
 10
-20.874318
 20
12.698866
 30
0.0
 11
-19.23415199999998
 21
14.637134
 31
0.0
  0
LINE
  5
E12
330
19
100
AcDbEntity
  8
SK1
100
AcDbLine
 10
-20.874318
 20
-9.840697
 30
0.0
 11
-20.874318
 21
12.698866
 31
0.0
  0
LINE
  5
E13
330
19
100
AcDbEntity
  8
SK1
100
AcDbLine
 10
-19.532254
 20
-14.040774
 30
0.0
 11
-20.874318
 21
-12.400697
 31
0.0
  0
LINE
  5
E14
330
19
100
AcDbEntity
  8
SK1
100
AcDbLine
 10
-1.938425999999999
 20
-14.190005
 30
0.0
 11
-19.532254
 21
-14.040774
 31
0.0
  0
LINE
  5
E15
330
19
100
AcDbEntity
  8
SK1
100
AcDbLine
 10
0.0
 20
-13.295339
 30
0.0
 11
-1.938425999999999
 21
-14.190005
 31
0.0
  0
LINE
  5
E16
330
19
100
AcDbEntity
  8
1
100
AcDbLine
 10
0.0
 20
-19.408314
 30
0.0
 11
0.0
 21
-13.295339
 31
0.0
  0
LINE
  5
E17
330
19
100
AcDbEntity
  8
1
100
AcDbLine
 10
12.524366
 20
-19.408314
 30
0.0
 11
0.0
 21
-19.408314
 31
0.0
  0
LINE
  5
E18
330
19
100
AcDbEntity
  8
1
100
AcDbLine
 10
23.272178
 20
-23.583088
 30
0.0
 11
20.73754999999998
 21
-19.408314
 31
0.0
  0
LINE
  5
E19
330
19
100
AcDbEntity
  8
1
100
AcDbLine
 10
38.18241599999996
 20
-24.626984
 30
0.0
 11
23.272178
 21
-23.583088
 31
0.0
  0
LINE
  5
E1A
330
19
100
AcDbEntity
  8
1
100
AcDbLine
 10
38.646294
 20
-24.853438
 30
0.0
 11
38.18241599999996
 21
-24.626984
 31
0.0
  0
LINE
  5
E1B
330
19
100
AcDbEntity
  8
1
100
AcDbLine
 10
38.811982
 20
-25.146122
 30
0.0
 11
38.646294
 21
-24.853438
 31
0.0
  0
LINE
  5
E1C
330
19
100
AcDbEntity
  8
1
100
AcDbLine
 10
39.077058
 20
-25.372395
 30
0.0
 11
38.811982
 21
-25.146122
 31
0.0
  0
LINE
  5
E1D
330
19
100
AcDbEntity
  8
1
100
AcDbLine
 10
39.12717
 20
-25.374869
 30
0.0
 11
39.077058
 21
-25.372395
 31
0.0
  0
LINE
  5
E1E
330
19
100
AcDbEntity
  8
1
100
AcDbLine
 10
39.271702
 20
-25.38194999999999
 30
0.0
 11
39.12717
 21
-25.374869
 31
0.0
  0
LINE
  5
E1F
330
19
100
AcDbEntity
  8
1
100
AcDbLine
 10
39.50188699999999
 20
-25.39323599999999
 30
0.0
 11
39.271702
 21
-25.38194999999999
 31
0.0
  0
LINE
  5
E20
330
19
100
AcDbEntity
  8
1
100
AcDbLine
 10
39.80900399999999
 20
-25.408276
 30
0.0
 11
39.50188699999999
 21
-25.39323599999999
 31
0.0
  0
LINE
  5
E21
330
19
100
AcDbEntity
  8
1
100
AcDbLine
 10
40.184239
 20
-25.426642
 30
0.0
 11
39.80900399999999
 21
-25.408276
 31
0.0
  0
LINE
  5
E22
330
19
100
AcDbEntity
  8
1
100
AcDbLine
 10
40.618914
 20
-25.447842
 30
0.0
 11
40.184239
 21
-25.426642
 31
0.0
  0
LINE
  5
E23
330
19
100
AcDbEntity
  8
1
100
AcDbLine
 10
41.10424
 20
-25.471493
 30
0.0
 11
40.618914
 21
-25.447842
 31
0.0
  0
LINE
  5
E24
330
19
100
AcDbEntity
  8
1
100
AcDbLine
 10
41.631471
 20
-25.497122
 30
0.0
 11
41.10424
 21
-25.471493
 31
0.0
  0
LINE
  5
E25
330
19
100
AcDbEntity
  8
1
100
AcDbLine
 10
42.191862
 20
-25.52430199999999
 30
0.0
 11
41.631471
 21
-25.497122
 31
0.0
  0
LINE
  5
E26
330
19
100
AcDbEntity
  8
1
100
AcDbLine
 10
42.776668
 20
-25.552583
 30
0.0
 11
42.191862
 21
-25.52430199999999
 31
0.0
  0
LINE
  5
E27
330
19
100
AcDbEntity
  8
1
100
AcDbLine
 10
43.37714199999999
 20
-25.581516
 30
0.0
 11
42.776668
 21
-25.552583
 31
0.0
  0
LINE
  5
E28
330
19
100
AcDbEntity
  8
1
100
AcDbLine
 10
43.984519
 20
-25.610674
 30
0.0
 11
43.37714199999999
 21
-25.581516
 31
0.0
  0
LINE
  5
E29
330
19
100
AcDbEntity
  8
1
100
AcDbLine
 10
44.590053
 20
-25.63963
 30
0.0
 11
43.984519
 21
-25.610674
 31
0.0
  0
LINE
  5
E2A
330
19
100
AcDbEntity
  8
1
100
AcDbLine
 10
45.18499799999999
 20
-25.667912
 30
0.0
 11
44.590053
 21
-25.63963
 31
0.0
  0
LINE
  5
E2B
330
19
100
AcDbEntity
  8
1
100
AcDbLine
 10
45.760608
 20
-25.69507
 30
0.0
 11
45.18499799999999
 21
-25.667912
 31
0.0
  0
LINE
  5
E2C
330
19
100
AcDbEntity
  8
1
100
AcDbLine
 10
46.30813999999999
 20
-25.720698
 30
0.0
 11
45.760608
 21
-25.69507
 31
0.0
  0
LINE
  5
E2D
330
19
100
AcDbEntity
  8
1
100
AcDbLine
 10
46.81882499999999
 20
-25.744348
 30
0.0
 11
46.30813999999999
 21
-25.720698
 31
0.0
  0
LINE
  5
E2E
330
19
100
AcDbEntity
  8
1
100
AcDbLine
 10
47.283939
 20
-25.76557
 30
0.0
 11
46.81882499999999
 21
-25.744348
 31
0.0
  0
LINE
  5
E2F
330
19
100
AcDbEntity
  8
1
100
AcDbLine
 10
47.694695
 20
-25.783915
 30
0.0
 11
47.283939
 21
-25.76557
 31
0.0
  0
LINE
  5
E30
330
19
100
AcDbEntity
  8
1
100
AcDbLine
 10
48.04236799999999
 20
-25.798955
 30
0.0
 11
47.694695
 21
-25.783915
 31
0.0
  0
LINE
  5
E31
330
19
100
AcDbEntity
  8
1
100
AcDbLine
 10
48.318214
 20
-25.810241
 30
0.0
 11
48.04236799999999
 21
-25.798955
 31
0.0
  0
LINE
  5
E32
330
19
100
AcDbEntity
  8
1
100
AcDbLine
 10
48.513463
 20
-25.817346
 30
0.0
 11
48.318214
 21
-25.810241
 31
0.0
  0
LINE
  5
E33
330
19
100
AcDbEntity
  8
1
100
AcDbLine
 10
48.619395
 20
-25.81981799999999
 30
0.0
 11
48.513463
 21
-25.817346
 31
0.0
  0
LINE
  5
E34
330
19
100
AcDbEntity
  8
1
100
AcDbLine
 10
49.204178
 20
-25.805835
 30
0.0
 11
48.619395
 21
-25.81981799999999
 31
0.0
  0
LINE
  5
E35
330
19
100
AcDbEntity
  8
1
100
AcDbLine
 10
49.60729
 20
-25.707974
 30
0.0
 11
49.204178
 21
-25.805835
 31
0.0
  0
LINE
  5
E36
330
19
100
AcDbEntity
  8
1
100
AcDbLine
 10
49.81467999999999
 20
-25.442379
 30
0.0
 11
49.60729
 21
-25.707974
 31
0.0
  0
LINE
  5
E37
330
19
100
AcDbEntity
  8
1
100
AcDbLine
 10
49.812409
 20
-24.92515299999999
 30
0.0
 11
49.81467999999999
 21
-25.442379
 31
0.0
  0
LINE
  5
E38
330
19
100
AcDbEntity
  8
1
100
AcDbLine
 10
48.619395
 20
-15.5318
 30
0.0
 11
49.812409
 21
-24.92515299999999
 31
0.0
  0
LINE
  5
E39
330
19
100
AcDbEntity
  8
1
100
AcDbLine
 10
48.321294
 20
-14.78627499999999
 30
0.0
 11
48.619395
 21
-15.5318
 31
0.0
  0
LINE
  5
E3A
330
19
100
AcDbEntity
  8
1
100
AcDbLine
 10
47.87404999999998
 20
-14.48808399999998
 30
0.0
 11
48.321294
 21
-14.78627499999999
 31
0.0
  0
LINE
  5
E3B
330
19
100
AcDbEntity
  8
1
100
AcDbLine
 10
46.53198599999998
 20
-1.963447999999999
 30
0.0
 11
47.87404999999998
 21
-14.48808399999998
 31
0.0
  0
LINE
  5
E3C
330
19
100
AcDbEntity
  8
1
100
AcDbLine
 10
26.403462
 20
21.79413999999999
 30
0.0
 11
46.53198599999998
 21
0.5965520000000001
 31
0.0
  0
LINE
  5
E3D
330
19
100
AcDbEntity
  8
1
100
AcDbLine
 10
21.632214
 20
21.79413999999999
 30
0.0
 11
26.403462
 21
21.79413999999999
 31
0.0
  0
LINE
  5
E3E
330
19
100
AcDbEntity
  8
1
100
AcDbLine
 10
20.588588
 20
20.60121599999998
 30
0.0
 11
21.632214
 21
21.79413999999999
 31
0.0
  0
LINE
  5
E3F
330
19
100
AcDbEntity
  8
1
100
AcDbLine
 10
0.0
 20
20.60121599999998
 30
0.0
 11
12.375405
 21
20.60121599999998
 31
0.0
  0
LINE
  5
E40
330
19
100
AcDbEntity
  8
1
100
AcDbLine
 10
0.0
 20
14.33903299999998
 30
0.0
 11
0.0
 21
20.60121599999998
 31
0.0
  0
LINE
  5
E41
330
19
100
AcDbEntity
  8
SK1
100
AcDbLine
 10
-1.789306999999999
 20
14.935416
 30
0.0
 11
0.0
 21
14.33903299999998
 31
0.0
  0
LINE
  5
E42
330
19
100
AcDbEntity
  8
SK1
100
AcDbLine
 10
-19.23415199999998
 20
14.637134
 30
0.0
 11
-1.789306999999999
 21
14.935416
 31
0.0
  0
LINE
  5
E43
330
19
100
AcDbEntity
  8
SK1
100
AcDbLine
 10
-20.874318
 20
12.698866
 30
0.0
 11
-19.23415199999998
 21
14.637134
 31
0.0
  0
LINE
  5
E44
330
19
100
AcDbEntity
  8
SK1
100
AcDbLine
 10
-20.874318
 20
-9.840697
 30
0.0
 11
-20.874318
 21
12.698866
 31
0.0
  0
LINE
  5
E45
330
19
100
AcDbEntity
  8
SK1
100
AcDbLine
 10
-19.532254
 20
-14.040774
 30
0.0
 11
-20.874318
 21
-12.400697
 31
0.0
  0
LINE
  5
E46
330
19
100
AcDbEntity
  8
SK1
100
AcDbLine
 10
-1.938425999999999
 20
-14.190005
 30
0.0
 11
-19.532254
 21
-14.040774
 31
0.0
  0
LINE
  5
E47
330
19
100
AcDbEntity
  8
SK1
100
AcDbLine
 10
0.0
 20
-13.295339
 30
0.0
 11
-1.938425999999999
 21
-14.190005
 31
0.0
  0
LINE
  5
E48
330
19
100
AcDbEntity
  8
1
100
AcDbLine
 10
0.0
 20
-19.408314
 30
0.0
 11
0.0
 21
-13.295339
 31
0.0
  0
LINE
  5
E49
330
19
100
AcDbEntity
  8
1
100
AcDbLine
 10
12.524366
 20
-19.408314
 30
0.0
 11
0.0
 21
-19.408314
 31
0.0
  0
LINE
  5
E4A
330
19
100
AcDbEntity
  8
1
100
AcDbLine
 10
23.272178
 20
-23.583088
 30
0.0
 11
20.73754999999998
 21
-19.408314
 31
0.0
  0
LINE
  5
E4B
330
19
100
AcDbEntity
  8
1
100
AcDbLine
 10
38.18241599999996
 20
-24.626984
 30
0.0
 11
23.272178
 21
-23.583088
 31
0.0
  0
LINE
  5
E4C
330
19
100
AcDbEntity
  8
1
100
AcDbLine
 10
38.778956
 20
-25.074294
 30
0.0
 11
38.18241599999996
 21
-24.626984
 31
0.0
  0
LINE
  5
E4D
330
19
100
AcDbEntity
  8
1
100
AcDbLine
 10
39.077058
 20
-25.372395
 30
0.0
 11
38.778956
 21
-25.074294
 31
0.0
  0
LINE
  5
E4E
330
19
100
AcDbEntity
  8
1
100
AcDbLine
 10
48.619395
 20
-25.81981799999999
 30
0.0
 11
39.077058
 21
-25.372395
 31
0.0
  0
LINE
  5
E4F
330
19
100
AcDbEntity
  8
1
100
AcDbLine
 10
49.663269
 20
-25.670767
 30
0.0
 11
48.619395
 21
-25.81981799999999
 31
0.0
  0
LINE
  5
E50
330
19
100
AcDbEntity
  8
1
100
AcDbLine
 10
49.812409
 20
-25.372395
 30
0.0
 11
49.663269
 21
-25.670767
 31
0.0
  0
LINE
  5
E51
330
19
100
AcDbEntity
  8
1
100
AcDbLine
 10
49.812409
 20
-24.92515299999999
 30
0.0
 11
49.812409
 21
-25.372395
 31
0.0
  0
DIMENSION
  5
EE5
330
19
100
AcDbEntity
  8
2
100
AcDbDimension
  2
*D6
 10
49.813183
 20
-41.75407899999997
 30
0.0
 11
43.0216218931099
 21
-32.35637114101528
 31
0.0
 70
    34
  1
95%%d
  3
STANDARD
100
AcDb2LineAngularDimension
 13
48.619395
 23
-25.81981799999999
 33
0.0
 14
39.077058
 24
-25.372395
 34
0.0
 15
49.813183
 25
-26.597984
 35
0.0
 16
39.11748673066775
 26
-31.61325362742882
 36
0.0
1001
ACAD
1000
DSTYLE
1002
{
1070
   271
1070
     0
1070
   271
1070
     0
1070
   271
1070
     0
1070
   271
1070
     0
1070
    41
1040
3.5
1070
    42
1040
1.0
1070
    44
1040
1.0
1070
    73
1070
     0
1070
    74
1070
     0
1070
    77
1070
     1
1070
    78
1070
     8
1070
   140
1040
3.5
1070
   147
1040
1.0
1070
   175
1070
     1
1070
   271
1070
     0
1002
}
  0
TEXT
  5
F12
330
19
100
AcDbEntity
  8
SK6
100
AcDbText
 10
-18.65411940624186
 20
30.44587283125923
 30
0.0
 40
3.5
  1
C4-CCLNL-27050-09
  7
SIMPLEX
100
AcDbText
  0
TEXT
  5
F13
330
19
100
AcDbEntity
  8
SK6
100
AcDbText
 10
-18.65411940624186
 20
24.44587283125924
 30
0.0
 40
3.5
  1
00042704
  7
SIMPLEX
100
AcDbText
  0
LINE
  5
F15
330
19
100
AcDbEntity
  8
SK4
100
AcDbLine
 10
43.041198
 20
0.0
 30
0.0
 11
-24.624822
 21
0.0
 31
0.0
  0
LINE
  5
102B
330
19
100
AcDbEntity
  8
4
100
AcDbLine
 10
0.0
 20
0.0
 30
0.0
 11
45.180665
 21
0.0
 31
0.0
  0
DIMENSION
  5
106C
330
19
100
AcDbEntity
  8
SK2
100
AcDbDimension
  2
*D12
 10
-30.049584
 20
-19.39878399999997
 30
0.0
 11
-32.79958399999999
 21
0.6012160000000049
 31
0.0
 70
    32
  1
%%c 40
  3
STANDARD
100
AcDbAlignedDimension
 13
0.0
 23
20.60121599999998
 33
0.0
 14
0.0
 24
-19.39878399999998
 34
0.0
 50
270.0
100
AcDbRotatedDimension
1001
ACAD
1000
DSTYLE
1002
{
1070
    41
1040
3.5
1070
    42
1040
1.0
1070
    44
1040
1.0
1070
    73
1070
     0
1070
    74
1070
     0
1070
    77
1070
     1
1070
    78
1070
     8
1070
   140
1040
3.5
1070
   147
1040
1.0
1070
   175
1070
     1
1002
}
  0
DIMENSION
  5
1084
330
19
100
AcDbEntity
  8
2
100
AcDbDimension
  2
*D13
 10
-0.3367310000000013
 20
-46.49622599999999
 30
0.0
 11
24.663269
 21
-43.74622599999999
 31
0.0
 70
    32
  3
STANDARD
100
AcDbAlignedDimension
 13
49.663269
 23
-25.670767
 33
0.0
 14
-0.336731
 24
-25.670767
 34
0.0
 50
180.0
100
AcDbRotatedDimension
1001
ACAD
1000
DSTYLE
1002
{
1070
    41
1040
3.5
1070
    42
1040
1.0
1070
    44
1040
1.0
1070
    73
1070
     0
1070
    74
1070
     0
1070
    77
1070
     1
1070
    78
1070
     8
1070
   140
1040
3.5
1070
   147
1040
1.0
1070
   175
1070
     1
1002
}
  0
DIMENSION
  5
109E
330
19
100
AcDbEntity
  8
2
100
AcDbDimension
  2
*D15
 10
63.114883
 20
-26.40344799999999
 30
0.0
 11
60.36488300000001
 21
-12.90344799999998
 31
0.0
 70
    32
  3
STANDARD
100
AcDbAlignedDimension
 13
46.53198599999998
 23
0.5965520000000001
 33
0.0
 14
46.53198599999998
 24
-26.40344799999999
 34
0.0
 50
270.0
100
AcDbRotatedDimension
1001
ACAD
1000
DSTYLE
1002
{
1070
    41
1040
3.5
1070
    42
1040
1.0
1070
    44
1040
1.0
1070
    73
1070
     0
1070
    74
1070
     0
1070
    77
1070
     1
1070
    78
1070
     8
1070
   140
1040
3.5
1070
   147
1040
1.0
1070
   175
1070
     1
1002
}
  0
ARC
  5
10D3
330
19
100
AcDbEntity
  8
1
100
AcDbCircle
 10
39.732772
 20
-10.315166
 30
0.0
 40
21.211907
100
AcDbArc
 50
176.9379199999999
 51
219.228161
  0
ARC
  5
10D4
330
19
100
AcDbEntity
  8
1
100
AcDbCircle
 10
100.9631739999999
 20
1.578392
 30
0.0
 40
83.062391
100
AcDbArc
 50
166.379712
 51
187.976373
  0
CIRCLE
  5
10D5
330
19
100
AcDbEntity
  8
1
100
AcDbCircle
 10
35.406563
 20
-11.785346
 30
0.0
 40
2.986111
  0
CIRCLE
  5
10D6
330
19
100
AcDbEntity
  8
1
100
AcDbCircle
 10
35.406563
 20
-11.63221199999999
 30
0.0
 40
1.684472999999995
  0
ENDSEC
  0
SECTION
  2
OBJECTS
  0
DICTIONARY
  5
C
330
0
100
AcDbDictionary
  3
ACAD_GROUP
350
D
  3
ACAD_LAYOUT
350
10DD
  3
ACAD_MLINESTYLE
350
E
  3
ACAD_PLOTSETTINGS
350
10DE
1001
ACAD
1000
TREAT_AS_HARD
1070
     0
1000
TREAT_AS_HARD
1070
     0
1000
TREAT_AS_HARD
1070
     0
1000
TREAT_AS_HARD
1070
     0
  0
DICTIONARY
  5
10E6
330
19
100
AcDbDictionary
  3
ACAD_LAYOUTSELFREF
350
11D3
1001
ACAD
1000
TREAT_AS_HARD
1070
     0
1000
TREAT_AS_HARD
1070
     0
1000
TREAT_AS_HARD
1070
     1
  0
DICTIONARY
  5
10E4
330
16
100
AcDbDictionary
  3
ACAD_LAYOUTSELFREF
350
11D2
1001
ACAD
1000
TREAT_AS_HARD
1070
     0
1000
TREAT_AS_HARD
1070
     0
1000
TREAT_AS_HARD
1070
     1
  0
DICTIONARY
  5
D
102
{ACAD_REACTORS
330
C
102
}
330
C
100
AcDbDictionary
1001
ACAD
1000
TREAT_AS_HARD
1070
     0
1000
TREAT_AS_HARD
1070
     0
1000
TREAT_AS_HARD
1070
     0
1000
TREAT_AS_HARD
1070
     0
  0
DICTIONARY
  5
10DD
102
{ACAD_REACTORS
330
C
102
}
330
C
100
AcDbDictionary
1001
ACAD
1000
TREAT_AS_HARD
1070
     0
1000
TREAT_AS_HARD
1070
     0
1000
TREAT_AS_HARD
1070
     0
1000
TREAT_AS_HARD
1070
     0
  0
DICTIONARY
  5
E
102
{ACAD_REACTORS
330
C
102
}
330
C
100
AcDbDictionary
  3
STANDARD
350
1C
1001
ACAD
1000
TREAT_AS_HARD
1070
     0
1000
TREAT_AS_HARD
1070
     0
1000
TREAT_AS_HARD
1070
     0
1000
TREAT_AS_HARD
1070
     0
  0
DICTIONARY
  5
10DE
102
{ACAD_REACTORS
330
C
102
}
330
C
100
AcDbDictionary
1001
ACAD
1000
TREAT_AS_HARD
1070
     0
1000
TREAT_AS_HARD
1070
     0
1000
TREAT_AS_HARD
1070
     0
1000
TREAT_AS_HARD
1070
     0
  0
XRECORD
  5
11D3
102
{ACAD_REACTORS
330
10E6
102
}
330
10E6
100
AcDbXrecord
340
19
  0
XRECORD
  5
11D2
102
{ACAD_REACTORS
330
10E4
102
}
330
10E4
100
AcDbXrecord
340
16
  0
MLINESTYLE
  5
1C
102
{ACAD_REACTORS
330
E
102
}
330
E
100
AcDbMlineStyle
  2
STANDARD
 70
     0
  3

 62
     0
 51
90.0
 52
90.0
 71
     2
 49
0.5
 62
   256
  6
BYLAYER
 49
-0.5
 62
   256
  6
BYLAYER
  0
ENDSEC
  0
EOF
