  0
SECTION
  2
HEADER
  9
$ACADVER
  1
AC1015
  9
$ACADMAINTVER
 70
    20
  9
$DWGCODEPAGE
  3
ANSI_1252
  9
$INSBASE
 10
0.0
 20
0.0
 30
0.0
  9
$EXTMIN
 10
-5.17239200274048
 20
-2.011564965373281
 30
-0.0000000000000058
  9
$EXTMAX
 10
2.44975381047675
 20
0.7441718419363497
 30
0.0000000000000104
  9
$LIMMIN
 10
-170.0
 20
-170.0
  9
$LIMMAX
 10
519.0
 20
260.0
  9
$ORTHOMODE
 70
     1
  9
$REGENMODE
 70
     1
  9
$FILLMODE
 70
     1
  9
$QTEXTMODE
 70
     0
  9
$MIRRTEXT
 70
     0
  9
$LTSCALE
 40
1.0
  9
$ATTMODE
 70
     1
  9
$TEXTSIZE
 40
0.2
  9
$TRACEWID
 40
0.05
  9
$TEXTSTYLE
  7
STANDARD
  9
$CLAYER
  8
1
  9
$CELTYPE
  6
BYLAYER
  9
$CECOLOR
 62
   256
  9
$CELTSCALE
 40
1.0
  9
$DISPSILH
 70
     0
  9
$DIMSCALE
 40
1.0
  9
$DIMASZ
 40
0.098425
  9
$DIMEXO
 40
0.03937
  9
$DIMDLI
 40
0.5905510000000001
  9
$DIMRND
 40
0.0
  9
$DIMDLE
 40
0.0
  9
$DIMEXE
 40
0.07874
  9
$DIMTP
 40
0.0
  9
$DIMTM
 40
0.000000001
  9
$DIMTXT
 40
0.1377952755905512
  9
$DIMCEN
 40
0.003543
  9
$DIMTSZ
 40
0.0
  9
$DIMTOL
 70
     0
  9
$DIMLIM
 70
     0
  9
$DIMTIH
 70
     0
  9
$DIMTOH
 70
     0
  9
$DIMSE1
 70
     0
  9
$DIMSE2
 70
     0
  9
$DIMTAD
 70
     1
  9
$DIMZIN
 70
    11
  9
$DIMBLK
  1

  9
$DIMASO
 70
     1
  9
$DIMSHO
 70
     1
  9
$DIMPOST
  1

  9
$DIMAPOST
  1

  9
$DIMALT
 70
     0
  9
$DIMALTD
 70
     2
  9
$DIMALTF
 40
25.4
  9
$DIMLFAC
 40
1.0
  9
$DIMTOFL
 70
     1
  9
$DIMTVP
 40
0.0
  9
$DIMTIX
 70
     0
  9
$DIMSOXD
 70
     0
  9
$DIMSAH
 70
     0
  9
$DIMBLK1
  1

  9
$DIMBLK2
  1

  9
$DIMSTYLE
  2
AM_DIN
  9
$DIMCLRD
 70
     0
  9
$DIMCLRE
 70
     0
  9
$DIMCLRT
 70
     0
  9
$DIMTFAC
 40
0.7071069999999999
  9
$DIMGAP
 40
0.03937
  9
$DIMJUST
 70
     0
  9
$DIMSD1
 70
     0
  9
$DIMSD2
 70
     0
  9
$DIMTOLJ
 70
     1
  9
$DIMTZIN
 70
     8
  9
$DIMALTZ
 70
     9
  9
$DIMALTTZ
 70
     8
  9
$DIMUPT
 70
     0
  9
$DIMDEC
 70
     3
  9
$DIMTDEC
 70
     3
  9
$DIMALTU
 70
     2
  9
$DIMALTTD
 70
     2
  9
$DIMTXSTY
  7
STANDARD 3.5 mm
  9
$DIMAUNIT
 70
     0
  9
$DIMADEC
 70
     0
  9
$DIMALTRND
 40
0.0
  9
$DIMAZIN
 70
     2
  9
$DIMDSEP
 70
    46
  9
$DIMATFIT
 70
     3
  9
$DIMFRAC
 70
     0
  9
$DIMLDRBLK
  1

  9
$DIMLUNIT
 70
     3
  9
$DIMLWD
 70
    -1
  9
$DIMLWE
 70
    -2
  9
$DIMTMOVE
 70
     0
  9
$LUNITS
 70
     2
  9
$LUPREC
 70
     4
  9
$SKETCHINC
 40
0.1
  9
$FILLETRAD
 40
0.0
  9
$AUNITS
 70
     0
  9
$AUPREC
 70
     0
  9
$MENU
  1
c:\tdm21\cad\caduti13\tdm13
  9
$ELEVATION
 40
0.0
  9
$PELEVATION
 40
0.0
  9
$THICKNESS
 40
0.0
  9
$LIMCHECK
 70
     0
  9
$CHAMFERA
 40
0.0
  9
$CHAMFERB
 40
0.0
  9
$CHAMFERC
 40
0.0
  9
$CHAMFERD
 40
0.0
  9
$SKPOLY
 70
     0
  9
$TDCREATE
 40
2458179.497189294
  9
$TDUCREATE
 40
2458179.268022627
  9
$TDUPDATE
 40
2458183.392129861
  9
$TDUUPDATE
 40
2458183.162963194
  9
$TDINDWG
 40
0.0053870718
  9
$TDUSRTIMER
 40
0.0053868981
  9
$USRTIMER
 70
     1
  9
$ANGBASE
 50
0.0
  9
$ANGDIR
 70
     0
  9
$PDMODE
 70
     1
  9
$PDSIZE
 40
0.0
  9
$PLINEWID
 40
0.0
  9
$SPLFRAME
 70
     0
  9
$SPLINETYPE
 70
     6
  9
$SPLINESEGS
 70
     8
  9
$HANDSEED
  5
1CA2
  9
$SURFTAB1
 70
     6
  9
$SURFTAB2
 70
     6
  9
$SURFTYPE
 70
     6
  9
$SURFU
 70
     6
  9
$SURFV
 70
     6
  9
$UCSBASE
  2

  9
$UCSNAME
  2

  9
$UCSORG
 10
0.0
 20
0.0
 30
0.0
  9
$UCSXDIR
 10
1.0
 20
0.0
 30
0.0
  9
$UCSYDIR
 10
0.0
 20
1.0
 30
0.0
  9
$UCSORTHOREF
  2

  9
$UCSORTHOVIEW
 70
     0
  9
$UCSORGTOP
 10
0.0
 20
0.0
 30
0.0
  9
$UCSORGBOTTOM
 10
0.0
 20
0.0
 30
0.0
  9
$UCSORGLEFT
 10
0.0
 20
0.0
 30
0.0
  9
$UCSORGRIGHT
 10
0.0
 20
0.0
 30
0.0
  9
$UCSORGFRONT
 10
0.0
 20
0.0
 30
0.0
  9
$UCSORGBACK
 10
0.0
 20
0.0
 30
0.0
  9
$PUCSBASE
  2

  9
$PUCSNAME
  2

  9
$PUCSORG
 10
0.0
 20
0.0
 30
0.0
  9
$PUCSXDIR
 10
1.0
 20
0.0
 30
0.0
  9
$PUCSYDIR
 10
0.0
 20
1.0
 30
0.0
  9
$PUCSORTHOREF
  2

  9
$PUCSORTHOVIEW
 70
     0
  9
$PUCSORGTOP
 10
0.0
 20
0.0
 30
0.0
  9
$PUCSORGBOTTOM
 10
0.0
 20
0.0
 30
0.0
  9
$PUCSORGLEFT
 10
0.0
 20
0.0
 30
0.0
  9
$PUCSORGRIGHT
 10
0.0
 20
0.0
 30
0.0
  9
$PUCSORGFRONT
 10
0.0
 20
0.0
 30
0.0
  9
$PUCSORGBACK
 10
0.0
 20
0.0
 30
0.0
  9
$USERI1
 70
     0
  9
$USERI2
 70
     0
  9
$USERI3
 70
     0
  9
$USERI4
 70
     0
  9
$USERI5
 70
     0
  9
$USERR1
 40
0.0
  9
$USERR2
 40
0.0
  9
$USERR3
 40
0.0
  9
$USERR4
 40
0.0
  9
$USERR5
 40
0.0
  9
$WORLDVIEW
 70
     1
  9
$SHADEDGE
 70
     3
  9
$SHADEDIF
 70
    70
  9
$TILEMODE
 70
     1
  9
$MAXACTVP
 70
    64
  9
$PINSBASE
 10
0.0
 20
0.0
 30
0.0
  9
$PLIMCHECK
 70
     0
  9
$PEXTMIN
 10
0.0
 20
0.0
 30
0.0
  9
$PEXTMAX
 10
297.0
 20
210.0
 30
0.0
  9
$PLIMMIN
 10
-6.352894443934567
 20
-4.429974890987324
  9
$PLIMMAX
 10
303.3743962297308
 20
214.4139451502602
  9
$UNITMODE
 70
     0
  9
$VISRETAIN
 70
     0
  9
$PLINEGEN
 70
     0
  9
$PSLTSCALE
 70
     1
  9
$TREEDEPTH
 70
  3020
  9
$CMLSTYLE
  2
STANDARD
  9
$CMLJUST
 70
     0
  9
$CMLSCALE
 40
1.0
  9
$PROXYGRAPHICS
 70
     1
  9
$MEASUREMENT
 70
     0
  9
$CELWEIGHT
370
    -1
  9
$ENDCAPS
280
     0
  9
$JOINSTYLE
280
     0
  9
$LWDISPLAY
290
     0
  9
$INSUNITS
 70
     0
  9
$HYPERLINKBASE
  1
HTTP://WWW.SECOTOOLS.COM/
  9
$STYLESHEET
  1
MONOCHROME.CTB
  9
$XEDIT
290
     1
  9
$CEPSNTYPE
380
     0
  9
$PSTYLEMODE
290
     1
  9
$FINGERPRINTGUID
  2
{78C85772-FBCB-4110-A725-04F553A17807}
  9
$VERSIONGUID
  2
{4036BE8E-CC5C-4EDB-8B7F-422A8C1922D1}
  9
$EXTNAMES
290
     1
  9
$PSVPSCALE
 40
0.0
  9
$OLESTARTUP
290
     0
  0
ENDSEC
  0
SECTION
  2
CLASSES
  0
CLASS
  1
ACDBDICTIONARYWDFLT
  2
AcDbDictionaryWithDefault
  3
ObjectDBX Classes
 90
        0
280
     0
281
     0
  0
CLASS
  1
ACDBPLACEHOLDER
  2
AcDbPlaceHolder
  3
ObjectDBX Classes
 90
        0
280
     0
281
     0
  0
CLASS
  1
LAYOUT
  2
AcDbLayout
  3
ObjectDBX Classes
 90
        0
280
     0
281
     0
  0
CLASS
  1
DICTIONARYVAR
  2
AcDbDictionaryVar
  3
ObjectDBX Classes
 90
        0
280
     0
281
     0
  0
CLASS
  1
TABLESTYLE
  2
AcDbTableStyle
  3
ObjectDBX Classes
 90
     4095
280
     0
281
     0
  0
CLASS
  1
MATERIAL
  2
AcDbMaterial
  3
ObjectDBX Classes
 90
     1153
280
     0
281
     0
  0
CLASS
  1
VISUALSTYLE
  2
AcDbVisualStyle
  3
ObjectDBX Classes
 90
     4095
280
     0
281
     0
  0
CLASS
  1
SCALE
  2
AcDbScale
  3
ObjectDBX Classes
 90
     1153
280
     0
281
     0
  0
CLASS
  1
MLEADERSTYLE
  2
AcDbMLeaderStyle
  3
ACDB_MLEADERSTYLE_CLASS
 90
     4095
280
     0
281
     0
  0
CLASS
  1
ACME_DOCUMENT
  2
AcMeDbDoc
  3
AcMeServices
 90
     1024
280
     0
281
     0
  0
CLASS
  1
AMGSETTINGSOBJ
  2
AmgSettingsObj
  3
"AcadM|Product Description: AutoCAD Mechanical|Company: Autodesk, Inc."
 90
     1024
280
     0
281
     0
  0
CLASS
  1
ACMESCOPE
  2
AcMeScope
  3
AcMeServices
 90
     1024
280
     0
281
     0
  0
CLASS
  1
ACMECOMMANDHISTORY
  2
AcMeCommandHistory
  3
AcMeServices
 90
     1024
280
     0
281
     0
  0
CLASS
  1
ACIMSYSVARMAN
  2
AcImSysVarManager
  3
AcMeServices
 90
     1024
280
     0
281
     0
  0
CLASS
  1
ACIMINTSYSVAR
  2
AcImIntSysVar
  3
AcMeServices
 90
     1024
280
     0
281
     0
  0
CLASS
  1
ACMEDRAWINGMAN
  2
AcMeDrawingMan
  3
AcMeServices
 90
    33792
280
     0
281
     0
  0
CLASS
  1
ACMEVIEW
  2
AcMeView
  3
AcMeServices
 90
    33792
280
     0
281
     0
  0
CLASS
  1
ACDBENTITYCACHE
  2
AcMeEntityCache
  3
AcMeServices
 90
     1024
280
     0
281
     0
  0
CLASS
  1
GSMANAGER
  2
AcMeGSManager
  3
AcMeServices
 90
    33792
280
     0
281
     0
  0
CLASS
  1
AMDTINTERNALREACTOR
  2
AmdtInternalReactor
  3
AcMeServices
 90
    33792
280
     0
281
     0
  0
CLASS
  1
ACMESTATEMGR
  2
AcMeStateMgr
  3
AcMeServices
 90
     1024
280
     0
281
     0
  0
CLASS
  1
ACGREFMASTER
  2
AcGrefMaster
  3
AcAttribServices
 90
     1024
280
     0
281
     0
  0
CLASS
  1
AM_DRAWING_MGR
  2
AcDmDwgMgr
  3
AcMechDwgViewMgmt
 90
    33792
280
     0
281
     0
  0
CLASS
  1
AM_DWG_DOCUMENT
  2
AcDmDwgDocument
  3
AcMechDwgViewMgmt
 90
    33792
280
     0
281
     0
  0
CLASS
  1
AM_DWG_SHEET
  2
AcDmSheet
  3
AcMechDwgViewMgmt
 90
    33792
280
     0
281
     0
  0
CLASS
  1
AM_VIEWDIMPARMAP
  2
AcDmViewDimParMap
  3
AcMechDwgViewMgmt
 90
    33792
280
     0
281
     0
  0
CLASS
  1
ACIMREALSYSVAR
  2
AcImRealSysVar
  3
AcMeServices
 90
    33792
280
     0
281
     0
  0
CLASS
  1
AM_DWGMGR_NAME
  2
AcDmDwgMgrName
  3
AcMechDwgViewMgmt
 90
    33792
280
     0
281
     0
  0
CLASS
  1
ACME_DATABASE
  2
AcMeDbDatabase
  3
AcMeServices
 90
     1024
280
     0
281
     0
  0
CLASS
  1
ACRFINSADJUSTERMGR
  2
AcRfInsAdjusterMgr
  3
AcMeServices
 90
     1024
280
     0
281
     0
  0
CLASS
  1
ACGREFACADMASTER
  2
AcGrefacadMaster
  3
AcGrefServices
 90
     1024
280
     0
281
     0
  0
CLASS
  1
AMDTMENUSTATEMGR
  2
AmdtMenuStateMgr
  3
McadcomServices
 90
     1024
280
     0
281
     0
  0
CLASS
  1
AMDTMCOMMENUSTATE
  2
AmdtMcomMenuState
  3
McadcomServices
 90
     1024
280
     0
281
     0
  0
CLASS
  1
AMIMASTER
  2
AmiMaster
  3
AmiServices
 90
     1024
280
     0
281
     0
  0
CLASS
  1
MAPIAMMOUDLE
  2
MApiAmModule
  3
MApiAmServices
 90
     1024
280
     0
281
     0
  0
CLASS
  1
ACIMSTRSYSVAR
  2
AcImStrSysVar
  3
AcMeServices
 90
     1024
280
     0
281
     0
  0
CLASS
  1
AMDTADMENUSTATE
  2
AmdtAdMenuState
  3
DesignerServices
 90
    33792
280
     0
281
     0
  0
CLASS
  1
ADAPPL
  2
AcAdAppl
  3
DesignerAssemblies
 90
    33792
280
     0
281
     0
  0
CLASS
  1
DEPMGR
  2
AcAdDepMgr
  3
DesignerAssemblies
 90
    33792
280
     0
281
     0
  0
CLASS
  1
PARAMMGR
  2
AcAdParamMgr
  3
DesignerAssemblies
 90
    33792
280
     0
281
     0
  0
CLASS
  1
PARAMSCOPE
  2
AcAdParamScope
  3
DesignerAssemblies
 90
    33792
280
     0
281
     0
  0
CLASS
  1
NAMEDAPPL
  2
AcAdNamedAppl
  3
DesignerAssemblies
 90
    33792
280
     0
281
     0
  0
CLASS
  1
AMDTDMMENUSTATE
  2
AmdtDmMenuState
  3
AcMechDwgViewMgmt
 90
    33792
280
     0
281
     0
  0
CLASS
  1
AMDTAMMENUSTATE
  2
AmdtAmMenuState
  3
DesignerAssemblies
 90
     1024
280
     0
281
     0
  0
CLASS
  1
ACAMPROJECT
  2
AcAmProject
  3
DesignerAssemblies
 90
     1024
280
     0
281
     0
  0
CLASS
  1
ACAMGRCOMPDEF
  2
AcAmGrCompDef
  3
DesignerAssemblies
 90
     1024
280
     0
281
     0
  0
CLASS
  1
ACCMCONTEXT
  2
AcCmContext
  3
DesignerAssemblies
 90
    33792
280
     0
281
     0
  0
CLASS
  1
ACAMCOMPDEF
  2
AcAmCompDef
  3
DesignerAssemblies
 90
     1024
280
     0
281
     0
  0
CLASS
  1
ACAMCOMPDEFMGR
  2
AcAmCompDefMgr
  3
DesignerAssemblies
 90
     1024
280
     0
281
     0
  0
CLASS
  1
AMCONTEXTMGR
  2
AcAmContextMgr
  3
DesignerAssemblies
 90
     1024
280
     0
281
     0
  0
CLASS
  1
ACAMCONTEXTMODELER
  2
AcAmContextModeler
  3
DesignerAssemblies
 90
     1024
280
     0
281
     0
  0
CLASS
  1
ACMDATADICTIONARY
  2
AcmDataDictionary
  3
"AcmSymBB|Product Description: AutoCAD Mechanical|Company: Autodesk, Inc."
 90
     1024
280
     0
281
     0
  0
CLASS
  1
CATALOGSTATE
  2
AcAmCatalogState
  3
DesignerAssemblies
 90
    33792
280
     0
281
     0
  0
CLASS
  1
ACAMGRCOMPDEFSET
  2
AcAmGrCompDefSet
  3
DesignerAssemblies
 90
     1024
280
     0
281
     0
  0
CLASS
  1
AMDTBROWSERDBTAB
  2
AmdtBrowserDbTab
  3
McadcomServices
 90
     1024
280
     0
281
     0
  0
CLASS
  1
CBROWSERAPPOBJECT
  2
CBrowserAppObject
  3
McadcomServices
 90
     1024
280
     0
281
     0
  0
CLASS
  1
DM_PLACEHOLDER
  2
AcDmSelsetPlaceholder
  3
McadcomServices
 90
     1024
280
     0
281
     0
  0
CLASS
  1
ACMSTANDARDDIN
  2
AcmStandardDIN
  3
"Amdt_StdImp|Product Description: AutoCAD Mechanical|Company: Autodesk, Inc."
 90
    33792
280
     0
281
     0
  0
CLASS
  1
AMGOBJPROPCFG
  2
AmgObjPropCfg
  3
"AmgLay|Product Description: AutoCAD Mechanical|Company: Autodesk, Inc."
 90
     1024
280
     0
281
     0
  0
CLASS
  1
AMDTEDGESTANDARDDIN13715
  2
AmdtEdgeStdDIN13715
  3
"Amdt_StdImp|Product Description: AutoCAD Mechanical|Company: Autodesk, Inc."
 90
    33792
280
     0
281
     0
  0
CLASS
  1
ACMSURFSTANDARDDIN2002
  2
AcmSurfTextStdDIN2002
  3
"Amdt_StdImp|Product Description: AutoCAD Mechanical|Company: Autodesk, Inc."
 90
    33792
280
     0
281
     0
  0
CLASS
  1
ACMFCFSTANDARDDIN
  2
AcmFCFStdDIN
  3
"Amdt_StdImp|Product Description: AutoCAD Mechanical|Company: Autodesk, Inc."
 90
    33792
280
     0
281
     0
  0
CLASS
  1
ACMWELDSTANDARDDIN
  2
AcmWeldingStdDIN
  3
"Amdt_StdImp|Product Description: AutoCAD Mechanical|Company: Autodesk, Inc."
 90
    33792
280
     0
281
     0
  0
CLASS
  1
ACMIDSTANDARDDIN
  2
AcmIdStdDIN
  3
"Amdt_StdImp|Product Description: AutoCAD Mechanical|Company: Autodesk, Inc."
 90
    33792
280
     0
281
     0
  0
CLASS
  1
ACMDATUMSTANDARDDIN
  2
AcmDatumStdDIN
  3
"Amdt_StdImp|Product Description: AutoCAD Mechanical|Company: Autodesk, Inc."
 90
    33792
280
     0
281
     0
  0
CLASS
  1
ACMBOMSTANDARDDIN
  2
AcmBOMStdDIN
  3
"Amdt_StdImp|Product Description: AutoCAD Mechanical|Company: Autodesk, Inc."
 90
    33792
280
     0
281
     0
  0
CLASS
  1
ACMDETAILSTANDARDDIN
  2
AmdtDetailSymStdDIN
  3
"Amdt_StdImp|Product Description: AutoCAD Mechanical|Company: Autodesk, Inc."
 90
    33792
280
     0
281
     0
  0
CLASS
  1
ACMSECTIONSTANDARDDIN
  2
AmdtSectionSymStdDIN
  3
"Amdt_StdImp|Product Description: AutoCAD Mechanical|Company: Autodesk, Inc."
 90
    33792
280
     0
281
     0
  0
CLASS
  1
ACMCENTERLINESTANDARDDIN
  2
AmdtCenterLineStdDIN
  3
"Amdt_StdImp|Product Description: AutoCAD Mechanical|Company: Autodesk, Inc."
 90
    33792
280
     0
281
     0
  0
CLASS
  1
ACMTHREADLINESTANDARDDIN
  2
AmdtThreadLineStdDIN
  3
"Amdt_StdImp|Product Description: AutoCAD Mechanical|Company: Autodesk, Inc."
 90
    33792
280
     0
281
     0
  0
CLASS
  1
ACMNOTESTANDARDDIN
  2
AmdtNoteStdDIN
  3
"Amdt_StdImp|Product Description: AutoCAD Mechanical|Company: Autodesk, Inc."
 90
    33792
280
     0
281
     0
  0
CLASS
  1
ACMTAPERSTANDARDDIN
  2
AcmTaperStdDIN
  3
"Amdt_StdImp|Product Description: AutoCAD Mechanical|Company: Autodesk, Inc."
 90
    33792
280
     0
281
     0
  0
CLASS
  1
ACMANOOTATIONVIEWSTANDARDDIN
  2
AmdtAnViewStdDIN
  3
"Amdt_StdImp|Product Description: AutoCAD Mechanical|Company: Autodesk, Inc."
 90
    33792
280
     0
281
     0
  0
CLASS
  1
AMDTNOTETEMPLATEDB
  2
AmdtNoteTemplateDB
  3
AcmSymBB|Product Description: AutoCAD Mechanical|Company: Autodesk, Inc.
 90
     1024
280
     0
281
     0
  0
CLASS
  1
ACAMGLAYSTD
  2
AcAmgLayStd
  3
"AmgLay|Product Description: AutoCAD Mechanical|Company: Autodesk, Inc."
 90
     1024
280
     0
281
     0
  0
CLASS
  1
ACAMGDIMSTD
  2
AcAmgDimStd
  3
"AmgDim|Product Description: AutoCAD Mechanical|Company: Autodesk, Inc."
 90
     1024
280
     0
281
     0
  0
CLASS
  1
ACAMGHOLECHARTSTDDIN
  2
AcAmgHoleChartStdDIN
  3
AmgDim|Product Description: AutoCAD Mechanical|Company: Autodesk, Inc.
 90
    33792
280
     0
281
     0
  0
CLASS
  1
ACAMGTITLESTD
  2
AcAmgTitleStd
  3
"AmgTitle|Product Description: AutoCAD Mechanical|Company: Autodesk, Inc."
 90
     1024
280
     0
281
     0
  0
CLASS
  1
ACAMGFILTERDAT
  2
AcAmgFilterDat
  3
"AcadM|Product Description: AutoCAD Mechanical|Company: Autodesk, Inc."
 90
    33792
280
     0
281
     0
  0
CLASS
  1
CAMSSTRUCTBTNSTATE
  2
StructBtnState
  3
DesignerAssemblies
 90
    33792
280
     0
281
     0
  0
CLASS
  1
CELLSTYLEMAP
  2
AcDbCellStyleMap
  3
ObjectDBX Classes
 90
     1152
280
     0
281
     0
  0
CLASS
  1
SORTENTSTABLE
  2
AcDbSortentsTable
  3
ObjectDBX Classes
 90
        0
280
     0
281
     0
  0
CLASS
  1
PLOTSETTINGS
  2
AcDbPlotSettings
  3
ObjectDBX Classes
 90
        0
280
     0
281
     0
  0
CLASS
  1
DIMASSOC
  2
AcDbDimAssoc
  3
"AcDbDimAssoc|Product Desc:     AcDim ARX App For Dimension|Company:          Autodesk, Inc.|WEB Address:      www.autodesk.com"
 90
        0
280
     0
281
     0
  0
CLASS
  1
ACDBSECTIONVIEWSTYLE
  2
AcDbSectionViewStyle
  3
ObjectDBX Classes
 90
     1025
280
     0
281
     0
  0
CLASS
  1
ACDBDETAILVIEWSTYLE
  2
AcDbDetailViewStyle
  3
ObjectDBX Classes
 90
     1025
280
     0
281
     0
  0
CLASS
  1
ACMSECTIONSTANDARDCUSTOM
  2
AmdtSectionSymStdCustom
  3
"Amdt_StdImp|Product Description: AutoCAD Mechanical|Company: Autodesk, Inc."
 90
     1024
280
     0
281
     0
  0
CLASS
  1
ACMDETAILTANDARDCUSTOM
  2
AmdtDetailSymStdCustom
  3
"Amdt_StdImp|Product Description: AutoCAD Mechanical|Company: Autodesk, Inc."
 90
     1024
280
     0
281
     0
  0
CLASS
  1
FIELD
  2
AcDbField
  3
ObjectDBX Classes
 90
     1152
280
     0
281
     0
  0
CLASS
  1
FIELDLIST
  2
AcDbFieldList
  3
ObjectDBX Classes
 90
     1152
280
     0
281
     0
  0
CLASS
  1
ACMSTANDARDANSI
  2
AcmStandardANSI
  3
"Amdt_StdImp|Product Description: AutoCAD Mechanical|Company: Autodesk, Inc."
 90
     1024
280
     0
281
     0
  0
CLASS
  1
ACMSURFSTANDARDANSI
  2
AcmSurfTextStdANSI
  3
"Amdt_StdImp|Product Description: AutoCAD Mechanical|Company: Autodesk, Inc."
 90
     1024
280
     0
281
     0
  0
CLASS
  1
ACMFCFSTANDARDANSI
  2
AcmFCFStdANSI
  3
"Amdt_StdImp|Product Description: AutoCAD Mechanical|Company: Autodesk, Inc."
 90
     1024
280
     0
281
     0
  0
CLASS
  1
ACMWELDSTANDARDANSI
  2
AcmWeldingStdANSI
  3
"Amdt_StdImp|Product Description: AutoCAD Mechanical|Company: Autodesk, Inc."
 90
     1024
280
     0
281
     0
  0
CLASS
  1
ACMIDSTANDARDANSI
  2
AcmIdStdANSI
  3
"Amdt_StdImp|Product Description: AutoCAD Mechanical|Company: Autodesk, Inc."
 90
     1024
280
     0
281
     0
  0
CLASS
  1
ACMDATUMSTANDARDANSI
  2
AcmDatumStdANSI
  3
"Amdt_StdImp|Product Description: AutoCAD Mechanical|Company: Autodesk, Inc."
 90
     1024
280
     0
281
     0
  0
CLASS
  1
ACMBOMSTANDARDANSI
  2
AcmBOMStdANSI
  3
"Amdt_StdImp|Product Description: AutoCAD Mechanical|Company: Autodesk, Inc."
 90
     1024
280
     0
281
     0
  0
CLASS
  1
ACMDETAILSTANDARDANSI
  2
AmdtDetailSymStdANSI
  3
"Amdt_StdImp|Product Description: AutoCAD Mechanical|Company: Autodesk, Inc."
 90
     1024
280
     0
281
     0
  0
CLASS
  1
ACMSECTIONSTANDARDANSI
  2
AmdtSectionSymStdANSI
  3
"Amdt_StdImp|Product Description: AutoCAD Mechanical|Company: Autodesk, Inc."
 90
     1024
280
     0
281
     0
  0
CLASS
  1
ACMCENTERLINESTANDARDANSI
  2
AmdtCenterLineStdANSI
  3
"Amdt_StdImp|Product Description: AutoCAD Mechanical|Company: Autodesk, Inc."
 90
     1024
280
     0
281
     0
  0
CLASS
  1
ACMTHREADLINESTANDARDANSI
  2
AmdtThreadLineStdANSI
  3
"Amdt_StdImp|Product Description: AutoCAD Mechanical|Company: Autodesk, Inc."
 90
     1024
280
     0
281
     0
  0
CLASS
  1
ACMNOTESTANDARDANSI
  2
AmdtNoteStdANSI
  3
"Amdt_StdImp|Product Description: AutoCAD Mechanical|Company: Autodesk, Inc."
 90
     1024
280
     0
281
     0
  0
CLASS
  1
ACMTAPERSTANDARDANSI
  2
AcmTaperStdANSI
  3
"Amdt_StdImp|Product Description: AutoCAD Mechanical|Company: Autodesk, Inc."
 90
     1024
280
     0
281
     0
  0
CLASS
  1
ACMANOOTATIONVIEWSTANDARDANSI
  2
AmdtAnViewStdANSI
  3
"Amdt_StdImp|Product Description: AutoCAD Mechanical|Company: Autodesk, Inc."
 90
     1024
280
     0
281
     0
  0
CLASS
  1
ACAMGHOLECHARTSTDANSI
  2
AcAmgHoleChartStdANSI
  3
AmgDim|Product Description: AutoCAD Mechanical|Company: Autodesk, Inc.
 90
     1024
280
     0
281
     0
  0
ENDSEC
  0
SECTION
  2
TABLES
  0
TABLE
  2
VPORT
  5
8
102
{ACAD_XDICTIONARY
360
ACA
102
}
330
0
100
AcDbSymbolTable
 70
     1
  0
VPORT
  5
B56
330
8
100
AcDbSymbolTableRecord
100
AcDbViewportTableRecord
  2
*Active
 70
     0
 10
0.0
 20
0.0
 11
1.0
 21
1.0
 12
-1.361319096131865
 22
-0.633696561718466
 13
0.0
 23
0.0
 14
0.5
 24
0.5
 15
0.5
 25
0.5
 16
0.0
 26
0.0
 36
1.0
 17
0.0
 27
0.0
 37
0.0
 40
3.374537149461968
 41
2.266409266409266
 42
50.0
 43
0.0
 44
0.0
 50
0.0
 51
0.0
 71
     0
 72
  2000
 73
     1
 74
     3
 75
     0
 76
     0
 77
     0
 78
     0
281
     0
 65
     0
110
0.0
120
0.0
130
0.0
111
1.0
121
0.0
131
0.0
112
0.0
122
1.0
132
0.0
 79
     0
146
0.0
1001
ACAD_NAV_VCDISPLAY
1070
     3
  0
ENDTAB
  0
TABLE
  2
LTYPE
  5
5
330
0
100
AcDbSymbolTable
 70
    10
  0
LTYPE
  5
12
330
5
100
AcDbSymbolTableRecord
100
AcDbLinetypeTableRecord
  2
BYBLOCK
 70
     0
  3

 72
    65
 73
     0
 40
0.0
  0
LTYPE
  5
13
330
5
100
AcDbSymbolTableRecord
100
AcDbLinetypeTableRecord
  2
BYLAYER
 70
     0
  3

 72
    65
 73
     0
 40
0.0
  0
LTYPE
  5
16C0
330
5
100
AcDbSymbolTableRecord
100
AcDbLinetypeTableRecord
  2
Continuous
 70
     0
  3
Solid line
 72
    65
 73
     0
 40
0.0
  0
LTYPE
  5
9BE
330
5
100
AcDbSymbolTableRecord
100
AcDbLinetypeTableRecord
  2
DASH
 70
     0
  3
ISO Strichlinie __ __ __ __ __ __ __ __ __ __ __ __ __
 72
    65
 73
     2
 40
3.75
 49
3.0
 74
     0
 49
-0.75
 74
     0
  0
LTYPE
  5
9C2
330
5
100
AcDbSymbolTableRecord
100
AcDbLinetypeTableRecord
  2
LONGDASH_DASH
 70
     0
  3
ISO Lang gestrichelt punktiert ____ _ ____ _ ____ _ ____ . _
 72
    65
 73
     4
 40
10.5
 49
6.0
 74
     0
 49
-0.75
 74
     0
 49
3.0
 74
     0
 49
-0.75
 74
     0
  0
LTYPE
  5
EB5
330
5
100
AcDbSymbolTableRecord
100
AcDbLinetypeTableRecord
  2
HIDDEN
 70
     0
  3
Hidden __ __ __ __ __ __ __ __ __ __ __ __ __ _
 72
    65
 73
     2
 40
0.375
 49
0.25
 74
     0
 49
-0.125
 74
     0
  0
LTYPE
  5
EB6
330
5
100
AcDbSymbolTableRecord
100
AcDbLinetypeTableRecord
  2
PHANTOM2
 70
     0
  3
Phantom (.5x) ___ _ _ ___ _ _ ___ _ _ ___ _ _
 72
    65
 73
     6
 40
1.25
 49
0.625
 74
     0
 49
-0.125
 74
     0
 49
0.125
 74
     0
 49
-0.125
 74
     0
 49
0.125
 74
     0
 49
-0.125
 74
     0
  0
LTYPE
  5
EB7
330
5
100
AcDbSymbolTableRecord
100
AcDbLinetypeTableRecord
  2
CENTER
 70
     0
  3
Center ____ _ ____ _ ____ _ ____ _ ____ _ ____
 72
    65
 73
     4
 40
2.0
 49
1.25
 74
     0
 49
-0.25
 74
     0
 49
0.25
 74
     0
 49
-0.25
 74
     0
  0
LTYPE
  5
F22
330
5
100
AcDbSymbolTableRecord
100
AcDbLinetypeTableRecord
  2
CENTER2
 70
     0
  3
Center (.5x) ___ _ ___ _ ___ _ ___ _ ___ _ ___
 72
    65
 73
     4
 40
1.125
 49
0.75
 74
     0
 49
-0.125
 74
     0
 49
0.125
 74
     0
 49
-0.125
 74
     0
  0
LTYPE
  5
F23
330
5
100
AcDbSymbolTableRecord
100
AcDbLinetypeTableRecord
  2
HIDDEN2
 70
     0
  3
Hidden (.5x) _ _ _ _ _ _ _ _ _ _ _ _ _ _ _ _ _
 72
    65
 73
     2
 40
0.1875
 49
0.125
 74
     0
 49
-0.0625
 74
     0
  0
LTYPE
  5
F24
330
5
100
AcDbSymbolTableRecord
100
AcDbLinetypeTableRecord
  2
ACANSTGB
 70
     0
  3
__ . . __ . .
 72
    65
 73
     6
 40
0.35433070866
 49
0.15748031496
 74
     0
 49
-0.03937007874
 74
     0
 49
0.03937007874
 74
     0
 49
-0.03937007874
 74
     0
 49
0.03937007874
 74
     0
 49
-0.03937007874
 74
     0
  0
LTYPE
  5
F25
330
5
100
AcDbSymbolTableRecord
100
AcDbLinetypeTableRecord
  2
ACANSTGL
 70
     0
  3
_ _ _ _ _
 72
    65
 73
     2
 40
0.11811023622
 49
0.07874015748
 74
     0
 49
-0.03937007874
 74
     0
  0
ENDTAB
  0
TABLE
  2
LAYER
  5
2
102
{ACAD_XDICTIONARY
360
43C
102
}
330
0
100
AcDbSymbolTable
 70
    10
  0
LAYER
  5
F
102
{ACAD_XDICTIONARY
360
52D
102
}
330
2
100
AcDbSymbolTableRecord
100
AcDbLayerTableRecord
  2
0
 70
     0
 62
     7
  6
Continuous
290
     0
370
    -3
390
300
  0
LAYER
  5
23
102
{ACAD_XDICTIONARY
360
52F
102
}
330
2
100
AcDbSymbolTableRecord
100
AcDbLayerTableRecord
  2
1
 70
     0
 62
     4
  6
Continuous
370
    50
390
300
  0
LAYER
  5
24
102
{ACAD_XDICTIONARY
360
531
102
}
330
2
100
AcDbSymbolTableRecord
100
AcDbLayerTableRecord
  2
SK1
 70
     0
 62
     4
  6
Continuous
370
    50
390
300
  0
LAYER
  5
25
102
{ACAD_XDICTIONARY
360
533
102
}
330
2
100
AcDbSymbolTableRecord
100
AcDbLayerTableRecord
  2
2
 70
     0
 62
     7
  6
Continuous
370
    25
390
300
  0
LAYER
  5
27
102
{ACAD_XDICTIONARY
360
537
102
}
330
2
100
AcDbSymbolTableRecord
100
AcDbLayerTableRecord
  2
SK2
 70
     0
 62
     7
  6
Continuous
370
    25
390
300
  0
LAYER
  5
28
102
{ACAD_XDICTIONARY
360
539
102
}
330
2
100
AcDbSymbolTableRecord
100
AcDbLayerTableRecord
  2
3
 70
     0
 62
     1
  6
DASH
370
    35
390
300
  0
LAYER
  5
2A
102
{ACAD_XDICTIONARY
360
53D
102
}
330
2
100
AcDbSymbolTableRecord
100
AcDbLayerTableRecord
  2
4
 70
     0
 62
     2
  6
LONGDASH_DASH
370
    25
390
300
  0
LAYER
  5
2B
102
{ACAD_XDICTIONARY
360
53F
102
}
330
2
100
AcDbSymbolTableRecord
100
AcDbLayerTableRecord
  2
SK4
 70
     0
 62
     2
  6
LONGDASH_DASH
370
    25
390
300
  0
LAYER
  5
2E
102
{ACAD_XDICTIONARY
360
545
102
}
330
2
100
AcDbSymbolTableRecord
100
AcDbLayerTableRecord
  2
SK6
 70
     0
 62
     5
  6
Continuous
370
    35
390
300
  0
LAYER
  5
1172
330
2
100
AcDbSymbolTableRecord
100
AcDbLayerTableRecord
  2
DEFPOINTS
 70
     0
 62
     7
  6
Continuous
290
     0
370
    -3
390
300
  0
ENDTAB
  0
TABLE
  2
STYLE
  5
3
330
0
100
AcDbSymbolTable
 70
     5
  0
STYLE
  5
10
330
3
100
AcDbSymbolTableRecord
100
AcDbTextStyleTableRecord
  2
STANDARD
 70
     0
 40
0.0
 41
1.0
 50
0.0
 71
     0
 42
0.2
  3
monos.ttf
  4

1001
ACAD
1000
Monospac821 BT
1071
       49
  0
STYLE
  5
1E
330
3
100
AcDbSymbolTableRecord
100
AcDbTextStyleTableRecord
  2
STANDARD 5 mm
 70
     0
 40
0.1969
 41
1.0
 50
0.0
 71
     0
 42
3.5
  3
monos.ttf
  4

1001
ACAD
1000
Monospac821 BT
1071
       49
  0
STYLE
  5
7DE
330
3
100
AcDbSymbolTableRecord
100
AcDbTextStyleTableRecord
  2
STANDARD 3.5 mm
 70
     0
 40
0.1377952755905512
 41
1.0
 50
0.0
 71
     0
 42
3.5
  3
monos.ttf
  4

1001
ACAD
1000
Monospac821 BT
1071
       49
  0
STYLE
  5
F28
330
3
100
AcDbSymbolTableRecord
100
AcDbTextStyleTableRecord
  2
ACANSGDT
 70
     0
 40
0.0
 41
1.0
 50
0.0
 71
     0
 42
3.0
  3
amgdt.shx
  4

  0
ENDTAB
  0
TABLE
  2
VIEW
  5
6
330
0
100
AcDbSymbolTable
 70
     6
  0
VIEW
  5
758
330
6
100
AcDbSymbolTableRecord
100
AcDbViewTableRecord
  2
AM_VIEW1
 70
     1
 40
148.5265045166015
 10
121.0318359737553
 20
219.614756822586
 41
248.4136475334483
 11
0.0
 21
0.0
 31
1.0
 12
0.0
 22
0.0
 32
0.0
 42
50.0
 43
0.0
 44
0.0
 50
0.0
 71
     0
281
     0
 72
     0
  0
VIEW
  5
759
330
6
100
AcDbSymbolTableRecord
100
AcDbViewTableRecord
  2
AM_VIEW2
 70
     1
 40
148.5265045166015
 10
292.4378600711665
 20
219.614756822586
 41
248.4136475334483
 11
0.0
 21
0.0
 31
1.0
 12
0.0
 22
0.0
 32
0.0
 42
50.0
 43
0.0
 44
0.0
 50
0.0
 71
     0
281
     0
 72
     0
  0
VIEW
  5
75A
330
6
100
AcDbSymbolTableRecord
100
AcDbViewTableRecord
  2
AM_VIEW3
 70
     1
 40
148.5265045166015
 10
121.0318359737553
 20
71.0882523059845
 41
248.4136475334483
 11
0.0
 21
0.0
 31
1.0
 12
0.0
 22
0.0
 32
0.0
 42
50.0
 43
0.0
 44
0.0
 50
0.0
 71
     0
281
     0
 72
     0
  0
VIEW
  5
75B
330
6
100
AcDbSymbolTableRecord
100
AcDbViewTableRecord
  2
AM_VIEW4
 70
     1
 40
148.5265045166015
 10
292.4378600711665
 20
71.0882523059845
 41
248.4136475334483
 11
0.0
 21
0.0
 31
1.0
 12
0.0
 22
0.0
 32
0.0
 42
50.0
 43
0.0
 44
0.0
 50
0.0
 71
     0
281
     0
 72
     0
  0
VIEW
  5
75C
330
6
100
AcDbSymbolTableRecord
100
AcDbViewTableRecord
  2
AM_VIEW5
 70
     1
 40
148.5265045166015
 10
206.7348480224609
 20
145.3515045642852
 41
248.4136475334483
 11
0.0
 21
0.0
 31
1.0
 12
0.0
 22
0.0
 32
0.0
 42
50.0
 43
0.0
 44
0.0
 50
0.0
 71
     0
281
     0
 72
     0
  0
VIEW
  5
75D
330
6
100
AcDbSymbolTableRecord
100
AcDbViewTableRecord
  2
AM_VIEW6
 70
     1
 40
297.0500385031128
 10
206.7348480224609
 20
145.3515045642852
 41
496.8223267939458
 11
0.0
 21
0.0
 31
1.0
 12
0.0
 22
0.0
 32
0.0
 42
50.0
 43
0.0
 44
0.0
 50
0.0
 71
     0
281
     0
 72
     0
  0
ENDTAB
  0
TABLE
  2
UCS
  5
7
330
0
100
AcDbSymbolTable
 70
     0
  0
ENDTAB
  0
TABLE
  2
APPID
  5
9
330
0
100
AcDbSymbolTable
 70
    39
  0
APPID
  5
11
330
9
100
AcDbSymbolTableRecord
100
AcDbRegAppTableRecord
  2
ACAD
 70
     0
  0
APPID
  5
3A6
330
9
100
AcDbSymbolTableRecord
100
AcDbRegAppTableRecord
  2
ACAD_PSEXT
 70
     0
  0
APPID
  5
3A8
330
9
100
AcDbSymbolTableRecord
100
AcDbRegAppTableRecord
  2
ACAD_EXEMPT_FROM_CAD_STANDARDS
 70
     0
  0
APPID
  5
433
330
9
100
AcDbSymbolTableRecord
100
AcDbRegAppTableRecord
  2
AcAecLayerStandard
 70
     0
  0
APPID
  5
471
330
9
100
AcDbSymbolTableRecord
100
AcDbRegAppTableRecord
  2
ACAD_MLEADERVER
 70
     0
  0
APPID
  5
47D
330
9
100
AcDbSymbolTableRecord
100
AcDbRegAppTableRecord
  2
MCAD_NO_VIS
 70
     0
  0
APPID
  5
47E
330
9
100
AcDbSymbolTableRecord
100
AcDbRegAppTableRecord
  2
ACAD_TEMP_GRAPHIC
 70
     0
  0
APPID
  5
4AC
330
9
100
AcDbSymbolTableRecord
100
AcDbRegAppTableRecord
  2
AD_DRAW
 70
     0
  0
APPID
  5
4AF
330
9
100
AcDbSymbolTableRecord
100
AcDbRegAppTableRecord
  2
ACATTRIBSERVICES
 70
     0
  0
APPID
  5
4D0
330
9
100
AcDbSymbolTableRecord
100
AcDbRegAppTableRecord
  2
DESIGNERASSEMBLIES
 70
     0
  0
APPID
  5
4D6
330
9
100
AcDbSymbolTableRecord
100
AcDbRegAppTableRecord
  2
ACADM_DIM_EDIT
 70
     0
  0
APPID
  5
4D7
330
9
100
AcDbSymbolTableRecord
100
AcDbRegAppTableRecord
  2
AMDT_DM_ADJ
 70
     0
  0
APPID
  5
5CD
330
9
100
AcDbSymbolTableRecord
100
AcDbRegAppTableRecord
  2
AcDbAttr
 70
     0
  0
APPID
  5
5CE
330
9
100
AcDbSymbolTableRecord
100
AcDbRegAppTableRecord
  2
ACAUTHENVIRON
 70
     0
  0
APPID
  5
5CF
330
9
100
AcDbSymbolTableRecord
100
AcDbRegAppTableRecord
  2
AcDbDynamicBlockTrueName
 70
     0
  0
APPID
  5
5D0
330
9
100
AcDbSymbolTableRecord
100
AcDbRegAppTableRecord
  2
ACDBBLOCKREPETAG
 70
     0
  0
APPID
  5
723
330
9
100
AcDbSymbolTableRecord
100
AcDbRegAppTableRecord
  2
GENIUS_GENTRA_14
 70
     0
  0
APPID
  5
752
330
9
100
AcDbSymbolTableRecord
100
AcDbRegAppTableRecord
  2
GENIUS_GENOENT_13
 70
     0
  0
APPID
  5
753
330
9
100
AcDbSymbolTableRecord
100
AcDbRegAppTableRecord
  2
GENIUS_GENOBJ-N-TIT_13
 70
     0
  0
APPID
  5
754
330
9
100
AcDbSymbolTableRecord
100
AcDbRegAppTableRecord
  2
GENIUS_GENODEF_13
 70
     0
  0
APPID
  5
755
330
9
100
AcDbSymbolTableRecord
100
AcDbRegAppTableRecord
  2
GENIUS_GENOLIS_13
 70
     0
  0
APPID
  5
756
330
9
100
AcDbSymbolTableRecord
100
AcDbRegAppTableRecord
  2
GENIUS_GENTITLE_13
 70
     0
  0
APPID
  5
757
330
9
100
AcDbSymbolTableRecord
100
AcDbRegAppTableRecord
  2
GENIUS_GENOREF_13
 70
     0
  0
APPID
  5
75E
330
9
100
AcDbSymbolTableRecord
100
AcDbRegAppTableRecord
  2
GENIUS_GENSCREG_15
 70
     0
  0
APPID
  5
75F
330
9
100
AcDbSymbolTableRecord
100
AcDbRegAppTableRecord
  2
GENIUS_GENOBJ-N-SDF_13
 70
     0
  0
APPID
  5
7BE
330
9
100
AcDbSymbolTableRecord
100
AcDbRegAppTableRecord
  2
AcadAnnoPO
 70
     0
  0
APPID
  5
7BF
330
9
100
AcDbSymbolTableRecord
100
AcDbRegAppTableRecord
  2
ACAD_DSTYLE_DIMJAG
 70
     0
  0
APPID
  5
7C0
330
9
100
AcDbSymbolTableRecord
100
AcDbRegAppTableRecord
  2
ACAD_DSTYLE_DIMTALN
 70
     0
  0
APPID
  5
8F4
330
9
100
AcDbSymbolTableRecord
100
AcDbRegAppTableRecord
  2
ACAD_DSTYLE_DIMBREAK
 70
     0
  0
APPID
  5
AD8
330
9
100
AcDbSymbolTableRecord
100
AcDbRegAppTableRecord
  2
ACAD_DSTYLE_DIMARC_LENGTH_SYMBOL
 70
     0
  0
APPID
  5
AEA
330
9
100
AcDbSymbolTableRecord
100
AcDbRegAppTableRecord
  2
ACAD_DSTYLE_DIMJOGGED_JOGANGLE_SYMBOL
 70
     0
  0
APPID
  5
EDF
330
9
100
AcDbSymbolTableRecord
100
AcDbRegAppTableRecord
  2
ACAD_NAV_VCDISPLAY
 70
     0
  0
APPID
  5
FFE
330
9
100
AcDbSymbolTableRecord
100
AcDbRegAppTableRecord
  2
GENIUS_GENREC_14
 70
     0
  0
APPID
  5
FFF
330
9
100
AcDbSymbolTableRecord
100
AcDbRegAppTableRecord
  2
GENIUS_GENOBJ-N-REC_13
 70
     0
  0
APPID
  5
1080
330
9
100
AcDbSymbolTableRecord
100
AcDbRegAppTableRecord
  2
AcadAnnoMonitorAlertIconDisabled
 70
     0
  0
APPID
  5
1173
330
9
100
AcDbSymbolTableRecord
100
AcDbRegAppTableRecord
  2
ACAD_DSTYLE_DIMINSPECT
 70
     0
  0
APPID
  5
16BA
330
9
100
AcDbSymbolTableRecord
100
AcDbRegAppTableRecord
  2
ACAD_DSTYLE_DIM_LINETYPE
 70
     0
  0
APPID
  5
16BB
330
9
100
AcDbSymbolTableRecord
100
AcDbRegAppTableRecord
  2
ACAD_DSTYLE_DIM_EXT1_LINETYPE
 70
     0
  0
APPID
  5
16BC
330
9
100
AcDbSymbolTableRecord
100
AcDbRegAppTableRecord
  2
ACAD_DSTYLE_DIM_EXT2_LINETYPE
 70
     0
  0
ENDTAB
  0
TABLE
  2
DIMSTYLE
  5
A
330
0
100
AcDbSymbolTable
 70
     8
100
AcDbDimStyleTable
 71
     2
340
4FC
340
3F
  0
DIMSTYLE
105
3F
330
A
100
AcDbSymbolTableRecord
100
AcDbDimStyleTableRecord
  2
STANDARD
 70
     0
  3
"
 42
0.0
 48
0.000000001
 73
     0
 74
     0
 77
     1
 78
     9
 79
     2
140
0.1377952755905512
141
0.0
146
0.7071069999999999
172
     1
271
     3
272
     3
283
     0
285
     9
286
     8
340
7DE
1001
ACAD_DSTYLE_DIMBREAK
1070
   391
1040
0.147638
1001
ACAD_DSTYLE_DIMJAG
1070
   388
1040
1.5
1001
ACAD_DSTYLE_DIMTALN
1070
   392
1070
     0
1001
ACAD_DSTYLE_DIMARC_LENGTH_SYMBOL
1070
   379
1070
     1
1001
ACAD_DSTYLE_DIMJOGGED_JOGANGLE_SYMBOL
1070
   384
1040
1.570796326794896
  0
DIMSTYLE
105
4FC
102
{ACAD_REACTORS
330
1517
330
1518
330
1519
330
151A
330
151D
330
1522
102
}
330
A
100
AcDbSymbolTableRecord
100
AcDbDimStyleTableRecord
  2
AM_DIN
 70
     0
 41
0.098425
 42
0.03937
 43
0.5905510000000001
 44
0.07874
 48
0.000000001
 73
     0
 74
     0
 77
     1
 78
    11
 79
     2
140
0.1377952755905512
141
0.003543
146
0.7071069999999999
147
0.03937
172
     1
271
     3
272
     3
277
     3
284
     8
285
     9
286
     8
340
7DE
371
    -1
1001
ACAD_DSTYLE_DIMBREAK
1070
   391
1040
0.147638
1001
ACAD_DSTYLE_DIMJAG
1070
   388
1040
1.5
1001
ACAD_DSTYLE_DIMTALN
1070
   392
1070
     0
1001
ACAD_DSTYLE_DIMARC_LENGTH_SYMBOL
1070
   379
1070
     1
1001
ACAD_DSTYLE_DIMJOGGED_JOGANGLE_SYMBOL
1070
   384
1040
1.570796326794896
  0
DIMSTYLE
105
F29
102
{ACAD_REACTORS
330
1BDE
102
}
330
A
100
AcDbSymbolTableRecord
100
AcDbDimStyleTableRecord
  2
AM_ANSI
 70
     0
  4
mm
 41
0.12
 42
0.05
 43
0.5
 44
0.1
 47
0.1
 48
0.1
 78
     7
 79
     2
140
0.12
141
0.0
146
0.71
147
0.06
176
   256
177
   256
178
     2
274
     4
284
     7
340
10
371
    -1
372
    -1
1001
ACAD_DSTYLE_DIMJAG
1070
   388
1040
1.5
1001
ACAD_DSTYLE_DIMBREAK
1070
   391
1040
0.125
1001
ACAD_DSTYLE_DIMARC_LENGTH_SYMBOL
1070
   379
1070
     1
1001
ACAD_DSTYLE_DIM_LINETYPE
1070
   380
1005
12
1001
ACAD_DSTYLE_DIM_EXT1_LINETYPE
1070
   381
1005
12
1001
ACAD_DSTYLE_DIM_EXT2_LINETYPE
1070
   382
1005
12
  0
DIMSTYLE
105
F2A
330
A
100
AcDbSymbolTableRecord
100
AcDbDimStyleTableRecord
  2
AM_ANSI$3
 70
     0
  4
mm
 41
0.12
 42
0.05
 43
0.5
 44
0.1
 47
0.1
 48
0.1
 78
     7
 79
     2
140
0.12
141
0.0
146
0.71
147
0.06
176
   256
177
   256
178
     2
274
     4
284
     7
288
     1
289
     0
340
10
371
    -1
372
    -1
1001
ACAD_DSTYLE_DIMBREAK
1070
   391
1040
0.125
1001
ACAD_DSTYLE_DIMJAG
1070
   388
1040
1.5
1001
ACAD_DSTYLE_DIMARC_LENGTH_SYMBOL
1070
   379
1070
     1
1001
ACAD_DSTYLE_DIM_LINETYPE
1070
   380
1005
12
1001
ACAD_DSTYLE_DIM_EXT1_LINETYPE
1070
   381
1005
12
1001
ACAD_DSTYLE_DIM_EXT2_LINETYPE
1070
   382
1005
12
  0
DIMSTYLE
105
F2B
330
A
100
AcDbSymbolTableRecord
100
AcDbDimStyleTableRecord
  2
AM_ANSI$4
 70
     0
  4
mm
 41
0.12
 42
0.05
 43
0.5
 44
0.1
 47
0.1
 48
0.1
 78
     7
 79
     2
140
0.12
141
0.0
146
0.71
147
0.06
176
   256
177
   256
178
     2
274
     4
284
     7
288
     1
289
     0
340
10
371
    -1
372
    -1
1001
ACAD_DSTYLE_DIMBREAK
1070
   391
1040
0.125
1001
ACAD_DSTYLE_DIMJAG
1070
   388
1040
1.5
1001
ACAD_DSTYLE_DIMARC_LENGTH_SYMBOL
1070
   379
1070
     1
1001
ACAD_DSTYLE_DIM_LINETYPE
1070
   380
1005
12
1001
ACAD_DSTYLE_DIM_EXT1_LINETYPE
1070
   381
1005
12
1001
ACAD_DSTYLE_DIM_EXT2_LINETYPE
1070
   382
1005
12
  0
DIMSTYLE
105
F2C
330
A
100
AcDbSymbolTableRecord
100
AcDbDimStyleTableRecord
  2
AM_ANSI$7
 70
     0
  4
mm
 41
0.12
 42
0.05
 43
0.5
 44
0.1
 47
0.1
 48
0.1
 78
     7
 79
     2
140
0.12
141
0.0
146
0.71
147
0.06
176
   256
177
   256
178
     2
274
     4
284
     7
340
10
371
    -1
372
    -1
1001
ACAD_DSTYLE_DIMBREAK
1070
   391
1040
0.125
1001
ACAD_DSTYLE_DIMJAG
1070
   388
1040
1.5
1001
ACAD_DSTYLE_DIMARC_LENGTH_SYMBOL
1070
   379
1070
     1
1001
ACAD_DSTYLE_DIM_LINETYPE
1070
   380
1005
12
1001
ACAD_DSTYLE_DIM_EXT1_LINETYPE
1070
   381
1005
12
1001
ACAD_DSTYLE_DIM_EXT2_LINETYPE
1070
   382
1005
12
  0
DIMSTYLE
105
F2D
330
A
100
AcDbSymbolTableRecord
100
AcDbDimStyleTableRecord
  2
AM_ANSI$SF
 70
     0
  4
mm
 41
0.12
 42
0.05
 43
0.5
 44
0.1
 47
0.1
 48
0.1
 75
     1
 76
     1
 78
     7
 79
     2
140
0.12
141
0.0
146
0.71
147
0.06
176
   256
177
   256
178
     2
274
     4
284
     7
340
10
371
    -1
372
    -1
1001
ACAD_DSTYLE_DIMBREAK
1070
   391
1040
0.125
1001
ACAD_DSTYLE_DIMJAG
1070
   388
1040
1.5
1001
ACAD_DSTYLE_DIMARC_LENGTH_SYMBOL
1070
   379
1070
     1
1001
ACAD_DSTYLE_DIM_LINETYPE
1070
   380
1005
12
1001
ACAD_DSTYLE_DIM_EXT1_LINETYPE
1070
   381
1005
12
1001
ACAD_DSTYLE_DIM_EXT2_LINETYPE
1070
   382
1005
12
  0
DIMSTYLE
105
F2E
330
A
100
AcDbSymbolTableRecord
100
AcDbDimStyleTableRecord
  2
AM_ANSI$SH
 70
     0
  4
mm
 41
0.12
 42
0.05
 43
0.5
 44
0.1
 47
0.1
 48
0.1
 75
     1
 76
     1
 78
     7
 79
     2
140
0.12
141
0.0
146
0.71
147
0.06
173
     1
176
   256
177
   256
178
     2
274
     4
284
     7
340
10
343
F19
371
    -1
372
    -1
1001
ACAD_DSTYLE_DIMBREAK
1070
   391
1040
0.125
1001
ACAD_DSTYLE_DIMJAG
1070
   388
1040
1.5
1001
ACAD_DSTYLE_DIMARC_LENGTH_SYMBOL
1070
   379
1070
     1
1001
ACAD_DSTYLE_DIM_LINETYPE
1070
   380
1005
12
1001
ACAD_DSTYLE_DIM_EXT1_LINETYPE
1070
   381
1005
12
1001
ACAD_DSTYLE_DIM_EXT2_LINETYPE
1070
   382
1005
12
  0
ENDTAB
  0
TABLE
  2
BLOCK_RECORD
  5
1
330
0
100
AcDbSymbolTable
 70
     9
  0
BLOCK_RECORD
  5
18
102
{ACAD_XDICTIONARY
360
15E0
102
}
330
1
100
AcDbSymbolTableRecord
100
AcDbBlockTableRecord
  2
*MODEL_SPACE
340
303
  0
BLOCK_RECORD
  5
B76
330
1
100
AcDbSymbolTableRecord
100
AcDbBlockTableRecord
  2
*Paper_Space
340
B77
  0
BLOCK_RECORD
  5
F19
330
1
100
AcDbSymbolTableRecord
100
AcDbBlockTableRecord
  2
GENAXEH
340
0
  0
BLOCK_RECORD
  5
F1D
330
1
100
AcDbSymbolTableRecord
100
AcDbBlockTableRecord
  2
_ACMFILLEDHALF
340
0
  0
BLOCK_RECORD
  5
1525
330
1
100
AcDbSymbolTableRecord
100
AcDbBlockTableRecord
  2
*D2
340
0
  0
BLOCK_RECORD
  5
1533
330
1
100
AcDbSymbolTableRecord
100
AcDbBlockTableRecord
  2
*D3
340
0
  0
BLOCK_RECORD
  5
153F
330
1
100
AcDbSymbolTableRecord
100
AcDbBlockTableRecord
  2
*D4
340
0
  0
BLOCK_RECORD
  5
154B
330
1
100
AcDbSymbolTableRecord
100
AcDbBlockTableRecord
  2
*D5
340
0
  0
BLOCK_RECORD
  5
157F
330
1
100
AcDbSymbolTableRecord
100
AcDbBlockTableRecord
  2
*D6
340
0
  0
BLOCK_RECORD
  5
158B
330
1
100
AcDbSymbolTableRecord
100
AcDbBlockTableRecord
  2
*D7
340
0
  0
ENDTAB
  0
ENDSEC
  0
SECTION
  2
BLOCKS
  0
BLOCK
  5
32
330
18
100
AcDbEntity
  8
0
100
AcDbBlockBegin
  2
*MODEL_SPACE
 70
     0
 10
0.0
 20
0.0
 30
0.0
  3
*MODEL_SPACE
  1

  0
ENDBLK
  5
33
330
18
100
AcDbEntity
  8
0
100
AcDbBlockEnd
  0
BLOCK
  5
B78
330
B76
100
AcDbEntity
 67
     1
  8
0
100
AcDbBlockBegin
  2
*Paper_Space
 70
     0
 10
0.0
 20
0.0
 30
0.0
  3
*Paper_Space
  1

  0
ENDBLK
  5
B79
330
B76
100
AcDbEntity
 67
     1
  8
0
100
AcDbBlockEnd
  0
BLOCK
  5
F1A
330
F19
100
AcDbEntity
  8
0
100
AcDbBlockBegin
  2
GENAXEH
 70
     0
 10
0.0
 20
0.0
 30
0.0
  3
GENAXEH
  1

  0
LINE
  5
F1B
330
F19
100
AcDbEntity
  8
0
100
AcDbLine
 10
-1.0
 20
0.0
 30
0.0
 11
1.0
 21
0.0
 31
0.0
  0
ENDBLK
  5
F1C
330
F19
100
AcDbEntity
  8
0
100
AcDbBlockEnd
  0
BLOCK
  5
F1E
330
F1D
100
AcDbEntity
  8
0
100
AcDbBlockBegin
  2
_ACMFILLEDHALF
 70
     0
 10
0.0
 20
0.0
 30
0.0
  3
_ACMFILLEDHALF
  1

  0
TRACE
  5
F1F
330
F1D
100
AcDbEntity
  8
1
 62
     0
100
AcDbTrace
 10
-0.8
 20
0.0
 30
0.0
 11
-1.0
 21
0.166666666
 31
0.0
 12
0.0
 22
0.0
 32
0.0
 13
0.0
 23
0.0
 33
0.0
  0
LINE
  5
F20
330
F1D
100
AcDbEntity
  8
1
 62
     0
100
AcDbLine
 10
-1.0
 20
0.0
 30
0.0
 11
-0.8
 21
0.0
 31
0.0
  0
ENDBLK
  5
F21
330
F1D
100
AcDbEntity
  8
0
100
AcDbBlockEnd
  0
BLOCK
  5
1526
330
1525
100
AcDbEntity
  8
0
100
AcDbBlockBegin
  2
*D2
 70
     1
 10
0.0
 20
0.0
 30
0.0
  3
*D2
  1

  0
LINE
  5
1609
330
1525
100
AcDbEntity
  8
2
 62
     0
370
    -2
100
AcDbLine
 10
1.588225268735167
 20
-0.0000000000006537
 30
0.0
 11
1.900191057568367
 21
-0.0000000000006538
 31
0.0
  0
LINE
  5
160A
330
1525
100
AcDbEntity
  8
2
 62
     0
370
    -2
100
AcDbLine
 10
1.45787492545982
 20
-0.250003175937294
 30
0.0
 11
1.900191057568367
 21
-0.2500031759372941
 31
0.0
  0
LINE
  5
160B
330
1525
100
AcDbEntity
  8
2
 62
     0
100
AcDbLine
 10
1.821451057568365
 20
0.0984249999993462
 30
0.0
 11
1.821451057568365
 21
0.1968499999993462
 31
0.0
  0
LINE
  5
160C
330
1525
100
AcDbEntity
  8
2
 62
     0
100
AcDbLine
 10
1.821451057568365
 20
-0.348428175937294
 30
0.0
 11
1.821451057568365
 21
-1.072029395303055
 31
0.0
  0
LINE
  5
160D
330
1525
100
AcDbEntity
  8
2
 62
     0
100
AcDbLine
 10
1.821451057568365
 20
-0.0000000000006538
 30
0.0
 11
1.821451057568365
 21
-0.250003175937294
 31
0.0
  0
SOLID
  5
160E
330
1525
100
AcDbEntity
  8
2
 62
     0
100
AcDbTrace
 10
1.805046890901699
 20
0.0984249999993462
 30
0.0
 11
1.837855224235034
 21
0.0984249999993462
 31
0.0
 12
1.821451057568365
 22
-0.0000000000006538
 32
0.0
 13
1.821451057568365
 23
-0.0000000000006538
 33
0.0
  0
SOLID
  5
160F
330
1525
100
AcDbEntity
  8
2
 62
     0
100
AcDbTrace
 10
1.805046890901699
 20
-0.348428175937294
 30
0.0
 11
1.837855224235034
 21
-0.348428175937294
 31
0.0
 12
1.821451057568365
 22
-0.250003175937294
 32
0.0
 13
1.821451057568365
 23
-0.250003175937294
 33
0.0
  0
MTEXT
  5
1610
330
1525
100
AcDbEntity
  8
2
 62
     0
100
AcDbMText
 10
1.710762561101437
 20
-0.759441285620175
 30
0.0
 40
0.1377952755905512
 41
0.0
 71
     5
 72
     1
  1
\A1;0.25"
  7
STANDARD 3.5 mm
 11
0.0000000000000001
 21
1.0
 31
0.0
 73
     1
 44
1.0
1001
ACAD
1000
MTEXTBEGIN
1070
    73
1070
     1
1070
    44
1040
1.0
1070
    74
1070
     0
1000
MTEXTEND
  0
POINT
  5
1611
330
1525
100
AcDbEntity
  8
DEFPOINTS
 62
     0
100
AcDbPoint
 10
1.548855268735167
 20
-0.0000000000006537
 30
0.0
  0
POINT
  5
1612
330
1525
100
AcDbEntity
  8
DEFPOINTS
 62
     0
100
AcDbPoint
 10
1.41850492545982
 20
-0.250003175937294
 30
0.0
  0
POINT
  5
1613
330
1525
100
AcDbEntity
  8
DEFPOINTS
 62
     0
100
AcDbPoint
 10
1.821451057568365
 20
-0.250003175937294
 30
0.0
  0
ENDBLK
  5
1527
330
1525
100
AcDbEntity
  8
0
100
AcDbBlockEnd
  0
BLOCK
  5
1534
330
1533
100
AcDbEntity
  8
0
100
AcDbBlockBegin
  2
*D3
 70
     1
 10
0.0
 20
0.0
 30
0.0
  3
*D3
  1

  0
LINE
  5
161D
330
1533
100
AcDbEntity
  8
SK2
 62
     0
370
    -2
100
AcDbLine
 10
-4.581572057480056
 20
-0.2268698809056478
 30
0.0
 11
-4.581572057480056
 21
-1.482066011830045
 31
0.0
  0
LINE
  5
161E
330
1533
100
AcDbEntity
  8
SK2
 62
     0
370
    -2
100
AcDbLine
 10
1.41850492545982
 20
-0.289373175937294
 30
0.0
 11
1.41850492545982
 21
-1.482066011830045
 31
0.0
  0
LINE
  5
161F
330
1533
100
AcDbEntity
  8
SK2
 62
     0
100
AcDbLine
 10
-4.483147057480056
 20
-1.403326011830045
 30
0.0
 11
1.32007992545982
 21
-1.403326011830045
 31
0.0
  0
SOLID
  5
1620
330
1533
100
AcDbEntity
  8
SK2
 62
     0
100
AcDbTrace
 10
-4.483147057480056
 20
-1.386921845163376
 30
0.0
 11
-4.483147057480056
 21
-1.41973017849671
 31
0.0
 12
-4.581572057480056
 22
-1.403326011830045
 32
0.0
 13
-4.581572057480056
 23
-1.403326011830045
 33
0.0
  0
SOLID
  5
1621
330
1533
100
AcDbEntity
  8
SK2
 62
     0
100
AcDbTrace
 10
1.32007992545982
 20
-1.386921845163376
 30
0.0
 11
1.32007992545982
 21
-1.41973017849671
 31
0.0
 12
1.41850492545982
 22
-1.403326011830045
 32
0.0
 13
1.41850492545982
 23
-1.403326011830045
 33
0.0
  0
MTEXT
  5
1622
330
1533
100
AcDbEntity
  8
SK2
 62
     0
100
AcDbMText
 10
-1.57173356601012
 20
-1.292637515363113
 30
0.0
 40
0.1377952755905512
 41
0.0
 71
     5
 72
     1
  1
\A1;6"
  7
STANDARD 3.5 mm
 73
     1
 44
1.0
1001
ACAD
1000
MTEXTBEGIN
1070
    73
1070
     1
1070
    44
1040
1.0
1070
    74
1070
     0
1000
MTEXTEND
  0
POINT
  5
1623
330
1533
100
AcDbEntity
  8
DEFPOINTS
 62
     0
100
AcDbPoint
 10
-4.581572057480056
 20
-0.1874998809056478
 30
0.0
  0
POINT
  5
1624
330
1533
100
AcDbEntity
  8
DEFPOINTS
 62
     0
100
AcDbPoint
 10
1.41850492545982
 20
-0.250003175937294
 30
0.0
  0
POINT
  5
1625
330
1533
100
AcDbEntity
  8
DEFPOINTS
 62
     0
100
AcDbPoint
 10
1.41850492545982
 20
-1.403326011830045
 30
0.0
  0
ENDBLK
  5
1535
330
1533
100
AcDbEntity
  8
0
100
AcDbBlockEnd
  0
BLOCK
  5
1540
330
153F
100
AcDbEntity
  8
0
100
AcDbBlockBegin
  2
*D4
 70
     1
 10
0.0
 20
0.0
 30
0.0
  3
*D4
  1

  0
LINE
  5
15F7
330
153F
100
AcDbEntity
  8
2
 62
     0
370
    -2
100
AcDbLine
 10
1.41850492545982
 20
-0.289373175937294
 30
0.0
 11
1.41850492545982
 21
-0.6946660118300267
 31
0.0
  0
LINE
  5
15F8
330
153F
100
AcDbEntity
  8
2
 62
     0
370
    -2
100
AcDbLine
 10
0.3936999999999671
 20
-0.2022631978356434
 30
0.0
 11
0.3936999999999671
 21
-0.6946660118300267
 31
0.0
  0
LINE
  5
15F9
330
153F
100
AcDbEntity
  8
2
 62
     0
100
AcDbLine
 10
1.32007992545982
 20
-0.6159260118300267
 30
0.0
 11
0.4921249999999671
 21
-0.6159260118300267
 31
0.0
  0
SOLID
  5
15FA
330
153F
100
AcDbEntity
  8
2
 62
     0
100
AcDbTrace
 10
1.32007992545982
 20
-0.5995218451633601
 30
0.0
 11
1.32007992545982
 21
-0.6323301784966934
 31
0.0
 12
1.41850492545982
 22
-0.6159260118300267
 32
0.0
 13
1.41850492545982
 23
-0.6159260118300267
 33
0.0
  0
SOLID
  5
15FB
330
153F
100
AcDbEntity
  8
2
 62
     0
100
AcDbTrace
 10
0.4921249999999671
 20
-0.5995218451633601
 30
0.0
 11
0.4921249999999671
 21
-0.6323301784966934
 31
0.0
 12
0.3936999999999671
 22
-0.6159260118300267
 32
0.0
 13
0.3936999999999671
 23
-0.6159260118300267
 33
0.0
  0
MTEXT
  5
15FC
330
153F
100
AcDbEntity
  8
2
 62
     0
100
AcDbMText
 10
0.9061024627298936
 20
-0.5052375153630973
 30
0.0
 40
0.1377952755905512
 41
0.0
 71
     5
 72
     1
  1
\A1;1.025"
  7
STANDARD 3.5 mm
 73
     1
 44
1.0
1001
ACAD
1000
MTEXTBEGIN
1070
    73
1070
     1
1070
    44
1040
1.0
1070
    74
1070
     0
1000
MTEXTEND
  0
POINT
  5
15FD
330
153F
100
AcDbEntity
  8
DEFPOINTS
 62
     0
100
AcDbPoint
 10
1.41850492545982
 20
-0.250003175937294
 30
0.0
  0
POINT
  5
15FE
330
153F
100
AcDbEntity
  8
DEFPOINTS
 62
     0
100
AcDbPoint
 10
0.3936999999999671
 20
-0.1628931978356434
 30
0.0
  0
POINT
  5
15FF
330
153F
100
AcDbEntity
  8
DEFPOINTS
 62
     0
100
AcDbPoint
 10
0.3936999999999671
 20
-0.6159260118300267
 30
0.0
  0
ENDBLK
  5
1541
330
153F
100
AcDbEntity
  8
0
100
AcDbBlockEnd
  0
BLOCK
  5
154C
330
154B
100
AcDbEntity
  8
0
100
AcDbBlockBegin
  2
*D5
 70
     1
 10
0.0
 20
0.0
 30
0.0
  3
*D5
  1

  0
LINE
  5
1626
330
154B
100
AcDbEntity
  8
SK2
 62
     0
370
    -2
100
AcDbLine
 10
-4.591020581890011
 20
0.1874993690943541
 30
0.0
 11
-4.967043766032831
 21
0.1874993690943542
 31
0.0
  0
LINE
  5
1627
330
154B
100
AcDbEntity
  8
SK2
 62
     0
370
    -2
100
AcDbLine
 10
-4.620942057480056
 20
-0.1874998809056478
 30
0.0
 11
-4.967043766032831
 21
-0.1874998809056477
 31
0.0
  0
LINE
  5
1628
330
154B
100
AcDbEntity
  8
SK2
 62
     0
100
AcDbLine
 10
-4.888303766032831
 20
0.0890743690943542
 30
0.0
 11
-4.888303766032831
 21
-0.0890748809056478
 31
0.0
  0
LINE
  5
1629
330
154B
100
AcDbEntity
  8
SK2
 62
     0
100
AcDbLine
 10
-4.888303766032831
 20
-0.1874998809056478
 30
0.0
 11
-4.888303766032831
 21
-1.156479335230268
 31
0.0
  0
SOLID
  5
162A
330
154B
100
AcDbEntity
  8
SK2
 62
     0
100
AcDbTrace
 10
-4.904707932699498
 20
0.0890743690943542
 30
0.0
 11
-4.871899599366162
 21
0.0890743690943542
 31
0.0
 12
-4.888303766032831
 22
0.1874993690943542
 32
0.0
 13
-4.888303766032831
 23
0.1874993690943542
 33
0.0
  0
SOLID
  5
162B
330
154B
100
AcDbEntity
  8
SK2
 62
     0
100
AcDbTrace
 10
-4.904707932699498
 20
-0.0890748809056478
 30
0.0
 11
-4.871899599366162
 21
-0.0890748809056478
 31
0.0
 12
-4.888303766032831
 22
-0.1874998809056478
 32
0.0
 13
-4.888303766032831
 23
-0.1874998809056478
 33
0.0
  0
MTEXT
  5
162C
330
154B
100
AcDbEntity
  8
SK2
 62
     0
100
AcDbMText
 10
-5.00102578378395
 20
-0.7212021080679595
 30
0.0
 40
0.1377952755905512
 41
0.0
 71
     5
 72
     1
  1
\A1;%%c0.375"
  7
STANDARD 3.5 mm
 11
0.0000000000000001
 21
1.0
 31
0.0
 73
     1
 44
1.0
1001
ACAD
1000
MTEXTBEGIN
1070
    73
1070
     1
1070
    44
1040
1.0
1070
    74
1070
     0
1000
MTEXTEND
  0
POINT
  5
162D
330
154B
100
AcDbEntity
  8
DEFPOINTS
 62
     0
100
AcDbPoint
 10
-4.551650581890013
 20
0.187499369094354
 30
0.0
  0
POINT
  5
162E
330
154B
100
AcDbEntity
  8
DEFPOINTS
 62
     0
100
AcDbPoint
 10
-4.581572057480056
 20
-0.1874998809056478
 30
0.0
  0
POINT
  5
162F
330
154B
100
AcDbEntity
  8
DEFPOINTS
 62
     0
100
AcDbPoint
 10
-4.888303766032831
 20
-0.1874998809056478
 30
0.0
  0
ENDBLK
  5
154D
330
154B
100
AcDbEntity
  8
0
100
AcDbBlockEnd
  0
BLOCK
  5
1580
330
157F
100
AcDbEntity
  8
0
100
AcDbBlockBegin
  2
*D6
 70
     1
 10
0.0
 20
0.0
 30
0.0
  3
*D6
  1

  0
LINE
  5
1600
330
157F
100
AcDbEntity
  8
2
 62
     0
370
    -2
100
AcDbLine
 10
1.41850492545982
 20
-0.289373175937294
 30
0.0
 11
1.41850492545982
 21
-1.088366011830022
 31
0.0
  0
LINE
  5
1601
330
157F
100
AcDbEntity
  8
2
 62
     0
370
    -2
100
AcDbLine
 10
-0.0000000000000568
 20
-0.2022631978356434
 30
0.0
 11
-0.0000000000000569
 21
-1.088366011830022
 31
0.0
  0
LINE
  5
1602
330
157F
100
AcDbEntity
  8
2
 62
     0
100
AcDbLine
 10
1.32007992545982
 20
-1.009626011830021
 30
0.0
 11
0.0984249999999431
 21
-1.009626011830021
 31
0.0
  0
SOLID
  5
1603
330
157F
100
AcDbEntity
  8
2
 62
     0
100
AcDbTrace
 10
1.32007992545982
 20
-0.9932218451633556
 30
0.0
 11
1.32007992545982
 21
-1.026030178496688
 31
0.0
 12
1.41850492545982
 22
-1.009626011830021
 32
0.0
 13
1.41850492545982
 23
-1.009626011830021
 33
0.0
  0
SOLID
  5
1604
330
157F
100
AcDbEntity
  8
2
 62
     0
100
AcDbTrace
 10
0.0984249999999431
 20
-0.9932218451633556
 30
0.0
 11
0.0984249999999431
 21
-1.026030178496688
 31
0.0
 12
-0.0000000000000569
 22
-1.009626011830021
 32
0.0
 13
-0.0000000000000569
 23
-1.009626011830021
 33
0.0
  0
MTEXT
  5
1605
330
157F
100
AcDbEntity
  8
2
 62
     0
100
AcDbMText
 10
0.709252462729893
 20
-0.8989375153630925
 30
0.0
 40
0.1377952755905512
 41
0.0
 71
     5
 72
     1
  1
\A1;1.419"
  7
STANDARD 3.5 mm
 73
     1
 44
1.0
1001
ACAD
1000
MTEXTBEGIN
1070
    73
1070
     1
1070
    44
1040
1.0
1070
    74
1070
     0
1000
MTEXTEND
  0
POINT
  5
1606
330
157F
100
AcDbEntity
  8
DEFPOINTS
 62
     0
100
AcDbPoint
 10
1.41850492545982
 20
-0.250003175937294
 30
0.0
  0
POINT
  5
1607
330
157F
100
AcDbEntity
  8
DEFPOINTS
 62
     0
100
AcDbPoint
 10
-0.0000000000000568
 20
-0.1628931978356434
 30
0.0
  0
POINT
  5
1608
330
157F
100
AcDbEntity
  8
DEFPOINTS
 62
     0
100
AcDbPoint
 10
-0.0000000000000569
 20
-1.009626011830021
 30
0.0
  0
ENDBLK
  5
1581
330
157F
100
AcDbEntity
  8
0
100
AcDbBlockEnd
  0
BLOCK
  5
158C
330
158B
100
AcDbEntity
  8
0
100
AcDbBlockBegin
  2
*D7
 70
     1
 10
0.0
 20
0.0
 30
0.0
  3
*D7
  1

  0
LINE
  5
1642
330
158B
100
AcDbEntity
  8
2
 62
     0
370
    -2
100
AcDbLine
 10
1.45787492545982
 20
-0.2500031759372939
 30
0.0
 11
2.399555208787234
 21
-0.2500031759372911
 31
0.0
  0
LINE
  5
1643
330
158B
100
AcDbEntity
  8
2
 62
     0
370
    -2
100
AcDbLine
 10
1.394485740709819
 20
0.0245386215049627
 30
0.0
 11
1.333001148620467
 21
0.7273139489321152
 31
0.0
  0
ARC
  5
1644
330
158B
100
AcDbEntity
  8
2
 62
     0
100
AcDbCircle
 10
1.41850492545982
 20
-0.2500031759372941
 30
0.0
 40
0.9023102833274155
100
AcDbArc
 50
6.252989481293784
 51
88.74698769712649
  0
SOLID
  5
1645
330
158B
100
AcDbEntity
  8
2
 62
     0
100
AcDbTrace
 10
2.331826805047924
 20
-0.1508299837086489
 30
0.0
 11
2.299067305067787
 21
-0.1526193682851082
 31
0.0
 12
2.320815208787236
 22
-0.2500031759372914
 32
0.0
 13
2.320815208787236
 23
-0.2500031759372914
 33
0.0
  0
SOLID
  5
1646
330
158B
100
AcDbEntity
  8
2
 62
     0
100
AcDbTrace
 10
1.438772442876867
 20
0.6356959479820175
 30
0.0
 11
1.43769985281293
 21
0.6684867437434177
 31
0.0
 12
1.339863760560698
 22
0.6488735756709061
 32
0.0
 13
1.339863760560698
 23
0.6488735756709061
 33
0.0
  0
MTEXT
  5
1647
330
158B
100
AcDbEntity
  8
2
 62
     0
100
AcDbMText
 10
2.102877130157227
 20
0.4968577303246708
 30
0.0
 40
0.1377952755905512
 41
0.0
 71
     5
 72
     1
  1
\A1;95°
  7
STANDARD 3.5 mm
 11
0.7372772022623667
 21
-0.6755903544487423
 31
0.0
 73
     1
 44
1.0
1001
ACAD
1000
MTEXTBEGIN
1070
    73
1070
     1
1070
    44
1040
1.0
1070
    74
1070
     0
1000
MTEXTEND
  0
POINT
  5
1648
330
158B
100
AcDbEntity
  8
DEFPOINTS
 62
     0
100
AcDbPoint
 10
2.186476314203455
 20
0.2236884890406474
 30
0.0
  0
POINT
  5
1649
330
158B
100
AcDbEntity
  8
DEFPOINTS
 62
     0
100
AcDbPoint
 10
1.397917046679935
 20
-0.0146815651256417
 30
0.0
  0
POINT
  5
164A
330
158B
100
AcDbEntity
  8
DEFPOINTS
 62
     0
100
AcDbPoint
 10
1.410873806752988
 20
-0.2500031759372941
 30
0.0
  0
POINT
  5
164B
330
158B
100
AcDbEntity
  8
DEFPOINTS
 62
     0
100
AcDbPoint
 10
1.41850492545982
 20
-0.250003175937294
 30
0.0
  0
POINT
  5
164C
330
158B
100
AcDbEntity
  8
DEFPOINTS
 62
     0
100
AcDbPoint
 10
1.416899292179948
 20
-0.2316506193756424
 30
0.0
  0
ENDBLK
  5
158D
330
158B
100
AcDbEntity
  8
0
100
AcDbBlockEnd
  0
ENDSEC
  0
SECTION
  2
ENTITIES
  0
LINE
  5
134F
330
18
100
AcDbEntity
  8
1
100
AcDbLine
 10
1.273953908779958
 20
-0.0799399385456638
 30
0.0
 11
1.274038318059979
 21
-0.0809040704756683
 31
0.0
  0
LINE
  5
1350
330
18
100
AcDbEntity
  8
1
100
AcDbLine
 10
1.292540170819961
 20
-0.083599655635652
 30
0.0
 11
1.292135092889964
 21
-0.0789690743456504
 31
0.0
  0
LINE
  5
1351
330
18
100
AcDbEntity
  8
1
100
AcDbLine
 10
1.347251754309979
 20
-0.1023354843056268
 30
0.0
 11
1.347792619369954
 21
-0.1085172042256488
 31
0.0
  0
LINE
  5
1352
330
18
100
AcDbEntity
  8
1
100
AcDbLine
 10
1.212482929359964
 20
-0.1203551333056509
 30
0.0
 11
1.211942103669968
 21
-0.1141734133856573
 31
0.0
  0
LINE
  5
1353
330
18
100
AcDbEntity
  8
1
100
AcDbLine
 10
1.248523644679949
 20
-0.1020927682556589
 30
0.0
 11
1.249234036959932
 21
-0.1102118858756569
 31
0.0
  0
LINE
  5
1354
330
18
100
AcDbEntity
  8
1
100
AcDbLine
 10
1.311269227849948
 20
-0.1212639897556471
 30
0.0
 11
1.310558953679958
 21
-0.113145383945664
 31
0.0
  0
LINE
  5
1355
330
18
100
AcDbEntity
  8
1
100
AcDbLine
 10
1.267273213479938
 20
-0.1399907633256419
 30
0.0
 11
1.267963054619938
 21
-0.147876219995652
 31
0.0
  0
LINE
  5
1356
330
18
100
AcDbEntity
  8
1
100
AcDbLine
 10
1.286464907379978
 20
-0.1505712933456493
 30
0.0
 11
1.285781719769942
 21
-0.1427626081756443
 31
0.0
  0
LINE
  5
1357
330
18
100
AcDbEntity
  8
1
100
AcDbLine
 10
1.14824762475996
 20
0.0112421231843314
 30
0.0
 11
1.156196230909984
 21
0.0227233994343408
 31
0.0
  0
LINE
  5
1358
330
18
100
AcDbEntity
  8
1
100
AcDbLine
 10
1.383718177439958
 20
0.004664656024346
 30
0.0
 11
1.393539811339961
 21
-0.0052621351456423
 31
0.0
  0
LINE
  5
1359
330
18
100
AcDbEntity
  8
1
100
AcDbLine
 10
0.3936999999999671
 20
0.1771649015743435
 30
0.0
 11
1.000317645029952
 21
0.1771649015743435
 31
0.0
  0
LINE
  5
135A
330
18
100
AcDbEntity
  8
SK1
100
AcDbLine
 10
-4.576256753150058
 20
-0.1628931978356434
 30
0.0
 11
-4.581572057480056
 21
-0.157578405315661
 31
0.0
  0
LINE
  5
135B
330
18
100
AcDbEntity
  8
SK1
100
AcDbLine
 10
-4.581572057480056
 20
0.1575783659443459
 30
0.0
 11
-4.551650581890013
 21
0.187499369094354
 31
0.0
  0
LINE
  5
135C
330
18
100
AcDbEntity
  8
SK1
100
AcDbLine
 10
-4.551650581890013
 20
0.187499369094354
 30
0.0
 11
0.0000000000001137
 21
0.187499369094354
 31
0.0
  0
LINE
  5
135D
330
18
100
AcDbEntity
  8
1
100
AcDbLine
 10
0.0000000000001137
 20
0.187499369094354
 30
0.0
 11
0.3936999999999671
 21
0.187499369094354
 31
0.0
  0
LINE
  5
135E
330
18
100
AcDbEntity
  8
1
100
AcDbLine
 10
1.000317645029952
 20
0.1771649015743435
 30
0.0
 11
1.265738885839934
 21
0.1771649015743435
 31
0.0
  0
LINE
  5
135F
330
18
100
AcDbEntity
  8
1
100
AcDbLine
 10
1.031013016709948
 20
-0.1988347401256476
 30
0.0
 11
1.027501370189952
 21
-0.192752705045649
 31
0.0
  0
LINE
  5
1360
330
18
100
AcDbEntity
  8
1
100
AcDbLine
 10
1.279596928989974
 20
-0.0415794247156498
 30
0.0
 11
1.279535511789958
 21
-0.0415798971556569
 31
0.0
  0
LINE
  5
1361
330
18
100
AcDbEntity
  8
1
100
AcDbLine
 10
1.279535511789958
 20
-0.0415798971556569
 30
0.0
 11
1.279474133959977
 21
-0.0415798971556569
 31
0.0
  0
LINE
  5
1362
330
18
100
AcDbEntity
  8
1
100
AcDbLine
 10
1.279474133959977
 20
-0.0415798971556569
 30
0.0
 11
1.252188243649865
 21
-0.0473390982356534
 31
0.0
  0
LINE
  5
1363
330
18
100
AcDbEntity
  8
1
100
AcDbLine
 10
1.252188243649865
 20
-0.0473390982356534
 30
0.0
 11
1.229526359839949
 21
-0.063375129155645
 31
0.0
  0
LINE
  5
1364
330
18
100
AcDbEntity
  8
1
100
AcDbLine
 10
1.229526359839949
 20
-0.063375129155645
 30
0.0
 11
1.215311781969944
 21
-0.0869823260356668
 31
0.0
  0
LINE
  5
1365
330
18
100
AcDbEntity
  8
1
100
AcDbLine
 10
1.215311781969944
 20
-0.0869823260356668
 30
0.0
 11
1.211942576109946
 21
-0.1141781771556509
 31
0.0
  0
LINE
  5
1366
330
18
100
AcDbEntity
  8
1
100
AcDbLine
 10
1.347251872419974
 20
-0.1023369016256481
 30
0.0
 11
1.34053444490996
 21
-0.0786448230256554
 31
0.0
  0
LINE
  5
1367
330
18
100
AcDbEntity
  8
1
100
AcDbLine
 10
1.34053444490996
 20
-0.0786448230256554
 30
0.0
 11
1.325512545819947
 21
-0.0589877363556468
 31
0.0
  0
LINE
  5
1368
330
18
100
AcDbEntity
  8
1
100
AcDbLine
 10
1.325512545819947
 20
-0.0589877363556468
 30
0.0
 11
1.304233493889967
 21
-0.0460449669656669
 31
0.0
  0
LINE
  5
1369
330
18
100
AcDbEntity
  8
1
100
AcDbLine
 10
1.304233493889967
 20
-0.0460449669656669
 30
0.0
 11
1.279596928989974
 21
-0.0415794247156498
 31
0.0
  0
LINE
  5
136A
330
18
100
AcDbEntity
  8
1
100
AcDbLine
 10
1.280137754679969
 20
-0.0477615777056713
 30
0.0
 11
1.256913234199942
 21
-0.0518561758156579
 31
0.0
  0
LINE
  5
136B
330
18
100
AcDbEntity
  8
1
100
AcDbLine
 10
1.256913234199942
 20
-0.0518561758156579
 30
0.0
 11
1.236489967959925
 21
-0.0634985934756571
 31
0.0
  0
LINE
  5
136C
330
18
100
AcDbEntity
  8
1
100
AcDbLine
 10
1.236489967959925
 20
-0.0634985934756571
 30
0.0
 11
1.22133121874998
 21
-0.0812850933356515
 31
0.0
  0
LINE
  5
136D
330
18
100
AcDbEntity
  8
1
100
AcDbLine
 10
1.22133121874998
 20
-0.0812850933356515
 30
0.0
 11
1.213265565589949
 21
-0.1030698135456589
 31
0.0
  0
LINE
  5
136E
330
18
100
AcDbEntity
  8
1
100
AcDbLine
 10
1.213265565589949
 20
-0.1030698135456589
 30
0.0
 11
1.213265565589949
 21
-0.1262254758956658
 31
0.0
  0
LINE
  5
136F
330
18
100
AcDbEntity
  8
1
100
AcDbLine
 10
1.213265565589949
 20
-0.1262254758956658
 30
0.0
 11
1.22133121874998
 21
-0.1479596450256508
 31
0.0
  0
LINE
  5
1370
330
18
100
AcDbEntity
  8
1
100
AcDbLine
 10
1.22133121874998
 20
-0.1479596450256508
 30
0.0
 11
1.236489967959925
 21
-0.165650278935658
 31
0.0
  0
LINE
  5
1371
330
18
100
AcDbEntity
  8
1
100
AcDbLine
 10
1.236489967959925
 20
-0.165650278935658
 30
0.0
 11
1.256913234199942
 21
-0.177163484255658
 31
0.0
  0
LINE
  5
1372
330
18
100
AcDbEntity
  8
1
100
AcDbLine
 10
1.256913234199942
 20
-0.177163484255658
 30
0.0
 11
1.280137754679969
 21
-0.181111232265664
 31
0.0
  0
LINE
  5
1373
330
18
100
AcDbEntity
  8
1
100
AcDbLine
 10
1.280137754679969
 20
-0.181111232265664
 30
0.0
 11
1.303362196419865
 21
-0.1770166341556489
 31
0.0
  0
LINE
  5
1374
330
18
100
AcDbEntity
  8
1
100
AcDbLine
 10
1.303362196419865
 20
-0.1770166341556489
 30
0.0
 11
1.323785580769935
 21
-0.1653741771256421
 31
0.0
  0
LINE
  5
1375
330
18
100
AcDbEntity
  8
1
100
AcDbLine
 10
1.323785580769935
 20
-0.1653741771256421
 30
0.0
 11
1.338944211869942
 21
-0.1475877166356554
 31
0.0
  0
LINE
  5
1376
330
18
100
AcDbEntity
  8
1
100
AcDbLine
 10
1.338944211869942
 20
-0.1475877166356554
 30
0.0
 11
1.347009983139969
 21
-0.125802996425648
 31
0.0
  0
LINE
  5
1377
330
18
100
AcDbEntity
  8
1
100
AcDbLine
 10
1.347009983139969
 20
-0.125802996425648
 30
0.0
 11
1.347009983139969
 21
-0.1026468616356624
 31
0.0
  0
LINE
  5
1378
330
18
100
AcDbEntity
  8
1
100
AcDbLine
 10
1.347009983139969
 20
-0.1026468616356624
 30
0.0
 11
1.338944211869942
 21
-0.0809131649456561
 31
0.0
  0
LINE
  5
1379
330
18
100
AcDbEntity
  8
1
100
AcDbLine
 10
1.338944211869942
 20
-0.0809131649456561
 30
0.0
 11
1.323785580769935
 21
-0.0632225310356489
 31
0.0
  0
LINE
  5
137A
330
18
100
AcDbEntity
  8
1
100
AcDbLine
 10
1.323785580769935
 20
-0.0632225310356489
 30
0.0
 11
1.303362196419865
 21
-0.0517093257156489
 31
0.0
  0
LINE
  5
137B
330
18
100
AcDbEntity
  8
1
100
AcDbLine
 10
1.303362196419865
 20
-0.0517093257156489
 30
0.0
 11
1.280137754679969
 21
-0.0477615777056713
 31
0.0
  0
LINE
  5
137C
330
18
100
AcDbEntity
  8
1
100
AcDbLine
 10
1.267773527439942
 20
-0.1492738156256337
 30
0.0
 11
1.267967345949955
 21
-0.1479310624056609
 31
0.0
  0
LINE
  5
137D
330
18
100
AcDbEntity
  8
1
100
AcDbLine
 10
1.267967345949955
 20
-0.1479310624056609
 30
0.0
 11
1.267587701039985
 21
-0.1466288209156517
 31
0.0
  0
LINE
  5
137E
330
18
100
AcDbEntity
  8
1
100
AcDbLine
 10
1.267773527439942
 20
-0.1492738156256337
 30
0.0
 11
1.267751362129956
 21
-0.1514491262356614
 31
0.0
  0
LINE
  5
137F
330
18
100
AcDbEntity
  8
1
100
AcDbLine
 10
1.267751362129956
 20
-0.1514491262356614
 30
0.0
 11
1.269129430239956
 21
-0.153148099215656
 31
0.0
  0
LINE
  5
1380
330
18
100
AcDbEntity
  8
1
100
AcDbLine
 10
1.269129430239956
 20
-0.153148099215656
 30
0.0
 11
1.276635753809955
 21
-0.1555980943156499
 31
0.0
  0
LINE
  5
1381
330
18
100
AcDbEntity
  8
1
100
AcDbLine
 10
1.276635753809955
 20
-0.1555980943156499
 30
0.0
 11
1.284469360189973
 21
-0.1544412856056567
 31
0.0
  0
LINE
  5
1382
330
18
100
AcDbEntity
  8
1
100
AcDbLine
 10
1.284469360189973
 20
-0.1544412856056567
 30
0.0
 11
1.286132427729967
 21
-0.1529988475456605
 31
0.0
  0
LINE
  5
1383
330
18
100
AcDbEntity
  8
1
100
AcDbLine
 10
1.286132427729967
 20
-0.1529988475456605
 30
0.0
 11
1.286502230139944
 21
-0.1508531038056446
 31
0.0
  0
LINE
  5
1384
330
18
100
AcDbEntity
  8
1
100
AcDbLine
 10
1.287161441419925
 20
-0.1482791325756523
 30
0.0
 11
1.286553017439985
 21
-0.149497909665655
 31
0.0
  0
LINE
  5
1385
330
18
100
AcDbEntity
  8
1
100
AcDbLine
 10
1.286553017439985
 20
-0.149497909665655
 30
0.0
 11
1.286502230139944
 21
-0.1508531038056446
 31
0.0
  0
LINE
  5
1386
330
18
100
AcDbEntity
  8
1
100
AcDbLine
 10
1.301129641829958
 20
-0.1418661532756573
 30
0.0
 11
1.293369145539998
 21
-0.1434330399056591
 31
0.0
  0
LINE
  5
1387
330
18
100
AcDbEntity
  8
1
100
AcDbLine
 10
1.293369145539998
 20
-0.1434330399056591
 30
0.0
 11
1.287161441419925
 21
-0.1482791325756523
 31
0.0
  0
LINE
  5
1388
330
18
100
AcDbEntity
  8
1
100
AcDbLine
 10
1.303556014929995
 20
-0.1430229619856504
 30
0.0
 11
1.302469206079932
 21
-0.1421904045956523
 31
0.0
  0
LINE
  5
1389
330
18
100
AcDbEntity
  8
1
100
AcDbLine
 10
1.302469206079932
 20
-0.1421904045956523
 30
0.0
 11
1.301129641829958
 21
-0.1418661532756573
 31
0.0
  0
LINE
  5
138A
330
18
100
AcDbEntity
  8
1
100
AcDbLine
 10
1.303556014929995
 20
-0.1430229619856504
 30
0.0
 11
1.30546349142986
 21
-0.1441235109656418
 31
0.0
  0
LINE
  5
138B
330
18
100
AcDbEntity
  8
1
100
AcDbLine
 10
1.30546349142986
 20
-0.1441235109656418
 30
0.0
 11
1.307654786259945
 21
-0.1437963856356532
 31
0.0
  0
LINE
  5
138C
330
18
100
AcDbEntity
  8
1
100
AcDbLine
 10
1.307654786259945
 20
-0.1437963856356532
 30
0.0
 11
1.313590089349929
 21
-0.1386317896656521
 31
0.0
  0
LINE
  5
138D
330
18
100
AcDbEntity
  8
1
100
AcDbLine
 10
1.313590089349929
 20
-0.1386317896656521
 30
0.0
 11
1.316508469339964
 21
-0.1313953080756676
 31
0.0
  0
LINE
  5
138E
330
18
100
AcDbEntity
  8
1
100
AcDbLine
 10
1.316508469339964
 20
-0.1313953080756676
 30
0.0
 11
1.316072249739929
 21
-0.1292638556456609
 31
0.0
  0
LINE
  5
138F
330
18
100
AcDbEntity
  8
1
100
AcDbLine
 10
1.316072249739929
 20
-0.1292638556456609
 30
0.0
 11
1.314365560239934
 21
-0.1278824804556677
 31
0.0
  0
LINE
  5
1390
330
18
100
AcDbEntity
  8
1
100
AcDbLine
 10
1.31242686332996
 20
-0.1260418935856364
 30
0.0
 11
1.313195995649947
 21
-0.1271653165356668
 31
0.0
  0
LINE
  5
1391
330
18
100
AcDbEntity
  8
1
100
AcDbLine
 10
1.313195995649947
 20
-0.1271653165356668
 30
0.0
 11
1.314365560239934
 21
-0.1278824804556677
 31
0.0
  0
LINE
  5
1392
330
18
100
AcDbEntity
  8
1
100
AcDbLine
 10
1.31379359287996
 20
-0.1109752701756577
 30
0.0
 11
1.311273991619938
 21
-0.1183538380956577
 31
0.0
  0
LINE
  5
1393
330
18
100
AcDbEntity
  8
1
100
AcDbLine
 10
1.311273991619938
 20
-0.1183538380956577
 30
0.0
 11
1.31242686332996
 21
-0.1260418935856364
 31
0.0
  0
LINE
  5
1394
330
18
100
AcDbEntity
  8
1
100
AcDbLine
 10
1.316034257689977
 20
-0.1094870841756688
 30
0.0
 11
1.314753354739934
 21
-0.1099977524456506
 31
0.0
  0
LINE
  5
1395
330
18
100
AcDbEntity
  8
1
100
AcDbLine
 10
1.314753354739934
 20
-0.1099977524456506
 30
0.0
 11
1.31379359287996
 21
-0.1109752701756577
 31
0.0
  0
LINE
  5
1396
330
18
100
AcDbEntity
  8
1
100
AcDbLine
 10
1.316034257689977
 20
-0.1094870841756688
 30
0.0
 11
1.317963742019969
 21
-0.1084122831756531
 31
0.0
  0
LINE
  5
1397
330
18
100
AcDbEntity
  8
1
100
AcDbLine
 10
1.317963742019969
 20
-0.1084122831756531
 30
0.0
 11
1.318777008109975
 21
-0.1063862242356492
 31
0.0
  0
LINE
  5
1398
330
18
100
AcDbEntity
  8
1
100
AcDbLine
 10
1.318777008109975
 20
-0.1063862242356492
 30
0.0
 11
1.317205948259979
 21
-0.0987711213556679
 31
0.0
  0
LINE
  5
1399
330
18
100
AcDbEntity
  8
1
100
AcDbLine
 10
1.317205948259979
 20
-0.0987711213556679
 30
0.0
 11
1.312290721869942
 21
-0.0926914878456558
 31
0.0
  0
LINE
  5
139A
330
18
100
AcDbEntity
  8
1
100
AcDbLine
 10
1.312290721869942
 20
-0.0926914878456558
 30
0.0
 11
1.310191552839967
 21
-0.0920029459156524
 31
0.0
  0
LINE
  5
139B
330
18
100
AcDbEntity
  8
1
100
AcDbLine
 10
1.310191552839967
 20
-0.0920029459156524
 30
0.0
 11
1.308114942819939
 21
-0.0927673144656467
 31
0.0
  0
LINE
  5
139C
330
18
100
AcDbEntity
  8
1
100
AcDbLine
 10
1.305517034629928
 20
-0.0935006594556569
 30
0.0
 11
1.30689459092997
 21
-0.0934053053156561
 31
0.0
  0
LINE
  5
139D
330
18
100
AcDbEntity
  8
1
100
AcDbLine
 10
1.30689459092997
 20
-0.0934053053156561
 30
0.0
 11
1.308114942819939
 21
-0.0927673144656467
 31
0.0
  0
LINE
  5
139E
330
18
100
AcDbEntity
  8
1
100
AcDbLine
 10
1.292915563769952
 20
-0.0848470547156524
 30
0.0
 11
1.298156458799951
 21
-0.0906582635656719
 31
0.0
  0
LINE
  5
139F
330
18
100
AcDbEntity
  8
1
100
AcDbLine
 10
1.298156458799951
 20
-0.0906582635656719
 30
0.0
 11
1.305517034629928
 21
-0.0935006594556569
 31
0.0
  0
LINE
  5
13A0
330
18
100
AcDbEntity
  8
1
100
AcDbLine
 10
1.292729697999956
 20
-0.0822020206356626
 30
0.0
 11
1.292535879489945
 21
-0.0835448132256716
 31
0.0
  0
LINE
  5
13A1
330
18
100
AcDbEntity
  8
1
100
AcDbLine
 10
1.292535879489945
 20
-0.0835448132256716
 30
0.0
 11
1.292915563769952
 21
-0.0848470547156524
 31
0.0
  0
LINE
  5
13A2
330
18
100
AcDbEntity
  8
1
100
AcDbLine
 10
1.292729697999956
 20
-0.0822020206356626
 30
0.0
 11
1.292751863309945
 21
-0.0800267100256349
 31
0.0
  0
LINE
  5
13A3
330
18
100
AcDbEntity
  8
1
100
AcDbLine
 10
1.292751863309945
 20
-0.0800267100256349
 30
0.0
 11
1.291373952679919
 21
-0.0783277370456688
 31
0.0
  0
LINE
  5
13A4
330
18
100
AcDbEntity
  8
1
100
AcDbLine
 10
1.291373952679919
 20
-0.0783277370456688
 30
0.0
 11
1.283867471629946
 21
-0.0758777419456465
 31
0.0
  0
LINE
  5
13A5
330
18
100
AcDbEntity
  8
1
100
AcDbLine
 10
1.283867471629946
 20
-0.0758777419456465
 30
0.0
 11
1.276033865249927
 21
-0.0770340782156609
 31
0.0
  0
LINE
  5
13A6
330
18
100
AcDbEntity
  8
1
100
AcDbLine
 10
1.276033865249927
 20
-0.0770340782156609
 30
0.0
 11
1.274370915819985
 21
-0.0784769887156358
 31
0.0
  0
LINE
  5
13A7
330
18
100
AcDbEntity
  8
1
100
AcDbLine
 10
1.274370915819985
 20
-0.0784769887156358
 30
0.0
 11
1.274000995299957
 21
-0.0806227718256594
 31
0.0
  0
LINE
  5
13A8
330
18
100
AcDbEntity
  8
1
100
AcDbLine
 10
1.273341784019974
 20
-0.0831967036856725
 30
0.0
 11
1.273950207999972
 21
-0.0819779265956413
 31
0.0
  0
LINE
  5
13A9
330
18
100
AcDbEntity
  8
1
100
AcDbLine
 10
1.273950207999972
 20
-0.0819779265956413
 30
0.0
 11
1.274000995299957
 21
-0.0806227718256594
 31
0.0
  0
LINE
  5
13AA
330
18
100
AcDbEntity
  8
1
100
AcDbLine
 10
1.259373583609942
 20
-0.0896096829856674
 30
0.0
 11
1.267134079899959
 21
-0.0880423239156585
 31
0.0
  0
LINE
  5
13AB
330
18
100
AcDbEntity
  8
1
100
AcDbLine
 10
1.267134079899959
 20
-0.0880423239156585
 30
0.0
 11
1.273341784019974
 21
-0.0831967036856725
 31
0.0
  0
LINE
  5
13AC
330
18
100
AcDbEntity
  8
1
100
AcDbLine
 10
1.256947210509961
 20
-0.0884524018356672
 30
0.0
 11
1.258034137469959
 21
-0.089285431665644
 31
0.0
  0
LINE
  5
13AD
330
18
100
AcDbEntity
  8
1
100
AcDbLine
 10
1.258034137469959
 20
-0.089285431665644
 30
0.0
 11
1.259373583609942
 21
-0.0896096829856674
 31
0.0
  0
LINE
  5
13AE
330
18
100
AcDbEntity
  8
1
100
AcDbLine
 10
1.256947210509961
 20
-0.0884524018356672
 30
0.0
 11
1.255039734009983
 21
-0.0873523252956545
 31
0.0
  0
LINE
  5
13AF
330
18
100
AcDbEntity
  8
1
100
AcDbLine
 10
1.255039734009983
 20
-0.0873523252956545
 30
0.0
 11
1.252848439179955
 21
-0.0876794506256431
 31
0.0
  0
LINE
  5
13B0
330
18
100
AcDbEntity
  8
1
100
AcDbLine
 10
1.252848439179955
 20
-0.0876794506256431
 30
0.0
 11
1.246913136089855
 21
-0.0928440859656519
 31
0.0
  0
LINE
  5
13B1
330
18
100
AcDbEntity
  8
1
100
AcDbLine
 10
1.246913136089855
 20
-0.0928440859656519
 30
0.0
 11
1.243994795469973
 21
-0.1000805281856572
 31
0.0
  0
LINE
  5
13B2
330
18
100
AcDbEntity
  8
1
100
AcDbLine
 10
1.243994795469973
 20
-0.1000805281856572
 30
0.0
 11
1.24443097569997
 21
-0.1022119806156354
 31
0.0
  0
LINE
  5
13B3
330
18
100
AcDbEntity
  8
1
100
AcDbLine
 10
1.24443097569997
 20
-0.1022119806156354
 30
0.0
 11
1.246137783309958
 21
-0.1035933951756647
 31
0.0
  0
LINE
  5
13B4
330
18
100
AcDbEntity
  8
1
100
AcDbLine
 10
1.248076362109939
 20
-0.1054339820456676
 30
0.0
 11
1.247307229789953
 21
-0.1043105590956657
 31
0.0
  0
LINE
  5
13B5
330
18
100
AcDbEntity
  8
1
100
AcDbLine
 10
1.247307229789953
 20
-0.1043105590956657
 30
0.0
 11
1.246137783309958
 21
-0.1035933951756647
 31
0.0
  0
LINE
  5
13B6
330
18
100
AcDbEntity
  8
1
100
AcDbLine
 10
1.246709632559998
 20
-0.1205005660856671
 30
0.0
 11
1.249229233819959
 21
-0.113121998165667
 31
0.0
  0
LINE
  5
13B7
330
18
100
AcDbEntity
  8
1
100
AcDbLine
 10
1.249229233819959
 20
-0.113121998165667
 30
0.0
 11
1.248076362109939
 21
-0.1054339820456676
 31
0.0
  0
LINE
  5
13B8
330
18
100
AcDbEntity
  8
1
100
AcDbLine
 10
1.244469125229954
 20
-0.1219882796456488
 30
0.0
 11
1.245749910069946
 21
-0.1214780838156457
 31
0.0
  0
LINE
  5
13B9
330
18
100
AcDbEntity
  8
1
100
AcDbLine
 10
1.245749910069946
 20
-0.1214780838156457
 30
0.0
 11
1.246709632559998
 21
-0.1205005660856671
 31
0.0
  0
LINE
  5
13BA
330
18
100
AcDbEntity
  8
1
100
AcDbLine
 10
1.244469125229954
 20
-0.1219882796456488
 30
0.0
 11
1.242539483419932
 21
-0.1230630806456645
 31
0.0
  0
LINE
  5
13BB
330
18
100
AcDbEntity
  8
1
100
AcDbLine
 10
1.242539483419932
 20
-0.1230630806456645
 30
0.0
 11
1.241726217329925
 21
-0.1250891789556476
 31
0.0
  0
LINE
  5
13BC
330
18
100
AcDbEntity
  8
1
100
AcDbLine
 10
1.241726217329925
 20
-0.1250891789556476
 30
0.0
 11
1.243297277179975
 21
-0.1327042424656497
 31
0.0
  0
LINE
  5
13BD
330
18
100
AcDbEntity
  8
1
100
AcDbLine
 10
1.243297277179975
 20
-0.1327042424656497
 30
0.0
 11
1.248212621679954
 21
-0.1387843877856483
 31
0.0
  0
LINE
  5
13BE
330
18
100
AcDbEntity
  8
1
100
AcDbLine
 10
1.248212621679954
 20
-0.1387843877856483
 30
0.0
 11
1.250311672599934
 21
-0.1394729297156516
 31
0.0
  0
LINE
  5
13BF
330
18
100
AcDbEntity
  8
1
100
AcDbLine
 10
1.250311672599934
 20
-0.1394729297156516
 30
0.0
 11
1.252388282619959
 21
-0.1387085611656573
 31
0.0
  0
LINE
  5
13C0
330
18
100
AcDbEntity
  8
1
100
AcDbLine
 10
1.254986230179952
 20
-0.1379751768056678
 30
0.0
 11
1.253608634509987
 21
-0.1380705309456403
 31
0.0
  0
LINE
  5
13C1
330
18
100
AcDbEntity
  8
1
100
AcDbLine
 10
1.253608634509987
 20
-0.1380705309456403
 30
0.0
 11
1.252388282619959
 21
-0.1387085611656573
 31
0.0
  0
LINE
  5
13C2
330
18
100
AcDbEntity
  8
1
100
AcDbLine
 10
1.267587701039985
 20
-0.1466288209156517
 30
0.0
 11
1.262346766639947
 21
-0.1408171396256534
 31
0.0
  0
LINE
  5
13C3
330
18
100
AcDbEntity
  8
1
100
AcDbLine
 10
1.262346766639947
 20
-0.1408171396256534
 30
0.0
 11
1.254986230179952
 21
-0.1379751768056678
 31
0.0
  0
LINE
  5
13C4
330
18
100
AcDbEntity
  8
1
100
AcDbLine
 10
1.280251612719951
 20
-0.0654903611456348
 30
0.0
 11
1.259437363009965
 21
-0.0699001554756649
 31
0.0
  0
LINE
  5
13C5
330
18
100
AcDbEntity
  8
1
100
AcDbLine
 10
1.259437363009965
 20
-0.0699001554756649
 30
0.0
 11
1.242222043109961
 21
-0.082235878835661
 31
0.0
  0
LINE
  5
13C6
330
18
100
AcDbEntity
  8
1
100
AcDbLine
 10
1.242222043109961
 20
-0.082235878835661
 30
0.0
 11
1.231582379349958
 21
-0.1003642677756602
 31
0.0
  0
LINE
  5
13C7
330
18
100
AcDbEntity
  8
1
100
AcDbLine
 10
1.231582379349958
 20
-0.1003642677756602
 30
0.0
 11
1.229358053089921
 21
-0.1211509584856572
 31
0.0
  0
LINE
  5
13C8
330
18
100
AcDbEntity
  8
1
100
AcDbLine
 10
1.229358053089921
 20
-0.1211509584856572
 30
0.0
 11
1.235933748599959
 21
-0.1410016668156686
 31
0.0
  0
LINE
  5
13C9
330
18
100
AcDbEntity
  8
1
100
AcDbLine
 10
1.235933748599959
 20
-0.1410016668156686
 30
0.0
 11
1.250172302799967
 21
-0.1564840374256562
 31
0.0
  0
LINE
  5
13CA
330
18
100
AcDbEntity
  8
1
100
AcDbLine
 10
1.250172302799967
 20
-0.1564840374256562
 30
0.0
 11
1.269611988329984
 21
-0.164921185905655
 31
0.0
  0
LINE
  5
13CB
330
18
100
AcDbEntity
  8
1
100
AcDbLine
 10
1.269611988329984
 20
-0.164921185905655
 30
0.0
 11
1.290891276479952
 21
-0.1648539419456654
 31
0.0
  0
LINE
  5
13CC
330
18
100
AcDbEntity
  8
1
100
AcDbLine
 10
1.290891276479952
 20
-0.1648539419456654
 30
0.0
 11
1.310330922639988
 21
-0.1562938015856616
 31
0.0
  0
LINE
  5
13CD
330
18
100
AcDbEntity
  8
1
100
AcDbLine
 10
1.310330922639988
 20
-0.1562938015856616
 30
0.0
 11
1.324569476839938
 21
-0.1407217461156449
 31
0.0
  0
LINE
  5
13CE
330
18
100
AcDbEntity
  8
1
100
AcDbLine
 10
1.324569476839938
 20
-0.1407217461156449
 30
0.0
 11
1.331145172349975
 21
-0.1208291087356486
 31
0.0
  0
LINE
  5
13CF
330
18
100
AcDbEntity
  8
1
100
AcDbLine
 10
1.331145172349975
 20
-0.1208291087356486
 30
0.0
 11
1.328920964199935
 21
-0.1000567093356608
 31
0.0
  0
LINE
  5
13D0
330
18
100
AcDbEntity
  8
1
100
AcDbLine
 10
1.328920964199935
 20
-0.1000567093356608
 30
0.0
 11
1.318281221699975
 21
-0.0819955643556512
 31
0.0
  0
LINE
  5
13D1
330
18
100
AcDbEntity
  8
1
100
AcDbLine
 10
1.318281221699975
 20
-0.0819955643556512
 30
0.0
 11
1.301065980539988
 21
-0.0697685415656508
 31
0.0
  0
LINE
  5
13D2
330
18
100
AcDbEntity
  8
1
100
AcDbLine
 10
1.301065980539988
 20
-0.0697685415656508
 30
0.0
 11
1.280251612719951
 21
-0.0654903611456348
 31
0.0
  0
LINE
  5
13D3
330
18
100
AcDbEntity
  8
1
100
AcDbLine
 10
1.268468053609979
 20
-0.1455888229956486
 30
0.0
 11
1.269129430239956
 21
-0.153148099215656
 31
0.0
  0
LINE
  5
13D4
330
18
100
AcDbEntity
  8
1
100
AcDbLine
 10
1.300433344009999
 20
-0.1339073109256503
 30
0.0
 11
1.301129641829958
 21
-0.1418661532756573
 31
0.0
  0
LINE
  5
13D5
330
18
100
AcDbEntity
  8
1
100
AcDbLine
 10
1.268468053609979
 20
-0.1455888229956486
 30
0.0
 11
1.267702818919927
 21
-0.1449016983856666
 31
0.0
  0
LINE
  5
13D6
330
18
100
AcDbEntity
  8
1
100
AcDbLine
 10
1.302874638339969
 20
-0.1352338437056346
 30
0.0
 11
1.303556014929995
 21
-0.1430229619856504
 31
0.0
  0
LINE
  5
13D7
330
18
100
AcDbEntity
  8
1
100
AcDbLine
 10
1.286465143599967
 20
-0.1403202508556376
 30
0.0
 11
1.287161441419925
 21
-0.1482791325756523
 31
0.0
  0
LINE
  5
13D8
330
18
100
AcDbEntity
  8
1
100
AcDbLine
 10
1.300433344009999
 20
-0.1339073109256503
 30
0.0
 11
1.301546648869987
 21
-0.134192428465667
 31
0.0
  0
LINE
  5
13D9
330
18
100
AcDbEntity
  8
1
100
AcDbLine
 10
1.301546648869987
 20
-0.134192428465667
 30
0.0
 11
1.302507001279934
 21
-0.1348337657656486
 31
0.0
  0
LINE
  5
13DA
330
18
100
AcDbEntity
  8
1
100
AcDbLine
 10
1.302507001279934
 20
-0.1348337657656486
 30
0.0
 11
1.302874638339969
 21
-0.1352338437056346
 31
0.0
  0
LINE
  5
13DB
330
18
100
AcDbEntity
  8
1
100
AcDbLine
 10
1.286465143599967
 20
-0.1403202508556376
 30
0.0
 11
1.29017923065993
 21
-0.1367087226456363
 31
0.0
  0
LINE
  5
13DC
330
18
100
AcDbEntity
  8
1
100
AcDbLine
 10
1.29017923065993
 20
-0.1367087226456363
 30
0.0
 11
1.294869260649932
 21
-0.1344661287056681
 31
0.0
  0
LINE
  5
13DD
330
18
100
AcDbEntity
  8
1
100
AcDbLine
 10
1.294869260649932
 20
-0.1344661287056681
 30
0.0
 11
1.299771258719942
 21
-0.1338705787156584
 31
0.0
  0
LINE
  5
13DE
330
18
100
AcDbEntity
  8
1
100
AcDbLine
 10
1.299771258719942
 20
-0.1338705787156584
 30
0.0
 11
1.300433344009999
 21
-0.1339073109256503
 31
0.0
  0
LINE
  5
13DF
330
18
100
AcDbEntity
  8
1
100
AcDbLine
 10
1.28380810166999
 20
-0.1468824818256564
 30
0.0
 11
1.284469360189973
 21
-0.1544412856056567
 31
0.0
  0
LINE
  5
13E0
330
18
100
AcDbEntity
  8
1
100
AcDbLine
 10
1.285819987409978
 20
-0.1427626081756443
 30
0.0
 11
1.285817625209972
 21
-0.1418428068656681
 31
0.0
  0
LINE
  5
13E1
330
18
100
AcDbEntity
  8
1
100
AcDbLine
 10
1.285817625209972
 20
-0.1418428068656681
 30
0.0
 11
1.28622982910997
 21
-0.1406788328156665
 31
0.0
  0
LINE
  5
13E2
330
18
100
AcDbEntity
  8
1
100
AcDbLine
 10
1.28622982910997
 20
-0.1406788328156665
 30
0.0
 11
1.286465143599967
 21
-0.1403202508556376
 31
0.0
  0
LINE
  5
13E3
330
18
100
AcDbEntity
  8
1
100
AcDbLine
 10
1.285821404729969
 20
-0.1433643786256482
 30
0.0
 11
1.285823570079968
 21
-0.1442856366256535
 31
0.0
  0
LINE
  5
13E4
330
18
100
AcDbEntity
  8
1
100
AcDbLine
 10
1.285823570079968
 20
-0.1442856366256535
 30
0.0
 11
1.285410972479948
 21
-0.1454505555556409
 31
0.0
  0
LINE
  5
13E5
330
18
100
AcDbEntity
  8
1
100
AcDbLine
 10
1.285410972479948
 20
-0.1454505555556409
 30
0.0
 11
1.284641367719984
 21
-0.1463751206356676
 31
0.0
  0
LINE
  5
13E6
330
18
100
AcDbEntity
  8
1
100
AcDbLine
 10
1.284641367719984
 20
-0.1463751206356676
 30
0.0
 11
1.28380810166999
 21
-0.1468824818256564
 31
0.0
  0
LINE
  5
13E7
330
18
100
AcDbEntity
  8
1
100
AcDbLine
 10
1.28380810166999
 20
-0.1468824818256564
 30
0.0
 11
1.278360120439969
 21
-0.148144172215666
 31
0.0
  0
LINE
  5
13E8
330
18
100
AcDbEntity
  8
1
100
AcDbLine
 10
1.278360120439969
 20
-0.148144172215666
 30
0.0
 11
1.272790800869926
 21
-0.1475281104556529
 31
0.0
  0
LINE
  5
13E9
330
18
100
AcDbEntity
  8
1
100
AcDbLine
 10
1.272790800869926
 20
-0.1475281104556529
 30
0.0
 11
1.268468053609979
 21
-0.1455888229956486
 31
0.0
  0
LINE
  5
13EA
330
18
100
AcDbEntity
  8
1
100
AcDbLine
 10
1.266891363849935
 20
-0.138669939195637
 30
0.0
 11
1.267587701039985
 21
-0.1466288209156517
 31
0.0
  0
LINE
  5
13EB
330
18
100
AcDbEntity
  8
1
100
AcDbLine
 10
1.254289932359995
 20
-0.1300162950856531
 30
0.0
 11
1.254986230179952
 21
-0.1379751768056678
 31
0.0
  0
LINE
  5
13EC
330
18
100
AcDbEntity
  8
1
100
AcDbLine
 10
1.266891363849935
 20
-0.138669939195637
 30
0.0
 11
1.267249119039945
 21
-0.1397838346056517
 31
0.0
  0
LINE
  5
13ED
330
18
100
AcDbEntity
  8
1
100
AcDbLine
 10
1.267249119039945
 20
-0.1397838346056517
 30
0.0
 11
1.267245536369955
 21
-0.1399902908856347
 31
0.0
  0
LINE
  5
13EE
330
18
100
AcDbEntity
  8
1
100
AcDbLine
 10
1.251706906029994
 20
-0.1309189704456628
 30
0.0
 11
1.252388282619959
 21
-0.1387085611656573
 31
0.0
  0
LINE
  5
13EF
330
18
100
AcDbEntity
  8
1
100
AcDbLine
 10
1.254289932359995
 20
-0.1300162950856531
 30
0.0
 11
1.25917189109998
 21
-0.1312899539556724
 31
0.0
  0
LINE
  5
13F0
330
18
100
AcDbEntity
  8
1
100
AcDbLine
 10
1.25917189109998
 20
-0.1312899539556724
 30
0.0
 11
1.26347412658998
 21
-0.1341476254056602
 31
0.0
  0
LINE
  5
13F1
330
18
100
AcDbEntity
  8
1
100
AcDbLine
 10
1.26347412658998
 20
-0.1341476254056602
 30
0.0
 11
1.266568805439874
 21
-0.1380772238456416
 31
0.0
  0
LINE
  5
13F2
330
18
100
AcDbEntity
  8
1
100
AcDbLine
 10
1.266568805439874
 20
-0.1380772238456416
 30
0.0
 11
1.266891363849935
 21
-0.138669939195637
 31
0.0
  0
LINE
  5
13F3
330
18
100
AcDbEntity
  8
1
100
AcDbLine
 10
1.247551245049975
 20
-0.1312250721956616
 30
0.0
 11
1.248212621679954
 21
-0.1387843877856483
 31
0.0
  0
LINE
  5
13F4
330
18
100
AcDbEntity
  8
1
100
AcDbLine
 10
1.251706906029994
 20
-0.1309189704456628
 30
0.0
 11
1.252705880409962
 21
-0.1302704678056443
 31
0.0
  0
LINE
  5
13F5
330
18
100
AcDbEntity
  8
1
100
AcDbLine
 10
1.252705880409962
 20
-0.1302704678056443
 30
0.0
 11
1.253872216659942
 21
-0.1300053502256446
 31
0.0
  0
LINE
  5
13F6
330
18
100
AcDbEntity
  8
1
100
AcDbLine
 10
1.253872216659942
 20
-0.1300053502256446
 30
0.0
 11
1.254289932359995
 21
-0.1300162950856531
 31
0.0
  0
LINE
  5
13F7
330
18
100
AcDbEntity
  8
1
100
AcDbLine
 10
1.251706906029994
 20
-0.1309189704456628
 30
0.0
 11
1.250706474959939
 21
-0.1315684179656671
 31
0.0
  0
LINE
  5
13F8
330
18
100
AcDbEntity
  8
1
100
AcDbLine
 10
1.250706474959939
 20
-0.1315684179656671
 30
0.0
 11
1.249540256819955
 21
-0.1318344804256526
 31
0.0
  0
LINE
  5
13F9
330
18
100
AcDbEntity
  8
1
100
AcDbLine
 10
1.249540256819955
 20
-0.1318344804256526
 30
0.0
 11
1.248390967779982
 21
-0.1316685358756615
 31
0.0
  0
LINE
  5
13FA
330
18
100
AcDbEntity
  8
1
100
AcDbLine
 10
1.248390967779982
 20
-0.1316685358756615
 30
0.0
 11
1.247551245049975
 21
-0.1312250721956616
 31
0.0
  0
LINE
  5
13FB
330
18
100
AcDbEntity
  8
1
100
AcDbLine
 10
1.247551245049975
 20
-0.1312250721956616
 30
0.0
 11
1.243793299809965
 21
-0.1272563793456527
 31
0.0
  0
LINE
  5
13FC
330
18
100
AcDbEntity
  8
1
100
AcDbLine
 10
1.243793299809965
 20
-0.1272563793456527
 30
0.0
 11
1.242189011679954
 21
-0.1236267015656551
 31
0.0
  0
LINE
  5
13FD
330
18
100
AcDbEntity
  8
1
100
AcDbLine
 10
1.247380064289984
 20
-0.0974751003256529
 30
0.0
 11
1.248076362109939
 21
-0.1054339820456676
 31
0.0
  0
LINE
  5
13FE
330
18
100
AcDbEntity
  8
1
100
AcDbLine
 10
1.245456288609942
 20
-0.0958042768956489
 30
0.0
 11
1.246137783309958
 21
-0.1035933951756647
 31
0.0
  0
LINE
  5
13FF
330
18
100
AcDbEntity
  8
1
100
AcDbLine
 10
1.247380064289984
 20
-0.0974751003256529
 30
0.0
 11
1.24850805415997
 21
-0.1020965871456667
 31
0.0
  0
LINE
  5
1400
330
18
100
AcDbEntity
  8
1
100
AcDbLine
 10
1.245456288609942
 20
-0.0958042768956489
 30
0.0
 11
1.246454199999956
 21
-0.0962958900856279
 31
0.0
  0
LINE
  5
1401
330
18
100
AcDbEntity
  8
1
100
AcDbLine
 10
1.246454199999956
 20
-0.0962958900856279
 30
0.0
 11
1.247202229999967
 21
-0.0971251010256538
 31
0.0
  0
LINE
  5
1402
330
18
100
AcDbEntity
  8
1
100
AcDbLine
 10
1.247202229999967
 20
-0.0971251010256538
 30
0.0
 11
1.247380064289984
 21
-0.0974751003256529
 31
0.0
  0
LINE
  5
1403
330
18
100
AcDbEntity
  8
1
100
AcDbLine
 10
1.29248997406995
 20
-0.0794611993456442
 30
0.0
 11
1.292729697999956
 21
-0.0822020206356626
 31
0.0
  0
LINE
  5
1404
330
18
100
AcDbEntity
  8
1
100
AcDbLine
 10
1.27395154657995
 20
-0.080057221775661
 30
0.0
 11
1.274000995299957
 21
-0.0806227718256594
 31
0.0
  0
LINE
  5
1405
330
18
100
AcDbEntity
  8
1
100
AcDbLine
 10
1.31535272361998
 20
-0.1016979658956529
 30
0.0
 11
1.316034257689977
 21
-0.1094870841756688
 31
0.0
  0
LINE
  5
1406
330
18
100
AcDbEntity
  8
1
100
AcDbLine
 10
1.31842606392996
 20
-0.1023750511556614
 30
0.0
 11
1.318777008109975
 21
-0.1063862242356492
 31
0.0
  0
LINE
  5
1407
330
18
100
AcDbEntity
  8
1
100
AcDbLine
 10
1.317715081099947
 20
-0.1001315517056582
 30
0.0
 11
1.317355318039971
 21
-0.1007032828456715
 31
0.0
  0
LINE
  5
1408
330
18
100
AcDbEntity
  8
1
100
AcDbLine
 10
1.317355318039971
 20
-0.1007032828456715
 30
0.0
 11
1.316527760639985
 21
-0.1013446201456531
 31
0.0
  0
LINE
  5
1409
330
18
100
AcDbEntity
  8
1
100
AcDbLine
 10
1.316527760639985
 20
-0.1013446201456531
 30
0.0
 11
1.31535272361998
 21
-0.1016979658956529
 31
0.0
  0
LINE
  5
140A
330
18
100
AcDbEntity
  8
1
100
AcDbLine
 10
1.306993409629967
 20
-0.1362375818556529
 30
0.0
 11
1.307654786259945
 21
-0.1437963856356532
 31
0.0
  0
LINE
  5
140B
330
18
100
AcDbEntity
  8
1
100
AcDbLine
 10
1.313097295059947
 20
-0.1030164278256507
 30
0.0
 11
1.31379359287996
 21
-0.1109752701756577
 31
0.0
  0
LINE
  5
140C
330
18
100
AcDbEntity
  8
1
100
AcDbLine
 10
1.306993409629967
 20
-0.1362375818556529
 30
0.0
 11
1.30596415971996
 21
-0.136548486745653
 31
0.0
  0
LINE
  5
140D
330
18
100
AcDbEntity
  8
1
100
AcDbLine
 10
1.30596415971996
 20
-0.136548486745653
 30
0.0
 11
1.304887941399954
 21
-0.1365003372356455
 31
0.0
  0
LINE
  5
140E
330
18
100
AcDbEntity
  8
1
100
AcDbLine
 10
1.304887941399954
 20
-0.1365003372356455
 30
0.0
 11
1.303850699379949
 21
-0.1360921490756652
 31
0.0
  0
LINE
  5
140F
330
18
100
AcDbEntity
  8
1
100
AcDbLine
 10
1.303850699379949
 20
-0.1360921490756652
 30
0.0
 11
1.302874638339969
 21
-0.1352338437056346
 31
0.0
  0
LINE
  5
1410
330
18
100
AcDbEntity
  8
1
100
AcDbLine
 10
1.313097295059947
 20
-0.1030164278256507
 30
0.0
 11
1.313857136059936
 21
-0.102246783695648
 31
0.0
  0
LINE
  5
1411
330
18
100
AcDbEntity
  8
1
100
AcDbLine
 10
1.313857136059936
 20
-0.102246783695648
 30
0.0
 11
1.31484429943998
 21
-0.1017909578356466
 31
0.0
  0
LINE
  5
1412
330
18
100
AcDbEntity
  8
1
100
AcDbLine
 10
1.31484429943998
 20
-0.1017909578356466
 30
0.0
 11
1.31535272361998
 21
-0.1016979658956529
 31
0.0
  0
LINE
  5
1413
330
18
100
AcDbEntity
  8
1
100
AcDbLine
 10
1.310574701679968
 20
-0.1131415650556562
 30
0.0
 11
1.310549544249965
 21
-0.1130342818056533
 31
0.0
  0
LINE
  5
1414
330
18
100
AcDbEntity
  8
1
100
AcDbLine
 10
1.310549544249965
 20
-0.1130342818056533
 30
0.0
 11
1.310936511979946
 21
-0.1079263786356535
 31
0.0
  0
LINE
  5
1415
330
18
100
AcDbEntity
  8
1
100
AcDbLine
 10
1.310936511979946
 20
-0.1079263786356535
 30
0.0
 11
1.31275623274996
 21
-0.1035442614156636
 31
0.0
  0
LINE
  5
1416
330
18
100
AcDbEntity
  8
1
100
AcDbLine
 10
1.31275623274996
 20
-0.1035442614156636
 30
0.0
 11
1.313097295059947
 21
-0.1030164278256507
 31
0.0
  0
LINE
  5
1417
330
18
100
AcDbEntity
  8
1
100
AcDbLine
 10
1.316380083769956
 20
-0.1299281062856608
 30
0.0
 11
1.316508469339964
 21
-0.1313953080756676
 31
0.0
  0
LINE
  5
1418
330
18
100
AcDbEntity
  8
1
100
AcDbLine
 10
1.314569024399927
 20
-0.1278586222356637
 30
0.0
 11
1.314162883479979
 21
-0.1291370055056689
 31
0.0
  0
LINE
  5
1419
330
18
100
AcDbEntity
  8
1
100
AcDbLine
 10
1.314162883479979
 20
-0.1291370055056689
 30
0.0
 11
1.310823835039968
 21
-0.1335625478356519
 31
0.0
  0
LINE
  5
141A
330
18
100
AcDbEntity
  8
1
100
AcDbLine
 10
1.310823835039968
 20
-0.1335625478356519
 30
0.0
 11
1.306993409629967
 21
-0.1362375818556529
 31
0.0
  0
LINE
  5
141B
330
18
100
AcDbEntity
  8
1
100
AcDbLine
 10
1.383319753039984
 20
0.0001294682443529
 30
0.0
 11
1.383626248489974
 21
-0.000649703425637
 31
0.0
  0
LINE
  5
141C
330
18
100
AcDbEntity
  8
1
100
AcDbLine
 10
1.383626248489974
 20
-0.000649703425637
 30
0.0
 11
1.39338063842996
 21
-0.0051038283756668
 31
0.0
  0
LINE
  5
141D
330
18
100
AcDbEntity
  8
1
100
AcDbLine
 10
1.39338063842996
 20
-0.0051038283756668
 30
0.0
 11
1.397917046679935
 21
-0.0146815651256418
 31
0.0
  0
LINE
  5
141E
330
18
100
AcDbEntity
  8
1
100
AcDbLine
 10
1.383565106879984
 20
0.004811506124355
 30
0.0
 11
1.383642587039958
 21
0.0047390259543647
 31
0.0
  0
LINE
  5
141F
330
18
100
AcDbEntity
  8
1
100
AcDbLine
 10
1.383642587039958
 20
0.0047390259543647
 30
0.0
 11
1.383718177439958
 21
0.004664656024346
 31
0.0
  0
LINE
  5
1420
102
{ACAD_REACTORS
330
1524
102
}
330
18
100
AcDbEntity
  8
1
100
AcDbLine
 10
1.397917046679935
 20
-0.0146815651256418
 30
0.0
 11
1.416899292179948
 21
-0.2316506193756424
 31
0.0
  0
LINE
  5
1421
330
18
100
AcDbEntity
  8
1
100
AcDbLine
 10
1.416899292179948
 20
-0.2316506193756425
 30
0.0
 11
1.412327372189963
 21
-0.2439377207856523
 31
0.0
  0
LINE
  5
1422
330
18
100
AcDbEntity
  8
1
100
AcDbLine
 10
1.412327372189963
 20
-0.2439377207856523
 30
0.0
 11
1.399813893279939
 21
-0.248427121255645
 31
0.0
  0
LINE
  5
1423
330
18
100
AcDbEntity
  8
3
100
AcDbLine
 10
1.41850492545982
 20
-0.250003175937294
 30
0.0
 11
1.414379875915465
 21
-0.249655345834395
 31
0.0
  0
LINE
  5
1424
330
18
100
AcDbEntity
  8
1
100
AcDbLine
 10
1.178845595059954
 20
-0.2297947569456369
 30
0.0
 11
1.169091205119968
 21
-0.2253406319956355
 31
0.0
  0
LINE
  5
1425
330
18
100
AcDbEntity
  8
1
100
AcDbLine
 10
1.169091205119968
 20
-0.2253406319956355
 30
0.0
 11
1.164554836239972
 21
-0.2157628952456605
 31
0.0
  0
LINE
  5
1426
330
18
100
AcDbEntity
  8
1
100
AcDbLine
 10
1.164554836239972
 20
-0.2157628952456605
 30
0.0
 11
1.145572590739958
 21
0.0012061590043402
 31
0.0
  0
LINE
  5
1427
330
18
100
AcDbEntity
  8
1
100
AcDbLine
 10
1.160078900309938
 20
0.0245396556443325
 30
0.0
 11
1.162657989639967
 21
0.0179826608843428
 31
0.0
  0
LINE
  5
1428
330
18
100
AcDbEntity
  8
1
100
AcDbLine
 10
1.145572590739958
 20
0.0012061590043402
 30
0.0
 11
1.150144471359965
 21
0.0134932604143501
 31
0.0
  0
LINE
  5
1429
330
18
100
AcDbEntity
  8
1
100
AcDbLine
 10
1.150144471359965
 20
0.0134932604143501
 30
0.0
 11
1.162657989639967
 21
0.0179826608843428
 31
0.0
  0
LINE
  5
142A
330
18
100
AcDbEntity
  8
1
100
AcDbLine
 10
1.160078900309938
 20
0.0245396556443325
 30
0.0
 11
1.264762549209932
 21
0.0157124685743497
 31
0.0
  0
LINE
  5
142B
330
18
100
AcDbEntity
  8
1
100
AcDbLine
 10
1.156196349019978
 20
0.0227238718743479
 30
0.0
 11
1.157887920439975
 21
0.0241491446143414
 31
0.0
  0
LINE
  5
142C
330
18
100
AcDbEntity
  8
1
100
AcDbLine
 10
1.157887920439975
 20
0.0241491446143414
 30
0.0
 11
1.160078900309938
 21
0.0245396556443325
 31
0.0
  0
LINE
  5
142D
330
18
100
AcDbEntity
  8
1
100
AcDbLine
 10
1.162657989639967
 20
0.0179826608843428
 30
0.0
 11
1.383626248489974
 21
-0.000649703425637
 31
0.0
  0
LINE
  5
142E
330
18
100
AcDbEntity
  8
1
100
AcDbLine
 10
1.281235941459954
 20
-0.1944588039956443
 30
0.0
 11
1.255033552919939
 21
-0.1902483399756534
 31
0.0
  0
LINE
  5
142F
330
18
100
AcDbEntity
  8
1
100
AcDbLine
 10
1.255033552919939
 20
-0.1902483399756534
 30
0.0
 11
1.231670607519957
 21
-0.177907813475656
 31
0.0
  0
LINE
  5
1430
330
18
100
AcDbEntity
  8
1
100
AcDbLine
 10
1.231670607519957
 20
-0.177907813475656
 30
0.0
 11
1.213678832479955
 21
-0.1587743084356532
 31
0.0
  0
LINE
  5
1431
330
18
100
AcDbEntity
  8
1
100
AcDbLine
 10
1.213678832479955
 20
-0.1587743084356532
 30
0.0
 11
1.203007830199965
 21
-0.1349210490556629
 31
0.0
  0
LINE
  5
1432
330
18
100
AcDbEntity
  8
1
100
AcDbLine
 10
1.203007830199965
 20
-0.1349210490556629
 30
0.0
 11
1.200814173169928
 21
-0.1089334632356724
 31
0.0
  0
LINE
  5
1433
330
18
100
AcDbEntity
  8
1
100
AcDbLine
 10
1.200814173169928
 20
-0.1089334632356724
 30
0.0
 11
1.207335498709936
 21
-0.083626820935649
 31
0.0
  0
LINE
  5
1434
330
18
100
AcDbEntity
  8
1
100
AcDbLine
 10
1.207335498709936
 20
-0.083626820935649
 30
0.0
 11
1.221864918469975
 21
-0.0617443450156543
 31
0.0
  0
LINE
  5
1435
330
18
100
AcDbEntity
  8
1
100
AcDbLine
 10
1.221864918469975
 20
-0.0617443450156543
 30
0.0
 11
1.242828183629967
 21
-0.0456572905756616
 31
0.0
  0
LINE
  5
1436
330
18
100
AcDbEntity
  8
1
100
AcDbLine
 10
1.242828183629967
 20
-0.0456572905756616
 30
0.0
 11
1.267953527079952
 21
-0.0371086068856528
 31
0.0
  0
LINE
  5
1437
330
18
100
AcDbEntity
  8
1
100
AcDbLine
 10
1.267953527079952
 20
-0.0371086068856528
 30
0.0
 11
1.294518316469975
 21
-0.0370241976056605
 31
0.0
  0
LINE
  5
1438
330
18
100
AcDbEntity
  8
1
100
AcDbLine
 10
1.294518316469975
 20
-0.0370241976056605
 30
0.0
 11
1.319643659919961
 21
-0.0454141414556659
 31
0.0
  0
LINE
  5
1439
330
18
100
AcDbEntity
  8
1
100
AcDbLine
 10
1.319643659919961
 20
-0.0454141414556659
 30
0.0
 11
1.340606925079952
 21
-0.0613690701756582
 31
0.0
  0
LINE
  5
143A
330
18
100
AcDbEntity
  8
1
100
AcDbLine
 10
1.340606925079952
 20
-0.0613690701756582
 30
0.0
 11
1.355136344839934
 21
-0.0831595384056527
 31
0.0
  0
LINE
  5
143B
330
18
100
AcDbEntity
  8
1
100
AcDbLine
 10
1.355136344839934
 20
-0.0831595384056527
 30
0.0
 11
1.361657670379939
 21
-0.1084246847256622
 31
0.0
  0
LINE
  5
143C
330
18
100
AcDbEntity
  8
1
100
AcDbLine
 10
1.361657670379939
 20
-0.1084246847256622
 30
0.0
 11
1.359464013349962
 21
-0.1344265618556619
 31
0.0
  0
LINE
  5
143D
330
18
100
AcDbEntity
  8
1
100
AcDbLine
 10
1.359464013349962
 20
-0.1344265618556619
 30
0.0
 11
1.348793011069971
 21
-0.1583470651956418
 31
0.0
  0
LINE
  5
143E
330
18
100
AcDbEntity
  8
1
100
AcDbLine
 10
1.348793011069971
 20
-0.1583470651956418
 30
0.0
 11
1.330801275399948
 21
-0.1775945463856487
 31
0.0
  0
LINE
  5
143F
330
18
100
AcDbEntity
  8
1
100
AcDbLine
 10
1.330801275399948
 20
-0.1775945463856487
 30
0.0
 11
1.307438329999967
 21
-0.1900829072356487
 31
0.0
  0
LINE
  5
1440
330
18
100
AcDbEntity
  8
1
100
AcDbLine
 10
1.307438329999967
 20
-0.1900829072356487
 30
0.0
 11
1.281235941459954
 21
-0.1944588039956443
 31
0.0
  0
LINE
  5
1441
330
18
100
AcDbEntity
  8
1
100
AcDbLine
 10
1.209541439179985
 20
-0.0924773937856571
 30
0.0
 11
1.20733667980994
 21
-0.1175227373956602
 31
0.0
  0
LINE
  5
1442
330
18
100
AcDbEntity
  8
1
100
AcDbLine
 10
1.20733667980994
 20
-0.1175227373956602
 30
0.0
 11
1.213973280709979
 21
-0.1417741455856571
 31
0.0
  0
LINE
  5
1443
330
18
100
AcDbEntity
  8
1
100
AcDbLine
 10
1.213973280709979
 20
-0.1417741455856571
 30
0.0
 11
1.228653290719933
 21
-0.1623148131656649
 31
0.0
  0
LINE
  5
1444
330
18
100
AcDbEntity
  8
1
100
AcDbLine
 10
1.228653290719933
 20
-0.1623148131656649
 30
0.0
 11
1.249611319669952
 21
-0.1766752175156512
 31
0.0
  0
LINE
  5
1445
330
18
100
AcDbEntity
  8
1
100
AcDbLine
 10
1.249611319669952
 20
-0.1766752175156512
 30
0.0
 11
1.27432705763999
 21
-0.1831282361056594
 31
0.0
  0
LINE
  5
1446
330
18
100
AcDbEntity
  8
1
100
AcDbLine
 10
1.27432705763999
 20
-0.1831282361056594
 30
0.0
 11
1.299828384589942
 21
-0.1808976106456441
 31
0.0
  0
LINE
  5
1447
330
18
100
AcDbEntity
  8
1
100
AcDbLine
 10
1.299828384589942
 20
-0.1808976106456441
 30
0.0
 11
1.323048495629958
 21
-0.1702517657956548
 31
0.0
  0
LINE
  5
1448
330
18
100
AcDbEntity
  8
1
100
AcDbLine
 10
1.323048495629958
 20
-0.1702517657956548
 30
0.0
 11
1.341195349099959
 21
-0.1524710139556475
 31
0.0
  0
LINE
  5
1449
330
18
100
AcDbEntity
  8
1
100
AcDbLine
 10
1.341195349099959
 20
-0.1524710139556475
 30
0.0
 11
1.35208639030992
 21
-0.1296935004556587
 31
0.0
  0
LINE
  5
144A
330
18
100
AcDbEntity
  8
1
100
AcDbLine
 10
1.35208639030992
 20
-0.1296935004556587
 30
0.0
 11
1.354412291169978
 21
-0.104658629265657
 31
0.0
  0
LINE
  5
144B
330
18
100
AcDbEntity
  8
1
100
AcDbLine
 10
1.354412291169978
 20
-0.104658629265657
 30
0.0
 11
1.347892973499936
 21
-0.0803762368856553
 31
0.0
  0
LINE
  5
144C
330
18
100
AcDbEntity
  8
1
100
AcDbLine
 10
1.281155351069968
 20
-0.0406076156356505
 30
0.0
 11
1.256785793509948
 21
-0.0446774106456474
 31
0.0
  0
LINE
  5
144D
330
18
100
AcDbEntity
  8
1
100
AcDbLine
 10
1.256785793509948
 20
-0.0446774106456474
 30
0.0
 11
1.235057096809952
 21
-0.0562921905656424
 31
0.0
  0
LINE
  5
144E
330
18
100
AcDbEntity
  8
1
100
AcDbLine
 10
1.235057096809952
 20
-0.0562921905656424
 30
0.0
 11
1.218323823189962
 21
-0.0741935720856475
 31
0.0
  0
LINE
  5
144F
330
18
100
AcDbEntity
  8
1
100
AcDbLine
 10
1.218323823189962
 20
-0.0741935720856475
 30
0.0
 11
1.208399315479994
 21
-0.0964408504256653
 31
0.0
  0
LINE
  5
1450
330
18
100
AcDbEntity
  8
1
100
AcDbLine
 10
1.208399315479994
 20
-0.0964408504256653
 30
0.0
 11
1.206359043969938
 21
-0.1206235973356513
 31
0.0
  0
LINE
  5
1451
330
18
100
AcDbEntity
  8
1
100
AcDbLine
 10
1.206359043969938
 20
-0.1206235973356513
 30
0.0
 11
1.21242418931996
 21
-0.1441215818356625
 31
0.0
  0
LINE
  5
1452
330
18
100
AcDbEntity
  8
1
100
AcDbLine
 10
1.21242418931996
 20
-0.1441215818356625
 30
0.0
 11
1.225937351269975
 21
-0.164388076735662
 31
0.0
  0
LINE
  5
1453
330
18
100
AcDbEntity
  8
1
100
AcDbLine
 10
1.225937351269975
 20
-0.164388076735662
 30
0.0
 11
1.245434241409952
 21
-0.1792267478456608
 31
0.0
  0
LINE
  5
1454
330
18
100
AcDbEntity
  8
1
100
AcDbLine
 10
1.245434241409952
 20
-0.1792267478456608
 30
0.0
 11
1.268802068689979
 21
-0.187029724365658
 31
0.0
  0
LINE
  5
1455
330
18
100
AcDbEntity
  8
1
100
AcDbLine
 10
1.268802068689979
 20
-0.187029724365658
 30
0.0
 11
1.293508633449959
 21
-0.1869514961756522
 31
0.0
  0
LINE
  5
1456
330
18
100
AcDbEntity
  8
1
100
AcDbLine
 10
1.293508633449959
 20
-0.1869514961756522
 30
0.0
 11
1.316876460729927
 21
-0.1790007246756602
 31
0.0
  0
LINE
  5
1457
330
18
100
AcDbEntity
  8
1
100
AcDbLine
 10
1.316876460729927
 20
-0.1790007246756602
 30
0.0
 11
1.336373468979957
 21
-0.1640385892456493
 31
0.0
  0
LINE
  5
1458
330
18
100
AcDbEntity
  8
1
100
AcDbLine
 10
1.336373468979957
 20
-0.1640385892456493
 30
0.0
 11
1.349886630929971
 21
-0.1436867401856432
 31
0.0
  0
LINE
  5
1459
330
18
100
AcDbEntity
  8
1
100
AcDbLine
 10
1.349886630929971
 20
-0.1436867401856432
 30
0.0
 11
1.355951736909958
 21
-0.1201505667856679
 31
0.0
  0
LINE
  5
145A
330
18
100
AcDbEntity
  8
1
100
AcDbLine
 10
1.355951736909958
 20
-0.1201505667856679
 30
0.0
 11
1.353911504769937
 21
-0.0959806938656414
 31
0.0
  0
LINE
  5
145B
330
18
100
AcDbEntity
  8
1
100
AcDbLine
 10
1.353911504769937
 20
-0.0959806938656414
 30
0.0
 11
1.34398695768999
 21
-0.0737958957156479
 31
0.0
  0
LINE
  5
145C
330
18
100
AcDbEntity
  8
1
100
AcDbLine
 10
1.34398695768999
 20
-0.0737958957156479
 30
0.0
 11
1.327253723439866
 21
-0.0560008525656599
 31
0.0
  0
LINE
  5
145D
330
18
100
AcDbEntity
  8
1
100
AcDbLine
 10
1.327253723439866
 20
-0.0560008525656599
 30
0.0
 11
1.305524908629934
 21
-0.0445233952056583
 31
0.0
  0
LINE
  5
145E
330
18
100
AcDbEntity
  8
1
100
AcDbLine
 10
1.305524908629934
 20
-0.0445233952056583
 30
0.0
 11
1.281155351069968
 21
-0.0406076156356505
 31
0.0
  0
LINE
  5
145F
330
18
100
AcDbEntity
  8
1
100
AcDbLine
 10
1.28121625645997
 20
-0.0374480943956428
 30
0.0
 11
1.255571662079944
 21
-0.0417310385856524
 31
0.0
  0
LINE
  5
1460
330
18
100
AcDbEntity
  8
1
100
AcDbLine
 10
1.255571662079944
 20
-0.0417310385856524
 30
0.0
 11
1.232706038519949
 21
-0.0539532976056592
 31
0.0
  0
LINE
  5
1461
330
18
100
AcDbEntity
  8
1
100
AcDbLine
 10
1.232706038519949
 20
-0.0539532976056592
 30
0.0
 11
1.215097333579932
 21
-0.0727912126856438
 31
0.0
  0
LINE
  5
1462
330
18
100
AcDbEntity
  8
1
100
AcDbLine
 10
1.215097333579932
 20
-0.0727912126856438
 30
0.0
 11
1.204653535569945
 21
-0.0962024257056555
 31
0.0
  0
LINE
  5
1463
330
18
100
AcDbEntity
  8
1
100
AcDbLine
 10
1.204653535569945
 20
-0.0962024257056555
 30
0.0
 11
1.202506453249952
 21
-0.1216506818956589
 31
0.0
  0
LINE
  5
1464
330
18
100
AcDbEntity
  8
1
100
AcDbLine
 10
1.202506453249952
 20
-0.1216506818956589
 30
0.0
 11
1.208888920799948
 21
-0.1463779946456611
 31
0.0
  0
LINE
  5
1465
330
18
100
AcDbEntity
  8
1
100
AcDbLine
 10
1.208888920799948
 20
-0.1463779946456611
 30
0.0
 11
1.223109128579948
 21
-0.1677044874256524
 31
0.0
  0
LINE
  5
1466
330
18
100
AcDbEntity
  8
1
100
AcDbLine
 10
1.223109128579948
 20
-0.1677044874256524
 30
0.0
 11
1.243626174159942
 21
-0.1833199286356546
 31
0.0
  0
LINE
  5
1467
330
18
100
AcDbEntity
  8
1
100
AcDbLine
 10
1.243626174159942
 20
-0.1833199286356546
 30
0.0
 11
1.268216636789985
 21
-0.1915310539456527
 31
0.0
  0
LINE
  5
1468
330
18
100
AcDbEntity
  8
1
100
AcDbLine
 10
1.268216636789985
 20
-0.1915310539456527
 30
0.0
 11
1.294215876129952
 21
-0.1914490068656676
 31
0.0
  0
LINE
  5
1469
330
18
100
AcDbEntity
  8
1
100
AcDbLine
 10
1.294215876129952
 20
-0.1914490068656676
 30
0.0
 11
1.31880633875994
 21
-0.1830819763556519
 31
0.0
  0
LINE
  5
146A
330
18
100
AcDbEntity
  8
1
100
AcDbLine
 10
1.31880633875994
 20
-0.1830819763556519
 30
0.0
 11
1.339323384339934
 21
-0.1673373228056505
 31
0.0
  0
LINE
  5
146B
330
18
100
AcDbEntity
  8
1
100
AcDbLine
 10
1.339323384339934
 20
-0.1673373228056505
 30
0.0
 11
1.353543592119932
 21
-0.1459207120956591
 31
0.0
  0
LINE
  5
146C
330
18
100
AcDbEntity
  8
1
100
AcDbLine
 10
1.353543592119932
 20
-0.1459207120956591
 30
0.0
 11
1.35992605966993
 21
-0.1211528876156649
 31
0.0
  0
LINE
  5
146D
330
18
100
AcDbEntity
  8
1
100
AcDbLine
 10
1.35992605966993
 20
-0.1211528876156649
 30
0.0
 11
1.357779095459932
 21
-0.0957184502956352
 31
0.0
  0
LINE
  5
146E
330
18
100
AcDbEntity
  8
1
100
AcDbLine
 10
1.357779095459932
 20
-0.0957184502956352
 30
0.0
 11
1.347335336819978
 21
-0.0723730245456693
 31
0.0
  0
LINE
  5
146F
330
18
100
AcDbEntity
  8
1
100
AcDbLine
 10
1.347335336819978
 20
-0.0723730245456693
 30
0.0
 11
1.329726474399932
 21
-0.0536466840456456
 31
0.0
  0
LINE
  5
1470
330
18
100
AcDbEntity
  8
1
100
AcDbLine
 10
1.329726474399932
 20
-0.0536466840456456
 30
0.0
 11
1.306860850839937
 21
-0.041568440485662
 31
0.0
  0
LINE
  5
1471
330
18
100
AcDbEntity
  8
1
100
AcDbLine
 10
1.306860850839937
 20
-0.041568440485662
 30
0.0
 11
1.28121625645997
 21
-0.0374480943956428
 31
0.0
  0
LINE
  5
1472
330
18
100
AcDbEntity
  8
1
100
AcDbLine
 10
1.200815472379928
 20
-0.122037885845657
 30
0.0
 11
1.20802750519999
 21
-0.1486062579056693
 31
0.0
  0
LINE
  5
1473
330
18
100
AcDbEntity
  8
1
100
AcDbLine
 10
1.20802750519999
 20
-0.1486062579056693
 30
0.0
 11
1.224066725089981
 21
-0.1711210160256655
 31
0.0
  0
LINE
  5
1474
330
18
100
AcDbEntity
  8
1
100
AcDbLine
 10
1.224066725089981
 20
-0.1711210160256655
 30
0.0
 11
1.246998608359945
 21
-0.1868666144556528
 31
0.0
  0
LINE
  5
1475
330
18
100
AcDbEntity
  8
1
100
AcDbLine
 10
1.246998608359945
 20
-0.1868666144556528
 30
0.0
 11
1.274057412509989
 21
-0.1939447892756618
 31
0.0
  0
LINE
  5
1476
330
18
100
AcDbEntity
  8
1
100
AcDbLine
 10
1.274057412509989
 20
-0.1939447892756618
 30
0.0
 11
1.301979600759977
 21
-0.1915010146356621
 31
0.0
  0
LINE
  5
1477
330
18
100
AcDbEntity
  8
1
100
AcDbLine
 10
1.301979600759977
 20
-0.1915010146356621
 30
0.0
 11
1.327397502679956
 21
-0.179830447425644
 31
0.0
  0
LINE
  5
1478
330
18
100
AcDbEntity
  8
1
100
AcDbLine
 10
1.327397502679956
 20
-0.179830447425644
 30
0.0
 11
1.347245691329987
 21
-0.1603407226256479
 31
0.0
  0
LINE
  5
1479
330
18
100
AcDbEntity
  8
1
100
AcDbLine
 10
1.347245691329987
 20
-0.1603407226256479
 30
0.0
 11
1.359130234489952
 21
-0.1353821504956443
 31
0.0
  0
LINE
  5
147A
330
18
100
AcDbEntity
  8
1
100
AcDbLine
 10
1.359130234489952
 20
-0.1353821504956443
 30
0.0
 11
1.361617867309973
 21
-0.1079655124156602
 31
0.0
  0
LINE
  5
147B
330
18
100
AcDbEntity
  8
1
100
AcDbLine
 10
1.164138774079958
 20
-0.2043846502856468
 30
0.0
 11
1.035330409649986
 21
-0.1935232546856582
 31
0.0
  0
LINE
  5
147C
330
18
100
AcDbEntity
  8
1
100
AcDbLine
 10
1.01808540476986
 20
-0.1750439609356533
 30
0.0
 11
1.008336723479942
 21
-0.1639160304356437
 31
0.0
  0
LINE
  5
147D
330
18
100
AcDbEntity
  8
1
100
AcDbLine
 10
1.008336723479942
 20
-0.1639160304356437
 30
0.0
 11
1.018479026029978
 21
-0.1567434463556481
 31
0.0
  0
LINE
  5
147E
330
18
100
AcDbEntity
  8
1
100
AcDbLine
 10
1.034545923029952
 20
-0.1903909381156552
 30
0.0
 11
1.027637511649968
 21
-0.1815031606156481
 31
0.0
  0
LINE
  5
147F
330
18
100
AcDbEntity
  8
1
100
AcDbLine
 10
1.027637511649968
 20
-0.1815031606156481
 30
0.0
 11
1.018501939369969
 21
-0.1749480949856661
 31
0.0
  0
LINE
  5
1480
330
18
100
AcDbEntity
  8
1
100
AcDbLine
 10
1.018479026029978
 20
-0.1567434463556481
 30
0.0
 11
1.018479026029978
 21
-0.1048398493756508
 31
0.0
  0
LINE
  5
1481
330
18
100
AcDbEntity
  8
1
100
AcDbLine
 10
1.018479026029978
 20
-0.0716005457756523
 30
0.0
 11
1.032195455289979
 21
-0.0852914632756665
 31
0.0
  0
LINE
  5
1482
330
18
100
AcDbEntity
  8
1
100
AcDbLine
 10
1.032195455289979
 20
-0.0852914632756665
 30
0.0
 11
1.036795131129963
 21
-0.0955062459956366
 31
0.0
  0
LINE
  5
1483
330
18
100
AcDbEntity
  8
1
100
AcDbLine
 10
1.036795131129963
 20
-0.0955062459956366
 30
0.0
 11
1.032195455289979
 21
-0.1020617840656541
 31
0.0
  0
LINE
  5
1484
330
18
100
AcDbEntity
  8
1
100
AcDbLine
 10
1.032195455289979
 20
-0.1020617840656541
 30
0.0
 11
1.018479026029978
 21
-0.1048398493756508
 31
0.0
  0
LINE
  5
1485
330
18
100
AcDbEntity
  8
1
100
AcDbLine
 10
1.018479026029978
 20
-0.0716005457756523
 30
0.0
 11
1.018479026029978
 21
0.1545499861743451
 31
0.0
  0
LINE
  5
1486
330
18
100
AcDbEntity
  8
1
100
AcDbLine
 10
1.275096780509954
 20
0.156556045154332
 30
0.0
 11
1.371620091399958
 21
0.0600324980443361
 31
0.0
  0
LINE
  5
1487
330
18
100
AcDbEntity
  8
1
100
AcDbLine
 10
1.371620091399958
 20
0.0600324980443361
 30
0.0
 11
1.376851340779978
 21
0.0002395861343416
 31
0.0
  0
LINE
  5
1488
330
18
100
AcDbEntity
  8
1
100
AcDbLine
 10
1.018479026029978
 20
0.1550397096043525
 30
0.0
 11
1.275096780509954
 21
0.156556045154332
 31
0.0
  0
LINE
  5
1489
330
18
100
AcDbEntity
  8
1
100
AcDbLine
 10
1.265292193819959
 20
0.0096466145643319
 30
0.0
 11
1.376851340779978
 21
0.0002395861343416
 31
0.0
  0
LINE
  5
148A
330
18
100
AcDbEntity
  8
1
100
AcDbLine
 10
1.263139875289936
 20
0.0342480220543564
 30
0.0
 11
1.265292193819959
 21
0.0096466145643319
 31
0.0
  0
LINE
  5
148B
330
18
100
AcDbEntity
  8
1
100
AcDbLine
 10
1.14578621235995
 20
0.0053861112743334
 30
0.0
 11
1.144882001569952
 21
0.0157210512343511
 31
0.0
  0
LINE
  5
148C
330
18
100
AcDbEntity
  8
1
100
AcDbLine
 10
1.144882001569952
 20
0.0157210512343511
 30
0.0
 11
1.144406569449984
 21
0.0397001765043399
 31
0.0
  0
LINE
  5
148D
330
18
100
AcDbEntity
  8
1
100
AcDbLine
 10
1.144406569449984
 20
0.0397001765043399
 30
0.0
 11
1.153707023289939
 21
0.0619088328743374
 31
0.0
  0
LINE
  5
148E
330
18
100
AcDbEntity
  8
1
100
AcDbLine
 10
1.153707023289939
 20
0.0619088328743374
 30
0.0
 11
1.171241279559922
 21
0.0786639174743584
 31
0.0
  0
LINE
  5
148F
330
18
100
AcDbEntity
  8
1
100
AcDbLine
 10
1.171241279559922
 20
0.0786639174743584
 30
0.0
 11
1.19410209998
 21
0.0871883098743354
 31
0.0
  0
LINE
  5
1490
330
18
100
AcDbEntity
  8
1
100
AcDbLine
 10
1.19410209998
 20
0.0871883098743354
 30
0.0
 11
1.218499295279968
 21
0.0860677215643477
 31
0.0
  0
LINE
  5
1491
330
18
100
AcDbEntity
  8
1
100
AcDbLine
 10
1.218499295279968
 20
0.0860677215643477
 30
0.0
 11
1.240387755439938
 21
0.0754886482343409
 31
0.0
  0
LINE
  5
1492
330
18
100
AcDbEntity
  8
1
100
AcDbLine
 10
1.240387755439938
 20
0.0754886482343409
 30
0.0
 11
1.256138471969959
 21
0.0572048265343597
 31
0.0
  0
LINE
  5
1493
330
18
100
AcDbEntity
  8
1
100
AcDbLine
 10
1.256138471969959
 20
0.0572048265343597
 30
0.0
 11
1.263139875289936
 21
0.0342480220543564
 31
0.0
  0
LINE
  5
1494
330
18
100
AcDbEntity
  8
1
100
AcDbLine
 10
1.018479026029978
 20
-0.1567434463556481
 30
0.0
 11
0.9681592447799971
 21
-0.1567434463556481
 31
0.0
  0
LINE
  5
1495
330
18
100
AcDbEntity
  8
1
100
AcDbLine
 10
0.9041451602099639
 20
-0.0803800557756631
 30
0.0
 11
0.9333594718600012
 21
0.0784893902643376
 31
0.0
  0
LINE
  5
1496
330
18
100
AcDbEntity
  8
1
100
AcDbLine
 10
0.9681506621199671
 20
-0.1567696667756593
 30
0.0
 11
0.9463692489898676
 21
-0.1430658752856573
 31
0.0
  0
LINE
  5
1497
330
18
100
AcDbEntity
  8
1
100
AcDbLine
 10
0.9463692489898676
 20
-0.1430658752856573
 30
0.0
 11
0.9284386549299483
 21
-0.1257657917756489
 31
0.0
  0
LINE
  5
1498
330
18
100
AcDbEntity
  8
1
100
AcDbLine
 10
0.9284386549299483
 20
-0.1257657917756489
 30
0.0
 11
0.9143587618299303
 21
-0.1048698886856414
 31
0.0
  0
LINE
  5
1499
330
18
100
AcDbEntity
  8
1
100
AcDbLine
 10
0.9143587618299303
 20
-0.1048698886856414
 30
0.0
 11
0.9041297665399383
 21
-0.0803771817656411
 31
0.0
  0
LINE
  5
149A
330
18
100
AcDbEntity
  8
1
100
AcDbLine
 10
0.9333554167499755
 20
0.0784950989143454
 30
0.0
 11
0.9658003124899892
 21
0.1161832912543446
 31
0.0
  0
LINE
  5
149B
330
18
100
AcDbEntity
  8
1
100
AcDbLine
 10
0.9658003124899892
 20
0.1161832912543446
 30
0.0
 11
1.005411335629958
 21
0.1449708321043488
 31
0.0
  0
LINE
  5
149C
330
18
100
AcDbEntity
  8
1
100
AcDbLine
 10
1.018479026029978
 20
-0.0716005457756523
 30
0.0
 11
1.011569433549937
 21
-0.0523377890256711
 31
0.0
  0
LINE
  5
149D
330
18
100
AcDbEntity
  8
1
100
AcDbLine
 10
1.011569433549937
 20
-0.0523377890256711
 30
0.0
 11
1.000254849879979
 21
-0.0358649873256525
 31
0.0
  0
LINE
  5
149E
330
18
100
AcDbEntity
  8
1
100
AcDbLine
 10
1.000254849879979
 20
-0.0358649873256525
 30
0.0
 11
0.9856786585599479
 21
-0.0238472948256572
 31
0.0
  0
LINE
  5
149F
330
18
100
AcDbEntity
  8
1
100
AcDbLine
 10
0.9856786585599479
 20
-0.0238472948256572
 30
0.0
 11
0.9693138881399363
 21
-0.0174982130356511
 31
0.0
  0
LINE
  5
14A0
330
18
100
AcDbEntity
  8
1
100
AcDbLine
 10
0.9693138881399363
 20
-0.0174982130356511
 30
0.0
 11
0.9528143935799562
 21
-0.0174600635056663
 31
0.0
  0
LINE
  5
14A1
330
18
100
AcDbEntity
  8
1
100
AcDbLine
 10
0.9528143935799562
 20
-0.0174600635056663
 30
0.0
 11
0.9378475731199955
 21
-0.0237371375656608
 31
0.0
  0
LINE
  5
14A2
330
18
100
AcDbEntity
  8
1
100
AcDbLine
 10
0.9378475731199955
 20
-0.0237371375656608
 30
0.0
 11
0.9259259827899768
 21
-0.0356942790056678
 31
0.0
  0
LINE
  5
14A3
330
18
100
AcDbEntity
  8
1
100
AcDbLine
 10
0.9259259827899768
 20
-0.0356942790056678
 30
0.0
 11
0.9182543839599476
 21
-0.0521232225256654
 31
0.0
  0
LINE
  5
14A4
330
18
100
AcDbEntity
  8
1
100
AcDbLine
 10
0.9182543839599476
 20
-0.0521232225256654
 30
0.0
 11
0.9156079325599646
 21
-0.0713640108156426
 31
0.0
  0
LINE
  5
14A5
330
18
100
AcDbEntity
  8
1
100
AcDbLine
 10
0.9156079325599646
 20
-0.0713640108156426
 30
0.0
 11
0.9182543839599476
 21
-0.0914721989456666
 31
0.0
  0
LINE
  5
14A6
330
18
100
AcDbEntity
  8
1
100
AcDbLine
 10
0.9182543839599476
 20
-0.0914721989456666
 30
0.0
 11
0.9259259827899768
 21
-0.1104154681456464
 31
0.0
  0
LINE
  5
14A7
330
18
100
AcDbEntity
  8
1
100
AcDbLine
 10
0.9259259827899768
 20
-0.1104154681456464
 30
0.0
 11
0.9378475731199955
 21
-0.1262793340556527
 31
0.0
  0
LINE
  5
14A8
330
18
100
AcDbEntity
  8
1
100
AcDbLine
 10
0.9378475731199955
 20
-0.1262793340556527
 30
0.0
 11
0.9528143935799562
 21
-0.1374611620856569
 31
0.0
  0
LINE
  5
14A9
330
18
100
AcDbEntity
  8
1
100
AcDbLine
 10
0.9528143935799562
 20
-0.1374611620856569
 30
0.0
 11
0.9693138881399363
 21
-0.1428298521356339
 31
0.0
  0
LINE
  5
14AA
330
18
100
AcDbEntity
  8
1
100
AcDbLine
 10
0.9693138881399363
 20
-0.1428298521356339
 30
0.0
 11
0.9856786585599479
 21
-0.141844224185661
 31
0.0
  0
LINE
  5
14AB
330
18
100
AcDbEntity
  8
1
100
AcDbLine
 10
0.9856786585599479
 20
-0.141844224185661
 30
0.0
 11
1.000254849879979
 21
-0.1346029788256544
 31
0.0
  0
LINE
  5
14AC
330
18
100
AcDbEntity
  8
1
100
AcDbLine
 10
1.000254849879979
 20
-0.1346029788256544
 30
0.0
 11
1.011569433549937
 21
-0.1218380830956676
 31
0.0
  0
LINE
  5
14AD
330
18
100
AcDbEntity
  8
1
100
AcDbLine
 10
1.011569433549937
 20
-0.1218380830956676
 30
0.0
 11
1.018479026029978
 21
-0.1048398493756508
 31
0.0
  0
LINE
  5
14AE
330
18
100
AcDbEntity
  8
1
100
AcDbLine
 10
1.005411335629958
 20
0.1449708321043488
 30
0.0
 11
1.018478553589942
 21
0.154059790304359
 31
0.0
  0
LINE
  5
14AF
330
18
100
AcDbEntity
  8
SK1
100
AcDbLine
 10
-4.581572057480056
 20
0.0055687093343408
 30
0.0
 11
-4.581572057480056
 21
-0.0055687487056275
 31
0.0
  0
LINE
  5
14B0
330
18
100
AcDbEntity
  8
SK1
100
AcDbLine
 10
-4.581572057480056
 20
0.0055687093343408
 30
0.0
 11
-4.581572057480056
 21
0.0452491417843533
 31
0.0
  0
LINE
  5
14B1
330
18
100
AcDbEntity
  8
SK1
100
AcDbLine
 10
-4.581572057480056
 20
0.0452491417843533
 30
0.0
 11
-4.581572057480056
 21
0.0819826903643559
 31
0.0
  0
LINE
  5
14B2
330
18
100
AcDbEntity
  8
SK1
100
AcDbLine
 10
-4.581572057480056
 20
0.0819826903643559
 30
0.0
 11
-4.581572057480056
 21
0.1133766039543502
 31
0.0
  0
LINE
  5
14B3
330
18
100
AcDbEntity
  8
SK1
100
AcDbLine
 10
-4.581572057480056
 20
0.1133766039543502
 30
0.0
 11
-4.581572057480056
 21
0.1373858079043373
 31
0.0
  0
LINE
  5
14B4
330
18
100
AcDbEntity
  8
SK1
100
AcDbLine
 10
-4.581572057480056
 20
0.1373858079043373
 30
0.0
 11
-4.581572057480056
 21
0.1524466832943574
 31
0.0
  0
LINE
  5
14B5
330
18
100
AcDbEntity
  8
SK1
100
AcDbLine
 10
-4.581572057480056
 20
0.1524466832943574
 30
0.0
 11
-4.581572057480056
 21
0.1575783659443459
 31
0.0
  0
LINE
  5
14B6
330
18
100
AcDbEntity
  8
SK1
100
AcDbLine
 10
-4.581572057480056
 20
-0.157578405315661
 30
0.0
 11
-4.581572057480056
 21
-0.1524466832956648
 31
0.0
  0
LINE
  5
14B7
330
18
100
AcDbEntity
  8
SK1
100
AcDbLine
 10
-4.581572057480056
 20
-0.1524466832956648
 30
0.0
 11
-4.581572057480056
 21
-0.1373858079056447
 31
0.0
  0
LINE
  5
14B8
330
18
100
AcDbEntity
  8
SK1
100
AcDbLine
 10
-4.581572057480056
 20
-0.1373858079056447
 30
0.0
 11
-4.581572057480056
 21
-0.1133766433256653
 31
0.0
  0
LINE
  5
14B9
330
18
100
AcDbEntity
  8
SK1
100
AcDbLine
 10
-4.581572057480056
 20
-0.1133766433256653
 30
0.0
 11
-4.581572057480056
 21
-0.0819826903656349
 31
0.0
  0
LINE
  5
14BA
330
18
100
AcDbEntity
  8
SK1
100
AcDbLine
 10
-4.581572057480056
 20
-0.0819826903656349
 30
0.0
 11
-4.581572057480056
 21
-0.0452491417856607
 31
0.0
  0
LINE
  5
14BB
330
18
100
AcDbEntity
  8
SK1
100
AcDbLine
 10
-4.581572057480056
 20
-0.0452491417856607
 30
0.0
 11
-4.581572057480056
 21
-0.0055687487056275
 31
0.0
  0
LINE
  5
14BC
330
18
100
AcDbEntity
  8
1
100
AcDbLine
 10
1.383975657239942
 20
0.0001184840143367
 30
0.0
 11
1.378454959619944
 21
0.063219657024348
 31
0.0
  0
LINE
  5
14BD
330
18
100
AcDbEntity
  8
1
100
AcDbLine
 10
1.378454959619944
 20
0.063219657024348
 30
0.0
 11
1.378337164579988
 21
0.0645667015743357
 31
0.0
  0
LINE
  5
14BE
330
18
100
AcDbEntity
  8
1
100
AcDbLine
 10
1.031395929329959
 20
-0.1994670223256492
 30
0.0
 11
1.165669558419949
 21
-0.2107890075556611
 31
0.0
  0
LINE
  5
14BF
330
18
100
AcDbEntity
  8
1
100
AcDbLine
 10
1.000317645029952
 20
0.1771649015743435
 30
0.0
 11
1.000537250889975
 21
0.1771610826843641
 31
0.0
  0
LINE
  5
14C0
330
18
100
AcDbEntity
  8
1
100
AcDbLine
 10
1.000537250889975
 20
0.1771610826843641
 30
0.0
 11
1.005771964829931
 21
0.1746715207343357
 31
0.0
  0
LINE
  5
14C1
330
18
100
AcDbEntity
  8
1
100
AcDbLine
 10
1.005771964829931
 20
0.1746715207343357
 30
0.0
 11
1.010957190679959
 21
0.1674264958543574
 31
0.0
  0
LINE
  5
14C2
330
18
100
AcDbEntity
  8
1
100
AcDbLine
 10
1.010957190679959
 20
0.1674264958543574
 30
0.0
 11
1.013045139259929
 21
0.1630028826543537
 31
0.0
  0
LINE
  5
14C3
330
18
100
AcDbEntity
  8
1
100
AcDbLine
 10
1.000317645029952
 20
0.1771649015743435
 30
0.0
 11
1.000317645029952
 21
0.1707686151543442
 31
0.0
  0
LINE
  5
14C4
330
18
100
AcDbEntity
  8
1
100
AcDbLine
 10
1.000317645029952
 20
0.1707686151543442
 30
0.0
 11
1.000317645029952
 21
0.1520423140243565
 31
0.0
  0
LINE
  5
14C5
330
18
100
AcDbEntity
  8
1
100
AcDbLine
 10
1.013030218029939
 20
0.163038158174345
 30
0.0
 11
1.000317645029952
 21
0.1519865267343334
 31
0.0
  0
LINE
  5
14C6
330
18
100
AcDbEntity
  8
1
100
AcDbLine
 10
1.027594007799961
 20
-0.192912901575653
 30
0.0
 11
1.027594007799961
 21
-0.1928923898056496
 31
0.0
  0
LINE
  5
14C7
330
18
100
AcDbEntity
  8
1
100
AcDbLine
 10
1.027594007799961
 20
-0.1928923898056496
 30
0.0
 11
1.027594007799961
 21
-0.1928308938656471
 31
0.0
  0
LINE
  5
14C8
330
18
100
AcDbEntity
  8
1
100
AcDbLine
 10
1.027594007799961
 20
-0.1928304214256684
 30
0.0
 11
1.031486283479978
 21
-0.1996095810956433
 31
0.0
  0
LINE
  5
14C9
330
18
100
AcDbEntity
  8
1
100
AcDbLine
 10
0.9275871605699419
 20
0.0811634794043528
 30
0.0
 11
0.3936999999999671
 21
0.0811634794043528
 31
0.0
  0
LINE
  5
14CA
330
18
100
AcDbEntity
  8
1
100
AcDbLine
 10
1.000317645029952
 20
0.1519865267343334
 30
0.0
 11
0.9775678086399466
 21
0.1364254554943329
 31
0.0
  0
LINE
  5
14CB
330
18
100
AcDbEntity
  8
1
100
AcDbLine
 10
0.9775678086399466
 20
0.1364254554943329
 30
0.0
 11
0.9578043835999775
 21
0.1188883645843362
 31
0.0
  0
LINE
  5
14CC
330
18
100
AcDbEntity
  8
1
100
AcDbLine
 10
0.9578043835999775
 20
0.1188883645843362
 30
0.0
 11
0.94102748801987
 21
0.1002240318343581
 31
0.0
  0
LINE
  5
14CD
330
18
100
AcDbEntity
  8
1
100
AcDbLine
 10
0.94102748801987
 20
0.1002240318343581
 30
0.0
 11
0.9272371612699428
 21
0.0811648967243457
 31
0.0
  0
LINE
  5
14CE
330
18
100
AcDbEntity
  8
1
100
AcDbLine
 10
0.9605624095799496
 20
-0.1609248159456342
 30
0.0
 11
0.9616722105099595
 21
-0.1628931978356434
 31
0.0
  0
LINE
  5
14CF
330
18
100
AcDbEntity
  8
1
100
AcDbLine
 10
0.9616722105099595
 20
-0.1628931978356434
 30
0.0
 11
0.3936999999999671
 21
-0.1628931978356434
 31
0.0
  0
LINE
  5
14D0
330
18
100
AcDbEntity
  8
1
100
AcDbLine
 10
0.8985686752999413
 20
-0.0811668258556608
 30
0.0
 11
0.9076791295199766
 21
-0.1046057159856559
 31
0.0
  0
LINE
  5
14D1
330
18
100
AcDbEntity
  8
1
100
AcDbLine
 10
0.9076791295199766
 20
-0.1046057159856559
 30
0.0
 11
0.9210396933499396
 21
-0.1263575622456585
 31
0.0
  0
LINE
  5
14D2
330
18
100
AcDbEntity
  8
1
100
AcDbLine
 10
0.9210396933499396
 20
-0.1263575622456585
 30
0.0
 11
0.9386503274199641
 21
-0.145469138195665
 31
0.0
  0
LINE
  5
14D3
330
18
100
AcDbEntity
  8
1
100
AcDbLine
 10
0.9386503274199641
 20
-0.145469138195665
 30
0.0
 11
0.9605110317299931
 21
-0.1609291072756491
 31
0.0
  0
LINE
  5
14D4
330
18
100
AcDbEntity
  8
1
100
AcDbLine
 10
0.3936999999999671
 20
-0.0811634794056602
 30
0.0
 11
0.8985845414099458
 21
-0.0811634794056602
 31
0.0
  0
LINE
  5
14D5
330
18
100
AcDbEntity
  8
1
100
AcDbLine
 10
0.9616722105099595
 20
-0.1628931978356434
 30
0.0
 11
1.002753939369994
 21
-0.1628931978356434
 31
0.0
  0
LINE
  5
14D6
330
18
100
AcDbEntity
  8
1
100
AcDbLine
 10
0.3936999999999671
 20
-0.1628931978356434
 30
0.0
 11
-0.0000000000000568
 21
-0.1628931978356434
 31
0.0
  0
LINE
  5
14D7
102
{ACAD_REACTORS
330
151F
102
}
330
18
100
AcDbEntity
  8
SK1
100
AcDbLine
 10
-0.0000000000000568
 20
-0.1628931978356434
 30
0.0
 11
-4.551650581890013
 21
-0.1628931978356434
 31
0.0
  0
LINE
  5
14D8
330
18
100
AcDbEntity
  8
SK1
100
AcDbLine
 10
-4.551650581890013
 20
-0.1628931978356434
 30
0.0
 11
-4.565285239660025
 21
-0.1628931978356434
 31
0.0
  0
LINE
  5
14D9
330
18
100
AcDbEntity
  8
SK1
100
AcDbLine
 10
-4.565285239660025
 20
-0.1628931978356434
 30
0.0
 11
-4.576071281080058
 21
-0.1628931978356434
 31
0.0
  0
LINE
  5
14DA
330
18
100
AcDbEntity
  8
1
100
AcDbLine
 10
0.9285853869199629
 20
0.0811634794043528
 30
0.0
 11
0.8987353285099286
 21
-0.0811634794056602
 31
0.0
  0
LINE
  5
14DB
330
18
100
AcDbEntity
  8
1
100
AcDbLine
 10
0.3936999999999671
 20
-0.1017652098556425
 30
0.0
 11
0.3936999999999671
 21
-0.0811634794056602
 31
0.0
  0
LINE
  5
14DC
330
18
100
AcDbEntity
  8
SK1
100
AcDbLine
 10
-4.551650581890013
 20
-0.1017652098556425
 30
0.0
 11
-0.0000000000000568
 21
-0.1017652098556425
 31
0.0
  0
LINE
  5
14DD
330
18
100
AcDbEntity
  8
1
100
AcDbLine
 10
-0.0000000000000568
 20
-0.1017652098556425
 30
0.0
 11
0.3936999999999671
 21
-0.1017652098556425
 31
0.0
  0
LINE
  5
14DE
330
18
100
AcDbEntity
  8
SK1
100
AcDbLine
 10
-4.581572057480056
 20
-0.0055687487056275
 30
0.0
 11
-4.581552963030045
 21
-0.0060765823356519
 31
0.0
  0
LINE
  5
14DF
330
18
100
AcDbEntity
  8
SK1
100
AcDbLine
 10
-4.581552963030045
 20
-0.0060765823356519
 30
0.0
 11
-4.57805013539004
 21
-0.0339605029456607
 31
0.0
  0
LINE
  5
14E0
330
18
100
AcDbEntity
  8
SK1
100
AcDbLine
 10
-4.57805013539004
 20
-0.0339605029456607
 30
0.0
 11
-4.570025466400037
 21
-0.0616699357156563
 31
0.0
  0
LINE
  5
14E1
330
18
100
AcDbEntity
  8
SK1
100
AcDbLine
 10
-4.570025466400037
 20
-0.0616699357156563
 30
0.0
 11
-4.551650581890013
 21
-0.1017652098556425
 31
0.0
  0
LINE
  5
14E2
330
18
100
AcDbEntity
  8
1
100
AcDbLine
 10
0.3936999999999671
 20
0.1017651704843558
 30
0.0
 11
0.0000000000000853
 21
0.1017651704843558
 31
0.0
  0
LINE
  5
14E3
330
18
100
AcDbEntity
  8
SK1
100
AcDbLine
 10
0.0000000000000853
 20
0.1017651704843558
 30
0.0
 11
-4.551650581890013
 21
0.1017651704843558
 31
0.0
  0
LINE
  5
14E4
330
18
100
AcDbEntity
  8
1
100
AcDbLine
 10
0.3936999999999671
 20
0.0811634794043528
 30
0.0
 11
0.3936999999999671
 21
0.1017651704843558
 31
0.0
  0
LINE
  5
14E5
330
18
100
AcDbEntity
  8
SK1
100
AcDbLine
 10
-4.551650581890013
 20
0.1017651704843558
 30
0.0
 11
-4.573888765760043
 21
0.0501133446543634
 31
0.0
  0
LINE
  5
14E6
330
18
100
AcDbEntity
  8
SK1
100
AcDbLine
 10
-4.573888765760043
 20
0.0501133446543634
 30
0.0
 11
-4.581572057480056
 21
0.0055687093343408
 31
0.0
  0
LINE
  5
14E7
330
18
100
AcDbEntity
  8
1
100
AcDbLine
 10
0.3936999999999671
 20
-0.1628931978356434
 30
0.0
 11
0.3936999999999671
 21
-0.1362175818956643
 31
0.0
  0
LINE
  5
14E8
330
18
100
AcDbEntity
  8
1
100
AcDbLine
 10
0.3936999999999671
 20
-0.1362175818956643
 30
0.0
 11
0.3936999999999671
 21
-0.1017652098556425
 31
0.0
  0
LINE
  5
14E9
330
18
100
AcDbEntity
  8
1
100
AcDbLine
 10
0.3936999999999671
 20
0.1017651704843558
 30
0.0
 11
0.3936999999999671
 21
0.137470217184358
 31
0.0
  0
LINE
  5
14EA
330
18
100
AcDbEntity
  8
1
100
AcDbLine
 10
0.3936999999999671
 20
0.137470217184358
 30
0.0
 11
0.3936999999999671
 21
0.1646770525343584
 31
0.0
  0
LINE
  5
14EB
330
18
100
AcDbEntity
  8
1
100
AcDbLine
 10
0.3936999999999671
 20
0.1646770525343584
 30
0.0
 11
0.3936999999999671
 21
0.1817043806843514
 31
0.0
  0
LINE
  5
14EC
330
18
100
AcDbEntity
  8
1
100
AcDbLine
 10
0.3936999999999671
 20
0.1817043806843514
 30
0.0
 11
0.3936999999999671
 21
0.187499369094354
 31
0.0
  0
LINE
  5
14ED
330
18
100
AcDbEntity
  8
SK1
100
AcDbLine
 10
-4.551650581890013
 20
0.1017651704843558
 30
0.0
 11
-4.551650581890013
 21
0.137470217184358
 31
0.0
  0
LINE
  5
14EE
330
18
100
AcDbEntity
  8
SK1
100
AcDbLine
 10
-4.551650581890013
 20
0.137470217184358
 30
0.0
 11
-4.551650581890013
 21
0.1646770525343584
 31
0.0
  0
LINE
  5
14EF
330
18
100
AcDbEntity
  8
SK1
100
AcDbLine
 10
-4.551650581890013
 20
0.1646770525343584
 30
0.0
 11
-4.551650581890013
 21
0.1817043806843514
 31
0.0
  0
LINE
  5
14F0
330
18
100
AcDbEntity
  8
SK1
100
AcDbLine
 10
-4.551650581890013
 20
0.1817043806843514
 30
0.0
 11
-4.551650581890013
 21
0.187499369094354
 31
0.0
  0
LINE
  5
14F1
330
18
100
AcDbEntity
  8
SK1
100
AcDbLine
 10
-4.551650581890013
 20
-0.1628931978356434
 30
0.0
 11
-4.551650581890013
 21
-0.1362175818956643
 31
0.0
  0
LINE
  5
14F2
330
18
100
AcDbEntity
  8
SK1
100
AcDbLine
 10
-4.551650581890013
 20
-0.1362175818956643
 30
0.0
 11
-4.551650581890013
 21
-0.1017652098556425
 31
0.0
  0
LINE
  5
14F3
330
18
100
AcDbEntity
  8
1
100
AcDbLine
 10
1.018501939369969
 20
-0.1827491423756555
 30
0.0
 11
1.018501939369969
 21
-0.1828960318456723
 31
0.0
  0
LINE
  5
14F4
330
18
100
AcDbEntity
  8
1
100
AcDbLine
 10
1.018501939369969
 20
-0.1828960318456723
 30
0.0
 11
1.018501939369969
 21
-0.1829446537956585
 31
0.0
  0
LINE
  5
14F5
330
18
100
AcDbEntity
  8
1
100
AcDbLine
 10
1.018501939369969
 20
-0.1827491423756555
 30
0.0
 11
1.023587992189959
 21
-0.1873029521656519
 31
0.0
  0
LINE
  5
14F6
330
18
100
AcDbEntity
  8
1
100
AcDbLine
 10
1.023587992189959
 20
-0.1873029521656519
 30
0.0
 11
1.027594007799961
 21
-0.1928304214256684
 31
0.0
  0
LINE
  5
14F7
330
18
100
AcDbEntity
  8
1
100
AcDbLine
 10
1.378337164579988
 20
0.0645667015743357
 30
0.0
 11
1.277652877759974
 21
0.1652511458743504
 31
0.0
  0
LINE
  5
14F8
330
18
100
AcDbEntity
  8
1
100
AcDbLine
 10
1.265738885839934
 20
0.1771649015743435
 30
0.0
 11
1.268738407399951
 21
0.1741656162343474
 31
0.0
  0
LINE
  5
14F9
330
18
100
AcDbEntity
  8
1
100
AcDbLine
 10
1.268738407399951
 20
0.1741656162343474
 30
0.0
 11
1.277652877759974
 21
0.1652511458743504
 31
0.0
  0
LINE
  5
14FA
330
18
100
AcDbEntity
  8
1
100
AcDbLine
 10
1.018501939369969
 20
-0.1786407253956668
 30
0.0
 11
1.018501939369969
 21
-0.1827496148156626
 31
0.0
  0
LINE
  5
14FB
330
18
100
AcDbEntity
  8
1
100
AcDbLine
 10
1.277652877759974
 20
0.1652511458743504
 30
0.0
 11
1.275548236299981
 21
0.1645697692843555
 31
0.0
  0
LINE
  5
14FC
330
18
100
AcDbEntity
  8
1
100
AcDbLine
 10
1.275548236299981
 20
0.1645697692843555
 30
0.0
 11
1.013061714029959
 21
0.1629642606843333
 31
0.0
  0
LINE
  5
14FD
330
18
100
AcDbEntity
  8
1
100
AcDbLine
 10
1.151279469089955
 20
0.0156266419743361
 30
0.0
 11
1.146677509789979
 21
0.0240861919843383
 31
0.0
  0
LINE
  5
14FE
330
18
100
AcDbEntity
  8
1
100
AcDbLine
 10
1.146677509789979
 20
0.0240861919843383
 30
0.0
 11
1.143539090869919
 21
0.0331723155443342
 31
0.0
  0
LINE
  5
14FF
330
18
100
AcDbEntity
  8
1
100
AcDbLine
 10
1.261567161899959
 20
0.0434967437143428
 30
0.0
 11
1.258783978489929
 21
0.0295941337243448
 31
0.0
  0
LINE
  5
1500
330
18
100
AcDbEntity
  8
1
100
AcDbLine
 10
1.258783978489929
 20
0.0295941337243448
 30
0.0
 11
1.252704305609995
 21
0.0167343169243566
 31
0.0
  0
LINE
  5
1501
330
18
100
AcDbEntity
  8
1
100
AcDbLine
 10
1.143314406279954
 20
0.0330201898643452
 30
0.0
 11
1.146280187749937
 21
0.0236570196143475
 31
0.0
  0
LINE
  5
1502
330
18
100
AcDbEntity
  8
1
100
AcDbLine
 10
1.146280187749937
 20
0.0236570196143475
 30
0.0
 11
1.150789745659948
 21
0.0149118402543422
 31
0.0
  0
LINE
  5
1503
330
18
100
AcDbEntity
  8
1
100
AcDbLine
 10
1.253834067129957
 20
0.0166332147643402
 30
0.0
 11
1.259349843499932
 21
0.029191654214344
 31
0.0
  0
LINE
  5
1504
330
18
100
AcDbEntity
  8
1
100
AcDbLine
 10
1.259349843499932
 20
0.029191654214344
 30
0.0
 11
1.261775389829949
 21
0.0426508398943497
 31
0.0
  0
LINE
  5
1505
330
18
100
AcDbEntity
  8
1
100
AcDbLine
 10
1.143563775859945
 20
0.0301691719443511
 30
0.0
 11
1.149972818159938
 21
0.0124757033943581
 31
0.0
  0
LINE
  5
1506
330
18
100
AcDbEntity
  8
1
100
AcDbLine
 10
1.376851340779978
 20
0.0002395861343416
 30
0.0
 11
1.383975657239942
 21
0.0001184840143367
 31
0.0
  0
LINE
  5
1507
330
18
100
AcDbEntity
  8
1
100
AcDbLine
 10
1.147463807429971
 20
0.0099856690043509
 30
0.0
 11
1.144882001569952
 21
0.0157210512343511
 31
0.0
  0
LINE
  5
1508
330
18
100
AcDbEntity
  8
1
100
AcDbLine
 10
1.143564130189985
 20
0.0301663373043368
 30
0.0
 11
1.143441728859954
 21
0.0315648778143327
 31
0.0
  0
LINE
  5
1509
330
18
100
AcDbEntity
  8
1
100
AcDbLine
 10
1.378454959619944
 20
0.063219657024348
 30
0.0
 11
1.371620091399958
 21
0.0600324980443361
 31
0.0
  0
LINE
  5
150A
330
18
100
AcDbEntity
  8
1
100
AcDbLine
 10
1.275548236299981
 20
0.1645697692843555
 30
0.0
 11
1.275096780509954
 21
0.156556045154332
 31
0.0
  0
LINE
  5
150B
330
18
100
AcDbEntity
  8
1
100
AcDbLine
 10
1.012711242289979
 20
0.1628955994043508
 30
0.0
 11
1.018385797869939
 21
0.1543740416443313
 31
0.0
  0
LINE
  5
150C
330
18
100
AcDbEntity
  8
1
100
AcDbLine
 10
1.000317645029952
 20
0.1519865267343334
 30
0.0
 11
1.005411335629958
 21
0.1449708321043488
 31
0.0
  0
LINE
  5
150D
330
18
100
AcDbEntity
  8
1
100
AcDbLine
 10
0.9280138919999671
 20
0.0811467865243572
 30
0.0
 11
0.9333594718600012
 21
0.0784893902643376
 31
0.0
  0
LINE
  5
150E
330
18
100
AcDbEntity
  8
1
100
AcDbLine
 10
0.9605630001299799
 20
-0.1609272175156491
 30
0.0
 11
0.9681499140899632
 21
-0.1567148637356581
 31
0.0
  0
LINE
  5
150F
330
18
100
AcDbEntity
  8
1
100
AcDbLine
 10
0.8986502105699399
 20
-0.0809832435456599
 30
0.0
 11
0.9041282311099507
 21
-0.0804105675256608
 31
0.0
  0
LINE
  5
1510
330
18
100
AcDbEntity
  8
1
100
AcDbLine
 10
1.008336723479942
 20
-0.1639160304356437
 30
0.0
 11
1.002753939369994
 21
-0.1628931978356434
 31
0.0
  0
LINE
  5
1511
330
18
100
AcDbEntity
  8
1
100
AcDbLine
 10
1.036392690989939
 20
-0.1936129001756512
 30
0.0
 11
1.030814316319947
 21
-0.1991055663556551
 31
0.0
  0
LINE
  5
1512
330
18
100
AcDbEntity
  8
1
100
AcDbLine
 10
1.034545923029952
 20
-0.1903909381156552
 30
0.0
 11
1.027595543229949
 21
-0.1928294765456542
 31
0.0
  0
LINE
  5
1513
330
18
100
AcDbEntity
  8
1
100
AcDbLine
 10
1.018501939369969
 20
-0.178624977395657
 30
0.0
 11
1.017996822269934
 21
-0.1746849065356457
 31
0.0
  0
ARC
  5
1514
330
18
100
AcDbEntity
  8
1
100
AcDbCircle
 10
1.000317645029952
 20
-0.2086609015756551
 30
0.0
 40
0.0314959994096458
100
AcDbArc
 50
29.99999900000103
 51
54.7356119999911
  0
LINE
  5
1515
330
18
100
AcDbEntity
  8
4
 48
0.04
100
AcDbLine
 10
0.0
 20
0.0
 30
0.0
 11
1.548855268735167
 21
-0.0000000000006537
 31
0.0
  0
LINE
  5
1516
330
18
100
AcDbEntity
  8
SK4
 48
0.04
100
AcDbLine
 10
1.548855268735167
 20
-0.0000000000006537
 30
0.0
 11
-4.75304892295716
 21
-0.0000000000006537
 31
0.0
  0
DIMENSION
  5
1517
330
18
100
AcDbEntity
  8
2
100
AcDbDimension
  2
*D2
 10
1.821451057568365
 20
-0.250003175937294
 30
0.0
 11
1.710762561101437
 21
-0.759441285620175
 31
0.0
 70
    32
 71
     5
 42
0.2500031759366403
  3
AM_DIN
100
AcDbAlignedDimension
 13
1.548855268735167
 23
-0.0000000000006537
 33
0.0
 14
1.41850492545982
 24
-0.250003175937294
 34
0.0
 50
270.0
100
AcDbRotatedDimension
1001
ACAD
1000
DSTYLE
1002
{
1070
   286
1070
     0
1070
   274
1070
     2
1070
   284
1070
     0
1070
   283
1070
     1
1070
   146
1040
1.0
1070
   272
1070
     3
1070
    47
1040
0.0
1070
    48
1040
0.0
1070
    72
1070
     0
1070
    71
1070
     0
1002
}
  0
DIMENSION
  5
1518
330
18
100
AcDbEntity
  8
SK2
100
AcDbDimension
  2
*D3
 10
1.41850492545982
 20
-1.403326011830045
 30
0.0
 11
-1.57173356601012
 21
-1.403326011830045
 31
0.0
 70
   160
 71
     5
 42
6.000076982939877
  3
AM_DIN
100
AcDbAlignedDimension
 13
-4.581572057480056
 23
-0.1874998809056478
 33
0.0
 14
1.41850492545982
 24
-0.250003175937294
 34
0.0
100
AcDbRotatedDimension
1001
ACAD_DSTYLE_DIMINSPECT
1070
   396
1000
100%
1070
   395
1000

1070
   394
1070
    33
1070
   393
1070
     0
1001
ACAD
1000
DSTYLE
1002
{
1070
   286
1070
     0
1070
   274
1070
     2
1070
   284
1070
     0
1070
   283
1070
     1
1070
   146
1040
1.0
1070
   272
1070
     3
1070
    47
1040
0.0
1070
    48
1040
0.0
1070
    72
1070
     0
1070
    71
1070
     0
1002
}
  0
DIMENSION
  5
1519
330
18
100
AcDbEntity
  8
2
100
AcDbDimension
  2
*D4
 10
0.3936999999999671
 20
-0.6159260118300267
 30
0.0
 11
0.9061024627298936
 21
-0.5052375153630973
 31
0.0
 70
    32
  1
<>
 71
     5
 42
1.024804925459853
  3
AM_DIN
100
AcDbAlignedDimension
 13
1.41850492545982
 23
-0.250003175937294
 33
0.0
 14
0.3936999999999671
 24
-0.1628931978356434
 34
0.0
100
AcDbRotatedDimension
1001
ACAD_DSTYLE_DIMINSPECT
1070
   396
1000
100%
1070
   395
1000

1070
   394
1070
    33
1070
   393
1070
     0
1001
ACAD
1000
DSTYLE
1002
{
1070
   286
1070
     0
1070
   274
1070
     2
1070
   284
1070
     0
1070
   283
1070
     1
1070
   146
1040
1.0
1070
   272
1070
     3
1070
    47
1040
0.0
1070
    48
1040
0.0
1070
    72
1070
     0
1070
    71
1070
     0
1002
}
  0
DIMENSION
  5
151A
330
18
100
AcDbEntity
  8
SK2
100
AcDbDimension
  2
*D5
 10
-4.888303766032831
 20
-0.1874998809056478
 30
0.0
 11
-5.00102578378395
 21
-0.7212021080679595
 31
0.0
 70
    32
  1
%%c<>
 71
     5
 42
0.3749992500000019
  3
AM_DIN
100
AcDbAlignedDimension
 13
-4.551650581890013
 23
0.187499369094354
 33
0.0
 14
-4.581572057480056
 24
-0.1874998809056478
 34
0.0
 50
270.0
100
AcDbRotatedDimension
1001
ACAD_DSTYLE_DIMINSPECT
1070
   396
1000
100%
1070
   395
1000

1070
   394
1070
    33
1070
   393
1070
     0
1001
ACAD
1000
DSTYLE
1002
{
1070
   286
1070
     0
1070
   274
1070
     2
1070
   284
1070
     0
1070
   283
1070
     1
1070
   146
1040
1.0
1070
   272
1070
     3
1070
    47
1040
0.0
1070
    48
1040
0.0
1070
    72
1070
     0
1070
    71
1070
     0
1002
}
  0
LINE
  5
151B
330
18
100
AcDbEntity
  8
3
100
AcDbLine
 10
-4.543395999825546
 20
-0.1874998809056478
 30
0.0
 11
-4.581572057480056
 21
-0.1874998809056478
 31
0.0
  0
MTEXT
  5
151C
330
18
100
AcDbEntity
  8
SK6
100
AcDbMText
 10
-4.581572057480056
 20
-1.578524612233763
 30
0.0
 40
0.1377952755905512
 41
3.758448134805185
 71
     1
 72
     5
  1
A06-SCLCL-2\P80100
  7
STANDARD 3.5 mm
 73
     1
 44
1.0
1001
ACAD
1000
ACAD_MTEXT_COLUMN_INFO_BEGIN
1070
    75
1070
     2
1070
    79
1070
     0
1070
    76
1070
     1
1070
    78
1070
     0
1070
    48
1040
3.758448134805185
1070
    49
1040
17.5
1070
    50
1070
     1
1040
0.0
1000
ACAD_MTEXT_COLUMN_INFO_END
1000
MTEXTBEGIN
1070
    73
1070
     1
1070
    44
1040
1.0
1070
    74
1070
     0
1000
MTEXTEND
  0
DIMENSION
  5
151D
102
{ACAD_XDICTIONARY
360
151E
102
}
102
{ACAD_REACTORS
330
151F
102
}
330
18
100
AcDbEntity
  8
2
100
AcDbDimension
  2
*D6
 10
-0.0000000000000569
 20
-1.009626011830021
 30
0.0
 11
0.709252462729893
 21
-1.009626011830021
 31
0.0
 70
   160
 71
     5
 42
1.418504925459876
  3
AM_DIN
100
AcDbAlignedDimension
 13
1.41850492545982
 23
-0.250003175937294
 33
0.0
 14
-0.0000000000000568
 24
-0.1628931978356434
 34
0.0
100
AcDbRotatedDimension
1001
ACAD_DSTYLE_DIMINSPECT
1070
   396
1000
100%
1070
   395
1000

1070
   394
1070
    33
1070
   393
1070
     0
1001
ACAD
1000
DSTYLE
1002
{
1070
   286
1070
     8
1070
   274
1070
     2
1070
   284
1070
     8
1070
   283
1070
     1
1070
   146
1040
0.7071069999999999
1070
   272
1070
     3
1070
    47
1040
0.0
1070
    48
1040
0.000000001
1070
    72
1070
     0
1070
    71
1070
     0
1002
}
  0
DIMENSION
  5
1522
102
{ACAD_XDICTIONARY
360
1523
102
}
102
{ACAD_REACTORS
330
1524
102
}
330
18
100
AcDbEntity
  8
2
100
AcDbDimension
  2
*D7
 10
1.416899292179948
 20
-0.2316506193756424
 30
0.0
 11
2.102877130157227
 21
0.4968577303246711
 31
0.0
 70
    34
 71
     5
 42
1.658062391082899
  3
AM_DIN
100
AcDb2LineAngularDimension
 13
1.410873806752988
 23
-0.250003175937294
 33
0.0
 14
1.41850492545982
 24
-0.2500031759372939
 34
0.0
 15
1.397917046679935
 25
-0.0146815651256418
 35
0.0
 16
2.186476314203455
 26
0.2236884890406474
 36
0.0
1001
ACAD_DSTYLE_DIMINSPECT
1070
   396
1000
100%
1070
   395
1000

1070
   394
1070
    33
1070
   393
1070
     0
  0
LINE
  5
15DF
330
18
100
AcDbEntity
  8
1
100
AcDbLine
 10
1.399813893279939
 20
-0.248427121255645
 30
0.0
 11
1.178845595059954
 21
-0.2297947569456369
 31
0.0
  0
LINE
  5
15E2
330
18
100
AcDbEntity
  8
3
100
AcDbLine
 10
1.418120969489366
 20
-0.2456145189797695
 30
0.0
 11
1.41850492545982
 21
-0.2500031759372939
 31
0.0
  0
VIEWPORT
  5
B7D
102
{ACAD_XDICTIONARY
360
B7E
102
}
330
B76
100
AcDbEntity
 67
     1
  8
0
100
AcDbViewport
 10
148.5107508928981
 20
104.9919851296364
 30
0.0
 40
478.4423408046921
 41
231.5368674036399
 68
     1
 69
     1
 12
148.5107508928981
 22
104.9919851296364
 13
0.0
 23
0.0
 14
10.0
 24
10.0
 15
10.0
 25
10.0
 16
0.0
 26
0.0
 36
1.0
 17
0.0
 27
0.0
 37
0.0
 42
50.0
 43
0.0
 44
0.0
 45
231.5368674036399
 50
0.0
 51
0.0
 72
  2000
 90
   819232
  1

281
     0
 71
     1
 74
     0
110
0.0
120
0.0
130
0.0
111
1.0
121
0.0
131
0.0
112
0.0
122
1.0
132
0.0
 79
     0
146
0.0
1001
GENIUS_GENODEF_13
1002
{
1000
HIER
1070
     0
1002
}
1002
{
1000
MANEDIT
1070
     0
1002
}
1002
{
1000
NOSEL
1070
     0
1002
}
1002
{
1000
BEHIND
1070
     0
1002
}
1002
{
1000
OTHER
1070
     0
1002
}
1002
{
1000
REACTOR
1002
}
1001
GENIUS_GENOBJ-N-SDF_13
1002
{
1000
OWNER
1000
GEN
1002
}
1001
GENIUS_GENSCREG_15
1000
PF
1040
1.0
1000
DF
1040
1.0
1000
MIN
1011
-90.71041950944794
1021
-10.77644857218354
1031
0.0
1000
MAX
1011
387.7319212952442
1021
220.7604188314564
1031
0.0
1000
FLAGS
1070
     4
  0
VIEWPORT
  5
B81
102
{ACAD_XDICTIONARY
360
B82
102
}
330
B76
100
AcDbEntity
 67
     1
  8
1
100
AcDbViewport
 10
148.5
 20
105.0
 30
0.0
 40
297.0
 41
210.0
 68
     2
 69
     2
 12
0.0947728278484874
 22
0.1902310545302228
 13
0.0
 23
0.0
 14
5.0
 24
5.0
 15
5.0
 25
5.0
 16
0.0
 26
0.0
 36
1.0
 17
0.0
 27
0.0
 37
0.0
 42
50.0
 43
0.0
 44
0.0
 45
210.0000006422834
 50
0.0
 51
0.0
 72
  2000
 90
   819232
  1

281
     0
 71
     1
 74
     0
110
0.0
120
0.0
130
0.0
111
1.0
121
0.0
131
0.0
112
0.0
122
1.0
132
0.0
 79
     0
146
0.0
1001
GENIUS_GENODEF_13
1002
{
1000
HIER
1070
     0
1002
}
1002
{
1000
MANEDIT
1070
     0
1002
}
1002
{
1000
NOSEL
1070
     0
1002
}
1002
{
1000
BEHIND
1070
     0
1002
}
1002
{
1000
OTHER
1070
     0
1002
}
1002
{
1000
REACTOR
1002
}
1001
GENIUS_GENOBJ-N-SDF_13
1002
{
1000
OWNER
1000
GEN
1002
}
1001
GENIUS_GENSCREG_15
1000
PF
1040
0.0
1000
DF
1040
0.0
1000
MIN
1011
0.0
1021
0.0
1031
0.0
1000
MAX
1011
297.0
1021
210.0
1031
0.0
1000
FLAGS
1070
     4
  0
ENDSEC
  0
SECTION
  2
OBJECTS
  0
DICTIONARY
  5
C
330
0
100
AcDbDictionary
281
     1
  3
ACAD_2007HEADERVARS_RT
350
1C57
  3
ACAD_CIP_PREVIOUS_PRODUCT_INFO
350
EB2
  3
ACAD_COLOR
350
387
  3
ACAD_DETAILVIEWSTYLE
350
EAA
  3
ACAD_FIELDLIST
350
ECE
  3
ACAD_GROUP
350
D
  3
ACAD_LAYOUT
350
301
  3
ACAD_MATERIAL
350
386
  3
ACAD_MLEADERSTYLE
350
46F
  3
ACAD_MLINESTYLE
350
E
  3
ACAD_PLOTSETTINGS
350
302
  3
ACAD_PLOTSTYLENAME
350
2FF
  3
ACAD_SCALELIST
350
44D
  3
ACAD_SECTIONVIEWSTYLE
350
EA8
  3
ACAD_TABLESTYLE
350
388
  3
ACAD_VISUALSTYLE
350
3F2
  3
ACDB_RECOMPOSE_DATA
350
1C55
  3
AcDbVariableDictionary
350
357
  3
AcmDictionary
350
4D1
  3
AMG
350
478
  3
AMGSNAPSETTINGS
350
51E
  3
DWGPROPS
350
1C56
  0
DICTIONARY
  5
ACA
330
8
100
AcDbDictionary
280
     1
281
     1
  0
DICTIONARY
  5
43C
330
2
100
AcDbDictionary
280
     1
281
     1
  3
ACAD_LAYERFILTERS
360
B75
  3
ACAD_LAYERSTATES
360
567
  3
ACLYDICTIONARY
360
B74
  3
AMLAYER_GROUPCOLORS
360
1102
  0
DICTIONARY
  5
52D
330
F
100
AcDbDictionary
280
     1
281
     1
  3
ADSK_XREC_LAYER_RECONCILED
360
164E
  0
DICTIONARY
  5
52F
330
23
100
AcDbDictionary
280
     1
281
     1
  3
ADSK_XREC_LAYER_RECONCILED
360
164F
  0
DICTIONARY
  5
531
330
24
100
AcDbDictionary
280
     1
281
     1
  3
ADSK_XREC_LAYER_RECONCILED
360
1650
  0
DICTIONARY
  5
533
330
25
100
AcDbDictionary
280
     1
281
     1
  3
ADSK_XREC_LAYER_RECONCILED
360
1651
  0
DICTIONARY
  5
537
330
27
100
AcDbDictionary
280
     1
281
     1
  3
ADSK_XREC_LAYER_RECONCILED
360
1652
  0
DICTIONARY
  5
539
330
28
100
AcDbDictionary
280
     1
281
     1
  3
ADSK_XREC_LAYER_RECONCILED
360
1653
  0
DICTIONARY
  5
53D
330
2A
100
AcDbDictionary
280
     1
281
     1
  3
ADSK_XREC_LAYER_RECONCILED
360
1655
  0
DICTIONARY
  5
53F
330
2B
100
AcDbDictionary
280
     1
281
     1
  3
ADSK_XREC_LAYER_RECONCILED
360
1656
  0
DICTIONARY
  5
545
330
2E
100
AcDbDictionary
280
     1
281
     1
  3
ADSK_XREC_LAYER_RECONCILED
360
1658
  0
DICTIONARY
  5
15E0
330
18
100
AcDbDictionary
280
     1
281
     1
  3
ACAD_SORTENTS
360
15E1
  0
DICTIONARY
  5
151E
330
151D
100
AcDbDictionary
280
     1
281
     1
  3
ACAD_DIMASSOC
360
151F
  0
DICTIONARY
  5
1523
330
1522
100
AcDbDictionary
280
     1
281
     1
  3
ACAD_DIMASSOC
360
1524
  0
DICTIONARY
  5
B7E
330
B7D
100
AcDbDictionary
280
     1
281
     1
  3
ACAD_XREC_ROUNDTRIP
360
1C88
  3
ASDK_XREC_ANNOTATION_SCALE_INFO
360
B7F
  0
DICTIONARY
  5
B82
330
B81
100
AcDbDictionary
280
     1
281
     1
  3
ACAD_XREC_ROUNDTRIP
360
1C89
  3
ASDK_XREC_ANNOTATION_SCALE_INFO
360
B83
  0
DICTIONARY
  5
1C57
102
{ACAD_REACTORS
330
C
102
}
330
C
100
AcDbDictionary
281
     1
  3
DIMARCSYM
350
1C58
  3
DIMJOGANG
350
1C59
  3
DIMLTEX1
350
1C5B
  3
DIMLTEX2
350
1C5C
  3
DIMLTYPE
350
1C5A
  0
XRECORD
  5
EB2
102
{ACAD_REACTORS
330
C
102
}
330
C
100
AcDbXrecord
280
     1
300
AMECH_PP
300
2014
300
86138AMECH_PP_2014_0F
  0
DICTIONARY
  5
387
102
{ACAD_REACTORS
330
C
102
}
330
C
100
AcDbDictionary
281
     1
  0
DICTIONARY
  5
EAA
102
{ACAD_REACTORS
330
C
102
}
330
C
100
AcDbDictionary
281
     1
  3
Imperial24
350
EAB
  0
FIELDLIST
  5
ECE
102
{ACAD_REACTORS
330
C
102
}
330
C
100
AcDbIdSet
 90
        4
330
1BF8
330
1BF9
330
1BFA
330
1BFB
100
AcDbFieldList
  0
DICTIONARY
  5
D
102
{ACAD_REACTORS
330
C
102
}
330
C
100
AcDbDictionary
281
     1
  0
DICTIONARY
  5
301
102
{ACAD_REACTORS
330
C
102
}
330
C
100
AcDbDictionary
281
     1
  3
Layout1
350
B77
  3
Model
350
303
  0
DICTIONARY
  5
386
102
{ACAD_REACTORS
330
C
102
}
330
C
100
AcDbDictionary
281
     1
  3
ByBlock
350
3F0
  3
ByLayer
350
3EF
  3
Global
350
3F1
  0
DICTIONARY
  5
46F
102
{ACAD_REACTORS
330
C
102
}
330
C
100
AcDbDictionary
281
     1
  3
Standard
350
470
  0
DICTIONARY
  5
E
102
{ACAD_REACTORS
330
C
102
}
330
C
100
AcDbDictionary
281
     1
  3
STANDARD
350
1B
  0
DICTIONARY
  5
302
102
{ACAD_REACTORS
330
C
102
}
330
C
100
AcDbDictionary
281
     1
  3
DWG To PDF ANSI A - landscape
350
7EF
  3
DWG To PDF ANSI A - portrait
350
7F8
  0
ACDBDICTIONARYWDFLT
  5
2FF
102
{ACAD_REACTORS
330
C
102
}
330
C
100
AcDbDictionary
281
     1
  3
Normal
350
300
100
AcDbDictionaryWithDefault
340
300
  0
DICTIONARY
  5
44D
102
{ACAD_REACTORS
330
C
102
}
330
C
100
AcDbDictionary
281
     1
  3
A0
350
CF4
  3
A1
350
CF5
  3
A2
350
CF6
  3
A3
350
CF7
  3
A4
350
CF8
  3
A5
350
CF9
  3
A6
350
44E
  3
A7
350
CFA
  3
A8
350
CFB
  3
A9
350
CFC
  3
B0
350
CFD
  3
B1
350
CFE
  3
B2
350
CFF
  3
B3
350
D00
  3
B4
350
D01
  3
B5
350
D02
  3
B6
350
D03
  3
B7
350
D04
  3
B8
350
D05
  3
B9
350
D06
  3
C0
350
D07
  3
C1
350
D08
  3
C2
350
D09
  3
C3
350
D0A
  3
C4
350
D0B
  3
C5
350
D0C
  3
C6
350
D0D
  3
C7
350
D0E
  3
C8
350
D0F
  0
DICTIONARY
  5
EA8
102
{ACAD_REACTORS
330
C
102
}
330
C
100
AcDbDictionary
281
     1
  3
Imperial24
350
EA9
  0
DICTIONARY
  5
388
102
{ACAD_REACTORS
330
C
102
}
330
C
100
AcDbDictionary
281
     1
  3
Standard
350
389
  0
DICTIONARY
  5
3F2
102
{ACAD_REACTORS
330
C
102
}
330
C
100
AcDbDictionary
281
     1
  3
2dWireframe
350
3F8
  3
3D Hidden
350
3FA
  3
3dWireframe
350
3F9
  3
Basic
350
3F7
  3
Brighten
350
3FE
  3
ColorChange
350
402
  3
Conceptual
350
3FB
  3
Dim
350
3FD
  3
EdgeColorOff
350
C40
  3
Facepattern
350
401
  3
Flat
350
3F3
  3
FlatWithEdges
350
3F4
  3
Gouraud
350
3F5
  3
GouraudWithEdges
350
3F6
  3
Hidden
350
EA2
  3
JitterOff
350
C3E
  3
Linepattern
350
400
  3
OverhangOff
350
C3F
  3
Realistic
350
3FC
  3
Shaded
350
EA7
  3
Shaded with edges
350
EA6
  3
Shades of Gray
350
EA3
  3
Sketchy
350
EA4
  3
Thicken
350
3FF
  3
Wireframe
350
EA1
  3
X-Ray
350
EA5
  0
XRECORD
  5
1C55
102
{ACAD_REACTORS
330
C
102
}
330
C
100
AcDbXrecord
280
     1
 90
        1
330
389
330
151C
  0
DICTIONARY
  5
357
102
{ACAD_REACTORS
330
C
102
}
330
C
100
AcDbDictionary
281
     1
  3
CANNOSCALE
350
57C
  3
CMLEADERSTYLE
350
57A
  3
CTABLESTYLE
350
38E
  3
CVIEWDETAILSTYLE
350
110C
  3
CVIEWSECTIONSTYLE
350
110D
  3
DIMASSOC
350
359
  3
HIDETEXT
350
358
  3
INDEXCTL
350
B51
  3
LAYEREVAL
350
C52
  3
LAYERNOTIFY
350
C53
  3
LIGHTINGUNITS
350
57D
  3
MSLTSCALE
350
57B
  3
SOLIDHIST
350
1664
  3
SORTENTS
350
B50
  3
XCLIPFRAME
350
1C53
  0
DICTIONARY
  5
4D1
102
{ACAD_REACTORS
330
C
102
}
330
C
100
AcDbDictionary
281
     1
  3
AcmStdDictionary
350
4DC
  3
AMDTSECTSYM_ARROWCOLOR
350
4F3
  0
DICTIONARY
  5
478
102
{ACAD_REACTORS
330
C
102
}
330
C
100
AcDbDictionary
281
     1
  0
DICTIONARY
  5
51E
102
{ACAD_REACTORS
330
C
102
}
330
C
100
AcDbDictionary
281
     1
  0
XRECORD
  5
1C56
102
{ACAD_REACTORS
330
C
102
}
330
C
100
AcDbXrecord
280
     1
  1
DWGPROPS COOKIE
  2

  3

  4
Philippe Vogel
  6
Secotools DIN Template inch
  7

  8
inpunmayp
  9

300
=
301
=
302
=
303
=
304
=
305
=
306
=
307
=
308
=
309
=
 40
0.0053855671296296
 41
2458179.497189294
 42
2458183.392129861
  1
HTTP://WWW.SECOTOOLS.COM/
 90
        0
  0
DICTIONARY
  5
B75
102
{ACAD_REACTORS
330
43C
102
}
330
43C
100
AcDbDictionary
281
     1
  0
DICTIONARY
  5
567
102
{ACAD_REACTORS
330
43C
102
}
330
43C
100
AcDbDictionary
281
     1
  3
BMG3.0
350
9A5
  0
DICTIONARY
  5
B74
102
{ACAD_REACTORS
330
43C
102
}
330
43C
100
AcDbDictionary
281
     1
1001
ACAD
1000
<All
  0
DICTIONARY
  5
1102
102
{ACAD_REACTORS
330
43C
102
}
330
43C
100
AcDbDictionary
280
     1
281
     1
  0
XRECORD
  5
164E
102
{ACAD_REACTORS
330
52D
102
}
330
52D
100
AcDbXrecord
280
     1
290
     1
  0
XRECORD
  5
164F
102
{ACAD_REACTORS
330
52F
102
}
330
52F
100
AcDbXrecord
280
     1
290
     1
  0
XRECORD
  5
1650
102
{ACAD_REACTORS
330
531
102
}
330
531
100
AcDbXrecord
280
     1
290
     1
  0
XRECORD
  5
1651
102
{ACAD_REACTORS
330
533
102
}
330
533
100
AcDbXrecord
280
     1
290
     1
  0
XRECORD
  5
1652
102
{ACAD_REACTORS
330
537
102
}
330
537
100
AcDbXrecord
280
     1
290
     1
  0
XRECORD
  5
1653
102
{ACAD_REACTORS
330
539
102
}
330
539
100
AcDbXrecord
280
     1
290
     1
  0
XRECORD
  5
1655
102
{ACAD_REACTORS
330
53D
102
}
330
53D
100
AcDbXrecord
280
     1
290
     1
  0
XRECORD
  5
1656
102
{ACAD_REACTORS
330
53F
102
}
330
53F
100
AcDbXrecord
280
     1
290
     1
  0
XRECORD
  5
1658
102
{ACAD_REACTORS
330
545
102
}
330
545
100
AcDbXrecord
280
     1
290
     1
  0
SORTENTSTABLE
  5
15E1
102
{ACAD_REACTORS
330
15E0
102
}
330
15E0
100
AcDbSortentsTable
330
18
331
13A5
  5
13A5
331
13A1
  5
13A1
331
13DC
  5
13DC
331
139D
  5
139D
331
1399
  5
1399
331
13D8
  5
13D8
331
1385
  5
1385
331
1381
  5
1381
331
150C
  5
150F
331
1508
  5
150B
331
1504
  5
1507
331
1500
  5
1503
331
1522
  5
164D
331
151A
  5
151D
331
1496
  5
1498
331
141C
  5
141C
331
1418
  5
1418
331
1457
  5
1459
331
1492
  5
1494
331
14CD
  5
14CF
331
1414
  5
1414
331
1453
  5
1455
331
148E
  5
1490
331
14C9
  5
14CB
331
1410
  5
1410
331
148A
  5
148C
331
1395
  5
1395
331
13D4
  5
13D4
331
1391
  5
1391
331
13D0
  5
13D0
331
137D
  5
137D
331
13CC
  5
13CC
331
1379
  5
1379
331
138D
  5
138D
331
1389
  5
1389
331
13C8
  5
13C8
331
1375
  5
1375
331
1371
  5
1371
331
14FC
  5
14FF
331
14F8
  5
14FB
331
14F4
  5
14F7
331
14F0
  5
14F3
331
1516
  5
1519
331
1512
  5
1515
331
144F
  5
1451
331
144B
  5
144D
331
1486
  5
1488
331
14C5
  5
14C7
331
140C
  5
140C
331
1408
  5
1408
331
1447
  5
1449
331
1482
  5
1484
331
14C1
  5
14C3
331
1404
  5
1404
331
1443
  5
1445
331
147E
  5
1480
331
14BD
  5
14BF
331
14B9
  5
14BB
331
1400
  5
1400
331
147A
  5
147C
331
13C4
  5
13C4
331
13C0
  5
13C0
331
136D
  5
136D
331
13BC
  5
13BC
331
1369
  5
1369
331
13B8
  5
13B8
331
1365
  5
1365
331
1361
  5
1361
331
14EC
  5
14EF
331
14E8
  5
14EA
331
14E4
  5
14E6
331
14E0
  5
14E2
331
143F
  5
1441
331
143B
  5
143D
331
1476
  5
1478
331
14B5
  5
14B7
331
13FC
  5
13FC
331
1437
  5
1439
331
1472
  5
1474
331
14B1
  5
14B3
331
13F8
  5
13F8
331
13F4
  5
13F4
331
1433
  5
1435
331
146E
  5
1470
331
14AD
  5
14AF
331
14A9
  5
14AB
331
13F0
  5
13F0
331
146A
  5
146C
331
13B4
  5
13B4
331
13B0
  5
13B0
331
135D
  5
135D
331
13AC
  5
13AC
331
1359
  5
1359
331
13A8
  5
13A8
331
1355
  5
1355
331
1351
  5
1351
331
14DC
  5
14DE
331
14D8
  5
14DA
331
15DF
  5
1425
331
14D4
  5
14D6
331
14D0
  5
14D2
331
142F
  5
1431
331
1466
  5
1468
331
14A5
  5
14A7
331
13EC
  5
13EC
331
142B
  5
142D
331
1427
  5
1429
331
1462
  5
1464
331
14A1
  5
14A3
331
13E8
  5
13E8
331
13E4
  5
13E4
331
1423
  5
1424
331
145E
  5
1460
331
149D
  5
149F
331
1499
  5
149B
331
13E0
  5
13E0
331
145A
  5
145C
331
13A4
  5
13A4
331
13DF
  5
13DF
331
13A0
  5
13A0
331
13DB
  5
13DB
331
139C
  5
139C
331
1398
  5
1398
331
1384
  5
1384
331
1380
  5
1380
331
150F
  5
1512
331
150B
  5
150E
331
1507
  5
150A
331
1503
  5
1506
331
151D
  5
15E2
331
1519
  5
151C
331
141F
  5
141F
331
1495
  5
1497
331
141B
  5
141B
331
1417
  5
1417
331
1456
  5
1458
331
1491
  5
1493
331
14CC
  5
14CE
331
1413
  5
1413
331
1452
  5
1454
331
148D
  5
148F
331
1489
  5
148B
331
14C8
  5
14CA
331
13D7
  5
13D7
331
1394
  5
1394
331
13D3
  5
13D3
331
137C
  5
137C
331
1390
  5
1390
331
13CF
  5
13CF
331
13CB
  5
13CB
331
1378
  5
1378
331
138C
  5
138C
331
1388
  5
1388
331
1374
  5
1374
331
1370
  5
1370
331
14FF
  5
1502
331
14FB
  5
14FE
331
14F7
  5
14FA
331
14F3
  5
14F6
331
1515
  5
1518
331
1511
  5
1514
331
140F
  5
140F
331
144E
  5
1450
331
144A
  5
144C
331
1485
  5
1487
331
14C4
  5
14C6
331
140B
  5
140B
331
1407
  5
1407
331
1446
  5
1448
331
1481
  5
1483
331
14C0
  5
14C2
331
14BC
  5
14BE
331
1403
  5
1403
331
1442
  5
1444
331
147D
  5
147F
331
14B8
  5
14BA
331
1479
  5
147B
331
13C7
  5
13C7
331
13C3
  5
13C3
331
13BF
  5
13BF
331
136C
  5
136C
331
13BB
  5
13BB
331
1368
  5
1368
331
1364
  5
1364
331
1360
  5
1360
331
14EF
  5
14F2
331
14EB
  5
14EE
331
14E7
  5
14E9
331
14E3
  5
14E5
331
13FF
  5
13FF
331
143E
  5
1440
331
143A
  5
143C
331
1475
  5
1477
331
14B4
  5
14B6
331
13FB
  5
13FB
331
13F7
  5
13F7
331
1436
  5
1438
331
1471
  5
1473
331
14B0
  5
14B2
331
13F3
  5
13F3
331
1432
  5
1434
331
146D
  5
146F
331
14AC
  5
14AE
331
14A8
  5
14AA
331
1469
  5
146B
331
13B7
  5
13B7
331
13B3
  5
13B3
331
13AF
  5
13AF
331
135C
  5
135C
331
13AB
  5
13AB
331
1358
  5
1358
331
1354
  5
1354
331
1350
  5
1350
331
14DF
  5
14E1
331
14DB
  5
14DD
331
14D7
  5
14D9
331
14D3
  5
14D5
331
13EF
  5
13EF
331
142E
  5
1430
331
142A
  5
142C
331
1465
  5
1467
331
14A4
  5
14A6
331
13EB
  5
13EB
331
1426
  5
1428
331
1461
  5
1463
331
14A0
  5
14A2
331
13E7
  5
13E7
331
13E3
  5
13E3
331
1422
  5
1423
331
145D
  5
145F
331
149C
  5
149E
331
1498
  5
149A
331
1459
  5
145B
331
13A7
  5
13A7
331
13A3
  5
13A3
331
13DE
  5
13DE
331
139F
  5
139F
331
139B
  5
139B
331
13DA
  5
13DA
331
1387
  5
1387
331
1383
  5
1383
331
150E
  5
1511
331
150A
  5
150D
331
1506
  5
1509
331
1502
  5
1505
331
151C
  5
15DF
331
1518
  5
151B
331
141E
  5
141E
331
1494
  5
1496
331
141A
  5
141A
331
1416
  5
1416
331
1455
  5
1457
331
1490
  5
1492
331
14CF
  5
14D1
331
14CB
  5
14CD
331
1412
  5
1412
331
1451
  5
1453
331
148C
  5
148E
331
1488
  5
148A
331
1397
  5
1397
331
13D6
  5
13D6
331
1393
  5
1393
331
13D2
  5
13D2
331
137F
  5
137F
331
13CE
  5
13CE
331
137B
  5
137B
331
138F
  5
138F
331
13CA
  5
13CA
331
1377
  5
1377
331
138B
  5
138B
331
1373
  5
1373
331
14FE
  5
1501
331
14FA
  5
14FD
331
14F6
  5
14F9
331
14F2
  5
14F5
331
1514
  5
1517
331
1510
  5
1513
331
14C7
  5
14C9
331
140E
  5
140E
331
144D
  5
144F
331
1449
  5
144B
331
1484
  5
1486
331
14C3
  5
14C5
331
140A
  5
140A
331
1406
  5
1406
331
1445
  5
1447
331
1480
  5
1482
331
14BF
  5
14C1
331
14BB
  5
14BD
331
1402
  5
1402
331
1441
  5
1443
331
147C
  5
147E
331
1478
  5
147A
331
13C6
  5
13C6
331
13C2
  5
13C2
331
136F
  5
136F
331
136B
  5
136B
331
13BE
  5
13BE
331
13BA
  5
13BA
331
1367
  5
1367
331
1363
  5
1363
331
14EE
  5
14F1
331
14EA
  5
14EC
331
14E6
  5
14E8
331
14E2
  5
14E4
331
14B7
  5
14B9
331
13FE
  5
13FE
331
143D
  5
143F
331
1439
  5
143B
331
1474
  5
1476
331
14B3
  5
14B5
331
13FA
  5
13FA
331
13F6
  5
13F6
331
1435
  5
1437
331
1470
  5
1472
331
14AF
  5
14B1
331
14AB
  5
14AD
331
13F2
  5
13F2
331
1431
  5
1433
331
146C
  5
146E
331
1468
  5
146A
331
13B6
  5
13B6
331
13B2
  5
13B2
331
135F
  5
135F
331
13AE
  5
13AE
331
135B
  5
135B
331
13AA
  5
13AA
331
1357
  5
1357
331
1353
  5
1353
331
14DE
  5
14E0
331
14DA
  5
14DC
331
14D6
  5
14D8
331
14D2
  5
14D4
331
14A7
  5
14A9
331
13EE
  5
13EE
331
142D
  5
142F
331
1429
  5
142B
331
1464
  5
1466
331
14A3
  5
14A5
331
13EA
  5
13EA
331
13E6
  5
13E6
331
1425
  5
1427
331
1460
  5
1462
331
149F
  5
14A1
331
13E2
  5
13E2
331
1421
  5
1422
331
145C
  5
145E
331
149B
  5
149D
331
1458
  5
145A
331
13A6
  5
13A6
331
13A2
  5
13A2
331
134F
  5
134F
331
13DD
  5
13DD
331
139E
  5
139E
331
139A
  5
139A
331
13D9
  5
13D9
331
1386
  5
1386
331
1382
  5
1382
331
150D
  5
1510
331
1509
  5
150C
331
1505
  5
1508
331
1501
  5
1504
331
151B
  5
1522
331
1497
  5
1499
331
141D
  5
141D
331
1419
  5
1419
331
1493
  5
1495
331
1415
  5
1415
331
1454
  5
1456
331
148F
  5
1491
331
14CE
  5
14D0
331
14CA
  5
14CC
331
1411
  5
1411
331
1450
  5
1452
331
148B
  5
148D
331
1396
  5
1396
331
13D5
  5
13D5
331
1392
  5
1392
331
13D1
  5
13D1
331
137E
  5
137E
331
13CD
  5
13CD
331
137A
  5
137A
331
138E
  5
138E
331
138A
  5
138A
331
13C9
  5
13C9
331
1376
  5
1376
331
1372
  5
1372
331
14FD
  5
1500
331
14F9
  5
14FC
331
14F5
  5
14F8
331
14F1
  5
14F4
331
1517
  5
151A
331
1513
  5
1516
331
144C
  5
144E
331
1487
  5
1489
331
14C6
  5
14C8
331
140D
  5
140D
331
1448
  5
144A
331
1483
  5
1485
331
14C2
  5
14C4
331
1409
  5
1409
331
1405
  5
1405
331
1444
  5
1446
331
147F
  5
1481
331
14BE
  5
14C0
331
14BA
  5
14BC
331
1401
  5
1401
331
1440
  5
1442
331
147B
  5
147D
331
13C5
  5
13C5
331
13C1
  5
13C1
331
136E
  5
136E
331
13BD
  5
13BD
331
136A
  5
136A
331
13B9
  5
13B9
331
1366
  5
1366
331
1362
  5
1362
331
14ED
  5
14F0
331
14E9
  5
14EB
331
14E5
  5
14E7
331
14E1
  5
14E3
331
15E2
  5
1421
331
1477
  5
1479
331
14B6
  5
14B8
331
13FD
  5
13FD
331
143C
  5
143E
331
1438
  5
143A
331
1473
  5
1475
331
14B2
  5
14B4
331
13F9
  5
13F9
331
13F5
  5
13F5
331
1434
  5
1436
331
146F
  5
1471
331
14AE
  5
14B0
331
14AA
  5
14AC
331
13F1
  5
13F1
331
1430
  5
1432
331
146B
  5
146D
331
13B5
  5
13B5
331
13B1
  5
13B1
331
135E
  5
135E
331
135A
  5
135A
331
13AD
  5
13AD
331
13A9
  5
13A9
331
1356
  5
1356
331
1352
  5
1352
331
14DD
  5
14DF
331
14D9
  5
14DB
331
14D5
  5
14D7
331
14D1
  5
14D3
331
1467
  5
1469
331
14A6
  5
14A8
331
13ED
  5
13ED
331
142C
  5
142E
331
1428
  5
142A
331
1463
  5
1465
331
14A2
  5
14A4
331
13E9
  5
13E9
331
13E5
  5
13E5
331
1424
  5
1426
331
145F
  5
1461
331
149E
  5
14A0
331
149A
  5
149C
331
13E1
  5
13E1
331
1420
  5
1420
331
145B
  5
145D
  0
DIMASSOC
  5
151F
102
{ACAD_REACTORS
330
151E
102
}
330
151E
100
AcDbDimAssoc
330
151D
 90
        2
 70
     0
 71
     0
  1
AcDbOsnapPointRef
 72
    13
331
14D7
 73
     0
 91
        0
 40
0.0
 10
0.0
 20
0.0
 30
2.000000000000000E+50
 75
     0
  0
DIMASSOC
  5
1524
102
{ACAD_REACTORS
330
1523
102
}
330
1523
100
AcDbDimAssoc
330
1522
 90
       12
 70
     0
 71
     0
  1
AcDbOsnapPointRef
 72
    13
331
1420
 73
     2
 91
        0
 40
0.0
 10
0.0
 20
0.0
 30
2.000000000000000E+50
 75
     0
  1
AcDbOsnapPointRef
 72
     1
331
1420
 73
     2
 91
        0
 40
0.0
 10
0.0
 20
0.0
 30
2.000000000000000E+50
 75
     0
  0
XRECORD
  5
1C88
102
{ACAD_REACTORS
330
B7E
102
}
330
B7E
100
AcDbXrecord
280
     1
102
SHADEPLOT
 70
     0
  0
XRECORD
  5
B7F
102
{ACAD_REACTORS
330
B7E
102
}
330
B7E
100
AcDbXrecord
280
     1
 90
        1
340
44E
  0
XRECORD
  5
1C89
102
{ACAD_REACTORS
330
B82
102
}
330
B82
100
AcDbXrecord
280
     1
102
SHADEPLOT
 70
     0
  0
XRECORD
  5
B83
102
{ACAD_REACTORS
330
B82
102
}
330
B82
100
AcDbXrecord
280
     1
 90
        1
340
44E
  0
XRECORD
  5
1C58
102
{ACAD_REACTORS
330
1C57
102
}
330
1C57
100
AcDbXrecord
280
     1
 70
     1
  0
XRECORD
  5
1C59
102
{ACAD_REACTORS
330
1C57
102
}
330
1C57
100
AcDbXrecord
280
     1
 40
1.570796326794896
  0
XRECORD
  5
1C5B
102
{ACAD_REACTORS
330
1C57
102
}
330
1C57
100
AcDbXrecord
280
     1
340
12
  0
XRECORD
  5
1C5C
102
{ACAD_REACTORS
330
1C57
102
}
330
1C57
100
AcDbXrecord
280
     1
340
12
  0
XRECORD
  5
1C5A
102
{ACAD_REACTORS
330
1C57
102
}
330
1C57
100
AcDbXrecord
280
     1
340
12
  0
ACDBDETAILVIEWSTYLE
  5
EAB
102
{ACAD_XDICTIONARY
360
1CA0
102
}
102
{ACAD_REACTORS
330
EAA
330
1BF2
102
}
330
EAA
100
AcDbModelDocViewStyle
 70
     0
  3
Imperial24
290
     0
100
AcDbDetailViewStyle
 70
     0
 71
     0
 90
        3
 71
     1
340
10
 40
0.24
340
0
 40
0.24
300

 40
0.36
280
     3
 71
     2
340
14
 90
       25
 71
     3
340
10
 40
0.24
 90
        1
 40
0.75
 90
        1
300
%<\AcVar ViewType \f "%tc1">% %<\AcVar ViewDetailId>%\PSCALE %<\AcVar ViewScale \f "%sn">%
 71
     4
340
14
 90
       25
340
14
 90
       25
280
     0
  0
LAYOUT
  5
B77
102
{ACAD_XDICTIONARY
360
1C86
102
}
102
{ACAD_REACTORS
330
301
102
}
330
301
100
AcDbPlotSettings
  1

  2
Default Windows System Printer.pc3
  4
A4
  6
AM_VIEW1
 40
4.233333110809326
 41
4.614340305328369
 42
4.233322143554686
 43
4.571990966796875
 44
209.8886566162109
 45
297.0530090332031
 46
0.0
 47
1.499209346090081
 48
0.0
 49
0.0
140
0.0
141
0.0
142
1.0
143
26.4837350367717
 70
   692
 72
     0
 73
     1
 74
     1
  7
monochrome.ctb
 75
     0
147
0.0377590244960364
148
0.5754584342744921
149
0.4068898020113921
100
AcDbLayout
  1
Layout1
 70
     1
 71
     1
 10
-6.352894443934567
 20
-4.429974890987324
 11
303.3743962297308
 21
214.4139451502602
 12
0.0
 22
0.0
 32
0.0
 14
0.0
 24
0.0
 34
0.0
 15
297.0
 25
210.0
 35
0.0
146
0.0
 13
0.0
 23
0.0
 33
0.0
 16
1.0
 26
0.0
 36
0.0
 17
0.0
 27
1.0
 37
0.0
 76
     0
330
B76
331
B7D
1001
ACAD_PSEXT
1000
Default Windows System Printer.pc3
1000
HP Universal Printing PS
1000
Freiheitstraße, Ex Steinhof, Höfermann
1000
HP 5100 Universal PS
1070
     0
  0
LAYOUT
  5
303
102
{ACAD_XDICTIONARY
360
1C5D
102
}
102
{ACAD_REACTORS
330
301
102
}
330
301
100
AcDbPlotSettings
  1

  2
Default Windows System Printer.pc3
  4
A4
  6

 40
4.233333110809326
 41
4.614340305328369
 42
4.233322143554686
 43
4.571990966796875
 44
209.8886566162109
 45
297.0530090332031
 46
10.88322750438971
 47
-0.0000000000000226
 48
0.0
 49
0.0
140
0.0
141
0.0
142
1.0
143
60.7941153040473
 70
  3764
 72
     0
 73
     1
 74
     2
  7
monochrome.ctb
 75
     0
147
0.0164489604791309
148
4318.0
149
4318.0
100
AcDbLayout
  1
Model
 70
     1
 71
     0
 10
0.0
 20
0.0
 11
12.0
 21
9.0
 12
0.0
 22
0.0
 32
0.0
 14
0.0
 24
0.0
 34
0.0
 15
0.0
 25
0.0
 35
0.0
146
0.0
 13
0.0
 23
0.0
 33
0.0
 16
1.0
 26
0.0
 36
0.0
 17
0.0
 27
1.0
 37
0.0
 76
     0
330
18
331
B56
1001
ACAD_PSEXT
1000
Default Windows System Printer.pc3
1000
HP Universal Printing PS
1000
Freiheitstraße, Ex Steinhof, Höfermann
1000
HP 5100 Universal PS
1070
     0
  0
MATERIAL
  5
3F0
102
{ACAD_XDICTIONARY
360
1677
102
}
102
{ACAD_REACTORS
330
386
102
}
330
386
100
AcDbMaterial
  1
ByBlock
 73
     1
 78
     1
172
     1
176
     1
270
     1
274
     1
  0
MATERIAL
  5
3EF
102
{ACAD_XDICTIONARY
360
1675
102
}
102
{ACAD_REACTORS
330
386
102
}
330
386
100
AcDbMaterial
  1
ByLayer
 73
     1
 78
     1
172
     1
176
     1
270
     1
274
     1
  0
MATERIAL
  5
3F1
102
{ACAD_XDICTIONARY
360
1679
102
}
102
{ACAD_REACTORS
330
386
102
}
330
386
100
AcDbMaterial
  1
Global
 73
     1
 78
     1
172
     1
176
     1
270
     1
274
     1
  0
MLEADERSTYLE
  5
470
102
{ACAD_XDICTIONARY
360
1C80
102
}
102
{ACAD_REACTORS
330
46F
102
}
330
46F
100
AcDbMLeaderStyle
170
     2
171
     1
172
     0
 90
        2
 40
0.0
 41
0.0
173
     1
 91
-1056964608
340
12
 92
       -2
290
     1
 42
2.0
291
     1
 43
0.36
  3
Standard
 44
5.0
300

342
10
174
     0
178
     6
175
     1
176
     0
 93
-1056964608
 45
0.1378
292
     0
297
     0
 46
4.0
 94
-1056964608
 47
1.0
 49
1.0
140
1.0
293
     1
141
0.0
294
     1
177
     0
142
1.0
295
     0
296
     0
143
0.125
1001
ACAD_MLEADERVER
1070
     2
  0
MLINESTYLE
  5
1B
102
{ACAD_REACTORS
330
E
102
}
330
E
100
AcDbMlineStyle
  2
STANDARD
 70
     0
  3

 62
     0
 51
90.0
 52
90.0
 71
     2
 49
0.5
 62
   256
  6
BYLAYER
 49
-0.5
 62
   256
  6
BYLAYER
  0
PLOTSETTINGS
  5
7EF
102
{ACAD_XDICTIONARY
360
1C82
102
}
102
{ACAD_REACTORS
330
302
102
}
330
302
100
AcDbPlotSettings
  1
DWG To PDF ANSI A - landscape
  2
DWG To PDF.pc3
  4
ANSI_expand_A_(11.00_x_8.50_Inches)
  6

 40
5.793749809265136
 41
10.79374980926513
 42
5.79376220703125
 43
10.79374694824219
 44
279.3999938964844
 45
215.8999938964844
 46
0.0
 47
13.58631590731085
 48
0.0
 49
0.0
140
0.0
141
0.0
142
1.0
143
65.34646883198404
 70
 11956
 72
     0
 73
     0
 74
     2
  7
monochrome.ctb
 75
     0
147
0.0153030457173005
148
4318.0
149
4318.0
1001
ACAD_PSEXT
1000
DWG To PDF.pc3
1000
DWG To PDF
1000
Datei
1000

1070
     0
  0
PLOTSETTINGS
  5
7F8
102
{ACAD_XDICTIONARY
360
1C84
102
}
102
{ACAD_REACTORS
330
302
102
}
330
302
100
AcDbPlotSettings
  1
DWG To PDF ANSI A - portrait
  2
DWG To PDF.pc3
  4
ANSI_A_(8.50_x_11.00_Inches)
  6

 40
5.793749809265136
 41
17.79375076293945
 42
5.793746948242187
 43
17.79376220703125
 44
215.8999938964844
 45
279.3999938964844
 46
0.0
 47
58.15125224136993
 48
0.0
 49
0.0
140
0.0
141
0.0
142
1.0
143
85.65604280239289
 70
 11956
 72
     0
 73
     0
 74
     2
  7
monochrome.ctb
 75
     0
147
0.0116745995645279
148
4318.0
149
4318.0
1001
ACAD_PSEXT
1000
DWG To PDF.pc3
1000
DWG To PDF
1000
Datei
1000

1070
     0
  0
ACDBPLACEHOLDER
  5
300
102
{ACAD_REACTORS
330
2FF
102
}
330
2FF
  0
SCALE
  5
CF4
102
{ACAD_REACTORS
330
44D
102
}
330
44D
100
AcDbScale
 70
     0
300
100:1
140
100.0
141
1.0
290
     0
  0
SCALE
  5
CF5
102
{ACAD_REACTORS
330
44D
102
}
330
44D
100
AcDbScale
 70
     0
300
50:1
140
50.0
141
1.0
290
     0
  0
SCALE
  5
CF6
102
{ACAD_REACTORS
330
44D
102
}
330
44D
100
AcDbScale
 70
     0
300
20:1
140
20.0
141
1.0
290
     0
  0
SCALE
  5
CF7
102
{ACAD_REACTORS
330
44D
102
}
330
44D
100
AcDbScale
 70
     0
300
10:1
140
10.0
141
1.0
290
     0
  0
SCALE
  5
CF8
102
{ACAD_REACTORS
330
44D
102
}
330
44D
100
AcDbScale
 70
     0
300
5:1
140
5.0
141
1.0
290
     0
  0
SCALE
  5
CF9
102
{ACAD_REACTORS
330
44D
102
}
330
44D
100
AcDbScale
 70
     0
300
2:1
140
2.0
141
1.0
290
     0
  0
SCALE
  5
44E
102
{ACAD_REACTORS
330
44D
102
}
330
44D
100
AcDbScale
 70
     0
300
1:1
140
1.0
141
1.0
290
     1
  0
SCALE
  5
CFA
102
{ACAD_REACTORS
330
44D
102
}
330
44D
100
AcDbScale
 70
     0
300
1:2
140
1.0
141
2.0
290
     0
  0
SCALE
  5
CFB
102
{ACAD_REACTORS
330
44D
102
}
330
44D
100
AcDbScale
 70
     0
300
1:5
140
1.0
141
5.0
290
     0
  0
SCALE
  5
CFC
102
{ACAD_REACTORS
330
44D
102
}
330
44D
100
AcDbScale
 70
     0
300
1:10
140
1.0
141
10.0
290
     0
  0
SCALE
  5
CFD
102
{ACAD_REACTORS
330
44D
102
}
330
44D
100
AcDbScale
 70
     0
300
1:20
140
1.0
141
20.0
290
     0
  0
SCALE
  5
CFE
102
{ACAD_REACTORS
330
44D
102
}
330
44D
100
AcDbScale
 70
     0
300
1:50
140
1.0
141
50.0
290
     0
  0
SCALE
  5
CFF
102
{ACAD_REACTORS
330
44D
102
}
330
44D
100
AcDbScale
 70
     0
300
1:100
140
1.0
141
100.0
290
     0
  0
SCALE
  5
D00
102
{ACAD_REACTORS
330
44D
102
}
330
44D
100
AcDbScale
 70
     0
300
1/128" = 1'-0"
140
0.0078125
141
12.0
290
     0
  0
SCALE
  5
D01
102
{ACAD_REACTORS
330
44D
102
}
330
44D
100
AcDbScale
 70
     0
300
1/64" = 1'-0"
140
0.015625
141
12.0
290
     0
  0
SCALE
  5
D02
102
{ACAD_REACTORS
330
44D
102
}
330
44D
100
AcDbScale
 70
     0
300
1/32" = 1'-0"
140
0.03125
141
12.0
290
     0
  0
SCALE
  5
D03
102
{ACAD_REACTORS
330
44D
102
}
330
44D
100
AcDbScale
 70
     0
300
1/16" = 1'-0"
140
0.0625
141
12.0
290
     0
  0
SCALE
  5
D04
102
{ACAD_REACTORS
330
44D
102
}
330
44D
100
AcDbScale
 70
     0
300
3/32" = 1'-0"
140
0.09375
141
12.0
290
     0
  0
SCALE
  5
D05
102
{ACAD_REACTORS
330
44D
102
}
330
44D
100
AcDbScale
 70
     0
300
1/8" = 1'-0"
140
0.125
141
12.0
290
     0
  0
SCALE
  5
D06
102
{ACAD_REACTORS
330
44D
102
}
330
44D
100
AcDbScale
 70
     0
300
3/16" = 1'-0"
140
0.1875
141
12.0
290
     0
  0
SCALE
  5
D07
102
{ACAD_REACTORS
330
44D
102
}
330
44D
100
AcDbScale
 70
     0
300
1/4" = 1'-0"
140
0.25
141
12.0
290
     0
  0
SCALE
  5
D08
102
{ACAD_REACTORS
330
44D
102
}
330
44D
100
AcDbScale
 70
     0
300
3/8" = 1'-0"
140
0.375
141
12.0
290
     0
  0
SCALE
  5
D09
102
{ACAD_REACTORS
330
44D
102
}
330
44D
100
AcDbScale
 70
     0
300
1/2" = 1'-0"
140
0.5
141
12.0
290
     0
  0
SCALE
  5
D0A
102
{ACAD_REACTORS
330
44D
102
}
330
44D
100
AcDbScale
 70
     0
300
3/4" = 1'-0"
140
0.75
141
12.0
290
     0
  0
SCALE
  5
D0B
102
{ACAD_REACTORS
330
44D
102
}
330
44D
100
AcDbScale
 70
     0
300
1" = 1'-0"
140
1.0
141
12.0
290
     0
  0
SCALE
  5
D0C
102
{ACAD_REACTORS
330
44D
102
}
330
44D
100
AcDbScale
 70
     0
300
1-1/2" = 1'-0"
140
1.5
141
12.0
290
     0
  0
SCALE
  5
D0D
102
{ACAD_REACTORS
330
44D
102
}
330
44D
100
AcDbScale
 70
     0
300
3" = 1'-0"
140
3.0
141
12.0
290
     0
  0
SCALE
  5
D0E
102
{ACAD_REACTORS
330
44D
102
}
330
44D
100
AcDbScale
 70
     0
300
6" = 1'-0"
140
6.0
141
12.0
290
     0
  0
SCALE
  5
D0F
102
{ACAD_REACTORS
330
44D
102
}
330
44D
100
AcDbScale
 70
     0
300
1'-0" = 1'-0"
140
12.0
141
12.0
290
     0
  0
ACDBSECTIONVIEWSTYLE
  5
EA9
102
{ACAD_XDICTIONARY
360
1C9E
102
}
102
{ACAD_REACTORS
330
EA8
330
1BF1
102
}
330
EA8
100
AcDbModelDocViewStyle
 70
     0
  3
Imperial24
290
     0
100
AcDbSectionViewStyle
 70
     0
 71
     0
 90
       78
 71
     1
340
10
 40
0.24
340
0
340
0
 40
0.24
300
I, O, Q, S, X, Z
 40
0.48
 90
        3
 40
0.18
 90
        1
 71
     2
340
14
 90
       25
340
14
 90
       50
 40
0.24
 40
0.0
 40
0.24
 71
     3
340
10
 40
0.24
 90
        1
 40
0.75
 90
        1
300
%<\AcVar ViewType \f "%tc1">% %<\AcVar ViewSectionStartId>%-%<\AcVar ViewSectionEndId>%\PSCALE %<\AcVar ViewScale \f "%sn">%
 71
     4
300
ANSI31
 40
1.0
 90
        0
290
     0
290
     0
 90
        6
 40
0.0
 40
1.570796326794896
 40
0.2617993877991494
 40
1.308996938995747
 40
-0.2617993877991494
 40
1.832595714594044
  0
TABLESTYLE
  5
389
102
{ACAD_XDICTIONARY
360
577
102
}
102
{ACAD_REACTORS
330
388
102
}
330
388
100
AcDbTableStyle
  3
Standard
 70
     0
 71
     0
 40
1.5
 41
1.5
280
     0
281
     0
  7
STANDARD
140
4.5
170
     2
 62
     0
 63
     7
283
     0
274
    -2
284
     1
 64
     0
275
    -2
285
     1
 65
     0
276
    -2
286
     1
 66
     0
277
    -2
287
     1
 67
     0
278
    -2
288
     1
 68
     0
279
    -2
289
     1
 69
     0
  7
STANDARD 5 mm
140
6.0
170
     5
 62
     0
 63
     7
283
     0
274
    -2
284
     1
 64
     0
275
    -2
285
     1
 65
     0
276
    -2
286
     1
 66
     0
277
    -2
287
     1
 67
     0
278
    -2
288
     1
 68
     0
279
    -2
289
     1
 69
     0
  7
STANDARD
140
4.5
170
     5
 62
     0
 63
     7
283
     0
274
    -2
284
     1
 64
     0
275
    -2
285
     1
 65
     0
276
    -2
286
     1
 66
     0
277
    -2
287
     1
 67
     0
278
    -2
288
     1
 68
     0
279
    -2
289
     1
 69
     0
  0
VISUALSTYLE
  5
3F8
102
{ACAD_XDICTIONARY
360
1C6A
102
}
102
{ACAD_REACTORS
330
3F2
102
}
330
3F2
100
AcDbVisualStyle
  2

 70
     4
 71
     0
 72
     2
 73
     0
 90
        0
 40
-0.6
 41
-30.0
 62
     5
 63
     7
 74
     1
 91
        4
 64
     7
 65
   257
 75
     1
175
     1
 42
1.0
 92
        0
 66
   257
 43
1.0
 76
     1
 77
     6
 78
     2
 67
     7
 79
     5
170
     0
171
     0
290
     0
174
     0
 93
        1
 44
0.0
173
     0
291
     0
 45
0.0
1001
ACAD
1000
AcDbSavedByObjectVersion
1070
     0
  0
VISUALSTYLE
  5
3FA
102
{ACAD_XDICTIONARY
360
1C6E
102
}
102
{ACAD_REACTORS
330
3F2
102
}
330
3F2
100
AcDbVisualStyle
  2

 70
     6
 71
     1
 72
     2
 73
     2
 90
        0
 40
-0.6
 41
-30.0
 62
     5
 63
     7
 74
     2
 91
        2
 64
     7
 65
   257
 75
     2
175
     1
 42
40.0
 92
        0
 66
   257
 43
1.0
 76
     1
 77
     6
 78
     2
 67
     7
 79
     3
170
     0
171
     0
290
     0
174
     0
 93
        1
 44
0.0
173
     0
291
     0
 45
0.0
1001
ACAD
1000
AcDbSavedByObjectVersion
1070
     0
  0
VISUALSTYLE
  5
3F9
102
{ACAD_XDICTIONARY
360
1C6C
102
}
102
{ACAD_REACTORS
330
3F2
102
}
330
3F2
100
AcDbVisualStyle
  2

 70
     5
 71
     0
 72
     2
 73
     0
 90
        0
 40
-0.6
 41
-30.0
 62
     5
 63
     7
 74
     1
 91
        4
 64
     7
 65
   257
 75
     1
175
     1
 42
1.0
 92
        0
 66
   257
 43
1.0
 76
     1
 77
     6
 78
     2
 67
     7
 79
     5
170
     0
171
     0
290
     0
174
     0
 93
        1
 44
0.0
173
     0
291
     0
 45
0.0
1001
ACAD
1000
AcDbSavedByObjectVersion
1070
     0
  0
VISUALSTYLE
  5
3F7
102
{ACAD_XDICTIONARY
360
1C68
102
}
102
{ACAD_REACTORS
330
3F2
102
}
330
3F2
100
AcDbVisualStyle
  2

 70
     7
 71
     1
 72
     0
 73
     1
 90
        0
 40
-0.6
 41
-30.0
 62
     5
 63
     7
 74
     0
 91
        4
 64
     7
 65
   257
 75
     1
175
     1
 42
1.0
 92
        8
 66
     7
 43
1.0
 76
     1
 77
     6
 78
     2
 67
     7
 79
     5
170
     0
171
     0
290
     0
174
     0
 93
        1
 44
0.0
173
     0
291
     1
 45
0.0
1001
ACAD
1000
AcDbSavedByObjectVersion
1070
     0
  0
VISUALSTYLE
  5
3FE
102
{ACAD_XDICTIONARY
360
1C76
102
}
102
{ACAD_REACTORS
330
3F2
102
}
330
3F2
100
AcDbVisualStyle
  2

 70
    12
 71
     2
 72
     2
 73
     0
 90
        0
 40
-0.6
 41
-30.0
 62
     5
 63
     7
 74
     1
 91
        4
 64
     7
 65
   257
 75
     1
175
     1
 42
1.0
 92
        8
 66
     7
 43
1.0
 76
     1
 77
     6
 78
     2
 67
     7
 79
     5
170
     0
171
     0
290
     0
174
     0
 93
        1
 44
50.0
173
     0
291
     1
 45
0.0
1001
ACAD
1000
AcDbSavedByObjectVersion
1070
     0
  0
VISUALSTYLE
  5
402
102
{ACAD_XDICTIONARY
360
1C7E
102
}
102
{ACAD_REACTORS
330
3F2
102
}
330
3F2
100
AcDbVisualStyle
  2

 70
    16
 71
     2
 72
     2
 73
     3
 90
        0
 40
-0.6
 41
-30.0
 62
     5
 63
     8
 74
     1
 91
        4
 64
     7
 65
   257
 75
     1
175
     1
 42
1.0
 92
        8
 66
     8
 43
1.0
 76
     1
 77
     6
 78
     2
 67
     7
 79
     5
170
     0
171
     0
290
     0
174
     0
 93
        1
 44
0.0
173
     0
291
     1
 45
0.0
1001
ACAD
1000
AcDbSavedByObjectVersion
1070
     0
  0
VISUALSTYLE
  5
3FB
102
{ACAD_XDICTIONARY
360
1C70
102
}
102
{ACAD_REACTORS
330
3F2
102
}
330
3F2
100
AcDbVisualStyle
  2

 70
     9
 71
     3
 72
     2
 73
     0
 90
        0
 40
-0.6
 41
-30.0
 62
     5
 63
     7
 74
     2
 91
        2
 64
     7
 65
   257
 75
     1
175
     1
 42
40.0
 92
        8
 66
     7
 43
1.0
 76
     1
 77
     6
 78
     2
 67
     7
 79
     3
170
     0
171
     0
290
     0
174
     0
 93
        1
 44
0.0
173
     0
291
     0
 45
0.0
1001
ACAD
1000
AcDbSavedByObjectVersion
1070
     0
  0
VISUALSTYLE
  5
3FD
102
{ACAD_XDICTIONARY
360
1C74
102
}
102
{ACAD_REACTORS
330
3F2
102
}
330
3F2
100
AcDbVisualStyle
  2

 70
    11
 71
     2
 72
     2
 73
     0
 90
        0
 40
-0.6
 41
-30.0
 62
     5
 63
     7
 74
     1
 91
        4
 64
     7
 65
   257
 75
     1
175
     1
 42
1.0
 92
        8
 66
     7
 43
1.0
 76
     1
 77
     6
 78
     2
 67
     7
 79
     5
170
     0
171
     0
290
     0
174
     0
 93
        1
 44
-50.0
173
     0
291
     1
 45
0.0
1001
ACAD
1000
AcDbSavedByObjectVersion
1070
     0
  0
VISUALSTYLE
  5
C40
102
{ACAD_XDICTIONARY
360
1C8E
102
}
102
{ACAD_REACTORS
330
3F2
102
}
330
3F2
100
AcDbVisualStyle
  2

 70
    22
 71
     2
 72
     2
 73
     0
 90
        0
 40
-0.6
 41
-30.0
 62
     5
 63
     7
 74
     1
 91
        4
 64
     7
 65
   257
 75
     1
175
     1
 42
1.0
 92
        8
 66
     7
 43
1.0
 76
     1
 77
     6
 78
     2
 67
     7
 79
     5
170
     0
171
     0
290
     0
174
     0
 93
        1
 44
0.0
173
     0
291
     1
 45
0.0
1001
ACAD
1000
AcDbSavedByObjectVersion
1070
     0
  0
VISUALSTYLE
  5
401
102
{ACAD_XDICTIONARY
360
1C7C
102
}
102
{ACAD_REACTORS
330
3F2
102
}
330
3F2
100
AcDbVisualStyle
  2

 70
    15
 71
     2
 72
     2
 73
     0
 90
        0
 40
-0.6
 41
-30.0
 62
     5
 63
     7
 74
     1
 91
        4
 64
     7
 65
   257
 75
     1
175
     1
 42
1.0
 92
        8
 66
     7
 43
1.0
 76
     1
 77
     6
 78
     2
 67
     7
 79
     5
170
     0
171
     0
290
     0
174
     0
 93
        1
 44
0.0
173
     0
291
     1
 45
0.0
1001
ACAD
1000
AcDbSavedByObjectVersion
1070
     0
  0
VISUALSTYLE
  5
3F3
102
{ACAD_XDICTIONARY
360
1C60
102
}
102
{ACAD_REACTORS
330
3F2
102
}
330
3F2
100
AcDbVisualStyle
  2

 70
     0
 71
     2
 72
     1
 73
     1
 90
        2
 40
-0.6
 41
30.0
 62
     5
 63
     7
 74
     0
 91
        4
 64
     7
 65
   257
 75
     1
175
     1
 42
1.0
 92
        8
 66
     7
 43
1.0
 76
     1
 77
     6
 78
     2
 67
     7
 79
     5
170
     0
171
     0
290
     0
174
     0
 93
       13
 44
0.0
173
     0
291
     1
 45
0.0
1001
ACAD
1000
AcDbSavedByObjectVersion
1070
     0
  0
VISUALSTYLE
  5
3F4
102
{ACAD_XDICTIONARY
360
1C62
102
}
102
{ACAD_REACTORS
330
3F2
102
}
330
3F2
100
AcDbVisualStyle
  2

 70
     1
 71
     2
 72
     1
 73
     1
 90
        2
 40
-0.6
 41
30.0
 62
     5
 63
     7
 74
     1
 91
        4
 64
     7
 65
   257
 75
     1
175
     1
 42
1.0
 92
        0
 66
   257
 43
1.0
 76
     1
 77
     6
 78
     2
 67
     7
 79
     5
170
     0
171
     0
290
     0
174
     0
 93
       13
 44
0.0
173
     0
291
     1
 45
0.0
1001
ACAD
1000
AcDbSavedByObjectVersion
1070
     0
  0
VISUALSTYLE
  5
3F5
102
{ACAD_XDICTIONARY
360
1C64
102
}
102
{ACAD_REACTORS
330
3F2
102
}
330
3F2
100
AcDbVisualStyle
  2

 70
     2
 71
     2
 72
     2
 73
     1
 90
        2
 40
-0.6
 41
30.0
 62
     5
 63
     7
 74
     0
 91
        4
 64
     7
 65
   257
 75
     1
175
     1
 42
1.0
 92
        0
 66
     7
 43
1.0
 76
     1
 77
     6
 78
     2
 67
     7
 79
     5
170
     0
171
     0
290
     0
174
     0
 93
       13
 44
0.0
173
     0
291
     1
 45
0.0
1001
ACAD
1000
AcDbSavedByObjectVersion
1070
     0
  0
VISUALSTYLE
  5
3F6
102
{ACAD_XDICTIONARY
360
1C66
102
}
102
{ACAD_REACTORS
330
3F2
102
}
330
3F2
100
AcDbVisualStyle
  2

 70
     3
 71
     2
 72
     2
 73
     1
 90
        2
 40
-0.6
 41
30.0
 62
     5
 63
     7
 74
     1
 91
        4
 64
     7
 65
   257
 75
     1
175
     1
 42
1.0
 92
        0
 66
   257
 43
1.0
 76
     1
 77
     6
 78
     2
 67
     7
 79
     5
170
     0
171
     0
290
     0
174
     0
 93
       13
 44
0.0
173
     0
291
     1
 45
0.0
1001
ACAD
1000
AcDbSavedByObjectVersion
1070
     0
  0
VISUALSTYLE
  5
EA2
102
{ACAD_XDICTIONARY
360
1C92
102
}
102
{ACAD_REACTORS
330
3F2
102
}
330
3F2
100
AcDbVisualStyle
  2

 70
     6
 71
     1
 72
     2
 73
     2
 90
        0
 40
-0.6
 41
-30.0
 62
     5
 63
     7
 74
     2
 91
        2
 64
     7
 65
   257
 75
     2
175
     1
 42
40.0
 92
        0
 66
   257
 43
1.0
 76
     1
 77
     6
 78
     2
 67
     7
 79
     3
170
     0
171
     0
290
     0
174
     0
 93
        1
 44
0.0
173
     0
291
     0
 45
0.0
1001
ACAD
1000
AcDbSavedByObjectVersion
1070
     0
  0
VISUALSTYLE
  5
C3E
102
{ACAD_XDICTIONARY
360
1C8A
102
}
102
{ACAD_REACTORS
330
3F2
102
}
330
3F2
100
AcDbVisualStyle
  2

 70
    20
 71
     2
 72
     2
 73
     0
 90
        0
 40
-0.6
 41
-30.0
 62
     5
 63
     7
 74
     1
 91
        4
 64
     7
 65
   257
 75
     1
175
     1
 42
1.0
 92
       10
 66
     7
 43
1.0
 76
     1
 77
     6
 78
     2
 67
     7
 79
     5
170
     0
171
     0
290
     0
174
     0
 93
        1
 44
0.0
173
     0
291
     1
 45
0.0
1001
ACAD
1000
AcDbSavedByObjectVersion
1070
     0
  0
VISUALSTYLE
  5
400
102
{ACAD_XDICTIONARY
360
1C7A
102
}
102
{ACAD_REACTORS
330
3F2
102
}
330
3F2
100
AcDbVisualStyle
  2

 70
    14
 71
     2
 72
     2
 73
     0
 90
        0
 40
-0.6
 41
-30.0
 62
     5
 63
     7
 74
     1
 91
        4
 64
     7
 65
   257
 75
     7
175
     7
 42
1.0
 92
        8
 66
     7
 43
1.0
 76
     1
 77
     6
 78
     2
 67
     7
 79
     5
170
     0
171
     0
290
     0
174
     0
 93
        1
 44
0.0
173
     0
291
     1
 45
0.0
1001
ACAD
1000
AcDbSavedByObjectVersion
1070
     0
  0
VISUALSTYLE
  5
C3F
102
{ACAD_XDICTIONARY
360
1C8C
102
}
102
{ACAD_REACTORS
330
3F2
102
}
330
3F2
100
AcDbVisualStyle
  2

 70
    21
 71
     2
 72
     2
 73
     0
 90
        0
 40
-0.6
 41
-30.0
 62
     5
 63
     7
 74
     1
 91
        4
 64
     7
 65
   257
 75
     1
175
     1
 42
1.0
 92
        9
 66
     7
 43
1.0
 76
     1
 77
     6
 78
     2
 67
     7
 79
     5
170
     0
171
     0
290
     0
174
     0
 93
        1
 44
0.0
173
     0
291
     1
 45
0.0
1001
ACAD
1000
AcDbSavedByObjectVersion
1070
     0
  0
VISUALSTYLE
  5
3FC
102
{ACAD_XDICTIONARY
360
1C72
102
}
102
{ACAD_REACTORS
330
3F2
102
}
330
3F2
100
AcDbVisualStyle
  2

 70
     8
 71
     2
 72
     2
 73
     0
 90
        0
 40
-0.6
 41
-30.0
 62
     5
 63
     7
 74
     1
 91
        0
 64
     7
 65
   257
 75
     1
175
     1
 42
1.0
 92
        8
 66
     8
 43
1.0
 76
     1
 77
     6
 78
     2
 67
     7
 79
     5
170
     0
171
     0
290
     0
174
     0
 93
       13
 44
0.0
173
     0
291
     0
 45
0.0
1001
ACAD
1000
AcDbSavedByObjectVersion
1070
     0
  0
VISUALSTYLE
  5
EA7
102
{ACAD_XDICTIONARY
360
1C9C
102
}
102
{ACAD_REACTORS
330
3F2
102
}
330
3F2
100
AcDbVisualStyle
  2

 70
    27
 71
     2
 72
     2
 73
     1
 90
        2
 40
-0.6
 41
30.0
 62
     5
 63
     7
 74
     0
 91
        4
 64
     7
 65
   257
 75
     1
175
     1
 42
1.0
 92
        8
 66
   257
 43
1.0
 76
     1
 77
     6
 78
     2
 67
     8
 79
     3
170
     0
171
     0
290
     0
174
     0
 93
        5
 44
0.0
173
     0
291
     0
 45
0.0
1001
ACAD
1000
AcDbSavedByObjectVersion
1070
     0
  0
VISUALSTYLE
  5
EA6
102
{ACAD_XDICTIONARY
360
1C9A
102
}
102
{ACAD_REACTORS
330
3F2
102
}
330
3F2
100
AcDbVisualStyle
  2

 70
    26
 71
     2
 72
     2
 73
     1
 90
        2
 40
-0.6
 41
30.0
 62
     5
 63
     7
 74
     1
 91
       10
 64
     7
 65
   257
 75
     2
175
     1
 42
1.0
 92
        8
 66
   257
 43
1.0
 76
     1
 77
     6
 78
     2
 67
     7
 79
     3
170
     0
171
     0
290
     0
174
     0
 93
        5
 44
0.0
173
     0
291
     0
 45
0.0
1001
ACAD
1000
AcDbSavedByObjectVersion
1070
     0
  0
VISUALSTYLE
  5
EA3
102
{ACAD_XDICTIONARY
360
1C94
102
}
102
{ACAD_REACTORS
330
3F2
102
}
330
3F2
100
AcDbVisualStyle
  2

 70
    23
 71
     2
 72
     2
 73
     3
 90
        0
 40
-0.6
 41
-30.0
 62
     5
 63
     7
 74
     2
 91
        2
 64
     7
 65
     7
 75
     1
175
     1
 42
40.0
 92
        8
 66
     7
 43
1.0
 76
     1
 77
     6
 78
     2
 67
     7
 79
     3
170
     0
171
     0
290
     0
174
     0
 93
        1
 44
0.0
173
     0
291
     0
 45
0.0
1001
ACAD
1000
AcDbSavedByObjectVersion
1070
     0
  0
VISUALSTYLE
  5
EA4
102
{ACAD_XDICTIONARY
360
1C96
102
}
102
{ACAD_REACTORS
330
3F2
102
}
330
3F2
100
AcDbVisualStyle
  2

 70
    24
 71
     1
 72
     2
 73
     2
 90
        0
 40
-0.6
 41
-30.0
 62
     5
 63
     7
 74
     2
 91
        2
 64
     7
 65
     7
 75
     1
175
     1
 42
40.0
 92
       11
 66
     7
 43
1.0
 76
     1
 77
     6
 78
     2
 67
     7
 79
     6
170
     0
171
     0
290
     0
174
     0
 93
        1
 44
0.0
173
     0
291
     0
 45
0.0
1001
ACAD
1000
AcDbSavedByObjectVersion
1070
     0
  0
VISUALSTYLE
  5
3FF
102
{ACAD_XDICTIONARY
360
1C78
102
}
102
{ACAD_REACTORS
330
3F2
102
}
330
3F2
100
AcDbVisualStyle
  2

 70
    13
 71
     2
 72
     2
 73
     0
 90
        0
 40
-0.6
 41
-30.0
 62
     5
 63
     7
 74
     1
 91
        4
 64
     7
 65
   257
 75
     1
175
     1
 42
1.0
 92
       12
 66
     7
 43
1.0
 76
     1
 77
     6
 78
     2
 67
     7
 79
     5
170
     0
171
     0
290
     0
174
     0
 93
        1
 44
0.0
173
     0
291
     1
 45
0.0
1001
ACAD
1000
AcDbSavedByObjectVersion
1070
     0
  0
VISUALSTYLE
  5
EA1
102
{ACAD_XDICTIONARY
360
1C90
102
}
102
{ACAD_REACTORS
330
3F2
102
}
330
3F2
100
AcDbVisualStyle
  2

 70
     5
 71
     0
 72
     2
 73
     0
 90
        0
 40
-0.6
 41
-30.0
 62
     5
 63
     7
 74
     1
 91
        4
 64
     7
 65
   257
 75
     1
175
     1
 42
1.0
 92
        0
 66
   257
 43
1.0
 76
     1
 77
     6
 78
     2
 67
     7
 79
     3
170
     0
171
     0
290
     0
174
     0
 93
        1
 44
0.0
173
     0
291
     0
 45
0.0
1001
ACAD
1000
AcDbSavedByObjectVersion
1070
     0
  0
VISUALSTYLE
  5
EA5
102
{ACAD_XDICTIONARY
360
1C98
102
}
102
{ACAD_REACTORS
330
3F2
102
}
330
3F2
100
AcDbVisualStyle
  2

 70
    25
 71
     2
 72
     2
 73
     1
 90
        1
 40
0.5
 41
-30.0
 62
     5
 63
     7
 74
     1
 91
        0
 64
     7
 65
   257
 75
     1
175
     1
 42
1.0
 92
        8
 66
     7
 43
1.0
 76
     1
 77
     6
 78
     2
 67
     7
 79
     3
170
     0
171
     0
290
     0
174
     0
 93
       13
 44
0.0
173
     0
291
     0
 45
0.0
1001
ACAD
1000
AcDbSavedByObjectVersion
1070
     0
  0
DICTIONARYVAR
  5
57C
102
{ACAD_REACTORS
330
357
102
}
330
357
100
DictionaryVariables
280
     0
  1
1:1
  0
DICTIONARYVAR
  5
57A
102
{ACAD_REACTORS
330
357
102
}
330
357
100
DictionaryVariables
280
     0
  1
STANDARD
  0
DICTIONARYVAR
  5
38E
102
{ACAD_REACTORS
330
357
102
}
330
357
100
DictionaryVariables
280
     0
  1
STANDARD
  0
DICTIONARYVAR
  5
110C
102
{ACAD_REACTORS
330
357
102
}
330
357
100
DictionaryVariables
280
     0
  1
Imperial24
  0
DICTIONARYVAR
  5
110D
102
{ACAD_REACTORS
330
357
102
}
330
357
100
DictionaryVariables
280
     0
  1
Imperial24
  0
DICTIONARYVAR
  5
359
102
{ACAD_REACTORS
330
357
102
}
330
357
100
DictionaryVariables
280
     0
  1
2
  0
DICTIONARYVAR
  5
358
102
{ACAD_REACTORS
330
357
102
}
330
357
100
DictionaryVariables
280
     0
  1
1
  0
DICTIONARYVAR
  5
B51
102
{ACAD_REACTORS
330
357
102
}
330
357
100
DictionaryVariables
280
     0
  1
0
  0
DICTIONARYVAR
  5
C52
102
{ACAD_REACTORS
330
357
102
}
330
357
100
DictionaryVariables
280
     0
  1
1
  0
DICTIONARYVAR
  5
C53
102
{ACAD_REACTORS
330
357
102
}
330
357
100
DictionaryVariables
280
     0
  1
15
  0
DICTIONARYVAR
  5
57D
102
{ACAD_REACTORS
330
357
102
}
330
357
100
DictionaryVariables
280
     0
  1
0
  0
DICTIONARYVAR
  5
57B
102
{ACAD_REACTORS
330
357
102
}
330
357
100
DictionaryVariables
280
     0
  1
0
  0
DICTIONARYVAR
  5
1664
102
{ACAD_REACTORS
330
357
102
}
330
357
100
DictionaryVariables
280
     0
  1
1
  0
DICTIONARYVAR
  5
B50
102
{ACAD_REACTORS
330
357
102
}
330
357
100
DictionaryVariables
280
     0
  1
127
  0
DICTIONARYVAR
  5
1C53
102
{ACAD_REACTORS
330
357
102
}
330
357
100
DictionaryVariables
280
     0
  1
2
  0
DICTIONARY
  5
4DC
102
{ACAD_REACTORS
330
4D1
102
}
330
4D1
100
AcDbDictionary
281
     1
  0
XRECORD
  5
4F3
102
{ACAD_REACTORS
330
4D1
102
}
330
4D1
100
AcDbXrecord
280
     1
 90
-1023410169
  0
XRECORD
  5
9A5
102
{ACAD_REACTORS
330
567
102
}
330
567
100
AcDbXrecord
280
     1
 91
     1023
301

290
     0
302
1
  8
200
 90
        8
 62
     2
370
    50
331
14
  1
Color_2
  8
160
 90
        8
 62
     1
370
    35
331
14
  1
Color_1
  8
150
 90
        8
 62
    96
370
    50
331
14
  1
Color_96
 92
-1040154880
  8
140
 90
        8
 62
     5
370
    35
331
14
  1
Color_5
  8
130
 90
        8
 62
     6
370
    35
331
14
  1
Color_6
  8
120
 90
        8
 62
     3
370
    50
331
14
  1
Color_3
  8
110
 90
        8
 62
     7
370
    25
331
14
  1
Color_7
  8
100
 90
        8
 62
     4
370
    50
331
14
  1
Color_4
  8
INFTEXT69
 90
        8
 62
     5
370
    -3
331
14
  1
Color_5
  8
INFTEXT68
 90
        8
 62
     5
370
    -3
331
14
  1
Color_5
  8
INFTEXT67
 90
        8
 62
     5
370
    -3
331
14
  1
Color_5
  8
INFTEXT66
 90
        8
 62
     5
370
    -3
331
14
  1
Color_5
  8
INFTEXT65
 90
        8
 62
     5
370
    -3
331
14
  1
Color_5
  8
INFTEXT64
 90
        8
 62
     5
370
    -3
331
14
  1
Color_5
  8
INFTEXT63
 90
        8
 62
     5
370
    -3
331
14
  1
Color_5
  8
INFTEXT62
 90
        8
 62
     5
370
    -3
331
14
  1
Color_5
  8
RECON69
 90
        8
 62
     5
370
    35
331
14
  1
Color_5
  8
RECON68
 90
        8
 62
     5
370
    35
331
14
  1
Color_5
  8
RECON67
 90
        8
 62
     5
370
    35
331
14
  1
Color_5
  8
RECON66
 90
        8
 62
     5
370
    35
331
14
  1
Color_5
  8
RECON65
 90
        8
 62
     5
370
    35
331
14
  1
Color_5
  8
RECON64
 90
        8
 62
     5
370
    35
331
14
  1
Color_5
  8
RECON63
 90
        8
 62
     5
370
    35
331
14
  1
Color_5
  8
RECON62
 90
        8
 62
     5
370
    35
331
14
  1
Color_5
  8
RECON61
 90
        8
 62
     5
370
    35
331
14
  1
Color_5
  8
SK69
 90
        8
 62
     5
370
    35
331
14
  1
Color_5
  8
SK68
 90
        8
 62
     5
370
    35
331
14
  1
Color_5
  8
SK67
 90
        8
 62
     5
370
    35
331
14
  1
Color_5
  8
SK66
 90
        8
 62
     5
370
    35
331
14
  1
Color_5
  8
SK65
 90
        8
 62
     5
370
    35
331
14
  1
Color_5
  8
SK64
 90
        8
 62
     5
370
    35
331
14
  1
Color_5
  8
SK63
 90
        8
 62
     5
370
    35
331
14
  1
Color_5
  8
SK62
 90
        8
 62
     5
370
    35
331
14
  1
Color_5
  8
SK61
 90
        8
 62
     5
370
    35
331
14
  1
Color_5
  8
SKVIEW69
 90
        8
 62
     5
370
    35
331
14
  1
Color_5
  8
SKVIEW68
 90
        8
 62
     5
370
    35
331
14
  1
Color_5
  8
SKVIEW67
 90
        8
 62
     5
370
    35
331
14
  1
Color_5
  8
SKVIEW66
 90
        8
 62
     5
370
    35
331
14
  1
Color_5
  8
SKVIEW65
 90
        8
 62
     5
370
    35
331
14
  1
Color_5
  8
SKVIEW64
 90
        8
 62
     5
370
    35
331
14
  1
Color_5
  8
SKVIEW63
 90
        8
 62
     5
370
    35
331
14
  1
Color_5
  8
SKVIEW62
 90
        8
 62
     5
370
    35
331
14
  1
Color_5
  8
SKVIEW61
 90
        8
 62
     5
370
    35
331
14
  1
Color_5
  8
69
 90
        8
 62
     5
370
    35
331
14
  1
Color_5
  8
68
 90
        8
 62
     5
370
    35
331
14
  1
Color_5
  8
67
 90
        8
 62
     5
370
    35
331
14
  1
Color_5
  8
66
 90
        8
 62
     5
370
    35
331
14
  1
Color_5
  8
65
 90
        8
 62
     5
370
    35
331
14
  1
Color_5
  8
64
 90
        8
 62
     5
370
    35
331
14
  1
Color_5
  8
63
 90
        8
 62
     5
370
    35
331
14
  1
Color_5
  8
62
 90
        8
 62
     5
370
    35
331
14
  1
Color_5
  8
61
 90
        8
 62
     5
370
    35
331
14
  1
Color_5
  8
59
 90
        8
 62
     5
370
    -3
331
14
  1
Color_5
  8
58
 90
        8
 62
     5
370
    -3
331
14
  1
Color_5
  8
57
 90
        8
 62
     5
370
    -3
331
14
  1
Color_5
  8
56
 90
        8
 62
     5
370
    -3
331
14
  1
Color_5
  8
55
 90
        8
 62
     5
370
    -3
331
14
  1
Color_5
  8
54
 90
        8
 62
     5
370
    -3
331
14
  1
Color_5
  8
53
 90
        8
 62
     5
370
    -3
331
14
  1
Color_5
  8
52
 90
        8
 62
     5
370
    -3
331
14
  1
Color_5
  8
51
 90
        8
 62
     5
370
    -3
331
14
  1
Color_5
  8
FRAME59
 90
        8
 62
     7
370
    -3
331
14
  1
Color_7
  8
FRAME58
 90
        8
 62
     7
370
    -3
331
14
  1
Color_7
  8
FRAME57
 90
        8
 62
     7
370
    -3
331
14
  1
Color_7
  8
FRAME56
 90
        8
 62
     7
370
    -3
331
14
  1
Color_7
  8
FRAME55
 90
        8
 62
     7
370
    -3
331
14
  1
Color_7
  8
FRAME54
 90
        8
 62
     7
370
    -3
331
14
  1
Color_7
  8
FRAME53
 90
        8
 62
     7
370
    -3
331
14
  1
Color_7
  8
FRAME52
 90
        8
 62
     7
370
    -3
331
14
  1
Color_7
  8
RECON7
 90
        8
 62
     5
370
    25
331
14
  1
Color_5
  8
RECON6
 90
        8
 62
     5
370
    35
331
14
  1
Color_5
  8
RECON4
 90
        8
 62
     2
370
    25
331
14
  1
Color_2
  8
RECON3
 90
        8
 62
     1
370
    35
331
14
  1
Color_1
  8
RECON2
 90
        8
 62
     7
370
    25
331
14
  1
Color_7
  8
RECON1
 90
        8
 62
     4
370
    50
331
14
  1
Color_4
  8
SKVIEW7
 90
        8
 62
     5
370
    25
331
14
  1
Color_5
  8
SK7
 90
        8
 62
     5
370
    25
331
14
  1
Color_5
  8
7
 90
        8
 62
     5
370
    25
331
14
  1
Color_5
  8
INFMAINVIEW
 90
        8
 62
     9
370
    18
331
14
  1
Color_9
  8
INFTOTAL
 90
        8
 62
     9
370
    18
331
14
  1
Color_9
  8
INFTEXT61
 90
        8
 62
     5
370
    -3
331
14
  1
Color_5
  8
INFWKP
 90
        8
 62
    30
370
    25
331
14
  1
Color_30
  8
SKVIEW6
 90
        8
 62
     5
370
    35
331
14
  1
Color_5
  8
SKVIEW4
 90
        8
 62
     2
370
    25
331
14
  1
Color_2
  8
SKVIEW3
 90
        8
 62
     1
370
    35
331
14
  1
Color_1
  8
SKVIEW2
 90
        8
 62
     7
370
    25
331
14
  1
Color_7
  8
SKVIEW1
 90
        8
 62
     4
370
    50
331
14
  1
Color_4
  8
NOCUT
 90
        8
 62
     7
370
    25
331
14
  1
Color_7
  8
CUT
 90
        8
 62
     1
370
    25
331
14
  1
Color_1
  8
DEFPOINTS
 90
        0
 62
     7
370
    -3
331
14
  1
Color_7
  8
SK6
 90
        8
 62
     5
370
    35
331
14
  1
Color_5
  8
6
 90
        8
 62
     5
370
    35
331
14
  1
Color_5
  8
FRAME51
 90
        8
 62
     7
370
    -3
331
14
  1
Color_7
  8
SK4
 90
        8
 62
     2
370
    25
331
14
  1
Color_2
  8
4
 90
        8
 62
     2
370
    25
331
14
  1
Color_2
  8
SK3
 90
        8
 62
     1
370
    35
331
14
  1
Color_1
  8
3
 90
        8
 62
     1
370
    35
331
14
  1
Color_1
  8
SK2
 90
        8
 62
     7
370
    25
331
14
  1
Color_7
  8
2
 90
        8
 62
     7
370
    25
331
14
  1
Color_7
  8
SK1
 90
        8
 62
     4
370
    50
331
14
  1
Color_4
  8
1
 90
        8
 62
     4
370
    50
331
14
  1
Color_4
  8
0
 90
        0
 62
     7
370
    -3
331
14
  1
Color_7
  0
DICTIONARY
  5
1CA0
330
EAB
100
AcDbDictionary
280
     1
281
     1
  3
ACAD_XREC_ROUNDTRIP
360
1CA1
  0
DICTIONARY
  5
1C86
330
B77
100
AcDbDictionary
280
     1
281
     1
  3
ACAD_XREC_ROUNDTRIP
360
1C87
  0
DICTIONARY
  5
1C5D
330
303
100
AcDbDictionary
280
     1
281
     1
  3
ACAD_XREC_ROUNDTRIP
360
1C5E
  0
DICTIONARY
  5
1677
330
3F0
100
AcDbDictionary
280
     1
281
     1
  3
ACAD_XREC_ROUNDTRIP
360
1678
  0
DICTIONARY
  5
1675
330
3EF
100
AcDbDictionary
280
     1
281
     1
  3
ACAD_XREC_ROUNDTRIP
360
1676
  0
DICTIONARY
  5
1679
330
3F1
100
AcDbDictionary
280
     1
281
     1
  3
ACAD_XREC_ROUNDTRIP
360
167A
  0
DICTIONARY
  5
1C80
330
470
100
AcDbDictionary
280
     1
281
     1
  3
ACAD_XREC_ROUNDTRIP
360
1C81
  0
DICTIONARY
  5
1C82
330
7EF
100
AcDbDictionary
280
     1
281
     1
  3
ACAD_XREC_ROUNDTRIP
360
1C83
  0
DICTIONARY
  5
1C84
330
7F8
100
AcDbDictionary
280
     1
281
     1
  3
ACAD_XREC_ROUNDTRIP
360
1C85
  0
DICTIONARY
  5
1C9E
330
EA9
100
AcDbDictionary
280
     1
281
     1
  3
ACAD_XREC_ROUNDTRIP
360
1C9F
  0
DICTIONARY
  5
577
330
389
100
AcDbDictionary
280
     1
281
     1
  3
ACAD_ROUNDTRIP_2008_TABLESTYLE_CELLSTYLEMAP
360
1C54
  3
ACAD_XREC_ROUNDTRIP
360
1C5F
  0
DICTIONARY
  5
1C6A
330
3F8
100
AcDbDictionary
280
     1
281
     1
  3
ACAD_XREC_ROUNDTRIP
360
1C6B
  0
DICTIONARY
  5
1C6E
330
3FA
100
AcDbDictionary
280
     1
281
     1
  3
ACAD_XREC_ROUNDTRIP
360
1C6F
  0
DICTIONARY
  5
1C6C
330
3F9
100
AcDbDictionary
280
     1
281
     1
  3
ACAD_XREC_ROUNDTRIP
360
1C6D
  0
DICTIONARY
  5
1C68
330
3F7
100
AcDbDictionary
280
     1
281
     1
  3
ACAD_XREC_ROUNDTRIP
360
1C69
  0
DICTIONARY
  5
1C76
330
3FE
100
AcDbDictionary
280
     1
281
     1
  3
ACAD_XREC_ROUNDTRIP
360
1C77
  0
DICTIONARY
  5
1C7E
330
402
100
AcDbDictionary
280
     1
281
     1
  3
ACAD_XREC_ROUNDTRIP
360
1C7F
  0
DICTIONARY
  5
1C70
330
3FB
100
AcDbDictionary
280
     1
281
     1
  3
ACAD_XREC_ROUNDTRIP
360
1C71
  0
DICTIONARY
  5
1C74
330
3FD
100
AcDbDictionary
280
     1
281
     1
  3
ACAD_XREC_ROUNDTRIP
360
1C75
  0
DICTIONARY
  5
1C8E
330
C40
100
AcDbDictionary
280
     1
281
     1
  3
ACAD_XREC_ROUNDTRIP
360
1C8F
  0
DICTIONARY
  5
1C7C
330
401
100
AcDbDictionary
280
     1
281
     1
  3
ACAD_XREC_ROUNDTRIP
360
1C7D
  0
DICTIONARY
  5
1C60
330
3F3
100
AcDbDictionary
280
     1
281
     1
  3
ACAD_XREC_ROUNDTRIP
360
1C61
  0
DICTIONARY
  5
1C62
330
3F4
100
AcDbDictionary
280
     1
281
     1
  3
ACAD_XREC_ROUNDTRIP
360
1C63
  0
DICTIONARY
  5
1C64
330
3F5
100
AcDbDictionary
280
     1
281
     1
  3
ACAD_XREC_ROUNDTRIP
360
1C65
  0
DICTIONARY
  5
1C66
330
3F6
100
AcDbDictionary
280
     1
281
     1
  3
ACAD_XREC_ROUNDTRIP
360
1C67
  0
DICTIONARY
  5
1C92
330
EA2
100
AcDbDictionary
280
     1
281
     1
  3
ACAD_XREC_ROUNDTRIP
360
1C93
  0
DICTIONARY
  5
1C8A
330
C3E
100
AcDbDictionary
280
     1
281
     1
  3
ACAD_XREC_ROUNDTRIP
360
1C8B
  0
DICTIONARY
  5
1C7A
330
400
100
AcDbDictionary
280
     1
281
     1
  3
ACAD_XREC_ROUNDTRIP
360
1C7B
  0
DICTIONARY
  5
1C8C
330
C3F
100
AcDbDictionary
280
     1
281
     1
  3
ACAD_XREC_ROUNDTRIP
360
1C8D
  0
DICTIONARY
  5
1C72
330
3FC
100
AcDbDictionary
280
     1
281
     1
  3
ACAD_XREC_ROUNDTRIP
360
1C73
  0
DICTIONARY
  5
1C9C
330
EA7
100
AcDbDictionary
280
     1
281
     1
  3
ACAD_XREC_ROUNDTRIP
360
1C9D
  0
DICTIONARY
  5
1C9A
330
EA6
100
AcDbDictionary
280
     1
281
     1
  3
ACAD_XREC_ROUNDTRIP
360
1C9B
  0
DICTIONARY
  5
1C94
330
EA3
100
AcDbDictionary
280
     1
281
     1
  3
ACAD_XREC_ROUNDTRIP
360
1C95
  0
DICTIONARY
  5
1C96
330
EA4
100
AcDbDictionary
280
     1
281
     1
  3
ACAD_XREC_ROUNDTRIP
360
1C97
  0
DICTIONARY
  5
1C78
330
3FF
100
AcDbDictionary
280
     1
281
     1
  3
ACAD_XREC_ROUNDTRIP
360
1C79
  0
DICTIONARY
  5
1C90
330
EA1
100
AcDbDictionary
280
     1
281
     1
  3
ACAD_XREC_ROUNDTRIP
360
1C91
  0
DICTIONARY
  5
1C98
330
EA5
100
AcDbDictionary
280
     1
281
     1
  3
ACAD_XREC_ROUNDTRIP
360
1C99
  0
XRECORD
  5
1CA1
102
{ACAD_REACTORS
330
1CA0
102
}
330
1CA0
100
AcDbXrecord
280
     1
102
DISPLAYNAME
  1
Imperial24
102
FLAGS
 90
        0
  0
XRECORD
  5
1C87
102
{ACAD_REACTORS
330
1C86
102
}
330
1C86
100
AcDbXrecord
280
     1
102
SHADEPLOT
 70
     0
102
SHADEPLOTRESLEVEL
 70
     2
102
SHADEPLOTCUSTOMDPI
 70
   300
  0
XRECORD
  5
1C5E
102
{ACAD_REACTORS
330
1C5D
102
}
330
1C5D
100
AcDbXrecord
280
     1
102
SHADEPLOT
 70
     0
102
SHADEPLOTRESLEVEL
 70
     2
102
SHADEPLOTCUSTOMDPI
 70
   300
  0
XRECORD
  5
1678
102
{ACAD_REACTORS
330
1677
102
}
330
1677
100
AcDbXrecord
280
     1
102
MATERIAL
148
0.0
149
0.0
149
0.0
 93
        0
 94
      127
282
     0
 72
     1
 77
     1
171
     1
175
     1
179
     1
273
     0
  0
XRECORD
  5
1676
102
{ACAD_REACTORS
330
1675
102
}
330
1675
100
AcDbXrecord
280
     1
102
MATERIAL
148
0.0
149
0.0
149
0.0
 93
        0
 94
      127
282
     0
 72
     1
 77
     1
171
     1
175
     1
179
     1
273
     0
  0
XRECORD
  5
167A
102
{ACAD_REACTORS
330
1679
102
}
330
1679
100
AcDbXrecord
280
     1
102
MATERIAL
148
0.0
149
0.0
149
0.0
 93
        0
 94
      127
282
     0
 72
     1
 77
     1
171
     1
175
     1
179
     1
273
     0
  0
XRECORD
  5
1C81
102
{ACAD_REACTORS
330
1C80
102
}
330
1C80
100
AcDbXrecord
280
     1
102
ACAD_ROUNDTRIP_2012_MLEADER_STYLE
298
     1
  0
XRECORD
  5
1C83
102
{ACAD_REACTORS
330
1C82
102
}
330
1C82
100
AcDbXrecord
280
     1
102
SHADEPLOT
 70
     0
102
SHADEPLOTRESLEVEL
 70
     2
102
SHADEPLOTCUSTOMDPI
 70
   300
  0
XRECORD
  5
1C85
102
{ACAD_REACTORS
330
1C84
102
}
330
1C84
100
AcDbXrecord
280
     1
102
SHADEPLOT
 70
     0
102
SHADEPLOTRESLEVEL
 70
     2
102
SHADEPLOTCUSTOMDPI
 70
   300
  0
XRECORD
  5
1C9F
102
{ACAD_REACTORS
330
1C9E
102
}
330
1C9E
100
AcDbXrecord
280
     1
102
DISPLAYNAME
  1
Imperial24
102
FLAGS
 90
        0
  0
CELLSTYLEMAP
  5
1C54
102
{ACAD_REACTORS
330
577
102
}
330
577
100
AcDbCellStyleMap
 90
        3
300
CELLSTYLE
  1
TABLEFORMAT_BEGIN
 90
        5
170
     1
 91
        0
 92
    32768
 62
   257
 93
        1
300
CONTENTFORMAT
  1
CONTENTFORMAT_BEGIN
 90
        0
 91
        0
 92
        4
 93
        0
300

 40
0.0
140
1.0
 94
        5
 62
     0
340
1E
144
6.0
309
CONTENTFORMAT_END
171
     1
301
MARGIN
  1
CELLMARGIN_BEGIN
 40
1.5
 40
1.5
 40
1.5
 40
1.5
 40
0.18
 40
0.18
309
CELLMARGIN_END
 94
        6
 95
        1
302
GRIDFORMAT
  1
GRIDFORMAT_BEGIN
 90
        0
 91
        1
 62
     0
 92
       -2
340
0
 93
        0
 40
0.045
309
GRIDFORMAT_END
 95
        2
302
GRIDFORMAT
  1
GRIDFORMAT_BEGIN
 90
        0
 91
        1
 62
     0
 92
       -2
340
0
 93
        0
 40
0.045
309
GRIDFORMAT_END
 95
        4
302
GRIDFORMAT
  1
GRIDFORMAT_BEGIN
 90
        0
 91
        1
 62
     0
 92
       -2
340
0
 93
        0
 40
0.045
309
GRIDFORMAT_END
 95
        8
302
GRIDFORMAT
  1
GRIDFORMAT_BEGIN
 90
        0
 91
        1
 62
     0
 92
       -2
340
0
 93
        0
 40
0.045
309
GRIDFORMAT_END
 95
       16
302
GRIDFORMAT
  1
GRIDFORMAT_BEGIN
 90
        0
 91
        1
 62
     0
 92
       -2
340
0
 93
        0
 40
0.045
309
GRIDFORMAT_END
 95
       32
302
GRIDFORMAT
  1
GRIDFORMAT_BEGIN
 90
        0
 91
        1
 62
     0
 92
       -2
340
0
 93
        0
 40
0.045
309
GRIDFORMAT_END
309
TABLEFORMAT_END
  1
CELLSTYLE_BEGIN
 90
        1
 91
        1
300
_TITLE
309
CELLSTYLE_END
300
CELLSTYLE
  1
TABLEFORMAT_BEGIN
 90
        5
170
     1
 91
        0
 92
        0
 62
   257
 93
        1
300
CONTENTFORMAT
  1
CONTENTFORMAT_BEGIN
 90
        0
 91
        0
 92
        4
 93
        0
300

 40
0.0
140
1.0
 94
        5
 62
     0
340
10
144
4.5
309
CONTENTFORMAT_END
171
     1
301
MARGIN
  1
CELLMARGIN_BEGIN
 40
1.5
 40
1.5
 40
1.5
 40
1.5
 40
0.18
 40
0.18
309
CELLMARGIN_END
 94
        6
 95
        1
302
GRIDFORMAT
  1
GRIDFORMAT_BEGIN
 90
        0
 91
        1
 62
     0
 92
       -2
340
0
 93
        0
 40
0.045
309
GRIDFORMAT_END
 95
        2
302
GRIDFORMAT
  1
GRIDFORMAT_BEGIN
 90
        0
 91
        1
 62
     0
 92
       -2
340
0
 93
        0
 40
0.045
309
GRIDFORMAT_END
 95
        4
302
GRIDFORMAT
  1
GRIDFORMAT_BEGIN
 90
        0
 91
        1
 62
     0
 92
       -2
340
0
 93
        0
 40
0.045
309
GRIDFORMAT_END
 95
        8
302
GRIDFORMAT
  1
GRIDFORMAT_BEGIN
 90
        0
 91
        1
 62
     0
 92
       -2
340
0
 93
        0
 40
0.045
309
GRIDFORMAT_END
 95
       16
302
GRIDFORMAT
  1
GRIDFORMAT_BEGIN
 90
        0
 91
        1
 62
     0
 92
       -2
340
0
 93
        0
 40
0.045
309
GRIDFORMAT_END
 95
       32
302
GRIDFORMAT
  1
GRIDFORMAT_BEGIN
 90
        0
 91
        1
 62
     0
 92
       -2
340
0
 93
        0
 40
0.045
309
GRIDFORMAT_END
309
TABLEFORMAT_END
  1
CELLSTYLE_BEGIN
 90
        2
 91
        1
300
_HEADER
309
CELLSTYLE_END
300
CELLSTYLE
  1
TABLEFORMAT_BEGIN
 90
        5
170
     1
 91
        0
 92
        0
 62
   257
 93
        1
300
CONTENTFORMAT
  1
CONTENTFORMAT_BEGIN
 90
        0
 91
        0
 92
        4
 93
        0
300

 40
0.0
140
1.0
 94
        2
 62
     0
340
10
144
4.5
309
CONTENTFORMAT_END
171
     1
301
MARGIN
  1
CELLMARGIN_BEGIN
 40
1.5
 40
1.5
 40
1.5
 40
1.5
 40
0.18
 40
0.18
309
CELLMARGIN_END
 94
        6
 95
        1
302
GRIDFORMAT
  1
GRIDFORMAT_BEGIN
 90
        0
 91
        1
 62
     0
 92
       -2
340
0
 93
        0
 40
0.045
309
GRIDFORMAT_END
 95
        2
302
GRIDFORMAT
  1
GRIDFORMAT_BEGIN
 90
        0
 91
        1
 62
     0
 92
       -2
340
0
 93
        0
 40
0.045
309
GRIDFORMAT_END
 95
        4
302
GRIDFORMAT
  1
GRIDFORMAT_BEGIN
 90
        0
 91
        1
 62
     0
 92
       -2
340
0
 93
        0
 40
0.045
309
GRIDFORMAT_END
 95
        8
302
GRIDFORMAT
  1
GRIDFORMAT_BEGIN
 90
        0
 91
        1
 62
     0
 92
       -2
340
0
 93
        0
 40
0.045
309
GRIDFORMAT_END
 95
       16
302
GRIDFORMAT
  1
GRIDFORMAT_BEGIN
 90
        0
 91
        1
 62
     0
 92
       -2
340
0
 93
        0
 40
0.045
309
GRIDFORMAT_END
 95
       32
302
GRIDFORMAT
  1
GRIDFORMAT_BEGIN
 90
        0
 91
        1
 62
     0
 92
       -2
340
0
 93
        0
 40
0.045
309
GRIDFORMAT_END
309
TABLEFORMAT_END
  1
CELLSTYLE_BEGIN
 90
        3
 91
        2
300
_DATA
309
CELLSTYLE_END
  0
XRECORD
  5
1C5F
102
{ACAD_REACTORS
330
577
102
}
330
577
100
AcDbXrecord
280
     1
102
ACAD_ROUNDTRIP_PRE2007_TABLESTYLE
 90
        4
 91
        0
  1

 92
        4
 93
        0
  2

 94
        4
 95
        0
  3

  0
XRECORD
  5
1C6B
102
{ACAD_REACTORS
330
1C6A
102
}
330
1C6A
100
AcDbXrecord
280
     1
102
RTVSPost2010Prop28
280
     1
102
RTVSPost2010PropOp28
 70
     1
102
RTVSPost2010Prop29
280
     1
102
RTVSPost2010PropOp29
 70
     1
102
RTVSPost2010Prop30
280
     0
102
RTVSPost2010PropOp30
 70
     1
102
RTVSPost2010Prop31
280
     0
102
RTVSPost2010PropOp31
 70
     1
102
RTVSPost2010Prop32
280
     0
102
RTVSPost2010PropOp32
 70
     1
102
RTVSPost2010Prop33
280
     0
102
RTVSPost2010PropOp33
 70
     1
102
RTVSPost2010Prop34
280
     0
102
RTVSPost2010PropOp34
 70
     1
102
RTVSPost2010Prop35
280
     0
102
RTVSPost2010PropOp35
 70
     1
102
RTVSPost2010Prop36
280
     0
102
RTVSPost2010PropOp36
 70
     1
102
RTVSPost2010Prop37
 90
       50
102
RTVSPost2010PropOp37
 70
     1
102
RTVSPost2010Prop38
140
0.0
102
RTVSPost2010PropOp38
 70
     1
102
RTVSPost2010Prop39
140
1.0
102
RTVSPost2010PropOp39
 70
     1
102
RTVSPost2010Prop40
 90
        0
102
RTVSPost2010PropOp40
 70
     1
102
RTVSPost2010Prop41ColorIndex
 90
       18
102
RTVSPost2010Prop41ColorRGB
 90
        0
102
RTVSPost2010PropOp41
 70
     1
102
RTVSPost2010Prop42
 90
       50
102
RTVSPost2010PropOp42
 70
     1
102
RTVSPost2010Prop43
 90
        3
102
RTVSPost2010PropOp43
 70
     1
102
RTVSPost2010Prop44ColorIndex
 90
        5
102
RTVSPost2010Prop44ColorRGB
 90
      255
102
RTVSPost2010PropOp44
 70
     1
102
RTVSPost2010Prop45
280
     0
102
RTVSPost2010PropOp45
 70
     1
102
RTVSPost2010Prop46
 90
       50
102
RTVSPost2010PropOp46
 70
     1
102
RTVSPost2010Prop47
 90
       50
102
RTVSPost2010PropOp47
 70
     1
102
RTVSPost2010Prop48
 90
       50
102
RTVSPost2010PropOp48
 70
     1
102
RTVSPost2010Prop49
280
     0
102
RTVSPost2010PropOp49
 70
     1
102
RTVSPost2010Prop50
 90
       50
102
RTVSPost2010PropOp50
 70
     1
102
RTVSPost2010Prop51ColorIndex
 90
      256
102
RTVSPost2010Prop51ColorRGB
 90
-16777216
102
RTVSPost2010PropOp51
 70
     0
102
RTVSPost2010Prop52
140
1.0
102
RTVSPost2010PropOp52
 70
     0
102
RTVSPost2010Prop53
 90
        2
102
RTVSPost2010PropOp53
 70
     1
102
RTVSPost2010Prop54
  1
strokes_ogs.tif
102
RTVSPost2010PropOp54
 70
     1
102
RTVSPost2010Prop55
280
     0
102
RTVSPost2010PropOp55
 70
     1
102
RTVSPost2010Prop56
140
1.0
102
RTVSPost2010PropOp56
 70
     1
102
RTVSPost2010Prop57
140
1.0
102
RTVSPost2010PropOp57
 70
     1
102
RTVSPropertyOp0
 70
     1
102
RTVSPropertyOp1
 70
     1
102
RTVSPropertyOp2
 70
     1
102
RTVSPropertyOp3
 70
     1
102
RTVSPropertyOp4
 70
     1
102
RTVSPropertyOp5
 70
     1
102
RTVSPropertyOp6
 70
     1
102
RTVSPropertyOp7
 70
     1
102
RTVSPropertyOp8
 70
     1
102
RTVSPropertyOp9
 70
     1
102
RTVSPropertyOp10
 70
     1
102
RTVSPropertyOp11
 70
     1
102
RTVSPropertyOp12
 70
     1
102
RTVSPropertyOp13
 70
     1
102
RTVSPropertyOp14
 70
     1
102
RTVSPropertyOp15
 70
     1
102
RTVSPropertyOp16
 70
     1
102
RTVSPropertyOp17
 70
     1
102
RTVSPropertyOp18
 70
     1
102
RTVSPropertyOp19
 70
     1
102
RTVSPropertyOp20
 70
     1
102
RTVSPropertyOp21
 70
     1
102
RTVSPropertyOp22
 70
     1
102
RTVSPropertyOp23
 70
     1
102
RTVSPropertyOp24
 70
     1
102
RTVSPropertyOp25
 70
     1
102
RTVSPropertyOp26
 70
     1
102
RTVSPropertyOp27
 70
     1
102
RTVSPropertyOp28
 70
     1
102
RTVSPropertyOp29
 70
     1
102
RTVSPropertyOp30
 70
     1
102
RTVSPropertyOp31
 70
     1
102
RTVSPropertyOp32
 70
     1
102
RTVSPropertyOp33
 70
     1
102
RTVSPropertyOp34
 70
     1
102
RTVSPropertyOp35
 70
     1
102
RTVSPropertyOp36
 70
     1
102
RTVSPropertyOp37
 70
     1
102
RTVSPropertyOp38
 70
     1
102
RTVSPropertyOp39
 70
     1
102
RTVSPropertyOp40
 70
     1
102
RTVSPropertyOp41
 70
     1
102
RTVSPropertyOp42
 70
     1
102
RTVSPropertyOp43
 70
     1
102
RTVSPropertyOp44
 70
     1
102
RTVSPropertyOp45
 70
     1
102
RTVSPropertyOp46
 70
     1
102
RTVSPropertyOp47
 70
     1
102
RTVSPropertyOp48
 70
     1
102
RTVSPropertyOp49
 70
     1
102
RTVSPropertyOp50
 70
     1
102
RTVSPropertyOp51
 70
     0
102
RTVSPropertyOp52
 70
     0
102
RTVSPropertyOp53
 70
     1
102
RTVSPropertyOp54
 70
     1
102
RTVSPropertyOp55
 70
     1
102
RTVSPropertyOp56
 70
     1
102
RTVSPropertyOp57
 70
     1
102
RTVSPropertyOp58
 70
     1
102
RTVSPropertyOp59
 70
     1
102
RTVSPropertyOp60
 70
     1
102
RTVSPropertyOp61
 70
     1
102
RTVSPropertyOp62
 70
     1
  0
XRECORD
  5
1C6F
102
{ACAD_REACTORS
330
1C6E
102
}
330
1C6E
100
AcDbXrecord
280
     1
102
RTVSPost2010Prop28
280
     0
102
RTVSPost2010PropOp28
 70
     1
102
RTVSPost2010Prop29
280
     1
102
RTVSPost2010PropOp29
 70
     1
102
RTVSPost2010Prop30
280
     1
102
RTVSPost2010PropOp30
 70
     1
102
RTVSPost2010Prop31
280
     0
102
RTVSPost2010PropOp31
 70
     1
102
RTVSPost2010Prop32
280
     0
102
RTVSPost2010PropOp32
 70
     1
102
RTVSPost2010Prop33
280
     0
102
RTVSPost2010PropOp33
 70
     1
102
RTVSPost2010Prop34
280
     0
102
RTVSPost2010PropOp34
 70
     1
102
RTVSPost2010Prop35
280
     0
102
RTVSPost2010PropOp35
 70
     1
102
RTVSPost2010Prop36
280
     0
102
RTVSPost2010PropOp36
 70
     1
102
RTVSPost2010Prop37
 90
       50
102
RTVSPost2010PropOp37
 70
     1
102
RTVSPost2010Prop38
140
0.0
102
RTVSPost2010PropOp38
 70
     1
102
RTVSPost2010Prop39
140
1.0
102
RTVSPost2010PropOp39
 70
     1
102
RTVSPost2010Prop40
 90
        0
102
RTVSPost2010PropOp40
 70
     1
102
RTVSPost2010Prop41ColorIndex
 90
       18
102
RTVSPost2010Prop41ColorRGB
 90
        0
102
RTVSPost2010PropOp41
 70
     1
102
RTVSPost2010Prop42
 90
       50
102
RTVSPost2010PropOp42
 70
     1
102
RTVSPost2010Prop43
 90
        3
102
RTVSPost2010PropOp43
 70
     1
102
RTVSPost2010Prop44ColorIndex
 90
        5
102
RTVSPost2010Prop44ColorRGB
 90
      255
102
RTVSPost2010PropOp44
 70
     1
102
RTVSPost2010Prop45
280
     0
102
RTVSPost2010PropOp45
 70
     1
102
RTVSPost2010Prop46
 90
       50
102
RTVSPost2010PropOp46
 70
     1
102
RTVSPost2010Prop47
 90
       50
102
RTVSPost2010PropOp47
 70
     1
102
RTVSPost2010Prop48
 90
       50
102
RTVSPost2010PropOp48
 70
     1
102
RTVSPost2010Prop49
280
     0
102
RTVSPost2010PropOp49
 70
     1
102
RTVSPost2010Prop50
 90
       50
102
RTVSPost2010PropOp50
 70
     1
102
RTVSPost2010Prop51ColorIndex
 90
      256
102
RTVSPost2010Prop51ColorRGB
 90
-16777216
102
RTVSPost2010PropOp51
 70
     0
102
RTVSPost2010Prop52
140
1.0
102
RTVSPost2010PropOp52
 70
     0
102
RTVSPost2010Prop53
 90
        2
102
RTVSPost2010PropOp53
 70
     1
102
RTVSPost2010Prop54
  1
strokes_ogs.tif
102
RTVSPost2010PropOp54
 70
     1
102
RTVSPost2010Prop55
280
     0
102
RTVSPost2010PropOp55
 70
     1
102
RTVSPost2010Prop56
140
1.0
102
RTVSPost2010PropOp56
 70
     1
102
RTVSPost2010Prop57
140
1.0
102
RTVSPost2010PropOp57
 70
     1
102
RTVSPropertyOp0
 70
     1
102
RTVSPropertyOp1
 70
     1
102
RTVSPropertyOp2
 70
     1
102
RTVSPropertyOp3
 70
     1
102
RTVSPropertyOp4
 70
     1
102
RTVSPropertyOp5
 70
     1
102
RTVSPropertyOp6
 70
     1
102
RTVSPropertyOp7
 70
     1
102
RTVSPropertyOp8
 70
     1
102
RTVSPropertyOp9
 70
     1
102
RTVSPropertyOp10
 70
     1
102
RTVSPropertyOp11
 70
     1
102
RTVSPropertyOp12
 70
     1
102
RTVSPropertyOp13
 70
     1
102
RTVSPropertyOp14
 70
     1
102
RTVSPropertyOp15
 70
     1
102
RTVSPropertyOp16
 70
     1
102
RTVSPropertyOp17
 70
     1
102
RTVSPropertyOp18
 70
     1
102
RTVSPropertyOp19
 70
     1
102
RTVSPropertyOp20
 70
     1
102
RTVSPropertyOp21
 70
     1
102
RTVSPropertyOp22
 70
     1
102
RTVSPropertyOp23
 70
     1
102
RTVSPropertyOp24
 70
     1
102
RTVSPropertyOp25
 70
     1
102
RTVSPropertyOp26
 70
     1
102
RTVSPropertyOp27
 70
     1
102
RTVSPropertyOp28
 70
     1
102
RTVSPropertyOp29
 70
     1
102
RTVSPropertyOp30
 70
     1
102
RTVSPropertyOp31
 70
     1
102
RTVSPropertyOp32
 70
     1
102
RTVSPropertyOp33
 70
     1
102
RTVSPropertyOp34
 70
     1
102
RTVSPropertyOp35
 70
     1
102
RTVSPropertyOp36
 70
     1
102
RTVSPropertyOp37
 70
     1
102
RTVSPropertyOp38
 70
     1
102
RTVSPropertyOp39
 70
     1
102
RTVSPropertyOp40
 70
     1
102
RTVSPropertyOp41
 70
     1
102
RTVSPropertyOp42
 70
     1
102
RTVSPropertyOp43
 70
     1
102
RTVSPropertyOp44
 70
     1
102
RTVSPropertyOp45
 70
     1
102
RTVSPropertyOp46
 70
     1
102
RTVSPropertyOp47
 70
     1
102
RTVSPropertyOp48
 70
     1
102
RTVSPropertyOp49
 70
     1
102
RTVSPropertyOp50
 70
     1
102
RTVSPropertyOp51
 70
     0
102
RTVSPropertyOp52
 70
     0
102
RTVSPropertyOp53
 70
     1
102
RTVSPropertyOp54
 70
     1
102
RTVSPropertyOp55
 70
     1
102
RTVSPropertyOp56
 70
     1
102
RTVSPropertyOp57
 70
     1
102
RTVSPropertyOp58
 70
     1
102
RTVSPropertyOp59
 70
     1
102
RTVSPropertyOp60
 70
     1
102
RTVSPropertyOp61
 70
     1
102
RTVSPropertyOp62
 70
     1
  0
XRECORD
  5
1C6D
102
{ACAD_REACTORS
330
1C6C
102
}
330
1C6C
100
AcDbXrecord
280
     1
102
RTVSPost2010Prop28
280
     0
102
RTVSPost2010PropOp28
 70
     1
102
RTVSPost2010Prop29
280
     1
102
RTVSPost2010PropOp29
 70
     1
102
RTVSPost2010Prop30
280
     1
102
RTVSPost2010PropOp30
 70
     1
102
RTVSPost2010Prop31
280
     0
102
RTVSPost2010PropOp31
 70
     1
102
RTVSPost2010Prop32
280
     0
102
RTVSPost2010PropOp32
 70
     1
102
RTVSPost2010Prop33
280
     0
102
RTVSPost2010PropOp33
 70
     1
102
RTVSPost2010Prop34
280
     0
102
RTVSPost2010PropOp34
 70
     1
102
RTVSPost2010Prop35
280
     0
102
RTVSPost2010PropOp35
 70
     1
102
RTVSPost2010Prop36
280
     0
102
RTVSPost2010PropOp36
 70
     1
102
RTVSPost2010Prop37
 90
       50
102
RTVSPost2010PropOp37
 70
     1
102
RTVSPost2010Prop38
140
0.0
102
RTVSPost2010PropOp38
 70
     1
102
RTVSPost2010Prop39
140
1.0
102
RTVSPost2010PropOp39
 70
     1
102
RTVSPost2010Prop40
 90
        0
102
RTVSPost2010PropOp40
 70
     1
102
RTVSPost2010Prop41ColorIndex
 90
       18
102
RTVSPost2010Prop41ColorRGB
 90
        0
102
RTVSPost2010PropOp41
 70
     1
102
RTVSPost2010Prop42
 90
       50
102
RTVSPost2010PropOp42
 70
     1
102
RTVSPost2010Prop43
 90
        3
102
RTVSPost2010PropOp43
 70
     1
102
RTVSPost2010Prop44ColorIndex
 90
        5
102
RTVSPost2010Prop44ColorRGB
 90
      255
102
RTVSPost2010PropOp44
 70
     1
102
RTVSPost2010Prop45
280
     0
102
RTVSPost2010PropOp45
 70
     1
102
RTVSPost2010Prop46
 90
       50
102
RTVSPost2010PropOp46
 70
     1
102
RTVSPost2010Prop47
 90
       50
102
RTVSPost2010PropOp47
 70
     1
102
RTVSPost2010Prop48
 90
       50
102
RTVSPost2010PropOp48
 70
     1
102
RTVSPost2010Prop49
280
     0
102
RTVSPost2010PropOp49
 70
     1
102
RTVSPost2010Prop50
 90
       50
102
RTVSPost2010PropOp50
 70
     1
102
RTVSPost2010Prop51ColorIndex
 90
      256
102
RTVSPost2010Prop51ColorRGB
 90
-16777216
102
RTVSPost2010PropOp51
 70
     0
102
RTVSPost2010Prop52
140
1.0
102
RTVSPost2010PropOp52
 70
     0
102
RTVSPost2010Prop53
 90
        2
102
RTVSPost2010PropOp53
 70
     1
102
RTVSPost2010Prop54
  1
strokes_ogs.tif
102
RTVSPost2010PropOp54
 70
     1
102
RTVSPost2010Prop55
280
     0
102
RTVSPost2010PropOp55
 70
     1
102
RTVSPost2010Prop56
140
1.0
102
RTVSPost2010PropOp56
 70
     1
102
RTVSPost2010Prop57
140
1.0
102
RTVSPost2010PropOp57
 70
     1
102
RTVSPropertyOp0
 70
     1
102
RTVSPropertyOp1
 70
     1
102
RTVSPropertyOp2
 70
     1
102
RTVSPropertyOp3
 70
     1
102
RTVSPropertyOp4
 70
     1
102
RTVSPropertyOp5
 70
     1
102
RTVSPropertyOp6
 70
     1
102
RTVSPropertyOp7
 70
     1
102
RTVSPropertyOp8
 70
     1
102
RTVSPropertyOp9
 70
     1
102
RTVSPropertyOp10
 70
     1
102
RTVSPropertyOp11
 70
     1
102
RTVSPropertyOp12
 70
     1
102
RTVSPropertyOp13
 70
     1
102
RTVSPropertyOp14
 70
     1
102
RTVSPropertyOp15
 70
     1
102
RTVSPropertyOp16
 70
     1
102
RTVSPropertyOp17
 70
     1
102
RTVSPropertyOp18
 70
     1
102
RTVSPropertyOp19
 70
     1
102
RTVSPropertyOp20
 70
     1
102
RTVSPropertyOp21
 70
     1
102
RTVSPropertyOp22
 70
     1
102
RTVSPropertyOp23
 70
     1
102
RTVSPropertyOp24
 70
     1
102
RTVSPropertyOp25
 70
     1
102
RTVSPropertyOp26
 70
     1
102
RTVSPropertyOp27
 70
     1
102
RTVSPropertyOp28
 70
     1
102
RTVSPropertyOp29
 70
     1
102
RTVSPropertyOp30
 70
     1
102
RTVSPropertyOp31
 70
     1
102
RTVSPropertyOp32
 70
     1
102
RTVSPropertyOp33
 70
     1
102
RTVSPropertyOp34
 70
     1
102
RTVSPropertyOp35
 70
     1
102
RTVSPropertyOp36
 70
     1
102
RTVSPropertyOp37
 70
     1
102
RTVSPropertyOp38
 70
     1
102
RTVSPropertyOp39
 70
     1
102
RTVSPropertyOp40
 70
     1
102
RTVSPropertyOp41
 70
     1
102
RTVSPropertyOp42
 70
     1
102
RTVSPropertyOp43
 70
     1
102
RTVSPropertyOp44
 70
     1
102
RTVSPropertyOp45
 70
     1
102
RTVSPropertyOp46
 70
     1
102
RTVSPropertyOp47
 70
     1
102
RTVSPropertyOp48
 70
     1
102
RTVSPropertyOp49
 70
     1
102
RTVSPropertyOp50
 70
     1
102
RTVSPropertyOp51
 70
     0
102
RTVSPropertyOp52
 70
     0
102
RTVSPropertyOp53
 70
     1
102
RTVSPropertyOp54
 70
     1
102
RTVSPropertyOp55
 70
     1
102
RTVSPropertyOp56
 70
     1
102
RTVSPropertyOp57
 70
     1
102
RTVSPropertyOp58
 70
     1
102
RTVSPropertyOp59
 70
     1
102
RTVSPropertyOp60
 70
     1
102
RTVSPropertyOp61
 70
     1
102
RTVSPropertyOp62
 70
     1
  0
XRECORD
  5
1C69
102
{ACAD_REACTORS
330
1C68
102
}
330
1C68
100
AcDbXrecord
280
     1
102
RTVSPost2010Prop28
280
     0
102
RTVSPost2010PropOp28
 70
     1
102
RTVSPost2010Prop29
280
     1
102
RTVSPost2010PropOp29
 70
     1
102
RTVSPost2010Prop30
280
     1
102
RTVSPost2010PropOp30
 70
     1
102
RTVSPost2010Prop31
280
     0
102
RTVSPost2010PropOp31
 70
     1
102
RTVSPost2010Prop32
280
     0
102
RTVSPost2010PropOp32
 70
     1
102
RTVSPost2010Prop33
280
     0
102
RTVSPost2010PropOp33
 70
     1
102
RTVSPost2010Prop34
280
     0
102
RTVSPost2010PropOp34
 70
     1
102
RTVSPost2010Prop35
280
     0
102
RTVSPost2010PropOp35
 70
     1
102
RTVSPost2010Prop36
280
     0
102
RTVSPost2010PropOp36
 70
     1
102
RTVSPost2010Prop37
 90
       50
102
RTVSPost2010PropOp37
 70
     1
102
RTVSPost2010Prop38
140
0.0
102
RTVSPost2010PropOp38
 70
     1
102
RTVSPost2010Prop39
140
1.0
102
RTVSPost2010PropOp39
 70
     1
102
RTVSPost2010Prop40
 90
        0
102
RTVSPost2010PropOp40
 70
     1
102
RTVSPost2010Prop41ColorIndex
 90
       18
102
RTVSPost2010Prop41ColorRGB
 90
        0
102
RTVSPost2010PropOp41
 70
     1
102
RTVSPost2010Prop42
 90
       50
102
RTVSPost2010PropOp42
 70
     1
102
RTVSPost2010Prop43
 90
        3
102
RTVSPost2010PropOp43
 70
     1
102
RTVSPost2010Prop44ColorIndex
 90
        5
102
RTVSPost2010Prop44ColorRGB
 90
      255
102
RTVSPost2010PropOp44
 70
     1
102
RTVSPost2010Prop45
280
     0
102
RTVSPost2010PropOp45
 70
     1
102
RTVSPost2010Prop46
 90
       50
102
RTVSPost2010PropOp46
 70
     1
102
RTVSPost2010Prop47
 90
       50
102
RTVSPost2010PropOp47
 70
     1
102
RTVSPost2010Prop48
 90
       50
102
RTVSPost2010PropOp48
 70
     1
102
RTVSPost2010Prop49
280
     0
102
RTVSPost2010PropOp49
 70
     1
102
RTVSPost2010Prop50
 90
       50
102
RTVSPost2010PropOp50
 70
     1
102
RTVSPost2010Prop51ColorIndex
 90
      256
102
RTVSPost2010Prop51ColorRGB
 90
-16777216
102
RTVSPost2010PropOp51
 70
     0
102
RTVSPost2010Prop52
140
1.0
102
RTVSPost2010PropOp52
 70
     0
102
RTVSPost2010Prop53
 90
        2
102
RTVSPost2010PropOp53
 70
     1
102
RTVSPost2010Prop54
  1
strokes_ogs.tif
102
RTVSPost2010PropOp54
 70
     1
102
RTVSPost2010Prop55
280
     0
102
RTVSPost2010PropOp55
 70
     1
102
RTVSPost2010Prop56
140
1.0
102
RTVSPost2010PropOp56
 70
     1
102
RTVSPost2010Prop57
140
1.0
102
RTVSPost2010PropOp57
 70
     1
102
RTVSPropertyOp0
 70
     1
102
RTVSPropertyOp1
 70
     1
102
RTVSPropertyOp2
 70
     1
102
RTVSPropertyOp3
 70
     1
102
RTVSPropertyOp4
 70
     1
102
RTVSPropertyOp5
 70
     1
102
RTVSPropertyOp6
 70
     1
102
RTVSPropertyOp7
 70
     1
102
RTVSPropertyOp8
 70
     1
102
RTVSPropertyOp9
 70
     1
102
RTVSPropertyOp10
 70
     1
102
RTVSPropertyOp11
 70
     1
102
RTVSPropertyOp12
 70
     1
102
RTVSPropertyOp13
 70
     1
102
RTVSPropertyOp14
 70
     1
102
RTVSPropertyOp15
 70
     1
102
RTVSPropertyOp16
 70
     1
102
RTVSPropertyOp17
 70
     1
102
RTVSPropertyOp18
 70
     1
102
RTVSPropertyOp19
 70
     1
102
RTVSPropertyOp20
 70
     1
102
RTVSPropertyOp21
 70
     1
102
RTVSPropertyOp22
 70
     1
102
RTVSPropertyOp23
 70
     1
102
RTVSPropertyOp24
 70
     1
102
RTVSPropertyOp25
 70
     1
102
RTVSPropertyOp26
 70
     1
102
RTVSPropertyOp27
 70
     1
102
RTVSPropertyOp28
 70
     1
102
RTVSPropertyOp29
 70
     1
102
RTVSPropertyOp30
 70
     1
102
RTVSPropertyOp31
 70
     1
102
RTVSPropertyOp32
 70
     1
102
RTVSPropertyOp33
 70
     1
102
RTVSPropertyOp34
 70
     1
102
RTVSPropertyOp35
 70
     1
102
RTVSPropertyOp36
 70
     1
102
RTVSPropertyOp37
 70
     1
102
RTVSPropertyOp38
 70
     1
102
RTVSPropertyOp39
 70
     1
102
RTVSPropertyOp40
 70
     1
102
RTVSPropertyOp41
 70
     1
102
RTVSPropertyOp42
 70
     1
102
RTVSPropertyOp43
 70
     1
102
RTVSPropertyOp44
 70
     1
102
RTVSPropertyOp45
 70
     1
102
RTVSPropertyOp46
 70
     1
102
RTVSPropertyOp47
 70
     1
102
RTVSPropertyOp48
 70
     1
102
RTVSPropertyOp49
 70
     1
102
RTVSPropertyOp50
 70
     1
102
RTVSPropertyOp51
 70
     0
102
RTVSPropertyOp52
 70
     0
102
RTVSPropertyOp53
 70
     1
102
RTVSPropertyOp54
 70
     1
102
RTVSPropertyOp55
 70
     1
102
RTVSPropertyOp56
 70
     1
102
RTVSPropertyOp57
 70
     1
102
RTVSPropertyOp58
 70
     1
102
RTVSPropertyOp59
 70
     1
102
RTVSPropertyOp60
 70
     1
102
RTVSPropertyOp61
 70
     1
102
RTVSPropertyOp62
 70
     1
  0
XRECORD
  5
1C77
102
{ACAD_REACTORS
330
1C76
102
}
330
1C76
100
AcDbXrecord
280
     1
102
RTVSPost2010Prop28
280
     0
102
RTVSPost2010PropOp28
 70
     1
102
RTVSPost2010Prop29
280
     1
102
RTVSPost2010PropOp29
 70
     1
102
RTVSPost2010Prop30
280
     1
102
RTVSPost2010PropOp30
 70
     1
102
RTVSPost2010Prop31
280
     0
102
RTVSPost2010PropOp31
 70
     1
102
RTVSPost2010Prop32
280
     0
102
RTVSPost2010PropOp32
 70
     1
102
RTVSPost2010Prop33
280
     0
102
RTVSPost2010PropOp33
 70
     1
102
RTVSPost2010Prop34
280
     0
102
RTVSPost2010PropOp34
 70
     1
102
RTVSPost2010Prop35
280
     0
102
RTVSPost2010PropOp35
 70
     1
102
RTVSPost2010Prop36
280
     0
102
RTVSPost2010PropOp36
 70
     1
102
RTVSPost2010Prop37
 90
       50
102
RTVSPost2010PropOp37
 70
     1
102
RTVSPost2010Prop38
140
0.0
102
RTVSPost2010PropOp38
 70
     1
102
RTVSPost2010Prop39
140
1.0
102
RTVSPost2010PropOp39
 70
     1
102
RTVSPost2010Prop40
 90
        0
102
RTVSPost2010PropOp40
 70
     1
102
RTVSPost2010Prop41ColorIndex
 90
       18
102
RTVSPost2010Prop41ColorRGB
 90
        0
102
RTVSPost2010PropOp41
 70
     1
102
RTVSPost2010Prop42
 90
       50
102
RTVSPost2010PropOp42
 70
     1
102
RTVSPost2010Prop43
 90
        3
102
RTVSPost2010PropOp43
 70
     1
102
RTVSPost2010Prop44ColorIndex
 90
        5
102
RTVSPost2010Prop44ColorRGB
 90
      255
102
RTVSPost2010PropOp44
 70
     1
102
RTVSPost2010Prop45
280
     0
102
RTVSPost2010PropOp45
 70
     1
102
RTVSPost2010Prop46
 90
       50
102
RTVSPost2010PropOp46
 70
     1
102
RTVSPost2010Prop47
 90
       50
102
RTVSPost2010PropOp47
 70
     1
102
RTVSPost2010Prop48
 90
       50
102
RTVSPost2010PropOp48
 70
     1
102
RTVSPost2010Prop49
280
     0
102
RTVSPost2010PropOp49
 70
     1
102
RTVSPost2010Prop50
 90
       50
102
RTVSPost2010PropOp50
 70
     1
102
RTVSPost2010Prop51ColorIndex
 90
      256
102
RTVSPost2010Prop51ColorRGB
 90
-16777216
102
RTVSPost2010PropOp51
 70
     0
102
RTVSPost2010Prop52
140
1.0
102
RTVSPost2010PropOp52
 70
     0
102
RTVSPost2010Prop53
 90
        2
102
RTVSPost2010PropOp53
 70
     1
102
RTVSPost2010Prop54
  1
strokes_ogs.tif
102
RTVSPost2010PropOp54
 70
     1
102
RTVSPost2010Prop55
280
     0
102
RTVSPost2010PropOp55
 70
     1
102
RTVSPost2010Prop56
140
1.0
102
RTVSPost2010PropOp56
 70
     1
102
RTVSPost2010Prop57
140
1.0
102
RTVSPost2010PropOp57
 70
     1
102
RTVSPropertyOp0
 70
     1
102
RTVSPropertyOp1
 70
     1
102
RTVSPropertyOp2
 70
     1
102
RTVSPropertyOp3
 70
     1
102
RTVSPropertyOp4
 70
     1
102
RTVSPropertyOp5
 70
     1
102
RTVSPropertyOp6
 70
     1
102
RTVSPropertyOp7
 70
     1
102
RTVSPropertyOp8
 70
     1
102
RTVSPropertyOp9
 70
     1
102
RTVSPropertyOp10
 70
     1
102
RTVSPropertyOp11
 70
     1
102
RTVSPropertyOp12
 70
     1
102
RTVSPropertyOp13
 70
     1
102
RTVSPropertyOp14
 70
     1
102
RTVSPropertyOp15
 70
     1
102
RTVSPropertyOp16
 70
     1
102
RTVSPropertyOp17
 70
     1
102
RTVSPropertyOp18
 70
     1
102
RTVSPropertyOp19
 70
     1
102
RTVSPropertyOp20
 70
     1
102
RTVSPropertyOp21
 70
     1
102
RTVSPropertyOp22
 70
     1
102
RTVSPropertyOp23
 70
     1
102
RTVSPropertyOp24
 70
     1
102
RTVSPropertyOp25
 70
     1
102
RTVSPropertyOp26
 70
     1
102
RTVSPropertyOp27
 70
     1
102
RTVSPropertyOp28
 70
     1
102
RTVSPropertyOp29
 70
     1
102
RTVSPropertyOp30
 70
     1
102
RTVSPropertyOp31
 70
     1
102
RTVSPropertyOp32
 70
     1
102
RTVSPropertyOp33
 70
     1
102
RTVSPropertyOp34
 70
     1
102
RTVSPropertyOp35
 70
     1
102
RTVSPropertyOp36
 70
     1
102
RTVSPropertyOp37
 70
     1
102
RTVSPropertyOp38
 70
     1
102
RTVSPropertyOp39
 70
     1
102
RTVSPropertyOp40
 70
     1
102
RTVSPropertyOp41
 70
     1
102
RTVSPropertyOp42
 70
     1
102
RTVSPropertyOp43
 70
     1
102
RTVSPropertyOp44
 70
     1
102
RTVSPropertyOp45
 70
     1
102
RTVSPropertyOp46
 70
     1
102
RTVSPropertyOp47
 70
     1
102
RTVSPropertyOp48
 70
     1
102
RTVSPropertyOp49
 70
     1
102
RTVSPropertyOp50
 70
     1
102
RTVSPropertyOp51
 70
     0
102
RTVSPropertyOp52
 70
     0
102
RTVSPropertyOp53
 70
     1
102
RTVSPropertyOp54
 70
     1
102
RTVSPropertyOp55
 70
     1
102
RTVSPropertyOp56
 70
     1
102
RTVSPropertyOp57
 70
     1
102
RTVSPropertyOp58
 70
     1
102
RTVSPropertyOp59
 70
     1
102
RTVSPropertyOp60
 70
     1
102
RTVSPropertyOp61
 70
     1
102
RTVSPropertyOp62
 70
     1
  0
XRECORD
  5
1C7F
102
{ACAD_REACTORS
330
1C7E
102
}
330
1C7E
100
AcDbXrecord
280
     1
102
RTVSPost2010Prop28
280
     0
102
RTVSPost2010PropOp28
 70
     1
102
RTVSPost2010Prop29
280
     1
102
RTVSPost2010PropOp29
 70
     1
102
RTVSPost2010Prop30
280
     1
102
RTVSPost2010PropOp30
 70
     1
102
RTVSPost2010Prop31
280
     0
102
RTVSPost2010PropOp31
 70
     1
102
RTVSPost2010Prop32
280
     0
102
RTVSPost2010PropOp32
 70
     1
102
RTVSPost2010Prop33
280
     0
102
RTVSPost2010PropOp33
 70
     1
102
RTVSPost2010Prop34
280
     0
102
RTVSPost2010PropOp34
 70
     1
102
RTVSPost2010Prop35
280
     0
102
RTVSPost2010PropOp35
 70
     1
102
RTVSPost2010Prop36
280
     0
102
RTVSPost2010PropOp36
 70
     1
102
RTVSPost2010Prop37
 90
       50
102
RTVSPost2010PropOp37
 70
     1
102
RTVSPost2010Prop38
140
0.0
102
RTVSPost2010PropOp38
 70
     1
102
RTVSPost2010Prop39
140
1.0
102
RTVSPost2010PropOp39
 70
     1
102
RTVSPost2010Prop40
 90
        0
102
RTVSPost2010PropOp40
 70
     1
102
RTVSPost2010Prop41ColorIndex
 90
       18
102
RTVSPost2010Prop41ColorRGB
 90
        0
102
RTVSPost2010PropOp41
 70
     1
102
RTVSPost2010Prop42
 90
       50
102
RTVSPost2010PropOp42
 70
     1
102
RTVSPost2010Prop43
 90
        3
102
RTVSPost2010PropOp43
 70
     1
102
RTVSPost2010Prop44ColorIndex
 90
        5
102
RTVSPost2010Prop44ColorRGB
 90
      255
102
RTVSPost2010PropOp44
 70
     1
102
RTVSPost2010Prop45
280
     0
102
RTVSPost2010PropOp45
 70
     1
102
RTVSPost2010Prop46
 90
       50
102
RTVSPost2010PropOp46
 70
     1
102
RTVSPost2010Prop47
 90
       50
102
RTVSPost2010PropOp47
 70
     1
102
RTVSPost2010Prop48
 90
       50
102
RTVSPost2010PropOp48
 70
     1
102
RTVSPost2010Prop49
280
     0
102
RTVSPost2010PropOp49
 70
     1
102
RTVSPost2010Prop50
 90
       50
102
RTVSPost2010PropOp50
 70
     1
102
RTVSPost2010Prop51ColorIndex
 90
      256
102
RTVSPost2010Prop51ColorRGB
 90
-16777216
102
RTVSPost2010PropOp51
 70
     0
102
RTVSPost2010Prop52
140
1.0
102
RTVSPost2010PropOp52
 70
     0
102
RTVSPost2010Prop53
 90
        2
102
RTVSPost2010PropOp53
 70
     1
102
RTVSPost2010Prop54
  1
strokes_ogs.tif
102
RTVSPost2010PropOp54
 70
     1
102
RTVSPost2010Prop55
280
     0
102
RTVSPost2010PropOp55
 70
     1
102
RTVSPost2010Prop56
140
1.0
102
RTVSPost2010PropOp56
 70
     1
102
RTVSPost2010Prop57
140
1.0
102
RTVSPost2010PropOp57
 70
     1
102
RTVSPropertyOp0
 70
     1
102
RTVSPropertyOp1
 70
     1
102
RTVSPropertyOp2
 70
     1
102
RTVSPropertyOp3
 70
     1
102
RTVSPropertyOp4
 70
     1
102
RTVSPropertyOp5
 70
     1
102
RTVSPropertyOp6
 70
     1
102
RTVSPropertyOp7
 70
     1
102
RTVSPropertyOp8
 70
     1
102
RTVSPropertyOp9
 70
     1
102
RTVSPropertyOp10
 70
     1
102
RTVSPropertyOp11
 70
     1
102
RTVSPropertyOp12
 70
     1
102
RTVSPropertyOp13
 70
     1
102
RTVSPropertyOp14
 70
     1
102
RTVSPropertyOp15
 70
     1
102
RTVSPropertyOp16
 70
     1
102
RTVSPropertyOp17
 70
     1
102
RTVSPropertyOp18
 70
     1
102
RTVSPropertyOp19
 70
     1
102
RTVSPropertyOp20
 70
     1
102
RTVSPropertyOp21
 70
     1
102
RTVSPropertyOp22
 70
     1
102
RTVSPropertyOp23
 70
     1
102
RTVSPropertyOp24
 70
     1
102
RTVSPropertyOp25
 70
     1
102
RTVSPropertyOp26
 70
     1
102
RTVSPropertyOp27
 70
     1
102
RTVSPropertyOp28
 70
     1
102
RTVSPropertyOp29
 70
     1
102
RTVSPropertyOp30
 70
     1
102
RTVSPropertyOp31
 70
     1
102
RTVSPropertyOp32
 70
     1
102
RTVSPropertyOp33
 70
     1
102
RTVSPropertyOp34
 70
     1
102
RTVSPropertyOp35
 70
     1
102
RTVSPropertyOp36
 70
     1
102
RTVSPropertyOp37
 70
     1
102
RTVSPropertyOp38
 70
     1
102
RTVSPropertyOp39
 70
     1
102
RTVSPropertyOp40
 70
     1
102
RTVSPropertyOp41
 70
     1
102
RTVSPropertyOp42
 70
     1
102
RTVSPropertyOp43
 70
     1
102
RTVSPropertyOp44
 70
     1
102
RTVSPropertyOp45
 70
     1
102
RTVSPropertyOp46
 70
     1
102
RTVSPropertyOp47
 70
     1
102
RTVSPropertyOp48
 70
     1
102
RTVSPropertyOp49
 70
     1
102
RTVSPropertyOp50
 70
     1
102
RTVSPropertyOp51
 70
     0
102
RTVSPropertyOp52
 70
     0
102
RTVSPropertyOp53
 70
     1
102
RTVSPropertyOp54
 70
     1
102
RTVSPropertyOp55
 70
     1
102
RTVSPropertyOp56
 70
     1
102
RTVSPropertyOp57
 70
     1
102
RTVSPropertyOp58
 70
     1
102
RTVSPropertyOp59
 70
     1
102
RTVSPropertyOp60
 70
     1
102
RTVSPropertyOp61
 70
     1
102
RTVSPropertyOp62
 70
     1
  0
XRECORD
  5
1C71
102
{ACAD_REACTORS
330
1C70
102
}
330
1C70
100
AcDbXrecord
280
     1
102
RTVSPost2010Prop28
280
     0
102
RTVSPost2010PropOp28
 70
     1
102
RTVSPost2010Prop29
280
     1
102
RTVSPost2010PropOp29
 70
     1
102
RTVSPost2010Prop30
280
     1
102
RTVSPost2010PropOp30
 70
     1
102
RTVSPost2010Prop31
280
     0
102
RTVSPost2010PropOp31
 70
     1
102
RTVSPost2010Prop32
280
     0
102
RTVSPost2010PropOp32
 70
     1
102
RTVSPost2010Prop33
280
     0
102
RTVSPost2010PropOp33
 70
     1
102
RTVSPost2010Prop34
280
     0
102
RTVSPost2010PropOp34
 70
     1
102
RTVSPost2010Prop35
280
     0
102
RTVSPost2010PropOp35
 70
     1
102
RTVSPost2010Prop36
280
     0
102
RTVSPost2010PropOp36
 70
     1
102
RTVSPost2010Prop37
 90
       50
102
RTVSPost2010PropOp37
 70
     1
102
RTVSPost2010Prop38
140
0.0
102
RTVSPost2010PropOp38
 70
     1
102
RTVSPost2010Prop39
140
1.0
102
RTVSPost2010PropOp39
 70
     1
102
RTVSPost2010Prop40
 90
        0
102
RTVSPost2010PropOp40
 70
     1
102
RTVSPost2010Prop41ColorIndex
 90
       18
102
RTVSPost2010Prop41ColorRGB
 90
        0
102
RTVSPost2010PropOp41
 70
     1
102
RTVSPost2010Prop42
 90
       50
102
RTVSPost2010PropOp42
 70
     1
102
RTVSPost2010Prop43
 90
        3
102
RTVSPost2010PropOp43
 70
     1
102
RTVSPost2010Prop44ColorIndex
 90
        5
102
RTVSPost2010Prop44ColorRGB
 90
      255
102
RTVSPost2010PropOp44
 70
     1
102
RTVSPost2010Prop45
280
     0
102
RTVSPost2010PropOp45
 70
     1
102
RTVSPost2010Prop46
 90
       50
102
RTVSPost2010PropOp46
 70
     1
102
RTVSPost2010Prop47
 90
       50
102
RTVSPost2010PropOp47
 70
     1
102
RTVSPost2010Prop48
 90
       50
102
RTVSPost2010PropOp48
 70
     1
102
RTVSPost2010Prop49
280
     0
102
RTVSPost2010PropOp49
 70
     1
102
RTVSPost2010Prop50
 90
       50
102
RTVSPost2010PropOp50
 70
     1
102
RTVSPost2010Prop51ColorIndex
 90
      256
102
RTVSPost2010Prop51ColorRGB
 90
-16777216
102
RTVSPost2010PropOp51
 70
     0
102
RTVSPost2010Prop52
140
1.0
102
RTVSPost2010PropOp52
 70
     0
102
RTVSPost2010Prop53
 90
        2
102
RTVSPost2010PropOp53
 70
     1
102
RTVSPost2010Prop54
  1
strokes_ogs.tif
102
RTVSPost2010PropOp54
 70
     1
102
RTVSPost2010Prop55
280
     0
102
RTVSPost2010PropOp55
 70
     1
102
RTVSPost2010Prop56
140
1.0
102
RTVSPost2010PropOp56
 70
     1
102
RTVSPost2010Prop57
140
1.0
102
RTVSPost2010PropOp57
 70
     1
102
RTVSPropertyOp0
 70
     1
102
RTVSPropertyOp1
 70
     1
102
RTVSPropertyOp2
 70
     1
102
RTVSPropertyOp3
 70
     1
102
RTVSPropertyOp4
 70
     1
102
RTVSPropertyOp5
 70
     1
102
RTVSPropertyOp6
 70
     1
102
RTVSPropertyOp7
 70
     1
102
RTVSPropertyOp8
 70
     1
102
RTVSPropertyOp9
 70
     1
102
RTVSPropertyOp10
 70
     1
102
RTVSPropertyOp11
 70
     1
102
RTVSPropertyOp12
 70
     1
102
RTVSPropertyOp13
 70
     1
102
RTVSPropertyOp14
 70
     1
102
RTVSPropertyOp15
 70
     1
102
RTVSPropertyOp16
 70
     1
102
RTVSPropertyOp17
 70
     1
102
RTVSPropertyOp18
 70
     1
102
RTVSPropertyOp19
 70
     1
102
RTVSPropertyOp20
 70
     1
102
RTVSPropertyOp21
 70
     1
102
RTVSPropertyOp22
 70
     1
102
RTVSPropertyOp23
 70
     1
102
RTVSPropertyOp24
 70
     1
102
RTVSPropertyOp25
 70
     1
102
RTVSPropertyOp26
 70
     1
102
RTVSPropertyOp27
 70
     1
102
RTVSPropertyOp28
 70
     1
102
RTVSPropertyOp29
 70
     1
102
RTVSPropertyOp30
 70
     1
102
RTVSPropertyOp31
 70
     1
102
RTVSPropertyOp32
 70
     1
102
RTVSPropertyOp33
 70
     1
102
RTVSPropertyOp34
 70
     1
102
RTVSPropertyOp35
 70
     1
102
RTVSPropertyOp36
 70
     1
102
RTVSPropertyOp37
 70
     1
102
RTVSPropertyOp38
 70
     1
102
RTVSPropertyOp39
 70
     1
102
RTVSPropertyOp40
 70
     1
102
RTVSPropertyOp41
 70
     1
102
RTVSPropertyOp42
 70
     1
102
RTVSPropertyOp43
 70
     1
102
RTVSPropertyOp44
 70
     1
102
RTVSPropertyOp45
 70
     1
102
RTVSPropertyOp46
 70
     1
102
RTVSPropertyOp47
 70
     1
102
RTVSPropertyOp48
 70
     1
102
RTVSPropertyOp49
 70
     1
102
RTVSPropertyOp50
 70
     1
102
RTVSPropertyOp51
 70
     0
102
RTVSPropertyOp52
 70
     0
102
RTVSPropertyOp53
 70
     1
102
RTVSPropertyOp54
 70
     1
102
RTVSPropertyOp55
 70
     1
102
RTVSPropertyOp56
 70
     1
102
RTVSPropertyOp57
 70
     1
102
RTVSPropertyOp58
 70
     1
102
RTVSPropertyOp59
 70
     1
102
RTVSPropertyOp60
 70
     1
102
RTVSPropertyOp61
 70
     1
102
RTVSPropertyOp62
 70
     1
  0
XRECORD
  5
1C75
102
{ACAD_REACTORS
330
1C74
102
}
330
1C74
100
AcDbXrecord
280
     1
102
RTVSPost2010Prop28
280
     0
102
RTVSPost2010PropOp28
 70
     1
102
RTVSPost2010Prop29
280
     1
102
RTVSPost2010PropOp29
 70
     1
102
RTVSPost2010Prop30
280
     1
102
RTVSPost2010PropOp30
 70
     1
102
RTVSPost2010Prop31
280
     0
102
RTVSPost2010PropOp31
 70
     1
102
RTVSPost2010Prop32
280
     0
102
RTVSPost2010PropOp32
 70
     1
102
RTVSPost2010Prop33
280
     0
102
RTVSPost2010PropOp33
 70
     1
102
RTVSPost2010Prop34
280
     0
102
RTVSPost2010PropOp34
 70
     1
102
RTVSPost2010Prop35
280
     0
102
RTVSPost2010PropOp35
 70
     1
102
RTVSPost2010Prop36
280
     0
102
RTVSPost2010PropOp36
 70
     1
102
RTVSPost2010Prop37
 90
       50
102
RTVSPost2010PropOp37
 70
     1
102
RTVSPost2010Prop38
140
0.0
102
RTVSPost2010PropOp38
 70
     1
102
RTVSPost2010Prop39
140
1.0
102
RTVSPost2010PropOp39
 70
     1
102
RTVSPost2010Prop40
 90
        0
102
RTVSPost2010PropOp40
 70
     1
102
RTVSPost2010Prop41ColorIndex
 90
       18
102
RTVSPost2010Prop41ColorRGB
 90
        0
102
RTVSPost2010PropOp41
 70
     1
102
RTVSPost2010Prop42
 90
       50
102
RTVSPost2010PropOp42
 70
     1
102
RTVSPost2010Prop43
 90
        3
102
RTVSPost2010PropOp43
 70
     1
102
RTVSPost2010Prop44ColorIndex
 90
        5
102
RTVSPost2010Prop44ColorRGB
 90
      255
102
RTVSPost2010PropOp44
 70
     1
102
RTVSPost2010Prop45
280
     0
102
RTVSPost2010PropOp45
 70
     1
102
RTVSPost2010Prop46
 90
       50
102
RTVSPost2010PropOp46
 70
     1
102
RTVSPost2010Prop47
 90
       50
102
RTVSPost2010PropOp47
 70
     1
102
RTVSPost2010Prop48
 90
       50
102
RTVSPost2010PropOp48
 70
     1
102
RTVSPost2010Prop49
280
     0
102
RTVSPost2010PropOp49
 70
     1
102
RTVSPost2010Prop50
 90
       50
102
RTVSPost2010PropOp50
 70
     1
102
RTVSPost2010Prop51ColorIndex
 90
      256
102
RTVSPost2010Prop51ColorRGB
 90
-16777216
102
RTVSPost2010PropOp51
 70
     0
102
RTVSPost2010Prop52
140
1.0
102
RTVSPost2010PropOp52
 70
     0
102
RTVSPost2010Prop53
 90
        2
102
RTVSPost2010PropOp53
 70
     1
102
RTVSPost2010Prop54
  1
strokes_ogs.tif
102
RTVSPost2010PropOp54
 70
     1
102
RTVSPost2010Prop55
280
     0
102
RTVSPost2010PropOp55
 70
     1
102
RTVSPost2010Prop56
140
1.0
102
RTVSPost2010PropOp56
 70
     1
102
RTVSPost2010Prop57
140
1.0
102
RTVSPost2010PropOp57
 70
     1
102
RTVSPropertyOp0
 70
     1
102
RTVSPropertyOp1
 70
     1
102
RTVSPropertyOp2
 70
     1
102
RTVSPropertyOp3
 70
     1
102
RTVSPropertyOp4
 70
     1
102
RTVSPropertyOp5
 70
     1
102
RTVSPropertyOp6
 70
     1
102
RTVSPropertyOp7
 70
     1
102
RTVSPropertyOp8
 70
     1
102
RTVSPropertyOp9
 70
     1
102
RTVSPropertyOp10
 70
     1
102
RTVSPropertyOp11
 70
     1
102
RTVSPropertyOp12
 70
     1
102
RTVSPropertyOp13
 70
     1
102
RTVSPropertyOp14
 70
     1
102
RTVSPropertyOp15
 70
     1
102
RTVSPropertyOp16
 70
     1
102
RTVSPropertyOp17
 70
     1
102
RTVSPropertyOp18
 70
     1
102
RTVSPropertyOp19
 70
     1
102
RTVSPropertyOp20
 70
     1
102
RTVSPropertyOp21
 70
     1
102
RTVSPropertyOp22
 70
     1
102
RTVSPropertyOp23
 70
     1
102
RTVSPropertyOp24
 70
     1
102
RTVSPropertyOp25
 70
     1
102
RTVSPropertyOp26
 70
     1
102
RTVSPropertyOp27
 70
     1
102
RTVSPropertyOp28
 70
     1
102
RTVSPropertyOp29
 70
     1
102
RTVSPropertyOp30
 70
     1
102
RTVSPropertyOp31
 70
     1
102
RTVSPropertyOp32
 70
     1
102
RTVSPropertyOp33
 70
     1
102
RTVSPropertyOp34
 70
     1
102
RTVSPropertyOp35
 70
     1
102
RTVSPropertyOp36
 70
     1
102
RTVSPropertyOp37
 70
     1
102
RTVSPropertyOp38
 70
     1
102
RTVSPropertyOp39
 70
     1
102
RTVSPropertyOp40
 70
     1
102
RTVSPropertyOp41
 70
     1
102
RTVSPropertyOp42
 70
     1
102
RTVSPropertyOp43
 70
     1
102
RTVSPropertyOp44
 70
     1
102
RTVSPropertyOp45
 70
     1
102
RTVSPropertyOp46
 70
     1
102
RTVSPropertyOp47
 70
     1
102
RTVSPropertyOp48
 70
     1
102
RTVSPropertyOp49
 70
     1
102
RTVSPropertyOp50
 70
     1
102
RTVSPropertyOp51
 70
     0
102
RTVSPropertyOp52
 70
     0
102
RTVSPropertyOp53
 70
     1
102
RTVSPropertyOp54
 70
     1
102
RTVSPropertyOp55
 70
     1
102
RTVSPropertyOp56
 70
     1
102
RTVSPropertyOp57
 70
     1
102
RTVSPropertyOp58
 70
     1
102
RTVSPropertyOp59
 70
     1
102
RTVSPropertyOp60
 70
     1
102
RTVSPropertyOp61
 70
     1
102
RTVSPropertyOp62
 70
     1
  0
XRECORD
  5
1C8F
102
{ACAD_REACTORS
330
1C8E
102
}
330
1C8E
100
AcDbXrecord
280
     1
102
RTVSPost2010Prop28
280
     0
102
RTVSPost2010PropOp28
 70
     1
102
RTVSPost2010Prop29
280
     1
102
RTVSPost2010PropOp29
 70
     1
102
RTVSPost2010Prop30
280
     1
102
RTVSPost2010PropOp30
 70
     1
102
RTVSPost2010Prop31
280
     0
102
RTVSPost2010PropOp31
 70
     1
102
RTVSPost2010Prop32
280
     0
102
RTVSPost2010PropOp32
 70
     1
102
RTVSPost2010Prop33
280
     0
102
RTVSPost2010PropOp33
 70
     1
102
RTVSPost2010Prop34
280
     0
102
RTVSPost2010PropOp34
 70
     1
102
RTVSPost2010Prop35
280
     0
102
RTVSPost2010PropOp35
 70
     1
102
RTVSPost2010Prop36
280
     0
102
RTVSPost2010PropOp36
 70
     1
102
RTVSPost2010Prop37
 90
       50
102
RTVSPost2010PropOp37
 70
     1
102
RTVSPost2010Prop38
140
0.0
102
RTVSPost2010PropOp38
 70
     1
102
RTVSPost2010Prop39
140
1.0
102
RTVSPost2010PropOp39
 70
     1
102
RTVSPost2010Prop40
 90
        0
102
RTVSPost2010PropOp40
 70
     1
102
RTVSPost2010Prop41ColorIndex
 90
       18
102
RTVSPost2010Prop41ColorRGB
 90
        0
102
RTVSPost2010PropOp41
 70
     1
102
RTVSPost2010Prop42
 90
       50
102
RTVSPost2010PropOp42
 70
     1
102
RTVSPost2010Prop43
 90
        3
102
RTVSPost2010PropOp43
 70
     1
102
RTVSPost2010Prop44ColorIndex
 90
        5
102
RTVSPost2010Prop44ColorRGB
 90
      255
102
RTVSPost2010PropOp44
 70
     1
102
RTVSPost2010Prop45
280
     0
102
RTVSPost2010PropOp45
 70
     1
102
RTVSPost2010Prop46
 90
       50
102
RTVSPost2010PropOp46
 70
     1
102
RTVSPost2010Prop47
 90
       50
102
RTVSPost2010PropOp47
 70
     1
102
RTVSPost2010Prop48
 90
       50
102
RTVSPost2010PropOp48
 70
     1
102
RTVSPost2010Prop49
280
     0
102
RTVSPost2010PropOp49
 70
     1
102
RTVSPost2010Prop50
 90
       50
102
RTVSPost2010PropOp50
 70
     1
102
RTVSPost2010Prop51ColorIndex
 90
      256
102
RTVSPost2010Prop51ColorRGB
 90
-16777216
102
RTVSPost2010PropOp51
 70
     0
102
RTVSPost2010Prop52
140
1.0
102
RTVSPost2010PropOp52
 70
     0
102
RTVSPost2010Prop53
 90
        2
102
RTVSPost2010PropOp53
 70
     1
102
RTVSPost2010Prop54
  1
strokes_ogs.tif
102
RTVSPost2010PropOp54
 70
     1
102
RTVSPost2010Prop55
280
     0
102
RTVSPost2010PropOp55
 70
     1
102
RTVSPost2010Prop56
140
1.0
102
RTVSPost2010PropOp56
 70
     1
102
RTVSPost2010Prop57
140
1.0
102
RTVSPost2010PropOp57
 70
     1
102
RTVSPropertyOp0
 70
     0
102
RTVSPropertyOp1
 70
     0
102
RTVSPropertyOp2
 70
     0
102
RTVSPropertyOp3
 70
     0
102
RTVSPropertyOp4
 70
     0
102
RTVSPropertyOp5
 70
     0
102
RTVSPropertyOp6
 70
     0
102
RTVSPropertyOp7
 70
     0
102
RTVSPropertyOp8
 70
     0
102
RTVSPropertyOp9
 70
     0
102
RTVSPropertyOp10
 70
     0
102
RTVSPropertyOp11
 70
     0
102
RTVSPropertyOp12
 70
     0
102
RTVSPropertyOp13
 70
     0
102
RTVSPropertyOp14
 70
     2
102
RTVSPropertyOp15
 70
     0
102
RTVSPropertyOp16
 70
     0
102
RTVSPropertyOp17
 70
     0
102
RTVSPropertyOp18
 70
     0
102
RTVSPropertyOp19
 70
     0
102
RTVSPropertyOp20
 70
     0
102
RTVSPropertyOp21
 70
     0
102
RTVSPropertyOp22
 70
     0
102
RTVSPropertyOp23
 70
     0
102
RTVSPropertyOp24
 70
     0
102
RTVSPropertyOp25
 70
     0
102
RTVSPropertyOp26
 70
     0
102
RTVSPropertyOp27
 70
     0
102
RTVSPropertyOp28
 70
     1
102
RTVSPropertyOp29
 70
     1
102
RTVSPropertyOp30
 70
     1
102
RTVSPropertyOp31
 70
     1
102
RTVSPropertyOp32
 70
     1
102
RTVSPropertyOp33
 70
     1
102
RTVSPropertyOp34
 70
     1
102
RTVSPropertyOp35
 70
     1
102
RTVSPropertyOp36
 70
     1
102
RTVSPropertyOp37
 70
     1
102
RTVSPropertyOp38
 70
     1
102
RTVSPropertyOp39
 70
     1
102
RTVSPropertyOp40
 70
     1
102
RTVSPropertyOp41
 70
     1
102
RTVSPropertyOp42
 70
     1
102
RTVSPropertyOp43
 70
     1
102
RTVSPropertyOp44
 70
     1
102
RTVSPropertyOp45
 70
     1
102
RTVSPropertyOp46
 70
     1
102
RTVSPropertyOp47
 70
     1
102
RTVSPropertyOp48
 70
     1
102
RTVSPropertyOp49
 70
     1
102
RTVSPropertyOp50
 70
     1
102
RTVSPropertyOp51
 70
     0
102
RTVSPropertyOp52
 70
     0
102
RTVSPropertyOp53
 70
     1
102
RTVSPropertyOp54
 70
     1
102
RTVSPropertyOp55
 70
     1
102
RTVSPropertyOp56
 70
     1
102
RTVSPropertyOp57
 70
     1
102
RTVSPropertyOp58
 70
     1
102
RTVSPropertyOp59
 70
     1
102
RTVSPropertyOp60
 70
     1
102
RTVSPropertyOp61
 70
     1
102
RTVSPropertyOp62
 70
     1
  0
XRECORD
  5
1C7D
102
{ACAD_REACTORS
330
1C7C
102
}
330
1C7C
100
AcDbXrecord
280
     1
102
RTVSPost2010Prop28
280
     0
102
RTVSPost2010PropOp28
 70
     1
102
RTVSPost2010Prop29
280
     1
102
RTVSPost2010PropOp29
 70
     1
102
RTVSPost2010Prop30
280
     1
102
RTVSPost2010PropOp30
 70
     1
102
RTVSPost2010Prop31
280
     0
102
RTVSPost2010PropOp31
 70
     1
102
RTVSPost2010Prop32
280
     0
102
RTVSPost2010PropOp32
 70
     1
102
RTVSPost2010Prop33
280
     0
102
RTVSPost2010PropOp33
 70
     1
102
RTVSPost2010Prop34
280
     0
102
RTVSPost2010PropOp34
 70
     1
102
RTVSPost2010Prop35
280
     0
102
RTVSPost2010PropOp35
 70
     1
102
RTVSPost2010Prop36
280
     0
102
RTVSPost2010PropOp36
 70
     1
102
RTVSPost2010Prop37
 90
       50
102
RTVSPost2010PropOp37
 70
     1
102
RTVSPost2010Prop38
140
0.0
102
RTVSPost2010PropOp38
 70
     1
102
RTVSPost2010Prop39
140
1.0
102
RTVSPost2010PropOp39
 70
     1
102
RTVSPost2010Prop40
 90
        0
102
RTVSPost2010PropOp40
 70
     1
102
RTVSPost2010Prop41ColorIndex
 90
       18
102
RTVSPost2010Prop41ColorRGB
 90
        0
102
RTVSPost2010PropOp41
 70
     1
102
RTVSPost2010Prop42
 90
       50
102
RTVSPost2010PropOp42
 70
     1
102
RTVSPost2010Prop43
 90
        3
102
RTVSPost2010PropOp43
 70
     1
102
RTVSPost2010Prop44ColorIndex
 90
        5
102
RTVSPost2010Prop44ColorRGB
 90
      255
102
RTVSPost2010PropOp44
 70
     1
102
RTVSPost2010Prop45
280
     0
102
RTVSPost2010PropOp45
 70
     1
102
RTVSPost2010Prop46
 90
       50
102
RTVSPost2010PropOp46
 70
     1
102
RTVSPost2010Prop47
 90
       50
102
RTVSPost2010PropOp47
 70
     1
102
RTVSPost2010Prop48
 90
       50
102
RTVSPost2010PropOp48
 70
     1
102
RTVSPost2010Prop49
280
     0
102
RTVSPost2010PropOp49
 70
     1
102
RTVSPost2010Prop50
 90
       50
102
RTVSPost2010PropOp50
 70
     1
102
RTVSPost2010Prop51ColorIndex
 90
      256
102
RTVSPost2010Prop51ColorRGB
 90
-16777216
102
RTVSPost2010PropOp51
 70
     0
102
RTVSPost2010Prop52
140
1.0
102
RTVSPost2010PropOp52
 70
     0
102
RTVSPost2010Prop53
 90
        2
102
RTVSPost2010PropOp53
 70
     1
102
RTVSPost2010Prop54
  1
strokes_ogs.tif
102
RTVSPost2010PropOp54
 70
     1
102
RTVSPost2010Prop55
280
     0
102
RTVSPost2010PropOp55
 70
     1
102
RTVSPost2010Prop56
140
1.0
102
RTVSPost2010PropOp56
 70
     1
102
RTVSPost2010Prop57
140
1.0
102
RTVSPost2010PropOp57
 70
     1
102
RTVSPropertyOp0
 70
     1
102
RTVSPropertyOp1
 70
     1
102
RTVSPropertyOp2
 70
     1
102
RTVSPropertyOp3
 70
     1
102
RTVSPropertyOp4
 70
     1
102
RTVSPropertyOp5
 70
     1
102
RTVSPropertyOp6
 70
     1
102
RTVSPropertyOp7
 70
     1
102
RTVSPropertyOp8
 70
     1
102
RTVSPropertyOp9
 70
     1
102
RTVSPropertyOp10
 70
     1
102
RTVSPropertyOp11
 70
     1
102
RTVSPropertyOp12
 70
     1
102
RTVSPropertyOp13
 70
     1
102
RTVSPropertyOp14
 70
     1
102
RTVSPropertyOp15
 70
     1
102
RTVSPropertyOp16
 70
     1
102
RTVSPropertyOp17
 70
     1
102
RTVSPropertyOp18
 70
     1
102
RTVSPropertyOp19
 70
     1
102
RTVSPropertyOp20
 70
     1
102
RTVSPropertyOp21
 70
     1
102
RTVSPropertyOp22
 70
     1
102
RTVSPropertyOp23
 70
     1
102
RTVSPropertyOp24
 70
     1
102
RTVSPropertyOp25
 70
     1
102
RTVSPropertyOp26
 70
     1
102
RTVSPropertyOp27
 70
     1
102
RTVSPropertyOp28
 70
     1
102
RTVSPropertyOp29
 70
     1
102
RTVSPropertyOp30
 70
     1
102
RTVSPropertyOp31
 70
     1
102
RTVSPropertyOp32
 70
     1
102
RTVSPropertyOp33
 70
     1
102
RTVSPropertyOp34
 70
     1
102
RTVSPropertyOp35
 70
     1
102
RTVSPropertyOp36
 70
     1
102
RTVSPropertyOp37
 70
     1
102
RTVSPropertyOp38
 70
     1
102
RTVSPropertyOp39
 70
     1
102
RTVSPropertyOp40
 70
     1
102
RTVSPropertyOp41
 70
     1
102
RTVSPropertyOp42
 70
     1
102
RTVSPropertyOp43
 70
     1
102
RTVSPropertyOp44
 70
     1
102
RTVSPropertyOp45
 70
     1
102
RTVSPropertyOp46
 70
     1
102
RTVSPropertyOp47
 70
     1
102
RTVSPropertyOp48
 70
     1
102
RTVSPropertyOp49
 70
     1
102
RTVSPropertyOp50
 70
     1
102
RTVSPropertyOp51
 70
     0
102
RTVSPropertyOp52
 70
     0
102
RTVSPropertyOp53
 70
     1
102
RTVSPropertyOp54
 70
     1
102
RTVSPropertyOp55
 70
     1
102
RTVSPropertyOp56
 70
     1
102
RTVSPropertyOp57
 70
     1
102
RTVSPropertyOp58
 70
     1
102
RTVSPropertyOp59
 70
     1
102
RTVSPropertyOp60
 70
     1
102
RTVSPropertyOp61
 70
     1
102
RTVSPropertyOp62
 70
     1
  0
XRECORD
  5
1C61
102
{ACAD_REACTORS
330
1C60
102
}
330
1C60
100
AcDbXrecord
280
     1
102
RTVSPost2010Prop28
280
     0
102
RTVSPost2010PropOp28
 70
     1
102
RTVSPost2010Prop29
280
     1
102
RTVSPost2010PropOp29
 70
     1
102
RTVSPost2010Prop30
280
     1
102
RTVSPost2010PropOp30
 70
     1
102
RTVSPost2010Prop31
280
     0
102
RTVSPost2010PropOp31
 70
     1
102
RTVSPost2010Prop32
280
     0
102
RTVSPost2010PropOp32
 70
     1
102
RTVSPost2010Prop33
280
     0
102
RTVSPost2010PropOp33
 70
     1
102
RTVSPost2010Prop34
280
     0
102
RTVSPost2010PropOp34
 70
     1
102
RTVSPost2010Prop35
280
     0
102
RTVSPost2010PropOp35
 70
     1
102
RTVSPost2010Prop36
280
     0
102
RTVSPost2010PropOp36
 70
     1
102
RTVSPost2010Prop37
 90
       50
102
RTVSPost2010PropOp37
 70
     1
102
RTVSPost2010Prop38
140
0.0
102
RTVSPost2010PropOp38
 70
     1
102
RTVSPost2010Prop39
140
1.0
102
RTVSPost2010PropOp39
 70
     1
102
RTVSPost2010Prop40
 90
        0
102
RTVSPost2010PropOp40
 70
     1
102
RTVSPost2010Prop41ColorIndex
 90
       18
102
RTVSPost2010Prop41ColorRGB
 90
        0
102
RTVSPost2010PropOp41
 70
     1
102
RTVSPost2010Prop42
 90
       50
102
RTVSPost2010PropOp42
 70
     1
102
RTVSPost2010Prop43
 90
        3
102
RTVSPost2010PropOp43
 70
     1
102
RTVSPost2010Prop44ColorIndex
 90
        5
102
RTVSPost2010Prop44ColorRGB
 90
      255
102
RTVSPost2010PropOp44
 70
     1
102
RTVSPost2010Prop45
280
     0
102
RTVSPost2010PropOp45
 70
     1
102
RTVSPost2010Prop46
 90
       50
102
RTVSPost2010PropOp46
 70
     1
102
RTVSPost2010Prop47
 90
       50
102
RTVSPost2010PropOp47
 70
     1
102
RTVSPost2010Prop48
 90
       50
102
RTVSPost2010PropOp48
 70
     1
102
RTVSPost2010Prop49
280
     0
102
RTVSPost2010PropOp49
 70
     1
102
RTVSPost2010Prop50
 90
       50
102
RTVSPost2010PropOp50
 70
     1
102
RTVSPost2010Prop51ColorIndex
 90
      256
102
RTVSPost2010Prop51ColorRGB
 90
-16777216
102
RTVSPost2010PropOp51
 70
     0
102
RTVSPost2010Prop52
140
1.0
102
RTVSPost2010PropOp52
 70
     0
102
RTVSPost2010Prop53
 90
        2
102
RTVSPost2010PropOp53
 70
     1
102
RTVSPost2010Prop54
  1
strokes_ogs.tif
102
RTVSPost2010PropOp54
 70
     1
102
RTVSPost2010Prop55
280
     0
102
RTVSPost2010PropOp55
 70
     1
102
RTVSPost2010Prop56
140
1.0
102
RTVSPost2010PropOp56
 70
     1
102
RTVSPost2010Prop57
140
1.0
102
RTVSPost2010PropOp57
 70
     1
102
RTVSPropertyOp0
 70
     1
102
RTVSPropertyOp1
 70
     1
102
RTVSPropertyOp2
 70
     1
102
RTVSPropertyOp3
 70
     1
102
RTVSPropertyOp4
 70
     1
102
RTVSPropertyOp5
 70
     1
102
RTVSPropertyOp6
 70
     1
102
RTVSPropertyOp7
 70
     1
102
RTVSPropertyOp8
 70
     1
102
RTVSPropertyOp9
 70
     1
102
RTVSPropertyOp10
 70
     1
102
RTVSPropertyOp11
 70
     1
102
RTVSPropertyOp12
 70
     1
102
RTVSPropertyOp13
 70
     1
102
RTVSPropertyOp14
 70
     1
102
RTVSPropertyOp15
 70
     1
102
RTVSPropertyOp16
 70
     1
102
RTVSPropertyOp17
 70
     1
102
RTVSPropertyOp18
 70
     1
102
RTVSPropertyOp19
 70
     1
102
RTVSPropertyOp20
 70
     1
102
RTVSPropertyOp21
 70
     1
102
RTVSPropertyOp22
 70
     1
102
RTVSPropertyOp23
 70
     1
102
RTVSPropertyOp24
 70
     1
102
RTVSPropertyOp25
 70
     1
102
RTVSPropertyOp26
 70
     1
102
RTVSPropertyOp27
 70
     1
102
RTVSPropertyOp28
 70
     1
102
RTVSPropertyOp29
 70
     1
102
RTVSPropertyOp30
 70
     1
102
RTVSPropertyOp31
 70
     1
102
RTVSPropertyOp32
 70
     1
102
RTVSPropertyOp33
 70
     1
102
RTVSPropertyOp34
 70
     1
102
RTVSPropertyOp35
 70
     1
102
RTVSPropertyOp36
 70
     1
102
RTVSPropertyOp37
 70
     1
102
RTVSPropertyOp38
 70
     1
102
RTVSPropertyOp39
 70
     1
102
RTVSPropertyOp40
 70
     1
102
RTVSPropertyOp41
 70
     1
102
RTVSPropertyOp42
 70
     1
102
RTVSPropertyOp43
 70
     1
102
RTVSPropertyOp44
 70
     1
102
RTVSPropertyOp45
 70
     1
102
RTVSPropertyOp46
 70
     1
102
RTVSPropertyOp47
 70
     1
102
RTVSPropertyOp48
 70
     1
102
RTVSPropertyOp49
 70
     1
102
RTVSPropertyOp50
 70
     1
102
RTVSPropertyOp51
 70
     0
102
RTVSPropertyOp52
 70
     0
102
RTVSPropertyOp53
 70
     1
102
RTVSPropertyOp54
 70
     1
102
RTVSPropertyOp55
 70
     1
102
RTVSPropertyOp56
 70
     1
102
RTVSPropertyOp57
 70
     1
102
RTVSPropertyOp58
 70
     1
102
RTVSPropertyOp59
 70
     1
102
RTVSPropertyOp60
 70
     1
102
RTVSPropertyOp61
 70
     1
102
RTVSPropertyOp62
 70
     1
  0
XRECORD
  5
1C63
102
{ACAD_REACTORS
330
1C62
102
}
330
1C62
100
AcDbXrecord
280
     1
102
RTVSPost2010Prop28
280
     0
102
RTVSPost2010PropOp28
 70
     1
102
RTVSPost2010Prop29
280
     1
102
RTVSPost2010PropOp29
 70
     1
102
RTVSPost2010Prop30
280
     1
102
RTVSPost2010PropOp30
 70
     1
102
RTVSPost2010Prop31
280
     0
102
RTVSPost2010PropOp31
 70
     1
102
RTVSPost2010Prop32
280
     0
102
RTVSPost2010PropOp32
 70
     1
102
RTVSPost2010Prop33
280
     0
102
RTVSPost2010PropOp33
 70
     1
102
RTVSPost2010Prop34
280
     0
102
RTVSPost2010PropOp34
 70
     1
102
RTVSPost2010Prop35
280
     0
102
RTVSPost2010PropOp35
 70
     1
102
RTVSPost2010Prop36
280
     0
102
RTVSPost2010PropOp36
 70
     1
102
RTVSPost2010Prop37
 90
       50
102
RTVSPost2010PropOp37
 70
     1
102
RTVSPost2010Prop38
140
0.0
102
RTVSPost2010PropOp38
 70
     1
102
RTVSPost2010Prop39
140
1.0
102
RTVSPost2010PropOp39
 70
     1
102
RTVSPost2010Prop40
 90
        0
102
RTVSPost2010PropOp40
 70
     1
102
RTVSPost2010Prop41ColorIndex
 90
       18
102
RTVSPost2010Prop41ColorRGB
 90
        0
102
RTVSPost2010PropOp41
 70
     1
102
RTVSPost2010Prop42
 90
       50
102
RTVSPost2010PropOp42
 70
     1
102
RTVSPost2010Prop43
 90
        3
102
RTVSPost2010PropOp43
 70
     1
102
RTVSPost2010Prop44ColorIndex
 90
        5
102
RTVSPost2010Prop44ColorRGB
 90
      255
102
RTVSPost2010PropOp44
 70
     1
102
RTVSPost2010Prop45
280
     0
102
RTVSPost2010PropOp45
 70
     1
102
RTVSPost2010Prop46
 90
       50
102
RTVSPost2010PropOp46
 70
     1
102
RTVSPost2010Prop47
 90
       50
102
RTVSPost2010PropOp47
 70
     1
102
RTVSPost2010Prop48
 90
       50
102
RTVSPost2010PropOp48
 70
     1
102
RTVSPost2010Prop49
280
     0
102
RTVSPost2010PropOp49
 70
     1
102
RTVSPost2010Prop50
 90
       50
102
RTVSPost2010PropOp50
 70
     1
102
RTVSPost2010Prop51ColorIndex
 90
      256
102
RTVSPost2010Prop51ColorRGB
 90
-16777216
102
RTVSPost2010PropOp51
 70
     0
102
RTVSPost2010Prop52
140
1.0
102
RTVSPost2010PropOp52
 70
     0
102
RTVSPost2010Prop53
 90
        2
102
RTVSPost2010PropOp53
 70
     1
102
RTVSPost2010Prop54
  1
strokes_ogs.tif
102
RTVSPost2010PropOp54
 70
     1
102
RTVSPost2010Prop55
280
     0
102
RTVSPost2010PropOp55
 70
     1
102
RTVSPost2010Prop56
140
1.0
102
RTVSPost2010PropOp56
 70
     1
102
RTVSPost2010Prop57
140
1.0
102
RTVSPost2010PropOp57
 70
     1
102
RTVSPropertyOp0
 70
     1
102
RTVSPropertyOp1
 70
     1
102
RTVSPropertyOp2
 70
     1
102
RTVSPropertyOp3
 70
     1
102
RTVSPropertyOp4
 70
     1
102
RTVSPropertyOp5
 70
     1
102
RTVSPropertyOp6
 70
     1
102
RTVSPropertyOp7
 70
     1
102
RTVSPropertyOp8
 70
     1
102
RTVSPropertyOp9
 70
     1
102
RTVSPropertyOp10
 70
     1
102
RTVSPropertyOp11
 70
     1
102
RTVSPropertyOp12
 70
     1
102
RTVSPropertyOp13
 70
     1
102
RTVSPropertyOp14
 70
     1
102
RTVSPropertyOp15
 70
     1
102
RTVSPropertyOp16
 70
     1
102
RTVSPropertyOp17
 70
     1
102
RTVSPropertyOp18
 70
     1
102
RTVSPropertyOp19
 70
     1
102
RTVSPropertyOp20
 70
     1
102
RTVSPropertyOp21
 70
     1
102
RTVSPropertyOp22
 70
     1
102
RTVSPropertyOp23
 70
     1
102
RTVSPropertyOp24
 70
     1
102
RTVSPropertyOp25
 70
     1
102
RTVSPropertyOp26
 70
     1
102
RTVSPropertyOp27
 70
     1
102
RTVSPropertyOp28
 70
     1
102
RTVSPropertyOp29
 70
     1
102
RTVSPropertyOp30
 70
     1
102
RTVSPropertyOp31
 70
     1
102
RTVSPropertyOp32
 70
     1
102
RTVSPropertyOp33
 70
     1
102
RTVSPropertyOp34
 70
     1
102
RTVSPropertyOp35
 70
     1
102
RTVSPropertyOp36
 70
     1
102
RTVSPropertyOp37
 70
     1
102
RTVSPropertyOp38
 70
     1
102
RTVSPropertyOp39
 70
     1
102
RTVSPropertyOp40
 70
     1
102
RTVSPropertyOp41
 70
     1
102
RTVSPropertyOp42
 70
     1
102
RTVSPropertyOp43
 70
     1
102
RTVSPropertyOp44
 70
     1
102
RTVSPropertyOp45
 70
     1
102
RTVSPropertyOp46
 70
     1
102
RTVSPropertyOp47
 70
     1
102
RTVSPropertyOp48
 70
     1
102
RTVSPropertyOp49
 70
     1
102
RTVSPropertyOp50
 70
     1
102
RTVSPropertyOp51
 70
     0
102
RTVSPropertyOp52
 70
     0
102
RTVSPropertyOp53
 70
     1
102
RTVSPropertyOp54
 70
     1
102
RTVSPropertyOp55
 70
     1
102
RTVSPropertyOp56
 70
     1
102
RTVSPropertyOp57
 70
     1
102
RTVSPropertyOp58
 70
     1
102
RTVSPropertyOp59
 70
     1
102
RTVSPropertyOp60
 70
     1
102
RTVSPropertyOp61
 70
     1
102
RTVSPropertyOp62
 70
     1
  0
XRECORD
  5
1C65
102
{ACAD_REACTORS
330
1C64
102
}
330
1C64
100
AcDbXrecord
280
     1
102
RTVSPost2010Prop28
280
     0
102
RTVSPost2010PropOp28
 70
     1
102
RTVSPost2010Prop29
280
     1
102
RTVSPost2010PropOp29
 70
     1
102
RTVSPost2010Prop30
280
     1
102
RTVSPost2010PropOp30
 70
     1
102
RTVSPost2010Prop31
280
     0
102
RTVSPost2010PropOp31
 70
     1
102
RTVSPost2010Prop32
280
     0
102
RTVSPost2010PropOp32
 70
     1
102
RTVSPost2010Prop33
280
     0
102
RTVSPost2010PropOp33
 70
     1
102
RTVSPost2010Prop34
280
     0
102
RTVSPost2010PropOp34
 70
     1
102
RTVSPost2010Prop35
280
     0
102
RTVSPost2010PropOp35
 70
     1
102
RTVSPost2010Prop36
280
     0
102
RTVSPost2010PropOp36
 70
     1
102
RTVSPost2010Prop37
 90
       50
102
RTVSPost2010PropOp37
 70
     1
102
RTVSPost2010Prop38
140
0.0
102
RTVSPost2010PropOp38
 70
     1
102
RTVSPost2010Prop39
140
1.0
102
RTVSPost2010PropOp39
 70
     1
102
RTVSPost2010Prop40
 90
        0
102
RTVSPost2010PropOp40
 70
     1
102
RTVSPost2010Prop41ColorIndex
 90
       18
102
RTVSPost2010Prop41ColorRGB
 90
        0
102
RTVSPost2010PropOp41
 70
     1
102
RTVSPost2010Prop42
 90
       50
102
RTVSPost2010PropOp42
 70
     1
102
RTVSPost2010Prop43
 90
        3
102
RTVSPost2010PropOp43
 70
     1
102
RTVSPost2010Prop44ColorIndex
 90
        5
102
RTVSPost2010Prop44ColorRGB
 90
      255
102
RTVSPost2010PropOp44
 70
     1
102
RTVSPost2010Prop45
280
     0
102
RTVSPost2010PropOp45
 70
     1
102
RTVSPost2010Prop46
 90
       50
102
RTVSPost2010PropOp46
 70
     1
102
RTVSPost2010Prop47
 90
       50
102
RTVSPost2010PropOp47
 70
     1
102
RTVSPost2010Prop48
 90
       50
102
RTVSPost2010PropOp48
 70
     1
102
RTVSPost2010Prop49
280
     0
102
RTVSPost2010PropOp49
 70
     1
102
RTVSPost2010Prop50
 90
       50
102
RTVSPost2010PropOp50
 70
     1
102
RTVSPost2010Prop51ColorIndex
 90
      256
102
RTVSPost2010Prop51ColorRGB
 90
-16777216
102
RTVSPost2010PropOp51
 70
     0
102
RTVSPost2010Prop52
140
1.0
102
RTVSPost2010PropOp52
 70
     0
102
RTVSPost2010Prop53
 90
        2
102
RTVSPost2010PropOp53
 70
     1
102
RTVSPost2010Prop54
  1
strokes_ogs.tif
102
RTVSPost2010PropOp54
 70
     1
102
RTVSPost2010Prop55
280
     0
102
RTVSPost2010PropOp55
 70
     1
102
RTVSPost2010Prop56
140
1.0
102
RTVSPost2010PropOp56
 70
     1
102
RTVSPost2010Prop57
140
1.0
102
RTVSPost2010PropOp57
 70
     1
102
RTVSPropertyOp0
 70
     1
102
RTVSPropertyOp1
 70
     1
102
RTVSPropertyOp2
 70
     1
102
RTVSPropertyOp3
 70
     1
102
RTVSPropertyOp4
 70
     1
102
RTVSPropertyOp5
 70
     1
102
RTVSPropertyOp6
 70
     1
102
RTVSPropertyOp7
 70
     1
102
RTVSPropertyOp8
 70
     1
102
RTVSPropertyOp9
 70
     1
102
RTVSPropertyOp10
 70
     1
102
RTVSPropertyOp11
 70
     1
102
RTVSPropertyOp12
 70
     1
102
RTVSPropertyOp13
 70
     1
102
RTVSPropertyOp14
 70
     1
102
RTVSPropertyOp15
 70
     1
102
RTVSPropertyOp16
 70
     1
102
RTVSPropertyOp17
 70
     1
102
RTVSPropertyOp18
 70
     1
102
RTVSPropertyOp19
 70
     1
102
RTVSPropertyOp20
 70
     1
102
RTVSPropertyOp21
 70
     1
102
RTVSPropertyOp22
 70
     1
102
RTVSPropertyOp23
 70
     1
102
RTVSPropertyOp24
 70
     1
102
RTVSPropertyOp25
 70
     1
102
RTVSPropertyOp26
 70
     1
102
RTVSPropertyOp27
 70
     1
102
RTVSPropertyOp28
 70
     1
102
RTVSPropertyOp29
 70
     1
102
RTVSPropertyOp30
 70
     1
102
RTVSPropertyOp31
 70
     1
102
RTVSPropertyOp32
 70
     1
102
RTVSPropertyOp33
 70
     1
102
RTVSPropertyOp34
 70
     1
102
RTVSPropertyOp35
 70
     1
102
RTVSPropertyOp36
 70
     1
102
RTVSPropertyOp37
 70
     1
102
RTVSPropertyOp38
 70
     1
102
RTVSPropertyOp39
 70
     1
102
RTVSPropertyOp40
 70
     1
102
RTVSPropertyOp41
 70
     1
102
RTVSPropertyOp42
 70
     1
102
RTVSPropertyOp43
 70
     1
102
RTVSPropertyOp44
 70
     1
102
RTVSPropertyOp45
 70
     1
102
RTVSPropertyOp46
 70
     1
102
RTVSPropertyOp47
 70
     1
102
RTVSPropertyOp48
 70
     1
102
RTVSPropertyOp49
 70
     1
102
RTVSPropertyOp50
 70
     1
102
RTVSPropertyOp51
 70
     0
102
RTVSPropertyOp52
 70
     0
102
RTVSPropertyOp53
 70
     1
102
RTVSPropertyOp54
 70
     1
102
RTVSPropertyOp55
 70
     1
102
RTVSPropertyOp56
 70
     1
102
RTVSPropertyOp57
 70
     1
102
RTVSPropertyOp58
 70
     1
102
RTVSPropertyOp59
 70
     1
102
RTVSPropertyOp60
 70
     1
102
RTVSPropertyOp61
 70
     1
102
RTVSPropertyOp62
 70
     1
  0
XRECORD
  5
1C67
102
{ACAD_REACTORS
330
1C66
102
}
330
1C66
100
AcDbXrecord
280
     1
102
RTVSPost2010Prop28
280
     0
102
RTVSPost2010PropOp28
 70
     1
102
RTVSPost2010Prop29
280
     1
102
RTVSPost2010PropOp29
 70
     1
102
RTVSPost2010Prop30
280
     1
102
RTVSPost2010PropOp30
 70
     1
102
RTVSPost2010Prop31
280
     0
102
RTVSPost2010PropOp31
 70
     1
102
RTVSPost2010Prop32
280
     0
102
RTVSPost2010PropOp32
 70
     1
102
RTVSPost2010Prop33
280
     0
102
RTVSPost2010PropOp33
 70
     1
102
RTVSPost2010Prop34
280
     0
102
RTVSPost2010PropOp34
 70
     1
102
RTVSPost2010Prop35
280
     0
102
RTVSPost2010PropOp35
 70
     1
102
RTVSPost2010Prop36
280
     0
102
RTVSPost2010PropOp36
 70
     1
102
RTVSPost2010Prop37
 90
       50
102
RTVSPost2010PropOp37
 70
     1
102
RTVSPost2010Prop38
140
0.0
102
RTVSPost2010PropOp38
 70
     1
102
RTVSPost2010Prop39
140
1.0
102
RTVSPost2010PropOp39
 70
     1
102
RTVSPost2010Prop40
 90
        0
102
RTVSPost2010PropOp40
 70
     1
102
RTVSPost2010Prop41ColorIndex
 90
       18
102
RTVSPost2010Prop41ColorRGB
 90
        0
102
RTVSPost2010PropOp41
 70
     1
102
RTVSPost2010Prop42
 90
       50
102
RTVSPost2010PropOp42
 70
     1
102
RTVSPost2010Prop43
 90
        3
102
RTVSPost2010PropOp43
 70
     1
102
RTVSPost2010Prop44ColorIndex
 90
        5
102
RTVSPost2010Prop44ColorRGB
 90
      255
102
RTVSPost2010PropOp44
 70
     1
102
RTVSPost2010Prop45
280
     0
102
RTVSPost2010PropOp45
 70
     1
102
RTVSPost2010Prop46
 90
       50
102
RTVSPost2010PropOp46
 70
     1
102
RTVSPost2010Prop47
 90
       50
102
RTVSPost2010PropOp47
 70
     1
102
RTVSPost2010Prop48
 90
       50
102
RTVSPost2010PropOp48
 70
     1
102
RTVSPost2010Prop49
280
     0
102
RTVSPost2010PropOp49
 70
     1
102
RTVSPost2010Prop50
 90
       50
102
RTVSPost2010PropOp50
 70
     1
102
RTVSPost2010Prop51ColorIndex
 90
      256
102
RTVSPost2010Prop51ColorRGB
 90
-16777216
102
RTVSPost2010PropOp51
 70
     0
102
RTVSPost2010Prop52
140
1.0
102
RTVSPost2010PropOp52
 70
     0
102
RTVSPost2010Prop53
 90
        2
102
RTVSPost2010PropOp53
 70
     1
102
RTVSPost2010Prop54
  1
strokes_ogs.tif
102
RTVSPost2010PropOp54
 70
     1
102
RTVSPost2010Prop55
280
     0
102
RTVSPost2010PropOp55
 70
     1
102
RTVSPost2010Prop56
140
1.0
102
RTVSPost2010PropOp56
 70
     1
102
RTVSPost2010Prop57
140
1.0
102
RTVSPost2010PropOp57
 70
     1
102
RTVSPropertyOp0
 70
     1
102
RTVSPropertyOp1
 70
     1
102
RTVSPropertyOp2
 70
     1
102
RTVSPropertyOp3
 70
     1
102
RTVSPropertyOp4
 70
     1
102
RTVSPropertyOp5
 70
     1
102
RTVSPropertyOp6
 70
     1
102
RTVSPropertyOp7
 70
     1
102
RTVSPropertyOp8
 70
     1
102
RTVSPropertyOp9
 70
     1
102
RTVSPropertyOp10
 70
     1
102
RTVSPropertyOp11
 70
     1
102
RTVSPropertyOp12
 70
     1
102
RTVSPropertyOp13
 70
     1
102
RTVSPropertyOp14
 70
     1
102
RTVSPropertyOp15
 70
     1
102
RTVSPropertyOp16
 70
     1
102
RTVSPropertyOp17
 70
     1
102
RTVSPropertyOp18
 70
     1
102
RTVSPropertyOp19
 70
     1
102
RTVSPropertyOp20
 70
     1
102
RTVSPropertyOp21
 70
     1
102
RTVSPropertyOp22
 70
     1
102
RTVSPropertyOp23
 70
     1
102
RTVSPropertyOp24
 70
     1
102
RTVSPropertyOp25
 70
     1
102
RTVSPropertyOp26
 70
     1
102
RTVSPropertyOp27
 70
     1
102
RTVSPropertyOp28
 70
     1
102
RTVSPropertyOp29
 70
     1
102
RTVSPropertyOp30
 70
     1
102
RTVSPropertyOp31
 70
     1
102
RTVSPropertyOp32
 70
     1
102
RTVSPropertyOp33
 70
     1
102
RTVSPropertyOp34
 70
     1
102
RTVSPropertyOp35
 70
     1
102
RTVSPropertyOp36
 70
     1
102
RTVSPropertyOp37
 70
     1
102
RTVSPropertyOp38
 70
     1
102
RTVSPropertyOp39
 70
     1
102
RTVSPropertyOp40
 70
     1
102
RTVSPropertyOp41
 70
     1
102
RTVSPropertyOp42
 70
     1
102
RTVSPropertyOp43
 70
     1
102
RTVSPropertyOp44
 70
     1
102
RTVSPropertyOp45
 70
     1
102
RTVSPropertyOp46
 70
     1
102
RTVSPropertyOp47
 70
     1
102
RTVSPropertyOp48
 70
     1
102
RTVSPropertyOp49
 70
     1
102
RTVSPropertyOp50
 70
     1
102
RTVSPropertyOp51
 70
     0
102
RTVSPropertyOp52
 70
     0
102
RTVSPropertyOp53
 70
     1
102
RTVSPropertyOp54
 70
     1
102
RTVSPropertyOp55
 70
     1
102
RTVSPropertyOp56
 70
     1
102
RTVSPropertyOp57
 70
     1
102
RTVSPropertyOp58
 70
     1
102
RTVSPropertyOp59
 70
     1
102
RTVSPropertyOp60
 70
     1
102
RTVSPropertyOp61
 70
     1
102
RTVSPropertyOp62
 70
     1
  0
XRECORD
  5
1C93
102
{ACAD_REACTORS
330
1C92
102
}
330
1C92
100
AcDbXrecord
280
     1
102
RTVSPost2010Prop28
280
     0
102
RTVSPost2010PropOp28
 70
     1
102
RTVSPost2010Prop29
280
     1
102
RTVSPost2010PropOp29
 70
     1
102
RTVSPost2010Prop30
280
     1
102
RTVSPost2010PropOp30
 70
     1
102
RTVSPost2010Prop31
280
     0
102
RTVSPost2010PropOp31
 70
     1
102
RTVSPost2010Prop32
280
     0
102
RTVSPost2010PropOp32
 70
     1
102
RTVSPost2010Prop33
280
     0
102
RTVSPost2010PropOp33
 70
     1
102
RTVSPost2010Prop34
280
     0
102
RTVSPost2010PropOp34
 70
     1
102
RTVSPost2010Prop35
280
     0
102
RTVSPost2010PropOp35
 70
     1
102
RTVSPost2010Prop36
280
     0
102
RTVSPost2010PropOp36
 70
     1
102
RTVSPost2010Prop37
 90
       50
102
RTVSPost2010PropOp37
 70
     1
102
RTVSPost2010Prop38
140
0.0
102
RTVSPost2010PropOp38
 70
     1
102
RTVSPost2010Prop39
140
1.0
102
RTVSPost2010PropOp39
 70
     1
102
RTVSPost2010Prop40
 90
        0
102
RTVSPost2010PropOp40
 70
     1
102
RTVSPost2010Prop41ColorIndex
 90
       18
102
RTVSPost2010Prop41ColorRGB
 90
        0
102
RTVSPost2010PropOp41
 70
     1
102
RTVSPost2010Prop42
 90
       50
102
RTVSPost2010PropOp42
 70
     1
102
RTVSPost2010Prop43
 90
        3
102
RTVSPost2010PropOp43
 70
     1
102
RTVSPost2010Prop44ColorIndex
 90
        5
102
RTVSPost2010Prop44ColorRGB
 90
      255
102
RTVSPost2010PropOp44
 70
     1
102
RTVSPost2010Prop45
280
     0
102
RTVSPost2010PropOp45
 70
     1
102
RTVSPost2010Prop46
 90
       50
102
RTVSPost2010PropOp46
 70
     1
102
RTVSPost2010Prop47
 90
       50
102
RTVSPost2010PropOp47
 70
     1
102
RTVSPost2010Prop48
 90
       50
102
RTVSPost2010PropOp48
 70
     1
102
RTVSPost2010Prop49
280
     0
102
RTVSPost2010PropOp49
 70
     1
102
RTVSPost2010Prop50
 90
       50
102
RTVSPost2010PropOp50
 70
     1
102
RTVSPost2010Prop51ColorIndex
 90
      256
102
RTVSPost2010Prop51ColorRGB
 90
-16777216
102
RTVSPost2010PropOp51
 70
     0
102
RTVSPost2010Prop52
140
1.0
102
RTVSPost2010PropOp52
 70
     0
102
RTVSPost2010Prop53
 90
        2
102
RTVSPost2010PropOp53
 70
     1
102
RTVSPost2010Prop54
  1
strokes_ogs.tif
102
RTVSPost2010PropOp54
 70
     1
102
RTVSPost2010Prop55
280
     0
102
RTVSPost2010PropOp55
 70
     1
102
RTVSPost2010Prop56
140
1.0
102
RTVSPost2010PropOp56
 70
     1
102
RTVSPost2010Prop57
140
1.0
102
RTVSPost2010PropOp57
 70
     1
102
RTVSPropertyOp0
 70
     1
102
RTVSPropertyOp1
 70
     1
102
RTVSPropertyOp2
 70
     1
102
RTVSPropertyOp3
 70
     1
102
RTVSPropertyOp4
 70
     1
102
RTVSPropertyOp5
 70
     1
102
RTVSPropertyOp6
 70
     1
102
RTVSPropertyOp7
 70
     1
102
RTVSPropertyOp8
 70
     1
102
RTVSPropertyOp9
 70
     1
102
RTVSPropertyOp10
 70
     1
102
RTVSPropertyOp11
 70
     1
102
RTVSPropertyOp12
 70
     1
102
RTVSPropertyOp13
 70
     1
102
RTVSPropertyOp14
 70
     1
102
RTVSPropertyOp15
 70
     1
102
RTVSPropertyOp16
 70
     1
102
RTVSPropertyOp17
 70
     1
102
RTVSPropertyOp18
 70
     1
102
RTVSPropertyOp19
 70
     1
102
RTVSPropertyOp20
 70
     1
102
RTVSPropertyOp21
 70
     1
102
RTVSPropertyOp22
 70
     1
102
RTVSPropertyOp23
 70
     1
102
RTVSPropertyOp24
 70
     1
102
RTVSPropertyOp25
 70
     1
102
RTVSPropertyOp26
 70
     1
102
RTVSPropertyOp27
 70
     1
102
RTVSPropertyOp28
 70
     1
102
RTVSPropertyOp29
 70
     1
102
RTVSPropertyOp30
 70
     1
102
RTVSPropertyOp31
 70
     1
102
RTVSPropertyOp32
 70
     1
102
RTVSPropertyOp33
 70
     1
102
RTVSPropertyOp34
 70
     1
102
RTVSPropertyOp35
 70
     1
102
RTVSPropertyOp36
 70
     1
102
RTVSPropertyOp37
 70
     1
102
RTVSPropertyOp38
 70
     1
102
RTVSPropertyOp39
 70
     1
102
RTVSPropertyOp40
 70
     1
102
RTVSPropertyOp41
 70
     1
102
RTVSPropertyOp42
 70
     1
102
RTVSPropertyOp43
 70
     1
102
RTVSPropertyOp44
 70
     1
102
RTVSPropertyOp45
 70
     1
102
RTVSPropertyOp46
 70
     1
102
RTVSPropertyOp47
 70
     1
102
RTVSPropertyOp48
 70
     1
102
RTVSPropertyOp49
 70
     1
102
RTVSPropertyOp50
 70
     1
102
RTVSPropertyOp51
 70
     0
102
RTVSPropertyOp52
 70
     0
102
RTVSPropertyOp53
 70
     1
102
RTVSPropertyOp54
 70
     1
102
RTVSPropertyOp55
 70
     1
102
RTVSPropertyOp56
 70
     1
102
RTVSPropertyOp57
 70
     1
102
RTVSPropertyOp58
 70
     1
102
RTVSPropertyOp59
 70
     1
102
RTVSPropertyOp60
 70
     1
102
RTVSPropertyOp61
 70
     1
102
RTVSPropertyOp62
 70
     1
  0
XRECORD
  5
1C8B
102
{ACAD_REACTORS
330
1C8A
102
}
330
1C8A
100
AcDbXrecord
280
     1
102
RTVSPost2010Prop28
280
     0
102
RTVSPost2010PropOp28
 70
     1
102
RTVSPost2010Prop29
280
     1
102
RTVSPost2010PropOp29
 70
     1
102
RTVSPost2010Prop30
280
     1
102
RTVSPost2010PropOp30
 70
     1
102
RTVSPost2010Prop31
280
     0
102
RTVSPost2010PropOp31
 70
     1
102
RTVSPost2010Prop32
280
     0
102
RTVSPost2010PropOp32
 70
     1
102
RTVSPost2010Prop33
280
     0
102
RTVSPost2010PropOp33
 70
     1
102
RTVSPost2010Prop34
280
     0
102
RTVSPost2010PropOp34
 70
     1
102
RTVSPost2010Prop35
280
     0
102
RTVSPost2010PropOp35
 70
     1
102
RTVSPost2010Prop36
280
     0
102
RTVSPost2010PropOp36
 70
     1
102
RTVSPost2010Prop37
 90
       50
102
RTVSPost2010PropOp37
 70
     1
102
RTVSPost2010Prop38
140
0.0
102
RTVSPost2010PropOp38
 70
     1
102
RTVSPost2010Prop39
140
1.0
102
RTVSPost2010PropOp39
 70
     1
102
RTVSPost2010Prop40
 90
        0
102
RTVSPost2010PropOp40
 70
     1
102
RTVSPost2010Prop41ColorIndex
 90
       18
102
RTVSPost2010Prop41ColorRGB
 90
        0
102
RTVSPost2010PropOp41
 70
     1
102
RTVSPost2010Prop42
 90
       50
102
RTVSPost2010PropOp42
 70
     1
102
RTVSPost2010Prop43
 90
        3
102
RTVSPost2010PropOp43
 70
     1
102
RTVSPost2010Prop44ColorIndex
 90
        5
102
RTVSPost2010Prop44ColorRGB
 90
      255
102
RTVSPost2010PropOp44
 70
     1
102
RTVSPost2010Prop45
280
     0
102
RTVSPost2010PropOp45
 70
     1
102
RTVSPost2010Prop46
 90
       50
102
RTVSPost2010PropOp46
 70
     1
102
RTVSPost2010Prop47
 90
       50
102
RTVSPost2010PropOp47
 70
     1
102
RTVSPost2010Prop48
 90
       50
102
RTVSPost2010PropOp48
 70
     1
102
RTVSPost2010Prop49
280
     0
102
RTVSPost2010PropOp49
 70
     1
102
RTVSPost2010Prop50
 90
       50
102
RTVSPost2010PropOp50
 70
     1
102
RTVSPost2010Prop51ColorIndex
 90
      256
102
RTVSPost2010Prop51ColorRGB
 90
-16777216
102
RTVSPost2010PropOp51
 70
     0
102
RTVSPost2010Prop52
140
1.0
102
RTVSPost2010PropOp52
 70
     0
102
RTVSPost2010Prop53
 90
        2
102
RTVSPost2010PropOp53
 70
     1
102
RTVSPost2010Prop54
  1
strokes_ogs.tif
102
RTVSPost2010PropOp54
 70
     1
102
RTVSPost2010Prop55
280
     0
102
RTVSPost2010PropOp55
 70
     1
102
RTVSPost2010Prop56
140
1.0
102
RTVSPost2010PropOp56
 70
     1
102
RTVSPost2010Prop57
140
1.0
102
RTVSPost2010PropOp57
 70
     1
102
RTVSPropertyOp0
 70
     0
102
RTVSPropertyOp1
 70
     0
102
RTVSPropertyOp2
 70
     0
102
RTVSPropertyOp3
 70
     0
102
RTVSPropertyOp4
 70
     0
102
RTVSPropertyOp5
 70
     0
102
RTVSPropertyOp6
 70
     0
102
RTVSPropertyOp7
 70
     0
102
RTVSPropertyOp8
 70
     0
102
RTVSPropertyOp9
 70
     0
102
RTVSPropertyOp10
 70
     0
102
RTVSPropertyOp11
 70
     0
102
RTVSPropertyOp12
 70
     0
102
RTVSPropertyOp13
 70
     0
102
RTVSPropertyOp14
 70
     2
102
RTVSPropertyOp15
 70
     0
102
RTVSPropertyOp16
 70
     0
102
RTVSPropertyOp17
 70
     0
102
RTVSPropertyOp18
 70
     0
102
RTVSPropertyOp19
 70
     0
102
RTVSPropertyOp20
 70
     0
102
RTVSPropertyOp21
 70
     0
102
RTVSPropertyOp22
 70
     0
102
RTVSPropertyOp23
 70
     0
102
RTVSPropertyOp24
 70
     0
102
RTVSPropertyOp25
 70
     0
102
RTVSPropertyOp26
 70
     0
102
RTVSPropertyOp27
 70
     0
102
RTVSPropertyOp28
 70
     1
102
RTVSPropertyOp29
 70
     1
102
RTVSPropertyOp30
 70
     1
102
RTVSPropertyOp31
 70
     1
102
RTVSPropertyOp32
 70
     1
102
RTVSPropertyOp33
 70
     1
102
RTVSPropertyOp34
 70
     1
102
RTVSPropertyOp35
 70
     1
102
RTVSPropertyOp36
 70
     1
102
RTVSPropertyOp37
 70
     1
102
RTVSPropertyOp38
 70
     1
102
RTVSPropertyOp39
 70
     1
102
RTVSPropertyOp40
 70
     1
102
RTVSPropertyOp41
 70
     1
102
RTVSPropertyOp42
 70
     1
102
RTVSPropertyOp43
 70
     1
102
RTVSPropertyOp44
 70
     1
102
RTVSPropertyOp45
 70
     1
102
RTVSPropertyOp46
 70
     1
102
RTVSPropertyOp47
 70
     1
102
RTVSPropertyOp48
 70
     1
102
RTVSPropertyOp49
 70
     1
102
RTVSPropertyOp50
 70
     1
102
RTVSPropertyOp51
 70
     0
102
RTVSPropertyOp52
 70
     0
102
RTVSPropertyOp53
 70
     1
102
RTVSPropertyOp54
 70
     1
102
RTVSPropertyOp55
 70
     1
102
RTVSPropertyOp56
 70
     1
102
RTVSPropertyOp57
 70
     1
102
RTVSPropertyOp58
 70
     1
102
RTVSPropertyOp59
 70
     1
102
RTVSPropertyOp60
 70
     1
102
RTVSPropertyOp61
 70
     1
102
RTVSPropertyOp62
 70
     1
  0
XRECORD
  5
1C7B
102
{ACAD_REACTORS
330
1C7A
102
}
330
1C7A
100
AcDbXrecord
280
     1
102
RTVSPost2010Prop28
280
     0
102
RTVSPost2010PropOp28
 70
     1
102
RTVSPost2010Prop29
280
     1
102
RTVSPost2010PropOp29
 70
     1
102
RTVSPost2010Prop30
280
     1
102
RTVSPost2010PropOp30
 70
     1
102
RTVSPost2010Prop31
280
     0
102
RTVSPost2010PropOp31
 70
     1
102
RTVSPost2010Prop32
280
     0
102
RTVSPost2010PropOp32
 70
     1
102
RTVSPost2010Prop33
280
     0
102
RTVSPost2010PropOp33
 70
     1
102
RTVSPost2010Prop34
280
     0
102
RTVSPost2010PropOp34
 70
     1
102
RTVSPost2010Prop35
280
     0
102
RTVSPost2010PropOp35
 70
     1
102
RTVSPost2010Prop36
280
     0
102
RTVSPost2010PropOp36
 70
     1
102
RTVSPost2010Prop37
 90
       50
102
RTVSPost2010PropOp37
 70
     1
102
RTVSPost2010Prop38
140
0.0
102
RTVSPost2010PropOp38
 70
     1
102
RTVSPost2010Prop39
140
1.0
102
RTVSPost2010PropOp39
 70
     1
102
RTVSPost2010Prop40
 90
        0
102
RTVSPost2010PropOp40
 70
     1
102
RTVSPost2010Prop41ColorIndex
 90
       18
102
RTVSPost2010Prop41ColorRGB
 90
        0
102
RTVSPost2010PropOp41
 70
     1
102
RTVSPost2010Prop42
 90
       50
102
RTVSPost2010PropOp42
 70
     1
102
RTVSPost2010Prop43
 90
        3
102
RTVSPost2010PropOp43
 70
     1
102
RTVSPost2010Prop44ColorIndex
 90
        5
102
RTVSPost2010Prop44ColorRGB
 90
      255
102
RTVSPost2010PropOp44
 70
     1
102
RTVSPost2010Prop45
280
     0
102
RTVSPost2010PropOp45
 70
     1
102
RTVSPost2010Prop46
 90
       50
102
RTVSPost2010PropOp46
 70
     1
102
RTVSPost2010Prop47
 90
       50
102
RTVSPost2010PropOp47
 70
     1
102
RTVSPost2010Prop48
 90
       50
102
RTVSPost2010PropOp48
 70
     1
102
RTVSPost2010Prop49
280
     0
102
RTVSPost2010PropOp49
 70
     1
102
RTVSPost2010Prop50
 90
       50
102
RTVSPost2010PropOp50
 70
     1
102
RTVSPost2010Prop51ColorIndex
 90
      256
102
RTVSPost2010Prop51ColorRGB
 90
-16777216
102
RTVSPost2010PropOp51
 70
     0
102
RTVSPost2010Prop52
140
1.0
102
RTVSPost2010PropOp52
 70
     0
102
RTVSPost2010Prop53
 90
        2
102
RTVSPost2010PropOp53
 70
     1
102
RTVSPost2010Prop54
  1
strokes_ogs.tif
102
RTVSPost2010PropOp54
 70
     1
102
RTVSPost2010Prop55
280
     0
102
RTVSPost2010PropOp55
 70
     1
102
RTVSPost2010Prop56
140
1.0
102
RTVSPost2010PropOp56
 70
     1
102
RTVSPost2010Prop57
140
1.0
102
RTVSPost2010PropOp57
 70
     1
102
RTVSPropertyOp0
 70
     1
102
RTVSPropertyOp1
 70
     1
102
RTVSPropertyOp2
 70
     1
102
RTVSPropertyOp3
 70
     1
102
RTVSPropertyOp4
 70
     1
102
RTVSPropertyOp5
 70
     1
102
RTVSPropertyOp6
 70
     1
102
RTVSPropertyOp7
 70
     1
102
RTVSPropertyOp8
 70
     1
102
RTVSPropertyOp9
 70
     1
102
RTVSPropertyOp10
 70
     1
102
RTVSPropertyOp11
 70
     1
102
RTVSPropertyOp12
 70
     1
102
RTVSPropertyOp13
 70
     1
102
RTVSPropertyOp14
 70
     1
102
RTVSPropertyOp15
 70
     1
102
RTVSPropertyOp16
 70
     1
102
RTVSPropertyOp17
 70
     1
102
RTVSPropertyOp18
 70
     1
102
RTVSPropertyOp19
 70
     1
102
RTVSPropertyOp20
 70
     1
102
RTVSPropertyOp21
 70
     1
102
RTVSPropertyOp22
 70
     1
102
RTVSPropertyOp23
 70
     1
102
RTVSPropertyOp24
 70
     1
102
RTVSPropertyOp25
 70
     1
102
RTVSPropertyOp26
 70
     1
102
RTVSPropertyOp27
 70
     1
102
RTVSPropertyOp28
 70
     1
102
RTVSPropertyOp29
 70
     1
102
RTVSPropertyOp30
 70
     1
102
RTVSPropertyOp31
 70
     1
102
RTVSPropertyOp32
 70
     1
102
RTVSPropertyOp33
 70
     1
102
RTVSPropertyOp34
 70
     1
102
RTVSPropertyOp35
 70
     1
102
RTVSPropertyOp36
 70
     1
102
RTVSPropertyOp37
 70
     1
102
RTVSPropertyOp38
 70
     1
102
RTVSPropertyOp39
 70
     1
102
RTVSPropertyOp40
 70
     1
102
RTVSPropertyOp41
 70
     1
102
RTVSPropertyOp42
 70
     1
102
RTVSPropertyOp43
 70
     1
102
RTVSPropertyOp44
 70
     1
102
RTVSPropertyOp45
 70
     1
102
RTVSPropertyOp46
 70
     1
102
RTVSPropertyOp47
 70
     1
102
RTVSPropertyOp48
 70
     1
102
RTVSPropertyOp49
 70
     1
102
RTVSPropertyOp50
 70
     1
102
RTVSPropertyOp51
 70
     0
102
RTVSPropertyOp52
 70
     0
102
RTVSPropertyOp53
 70
     1
102
RTVSPropertyOp54
 70
     1
102
RTVSPropertyOp55
 70
     1
102
RTVSPropertyOp56
 70
     1
102
RTVSPropertyOp57
 70
     1
102
RTVSPropertyOp58
 70
     1
102
RTVSPropertyOp59
 70
     1
102
RTVSPropertyOp60
 70
     1
102
RTVSPropertyOp61
 70
     1
102
RTVSPropertyOp62
 70
     1
  0
XRECORD
  5
1C8D
102
{ACAD_REACTORS
330
1C8C
102
}
330
1C8C
100
AcDbXrecord
280
     1
102
RTVSPost2010Prop28
280
     0
102
RTVSPost2010PropOp28
 70
     1
102
RTVSPost2010Prop29
280
     1
102
RTVSPost2010PropOp29
 70
     1
102
RTVSPost2010Prop30
280
     1
102
RTVSPost2010PropOp30
 70
     1
102
RTVSPost2010Prop31
280
     0
102
RTVSPost2010PropOp31
 70
     1
102
RTVSPost2010Prop32
280
     0
102
RTVSPost2010PropOp32
 70
     1
102
RTVSPost2010Prop33
280
     0
102
RTVSPost2010PropOp33
 70
     1
102
RTVSPost2010Prop34
280
     0
102
RTVSPost2010PropOp34
 70
     1
102
RTVSPost2010Prop35
280
     0
102
RTVSPost2010PropOp35
 70
     1
102
RTVSPost2010Prop36
280
     0
102
RTVSPost2010PropOp36
 70
     1
102
RTVSPost2010Prop37
 90
       50
102
RTVSPost2010PropOp37
 70
     1
102
RTVSPost2010Prop38
140
0.0
102
RTVSPost2010PropOp38
 70
     1
102
RTVSPost2010Prop39
140
1.0
102
RTVSPost2010PropOp39
 70
     1
102
RTVSPost2010Prop40
 90
        0
102
RTVSPost2010PropOp40
 70
     1
102
RTVSPost2010Prop41ColorIndex
 90
       18
102
RTVSPost2010Prop41ColorRGB
 90
        0
102
RTVSPost2010PropOp41
 70
     1
102
RTVSPost2010Prop42
 90
       50
102
RTVSPost2010PropOp42
 70
     1
102
RTVSPost2010Prop43
 90
        3
102
RTVSPost2010PropOp43
 70
     1
102
RTVSPost2010Prop44ColorIndex
 90
        5
102
RTVSPost2010Prop44ColorRGB
 90
      255
102
RTVSPost2010PropOp44
 70
     1
102
RTVSPost2010Prop45
280
     0
102
RTVSPost2010PropOp45
 70
     1
102
RTVSPost2010Prop46
 90
       50
102
RTVSPost2010PropOp46
 70
     1
102
RTVSPost2010Prop47
 90
       50
102
RTVSPost2010PropOp47
 70
     1
102
RTVSPost2010Prop48
 90
       50
102
RTVSPost2010PropOp48
 70
     1
102
RTVSPost2010Prop49
280
     0
102
RTVSPost2010PropOp49
 70
     1
102
RTVSPost2010Prop50
 90
       50
102
RTVSPost2010PropOp50
 70
     1
102
RTVSPost2010Prop51ColorIndex
 90
      256
102
RTVSPost2010Prop51ColorRGB
 90
-16777216
102
RTVSPost2010PropOp51
 70
     0
102
RTVSPost2010Prop52
140
1.0
102
RTVSPost2010PropOp52
 70
     0
102
RTVSPost2010Prop53
 90
        2
102
RTVSPost2010PropOp53
 70
     1
102
RTVSPost2010Prop54
  1
strokes_ogs.tif
102
RTVSPost2010PropOp54
 70
     1
102
RTVSPost2010Prop55
280
     0
102
RTVSPost2010PropOp55
 70
     1
102
RTVSPost2010Prop56
140
1.0
102
RTVSPost2010PropOp56
 70
     1
102
RTVSPost2010Prop57
140
1.0
102
RTVSPost2010PropOp57
 70
     1
102
RTVSPropertyOp0
 70
     0
102
RTVSPropertyOp1
 70
     0
102
RTVSPropertyOp2
 70
     0
102
RTVSPropertyOp3
 70
     0
102
RTVSPropertyOp4
 70
     0
102
RTVSPropertyOp5
 70
     0
102
RTVSPropertyOp6
 70
     0
102
RTVSPropertyOp7
 70
     0
102
RTVSPropertyOp8
 70
     0
102
RTVSPropertyOp9
 70
     0
102
RTVSPropertyOp10
 70
     0
102
RTVSPropertyOp11
 70
     0
102
RTVSPropertyOp12
 70
     0
102
RTVSPropertyOp13
 70
     0
102
RTVSPropertyOp14
 70
     2
102
RTVSPropertyOp15
 70
     0
102
RTVSPropertyOp16
 70
     0
102
RTVSPropertyOp17
 70
     0
102
RTVSPropertyOp18
 70
     0
102
RTVSPropertyOp19
 70
     0
102
RTVSPropertyOp20
 70
     0
102
RTVSPropertyOp21
 70
     0
102
RTVSPropertyOp22
 70
     0
102
RTVSPropertyOp23
 70
     0
102
RTVSPropertyOp24
 70
     0
102
RTVSPropertyOp25
 70
     0
102
RTVSPropertyOp26
 70
     0
102
RTVSPropertyOp27
 70
     0
102
RTVSPropertyOp28
 70
     1
102
RTVSPropertyOp29
 70
     1
102
RTVSPropertyOp30
 70
     1
102
RTVSPropertyOp31
 70
     1
102
RTVSPropertyOp32
 70
     1
102
RTVSPropertyOp33
 70
     1
102
RTVSPropertyOp34
 70
     1
102
RTVSPropertyOp35
 70
     1
102
RTVSPropertyOp36
 70
     1
102
RTVSPropertyOp37
 70
     1
102
RTVSPropertyOp38
 70
     1
102
RTVSPropertyOp39
 70
     1
102
RTVSPropertyOp40
 70
     1
102
RTVSPropertyOp41
 70
     1
102
RTVSPropertyOp42
 70
     1
102
RTVSPropertyOp43
 70
     1
102
RTVSPropertyOp44
 70
     1
102
RTVSPropertyOp45
 70
     1
102
RTVSPropertyOp46
 70
     1
102
RTVSPropertyOp47
 70
     1
102
RTVSPropertyOp48
 70
     1
102
RTVSPropertyOp49
 70
     1
102
RTVSPropertyOp50
 70
     1
102
RTVSPropertyOp51
 70
     0
102
RTVSPropertyOp52
 70
     0
102
RTVSPropertyOp53
 70
     1
102
RTVSPropertyOp54
 70
     1
102
RTVSPropertyOp55
 70
     1
102
RTVSPropertyOp56
 70
     1
102
RTVSPropertyOp57
 70
     1
102
RTVSPropertyOp58
 70
     1
102
RTVSPropertyOp59
 70
     1
102
RTVSPropertyOp60
 70
     1
102
RTVSPropertyOp61
 70
     1
102
RTVSPropertyOp62
 70
     1
  0
XRECORD
  5
1C73
102
{ACAD_REACTORS
330
1C72
102
}
330
1C72
100
AcDbXrecord
280
     1
102
RTVSPost2010Prop28
280
     0
102
RTVSPost2010PropOp28
 70
     1
102
RTVSPost2010Prop29
280
     1
102
RTVSPost2010PropOp29
 70
     1
102
RTVSPost2010Prop30
280
     1
102
RTVSPost2010PropOp30
 70
     1
102
RTVSPost2010Prop31
280
     0
102
RTVSPost2010PropOp31
 70
     1
102
RTVSPost2010Prop32
280
     0
102
RTVSPost2010PropOp32
 70
     1
102
RTVSPost2010Prop33
280
     0
102
RTVSPost2010PropOp33
 70
     1
102
RTVSPost2010Prop34
280
     0
102
RTVSPost2010PropOp34
 70
     1
102
RTVSPost2010Prop35
280
     0
102
RTVSPost2010PropOp35
 70
     1
102
RTVSPost2010Prop36
280
     0
102
RTVSPost2010PropOp36
 70
     1
102
RTVSPost2010Prop37
 90
       50
102
RTVSPost2010PropOp37
 70
     1
102
RTVSPost2010Prop38
140
0.0
102
RTVSPost2010PropOp38
 70
     1
102
RTVSPost2010Prop39
140
1.0
102
RTVSPost2010PropOp39
 70
     1
102
RTVSPost2010Prop40
 90
        0
102
RTVSPost2010PropOp40
 70
     1
102
RTVSPost2010Prop41ColorIndex
 90
       18
102
RTVSPost2010Prop41ColorRGB
 90
        0
102
RTVSPost2010PropOp41
 70
     1
102
RTVSPost2010Prop42
 90
       50
102
RTVSPost2010PropOp42
 70
     1
102
RTVSPost2010Prop43
 90
        3
102
RTVSPost2010PropOp43
 70
     1
102
RTVSPost2010Prop44ColorIndex
 90
        5
102
RTVSPost2010Prop44ColorRGB
 90
      255
102
RTVSPost2010PropOp44
 70
     1
102
RTVSPost2010Prop45
280
     0
102
RTVSPost2010PropOp45
 70
     1
102
RTVSPost2010Prop46
 90
       50
102
RTVSPost2010PropOp46
 70
     1
102
RTVSPost2010Prop47
 90
       50
102
RTVSPost2010PropOp47
 70
     1
102
RTVSPost2010Prop48
 90
       50
102
RTVSPost2010PropOp48
 70
     1
102
RTVSPost2010Prop49
280
     0
102
RTVSPost2010PropOp49
 70
     1
102
RTVSPost2010Prop50
 90
       50
102
RTVSPost2010PropOp50
 70
     1
102
RTVSPost2010Prop51ColorIndex
 90
      256
102
RTVSPost2010Prop51ColorRGB
 90
-16777216
102
RTVSPost2010PropOp51
 70
     0
102
RTVSPost2010Prop52
140
1.0
102
RTVSPost2010PropOp52
 70
     0
102
RTVSPost2010Prop53
 90
        2
102
RTVSPost2010PropOp53
 70
     1
102
RTVSPost2010Prop54
  1
strokes_ogs.tif
102
RTVSPost2010PropOp54
 70
     1
102
RTVSPost2010Prop55
280
     0
102
RTVSPost2010PropOp55
 70
     1
102
RTVSPost2010Prop56
140
1.0
102
RTVSPost2010PropOp56
 70
     1
102
RTVSPost2010Prop57
140
1.0
102
RTVSPost2010PropOp57
 70
     1
102
RTVSPropertyOp0
 70
     1
102
RTVSPropertyOp1
 70
     1
102
RTVSPropertyOp2
 70
     1
102
RTVSPropertyOp3
 70
     1
102
RTVSPropertyOp4
 70
     1
102
RTVSPropertyOp5
 70
     1
102
RTVSPropertyOp6
 70
     1
102
RTVSPropertyOp7
 70
     1
102
RTVSPropertyOp8
 70
     1
102
RTVSPropertyOp9
 70
     1
102
RTVSPropertyOp10
 70
     1
102
RTVSPropertyOp11
 70
     1
102
RTVSPropertyOp12
 70
     1
102
RTVSPropertyOp13
 70
     1
102
RTVSPropertyOp14
 70
     1
102
RTVSPropertyOp15
 70
     1
102
RTVSPropertyOp16
 70
     1
102
RTVSPropertyOp17
 70
     1
102
RTVSPropertyOp18
 70
     1
102
RTVSPropertyOp19
 70
     1
102
RTVSPropertyOp20
 70
     1
102
RTVSPropertyOp21
 70
     1
102
RTVSPropertyOp22
 70
     1
102
RTVSPropertyOp23
 70
     1
102
RTVSPropertyOp24
 70
     1
102
RTVSPropertyOp25
 70
     1
102
RTVSPropertyOp26
 70
     1
102
RTVSPropertyOp27
 70
     1
102
RTVSPropertyOp28
 70
     1
102
RTVSPropertyOp29
 70
     1
102
RTVSPropertyOp30
 70
     1
102
RTVSPropertyOp31
 70
     1
102
RTVSPropertyOp32
 70
     1
102
RTVSPropertyOp33
 70
     1
102
RTVSPropertyOp34
 70
     1
102
RTVSPropertyOp35
 70
     1
102
RTVSPropertyOp36
 70
     1
102
RTVSPropertyOp37
 70
     1
102
RTVSPropertyOp38
 70
     1
102
RTVSPropertyOp39
 70
     1
102
RTVSPropertyOp40
 70
     1
102
RTVSPropertyOp41
 70
     1
102
RTVSPropertyOp42
 70
     1
102
RTVSPropertyOp43
 70
     1
102
RTVSPropertyOp44
 70
     1
102
RTVSPropertyOp45
 70
     1
102
RTVSPropertyOp46
 70
     1
102
RTVSPropertyOp47
 70
     1
102
RTVSPropertyOp48
 70
     1
102
RTVSPropertyOp49
 70
     1
102
RTVSPropertyOp50
 70
     1
102
RTVSPropertyOp51
 70
     0
102
RTVSPropertyOp52
 70
     0
102
RTVSPropertyOp53
 70
     1
102
RTVSPropertyOp54
 70
     1
102
RTVSPropertyOp55
 70
     1
102
RTVSPropertyOp56
 70
     1
102
RTVSPropertyOp57
 70
     1
102
RTVSPropertyOp58
 70
     1
102
RTVSPropertyOp59
 70
     1
102
RTVSPropertyOp60
 70
     1
102
RTVSPropertyOp61
 70
     1
102
RTVSPropertyOp62
 70
     1
  0
XRECORD
  5
1C9D
102
{ACAD_REACTORS
330
1C9C
102
}
330
1C9C
100
AcDbXrecord
280
     1
102
RTVSPost2010Prop28
280
     0
102
RTVSPost2010PropOp28
 70
     1
102
RTVSPost2010Prop29
280
     1
102
RTVSPost2010PropOp29
 70
     1
102
RTVSPost2010Prop30
280
     1
102
RTVSPost2010PropOp30
 70
     1
102
RTVSPost2010Prop31
280
     0
102
RTVSPost2010PropOp31
 70
     1
102
RTVSPost2010Prop32
280
     0
102
RTVSPost2010PropOp32
 70
     1
102
RTVSPost2010Prop33
280
     0
102
RTVSPost2010PropOp33
 70
     1
102
RTVSPost2010Prop34
280
     0
102
RTVSPost2010PropOp34
 70
     1
102
RTVSPost2010Prop35
280
     0
102
RTVSPost2010PropOp35
 70
     1
102
RTVSPost2010Prop36
280
     0
102
RTVSPost2010PropOp36
 70
     1
102
RTVSPost2010Prop37
 90
       50
102
RTVSPost2010PropOp37
 70
     1
102
RTVSPost2010Prop38
140
0.0
102
RTVSPost2010PropOp38
 70
     1
102
RTVSPost2010Prop39
140
1.0
102
RTVSPost2010PropOp39
 70
     1
102
RTVSPost2010Prop40
 90
        0
102
RTVSPost2010PropOp40
 70
     1
102
RTVSPost2010Prop41ColorIndex
 90
       18
102
RTVSPost2010Prop41ColorRGB
 90
        0
102
RTVSPost2010PropOp41
 70
     1
102
RTVSPost2010Prop42
 90
       50
102
RTVSPost2010PropOp42
 70
     1
102
RTVSPost2010Prop43
 90
        3
102
RTVSPost2010PropOp43
 70
     1
102
RTVSPost2010Prop44ColorIndex
 90
        5
102
RTVSPost2010Prop44ColorRGB
 90
      255
102
RTVSPost2010PropOp44
 70
     1
102
RTVSPost2010Prop45
280
     0
102
RTVSPost2010PropOp45
 70
     1
102
RTVSPost2010Prop46
 90
       50
102
RTVSPost2010PropOp46
 70
     1
102
RTVSPost2010Prop47
 90
       50
102
RTVSPost2010PropOp47
 70
     1
102
RTVSPost2010Prop48
 90
       50
102
RTVSPost2010PropOp48
 70
     1
102
RTVSPost2010Prop49
280
     0
102
RTVSPost2010PropOp49
 70
     1
102
RTVSPost2010Prop50
 90
       50
102
RTVSPost2010PropOp50
 70
     1
102
RTVSPost2010Prop51ColorIndex
 90
      256
102
RTVSPost2010Prop51ColorRGB
 90
-16777216
102
RTVSPost2010PropOp51
 70
     0
102
RTVSPost2010Prop52
140
1.0
102
RTVSPost2010PropOp52
 70
     0
102
RTVSPost2010Prop53
 90
        2
102
RTVSPost2010PropOp53
 70
     1
102
RTVSPost2010Prop54
  1
strokes_ogs.tif
102
RTVSPost2010PropOp54
 70
     1
102
RTVSPost2010Prop55
280
     0
102
RTVSPost2010PropOp55
 70
     1
102
RTVSPost2010Prop56
140
1.0
102
RTVSPost2010PropOp56
 70
     1
102
RTVSPost2010Prop57
140
1.0
102
RTVSPost2010PropOp57
 70
     1
102
RTVSPropertyOp0
 70
     1
102
RTVSPropertyOp1
 70
     1
102
RTVSPropertyOp2
 70
     1
102
RTVSPropertyOp3
 70
     1
102
RTVSPropertyOp4
 70
     1
102
RTVSPropertyOp5
 70
     1
102
RTVSPropertyOp6
 70
     1
102
RTVSPropertyOp7
 70
     1
102
RTVSPropertyOp8
 70
     1
102
RTVSPropertyOp9
 70
     1
102
RTVSPropertyOp10
 70
     1
102
RTVSPropertyOp11
 70
     1
102
RTVSPropertyOp12
 70
     1
102
RTVSPropertyOp13
 70
     1
102
RTVSPropertyOp14
 70
     1
102
RTVSPropertyOp15
 70
     1
102
RTVSPropertyOp16
 70
     1
102
RTVSPropertyOp17
 70
     1
102
RTVSPropertyOp18
 70
     1
102
RTVSPropertyOp19
 70
     1
102
RTVSPropertyOp20
 70
     1
102
RTVSPropertyOp21
 70
     1
102
RTVSPropertyOp22
 70
     1
102
RTVSPropertyOp23
 70
     1
102
RTVSPropertyOp24
 70
     1
102
RTVSPropertyOp25
 70
     1
102
RTVSPropertyOp26
 70
     1
102
RTVSPropertyOp27
 70
     1
102
RTVSPropertyOp28
 70
     1
102
RTVSPropertyOp29
 70
     1
102
RTVSPropertyOp30
 70
     1
102
RTVSPropertyOp31
 70
     1
102
RTVSPropertyOp32
 70
     1
102
RTVSPropertyOp33
 70
     1
102
RTVSPropertyOp34
 70
     1
102
RTVSPropertyOp35
 70
     1
102
RTVSPropertyOp36
 70
     1
102
RTVSPropertyOp37
 70
     1
102
RTVSPropertyOp38
 70
     1
102
RTVSPropertyOp39
 70
     1
102
RTVSPropertyOp40
 70
     1
102
RTVSPropertyOp41
 70
     1
102
RTVSPropertyOp42
 70
     1
102
RTVSPropertyOp43
 70
     1
102
RTVSPropertyOp44
 70
     1
102
RTVSPropertyOp45
 70
     1
102
RTVSPropertyOp46
 70
     1
102
RTVSPropertyOp47
 70
     1
102
RTVSPropertyOp48
 70
     1
102
RTVSPropertyOp49
 70
     1
102
RTVSPropertyOp50
 70
     1
102
RTVSPropertyOp51
 70
     0
102
RTVSPropertyOp52
 70
     0
102
RTVSPropertyOp53
 70
     1
102
RTVSPropertyOp54
 70
     1
102
RTVSPropertyOp55
 70
     1
102
RTVSPropertyOp56
 70
     1
102
RTVSPropertyOp57
 70
     1
102
RTVSPropertyOp58
 70
     1
102
RTVSPropertyOp59
 70
     1
102
RTVSPropertyOp60
 70
     1
102
RTVSPropertyOp61
 70
     1
102
RTVSPropertyOp62
 70
     1
  0
XRECORD
  5
1C9B
102
{ACAD_REACTORS
330
1C9A
102
}
330
1C9A
100
AcDbXrecord
280
     1
102
RTVSPost2010Prop28
280
     0
102
RTVSPost2010PropOp28
 70
     1
102
RTVSPost2010Prop29
280
     1
102
RTVSPost2010PropOp29
 70
     1
102
RTVSPost2010Prop30
280
     1
102
RTVSPost2010PropOp30
 70
     1
102
RTVSPost2010Prop31
280
     0
102
RTVSPost2010PropOp31
 70
     1
102
RTVSPost2010Prop32
280
     0
102
RTVSPost2010PropOp32
 70
     1
102
RTVSPost2010Prop33
280
     0
102
RTVSPost2010PropOp33
 70
     1
102
RTVSPost2010Prop34
280
     0
102
RTVSPost2010PropOp34
 70
     1
102
RTVSPost2010Prop35
280
     0
102
RTVSPost2010PropOp35
 70
     1
102
RTVSPost2010Prop36
280
     0
102
RTVSPost2010PropOp36
 70
     1
102
RTVSPost2010Prop37
 90
       50
102
RTVSPost2010PropOp37
 70
     1
102
RTVSPost2010Prop38
140
0.0
102
RTVSPost2010PropOp38
 70
     1
102
RTVSPost2010Prop39
140
1.0
102
RTVSPost2010PropOp39
 70
     1
102
RTVSPost2010Prop40
 90
        0
102
RTVSPost2010PropOp40
 70
     1
102
RTVSPost2010Prop41ColorIndex
 90
       18
102
RTVSPost2010Prop41ColorRGB
 90
        0
102
RTVSPost2010PropOp41
 70
     1
102
RTVSPost2010Prop42
 90
       50
102
RTVSPost2010PropOp42
 70
     1
102
RTVSPost2010Prop43
 90
        3
102
RTVSPost2010PropOp43
 70
     1
102
RTVSPost2010Prop44ColorIndex
 90
        5
102
RTVSPost2010Prop44ColorRGB
 90
      255
102
RTVSPost2010PropOp44
 70
     1
102
RTVSPost2010Prop45
280
     0
102
RTVSPost2010PropOp45
 70
     1
102
RTVSPost2010Prop46
 90
       50
102
RTVSPost2010PropOp46
 70
     1
102
RTVSPost2010Prop47
 90
       50
102
RTVSPost2010PropOp47
 70
     1
102
RTVSPost2010Prop48
 90
       50
102
RTVSPost2010PropOp48
 70
     1
102
RTVSPost2010Prop49
280
     0
102
RTVSPost2010PropOp49
 70
     1
102
RTVSPost2010Prop50
 90
       50
102
RTVSPost2010PropOp50
 70
     1
102
RTVSPost2010Prop51ColorIndex
 90
      256
102
RTVSPost2010Prop51ColorRGB
 90
-16777216
102
RTVSPost2010PropOp51
 70
     0
102
RTVSPost2010Prop52
140
1.0
102
RTVSPost2010PropOp52
 70
     0
102
RTVSPost2010Prop53
 90
        2
102
RTVSPost2010PropOp53
 70
     1
102
RTVSPost2010Prop54
  1
strokes_ogs.tif
102
RTVSPost2010PropOp54
 70
     1
102
RTVSPost2010Prop55
280
     0
102
RTVSPost2010PropOp55
 70
     1
102
RTVSPost2010Prop56
140
1.0
102
RTVSPost2010PropOp56
 70
     1
102
RTVSPost2010Prop57
140
1.0
102
RTVSPost2010PropOp57
 70
     1
102
RTVSPropertyOp0
 70
     1
102
RTVSPropertyOp1
 70
     1
102
RTVSPropertyOp2
 70
     1
102
RTVSPropertyOp3
 70
     1
102
RTVSPropertyOp4
 70
     1
102
RTVSPropertyOp5
 70
     1
102
RTVSPropertyOp6
 70
     1
102
RTVSPropertyOp7
 70
     1
102
RTVSPropertyOp8
 70
     1
102
RTVSPropertyOp9
 70
     1
102
RTVSPropertyOp10
 70
     1
102
RTVSPropertyOp11
 70
     1
102
RTVSPropertyOp12
 70
     1
102
RTVSPropertyOp13
 70
     1
102
RTVSPropertyOp14
 70
     1
102
RTVSPropertyOp15
 70
     1
102
RTVSPropertyOp16
 70
     1
102
RTVSPropertyOp17
 70
     1
102
RTVSPropertyOp18
 70
     1
102
RTVSPropertyOp19
 70
     1
102
RTVSPropertyOp20
 70
     1
102
RTVSPropertyOp21
 70
     1
102
RTVSPropertyOp22
 70
     1
102
RTVSPropertyOp23
 70
     1
102
RTVSPropertyOp24
 70
     1
102
RTVSPropertyOp25
 70
     1
102
RTVSPropertyOp26
 70
     1
102
RTVSPropertyOp27
 70
     1
102
RTVSPropertyOp28
 70
     1
102
RTVSPropertyOp29
 70
     1
102
RTVSPropertyOp30
 70
     1
102
RTVSPropertyOp31
 70
     1
102
RTVSPropertyOp32
 70
     1
102
RTVSPropertyOp33
 70
     1
102
RTVSPropertyOp34
 70
     1
102
RTVSPropertyOp35
 70
     1
102
RTVSPropertyOp36
 70
     1
102
RTVSPropertyOp37
 70
     1
102
RTVSPropertyOp38
 70
     1
102
RTVSPropertyOp39
 70
     1
102
RTVSPropertyOp40
 70
     1
102
RTVSPropertyOp41
 70
     1
102
RTVSPropertyOp42
 70
     1
102
RTVSPropertyOp43
 70
     1
102
RTVSPropertyOp44
 70
     1
102
RTVSPropertyOp45
 70
     1
102
RTVSPropertyOp46
 70
     1
102
RTVSPropertyOp47
 70
     1
102
RTVSPropertyOp48
 70
     1
102
RTVSPropertyOp49
 70
     1
102
RTVSPropertyOp50
 70
     1
102
RTVSPropertyOp51
 70
     0
102
RTVSPropertyOp52
 70
     0
102
RTVSPropertyOp53
 70
     1
102
RTVSPropertyOp54
 70
     1
102
RTVSPropertyOp55
 70
     1
102
RTVSPropertyOp56
 70
     1
102
RTVSPropertyOp57
 70
     1
102
RTVSPropertyOp58
 70
     1
102
RTVSPropertyOp59
 70
     1
102
RTVSPropertyOp60
 70
     1
102
RTVSPropertyOp61
 70
     1
102
RTVSPropertyOp62
 70
     1
  0
XRECORD
  5
1C95
102
{ACAD_REACTORS
330
1C94
102
}
330
1C94
100
AcDbXrecord
280
     1
102
RTVSPost2010Prop28
280
     0
102
RTVSPost2010PropOp28
 70
     1
102
RTVSPost2010Prop29
280
     1
102
RTVSPost2010PropOp29
 70
     1
102
RTVSPost2010Prop30
280
     1
102
RTVSPost2010PropOp30
 70
     1
102
RTVSPost2010Prop31
280
     0
102
RTVSPost2010PropOp31
 70
     1
102
RTVSPost2010Prop32
280
     0
102
RTVSPost2010PropOp32
 70
     1
102
RTVSPost2010Prop33
280
     0
102
RTVSPost2010PropOp33
 70
     1
102
RTVSPost2010Prop34
280
     0
102
RTVSPost2010PropOp34
 70
     1
102
RTVSPost2010Prop35
280
     0
102
RTVSPost2010PropOp35
 70
     1
102
RTVSPost2010Prop36
280
     0
102
RTVSPost2010PropOp36
 70
     1
102
RTVSPost2010Prop37
 90
       50
102
RTVSPost2010PropOp37
 70
     1
102
RTVSPost2010Prop38
140
0.0
102
RTVSPost2010PropOp38
 70
     1
102
RTVSPost2010Prop39
140
1.0
102
RTVSPost2010PropOp39
 70
     1
102
RTVSPost2010Prop40
 90
        0
102
RTVSPost2010PropOp40
 70
     1
102
RTVSPost2010Prop41ColorIndex
 90
       18
102
RTVSPost2010Prop41ColorRGB
 90
        0
102
RTVSPost2010PropOp41
 70
     1
102
RTVSPost2010Prop42
 90
       50
102
RTVSPost2010PropOp42
 70
     1
102
RTVSPost2010Prop43
 90
        3
102
RTVSPost2010PropOp43
 70
     1
102
RTVSPost2010Prop44ColorIndex
 90
        5
102
RTVSPost2010Prop44ColorRGB
 90
      255
102
RTVSPost2010PropOp44
 70
     1
102
RTVSPost2010Prop45
280
     0
102
RTVSPost2010PropOp45
 70
     1
102
RTVSPost2010Prop46
 90
       50
102
RTVSPost2010PropOp46
 70
     1
102
RTVSPost2010Prop47
 90
       50
102
RTVSPost2010PropOp47
 70
     1
102
RTVSPost2010Prop48
 90
       50
102
RTVSPost2010PropOp48
 70
     1
102
RTVSPost2010Prop49
280
     0
102
RTVSPost2010PropOp49
 70
     1
102
RTVSPost2010Prop50
 90
       50
102
RTVSPost2010PropOp50
 70
     1
102
RTVSPost2010Prop51ColorIndex
 90
      256
102
RTVSPost2010Prop51ColorRGB
 90
-16777216
102
RTVSPost2010PropOp51
 70
     0
102
RTVSPost2010Prop52
140
1.0
102
RTVSPost2010PropOp52
 70
     0
102
RTVSPost2010Prop53
 90
        2
102
RTVSPost2010PropOp53
 70
     1
102
RTVSPost2010Prop54
  1
strokes_ogs.tif
102
RTVSPost2010PropOp54
 70
     1
102
RTVSPost2010Prop55
280
     0
102
RTVSPost2010PropOp55
 70
     1
102
RTVSPost2010Prop56
140
1.0
102
RTVSPost2010PropOp56
 70
     1
102
RTVSPost2010Prop57
140
1.0
102
RTVSPost2010PropOp57
 70
     1
102
RTVSPropertyOp0
 70
     1
102
RTVSPropertyOp1
 70
     1
102
RTVSPropertyOp2
 70
     1
102
RTVSPropertyOp3
 70
     1
102
RTVSPropertyOp4
 70
     1
102
RTVSPropertyOp5
 70
     1
102
RTVSPropertyOp6
 70
     1
102
RTVSPropertyOp7
 70
     1
102
RTVSPropertyOp8
 70
     1
102
RTVSPropertyOp9
 70
     1
102
RTVSPropertyOp10
 70
     1
102
RTVSPropertyOp11
 70
     1
102
RTVSPropertyOp12
 70
     1
102
RTVSPropertyOp13
 70
     1
102
RTVSPropertyOp14
 70
     1
102
RTVSPropertyOp15
 70
     1
102
RTVSPropertyOp16
 70
     1
102
RTVSPropertyOp17
 70
     1
102
RTVSPropertyOp18
 70
     1
102
RTVSPropertyOp19
 70
     1
102
RTVSPropertyOp20
 70
     1
102
RTVSPropertyOp21
 70
     1
102
RTVSPropertyOp22
 70
     1
102
RTVSPropertyOp23
 70
     1
102
RTVSPropertyOp24
 70
     1
102
RTVSPropertyOp25
 70
     1
102
RTVSPropertyOp26
 70
     1
102
RTVSPropertyOp27
 70
     1
102
RTVSPropertyOp28
 70
     1
102
RTVSPropertyOp29
 70
     1
102
RTVSPropertyOp30
 70
     1
102
RTVSPropertyOp31
 70
     1
102
RTVSPropertyOp32
 70
     1
102
RTVSPropertyOp33
 70
     1
102
RTVSPropertyOp34
 70
     1
102
RTVSPropertyOp35
 70
     1
102
RTVSPropertyOp36
 70
     1
102
RTVSPropertyOp37
 70
     1
102
RTVSPropertyOp38
 70
     1
102
RTVSPropertyOp39
 70
     1
102
RTVSPropertyOp40
 70
     1
102
RTVSPropertyOp41
 70
     1
102
RTVSPropertyOp42
 70
     1
102
RTVSPropertyOp43
 70
     1
102
RTVSPropertyOp44
 70
     1
102
RTVSPropertyOp45
 70
     1
102
RTVSPropertyOp46
 70
     1
102
RTVSPropertyOp47
 70
     1
102
RTVSPropertyOp48
 70
     1
102
RTVSPropertyOp49
 70
     1
102
RTVSPropertyOp50
 70
     1
102
RTVSPropertyOp51
 70
     0
102
RTVSPropertyOp52
 70
     0
102
RTVSPropertyOp53
 70
     1
102
RTVSPropertyOp54
 70
     1
102
RTVSPropertyOp55
 70
     1
102
RTVSPropertyOp56
 70
     1
102
RTVSPropertyOp57
 70
     1
102
RTVSPropertyOp58
 70
     1
102
RTVSPropertyOp59
 70
     1
102
RTVSPropertyOp60
 70
     1
102
RTVSPropertyOp61
 70
     1
102
RTVSPropertyOp62
 70
     1
  0
XRECORD
  5
1C97
102
{ACAD_REACTORS
330
1C96
102
}
330
1C96
100
AcDbXrecord
280
     1
102
RTVSPost2010Prop28
280
     0
102
RTVSPost2010PropOp28
 70
     1
102
RTVSPost2010Prop29
280
     1
102
RTVSPost2010PropOp29
 70
     1
102
RTVSPost2010Prop30
280
     1
102
RTVSPost2010PropOp30
 70
     1
102
RTVSPost2010Prop31
280
     0
102
RTVSPost2010PropOp31
 70
     1
102
RTVSPost2010Prop32
280
     0
102
RTVSPost2010PropOp32
 70
     1
102
RTVSPost2010Prop33
280
     0
102
RTVSPost2010PropOp33
 70
     1
102
RTVSPost2010Prop34
280
     0
102
RTVSPost2010PropOp34
 70
     1
102
RTVSPost2010Prop35
280
     0
102
RTVSPost2010PropOp35
 70
     1
102
RTVSPost2010Prop36
280
     0
102
RTVSPost2010PropOp36
 70
     1
102
RTVSPost2010Prop37
 90
       50
102
RTVSPost2010PropOp37
 70
     1
102
RTVSPost2010Prop38
140
0.0
102
RTVSPost2010PropOp38
 70
     1
102
RTVSPost2010Prop39
140
1.0
102
RTVSPost2010PropOp39
 70
     1
102
RTVSPost2010Prop40
 90
        0
102
RTVSPost2010PropOp40
 70
     1
102
RTVSPost2010Prop41ColorIndex
 90
       18
102
RTVSPost2010Prop41ColorRGB
 90
        0
102
RTVSPost2010PropOp41
 70
     1
102
RTVSPost2010Prop42
 90
       50
102
RTVSPost2010PropOp42
 70
     1
102
RTVSPost2010Prop43
 90
        3
102
RTVSPost2010PropOp43
 70
     1
102
RTVSPost2010Prop44ColorIndex
 90
        5
102
RTVSPost2010Prop44ColorRGB
 90
      255
102
RTVSPost2010PropOp44
 70
     1
102
RTVSPost2010Prop45
280
     0
102
RTVSPost2010PropOp45
 70
     1
102
RTVSPost2010Prop46
 90
       50
102
RTVSPost2010PropOp46
 70
     1
102
RTVSPost2010Prop47
 90
       50
102
RTVSPost2010PropOp47
 70
     1
102
RTVSPost2010Prop48
 90
       50
102
RTVSPost2010PropOp48
 70
     1
102
RTVSPost2010Prop49
280
     0
102
RTVSPost2010PropOp49
 70
     1
102
RTVSPost2010Prop50
 90
       50
102
RTVSPost2010PropOp50
 70
     1
102
RTVSPost2010Prop51ColorIndex
 90
      256
102
RTVSPost2010Prop51ColorRGB
 90
-16777216
102
RTVSPost2010PropOp51
 70
     0
102
RTVSPost2010Prop52
140
1.0
102
RTVSPost2010PropOp52
 70
     0
102
RTVSPost2010Prop53
 90
        2
102
RTVSPost2010PropOp53
 70
     1
102
RTVSPost2010Prop54
  1
strokes_ogs.tif
102
RTVSPost2010PropOp54
 70
     1
102
RTVSPost2010Prop55
280
     0
102
RTVSPost2010PropOp55
 70
     1
102
RTVSPost2010Prop56
140
1.0
102
RTVSPost2010PropOp56
 70
     1
102
RTVSPost2010Prop57
140
1.0
102
RTVSPost2010PropOp57
 70
     1
102
RTVSPropertyOp0
 70
     1
102
RTVSPropertyOp1
 70
     1
102
RTVSPropertyOp2
 70
     1
102
RTVSPropertyOp3
 70
     1
102
RTVSPropertyOp4
 70
     1
102
RTVSPropertyOp5
 70
     1
102
RTVSPropertyOp6
 70
     1
102
RTVSPropertyOp7
 70
     1
102
RTVSPropertyOp8
 70
     1
102
RTVSPropertyOp9
 70
     1
102
RTVSPropertyOp10
 70
     1
102
RTVSPropertyOp11
 70
     1
102
RTVSPropertyOp12
 70
     1
102
RTVSPropertyOp13
 70
     1
102
RTVSPropertyOp14
 70
     1
102
RTVSPropertyOp15
 70
     1
102
RTVSPropertyOp16
 70
     1
102
RTVSPropertyOp17
 70
     1
102
RTVSPropertyOp18
 70
     1
102
RTVSPropertyOp19
 70
     1
102
RTVSPropertyOp20
 70
     1
102
RTVSPropertyOp21
 70
     1
102
RTVSPropertyOp22
 70
     1
102
RTVSPropertyOp23
 70
     1
102
RTVSPropertyOp24
 70
     1
102
RTVSPropertyOp25
 70
     1
102
RTVSPropertyOp26
 70
     1
102
RTVSPropertyOp27
 70
     1
102
RTVSPropertyOp28
 70
     1
102
RTVSPropertyOp29
 70
     1
102
RTVSPropertyOp30
 70
     1
102
RTVSPropertyOp31
 70
     1
102
RTVSPropertyOp32
 70
     1
102
RTVSPropertyOp33
 70
     1
102
RTVSPropertyOp34
 70
     1
102
RTVSPropertyOp35
 70
     1
102
RTVSPropertyOp36
 70
     1
102
RTVSPropertyOp37
 70
     1
102
RTVSPropertyOp38
 70
     1
102
RTVSPropertyOp39
 70
     1
102
RTVSPropertyOp40
 70
     1
102
RTVSPropertyOp41
 70
     1
102
RTVSPropertyOp42
 70
     1
102
RTVSPropertyOp43
 70
     1
102
RTVSPropertyOp44
 70
     1
102
RTVSPropertyOp45
 70
     1
102
RTVSPropertyOp46
 70
     1
102
RTVSPropertyOp47
 70
     1
102
RTVSPropertyOp48
 70
     1
102
RTVSPropertyOp49
 70
     1
102
RTVSPropertyOp50
 70
     1
102
RTVSPropertyOp51
 70
     0
102
RTVSPropertyOp52
 70
     0
102
RTVSPropertyOp53
 70
     1
102
RTVSPropertyOp54
 70
     1
102
RTVSPropertyOp55
 70
     1
102
RTVSPropertyOp56
 70
     1
102
RTVSPropertyOp57
 70
     1
102
RTVSPropertyOp58
 70
     1
102
RTVSPropertyOp59
 70
     1
102
RTVSPropertyOp60
 70
     1
102
RTVSPropertyOp61
 70
     1
102
RTVSPropertyOp62
 70
     1
  0
XRECORD
  5
1C79
102
{ACAD_REACTORS
330
1C78
102
}
330
1C78
100
AcDbXrecord
280
     1
102
RTVSPost2010Prop28
280
     0
102
RTVSPost2010PropOp28
 70
     1
102
RTVSPost2010Prop29
280
     1
102
RTVSPost2010PropOp29
 70
     1
102
RTVSPost2010Prop30
280
     1
102
RTVSPost2010PropOp30
 70
     1
102
RTVSPost2010Prop31
280
     0
102
RTVSPost2010PropOp31
 70
     1
102
RTVSPost2010Prop32
280
     0
102
RTVSPost2010PropOp32
 70
     1
102
RTVSPost2010Prop33
280
     0
102
RTVSPost2010PropOp33
 70
     1
102
RTVSPost2010Prop34
280
     0
102
RTVSPost2010PropOp34
 70
     1
102
RTVSPost2010Prop35
280
     0
102
RTVSPost2010PropOp35
 70
     1
102
RTVSPost2010Prop36
280
     0
102
RTVSPost2010PropOp36
 70
     1
102
RTVSPost2010Prop37
 90
       50
102
RTVSPost2010PropOp37
 70
     1
102
RTVSPost2010Prop38
140
0.0
102
RTVSPost2010PropOp38
 70
     1
102
RTVSPost2010Prop39
140
1.0
102
RTVSPost2010PropOp39
 70
     1
102
RTVSPost2010Prop40
 90
        0
102
RTVSPost2010PropOp40
 70
     1
102
RTVSPost2010Prop41ColorIndex
 90
       18
102
RTVSPost2010Prop41ColorRGB
 90
        0
102
RTVSPost2010PropOp41
 70
     1
102
RTVSPost2010Prop42
 90
       50
102
RTVSPost2010PropOp42
 70
     1
102
RTVSPost2010Prop43
 90
        3
102
RTVSPost2010PropOp43
 70
     1
102
RTVSPost2010Prop44ColorIndex
 90
        5
102
RTVSPost2010Prop44ColorRGB
 90
      255
102
RTVSPost2010PropOp44
 70
     1
102
RTVSPost2010Prop45
280
     0
102
RTVSPost2010PropOp45
 70
     1
102
RTVSPost2010Prop46
 90
       50
102
RTVSPost2010PropOp46
 70
     1
102
RTVSPost2010Prop47
 90
       50
102
RTVSPost2010PropOp47
 70
     1
102
RTVSPost2010Prop48
 90
       50
102
RTVSPost2010PropOp48
 70
     1
102
RTVSPost2010Prop49
280
     0
102
RTVSPost2010PropOp49
 70
     1
102
RTVSPost2010Prop50
 90
       50
102
RTVSPost2010PropOp50
 70
     1
102
RTVSPost2010Prop51ColorIndex
 90
      256
102
RTVSPost2010Prop51ColorRGB
 90
-16777216
102
RTVSPost2010PropOp51
 70
     0
102
RTVSPost2010Prop52
140
1.0
102
RTVSPost2010PropOp52
 70
     0
102
RTVSPost2010Prop53
 90
        2
102
RTVSPost2010PropOp53
 70
     1
102
RTVSPost2010Prop54
  1
strokes_ogs.tif
102
RTVSPost2010PropOp54
 70
     1
102
RTVSPost2010Prop55
280
     0
102
RTVSPost2010PropOp55
 70
     1
102
RTVSPost2010Prop56
140
1.0
102
RTVSPost2010PropOp56
 70
     1
102
RTVSPost2010Prop57
140
1.0
102
RTVSPost2010PropOp57
 70
     1
102
RTVSPropertyOp0
 70
     1
102
RTVSPropertyOp1
 70
     1
102
RTVSPropertyOp2
 70
     1
102
RTVSPropertyOp3
 70
     1
102
RTVSPropertyOp4
 70
     1
102
RTVSPropertyOp5
 70
     1
102
RTVSPropertyOp6
 70
     1
102
RTVSPropertyOp7
 70
     1
102
RTVSPropertyOp8
 70
     1
102
RTVSPropertyOp9
 70
     1
102
RTVSPropertyOp10
 70
     1
102
RTVSPropertyOp11
 70
     1
102
RTVSPropertyOp12
 70
     1
102
RTVSPropertyOp13
 70
     1
102
RTVSPropertyOp14
 70
     1
102
RTVSPropertyOp15
 70
     1
102
RTVSPropertyOp16
 70
     1
102
RTVSPropertyOp17
 70
     1
102
RTVSPropertyOp18
 70
     1
102
RTVSPropertyOp19
 70
     1
102
RTVSPropertyOp20
 70
     1
102
RTVSPropertyOp21
 70
     1
102
RTVSPropertyOp22
 70
     1
102
RTVSPropertyOp23
 70
     1
102
RTVSPropertyOp24
 70
     1
102
RTVSPropertyOp25
 70
     1
102
RTVSPropertyOp26
 70
     1
102
RTVSPropertyOp27
 70
     1
102
RTVSPropertyOp28
 70
     1
102
RTVSPropertyOp29
 70
     1
102
RTVSPropertyOp30
 70
     1
102
RTVSPropertyOp31
 70
     1
102
RTVSPropertyOp32
 70
     1
102
RTVSPropertyOp33
 70
     1
102
RTVSPropertyOp34
 70
     1
102
RTVSPropertyOp35
 70
     1
102
RTVSPropertyOp36
 70
     1
102
RTVSPropertyOp37
 70
     1
102
RTVSPropertyOp38
 70
     1
102
RTVSPropertyOp39
 70
     1
102
RTVSPropertyOp40
 70
     1
102
RTVSPropertyOp41
 70
     1
102
RTVSPropertyOp42
 70
     1
102
RTVSPropertyOp43
 70
     1
102
RTVSPropertyOp44
 70
     1
102
RTVSPropertyOp45
 70
     1
102
RTVSPropertyOp46
 70
     1
102
RTVSPropertyOp47
 70
     1
102
RTVSPropertyOp48
 70
     1
102
RTVSPropertyOp49
 70
     1
102
RTVSPropertyOp50
 70
     1
102
RTVSPropertyOp51
 70
     0
102
RTVSPropertyOp52
 70
     0
102
RTVSPropertyOp53
 70
     1
102
RTVSPropertyOp54
 70
     1
102
RTVSPropertyOp55
 70
     1
102
RTVSPropertyOp56
 70
     1
102
RTVSPropertyOp57
 70
     1
102
RTVSPropertyOp58
 70
     1
102
RTVSPropertyOp59
 70
     1
102
RTVSPropertyOp60
 70
     1
102
RTVSPropertyOp61
 70
     1
102
RTVSPropertyOp62
 70
     1
  0
XRECORD
  5
1C91
102
{ACAD_REACTORS
330
1C90
102
}
330
1C90
100
AcDbXrecord
280
     1
102
RTVSPost2010Prop28
280
     0
102
RTVSPost2010PropOp28
 70
     1
102
RTVSPost2010Prop29
280
     1
102
RTVSPost2010PropOp29
 70
     1
102
RTVSPost2010Prop30
280
     1
102
RTVSPost2010PropOp30
 70
     1
102
RTVSPost2010Prop31
280
     0
102
RTVSPost2010PropOp31
 70
     1
102
RTVSPost2010Prop32
280
     0
102
RTVSPost2010PropOp32
 70
     1
102
RTVSPost2010Prop33
280
     0
102
RTVSPost2010PropOp33
 70
     1
102
RTVSPost2010Prop34
280
     0
102
RTVSPost2010PropOp34
 70
     1
102
RTVSPost2010Prop35
280
     0
102
RTVSPost2010PropOp35
 70
     1
102
RTVSPost2010Prop36
280
     0
102
RTVSPost2010PropOp36
 70
     1
102
RTVSPost2010Prop37
 90
       50
102
RTVSPost2010PropOp37
 70
     1
102
RTVSPost2010Prop38
140
0.0
102
RTVSPost2010PropOp38
 70
     1
102
RTVSPost2010Prop39
140
1.0
102
RTVSPost2010PropOp39
 70
     1
102
RTVSPost2010Prop40
 90
        0
102
RTVSPost2010PropOp40
 70
     1
102
RTVSPost2010Prop41ColorIndex
 90
       18
102
RTVSPost2010Prop41ColorRGB
 90
        0
102
RTVSPost2010PropOp41
 70
     1
102
RTVSPost2010Prop42
 90
       50
102
RTVSPost2010PropOp42
 70
     1
102
RTVSPost2010Prop43
 90
        3
102
RTVSPost2010PropOp43
 70
     1
102
RTVSPost2010Prop44ColorIndex
 90
        5
102
RTVSPost2010Prop44ColorRGB
 90
      255
102
RTVSPost2010PropOp44
 70
     1
102
RTVSPost2010Prop45
280
     0
102
RTVSPost2010PropOp45
 70
     1
102
RTVSPost2010Prop46
 90
       50
102
RTVSPost2010PropOp46
 70
     1
102
RTVSPost2010Prop47
 90
       50
102
RTVSPost2010PropOp47
 70
     1
102
RTVSPost2010Prop48
 90
       50
102
RTVSPost2010PropOp48
 70
     1
102
RTVSPost2010Prop49
280
     0
102
RTVSPost2010PropOp49
 70
     1
102
RTVSPost2010Prop50
 90
       50
102
RTVSPost2010PropOp50
 70
     1
102
RTVSPost2010Prop51ColorIndex
 90
      256
102
RTVSPost2010Prop51ColorRGB
 90
-16777216
102
RTVSPost2010PropOp51
 70
     0
102
RTVSPost2010Prop52
140
1.0
102
RTVSPost2010PropOp52
 70
     0
102
RTVSPost2010Prop53
 90
        2
102
RTVSPost2010PropOp53
 70
     1
102
RTVSPost2010Prop54
  1
strokes_ogs.tif
102
RTVSPost2010PropOp54
 70
     1
102
RTVSPost2010Prop55
280
     0
102
RTVSPost2010PropOp55
 70
     1
102
RTVSPost2010Prop56
140
1.0
102
RTVSPost2010PropOp56
 70
     1
102
RTVSPost2010Prop57
140
1.0
102
RTVSPost2010PropOp57
 70
     1
102
RTVSPropertyOp0
 70
     1
102
RTVSPropertyOp1
 70
     1
102
RTVSPropertyOp2
 70
     1
102
RTVSPropertyOp3
 70
     1
102
RTVSPropertyOp4
 70
     1
102
RTVSPropertyOp5
 70
     1
102
RTVSPropertyOp6
 70
     1
102
RTVSPropertyOp7
 70
     1
102
RTVSPropertyOp8
 70
     1
102
RTVSPropertyOp9
 70
     1
102
RTVSPropertyOp10
 70
     1
102
RTVSPropertyOp11
 70
     1
102
RTVSPropertyOp12
 70
     1
102
RTVSPropertyOp13
 70
     1
102
RTVSPropertyOp14
 70
     1
102
RTVSPropertyOp15
 70
     1
102
RTVSPropertyOp16
 70
     1
102
RTVSPropertyOp17
 70
     1
102
RTVSPropertyOp18
 70
     1
102
RTVSPropertyOp19
 70
     1
102
RTVSPropertyOp20
 70
     1
102
RTVSPropertyOp21
 70
     1
102
RTVSPropertyOp22
 70
     1
102
RTVSPropertyOp23
 70
     1
102
RTVSPropertyOp24
 70
     1
102
RTVSPropertyOp25
 70
     1
102
RTVSPropertyOp26
 70
     1
102
RTVSPropertyOp27
 70
     1
102
RTVSPropertyOp28
 70
     1
102
RTVSPropertyOp29
 70
     1
102
RTVSPropertyOp30
 70
     1
102
RTVSPropertyOp31
 70
     1
102
RTVSPropertyOp32
 70
     1
102
RTVSPropertyOp33
 70
     1
102
RTVSPropertyOp34
 70
     1
102
RTVSPropertyOp35
 70
     1
102
RTVSPropertyOp36
 70
     1
102
RTVSPropertyOp37
 70
     1
102
RTVSPropertyOp38
 70
     1
102
RTVSPropertyOp39
 70
     1
102
RTVSPropertyOp40
 70
     1
102
RTVSPropertyOp41
 70
     1
102
RTVSPropertyOp42
 70
     1
102
RTVSPropertyOp43
 70
     1
102
RTVSPropertyOp44
 70
     1
102
RTVSPropertyOp45
 70
     1
102
RTVSPropertyOp46
 70
     1
102
RTVSPropertyOp47
 70
     1
102
RTVSPropertyOp48
 70
     1
102
RTVSPropertyOp49
 70
     1
102
RTVSPropertyOp50
 70
     1
102
RTVSPropertyOp51
 70
     0
102
RTVSPropertyOp52
 70
     0
102
RTVSPropertyOp53
 70
     1
102
RTVSPropertyOp54
 70
     1
102
RTVSPropertyOp55
 70
     1
102
RTVSPropertyOp56
 70
     1
102
RTVSPropertyOp57
 70
     1
102
RTVSPropertyOp58
 70
     1
102
RTVSPropertyOp59
 70
     1
102
RTVSPropertyOp60
 70
     1
102
RTVSPropertyOp61
 70
     1
102
RTVSPropertyOp62
 70
     1
  0
XRECORD
  5
1C99
102
{ACAD_REACTORS
330
1C98
102
}
330
1C98
100
AcDbXrecord
280
     1
102
RTVSPost2010Prop28
280
     0
102
RTVSPost2010PropOp28
 70
     1
102
RTVSPost2010Prop29
280
     1
102
RTVSPost2010PropOp29
 70
     1
102
RTVSPost2010Prop30
280
     1
102
RTVSPost2010PropOp30
 70
     1
102
RTVSPost2010Prop31
280
     0
102
RTVSPost2010PropOp31
 70
     1
102
RTVSPost2010Prop32
280
     0
102
RTVSPost2010PropOp32
 70
     1
102
RTVSPost2010Prop33
280
     0
102
RTVSPost2010PropOp33
 70
     1
102
RTVSPost2010Prop34
280
     0
102
RTVSPost2010PropOp34
 70
     1
102
RTVSPost2010Prop35
280
     0
102
RTVSPost2010PropOp35
 70
     1
102
RTVSPost2010Prop36
280
     0
102
RTVSPost2010PropOp36
 70
     1
102
RTVSPost2010Prop37
 90
       50
102
RTVSPost2010PropOp37
 70
     1
102
RTVSPost2010Prop38
140
0.0
102
RTVSPost2010PropOp38
 70
     1
102
RTVSPost2010Prop39
140
1.0
102
RTVSPost2010PropOp39
 70
     1
102
RTVSPost2010Prop40
 90
        0
102
RTVSPost2010PropOp40
 70
     1
102
RTVSPost2010Prop41ColorIndex
 90
       18
102
RTVSPost2010Prop41ColorRGB
 90
        0
102
RTVSPost2010PropOp41
 70
     1
102
RTVSPost2010Prop42
 90
       50
102
RTVSPost2010PropOp42
 70
     1
102
RTVSPost2010Prop43
 90
        3
102
RTVSPost2010PropOp43
 70
     1
102
RTVSPost2010Prop44ColorIndex
 90
        5
102
RTVSPost2010Prop44ColorRGB
 90
      255
102
RTVSPost2010PropOp44
 70
     1
102
RTVSPost2010Prop45
280
     0
102
RTVSPost2010PropOp45
 70
     1
102
RTVSPost2010Prop46
 90
       50
102
RTVSPost2010PropOp46
 70
     1
102
RTVSPost2010Prop47
 90
       50
102
RTVSPost2010PropOp47
 70
     1
102
RTVSPost2010Prop48
 90
       50
102
RTVSPost2010PropOp48
 70
     1
102
RTVSPost2010Prop49
280
     0
102
RTVSPost2010PropOp49
 70
     1
102
RTVSPost2010Prop50
 90
       50
102
RTVSPost2010PropOp50
 70
     1
102
RTVSPost2010Prop51ColorIndex
 90
      256
102
RTVSPost2010Prop51ColorRGB
 90
-16777216
102
RTVSPost2010PropOp51
 70
     0
102
RTVSPost2010Prop52
140
1.0
102
RTVSPost2010PropOp52
 70
     0
102
RTVSPost2010Prop53
 90
        2
102
RTVSPost2010PropOp53
 70
     1
102
RTVSPost2010Prop54
  1
strokes_ogs.tif
102
RTVSPost2010PropOp54
 70
     1
102
RTVSPost2010Prop55
280
     0
102
RTVSPost2010PropOp55
 70
     1
102
RTVSPost2010Prop56
140
1.0
102
RTVSPost2010PropOp56
 70
     1
102
RTVSPost2010Prop57
140
1.0
102
RTVSPost2010PropOp57
 70
     1
102
RTVSPropertyOp0
 70
     1
102
RTVSPropertyOp1
 70
     1
102
RTVSPropertyOp2
 70
     1
102
RTVSPropertyOp3
 70
     1
102
RTVSPropertyOp4
 70
     1
102
RTVSPropertyOp5
 70
     1
102
RTVSPropertyOp6
 70
     1
102
RTVSPropertyOp7
 70
     1
102
RTVSPropertyOp8
 70
     1
102
RTVSPropertyOp9
 70
     1
102
RTVSPropertyOp10
 70
     1
102
RTVSPropertyOp11
 70
     1
102
RTVSPropertyOp12
 70
     1
102
RTVSPropertyOp13
 70
     1
102
RTVSPropertyOp14
 70
     1
102
RTVSPropertyOp15
 70
     1
102
RTVSPropertyOp16
 70
     1
102
RTVSPropertyOp17
 70
     1
102
RTVSPropertyOp18
 70
     1
102
RTVSPropertyOp19
 70
     1
102
RTVSPropertyOp20
 70
     1
102
RTVSPropertyOp21
 70
     1
102
RTVSPropertyOp22
 70
     1
102
RTVSPropertyOp23
 70
     1
102
RTVSPropertyOp24
 70
     1
102
RTVSPropertyOp25
 70
     1
102
RTVSPropertyOp26
 70
     1
102
RTVSPropertyOp27
 70
     1
102
RTVSPropertyOp28
 70
     1
102
RTVSPropertyOp29
 70
     1
102
RTVSPropertyOp30
 70
     1
102
RTVSPropertyOp31
 70
     1
102
RTVSPropertyOp32
 70
     1
102
RTVSPropertyOp33
 70
     1
102
RTVSPropertyOp34
 70
     1
102
RTVSPropertyOp35
 70
     1
102
RTVSPropertyOp36
 70
     1
102
RTVSPropertyOp37
 70
     1
102
RTVSPropertyOp38
 70
     1
102
RTVSPropertyOp39
 70
     1
102
RTVSPropertyOp40
 70
     1
102
RTVSPropertyOp41
 70
     1
102
RTVSPropertyOp42
 70
     1
102
RTVSPropertyOp43
 70
     1
102
RTVSPropertyOp44
 70
     1
102
RTVSPropertyOp45
 70
     1
102
RTVSPropertyOp46
 70
     1
102
RTVSPropertyOp47
 70
     1
102
RTVSPropertyOp48
 70
     1
102
RTVSPropertyOp49
 70
     1
102
RTVSPropertyOp50
 70
     1
102
RTVSPropertyOp51
 70
     0
102
RTVSPropertyOp52
 70
     0
102
RTVSPropertyOp53
 70
     1
102
RTVSPropertyOp54
 70
     1
102
RTVSPropertyOp55
 70
     1
102
RTVSPropertyOp56
 70
     1
102
RTVSPropertyOp57
 70
     1
102
RTVSPropertyOp58
 70
     1
102
RTVSPropertyOp59
 70
     1
102
RTVSPropertyOp60
 70
     1
102
RTVSPropertyOp61
 70
     1
102
RTVSPropertyOp62
 70
     1
  0
ENDSEC
  0
EOF
