  0
SECTION
  2
HEADER
  9
$ACADVER
  1
AC1015
  9
$ACADMAINTVER
 70
    20
  9
$DWGCODEPAGE
  3
ANSI_1252
  9
$INSBASE
 10
0.0
 20
0.0
 30
0.0
  9
$EXTMIN
 10
-13.7407361289263
 20
34.4691479677208
 30
-0.0000000000000058
  9
$EXTMAX
 10
209.5618756336182
 20
162.7421578703706
 30
0.0000000000000104
  9
$LIMMIN
 10
-170.0
 20
-170.0
  9
$LIMMAX
 10
519.0
 20
260.0
  9
$ORTHOMODE
 70
     1
  9
$REGENMODE
 70
     1
  9
$FILLMODE
 70
     1
  9
$QTEXTMODE
 70
     0
  9
$MIRRTEXT
 70
     1
  9
$LTSCALE
 40
10.0
  9
$ATTMODE
 70
     1
  9
$TEXTSIZE
 40
3.5
  9
$TRACEWID
 40
0.05
  9
$TEXTSTYLE
  7
SIMPLEX
  9
$CLAYER
  8
1
  9
$CELTYPE
  6
BYLAYER
  9
$CECOLOR
 62
   256
  9
$CELTSCALE
 40
1.0
  9
$DISPSILH
 70
     0
  9
$DIMSCALE
 40
1.0
  9
$DIMASZ
 40
5.0
  9
$DIMEXO
 40
1.0
  9
$DIMDLI
 40
0.5
  9
$DIMRND
 40
0.0
  9
$DIMDLE
 40
0.0
  9
$DIMEXE
 40
1.0
  9
$DIMTP
 40
0.0
  9
$DIMTM
 40
0.0
  9
$DIMTXT
 40
5.0
  9
$DIMCEN
 40
0.0
  9
$DIMTSZ
 40
0.0
  9
$DIMTOL
 70
     0
  9
$DIMLIM
 70
     0
  9
$DIMTIH
 70
     0
  9
$DIMTOH
 70
     0
  9
$DIMSE1
 70
     0
  9
$DIMSE2
 70
     0
  9
$DIMTAD
 70
     1
  9
$DIMZIN
 70
     0
  9
$DIMBLK
  1

  9
$DIMASO
 70
     1
  9
$DIMSHO
 70
     1
  9
$DIMPOST
  1

  9
$DIMAPOST
  1

  9
$DIMALT
 70
     0
  9
$DIMALTD
 70
     2
  9
$DIMALTF
 40
25.4
  9
$DIMLFAC
 40
1.0
  9
$DIMTOFL
 70
     0
  9
$DIMTVP
 40
0.0
  9
$DIMTIX
 70
     0
  9
$DIMSOXD
 70
     0
  9
$DIMSAH
 70
     0
  9
$DIMBLK1
  1

  9
$DIMBLK2
  1

  9
$DIMSTYLE
  2
V-TYG_160-300
  9
$DIMCLRD
 70
     0
  9
$DIMCLRE
 70
     0
  9
$DIMCLRT
 70
     0
  9
$DIMTFAC
 40
1.0
  9
$DIMGAP
 40
1.0
  9
$DIMJUST
 70
     0
  9
$DIMSD1
 70
     0
  9
$DIMSD2
 70
     0
  9
$DIMTOLJ
 70
     1
  9
$DIMTZIN
 70
     0
  9
$DIMALTZ
 70
     0
  9
$DIMALTTZ
 70
     0
  9
$DIMUPT
 70
     0
  9
$DIMDEC
 70
     0
  9
$DIMTDEC
 70
     0
  9
$DIMALTU
 70
     2
  9
$DIMALTTD
 70
     2
  9
$DIMTXSTY
  7
STANDARD
  9
$DIMAUNIT
 70
     0
  9
$DIMADEC
 70
     0
  9
$DIMALTRND
 40
0.0
  9
$DIMAZIN
 70
     0
  9
$DIMDSEP
 70
    46
  9
$DIMATFIT
 70
     3
  9
$DIMFRAC
 70
     0
  9
$DIMLDRBLK
  1

  9
$DIMLUNIT
 70
     2
  9
$DIMLWD
 70
    -2
  9
$DIMLWE
 70
    -2
  9
$DIMTMOVE
 70
     0
  9
$LUNITS
 70
     2
  9
$LUPREC
 70
     2
  9
$SKETCHINC
 40
0.1
  9
$FILLETRAD
 40
0.0
  9
$AUNITS
 70
     0
  9
$AUPREC
 70
     0
  9
$MENU
  1
TDMWIN
  9
$ELEVATION
 40
0.0
  9
$PELEVATION
 40
0.0
  9
$THICKNESS
 40
0.0
  9
$LIMCHECK
 70
     0
  9
$CHAMFERA
 40
0.0
  9
$CHAMFERB
 40
0.0
  9
$CHAMFERC
 40
0.0
  9
$CHAMFERD
 40
0.0
  9
$SKPOLY
 70
     0
  9
$TDCREATE
 40
2455476.734932442
  9
$TDUCREATE
 40
2455476.505765776
  9
$TDUPDATE
 40
2455478.502303935
  9
$TDUUPDATE
 40
2455478.273137269
  9
$TDINDWG
 40
0.0076094907
  9
$TDUSRTIMER
 40
0.0076094907
  9
$USRTIMER
 70
     1
  9
$ANGBASE
 50
0.0
  9
$ANGDIR
 70
     0
  9
$PDMODE
 70
     2
  9
$PDSIZE
 40
0.0
  9
$PLINEWID
 40
0.0
  9
$SPLFRAME
 70
     0
  9
$SPLINETYPE
 70
     6
  9
$SPLINESEGS
 70
     8
  9
$HANDSEED
  5
186A
  9
$SURFTAB1
 70
     6
  9
$SURFTAB2
 70
     6
  9
$SURFTYPE
 70
     6
  9
$SURFU
 70
     6
  9
$SURFV
 70
     6
  9
$UCSBASE
  2

  9
$UCSNAME
  2

  9
$UCSORG
 10
133.0671896812011
 20
120.0200782060656
 30
0.0
  9
$UCSXDIR
 10
1.0
 20
0.0
 30
0.0
  9
$UCSYDIR
 10
0.0
 20
1.0
 30
0.0
  9
$UCSORTHOREF
  2

  9
$UCSORTHOVIEW
 70
     0
  9
$UCSORGTOP
 10
0.0
 20
0.0
 30
0.0
  9
$UCSORGBOTTOM
 10
0.0
 20
0.0
 30
0.0
  9
$UCSORGLEFT
 10
0.0
 20
0.0
 30
0.0
  9
$UCSORGRIGHT
 10
0.0
 20
0.0
 30
0.0
  9
$UCSORGFRONT
 10
0.0
 20
0.0
 30
0.0
  9
$UCSORGBACK
 10
0.0
 20
0.0
 30
0.0
  9
$PUCSBASE
  2

  9
$PUCSNAME
  2

  9
$PUCSORG
 10
0.0
 20
0.0
 30
0.0
  9
$PUCSXDIR
 10
1.0
 20
0.0
 30
0.0
  9
$PUCSYDIR
 10
0.0
 20
1.0
 30
0.0
  9
$PUCSORTHOREF
  2

  9
$PUCSORTHOVIEW
 70
     0
  9
$PUCSORGTOP
 10
0.0
 20
0.0
 30
0.0
  9
$PUCSORGBOTTOM
 10
0.0
 20
0.0
 30
0.0
  9
$PUCSORGLEFT
 10
0.0
 20
0.0
 30
0.0
  9
$PUCSORGRIGHT
 10
0.0
 20
0.0
 30
0.0
  9
$PUCSORGFRONT
 10
0.0
 20
0.0
 30
0.0
  9
$PUCSORGBACK
 10
0.0
 20
0.0
 30
0.0
  9
$USERI1
 70
     0
  9
$USERI2
 70
     0
  9
$USERI3
 70
     0
  9
$USERI4
 70
     0
  9
$USERI5
 70
     0
  9
$USERR1
 40
0.0
  9
$USERR2
 40
0.0
  9
$USERR3
 40
0.0
  9
$USERR4
 40
0.0
  9
$USERR5
 40
0.0
  9
$WORLDVIEW
 70
     1
  9
$SHADEDGE
 70
     3
  9
$SHADEDIF
 70
    70
  9
$TILEMODE
 70
     1
  9
$MAXACTVP
 70
    16
  9
$PINSBASE
 10
0.0
 20
0.0
 30
0.0
  9
$PLIMCHECK
 70
     0
  9
$PEXTMIN
 10
1.000000000000000E+20
 20
1.000000000000000E+20
 30
1.000000000000000E+20
  9
$PEXTMAX
 10
-1.000000000000000E+20
 20
-1.000000000000000E+20
 30
-1.000000000000000E+20
  9
$PLIMMIN
 10
0.0
 20
0.0
  9
$PLIMMAX
 10
12.0
 20
9.0
  9
$UNITMODE
 70
     0
  9
$VISRETAIN
 70
     0
  9
$PLINEGEN
 70
     0
  9
$PSLTSCALE
 70
     0
  9
$TREEDEPTH
 70
  3020
  9
$CMLSTYLE
  2
STANDARD
  9
$CMLJUST
 70
     0
  9
$CMLSCALE
 40
1.0
  9
$PROXYGRAPHICS
 70
     1
  9
$MEASUREMENT
 70
     1
  9
$CELWEIGHT
370
    -1
  9
$ENDCAPS
280
     0
  9
$JOINSTYLE
280
     0
  9
$LWDISPLAY
290
     0
  9
$INSUNITS
 70
     0
  9
$HYPERLINKBASE
  1

  9
$STYLESHEET
  1

  9
$XEDIT
290
     1
  9
$CEPSNTYPE
380
     0
  9
$PSTYLEMODE
290
     1
  9
$FINGERPRINTGUID
  2
{9528353D-E95C-4313-A625-FBBF9D1103E8}
  9
$VERSIONGUID
  2
{3BAD4E4F-6C70-44E3-8289-900CC0229B02}
  9
$EXTNAMES
290
     1
  9
$PSVPSCALE
 40
0.0
  9
$OLESTARTUP
290
     0
  0
ENDSEC
  0
SECTION
  2
CLASSES
  0
CLASS
  1
ACDBDICTIONARYWDFLT
  2
AcDbDictionaryWithDefault
  3
ObjectDBX Classes
 90
        0
280
     0
281
     0
  0
CLASS
  1
ACDBPLACEHOLDER
  2
AcDbPlaceHolder
  3
ObjectDBX Classes
 90
        0
280
     0
281
     0
  0
CLASS
  1
LAYOUT
  2
AcDbLayout
  3
ObjectDBX Classes
 90
        0
280
     0
281
     0
  0
CLASS
  1
MATERIAL
  2
AcDbMaterial
  3
ObjectDBX Classes
 90
     1024
280
     0
281
     0
  0
CLASS
  1
VISUALSTYLE
  2
AcDbVisualStyle
  3
ObjectDBX Classes
 90
     4095
280
     0
281
     0
  0
CLASS
  1
TABLESTYLE
  2
AcDbTableStyle
  3
ObjectDBX Classes
 90
     4095
280
     0
281
     0
  0
CLASS
  1
SORTENTSTABLE
  2
AcDbSortentsTable
  3
ObjectDBX Classes
 90
        0
280
     0
281
     0
  0
CLASS
  1
DICTIONARYVAR
  2
AcDbDictionaryVar
  3
ObjectDBX Classes
 90
        0
280
     0
281
     0
  0
ENDSEC
  0
SECTION
  2
TABLES
  0
TABLE
  2
VPORT
  5
8
330
0
100
AcDbSymbolTable
 70
     1
  0
VPORT
  5
1288
330
8
100
AcDbSymbolTableRecord
100
AcDbViewportTableRecord
  2
*Active
 70
     0
 10
0.0
 20
0.0
 11
1.0
 21
1.0
 12
97.91056975234598
 22
98.60565291904574
 13
0.0
 23
0.0
 14
5.0
 24
5.0
 15
5.0
 25
5.0
 16
0.0
 26
0.0
 36
1.0
 17
0.0
 27
0.0
 37
0.0
 40
161.9264643099238
 41
1.387275242047026
 42
50.0
 43
0.0
 44
0.0
 50
0.0
 51
0.0
 71
     0
 72
   100
 73
     1
 74
     3
 75
     0
 76
     0
 77
     0
 78
     0
281
     0
 65
     1
110
0.0
120
0.0
130
0.0
111
1.0
121
0.0
131
0.0
112
0.0
122
1.0
132
0.0
 79
     0
146
0.0
  0
ENDTAB
  0
TABLE
  2
LTYPE
  5
5
330
0
100
AcDbSymbolTable
 70
     3
  0
LTYPE
  5
13
330
5
100
AcDbSymbolTableRecord
100
AcDbLinetypeTableRecord
  2
BYBLOCK
 70
     0
  3

 72
    65
 73
     0
 40
0.0
  0
LTYPE
  5
14
330
5
100
AcDbSymbolTableRecord
100
AcDbLinetypeTableRecord
  2
BYLAYER
 70
     0
  3

 72
    65
 73
     0
 40
0.0
  0
LTYPE
  5
15
330
5
100
AcDbSymbolTableRecord
100
AcDbLinetypeTableRecord
  2
CONTINUOUS
 70
     0
  3
Solid line
 72
    65
 73
     0
 40
0.0
  0
LTYPE
  5
20
330
5
100
AcDbSymbolTableRecord
100
AcDbLinetypeTableRecord
  2
CENTER
 70
     0
  3
____ . ____ . ____
 72
    65
 73
     4
 40
1.5
 49
1.0
 74
     0
 49
-0.25
 74
     0
 49
0.0
 74
     0
 49
-0.25
 74
     0
  0
LTYPE
  5
21
330
5
100
AcDbSymbolTableRecord
100
AcDbLinetypeTableRecord
  2
HIDDEN
 70
     0
  3
_ _ _ _ _ _ _ _ _ _ _ _ _ _ _ _ _ _ _ _ _ _ _
 72
    65
 73
     2
 40
0.375
 49
0.25
 74
     0
 49
-0.125
 74
     0
  0
ENDTAB
  0
TABLE
  2
LAYER
  5
2
330
0
100
AcDbSymbolTable
 70
    16
  0
LAYER
  5
F
330
2
100
AcDbSymbolTableRecord
100
AcDbLayerTableRecord
  2
0
 70
     0
 62
     7
  6
CONTINUOUS
370
    -3
390
E94
  0
LAYER
  5
1E
330
2
100
AcDbSymbolTableRecord
100
AcDbLayerTableRecord
  2
1
 70
     0
 62
     4
  6
CONTINUOUS
370
    -3
390
E94
  0
LAYER
  5
22
330
2
100
AcDbSymbolTableRecord
100
AcDbLayerTableRecord
  2
SK1
 70
     0
 62
     4
  6
CONTINUOUS
370
    -3
390
E94
  0
LAYER
  5
23
330
2
100
AcDbSymbolTableRecord
100
AcDbLayerTableRecord
  2
2
 70
     0
 62
     7
  6
CONTINUOUS
370
    -3
390
E94
  0
LAYER
  5
24
330
2
100
AcDbSymbolTableRecord
100
AcDbLayerTableRecord
  2
2L
 70
     0
 62
     7
  6
CONTINUOUS
370
    -3
390
E94
  0
LAYER
  5
25
330
2
100
AcDbSymbolTableRecord
100
AcDbLayerTableRecord
  2
SK2
 70
     0
 62
     7
  6
CONTINUOUS
370
    -3
390
E94
  0
LAYER
  5
26
330
2
100
AcDbSymbolTableRecord
100
AcDbLayerTableRecord
  2
3
 70
     0
 62
     1
  6
HIDDEN
370
    -3
390
E94
  0
LAYER
  5
27
330
2
100
AcDbSymbolTableRecord
100
AcDbLayerTableRecord
  2
SK3
 70
     0
 62
     1
  6
HIDDEN
370
    -3
390
E94
  0
LAYER
  5
28
330
2
100
AcDbSymbolTableRecord
100
AcDbLayerTableRecord
  2
4
 70
     0
 62
     2
  6
CENTER
370
    -3
390
E94
  0
LAYER
  5
29
330
2
100
AcDbSymbolTableRecord
100
AcDbLayerTableRecord
  2
SK4
 70
     0
 62
     2
  6
CENTER
370
    -3
390
E94
  0
LAYER
  5
2A
330
2
100
AcDbSymbolTableRecord
100
AcDbLayerTableRecord
  2
5
 70
     0
 62
     7
  6
CONTINUOUS
370
    -3
390
E94
  0
LAYER
  5
2B
330
2
100
AcDbSymbolTableRecord
100
AcDbLayerTableRecord
  2
6
 70
     0
 62
     5
  6
CONTINUOUS
370
    -3
390
E94
  0
LAYER
  5
2C
330
2
100
AcDbSymbolTableRecord
100
AcDbLayerTableRecord
  2
SK6
 70
     0
 62
     5
  6
CONTINUOUS
370
    -3
390
E94
  0
LAYER
  5
2D
330
2
100
AcDbSymbolTableRecord
100
AcDbLayerTableRecord
  2
243
 70
     0
 62
     7
  6
CONTINUOUS
370
    -3
390
E94
  0
LAYER
  5
2E
330
2
100
AcDbSymbolTableRecord
100
AcDbLayerTableRecord
  2
DEFPOINTS
 70
     0
 62
     7
  6
CONTINUOUS
290
     0
370
    -3
390
E94
  0
LAYER
  5
C07
330
2
100
AcDbSymbolTableRecord
100
AcDbLayerTableRecord
  2
FRONT
 70
     0
 62
     7
  6
CONTINUOUS
370
    -3
390
E94
  0
ENDTAB
  0
TABLE
  2
STYLE
  5
3
330
0
100
AcDbSymbolTable
 70
     4
  0
STYLE
  5
10
330
3
100
AcDbSymbolTableRecord
100
AcDbTextStyleTableRecord
  2
STANDARD
 70
     0
 40
0.0
 41
1.0
 50
0.0
 71
     0
 42
5.0
  3
txt
  4

  0
STYLE
  5
1F
330
3
100
AcDbSymbolTableRecord
100
AcDbTextStyleTableRecord
  2
SIMPLEX
 70
     0
 40
0.0
 41
1.0
 50
0.0
 71
     0
 42
3.5
  3
simplex
  4

  0
STYLE
  5
2F
330
3
100
AcDbSymbolTableRecord
100
AcDbTextStyleTableRecord
  2
TXT
 70
     0
 40
8.0
 41
1.0
 50
0.0
 71
     0
 42
8.0
  3
txt
  4

  0
STYLE
  5
C08
330
3
100
AcDbSymbolTableRecord
100
AcDbTextStyleTableRecord
  2
UGMTXT
 70
     0
 40
0.0
 41
1.0
 50
0.0
 71
     0
 42
0.2
  3
ugmtxt
  4
bigfont
  0
ENDTAB
  0
TABLE
  2
VIEW
  5
6
330
0
100
AcDbSymbolTable
 70
     0
  0
ENDTAB
  0
TABLE
  2
UCS
  5
7
330
0
100
AcDbSymbolTable
 70
     0
  0
ENDTAB
  0
TABLE
  2
APPID
  5
9
330
0
100
AcDbSymbolTable
 70
     3
  0
APPID
  5
11
330
9
100
AcDbSymbolTableRecord
100
AcDbRegAppTableRecord
  2
ACAD
 70
     0
  0
APPID
  5
E8F
330
9
100
AcDbSymbolTableRecord
100
AcDbRegAppTableRecord
  2
CONTENTBLOCKICON
 70
     0
  0
APPID
  5
1749
330
9
100
AcDbSymbolTableRecord
100
AcDbRegAppTableRecord
  2
ACAD_EXEMPT_FROM_CAD_STANDARDS
 70
     0
  0
ENDTAB
  0
TABLE
  2
DIMSTYLE
  5
A
330
0
100
AcDbSymbolTable
 70
     5
100
AcDbDimStyleTable
 71
     5
340
D92
340
1273
340
D91
340
D93
340
980
  0
DIMSTYLE
105
980
330
A
100
AcDbSymbolTableRecord
100
AcDbDimStyleTableRecord
  2
STANDARD
 70
     0
340
10
  0
DIMSTYLE
105
D91
330
A
100
AcDbSymbolTableRecord
100
AcDbDimStyleTableRecord
  2
V-TYGEN_-160
 70
     0
 41
3.5
 42
1.0
 43
0.5
 44
1.0
 73
     0
 74
     0
 77
     1
140
3.5
141
0.0
147
1.0
271
     0
272
     0
340
10
371
    -1
  0
DIMSTYLE
105
D92
102
{ACAD_REACTORS
330
16EF
330
170F
330
171C
330
1732
330
1750
330
175F
102
}
330
A
100
AcDbSymbolTableRecord
100
AcDbDimStyleTableRecord
  2
V-TYG_160-300
 70
     0
 41
5.0
 42
1.0
 43
0.5
 44
1.0
 73
     0
 74
     0
 77
     1
140
5.0
141
0.0
147
1.0
271
     0
272
     0
340
10
  0
DIMSTYLE
105
D93
330
A
100
AcDbSymbolTableRecord
100
AcDbDimStyleTableRecord
  2
V-TYG_300-
 70
     0
 41
8.0
 42
1.0
 43
0.5
 44
1.0
 73
     0
 74
     0
 77
     1
140
8.0
141
0.0
147
1.0
271
     0
272
     0
340
10
  0
DIMSTYLE
105
1273
330
A
100
AcDbSymbolTableRecord
100
AcDbDimStyleTableRecord
  2
Inserts
 70
     0
 41
0.5
 42
1.0
 43
0.5
 44
1.0
 73
     0
 74
     0
 77
     1
140
0.8
141
0.0
147
1.0
271
     0
272
     0
340
10
371
    -1
  0
ENDTAB
  0
TABLE
  2
BLOCK_RECORD
  5
1
330
0
100
AcDbSymbolTable
 70
    21
  0
BLOCK_RECORD
  5
19
102
{ACAD_XDICTIONARY
360
E8D
102
}
330
1
100
AcDbSymbolTableRecord
100
AcDbBlockTableRecord
  2
*MODEL_SPACE
340
E95
  0
BLOCK_RECORD
  5
16
102
{ACAD_XDICTIONARY
360
E8B
102
}
330
1
100
AcDbSymbolTableRecord
100
AcDbBlockTableRecord
  2
*PAPER_SPACE
340
E96
  0
BLOCK_RECORD
  5
A8B
330
1
100
AcDbSymbolTableRecord
100
AcDbBlockTableRecord
  2
2D00035417
340
0
310
2800000020000000200000000100080000000000000400000000000000000000000000000000000000000000000080000080000000808000800000008000800080800000C0C0C000C0DCC000F0CAA6000020400000206000002080000020A0000020C0000020E00000400000004020000040400000406000004080000040A0
310
000040C0000040E00000600000006020000060400000606000006080000060A0000060C0000060E00000800000008020000080400000806000008080000080A0000080C0000080E00000A0000000A0200000A0400000A0600000A0800000A0A00000A0C00000A0E00000C0000000C0200000C0400000C0600000C0800000C0
310
A00000C0C00000C0E00000E0000000E0200000E0400000E0600000E0800000E0A00000E0C00000E0E00040000000400020004000400040006000400080004000A0004000C0004000E00040200000402020004020400040206000402080004020A0004020C0004020E000404000004040200040404000404060004040800040
310
40A0004040C0004040E00040600000406020004060400040606000406080004060A0004060C0004060E00040800000408020004080400040806000408080004080A0004080C0004080E00040A0000040A0200040A0400040A0600040A0800040A0A00040A0C00040A0E00040C0000040C0200040C0400040C0600040C08000
310
40C0A00040C0C00040C0E00040E0000040E0200040E0400040E0600040E0800040E0A00040E0C00040E0E00080000000800020008000400080006000800080008000A0008000C0008000E00080200000802020008020400080206000802080008020A0008020C0008020E00080400000804020008040400080406000804080
310
008040A0008040C0008040E00080600000806020008060400080606000806080008060A0008060C0008060E00080800000808020008080400080806000808080008080A0008080C0008080E00080A0000080A0200080A0400080A0600080A0800080A0A00080A0C00080A0E00080C0000080C0200080C0400080C0600080C0
310
800080C0A00080C0C00080C0E00080E0000080E0200080E0400080E0600080E0800080E0A00080E0C00080E0E000C0000000C0002000C0004000C0006000C0008000C000A000C000C000C000E000C0200000C0202000C0204000C0206000C0208000C020A000C020C000C020E000C0400000C0402000C0404000C0406000C0
310
408000C040A000C040C000C040E000C0600000C0602000C0604000C0606000C0608000C060A000C060C000C060E000C0800000C0802000C0804000C0806000C0808000C080A000C080C000C080E000C0A00000C0A02000C0A04000C0A06000C0A08000C0A0A000C0A0C000C0A0E000C0C00000C0C02000C0C04000C0C06000
310
C0C08000C0C0A000F0FBFF00A4A0A000808080000000FF0000FF000000FFFF00FF000000FF00FF00FFFF0000FFFFFF0000000000000000000000000000000000000000000000000000000000000000000000000000000000000000000000000000000000000000000000000000000000000000000000000000000000000000
310
00000000000000000000000000000000000000000000000000000000000000000000000000000000000000000000000000000000000000000000000000000000000000000000000000000000000000000000000000000000000000000000000000000000000000000000000000000000000000000000000000000000000000
310
00000000000000000000000000000000000000000000000000000000000000000000000000000000000000000000000000000000000000000000000000000000000000000000000000000000000000000000000000000000000000000000000000000000000000000000000000000000000000000000000000000000000000
310
00000000000000000000000000000000000000000000000000000000000000000000000000000000000000000000000000000000000000000000000000000000000000000000000000000000000000000000000000FEFEFEFEFEFEFEFEFEFEFEFEFEFEFEFEFEFEFEFEFEFE000000FEFEFEFE0000FEFE000000000000000000
310
0000000000000000000000FEFEFEFEFEFEFEFE0000FEFE0000000000000000000000000000000000000000FEFE0000FEFEFE000000FEFE0000000000000000000000000000000000000000FEFE0000FEFEFE000000FEFE0000000000000000000000000000000000000000FEFEFEFEFEFEFEFE000000FEFEFEFEFEFEFEFEFE
310
FEFEFEFEFEFEFEFEFEFEFEFEFE000000FEFEFEFE0000000000000000000000000000000000000000000000000000000000000000000000000000000000000000000000000000000000000000000000000000000000000000000000000000000000000000000000000000000000000000000000000000000000000000000000
310
00000000000000000000000000000000000000000000000000000000000000000000000000000000000000000000000000000000000000000000000000000000000000000000000000000000000000000000000000000000000000000000000000000000000000000000000000000000000000000000000000000000000000
310
00000000000000000000000000000000000000000000000000000000000000000000000000000000000000000000000000000000000000000000000000000000000000000000000000000000000000000000000000000000000000000000000000000000000000000000000000000000000000000000000000000000000000
310
0000000000000000000000000000000000000000000000000000000000000000000000000000000000000000000000000000000000000000
102
{BLKREFS
331
C04
102
}
  0
BLOCK_RECORD
  5
C03
330
1
100
AcDbSymbolTableRecord
100
AcDbBlockTableRecord
  2
ROFFE
340
0
310
2800000020000000200000000100080000000000000400000000000000000000000000000000000000000000000080000080000000808000800000008000800080800000C0C0C000C0DCC000F0CAA6000020400000206000002080000020A0000020C0000020E00000400000004020000040400000406000004080000040A0
310
000040C0000040E00000600000006020000060400000606000006080000060A0000060C0000060E00000800000008020000080400000806000008080000080A0000080C0000080E00000A0000000A0200000A0400000A0600000A0800000A0A00000A0C00000A0E00000C0000000C0200000C0400000C0600000C0800000C0
310
A00000C0C00000C0E00000E0000000E0200000E0400000E0600000E0800000E0A00000E0C00000E0E00040000000400020004000400040006000400080004000A0004000C0004000E00040200000402020004020400040206000402080004020A0004020C0004020E000404000004040200040404000404060004040800040
310
40A0004040C0004040E00040600000406020004060400040606000406080004060A0004060C0004060E00040800000408020004080400040806000408080004080A0004080C0004080E00040A0000040A0200040A0400040A0600040A0800040A0A00040A0C00040A0E00040C0000040C0200040C0400040C0600040C08000
310
40C0A00040C0C00040C0E00040E0000040E0200040E0400040E0600040E0800040E0A00040E0C00040E0E00080000000800020008000400080006000800080008000A0008000C0008000E00080200000802020008020400080206000802080008020A0008020C0008020E00080400000804020008040400080406000804080
310
008040A0008040C0008040E00080600000806020008060400080606000806080008060A0008060C0008060E00080800000808020008080400080806000808080008080A0008080C0008080E00080A0000080A0200080A0400080A0600080A0800080A0A00080A0C00080A0E00080C0000080C0200080C0400080C0600080C0
310
800080C0A00080C0C00080C0E00080E0000080E0200080E0400080E0600080E0800080E0A00080E0C00080E0E000C0000000C0002000C0004000C0006000C0008000C000A000C000C000C000E000C0200000C0202000C0204000C0206000C0208000C020A000C020C000C020E000C0400000C0402000C0404000C0406000C0
310
408000C040A000C040C000C040E000C0600000C0602000C0604000C0606000C0608000C060A000C060C000C060E000C0800000C0802000C0804000C0806000C0808000C080A000C080C000C080E000C0A00000C0A02000C0A04000C0A06000C0A08000C0A0A000C0A0C000C0A0E000C0C00000C0C02000C0C04000C0C06000
310
C0C08000C0C0A000F0FBFF00A4A0A000808080000000FF0000FF000000FFFF00FF000000FF00FF00FFFF0000FFFFFF0000000000000000000000000000000000000000000000000000000000000000000000000000000000000000000000000000000000000000000000000000000000000000000000000000000000000000
310
00000000000000000000000000000000000000000000000000000000000000000000000000000000000000000000000000000000000000000000000000000000000000000000000000000000000000000000000000000000000000000000000000000000000000000000000000000000000000000000000000000000000000
310
00000000000000000000000000000000000000000000000000000000000000000000000000000000000000000000000000000000000000000000000000000000000000000000000000000000000000000000000000000000000000000000000000000000000000000000000000000000000000000000000000000000000000
310
00000000000000000000000000000000000000000000000000000000000000000000000000000000000000000000000000000000000000000000000000000000000000000000000000000000000000000000000000FEFEFEFEFEFEFEFEFEFEFEFEFEFEFEFEFEFEFEFEFEFE000000FEFEFEFE0000FEFE000000000000000000
310
0000000000000000000000FEFEFEFEFEFEFEFE0000FEFE0000000000000000000000000000000000000000FEFE0000FEFEFE000000FEFE0000000000000000000000000000000000000000FEFE0000FEFEFE000000FEFE0000000000000000000000000000000000000000FEFEFEFEFEFEFEFE000000FEFEFEFEFEFEFEFEFE
310
FEFEFEFEFEFEFEFEFEFEFEFEFE000000FEFEFEFE0000000000000000000000000000000000000000000000000000000000000000000000000000000000000000000000000000000000000000000000000000000000000000000000000000000000000000000000000000000000000000000000000000000000000000000000
310
00000000000000000000000000000000000000000000000000000000000000000000000000000000000000000000000000000000000000000000000000000000000000000000000000000000000000000000000000000000000000000000000000000000000000000000000000000000000000000000000000000000000000
310
00000000000000000000000000000000000000000000000000000000000000000000000000000000000000000000000000000000000000000000000000000000000000000000000000000000000000000000000000000000000000000000000000000000000000000000000000000000000000000000000000000000000000
310
0000000000000000000000000000000000000000000000000000000000000000000000000000000000000000000000000000000000000000
  0
BLOCK_RECORD
  5
12A5
330
1
100
AcDbSymbolTableRecord
100
AcDbBlockTableRecord
  2
*D2
340
0
  0
BLOCK_RECORD
  5
12B1
330
1
100
AcDbSymbolTableRecord
100
AcDbBlockTableRecord
  2
*D3
340
0
  0
BLOCK_RECORD
  5
12BD
330
1
100
AcDbSymbolTableRecord
100
AcDbBlockTableRecord
  2
*D4
340
0
  0
BLOCK_RECORD
  5
12C9
330
1
100
AcDbSymbolTableRecord
100
AcDbBlockTableRecord
  2
*D5
340
0
  0
BLOCK_RECORD
  5
12D6
330
1
100
AcDbSymbolTableRecord
100
AcDbBlockTableRecord
  2
*D6
340
0
  0
BLOCK_RECORD
  5
12E2
330
1
100
AcDbSymbolTableRecord
100
AcDbBlockTableRecord
  2
*D7
340
0
  0
BLOCK_RECORD
  5
166F
330
1
100
AcDbSymbolTableRecord
100
AcDbBlockTableRecord
  2
*D8
340
0
  0
BLOCK_RECORD
  5
167B
330
1
100
AcDbSymbolTableRecord
100
AcDbBlockTableRecord
  2
*D9
340
0
  0
BLOCK_RECORD
  5
1687
330
1
100
AcDbSymbolTableRecord
100
AcDbBlockTableRecord
  2
*D10
340
0
  0
BLOCK_RECORD
  5
1693
330
1
100
AcDbSymbolTableRecord
100
AcDbBlockTableRecord
  2
*D11
340
0
  0
BLOCK_RECORD
  5
169F
330
1
100
AcDbSymbolTableRecord
100
AcDbBlockTableRecord
  2
*D12
340
0
  0
BLOCK_RECORD
  5
16AB
330
1
100
AcDbSymbolTableRecord
100
AcDbBlockTableRecord
  2
*D13
340
0
  0
BLOCK_RECORD
  5
16F0
330
1
100
AcDbSymbolTableRecord
100
AcDbBlockTableRecord
  2
*D14
340
0
  0
BLOCK_RECORD
  5
1710
330
1
100
AcDbSymbolTableRecord
100
AcDbBlockTableRecord
  2
*D15
340
0
  0
BLOCK_RECORD
  5
171D
330
1
100
AcDbSymbolTableRecord
100
AcDbBlockTableRecord
  2
*D16
340
0
  0
BLOCK_RECORD
  5
1733
330
1
100
AcDbSymbolTableRecord
100
AcDbBlockTableRecord
  2
*D17
340
0
  0
BLOCK_RECORD
  5
1751
330
1
100
AcDbSymbolTableRecord
100
AcDbBlockTableRecord
  2
*D18
340
0
  0
BLOCK_RECORD
  5
1760
330
1
100
AcDbSymbolTableRecord
100
AcDbBlockTableRecord
  2
*D19
340
0
  0
BLOCK_RECORD
  5
176D
330
1
100
AcDbSymbolTableRecord
100
AcDbBlockTableRecord
  2
*D20
340
0
  0
ENDTAB
  0
ENDSEC
  0
SECTION
  2
BLOCKS
  0
BLOCK
  5
1A
330
19
100
AcDbEntity
  8
0
100
AcDbBlockBegin
  2
*MODEL_SPACE
 70
     0
 10
0.0
 20
0.0
 30
0.0
  3
*MODEL_SPACE
  1

  0
ENDBLK
  5
1B
330
19
100
AcDbEntity
  8
0
100
AcDbBlockEnd
  0
BLOCK
  5
17
330
16
100
AcDbEntity
 67
     1
  8
0
100
AcDbBlockBegin
  2
*PAPER_SPACE
 70
     0
 10
0.0
 20
0.0
 30
0.0
  3
*PAPER_SPACE
  1

  0
ENDBLK
  5
18
330
16
100
AcDbEntity
 67
     1
  8
0
100
AcDbBlockEnd
  0
BLOCK
  5
C01
330
A8B
100
AcDbEntity
  8
0
100
AcDbBlockBegin
  2
2D00035417
 70
     0
 10
0.0
 20
0.0
 30
0.0
  3
2D00035417
  1

  0
LINE
  5
A8C
330
A8B
100
AcDbEntity
  8
FRONT
  6
Continuous
 62
     4
100
AcDbLine
 10
0.8660254037844552
 20
5.5
 30
0.0
 11
0.0
 21
6.000000000000002
 31
0.0
  0
LINE
  5
A8D
330
A8B
100
AcDbEntity
  8
FRONT
  6
Continuous
 62
     4
100
AcDbLine
 10
0.0
 20
-6.000000000000002
 30
0.0
 11
0.8660254037844552
 21
-5.5
 31
0.0
  0
LINE
  5
A8E
330
A8B
100
AcDbEntity
  8
FRONT
  6
Continuous
 62
     4
100
AcDbLine
 10
-62.0
 20
5.5
 30
0.0
 11
-62.0
 21
-5.499999999999992
 31
0.0
  0
LINE
  5
A8F
330
A8B
100
AcDbEntity
  8
FRONT
  6
Continuous
 62
     4
100
AcDbLine
 10
-61.5
 20
6.0
 30
0.0
 11
-61.5
 21
-5.999999999999992
 31
0.0
  0
LINE
  5
A90
330
A8B
100
AcDbEntity
  8
FRONT
  6
Continuous
 62
     4
100
AcDbLine
 10
0.0
 20
6.000000000000007
 30
0.0
 11
0.0
 21
-6.000000000000007
 31
0.0
  0
LINE
  5
A91
330
A8B
100
AcDbEntity
  8
FRONT
  6
Continuous
 62
     4
100
AcDbLine
 10
-61.5
 20
-6.0
 30
0.0
 11
0.0
 21
-6.0
 31
0.0
  0
LINE
  5
A92
330
A8B
100
AcDbEntity
  8
FRONT
  6
Continuous
 62
     4
100
AcDbLine
 10
-62.0
 20
-5.499999999999992
 30
0.0
 11
-61.5
 21
-5.999999999999992
 31
0.0
  0
LINE
  5
A93
330
A8B
100
AcDbEntity
  8
FRONT
  6
Continuous
 62
     4
100
AcDbLine
 10
0.0
 20
6.0
 30
0.0
 11
-61.5
 21
6.000000000000007
 31
0.0
  0
LINE
  5
A94
330
A8B
100
AcDbEntity
  8
FRONT
  6
Continuous
 62
     4
100
AcDbLine
 10
-61.5
 20
6.0
 30
0.0
 11
-62.0
 21
5.5
 31
0.0
  0
LINE
  5
A95
330
A8B
100
AcDbEntity
  8
FRONT
  6
Continuous
 62
     4
100
AcDbLine
 10
17.29745226804206
 20
3.509679345658438
 30
0.0
 11
17.29745226804206
 21
-5.017742724400552
 31
0.0
  0
LINE
  5
A96
330
A8B
100
AcDbEntity
  8
FRONT
  6
Continuous
 62
     4
100
AcDbLine
 10
11.19220462092714
 20
3.417991427849383
 30
0.0
 11
11.19220462092714
 21
-5.268704490765056
 31
0.0
  0
LINE
  5
A97
330
A8B
100
AcDbEntity
  8
FRONT
  6
Continuous
 62
     4
100
AcDbLine
 10
12.3980252578104
 20
3.543839759641738
 30
0.0
 11
12.3980252578104
 21
-4.715335514294036
 31
0.0
  0
LINE
  5
A98
330
A8B
100
AcDbEntity
  8
FRONT
  6
Continuous
 62
     4
100
AcDbLine
 10
0.8660254037844552
 20
5.5
 30
0.0
 11
0.8660254037844552
 21
-5.5
 31
0.0
  0
LINE
  5
A99
330
A8B
100
AcDbEntity
  8
FRONT
  6
Continuous
 62
     4
100
AcDbLine
 10
13.74838568128198
 20
3.593205653172365
 30
0.0
 11
13.74838568128198
 21
-5.032064792663311
 31
0.0
  0
LINE
  5
A9A
330
A8B
100
AcDbEntity
  8
FRONT
  6
Continuous
 62
     4
100
AcDbLine
 10
17.48879939540238
 20
-4.816380228107217
 30
0.0
 11
17.48879939540238
 21
3.479278271624338
 31
0.0
  0
LINE
  5
A9B
330
A8B
100
AcDbEntity
  8
FRONT
  6
Continuous
 62
     4
100
AcDbLine
 10
12.52411245174376
 20
-5.148811565010388
 30
0.0
 11
12.2699596882263
 21
-5.474819161767424
 31
0.0
  0
ELLIPSE
  5
A9C
330
A8B
100
AcDbEntity
  8
FRONT
  6
Continuous
 62
     4
100
AcDbEllipse
 10
12.59483653351634
 20
-4.836421402054659
 30
0.0
 11
-0.1764278460445979
 21
0.0941977448772153
 31
0.0
210
0.0
220
0.0
230
1.0
 40
0.9833059182774052
 41
0.6405173247906966
 42
2.071687311428429
  0
ELLIPSE
  5
A9D
330
A8B
100
AcDbEntity
  8
FRONT
  6
Continuous
 62
     4
100
AcDbEllipse
 10
12.58626641887234
 20
-4.852472814633401
 30
0.0
 11
-0.264641769065345
 21
0.1412966173186371
 31
0.0
210
0.0
220
0.0
230
1.0
 40
0.9833059182774
 41
0.6405173248015057
 42
2.071687311439271
  0
ELLIPSE
  5
A9E
330
A8B
100
AcDbEntity
  8
FRONT
  6
Continuous
 62
     4
100
AcDbEllipse
 10
12.53491299669396
 20
-4.91373583192963
 30
0.0
 11
-0.1776346087653321
 21
-0.1633261946229406
 31
0.0
210
0.0
220
0.0
230
0.9999999999999998
 40
0.9518042298991375
 41
5.720439864303834
 42
7.08930315248491
  0
SPLINE
  5
A9F
330
A8B
100
AcDbEntity
  8
FRONT
  6
Continuous
 62
     4
100
AcDbSpline
210
0.0
220
0.0
230
1.0
 70
     8
 71
     2
 72
     6
 73
     3
 74
     0
 42
0.0000000001
 43
0.0000000001
 40
0.0
 40
0.0
 40
0.0
 40
1.0
 40
1.0
 40
1.0
 10
14.62245185943817
 20
-5.87714135957826
 30
0.0
 10
13.33868913679801
 20
-5.833317719863607
 30
0.0
 10
12.05492333661389
 20
-5.761440262542944
 30
0.0
  0
SPLINE
  5
AA0
330
A8B
100
AcDbEntity
  8
FRONT
  6
Continuous
 62
     4
100
AcDbSpline
210
0.0
220
0.0
230
1.0
 70
     8
 71
     2
 72
     6
 73
     3
 74
     0
 42
0.0000000001
 43
0.0000000001
 40
0.0
 40
0.0
 40
0.0
 40
1.0
 40
1.0
 40
1.0
 10
12.03715634521592
 20
-5.830492901738484
 30
0.0
 10
12.99283696601092
 20
-5.878254479706018
 30
0.0
 10
13.94849592177253
 20
-5.91037423780608
 30
0.0
  0
SPLINE
  5
AA1
330
A8B
100
AcDbEntity
  8
FRONT
  6
Continuous
 62
     4
100
AcDbSpline
210
0.0
220
0.0
230
1.0
 70
     8
 71
     3
 72
    10
 73
     6
 74
     0
 42
0.0000000001
 43
0.0000000001
 40
0.0
 40
0.0
 40
0.0
 40
0.0
 40
0.413998097170399
 40
0.8317102975705793
 40
1.0
 40
1.0
 40
1.0
 40
1.0
 10
13.65251602410751
 20
-5.651687726725348
 30
0.0
 10
13.45228491644905
 20
-5.637638509379486
 30
0.0
 10
13.05861779128649
 20
-5.600401635138268
 30
0.0
 10
12.59642516693621
 20
-5.539019558091951
 30
0.0
 10
12.34205829435077
 20
-5.489820631199273
 30
0.0
 10
12.2699596882263
 20
-5.474819161767424
 30
0.0
  0
SPLINE
  5
AA2
330
A8B
100
AcDbEntity
  8
FRONT
  6
Continuous
 62
     4
100
AcDbSpline
210
0.0
220
0.0
230
1.0
 70
     8
 71
     2
 72
     6
 73
     3
 74
     0
 42
0.0000000001
 43
0.0000000001
 40
0.0
 40
0.0
 40
0.0
 40
1.0
 40
1.0
 40
1.0
 10
13.61429623476742
 20
-5.667122247227887
 30
0.0
 10
12.88790047388035
 20
-5.627861963387118
 30
0.0
 10
12.16152824195172
 20
-5.579846203347781
 30
0.0
  0
SPLINE
  5
AA3
330
A8B
100
AcDbEntity
  8
FRONT
  6
Continuous
 62
     4
100
AcDbSpline
210
0.0
220
0.0
230
1.0
 70
     8
 71
     2
 72
     6
 73
     3
 74
     0
 42
0.0000000001
 43
0.0000000001
 40
0.0
 40
0.0
 40
0.0
 40
1.0
 40
1.0
 40
1.0
 10
17.4863838813945
 20
-5.914121941707048
 30
0.0
 10
14.77806455657193
 20
-5.88204522422477
 30
0.0
 10
12.06951141172709
 20
-5.72451506620573
 30
0.0
  0
SPLINE
  5
AA4
330
A8B
100
AcDbEntity
  8
FRONT
  6
Continuous
 62
     4
100
AcDbSpline
210
0.0
220
0.0
230
1.0
 70
     8
 71
     3
 72
    13
 73
     9
 74
     0
 42
0.0000000001
 43
0.0000000001
 40
0.0
 40
0.0
 40
0.0
 40
0.0
 40
0.1221948788939986
 40
0.3409322576720923
 40
0.5593089850044601
 40
0.7634079375909129
 40
0.9483404453246466
 40
1.0
 40
1.0
 40
1.0
 40
1.0
 10
13.21765994700341
 20
-5.008998841068255
 30
0.0
 10
13.21008985781698
 20
-4.986912363625971
 30
0.0
 10
13.17823433448347
 20
-4.926841776453724
 30
0.0
 10
13.07361191277297
 20
-4.829791137456386
 30
0.0
 10
12.88884659553877
 20
-4.74181959386623
 30
0.0
 10
12.67056256702776
 20
-4.697037384916851
 30
0.0
 10
12.50187045502288
 20
-4.699685032400541
 30
0.0
 10
12.41657811424804
 20
-4.712092428703162
 30
0.0
 10
12.39802525781035
 20
-4.715335514293908
 30
0.0
  0
ELLIPSE
  5
AA5
330
A8B
100
AcDbEntity
  8
FRONT
  6
Continuous
 62
     4
100
AcDbEllipse
 10
5.66201983816218
 20
-0.0000000000335509
 30
0.0
 11
-30.04133316929991
 21
2.588839177181581
 31
0.0
210
0.0
220
0.0
230
1.0
 40
0.1615314150625295
 41
1.478397138584063
 42
1.769839153165509
  0
SPLINE
  5
AA6
330
A8B
100
AcDbEntity
  8
FRONT
  6
Continuous
 62
     4
100
AcDbSpline
210
0.0
220
0.0
230
1.0
 70
     8
 71
     3
 72
    13
 73
     9
 74
     0
 42
0.0000000001
 43
0.0000000001
 40
0.0
 40
0.0
 40
0.0
 40
0.0
 40
0.111195031304195
 40
0.2657804119641697
 40
0.4822058427557557
 40
0.6989752890855822
 40
0.9172035917595028
 40
1.0
 40
1.0
 40
1.0
 40
1.0
 10
1.345325372781968
 20
-5.499999327115823
 30
0.0
 10
1.398511539679659
 20
-5.499310768582706
 30
0.0
 10
1.538983733379424
 20
-5.487567585039426
 30
0.0
 10
1.854584013762764
 20
-5.418189805484521
 30
0.0
 10
2.329371189940173
 20
-5.271647579637816
 30
0.0
 10
2.940699872587572
 20
-5.059593436719063
 30
0.0
 10
3.480267253473383
 20
-4.873448667483954
 30
0.0
 10
3.808123122364646
 20
-4.762436312820168
 30
0.0
 10
3.899607151901193
 20
-4.731554934786731
 30
0.0
  0
LINE
  5
AA7
330
A8B
100
AcDbEntity
  8
FRONT
  6
Continuous
 62
     4
100
AcDbLine
 10
0.8660254037844552
 20
-5.5
 30
0.0
 11
1.352746725880145
 21
-5.5
 31
0.0
  0
ELLIPSE
  5
AA8
330
A8B
100
AcDbEntity
  8
FRONT
  6
Continuous
 62
     4
100
AcDbEllipse
 10
12.00000899116139
 20
-16.06832890666516
 30
0.0
 11
-14.85880604145566
 21
5.93421040515988
 31
0.0
210
0.0
220
0.0
230
1.0
 40
0.8742329960678898
 41
5.792900081455464
 42
5.811533204192437
  0
SPLINE
  5
AA9
330
A8B
100
AcDbEntity
  8
FRONT
  6
Continuous
 62
     4
100
AcDbSpline
210
0.0
220
0.0
230
1.0
 70
     8
 71
     3
 72
    13
 73
     9
 74
     0
 42
0.0000000001
 43
0.0000000001
 40
0.0
 40
0.0
 40
0.0
 40
0.0
 40
0.0708887435082171
 40
0.2571724611284706
 40
0.5329963062952721
 40
0.7291217371113851
 40
0.9254339909461146
 40
1.0
 40
1.0
 40
1.0
 40
1.0
 10
1.195562502632583
 20
-4.790625489461174
 30
0.0
 10
1.213912861725795
 20
-4.776794773960335
 30
0.0
 10
1.285762723978912
 20
-4.729112862436839
 30
0.0
 10
1.488346843837938
 20
-4.648305888484085
 30
0.0
 10
1.783730465684264
 20
-4.592365381939607
 30
0.0
 10
2.095253569585678
 20
-4.572953003185091
 30
0.0
 10
2.314409026134284
 20
-4.578924439658588
 30
0.0
 10
2.439434992623304
 20
-4.589560477122677
 30
0.0
 10
2.473778129000645
 20
-4.593052498405127
 30
0.0
  0
SPLINE
  5
AAA
330
A8B
100
AcDbEntity
  8
FRONT
  6
Continuous
 62
     4
100
AcDbSpline
210
0.0
220
0.0
230
1.0
 70
     8
 71
     2
 72
     6
 73
     3
 74
     0
 42
0.0000000001
 43
0.0000000001
 40
0.0
 40
0.0
 40
0.0
 40
1.0
 40
1.0
 40
1.0
 10
1.120663577351435
 20
-4.879877191273159
 30
0.0
 10
1.140463196528336
 20
-4.83298467063259
 30
0.0
 10
1.195562502632583
 20
-4.790625489461174
 30
0.0
  0
SPLINE
  5
AAB
330
A8B
100
AcDbEntity
  8
FRONT
  6
Continuous
 62
     4
100
AcDbSpline
210
0.0
220
0.0
230
1.0
 70
     8
 71
     3
 72
    12
 73
     8
 74
     0
 42
0.0000000001
 43
0.0000000001
 40
0.0
 40
0.0
 40
0.0
 40
0.0
 40
0.2338452144524324
 40
0.4675970184665896
 40
0.701762765663897
 40
0.9359711320872667
 40
1.0
 40
1.0
 40
1.0
 40
1.0
 10
1.120663577351435
 20
-4.879877191273159
 30
0.0
 10
1.081791927506593
 20
-4.975462956792688
 30
0.0
 10
1.030111601870139
 20
-5.144886500420123
 30
0.0
 10
1.027342870416914
 20
-5.338220270821794
 30
0.0
 10
1.109594465876227
 20
-5.457981564958576
 30
0.0
 10
1.233664404095364
 20
-5.496508749567235
 30
0.0
 10
1.324763405221041
 20
-5.50007654266059
 30
0.0
 10
1.345325372781968
 20
-5.499999327115823
 30
0.0
  0
LINE
  5
AAC
330
A8B
100
AcDbEntity
  8
FRONT
  6
Continuous
 62
     4
100
AcDbLine
 10
12.26430749227676
 20
-4.727059865963761
 30
0.0
 11
12.29104950531358
 21
-4.894695500397101
 31
0.0
  0
LINE
  5
AAD
330
A8B
100
AcDbEntity
  8
FRONT
  6
Continuous
 62
     4
100
AcDbLine
 10
12.05195883253294
 20
-5.282066276975115
 30
0.0
 11
12.07142987167434
 21
-5.257090327121177
 31
0.0
  0
LINE
  5
AAE
330
A8B
100
AcDbEntity
  8
FRONT
  6
Continuous
 62
     4
100
AcDbLine
 10
11.73862963750702
 20
-5.461687541797807
 30
0.0
 11
11.75466693733003
 21
-5.546759538624929
 31
0.0
  0
LINE
  5
AAF
330
A8B
100
AcDbEntity
  8
FRONT
  6
Continuous
 62
     4
100
AcDbLine
 10
12.37475758366253
 20
-4.718713550200846
 30
0.0
 11
12.3980252578104
 21
-4.864569859230441
 31
0.0
  0
LINE
  5
AB0
330
A8B
100
AcDbEntity
  8
FRONT
  6
Continuous
 62
     4
100
AcDbLine
 10
12.29104950531358
 20
-4.894695500397101
 30
0.0
 11
12.30173417735763
 21
-4.961673695881327
 31
0.0
  0
LINE
  5
AB1
330
A8B
100
AcDbEntity
  8
FRONT
  6
Continuous
 62
     4
100
AcDbLine
 10
12.1154520297858
 20
-5.200622092145676
 30
0.0
 11
12.30173417735763
 21
-4.961673695881327
 31
0.0
  0
ELLIPSE
  5
AB2
330
A8B
100
AcDbEntity
  8
FRONT
  6
Continuous
 62
     4
100
AcDbEllipse
 10
12.16010065627367
 20
-5.364110026768818
 30
0.0
 11
-0.1629665045002963
 21
0.162301935942986
 31
0.0
210
0.0
220
0.0
230
1.0
 40
0.885395213116765
 41
0.9406572002840926
 42
2.300026522294225
  0
ELLIPSE
  5
AB3
330
A8B
100
AcDbEntity
  8
FRONT
  6
Continuous
 62
     4
100
AcDbEllipse
 10
10.7327861538169
 20
-6.237521875482824
 30
0.0
 11
-0.1862107868856989
 21
2.621605320212951
 31
0.0
210
0.0
220
0.0
230
0.9999999999999998
 40
0.4178728177031461
 41
4.983018135371414
 42
5.015339106062617
  0
ELLIPSE
  5
AB4
330
A8B
100
AcDbEntity
  8
FRONT
  6
Continuous
 62
     4
100
AcDbEllipse
 10
10.87421353467201
 20
-0.0952172533848828
 30
0.0
 11
-0.6453609818231091
 21
5.423953475707063
 31
0.0
210
0.0
220
0.0
230
1.0
 40
0.4002139493379774
 41
3.301152841311651
 42
3.433631365786768
  0
ELLIPSE
  5
AB5
330
A8B
100
AcDbEntity
  8
FRONT
  6
Continuous
 62
     4
100
AcDbEllipse
 10
12.05114473010541
 20
-5.545182037602573
 30
0.0
 11
-0.2141351294070844
 21
0.0839413268520247
 31
0.0
210
0.0
220
0.0
230
1.0
 40
0.7465216560962231
 41
0.5997695972309498
 42
1.937897467873524
  0
ELLIPSE
  5
AB6
330
A8B
100
AcDbEntity
  8
FRONT
  6
Continuous
 62
     4
100
AcDbEllipse
 10
12.05060526702193
 20
-5.546128395411039
 30
0.0
 11
-0.1654325527084979
 21
0.1597875793175752
 31
0.0
210
0.0
220
0.0
230
0.9999999999999998
 40
0.882922871075139
 41
0.9271183505009291
 42
2.296772776618916
  0
ELLIPSE
  5
AB7
330
A8B
100
AcDbEntity
  8
FRONT
  6
Continuous
 62
     4
100
AcDbEllipse
 10
12.29961961995718
 20
-4.878644087818582
 30
0.0
 11
-0.0987513760092463
 21
-0.0157532770020267
 31
0.0
210
0.0
220
0.0
230
1.0
 40
0.1458931740710974
 41
1.460656485145534
 42
3.031452811938669
  0
ELLIPSE
  5
AB8
330
A8B
100
AcDbEntity
  8
FRONT
  6
Continuous
 62
     4
100
AcDbEllipse
 10
335.219081173506
 20
-27.65352952608379
 30
0.0
 11
-342.1452092599433
 21
28.7644353191734
 31
0.0
210
0.0
220
0.0
230
1.0
 40
0.0434239235819959
 41
0.3305623080092169
 42
0.336553522992711
  0
ELLIPSE
  5
AB9
330
A8B
100
AcDbEntity
  8
FRONT
  6
Continuous
 62
     4
100
AcDbEllipse
 10
12.61274556700008
 20
-7.087755426446605
 30
0.0
 11
-0.6874421685867658
 21
4.776216476972511
 31
0.0
210
0.0
220
0.0
230
1.0
 40
0.0505508379540167
 41
1.059760007862942
 42
1.160653432741368
  0
SPLINE
  5
ABA
330
A8B
100
AcDbEntity
  8
FRONT
  6
Continuous
 62
     4
100
AcDbSpline
210
0.0
220
0.0
230
1.0
 70
    24
 71
     1
 72
     4
 73
     2
 74
     0
 42
0.0000000001
 43
0.0000000001
 40
0.0
 40
0.0
 40
1.0
 40
1.0
 10
11.83847321585812
 20
-5.567069085629718
 30
0.0
 10
11.83901267894247
 20
-5.566122727825887
 30
0.0
  0
SPLINE
  5
ABB
330
A8B
100
AcDbEntity
  8
FRONT
  6
Continuous
 62
     4
100
AcDbSpline
210
0.0
220
0.0
230
1.0
 70
     8
 71
     3
 72
    12
 73
     8
 74
     0
 42
0.0000000001
 43
0.0000000001
 40
0.0
 40
0.0
 40
0.0
 40
0.0
 40
0.0007970805857311
 40
0.2615790368690925
 40
0.5223632910078863
 40
0.9992029194147567
 40
1.0
 40
1.0
 40
1.0
 40
1.0
 10
12.06951141172706
 20
-5.72451506620573
 30
0.0
 10
12.06948314701705
 20
-5.724610988602324
 30
0.0
 10
12.06830139779342
 20
-5.728621512447585
 30
0.0
 10
12.06584538067532
 20
-5.73637821965794
 30
0.0
 10
12.0610158647334
 20
-5.749472267031435
 30
0.0
 10
12.05732682921892
 20
-5.75726605425465
 30
0.0
 10
12.05497323553964
 20
-5.761353601725923
 30
0.0
 10
12.05492333661389
 20
-5.761440262542944
 30
0.0
  0
SPLINE
  5
ABC
330
A8B
100
AcDbEntity
  8
FRONT
  6
Continuous
 62
     4
100
AcDbSpline
210
0.0
220
0.0
230
1.0
 70
    24
 71
     1
 72
     4
 73
     2
 74
     0
 42
0.0000000001
 43
0.0000000001
 40
0.0
 40
0.0
 40
1.0
 40
1.0
 10
11.77084472479986
 20
-5.637701490563106
 30
0.0
 10
11.83847321585812
 20
-5.567069085629722
 30
0.0
  0
SPLINE
  5
ABD
330
A8B
100
AcDbEntity
  8
FRONT
  6
Continuous
 62
     4
100
AcDbSpline
210
0.0
220
0.0
230
1.0
 70
     8
 71
     2
 72
     6
 73
     3
 74
     0
 42
0.0000000001
 43
0.0000000001
 40
0.0
 40
0.0
 40
0.0
 40
1.0
 40
1.0
 40
1.0
 10
12.26612713977722
 20
-5.47418946266737
 30
0.0
 10
12.21369198338541
 20
-5.526401979383564
 30
0.0
 10
12.16152824195172
 20
-5.579846203347781
 30
0.0
  0
SPLINE
  5
ABE
330
A8B
100
AcDbEntity
  8
FRONT
  6
Continuous
 62
     4
100
AcDbSpline
210
0.0
220
0.0
230
1.0
 70
    24
 71
     1
 72
     4
 73
     2
 74
     0
 42
0.0000000001
 43
0.0000000001
 40
0.0
 40
0.0
 40
1.0
 40
1.0
 10
12.2699596882263
 20
-5.474819161767427
 30
0.0
 10
12.26612713977731
 20
-5.47418946266733
 30
0.0
  0
SPLINE
  5
ABF
330
A8B
100
AcDbEntity
  8
FRONT
  6
Continuous
 62
     4
100
AcDbSpline
210
0.0
220
0.0
230
1.0
 70
    24
 71
     1
 72
     4
 73
     2
 74
     0
 42
0.0000000001
 43
0.0000000001
 40
0.0
 40
0.0
 40
1.0
 40
1.0
 10
11.75466693733006
 20
-5.546759538624929
 30
0.0
 10
11.77084472479986
 20
-5.637701490563197
 30
0.0
  0
SPLINE
  5
AC0
330
A8B
100
AcDbEntity
  8
FRONT
  6
Continuous
 62
     4
100
AcDbSpline
210
0.0
220
0.0
230
1.0
 70
     8
 71
     3
 72
    12
 73
     8
 74
     0
 42
0.0000000001
 43
0.0000000001
 40
0.0
 40
0.0
 40
0.0
 40
0.0
 40
0.0001979715625893
 40
0.3804243462904076
 40
0.6884015213626393
 40
0.9998020284374039
 40
1.0
 40
1.0
 40
1.0
 40
1.0
 10
12.16152824195172
 20
-5.579846203347781
 30
0.0
 10
12.16145494845797
 20
-5.579914233221867
 30
0.0
 10
12.14800020764509
 20
-5.592402712335362
 30
0.0
 10
12.12460907423586
 20
-5.619318961954996
 30
0.0
 10
12.09413125687514
 20
-5.668815656959997
 30
0.0
 10
12.07735989436437
 20
-5.705022480727572
 30
0.0
 10
12.06954876176722
 20
-5.72442230320394
 30
0.0
 10
12.06951141172706
 20
-5.72451506620573
 30
0.0
  0
SPLINE
  5
AC1
330
A8B
100
AcDbEntity
  8
FRONT
  6
Continuous
 62
     4
100
AcDbSpline
210
0.0
220
0.0
230
1.0
 70
     8
 71
     3
 72
    11
 73
     7
 74
     0
 42
0.0000000001
 43
0.0000000001
 40
0.0
 40
0.0
 40
0.0
 40
0.0
 40
0.0003046676542752
 40
0.2859486271382446
 40
0.5715925864685599
 40
1.0
 40
1.0
 40
1.0
 40
1.0
 10
12.05492333661392
 20
-5.761440262542944
 30
0.0
 10
12.05485458948857
 20
-5.761512883702093
 30
0.0
 10
12.04890508266609
 20
-5.767797656751879
 30
0.0
 10
12.0368932920704
 20
-5.780516646112557
 30
0.0
 10
12.01590433567814
 20
-5.802847200540763
 30
0.0
 10
12.00092977263713
 20
-5.818873351337892
 30
0.0
 10
11.99195171433706
 20
-5.82851593948345
 30
0.0
  0
SPLINE
  5
AC2
330
A8B
100
AcDbEntity
  8
FRONT
  6
Continuous
 62
     4
100
AcDbSpline
210
0.0
220
0.0
230
1.0
 70
     8
 71
     3
 72
    10
 73
     6
 74
     0
 42
0.0000000001
 43
0.0000000001
 40
0.0
 40
0.0
 40
0.0
 40
0.0
 40
0.3783609825527917
 40
0.8357001481048397
 40
1.0
 40
1.0
 40
1.0
 40
1.0
 10
11.92547454029552
 20
-4.97636464574548
 30
0.0
 10
11.92640289606277
 20
-5.008713239544544
 30
0.0
 10
11.9475704542029
 20
-5.078030220539246
 30
0.0
 10
12.02773237930664
 20
-5.158970478124096
 30
0.0
 10
12.09728872776178
 20
-5.203611051795411
 30
0.0
 10
12.11721712142133
 20
-5.215153759323888
 30
0.0
  0
SPLINE
  5
AC3
330
A8B
100
AcDbEntity
  8
FRONT
  6
Continuous
 62
     4
100
AcDbSpline
210
0.0
220
0.0
230
1.0
 70
    24
 71
     1
 72
     4
 73
     2
 74
     0
 42
0.0000000001
 43
0.0000000001
 40
0.0
 40
0.0
 40
1.0
 40
1.0
 10
11.99195171433702
 20
-5.828515939483446
 30
0.0
 10
12.03715635432748
 20
-5.830493677100303
 30
0.0
  0
SPLINE
  5
AC4
330
A8B
100
AcDbEntity
  8
FRONT
  6
Continuous
 62
     4
100
AcDbSpline
210
0.0
220
0.0
230
1.0
 70
    24
 71
     1
 72
     4
 73
     2
 74
     0
 42
0.0000000001
 43
0.0000000001
 40
0.0
 40
0.0
 40
1.0
 40
1.0
 10
11.83901267894153
 20
-5.566122727821471
 30
0.0
 10
11.9479686051097
 20
-5.385050716987656
 30
0.0
  0
SPLINE
  5
AC5
330
A8B
100
AcDbEntity
  8
FRONT
  6
Continuous
 62
     4
100
AcDbSpline
210
0.0
220
0.0
230
1.0
 70
    24
 71
     1
 72
     4
 73
     2
 74
     0
 42
0.0000000001
 43
0.0000000001
 40
0.0
 40
0.0
 40
1.0
 40
1.0
 10
11.9479686051097
 20
-5.385050716987656
 30
0.0
 10
12.05195883253294
 20
-5.282066276975115
 30
0.0
  0
SPLINE
  5
AC6
330
A8B
100
AcDbEntity
  8
FRONT
  6
Continuous
 62
     4
100
AcDbSpline
210
0.0
220
0.0
230
1.0
 70
     8
 71
     3
 72
    12
 73
     8
 74
     0
 42
0.0000000001
 43
0.0000000001
 40
0.0
 40
0.0
 40
0.0
 40
0.0
 40
0.2440298709825522
 40
0.488120310074948
 40
0.7306421972591243
 40
0.9701993202335991
 40
1.0
 40
1.0
 40
1.0
 40
1.0
 10
11.99195171433709
 20
-5.82851593948345
 30
0.0
 10
11.96562176469131
 20
-5.827267267325022
 30
0.0
 10
11.91614572163951
 20
-5.817153042582487
 30
0.0
 10
11.84798307522928
 20
-5.777355599814407
 30
0.0
 10
11.79694752140735
 20
-5.718879229510209
 30
0.0
 10
11.77656470249855
 20
-5.668220081294727
 30
0.0
 10
11.77135854082036
 20
-5.640760675661914
 30
0.0
 10
11.77084472479986
 20
-5.637701490563109
 30
0.0
  0
SPLINE
  5
AC7
330
A8B
100
AcDbEntity
  8
FRONT
  6
Continuous
 62
     4
100
AcDbSpline
210
0.0
220
0.0
230
1.0
 70
     8
 71
     3
 72
    12
 73
     8
 74
     0
 42
0.0000000001
 43
0.0000000001
 40
0.0
 40
0.0
 40
0.0
 40
0.0
 40
0.2494158432111992
 40
0.4988262431130359
 40
0.7483784991253286
 40
0.9306372409059042
 40
1.0
 40
1.0
 40
1.0
 40
1.0
 10
12.26612713977725
 20
-5.474189462667368
 30
0.0
 10
12.24074389915803
 20
-5.470905762207362
 30
0.0
 10
12.19300726095426
 20
-5.45734271395117
 30
0.0
 10
12.12696856456717
 20
-5.413990106048153
 30
0.0
 10
12.08152368192698
 20
-5.359081947772208
 30
0.0
 10
12.0601917046491
 20
-5.312655749461065
 30
0.0
 10
12.05351014507608
 20
-5.288741533352951
 30
0.0
 10
12.05195883253294
 20
-5.282066276975186
 30
0.0
  0
SPLINE
  5
AC8
330
A8B
100
AcDbEntity
  8
FRONT
  6
Continuous
 62
     4
100
AcDbSpline
210
0.0
220
0.0
230
1.0
 70
     8
 71
     3
 72
    12
 73
     8
 74
     0
 42
0.0000000001
 43
0.0000000001
 40
0.0
 40
0.0
 40
0.0
 40
0.0
 40
0.2310224464948759
 40
0.4620128681126269
 40
0.700559328220569
 40
0.9585437245442095
 40
1.0
 40
1.0
 40
1.0
 40
1.0
 10
12.39802525781044
 20
-4.715335514294038
 30
0.0
 10
12.33170953226865
 20
-4.714864780624963
 30
0.0
 10
12.21155122598614
 20
-4.724956838763255
 30
0.0
 10
12.06026597347468
 20
-4.778355069166565
 30
0.0
 10
11.95757756141464
 20
-4.859331154412664
 30
0.0
 10
11.92685169980244
 20
-4.930597414275522
 30
0.0
 10
11.92538238415322
 20
-4.970764610147099
 30
0.0
 10
11.92547454029552
 20
-4.97636464574548
 30
0.0
  0
LINE
  5
AC9
330
A8B
100
AcDbEntity
  8
FRONT
  6
Continuous
 62
     4
100
AcDbLine
 10
15.84223636732298
 20
-3.792713428712794
 30
0.0
 11
15.84224378306065
 21
-3.174912246999863
 31
0.0
  0
LINE
  5
ACA
330
A8B
100
AcDbEntity
  8
FRONT
  6
Continuous
 62
     4
100
AcDbLine
 10
17.89827503693186
 20
-4.305849194799658
 30
0.0
 11
17.5908596611797
 21
-2.933128552700321
 31
0.0
  0
ELLIPSE
  5
ACB
330
A8B
100
AcDbEntity
  8
FRONT
  6
Continuous
 62
     4
100
AcDbEllipse
 10
15.54074239609756
 20
-0.0033845369197216
 30
0.0
 11
-0.0787240753221909
 21
-5.634958844023342
 31
0.0
210
0.0
220
0.0
230
0.9999999999999998
 40
0.0848761530590921
 41
0.8344445634990043
 42
0.9971121243690364
  0
ELLIPSE
  5
ACC
330
A8B
100
AcDbEntity
  8
FRONT
  6
Continuous
 62
     4
100
AcDbEllipse
 10
14.84592289431094
 20
-3.161093469702696
 30
0.0
 11
-0.7939253072066414
 21
0.4238898519389809
 31
0.0
210
0.0
220
0.0
230
1.0
 40
0.9833059182791441
 41
3.141592653589792
 42
6.283185307179584
  0
ELLIPSE
  5
ACD
330
A8B
100
AcDbEntity
  8
FRONT
  6
Continuous
 62
     4
100
AcDbEllipse
 10
14.82057983206995
 20
-3.208559806495621
 30
0.0
 11
-0.6124566485468032
 21
0.3270007338409036
 31
0.0
210
0.0
220
0.0
230
1.0
 40
0.9833059182791558
 41
0.0
 42
6.283185307179584
  0
ELLIPSE
  5
ACE
330
A8B
100
AcDbEntity
  8
FRONT
  6
Continuous
 62
     4
100
AcDbEllipse
 10
13.53332915049316
 20
-0.0034367749653255
 30
0.0
 11
-0.0799385486845723
 21
-5.721889020223127
 31
0.0
210
0.0
220
0.0
230
1.0
 40
0.0848761529690107
 41
0.8609885795557556
 42
1.010813097306142
  0
ELLIPSE
  5
ACF
330
A8B
100
AcDbEntity
  8
FRONT
  6
Continuous
 62
     4
100
AcDbEllipse
 10
14.84592289431431
 20
-3.161093469702228
 30
0.0
 11
-0.793925307234311
 21
0.42388985189299
 31
0.0
210
0.0
220
0.0
230
1.0
 40
0.9833059182785405
 41
0.0
 42
1.217655899238259
  0
ELLIPSE
  5
AD0
330
A8B
100
AcDbEntity
  8
FRONT
  6
Continuous
 62
     4
100
AcDbEllipse
 10
14.80294988243549
 20
-3.241579854311311
 30
0.0
 11
-0.7939252851528728
 21
0.4238898401648104
 31
0.0
210
0.0
220
0.0
230
1.0
 40
0.9833059182791334
 41
3.193165641446312
 42
5.213279965006496
  0
LINE
  5
AD1
330
A8B
100
AcDbEntity
  8
FRONT
  6
Continuous
 62
     4
100
AcDbLine
 10
12.59147932455181
 20
-5.148581112793888
 30
0.0
 11
16.67361660422962
 21
-5.134616718352519
 31
0.0
  0
ELLIPSE
  5
AD2
330
A8B
100
AcDbEntity
  8
FRONT
  6
Continuous
 62
     4
100
AcDbEllipse
 10
14.84592289572717
 20
-3.161093470714305
 30
0.0
 11
-0.7939253088795834
 21
0.4238898451415228
 31
0.0
210
0.0
220
0.0
230
1.0
 40
0.9833059192021876
 41
2.862822081785346
 42
3.141592646178711
  0
ELLIPSE
  5
AD3
330
A8B
100
AcDbEntity
  8
FRONT
  6
Continuous
 62
     4
100
AcDbEllipse
 10
26.03145212602744
 20
0.4201256460465415
 30
0.0
 11
-60.22774572573949
 21
0.8391642046853387
 31
0.0
210
0.0
220
0.0
230
1.0
 40
0.0733360947234748
 41
1.395961454238489
 42
1.401822529636017
  0
ELLIPSE
  5
AD4
330
A8B
100
AcDbEntity
  8
FRONT
  6
Continuous
 62
     4
100
AcDbEllipse
 10
-2.102243007827921
 20
0.5190125394426035
 30
0.0
 11
-74.39203540301211
 21
1.036502535843046
 31
0.0
210
0.0
220
0.0
230
1.0
 40
0.0733366707427299
 41
1.786532921110053
 42
1.835644438831914
  0
SPLINE
  5
AD5
330
A8B
100
AcDbEntity
  8
FRONT
  6
Continuous
 62
     4
100
AcDbSpline
210
0.0
220
0.0
230
1.0
 70
    24
 71
     1
 72
     4
 73
     2
 74
     0
 42
0.0000000001
 43
0.0000000001
 40
0.0
 40
0.0
 40
1.0
 40
1.0
 10
17.59489872014192
 20
-5.975264142052814
 30
0.0
 10
14.60613712230076
 20
-5.930601946215396
 30
0.0
  0
SPLINE
  5
AD6
330
A8B
100
AcDbEntity
  8
FRONT
  6
Continuous
 62
     4
100
AcDbSpline
210
0.0
220
0.0
230
1.0
 70
     8
 71
     2
 72
     6
 73
     3
 74
     0
 42
0.0000000001
 43
0.0000000001
 40
0.0
 40
0.0
 40
0.0
 40
1.0
 40
1.0
 40
1.0
 10
17.53382959937809
 20
-5.939844692875301
 30
0.0
 10
16.07823206326433
 20
-5.926820755708295
 30
0.0
 10
14.62245185943817
 20
-5.87714135957826
 30
0.0
  0
SPLINE
  5
AD7
330
A8B
100
AcDbEntity
  8
FRONT
  6
Continuous
 62
     4
100
AcDbSpline
210
0.0
220
0.0
230
1.0
 70
    24
 71
     1
 72
     4
 73
     2
 74
     0
 42
0.0000000001
 43
0.0000000001
 40
0.0
 40
0.0
 40
1.0
 40
1.0
 10
15.13868294684773
 20
-5.711454223476931
 30
0.0
 10
17.25016942408504
 20
-5.752170042241942
 30
0.0
  0
SPLINE
  5
AD8
330
A8B
100
AcDbEntity
  8
FRONT
  6
Continuous
 62
     4
100
AcDbSpline
210
0.0
220
0.0
230
1.0
 70
     8
 71
     2
 72
     6
 73
     3
 74
     0
 42
0.0000000001
 43
0.0000000001
 40
0.0
 40
0.0
 40
0.0
 40
1.0
 40
1.0
 40
1.0
 10
17.29538407867861
 20
-5.788382807545392
 30
0.0
 10
16.20626920503309
 20
-5.775330117086896
 30
0.0
 10
15.12493514742535
 20
-5.739186742282312
 30
0.0
  0
SPLINE
  5
AD9
330
A8B
100
AcDbEntity
  8
FRONT
  6
Continuous
 62
     4
100
AcDbSpline
210
0.0
220
0.0
230
1.0
 70
     8
 71
     2
 72
     6
 73
     3
 74
     0
 42
0.0000000001
 43
0.0000000001
 40
0.0
 40
0.0
 40
0.0
 40
1.0
 40
1.0
 40
1.0
 10
17.31289606147389
 20
-5.809345576655007
 30
0.0
 10
16.21894412271205
 20
-5.784442697072787
 30
0.0
 10
15.12493514742539
 20
-5.739186742282306
 30
0.0
  0
LINE
  5
ADA
330
A8B
100
AcDbEntity
  8
FRONT
  6
Continuous
 62
     4
100
AcDbLine
 10
13.21506101770313
 20
-5.031717125328196
 30
0.0
 11
13.70168904333385
 21
-5.030052442043299
 31
0.0
  0
LINE
  5
ADB
330
A8B
100
AcDbEntity
  8
FRONT
  6
Continuous
 62
     4
100
AcDbLine
 10
12.59831180396925
 20
-5.033826934161636
 30
0.0
 11
13.21506101770313
 21
-5.031717125328196
 31
0.0
  0
LINE
  5
ADC
330
A8B
100
AcDbEntity
  8
FRONT
  6
Continuous
 62
     4
100
AcDbLine
 10
12.52411245174376
 20
-5.148811565010388
 30
0.0
 11
12.59147932455181
 21
-5.148581112793888
 31
0.0
  0
LINE
  5
ADD
330
A8B
100
AcDbEntity
  8
FRONT
  6
Continuous
 62
     4
100
AcDbLine
 10
13.73039490001062
 20
-5.644465229015402
 30
0.0
 11
13.65251602410751
 21
-5.651687726725348
 31
0.0
  0
ELLIPSE
  5
ADE
330
A8B
100
AcDbEntity
  8
FRONT
  6
Continuous
 62
     4
100
AcDbEllipse
 10
14.19019065232725
 20
-5.217546069540356
 30
0.0
 11
-0.0261303380478747
 21
-0.4993167493651739
 31
0.0
210
0.0
220
0.0
230
1.0
 40
0.207227326156888
 41
0.293361878369899
 42
0.4309508045600884
  0
ELLIPSE
  5
ADF
330
A8B
100
AcDbEntity
  8
FRONT
  6
Continuous
 62
     4
100
AcDbEllipse
 10
35.35054063342625
 20
0.000151900276844
 30
0.0
 11
-66.41326335410838
 21
0.9269833922146547
 31
0.0
210
0.0
220
0.0
230
1.0
 40
0.0848785527739216
 41
1.232222219062653
 42
1.240685434065807
  0
ELLIPSE
  5
AE0
330
A8B
100
AcDbEntity
  8
FRONT
  6
Continuous
 62
     4
100
AcDbEllipse
 10
15.11920026906091
 20
-5.25552853925582
 30
0.0
 11
-0.0157629108455211
 21
-0.4997514551771808
 31
0.0
210
0.0
220
0.0
230
0.9999999999999996
 40
0.1634163455934212
 41
0.2596728804504972
 42
0.4271027027017509
  0
ELLIPSE
  5
AE1
330
A8B
100
AcDbEntity
  8
FRONT
  6
Continuous
 62
     4
100
AcDbEllipse
 10
26.03106406187677
 20
0.4200021500912944
 30
0.0
 11
-60.22680518323547
 21
0.8391789498204172
 31
0.0
210
0.0
220
0.0
230
0.9999999999999998
 40
0.073335099090449
 41
1.368153266464279
 42
1.373756158617132
  0
ELLIPSE
  5
AE2
330
A8B
100
AcDbEntity
  8
FRONT
  6
Continuous
 62
     4
100
AcDbEllipse
 10
12.60004943919611
 20
-5.132529700220393
 30
0.0
 11
-0.000342083369458
 21
0.0999994148984049
 31
0.0
210
0.0
220
0.0
230
0.9999999999999998
 40
0.0873785520673491
 41
0.1609135457003019
 42
1.731709872424159
  0
SPLINE
  5
AE3
330
A8B
100
AcDbEntity
  8
FRONT
  6
Continuous
 62
     4
100
AcDbSpline
210
0.0
220
0.0
230
1.0
 70
     8
 71
     3
 72
    10
 73
     6
 74
     0
 42
0.0000000001
 43
0.0000000001
 40
0.0
 40
0.0
 40
0.0
 40
0.0
 40
0.2568958804124872
 40
0.5137917608271178
 40
1.0
 40
1.0
 40
1.0
 40
1.0
 10
14.6061371218886
 20
-5.930601824966093
 30
0.0
 10
14.60753377257093
 20
-5.926009260558598
 30
0.0
 10
14.61032728581661
 20
-5.916831653154844
 30
0.0
 10
14.61576516470299
 20
-5.898998421367481
 30
0.0
 10
14.61980695983203
 20
-5.885777952760061
 30
0.0
 10
14.62245185943814
 20
-5.87714135957826
 30
0.0
  0
SPLINE
  5
AE4
330
A8B
100
AcDbEntity
  8
FRONT
  6
Continuous
 62
     4
100
AcDbSpline
210
0.0
220
0.0
230
1.0
 70
    24
 71
     1
 72
     4
 73
     2
 74
     0
 42
0.0000000001
 43
0.0000000001
 40
0.0
 40
0.0
 40
1.0
 40
1.0
 10
13.65251602410751
 20
-5.651687726725348
 30
0.0
 10
13.57741475365825
 20
-5.65512213110166
 30
0.0
  0
SPLINE
  5
AE5
330
A8B
100
AcDbEntity
  8
FRONT
  6
Continuous
 62
     4
100
AcDbSpline
210
0.0
220
0.0
230
1.0
 70
     8
 71
     3
 72
    15
 73
    11
 74
     0
 42
0.0000000001
 43
0.0000000001
 40
0.0
 40
0.0
 40
0.0
 40
0.0
 40
0.140976339028535
 40
0.2892431856819297
 40
0.4121436114845082
 40
0.5144916745071848
 40
0.6168092444520747
 40
0.7567233522043856
 40
0.9739203035115163
 40
1.0
 40
1.0
 40
1.0
 40
1.0
 10
15.49450213479355
 20
-3.783439226602423
 30
0.0
 10
15.44981998562096
 20
-3.834784754789421
 30
0.0
 10
15.34586240619185
 20
-3.929717956575207
 30
0.0
 10
15.16411478532275
 20
-4.042164088828029
 30
0.0
 10
14.96509713276188
 20
-4.105578478492557
 30
0.0
 10
14.77588171470955
 20
-4.116965143829848
 30
0.0
 10
14.5865234857672
 20
-4.081240257906233
 30
0.0
 10
14.37534379397539
 20
-3.975845413349876
 30
0.0
 10
14.24980172860958
 20
-3.846984870652867
 30
0.0
 10
14.1867895891514
 20
-3.756804337707721
 30
0.0
 10
14.18025452780808
 20
-3.746989982441069
 30
0.0
  0
SPLINE
  5
AE6
330
A8B
100
AcDbEntity
  8
FRONT
  6
Continuous
 62
     4
100
AcDbSpline
210
0.0
220
0.0
230
1.0
 70
    24
 71
     1
 72
     4
 73
     2
 74
     0
 42
0.0000000001
 43
0.0000000001
 40
0.0
 40
0.0
 40
1.0
 40
1.0
 10
13.69211008638281
 20
-5.664088371972116
 30
0.0
 10
13.57741475365825
 20
-5.65512213110166
 30
0.0
  0
SPLINE
  5
AE7
330
A8B
100
AcDbEntity
  8
FRONT
  6
Continuous
 62
     4
100
AcDbSpline
210
0.0
220
0.0
230
1.0
 70
    24
 71
     1
 72
     4
 73
     2
 74
     0
 42
0.0000000001
 43
0.0000000001
 40
0.0
 40
0.0
 40
1.0
 40
1.0
 10
14.19509791486686
 20
-5.697096415954096
 30
0.0
 10
13.67240432655448
 20
-5.670248142954241
 30
0.0
  0
SPLINE
  5
AE8
330
A8B
100
AcDbEntity
  8
FRONT
  6
Continuous
 62
     4
100
AcDbSpline
210
0.0
220
0.0
230
1.0
 70
    24
 71
     1
 72
     4
 73
     2
 74
     0
 42
0.0000000001
 43
0.0000000001
 40
0.0
 40
0.0
 40
1.0
 40
1.0
 10
14.60613712230153
 20
-5.930601946215417
 30
0.0
 10
13.9484959168259
 20
-5.910374237639902
 30
0.0
  0
SPLINE
  5
AE9
330
A8B
100
AcDbEntity
  8
FRONT
  6
Continuous
 62
     4
100
AcDbSpline
210
0.0
220
0.0
230
1.0
 70
    24
 71
     1
 72
     4
 73
     2
 74
     0
 42
0.0000000001
 43
0.0000000001
 40
0.0
 40
0.0
 40
1.0
 40
1.0
 10
13.73039490001062
 20
-5.644465229015402
 30
0.0
 10
14.20967333082538
 20
-5.673471778213071
 30
0.0
  0
SPLINE
  5
AEA
330
A8B
100
AcDbEntity
  8
FRONT
  6
Continuous
 62
     4
100
AcDbSpline
210
0.0
220
0.0
230
1.0
 70
    24
 71
     1
 72
     4
 73
     2
 74
     0
 42
0.0000000001
 43
0.0000000001
 40
0.0
 40
0.0
 40
1.0
 40
1.0
 10
14.19509791486686
 20
-5.697096415954096
 30
0.0
 10
13.69211008638281
 20
-5.664088371972116
 30
0.0
  0
SPLINE
  5
AEB
330
A8B
100
AcDbEntity
  8
FRONT
  6
Continuous
 62
     4
100
AcDbSpline
210
0.0
220
0.0
230
1.0
 70
     8
 71
     3
 72
    11
 73
     7
 74
     0
 42
0.0000000001
 43
0.0000000001
 40
0.0
 40
0.0
 40
0.0
 40
0.0
 40
0.000063183656549
 40
0.6610072159485929
 40
0.9999368181050073
 40
1.0
 40
1.0
 40
1.0
 40
1.0
 10
15.12493514742537
 20
-5.739186742282305
 30
0.0
 10
15.12483521826678
 20
-5.739182978870811
 30
0.0
 10
14.91946003926739
 20
-5.731448386494392
 30
0.0
 10
14.60906890037243
 20
-5.718477412827605
 30
0.0
 10
14.29980413634301
 20
-5.702773299872545
 30
0.0
 10
14.1951977682056
 20
-5.697101829728066
 30
0.0
 10
14.19509791485794
 20
-5.697096415953659
 30
0.0
  0
SPLINE
  5
AEC
330
A8B
100
AcDbEntity
  8
FRONT
  6
Continuous
 62
     4
100
AcDbSpline
210
0.0
220
0.0
230
1.0
 70
    24
 71
     1
 72
     4
 73
     2
 74
     0
 42
0.0000000001
 43
0.0000000001
 40
0.0
 40
0.0
 40
1.0
 40
1.0
 10
14.20967333286792
 20
-5.673471778307494
 30
0.0
 10
15.13868294684773
 20
-5.711454223476938
 30
0.0
  0
SPLINE
  5
AED
330
A8B
100
AcDbEntity
  8
FRONT
  6
Continuous
 62
     4
100
AcDbSpline
210
0.0
220
0.0
230
1.0
 70
    24
 71
     1
 72
     4
 73
     2
 74
     0
 42
0.0000000001
 43
0.0000000001
 40
0.0
 40
0.0
 40
1.0
 40
1.0
 10
13.67240432655448
 20
-5.670248142954241
 30
0.0
 10
13.61429623476742
 20
-5.667122247227887
 30
0.0
  0
LINE
  5
AEE
330
A8B
100
AcDbEntity
  8
FRONT
  6
Continuous
 62
     4
100
AcDbLine
 10
17.94014373270267
 20
-4.696380917179419
 30
0.0
 11
17.94014637934187
 21
-4.697134583006601
 31
0.0
  0
LINE
  5
AEF
330
A8B
100
AcDbEntity
  8
FRONT
  6
Continuous
 62
     4
100
AcDbLine
 10
17.9296204316509
 20
-4.690827415632082
 30
0.0
 11
17.93253772748869
 21
-5.521566331524031
 31
0.0
  0
LINE
  5
AF0
330
A8B
100
AcDbEntity
  8
FRONT
  6
Continuous
 62
     4
100
AcDbLine
 10
17.9955352574119
 20
-4.703931962073951
 30
0.0
 11
17.99860264302532
 21
-5.577410944240646
 31
0.0
  0
LINE
  5
AF1
330
A8B
100
AcDbEntity
  8
FRONT
  6
Continuous
 62
     4
100
AcDbLine
 10
17.58943827622755
 20
-4.872056962875418
 30
0.0
 11
17.58957197281752
 21
-4.91012885081491
 31
0.0
  0
LINE
  5
AF2
330
A8B
100
AcDbEntity
  8
FRONT
  6
Continuous
 62
     4
100
AcDbLine
 10
17.58943827622755
 20
-4.872056962875418
 30
0.0
 11
17.86767576873332
 21
-4.704849480079047
 31
0.0
  0
LINE
  5
AF3
330
A8B
100
AcDbEntity
  8
FRONT
  6
Continuous
 62
     4
100
AcDbLine
 10
17.87708664776414
 20
-4.686615922447828
 30
0.0
 11
17.87984322178274
 21
-5.471587155772794
 31
0.0
  0
LINE
  5
AF4
330
A8B
100
AcDbEntity
  8
FRONT
  6
Continuous
 62
     4
100
AcDbLine
 10
17.94014637934187
 20
-4.697134583006601
 30
0.0
 11
17.94307446467377
 21
-5.53094595129999
 31
0.0
  0
LINE
  5
AF5
330
A8B
100
AcDbEntity
  8
FRONT
  6
Continuous
 62
     4
100
AcDbLine
 10
17.90527073750188
 20
-4.337218884751766
 30
0.0
 11
17.82020488840544
 21
-4.404730119587552
 31
0.0
  0
LINE
  5
AF6
330
A8B
100
AcDbEntity
  8
FRONT
  6
Continuous
 62
     4
100
AcDbLine
 10
17.82020488840544
 20
-4.404730119587552
 30
0.0
 11
17.86767576873332
 21
-4.704849480079047
 31
0.0
  0
LINE
  5
AF7
330
A8B
100
AcDbEntity
  8
FRONT
  6
Continuous
 62
     4
100
AcDbLine
 10
17.57701616247765
 20
-4.794187397985162
 30
0.0
 11
17.48879939540238
 21
-4.241189622687848
 31
0.0
  0
LINE
  5
AF8
330
A8B
100
AcDbEntity
  8
FRONT
  6
Continuous
 62
     4
100
AcDbLine
 10
17.58943827622755
 20
-4.872056962875418
 30
0.0
 11
17.57701616247765
 21
-4.794187397985162
 31
0.0
  0
ELLIPSE
  5
AF9
330
A8B
100
AcDbEntity
  8
FRONT
  6
Continuous
 62
     4
100
AcDbEllipse
 10
17.28179924891806
 20
-4.836410083749438
 30
0.0
 11
-0.2646417690684293
 21
0.1412966173143831
 31
0.0
210
0.0
220
0.0
230
1.0
 40
0.9833059182785888
 41
2.071687311421134
 42
3.782109978374953
  0
ELLIPSE
  5
AFA
330
A8B
100
AcDbEntity
  8
FRONT
  6
Continuous
 62
     4
100
AcDbEllipse
 10
18.78976301780029
 20
-4.225196264847973
 30
0.0
 11
-0.9665041965168652
 21
0.3765818908141549
 31
0.0
210
0.0
220
0.0
230
0.9999999999999998
 40
0.8498862410049405
 41
0.6298734289431917
 42
0.7760221204517431
  0
ELLIPSE
  5
AFB
330
A8B
100
AcDbEntity
  8
FRONT
  6
Continuous
 62
     4
100
AcDbEllipse
 10
17.29036936377426
 20
-4.820358671225433
 30
0.0
 11
-0.1764278450464169
 21
0.094197746298221
 31
0.0
210
0.0
220
0.0
230
1.0
 40
0.9833059187880415
 41
3.524855636639208
 42
3.716574258287971
  0
ELLIPSE
  5
AFC
330
A8B
100
AcDbEntity
  8
FRONT
  6
Continuous
 62
     4
100
AcDbEllipse
 10
17.43752785348189
 20
-3.994735409268031
 30
0.0
 11
-0.6378505702784448
 21
2.576726862152773
 31
0.0
210
0.0
220
0.0
230
1.0
 40
0.1420514033894129
 41
4.544013824159174
 42
4.556279548729346
  0
ELLIPSE
  5
AFD
330
A8B
100
AcDbEntity
  8
FRONT
  6
Continuous
 62
     4
100
AcDbEllipse
 10
17.29558226924102
 20
-5.116466969333043
 30
0.0
 11
-0.0003420833691217
 21
0.0999994148939525
 31
0.0
210
0.0
220
0.0
230
1.0
 40
0.0873785520668444
 41
0.1609135456945704
 42
1.732484486224235
  0
ELLIPSE
  5
AFE
330
A8B
100
AcDbEntity
  8
FRONT
  6
Continuous
 62
     4
100
AcDbEllipse
 10
17.91251036989776
 20
1.921767689627283
 30
0.0
 11
-0.2231549673139982
 21
7.545048101838847
 31
0.0
210
0.0
220
0.0
230
1.0
 40
0.1565419392169584
 41
2.98028837913766
 42
3.026543021602508
  0
ELLIPSE
  5
AFF
330
A8B
100
AcDbEntity
  8
FRONT
  6
Continuous
 62
     4
100
AcDbEllipse
 10
17.74265415408251
 20
-4.702133472814753
 30
0.0
 11
-0.1999999433238031
 21
-0.0001525554653821
 31
0.0
210
0.0
220
0.0
230
1.0
 40
0.1775485647405439
 41
3.300064853530633
 42
3.503329043719288
  0
ELLIPSE
  5
B00
330
A8B
100
AcDbEntity
  8
FRONT
  6
Continuous
 62
     4
100
AcDbEllipse
 10
17.58558627712221
 20
-4.778135985406353
 30
0.0
 11
-0.0987513760100169
 21
-0.0157532770022912
 31
0.0
210
0.0
220
0.0
230
1.0
 40
0.1458931740712325
 41
0.1778612733484125
 42
1.460656485136271
  0
ELLIPSE
  5
B01
330
A8B
100
AcDbEntity
  8
FRONT
  6
Continuous
 62
     4
100
AcDbEllipse
 10
67.64350291379154
 20
34.55023588267693
 30
0.0
 11
-52.91333538115097
 21
-41.25130454679958
 31
0.0
210
0.0
220
0.0
230
1.0
 40
0.0120306976498371
 41
0.3393916290940456
 42
0.3422858615911428
  0
ELLIPSE
  5
B02
330
A8B
100
AcDbEntity
  8
FRONT
  6
Continuous
 62
     4
100
AcDbEllipse
 10
17.29036936356746
 20
-4.820358671193344
 30
0.0
 11
-0.1764278461941974
 21
0.0941977445624821
 31
0.0
210
0.0
220
0.0
230
1.0
 40
0.9833059182720552
 41
2.071687309673813
 42
2.454396003569158
  0
ELLIPSE
  5
B03
330
A8B
100
AcDbEntity
  8
FRONT
  6
Continuous
 62
     4
100
AcDbEllipse
 10
17.29036936356451
 20
-4.820358671172773
 30
0.0
 11
-0.1764278460477521
 21
0.0941977448654515
 31
0.0
210
0.0
220
0.0
230
1.0
 40
0.9833059182873423
 41
2.454396005236844
 42
3.524855627886243
  0
ELLIPSE
  5
B04
330
A8B
100
AcDbEntity
  8
FRONT
  6
Continuous
 62
     4
100
AcDbEllipse
 10
17.80753817497214
 20
1.984604698993624
 30
0.0
 11
-0.0579833643088966
 21
6.690109145654452
 31
0.0
210
0.0
220
0.0
230
1.0
 40
0.0234081852915922
 41
3.155384266539653
 42
3.216552275148325
  0
ELLIPSE
  5
B05
330
A8B
100
AcDbEntity
  8
FRONT
  6
Continuous
 62
     4
100
AcDbEllipse
 10
69.31113081533111
 20
35.56042935518711
 30
0.0
 11
-54.58145203794352
 21
-42.26950703433849
 31
0.0
210
0.0
220
0.0
230
0.9999999999999998
 40
0.0166389419643796
 41
0.3320360213461808
 42
0.3350067550538322
  0
ELLIPSE
  5
B06
330
A8B
100
AcDbEntity
  8
FRONT
  6
Continuous
 62
     4
100
AcDbEllipse
 10
17.74265577240787
 20
-4.702887859456103
 30
0.0
 11
-0.1999987668190257
 21
-0.0007023332506881
 31
0.0
210
0.0
220
0.0
230
1.0
 40
0.1608116416752289
 41
3.299567109250761
 42
3.504047308224818
  0
SPLINE
  5
B07
330
A8B
100
AcDbEntity
  8
FRONT
  6
Continuous
 62
     4
100
AcDbSpline
210
0.0
220
0.0
230
1.0
 70
     8
 71
     2
 72
     6
 73
     3
 74
     0
 42
0.0000000001
 43
0.0000000001
 40
0.0
 40
0.0
 40
0.0
 40
1.0
 40
1.0
 40
1.0
 10
17.94014476251969
 20
-4.696380196294287
 30
0.0
 10
17.93820990995539
 20
-4.62484467721253
 30
0.0
 10
17.91370298271945
 20
-4.559914968743824
 30
0.0
  0
SPLINE
  5
B08
330
A8B
100
AcDbEntity
  8
FRONT
  6
Continuous
 62
     4
100
AcDbSpline
210
0.0
220
0.0
230
1.0
 70
     8
 71
     3
 72
    11
 73
     7
 74
     0
 42
0.0000000001
 43
0.0000000001
 40
0.0
 40
0.0
 40
0.0
 40
0.0
 40
0.2797385983135209
 40
0.5594467342961888
 40
0.7797158294879042
 40
1.0
 40
1.0
 40
1.0
 40
1.0
 10
17.5948987190443
 20
-5.975264142050702
 30
0.0
 10
17.65745563319629
 20
-5.974483801919768
 30
0.0
 10
17.77036020044778
 20
-5.950887920362924
 30
0.0
 10
17.90567908297141
 20
-5.850401171714425
 30
0.0
 10
17.98283180302257
 20
-5.717078973008215
 30
0.0
 10
17.99830296929953
 20
-5.626215792883595
 30
0.0
 10
17.99860264302532
 20
-5.577410944240646
 30
0.0
  0
SPLINE
  5
B09
330
A8B
100
AcDbEntity
  8
FRONT
  6
Continuous
 62
     4
100
AcDbSpline
210
0.0
220
0.0
230
1.0
 70
    24
 71
     1
 72
     4
 73
     2
 74
     0
 42
0.0000000001
 43
0.0000000001
 40
0.0
 40
0.0
 40
1.0
 40
1.0
 10
17.93253772748869
 20
-5.521566331524028
 30
0.0
 10
17.87984322178274
 20
-5.471587155772788
 30
0.0
  0
SPLINE
  5
B0A
330
A8B
100
AcDbEntity
  8
FRONT
  6
Continuous
 62
     4
100
AcDbSpline
210
0.0
220
0.0
230
1.0
 70
     8
 71
     2
 72
     6
 73
     3
 74
     0
 42
0.0000000001
 43
0.0000000001
 40
0.0
 40
0.0
 40
0.0
 40
1.0
 40
1.0
 40
1.0
 10
17.53382959937809
 20
-5.939844692875301
 30
0.0
 10
17.5478348404841
 20
-5.948879112898527
 30
0.0
 10
17.56310864296497
 20
-5.957732756903237
 30
0.0
  0
SPLINE
  5
B0B
330
A8B
100
AcDbEntity
  8
FRONT
  6
Continuous
 62
     4
100
AcDbSpline
210
0.0
220
0.0
230
1.0
 70
    24
 71
     1
 72
     4
 73
     2
 74
     0
 42
0.0000000001
 43
0.0000000001
 40
0.0
 40
0.0
 40
1.0
 40
1.0
 10
17.9387785253627
 20
-5.526976438079115
 30
0.0
 10
17.93253772748869
 20
-5.521566331524034
 30
0.0
  0
SPLINE
  5
B0C
330
A8B
100
AcDbEntity
  8
FRONT
  6
Continuous
 62
     4
100
AcDbSpline
210
0.0
220
0.0
230
1.0
 70
     8
 71
     2
 72
     6
 73
     3
 74
     0
 42
0.0000000001
 43
0.0000000001
 40
0.0
 40
0.0
 40
0.0
 40
1.0
 40
1.0
 40
1.0
 10
17.56310862460081
 20
-5.957732669274165
 30
0.0
 10
17.57839777531656
 20
-5.966594955161369
 30
0.0
 10
17.59489682987357
 20
-5.975263315085282
 30
0.0
  0
SPLINE
  5
B0D
330
A8B
100
AcDbEntity
  8
FRONT
  6
Continuous
 62
     4
100
AcDbSpline
210
0.0
220
0.0
230
1.0
 70
     8
 71
     2
 72
     6
 73
     3
 74
     0
 42
0.0000000001
 43
0.0000000001
 40
0.0
 40
0.0
 40
0.0
 40
1.0
 40
1.0
 40
1.0
 10
17.92970126088954
 20
-4.689423949520302
 30
0.0
 10
17.93325498333023
 20
-4.621665100236254
 30
0.0
 10
17.91370204730798
 20
-4.559913475421748
 30
0.0
  0
SPLINE
  5
B0E
330
A8B
100
AcDbEntity
  8
FRONT
  6
Continuous
 62
     4
100
AcDbSpline
210
0.0
220
0.0
230
1.0
 70
     8
 71
     2
 72
     6
 73
     3
 74
     0
 42
0.0000000001
 43
0.0000000001
 40
0.0
 40
0.0
 40
0.0
 40
1.0
 40
1.0
 40
1.0
 10
17.48753914728162
 20
-4.842620158601206
 30
0.0
 10
17.49069400018172
 20
-4.813353923430181
 30
0.0
 10
17.48589383548049
 20
-4.784463510063917
 30
0.0
  0
SPLINE
  5
B0F
330
A8B
100
AcDbEntity
  8
FRONT
  6
Continuous
 62
     4
100
AcDbSpline
210
0.0
220
0.0
230
1.0
 70
     8
 71
     2
 72
     6
 73
     3
 74
     0
 42
0.0000000001
 43
0.0000000001
 40
0.0
 40
0.0
 40
0.0
 40
1.0
 40
1.0
 40
1.0
 10
17.9296204316509
 20
-4.690827415632075
 30
0.0
 10
17.90811236517729
 20
-4.654740894371965
 30
0.0
 10
17.89274962395551
 20
-4.643583112873108
 30
0.0
  0
SPLINE
  5
B10
330
A8B
100
AcDbEntity
  8
FRONT
  6
Continuous
 62
     4
100
AcDbSpline
210
0.0
220
0.0
230
1.0
 70
    24
 71
     1
 72
     4
 73
     2
 74
     0
 42
0.0000000001
 43
0.0000000001
 40
0.0
 40
0.0
 40
1.0
 40
1.0
 10
17.28962519580169
 20
-5.781691499550616
 30
0.0
 10
17.29561436988828
 20
-5.788108146748303
 30
0.0
  0
SPLINE
  5
B11
330
A8B
100
AcDbEntity
  8
FRONT
  6
Continuous
 62
     4
100
AcDbSpline
210
0.0
220
0.0
230
1.0
 70
    24
 71
     1
 72
     4
 73
     2
 74
     0
 42
0.0000000001
 43
0.0000000001
 40
0.0
 40
0.0
 40
1.0
 40
1.0
 10
17.9955352574119
 20
-4.703931962073951
 30
0.0
 10
17.99520039268492
 20
-4.657821589441176
 30
0.0
  0
SPLINE
  5
B12
330
A8B
100
AcDbEntity
  8
FRONT
  6
Continuous
 62
     4
100
AcDbSpline
210
0.0
220
0.0
230
1.0
 70
     8
 71
     3
 72
    14
 73
    10
 74
     0
 42
0.0000000001
 43
0.0000000001
 40
0.0
 40
0.0
 40
0.0
 40
0.0
 40
0.1248883957440875
 40
0.2497714879519448
 40
0.3746545211303977
 40
0.4995231745160237
 40
0.6243751603251047
 40
0.7494560896066159
 40
1.0
 40
1.0
 40
1.0
 40
1.0
 10
17.87984322178273
 20
-5.471587155772788
 30
0.0
 10
17.87987268926037
 20
-5.50489258238397
 30
0.0
 10
17.87177012324012
 20
-5.568441189966804
 30
0.0
 10
17.83414334612334
 20
-5.657603560500879
 30
0.0
 10
17.77401488846159
 20
-5.731535238533902
 30
0.0
 10
17.6954628151493
 20
-5.785183731153777
 30
0.0
 10
17.60367529558672
 20
-5.815264208756982
 30
0.0
 10
17.47391022284451
 20
-5.813531480830889
 30
0.0
 10
17.37763835799498
 20
-5.813847709256805
 30
0.0
 10
17.31289606147389
 20
-5.809345576655006
 30
0.0
  0
SPLINE
  5
B13
330
A8B
100
AcDbEntity
  8
FRONT
  6
Continuous
 62
     4
100
AcDbSpline
210
0.0
220
0.0
230
1.0
 70
     8
 71
     2
 72
     6
 73
     3
 74
     0
 42
0.0000000001
 43
0.0000000001
 40
0.0
 40
0.0
 40
0.0
 40
1.0
 40
1.0
 40
1.0
 10
17.96624821359698
 20
-4.521740220909061
 30
0.0
 10
17.9945056831512
 20
-4.587389658473393
 30
0.0
 10
17.99520039268492
 20
-4.657821589442201
 30
0.0
  0
SPLINE
  5
B14
330
A8B
100
AcDbEntity
  8
FRONT
  6
Continuous
 62
     4
100
AcDbSpline
210
0.0
220
0.0
230
1.0
 70
    24
 71
     1
 72
     4
 73
     2
 74
     0
 42
0.0000000001
 43
0.0000000001
 40
0.0
 40
0.0
 40
1.0
 40
1.0
 10
17.89274962395551
 20
-4.643583112873108
 30
0.0
 10
17.87708664776414
 20
-4.686615922447828
 30
0.0
  0
SPLINE
  5
B15
330
A8B
100
AcDbEntity
  8
FRONT
  6
Continuous
 62
     4
100
AcDbSpline
210
0.0
220
0.0
230
1.0
 70
     8
 71
     2
 72
     6
 73
     3
 74
     0
 42
0.0000000001
 43
0.0000000001
 40
0.0
 40
0.0
 40
0.0
 40
1.0
 40
1.0
 40
1.0
 10
17.87578472966787
 20
-4.531787042132242
 30
0.0
 10
17.89175394076562
 20
-4.538312409517048
 30
0.0
 10
17.91370204730901
 20
-4.559913475424244
 30
0.0
  0
SPLINE
  5
B16
330
A8B
100
AcDbEntity
  8
FRONT
  6
Continuous
 62
     4
100
AcDbSpline
210
0.0
220
0.0
230
1.0
 70
    24
 71
     1
 72
     4
 73
     2
 74
     0
 42
0.0000000001
 43
0.0000000001
 40
0.0
 40
0.0
 40
1.0
 40
1.0
 10
17.9296204316509
 20
-4.690827415632075
 30
0.0
 10
17.92970126089028
 20
-4.689423949521914
 30
0.0
  0
SPLINE
  5
B17
330
A8B
100
AcDbEntity
  8
FRONT
  6
Continuous
 62
     4
100
AcDbSpline
210
0.0
220
0.0
230
1.0
 70
     8
 71
     2
 72
     6
 73
     3
 74
     0
 42
0.0000000001
 43
0.0000000001
 40
0.0
 40
0.0
 40
0.0
 40
1.0
 40
1.0
 40
1.0
 10
17.87984322178273
 20
-5.471587155772788
 30
0.0
 10
17.73244831207634
 20
-5.298438713033085
 30
0.0
 10
17.58957197281752
 20
-4.910128850814881
 30
0.0
  0
SPLINE
  5
B18
330
A8B
100
AcDbEntity
  8
FRONT
  6
Continuous
 62
     4
100
AcDbSpline
210
0.0
220
0.0
230
1.0
 70
    24
 71
     1
 72
     4
 73
     2
 74
     0
 42
0.0000000001
 43
0.0000000001
 40
0.0
 40
0.0
 40
1.0
 40
1.0
 10
17.28677117630373
 20
-5.132617233954769
 30
0.0
 10
16.67361660422959
 20
-5.134616718352519
 30
0.0
  0
SPLINE
  5
B19
330
A8B
100
AcDbEntity
  8
FRONT
  6
Continuous
 62
     4
100
AcDbSpline
210
0.0
220
0.0
230
1.0
 70
    24
 71
     1
 72
     4
 73
     2
 74
     0
 42
0.0000000001
 43
0.0000000001
 40
0.0
 40
0.0
 40
1.0
 40
1.0
 10
17.94182141506172
 20
-4.461266655075608
 30
0.0
 10
17.90527073750188
 20
-4.337218884751766
 30
0.0
  0
SPLINE
  5
B1A
330
A8B
100
AcDbEntity
  8
FRONT
  6
Continuous
 62
     4
100
AcDbSpline
210
0.0
220
0.0
230
1.0
 70
     8
 71
     2
 72
     6
 73
     3
 74
     0
 42
0.0000000001
 43
0.0000000001
 40
0.0
 40
0.0
 40
0.0
 40
1.0
 40
1.0
 40
1.0
 10
17.4863838813945
 20
-5.914121941707048
 30
0.0
 10
17.50241434520515
 20
-5.922316462127195
 30
0.0
 10
17.5149609852006
 20
-5.929071224485984
 30
0.0
  0
SPLINE
  5
B1B
330
A8B
100
AcDbEntity
  8
FRONT
  6
Continuous
 62
     4
100
AcDbSpline
210
0.0
220
0.0
230
1.0
 70
     8
 71
     3
 72
    10
 73
     6
 74
     0
 42
0.0000000001
 43
0.0000000001
 40
0.0
 40
0.0
 40
0.0
 40
0.0
 40
0.2802834343870607
 40
0.561500176492782
 40
1.0
 40
1.0
 40
1.0
 40
1.0
 10
17.93253772748871
 20
-5.521566331524031
 30
0.0
 10
17.92998166710049
 20
-5.58748102827846
 30
0.0
 10
17.90119279899605
 20
-5.70400075827699
 30
0.0
 10
17.73853112752677
 20
-5.870209334555772
 30
0.0
 10
17.59319445825168
 20
-5.912750987343615
 30
0.0
 10
17.4863838813945
 20
-5.914121941707048
 30
0.0
  0
SPLINE
  5
B1C
330
A8B
100
AcDbEntity
  8
FRONT
  6
Continuous
 62
     4
100
AcDbSpline
210
0.0
220
0.0
230
1.0
 70
     8
 71
     2
 72
     6
 73
     3
 74
     0
 42
0.0000000001
 43
0.0000000001
 40
0.0
 40
0.0
 40
0.0
 40
1.0
 40
1.0
 40
1.0
 10
17.29745226804206
 20
-5.017742724400552
 30
0.0
 10
17.334810636267
 20
-5.017343599018348
 30
0.0
 10
17.36829733251894
 20
-5.003728771550662
 30
0.0
  0
SPLINE
  5
B1D
330
A8B
100
AcDbEntity
  8
FRONT
  6
Continuous
 62
     4
100
AcDbSpline
210
0.0
220
0.0
230
1.0
 70
    24
 71
     1
 72
     4
 73
     2
 74
     0
 42
0.0000000001
 43
0.0000000001
 40
0.0
 40
0.0
 40
1.0
 40
1.0
 10
17.25039528434257
 20
-5.752276639961346
 30
0.0
 10
17.25582938323384
 20
-5.75599142494071
 30
0.0
  0
SPLINE
  5
B1E
330
A8B
100
AcDbEntity
  8
FRONT
  6
Continuous
 62
     4
100
AcDbSpline
210
0.0
220
0.0
230
1.0
 70
     8
 71
     2
 72
     6
 73
     3
 74
     0
 42
0.0000000001
 43
0.0000000001
 40
0.0
 40
0.0
 40
0.0
 40
1.0
 40
1.0
 40
1.0
 10
17.31289606147389
 20
-5.809345576655006
 30
0.0
 10
17.35705677144961
 20
-5.849142853119974
 30
0.0
 10
17.48638388139446
 20
-5.914121941707048
 30
0.0
  0
SPLINE
  5
B1F
330
A8B
100
AcDbEntity
  8
FRONT
  6
Continuous
 62
     4
100
AcDbSpline
210
0.0
220
0.0
230
1.0
 70
    24
 71
     1
 72
     4
 73
     2
 74
     0
 42
0.0000000001
 43
0.0000000001
 40
0.0
 40
0.0
 40
1.0
 40
1.0
 10
17.29561436988828
 20
-5.788108146748303
 30
0.0
 10
17.31289606147389
 20
-5.809345576655006
 30
0.0
  0
SPLINE
  5
B20
330
A8B
100
AcDbEntity
  8
FRONT
  6
Continuous
 62
     4
100
AcDbSpline
210
0.0
220
0.0
230
1.0
 70
    24
 71
     1
 72
     4
 73
     2
 74
     0
 42
0.0000000001
 43
0.0000000001
 40
0.0
 40
0.0
 40
1.0
 40
1.0
 10
17.96624821359698
 20
-4.521740220909061
 30
0.0
 10
17.94182141506172
 20
-4.461266655075608
 30
0.0
  0
SPLINE
  5
B21
330
A8B
100
AcDbEntity
  8
FRONT
  6
Continuous
 62
     4
100
AcDbSpline
210
0.0
220
0.0
230
1.0
 70
     8
 71
     3
 72
    11
 73
     7
 74
     0
 42
0.0000000001
 43
0.0000000001
 40
0.0
 40
0.0
 40
0.0
 40
0.0
 40
0.2627757061120019
 40
0.5667558013116807
 40
0.8797139751218168
 40
1.0
 40
1.0
 40
1.0
 40
1.0
 10
17.36829733251894
 20
-5.003728771550662
 30
0.0
 10
17.38587714511173
 20
-4.996404794424628
 30
0.0
 10
17.41990969395924
 20
-4.976439430695343
 30
0.0
 10
17.46158084441127
 20
-4.929333558277144
 30
0.0
 10
17.48149927690769
 20
-4.880797777468139
 30
0.0
 10
17.4866141760235
 20
-4.851053802725655
 30
0.0
 10
17.48753914728162
 20
-4.842620158601206
 30
0.0
  0
SPLINE
  5
B22
330
A8B
100
AcDbEntity
  8
FRONT
  6
Continuous
 62
     4
100
AcDbSpline
210
0.0
220
0.0
230
1.0
 70
     8
 71
     3
 72
    11
 73
     7
 74
     0
 42
0.0000000001
 43
0.0000000001
 40
0.0
 40
0.0
 40
0.0
 40
0.0
 40
0.2793522346033047
 40
0.5593335184216813
 40
0.7797559679565327
 40
1.0
 40
1.0
 40
1.0
 40
1.0
 10
17.94307446467377
 20
-5.530945951299988
 30
0.0
 10
17.94180307462405
 20
-5.594501577118919
 30
0.0
 10
17.91667550799417
 20
-5.709260710265843
 30
0.0
 10
17.81058445331001
 20
-5.846075908549162
 30
0.0
 10
17.67367926843748
 20
-5.924340080915007
 30
0.0
 10
17.58243171918843
 20
-5.939723916719522
 30
0.0
 10
17.53382959937809
 20
-5.939844692875301
 30
0.0
  0
SPLINE
  5
B23
330
A8B
100
AcDbEntity
  8
FRONT
  6
Continuous
 62
     4
100
AcDbSpline
210
0.0
220
0.0
230
1.0
 70
     8
 71
     3
 72
    14
 73
    10
 74
     0
 42
0.0000000001
 43
0.0000000001
 40
0.0
 40
0.0
 40
0.0
 40
0.0
 40
0.1951062385720619
 40
0.3339125582488692
 40
0.4501474463006513
 40
0.566328053941413
 40
0.7231136318596933
 40
0.9477057072569012
 40
1.0
 40
1.0
 40
1.0
 40
1.0
 10
17.89274962394844
 20
-4.643583112868443
 30
0.0
 10
17.89474514222996
 20
-4.639748694764659
 30
0.0
 10
17.89724314910162
 20
-4.631244618840346
 30
0.0
 10
17.89924971527219
 20
-4.615701729296858
 30
0.0
 10
17.89842728956798
 20
-4.599454138182963
 30
0.0
 10
17.8951461020218
 20
-4.581218840503261
 30
0.0
 10
17.88844700421837
 20
-4.558968223287878
 30
0.0
 10
17.8812580747526
 20
-4.542461472099691
 30
0.0
 10
17.8766627348089
 20
-4.533439686083934
 30
0.0
 10
17.87578472966787
 20
-4.531787042132242
 30
0.0
  0
SPLINE
  5
B24
330
A8B
100
AcDbEntity
  8
FRONT
  6
Continuous
 62
     4
100
AcDbSpline
210
0.0
220
0.0
230
1.0
 70
     8
 71
     2
 72
     6
 73
     3
 74
     0
 42
0.0000000001
 43
0.0000000001
 40
0.0
 40
0.0
 40
0.0
 40
1.0
 40
1.0
 40
1.0
 10
17.51496097087978
 20
-5.929071210841827
 30
0.0
 10
17.52734365897923
 20
-5.93571427869794
 30
0.0
 10
17.53382959937809
 20
-5.939844692875301
 30
0.0
  0
SPLINE
  5
B25
330
A8B
100
AcDbEntity
  8
FRONT
  6
Continuous
 62
     4
100
AcDbSpline
210
0.0
220
0.0
230
1.0
 70
     8
 71
     2
 72
     6
 73
     3
 74
     0
 42
0.0000000001
 43
0.0000000001
 40
0.0
 40
0.0
 40
0.0
 40
1.0
 40
1.0
 40
1.0
 10
16.67361660422962
 20
-5.134616718352519
 30
0.0
 10
16.8166102911388
 20
-5.470334999613283
 30
0.0
 10
17.25016942408499
 20
-5.752170042241946
 30
0.0
  0
SPLINE
  5
B26
330
A8B
100
AcDbEntity
  8
FRONT
  6
Continuous
 62
     4
100
AcDbSpline
210
0.0
220
0.0
230
1.0
 70
    24
 71
     1
 72
     4
 73
     2
 74
     0
 42
0.0000000001
 43
0.0000000001
 40
0.0
 40
0.0
 40
1.0
 40
1.0
 10
17.25582938323384
 20
-5.75599142494071
 30
0.0
 10
17.28962519580169
 20
-5.781691499550616
 30
0.0
  0
SPLINE
  5
B27
330
A8B
100
AcDbEntity
  8
FRONT
  6
Continuous
 62
     4
100
AcDbSpline
210
0.0
220
0.0
230
1.0
 70
    24
 71
     1
 72
     4
 73
     2
 74
     0
 42
0.0000000001
 43
0.0000000001
 40
0.0
 40
0.0
 40
1.0
 40
1.0
 10
17.94307446467377
 20
-5.530945951299988
 30
0.0
 10
17.9387785253627
 20
-5.526976438079117
 30
0.0
  0
SPLINE
  5
B28
330
A8B
100
AcDbEntity
  8
FRONT
  6
Continuous
 62
     4
100
AcDbSpline
210
0.0
220
0.0
230
1.0
 70
     8
 71
     3
 72
    14
 73
    10
 74
     0
 42
0.0000000001
 43
0.0000000001
 40
0.0
 40
0.0
 40
0.0
 40
0.0
 40
0.142151055421
 40
0.2416441906233231
 40
0.337512840946061
 40
0.5226088307748542
 40
0.7069349958419002
 40
0.7832535482434971
 40
1.0
 40
1.0
 40
1.0
 40
1.0
 10
17.58957197281758
 20
-4.910128850814881
 30
0.0
 10
17.58968669457347
 20
-4.930933722154952
 30
0.0
 10
17.58527280217872
 20
-4.96494050117826
 30
0.0
 10
17.56744498013549
 20
-5.00997609003333
 30
0.0
 10
17.53896901385022
 20
-5.056105771769582
 30
0.0
 10
17.48959095851773
 20
-5.102732691476536
 30
0.0
 10
17.42845235015919
 20
-5.125843715274846
 30
0.0
 10
17.36038010976709
 20
-5.134920028137988
 30
0.0
 10
17.31826363289789
 20
-5.135515785459636
 30
0.0
 10
17.28677048324978
 20
-5.132574095267016
 30
0.0
  0
ELLIPSE
  5
B29
330
A8B
100
AcDbEntity
  8
FRONT
  6
Continuous
 62
     4
100
AcDbEllipse
 10
14.84592289431094
 20
-3.161093469702648
 30
0.0
 11
-0.8821392302302177
 21
0.4709887243754463
 31
0.0
210
0.0
220
0.0
230
1.0
 40
0.9833059182791327
 41
3.625030345689558
 42
6.283185307179584
  0
SPLINE
  5
B2A
330
A8B
100
AcDbEntity
  8
FRONT
  6
Continuous
 62
     4
100
AcDbSpline
210
0.0
220
0.0
230
1.0
 70
     8
 71
     3
 72
    16
 73
    12
 74
     0
 42
0.0000000001
 43
0.0000000001
 40
0.0
 40
0.0
 40
0.0
 40
0.0
 40
0.129148378034396
 40
0.2674644537203973
 40
0.3841582685837871
 40
0.5013560291580168
 40
0.6062428686698798
 40
0.7064204883265523
 40
0.8086161864158006
 40
0.91809676777724
 40
1.0
 40
1.0
 40
1.0
 40
1.0
 10
15.89972191180696
 20
-3.067258476064095
 30
0.0
 10
15.90909121726365
 20
-2.958913954357801
 30
0.0
 10
15.89382133999201
 20
-2.73905812340351
 30
0.0
 10
15.7767083394974
 20
-2.417696763445265
 30
0.0
 10
15.55374765832576
 20
-2.152776320541678
 30
0.0
 10
15.26778494996267
 20
-1.989804342125394
 30
0.0
 10
14.95334031998964
 20
-1.939085852191666
 30
0.0
 10
14.65311205059481
 20
-1.989438808047074
 30
0.0
 10
14.38058061019693
 20
-2.127700253828793
 30
0.0
 10
14.17726057529053
 20
-2.322863280499757
 30
0.0
 10
14.08156978624059
 20
-2.467674156401074
 30
0.0
 10
14.04700334616364
 20
-2.534248306255423
 30
0.0
  0
ELLIPSE
  5
B2B
330
A8B
100
AcDbEntity
  8
FRONT
  6
Continuous
 62
     4
100
AcDbEllipse
 10
14.80294988243358
 20
-3.241579854307761
 30
0.0
 11
-0.7939252851790806
 21
0.4238898401086228
 31
0.0
210
0.0
220
0.0
230
1.0
 40
0.9833059182800139
 41
5.213279964936608
 42
6.231612357172
  0
SPLINE
  5
B2C
330
A8B
100
AcDbEntity
  8
FRONT
  6
Continuous
 62
     4
100
AcDbSpline
210
0.0
220
0.0
230
1.0
 70
     8
 71
     3
 72
    10
 73
     6
 74
     0
 42
0.0000000001
 43
0.0000000001
 40
0.0
 40
0.0
 40
0.0
 40
0.0
 40
0.1975215270407752
 40
0.8880294744614507
 40
1.0
 40
1.0
 40
1.0
 40
1.0
 10
14.04700334616364
 20
-2.534248306255423
 30
0.0
 10
14.02979995309934
 20
-2.56708149719274
 30
0.0
 10
13.95915311772168
 20
-2.715260042725278
 30
0.0
 10
13.91596124117772
 20
-2.891939134658461
 30
0.0
 10
13.90359775925108
 20
-3.029307479047951
 30
0.0
 10
13.90234343681433
 20
-3.048492528079988
 30
0.0
  0
LINE
  5
B2D
330
A8B
100
AcDbEntity
  8
FRONT
  6
Continuous
 62
     4
100
AcDbLine
 10
15.89972191180696
 20
-3.067258476064095
 30
0.0
 11
15.84224378306065
 21
-3.174912246999863
 31
0.0
  0
ELLIPSE
  5
B2E
330
A8B
100
AcDbEntity
  8
FRONT
  6
Continuous
 62
     4
100
AcDbEllipse
 10
17.97951315599034
 20
-2.391212493543383
 30
0.0
 11
-0.4845839650356391
 21
2.565417656625252
 31
0.0
210
0.0
220
0.0
230
0.9999999999999998
 40
0.1877462969956187
 41
1.545777644991644
 42
1.748054161917929
  0
ELLIPSE
  5
B2F
330
A8B
100
AcDbEntity
  8
FRONT
  6
Continuous
 62
     4
100
AcDbEllipse
 10
12.46509142978946
 20
4.4053773937274
 30
0.0
 11
-0.7820027716041942
 21
-0.3331240993350395
 31
0.0
210
0.0
220
0.0
230
1.0
 40
0.3528380920404428
 41
1.238775038219452
 42
1.609788972500551
  0
ELLIPSE
  5
B30
330
A8B
100
AcDbEntity
  8
FRONT
  6
Continuous
 62
     4
100
AcDbEllipse
 10
12.30437911162724
 20
5.324732699532396
 30
0.0
 11
-0.1775236042668109
 21
0.8312552970357225
 31
0.0
210
0.0
220
0.0
230
1.0
 40
0.1700246401022982
 41
4.325383915281284
 42
4.740398743479548
  0
SPLINE
  5
B31
330
A8B
100
AcDbEntity
  8
FRONT
  6
Continuous
 62
     4
100
AcDbSpline
210
0.0
220
0.0
230
1.0
 70
    24
 71
     1
 72
     4
 73
     2
 74
     0
 42
0.0000000001
 43
0.0000000001
 40
0.0
 40
0.0
 40
1.0
 40
1.0
 10
12.44068581249327
 20
5.378184466683816
 30
0.0
 10
12.71058671127498
 20
5.473403005394003
 30
0.0
  0
SPLINE
  5
B32
330
A8B
100
AcDbEntity
  8
FRONT
  6
Continuous
 62
     4
100
AcDbSpline
210
0.0
220
0.0
230
1.0
 70
    24
 71
     1
 72
     4
 73
     2
 74
     0
 42
0.0000000001
 43
0.0000000001
 40
0.0
 40
0.0
 40
1.0
 40
1.0
 10
12.4453969153142
 20
4.793762731808075
 30
0.0
 10
12.55914221892536
 20
4.254904835094778
 30
0.0
  0
SPLINE
  5
B33
330
A8B
100
AcDbEntity
  8
FRONT
  6
Continuous
 62
     4
100
AcDbSpline
210
0.0
220
0.0
230
1.0
 70
    24
 71
     1
 72
     4
 73
     2
 74
     0
 42
0.0000000001
 43
0.0000000001
 40
0.0
 40
0.0
 40
1.0
 40
1.0
 10
12.3980252578104
 20
3.54383975964174
 30
0.0
 10
13.21291955543235
 20
3.601539892142866
 30
0.0
  0
SPLINE
  5
B34
330
A8B
100
AcDbEntity
  8
FRONT
  6
Continuous
 62
     4
100
AcDbSpline
210
0.0
220
0.0
230
1.0
 70
    24
 71
     1
 72
     4
 73
     2
 74
     0
 42
0.0000000001
 43
0.0000000001
 40
0.0
 40
0.0
 40
1.0
 40
1.0
 10
12.73849007715883
 20
3.667718842522095
 30
0.0
 10
12.44268010034102
 20
3.606971866039024
 30
0.0
  0
SPLINE
  5
B35
330
A8B
100
AcDbEntity
  8
FRONT
  6
Continuous
 62
     4
100
AcDbSpline
210
0.0
220
0.0
230
1.0
 70
    24
 71
     1
 72
     4
 73
     2
 74
     0
 42
0.0000000001
 43
0.0000000001
 40
0.0
 40
0.0
 40
1.0
 40
1.0
 10
12.55915629769893
 20
4.254835323750993
 30
0.0
 10
12.26801481276993
 20
4.191302768065273
 30
0.0
  0
SPLINE
  5
B36
330
A8B
100
AcDbEntity
  8
FRONT
  6
Continuous
 62
     4
100
AcDbSpline
210
0.0
220
0.0
230
1.0
 70
     8
 71
     3
 72
    12
 73
     8
 74
     0
 42
0.0000000001
 43
0.0000000001
 40
0.0
 40
0.0
 40
0.0
 40
0.0
 40
0.2744697384182955
 40
0.551325202075647
 40
0.7557784030006751
 40
0.9601016673759271
 40
1.0
 40
1.0
 40
1.0
 40
1.0
 10
12.50226080994402
 20
5.038954222702709
 30
0.0
 10
12.49336678341477
 20
5.036925287209339
 30
0.0
 10
12.47674970363677
 20
5.030709459633406
 30
0.0
 10
12.45543597836243
 20
5.016913564102337
 30
0.0
 10
12.44193220855824
 20
4.998754955080447
 30
0.0
 10
12.43759971455943
 20
4.985018509162411
 30
0.0
 10
12.43655385903655
 20
4.977536033076629
 30
0.0
 10
12.43641987849389
 20
4.976306217531559
 30
0.0
  0
SPLINE
  5
B37
330
A8B
100
AcDbEntity
  8
FRONT
  6
Continuous
 62
     4
100
AcDbSpline
210
0.0
220
0.0
230
1.0
 70
     8
 71
     2
 72
     6
 73
     3
 74
     0
 42
0.0000000001
 43
0.0000000001
 40
0.0
 40
0.0
 40
0.0
 40
1.0
 40
1.0
 40
1.0
 10
12.03715634521592
 20
5.830492901738478
 30
0.0
 10
12.99283696601092
 20
5.878254479706012
 30
0.0
 10
13.94849592177253
 20
5.910374237806076
 30
0.0
  0
ELLIPSE
  5
B38
330
A8B
100
AcDbEntity
  8
FRONT
  6
Continuous
 62
     4
100
AcDbEllipse
 10
5.662019838117116
 20
-0.0000000000333795
 30
0.0
 11
-30.04133316949641
 21
-2.588839177206939
 31
0.0
210
0.0
220
0.0
230
0.9999999999999998
 40
0.161531415063552
 41
4.513346154013636
 42
4.756988358425918
  0
SPLINE
  5
B39
330
A8B
100
AcDbEntity
  8
FRONT
  6
Continuous
 62
     4
100
AcDbSpline
210
0.0
220
0.0
230
1.0
 70
     8
 71
     3
 72
    19
 73
    15
 74
     0
 42
0.0000000001
 43
0.0000000001
 40
0.0
 40
0.0
 40
0.0
 40
0.0
 40
0.0378701787910131
 40
0.0905179988905895
 40
0.1642269556926017
 40
0.2380530753730911
 40
0.3123760441477659
 40
0.3869895302976412
 40
0.4614745016438901
 40
0.5851496942702218
 40
0.7092835185565466
 40
0.833157903598639
 40
0.9165781401482579
 40
1.0
 40
1.0
 40
1.0
 40
1.0
 10
1.345325372781964
 20
5.49999932711582
 30
0.0
 10
1.398511539679653
 20
5.499310768582701
 30
0.0
 10
1.538982385476854
 20
5.487566690474291
 30
0.0
 10
1.854591910925284
 20
5.418195046609993
 30
0.0
 10
2.329329109016069
 20
5.271619651707619
 30
0.0
 10
2.940855747626413
 20
5.059696886614688
 30
0.0
 10
3.6216964289096
 20
4.824065572811823
 30
0.0
 10
4.352948688096573
 20
4.581228769111548
 30
0.0
 10
5.29008644652346
 20
4.292383252863228
 30
0.0
 10
6.451194759052143
 20
3.98739059815945
 30
0.0
 10
7.838486420970312
 20
3.705173860574058
 30
0.0
 10
9.103089126275692
 20
3.529868020428326
 30
0.0
 10
10.22364537502219
 20
3.441763234081208
 30
0.0
 10
10.86882686552338
 20
3.420927197378751
 30
0.0
 10
11.19220462092714
 20
3.417991427849379
 30
0.0
  0
LINE
  5
B3A
330
A8B
100
AcDbEntity
  8
FRONT
  6
Continuous
 62
     4
100
AcDbLine
 10
1.352746725880145
 20
5.5
 30
0.0
 11
0.8660254037844552
 21
5.5
 31
0.0
  0
LINE
  5
B3B
330
A8B
100
AcDbEntity
  8
FRONT
  6
Continuous
 62
     4
100
AcDbLine
 10
11.18782140983618
 20
3.622780017417606
 30
0.0
 11
11.58072561727361
 21
4.835384189051726
 31
0.0
  0
LINE
  5
B3C
330
A8B
100
AcDbEntity
  8
FRONT
  6
Continuous
 62
     4
100
AcDbLine
 10
11.18782140983618
 20
3.622780017417606
 30
0.0
 11
12.32131357354198
 21
4.035942971686977
 31
0.0
  0
LINE
  5
B3D
330
A8B
100
AcDbEntity
  8
FRONT
  6
Continuous
 62
     4
100
AcDbLine
 10
12.1287291577043
 20
4.721327038522023
 30
0.0
 11
11.58072561727361
 21
4.835384189051726
 31
0.0
  0
LINE
  5
B3E
330
A8B
100
AcDbEntity
  8
FRONT
  6
Continuous
 62
     4
100
AcDbLine
 10
11.73862963750702
 20
5.461687541797799
 30
0.0
 11
11.82908573895635
 21
5.442860719673216
 31
0.0
  0
LINE
  5
B3F
330
A8B
100
AcDbEntity
  8
FRONT
  6
Continuous
 62
     4
100
AcDbLine
 10
11.73862963750702
 20
5.461687541797799
 30
0.0
 11
11.75466693733003
 21
5.546759538624923
 31
0.0
  0
ELLIPSE
  5
B40
330
A8B
100
AcDbEntity
  8
FRONT
  6
Continuous
 62
     4
100
AcDbEllipse
 10
11.95540632460577
 20
5.633722551958136
 30
0.0
 11
-0.806489772482009
 21
-0.5912480410211467
 31
0.0
210
0.0
220
0.0
230
1.0
 40
0.0811337619020885
 41
1.354388177432271
 42
1.745711778396149
  0
ELLIPSE
  5
B41
330
A8B
100
AcDbEntity
  8
FRONT
  6
Continuous
 62
     4
100
AcDbEllipse
 10
335.1698859889653
 20
27.65013668158367
 30
0.0
 11
-342.0959389744786
 21
-28.76099667904112
 31
0.0
210
0.0
220
0.0
230
1.0
 40
0.0434265181053538
 41
5.947803486633389
 42
5.952599622232146
  0
ELLIPSE
  5
B42
330
A8B
100
AcDbEntity
  8
FRONT
  6
Continuous
 62
     4
100
AcDbEllipse
 10
5.102677341749099
 20
0.6587726038256668
 30
0.0
 11
-7.307339427366883
 21
-3.063816270399227
 31
0.0
210
0.0
220
0.0
230
1.0
 40
0.2481866287351503
 41
3.052623486450511
 42
3.080913953302548
  0
ELLIPSE
  5
B43
330
A8B
100
AcDbEntity
  8
FRONT
  6
Continuous
 62
     4
100
AcDbEllipse
 10
12.27250701395665
 20
5.090761460477818
 30
0.0
 11
-0.8217836972268276
 21
-0.2171901358713434
 31
0.0
210
0.0
220
0.0
230
0.9999999999999998
 40
0.3920499365775708
 41
1.292632269327997
 42
1.678371035082333
  0
ELLIPSE
  5
B44
330
A8B
100
AcDbEntity
  8
FRONT
  6
Continuous
 62
     4
100
AcDbEllipse
 10
5.404099419789868
 20
0.7686420975624931
 30
0.0
 11
-5.980729945729562
 21
-2.40986449979302
 31
0.0
210
0.0
220
0.0
230
1.0
 40
0.3085337035018759
 41
3.290405811667822
 42
3.332639300504348
  0
ELLIPSE
  5
B45
330
A8B
100
AcDbEntity
  8
FRONT
  6
Continuous
 62
     4
100
AcDbEllipse
 10
12.04589348063163
 20
3.189576309002418
 30
0.0
 11
-0.6673421078069362
 21
-2.286566163010705
 31
0.0
210
0.0
220
0.0
230
0.9999999999999998
 40
0.3978450525441507
 41
4.63866320637629
 42
4.650929689634256
  0
ELLIPSE
  5
B46
330
A8B
100
AcDbEntity
  8
FRONT
  6
Continuous
 62
     4
100
AcDbEllipse
 10
10.73278510489058
 20
6.237522743498638
 30
0.0
 11
-0.1862105098576039
 21
-2.621606840087076
 31
0.0
210
0.0
220
0.0
230
0.9999999999999998
 40
0.4178730016605411
 41
1.036429758151679
 42
1.300166956177833
  0
ELLIPSE
  5
B47
330
A8B
100
AcDbEntity
  8
FRONT
  6
Continuous
 62
     4
100
AcDbEllipse
 10
12.25172592005139
 20
5.268705240183141
 30
0.0
 11
-0.8496785632609061
 21
0.0233738973287866
 31
0.0
210
0.0
220
0.0
230
1.0
 40
0.3469230430269695
 41
1.426511375320844
 42
1.799447862846502
  0
ELLIPSE
  5
B48
330
A8B
100
AcDbEntity
  8
FRONT
  6
Continuous
 62
     4
100
AcDbEllipse
 10
11.78356539115273
 20
2.802384415741716
 30
0.0
 11
-1.329462075118444
 21
-0.5309569405100488
 31
0.0
210
0.0
220
0.0
230
0.9999999999999998
 40
0.8742324331760295
 41
4.730475183920662
 42
5.327454682651223
  0
SPLINE
  5
B49
330
A8B
100
AcDbEntity
  8
FRONT
  6
Continuous
 62
     4
100
AcDbSpline
210
0.0
220
0.0
230
1.0
 70
    24
 71
     1
 72
     4
 73
     2
 74
     0
 42
0.0000000001
 43
0.0000000001
 40
0.0
 40
0.0
 40
1.0
 40
1.0
 10
12.44268010034102
 20
3.606971866039025
 30
0.0
 10
12.32131357354198
 20
4.03594297168698
 30
0.0
  0
SPLINE
  5
B4A
330
A8B
100
AcDbEntity
  8
FRONT
  6
Continuous
 62
     4
100
AcDbSpline
210
0.0
220
0.0
230
1.0
 70
    24
 71
     1
 72
     4
 73
     2
 74
     0
 42
0.0000000001
 43
0.0000000001
 40
0.0
 40
0.0
 40
1.0
 40
1.0
 10
11.19220462092714
 20
3.417991427849379
 30
0.0
 10
12.3980252578104
 20
3.543839759641738
 30
0.0
  0
SPLINE
  5
B4B
330
A8B
100
AcDbEntity
  8
FRONT
  6
Continuous
 62
     4
100
AcDbSpline
210
0.0
220
0.0
230
1.0
 70
    24
 71
     1
 72
     4
 73
     2
 74
     0
 42
0.0000000001
 43
0.0000000001
 40
0.0
 40
0.0
 40
1.0
 40
1.0
 10
11.13483081029059
 20
3.485051129667143
 30
0.0
 10
11.17890053972468
 20
3.595016077432556
 30
0.0
  0
SPLINE
  5
B4C
330
A8B
100
AcDbEntity
  8
FRONT
  6
Continuous
 62
     4
100
AcDbSpline
210
0.0
220
0.0
230
1.0
 70
    24
 71
     1
 72
     4
 73
     2
 74
     0
 42
0.0000000001
 43
0.0000000001
 40
0.0
 40
0.0
 40
1.0
 40
1.0
 10
11.82908573895635
 20
5.442860719673213
 30
0.0
 10
11.75466693733006
 20
5.546759538624923
 30
0.0
  0
SPLINE
  5
B4D
330
A8B
100
AcDbEntity
  8
FRONT
  6
Continuous
 62
     4
100
AcDbSpline
210
0.0
220
0.0
230
1.0
 70
    24
 71
     1
 72
     4
 73
     2
 74
     0
 42
0.0000000001
 43
0.0000000001
 40
0.0
 40
0.0
 40
1.0
 40
1.0
 10
11.99195171433702
 20
5.828515939483442
 30
0.0
 10
12.03715635432748
 20
5.830493677100296
 30
0.0
  0
SPLINE
  5
B4E
330
A8B
100
AcDbEntity
  8
FRONT
  6
Continuous
 62
     4
100
AcDbSpline
210
0.0
220
0.0
230
1.0
 70
     8
 71
     2
 72
     6
 73
     3
 74
     0
 42
0.0000000001
 43
0.0000000001
 40
0.0
 40
0.0
 40
0.0
 40
1.0
 40
1.0
 40
1.0
 10
12.12153033356313
 20
4.980355974952971
 30
0.0
 10
12.25725557980072
 20
5.188642474664766
 30
0.0
 10
12.44068581249289
 20
5.378184466685091
 30
0.0
  0
SPLINE
  5
B4F
330
A8B
100
AcDbEntity
  8
FRONT
  6
Continuous
 62
     4
100
AcDbSpline
210
0.0
220
0.0
230
1.0
 70
    24
 71
     1
 72
     4
 73
     2
 74
     0
 42
0.0000000001
 43
0.0000000001
 40
0.0
 40
0.0
 40
1.0
 40
1.0
 10
12.14299382353853
 20
5.672179305901577
 30
0.0
 10
12.44068581249117
 20
5.378184466683152
 30
0.0
  0
SPLINE
  5
B50
330
A8B
100
AcDbEntity
  8
FRONT
  6
Continuous
 62
     4
100
AcDbSpline
210
0.0
220
0.0
230
1.0
 70
    24
 71
     1
 72
     4
 73
     2
 74
     0
 42
0.0000000001
 43
0.0000000001
 40
0.0
 40
0.0
 40
1.0
 40
1.0
 10
12.43641987849358
 20
4.976306217531615
 30
0.0
 10
12.44539691531411
 20
4.793762731808084
 30
0.0
  0
SPLINE
  5
B51
330
A8B
100
AcDbEntity
  8
FRONT
  6
Continuous
 62
     4
100
AcDbSpline
210
0.0
220
0.0
230
1.0
 70
    24
 71
     1
 72
     4
 73
     2
 74
     0
 42
0.0000000001
 43
0.0000000001
 40
0.0
 40
0.0
 40
1.0
 40
1.0
 10
12.1287291577043
 20
4.721327038522023
 30
0.0
 10
12.12153033357644
 20
4.980355974944933
 30
0.0
  0
SPLINE
  5
B52
330
A8B
100
AcDbEntity
  8
FRONT
  6
Continuous
 62
     4
100
AcDbSpline
210
0.0
220
0.0
230
1.0
 70
    24
 71
     1
 72
     4
 73
     2
 74
     0
 42
0.0000000001
 43
0.0000000001
 40
0.0
 40
0.0
 40
1.0
 40
1.0
 10
11.75466693733006
 20
5.546759538624923
 30
0.0
 10
11.77084472479986
 20
5.637701490563192
 30
0.0
  0
SPLINE
  5
B53
330
A8B
100
AcDbEntity
  8
FRONT
  6
Continuous
 62
     4
100
AcDbSpline
210
0.0
220
0.0
230
1.0
 70
    24
 71
     1
 72
     4
 73
     2
 74
     0
 42
0.0000000001
 43
0.0000000001
 40
0.0
 40
0.0
 40
1.0
 40
1.0
 10
12.26801481277344
 20
4.191302768055223
 30
0.0
 10
12.12872915770442
 20
4.721327038522042
 30
0.0
  0
SPLINE
  5
B54
330
A8B
100
AcDbEntity
  8
FRONT
  6
Continuous
 62
     4
100
AcDbSpline
210
0.0
220
0.0
230
1.0
 70
    24
 71
     1
 72
     4
 73
     2
 74
     0
 42
0.0000000001
 43
0.0000000001
 40
0.0
 40
0.0
 40
1.0
 40
1.0
 10
12.32131357354198
 20
4.035942971686977
 30
0.0
 10
12.26802043571945
 20
4.191303577397426
 30
0.0
  0
SPLINE
  5
B55
330
A8B
100
AcDbEntity
  8
FRONT
  6
Continuous
 62
     4
100
AcDbSpline
210
0.0
220
0.0
230
1.0
 70
     8
 71
     3
 72
    12
 73
     8
 74
     0
 42
0.0000000001
 43
0.0000000001
 40
0.0
 40
0.0
 40
0.0
 40
0.0
 40
0.2440298709825523
 40
0.488120310074948
 40
0.7306421972591242
 40
0.9701993202335991
 40
1.0
 40
1.0
 40
1.0
 40
1.0
 10
11.99195171433709
 20
5.828515939483442
 30
0.0
 10
11.96562176469131
 20
5.827267267325016
 30
0.0
 10
11.91614572163948
 20
5.81715304258248
 30
0.0
 10
11.84798307522928
 20
5.777355599814397
 30
0.0
 10
11.79694752140736
 20
5.718879229510207
 30
0.0
 10
11.77656470249855
 20
5.668220081294717
 30
0.0
 10
11.77135854082036
 20
5.640760675661909
 30
0.0
 10
11.77084472479986
 20
5.637701490563106
 30
0.0
  0
SPLINE
  5
B56
330
A8B
100
AcDbEntity
  8
FRONT
  6
Continuous
 62
     4
100
AcDbSpline
210
0.0
220
0.0
230
1.0
 70
    24
 71
     1
 72
     4
 73
     2
 74
     0
 42
0.0000000001
 43
0.0000000001
 40
0.0
 40
0.0
 40
1.0
 40
1.0
 10
11.10699408027199
 20
3.430964201513403
 30
0.0
 10
11.13483081029059
 20
3.485051129667143
 30
0.0
  0
SPLINE
  5
B57
330
A8B
100
AcDbEntity
  8
FRONT
  6
Continuous
 62
     4
100
AcDbSpline
210
0.0
220
0.0
230
1.0
 70
     8
 71
     2
 72
     6
 73
     3
 74
     0
 42
0.0000000001
 43
0.0000000001
 40
0.0
 40
0.0
 40
0.0
 40
1.0
 40
1.0
 40
1.0
 10
12.03715634521592
 20
5.830492901738478
 30
0.0
 10
12.08883088585918
 20
5.750552258515644
 30
0.0
 10
12.14299382353853
 20
5.672179305901581
 30
0.0
  0
SPLINE
  5
B58
330
A8B
100
AcDbEntity
  8
FRONT
  6
Continuous
 62
     4
100
AcDbSpline
210
0.0
220
0.0
230
1.0
 70
     8
 71
     2
 72
     6
 73
     3
 74
     0
 42
0.0000000001
 43
0.0000000001
 40
0.0
 40
0.0
 40
0.0
 40
1.0
 40
1.0
 40
1.0
 10
12.12153033357693
 20
4.98035597495837
 30
0.0
 10
11.94052361365615
 20
5.188224351265906
 30
0.0
 10
11.82908573895635
 20
5.442860719673213
 30
0.0
  0
LINE
  5
B59
330
A8B
100
AcDbEntity
  8
FRONT
  6
Continuous
 62
     4
100
AcDbLine
 10
17.89827503693186
 20
4.305849194799654
 30
0.0
 11
17.5908596611797
 21
2.933128552700317
 31
0.0
  0
LINE
  5
B5A
330
A8B
100
AcDbEntity
  8
FRONT
  6
Continuous
 62
     4
100
AcDbLine
 10
17.48879939540238
 20
2.948133384037639
 30
0.0
 11
17.5908596611797
 21
2.933128552700317
 31
0.0
  0
ELLIPSE
  5
B5B
330
A8B
100
AcDbEntity
  8
FRONT
  6
Continuous
 62
     4
100
AcDbEllipse
 10
17.97951315555683
 20
2.391212493729724
 30
0.0
 11
-0.4845839648273406
 21
-2.565417655414864
 31
0.0
210
0.0
220
0.0
230
1.0
 40
0.1877462969075319
 41
4.535131145218768
 42
4.737407662240475
  0
ELLIPSE
  5
B5C
330
A8B
100
AcDbEntity
  8
FRONT
  6
Continuous
 62
     4
100
AcDbEllipse
 10
14.515607907233
 20
3.779757555175363
 30
0.0
 11
-1.088811819638892
 21
-0.5813346379390692
 31
0.0
210
0.0
220
0.0
230
0.9999999999999998
 40
0.9833059182791359
 41
3.141592653589792
 42
5.933643914404617
  0
ELLIPSE
  5
B5D
330
A8B
100
AcDbEntity
  8
FRONT
  6
Continuous
 62
     4
100
AcDbEllipse
 10
14.59586354321826
 20
3.865394052024021
 30
0.0
 11
-1.19524239155921
 21
-0.6381596805011488
 31
0.0
210
0.0
220
0.0
230
0.9999999999999998
 40
0.9833059182791515
 41
2.398313761510258
 42
5.985009272386527
  0
ELLIPSE
  5
B5E
330
A8B
100
AcDbEntity
  8
FRONT
  6
Continuous
 62
     4
100
AcDbEllipse
 10
14.58257986552084
 20
3.890273741521
 30
0.0
 11
-1.274184406475824
 21
-0.6803081278529028
 31
0.0
210
0.0
220
0.0
230
0.9999999999999998
 40
0.9833059182793167
 41
2.393939591548555
 42
4.152487722051174
  0
ELLIPSE
  5
B5F
330
A8B
100
AcDbEntity
  8
FRONT
  6
Continuous
 62
     4
100
AcDbEllipse
 10
14.624437821126
 20
3.811875803681258
 30
0.0
 11
-1.09830870118782
 21
-0.5864051800623212
 31
0.0
210
0.0
220
0.0
230
0.9999999999999998
 40
0.9833059182791778
 41
2.421430119237936
 42
4.646060335807836
  0
ELLIPSE
  5
B60
330
A8B
100
AcDbEntity
  8
FRONT
  6
Continuous
 62
     4
100
AcDbEllipse
 10
14.59586354321826
 20
3.865394052023983
 30
0.0
 11
-1.15113543004724
 21
-0.6146102442832692
 31
0.0
210
0.0
220
0.0
230
1.0
 40
0.9833059182791595
 41
2.854453356631227
 42
5.726113818514622
  0
ELLIPSE
  5
B61
330
A8B
100
AcDbEntity
  8
FRONT
  6
Continuous
 62
     4
100
AcDbEllipse
 10
14.61409458346563
 20
3.831248190399238
 30
0.0
 11
-1.141300807152083
 21
-0.6093593764552427
 31
0.0
210
0.0
220
0.0
230
1.0
 40
0.9833059182793387
 41
2.854453356640041
 42
4.211497995772409
  0
ELLIPSE
  5
B62
330
A8B
100
AcDbEntity
  8
FRONT
  6
Continuous
 62
     4
100
AcDbEllipse
 10
14.58172285405612
 20
3.891878882778576
 30
0.0
 11
-1.289463506136375
 21
-0.6884658918589805
 31
0.0
210
0.0
220
0.0
230
0.9999999999999998
 40
0.9833059182791195
 41
2.395557650275634
 42
4.152487722049663
  0
SPLINE
  5
B63
330
A8B
100
AcDbEntity
  8
FRONT
  6
Continuous
 62
     4
100
AcDbSpline
210
0.0
220
0.0
230
1.0
 70
    24
 71
     1
 72
     4
 73
     2
 74
     0
 42
0.0000000001
 43
0.0000000001
 40
0.0
 40
0.0
 40
1.0
 40
1.0
 10
17.29745226804206
 20
3.509679345658438
 30
0.0
 10
13.748385681282
 20
3.593205653172363
 30
0.0
  0
SPLINE
  5
B64
330
A8B
100
AcDbEntity
  8
FRONT
  6
Continuous
 62
     4
100
AcDbSpline
210
0.0
220
0.0
230
1.0
 70
    24
 71
     1
 72
     4
 73
     2
 74
     0
 42
0.0000000001
 43
0.0000000001
 40
0.0
 40
0.0
 40
1.0
 40
1.0
 10
16.11893557758381
 20
4.995450787331964
 30
0.0
 10
15.12498870412169
 20
5.250072189631183
 30
0.0
  0
SPLINE
  5
B65
330
A8B
100
AcDbEntity
  8
FRONT
  6
Continuous
 62
     4
100
AcDbSpline
210
0.0
220
0.0
230
1.0
 70
    24
 71
     1
 72
     4
 73
     2
 74
     0
 42
0.0000000001
 43
0.0000000001
 40
0.0
 40
0.0
 40
1.0
 40
1.0
 10
17.59489872014192
 20
5.975264142052812
 30
0.0
 10
14.60613712230076
 20
5.930601946215392
 30
0.0
  0
SPLINE
  5
B66
330
A8B
100
AcDbEntity
  8
FRONT
  6
Continuous
 62
     4
100
AcDbSpline
210
0.0
220
0.0
230
1.0
 70
    24
 71
     1
 72
     4
 73
     2
 74
     0
 42
0.0000000001
 43
0.0000000001
 40
0.0
 40
0.0
 40
1.0
 40
1.0
 10
14.92350318018168
 20
5.636516777042869
 30
0.0
 10
16.19668973819389
 20
5.335334408581799
 30
0.0
  0
LINE
  5
B67
330
A8B
100
AcDbEntity
  8
FRONT
  6
Continuous
 62
     4
100
AcDbLine
 10
15.10230670790777
 20
4.183313301931558
 30
0.0
 11
15.04448787470278
 21
4.291605195933396
 31
0.0
  0
LINE
  5
B68
330
A8B
100
AcDbEntity
  8
FRONT
  6
Continuous
 62
     4
100
AcDbLine
 10
15.1976496365405
 20
3.611859513448073
 30
0.0
 11
15.22617856444389
 21
3.558426203482308
 31
0.0
  0
LINE
  5
B69
330
A8B
100
AcDbEntity
  8
FRONT
  6
Continuous
 62
     4
100
AcDbLine
 10
13.80446405246526
 20
3.591885864106183
 30
0.0
 11
13.80379348619884
 21
3.593141802474725
 31
0.0
  0
LINE
  5
B6A
330
A8B
100
AcDbEntity
  8
FRONT
  6
Continuous
 62
     4
100
AcDbLine
 10
14.83756674726533
 20
5.331362856545027
 30
0.0
 11
14.69295620412083
 21
5.331857548057461
 31
0.0
  0
LINE
  5
B6B
330
A8B
100
AcDbEntity
  8
FRONT
  6
Continuous
 62
     4
100
AcDbLine
 10
14.05370990737933
 20
4.186900398182689
 30
0.0
 11
13.99589107417434
 21
4.295192292184527
 31
0.0
  0
LINE
  5
B6C
330
A8B
100
AcDbEntity
  8
FRONT
  6
Continuous
 62
     4
100
AcDbLine
 10
14.44227717851973
 20
4.461613941808328
 30
0.0
 11
14.40175106321881
 21
4.382834230900383
 31
0.0
  0
LINE
  5
B6D
330
A8B
100
AcDbEntity
  8
FRONT
  6
Continuous
 62
     4
100
AcDbLine
 10
14.36658232700411
 20
4.549988550519461
 30
0.0
 11
14.38057235479898
 21
4.577184109163312
 31
0.0
  0
LINE
  5
B6E
330
A8B
100
AcDbEntity
  8
FRONT
  6
Continuous
 62
     4
100
AcDbLine
 10
14.40175106321881
 20
4.382834230900383
 30
0.0
 11
14.3439322300138
 21
4.491126124902223
 31
0.0
  0
LINE
  5
B6F
330
A8B
100
AcDbEntity
  8
FRONT
  6
Continuous
 62
     4
100
AcDbLine
 10
13.934096024833
 20
4.306515336617805
 30
0.0
 11
13.903565927193
 21
4.308647770791533
 31
0.0
  0
LINE
  5
B70
330
A8B
100
AcDbEntity
  8
FRONT
  6
Continuous
 62
     4
100
AcDbLine
 10
13.77533931878937
 20
4.042581236833521
 30
0.0
 11
13.75872784864233
 21
4.067853483548937
 31
0.0
  0
LINE
  5
B71
330
A8B
100
AcDbEntity
  8
FRONT
  6
Continuous
 62
     4
100
AcDbLine
 10
13.96527075091378
 20
4.193077603436552
 30
0.0
 11
14.05370990737933
 21
4.186900398182689
 31
0.0
  0
LINE
  5
B72
330
A8B
100
AcDbEntity
  8
FRONT
  6
Continuous
 62
     4
100
AcDbLine
 10
13.96527075091378
 20
4.193077603436552
 30
0.0
 11
13.903565927193
 21
4.308647770791533
 31
0.0
  0
LINE
  5
B73
330
A8B
100
AcDbEntity
  8
FRONT
  6
Continuous
 62
     4
100
AcDbLine
 10
15.248091543825
 20
4.037543166926568
 30
0.0
 11
15.26559078171205
 21
4.062698725899988
 31
0.0
  0
LINE
  5
B74
330
A8B
100
AcDbEntity
  8
FRONT
  6
Continuous
 62
     4
100
AcDbLine
 10
15.19095269576139
 20
4.18888472481321
 30
0.0
 11
15.10230670790777
 21
4.183313301931558
 31
0.0
  0
LINE
  5
B75
330
A8B
100
AcDbEntity
  8
FRONT
  6
Continuous
 62
     4
100
AcDbLine
 10
14.71128105223291
 20
4.474369018649596
 30
0.0
 11
14.76822961098702
 21
4.367707106841534
 31
0.0
  0
LINE
  5
B76
330
A8B
100
AcDbEntity
  8
FRONT
  6
Continuous
 62
     4
100
AcDbLine
 10
15.09864637409872
 20
4.302531580239758
 30
0.0
 11
15.12924787204065
 21
4.304454892168187
 31
0.0
  0
LINE
  5
B77
330
A8B
100
AcDbEntity
  8
FRONT
  6
Continuous
 62
     4
100
AcDbLine
 10
15.19095269576139
 20
4.18888472481321
 30
0.0
 11
15.12924787204065
 21
4.304454892168187
 31
0.0
  0
LINE
  5
B78
330
A8B
100
AcDbEntity
  8
FRONT
  6
Continuous
 62
     4
100
AcDbLine
 10
13.88468018453357
 20
3.851921520671986
 30
0.0
 11
13.82879362639822
 21
3.956594356394368
 31
0.0
  0
LINE
  5
B79
330
A8B
100
AcDbEntity
  8
FRONT
  6
Continuous
 62
     4
100
AcDbLine
 10
14.44227717851973
 20
4.461613941808328
 30
0.0
 11
14.38057235479898
 21
4.577184109163312
 31
0.0
  0
LINE
  5
B7A
330
A8B
100
AcDbEntity
  8
FRONT
  6
Continuous
 62
     4
100
AcDbLine
 10
14.67478420277406
 20
4.548934236990556
 30
0.0
 11
14.66175334302106
 21
4.576222230137708
 31
0.0
  0
LINE
  5
B7B
330
A8B
100
AcDbEntity
  8
FRONT
  6
Continuous
 62
     4
100
AcDbLine
 10
15.22782923901037
 20
3.55838735530968
 30
0.0
 11
15.21184500108873
 21
3.588325064231844
 31
0.0
  0
ELLIPSE
  5
B7C
330
A8B
100
AcDbEntity
  8
FRONT
  6
Continuous
 62
     4
100
AcDbEllipse
 10
14.57425026010683
 20
3.669923248444872
 30
0.0
 11
-0.5697208004759025
 21
-0.3041833576987884
 31
0.0
210
0.0
220
0.0
230
1.0
 40
0.9833059182803454
 41
3.141592653589792
 42
4.211497995854738
  0
ELLIPSE
  5
B7D
330
A8B
100
AcDbEntity
  8
FRONT
  6
Continuous
 62
     4
100
AcDbEllipse
 10
14.69467022705201
 20
5.328647265550291
 30
0.0
 11
-0.0012380506136597
 21
-0.0199616439988246
 31
0.0
210
0.0
220
0.0
230
1.0
 40
0.0966394604989199
 41
4.556861561911704
 42
5.60405911256103
  0
ELLIPSE
  5
B7E
330
A8B
100
AcDbEntity
  8
FRONT
  6
Continuous
 62
     4
100
AcDbEllipse
 10
15.13698707744814
 20
4.149555768557871
 30
0.0
 11
-0.1387163939545198
 21
-0.0740629769062388
 31
0.0
210
0.0
220
0.0
230
1.0
 40
0.983305918279537
 41
3.141592653589792
 42
4.278357181632673
  0
ELLIPSE
  5
B7F
330
A8B
100
AcDbEntity
  8
FRONT
  6
Continuous
 62
     4
100
AcDbEllipse
 10
14.56910786775645
 20
3.679554149551463
 30
0.0
 11
-0.5697232499858903
 21
-0.3041793370702448
 31
0.0
210
0.0
220
0.0
230
0.9999999999999998
 40
0.9833058533003276
 41
2.452122662756897
 42
2.51349782037308
  0
ELLIPSE
  5
B80
330
A8B
100
AcDbEntity
  8
FRONT
  6
Continuous
 62
     4
100
AcDbEllipse
 10
15.13698707744945
 20
4.149555768557799
 30
0.0
 11
-0.1387163939436924
 21
-0.0740629769240791
 31
0.0
210
0.0
220
0.0
230
1.0
 40
0.9833059182820004
 41
2.05024370739385
 42
3.141592653473066
  0
ELLIPSE
  5
B81
330
A8B
100
AcDbEntity
  8
FRONT
  6
Continuous
 62
     4
100
AcDbEllipse
 10
13.95207889255067
 20
4.038250081933183
 30
0.0
 11
-0.138716393954182
 21
-0.0740629769072034
 31
0.0
210
0.0
220
0.0
230
1.0
 40
0.9833059182793643
 41
4.144638809916375
 42
6.033222504441043
  0
ELLIPSE
  5
B82
330
A8B
100
AcDbEntity
  8
FRONT
  6
Continuous
 62
     4
100
AcDbEllipse
 10
14.50740336589031
 20
3.795124266565245
 30
0.0
 11
-0.6878480648487471
 21
-0.3672534576645039
 31
0.0
210
0.0
220
0.0
230
1.0
 40
0.9833059182825293
 41
3.364014017275521
 42
4.011784423528292
  0
ELLIPSE
  5
B83
330
A8B
100
AcDbEntity
  8
FRONT
  6
Continuous
 62
     4
100
AcDbEllipse
 10
15.19869190116777
 20
4.03398560119947
 30
0.0
 11
-0.1387163939305158
 21
-0.0740629769569428
 31
0.0
210
0.0
220
0.0
230
0.9999999999999998
 40
0.9833059182794855
 41
3.579055150075236
 42
4.278357181272085
  0
ELLIPSE
  5
B84
330
A8B
100
AcDbEntity
  8
FRONT
  6
Continuous
 62
     4
100
AcDbEllipse
 10
14.57425026010534
 20
3.669923248441066
 30
0.0
 11
-0.5697208004536415
 21
-0.3041833577478669
 31
0.0
210
0.0
220
0.0
230
1.0
 40
0.9833059182795919
 41
4.211497995770305
 42
5.916687780929657
  0
ELLIPSE
  5
B85
330
A8B
100
AcDbEntity
  8
FRONT
  6
Continuous
 62
     4
100
AcDbEllipse
 10
14.51995578064691
 20
4.508250739867492
 30
0.0
 11
-0.1387190760836097
 21
-0.074062710247625
 31
0.0
210
0.0
220
0.0
230
1.0
 40
0.9832989179835243
 41
3.097450943316431
 42
3.141602023580455
  0
ELLIPSE
  5
B86
330
A8B
100
AcDbEntity
  8
FRONT
  6
Continuous
 62
     4
100
AcDbEllipse
 10
14.51995778039392
 20
4.508251751292131
 30
0.0
 11
-0.1387163939537963
 21
-0.0740629769078515
 31
0.0
210
0.0
220
0.0
230
0.9999999999999998
 40
0.9833059182791126
 41
3.141592653589792
 42
5.325554732817813
  0
ELLIPSE
  5
B87
330
A8B
100
AcDbEntity
  8
FRONT
  6
Continuous
 62
     4
100
AcDbEllipse
 10
14.60429708204515
 20
3.613646995939661
 30
0.0
 11
-0.3532268962687824
 21
-0.1885936818296914
 31
0.0
210
0.0
220
0.0
230
1.0
 40
0.9833059182785307
 41
3.188548543609073
 42
4.2114979956971
  0
ELLIPSE
  5
B88
330
A8B
100
AcDbEntity
  8
FRONT
  6
Continuous
 62
     4
100
AcDbEllipse
 10
14.08380160591652
 20
4.540074528313537
 30
0.0
 11
-0.3164233418824987
 21
-0.1689436554341971
 31
0.0
210
0.0
220
0.0
230
1.0
 40
0.9833059182770933
 41
1.003046156315968
 42
2.183962079224543
  0
ELLIPSE
  5
B89
330
A8B
100
AcDbEntity
  8
FRONT
  6
Continuous
 62
     4
100
AcDbEllipse
 10
14.50740336587441
 20
3.795124266572471
 30
0.0
 11
-0.6878480647677431
 21
-0.3672534578178684
 31
0.0
210
0.0
220
0.0
230
1.0
 40
0.9833059182652659
 41
4.41121156824879
 42
5.058981974505009
  0
ELLIPSE
  5
B8A
330
A8B
100
AcDbEntity
  8
FRONT
  6
Continuous
 62
     4
100
AcDbEllipse
 10
14.58172285396982
 20
3.891878882787051
 30
0.0
 11
-1.289463505490717
 21
-0.6884658929129688
 31
0.0
210
0.0
220
0.0
230
0.9999999999999998
 40
0.9833059182902299
 41
5.42507150311212
 42
5.993725673721996
  0
ELLIPSE
  5
B8B
330
A8B
100
AcDbEntity
  8
FRONT
  6
Continuous
 62
     4
100
AcDbEllipse
 10
13.97044885753497
 20
5.616005562204333
 30
0.0
 11
-0.0211384512596285
 21
-0.8497371156793303
 31
0.0
210
0.0
220
0.0
230
1.0
 40
0.1896634436923256
 41
1.168100390367426
 42
1.749625419812159
  0
ELLIPSE
  5
B8C
330
A8B
100
AcDbEntity
  8
FRONT
  6
Continuous
 62
     4
100
AcDbEllipse
 10
14.58166260411466
 20
4.392681583937155
 30
0.0
 11
-0.138716393954067
 21
-0.0740629769073293
 31
0.0
210
0.0
220
0.0
230
1.0
 40
0.9833059182794162
 41
3.353232323526823
 42
5.325554732821572
  0
ELLIPSE
  5
B8D
330
A8B
100
AcDbEntity
  8
FRONT
  6
Continuous
 62
     4
100
AcDbEllipse
 10
13.89037417432644
 20
4.153820311544767
 30
0.0
 11
-0.1387164275215775
 21
-0.0740631738835355
 31
0.0
210
0.0
220
0.0
230
1.0
 40
0.9833055364643515
 41
6.283184319510271
 42
6.372751261455347
  0
ELLIPSE
  5
B8E
330
A8B
100
AcDbEntity
  8
FRONT
  6
Continuous
 62
     4
100
AcDbEllipse
 10
14.50740336586205
 20
3.795124266556618
 30
0.0
 11
-0.6878480646011706
 21
-0.3672534581129616
 31
0.0
210
0.0
220
0.0
230
0.9999999999999998
 40
0.9833059182837756
 41
5.458409119012037
 42
6.053253327806824
  0
ELLIPSE
  5
B8F
330
A8B
100
AcDbEntity
  8
FRONT
  6
Continuous
 62
     4
100
AcDbEllipse
 10
14.58207327753735
 20
3.891222556444417
 30
0.0
 11
-1.314616796581824
 21
-0.7018956497286183
 31
0.0
210
0.0
220
0.0
230
1.0
 40
0.9833059182747907
 41
4.552187304562112
 42
5.292715336509727
  0
ELLIPSE
  5
B90
330
A8B
100
AcDbEntity
  8
FRONT
  6
Continuous
 62
     4
100
AcDbEllipse
 10
14.58688798533232
 20
3.646253396861238
 30
0.0
 11
-0.3532268962957501
 21
-0.1885936817720534
 31
0.0
210
0.0
220
0.0
230
1.0
 40
0.9833059182800568
 41
3.141592653589792
 42
4.211497995858031
  0
ELLIPSE
  5
B91
330
A8B
100
AcDbEntity
  8
FRONT
  6
Continuous
 62
     4
100
AcDbEllipse
 10
5.175521261857809
 20
0.522334779761014
 30
0.0
 11
-7.504621568768301
 21
-3.321134731786813
 31
0.0
210
0.0
220
0.0
230
1.0
 40
0.3415132900699109
 41
3.041715105904696
 42
3.07577658346799
  0
ELLIPSE
  5
B92
330
A8B
100
AcDbEntity
  8
FRONT
  6
Continuous
 62
     4
100
AcDbEllipse
 10
14.58688798535681
 20
3.646253396862427
 30
0.0
 11
-0.3532268961353468
 21
-0.1885936820254782
 31
0.0
210
0.0
220
0.0
230
1.0
 40
0.9833059183033368
 41
2.433542523355816
 42
3.141592652947553
  0
ELLIPSE
  5
B93
330
A8B
100
AcDbEntity
  8
FRONT
  6
Continuous
 62
     4
100
AcDbEllipse
 10
14.60429708204586
 20
3.613646995941261
 30
0.0
 11
-0.3532268962799985
 21
-0.1885936818057033
 31
0.0
210
0.0
220
0.0
230
1.0
 40
0.9833059182790311
 41
4.211497995764053
 42
5.866656694161925
  0
ELLIPSE
  5
B94
330
A8B
100
AcDbEntity
  8
FRONT
  6
Continuous
 62
     4
100
AcDbEllipse
 10
14.61409458346357
 20
3.831248190401323
 30
0.0
 11
-1.141300807144346
 21
-0.6093593764680999
 31
0.0
210
0.0
220
0.0
230
1.0
 40
0.9833059182778084
 41
4.21149799575997
 42
5.305260955205675
  0
ELLIPSE
  5
B95
330
A8B
100
AcDbEntity
  8
FRONT
  6
Continuous
 62
     4
100
AcDbEllipse
 10
14.58172613529574
 20
3.891872737174622
 30
0.0
 11
-1.2898928947353
 21
-0.6886951495342341
 31
0.0
210
0.0
220
0.0
230
0.9999999999999998
 40
0.9833059182785364
 41
4.211497995763918
 42
5.292715336570157
  0
ELLIPSE
  5
B96
330
A8B
100
AcDbEntity
  8
FRONT
  6
Continuous
 62
     4
100
AcDbEllipse
 10
14.56910818960469
 20
3.679554099198936
 30
0.0
 11
-0.5697208004516448
 21
-0.3041833577510329
 31
0.0
210
0.0
220
0.0
230
0.9999999999999998
 40
0.9833059182790732
 41
4.211497995764176
 42
5.932188545061793
  0
ELLIPSE
  5
B97
330
A8B
100
AcDbEntity
  8
FRONT
  6
Continuous
 62
     4
100
AcDbEllipse
 10
12.57015373105181
 20
5.400676431794027
 30
0.0
 11
-0.2869743301033756
 21
0.8000910781621206
 31
0.0
210
0.0
220
0.0
230
0.9999999999999998
 40
0.1844576932552187
 41
4.318012958595913
 42
4.737148911237754
  0
ELLIPSE
  5
B98
330
A8B
100
AcDbEntity
  8
FRONT
  6
Continuous
 62
     4
100
AcDbEllipse
 10
14.50740336588399
 20
3.79512426655381
 30
0.0
 11
-0.8808790105358404
 21
-0.4703158722400647
 31
0.0
210
0.0
220
0.0
230
1.0
 40
0.9833059182791467
 41
2.390668816843747
 42
5.988551940869403
  0
ELLIPSE
  5
B99
330
A8B
100
AcDbEntity
  8
FRONT
  6
Continuous
 62
     4
100
AcDbEllipse
 10
14.76472077294693
 20
5.467799863486596
 30
0.0
 11
-0.2364016993902184
 21
-0.8164644729534451
 31
0.0
210
0.0
220
0.0
230
0.9999999999999998
 40
0.1280545533618557
 41
1.440078277354396
 42
1.815854610802254
  0
ELLIPSE
  5
B9A
330
A8B
100
AcDbEntity
  8
FRONT
  6
Continuous
 62
     4
100
AcDbEllipse
 10
14.58257986552555
 20
3.890273741520238
 30
0.0
 11
-1.274184406513254
 21
-0.6803081277927215
 31
0.0
210
0.0
220
0.0
230
0.9999999999999998
 40
0.9833059182784806
 41
5.425071504014952
 42
5.994214383758207
  0
ELLIPSE
  5
B9B
330
A8B
100
AcDbEntity
  8
FRONT
  6
Continuous
 62
     4
100
AcDbEllipse
 10
13.78292511660905
 20
5.616499995611142
 30
0.0
 11
-0.0163260565688646
 21
0.8498431972198538
 31
0.0
210
0.0
220
0.0
230
1.0
 40
0.1967958030989425
 41
4.311714536223274
 42
4.876679898782334
  0
ELLIPSE
  5
B9C
330
A8B
100
AcDbEntity
  8
FRONT
  6
Continuous
 62
     4
100
AcDbEllipse
 10
14.50740336587235
 20
3.795124266552682
 30
0.0
 11
-0.6878480648432717
 21
-0.3672534577212541
 31
0.0
210
0.0
220
0.0
230
1.0
 40
0.9833059182736951
 41
2.316816466017689
 42
2.964586872260165
  0
ELLIPSE
  5
B9D
330
A8B
100
AcDbEntity
  8
FRONT
  6
Continuous
 62
     4
100
AcDbEllipse
 10
14.56910818960365
 20
3.679554099196997
 30
0.0
 11
-0.5697208004383743
 21
-0.3041833577798674
 31
0.0
210
0.0
220
0.0
230
0.9999999999999998
 40
0.9833059182783683
 41
3.141592653589792
 42
4.211497995714275
  0
ELLIPSE
  5
B9E
330
A8B
100
AcDbEntity
  8
FRONT
  6
Continuous
 62
     4
100
AcDbEllipse
 10
14.61736004955248
 20
5.312895778975766
 30
0.0
 11
-0.0004109759370388
 21
-0.119983668084697
 31
0.0
210
0.0
220
0.0
230
0.9999999999999998
 40
0.0873685432136738
 41
4.487162694202337
 42
4.526241732837313
  0
ELLIPSE
  5
B9F
330
A8B
100
AcDbEntity
  8
FRONT
  6
Continuous
 62
     4
100
AcDbEllipse
 10
14.56910819127553
 20
3.679554099860636
 30
0.0
 11
-0.5697207959968914
 21
-0.3041833623035364
 31
0.0
210
0.0
220
0.0
230
1.0
 40
0.9833059196149559
 41
2.938742608956589
 42
3.141592644282478
  0
ELLIPSE
  5
BA0
330
A8B
100
AcDbEntity
  8
FRONT
  6
Continuous
 62
     4
100
AcDbEllipse
 10
15.08465295287089
 20
4.536650762276023
 30
0.0
 11
-0.3164233418788596
 21
-0.1689436554438716
 31
0.0
210
0.0
220
0.0
230
0.9999999999999998
 40
0.9833059182783118
 41
0.0
 42
1.136764527997375
  0
ELLIPSE
  5
BA1
330
A8B
100
AcDbEntity
  8
FRONT
  6
Continuous
 62
     4
100
AcDbEllipse
 10
14.58258259988541
 20
3.890268620186363
 30
0.0
 11
-1.274168156721289
 21
-0.6802994518514309
 31
0.0
210
0.0
220
0.0
230
0.9999999999999998
 40
0.9833059182777518
 41
4.211497995758451
 42
5.292715337516463
  0
ELLIPSE
  5
BA2
330
A8B
100
AcDbEntity
  8
FRONT
  6
Continuous
 62
     4
100
AcDbEllipse
 10
13.89037406882998
 20
4.153820249288088
 30
0.0
 11
-0.1387163939551331
 21
-0.0740629769055295
 31
0.0
210
0.0
220
0.0
230
0.9999999999999998
 40
0.9833059182795551
 41
4.144638809929066
 42
6.283185307179584
  0
ELLIPSE
  5
BA3
330
A8B
100
AcDbEntity
  8
FRONT
  6
Continuous
 62
     4
100
AcDbEllipse
 10
13.56825684262709
 20
3.682977865236207
 30
0.0
 11
-0.3164233420262994
 21
-0.1689436552114316
 31
0.0
210
0.0
220
0.0
230
0.9999999999999998
 40
0.983305918256555
 41
2.372365793430124
 42
3.141592654310951
  0
ELLIPSE
  5
BA4
330
A8B
100
AcDbEntity
  8
FRONT
  6
Continuous
 62
     4
100
AcDbEllipse
 10
14.5868879853312
 20
3.646253396859196
 30
0.0
 11
-0.3532268962794111
 21
-0.1885936818066905
 31
0.0
210
0.0
220
0.0
230
1.0
 40
0.9833059182788758
 41
4.211497995761056
 42
5.951301366806
  0
SPLINE
  5
BA5
330
A8B
100
AcDbEntity
  8
FRONT
  6
Continuous
 62
     4
100
AcDbSpline
210
0.0
220
0.0
230
1.0
 70
    24
 71
     1
 72
     4
 73
     2
 74
     0
 42
0.0000000001
 43
0.0000000001
 40
0.0
 40
0.0
 40
1.0
 40
1.0
 10
14.69249519034973
 20
5.313189824235679
 30
0.0
 10
14.60768112625891
 20
5.315938369092338
 30
0.0
  0
SPLINE
  5
BA6
330
A8B
100
AcDbEntity
  8
FRONT
  6
Continuous
 62
     4
100
AcDbSpline
210
0.0
220
0.0
230
1.0
 70
    24
 71
     1
 72
     4
 73
     2
 74
     0
 42
0.0000000001
 43
0.0000000001
 40
0.0
 40
0.0
 40
1.0
 40
1.0
 10
14.83756674726533
 20
5.331362856545028
 30
0.0
 10
14.68992440208029
 20
5.336837850675596
 30
0.0
  0
SPLINE
  5
BA7
330
A8B
100
AcDbEntity
  8
FRONT
  6
Continuous
 62
     4
100
AcDbSpline
210
0.0
220
0.0
230
1.0
 70
    24
 71
     1
 72
     4
 73
     2
 74
     0
 42
0.0000000001
 43
0.0000000001
 40
0.0
 40
0.0
 40
1.0
 40
1.0
 10
12.81667247474081
 20
5.142126865126981
 30
0.0
 10
12.502260809944
 20
5.038954222702708
 30
0.0
  0
SPLINE
  5
BA8
330
A8B
100
AcDbEntity
  8
FRONT
  6
Continuous
 62
     4
100
AcDbSpline
210
0.0
220
0.0
230
1.0
 70
     8
 71
     2
 72
     6
 73
     3
 74
     0
 42
0.0000000001
 43
0.0000000001
 40
0.0
 40
0.0
 40
0.0
 40
1.0
 40
1.0
 40
1.0
 10
13.94329233751025
 20
5.287986048440243
 30
0.0
 10
13.36904800632871
 20
5.308177948949881
 30
0.0
 10
12.81667247474081
 20
5.142126865127038
 30
0.0
  0
SPLINE
  5
BA9
330
A8B
100
AcDbEntity
  8
FRONT
  6
Continuous
 62
     4
100
AcDbSpline
210
0.0
220
0.0
230
1.0
 70
     8
 71
     3
 72
    11
 73
     7
 74
     0
 42
0.0000000001
 43
0.0000000001
 40
0.0
 40
0.0
 40
0.0
 40
0.0
 40
0.2500000000004002
 40
0.5000000000000384
 40
0.7500000000002445
 40
1.0
 40
1.0
 40
1.0
 40
1.0
 10
13.24329890969342
 20
4.393410854946448
 30
0.0
 10
13.24233341373558
 20
4.393971351428181
 30
0.0
 10
13.24014478598936
 20
4.395146401648325
 30
0.0
 10
13.23597462327683
 20
4.397127664258944
 30
0.0
 10
13.23126018027509
 20
4.399158067618833
 30
0.0
 10
13.22803724322823
 20
4.400426501220721
 30
0.0
 10
13.22638220773661
 20
4.401049253290286
 30
0.0
  0
SPLINE
  5
BAA
330
A8B
100
AcDbEntity
  8
FRONT
  6
Continuous
 62
     4
100
AcDbSpline
210
0.0
220
0.0
230
1.0
 70
    24
 71
     1
 72
     4
 73
     2
 74
     0
 42
0.0000000001
 43
0.0000000001
 40
0.0
 40
0.0
 40
1.0
 40
1.0
 10
14.13280283862451
 20
5.763209387832385
 30
0.0
 10
14.60909340460244
 20
5.711114127719043
 30
0.0
  0
SPLINE
  5
BAB
330
A8B
100
AcDbEntity
  8
FRONT
  6
Continuous
 62
     4
100
AcDbSpline
210
0.0
220
0.0
230
1.0
 70
    24
 71
     1
 72
     4
 73
     2
 74
     0
 42
0.0000000001
 43
0.0000000001
 40
0.0
 40
0.0
 40
1.0
 40
1.0
 10
14.6090865051094
 20
5.711625498686736
 30
0.0
 10
14.92350318018168
 20
5.636516777042869
 30
0.0
  0
SPLINE
  5
BAC
330
A8B
100
AcDbEntity
  8
FRONT
  6
Continuous
 62
     4
100
AcDbSpline
210
0.0
220
0.0
230
1.0
 70
    24
 71
     1
 72
     4
 73
     2
 74
     0
 42
0.0000000001
 43
0.0000000001
 40
0.0
 40
0.0
 40
1.0
 40
1.0
 10
14.70338694437526
 20
4.489896482910467
 30
0.0
 10
14.71097785761778
 20
4.474938976988299
 30
0.0
  0
SPLINE
  5
BAD
330
A8B
100
AcDbEntity
  8
FRONT
  6
Continuous
 62
     4
100
AcDbSpline
210
0.0
220
0.0
230
1.0
 70
    24
 71
     1
 72
     4
 73
     2
 74
     0
 42
0.0000000001
 43
0.0000000001
 40
0.0
 40
0.0
 40
1.0
 40
1.0
 10
13.94524870938069
 20
5.758663903675718
 30
0.0
 10
13.94849591684476
 20
5.910374238520851
 30
0.0
  0
SPLINE
  5
BAE
330
A8B
100
AcDbEntity
  8
FRONT
  6
Continuous
 62
     4
100
AcDbSpline
210
0.0
220
0.0
230
1.0
 70
     8
 71
     3
 72
    27
 73
    23
 74
     0
 42
0.0000000001
 43
0.0000000001
 40
0.0
 40
0.0
 40
0.0
 40
0.0
 40
0.2366252197469015
 40
0.5011857703755036
 40
0.6170954909511118
 40
0.6813809129738626
 40
0.7150700700809978
 40
0.7322963567034382
 40
0.7410042896839962
 40
0.7453818723743754
 40
0.7475765575058172
 40
0.7486753722519263
 40
0.7492251475017373
 40
0.7495001270756441
 40
0.7496376398473227
 40
0.7497064019790262
 40
0.7497407844813077
 40
0.7497751679411861
 40
0.7516543580812576
 40
0.7684406215659994
 40
0.8166950275236356
 40
1.0
 40
1.0
 40
1.0
 40
1.0
 10
14.60909339101644
 20
5.711114124413491
 30
0.0
 10
14.60948781698238
 20
5.682031763659281
 30
0.0
 10
14.61005082917718
 20
5.620220915826541
 30
0.0
 10
14.61001311662804
 20
5.543096055524626
 30
0.0
 10
14.60961852963504
 20
5.487687827984436
 30
0.0
 10
14.60933943853557
 20
5.461104315057176
 30
0.0
 10
14.60916381097548
 20
5.446814350617032
 30
0.0
 10
14.60906622380328
 20
5.439426844543143
 30
0.0
 10
14.60901490310633
 20
5.435673462883298
 30
0.0
 10
14.60898860047587
 20
5.4337819906927
 30
0.0
 10
14.60897045899501
 20
5.432493419559841
 30
0.0
 10
14.60896905688914
 20
5.432393429389828
 30
0.0
 10
14.60896765478331
 20
5.432293439219815
 30
0.0
 10
14.60896625267744
 20
5.432193449049803
 30
0.0
 10
14.6089648505716
 20
5.43209345887979
 30
0.0
 10
14.60896344846577
 20
5.431993468709777
 30
0.0
 10
14.60896204635992
 20
5.431893478539761
 30
0.0
 10
14.60895863749725
 20
5.431652428828829
 30
0.0
 10
14.60892682016698
 20
5.429338529498513
 30
0.0
 10
14.60881020481483
 20
5.421061993311028
 30
0.0
 10
14.6083339813956
 20
5.390397134061578
 30
0.0
 10
14.60776482101609
 20
5.362037547077322
 30
0.0
 10
14.60723379104669
 20
5.339726363785728
 30
0.0
  0
SPLINE
  5
BAF
330
A8B
100
AcDbEntity
  8
FRONT
  6
Continuous
 62
     4
100
AcDbSpline
210
0.0
220
0.0
230
1.0
 70
    24
 71
     1
 72
     4
 73
     2
 74
     0
 42
0.0000000001
 43
0.0000000001
 40
0.0
 40
0.0
 40
1.0
 40
1.0
 10
13.77533931878937
 20
4.042581236833521
 30
0.0
 10
13.81073371171078
 20
3.987366922169501
 30
0.0
  0
SPLINE
  5
BB0
330
A8B
100
AcDbEntity
  8
FRONT
  6
Continuous
 62
     4
100
AcDbSpline
210
0.0
220
0.0
230
1.0
 70
    24
 71
     1
 72
     4
 73
     2
 74
     0
 42
0.0000000001
 43
0.0000000001
 40
0.0
 40
0.0
 40
1.0
 40
1.0
 10
15.248091543825
 20
4.037543166926567
 30
0.0
 10
15.21878522660067
 20
3.982550183926618
 30
0.0
  0
SPLINE
  5
BB1
330
A8B
100
AcDbEntity
  8
FRONT
  6
Continuous
 62
     4
100
AcDbSpline
210
0.0
220
0.0
230
1.0
 70
     8
 71
     3
 72
    13
 73
     9
 74
     0
 42
0.0000000001
 43
0.0000000001
 40
0.0
 40
0.0
 40
0.0
 40
0.0
 40
0.2195179240467221
 40
0.3900257003637577
 40
0.5330606690638802
 40
0.6760211201067881
 40
0.8783846008238288
 40
1.0
 40
1.0
 40
1.0
 40
1.0
 10
13.99589107417438
 20
4.295192292184528
 30
0.0
 10
14.02503990650797
 20
4.289018514220859
 30
0.0
 10
14.07813545040565
 20
4.286623059621509
 30
0.0
 10
14.15671911404191
 20
4.301478243787753
 30
0.0
 10
14.22171844805865
 20
4.332770470360475
 30
0.0
 10
14.28033457719675
 20
4.380945161854135
 30
0.0
 10
14.3195727746653
 20
4.436285674998737
 30
0.0
 10
14.33825358880528
 20
4.475847256447877
 30
0.0
 10
14.3439322300138
 20
4.491126124902221
 30
0.0
  0
SPLINE
  5
BB2
330
A8B
100
AcDbEntity
  8
FRONT
  6
Continuous
 62
     4
100
AcDbSpline
210
0.0
220
0.0
230
1.0
 70
    24
 71
     1
 72
     4
 73
     2
 74
     0
 42
0.0000000001
 43
0.0000000001
 40
0.0
 40
0.0
 40
1.0
 40
1.0
 10
14.67478420277406
 20
4.548934236990556
 30
0.0
 10
14.70338694437526
 20
4.489896482910471
 30
0.0
  0
SPLINE
  5
BB3
330
A8B
100
AcDbEntity
  8
FRONT
  6
Continuous
 62
     4
100
AcDbSpline
210
0.0
220
0.0
230
1.0
 70
     8
 71
     3
 72
    11
 73
     7
 74
     0
 42
0.0000000001
 43
0.0000000001
 40
0.0
 40
0.0
 40
0.0
 40
0.0
 40
0.2500000000000269
 40
0.5000000000000613
 40
0.749999999999787
 40
1.0
 40
1.0
 40
1.0
 40
1.0
 10
13.32453443224985
 20
4.565040025424456
 30
0.0
 10
13.32359602231685
 20
4.565724324465811
 30
0.0
 10
13.3214696827018
 20
4.567186493161131
 30
0.0
 10
13.31741499243888
 20
4.569735924742813
 30
0.0
 10
13.31284498611547
 20
4.572415134760538
 30
0.0
 10
13.30974180656181
 20
4.574123313175141
 30
0.0
 10
13.30815217000305
 20
4.574971618696021
 30
0.0
  0
SPLINE
  5
BB4
330
A8B
100
AcDbEntity
  8
FRONT
  6
Continuous
 62
     4
100
AcDbSpline
210
0.0
220
0.0
230
1.0
 70
     8
 71
     2
 72
     6
 73
     3
 74
     0
 42
0.0000000001
 43
0.0000000001
 40
0.0
 40
0.0
 40
0.0
 40
1.0
 40
1.0
 40
1.0
 10
13.22638220773663
 20
4.401049253290271
 30
0.0
 10
13.2613789349715
 20
4.490908928155922
 30
0.0
 10
13.308152170003
 20
4.574971618696058
 30
0.0
  0
SPLINE
  5
BB5
330
A8B
100
AcDbEntity
  8
FRONT
  6
Continuous
 62
     4
100
AcDbSpline
210
0.0
220
0.0
230
1.0
 70
    24
 71
     1
 72
     4
 73
     2
 74
     0
 42
0.0000000001
 43
0.0000000001
 40
0.0
 40
0.0
 40
1.0
 40
1.0
 10
13.80267447603256
 20
3.591914630017021
 30
0.0
 10
13.80379348619884
 20
3.593141802474727
 30
0.0
  0
SPLINE
  5
BB6
330
A8B
100
AcDbEntity
  8
FRONT
  6
Continuous
 62
     4
100
AcDbSpline
210
0.0
220
0.0
230
1.0
 70
    24
 71
     1
 72
     4
 73
     2
 74
     0
 42
0.0000000001
 43
0.0000000001
 40
0.0
 40
0.0
 40
1.0
 40
1.0
 10
14.60909339101634
 20
5.711114124413048
 30
0.0
 10
14.6090865051094
 20
5.711625498686736
 30
0.0
  0
SPLINE
  5
BB7
330
A8B
100
AcDbEntity
  8
FRONT
  6
Continuous
 62
     4
100
AcDbSpline
210
0.0
220
0.0
230
1.0
 70
    24
 71
     1
 72
     4
 73
     2
 74
     0
 42
0.0000000001
 43
0.0000000001
 40
0.0
 40
0.0
 40
1.0
 40
1.0
 10
14.60713440708852
 20
5.335136932445034
 30
0.0
 10
14.69295620412083
 20
5.331857548057461
 30
0.0
  0
SPLINE
  5
BB8
330
A8B
100
AcDbEntity
  8
FRONT
  6
Continuous
 62
     4
100
AcDbSpline
210
0.0
220
0.0
230
1.0
 70
     8
 71
     3
 72
    13
 73
     9
 74
     0
 42
0.0000000001
 43
0.0000000001
 40
0.0
 40
0.0
 40
0.0
 40
0.0
 40
0.1870906036410149
 40
0.3646813612908705
 40
0.5136542261935185
 40
0.6625496942781221
 40
0.8732997954630318
 40
1.0
 40
1.0
 40
1.0
 40
1.0
 10
14.71097785761778
 20
4.474938976988299
 30
0.0
 10
14.72258946069355
 20
4.452117336803171
 30
0.0
 10
14.75023929494702
 20
4.410179915390369
 30
0.0
 10
14.80309030761751
 20
4.354724829831821
 30
0.0
 10
14.86319833542792
 20
4.314941243102536
 30
0.0
 10
14.93091957239508
 20
4.289394301276414
 30
0.0
 10
14.99207346962869
 20
4.284228893684812
 30
0.0
 10
15.03052376342849
 20
4.28859592198095
 30
0.0
 10
15.04448787470278
 20
4.291605195933395
 30
0.0
  0
SPLINE
  5
BB9
330
A8B
100
AcDbEntity
  8
FRONT
  6
Continuous
 62
     4
100
AcDbSpline
210
0.0
220
0.0
230
1.0
 70
    24
 71
     1
 72
     4
 73
     2
 74
     0
 42
0.0000000001
 43
0.0000000001
 40
0.0
 40
0.0
 40
1.0
 40
1.0
 10
14.36658232700411
 20
4.549988550519461
 30
0.0
 10
14.3439322300138
 20
4.491126124902221
 30
0.0
  0
SPLINE
  5
BBA
330
A8B
100
AcDbEntity
  8
FRONT
  6
Continuous
 62
     4
100
AcDbSpline
210
0.0
220
0.0
230
1.0
 70
    24
 71
     1
 72
     4
 73
     2
 74
     0
 42
0.0000000001
 43
0.0000000001
 40
0.0
 40
0.0
 40
1.0
 40
1.0
 10
12.81667247474081
 20
5.142126865126981
 30
0.0
 10
13.28408820193523
 20
4.587414672117768
 30
0.0
  0
SPLINE
  5
BBB
330
A8B
100
AcDbEntity
  8
FRONT
  6
Continuous
 62
     4
100
AcDbSpline
210
0.0
220
0.0
230
1.0
 70
    24
 71
     1
 72
     4
 73
     2
 74
     0
 42
0.0000000001
 43
0.0000000001
 40
0.0
 40
0.0
 40
1.0
 40
1.0
 10
14.68992440208029
 20
5.336837850675596
 30
0.0
 10
14.60723379104648
 20
5.339726363791863
 30
0.0
  0
SPLINE
  5
BBC
330
A8B
100
AcDbEntity
  8
FRONT
  6
Continuous
 62
     4
100
AcDbSpline
210
0.0
220
0.0
230
1.0
 70
    24
 71
     1
 72
     4
 73
     2
 74
     0
 42
0.0000000001
 43
0.0000000001
 40
0.0
 40
0.0
 40
1.0
 40
1.0
 10
13.934096024833
 20
4.306515336617805
 30
0.0
 10
13.99589107417434
 20
4.295192292184527
 30
0.0
  0
SPLINE
  5
BBD
330
A8B
100
AcDbEntity
  8
FRONT
  6
Continuous
 62
     4
100
AcDbSpline
210
0.0
220
0.0
230
1.0
 70
    24
 71
     1
 72
     4
 73
     2
 74
     0
 42
0.0000000001
 43
0.0000000001
 40
0.0
 40
0.0
 40
1.0
 40
1.0
 10
13.82870159920979
 20
3.956766489145926
 30
0.0
 10
13.81073371171078
 20
3.987366922169501
 30
0.0
  0
SPLINE
  5
BBE
330
A8B
100
AcDbEntity
  8
FRONT
  6
Continuous
 62
     4
100
AcDbSpline
210
0.0
220
0.0
230
1.0
 70
    24
 71
     1
 72
     4
 73
     2
 74
     0
 42
0.0000000001
 43
0.0000000001
 40
0.0
 40
0.0
 40
1.0
 40
1.0
 10
15.12498870412169
 20
5.250072189631183
 30
0.0
 10
14.83756674726533
 20
5.331362856545028
 30
0.0
  0
SPLINE
  5
BBF
330
A8B
100
AcDbEntity
  8
FRONT
  6
Continuous
 62
     4
100
AcDbSpline
210
0.0
220
0.0
230
1.0
 70
    24
 71
     1
 72
     4
 73
     2
 74
     0
 42
0.0000000001
 43
0.0000000001
 40
0.0
 40
0.0
 40
1.0
 40
1.0
 10
14.60613712230153
 20
5.930601946215412
 30
0.0
 10
13.9484959168259
 20
5.910374237639897
 30
0.0
  0
SPLINE
  5
BC0
330
A8B
100
AcDbEntity
  8
FRONT
  6
Continuous
 62
     4
100
AcDbSpline
210
0.0
220
0.0
230
1.0
 70
     8
 71
     3
 72
    13
 73
     9
 74
     0
 42
0.0000000001
 43
0.0000000001
 40
0.0
 40
0.0
 40
0.0
 40
0.0
 40
0.2347537562056165
 40
0.4839866866904262
 40
0.5952214255276555
 40
0.7119727950652918
 40
0.96740910102467
 40
1.0
 40
1.0
 40
1.0
 40
1.0
 10
13.28408820191653
 20
4.587414672136794
 30
0.0
 10
13.25012566103997
 20
4.527227778404608
 30
0.0
 10
13.16675985793541
 20
4.419327616560915
 30
0.0
 10
13.02099432060977
 20
4.324734681857226
 30
0.0
 10
12.89482138585317
 20
4.276802417204223
 30
0.0
 10
12.76176035094723
 20
4.247019780138493
 30
0.0
 10
12.64742901726418
 20
4.245333565339181
 30
0.0
 10
12.56818868716331
 20
4.25379454225212
 30
0.0
 10
12.55922715270803
 20
4.25489452478367
 30
0.0
  0
SPLINE
  5
BC1
330
A8B
100
AcDbEntity
  8
FRONT
  6
Continuous
 62
     4
100
AcDbSpline
210
0.0
220
0.0
230
1.0
 70
    24
 71
     1
 72
     4
 73
     2
 74
     0
 42
0.0000000001
 43
0.0000000001
 40
0.0
 40
0.0
 40
1.0
 40
1.0
 10
15.19781587154303
 20
3.611548393029448
 30
0.0
 10
15.21184500108873
 20
3.588325064231846
 30
0.0
  0
SPLINE
  5
BC2
330
A8B
100
AcDbEntity
  8
FRONT
  6
Continuous
 62
     4
100
AcDbSpline
210
0.0
220
0.0
230
1.0
 70
     8
 71
     3
 72
    13
 73
     9
 74
     0
 42
0.0000000001
 43
0.0000000001
 40
0.0
 40
0.0
 40
0.0
 40
0.0
 40
0.2396506614303369
 40
0.4258576417570409
 40
0.5820550163389703
 40
0.7381714217428096
 40
0.9591299429654435
 40
1.0
 40
1.0
 40
1.0
 40
1.0
 10
13.80379348619884
 20
3.593141802474731
 30
0.0
 10
13.82192418679251
 20
3.611675128293107
 30
0.0
 10
13.84805114611859
 20
3.651068053755462
 30
0.0
 10
13.87223513902732
 20
3.72087154530691
 30
0.0
 10
13.87761343104861
 20
3.791029577212136
 30
0.0
 10
13.86710343122898
 20
3.867335533638517
 30
0.0
 10
13.84678182979217
 20
3.921569727755633
 30
0.0
 10
13.83122577128982
 20
3.952077271441022
 30
0.0
 10
13.82870159920979
 20
3.956766489145926
 30
0.0
  0
SPLINE
  5
BC3
330
A8B
100
AcDbEntity
  8
FRONT
  6
Continuous
 62
     4
100
AcDbSpline
210
0.0
220
0.0
230
1.0
 70
    24
 71
     1
 72
     4
 73
     2
 74
     0
 42
0.0000000001
 43
0.0000000001
 40
0.0
 40
0.0
 40
1.0
 40
1.0
 10
13.32453443224985
 20
4.565040025424456
 30
0.0
 10
13.24329890969339
 20
4.393410854946447
 30
0.0
  0
SPLINE
  5
BC4
330
A8B
100
AcDbEntity
  8
FRONT
  6
Continuous
 62
     4
100
AcDbSpline
210
0.0
220
0.0
230
1.0
 70
    24
 71
     1
 72
     4
 73
     2
 74
     0
 42
0.0000000001
 43
0.0000000001
 40
0.0
 40
0.0
 40
1.0
 40
1.0
 10
14.11043689694178
 20
5.279305060039821
 30
0.0
 10
13.94329233739435
 20
5.287986047480941
 30
0.0
  0
SPLINE
  5
BC5
330
A8B
100
AcDbEntity
  8
FRONT
  6
Continuous
 62
     4
100
AcDbSpline
210
0.0
220
0.0
230
1.0
 70
     8
 71
     3
 72
    11
 73
     7
 74
     0
 42
0.0000000001
 43
0.0000000001
 40
0.0
 40
0.0
 40
0.0
 40
0.0
 40
0.1281905622924043
 40
0.421624799894869
 40
0.7263899413642454
 40
1.0
 40
1.0
 40
1.0
 40
1.0
 10
12.73853609935463
 20
3.667760942170496
 30
0.0
 10
12.76672223532988
 20
3.693449167011665
 30
0.0
 10
12.85617813617569
 20
3.780688567568847
 30
0.0
 10
12.99312764578302
 20
3.948243292988441
 30
0.0
 10
13.12308988273993
 20
4.171774666937092
 30
0.0
 10
13.19571953861603
 20
4.326067837016096
 30
0.0
 10
13.2263821747769
 20
4.401049180529136
 30
0.0
  0
SPLINE
  5
BC6
330
A8B
100
AcDbEntity
  8
FRONT
  6
Continuous
 62
     4
100
AcDbSpline
210
0.0
220
0.0
230
1.0
 70
    24
 71
     1
 72
     4
 73
     2
 74
     0
 42
0.0000000001
 43
0.0000000001
 40
0.0
 40
0.0
 40
1.0
 40
1.0
 10
15.23230844269541
 20
3.558198880030201
 30
0.0
 10
15.21184500108873
 20
3.588325064231844
 30
0.0
  0
SPLINE
  5
BC7
330
A8B
100
AcDbEntity
  8
FRONT
  6
Continuous
 62
     4
100
AcDbSpline
210
0.0
220
0.0
230
1.0
 70
     8
 71
     2
 72
     6
 73
     3
 74
     0
 42
0.0000000001
 43
0.0000000001
 40
0.0
 40
0.0
 40
0.0
 40
1.0
 40
1.0
 40
1.0
 10
14.60723379104669
 20
5.339726363785726
 30
0.0
 10
14.35457942540308
 20
5.348825046804551
 30
0.0
 10
14.11043689694178
 20
5.279305060039821
 30
0.0
  0
SPLINE
  5
BC8
330
A8B
100
AcDbEntity
  8
FRONT
  6
Continuous
 62
     4
100
AcDbSpline
210
0.0
220
0.0
230
1.0
 70
    24
 71
     1
 72
     4
 73
     2
 74
     0
 42
0.0000000001
 43
0.0000000001
 40
0.0
 40
0.0
 40
1.0
 40
1.0
 10
13.94524848483674
 20
5.758663915957267
 30
0.0
 10
14.13280283862451
 20
5.763209387832385
 30
0.0
  0
SPLINE
  5
BC9
330
A8B
100
AcDbEntity
  8
FRONT
  6
Continuous
 62
     4
100
AcDbSpline
210
0.0
220
0.0
230
1.0
 70
    24
 71
     1
 72
     4
 73
     2
 74
     0
 42
0.0000000001
 43
0.0000000001
 40
0.0
 40
0.0
 40
1.0
 40
1.0
 10
13.31078889119694
 20
4.573561762749701
 30
0.0
 10
13.28408820191651
 20
4.587414672136792
 30
0.0
  0
SPLINE
  5
BCA
330
A8B
100
AcDbEntity
  8
FRONT
  6
Continuous
 62
     4
100
AcDbSpline
210
0.0
220
0.0
230
1.0
 70
     8
 71
     3
 72
    10
 73
     6
 74
     0
 42
0.0000000001
 43
0.0000000001
 40
0.0
 40
0.0
 40
0.0
 40
0.0
 40
0.4926947242044152
 40
0.9999538112423723
 40
1.0
 40
1.0
 40
1.0
 40
1.0
 10
12.71058671127498
 20
5.473403005394001
 30
0.0
 10
12.90547943076539
 20
5.555788825541005
 30
0.0
 10
13.30796995905596
 20
5.686507873440067
 30
0.0
 10
13.73025717117942
 20
5.748973858563186
 30
0.0
 10
13.94514876776342
 20
5.758657162767132
 30
0.0
 10
13.94524866639153
 20
5.758661664333676
 30
0.0
  0
SPLINE
  5
BCB
330
A8B
100
AcDbEntity
  8
FRONT
  6
Continuous
 62
     4
100
AcDbSpline
210
0.0
220
0.0
230
1.0
 70
     8
 71
     2
 72
     6
 73
     3
 74
     0
 42
0.0000000001
 43
0.0000000001
 40
0.0
 40
0.0
 40
0.0
 40
1.0
 40
1.0
 40
1.0
 10
12.55931172980702
 20
4.254879951245562
 30
0.0
 10
12.58336828364422
 20
4.198188936261384
 30
0.0
 10
12.61302558883277
 20
4.142652858215962
 30
0.0
  0
SPLINE
  5
BCC
330
A8B
100
AcDbEntity
  8
FRONT
  6
Continuous
 62
     4
100
AcDbSpline
210
0.0
220
0.0
230
1.0
 70
     8
 71
     3
 72
    11
 73
     7
 74
     0
 42
0.0000000001
 43
0.0000000001
 40
0.0
 40
0.0
 40
0.0
 40
0.0
 40
0.3213498426608201
 40
0.6577811939102644
 40
0.9998827329771151
 40
1.0
 40
1.0
 40
1.0
 40
1.0
 10
12.61302558883341
 20
4.142652858218689
 30
0.0
 10
12.63661235923142
 20
4.096595077435821
 30
0.0
 10
12.67812392222471
 20
3.999067509734118
 30
0.0
 10
12.71731265817428
 20
3.837886834830852
 30
0.0
 10
12.73306739599114
 20
3.725263586159053
 30
0.0
 10
12.7384250930861
 20
3.668060358493228
 30
0.0
 10
12.73843441834863
 20
3.667960794245231
 30
0.0
  0
SPLINE
  5
BCD
330
A8B
100
AcDbEntity
  8
FRONT
  6
Continuous
 62
     4
100
AcDbSpline
210
0.0
220
0.0
230
1.0
 70
    24
 71
     1
 72
     4
 73
     2
 74
     0
 42
0.0000000001
 43
0.0000000001
 40
0.0
 40
0.0
 40
1.0
 40
1.0
 10
15.09864637409872
 20
4.302531580239758
 30
0.0
 10
15.04448787470278
 20
4.291605195933395
 30
0.0
  0
SPLINE
  5
BCE
330
A8B
100
AcDbEntity
  8
FRONT
  6
Continuous
 62
     4
100
AcDbSpline
210
0.0
220
0.0
230
1.0
 70
     8
 71
     3
 72
    13
 73
     9
 74
     0
 42
0.0000000001
 43
0.0000000001
 40
0.0
 40
0.0
 40
0.0
 40
0.0
 40
0.2396506614303343
 40
0.4258576417570496
 40
0.5820550163389778
 40
0.7381714217428188
 40
0.9591299429654512
 40
1.0
 40
1.0
 40
1.0
 40
1.0
 10
15.21878522660069
 20
3.982550183926613
 30
0.0
 10
15.20446185940899
 20
3.956885905746576
 30
0.0
 10
15.18382701449337
 20
3.907206514117078
 30
0.0
 10
15.16499089997498
 20
3.827386703527638
 30
0.0
 10
15.16059144136004
 20
3.755395363725888
 30
0.0
 10
15.16830971452799
 20
3.684318177059933
 30
0.0
 10
15.18379083088686
 20
3.63914997870789
 30
0.0
 10
15.19585560171569
 20
3.615181448933922
 30
0.0
 10
15.19781587154303
 20
3.611548393029448
 30
0.0
  0
LINE
  5
BCF
330
A8B
100
AcDbEntity
  8
FRONT
  6
Continuous
 62
     4
100
AcDbLine
 10
17.89827503693186
 20
4.305849194799654
 30
0.0
 11
16.84081100360065
 21
3.750289208641194
 31
0.0
  0
LINE
  5
BD0
330
A8B
100
AcDbEntity
  8
FRONT
  6
Continuous
 62
     4
100
AcDbLine
 10
17.9955352574119
 20
4.703931962073951
 30
0.0
 11
17.99860264302532
 21
5.577410944240638
 31
0.0
  0
LINE
  5
BD1
330
A8B
100
AcDbEntity
  8
FRONT
  6
Continuous
 62
     4
100
AcDbLine
 10
16.71085065679104
 20
4.613894536173183
 30
0.0
 11
16.71002253368082
 21
4.378075430726663
 31
0.0
  0
LINE
  5
BD2
330
A8B
100
AcDbEntity
  8
FRONT
  6
Continuous
 62
     4
100
AcDbLine
 10
16.39808469837355
 20
4.364837484698021
 30
0.0
 11
16.39891265055782
 21
4.600607916707208
 31
0.0
  0
LINE
  5
BD3
330
A8B
100
AcDbEntity
  8
FRONT
  6
Continuous
 62
     4
100
AcDbLine
 10
17.66367077329101
 20
4.879093702836494
 30
0.0
 11
17.66526427735394
 21
5.332865247206257
 31
0.0
  0
LINE
  5
BD4
330
A8B
100
AcDbEntity
  8
FRONT
  6
Continuous
 62
     4
100
AcDbLine
 10
15.64053491978258
 20
4.293450173624481
 30
0.0
 11
15.60441972687181
 21
4.361092193114611
 31
0.0
  0
LINE
  5
BD5
330
A8B
100
AcDbEntity
  8
FRONT
  6
Continuous
 62
     4
100
AcDbLine
 10
16.71002253368082
 20
4.378075430726663
 30
0.0
 11
17.66367077329101
 21
4.879093702836494
 31
0.0
  0
LINE
  5
BD6
330
A8B
100
AcDbEntity
  8
FRONT
  6
Continuous
 62
     4
100
AcDbLine
 10
17.82736069662903
 20
5.451970850041035
 30
0.0
 11
17.82538373039164
 21
4.889003337034266
 31
0.0
  0
ELLIPSE
  5
BD7
330
A8B
100
AcDbEntity
  8
FRONT
  6
Continuous
 62
     4
100
AcDbEllipse
 10
14.59586354314858
 20
3.865394052025882
 30
0.0
 11
-1.151135430529534
 21
-0.6146102435097502
 31
0.0
210
0.0
220
0.0
230
1.0
 40
0.9833059182658811
 41
2.387532948130643
 42
2.854453357321848
  0
ELLIPSE
  5
BD8
330
A8B
100
AcDbEntity
  8
FRONT
  6
Continuous
 62
     4
100
AcDbEllipse
 10
23.34289700321895
 20
7.404971643362473
 30
0.0
 11
-5.502211667105154
 21
-2.588827676295629
 31
0.0
210
0.0
220
0.0
230
1.0
 40
0.1586239430231971
 41
6.208012116159168
 42
6.457681703334741
  0
ELLIPSE
  5
BD9
330
A8B
100
AcDbEntity
  8
FRONT
  6
Continuous
 62
     4
100
AcDbEllipse
 10
23.98792439919572
 20
7.261422965178862
 30
0.0
 11
-7.504621521697405
 21
-3.321134711197778
 31
0.0
210
0.0
220
0.0
230
1.0
 40
0.3415132911448714
 41
6.131781412421299
 42
6.217369236841816
  0
ELLIPSE
  5
BDA
330
A8B
100
AcDbEntity
  8
FRONT
  6
Continuous
 62
     4
100
AcDbEllipse
 10
16.32523872390661
 20
4.501274491612504
 30
0.0
 11
-0.8499947589592117
 21
0.0029849163490714
 31
0.0
210
0.0
220
0.0
230
1.0
 40
0.1608116416914428
 41
1.657167966400878
 42
2.041140401843712
  0
ELLIPSE
  5
BDB
330
A8B
100
AcDbEntity
  8
FRONT
  6
Continuous
 62
     4
100
AcDbEllipse
 10
23.91507831970675
 20
7.397859926833847
 30
0.0
 11
-7.163008401427503
 21
-3.337131822624029
 31
0.0
210
0.0
220
0.0
230
1.0
 40
0.2488347320293084
 41
6.1272315578895
 42
6.212819382930589
  0
ELLIPSE
  5
BDC
330
A8B
100
AcDbEntity
  8
FRONT
  6
Continuous
 62
     4
100
AcDbEllipse
 10
18.11635760682543
 20
4.734153631805039
 30
0.0
 11
-0.9999938318006432
 21
0.0035116660557411
 31
0.0
210
0.0
220
0.0
230
1.0
 40
0.1608116414610818
 41
5.008200129322958
 42
5.18273305487219
  0
ELLIPSE
  5
BDD
330
A8B
100
AcDbEntity
  8
FRONT
  6
Continuous
 62
     4
100
AcDbEllipse
 10
16.56225603727189
 20
3.633285833833903
 30
0.0
 11
-0.7801070765252688
 21
-0.3375395473105581
 31
0.0
210
0.0
220
0.0
230
1.0
 40
0.0040693916708658
 41
1.563153189442481
 42
1.934167124601573
  0
ELLIPSE
  5
BDE
330
A8B
100
AcDbEntity
  8
FRONT
  6
Continuous
 62
     4
100
AcDbEllipse
 10
14.51560790726658
 20
3.779757555178877
 30
0.0
 11
-1.088811819437994
 21
-0.5813346382489481
 31
0.0
210
0.0
220
0.0
230
1.0
 40
0.9833059182890519
 41
2.448217296598584
 42
3.141592653297247
  0
ELLIPSE
  5
BDF
330
A8B
100
AcDbEntity
  8
FRONT
  6
Continuous
 62
     4
100
AcDbEllipse
 10
23.63387088225076
 20
7.250121938023302
 30
0.0
 11
-5.931785057190547
 21
-2.503957966687563
 31
0.0
210
0.0
220
0.0
230
1.0
 40
0.3000603614080196
 41
6.212003631040982
 42
6.468355228140293
  0
ELLIPSE
  5
BE0
330
A8B
100
AcDbEntity
  8
FRONT
  6
Continuous
 62
     4
100
AcDbEllipse
 10
14.55172310019603
 20
3.712115535694636
 30
0.0
 11
-1.088811819366767
 21
-0.5813346383414362
 31
0.0
210
0.0
220
0.0
230
1.0
 40
0.9833059182967726
 41
2.505541426623854
 42
3.141592653205357
  0
ELLIPSE
  5
BE1
330
A8B
100
AcDbEntity
  8
FRONT
  6
Continuous
 62
     4
100
AcDbEllipse
 10
17.43753142984373
 20
3.994737951825666
 30
0.0
 11
-0.6378475908704978
 21
-2.576716806991784
 31
0.0
210
0.0
220
0.0
230
1.0
 40
0.1420508862706076
 41
1.726905085211521
 42
1.739170856938255
  0
SPLINE
  5
BE2
330
A8B
100
AcDbEntity
  8
FRONT
  6
Continuous
 62
     4
100
AcDbSpline
210
0.0
220
0.0
230
1.0
 70
    24
 71
     1
 72
     4
 73
     2
 74
     0
 42
0.0000000001
 43
0.0000000001
 40
0.0
 40
0.0
 40
1.0
 40
1.0
 10
16.49595502931909
 20
5.475699839190808
 30
0.0
 10
17.5948987190443
 20
5.975264142050702
 30
0.0
  0
SPLINE
  5
BE3
330
A8B
100
AcDbEntity
  8
FRONT
  6
Continuous
 62
     4
100
AcDbSpline
210
0.0
220
0.0
230
1.0
 70
    24
 71
     1
 72
     4
 73
     2
 74
     0
 42
0.0000000001
 43
0.0000000001
 40
0.0
 40
0.0
 40
1.0
 40
1.0
 10
17.67701948821644
 20
5.341527188321591
 30
0.0
 10
17.77311705953044
 20
5.412174745271188
 30
0.0
  0
SPLINE
  5
BE4
330
A8B
100
AcDbEntity
  8
FRONT
  6
Continuous
 62
     4
100
AcDbSpline
210
0.0
220
0.0
230
1.0
 70
    24
 71
     1
 72
     4
 73
     2
 74
     0
 42
0.0000000001
 43
0.0000000001
 40
0.0
 40
0.0
 40
1.0
 40
1.0
 10
16.90020018818717
 20
3.583522341359216
 30
0.0
 10
16.91843118442867
 20
3.518558886112968
 30
0.0
  0
SPLINE
  5
BE5
330
A8B
100
AcDbEntity
  8
FRONT
  6
Continuous
 62
     4
100
AcDbSpline
210
0.0
220
0.0
230
1.0
 70
    24
 71
     1
 72
     4
 73
     2
 74
     0
 42
0.0000000001
 43
0.0000000001
 40
0.0
 40
0.0
 40
1.0
 40
1.0
 10
16.60738235910093
 20
3.52622347312716
 30
0.0
 10
16.55766717029034
 20
3.62753152931504
 30
0.0
  0
SPLINE
  5
BE6
330
A8B
100
AcDbEntity
  8
FRONT
  6
Continuous
 62
     4
100
AcDbSpline
210
0.0
220
0.0
230
1.0
 70
     8
 71
     2
 72
     6
 73
     3
 74
     0
 42
0.0000000001
 43
0.0000000001
 40
0.0
 40
0.0
 40
0.0
 40
1.0
 40
1.0
 40
1.0
 10
17.96624821359698
 20
4.521740220909058
 30
0.0
 10
17.99450568315117
 20
4.587389658473391
 30
0.0
 10
17.99520039268492
 20
4.657821589442201
 30
0.0
  0
SPLINE
  5
BE7
330
A8B
100
AcDbEntity
  8
FRONT
  6
Continuous
 62
     4
100
AcDbSpline
210
0.0
220
0.0
230
1.0
 70
    24
 71
     1
 72
     4
 73
     2
 74
     0
 42
0.0000000001
 43
0.0000000001
 40
0.0
 40
0.0
 40
1.0
 40
1.0
 10
16.71141267560334
 20
4.194303491672545
 30
0.0
 10
16.84081100360065
 20
3.750289208641194
 30
0.0
  0
SPLINE
  5
BE8
330
A8B
100
AcDbEntity
  8
FRONT
  6
Continuous
 62
     4
100
AcDbSpline
210
0.0
220
0.0
230
1.0
 70
    24
 71
     1
 72
     4
 73
     2
 74
     0
 42
0.0000000001
 43
0.0000000001
 40
0.0
 40
0.0
 40
1.0
 40
1.0
 10
16.42495563095343
 20
4.116038923035028
 30
0.0
 10
16.71141267560334
 20
4.194303491672545
 30
0.0
  0
SPLINE
  5
BE9
330
A8B
100
AcDbEntity
  8
FRONT
  6
Continuous
 62
     4
100
AcDbSpline
210
0.0
220
0.0
230
1.0
 70
    24
 71
     1
 72
     4
 73
     2
 74
     0
 42
0.0000000001
 43
0.0000000001
 40
0.0
 40
0.0
 40
1.0
 40
1.0
 10
16.49314501744483
 20
5.474374826890542
 30
0.0
 10
16.49474485326082
 20
5.475120305234273
 30
0.0
  0
SPLINE
  5
BEA
330
A8B
100
AcDbEntity
  8
FRONT
  6
Continuous
 62
     4
100
AcDbSpline
210
0.0
220
0.0
230
1.0
 70
    24
 71
     1
 72
     4
 73
     2
 74
     0
 42
0.0000000001
 43
0.0000000001
 40
0.0
 40
0.0
 40
1.0
 40
1.0
 10
16.84081100360065
 20
3.750289208641194
 30
0.0
 10
16.90019487381277
 20
3.583520954077106
 30
0.0
  0
SPLINE
  5
BEB
330
A8B
100
AcDbEntity
  8
FRONT
  6
Continuous
 62
     4
100
AcDbSpline
210
0.0
220
0.0
230
1.0
 70
     8
 71
     3
 72
    12
 73
     8
 74
     0
 42
0.0000000001
 43
0.0000000001
 40
0.0
 40
0.0
 40
0.0
 40
0.0
 40
0.1495624586559048
 40
0.3981305669337531
 40
0.6362518309539893
 40
0.8431419366934655
 40
1.0
 40
1.0
 40
1.0
 40
1.0
 10
17.48589383548178
 20
3.463369935461981
 30
0.0
 10
17.4886026749378
 20
3.466280125578256
 30
0.0
 10
17.49078367105906
 20
3.47398973939262
 30
0.0
 10
17.47309542125874
 20
3.486777129879093
 30
0.0
 10
17.42482211552024
 20
3.49917167572542
 30
0.0
 10
17.36085181227452
 20
3.507004690170802
 30
0.0
 10
17.31746007618845
 20
3.509155435452544
 30
0.0
 10
17.29745226804206
 20
3.509679345658438
 30
0.0
  0
SPLINE
  5
BEC
330
A8B
100
AcDbEntity
  8
FRONT
  6
Continuous
 62
     4
100
AcDbSpline
210
0.0
220
0.0
230
1.0
 70
    24
 71
     1
 72
     4
 73
     2
 74
     0
 42
0.0000000001
 43
0.0000000001
 40
0.0
 40
0.0
 40
1.0
 40
1.0
 10
16.39885559051127
 20
4.600607322908822
 30
0.0
 10
16.71077838865055
 20
4.613840528244288
 30
0.0
  0
SPLINE
  5
BED
330
A8B
100
AcDbEntity
  8
FRONT
  6
Continuous
 62
     4
100
AcDbSpline
210
0.0
220
0.0
230
1.0
 70
     8
 71
     3
 72
    11
 73
     7
 74
     0
 42
0.0000000001
 43
0.0000000001
 40
0.0
 40
0.0
 40
0.0
 40
0.0
 40
0.0001349180935091
 40
0.1930788600656165
 40
0.9998650818819635
 40
1.0
 40
1.0
 40
1.0
 40
1.0
 10
16.19667844852219
 20
5.335343228005076
 30
0.0
 10
16.19672500268154
 20
5.335254725404841
 30
0.0
 10
16.20989169584736
 20
5.310223947250959
 30
0.0
 10
16.32367950371092
 20
5.208467742036122
 30
0.0
 10
16.43522792301602
 20
5.114125861270784
 30
0.0
 10
16.50623019806864
 20
5.020733760974486
 30
0.0
 10
16.50629071951281
 20
5.020654154726011
 30
0.0
  0
SPLINE
  5
BEE
330
A8B
100
AcDbEntity
  8
FRONT
  6
Continuous
 62
     4
100
AcDbSpline
210
0.0
220
0.0
230
1.0
 70
    24
 71
     1
 72
     4
 73
     2
 74
     0
 42
0.0000000001
 43
0.0000000001
 40
0.0
 40
0.0
 40
1.0
 40
1.0
 10
17.45883754226277
 20
5.180035611251119
 30
0.0
 10
17.66526427735394
 20
5.332865247206231
 30
0.0
  0
SPLINE
  5
BEF
330
A8B
100
AcDbEntity
  8
FRONT
  6
Continuous
 62
     4
100
AcDbSpline
210
0.0
220
0.0
230
1.0
 70
     8
 71
     3
 72
    11
 73
     7
 74
     0
 42
0.0000000001
 43
0.0000000001
 40
0.0
 40
0.0
 40
0.0
 40
0.0
 40
0.0001278625790222
 40
0.8000466519499596
 40
0.9998721041576972
 40
1.0
 40
1.0
 40
1.0
 40
1.0
 10
16.50629071951281
 20
5.020654154726011
 30
0.0
 10
16.50635300832185
 20
5.020575923630723
 30
0.0
 10
16.58269256964586
 20
4.924697907350288
 30
0.0
 10
16.65651612623752
 20
4.786080692263082
 30
0.0
 10
16.70188763166069
 20
4.642377138962474
 30
0.0
 10
16.71073896129634
 20
4.613939119367898
 30
0.0
 10
16.71076868003114
 20
4.613843637449183
 30
0.0
  0
SPLINE
  5
BF0
330
A8B
100
AcDbEntity
  8
FRONT
  6
Continuous
 62
     4
100
AcDbSpline
210
0.0
220
0.0
230
1.0
 70
    24
 71
     1
 72
     4
 73
     2
 74
     0
 42
0.0000000001
 43
0.0000000001
 40
0.0
 40
0.0
 40
1.0
 40
1.0
 10
16.94611636433103
 20
4.794203885304683
 30
0.0
 10
17.45883754226277
 20
5.180035611251119
 30
0.0
  0
SPLINE
  5
BF1
330
A8B
100
AcDbEntity
  8
FRONT
  6
Continuous
 62
     4
100
AcDbSpline
210
0.0
220
0.0
230
1.0
 70
    24
 71
     1
 72
     4
 73
     2
 74
     0
 42
0.0000000001
 43
0.0000000001
 40
0.0
 40
0.0
 40
1.0
 40
1.0
 10
17.9955352574119
 20
4.70393196207395
 30
0.0
 10
17.99520039268492
 20
4.657821589441173
 30
0.0
  0
SPLINE
  5
BF2
330
A8B
100
AcDbEntity
  8
FRONT
  6
Continuous
 62
     4
100
AcDbSpline
210
0.0
220
0.0
230
1.0
 70
    24
 71
     1
 72
     4
 73
     2
 74
     0
 42
0.0000000001
 43
0.0000000001
 40
0.0
 40
0.0
 40
1.0
 40
1.0
 10
17.66526427735397
 20
5.332865247206211
 30
0.0
 10
17.67698916139616
 20
5.341504848748127
 30
0.0
  0
SPLINE
  5
BF3
330
A8B
100
AcDbEntity
  8
FRONT
  6
Continuous
 62
     4
100
AcDbSpline
210
0.0
220
0.0
230
1.0
 70
     8
 71
     2
 72
     6
 73
     3
 74
     0
 42
0.0000000001
 43
0.0000000001
 40
0.0
 40
0.0
 40
0.0
 40
1.0
 40
1.0
 40
1.0
 10
17.45883752894693
 20
5.180035602533471
 30
0.0
 10
17.56761241759019
 20
5.260934079266407
 30
0.0
 10
17.67698907835551
 20
5.341504790199523
 30
0.0
  0
SPLINE
  5
BF4
330
A8B
100
AcDbEntity
  8
FRONT
  6
Continuous
 62
     4
100
AcDbSpline
210
0.0
220
0.0
230
1.0
 70
    24
 71
     1
 72
     4
 73
     2
 74
     0
 42
0.0000000001
 43
0.0000000001
 40
0.0
 40
0.0
 40
1.0
 40
1.0
 10
16.19667844839965
 20
5.335343227947221
 30
0.0
 10
16.49314024556977
 20
5.474388270071903
 30
0.0
  0
SPLINE
  5
BF5
330
A8B
100
AcDbEntity
  8
FRONT
  6
Continuous
 62
     4
100
AcDbSpline
210
0.0
220
0.0
230
1.0
 70
     8
 71
     3
 72
    11
 73
     7
 74
     0
 42
0.0000000001
 43
0.0000000001
 40
0.0
 40
0.0
 40
0.0
 40
0.0
 40
0.1632580369825384
 40
0.5369633765782556
 40
0.9250992724447831
 40
1.0
 40
1.0
 40
1.0
 40
1.0
 10
16.42490960875768
 20
4.115996823386628
 30
0.0
 10
16.39672347278242
 20
4.090308598545457
 30
0.0
 10
16.30722024578586
 20
4.003092807454835
 30
0.0
 10
16.17072554691022
 20
3.835311191857298
 30
0.0
 10
16.07136739334606
 20
3.667560355337826
 30
0.0
 10
16.0239448572469
 20
3.571267493264961
 30
0.0
 10
16.01647812761165
 20
3.555577697676341
 30
0.0
  0
SPLINE
  5
BF6
330
A8B
100
AcDbEntity
  8
FRONT
  6
Continuous
 62
     4
100
AcDbSpline
210
0.0
220
0.0
230
1.0
 70
    24
 71
     1
 72
     4
 73
     2
 74
     0
 42
0.0000000001
 43
0.0000000001
 40
0.0
 40
0.0
 40
1.0
 40
1.0
 10
17.96624821359698
 20
4.521740220909058
 30
0.0
 10
17.94182141506172
 20
4.461266655075603
 30
0.0
  0
SPLINE
  5
BF7
330
A8B
100
AcDbEntity
  8
FRONT
  6
Continuous
 62
     4
100
AcDbSpline
210
0.0
220
0.0
230
1.0
 70
    24
 71
     1
 72
     4
 73
     2
 74
     0
 42
0.0000000001
 43
0.0000000001
 40
0.0
 40
0.0
 40
1.0
 40
1.0
 10
16.68230017246027
 20
3.52498673459668
 30
0.0
 10
16.90020018819045
 20
3.583522341348273
 30
0.0
  0
SPLINE
  5
BF8
330
A8B
100
AcDbEntity
  8
FRONT
  6
Continuous
 62
     4
100
AcDbSpline
210
0.0
220
0.0
230
1.0
 70
    24
 71
     1
 72
     4
 73
     2
 74
     0
 42
0.0000000001
 43
0.0000000001
 40
0.0
 40
0.0
 40
1.0
 40
1.0
 10
17.94182141506172
 20
4.461266655075603
 30
0.0
 10
17.90527073750188
 20
4.337218884751766
 30
0.0
  0
SPLINE
  5
BF9
330
A8B
100
AcDbEntity
  8
FRONT
  6
Continuous
 62
     4
100
AcDbSpline
210
0.0
220
0.0
230
1.0
 70
     8
 71
     3
 72
    11
 73
     7
 74
     0
 42
0.0000000001
 43
0.0000000001
 40
0.0
 40
0.0
 40
0.0
 40
0.0
 40
0.3061272518132776
 40
0.6075448394179293
 40
0.8160124276962045
 40
1.0
 40
1.0
 40
1.0
 40
1.0
 10
16.39885559067653
 20
4.600607322599127
 30
0.0
 10
16.39520629565713
 20
4.65475168102716
 30
0.0
 10
16.37252336682536
 20
4.755034069650045
 30
0.0
 10
16.30304229067195
 20
4.879805706769666
 30
0.0
 10
16.21150627020276
 20
4.959021904353886
 30
0.0
 10
16.15015294733186
 20
4.986161952864643
 30
0.0
 10
16.11893736108915
 20
4.995457742129388
 30
0.0
  0
SPLINE
  5
BFA
330
A8B
100
AcDbEntity
  8
FRONT
  6
Continuous
 62
     4
100
AcDbSpline
210
0.0
220
0.0
230
1.0
 70
     8
 71
     3
 72
    11
 73
     7
 74
     0
 42
0.0000000001
 43
0.0000000001
 40
0.0
 40
0.0
 40
0.0
 40
0.0
 40
0.3213498426608153
 40
0.6577811939102688
 40
0.999882732977116
 40
1.0
 40
1.0
 40
1.0
 40
1.0
 10
16.55766717029036
 20
3.62753152931504
 30
0.0
 10
16.53240165908376
 20
3.676733510899357
 30
0.0
 10
16.48805584972428
 20
3.779569485735088
 30
0.0
 10
16.44656881178055
 20
3.945054769776882
 30
0.0
 10
16.43037839129144
 20
4.058494031060566
 30
0.0
 10
16.42502061513865
 20
4.11569740707443
 30
0.0
 10
16.42501128976365
 20
4.115796971311895
 30
0.0
  0
SPLINE
  5
BFB
330
A8B
100
AcDbEntity
  8
FRONT
  6
Continuous
 62
     4
100
AcDbSpline
210
0.0
220
0.0
230
1.0
 70
     8
 71
     2
 72
     6
 73
     3
 74
     0
 42
0.0000000001
 43
0.0000000001
 40
0.0
 40
0.0
 40
0.0
 40
1.0
 40
1.0
 40
1.0
 10
17.77370085353426
 20
5.412603271966885
 30
0.0
 10
17.88564682468245
 20
5.494754377154666
 30
0.0
 10
17.9986026430253
 20
5.57741094424067
 30
0.0
  0
SPLINE
  5
BFC
330
A8B
100
AcDbEntity
  8
FRONT
  6
Continuous
 62
     4
100
AcDbSpline
210
0.0
220
0.0
230
1.0
 70
    24
 71
     1
 72
     4
 73
     2
 74
     0
 42
0.0000000001
 43
0.0000000001
 40
0.0
 40
0.0
 40
1.0
 40
1.0
 10
16.49474485326082
 20
5.475120305234273
 30
0.0
 10
16.49595979536792
 20
5.475686399041637
 30
0.0
  0
SPLINE
  5
BFD
330
A8B
100
AcDbEntity
  8
FRONT
  6
Continuous
 62
     4
100
AcDbSpline
210
0.0
220
0.0
230
1.0
 70
    24
 71
     1
 72
     4
 73
     2
 74
     0
 42
0.0000000001
 43
0.0000000001
 40
0.0
 40
0.0
 40
1.0
 40
1.0
 10
16.71081487216573
 20
4.613866942044376
 30
0.0
 10
16.946116364331
 20
4.794203885304683
 30
0.0
  0
SPLINE
  5
BFE
330
A8B
100
AcDbEntity
  8
FRONT
  6
Continuous
 62
     4
100
AcDbSpline
210
0.0
220
0.0
230
1.0
 70
     8
 71
     2
 72
     6
 73
     3
 74
     0
 42
0.0000000001
 43
0.0000000001
 40
0.0
 40
0.0
 40
0.0
 40
1.0
 40
1.0
 40
1.0
 10
16.11893379407845
 20
4.995443832534546
 30
0.0
 10
16.16268975661965
 20
5.166852128994873
 30
0.0
 10
16.19668973819385
 20
5.335334408581799
 30
0.0
  0
SPLINE
  5
BFF
330
A8B
100
AcDbEntity
  8
FRONT
  6
Continuous
 62
     4
100
AcDbSpline
210
0.0
220
0.0
230
1.0
 70
     8
 71
     3
 72
    11
 73
     7
 74
     0
 42
0.0000000001
 43
0.0000000001
 40
0.0
 40
0.0
 40
0.0
 40
0.0
 40
0.2797385983135212
 40
0.5594467342961896
 40
0.779715829487904
 40
1.0
 40
1.0
 40
1.0
 40
1.0
 10
17.5948987190443
 20
5.975264142050701
 30
0.0
 10
17.65745563319629
 20
5.974483801919762
 30
0.0
 10
17.77036020044778
 20
5.950887920362918
 30
0.0
 10
17.90567908297141
 20
5.85040117171442
 30
0.0
 10
17.98283180302257
 20
5.717078973008209
 30
0.0
 10
17.99830296929956
 20
5.626215792883588
 30
0.0
 10
17.99860264302532
 20
5.577410944240644
 30
0.0
  0
ELLIPSE
  5
C00
330
A8B
100
AcDbEntity
  8
FRONT
  6
Continuous
 62
     4
100
AcDbEllipse
 10
177.0605964205228
 20
-0.0000000000000062
 30
-0.000000000000001
 11
328.7085881680908
 21
-5.639364115381655
 31
0.9119127835859078
210
-0.0173763522628257
220
-0.9870276605374339
230
0.1596072044615736
 40
0.0173763522628256
 41
2.090738282879778
 42
2.09261634979419
  0
ENDBLK
  5
C02
330
A8B
100
AcDbEntity
  8
0
100
AcDbBlockEnd
  0
BLOCK
  5
C05
330
C03
100
AcDbEntity
  8
0
100
AcDbBlockBegin
  2
ROFFE
 70
     0
 10
0.0
 20
0.0
 30
0.0
  3
ROFFE
  1

  0
INSERT
  5
C04
330
C03
100
AcDbEntity
  8
0
  6
Continuous
100
AcDbBlockReference
  2
2D00035417
 10
0.0
 20
0.0
 30
0.0
  0
ENDBLK
  5
C06
330
C03
100
AcDbEntity
  8
0
100
AcDbBlockEnd
  0
BLOCK
  5
12A6
330
12A5
100
AcDbEntity
  8
0
100
AcDbBlockBegin
  2
*D2
 70
     1
 10
0.0
 20
0.0
 30
0.0
  3
*D2
  1

  0
LINE
  5
12A7
330
12A5
100
AcDbEntity
  8
2
 62
     0
100
AcDbLine
 10
36.56615771199998
 20
12.46120147961304
 30
0.0
 11
85.81282169336201
 21
12.46120147961303
 31
0.0
  0
LINE
  5
12A8
330
12A5
100
AcDbEntity
  8
2
 62
     0
100
AcDbLine
 10
47.90286399999999
 20
-19.66047204438691
 30
0.0
 11
85.81282169336201
 21
-19.66047204438693
 31
0.0
  0
LINE
  5
12A9
330
12A5
100
AcDbEntity
  8
2
 62
     0
100
AcDbLine
 10
84.81282169336202
 20
7.461201479613034
 30
0.0
 11
84.81282169336202
 21
-14.66047204438693
 31
0.0
  0
SOLID
  5
12AA
330
12A5
100
AcDbEntity
  8
2
 62
     0
100
AcDbTrace
 10
83.97948836002868
 20
7.461201479613034
 30
0.0
 11
85.64615502669536
 21
7.461201479613034
 31
0.0
 12
84.81282169336202
 22
12.46120147961303
 32
0.0
 13
84.81282169336202
 23
12.46120147961303
 33
0.0
  0
SOLID
  5
12AB
330
12A5
100
AcDbEntity
  8
2
 62
     0
100
AcDbTrace
 10
83.97948836002868
 20
-14.66047204438693
 30
0.0
 11
85.64615502669536
 21
-14.66047204438693
 31
0.0
 12
84.81282169336202
 22
-19.66047204438693
 32
0.0
 13
84.81282169336202
 23
-19.66047204438693
 33
0.0
  0
MTEXT
  5
12AC
330
12A5
100
AcDbEntity
  8
2
 62
     0
100
AcDbMText
 10
81.312821693362
 20
-3.599635282386937
 30
0.0
 40
5.0
 41
0.0
 71
     5
 72
     5
  1
\A1;32
 11
0.0000000000000001
 21
1.0
 31
0.0
 73
     1
 44
1.0
1001
ACAD
1000
MTEXTBEGIN
1070
    73
1070
     1
1070
    44
1040
1.0
1070
    74
1070
     0
1000
MTEXTEND
  0
POINT
  5
12AD
330
12A5
100
AcDbEntity
  8
DEFPOINTS
 62
     0
100
AcDbPoint
 10
35.56615771199997
 20
12.46120147961305
 30
0.0
  0
POINT
  5
12AE
330
12A5
100
AcDbEntity
  8
DEFPOINTS
 62
     0
100
AcDbPoint
 10
46.90286399999999
 20
-19.66047204438691
 30
0.0
  0
POINT
  5
12AF
330
12A5
100
AcDbEntity
  8
DEFPOINTS
 62
     0
100
AcDbPoint
 10
84.81282169336202
 20
-19.66047204438693
 30
0.0
  0
ENDBLK
  5
12B0
330
12A5
100
AcDbEntity
  8
0
100
AcDbBlockEnd
  0
BLOCK
  5
12B2
330
12B1
100
AcDbEntity
  8
0
100
AcDbBlockBegin
  2
*D3
 70
     1
 10
0.0
 20
0.0
 30
0.0
  3
*D3
  1

  0
LINE
  5
12B3
330
12B1
100
AcDbEntity
  8
2
 62
     0
100
AcDbLine
 10
48.0
 20
-19.16717852038692
 30
0.0
 11
48.0
 21
-42.10018937938827
 31
0.0
  0
LINE
  5
12B4
330
12B1
100
AcDbEntity
  8
2
 62
     0
100
AcDbLine
 10
15.60764909761257
 20
-13.31578652038696
 30
0.0
 11
15.60764909761256
 21
-42.10018937938827
 31
0.0
  0
LINE
  5
12B5
330
12B1
100
AcDbEntity
  8
2
 62
     0
100
AcDbLine
 10
43.0
 20
-41.10018937938828
 30
0.0
 11
20.60764909761256
 21
-41.10018937938828
 31
0.0
  0
SOLID
  5
12B6
330
12B1
100
AcDbEntity
  8
2
 62
     0
100
AcDbTrace
 10
43.0
 20
-40.26685604605493
 30
0.0
 11
43.0
 21
-41.93352271272161
 31
0.0
 12
48.0
 22
-41.10018937938828
 32
0.0
 13
48.0
 23
-41.10018937938828
 33
0.0
  0
SOLID
  5
12B7
330
12B1
100
AcDbEntity
  8
2
 62
     0
100
AcDbTrace
 10
20.60764909761256
 20
-40.26685604605493
 30
0.0
 11
20.60764909761256
 21
-41.93352271272161
 31
0.0
 12
15.60764909761256
 22
-41.10018937938828
 32
0.0
 13
15.60764909761256
 23
-41.10018937938828
 33
0.0
  0
MTEXT
  5
12B8
330
12B1
100
AcDbEntity
  8
2
 62
     0
100
AcDbMText
 10
31.8040673356229
 20
-37.60018937938828
 30
0.0
 40
5.0
 41
0.0
 71
     5
 72
     5
  1
\A1;30
 73
     1
 44
1.0
1001
ACAD
1000
MTEXTBEGIN
1070
    73
1070
     1
1070
    44
1040
1.0
1070
    74
1070
     0
1000
MTEXTEND
  0
POINT
  5
12B9
330
12B1
100
AcDbEntity
  8
DEFPOINTS
 62
     0
100
AcDbPoint
 10
48.0
 20
-18.16717852038691
 30
0.0
  0
POINT
  5
12BA
330
12B1
100
AcDbEntity
  8
DEFPOINTS
 62
     0
100
AcDbPoint
 10
15.60764909761257
 20
-12.31578652038695
 30
0.0
  0
POINT
  5
12BB
330
12B1
100
AcDbEntity
  8
DEFPOINTS
 62
     0
100
AcDbPoint
 10
15.60764909761256
 20
-41.10018937938828
 30
0.0
  0
ENDBLK
  5
12BC
330
12B1
100
AcDbEntity
  8
0
100
AcDbBlockEnd
  0
BLOCK
  5
12BE
330
12BD
100
AcDbEntity
  8
0
100
AcDbBlockBegin
  2
*D4
 70
     1
 10
0.0
 20
0.0
 30
0.0
  3
*D4
  1

  0
LINE
  5
12BF
330
12BD
100
AcDbEntity
  8
SK2
 62
     0
100
AcDbLine
 10
48.0
 20
-19.16717852038692
 30
0.0
 11
47.99999999999999
 21
-82.42594214873406
 31
0.0
  0
LINE
  5
12C0
330
12BD
100
AcDbEntity
  8
SK2
 62
     0
100
AcDbLine
 10
-121.9999999999999
 20
-13.31578652038698
 30
0.0
 11
-121.9999999999999
 21
-82.42594214873406
 31
0.0
  0
LINE
  5
12C1
330
12BD
100
AcDbEntity
  8
SK2
 62
     0
100
AcDbLine
 10
42.99999999999999
 20
-81.42594214873406
 30
0.0
 11
-116.9999999999999
 21
-81.42594214873406
 31
0.0
  0
SOLID
  5
12C2
330
12BD
100
AcDbEntity
  8
SK2
 62
     0
100
AcDbTrace
 10
42.99999999999999
 20
-80.59260881540074
 30
0.0
 11
42.99999999999999
 21
-82.25927548206739
 31
0.0
 12
47.99999999999999
 22
-81.42594214873406
 32
0.0
 13
47.99999999999999
 23
-81.42594214873406
 33
0.0
  0
SOLID
  5
12C3
330
12BD
100
AcDbEntity
  8
SK2
 62
     0
100
AcDbTrace
 10
-116.9999999999999
 20
-80.59260881540074
 30
0.0
 11
-116.9999999999999
 21
-82.25927548206739
 31
0.0
 12
-121.9999999999999
 22
-81.42594214873406
 32
0.0
 13
-121.9999999999999
 23
-81.42594214873406
 33
0.0
  0
MTEXT
  5
12C4
330
12BD
100
AcDbEntity
  8
SK2
 62
     0
100
AcDbMText
 10
-33.62254300598397
 20
-77.92594214873407
 30
0.0
 40
5.0
 41
0.0
 71
     5
 72
     5
  1
\A1;170
 73
     1
 44
1.0
1001
ACAD
1000
MTEXTBEGIN
1070
    73
1070
     1
1070
    44
1040
1.0
1070
    74
1070
     0
1000
MTEXTEND
  0
POINT
  5
12C5
330
12BD
100
AcDbEntity
  8
DEFPOINTS
 62
     0
100
AcDbPoint
 10
48.0
 20
-18.16717852038691
 30
0.0
  0
POINT
  5
12C6
330
12BD
100
AcDbEntity
  8
DEFPOINTS
 62
     0
100
AcDbPoint
 10
-121.9999999999999
 20
-12.31578652038697
 30
0.0
  0
POINT
  5
12C7
330
12BD
100
AcDbEntity
  8
DEFPOINTS
 62
     0
100
AcDbPoint
 10
-121.9999999999999
 20
-81.42594214873406
 30
0.0
  0
ENDBLK
  5
12C8
330
12BD
100
AcDbEntity
  8
0
100
AcDbBlockEnd
  0
BLOCK
  5
12CA
330
12C9
100
AcDbEntity
  8
0
100
AcDbBlockBegin
  2
*D5
 70
     1
 10
0.0
 20
0.0
 30
0.0
  3
*D5
  1

  0
LINE
  5
12CB
330
12C9
100
AcDbEntity
  8
SK2
 62
     0
100
AcDbLine
 10
-122.9999999999999
 20
12.46120147961299
 30
0.0
 11
-142.790226457835
 21
12.46120147961299
 31
0.0
  0
LINE
  5
12CC
330
12C9
100
AcDbEntity
  8
SK2
 62
     0
100
AcDbLine
 10
-122.9999999999999
 20
-12.31578652038697
 30
0.0
 11
-142.790226457835
 21
-12.31578652038697
 31
0.0
  0
LINE
  5
12CD
330
12C9
100
AcDbEntity
  8
SK2
 62
     0
100
AcDbLine
 10
-141.7902264578351
 20
17.46120147961299
 30
0.0
 11
-141.7902264578351
 21
22.46120147961299
 31
0.0
  0
LINE
  5
12CE
330
12C9
100
AcDbEntity
  8
SK2
 62
     0
100
AcDbLine
 10
-141.7902264578351
 20
-17.31578652038697
 30
0.0
 11
-141.7902264578351
 21
-22.31578652038697
 31
0.0
  0
SOLID
  5
12CF
330
12C9
100
AcDbEntity
  8
SK2
 62
     0
100
AcDbTrace
 10
-142.6235597911684
 20
17.46120147961299
 30
0.0
 11
-140.9568931245017
 21
17.46120147961299
 31
0.0
 12
-141.7902264578351
 22
12.46120147961299
 32
0.0
 13
-141.7902264578351
 23
12.46120147961299
 33
0.0
  0
SOLID
  5
12D0
330
12C9
100
AcDbEntity
  8
SK2
 62
     0
100
AcDbTrace
 10
-142.6235597911684
 20
-17.31578652038697
 30
0.0
 11
-140.9568931245017
 21
-17.31578652038697
 31
0.0
 12
-141.7902264578351
 22
-12.31578652038697
 32
0.0
 13
-141.7902264578351
 23
-12.31578652038697
 33
0.0
  0
MTEXT
  5
12D1
330
12C9
100
AcDbEntity
  8
SK2
 62
     0
100
AcDbMText
 10
-145.2902264578351
 20
-0.8317003099455742
 30
0.0
 40
5.0
 41
0.0
 71
     5
 72
     5
  1
\A1;32X25
 11
0.0000000000000001
 21
1.0
 31
0.0
 73
     1
 44
1.0
1001
ACAD
1000
MTEXTBEGIN
1070
    73
1070
     1
1070
    44
1040
1.0
1070
    74
1070
     0
1000
MTEXTEND
  0
POINT
  5
12D2
330
12C9
100
AcDbEntity
  8
DEFPOINTS
 62
     0
100
AcDbPoint
 10
-121.9999999999999
 20
12.46120147961299
 30
0.0
  0
POINT
  5
12D3
330
12C9
100
AcDbEntity
  8
DEFPOINTS
 62
     0
100
AcDbPoint
 10
-121.9999999999999
 20
-12.31578652038697
 30
0.0
  0
POINT
  5
12D4
330
12C9
100
AcDbEntity
  8
DEFPOINTS
 62
     0
100
AcDbPoint
 10
-141.7902264578351
 20
-12.31578652038697
 30
0.0
  0
ENDBLK
  5
12D5
330
12C9
100
AcDbEntity
  8
0
100
AcDbBlockEnd
  0
BLOCK
  5
12D7
330
12D6
100
AcDbEntity
  8
0
100
AcDbBlockBegin
  2
*D6
 70
     1
 10
0.0
 20
0.0
 30
0.0
  3
*D6
  1

  0
ARC
  5
12D8
330
12D6
100
AcDbEntity
  8
2
 62
     0
100
AcDbCircle
 10
47.90857199999999
 20
-19.66047204438692
 30
0.0
 40
17.91674073701379
100
AcDbArc
 50
16.04179899448557
 51
73.95820100551444
  0
SOLID
  5
12D9
330
12D6
100
AcDbEntity
  8
2
 62
     0
100
AcDbTrace
 10
65.95282223384559
 20
-14.59310726842472
 30
0.0
 11
64.30246017154265
 21
-14.82566444653127
 31
0.0
 12
65.82531273701379
 22
-19.66047204438689
 32
0.0
 13
65.82531273701379
 23
-19.66047204438689
 33
0.0
  0
SOLID
  5
12DA
330
12D6
100
AcDbEntity
  8
2
 62
     0
100
AcDbTrace
 10
52.74337959785563
 20
-3.266583872844272
 30
0.0
 11
52.97593677596219
 21
-1.616221810541309
 31
0.0
 12
47.90857200000002
 22
-1.74373130737312
 32
0.0
 13
47.90857200000002
 23
-1.74373130737312
 33
0.0
  0
MTEXT
  5
12DB
330
12D6
100
AcDbEntity
  8
2
 62
     0
100
AcDbMText
 10
63.05249460605661
 20
-4.516549438330278
 30
0.0
 40
5.0
 41
0.0
 71
     5
 72
     5
  1
\A1;90°
 11
0.7071067811865476
 21
-0.7071067811865475
 31
0.0
 73
     1
 44
1.0
1001
ACAD
1000
MTEXTBEGIN
1070
    73
1070
     1
1070
    44
1040
1.0
1070
    74
1070
     0
1000
MTEXTEND
  0
POINT
  5
12DC
330
12D6
100
AcDbEntity
  8
DEFPOINTS
 62
     0
100
AcDbPoint
 10
63.42492463127346
 20
-10.70210167588001
 30
0.0
  0
POINT
  5
12DD
330
12D6
100
AcDbEntity
  8
DEFPOINTS
 62
     0
100
AcDbPoint
 10
47.90857199999999
 20
-0.4301465203869306
 30
0.0
  0
POINT
  5
12DE
330
12D6
100
AcDbEntity
  8
DEFPOINTS
 62
     0
100
AcDbPoint
 10
47.90286399999999
 20
-19.66047204438691
 30
0.0
  0
POINT
  5
12DF
330
12D6
100
AcDbEntity
  8
DEFPOINTS
 62
     0
100
AcDbPoint
 10
82.1511343387158
 20
-19.66047204438689
 30
0.0
  0
POINT
  5
12E0
330
12D6
100
AcDbEntity
  8
DEFPOINTS
 62
     0
100
AcDbPoint
 10
47.90857199999999
 20
-18.53289052038692
 30
0.0
  0
ENDBLK
  5
12E1
330
12D6
100
AcDbEntity
  8
0
100
AcDbBlockEnd
  0
BLOCK
  5
12E3
330
12E2
100
AcDbEntity
  8
0
100
AcDbBlockBegin
  2
*D7
 70
     1
 10
0.0
 20
0.0
 30
0.0
  3
*D7
  1

  0
LINE
  5
12E4
330
12E2
100
AcDbEntity
  8
2
 62
     0
100
AcDbLine
 10
48.0
 20
-20.16717852038691
 30
0.0
 11
48.0
 21
-63.71884558952743
 31
0.0
  0
LINE
  5
12E5
330
12E2
100
AcDbEntity
  8
2
 62
     0
100
AcDbLine
 10
-0.0000000000000001
 20
-13.31578652038696
 30
0.0
 11
-0.0000000000000031
 21
-63.71884558952743
 31
0.0
  0
LINE
  5
12E6
330
12E2
100
AcDbEntity
  8
2
 62
     0
100
AcDbLine
 10
43.0
 20
-62.71884558952742
 30
0.0
 11
4.999999999999997
 21
-62.71884558952742
 31
0.0
  0
SOLID
  5
12E7
330
12E2
100
AcDbEntity
  8
2
 62
     0
100
AcDbTrace
 10
43.0
 20
-61.88551225619409
 30
0.0
 11
43.0
 21
-63.55217892286074
 31
0.0
 12
48.0
 22
-62.71884558952742
 32
0.0
 13
48.0
 23
-62.71884558952742
 33
0.0
  0
SOLID
  5
12E8
330
12E2
100
AcDbEntity
  8
2
 62
     0
100
AcDbTrace
 10
4.999999999999997
 20
-61.88551225619409
 30
0.0
 11
4.999999999999997
 21
-63.55217892286074
 31
0.0
 12
-0.0000000000000031
 22
-62.71884558952742
 32
0.0
 13
-0.0000000000000031
 23
-62.71884558952742
 33
0.0
  0
MTEXT
  5
12E9
330
12E2
100
AcDbEntity
  8
2
 62
     0
100
AcDbMText
 10
24.0
 20
-59.21884558952743
 30
0.0
 40
5.0
 41
0.0
 71
     5
 72
     5
  1
\A1;48
 73
     1
 44
1.0
1001
ACAD
1000
MTEXTBEGIN
1070
    73
1070
     1
1070
    44
1040
1.0
1070
    74
1070
     0
1000
MTEXTEND
  0
POINT
  5
12EA
330
12E2
100
AcDbEntity
  8
DEFPOINTS
 62
     0
100
AcDbPoint
 10
48.0
 20
-19.16717852038692
 30
0.0
  0
POINT
  5
12EB
330
12E2
100
AcDbEntity
  8
DEFPOINTS
 62
     0
100
AcDbPoint
 10
0.0
 20
-12.31578652038695
 30
0.0
  0
POINT
  5
12EC
330
12E2
100
AcDbEntity
  8
DEFPOINTS
 62
     0
100
AcDbPoint
 10
-0.0000000000000031
 20
-62.71884558952742
 30
0.0
  0
ENDBLK
  5
12ED
330
12E2
100
AcDbEntity
  8
0
100
AcDbBlockEnd
  0
BLOCK
  5
1679
330
166F
100
AcDbEntity
  8
0
100
AcDbBlockBegin
  2
*D8
 70
     1
 10
0.0
 20
0.0
 30
0.0
  3
*D8
  1

  0
LINE
  5
16B7
330
166F
100
AcDbEntity
  8
2
 62
     0
370
    -2
100
AcDbLine
 10
164.6333473932011
 20
132.4085722060656
 30
0.0
 11
213.8800113745632
 21
132.4085722060656
 31
0.0
  0
LINE
  5
16B8
330
166F
100
AcDbEntity
  8
2
 62
     0
370
    -2
100
AcDbLine
 10
175.9700536812012
 20
100.2868986820657
 30
0.0
 11
213.8800113745632
 21
100.2868986820657
 31
0.0
  0
LINE
  5
16B9
330
166F
100
AcDbEntity
  8
2
 62
     0
370
    -2
100
AcDbLine
 10
212.8800113745632
 20
127.4085722060656
 30
0.0
 11
212.8800113745632
 21
105.2868986820657
 31
0.0
  0
SOLID
  5
16BA
330
166F
100
AcDbEntity
  8
2
 62
     0
100
AcDbTrace
 10
212.0466780412299
 20
127.4085722060656
 30
0.0
 11
213.7133447078966
 21
127.4085722060656
 31
0.0
 12
212.8800113745632
 22
132.4085722060656
 32
0.0
 13
212.8800113745632
 23
132.4085722060656
 33
0.0
  0
SOLID
  5
16BB
330
166F
100
AcDbEntity
  8
2
 62
     0
100
AcDbTrace
 10
212.0466780412299
 20
105.2868986820657
 30
0.0
 11
213.7133447078966
 21
105.2868986820657
 31
0.0
 12
212.8800113745632
 22
100.2868986820657
 32
0.0
 13
212.8800113745632
 23
100.2868986820657
 33
0.0
  0
MTEXT
  5
16BC
330
166F
100
AcDbEntity
  8
2
 62
     0
100
AcDbMText
 10
209.3800113745632
 20
116.3477354440656
 30
0.0
 40
5.0
 41
0.0
 71
     5
 72
     1
  1
\A1;32
 11
0.0000000000000001
 21
1.0
 31
0.0
 73
     1
 44
1.0
1001
ACAD
1000
MTEXTBEGIN
1070
    73
1070
     1
1070
    44
1040
1.0
1070
    74
1070
     0
1000
MTEXTEND
  0
POINT
  5
16BD
330
166F
100
AcDbEntity
  8
DEFPOINTS
 62
     0
100
AcDbPoint
 10
163.6333473932011
 20
132.4085722060656
 30
0.0
  0
POINT
  5
16BE
330
166F
100
AcDbEntity
  8
DEFPOINTS
 62
     0
100
AcDbPoint
 10
174.9700536812011
 20
100.2868986820657
 30
0.0
  0
POINT
  5
16BF
330
166F
100
AcDbEntity
  8
DEFPOINTS
 62
     0
100
AcDbPoint
 10
212.8800113745632
 20
100.2868986820657
 30
0.0
  0
ENDBLK
  5
167A
330
166F
100
AcDbEntity
  8
0
100
AcDbBlockEnd
  0
BLOCK
  5
1685
330
167B
100
AcDbEntity
  8
0
100
AcDbBlockBegin
  2
*D9
 70
     1
 10
0.0
 20
0.0
 30
0.0
  3
*D9
  1

  0
LINE
  5
16C0
330
167B
100
AcDbEntity
  8
2
 62
     0
370
    -2
100
AcDbLine
 10
176.0671896812011
 20
100.7801922060657
 30
0.0
 11
176.0671896812011
 21
77.84718134706434
 31
0.0
  0
LINE
  5
16C1
330
167B
100
AcDbEntity
  8
2
 62
     0
370
    -2
100
AcDbLine
 10
143.6748387788137
 20
106.6315842060656
 30
0.0
 11
143.6748387788137
 21
77.84718134706434
 31
0.0
  0
LINE
  5
16C2
330
167B
100
AcDbEntity
  8
2
 62
     0
370
    -2
100
AcDbLine
 10
171.0671896812011
 20
78.84718134706431
 30
0.0
 11
148.6748387788137
 21
78.84718134706431
 31
0.0
  0
SOLID
  5
16C3
330
167B
100
AcDbEntity
  8
2
 62
     0
100
AcDbTrace
 10
171.0671896812011
 20
79.68051468039765
 30
0.0
 11
171.0671896812011
 21
78.013848013731
 31
0.0
 12
176.0671896812011
 22
78.84718134706431
 32
0.0
 13
176.0671896812011
 23
78.84718134706431
 33
0.0
  0
SOLID
  5
16C4
330
167B
100
AcDbEntity
  8
2
 62
     0
100
AcDbTrace
 10
148.6748387788137
 20
79.68051468039765
 30
0.0
 11
148.6748387788137
 21
78.013848013731
 31
0.0
 12
143.6748387788137
 22
78.84718134706431
 32
0.0
 13
143.6748387788137
 23
78.84718134706431
 33
0.0
  0
MTEXT
  5
16C5
330
167B
100
AcDbEntity
  8
2
 62
     0
100
AcDbMText
 10
159.871257016824
 20
82.34718134706431
 30
0.0
 40
5.0
 41
0.0
 71
     5
 72
     1
  1
\A1;30
 73
     1
 44
1.0
1001
ACAD
1000
MTEXTBEGIN
1070
    73
1070
     1
1070
    44
1040
1.0
1070
    74
1070
     0
1000
MTEXTEND
  0
POINT
  5
16C6
330
167B
100
AcDbEntity
  8
DEFPOINTS
 62
     0
100
AcDbPoint
 10
176.0671896812011
 20
101.7801922060657
 30
0.0
  0
POINT
  5
16C7
330
167B
100
AcDbEntity
  8
DEFPOINTS
 62
     0
100
AcDbPoint
 10
143.6748387788137
 20
107.6315842060656
 30
0.0
  0
POINT
  5
16C8
330
167B
100
AcDbEntity
  8
DEFPOINTS
 62
     0
100
AcDbPoint
 10
143.6748387788137
 20
78.84718134706431
 30
0.0
  0
ENDBLK
  5
1686
330
167B
100
AcDbEntity
  8
0
100
AcDbBlockEnd
  0
BLOCK
  5
1691
330
1687
100
AcDbEntity
  8
0
100
AcDbBlockBegin
  2
*D10
 70
     1
 10
0.0
 20
0.0
 30
0.0
  3
*D10
  1

  0
LINE
  5
16C9
330
1687
100
AcDbEntity
  8
SK2
 62
     0
370
    -2
100
AcDbLine
 10
176.0671896812011
 20
100.7801922060657
 30
0.0
 11
176.0671896812011
 21
37.52142857771854
 31
0.0
  0
LINE
  5
16CA
330
1687
100
AcDbEntity
  8
SK2
 62
     0
370
    -2
100
AcDbLine
 10
6.067189681201266
 20
106.6315842060656
 30
0.0
 11
6.067189681201266
 21
37.52142857771854
 31
0.0
  0
LINE
  5
16CB
330
1687
100
AcDbEntity
  8
SK2
 62
     0
370
    -2
100
AcDbLine
 10
171.0671896812011
 20
38.52142857771855
 30
0.0
 11
11.06718968120127
 21
38.52142857771855
 31
0.0
  0
SOLID
  5
16CC
330
1687
100
AcDbEntity
  8
SK2
 62
     0
100
AcDbTrace
 10
171.0671896812011
 20
39.35476191105189
 30
0.0
 11
171.0671896812011
 21
37.68809524438522
 31
0.0
 12
176.0671896812011
 22
38.52142857771855
 32
0.0
 13
176.0671896812011
 23
38.52142857771855
 33
0.0
  0
SOLID
  5
16CD
330
1687
100
AcDbEntity
  8
SK2
 62
     0
100
AcDbTrace
 10
11.06718968120127
 20
39.35476191105189
 30
0.0
 11
11.06718968120127
 21
37.68809524438522
 31
0.0
 12
6.067189681201266
 22
38.52142857771855
 32
0.0
 13
6.067189681201266
 23
38.52142857771855
 33
0.0
  0
MTEXT
  5
16CE
330
1687
100
AcDbEntity
  8
SK2
 62
     0
100
AcDbMText
 10
94.44464667521721
 20
42.02142857771852
 30
0.0
 40
5.0
 41
0.0
 71
     5
 72
     1
  1
\A1;170
 73
     1
 44
1.0
1001
ACAD
1000
MTEXTBEGIN
1070
    73
1070
     1
1070
    44
1040
1.0
1070
    74
1070
     0
1000
MTEXTEND
  0
POINT
  5
16CF
330
1687
100
AcDbEntity
  8
DEFPOINTS
 62
     0
100
AcDbPoint
 10
176.0671896812011
 20
101.7801922060657
 30
0.0
  0
POINT
  5
16D0
330
1687
100
AcDbEntity
  8
DEFPOINTS
 62
     0
100
AcDbPoint
 10
6.067189681201266
 20
107.6315842060656
 30
0.0
  0
POINT
  5
16D1
330
1687
100
AcDbEntity
  8
DEFPOINTS
 62
     0
100
AcDbPoint
 10
6.067189681201266
 20
38.52142857771855
 30
0.0
  0
ENDBLK
  5
1692
330
1687
100
AcDbEntity
  8
0
100
AcDbBlockEnd
  0
BLOCK
  5
169D
330
1693
100
AcDbEntity
  8
0
100
AcDbBlockBegin
  2
*D11
 70
     1
 10
0.0
 20
0.0
 30
0.0
  3
*D11
  1

  0
LINE
  5
16D2
330
1693
100
AcDbEntity
  8
SK2
 62
     0
370
    -2
100
AcDbLine
 10
5.067189681201268
 20
132.4085722060656
 30
0.0
 11
-14.72303677663391
 21
132.4085722060656
 31
0.0
  0
LINE
  5
16D3
330
1693
100
AcDbEntity
  8
SK2
 62
     0
370
    -2
100
AcDbLine
 10
5.067189681201268
 20
107.6315842060656
 30
0.0
 11
-14.72303677663392
 21
107.6315842060656
 31
0.0
  0
LINE
  5
16D4
330
1693
100
AcDbEntity
  8
SK2
 62
     0
370
    -2
100
AcDbLine
 10
-13.72303677663391
 20
127.4085722060656
 30
0.0
 11
-13.72303677663391
 21
112.6315842060656
 31
0.0
  0
SOLID
  5
16D5
330
1693
100
AcDbEntity
  8
SK2
 62
     0
100
AcDbTrace
 10
-14.55637010996724
 20
127.4085722060656
 30
0.0
 11
-12.88970344330057
 21
127.4085722060656
 31
0.0
 12
-13.72303677663391
 22
132.4085722060656
 32
0.0
 13
-13.72303677663391
 23
132.4085722060656
 33
0.0
  0
SOLID
  5
16D6
330
1693
100
AcDbEntity
  8
SK2
 62
     0
100
AcDbTrace
 10
-14.55637010996725
 20
112.6315842060656
 30
0.0
 11
-12.88970344330058
 21
112.6315842060656
 31
0.0
 12
-13.72303677663391
 22
107.6315842060656
 32
0.0
 13
-13.72303677663391
 23
107.6315842060656
 33
0.0
  0
MTEXT
  5
16D7
330
1693
100
AcDbEntity
  8
SK2
 62
     0
100
AcDbMText
 10
-17.22303677663393
 20
119.115670416507
 30
0.0
 40
5.0
 41
0.0
 71
     5
 72
     1
  1
\A1;32X25
 11
0.0000000000000001
 21
1.0
 31
0.0
 73
     1
 44
1.0
1001
ACAD
1000
MTEXTBEGIN
1070
    73
1070
     1
1070
    44
1040
1.0
1070
    74
1070
     0
1000
MTEXTEND
  0
POINT
  5
16D8
330
1693
100
AcDbEntity
  8
DEFPOINTS
 62
     0
100
AcDbPoint
 10
6.067189681201266
 20
132.4085722060656
 30
0.0
  0
POINT
  5
16D9
330
1693
100
AcDbEntity
  8
DEFPOINTS
 62
     0
100
AcDbPoint
 10
6.067189681201266
 20
107.6315842060656
 30
0.0
  0
POINT
  5
16DA
330
1693
100
AcDbEntity
  8
DEFPOINTS
 62
     0
100
AcDbPoint
 10
-13.72303677663391
 20
107.6315842060656
 30
0.0
  0
ENDBLK
  5
169E
330
1693
100
AcDbEntity
  8
0
100
AcDbBlockEnd
  0
BLOCK
  5
16A9
330
169F
100
AcDbEntity
  8
0
100
AcDbBlockBegin
  2
*D12
 70
     1
 10
0.0
 20
0.0
 30
0.0
  3
*D12
  1

  0
ARC
  5
16DB
330
169F
100
AcDbEntity
  8
2
 62
     0
370
    -2
100
AcDbCircle
 10
175.9757616812011
 20
100.2868986820657
 30
0.0
 40
17.91674073701378
100
AcDbArc
 50
16.04179899448559
 51
73.95820100551464
  0
SOLID
  5
16DC
330
169F
100
AcDbEntity
  8
2
 62
     0
100
AcDbTrace
 10
194.0200119150468
 20
105.3542634580279
 30
0.0
 11
192.3696498527438
 21
105.1217062799213
 31
0.0
 12
193.892502418215
 22
100.2868986820657
 32
0.0
 13
193.892502418215
 23
100.2868986820657
 33
0.0
  0
SOLID
  5
16DD
330
169F
100
AcDbEntity
  8
2
 62
     0
100
AcDbTrace
 10
180.8105692790567
 20
116.6807868536083
 30
0.0
 11
181.0431264571633
 21
118.3311489159113
 31
0.0
 12
175.9757616812011
 22
118.2036394190795
 32
0.0
 13
175.9757616812011
 23
118.2036394190795
 33
0.0
  0
MTEXT
  5
16DE
330
169F
100
AcDbEntity
  8
2
 62
     0
100
AcDbMText
 10
191.1196842872577
 20
115.4308212881224
 30
0.0
 40
5.0
 41
0.0
 71
     5
 72
     1
  1
\A1;90°
 11
0.7071067811865476
 21
-0.7071067811865475
 31
0.0
 73
     1
 44
1.0
1001
ACAD
1000
MTEXTBEGIN
1070
    73
1070
     1
1070
    44
1040
1.0
1070
    74
1070
     0
1000
MTEXTEND
  0
POINT
  5
16DF
330
169F
100
AcDbEntity
  8
DEFPOINTS
 62
     0
100
AcDbPoint
 10
191.4921143124746
 20
109.2452690505726
 30
0.0
  0
POINT
  5
16E0
330
169F
100
AcDbEntity
  8
DEFPOINTS
 62
     0
100
AcDbPoint
 10
175.9757616812011
 20
119.5172242060656
 30
0.0
  0
POINT
  5
16E1
330
169F
100
AcDbEntity
  8
DEFPOINTS
 62
     0
100
AcDbPoint
 10
175.9700536812012
 20
100.2868986820657
 30
0.0
  0
POINT
  5
16E2
330
169F
100
AcDbEntity
  8
DEFPOINTS
 62
     0
100
AcDbPoint
 10
210.218324019917
 20
100.2868986820657
 30
0.0
  0
POINT
  5
16E3
330
169F
100
AcDbEntity
  8
DEFPOINTS
 62
     0
100
AcDbPoint
 10
175.9757616812011
 20
101.4144802060656
 30
0.0
  0
ENDBLK
  5
16AA
330
169F
100
AcDbEntity
  8
0
100
AcDbBlockEnd
  0
BLOCK
  5
16B5
330
16AB
100
AcDbEntity
  8
0
100
AcDbBlockBegin
  2
*D13
 70
     1
 10
0.0
 20
0.0
 30
0.0
  3
*D13
  1

  0
LINE
  5
16E4
330
16AB
100
AcDbEntity
  8
2
 62
     0
370
    -2
100
AcDbLine
 10
176.0671896812011
 20
99.78019220606569
 30
0.0
 11
176.0671896812011
 21
56.22852513692519
 31
0.0
  0
LINE
  5
16E5
330
16AB
100
AcDbEntity
  8
2
 62
     0
370
    -2
100
AcDbLine
 10
128.0671896812011
 20
106.6315842060656
 30
0.0
 11
128.0671896812011
 21
56.22852513692519
 31
0.0
  0
LINE
  5
16E6
330
16AB
100
AcDbEntity
  8
2
 62
     0
370
    -2
100
AcDbLine
 10
171.0671896812011
 20
57.22852513692519
 30
0.0
 11
133.0671896812011
 21
57.22852513692519
 31
0.0
  0
SOLID
  5
16E7
330
16AB
100
AcDbEntity
  8
2
 62
     0
100
AcDbTrace
 10
171.0671896812011
 20
58.06185847025853
 30
0.0
 11
171.0671896812011
 21
56.39519180359187
 31
0.0
 12
176.0671896812011
 22
57.22852513692519
 32
0.0
 13
176.0671896812011
 23
57.22852513692519
 33
0.0
  0
SOLID
  5
16E8
330
16AB
100
AcDbEntity
  8
2
 62
     0
100
AcDbTrace
 10
133.0671896812011
 20
58.06185847025853
 30
0.0
 11
133.0671896812011
 21
56.39519180359187
 31
0.0
 12
128.0671896812011
 22
57.22852513692519
 32
0.0
 13
128.0671896812011
 23
57.22852513692519
 33
0.0
  0
MTEXT
  5
16E9
330
16AB
100
AcDbEntity
  8
2
 62
     0
100
AcDbMText
 10
152.0671896812011
 20
60.72852513692519
 30
0.0
 40
5.0
 41
0.0
 71
     5
 72
     1
  1
\A1;48
 73
     1
 44
1.0
1001
ACAD
1000
MTEXTBEGIN
1070
    73
1070
     1
1070
    44
1040
1.0
1070
    74
1070
     0
1000
MTEXTEND
  0
POINT
  5
16EA
330
16AB
100
AcDbEntity
  8
DEFPOINTS
 62
     0
100
AcDbPoint
 10
176.0671896812011
 20
100.7801922060657
 30
0.0
  0
POINT
  5
16EB
330
16AB
100
AcDbEntity
  8
DEFPOINTS
 62
     0
100
AcDbPoint
 10
128.0671896812011
 20
107.6315842060656
 30
0.0
  0
POINT
  5
16EC
330
16AB
100
AcDbEntity
  8
DEFPOINTS
 62
     0
100
AcDbPoint
 10
128.0671896812011
 20
57.22852513692519
 30
0.0
  0
ENDBLK
  5
16B6
330
16AB
100
AcDbEntity
  8
0
100
AcDbBlockEnd
  0
BLOCK
  5
16FA
330
16F0
100
AcDbEntity
  8
0
100
AcDbBlockBegin
  2
*D14
 70
     1
 10
0.0
 20
0.0
 30
0.0
  3
*D14
  1

  0
LINE
  5
1831
330
16F0
100
AcDbEntity
  8
SK2
 62
     0
370
    -2
100
AcDbLine
 10
5.067189681201268
 20
132.4085722060656
 30
0.0
 11
-8.715277446867499
 21
132.4085722060656
 31
0.0
  0
LINE
  5
1832
330
16F0
100
AcDbEntity
  8
SK2
 62
     0
370
    -2
100
AcDbLine
 10
5.067189681201271
 20
107.6315842060656
 30
0.0
 11
-8.715277446867505
 21
107.6315842060656
 31
0.0
  0
LINE
  5
1833
330
16F0
100
AcDbEntity
  8
SK2
 62
     0
370
    -2
100
AcDbLine
 10
-7.715277446867505
 20
112.6315842060656
 30
0.0
 11
-7.715277446867502
 21
127.4085722060656
 31
0.0
  0
LINE
  5
1834
330
16F0
100
AcDbEntity
  8
SK2
 62
     0
370
    -2
100
AcDbLine
 10
-7.7152774468675
 20
132.4085722060656
 30
0.0
 11
-7.715277446867494
 21
162.7419055393989
 31
0.0
  0
SOLID
  5
1835
330
16F0
100
AcDbEntity
  8
SK2
 62
     0
100
AcDbTrace
 10
-8.548610780200839
 20
112.6315842060656
 30
0.0
 11
-6.881944113534173
 21
112.6315842060656
 31
0.0
 12
-7.715277446867505
 22
107.6315842060656
 32
0.0
 13
-7.715277446867505
 23
107.6315842060656
 33
0.0
  0
SOLID
  5
1836
330
16F0
100
AcDbEntity
  8
SK2
 62
     0
100
AcDbTrace
 10
-8.548610780200835
 20
127.4085722060656
 30
0.0
 11
-6.881944113534169
 21
127.4085722060656
 31
0.0
 12
-7.7152774468675
 22
132.4085722060656
 32
0.0
 13
-7.7152774468675
 23
132.4085722060656
 33
0.0
  0
MTEXT
  5
1837
330
16F0
100
AcDbEntity
  8
SK2
 62
     0
100
AcDbMText
 10
-11.21527744686751
 20
150.0752388727321
 30
0.0
 40
5.0
 41
0.0
 71
     5
 72
     1
  1
\A1;32X25
 11
0.0000000000000001
 21
1.0
 31
0.0
 73
     1
 44
1.0
1001
ACAD
1000
MTEXTBEGIN
1070
    73
1070
     1
1070
    44
1040
1.0
1070
    74
1070
     0
1000
MTEXTEND
  0
POINT
  5
1838
330
16F0
100
AcDbEntity
  8
DEFPOINTS
 62
     0
100
AcDbPoint
 10
6.067189681201266
 20
132.4085722060656
 30
0.0
  0
POINT
  5
1839
330
16F0
100
AcDbEntity
  8
DEFPOINTS
 62
     0
100
AcDbPoint
 10
6.067189681201272
 20
107.6315842060656
 30
0.0
  0
POINT
  5
183A
330
16F0
100
AcDbEntity
  8
DEFPOINTS
 62
     0
100
AcDbPoint
 10
-7.715277446867505
 20
107.6315842060656
 30
0.0
  0
ENDBLK
  5
16FB
330
16F0
100
AcDbEntity
  8
0
100
AcDbBlockEnd
  0
BLOCK
  5
171A
330
1710
100
AcDbEntity
  8
0
100
AcDbBlockBegin
  2
*D15
 70
     1
 10
0.0
 20
0.0
 30
0.0
  3
*D15
  1

  0
LINE
  5
1803
330
1710
100
AcDbEntity
  8
SK2
 62
     0
370
    -2
100
AcDbLine
 10
6.067189681201266
 20
106.6315842060656
 30
0.0
 11
6.067189681201266
 21
57.0343007934364
 31
0.0
  0
LINE
  5
1804
330
1710
100
AcDbEntity
  8
SK2
 62
     0
370
    -2
100
AcDbLine
 10
176.0671896812011
 20
100.2316242060657
 30
0.0
 11
176.0671896812011
 21
57.0343007934364
 31
0.0
  0
LINE
  5
1805
330
1710
100
AcDbEntity
  8
SK2
 62
     0
370
    -2
100
AcDbLine
 10
11.06718968120127
 20
58.03430079343638
 30
0.0
 11
171.0671896812011
 21
58.03430079343638
 31
0.0
  0
SOLID
  5
1806
330
1710
100
AcDbEntity
  8
SK2
 62
     0
100
AcDbTrace
 10
11.06718968120127
 20
58.86763412676971
 30
0.0
 11
11.06718968120127
 21
57.20096746010304
 31
0.0
 12
6.067189681201266
 22
58.03430079343638
 32
0.0
 13
6.067189681201266
 23
58.03430079343638
 33
0.0
  0
SOLID
  5
1807
330
1710
100
AcDbEntity
  8
SK2
 62
     0
100
AcDbTrace
 10
171.0671896812011
 20
58.86763412676971
 30
0.0
 11
171.0671896812011
 21
57.20096746010304
 31
0.0
 12
176.0671896812011
 22
58.03430079343638
 32
0.0
 13
176.0671896812011
 23
58.03430079343638
 33
0.0
  0
MTEXT
  5
1808
330
1710
100
AcDbEntity
  8
SK2
 62
     0
100
AcDbMText
 10
91.06718968120121
 20
61.53430079343639
 30
0.0
 40
5.0
 41
0.0
 71
     5
 72
     1
  1
\A1;170
 73
     1
 44
1.0
1001
ACAD
1000
MTEXTBEGIN
1070
    73
1070
     1
1070
    44
1040
1.0
1070
    74
1070
     0
1000
MTEXTEND
  0
POINT
  5
1809
330
1710
100
AcDbEntity
  8
DEFPOINTS
 62
     0
100
AcDbPoint
 10
6.067189681201266
 20
107.6315842060656
 30
0.0
  0
POINT
  5
180A
330
1710
100
AcDbEntity
  8
DEFPOINTS
 62
     0
100
AcDbPoint
 10
176.0671896812011
 20
101.2316242060657
 30
0.0
  0
POINT
  5
180B
330
1710
100
AcDbEntity
  8
DEFPOINTS
 62
     0
100
AcDbPoint
 10
176.0671896812011
 20
58.03430079343638
 30
0.0
  0
ENDBLK
  5
171B
330
1710
100
AcDbEntity
  8
0
100
AcDbBlockEnd
  0
BLOCK
  5
1727
330
171D
100
AcDbEntity
  8
0
100
AcDbBlockBegin
  2
*D16
 70
     1
 10
0.0
 20
0.0
 30
0.0
  3
*D16
  1

  0
LINE
  5
17CC
330
171D
100
AcDbEntity
  8
2
 62
     0
370
    -2
100
AcDbLine
 10
176.0671896812011
 20
99.23162420606573
 30
0.0
 11
176.0671896812011
 21
86.93925769425936
 31
0.0
  0
LINE
  5
17CD
330
171D
100
AcDbEntity
  8
2
 62
     0
370
    -2
100
AcDbLine
 10
146.0687433894385
 20
99.68110198134802
 30
0.0
 11
146.0687433894385
 21
86.93925769425936
 31
0.0
  0
LINE
  5
17CE
330
171D
100
AcDbEntity
  8
2
 62
     0
370
    -2
100
AcDbLine
 10
171.0671896812011
 20
87.93925769425937
 30
0.0
 11
151.0687433894385
 21
87.93925769425937
 31
0.0
  0
SOLID
  5
17CF
330
171D
100
AcDbEntity
  8
2
 62
     0
100
AcDbTrace
 10
171.0671896812011
 20
88.77259102759268
 30
0.0
 11
171.0671896812011
 21
87.10592436092603
 31
0.0
 12
176.0671896812011
 22
87.93925769425937
 32
0.0
 13
176.0671896812011
 23
87.93925769425937
 33
0.0
  0
SOLID
  5
17D0
330
171D
100
AcDbEntity
  8
2
 62
     0
100
AcDbTrace
 10
151.0687433894385
 20
88.77259102759268
 30
0.0
 11
151.0687433894385
 21
87.10592436092603
 31
0.0
 12
146.0687433894385
 22
87.93925769425937
 32
0.0
 13
146.0687433894385
 23
87.93925769425937
 33
0.0
  0
MTEXT
  5
17D1
330
171D
100
AcDbEntity
  8
2
 62
     0
100
AcDbMText
 10
161.0679665353198
 20
91.43925769425935
 30
0.0
 40
5.0
 41
0.0
 71
     5
 72
     1
  1
\A1;30
 73
     1
 44
1.0
1001
ACAD
1000
MTEXTBEGIN
1070
    73
1070
     1
1070
    44
1040
1.0
1070
    74
1070
     0
1000
MTEXTEND
  0
POINT
  5
17D2
330
171D
100
AcDbEntity
  8
DEFPOINTS
 62
     0
100
AcDbPoint
 10
176.0671896812011
 20
100.2316242060657
 30
0.0
  0
POINT
  5
17D3
330
171D
100
AcDbEntity
  8
DEFPOINTS
 62
     0
100
AcDbPoint
 10
146.0687433894385
 20
100.681101981348
 30
0.0
  0
POINT
  5
17D4
330
171D
100
AcDbEntity
  8
DEFPOINTS
 62
     0
100
AcDbPoint
 10
146.0687433894385
 20
87.93925769425937
 30
0.0
  0
ENDBLK
  5
1728
330
171D
100
AcDbEntity
  8
0
100
AcDbBlockEnd
  0
BLOCK
  5
173D
330
1733
100
AcDbEntity
  8
0
100
AcDbBlockBegin
  2
*D17
 70
     1
 10
0.0
 20
0.0
 30
0.0
  3
*D17
  1

  0
LINE
  5
17B8
330
1733
100
AcDbEntity
  8
2
 62
     0
370
    -2
100
AcDbLine
 10
164.6333473932011
 20
132.4085722060656
 30
0.0
 11
209.5450286076359
 21
132.4085722060656
 31
0.0
  0
LINE
  5
17B9
330
1733
100
AcDbEntity
  8
2
 62
     0
370
    -2
100
AcDbLine
 10
180.0051502420149
 20
100.4085722060657
 30
0.0
 11
209.5450286076359
 21
100.4085722060657
 31
0.0
  0
LINE
  5
17BA
330
1733
100
AcDbEntity
  8
2
 62
     0
370
    -2
100
AcDbLine
 10
208.5450286076359
 20
127.4085722060656
 30
0.0
 11
208.5450286076359
 21
105.4085722060656
 31
0.0
  0
SOLID
  5
17BB
330
1733
100
AcDbEntity
  8
2
 62
     0
100
AcDbTrace
 10
207.7116952743025
 20
127.4085722060656
 30
0.0
 11
209.3783619409693
 21
127.4085722060656
 31
0.0
 12
208.5450286076359
 22
132.4085722060656
 32
0.0
 13
208.5450286076359
 23
132.4085722060656
 33
0.0
  0
SOLID
  5
17BC
330
1733
100
AcDbEntity
  8
2
 62
     0
100
AcDbTrace
 10
207.7116952743025
 20
105.4085722060656
 30
0.0
 11
209.3783619409693
 21
105.4085722060656
 31
0.0
 12
208.5450286076359
 22
100.4085722060657
 32
0.0
 13
208.5450286076359
 23
100.4085722060657
 33
0.0
  0
MTEXT
  5
17BD
330
1733
100
AcDbEntity
  8
2
 62
     0
100
AcDbMText
 10
205.0450286076359
 20
116.4085722060657
 30
0.0
 40
5.0
 41
0.0
 71
     5
 72
     1
  1
\A1;32
 11
0.0000000000000001
 21
1.0
 31
0.0
 73
     1
 44
1.0
1001
ACAD
1000
MTEXTBEGIN
1070
    73
1070
     1
1070
    44
1040
1.0
1070
    74
1070
     0
1000
MTEXTEND
  0
POINT
  5
17BE
330
1733
100
AcDbEntity
  8
DEFPOINTS
 62
     0
100
AcDbPoint
 10
163.6333473932011
 20
132.4085722060656
 30
0.0
  0
POINT
  5
17BF
330
1733
100
AcDbEntity
  8
DEFPOINTS
 62
     0
100
AcDbPoint
 10
179.0051502420149
 20
100.4085722060657
 30
0.0
  0
POINT
  5
17C0
330
1733
100
AcDbEntity
  8
DEFPOINTS
 62
     0
100
AcDbPoint
 10
208.5450286076359
 20
100.4085722060657
 30
0.0
  0
ENDBLK
  5
173E
330
1733
100
AcDbEntity
  8
0
100
AcDbBlockEnd
  0
BLOCK
  5
175D
330
1751
100
AcDbEntity
  8
0
100
AcDbBlockBegin
  2
*D18
 70
     1
 10
0.0
 20
0.0
 30
0.0
  3
*D18
  1

  0
LINE
  5
17C1
330
1751
100
AcDbEntity
  8
2
 62
     0
370
    -2
100
AcDbLine
 10
181.0051502420149
 20
100.4085722060657
 30
0.0
 11
197.8866289156691
 21
100.4085722060657
 31
0.0
  0
LINE
  5
17C2
330
1751
100
AcDbEntity
  8
2
 62
     0
370
    -2
100
AcDbLine
 10
176.0671896812011
 20
119.8772282060657
 30
0.0
 11
176.0671896812011
 21
122.2280114405337
 31
0.0
  0
ARC
  5
17C3
330
1751
100
AcDbEntity
  8
2
 62
     0
370
    -2
100
AcDbCircle
 10
176.0671896812011
 20
100.4085722060657
 30
0.0
 40
20.81943923446804
100
AcDbArc
 50
13.79344888336907
 51
76.20655111663094
  0
SOLID
  5
17C4
330
1751
100
AcDbEntity
  8
2
 62
     0
100
AcDbTrace
 10
197.1135320056131
 20
105.4724599844647
 30
0.0
 11
195.4589249915409
 21
105.2723265121006
 31
0.0
 12
196.8866289156692
 22
100.4085722060657
 32
0.0
 13
196.8866289156692
 23
100.4085722060657
 33
0.0
  0
SOLID
  5
17C5
330
1751
100
AcDbEntity
  8
2
 62
     0
100
AcDbTrace
 10
180.9309439872361
 20
119.8003075164054
 30
0.0
 11
181.1310774596002
 21
121.4549145304776
 31
0.0
 12
176.0671896812011
 22
121.2280114405337
 32
0.0
 13
176.0671896812011
 23
121.2280114405337
 33
0.0
  0
MTEXT
  5
17C6
330
1751
100
AcDbEntity
  8
2
 62
     0
100
AcDbMText
 10
193.2636300785476
 20
117.6050126034122
 30
0.0
 40
5.0
 41
0.0
 71
     5
 72
     1
  1
\A1;90°
 11
0.7071067811865476
 21
-0.7071067811865475
 31
0.0
 73
     1
 44
1.0
1001
ACAD
1000
MTEXTBEGIN
1070
    73
1070
     1
1070
    44
1040
1.0
1070
    74
1070
     0
1000
MTEXTEND
  0
POINT
  5
17C7
330
1751
100
AcDbEntity
  8
DEFPOINTS
 62
     0
100
AcDbPoint
 10
194.0973529507969
 20
110.8182918232997
 30
0.0
  0
POINT
  5
17C8
330
1751
100
AcDbEntity
  8
DEFPOINTS
 62
     0
100
AcDbPoint
 10
176.0671896812011
 20
101.7801922060657
 30
0.0
  0
POINT
  5
17C9
330
1751
100
AcDbEntity
  8
DEFPOINTS
 62
     0
100
AcDbPoint
 10
180.0051502420149
 20
100.4085722060657
 30
0.0
  0
POINT
  5
17CA
330
1751
100
AcDbEntity
  8
DEFPOINTS
 62
     0
100
AcDbPoint
 10
179.0051502420149
 20
100.4085722060657
 30
0.0
  0
POINT
  5
17CB
330
1751
100
AcDbEntity
  8
DEFPOINTS
 62
     0
100
AcDbPoint
 10
176.0671896812011
 20
118.8772282060657
 30
0.0
  0
ENDBLK
  5
175E
330
1751
100
AcDbEntity
  8
0
100
AcDbBlockEnd
  0
BLOCK
  5
176A
330
1760
100
AcDbEntity
  8
0
100
AcDbBlockBegin
  2
*D19
 70
     1
 10
0.0
 20
0.0
 30
0.0
  3
*D19
  1

  0
LINE
  5
17D5
330
1760
100
AcDbEntity
  8
2
 62
     0
370
    -2
100
AcDbLine
 10
176.0671896812011
 20
99.23162420606573
 30
0.0
 11
176.0671896812011
 21
73.65204040318326
 31
0.0
  0
LINE
  5
17D6
330
1760
100
AcDbEntity
  8
2
 62
     0
370
    -2
100
AcDbLine
 10
133.0671896812011
 20
106.6315842060656
 30
0.0
 11
133.0671896812011
 21
73.65204040318326
 31
0.0
  0
LINE
  5
17D7
330
1760
100
AcDbEntity
  8
2
 62
     0
370
    -2
100
AcDbLine
 10
171.0671896812011
 20
74.65204040318326
 30
0.0
 11
138.0671896812011
 21
74.65204040318326
 31
0.0
  0
SOLID
  5
17D8
330
1760
100
AcDbEntity
  8
2
 62
     0
100
AcDbTrace
 10
171.0671896812011
 20
75.48537373651659
 30
0.0
 11
171.0671896812011
 21
73.81870706984994
 31
0.0
 12
176.0671896812011
 22
74.65204040318326
 32
0.0
 13
176.0671896812011
 23
74.65204040318326
 33
0.0
  0
SOLID
  5
17D9
330
1760
100
AcDbEntity
  8
2
 62
     0
100
AcDbTrace
 10
138.0671896812011
 20
75.48537373651659
 30
0.0
 11
138.0671896812011
 21
73.81870706984994
 31
0.0
 12
133.0671896812011
 22
74.65204040318326
 32
0.0
 13
133.0671896812011
 23
74.65204040318326
 33
0.0
  0
MTEXT
  5
17DA
330
1760
100
AcDbEntity
  8
2
 62
     0
100
AcDbMText
 10
154.5671896812011
 20
78.15204040318326
 30
0.0
 40
5.0
 41
0.0
 71
     5
 72
     1
  1
\A1;43
 73
     1
 44
1.0
1001
ACAD
1000
MTEXTBEGIN
1070
    73
1070
     1
1070
    44
1040
1.0
1070
    74
1070
     0
1000
MTEXTEND
  0
POINT
  5
17DB
330
1760
100
AcDbEntity
  8
DEFPOINTS
 62
     0
100
AcDbPoint
 10
176.0671896812011
 20
100.2316242060657
 30
0.0
  0
POINT
  5
17DC
330
1760
100
AcDbEntity
  8
DEFPOINTS
 62
     0
100
AcDbPoint
 10
133.0671896812011
 20
107.6315842060656
 30
0.0
  0
POINT
  5
17DD
330
1760
100
AcDbEntity
  8
DEFPOINTS
 62
     0
100
AcDbPoint
 10
133.0671896812011
 20
74.65204040318326
 30
0.0
  0
ENDBLK
  5
176B
330
1760
100
AcDbEntity
  8
0
100
AcDbBlockEnd
  0
BLOCK
  5
1778
330
176D
100
AcDbEntity
  8
0
100
AcDbBlockBegin
  2
*D20
 70
     1
 10
0.0
 20
0.0
 30
0.0
  3
*D20
  1

  0
LINE
  5
176E
330
176D
100
AcDbEntity
  8
1
 62
     0
370
    -2
100
AcDbLine
 10
133.0671896812011
 20
98.23162420606571
 30
0.0
 11
133.0671896812011
 21
94.9854411580277
 31
0.0
  0
LINE
  5
176F
330
176D
100
AcDbEntity
  8
1
 62
     0
370
    -2
100
AcDbLine
 10
142.7027850571489
 20
106.6315842060656
 30
0.0
 11
142.7027850571489
 21
94.9854411580277
 31
0.0
  0
LINE
  5
1770
330
176D
100
AcDbEntity
  8
1
 62
     0
370
    -2
100
AcDbLine
 10
128.0671896812011
 20
95.98544115802772
 30
0.0
 11
123.0671896812012
 21
95.98544115802772
 31
0.0
  0
LINE
  5
1771
330
176D
100
AcDbEntity
  8
1
 62
     0
370
    -2
100
AcDbLine
 10
147.7027850571489
 20
95.98544115802772
 30
0.0
 11
152.7027850571489
 21
95.98544115802772
 31
0.0
  0
SOLID
  5
1772
330
176D
100
AcDbEntity
  8
1
 62
     0
100
AcDbTrace
 10
128.0671896812011
 20
96.81877449136102
 30
0.0
 11
128.0671896812011
 21
95.15210782469436
 31
0.0
 12
133.0671896812011
 22
95.98544115802772
 32
0.0
 13
133.0671896812011
 23
95.98544115802772
 33
0.0
  0
SOLID
  5
1773
330
176D
100
AcDbEntity
  8
1
 62
     0
100
AcDbTrace
 10
147.7027850571489
 20
96.81877449136102
 30
0.0
 11
147.7027850571489
 21
95.15210782469436
 31
0.0
 12
142.7027850571489
 22
95.98544115802772
 32
0.0
 13
142.7027850571489
 23
95.98544115802772
 33
0.0
  0
MTEXT
  5
1774
330
176D
100
AcDbEntity
  8
1
 62
     0
100
AcDbMText
 10
137.884987369175
 20
99.48544115802773
 30
0.0
 40
5.0
 41
0.0
 71
     5
 72
     1
  1
\A1;10
 73
     1
 44
1.0
1001
ACAD
1000
MTEXTBEGIN
1070
    73
1070
     1
1070
    44
1040
1.0
1070
    74
1070
     0
1000
MTEXTEND
  0
POINT
  5
1775
330
176D
100
AcDbEntity
  8
DEFPOINTS
 62
     0
100
AcDbPoint
 10
133.0671896812011
 20
99.23162420606573
 30
0.0
  0
POINT
  5
1776
330
176D
100
AcDbEntity
  8
DEFPOINTS
 62
     0
100
AcDbPoint
 10
142.7027850571489
 20
107.6315842060656
 30
0.0
  0
POINT
  5
1777
330
176D
100
AcDbEntity
  8
DEFPOINTS
 62
     0
100
AcDbPoint
 10
142.7027850571489
 20
95.98544115802772
 30
0.0
  0
ENDBLK
  5
1779
330
176D
100
AcDbEntity
  8
0
100
AcDbBlockEnd
  0
ENDSEC
  0
SECTION
  2
ENTITIES
  0
LINE
  5
14B1
330
19
100
AcDbEntity
  8
1
100
AcDbLine
 10
174.7871976812012
 20
100.3173442060657
 30
0.0
 11
175.1529096812012
 21
100.3173442060657
 31
0.0
  0
LINE
  5
14B2
330
19
100
AcDbEntity
  8
1
100
AcDbLine
 10
175.1529096812012
 20
100.3173442060657
 30
0.0
 11
175.5186216812012
 21
100.4087722060657
 31
0.0
  0
LINE
  5
14B3
330
19
100
AcDbEntity
  8
1
100
AcDbLine
 10
175.5186216812012
 20
100.4087722060657
 30
0.0
 11
175.8843336812011
 21
100.5916282060656
 31
0.0
  0
LINE
  5
14B4
330
19
100
AcDbEntity
  8
1
100
AcDbLine
 10
175.8843336812011
 20
100.5916282060656
 30
0.0
 11
176.0671896812011
 21
101.2316242060657
 31
0.0
  0
LINE
  5
14B5
330
19
100
AcDbEntity
  8
1
100
AcDbLine
 10
176.0671896812011
 20
101.2316242060657
 30
0.0
 11
176.0671896812011
 21
101.7801922060657
 31
0.0
  0
LINE
  5
14B6
330
19
100
AcDbEntity
  8
1
100
AcDbLine
 10
175.9757616812011
 20
101.4144802060657
 30
0.0
 11
175.8843336812011
 21
100.5002002060657
 31
0.0
  0
LINE
  5
14B7
330
19
100
AcDbEntity
  8
1
100
AcDbLine
 10
175.8843336812011
 20
100.5002002060657
 30
0.0
 11
175.1529096812012
 21
100.4087722060657
 31
0.0
  0
LINE
  5
14B8
330
19
100
AcDbEntity
  8
1
100
AcDbLine
 10
171.9529296812011
 20
100.5916282060656
 30
0.0
 11
171.9529296812011
 21
100.8316267060656
 31
0.0
  0
LINE
  5
14B9
330
19
100
AcDbEntity
  8
1
100
AcDbLine
 10
171.9529296812011
 20
100.8316267060656
 30
0.0
 11
171.9529296812011
 21
101.3459092060656
 31
0.0
  0
LINE
  5
14BA
330
19
100
AcDbEntity
  8
1
100
AcDbLine
 10
171.9529296812011
 20
101.3459092060656
 30
0.0
 11
171.9529296812011
 21
101.8259062060657
 31
0.0
  0
LINE
  5
14BB
330
19
100
AcDbEntity
  8
1
100
AcDbLine
 10
174.7871976812012
 20
100.3173442060657
 30
0.0
 11
174.9700536812011
 21
100.2868986820657
 31
0.0
  0
LINE
  5
14BC
330
19
100
AcDbEntity
  8
1
100
AcDbLine
 10
174.9700536812011
 20
100.2868986820657
 30
0.0
 11
175.396748157201
 21
100.3173442060657
 31
0.0
  0
LINE
  5
14BD
330
19
100
AcDbEntity
  8
1
100
AcDbLine
 10
175.396748157201
 20
100.3173442060657
 30
0.0
 11
175.8843336812011
 21
100.5916282060656
 31
0.0
  0
LINE
  5
14BE
330
19
100
AcDbEntity
  8
1
100
AcDbLine
 10
175.8843336812011
 20
100.5916282060656
 30
0.0
 11
176.013064305201
 21
100.9810200580657
 31
0.0
  0
LINE
  5
14BF
330
19
100
AcDbEntity
  8
1
100
AcDbLine
 10
176.013064305201
 20
100.9810200580657
 30
0.0
 11
176.0604240092011
 21
101.5126738780657
 31
0.0
  0
LINE
  5
14C0
330
19
100
AcDbEntity
  8
1
100
AcDbLine
 10
176.0604240092011
 20
101.5126738780657
 30
0.0
 11
176.0671896812011
 21
101.7801922060657
 31
0.0
  0
LINE
  5
14C1
330
19
100
AcDbEntity
  8
1
100
AcDbLine
 10
171.9529296812011
 20
100.5916282060656
 30
0.0
 11
171.9529296812011
 21
101.9630482060657
 31
0.0
  0
LINE
  5
14C2
330
19
100
AcDbEntity
  8
1
100
AcDbLine
 10
171.9529296812011
 20
101.9630482060657
 30
0.0
 11
174.7871976812012
 21
100.3173442060657
 31
0.0
  0
LINE
  5
14C3
330
19
100
AcDbEntity
  8
1
100
AcDbLine
 10
175.1529096812012
 20
100.4087722060657
 30
0.0
 11
171.9529296812011
 21
102.2373322060657
 31
0.0
  0
LINE
  5
14C4
330
19
100
AcDbEntity
  8
1
100
AcDbLine
 10
171.9529296812011
 20
101.8259062060657
 30
0.0
 11
171.9529296812011
 21
101.9630482060657
 31
0.0
  0
LINE
  5
14C5
330
19
100
AcDbEntity
  8
1
100
AcDbLine
 10
171.9529296812011
 20
101.9630482060657
 30
0.0
 11
174.7871976812012
 21
100.3173442060657
 31
0.0
  0
LINE
  5
14C6
330
19
100
AcDbEntity
  8
1
100
AcDbLine
 10
145.5033987788137
 20
100.6830562060657
 30
0.0
 11
171.9529296812011
 21
100.5916282060656
 31
0.0
  0
LINE
  5
14C7
330
19
100
AcDbEntity
  8
1
100
AcDbLine
 10
145.5033987788137
 20
100.6830562060657
 30
0.0
 11
171.9529296812011
 21
100.5916282060656
 31
0.0
  0
LINE
  5
14C8
330
19
100
AcDbEntity
  8
1
100
AcDbLine
 10
147.1659760292012
 20
112.7401237060657
 30
0.0
 11
146.9016576812011
 21
113.1172642060657
 31
0.0
  0
LINE
  5
14C9
330
19
100
AcDbEntity
  8
1
100
AcDbLine
 10
146.9016576812011
 20
113.1172642060657
 30
0.0
 11
146.7561043052012
 21
113.5541071900657
 31
0.0
  0
LINE
  5
14CA
330
19
100
AcDbEntity
  8
1
100
AcDbLine
 10
146.7561043052012
 20
113.5541071900657
 30
0.0
 11
146.7120360092011
 21
113.9909501740657
 31
0.0
  0
LINE
  5
14CB
330
19
100
AcDbEntity
  8
1
100
AcDbLine
 10
146.7120360092011
 20
113.9909501740657
 30
0.0
 11
146.8102296812011
 21
114.4886842060657
 31
0.0
  0
LINE
  5
14CC
330
19
100
AcDbEntity
  8
1
100
AcDbLine
 10
147.7618123052011
 20
112.6195301740656
 30
0.0
 11
147.6330816812011
 21
113.0258362060656
 31
0.0
  0
LINE
  5
14CD
330
19
100
AcDbEntity
  8
1
100
AcDbLine
 10
148.2730776812011
 20
118.2372322060657
 30
0.0
 11
146.9016576812011
 21
118.7858002060657
 31
0.0
  0
LINE
  5
14CE
330
19
100
AcDbEntity
  8
1
100
AcDbLine
 10
146.9016576812011
 20
118.7858002060657
 30
0.0
 11
146.6273736812012
 21
119.0900725900656
 31
0.0
  0
LINE
  5
14CF
330
19
100
AcDbEntity
  8
1
100
AcDbLine
 10
146.6273736812012
 20
119.0900725900656
 30
0.0
 11
146.4628032812011
 21
119.4426189580656
 31
0.0
  0
LINE
  5
14D0
330
19
100
AcDbEntity
  8
1
100
AcDbLine
 10
147.678429969201
 20
119.7398513860656
 30
0.0
 11
147.6296988452012
 21
119.4088820260656
 31
0.0
  0
LINE
  5
14D1
330
19
100
AcDbEntity
  8
1
100
AcDbLine
 10
147.6296988452012
 20
119.4088820260656
 30
0.0
 11
147.6673671812011
 21
119.0829412060656
 31
0.0
  0
LINE
  5
14D2
330
19
100
AcDbEntity
  8
1
100
AcDbLine
 10
147.6673671812011
 20
119.0829412060656
 30
0.0
 11
147.7888749932011
 21
118.7722688620657
 31
0.0
  0
LINE
  5
14D3
330
19
100
AcDbEntity
  8
1
100
AcDbLine
 10
147.7888749932011
 20
118.7722688620657
 30
0.0
 11
147.9916622972011
 21
118.4870135020657
 31
0.0
  0
LINE
  5
14D4
330
19
100
AcDbEntity
  8
1
100
AcDbLine
 10
147.9916622972011
 20
118.4870135020657
 30
0.0
 11
148.2730776812011
 21
118.2372322060657
 31
0.0
  0
LINE
  5
14D5
330
19
100
AcDbEntity
  8
1
100
AcDbLine
 10
148.730217681201
 20
119.0600842060656
 30
0.0
 11
147.724509681201
 21
119.6086522060656
 31
0.0
  0
LINE
  5
14D6
330
19
100
AcDbEntity
  8
1
100
AcDbLine
 10
147.6330816812011
 20
113.0258362060656
 30
0.0
 11
147.5789563052011
 21
113.4592963540656
 31
0.0
  0
LINE
  5
14D7
330
19
100
AcDbEntity
  8
1
100
AcDbLine
 10
147.5789563052011
 20
113.4592963540656
 30
0.0
 11
147.626316009201
 21
113.8723680580657
 31
0.0
  0
LINE
  5
14D8
330
19
100
AcDbEntity
  8
1
100
AcDbLine
 10
147.626316009201
 20
113.8723680580657
 30
0.0
 11
147.8159376812012
 21
114.3058282060657
 31
0.0
  0
LINE
  5
14D9
330
19
100
AcDbEntity
  8
1
100
AcDbLine
 10
148.1816496812012
 20
112.0201282060656
 30
0.0
 11
147.7630922972012
 21
112.1915557060656
 31
0.0
  0
LINE
  5
14DA
330
19
100
AcDbEntity
  8
1
100
AcDbLine
 10
147.7630922972012
 20
112.1915557060656
 30
0.0
 11
147.4387971812011
 21
112.4315542060656
 31
0.0
  0
LINE
  5
14DB
330
19
100
AcDbEntity
  8
1
100
AcDbLine
 10
148.3645056812011
 20
111.9287002060657
 30
0.0
 11
147.992028009201
 21
112.2741151900656
 31
0.0
  0
LINE
  5
14DC
330
19
100
AcDbEntity
  8
1
100
AcDbLine
 10
149.1528893252011
 20
110.2609620580657
 30
0.0
 11
148.9633590812012
 21
110.0084379220657
 31
0.0
  0
LINE
  5
14DD
330
19
100
AcDbEntity
  8
1
100
AcDbLine
 10
148.9633590812012
 20
110.0084379220657
 30
0.0
 11
148.7529832532011
 21
109.7784050740656
 31
0.0
  0
LINE
  5
14DE
330
19
100
AcDbEntity
  8
1
100
AcDbLine
 10
148.7529832532011
 20
109.7784050740656
 30
0.0
 11
148.5236818292011
 21
109.5714120820657
 31
0.0
  0
LINE
  5
14DF
330
19
100
AcDbEntity
  8
1
100
AcDbLine
 10
148.5236818292011
 20
109.5714120820657
 30
0.0
 11
148.2771919412012
 21
109.3881903700657
 31
0.0
  0
LINE
  5
14E0
330
19
100
AcDbEntity
  8
1
100
AcDbLine
 10
148.2771919412012
 20
109.3881903700657
 30
0.0
 11
148.015616433201
 21
109.2291970780655
 31
0.0
  0
LINE
  5
14E1
330
19
100
AcDbEntity
  8
1
100
AcDbLine
 10
148.015616433201
 20
109.2291970780655
 30
0.0
 11
147.7406924372011
 21
109.0949807740656
 31
0.0
  0
LINE
  5
14E2
330
19
100
AcDbEntity
  8
1
100
AcDbLine
 10
147.7406924372011
 20
109.0949807740656
 30
0.0
 11
147.454339941201
 21
108.9860900260656
 31
0.0
  0
LINE
  5
14E3
330
19
100
AcDbEntity
  8
1
100
AcDbLine
 10
147.454339941201
 20
108.9860900260656
 30
0.0
 11
147.1585703612011
 21
108.9030734020657
 31
0.0
  0
LINE
  5
14E4
330
19
100
AcDbEntity
  8
1
100
AcDbLine
 10
147.1585703612011
 20
108.9030734020657
 30
0.0
 11
146.8552122572011
 21
108.8465708980657
 31
0.0
  0
LINE
  5
14E5
330
19
100
AcDbEntity
  8
1
100
AcDbLine
 10
146.8552122572011
 20
108.8465708980657
 30
0.0
 11
146.546094189201
 21
108.8170396540657
 31
0.0
  0
LINE
  5
14E6
330
19
100
AcDbEntity
  8
1
100
AcDbLine
 10
147.4387971812011
 20
112.4315542060656
 30
0.0
 11
147.1659760292012
 21
112.7401237060657
 31
0.0
  0
LINE
  5
14E7
330
19
100
AcDbEntity
  8
1
100
AcDbLine
 10
146.0788056812011
 20
112.4772682060656
 30
0.0
 11
146.5359456812012
 21
113.6658322060656
 31
0.0
  0
LINE
  5
14E8
330
19
100
AcDbEntity
  8
1
100
AcDbLine
 10
147.992028009201
 20
112.2741151900656
 30
0.0
 11
147.7618123052011
 21
112.6195301740656
 31
0.0
  0
LINE
  5
14E9
330
19
100
AcDbEntity
  8
1
100
AcDbLine
 10
146.4628032812011
 20
120.2223169420657
 30
0.0
 11
146.6273736812012
 21
120.6143602060657
 31
0.0
  0
LINE
  5
14EA
330
19
100
AcDbEntity
  8
1
100
AcDbLine
 10
148.0668161132012
 20
120.4139500300656
 30
0.0
 11
147.8159376812012
 21
120.0657922060656
 31
0.0
  0
LINE
  5
14EB
330
19
100
AcDbEntity
  8
1
100
AcDbLine
 10
146.4079464812012
 20
119.8258851340656
 30
0.0
 11
146.4628032812011
 21
120.2223169420657
 31
0.0
  0
LINE
  5
14EC
330
19
100
AcDbEntity
  8
1
100
AcDbLine
 10
146.6273736812012
 20
120.6143602060657
 30
0.0
 11
146.8660007612012
 21
120.9615123220657
 31
0.0
  0
LINE
  5
14ED
330
19
100
AcDbEntity
  8
1
100
AcDbLine
 10
146.8660007612012
 20
120.9615123220657
 30
0.0
 11
147.1645131812011
 21
121.1972137060657
 31
0.0
  0
LINE
  5
14EE
330
19
100
AcDbEntity
  8
1
100
AcDbLine
 10
147.1645131812011
 20
121.1972137060657
 30
0.0
 11
147.5144995652011
 21
121.3472470540656
 31
0.0
  0
LINE
  5
14EF
330
19
100
AcDbEntity
  8
1
100
AcDbLine
 10
147.5144995652011
 20
121.3472470540656
 30
0.0
 11
147.907365681201
 21
121.4372122060656
 31
0.0
  0
LINE
  5
14F0
330
19
100
AcDbEntity
  8
1
100
AcDbLine
 10
149.126649489201
 20
120.8879127820656
 30
0.0
 11
148.730949105201
 21
120.8425644940656
 31
0.0
  0
LINE
  5
14F1
330
19
100
AcDbEntity
  8
1
100
AcDbLine
 10
148.730949105201
 20
120.8425644940656
 30
0.0
 11
148.3747456172011
 21
120.6787255180656
 31
0.0
  0
LINE
  5
14F2
330
19
100
AcDbEntity
  8
1
100
AcDbLine
 10
148.3747456172011
 20
120.6787255180656
 30
0.0
 11
148.0668161132012
 21
120.4139500300656
 31
0.0
  0
LINE
  5
14F3
330
19
100
AcDbEntity
  8
1
100
AcDbLine
 10
149.0959296812011
 20
119.7000802060657
 30
0.0
 11
147.9987936812011
 21
120.3400762060657
 31
0.0
  0
LINE
  5
14F4
330
19
100
AcDbEntity
  8
1
100
AcDbLine
 10
146.4628032812011
 20
119.4426189580656
 30
0.0
 11
146.4079464812012
 21
119.8258851340656
 31
0.0
  0
LINE
  5
14F5
330
19
100
AcDbEntity
  8
1
100
AcDbLine
 10
147.8159376812012
 20
120.0657922060656
 30
0.0
 11
147.678429969201
 21
119.7398513860656
 31
0.0
  0
LINE
  5
14F6
330
19
100
AcDbEntity
  8
1
100
AcDbLine
 10
158.334180513201
 20
112.7208323980656
 30
0.0
 11
158.591276049201
 21
112.8956427340656
 31
0.0
  0
LINE
  5
14F7
330
19
100
AcDbEntity
  8
1
100
AcDbLine
 10
158.591276049201
 20
112.8956427340656
 30
0.0
 11
158.8341088172012
 21
113.0891043820656
 31
0.0
  0
LINE
  5
14F8
330
19
100
AcDbEntity
  8
1
100
AcDbLine
 10
158.8341088172012
 20
113.0891043820656
 30
0.0
 11
159.0615816812011
 21
113.3001202060657
 31
0.0
  0
LINE
  5
14F9
330
19
100
AcDbEntity
  8
1
100
AcDbLine
 10
159.0615816812011
 20
113.3001202060657
 30
0.0
 11
159.2725975052011
 21
113.5275930700657
 31
0.0
  0
LINE
  5
14FA
330
19
100
AcDbEntity
  8
1
100
AcDbLine
 10
159.2725975052011
 20
113.5275930700657
 30
0.0
 11
159.4660591532012
 21
113.7704258380656
 31
0.0
  0
LINE
  5
14FB
330
19
100
AcDbEntity
  8
1
100
AcDbLine
 10
159.4660591532012
 20
113.7704258380656
 30
0.0
 11
159.6408694892011
 21
114.0275213740657
 31
0.0
  0
LINE
  5
14FC
330
19
100
AcDbEntity
  8
1
100
AcDbLine
 10
159.6408694892011
 20
114.0275213740657
 30
0.0
 11
159.795931377201
 21
114.2977825420657
 31
0.0
  0
LINE
  5
14FD
330
19
100
AcDbEntity
  8
1
100
AcDbLine
 10
159.795931377201
 20
117.9512454220656
 30
0.0
 11
159.6408694892011
 21
118.2154723420656
 31
0.0
  0
LINE
  5
14FE
330
19
100
AcDbEntity
  8
1
100
AcDbLine
 10
159.6408694892011
 20
118.2154723420656
 30
0.0
 11
159.4660591532012
 21
118.4661679180657
 31
0.0
  0
LINE
  5
14FF
330
19
100
AcDbEntity
  8
1
100
AcDbLine
 10
159.4660591532012
 20
118.4661679180657
 30
0.0
 11
159.2725975052011
 21
118.7023264420656
 31
0.0
  0
LINE
  5
1500
330
19
100
AcDbEntity
  8
1
100
AcDbLine
 10
159.2725975052011
 20
118.7023264420656
 30
0.0
 11
159.0615816812011
 21
118.9229422060657
 31
0.0
  0
LINE
  5
1501
330
19
100
AcDbEntity
  8
1
100
AcDbLine
 10
159.0615816812011
 20
118.9229422060657
 30
0.0
 11
158.8341088172012
 21
119.1271009300657
 31
0.0
  0
LINE
  5
1502
330
19
100
AcDbEntity
  8
1
100
AcDbLine
 10
158.8341088172012
 20
119.1271009300657
 30
0.0
 11
158.591276049201
 21
119.3138883340656
 31
0.0
  0
LINE
  5
1503
330
19
100
AcDbEntity
  8
1
100
AcDbLine
 10
158.591276049201
 20
119.3138883340656
 30
0.0
 11
158.334180513201
 21
119.4822987100656
 31
0.0
  0
LINE
  5
1504
330
19
100
AcDbEntity
  8
1
100
AcDbLine
 10
158.334180513201
 20
119.4822987100656
 30
0.0
 11
158.063919345201
 21
119.6313263500657
 31
0.0
  0
LINE
  5
1505
330
19
100
AcDbEntity
  8
1
100
AcDbLine
 10
158.063919345201
 20
119.6313263500657
 30
0.0
 11
157.781589681201
 21
119.7600569740656
 31
0.0
  0
LINE
  5
1506
330
19
100
AcDbEntity
  8
1
100
AcDbLine
 10
154.6524663812011
 20
119.7282400300656
 30
0.0
 11
154.3662053132011
 21
119.5864352020656
 31
0.0
  0
LINE
  5
1507
330
19
100
AcDbEntity
  8
1
100
AcDbLine
 10
154.3662053132011
 20
119.5864352020656
 30
0.0
 11
154.092561309201
 21
119.4224133700657
 31
0.0
  0
LINE
  5
1508
330
19
100
AcDbEntity
  8
1
100
AcDbLine
 10
154.092561309201
 20
119.4224133700657
 30
0.0
 11
153.8329972172012
 21
119.2374545260657
 31
0.0
  0
LINE
  5
1509
330
19
100
AcDbEntity
  8
1
100
AcDbLine
 10
153.8329972172012
 20
119.2374545260657
 30
0.0
 11
153.5888844572011
 21
119.0325643780656
 31
0.0
  0
LINE
  5
150A
330
19
100
AcDbEntity
  8
1
100
AcDbLine
 10
153.5888844572011
 20
119.0325643780656
 30
0.0
 11
153.361594449201
 21
118.8088400620657
 31
0.0
  0
LINE
  5
150B
330
19
100
AcDbEntity
  8
1
100
AcDbLine
 10
153.361594449201
 20
118.8088400620657
 30
0.0
 11
153.1524071852011
 21
118.5674701420656
 31
0.0
  0
LINE
  5
150C
330
19
100
AcDbEntity
  8
1
100
AcDbLine
 10
153.1524071852011
 20
118.5674701420656
 30
0.0
 11
152.9627855132011
 21
118.3094603260656
 31
0.0
  0
LINE
  5
150D
330
19
100
AcDbEntity
  8
1
100
AcDbLine
 10
152.9627855132011
 20
118.3094603260656
 30
0.0
 11
152.7940094252011
 21
118.0360906060657
 31
0.0
  0
LINE
  5
150E
330
19
100
AcDbEntity
  8
1
100
AcDbLine
 10
152.7476554292011
 20
114.2977825420657
 30
0.0
 11
152.9012544692012
 21
114.0275213740657
 31
0.0
  0
LINE
  5
150F
330
19
100
AcDbEntity
  8
1
100
AcDbLine
 10
152.9012544692012
 20
114.0275213740657
 30
0.0
 11
153.0741448172012
 21
113.7704258380656
 31
0.0
  0
LINE
  5
1510
330
19
100
AcDbEntity
  8
1
100
AcDbLine
 10
153.0741448172012
 20
113.7704258380656
 30
0.0
 11
153.2651379092011
 21
113.5275930700657
 31
0.0
  0
LINE
  5
1511
330
19
100
AcDbEntity
  8
1
100
AcDbLine
 10
153.2651379092011
 20
113.5275930700657
 30
0.0
 11
153.4730451812011
 21
113.3001202060657
 31
0.0
  0
LINE
  5
1512
330
19
100
AcDbEntity
  8
1
100
AcDbLine
 10
153.4730451812011
 20
113.3001202060657
 30
0.0
 11
153.6967694972011
 21
113.0891043820656
 31
0.0
  0
LINE
  5
1513
330
19
100
AcDbEntity
  8
1
100
AcDbLine
 10
153.6967694972011
 20
113.0891043820656
 30
0.0
 11
153.9350308652011
 21
112.8956427340656
 31
0.0
  0
LINE
  5
1514
330
19
100
AcDbEntity
  8
1
100
AcDbLine
 10
153.9350308652011
 20
112.8956427340656
 30
0.0
 11
154.186823577201
 21
112.7208323980656
 31
0.0
  0
LINE
  5
1515
330
19
100
AcDbEntity
  8
1
100
AcDbLine
 10
155.2216056812012
 20
117.3229522060657
 30
0.0
 11
155.2792053212012
 21
117.0723480580657
 31
0.0
  0
LINE
  5
1516
330
19
100
AcDbEntity
  8
1
100
AcDbLine
 10
155.2792053212012
 20
117.0723480580657
 30
0.0
 11
155.255525469201
 21
116.8421323540655
 31
0.0
  0
LINE
  5
1517
330
19
100
AcDbEntity
  8
1
100
AcDbLine
 10
155.255525469201
 20
116.8421323540655
 30
0.0
 11
155.130177681201
 21
116.5915282060657
 31
0.0
  0
LINE
  5
1518
330
19
100
AcDbEntity
  8
1
100
AcDbLine
 10
155.130177681201
 20
116.5915282060657
 30
0.0
 11
155.031984009201
 21
116.4358263220657
 31
0.0
  0
LINE
  5
1519
330
19
100
AcDbEntity
  8
1
100
AcDbLine
 10
155.031984009201
 20
116.4358263220657
 30
0.0
 11
154.8931963052011
 21
116.3206270420657
 31
0.0
  0
LINE
  5
151A
330
19
100
AcDbEntity
  8
1
100
AcDbLine
 10
154.8931963052011
 20
116.3206270420657
 30
0.0
 11
154.673037681201
 21
116.2258162060656
 31
0.0
  0
LINE
  5
151B
330
19
100
AcDbEntity
  8
1
100
AcDbLine
 10
154.673037681201
 20
116.2258162060656
 30
0.0
 11
154.7644656812011
 21
115.7686762060657
 31
0.0
  0
LINE
  5
151C
330
19
100
AcDbEntity
  8
1
100
AcDbLine
 10
154.7644656812011
 20
115.7686762060657
 30
0.0
 11
155.130177681201
 21
115.5858202060657
 31
0.0
  0
LINE
  5
151D
330
19
100
AcDbEntity
  8
1
100
AcDbLine
 10
155.130177681201
 20
115.5858202060657
 30
0.0
 11
155.4958896812011
 21
115.1286802060656
 31
0.0
  0
LINE
  5
151E
330
19
100
AcDbEntity
  8
1
100
AcDbLine
 10
155.4958896812011
 20
115.1286802060656
 30
0.0
 11
155.8902186452012
 21
115.0587377860657
 31
0.0
  0
LINE
  5
151F
330
19
100
AcDbEntity
  8
1
100
AcDbLine
 10
155.8902186452012
 20
115.0587377860657
 30
0.0
 11
156.2501706812011
 21
115.1172517060656
 31
0.0
  0
LINE
  5
1520
330
19
100
AcDbEntity
  8
1
100
AcDbLine
 10
156.2501706812011
 20
115.1172517060656
 30
0.0
 11
156.575928645201
 21
115.2958105900657
 31
0.0
  0
LINE
  5
1521
330
19
100
AcDbEntity
  8
1
100
AcDbLine
 10
156.575928645201
 20
115.2958105900657
 30
0.0
 11
156.867309681201
 21
115.5858202060657
 31
0.0
  0
LINE
  5
1522
330
19
100
AcDbEntity
  8
1
100
AcDbLine
 10
156.867309681201
 20
115.5858202060657
 30
0.0
 11
157.032611505201
 21
115.8981382540656
 31
0.0
  0
LINE
  5
1523
330
19
100
AcDbEntity
  8
1
100
AcDbLine
 10
157.032611505201
 20
115.8981382540656
 30
0.0
 11
157.092588273201
 21
116.2631188300656
 31
0.0
  0
LINE
  5
1524
330
19
100
AcDbEntity
  8
1
100
AcDbLine
 10
157.092588273201
 20
116.2631188300656
 30
0.0
 11
157.0516285292011
 21
116.6456535820656
 31
0.0
  0
LINE
  5
1525
330
19
100
AcDbEntity
  8
1
100
AcDbLine
 10
157.0516285292011
 20
116.6456535820656
 30
0.0
 11
156.9141208172011
 21
117.0106341580656
 31
0.0
  0
LINE
  5
1526
330
19
100
AcDbEntity
  8
1
100
AcDbLine
 10
156.9141208172011
 20
117.0106341580656
 30
0.0
 11
156.6844536812011
 21
117.3229522060657
 31
0.0
  0
LINE
  5
1527
330
19
100
AcDbEntity
  8
1
100
AcDbLine
 10
156.6844536812011
 20
117.3229522060657
 30
0.0
 11
156.044457681201
 21
117.3229522060657
 31
0.0
  0
LINE
  5
1528
330
19
100
AcDbEntity
  8
1
100
AcDbLine
 10
156.044457681201
 20
117.3229522060657
 30
0.0
 11
155.4958896812011
 21
117.5972362060656
 31
0.0
  0
LINE
  5
1529
330
19
100
AcDbEntity
  8
1
100
AcDbLine
 10
157.3244496812011
 20
115.2201082060656
 30
0.0
 11
157.3244496812011
 21
115.3149190420656
 31
0.0
  0
LINE
  5
152A
330
19
100
AcDbEntity
  8
1
100
AcDbLine
 10
157.3244496812011
 20
115.3149190420656
 30
0.0
 11
157.3244496812011
 21
115.4301183220657
 31
0.0
  0
LINE
  5
152B
330
19
100
AcDbEntity
  8
1
100
AcDbLine
 10
157.3244496812011
 20
115.4301183220657
 30
0.0
 11
157.3244496812011
 21
115.5858202060657
 31
0.0
  0
LINE
  5
152C
330
19
100
AcDbEntity
  8
1
100
AcDbLine
 10
157.3244496812011
 20
115.5858202060657
 30
0.0
 11
157.4226433532011
 21
115.8059788300656
 31
0.0
  0
LINE
  5
152D
330
19
100
AcDbEntity
  8
1
100
AcDbLine
 10
157.4226433532011
 20
115.8059788300656
 30
0.0
 11
157.5615224852012
 21
115.9447665340656
 31
0.0
  0
LINE
  5
152E
330
19
100
AcDbEntity
  8
1
100
AcDbLine
 10
157.5615224852012
 20
115.9447665340656
 30
0.0
 11
157.781589681201
 21
116.0429602060657
 31
0.0
  0
LINE
  5
152F
330
19
100
AcDbEntity
  8
1
100
AcDbLine
 10
157.781589681201
 20
116.0429602060657
 30
0.0
 11
157.598733681201
 21
116.1343882060656
 31
0.0
  0
LINE
  5
1530
330
19
100
AcDbEntity
  8
1
100
AcDbLine
 10
157.598733681201
 20
116.1343882060656
 30
0.0
 11
157.6901616812012
 21
116.4086722060656
 31
0.0
  0
LINE
  5
1531
330
19
100
AcDbEntity
  8
1
100
AcDbLine
 10
157.6901616812012
 20
116.4086722060656
 30
0.0
 11
157.531076961201
 21
116.5068658780656
 31
0.0
  0
LINE
  5
1532
330
19
100
AcDbEntity
  8
1
100
AcDbLine
 10
157.531076961201
 20
116.5068658780656
 30
0.0
 11
157.3921978292012
 21
116.6457450100656
 31
0.0
  0
LINE
  5
1533
330
19
100
AcDbEntity
  8
1
100
AcDbLine
 10
157.3921978292012
 20
116.6457450100656
 30
0.0
 11
157.2330216812011
 21
116.8658122060656
 31
0.0
  0
LINE
  5
1534
330
19
100
AcDbEntity
  8
1
100
AcDbLine
 10
157.2330216812011
 20
116.8658122060656
 30
0.0
 11
157.1687477972011
 21
117.0249883540656
 31
0.0
  0
LINE
  5
1535
330
19
100
AcDbEntity
  8
1
100
AcDbLine
 10
157.1687477972011
 20
117.0249883540656
 30
0.0
 11
157.1449765172011
 21
117.1637760580656
 31
0.0
  0
LINE
  5
1536
330
19
100
AcDbEntity
  8
1
100
AcDbLine
 10
157.1449765172011
 20
117.1637760580656
 30
0.0
 11
157.1415936812011
 21
117.3229522060657
 31
0.0
  0
LINE
  5
1537
330
19
100
AcDbEntity
  8
1
100
AcDbLine
 10
157.1415936812011
 20
117.3229522060657
 30
0.0
 11
156.775881681201
 21
117.3229522060657
 31
0.0
  0
LINE
  5
1538
330
19
100
AcDbEntity
  8
1
100
AcDbLine
 10
157.3244496812011
 20
115.1286802060656
 30
0.0
 11
156.867309681201
 21
115.4943922060656
 31
0.0
  0
LINE
  5
1539
330
19
100
AcDbEntity
  8
1
100
AcDbLine
 10
156.2273136812011
 20
113.5744042060657
 30
0.0
 11
156.565780137201
 21
113.5968040660657
 31
0.0
  0
LINE
  5
153A
330
19
100
AcDbEntity
  8
1
100
AcDbLine
 10
156.565780137201
 20
113.5968040660657
 30
0.0
 11
156.893183805201
 21
113.6620836580657
 31
0.0
  0
LINE
  5
153B
330
19
100
AcDbEntity
  8
1
100
AcDbLine
 10
156.893183805201
 20
113.6620836580657
 30
0.0
 11
157.2058675652011
 21
113.7673172860657
 31
0.0
  0
LINE
  5
153C
330
19
100
AcDbEntity
  8
1
100
AcDbLine
 10
157.2058675652011
 20
113.7673172860657
 30
0.0
 11
157.5005400092011
 21
113.9096706820656
 31
0.0
  0
LINE
  5
153D
330
19
100
AcDbEntity
  8
1
100
AcDbLine
 10
157.5005400092011
 20
113.9096706820656
 30
0.0
 11
157.7736354452011
 21
114.0863095780656
 31
0.0
  0
LINE
  5
153E
330
19
100
AcDbEntity
  8
1
100
AcDbLine
 10
157.7736354452011
 20
114.0863095780656
 30
0.0
 11
158.0215881812011
 21
114.2943997060656
 31
0.0
  0
LINE
  5
153F
330
19
100
AcDbEntity
  8
1
100
AcDbLine
 10
158.0215881812011
 20
114.2943997060656
 30
0.0
 11
158.2410153812011
 21
114.5311067980655
 31
0.0
  0
LINE
  5
1540
330
19
100
AcDbEntity
  8
1
100
AcDbLine
 10
158.2410153812011
 20
114.5311067980655
 30
0.0
 11
158.4283513532011
 21
114.7935051580657
 31
0.0
  0
LINE
  5
1541
330
19
100
AcDbEntity
  8
1
100
AcDbLine
 10
158.4283513532011
 20
114.7935051580657
 30
0.0
 11
158.5802132612012
 21
115.0786690900656
 31
0.0
  0
LINE
  5
1542
330
19
100
AcDbEntity
  8
1
100
AcDbLine
 10
158.5802132612012
 20
115.0786690900656
 30
0.0
 11
158.6929439852012
 21
115.3839471820656
 31
0.0
  0
LINE
  5
1543
330
19
100
AcDbEntity
  8
1
100
AcDbLine
 10
158.6929439852012
 20
115.3839471820656
 30
0.0
 11
158.7631606892011
 21
115.7063223100656
 31
0.0
  0
LINE
  5
1544
330
19
100
AcDbEntity
  8
1
100
AcDbLine
 10
158.7631606892011
 20
115.7063223100656
 30
0.0
 11
158.787297681201
 21
116.0429602060657
 31
0.0
  0
LINE
  5
1545
330
19
100
AcDbEntity
  8
1
100
AcDbLine
 10
158.787297681201
 20
116.0429602060657
 30
0.0
 11
158.7631606892011
 21
116.3796895300656
 31
0.0
  0
LINE
  5
1546
330
19
100
AcDbEntity
  8
1
100
AcDbLine
 10
158.7631606892011
 20
116.3796895300656
 30
0.0
 11
158.6929439852012
 21
116.7020646580656
 31
0.0
  0
LINE
  5
1547
330
19
100
AcDbEntity
  8
1
100
AcDbLine
 10
158.6929439852012
 20
116.7020646580656
 30
0.0
 11
158.5802132612012
 21
117.0072513220657
 31
0.0
  0
LINE
  5
1548
330
19
100
AcDbEntity
  8
1
100
AcDbLine
 10
158.5802132612012
 20
117.0072513220657
 30
0.0
 11
158.4283513532011
 21
117.2925066820657
 31
0.0
  0
LINE
  5
1549
330
19
100
AcDbEntity
  8
1
100
AcDbLine
 10
158.4283513532011
 20
117.2925066820657
 30
0.0
 11
158.2410153812011
 21
117.5549050420656
 31
0.0
  0
LINE
  5
154A
330
19
100
AcDbEntity
  8
1
100
AcDbLine
 10
158.2410153812011
 20
117.5549050420656
 30
0.0
 11
158.0215881812011
 21
117.7915207060657
 31
0.0
  0
LINE
  5
154B
330
19
100
AcDbEntity
  8
1
100
AcDbLine
 10
158.0215881812011
 20
117.7915207060657
 30
0.0
 11
157.7736354452011
 21
117.9996108340656
 31
0.0
  0
LINE
  5
154C
330
19
100
AcDbEntity
  8
1
100
AcDbLine
 10
157.7736354452011
 20
117.9996108340656
 30
0.0
 11
157.5005400092011
 21
118.1763411580656
 31
0.0
  0
LINE
  5
154D
330
19
100
AcDbEntity
  8
1
100
AcDbLine
 10
157.5005400092011
 20
118.1763411580656
 30
0.0
 11
157.2058675652011
 21
118.3186945540656
 31
0.0
  0
LINE
  5
154E
330
19
100
AcDbEntity
  8
1
100
AcDbLine
 10
157.2058675652011
 20
118.3186945540656
 30
0.0
 11
156.893183805201
 21
118.4239281820656
 31
0.0
  0
LINE
  5
154F
330
19
100
AcDbEntity
  8
1
100
AcDbLine
 10
156.893183805201
 20
118.4239281820656
 30
0.0
 11
156.565780137201
 21
118.4891163460656
 31
0.0
  0
LINE
  5
1550
330
19
100
AcDbEntity
  8
1
100
AcDbLine
 10
156.565780137201
 20
118.4891163460656
 30
0.0
 11
156.2273136812011
 21
118.5115162060656
 31
0.0
  0
LINE
  5
1551
330
19
100
AcDbEntity
  8
1
100
AcDbLine
 10
156.2273136812011
 20
118.5115162060656
 30
0.0
 11
155.8906757852011
 21
118.4891163460656
 31
0.0
  0
LINE
  5
1552
330
19
100
AcDbEntity
  8
1
100
AcDbLine
 10
155.8906757852011
 20
118.4891163460656
 30
0.0
 11
155.5683006572011
 21
118.4239281820656
 31
0.0
  0
LINE
  5
1553
330
19
100
AcDbEntity
  8
1
100
AcDbLine
 10
155.5683006572011
 20
118.4239281820656
 30
0.0
 11
155.2630225652011
 21
118.3186945540656
 31
0.0
  0
LINE
  5
1554
330
19
100
AcDbEntity
  8
1
100
AcDbLine
 10
155.2630225652011
 20
118.3186945540656
 30
0.0
 11
154.9778586332012
 21
118.1763411580656
 31
0.0
  0
LINE
  5
1555
330
19
100
AcDbEntity
  8
1
100
AcDbLine
 10
154.9778586332012
 20
118.1763411580656
 30
0.0
 11
154.7154602732012
 21
117.9996108340656
 31
0.0
  0
LINE
  5
1556
330
19
100
AcDbEntity
  8
1
100
AcDbLine
 10
154.7154602732012
 20
117.9996108340656
 30
0.0
 11
154.478753181201
 21
117.7915207060657
 31
0.0
  0
LINE
  5
1557
330
19
100
AcDbEntity
  8
1
100
AcDbLine
 10
154.478753181201
 20
117.7915207060657
 30
0.0
 11
154.2706630532012
 21
117.5549050420656
 31
0.0
  0
LINE
  5
1558
330
19
100
AcDbEntity
  8
1
100
AcDbLine
 10
154.2706630532012
 20
117.5549050420656
 30
0.0
 11
154.0940241572011
 21
117.2925066820657
 31
0.0
  0
LINE
  5
1559
330
19
100
AcDbEntity
  8
1
100
AcDbLine
 10
154.0940241572011
 20
117.2925066820657
 30
0.0
 11
153.9516707612011
 21
117.0072513220657
 31
0.0
  0
LINE
  5
155A
330
19
100
AcDbEntity
  8
1
100
AcDbLine
 10
153.9516707612011
 20
117.0072513220657
 30
0.0
 11
153.846437133201
 21
116.7020646580656
 31
0.0
  0
LINE
  5
155B
330
19
100
AcDbEntity
  8
1
100
AcDbLine
 10
153.846437133201
 20
116.7020646580656
 30
0.0
 11
153.7811575412011
 21
116.3796895300656
 31
0.0
  0
LINE
  5
155C
330
19
100
AcDbEntity
  8
1
100
AcDbLine
 10
153.7811575412011
 20
116.3796895300656
 30
0.0
 11
153.7587576812011
 21
116.0429602060657
 31
0.0
  0
LINE
  5
155D
330
19
100
AcDbEntity
  8
1
100
AcDbLine
 10
153.7587576812011
 20
116.0429602060657
 30
0.0
 11
153.7811575412011
 21
115.7063223100656
 31
0.0
  0
LINE
  5
155E
330
19
100
AcDbEntity
  8
1
100
AcDbLine
 10
153.7811575412011
 20
115.7063223100656
 30
0.0
 11
153.846437133201
 21
115.3839471820656
 31
0.0
  0
LINE
  5
155F
330
19
100
AcDbEntity
  8
1
100
AcDbLine
 10
153.846437133201
 20
115.3839471820656
 30
0.0
 11
153.9516707612011
 21
115.0786690900656
 31
0.0
  0
LINE
  5
1560
330
19
100
AcDbEntity
  8
1
100
AcDbLine
 10
153.9516707612011
 20
115.0786690900656
 30
0.0
 11
154.0940241572011
 21
114.7935051580657
 31
0.0
  0
LINE
  5
1561
330
19
100
AcDbEntity
  8
1
100
AcDbLine
 10
154.0940241572011
 20
114.7935051580657
 30
0.0
 11
154.2706630532012
 21
114.5311067980655
 31
0.0
  0
LINE
  5
1562
330
19
100
AcDbEntity
  8
1
100
AcDbLine
 10
154.2706630532012
 20
114.5311067980655
 30
0.0
 11
154.478753181201
 21
114.2943997060656
 31
0.0
  0
LINE
  5
1563
330
19
100
AcDbEntity
  8
1
100
AcDbLine
 10
154.478753181201
 20
114.2943997060656
 30
0.0
 11
154.7154602732012
 21
114.0863095780656
 31
0.0
  0
LINE
  5
1564
330
19
100
AcDbEntity
  8
1
100
AcDbLine
 10
154.7154602732012
 20
114.0863095780656
 30
0.0
 11
154.9778586332012
 21
113.9096706820656
 31
0.0
  0
LINE
  5
1565
330
19
100
AcDbEntity
  8
1
100
AcDbLine
 10
154.9778586332012
 20
113.9096706820656
 30
0.0
 11
155.2630225652011
 21
113.7673172860657
 31
0.0
  0
LINE
  5
1566
330
19
100
AcDbEntity
  8
1
100
AcDbLine
 10
155.2630225652011
 20
113.7673172860657
 30
0.0
 11
155.5683006572011
 21
113.6620836580657
 31
0.0
  0
LINE
  5
1567
330
19
100
AcDbEntity
  8
1
100
AcDbLine
 10
155.5683006572011
 20
113.6620836580657
 30
0.0
 11
155.8906757852011
 21
113.5968040660657
 31
0.0
  0
LINE
  5
1568
330
19
100
AcDbEntity
  8
1
100
AcDbLine
 10
155.8906757852011
 20
113.5968040660657
 30
0.0
 11
156.2273136812011
 21
113.5744042060657
 31
0.0
  0
LINE
  5
1569
330
19
100
AcDbEntity
  8
1
100
AcDbLine
 10
156.3187416812011
 20
114.3972562060657
 30
0.0
 11
156.6978021692011
 21
114.4405016500656
 31
0.0
  0
LINE
  5
156A
330
19
100
AcDbEntity
  8
1
100
AcDbLine
 10
156.6978021692011
 20
114.4405016500656
 30
0.0
 11
157.0448628572011
 21
114.5635637380655
 31
0.0
  0
LINE
  5
156B
330
19
100
AcDbEntity
  8
1
100
AcDbLine
 10
157.0448628572011
 20
114.5635637380655
 30
0.0
 11
157.3503238052011
 21
114.7571168140656
 31
0.0
  0
LINE
  5
156C
330
19
100
AcDbEntity
  8
1
100
AcDbLine
 10
157.3503238052011
 20
114.7571168140656
 30
0.0
 11
157.6045850732011
 21
115.0113780820656
 31
0.0
  0
LINE
  5
156D
330
19
100
AcDbEntity
  8
1
100
AcDbLine
 10
157.6045850732011
 20
115.0113780820656
 30
0.0
 11
157.7981381492011
 21
115.3169304580657
 31
0.0
  0
LINE
  5
156E
330
19
100
AcDbEntity
  8
1
100
AcDbLine
 10
157.7981381492011
 20
115.3169304580657
 30
0.0
 11
157.9212916652012
 21
115.6638997180656
 31
0.0
  0
LINE
  5
156F
330
19
100
AcDbEntity
  8
1
100
AcDbLine
 10
157.9212916652012
 20
115.6638997180656
 30
0.0
 11
157.9644456812012
 21
116.0429602060657
 31
0.0
  0
LINE
  5
1570
330
19
100
AcDbEntity
  8
1
100
AcDbLine
 10
157.9644456812012
 20
116.0429602060657
 30
0.0
 11
157.9212916652012
 21
116.4220206940656
 31
0.0
  0
LINE
  5
1571
330
19
100
AcDbEntity
  8
1
100
AcDbLine
 10
157.9212916652012
 20
116.4220206940656
 30
0.0
 11
157.7981381492011
 21
116.7690813820657
 31
0.0
  0
LINE
  5
1572
330
19
100
AcDbEntity
  8
1
100
AcDbLine
 10
157.7981381492011
 20
116.7690813820657
 30
0.0
 11
157.6045850732011
 21
117.0745423300656
 31
0.0
  0
LINE
  5
1573
330
19
100
AcDbEntity
  8
1
100
AcDbLine
 10
157.6045850732011
 20
117.0745423300656
 30
0.0
 11
157.3503238052011
 21
117.3288035980656
 31
0.0
  0
LINE
  5
1574
330
19
100
AcDbEntity
  8
1
100
AcDbLine
 10
157.3503238052011
 20
117.3288035980656
 30
0.0
 11
157.0448628572011
 21
117.5223566740656
 31
0.0
  0
LINE
  5
1575
330
19
100
AcDbEntity
  8
1
100
AcDbLine
 10
157.0448628572011
 20
117.5223566740656
 30
0.0
 11
156.6978021692011
 21
117.6455101900656
 31
0.0
  0
LINE
  5
1576
330
19
100
AcDbEntity
  8
1
100
AcDbLine
 10
156.6978021692011
 20
117.6455101900656
 30
0.0
 11
156.3187416812011
 21
117.6886642060656
 31
0.0
  0
LINE
  5
1577
330
19
100
AcDbEntity
  8
1
100
AcDbLine
 10
156.3187416812011
 20
117.6886642060656
 30
0.0
 11
155.9554068092011
 21
117.6554758420656
 31
0.0
  0
LINE
  5
1578
330
19
100
AcDbEntity
  8
1
100
AcDbLine
 10
155.9554068092011
 20
117.6554758420656
 30
0.0
 11
155.6230660292011
 21
117.5601164380656
 31
0.0
  0
LINE
  5
1579
330
19
100
AcDbEntity
  8
1
100
AcDbLine
 10
155.6230660292011
 20
117.5601164380656
 30
0.0
 11
155.3272050212011
 21
117.4090773820656
 31
0.0
  0
LINE
  5
157A
330
19
100
AcDbEntity
  8
1
100
AcDbLine
 10
155.3272050212011
 20
117.4090773820656
 30
0.0
 11
155.0730351812012
 21
117.2086672060656
 31
0.0
  0
LINE
  5
157B
330
19
100
AcDbEntity
  8
1
100
AcDbLine
 10
155.0730351812012
 20
117.2086672060656
 30
0.0
 11
154.866133617201
 21
116.9654687260656
 31
0.0
  0
LINE
  5
157C
330
19
100
AcDbEntity
  8
1
100
AcDbLine
 10
154.866133617201
 20
116.9654687260656
 30
0.0
 11
154.711620297201
 21
116.6857904740655
 31
0.0
  0
LINE
  5
157D
330
19
100
AcDbEntity
  8
1
100
AcDbLine
 10
154.711620297201
 20
116.6857904740655
 30
0.0
 11
154.6150723292011
 21
116.3762152660656
 31
0.0
  0
LINE
  5
157E
330
19
100
AcDbEntity
  8
1
100
AcDbLine
 10
154.6150723292011
 20
116.3762152660656
 30
0.0
 11
154.5816096812012
 21
116.0429602060657
 31
0.0
  0
LINE
  5
157F
330
19
100
AcDbEntity
  8
1
100
AcDbLine
 10
154.5816096812012
 20
116.0429602060657
 30
0.0
 11
154.6150723292011
 21
115.7097965740656
 31
0.0
  0
LINE
  5
1580
330
19
100
AcDbEntity
  8
1
100
AcDbLine
 10
154.6150723292011
 20
115.7097965740656
 30
0.0
 11
154.711620297201
 21
115.4001299380656
 31
0.0
  0
LINE
  5
1581
330
19
100
AcDbEntity
  8
1
100
AcDbLine
 10
154.711620297201
 20
115.4001299380656
 30
0.0
 11
154.866133617201
 21
115.1204516860656
 31
0.0
  0
LINE
  5
1582
330
19
100
AcDbEntity
  8
1
100
AcDbLine
 10
154.866133617201
 20
115.1204516860656
 30
0.0
 11
155.0730351812012
 21
114.8772532060656
 31
0.0
  0
LINE
  5
1583
330
19
100
AcDbEntity
  8
1
100
AcDbLine
 10
155.0730351812012
 20
114.8772532060656
 30
0.0
 11
155.3272050212011
 21
114.6769344580657
 31
0.0
  0
LINE
  5
1584
330
19
100
AcDbEntity
  8
1
100
AcDbLine
 10
155.3272050212011
 20
114.6769344580657
 30
0.0
 11
155.6230660292011
 21
114.5258039740656
 31
0.0
  0
LINE
  5
1585
330
19
100
AcDbEntity
  8
1
100
AcDbLine
 10
155.6230660292011
 20
114.5258039740656
 30
0.0
 11
155.9554068092011
 21
114.4305359980656
 31
0.0
  0
LINE
  5
1586
330
19
100
AcDbEntity
  8
1
100
AcDbLine
 10
155.9554068092011
 20
114.4305359980656
 30
0.0
 11
156.3187416812011
 21
114.3972562060657
 31
0.0
  0
LINE
  5
1587
330
19
100
AcDbEntity
  8
1
100
AcDbLine
 10
155.4958896812011
 20
115.2201082060656
 30
0.0
 11
155.4044616812011
 21
114.8543962060657
 31
0.0
  0
LINE
  5
1588
330
19
100
AcDbEntity
  8
1
100
AcDbLine
 10
155.4044616812011
 20
114.8543962060657
 30
0.0
 11
155.8616016812011
 21
114.4886842060657
 31
0.0
  0
LINE
  5
1589
330
19
100
AcDbEntity
  8
1
100
AcDbLine
 10
155.8616016812011
 20
114.4886842060657
 30
0.0
 11
156.135885681201
 21
114.8543962060657
 31
0.0
  0
LINE
  5
158A
330
19
100
AcDbEntity
  8
1
100
AcDbLine
 10
156.135885681201
 20
114.8543962060657
 30
0.0
 11
156.5015976812012
 21
114.9458242060656
 31
0.0
  0
LINE
  5
158B
330
19
100
AcDbEntity
  8
1
100
AcDbLine
 10
156.5015976812012
 20
114.9458242060656
 30
0.0
 11
157.050165681201
 21
114.6715402060657
 31
0.0
  0
LINE
  5
158C
330
19
100
AcDbEntity
  8
1
100
AcDbLine
 10
157.050165681201
 20
114.6715402060657
 30
0.0
 11
157.3244496812011
 21
114.8543962060657
 31
0.0
  0
LINE
  5
158D
330
19
100
AcDbEntity
  8
1
100
AcDbLine
 10
157.3244496812011
 20
114.8543962060657
 30
0.0
 11
157.3244496812011
 21
115.2201082060656
 31
0.0
  0
LINE
  5
158E
330
19
100
AcDbEntity
  8
1
100
AcDbLine
 10
152.6475417692011
 20
117.7484581180656
 30
0.0
 11
152.5245711092011
 21
117.4475685700656
 31
0.0
  0
LINE
  5
158F
330
19
100
AcDbEntity
  8
1
100
AcDbLine
 10
152.5245711092011
 20
117.4475685700656
 30
0.0
 11
152.4265602932011
 21
117.1346105260656
 31
0.0
  0
LINE
  5
1590
330
19
100
AcDbEntity
  8
1
100
AcDbLine
 10
152.4265602932011
 20
117.1346105260656
 30
0.0
 11
152.354880741201
 21
116.8106811220657
 31
0.0
  0
LINE
  5
1591
330
19
100
AcDbEntity
  8
1
100
AcDbLine
 10
152.354880741201
 20
116.8106811220657
 30
0.0
 11
152.3109038732011
 21
116.4768774940657
 31
0.0
  0
LINE
  5
1592
330
19
100
AcDbEntity
  8
1
100
AcDbLine
 10
152.3109038732011
 20
116.4768774940657
 30
0.0
 11
152.2959096812011
 21
116.1343882060656
 31
0.0
  0
LINE
  5
1593
330
19
100
AcDbEntity
  8
1
100
AcDbLine
 10
152.2959096812011
 20
116.1343882060656
 30
0.0
 11
152.3094410252012
 21
115.8081731020657
 31
0.0
  0
LINE
  5
1594
330
19
100
AcDbEntity
  8
1
100
AcDbLine
 10
152.3094410252012
 20
115.8081731020657
 30
0.0
 11
152.3492122052011
 21
115.4885408140656
 31
0.0
  0
LINE
  5
1595
330
19
100
AcDbEntity
  8
1
100
AcDbLine
 10
152.3492122052011
 20
115.4885408140656
 30
0.0
 11
152.4141260852011
 21
115.1765884780656
 31
0.0
  0
LINE
  5
1596
330
19
100
AcDbEntity
  8
1
100
AcDbLine
 10
152.4141260852011
 20
115.1765884780656
 30
0.0
 11
152.5029026732012
 21
114.8734132300657
 31
0.0
  0
LINE
  5
1597
330
19
100
AcDbEntity
  8
1
100
AcDbLine
 10
152.5029026732012
 20
114.8734132300657
 30
0.0
 11
152.6145362612012
 21
114.5801122060657
 31
0.0
  0
LINE
  5
1598
330
19
100
AcDbEntity
  8
1
100
AcDbLine
 10
152.7940094252011
 20
118.0360906060657
 30
0.0
 11
152.6475417692011
 21
117.7484581180656
 31
0.0
  0
LINE
  5
1599
330
19
100
AcDbEntity
  8
1
100
AcDbLine
 10
152.6145362612012
 20
114.5801122060657
 30
0.0
 11
152.7476554292011
 21
114.2977825420657
 31
0.0
  0
LINE
  5
159A
330
19
100
AcDbEntity
  8
1
100
AcDbLine
 10
156.2273136812011
 20
112.1115562060657
 30
0.0
 11
156.5535287852011
 21
112.1250875500656
 31
0.0
  0
LINE
  5
159B
330
19
100
AcDbEntity
  8
1
100
AcDbLine
 10
156.5535287852011
 20
112.1250875500656
 30
0.0
 11
156.8731610732011
 21
112.1649501580657
 31
0.0
  0
LINE
  5
159C
330
19
100
AcDbEntity
  8
1
100
AcDbLine
 10
156.8731610732011
 20
112.1649501580657
 30
0.0
 11
157.1851134092011
 21
112.2300468940657
 31
0.0
  0
LINE
  5
159D
330
19
100
AcDbEntity
  8
1
100
AcDbLine
 10
157.1851134092011
 20
112.2300468940657
 30
0.0
 11
157.4882886572011
 21
112.3192806220657
 31
0.0
  0
LINE
  5
159E
330
19
100
AcDbEntity
  8
1
100
AcDbLine
 10
157.4882886572011
 20
112.3192806220657
 30
0.0
 11
157.781589681201
 21
112.4315542060656
 31
0.0
  0
LINE
  5
159F
330
19
100
AcDbEntity
  8
1
100
AcDbLine
 10
157.781589681201
 20
112.4315542060656
 30
0.0
 11
158.063919345201
 21
112.5657705100657
 31
0.0
  0
LINE
  5
15A0
330
19
100
AcDbEntity
  8
1
100
AcDbLine
 10
154.4507762132012
 20
112.5657705100657
 30
0.0
 11
154.725883065201
 21
112.4315542060656
 31
0.0
  0
LINE
  5
15A1
330
19
100
AcDbEntity
  8
1
100
AcDbLine
 10
154.725883065201
 20
112.4315542060656
 30
0.0
 11
155.0109555692011
 21
112.3192806220657
 31
0.0
  0
LINE
  5
15A2
330
19
100
AcDbEntity
  8
1
100
AcDbLine
 10
155.0109555692011
 20
112.3192806220657
 30
0.0
 11
155.3048051612011
 21
112.2300468940657
 31
0.0
  0
LINE
  5
15A3
330
19
100
AcDbEntity
  8
1
100
AcDbLine
 10
155.3048051612011
 20
112.2300468940657
 30
0.0
 11
155.6062432772011
 21
112.1649501580657
 31
0.0
  0
LINE
  5
15A4
330
19
100
AcDbEntity
  8
1
100
AcDbLine
 10
155.6062432772011
 20
112.1649501580657
 30
0.0
 11
155.9141727812011
 21
112.1250875500656
 31
0.0
  0
LINE
  5
15A5
330
19
100
AcDbEntity
  8
1
100
AcDbLine
 10
155.9141727812011
 20
112.1250875500656
 30
0.0
 11
156.2273136812011
 21
112.1115562060657
 31
0.0
  0
LINE
  5
15A6
330
19
100
AcDbEntity
  8
1
100
AcDbLine
 10
159.1530096812011
 20
105.1630282060656
 30
0.0
 11
158.8488287252012
 21
104.9799893500656
 31
0.0
  0
LINE
  5
15A7
330
19
100
AcDbEntity
  8
1
100
AcDbLine
 10
158.8488287252012
 20
104.9799893500656
 30
0.0
 11
158.5329449852011
 21
104.8417502140656
 31
0.0
  0
LINE
  5
15A8
330
19
100
AcDbEntity
  8
1
100
AcDbLine
 10
158.5329449852011
 20
104.8417502140656
 30
0.0
 11
158.2087412972012
 21
104.7473050900657
 31
0.0
  0
LINE
  5
15A9
330
19
100
AcDbEntity
  8
1
100
AcDbLine
 10
158.2087412972012
 20
104.7473050900657
 30
0.0
 11
157.8797833532012
 21
104.6957396980657
 31
0.0
  0
LINE
  5
15AA
330
19
100
AcDbEntity
  8
1
100
AcDbLine
 10
157.8797833532012
 20
104.6957396980657
 30
0.0
 11
157.5496368452011
 21
104.6860483300656
 31
0.0
  0
LINE
  5
15AB
330
19
100
AcDbEntity
  8
1
100
AcDbLine
 10
157.5496368452011
 20
104.6860483300656
 30
0.0
 11
157.2215931812011
 21
104.7173167060657
 31
0.0
  0
LINE
  5
15AC
330
19
100
AcDbEntity
  8
1
100
AcDbLine
 10
157.2215931812011
 20
104.7173167060657
 30
0.0
 11
156.899309481201
 21
104.7886305460657
 31
0.0
  0
LINE
  5
15AD
330
19
100
AcDbEntity
  8
1
100
AcDbLine
 10
156.899309481201
 20
104.7886305460657
 30
0.0
 11
156.5862600092011
 21
104.8988927140656
 31
0.0
  0
LINE
  5
15AE
330
19
100
AcDbEntity
  8
1
100
AcDbLine
 10
156.5862600092011
 20
104.8988927140656
 30
0.0
 11
156.2859190292011
 21
105.0473717860657
 31
0.0
  0
LINE
  5
15AF
330
19
100
AcDbEntity
  8
1
100
AcDbLine
 10
156.2859190292011
 20
105.0473717860657
 30
0.0
 11
156.0017608052012
 21
105.2328791980656
 31
0.0
  0
LINE
  5
15B0
330
19
100
AcDbEntity
  8
1
100
AcDbLine
 10
156.0017608052012
 20
105.2328791980656
 30
0.0
 11
155.7372596012011
 21
105.4545920980657
 31
0.0
  0
LINE
  5
15B1
330
19
100
AcDbEntity
  8
1
100
AcDbLine
 10
155.7372596012011
 20
105.4545920980657
 30
0.0
 11
155.4958896812011
 21
105.7115962060656
 31
0.0
  0
LINE
  5
15B2
330
19
100
AcDbEntity
  8
1
100
AcDbLine
 10
155.4958896812011
 20
105.7115962060656
 30
0.0
 11
155.2775596172011
 21
106.0205314180657
 31
0.0
  0
LINE
  5
15B3
330
19
100
AcDbEntity
  8
1
100
AcDbLine
 10
155.2775596172011
 20
106.0205314180657
 30
0.0
 11
155.103023565201
 21
106.3315694740657
 31
0.0
  0
LINE
  5
15B4
330
19
100
AcDbEntity
  8
1
100
AcDbLine
 10
155.103023565201
 20
106.3315694740657
 30
0.0
 11
154.9735615172012
 21
106.6469960740656
 31
0.0
  0
LINE
  5
15B5
330
19
100
AcDbEntity
  8
1
100
AcDbLine
 10
154.9735615172012
 20
106.6469960740656
 30
0.0
 11
154.8901791812012
 21
106.9687312060656
 31
0.0
  0
LINE
  5
15B6
330
19
100
AcDbEntity
  8
1
100
AcDbLine
 10
154.8901791812012
 20
106.9687312060656
 30
0.0
 11
154.8539736932012
 21
107.2991519980657
 31
0.0
  0
LINE
  5
15B7
330
19
100
AcDbEntity
  8
1
100
AcDbLine
 10
154.8539736932012
 20
107.2991519980657
 30
0.0
 11
154.8659507612011
 21
107.6401784380657
 31
0.0
  0
LINE
  5
15B8
330
19
100
AcDbEntity
  8
1
100
AcDbLine
 10
154.8659507612011
 20
107.6401784380657
 30
0.0
 11
154.9272075212012
 21
107.9940962260656
 31
0.0
  0
LINE
  5
15B9
330
19
100
AcDbEntity
  8
1
100
AcDbLine
 10
154.9272075212012
 20
107.9940962260656
 30
0.0
 11
155.0387496812012
 21
108.3630082060656
 31
0.0
  0
LINE
  5
15BA
330
19
100
AcDbEntity
  8
1
100
AcDbLine
 10
155.0387496812012
 20
108.3630082060656
 30
0.0
 11
155.4044616812011
 21
109.0030042060657
 31
0.0
  0
LINE
  5
15BB
330
19
100
AcDbEntity
  8
1
100
AcDbLine
 10
149.6444976812011
 20
111.3801322060657
 30
0.0
 11
149.4616416812012
 21
110.8315642060656
 31
0.0
  0
LINE
  5
15BC
330
19
100
AcDbEntity
  8
1
100
AcDbLine
 10
149.4616416812012
 20
110.8315642060656
 30
0.0
 11
149.3196539972011
 21
110.5355203420657
 31
0.0
  0
LINE
  5
15BD
330
19
100
AcDbEntity
  8
1
100
AcDbLine
 10
158.063919345201
 20
112.5657705100657
 30
0.0
 11
158.334180513201
 21
112.7208323980656
 31
0.0
  0
LINE
  5
15BE
330
19
100
AcDbEntity
  8
1
100
AcDbLine
 10
154.186823577201
 20
112.7208323980656
 30
0.0
 11
154.4507762132012
 21
112.5657705100657
 31
0.0
  0
LINE
  5
15BF
330
19
100
AcDbEntity
  8
1
100
AcDbLine
 10
168.847760517201
 20
107.3606830420657
 30
0.0
 11
169.2372437972011
 21
107.2930263220657
 31
0.0
  0
LINE
  5
15C0
330
19
100
AcDbEntity
  8
1
100
AcDbLine
 10
169.2372437972011
 20
107.2930263220657
 30
0.0
 11
169.6672296812011
 21
107.2658722060657
 31
0.0
  0
LINE
  5
15C1
330
19
100
AcDbEntity
  8
1
100
AcDbLine
 10
168.8443776812011
 20
107.3573002060657
 30
0.0
 11
169.3929456812012
 21
107.2658722060657
 31
0.0
  0
LINE
  5
15C2
330
19
100
AcDbEntity
  8
1
100
AcDbLine
 10
169.3929456812012
 20
107.2658722060657
 30
0.0
 11
170.5815096812012
 21
107.4487282060657
 31
0.0
  0
LINE
  5
15C3
330
19
100
AcDbEntity
  8
1
100
AcDbLine
 10
169.6672296812011
 20
107.2658722060657
 30
0.0
 11
170.0045075732012
 21
107.2827863860656
 31
0.0
  0
LINE
  5
15C4
330
19
100
AcDbEntity
  8
1
100
AcDbLine
 10
170.0045075732012
 20
107.2827863860656
 30
0.0
 11
170.3297169692012
 21
107.3321575060657
 31
0.0
  0
LINE
  5
15C5
330
19
100
AcDbEntity
  8
1
100
AcDbLine
 10
159.9301476812012
 20
114.5801122060657
 30
0.0
 11
160.0424212652011
 21
114.8734132300657
 31
0.0
  0
LINE
  5
15C6
330
19
100
AcDbEntity
  8
1
100
AcDbLine
 10
160.0424212652011
 20
114.8734132300657
 30
0.0
 11
160.1316549932011
 21
115.1765884780656
 31
0.0
  0
LINE
  5
15C7
330
19
100
AcDbEntity
  8
1
100
AcDbLine
 10
160.1316549932011
 20
115.1765884780656
 30
0.0
 11
160.1967517292011
 21
115.4885408140656
 31
0.0
  0
LINE
  5
15C8
330
19
100
AcDbEntity
  8
1
100
AcDbLine
 10
160.1967517292011
 20
115.4885408140656
 30
0.0
 11
160.236614337201
 21
115.8081731020657
 31
0.0
  0
LINE
  5
15C9
330
19
100
AcDbEntity
  8
1
100
AcDbLine
 10
160.236614337201
 20
115.8081731020657
 30
0.0
 11
160.2501456812011
 21
116.1343882060656
 31
0.0
  0
LINE
  5
15CA
330
19
100
AcDbEntity
  8
1
100
AcDbLine
 10
160.2501456812011
 20
116.1343882060656
 30
0.0
 11
160.236614337201
 21
116.4599633140656
 31
0.0
  0
LINE
  5
15CB
330
19
100
AcDbEntity
  8
1
100
AcDbLine
 10
160.236614337201
 20
116.4599633140656
 30
0.0
 11
160.1967517292011
 21
116.7776756140656
 31
0.0
  0
LINE
  5
15CC
330
19
100
AcDbEntity
  8
1
100
AcDbLine
 10
160.1967517292011
 20
116.7776756140656
 30
0.0
 11
160.1316549932011
 21
117.0866108260656
 31
0.0
  0
LINE
  5
15CD
330
19
100
AcDbEntity
  8
1
100
AcDbLine
 10
160.1316549932011
 20
117.0866108260656
 30
0.0
 11
160.0424212652011
 21
117.3858546700656
 31
0.0
  0
LINE
  5
15CE
330
19
100
AcDbEntity
  8
1
100
AcDbLine
 10
160.0424212652011
 20
117.3858546700656
 30
0.0
 11
159.9301476812012
 21
117.6744014380656
 31
0.0
  0
LINE
  5
15CF
330
19
100
AcDbEntity
  8
1
100
AcDbLine
 10
160.8901416812011
 20
108.2715802060657
 30
0.0
 11
167.2901016812011
 21
107.3573002060657
 31
0.0
  0
LINE
  5
15D0
330
19
100
AcDbEntity
  8
1
100
AcDbLine
 10
167.2901016812011
 20
107.3573002060657
 30
0.0
 11
168.2043816812011
 21
107.5401562060657
 31
0.0
  0
LINE
  5
15D1
330
19
100
AcDbEntity
  8
1
100
AcDbLine
 10
168.4786656812011
 20
107.4487282060657
 30
0.0
 11
168.847760517201
 21
107.3606830420657
 31
0.0
  0
LINE
  5
15D2
330
19
100
AcDbEntity
  8
1
100
AcDbLine
 10
168.2043816812011
 20
107.5401562060657
 30
0.0
 11
168.8443776812011
 21
107.3573002060657
 31
0.0
  0
LINE
  5
15D3
330
19
100
AcDbEntity
  8
1
100
AcDbLine
 10
159.795931377201
 20
114.2977825420657
 30
0.0
 11
159.9301476812012
 21
114.5801122060657
 31
0.0
  0
LINE
  5
15D4
330
19
100
AcDbEntity
  8
1
100
AcDbLine
 10
159.9301476812012
 20
117.6744014380656
 30
0.0
 11
159.795931377201
 21
117.9512454220656
 31
0.0
  0
LINE
  5
15D5
330
19
100
AcDbEntity
  8
1
100
AcDbLine
 10
167.4729576812011
 20
107.3573002060657
 30
0.0
 11
155.5873176812012
 21
109.0030042060657
 31
0.0
  0
LINE
  5
15D6
330
19
100
AcDbEntity
  8
1
100
AcDbLine
 10
162.1701336812011
 20
107.2658722060657
 30
0.0
 11
159.1530096812011
 21
105.1630282060656
 31
0.0
  0
LINE
  5
15D7
330
19
100
AcDbEntity
  8
1
100
AcDbLine
 10
157.4882886572011
 20
119.8675763020656
 30
0.0
 11
157.1851134092011
 21
119.9528786260656
 31
0.0
  0
LINE
  5
15D8
330
19
100
AcDbEntity
  8
1
100
AcDbLine
 10
157.1851134092011
 20
119.9528786260656
 30
0.0
 11
156.8731610732011
 21
120.0149582380656
 31
0.0
  0
LINE
  5
15D9
330
19
100
AcDbEntity
  8
1
100
AcDbLine
 10
156.8731610732011
 20
120.0149582380656
 30
0.0
 11
156.5535287852011
 21
120.0529008580657
 31
0.0
  0
LINE
  5
15DA
330
19
100
AcDbEntity
  8
1
100
AcDbLine
 10
156.5535287852011
 20
120.0529008580657
 30
0.0
 11
156.2273136812011
 21
120.0657922060656
 31
0.0
  0
LINE
  5
15DB
330
19
100
AcDbEntity
  8
1
100
AcDbLine
 10
156.2273136812011
 20
120.0657922060656
 30
0.0
 11
155.8978071692011
 21
120.0515294380656
 31
0.0
  0
LINE
  5
15DC
330
19
100
AcDbEntity
  8
1
100
AcDbLine
 10
155.8978071692011
 20
120.0515294380656
 30
0.0
 11
155.5742434772011
 21
120.0095639860657
 31
0.0
  0
LINE
  5
15DD
330
19
100
AcDbEntity
  8
1
100
AcDbLine
 10
155.5742434772011
 20
120.0095639860657
 30
0.0
 11
155.2579025972011
 21
119.9409015580656
 31
0.0
  0
LINE
  5
15DE
330
19
100
AcDbEntity
  8
1
100
AcDbLine
 10
155.2579025972011
 20
119.9409015580656
 30
0.0
 11
154.9501559492011
 21
119.8468221460656
 31
0.0
  0
LINE
  5
15DF
330
19
100
AcDbEntity
  8
1
100
AcDbLine
 10
152.9816196812012
 20
125.3457592060657
 30
0.0
 11
153.398805645201
 21
125.1629032060656
 31
0.0
  0
LINE
  5
15E0
330
19
100
AcDbEntity
  8
1
100
AcDbLine
 10
153.398805645201
 20
125.1629032060656
 30
0.0
 11
153.850185681201
 21
124.9114762060656
 31
0.0
  0
LINE
  5
15E1
330
19
100
AcDbEntity
  8
1
100
AcDbLine
 10
152.8216206812011
 20
129.3614598220657
 30
0.0
 11
153.144910089201
 21
129.3439970740656
 31
0.0
  0
LINE
  5
15E2
330
19
100
AcDbEntity
  8
1
100
AcDbLine
 10
153.144910089201
 20
129.3439970740656
 30
0.0
 11
153.4709423372011
 21
129.2977345060656
 31
0.0
  0
LINE
  5
15E3
330
19
100
AcDbEntity
  8
1
100
AcDbLine
 10
153.4709423372011
 20
129.2977345060656
 30
0.0
 11
153.797980293201
 21
129.2222149780656
 31
0.0
  0
LINE
  5
15E4
330
19
100
AcDbEntity
  8
1
100
AcDbLine
 10
153.797980293201
 20
129.2222149780656
 30
0.0
 11
154.1244696812011
 21
129.1171642060656
 31
0.0
  0
LINE
  5
15E5
330
19
100
AcDbEntity
  8
1
100
AcDbLine
 10
156.044457681201
 20
124.8200482060657
 30
0.0
 11
155.678745681201
 21
124.0886242060657
 31
0.0
  0
LINE
  5
15E6
330
19
100
AcDbEntity
  8
1
100
AcDbLine
 10
152.8444776812011
 20
124.2714802060657
 30
0.0
 11
153.2813206652012
 21
124.4882559940657
 31
0.0
  0
LINE
  5
15E7
330
19
100
AcDbEntity
  8
1
100
AcDbLine
 10
153.2813206652012
 20
124.4882559940657
 30
0.0
 11
153.7181636492011
 21
124.6033638460656
 31
0.0
  0
LINE
  5
15E8
330
19
100
AcDbEntity
  8
1
100
AcDbLine
 10
153.7181636492011
 20
124.6033638460656
 30
0.0
 11
154.215897681201
 21
124.6371922060657
 31
0.0
  0
LINE
  5
15E9
330
19
100
AcDbEntity
  8
1
100
AcDbLine
 10
154.1244696812011
 20
129.1171642060656
 30
0.0
 11
154.4242620932011
 21
128.9674965700656
 31
0.0
  0
LINE
  5
15EA
330
19
100
AcDbEntity
  8
1
100
AcDbLine
 10
154.4242620932011
 20
128.9674965700656
 30
0.0
 11
154.7057689052011
 21
128.7937833700656
 31
0.0
  0
LINE
  5
15EB
330
19
100
AcDbEntity
  8
1
100
AcDbLine
 10
154.7057689052011
 20
128.7937833700656
 30
0.0
 11
154.9676186972011
 21
128.5978531660656
 31
0.0
  0
LINE
  5
15EC
330
19
100
AcDbEntity
  8
1
100
AcDbLine
 10
154.9676186972011
 20
128.5978531660656
 30
0.0
 11
155.2088057612011
 21
128.3814430900656
 31
0.0
  0
LINE
  5
15ED
330
19
100
AcDbEntity
  8
1
100
AcDbLine
 10
155.2088057612011
 20
128.3814430900656
 30
0.0
 11
155.427958677201
 21
128.1462902740656
 31
0.0
  0
LINE
  5
15EE
330
19
100
AcDbEntity
  8
1
100
AcDbLine
 10
155.427958677201
 20
128.1462902740656
 30
0.0
 11
155.6239803092011
 21
127.8941318500656
 31
0.0
  0
LINE
  5
15EF
330
19
100
AcDbEntity
  8
1
100
AcDbLine
 10
155.6239803092011
 20
127.8941318500656
 30
0.0
 11
155.7955906652011
 21
127.6267049500656
 31
0.0
  0
LINE
  5
15F0
330
19
100
AcDbEntity
  8
1
100
AcDbLine
 10
155.7955906652011
 20
127.6267049500656
 30
0.0
 11
155.9416011812011
 21
127.3457467060656
 31
0.0
  0
LINE
  5
15F1
330
19
100
AcDbEntity
  8
1
100
AcDbLine
 10
155.9416011812011
 20
127.3457467060656
 30
0.0
 11
156.0609147212011
 21
127.0529942500656
 31
0.0
  0
LINE
  5
15F2
330
19
100
AcDbEntity
  8
1
100
AcDbLine
 10
156.0609147212011
 20
127.0529942500656
 30
0.0
 11
156.1521598652011
 21
126.7502761420656
 31
0.0
  0
LINE
  5
15F3
330
19
100
AcDbEntity
  8
1
100
AcDbLine
 10
156.1521598652011
 20
126.7502761420656
 30
0.0
 11
156.2142394772011
 21
126.4391466580657
 31
0.0
  0
LINE
  5
15F4
330
19
100
AcDbEntity
  8
1
100
AcDbLine
 10
156.2142394772011
 20
126.4391466580657
 30
0.0
 11
156.2458735652012
 21
126.1215257860656
 31
0.0
  0
LINE
  5
15F5
330
19
100
AcDbEntity
  8
1
100
AcDbLine
 10
156.2458735652012
 20
126.1215257860656
 30
0.0
 11
156.2459649932011
 21
125.7989678020656
 31
0.0
  0
LINE
  5
15F6
330
19
100
AcDbEntity
  8
1
100
AcDbLine
 10
156.2459649932011
 20
125.7989678020656
 30
0.0
 11
156.2132337692012
 21
125.4734841220657
 31
0.0
  0
LINE
  5
15F7
330
19
100
AcDbEntity
  8
1
100
AcDbLine
 10
156.2132337692012
 20
125.4734841220657
 30
0.0
 11
156.1464913292011
 21
125.1465375940656
 31
0.0
  0
LINE
  5
15F8
330
19
100
AcDbEntity
  8
1
100
AcDbLine
 10
156.1464913292011
 20
125.1465375940656
 30
0.0
 11
156.044457681201
 21
124.8200482060657
 31
0.0
  0
LINE
  5
15F9
330
19
100
AcDbEntity
  8
1
100
AcDbLine
 10
151.107345681201
 20
124.3629082060657
 30
0.0
 11
151.4290808132011
 21
124.7862198460657
 31
0.0
  0
LINE
  5
15FA
330
19
100
AcDbEntity
  8
1
100
AcDbLine
 10
151.4290808132011
 20
124.7862198460657
 30
0.0
 11
151.7304275012012
 21
125.1282519940656
 31
0.0
  0
LINE
  5
15FB
330
19
100
AcDbEntity
  8
1
100
AcDbLine
 10
151.7304275012012
 20
125.1282519940656
 30
0.0
 11
152.1130536812011
 21
125.3686162060656
 31
0.0
  0
LINE
  5
15FC
330
19
100
AcDbEntity
  8
1
100
AcDbLine
 10
152.1130536812011
 20
125.3686162060656
 30
0.0
 11
152.5645251452012
 21
125.4257587060656
 31
0.0
  0
LINE
  5
15FD
330
19
100
AcDbEntity
  8
1
100
AcDbLine
 10
151.9301976812011
 20
123.5400562060656
 30
0.0
 11
152.2078645172012
 21
123.8516428300656
 31
0.0
  0
LINE
  5
15FE
330
19
100
AcDbEntity
  8
1
100
AcDbLine
 10
152.2078645172012
 20
123.8516428300656
 30
0.0
 11
152.505919797201
 21
124.0818585340656
 31
0.0
  0
LINE
  5
15FF
330
19
100
AcDbEntity
  8
1
100
AcDbLine
 10
149.7359256812012
 20
127.4714602060657
 30
0.0
 11
149.9017760732011
 21
127.7682354940657
 31
0.0
  0
LINE
  5
1600
330
19
100
AcDbEntity
  8
1
100
AcDbLine
 10
149.9017760732011
 20
127.7682354940657
 30
0.0
 11
150.0894777572011
 21
128.0409652180656
 31
0.0
  0
LINE
  5
1601
330
19
100
AcDbEntity
  8
1
100
AcDbLine
 10
150.0894777572011
 20
128.0409652180656
 30
0.0
 11
150.2976593132011
 21
128.2892836660656
 31
0.0
  0
LINE
  5
1602
330
19
100
AcDbEntity
  8
1
100
AcDbLine
 10
150.2976593132011
 20
128.2892836660656
 30
0.0
 11
150.5244921812011
 21
128.5129165540656
 31
0.0
  0
LINE
  5
1603
330
19
100
AcDbEntity
  8
1
100
AcDbLine
 10
150.5244921812011
 20
128.5129165540656
 30
0.0
 11
150.7685135132011
 21
128.7113153140656
 31
0.0
  0
LINE
  5
1604
330
19
100
AcDbEntity
  8
1
100
AcDbLine
 10
150.7685135132011
 20
128.7113153140656
 30
0.0
 11
151.0280776052011
 21
128.8841142340656
 31
0.0
  0
LINE
  5
1605
330
19
100
AcDbEntity
  8
1
100
AcDbLine
 10
151.0280776052011
 20
128.8841142340656
 30
0.0
 11
151.301538753201
 21
129.0310390300656
 31
0.0
  0
LINE
  5
1606
330
19
100
AcDbEntity
  8
1
100
AcDbLine
 10
151.301538753201
 20
129.0310390300656
 30
0.0
 11
151.587342681201
 21
129.1514497060656
 31
0.0
  0
LINE
  5
1607
330
19
100
AcDbEntity
  8
1
100
AcDbLine
 10
151.587342681201
 20
129.1514497060656
 30
0.0
 11
151.883843685201
 21
129.2451634060657
 31
0.0
  0
LINE
  5
1608
330
19
100
AcDbEntity
  8
1
100
AcDbLine
 10
151.883843685201
 20
129.2451634060657
 30
0.0
 11
152.189487489201
 21
129.3116315620656
 31
0.0
  0
LINE
  5
1609
330
19
100
AcDbEntity
  8
1
100
AcDbLine
 10
152.189487489201
 20
129.3116315620656
 30
0.0
 11
152.502628389201
 21
129.3505798900656
 31
0.0
  0
LINE
  5
160A
330
19
100
AcDbEntity
  8
1
100
AcDbLine
 10
152.5645251452012
 20
125.4257587060656
 30
0.0
 11
152.9816196812012
 21
125.3457592060657
 31
0.0
  0
LINE
  5
160B
330
19
100
AcDbEntity
  8
1
100
AcDbLine
 10
152.505919797201
 20
124.0818585340656
 30
0.0
 11
152.8444776812011
 21
124.2714802060657
 31
0.0
  0
LINE
  5
160C
330
19
100
AcDbEntity
  8
1
100
AcDbLine
 10
152.502628389201
 20
129.3505798900656
 30
0.0
 11
152.8216206812011
 21
129.3614598220657
 31
0.0
  0
LINE
  5
160D
330
19
100
AcDbEntity
  8
1
100
AcDbLine
 10
155.7701736812012
 20
124.6371922060657
 30
0.0
 11
149.7359256812012
 21
127.1971762060656
 31
0.0
  0
LINE
  5
160E
330
19
100
AcDbEntity
  8
1
100
AcDbLine
 10
151.2902016812011
 20
129.0257362060656
 30
0.0
 11
154.1244696812011
 21
132.4085722060656
 31
0.0
  0
LINE
  5
160F
330
19
100
AcDbEntity
  8
1
100
AcDbLine
 10
153.850185681201
 20
124.9114762060656
 30
0.0
 11
161.2558536812011
 21
121.4372122060656
 31
0.0
  0
LINE
  5
1610
330
19
100
AcDbEntity
  8
1
100
AcDbLine
 10
161.2558536812011
 20
121.4372122060656
 30
0.0
 11
170.5815096812012
 21
114.0315442060656
 31
0.0
  0
LINE
  5
1611
330
19
100
AcDbEntity
  8
1
100
AcDbLine
 10
157.781589681201
 20
119.7600569740656
 30
0.0
 11
157.4882886572011
 21
119.8675763020656
 31
0.0
  0
LINE
  5
1612
330
19
100
AcDbEntity
  8
1
100
AcDbLine
 10
154.9501559492011
 20
119.8468221460656
 30
0.0
 11
154.6524663812011
 21
119.7282400300656
 31
0.0
  0
LINE
  5
1613
330
19
100
AcDbEntity
  8
1
100
AcDbLine
 10
176.0671896812011
 20
118.8772282060656
 30
0.0
 11
176.0671896812011
 21
119.5172242060657
 31
0.0
  0
LINE
  5
1614
330
19
100
AcDbEntity
  8
1
100
AcDbLine
 10
171.9529296812011
 20
112.6601242060657
 30
0.0
 11
171.3129336812011
 21
113.1172642060657
 31
0.0
  0
LINE
  5
1615
330
19
100
AcDbEntity
  8
1
100
AcDbLine
 10
171.3129336812011
 20
113.1172642060657
 30
0.0
 11
170.9472216812011
 21
113.3001202060657
 31
0.0
  0
LINE
  5
1616
330
19
100
AcDbEntity
  8
1
100
AcDbLine
 10
170.9472216812011
 20
113.3001202060657
 30
0.0
 11
170.7643656812011
 21
113.8486882060657
 31
0.0
  0
LINE
  5
1617
330
19
100
AcDbEntity
  8
1
100
AcDbLine
 10
171.9174556172011
 20
112.7595978700657
 30
0.0
 11
171.6501201452009
 21
112.9995049420656
 31
0.0
  0
LINE
  5
1618
330
19
100
AcDbEntity
  8
1
100
AcDbLine
 10
171.6501201452009
 20
112.9995049420656
 30
0.0
 11
171.3564534092011
 21
113.2108864780656
 31
0.0
  0
LINE
  5
1619
330
19
100
AcDbEntity
  8
1
100
AcDbLine
 10
171.3564534092011
 20
113.2108864780656
 30
0.0
 11
171.0386496812011
 21
113.3915482060657
 31
0.0
  0
LINE
  5
161A
330
19
100
AcDbEntity
  8
1
100
AcDbLine
 10
176.0671896812011
 20
118.8772282060656
 30
0.0
 11
175.9995329612009
 21
119.3073055180657
 31
0.0
  0
LINE
  5
161B
330
19
100
AcDbEntity
  8
1
100
AcDbLine
 10
175.9995329612009
 20
119.3073055180657
 30
0.0
 11
176.013064305201
 21
119.6966973700657
 31
0.0
  0
LINE
  5
161C
330
19
100
AcDbEntity
  8
1
100
AcDbLine
 10
171.6786456812011
 20
107.9972962060657
 30
0.0
 11
172.0443576812012
 21
108.4544362060657
 31
0.0
  0
LINE
  5
161D
330
19
100
AcDbEntity
  8
1
100
AcDbLine
 10
172.0443576812012
 20
108.4544362060657
 30
0.0
 11
172.410069681201
 21
109.0030042060657
 31
0.0
  0
LINE
  5
161E
330
19
100
AcDbEntity
  8
1
100
AcDbLine
 10
172.410069681201
 20
109.0030042060657
 30
0.0
 11
172.7757816812011
 21
110.0087122060656
 31
0.0
  0
LINE
  5
161F
330
19
100
AcDbEntity
  8
1
100
AcDbLine
 10
172.7757816812011
 20
110.0087122060656
 30
0.0
 11
172.8672096812011
 21
110.9229922060657
 31
0.0
  0
LINE
  5
1620
330
19
100
AcDbEntity
  8
1
100
AcDbLine
 10
172.8672096812011
 20
110.9229922060657
 30
0.0
 11
172.5929256812011
 21
111.8372722060656
 31
0.0
  0
LINE
  5
1621
330
19
100
AcDbEntity
  8
1
100
AcDbLine
 10
171.6786456812011
 20
110.9229922060657
 30
0.0
 11
171.7700736812012
 21
110.1915682060657
 31
0.0
  0
LINE
  5
1622
330
19
100
AcDbEntity
  8
1
100
AcDbLine
 10
171.7700736812012
 20
110.1915682060657
 30
0.0
 11
171.8310561572011
 21
109.9409640580657
 31
0.0
  0
LINE
  5
1623
330
19
100
AcDbEntity
  8
1
100
AcDbLine
 10
171.8310561572011
 20
109.9409640580657
 30
0.0
 11
171.8310561572011
 21
109.7107483540657
 31
0.0
  0
LINE
  5
1624
330
19
100
AcDbEntity
  8
1
100
AcDbLine
 10
171.8310561572011
 20
109.7107483540657
 30
0.0
 11
171.7700736812012
 21
109.4601442060657
 31
0.0
  0
LINE
  5
1625
330
19
100
AcDbEntity
  8
1
100
AcDbLine
 10
171.7700736812012
 20
109.4601442060657
 30
0.0
 11
171.5973661892011
 21
109.1689460260657
 31
0.0
  0
LINE
  5
1626
330
19
100
AcDbEntity
  8
1
100
AcDbLine
 10
171.5973661892011
 20
109.1689460260657
 30
0.0
 11
171.3027851732012
 21
109.0199183860657
 31
0.0
  0
LINE
  5
1627
330
19
100
AcDbEntity
  8
1
100
AcDbLine
 10
171.3027851732012
 20
109.0199183860657
 30
0.0
 11
170.9472216812011
 21
108.7287202060657
 31
0.0
  0
LINE
  5
1628
330
19
100
AcDbEntity
  8
1
100
AcDbLine
 10
172.8672096812011
 20
110.4658522060657
 30
0.0
 11
172.8456326732011
 21
110.8439984140657
 31
0.0
  0
LINE
  5
1629
330
19
100
AcDbEntity
  8
1
100
AcDbLine
 10
172.8456326732011
 20
110.8439984140657
 30
0.0
 11
172.782364497201
 21
111.2089789900656
 31
0.0
  0
LINE
  5
162A
330
19
100
AcDbEntity
  8
1
100
AcDbLine
 10
172.782364497201
 20
111.2089789900656
 30
0.0
 11
172.6795994252011
 21
111.5585996620657
 31
0.0
  0
LINE
  5
162B
330
19
100
AcDbEntity
  8
1
100
AcDbLine
 10
172.6795994252011
 20
111.5585996620657
 30
0.0
 11
172.539531729201
 21
111.8906661580655
 31
0.0
  0
LINE
  5
162C
330
19
100
AcDbEntity
  8
1
100
AcDbLine
 10
172.539531729201
 20
111.8906661580655
 30
0.0
 11
172.3643556812012
 21
112.2029842060657
 31
0.0
  0
LINE
  5
162D
330
19
100
AcDbEntity
  8
1
100
AcDbLine
 10
172.3643556812012
 20
112.2029842060657
 30
0.0
 11
172.1562655532011
 21
112.4933595340656
 31
0.0
  0
LINE
  5
162E
330
19
100
AcDbEntity
  8
1
100
AcDbLine
 10
170.6415778772011
 20
107.4123398620657
 30
0.0
 11
170.9387188772011
 21
107.5215963220657
 31
0.0
  0
LINE
  5
162F
330
19
100
AcDbEntity
  8
1
100
AcDbLine
 10
170.9387188772011
 20
107.5215963220657
 30
0.0
 11
171.2196771212011
 21
107.6581897540657
 31
0.0
  0
LINE
  5
1630
330
19
100
AcDbEntity
  8
1
100
AcDbLine
 10
171.2196771212011
 20
107.6581897540657
 30
0.0
 11
171.483355473201
 21
107.8203830260656
 31
0.0
  0
LINE
  5
1631
330
19
100
AcDbEntity
  8
1
100
AcDbLine
 10
171.483355473201
 20
107.8203830260656
 30
0.0
 11
171.7281996572011
 21
108.0063475780657
 31
0.0
  0
LINE
  5
1632
330
19
100
AcDbEntity
  8
1
100
AcDbLine
 10
171.7281996572011
 20
108.0063475780657
 30
0.0
 11
171.9529296812011
 21
108.2144377060657
 31
0.0
  0
LINE
  5
1633
330
19
100
AcDbEntity
  8
1
100
AcDbLine
 10
171.9529296812011
 20
108.2144377060657
 30
0.0
 11
172.1562655532011
 21
108.4429162780656
 31
0.0
  0
LINE
  5
1634
330
19
100
AcDbEntity
  8
1
100
AcDbLine
 10
172.1562655532011
 20
108.4429162780656
 30
0.0
 11
172.336835853201
 21
108.6899547340656
 31
0.0
  0
LINE
  5
1635
330
19
100
AcDbEntity
  8
1
100
AcDbLine
 10
172.336835853201
 20
108.6899547340656
 30
0.0
 11
172.4933605892011
 21
108.9539073700657
 31
0.0
  0
LINE
  5
1636
330
19
100
AcDbEntity
  8
1
100
AcDbLine
 10
172.4933605892011
 20
108.9539073700657
 30
0.0
 11
172.624376913201
 21
109.2330370540657
 31
0.0
  0
LINE
  5
1637
330
19
100
AcDbEntity
  8
1
100
AcDbLine
 10
172.624376913201
 20
109.2330370540657
 30
0.0
 11
172.7286048332012
 21
109.5255152260656
 31
0.0
  0
LINE
  5
1638
330
19
100
AcDbEntity
  8
1
100
AcDbLine
 10
172.7286048332012
 20
109.5255152260656
 30
0.0
 11
172.8047643572011
 21
109.8296047540657
 31
0.0
  0
LINE
  5
1639
330
19
100
AcDbEntity
  8
1
100
AcDbLine
 10
172.8047643572011
 20
109.8296047540657
 30
0.0
 11
172.8513926372011
 21
110.1436599340656
 31
0.0
  0
LINE
  5
163A
330
19
100
AcDbEntity
  8
1
100
AcDbLine
 10
172.8513926372011
 20
110.1436599340656
 30
0.0
 11
172.8672096812011
 21
110.4658522060657
 31
0.0
  0
LINE
  5
163B
330
19
100
AcDbEntity
  8
1
100
AcDbLine
 10
172.5929256812011
 20
111.8372722060656
 30
0.0
 11
171.9529296812011
 21
112.6601242060657
 31
0.0
  0
LINE
  5
163C
330
19
100
AcDbEntity
  8
1
100
AcDbLine
 10
172.1562655532011
 20
112.4933595340656
 30
0.0
 11
171.9174556172011
 21
112.7595978700657
 31
0.0
  0
LINE
  5
163D
330
19
100
AcDbEntity
  8
1
100
AcDbLine
 10
175.8843336812011
 20
120.0657922060656
 30
0.0
 11
175.6100496812011
 21
120.3400762060657
 31
0.0
  0
LINE
  5
163E
330
19
100
AcDbEntity
  8
1
100
AcDbLine
 10
174.9700536812011
 20
120.6143602060657
 30
0.0
 11
175.792905681201
 21
120.1572202060657
 31
0.0
  0
LINE
  5
163F
330
19
100
AcDbEntity
  8
1
100
AcDbLine
 10
175.8843336812011
 20
120.0657922060656
 30
0.0
 11
175.6710321572012
 21
120.2825679940656
 31
0.0
  0
LINE
  5
1640
330
19
100
AcDbEntity
  8
1
100
AcDbLine
 10
175.9757616812011
 20
119.7915082060656
 30
0.0
 11
175.8843336812011
 21
120.0657922060656
 31
0.0
  0
LINE
  5
1641
330
19
100
AcDbEntity
  8
1
100
AcDbLine
 10
175.6100496812011
 20
120.3400762060657
 30
0.0
 11
175.0614816812009
 21
120.4315042060657
 31
0.0
  0
LINE
  5
1642
330
19
100
AcDbEntity
  8
1
100
AcDbLine
 10
175.6710321572012
 20
120.2825679940656
 30
0.0
 11
175.4577306332011
 21
120.3976758460657
 31
0.0
  0
LINE
  5
1643
330
19
100
AcDbEntity
  8
1
100
AcDbLine
 10
175.4577306332011
 20
120.3976758460657
 30
0.0
 11
175.0614816812009
 21
120.4315042060657
 31
0.0
  0
LINE
  5
1644
330
19
100
AcDbEntity
  8
1
100
AcDbLine
 10
175.0614816812009
 20
120.4315042060657
 30
0.0
 11
174.7871976812012
 21
125.8257562060656
 31
0.0
  0
LINE
  5
1645
330
19
100
AcDbEntity
  8
1
100
AcDbLine
 10
175.0614816812009
 20
120.4315042060657
 30
0.0
 11
174.7871976812012
 21
125.8257562060656
 31
0.0
  0
LINE
  5
1646
330
19
100
AcDbEntity
  8
1
100
AcDbLine
 10
176.0671896812011
 20
119.5172242060657
 30
0.0
 11
175.9757616812011
 21
119.7915082060656
 31
0.0
  0
LINE
  5
1647
330
19
100
AcDbEntity
  8
1
100
AcDbLine
 10
175.792905681201
 20
120.1572202060657
 30
0.0
 11
175.9757616812011
 21
119.5172242060657
 31
0.0
  0
LINE
  5
1648
330
19
100
AcDbEntity
  8
1
100
AcDbLine
 10
176.013064305201
 20
119.6966973700657
 30
0.0
 11
175.8843336812011
 21
120.0657922060656
 31
0.0
  0
LINE
  5
1649
330
19
100
AcDbEntity
  8
1
100
AcDbLine
 10
170.5815096812012
 20
107.4487282060657
 30
0.0
 11
171.6786456812011
 21
107.9972962060657
 31
0.0
  0
LINE
  5
164A
330
19
100
AcDbEntity
  8
1
100
AcDbLine
 10
170.3297169692012
 20
107.3321575060657
 30
0.0
 11
170.6415778772011
 21
107.4123398620657
 31
0.0
  0
LINE
  5
164B
330
19
100
AcDbEntity
  8
1
100
AcDbLine
 10
170.5815096812012
 20
114.0315442060656
 30
0.0
 11
171.6786456812011
 21
110.9229922060657
 31
0.0
  0
LINE
  5
164C
330
19
100
AcDbEntity
  8
1
100
AcDbLine
 10
174.7871976812012
 20
125.8257562060656
 30
0.0
 11
163.6333473932011
 21
132.4085722060656
 31
0.0
  0
LINE
  5
164D
330
19
100
AcDbEntity
  8
1
100
AcDbLine
 10
174.7871976812012
 20
125.8257562060656
 30
0.0
 11
163.6333473932011
 21
132.4085722060656
 31
0.0
  0
LINE
  5
164E
330
19
100
AcDbEntity
  8
1
100
AcDbLine
 10
174.9700536812011
 20
120.5229322060656
 30
0.0
 11
167.9300976812012
 21
116.1343882060656
 31
0.0
  0
LINE
  5
164F
330
19
100
AcDbEntity
  8
1
100
AcDbLine
 10
170.7643656812011
 20
113.8486882060657
 30
0.0
 11
167.9300976812012
 21
116.2258162060656
 31
0.0
  0
LINE
  5
1650
330
19
100
AcDbEntity
  8
1
100
AcDbLine
 10
167.9300976812012
 20
116.2258162060656
 30
0.0
 11
174.9700536812011
 21
120.6143602060657
 31
0.0
  0
LINE
  5
1651
330
19
100
AcDbEntity
  8
1
100
AcDbLine
 10
170.9472216812011
 20
108.7287202060657
 30
0.0
 11
167.4729576812011
 21
107.3573002060657
 31
0.0
  0
LINE
  5
1652
330
19
100
AcDbEntity
  8
1
100
AcDbLine
 10
147.907365681201
 20
121.4372122060656
 30
0.0
 11
149.5530696812012
 21
120.7972162060656
 31
0.0
  0
LINE
  5
1653
330
19
100
AcDbEntity
  8
1
100
AcDbLine
 10
149.5530696812012
 20
120.7972162060656
 30
0.0
 11
149.126649489201
 21
120.8879127820656
 31
0.0
  0
LINE
  5
1654
330
19
100
AcDbEntity
  8
1
100
AcDbLine
 10
146.8102296812011
 20
114.4886842060657
 30
0.0
 11
151.107345681201
 21
124.3629082060657
 31
0.0
  0
LINE
  5
1655
330
19
100
AcDbEntity
  8
1
100
AcDbLine
 10
147.8159376812012
 20
114.3058282060657
 30
0.0
 11
151.9301976812011
 21
123.5400562060656
 31
0.0
  0
LINE
  5
1656
330
19
100
AcDbEntity
  8
1
100
AcDbLine
 10
149.3196539972011
 20
110.5355203420657
 30
0.0
 11
149.1528893252011
 21
110.2609620580657
 31
0.0
  0
LINE
  5
1657
330
19
100
AcDbEntity
  8
1
100
AcDbLine
 10
155.5873176812012
 20
109.0030042060657
 30
0.0
 11
148.1816496812012
 21
112.0201282060656
 31
0.0
  0
LINE
  5
1658
330
19
100
AcDbEntity
  8
1
100
AcDbLine
 10
163.6333473932011
 20
132.4085722060656
 30
0.0
 11
133.0671896812011
 21
132.4085722060656
 31
0.0
  0
LINE
  5
1659
330
19
100
AcDbEntity
  8
1
100
AcDbLine
 10
163.6333473932011
 20
132.4085722060656
 30
0.0
 11
133.0671896812011
 21
132.4085722060656
 31
0.0
  0
LINE
  5
165A
330
19
100
AcDbEntity
  8
1
100
AcDbLine
 10
176.0671896812011
 20
101.7801922060657
 30
0.0
 11
176.0671896812011
 21
118.8772282060656
 31
0.0
  0
LINE
  5
165B
330
19
100
AcDbEntity
  8
1
100
AcDbLine
 10
175.9757616812011
 20
119.5172242060657
 30
0.0
 11
175.9757616812011
 21
101.4144802060657
 31
0.0
  0
LINE
  5
165C
330
19
100
AcDbEntity
  8
1
100
AcDbLine
 10
176.0671896812011
 20
101.7801922060657
 30
0.0
 11
176.0671896812011
 21
118.8772282060656
 31
0.0
  0
LINE
  5
165D
330
19
100
AcDbEntity
  8
1
100
AcDbLine
 10
171.9529296812011
 20
102.2373322060657
 30
0.0
 11
160.8901416812011
 21
108.2715802060657
 31
0.0
  0
LINE
  5
165E
330
19
100
AcDbEntity
  8
1
100
AcDbLine
 10
171.9529296812011
 20
102.2373322060657
 30
0.0
 11
160.8901416812011
 21
108.2715802060657
 31
0.0
  0
LINE
  5
165F
330
19
100
AcDbEntity
  8
1
100
AcDbLine
 10
143.6748387788137
 20
107.6315842060656
 30
0.0
 11
145.5033987788137
 21
100.6830562060657
 31
0.0
  0
LINE
  5
1660
330
19
100
AcDbEntity
  8
1
100
AcDbLine
 10
142.7027850571489
 20
107.5401562060657
 30
0.0
 11
142.7027850571489
 21
132.1342882060656
 31
0.0
  0
LINE
  5
1661
330
19
100
AcDbEntity
  8
1
100
AcDbLine
 10
143.675324352447
 20
107.6297390262593
 30
0.0
 11
144.0002926564445
 21
132.4085722060656
 31
0.0
  0
LINE
  5
1662
330
19
100
AcDbEntity
  8
SK1
100
AcDbLine
 10
128.0671896812011
 20
107.6315842060656
 30
0.0
 11
133.0671896812011
 21
107.6315842060656
 31
0.0
  0
LINE
  5
1663
330
19
100
AcDbEntity
  8
SK1
100
AcDbLine
 10
6.067189681201266
 20
107.6315842060656
 30
0.0
 11
128.0671896812011
 21
107.6315842060656
 31
0.0
  0
LINE
  5
1667
330
19
100
AcDbEntity
  8
SK1
100
AcDbLine
 10
6.067189681201266
 20
107.6315842060656
 30
0.0
 11
6.067189681201266
 21
132.4085722060656
 31
0.0
  0
LINE
  5
1668
330
19
100
AcDbEntity
  8
SK1
100
AcDbLine
 10
128.0671896812011
 20
132.4085722060656
 30
0.0
 11
6.067189681201266
 21
132.4085722060656
 31
0.0
  0
MTEXT
  5
16EE
330
19
100
AcDbEntity
  8
SK6
100
AcDbMText
 10
-2.214509246312292
 20
49.67792573832472
 30
0.0
 40
5.0
 41
85.33013635578573
 71
     1
 72
     5
  1
{\fMonospac821 BT|b0|i0|c0|p49;CTFNL3225P16-PL\P00042807}
  7
SIMPLEX
 73
     1
 44
1.0
1001
ACAD
1000
MTEXTBEGIN
1070
    73
1070
     1
1070
    44
1040
1.0
1070
    74
1070
     0
1000
MTEXTEND
  0
DIMENSION
  5
16EF
330
19
100
AcDbEntity
  8
SK2
100
AcDbDimension
  2
*D14
 10
-7.715277446867505
 20
107.6315842060656
 30
0.0
 11
-7.715277446867522
 21
150.0752388727321
 31
0.0
 70
   160
  1
32X25
 71
     5
 42
24.77698800000001
  3
V-TYG_160-300
100
AcDbAlignedDimension
 13
6.067189681201266
 23
132.4085722060656
 33
0.0
 14
6.067189681201272
 24
107.6315842060656
 34
0.0
 50
90.0
100
AcDbRotatedDimension
  0
DIMENSION
  5
170F
330
19
100
AcDbEntity
  8
SK2
100
AcDbDimension
  2
*D15
 10
176.0671896812011
 20
58.03430079343638
 30
0.0
 11
91.06718968120121
 21
58.03430079343638
 31
0.0
 70
   160
 71
     5
 42
169.9999999999999
  3
V-TYG_160-300
100
AcDbAlignedDimension
 13
6.067189681201266
 23
107.6315842060656
 33
0.0
 14
176.0671896812011
 24
101.2316242060657
 34
0.0
100
AcDbRotatedDimension
  0
DIMENSION
  5
171C
330
19
100
AcDbEntity
  8
2
100
AcDbDimension
  2
*D16
 10
146.0687433894385
 20
87.93925769425937
 30
0.0
 11
161.0679665353198
 21
91.43925769425935
 31
0.0
 70
    32
 71
     5
 42
29.99844629176261
  3
V-TYG_160-300
100
AcDbAlignedDimension
 13
176.0671896812011
 23
100.2316242060657
 33
0.0
 14
146.0687433894385
 24
100.681101981348
 34
0.0
100
AcDbRotatedDimension
  0
DIMENSION
  5
1732
330
19
100
AcDbEntity
  8
2
100
AcDbDimension
  2
*D17
 10
208.5450286076359
 20
100.4085722060657
 30
0.0
 11
205.0450286076359
 21
116.4085722060657
 31
0.0
 70
    32
 71
     5
 42
31.99999999999999
  3
V-TYG_160-300
100
AcDbAlignedDimension
 13
163.6333473932011
 23
132.4085722060656
 33
0.0
 14
179.0051502420149
 24
100.4085722060657
 34
0.0
 50
90.0
100
AcDbRotatedDimension
  0
LINE
  5
174F
330
19
100
AcDbEntity
  8
3
100
AcDbLine
 10
180.0051502420149
 20
100.4085722060657
 30
0.0
 11
179.0051502420149
 21
100.4085722060657
 31
0.0
  0
DIMENSION
  5
1750
330
19
100
AcDbEntity
  8
2
100
AcDbDimension
  2
*D18
 10
176.0671896812011
 20
118.8772282060656
 30
0.0
 11
193.2636300785476
 21
117.6050126034122
 31
0.0
 70
    34
 71
     5
 42
1.570796326794893
  3
V-TYG_160-300
100
AcDb2LineAngularDimension
 13
180.0051502420149
 23
100.4085722060657
 33
0.0
 14
179.0051502420149
 24
100.4085722060657
 34
0.0
 15
176.0671896812011
 25
101.7801922060657
 35
0.0
 16
194.0973529507969
 26
110.8182918232997
 36
0.0
  0
DIMENSION
  5
175F
330
19
100
AcDbEntity
  8
2
100
AcDbDimension
  2
*D19
 10
133.0671896812011
 20
74.65204040318326
 30
0.0
 11
154.5671896812011
 21
78.15204040318326
 31
0.0
 70
    32
 71
     5
 42
43.0
  3
V-TYG_160-300
100
AcDbAlignedDimension
 13
176.0671896812011
 23
100.2316242060657
 33
0.0
 14
133.0671896812011
 24
107.6315842060656
 34
0.0
100
AcDbRotatedDimension
  0
LINE
  5
1784
330
19
100
AcDbEntity
  8
1
100
AcDbLine
 10
133.0671896812011
 20
107.6315842060656
 30
0.0
 11
143.6748387788137
 21
107.6315842060656
 31
0.0
  0
LINE
  5
1786
330
19
100
AcDbEntity
  8
1
100
AcDbLine
 10
133.0671896812011
 20
107.6315842060656
 30
0.0
 11
141.0502656812012
 21
107.6315842060656
 31
0.0
  0
LINE
  5
1788
330
19
100
AcDbEntity
  8
SK1
100
AcDbLine
 10
133.0671896812011
 20
132.4085722060656
 30
0.0
 11
128.0671896812011
 21
132.4085722060656
 31
0.0
  0
ENDSEC
  0
SECTION
  2
OBJECTS
  0
DICTIONARY
  5
C
330
0
100
AcDbDictionary
281
     1
  3
ACAD_COLOR
350
129F
  3
ACAD_GROUP
350
D
  3
ACAD_LAYOUT
350
A85
  3
ACAD_MATERIAL
350
128A
  3
ACAD_MLINESTYLE
350
E
  3
ACAD_PLOTSETTINGS
350
A86
  3
ACAD_PLOTSTYLENAME
350
E93
  3
ACAD_TABLESTYLE
350
12A0
  3
ACAD_VISUALSTYLE
350
128E
  3
AcDbVariableDictionary
350
180C
  3
DWGPROPS
350
1863
1001
ACAD
1000
TREAT_AS_HARD
1070
     0
  0
DICTIONARY
  5
E8D
330
19
100
AcDbDictionary
280
     1
281
     1
  3
ACAD_SORTENTS
360
1785
  0
DICTIONARY
  5
E8B
330
16
100
AcDbDictionary
280
     1
281
     1
  0
DICTIONARY
  5
129F
102
{ACAD_REACTORS
330
C
102
}
330
C
100
AcDbDictionary
281
     1
  0
DICTIONARY
  5
D
102
{ACAD_REACTORS
330
C
102
}
330
C
100
AcDbDictionary
281
     1
1001
ACAD
1000
TREAT_AS_HARD
1070
     0
  0
DICTIONARY
  5
A85
102
{ACAD_REACTORS
330
C
102
}
330
C
100
AcDbDictionary
281
     1
  3
Layout1
350
E96
  3
Model
350
E95
1001
ACAD
1000
TREAT_AS_HARD
1070
     0
  0
DICTIONARY
  5
128A
102
{ACAD_REACTORS
330
C
102
}
330
C
100
AcDbDictionary
281
     1
  3
ByBlock
350
128C
  3
ByLayer
350
128B
  3
Global
350
128D
  0
DICTIONARY
  5
E
102
{ACAD_REACTORS
330
C
102
}
330
C
100
AcDbDictionary
281
     1
  3
STANDARD
350
1C
1001
ACAD
1000
TREAT_AS_HARD
1070
     0
  0
DICTIONARY
  5
A86
102
{ACAD_REACTORS
330
C
102
}
330
C
100
AcDbDictionary
281
     1
1001
ACAD
1000
TREAT_AS_HARD
1070
     0
  0
ACDBDICTIONARYWDFLT
  5
E93
102
{ACAD_REACTORS
330
C
102
}
330
C
100
AcDbDictionary
281
     1
  3
Normal
350
E94
100
AcDbDictionaryWithDefault
340
E94
  0
DICTIONARY
  5
12A0
102
{ACAD_REACTORS
330
C
102
}
330
C
100
AcDbDictionary
281
     1
  3
Standard
350
12A1
  0
DICTIONARY
  5
128E
102
{ACAD_REACTORS
330
C
102
}
330
C
100
AcDbDictionary
281
     1
  3
2dWireframe
350
1294
  3
3D Hidden
350
1296
  3
3dWireframe
350
1295
  3
Basic
350
1293
  3
Brighten
350
129A
  3
ColorChange
350
129E
  3
Conceptual
350
1297
  3
Dim
350
1299
  3
Facepattern
350
129D
  3
Flat
350
128F
  3
FlatWithEdges
350
1290
  3
Gouraud
350
1291
  3
GouraudWithEdges
350
1292
  3
Linepattern
350
129C
  3
Realistic
350
1298
  3
Thicken
350
129B
  0
DICTIONARY
  5
180C
102
{ACAD_REACTORS
330
C
102
}
330
C
100
AcDbDictionary
281
     1
  3
CTABLESTYLE
350
180D
  3
DIMASSOC
350
1810
  3
INDEXCTL
350
180F
  3
SORTENTS
350
180E
  0
XRECORD
  5
1863
102
{ACAD_REACTORS
330
C
102
}
330
C
100
AcDbXrecord
280
     1
  1
DWGPROPS COOKIE
  2

  3

  4

  6

  7

  8
Sagar
  9

300
=
301
=
302
=
303
=
304
=
305
=
306
=
307
=
308
=
309
=
 40
0.0076094907407407
 41
2455476.734932442
 42
2455478.502303935
  1

 90
        0
  0
SORTENTSTABLE
  5
1785
102
{ACAD_REACTORS
330
E8D
102
}
330
E8D
100
AcDbSortentsTable
330
19
331
1750
  5
1786
331
163A
  5
163A
331
15C4
  5
15C4
331
1603
  5
1603
331
154C
  5
154C
331
158B
  5
158B
331
160B
  5
160B
331
1642
  5
1642
331
14D6
  5
14D6
331
15CC
  5
15CC
331
1515
  5
1515
331
151D
  5
151D
331
1554
  5
1554
331
15D4
  5
15D4
331
1613
  5
1613
331
164A
  5
164A
331
14DE
  5
14DE
331
1593
  5
1593
331
159B
  5
159B
331
1652
  5
1652
331
14E6
  5
14E6
331
15DC
  5
15DC
331
1525
  5
1525
331
155C
  5
155C
331
14EE
  5
14EE
331
1564
  5
1564
331
165A
  5
165C
331
15A5
  5
15A5
331
15E4
  5
15E4
331
161B
  5
161B
331
156C
  5
156C
331
14B7
  5
14B7
331
1623
  5
1623
331
1662
  5
1667
331
14F6
  5
14F6
331
15AD
  5
15AD
331
15EC
  5
15EC
331
152D
  5
152D
331
1535
  5
1535
331
1574
  5
1574
331
15F4
  5
15F4
331
162B
  5
162B
331
14BF
  5
14BF
331
15B5
  5
15B5
331
14FE
  5
14FE
331
153D
  5
153D
331
157C
  5
157C
331
15FC
  5
15FC
331
1633
  5
1633
331
14C7
  5
14C7
331
15BD
  5
15BD
331
1506
  5
1506
331
150E
  5
150E
331
1545
  5
1545
331
14CF
  5
14CF
331
1584
  5
1584
331
15C5
  5
15C5
331
1668
  5
170F
331
174F
  5
1784
331
1604
  5
1604
331
163B
  5
163B
331
158C
  5
158C
331
1643
  5
1643
331
14D7
  5
14D7
331
1516
  5
1516
331
15CD
  5
15CD
331
160C
  5
160C
331
154D
  5
154D
331
1555
  5
1555
331
1594
  5
1594
331
164B
  5
164B
331
14DF
  5
14DF
331
151E
  5
151E
331
16EE
  5
1732
331
15D5
  5
15D5
331
1614
  5
1614
331
155D
  5
155D
331
159C
  5
159C
331
1653
  5
1653
331
14E7
  5
14E7
331
15DD
  5
15DD
331
1526
  5
1526
331
1565
  5
1565
331
14EF
  5
14EF
331
15E5
  5
15E5
331
161C
  5
161C
331
15A6
  5
15A6
331
165B
  5
165D
331
14F7
  5
14F7
331
152E
  5
152E
331
1663
  5
16EE
331
15ED
  5
15ED
331
1624
  5
1624
331
14B8
  5
14B8
331
156D
  5
156D
331
15AE
  5
15AE
331
14FF
  5
14FF
331
1536
  5
1536
331
15B6
  5
15B6
331
15F5
  5
15F5
331
1732
  5
1783
331
162C
  5
162C
331
14C0
  5
14C0
331
1575
  5
1575
331
157D
  5
157D
331
1634
  5
1634
331
14C8
  5
14C8
331
1507
  5
1507
331
15BE
  5
15BE
331
15FD
  5
15FD
331
153E
  5
153E
331
1546
  5
1546
331
1585
  5
1585
331
150F
  5
150F
331
1605
  5
1605
331
163C
  5
163C
331
14D0
  5
14D0
331
15C6
  5
15C6
331
154E
  5
154E
331
158D
  5
158D
331
160D
  5
160D
331
1644
  5
1644
331
14D8
  5
14D8
331
15CE
  5
15CE
331
1517
  5
1517
331
151F
  5
151F
331
1556
  5
1556
331
15D6
  5
15D6
331
1615
  5
1615
331
16EF
  5
174F
331
164C
  5
164C
331
14E0
  5
14E0
331
1595
  5
1595
331
159D
  5
159D
331
14E8
  5
14E8
331
1654
  5
1654
331
15DE
  5
15DE
331
1527
  5
1527
331
155E
  5
155E
331
1566
  5
1566
331
14F0
  5
14F0
331
165C
  5
165E
331
15A7
  5
15A7
331
15E6
  5
15E6
331
161D
  5
161D
331
14B1
  5
14B1
331
156E
  5
156E
331
1625
  5
1625
331
14B9
  5
14B9
331
14F8
  5
14F8
331
15AF
  5
15AF
331
15EE
  5
15EE
331
152F
  5
152F
331
1537
  5
1537
331
1576
  5
1576
331
14C1
  5
14C1
331
15F6
  5
15F6
331
162D
  5
162D
331
15B7
  5
15B7
331
1784
  5
171C
331
1500
  5
1500
331
1508
  5
1508
331
153F
  5
153F
331
15FE
  5
15FE
331
1635
  5
1635
331
14C9
  5
14C9
331
157E
  5
157E
331
15BF
  5
15BF
331
1547
  5
1547
331
1586
  5
1586
331
1510
  5
1510
331
15C7
  5
15C7
331
1606
  5
1606
331
163D
  5
163D
331
14D1
  5
14D1
331
158E
  5
158E
331
1645
  5
1645
331
14D9
  5
14D9
331
1518
  5
1518
331
15CF
  5
15CF
331
160E
  5
160E
331
154F
  5
154F
331
1557
  5
1557
331
1596
  5
1596
331
1616
  5
1616
331
164D
  5
164D
331
14E1
  5
14E1
331
15D7
  5
15D7
331
1520
  5
1520
331
155F
  5
155F
331
1655
  5
1655
331
14E9
  5
14E9
331
159E
  5
159E
331
15DF
  5
15DF
331
1567
  5
1567
331
15A0
  5
15A0
331
1528
  5
1528
331
14B2
  5
14B2
331
15E7
  5
15E7
331
161E
  5
161E
331
15A8
  5
15A8
331
165D
  5
165F
331
14F1
  5
14F1
331
14F9
  5
14F9
331
1530
  5
1530
331
15B0
  5
15B0
331
15EF
  5
15EF
331
171C
  5
175F
331
1626
  5
1626
331
14BA
  5
14BA
331
156F
  5
156F
331
1577
  5
1577
331
1501
  5
1501
331
1538
  5
1538
331
15B8
  5
15B8
331
15F7
  5
15F7
331
162E
  5
162E
331
14C2
  5
14C2
331
157F
  5
157F
331
1636
  5
1636
331
14CA
  5
14CA
331
1509
  5
1509
331
15FF
  5
15FF
331
1540
  5
1540
331
1587
  5
1587
331
15C0
  5
15C0
331
1548
  5
1548
331
1607
  5
1607
331
163E
  5
163E
331
14D2
  5
14D2
331
15C8
  5
15C8
331
1511
  5
1511
331
1519
  5
1519
331
1550
  5
1550
331
160F
  5
160F
331
1646
  5
1646
331
14DA
  5
14DA
331
158F
  5
158F
331
15D0
  5
15D0
331
1521
  5
1521
331
1558
  5
1558
331
15D8
  5
15D8
331
1617
  5
1617
331
164E
  5
164E
331
14E2
  5
14E2
331
1597
  5
1597
331
159F
  5
159F
331
1656
  5
1656
331
14EA
  5
14EA
331
1560
  5
1560
331
15A1
  5
15A1
331
15E0
  5
15E0
331
1568
  5
1568
331
14B3
  5
14B3
331
161F
  5
161F
331
165E
  5
1660
331
14F2
  5
14F2
331
15A9
  5
15A9
331
15E8
  5
15E8
331
1529
  5
1529
331
1570
  5
1570
331
1627
  5
1627
331
14BB
  5
14BB
331
14FA
  5
14FA
331
15B1
  5
15B1
331
15F0
  5
15F0
331
1531
  5
1531
331
1539
  5
1539
331
1578
  5
1578
331
14C3
  5
14C3
331
15F8
  5
15F8
331
162F
  5
162F
331
15B9
  5
15B9
331
1786
  5
1668
331
1502
  5
1502
331
150A
  5
150A
331
1541
  5
1541
331
1637
  5
1637
331
14CB
  5
14CB
331
1580
  5
1580
331
15C1
  5
15C1
331
1600
  5
1600
331
1588
  5
1588
331
1512
  5
1512
331
1549
  5
1549
331
15C9
  5
15C9
331
1608
  5
1608
331
163F
  5
163F
331
14D3
  5
14D3
331
1590
  5
1590
331
1647
  5
1647
331
14DB
  5
14DB
331
151A
  5
151A
331
15D1
  5
15D1
331
1610
  5
1610
331
1551
  5
1551
331
1559
  5
1559
331
1598
  5
1598
331
164F
  5
164F
331
14E3
  5
14E3
331
15D9
  5
15D9
331
1522
  5
1522
331
1561
  5
1561
331
1657
  5
1657
331
14EB
  5
14EB
331
1618
  5
1618
331
15A2
  5
15A2
331
15E1
  5
15E1
331
152A
  5
152A
331
1569
  5
1569
331
14B4
  5
14B4
331
15E9
  5
15E9
331
1620
  5
1620
331
15AA
  5
15AA
331
165F
  5
1661
331
14F3
  5
14F3
331
14FB
  5
14FB
331
1532
  5
1532
331
1667
  5
16EF
331
15B2
  5
15B2
331
15F1
  5
15F1
331
1628
  5
1628
331
14BC
  5
14BC
331
1571
  5
1571
331
1579
  5
1579
331
1630
  5
1630
331
14C4
  5
14C4
331
1503
  5
1503
331
15BA
  5
15BA
331
15F9
  5
15F9
331
153A
  5
153A
331
1581
  5
1581
331
14CC
  5
14CC
331
150B
  5
150B
331
1542
  5
1542
331
1638
  5
1638
331
15C2
  5
15C2
331
1601
  5
1601
331
154A
  5
154A
331
1589
  5
1589
331
14D4
  5
14D4
331
1609
  5
1609
331
1640
  5
1640
331
15CA
  5
15CA
331
1513
  5
1513
331
151B
  5
151B
331
1552
  5
1552
331
14DC
  5
14DC
331
15D2
  5
15D2
331
1611
  5
1611
331
1648
  5
1648
331
1591
  5
1591
331
1599
  5
1599
331
1523
  5
1523
331
155A
  5
155A
331
14E4
  5
14E4
331
15DA
  5
15DA
331
1650
  5
1650
331
14EC
  5
14EC
331
1562
  5
1562
331
1658
  5
1658
331
15A3
  5
15A3
331
15E2
  5
15E2
331
1619
  5
1619
331
156A
  5
156A
331
14B5
  5
14B5
331
14F4
  5
14F4
331
1621
  5
1621
331
1660
  5
1662
331
170F
  5
1750
331
15AB
  5
15AB
331
15EA
  5
15EA
331
152B
  5
152B
331
1533
  5
1533
331
1572
  5
1572
331
14BD
  5
14BD
331
1629
  5
1629
331
14FC
  5
14FC
331
15B3
  5
15B3
331
15F2
  5
15F2
331
153B
  5
153B
331
157A
  5
157A
331
14C5
  5
14C5
331
1504
  5
1504
331
15FA
  5
15FA
331
1631
  5
1631
331
15BB
  5
15BB
331
1788
  5
1659
331
150C
  5
150C
331
1543
  5
1543
331
14CD
  5
14CD
331
1582
  5
1582
331
15C3
  5
15C3
331
1602
  5
1602
331
1639
  5
1639
331
158A
  5
158A
331
14D5
  5
14D5
331
1641
  5
1641
331
1514
  5
1514
331
15CB
  5
15CB
331
160A
  5
160A
331
154B
  5
154B
331
175F
  5
1787
331
1592
  5
1592
331
14DD
  5
14DD
331
1649
  5
1649
331
151C
  5
151C
331
15D3
  5
15D3
331
1612
  5
1612
331
1553
  5
1553
331
155B
  5
155B
331
159A
  5
159A
331
14E5
  5
14E5
331
1651
  5
1651
331
15DB
  5
15DB
331
1524
  5
1524
331
1563
  5
1563
331
14ED
  5
14ED
331
15E3
  5
15E3
331
161A
  5
161A
331
15A4
  5
15A4
331
1659
  5
165B
331
152C
  5
152C
331
156B
  5
156B
331
14B6
  5
14B6
331
15EB
  5
15EB
331
1622
  5
1622
331
15AC
  5
15AC
331
1661
  5
1663
331
14F5
  5
14F5
331
14FD
  5
14FD
331
1534
  5
1534
331
15B4
  5
15B4
331
15F3
  5
15F3
331
162A
  5
162A
331
14BE
  5
14BE
331
1573
  5
1573
331
157B
  5
157B
331
1632
  5
1632
331
14C6
  5
14C6
331
1505
  5
1505
331
15BC
  5
15BC
331
15FB
  5
15FB
331
153C
  5
153C
331
1544
  5
1544
331
1583
  5
1583
331
14CE
  5
14CE
331
150D
  5
150D
  0
LAYOUT
  5
E96
102
{ACAD_XDICTIONARY
360
1866
102
}
102
{ACAD_REACTORS
330
A85
102
}
330
A85
100
AcDbPlotSettings
  1

  2
\\SECO_TOOLS\Q_HP8100_WMM.LANDSKAP.PL1.HUS_A.FAGERSTA.SE.SECO_TOOLS
  4

  6

 40
0.0
 41
0.0
 42
0.0
 43
0.0
 44
0.0
 45
0.0
 46
0.0
 47
0.0
 48
0.0
 49
0.0
140
0.0
141
0.0
142
1.0
143
1.0
 70
   688
 72
     0
 73
     0
 74
     5
  7

 75
    16
147
1.0
148
0.0
149
0.0
100
AcDbLayout
  1
Layout1
 70
     0
 71
     1
 10
0.0
 20
0.0
 11
12.0
 21
9.0
 12
0.0
 22
0.0
 32
0.0
 14
1.000000000000000E+20
 24
1.000000000000000E+20
 34
1.000000000000000E+20
 15
-1.000000000000000E+20
 25
-1.000000000000000E+20
 35
-1.000000000000000E+20
146
0.0
 13
0.0
 23
0.0
 33
0.0
 16
1.0
 26
0.0
 36
0.0
 17
0.0
 27
1.0
 37
0.0
 76
     0
330
16
  0
LAYOUT
  5
E95
102
{ACAD_XDICTIONARY
360
1864
102
}
102
{ACAD_REACTORS
330
A85
102
}
330
A85
100
AcDbPlotSettings
  1

  2
\\SECO_TOOLS\Q_HP8100_WMM.LANDSKAP.PL1.HUS_A.FAGERSTA.SE.SECO_TOOLS
  4

  6

 40
0.0
 41
0.0
 42
0.0
 43
0.0
 44
0.0
 45
0.0
 46
0.0
 47
0.0
 48
0.0
 49
0.0
140
0.0
141
0.0
142
1.0
143
1.0
 70
  1712
 72
     0
 73
     0
 74
     0
  7

 75
     0
147
1.0
148
0.0
149
0.0
100
AcDbLayout
  1
Model
 70
     1
 71
     0
 10
0.0
 20
0.0
 11
12.0
 21
9.0
 12
0.0
 22
0.0
 32
0.0
 14
0.0
 24
0.0
 34
0.0
 15
0.0
 25
0.0
 35
0.0
146
0.0
 13
0.0
 23
0.0
 33
0.0
 16
1.0
 26
0.0
 36
0.0
 17
0.0
 27
1.0
 37
0.0
 76
     0
330
19
331
1288
  0
MATERIAL
  5
128C
102
{ACAD_XDICTIONARY
360
1825
102
}
102
{ACAD_REACTORS
330
128A
102
}
330
128A
100
AcDbMaterial
  1
ByBlock
  0
MATERIAL
  5
128B
102
{ACAD_XDICTIONARY
360
1823
102
}
102
{ACAD_REACTORS
330
128A
102
}
330
128A
100
AcDbMaterial
  1
ByLayer
  0
MATERIAL
  5
128D
102
{ACAD_XDICTIONARY
360
1827
102
}
102
{ACAD_REACTORS
330
128A
102
}
330
128A
100
AcDbMaterial
  1
Global
  0
MLINESTYLE
  5
1C
102
{ACAD_REACTORS
330
E
102
}
330
E
100
AcDbMlineStyle
  2
STANDARD
 70
     0
  3

 62
     0
 51
90.0
 52
90.0
 71
     2
 49
0.5
 62
   256
  6
BYLAYER
 49
-0.5
 62
   256
  6
BYLAYER
  0
ACDBPLACEHOLDER
  5
E94
102
{ACAD_REACTORS
330
E93
102
}
330
E93
  0
TABLESTYLE
  5
12A1
102
{ACAD_XDICTIONARY
360
1868
102
}
102
{ACAD_REACTORS
330
12A0
102
}
330
12A0
100
AcDbTableStyle
  3
Standard
 70
     0
 71
     0
 40
1.5
 41
1.5
280
     0
281
     0
  7
STANDARD
140
4.5
170
     2
 62
     0
 63
     7
283
     0
274
    -2
284
     1
 64
     0
275
    -2
285
     1
 65
     0
276
    -2
286
     1
 66
     0
277
    -2
287
     1
 67
     0
278
    -2
288
     1
 68
     0
279
    -2
289
     1
 69
     0
  7
STANDARD
140
6.0
170
     5
 62
     0
 63
     7
283
     0
274
    -2
284
     1
 64
     0
275
    -2
285
     1
 65
     0
276
    -2
286
     1
 66
     0
277
    -2
287
     1
 67
     0
278
    -2
288
     1
 68
     0
279
    -2
289
     1
 69
     0
  7
STANDARD
140
4.5
170
     5
 62
     0
 63
     7
283
     0
274
    -2
284
     1
 64
     0
275
    -2
285
     1
 65
     0
276
    -2
286
     1
 66
     0
277
    -2
287
     1
 67
     0
278
    -2
288
     1
 68
     0
279
    -2
289
     1
 69
     0
  0
VISUALSTYLE
  5
1294
102
{ACAD_REACTORS
330
128E
102
}
330
128E
100
AcDbVisualStyle
  2
2dWireframe
 70
     4
 71
     0
 72
     2
 73
     0
 90
        0
 40
-0.6
 41
-30.0
 62
     5
 63
     7
 74
     1
 91
        4
 64
     7
 65
   257
 75
     1
175
     1
 42
1.0
 92
        0
 66
   257
 43
1.0
 76
     1
 77
     6
 78
     2
 67
     7
 79
     5
170
     0
171
     0
290
     0
174
     0
 93
        1
 44
0.0
173
     0
291
     0
 45
0.0
1001
ACAD
1000
AcDbSavedByObjectVersion
1070
     0
1000
AcDbSavedByObjectVersion
1070
     0
1000
AcDbSavedByObjectVersion
1070
     0
1000
AcDbSavedByObjectVersion
1070
     0
  0
VISUALSTYLE
  5
1296
102
{ACAD_REACTORS
330
128E
102
}
330
128E
100
AcDbVisualStyle
  2
3D Hidden
 70
     6
 71
     1
 72
     2
 73
     2
 90
        0
 40
-0.6
 41
-30.0
 62
     5
 63
     7
 74
     2
 91
        2
 64
     7
 65
   257
 75
     2
175
     1
 42
40.0
 92
        0
 66
   257
 43
1.0
 76
     1
 77
     6
 78
     2
 67
     7
 79
     3
170
     0
171
     0
290
     0
174
     0
 93
        1
 44
0.0
173
     0
291
     0
 45
0.0
1001
ACAD
1000
AcDbSavedByObjectVersion
1070
     0
1000
AcDbSavedByObjectVersion
1070
     0
1000
AcDbSavedByObjectVersion
1070
     0
1000
AcDbSavedByObjectVersion
1070
     0
  0
VISUALSTYLE
  5
1295
102
{ACAD_REACTORS
330
128E
102
}
330
128E
100
AcDbVisualStyle
  2
3dWireframe
 70
     5
 71
     0
 72
     2
 73
     0
 90
        0
 40
-0.6
 41
-30.0
 62
     5
 63
     7
 74
     1
 91
        4
 64
     7
 65
   257
 75
     1
175
     1
 42
1.0
 92
        0
 66
   257
 43
1.0
 76
     1
 77
     6
 78
     2
 67
     7
 79
     5
170
     0
171
     0
290
     0
174
     0
 93
        1
 44
0.0
173
     0
291
     0
 45
0.0
1001
ACAD
1000
AcDbSavedByObjectVersion
1070
     0
1000
AcDbSavedByObjectVersion
1070
     0
1000
AcDbSavedByObjectVersion
1070
     0
1000
AcDbSavedByObjectVersion
1070
     0
  0
VISUALSTYLE
  5
1293
102
{ACAD_REACTORS
330
128E
102
}
330
128E
100
AcDbVisualStyle
  2
Basic
 70
     7
 71
     1
 72
     0
 73
     1
 90
        0
 40
-0.6
 41
-30.0
 62
     5
 63
     7
 74
     0
 91
        4
 64
     7
 65
   257
 75
     1
175
     1
 42
1.0
 92
        8
 66
     7
 43
1.0
 76
     1
 77
     6
 78
     2
 67
     7
 79
     5
170
     0
171
     0
290
     0
174
     0
 93
        1
 44
0.0
173
     0
291
     1
 45
0.0
1001
ACAD
1000
AcDbSavedByObjectVersion
1070
     0
1000
AcDbSavedByObjectVersion
1070
     0
1000
AcDbSavedByObjectVersion
1070
     0
1000
AcDbSavedByObjectVersion
1070
     0
  0
VISUALSTYLE
  5
129A
102
{ACAD_REACTORS
330
128E
102
}
330
128E
100
AcDbVisualStyle
  2
Brighten
 70
    12
 71
     2
 72
     2
 73
     0
 90
        0
 40
-0.6
 41
-30.0
 62
     5
 63
     7
 74
     1
 91
        4
 64
     7
 65
   257
 75
     1
175
     1
 42
1.0
 92
        8
 66
     7
 43
1.0
 76
     1
 77
     6
 78
     2
 67
     7
 79
     5
170
     0
171
     0
290
     0
174
     0
 93
        1
 44
50.0
173
     0
291
     1
 45
0.0
1001
ACAD
1000
AcDbSavedByObjectVersion
1070
     0
1000
AcDbSavedByObjectVersion
1070
     0
1000
AcDbSavedByObjectVersion
1070
     0
1000
AcDbSavedByObjectVersion
1070
     0
  0
VISUALSTYLE
  5
129E
102
{ACAD_REACTORS
330
128E
102
}
330
128E
100
AcDbVisualStyle
  2
ColorChange
 70
    16
 71
     2
 72
     2
 73
     3
 90
        0
 40
-0.6
 41
-30.0
 62
     5
 63
     8
 74
     1
 91
        4
 64
     7
 65
   257
 75
     1
175
     1
 42
1.0
 92
        8
 66
     8
 43
1.0
 76
     1
 77
     6
 78
     2
 67
     7
 79
     5
170
     0
171
     0
290
     0
174
     0
 93
        1
 44
0.0
173
     0
291
     1
 45
0.0
1001
ACAD
1000
AcDbSavedByObjectVersion
1070
     0
1000
AcDbSavedByObjectVersion
1070
     0
1000
AcDbSavedByObjectVersion
1070
     0
1000
AcDbSavedByObjectVersion
1070
     0
  0
VISUALSTYLE
  5
1297
102
{ACAD_REACTORS
330
128E
102
}
330
128E
100
AcDbVisualStyle
  2
Conceptual
 70
     9
 71
     3
 72
     2
 73
     0
 90
        0
 40
-0.6
 41
-30.0
 62
     5
 63
     7
 74
     2
 91
        2
 64
     7
 65
   257
 75
     1
175
     1
 42
40.0
 92
        8
 66
     7
 43
1.0
 76
     1
 77
     6
 78
     2
 67
     7
 79
     3
170
     0
171
     0
290
     0
174
     0
 93
        1
 44
0.0
173
     0
291
     0
 45
0.0
1001
ACAD
1000
AcDbSavedByObjectVersion
1070
     0
1000
AcDbSavedByObjectVersion
1070
     0
1000
AcDbSavedByObjectVersion
1070
     0
1000
AcDbSavedByObjectVersion
1070
     0
  0
VISUALSTYLE
  5
1299
102
{ACAD_REACTORS
330
128E
102
}
330
128E
100
AcDbVisualStyle
  2
Dim
 70
    11
 71
     2
 72
     2
 73
     0
 90
        0
 40
-0.6
 41
-30.0
 62
     5
 63
     7
 74
     1
 91
        4
 64
     7
 65
   257
 75
     1
175
     1
 42
1.0
 92
        8
 66
     7
 43
1.0
 76
     1
 77
     6
 78
     2
 67
     7
 79
     5
170
     0
171
     0
290
     0
174
     0
 93
        1
 44
-50.0
173
     0
291
     1
 45
0.0
1001
ACAD
1000
AcDbSavedByObjectVersion
1070
     0
1000
AcDbSavedByObjectVersion
1070
     0
1000
AcDbSavedByObjectVersion
1070
     0
1000
AcDbSavedByObjectVersion
1070
     0
  0
VISUALSTYLE
  5
129D
102
{ACAD_REACTORS
330
128E
102
}
330
128E
100
AcDbVisualStyle
  2
Facepattern
 70
    15
 71
     2
 72
     2
 73
     0
 90
        0
 40
-0.6
 41
-30.0
 62
     5
 63
     7
 74
     1
 91
        4
 64
     7
 65
   257
 75
     1
175
     1
 42
1.0
 92
        8
 66
     7
 43
1.0
 76
     1
 77
     6
 78
     2
 67
     7
 79
     5
170
     0
171
     0
290
     0
174
     0
 93
        1
 44
0.0
173
     0
291
     1
 45
0.0
1001
ACAD
1000
AcDbSavedByObjectVersion
1070
     0
1000
AcDbSavedByObjectVersion
1070
     0
1000
AcDbSavedByObjectVersion
1070
     0
1000
AcDbSavedByObjectVersion
1070
     0
  0
VISUALSTYLE
  5
128F
102
{ACAD_REACTORS
330
128E
102
}
330
128E
100
AcDbVisualStyle
  2
Flat
 70
     0
 71
     2
 72
     1
 73
     1
 90
        2
 40
-0.6
 41
30.0
 62
     5
 63
     7
 74
     0
 91
        4
 64
     7
 65
   257
 75
     1
175
     1
 42
1.0
 92
        8
 66
     7
 43
1.0
 76
     1
 77
     6
 78
     2
 67
     7
 79
     5
170
     0
171
     0
290
     0
174
     0
 93
       13
 44
0.0
173
     0
291
     1
 45
0.0
1001
ACAD
1000
AcDbSavedByObjectVersion
1070
     0
1000
AcDbSavedByObjectVersion
1070
     0
1000
AcDbSavedByObjectVersion
1070
     0
1000
AcDbSavedByObjectVersion
1070
     0
  0
VISUALSTYLE
  5
1290
102
{ACAD_REACTORS
330
128E
102
}
330
128E
100
AcDbVisualStyle
  2
FlatWithEdges
 70
     1
 71
     2
 72
     1
 73
     1
 90
        2
 40
-0.6
 41
30.0
 62
     5
 63
     7
 74
     1
 91
        4
 64
     7
 65
   257
 75
     1
175
     1
 42
1.0
 92
        0
 66
   257
 43
1.0
 76
     1
 77
     6
 78
     2
 67
     7
 79
     5
170
     0
171
     0
290
     0
174
     0
 93
       13
 44
0.0
173
     0
291
     1
 45
0.0
1001
ACAD
1000
AcDbSavedByObjectVersion
1070
     0
1000
AcDbSavedByObjectVersion
1070
     0
1000
AcDbSavedByObjectVersion
1070
     0
1000
AcDbSavedByObjectVersion
1070
     0
  0
VISUALSTYLE
  5
1291
102
{ACAD_REACTORS
330
128E
102
}
330
128E
100
AcDbVisualStyle
  2
Gouraud
 70
     2
 71
     2
 72
     2
 73
     1
 90
        2
 40
-0.6
 41
30.0
 62
     5
 63
     7
 74
     0
 91
        4
 64
     7
 65
   257
 75
     1
175
     1
 42
1.0
 92
        0
 66
     7
 43
1.0
 76
     1
 77
     6
 78
     2
 67
     7
 79
     5
170
     0
171
     0
290
     0
174
     0
 93
       13
 44
0.0
173
     0
291
     1
 45
0.0
1001
ACAD
1000
AcDbSavedByObjectVersion
1070
     0
1000
AcDbSavedByObjectVersion
1070
     0
1000
AcDbSavedByObjectVersion
1070
     0
1000
AcDbSavedByObjectVersion
1070
     0
  0
VISUALSTYLE
  5
1292
102
{ACAD_REACTORS
330
128E
102
}
330
128E
100
AcDbVisualStyle
  2
GouraudWithEdges
 70
     3
 71
     2
 72
     2
 73
     1
 90
        2
 40
-0.6
 41
30.0
 62
     5
 63
     7
 74
     1
 91
        4
 64
     7
 65
   257
 75
     1
175
     1
 42
1.0
 92
        0
 66
   257
 43
1.0
 76
     1
 77
     6
 78
     2
 67
     7
 79
     5
170
     0
171
     0
290
     0
174
     0
 93
       13
 44
0.0
173
     0
291
     1
 45
0.0
1001
ACAD
1000
AcDbSavedByObjectVersion
1070
     0
1000
AcDbSavedByObjectVersion
1070
     0
1000
AcDbSavedByObjectVersion
1070
     0
1000
AcDbSavedByObjectVersion
1070
     0
  0
VISUALSTYLE
  5
129C
102
{ACAD_REACTORS
330
128E
102
}
330
128E
100
AcDbVisualStyle
  2
Linepattern
 70
    14
 71
     2
 72
     2
 73
     0
 90
        0
 40
-0.6
 41
-30.0
 62
     5
 63
     7
 74
     1
 91
        4
 64
     7
 65
   257
 75
     7
175
     7
 42
1.0
 92
        8
 66
     7
 43
1.0
 76
     1
 77
     6
 78
     2
 67
     7
 79
     5
170
     0
171
     0
290
     0
174
     0
 93
        1
 44
0.0
173
     0
291
     1
 45
0.0
1001
ACAD
1000
AcDbSavedByObjectVersion
1070
     0
1000
AcDbSavedByObjectVersion
1070
     0
1000
AcDbSavedByObjectVersion
1070
     0
1000
AcDbSavedByObjectVersion
1070
     0
  0
VISUALSTYLE
  5
1298
102
{ACAD_REACTORS
330
128E
102
}
330
128E
100
AcDbVisualStyle
  2
Realistic
 70
     8
 71
     2
 72
     2
 73
     0
 90
        0
 40
-0.6
 41
-30.0
 62
     5
 63
     7
 74
     1
 91
        0
 64
     7
 65
   257
 75
     1
175
     1
 42
1.0
 92
        8
 66
     8
 43
1.0
 76
     1
 77
     6
 78
     2
 67
     7
 79
     5
170
     0
171
     0
290
     0
174
     0
 93
       13
 44
0.0
173
     0
291
     0
 45
0.0
1001
ACAD
1000
AcDbSavedByObjectVersion
1070
     0
1000
AcDbSavedByObjectVersion
1070
     0
1000
AcDbSavedByObjectVersion
1070
     0
1000
AcDbSavedByObjectVersion
1070
     0
  0
VISUALSTYLE
  5
129B
102
{ACAD_REACTORS
330
128E
102
}
330
128E
100
AcDbVisualStyle
  2
Thicken
 70
    13
 71
     2
 72
     2
 73
     0
 90
        0
 40
-0.6
 41
-30.0
 62
     5
 63
     7
 74
     1
 91
        4
 64
     7
 65
   257
 75
     1
175
     1
 42
1.0
 92
       12
 66
     7
 43
1.0
 76
     1
 77
     6
 78
     2
 67
     7
 79
     5
170
     0
171
     0
290
     0
174
     0
 93
        1
 44
0.0
173
     0
291
     1
 45
0.0
1001
ACAD
1000
AcDbSavedByObjectVersion
1070
     0
1000
AcDbSavedByObjectVersion
1070
     0
1000
AcDbSavedByObjectVersion
1070
     0
1000
AcDbSavedByObjectVersion
1070
     0
  0
DICTIONARYVAR
  5
180D
102
{ACAD_REACTORS
330
180C
102
}
330
180C
100
DictionaryVariables
280
     0
  1
STANDARD
  0
DICTIONARYVAR
  5
1810
102
{ACAD_REACTORS
330
180C
102
}
330
180C
100
DictionaryVariables
280
     0
  1
1
  0
DICTIONARYVAR
  5
180F
102
{ACAD_REACTORS
330
180C
102
}
330
180C
100
DictionaryVariables
280
     0
  1
0
  0
DICTIONARYVAR
  5
180E
102
{ACAD_REACTORS
330
180C
102
}
330
180C
100
DictionaryVariables
280
     0
  1
127
  0
DICTIONARY
  5
1866
330
E96
100
AcDbDictionary
280
     1
281
     1
  3
ACAD_XREC_ROUNDTRIP
360
1867
  0
DICTIONARY
  5
1864
330
E95
100
AcDbDictionary
280
     1
281
     1
  3
ACAD_XREC_ROUNDTRIP
360
1865
  0
DICTIONARY
  5
1825
330
128C
100
AcDbDictionary
280
     1
281
     1
  3
ACAD_XREC_ROUNDTRIP
360
1826
  0
DICTIONARY
  5
1823
330
128B
100
AcDbDictionary
280
     1
281
     1
  3
ACAD_XREC_ROUNDTRIP
360
1824
  0
DICTIONARY
  5
1827
330
128D
100
AcDbDictionary
280
     1
281
     1
  3
ACAD_XREC_ROUNDTRIP
360
1828
  0
DICTIONARY
  5
1868
330
12A1
100
AcDbDictionary
280
     1
281
     1
  3
ACAD_XREC_ROUNDTRIP
360
1869
  0
XRECORD
  5
1867
102
{ACAD_REACTORS
330
1866
102
}
330
1866
100
AcDbXrecord
280
     1
102
SHADEPLOT
 70
     0
102
SHADEPLOTRESLEVEL
 70
     2
102
SHADEPLOTCUSTOMDPI
 70
   300
  0
XRECORD
  5
1865
102
{ACAD_REACTORS
330
1864
102
}
330
1864
100
AcDbXrecord
280
     1
102
SHADEPLOT
 70
     0
102
SHADEPLOTRESLEVEL
 70
     2
102
SHADEPLOTCUSTOMDPI
 70
   300
  0
XRECORD
  5
1826
102
{ACAD_REACTORS
330
1825
102
}
330
1825
100
AcDbXrecord
280
     1
102
MATERIAL
148
0.0
149
0.0
149
0.0
 93
        0
 94
       63
282
     0
 72
     1
 77
     1
171
     1
175
     1
179
     1
273
     0
  0
XRECORD
  5
1824
102
{ACAD_REACTORS
330
1823
102
}
330
1823
100
AcDbXrecord
280
     1
102
MATERIAL
148
0.0
149
0.0
149
0.0
 93
        0
 94
       63
282
     0
 72
     1
 77
     1
171
     1
175
     1
179
     1
273
     0
  0
XRECORD
  5
1828
102
{ACAD_REACTORS
330
1827
102
}
330
1827
100
AcDbXrecord
280
     1
102
MATERIAL
148
0.0
149
0.0
149
0.0
 93
        0
 94
       63
282
     0
 72
     1
 77
     1
171
     1
175
     1
179
     1
273
     0
  0
XRECORD
  5
1869
102
{ACAD_REACTORS
330
1868
102
}
330
1868
100
AcDbXrecord
280
     1
102
ACAD_ROUNDTRIP_PRE2007_TABLESTYLE
 90
      512
 91
        0
  1

 92
      512
 93
        0
  2

 94
      512
 95
        0
  3

  0
ENDSEC
  0
EOF
