  0
SECTION
  2
HEADER
  9
$ACADVER
  1
AC1015
  9
$ACADMAINTVER
 70
    20
  9
$DWGCODEPAGE
  3
ANSI_1252
  9
$INSBASE
 10
0.0
 20
0.0
 30
0.0
  9
$EXTMIN
 10
-6.54455681671306
 20
-28.1453647384185
 30
-0.0015258207003583
  9
$EXTMAX
 10
34.3522014619985
 20
40.6168418722955
 30
0.0000000349246037
  9
$LIMMIN
 10
-170.0
 20
-170.0
  9
$LIMMAX
 10
519.0
 20
260.0
  9
$ORTHOMODE
 70
     1
  9
$REGENMODE
 70
     1
  9
$FILLMODE
 70
     1
  9
$QTEXTMODE
 70
     0
  9
$MIRRTEXT
 70
     1
  9
$LTSCALE
 40
10.0
  9
$ATTMODE
 70
     1
  9
$TEXTSIZE
 40
3.5
  9
$TRACEWID
 40
0.05
  9
$TEXTSTYLE
  7
SIMPLEX
  9
$CLAYER
  8
2
  9
$CELTYPE
  6
BYLAYER
  9
$CECOLOR
 62
   256
  9
$CELTSCALE
 40
1.0
  9
$DISPSILH
 70
     0
  9
$DIMSCALE
 40
1.0
  9
$DIMASZ
 40
3.5
  9
$DIMEXO
 40
1.0
  9
$DIMDLI
 40
0.5
  9
$DIMRND
 40
0.0
  9
$DIMDLE
 40
0.0
  9
$DIMEXE
 40
1.0
  9
$DIMTP
 40
0.0
  9
$DIMTM
 40
0.0
  9
$DIMTXT
 40
3.5
  9
$DIMCEN
 40
0.0
  9
$DIMTSZ
 40
0.0
  9
$DIMTOL
 70
     0
  9
$DIMLIM
 70
     0
  9
$DIMTIH
 70
     0
  9
$DIMTOH
 70
     0
  9
$DIMSE1
 70
     0
  9
$DIMSE2
 70
     0
  9
$DIMTAD
 70
     1
  9
$DIMZIN
 70
     0
  9
$DIMBLK
  1

  9
$DIMASO
 70
     1
  9
$DIMSHO
 70
     1
  9
$DIMPOST
  1

  9
$DIMAPOST
  1

  9
$DIMALT
 70
     0
  9
$DIMALTD
 70
     2
  9
$DIMALTF
 40
25.4
  9
$DIMLFAC
 40
1.0
  9
$DIMTOFL
 70
     0
  9
$DIMTVP
 40
0.0
  9
$DIMTIX
 70
     0
  9
$DIMSOXD
 70
     0
  9
$DIMSAH
 70
     0
  9
$DIMBLK1
  1

  9
$DIMBLK2
  1

  9
$DIMSTYLE
  2
V-TYGEN_-160
  9
$DIMCLRD
 70
     0
  9
$DIMCLRE
 70
     0
  9
$DIMCLRT
 70
     0
  9
$DIMTFAC
 40
1.0
  9
$DIMGAP
 40
1.0
  9
$DIMJUST
 70
     0
  9
$DIMSD1
 70
     0
  9
$DIMSD2
 70
     0
  9
$DIMTOLJ
 70
     1
  9
$DIMTZIN
 70
     0
  9
$DIMALTZ
 70
     0
  9
$DIMALTTZ
 70
     0
  9
$DIMUPT
 70
     0
  9
$DIMDEC
 70
     0
  9
$DIMTDEC
 70
     0
  9
$DIMALTU
 70
     2
  9
$DIMALTTD
 70
     2
  9
$DIMTXSTY
  7
STANDARD
  9
$DIMAUNIT
 70
     0
  9
$DIMADEC
 70
     0
  9
$DIMALTRND
 40
0.0
  9
$DIMAZIN
 70
     0
  9
$DIMDSEP
 70
    46
  9
$DIMATFIT
 70
     3
  9
$DIMFRAC
 70
     0
  9
$DIMLDRBLK
  1

  9
$DIMLUNIT
 70
     2
  9
$DIMLWD
 70
    -1
  9
$DIMLWE
 70
    -2
  9
$DIMTMOVE
 70
     0
  9
$LUNITS
 70
     2
  9
$LUPREC
 70
     2
  9
$SKETCHINC
 40
0.1
  9
$FILLETRAD
 40
0.0
  9
$AUNITS
 70
     0
  9
$AUPREC
 70
     0
  9
$MENU
  1
TDMWIN
  9
$ELEVATION
 40
0.0
  9
$PELEVATION
 40
0.0
  9
$THICKNESS
 40
0.0
  9
$LIMCHECK
 70
     0
  9
$CHAMFERA
 40
0.0
  9
$CHAMFERB
 40
0.0
  9
$CHAMFERC
 40
0.0
  9
$CHAMFERD
 40
0.0
  9
$SKPOLY
 70
     0
  9
$TDCREATE
 40
2456217.648377662
  9
$TDUCREATE
 40
2456217.419210996
  9
$TDUPDATE
 40
2456217.650063704
  9
$TDUUPDATE
 40
2456217.420897037
  9
$TDINDWG
 40
0.0016864120
  9
$TDUSRTIMER
 40
0.0016862269
  9
$USRTIMER
 70
     1
  9
$ANGBASE
 50
0.0
  9
$ANGDIR
 70
     0
  9
$PDMODE
 70
     2
  9
$PDSIZE
 40
0.0
  9
$PLINEWID
 40
0.0
  9
$SPLFRAME
 70
     0
  9
$SPLINETYPE
 70
     6
  9
$SPLINESEGS
 70
     8
  9
$HANDSEED
  5
163C
  9
$SURFTAB1
 70
     6
  9
$SURFTAB2
 70
     6
  9
$SURFTYPE
 70
     6
  9
$SURFU
 70
     6
  9
$SURFV
 70
     6
  9
$UCSBASE
  2

  9
$UCSNAME
  2

  9
$UCSORG
 10
0.0
 20
0.0
 30
0.0
  9
$UCSXDIR
 10
1.0
 20
0.0
 30
0.0
  9
$UCSYDIR
 10
0.0
 20
1.0
 30
0.0
  9
$UCSORTHOREF
  2

  9
$UCSORTHOVIEW
 70
     0
  9
$UCSORGTOP
 10
0.0
 20
0.0
 30
0.0
  9
$UCSORGBOTTOM
 10
0.0
 20
0.0
 30
0.0
  9
$UCSORGLEFT
 10
0.0
 20
0.0
 30
0.0
  9
$UCSORGRIGHT
 10
0.0
 20
0.0
 30
0.0
  9
$UCSORGFRONT
 10
0.0
 20
0.0
 30
0.0
  9
$UCSORGBACK
 10
0.0
 20
0.0
 30
0.0
  9
$PUCSBASE
  2

  9
$PUCSNAME
  2

  9
$PUCSORG
 10
0.0
 20
0.0
 30
0.0
  9
$PUCSXDIR
 10
1.0
 20
0.0
 30
0.0
  9
$PUCSYDIR
 10
0.0
 20
1.0
 30
0.0
  9
$PUCSORTHOREF
  2

  9
$PUCSORTHOVIEW
 70
     0
  9
$PUCSORGTOP
 10
0.0
 20
0.0
 30
0.0
  9
$PUCSORGBOTTOM
 10
0.0
 20
0.0
 30
0.0
  9
$PUCSORGLEFT
 10
0.0
 20
0.0
 30
0.0
  9
$PUCSORGRIGHT
 10
0.0
 20
0.0
 30
0.0
  9
$PUCSORGFRONT
 10
0.0
 20
0.0
 30
0.0
  9
$PUCSORGBACK
 10
0.0
 20
0.0
 30
0.0
  9
$USERI1
 70
     0
  9
$USERI2
 70
     0
  9
$USERI3
 70
     0
  9
$USERI4
 70
     0
  9
$USERI5
 70
     0
  9
$USERR1
 40
0.0
  9
$USERR2
 40
0.0
  9
$USERR3
 40
0.0
  9
$USERR4
 40
0.0
  9
$USERR5
 40
0.0
  9
$WORLDVIEW
 70
     1
  9
$SHADEDGE
 70
     3
  9
$SHADEDIF
 70
    70
  9
$TILEMODE
 70
     1
  9
$MAXACTVP
 70
    16
  9
$PINSBASE
 10
0.0
 20
0.0
 30
0.0
  9
$PLIMCHECK
 70
     0
  9
$PEXTMIN
 10
1.000000000000000E+20
 20
1.000000000000000E+20
 30
1.000000000000000E+20
  9
$PEXTMAX
 10
-1.000000000000000E+20
 20
-1.000000000000000E+20
 30
-1.000000000000000E+20
  9
$PLIMMIN
 10
0.0
 20
0.0
  9
$PLIMMAX
 10
12.0
 20
9.0
  9
$UNITMODE
 70
     0
  9
$VISRETAIN
 70
     0
  9
$PLINEGEN
 70
     0
  9
$PSLTSCALE
 70
     0
  9
$TREEDEPTH
 70
  3020
  9
$CMLSTYLE
  2
STANDARD
  9
$CMLJUST
 70
     0
  9
$CMLSCALE
 40
1.0
  9
$PROXYGRAPHICS
 70
     1
  9
$MEASUREMENT
 70
     1
  9
$CELWEIGHT
370
    -1
  9
$ENDCAPS
280
     0
  9
$JOINSTYLE
280
     0
  9
$LWDISPLAY
290
     0
  9
$INSUNITS
 70
     0
  9
$HYPERLINKBASE
  1

  9
$STYLESHEET
  1

  9
$XEDIT
290
     1
  9
$CEPSNTYPE
380
     0
  9
$PSTYLEMODE
290
     1
  9
$FINGERPRINTGUID
  2
{3A07E0B9-F90E-419A-B2F3-80B9B71B4F19}
  9
$VERSIONGUID
  2
{BC57B006-5F16-46E3-AA23-1AFF6269F6A8}
  9
$EXTNAMES
290
     1
  9
$PSVPSCALE
 40
0.0
  9
$OLESTARTUP
290
     0
  0
ENDSEC
  0
SECTION
  2
CLASSES
  0
CLASS
  1
ACDBDICTIONARYWDFLT
  2
AcDbDictionaryWithDefault
  3
ObjectDBX Classes
 90
        0
280
     0
281
     0
  0
CLASS
  1
ACDBPLACEHOLDER
  2
AcDbPlaceHolder
  3
ObjectDBX Classes
 90
        0
280
     0
281
     0
  0
CLASS
  1
LAYOUT
  2
AcDbLayout
  3
ObjectDBX Classes
 90
        0
280
     0
281
     0
  0
CLASS
  1
MATERIAL
  2
AcDbMaterial
  3
ObjectDBX Classes
 90
     1153
280
     0
281
     0
  0
CLASS
  1
VISUALSTYLE
  2
AcDbVisualStyle
  3
ObjectDBX Classes
 90
     4095
280
     0
281
     0
  0
CLASS
  1
TABLESTYLE
  2
AcDbTableStyle
  3
ObjectDBX Classes
 90
     4095
280
     0
281
     0
  0
CLASS
  1
SCALE
  2
AcDbScale
  3
ObjectDBX Classes
 90
     1153
280
     0
281
     0
  0
CLASS
  1
MLEADERSTYLE
  2
AcDbMLeaderStyle
  3
ACDB_MLEADERSTYLE_CLASS
 90
     4095
280
     0
281
     0
  0
CLASS
  1
EXACXREFPANELOBJECT
  2
ExAcXREFPanelObject
  3
EXAC_ESW
 90
     1025
280
     0
281
     0
  0
CLASS
  1
NPOCOLLECTION
  2
AcDbImpNonPersistentObjectsCollection
  3
ObjectDBX Classes
 90
     1153
280
     0
281
     0
  0
CLASS
  1
DICTIONARYVAR
  2
AcDbDictionaryVar
  3
ObjectDBX Classes
 90
        0
280
     0
281
     0
  0
CLASS
  1
CELLSTYLEMAP
  2
AcDbCellStyleMap
  3
ObjectDBX Classes
 90
     1152
280
     0
281
     0
  0
ENDSEC
  0
SECTION
  2
TABLES
  0
TABLE
  2
VPORT
  5
8
330
0
100
AcDbSymbolTable
 70
     1
  0
VPORT
  5
1288
330
8
100
AcDbSymbolTableRecord
100
AcDbViewportTableRecord
  2
*Active
 70
     0
 10
0.0
 20
0.0
 11
1.0
 21
1.0
 12
13.9038223226427
 22
6.23573856693851
 13
0.0
 23
0.0
 14
5.0
 24
5.0
 15
5.0
 25
5.0
 16
0.0
 26
0.0
 36
1.0
 17
0.0
 27
0.0
 37
0.0
 40
69.20111431248449
 41
1.751863684771032
 42
50.0
 43
0.0
 44
0.0
 50
0.0
 51
0.0
 71
     0
 72
   100
 73
     1
 74
     3
 75
     0
 76
     0
 77
     0
 78
     0
281
     0
 65
     1
110
0.0
120
0.0
130
0.0
111
1.0
121
0.0
131
0.0
112
0.0
122
1.0
132
0.0
 79
     0
146
0.0
  0
ENDTAB
  0
TABLE
  2
LTYPE
  5
5
330
0
100
AcDbSymbolTable
 70
     4
  0
LTYPE
  5
13
330
5
100
AcDbSymbolTableRecord
100
AcDbLinetypeTableRecord
  2
BYBLOCK
 70
     0
  3

 72
    65
 73
     0
 40
0.0
  0
LTYPE
  5
14
330
5
100
AcDbSymbolTableRecord
100
AcDbLinetypeTableRecord
  2
BYLAYER
 70
     0
  3

 72
    65
 73
     0
 40
0.0
  0
LTYPE
  5
15
330
5
100
AcDbSymbolTableRecord
100
AcDbLinetypeTableRecord
  2
CONTINUOUS
 70
     0
  3
Solid line
 72
    65
 73
     0
 40
0.0
  0
LTYPE
  5
20
330
5
100
AcDbSymbolTableRecord
100
AcDbLinetypeTableRecord
  2
CENTER
 70
     0
  3
____ . ____ . ____
 72
    65
 73
     4
 40
1.5
 49
1.0
 74
     0
 49
-0.25
 74
     0
 49
0.0
 74
     0
 49
-0.25
 74
     0
  0
LTYPE
  5
21
330
5
100
AcDbSymbolTableRecord
100
AcDbLinetypeTableRecord
  2
HIDDEN
 70
     0
  3
_ _ _ _ _ _ _ _ _ _ _ _ _ _ _ _ _ _ _ _ _ _ _
 72
    65
 73
     2
 40
0.375
 49
0.25
 74
     0
 49
-0.125
 74
     0
  0
ENDTAB
  0
TABLE
  2
LAYER
  5
2
330
0
100
AcDbSymbolTable
 70
    16
  0
LAYER
  5
F
102
{ACAD_XDICTIONARY
360
155F
102
}
330
2
100
AcDbSymbolTableRecord
100
AcDbLayerTableRecord
  2
0
 70
     0
 62
     7
  6
CONTINUOUS
370
    -3
390
E94
  0
LAYER
  5
1E
102
{ACAD_XDICTIONARY
360
1561
102
}
330
2
100
AcDbSymbolTableRecord
100
AcDbLayerTableRecord
  2
1
 70
     0
 62
     4
  6
CONTINUOUS
370
    -3
390
E94
  0
LAYER
  5
22
102
{ACAD_XDICTIONARY
360
1563
102
}
330
2
100
AcDbSymbolTableRecord
100
AcDbLayerTableRecord
  2
SK1
 70
     0
 62
     4
  6
CONTINUOUS
370
    -3
390
E94
  0
LAYER
  5
23
102
{ACAD_XDICTIONARY
360
1565
102
}
330
2
100
AcDbSymbolTableRecord
100
AcDbLayerTableRecord
  2
2
 70
     0
 62
     7
  6
CONTINUOUS
370
    -3
390
E94
  0
LAYER
  5
24
102
{ACAD_XDICTIONARY
360
1567
102
}
330
2
100
AcDbSymbolTableRecord
100
AcDbLayerTableRecord
  2
2L
 70
     0
 62
     7
  6
CONTINUOUS
370
    -3
390
E94
  0
LAYER
  5
25
102
{ACAD_XDICTIONARY
360
1569
102
}
330
2
100
AcDbSymbolTableRecord
100
AcDbLayerTableRecord
  2
SK2
 70
     0
 62
     7
  6
CONTINUOUS
370
    -3
390
E94
  0
LAYER
  5
26
102
{ACAD_XDICTIONARY
360
156B
102
}
330
2
100
AcDbSymbolTableRecord
100
AcDbLayerTableRecord
  2
3
 70
     0
 62
     1
  6
HIDDEN
370
    -3
390
E94
  0
LAYER
  5
27
102
{ACAD_XDICTIONARY
360
156D
102
}
330
2
100
AcDbSymbolTableRecord
100
AcDbLayerTableRecord
  2
SK3
 70
     0
 62
     1
  6
HIDDEN
370
    -3
390
E94
  0
LAYER
  5
28
102
{ACAD_XDICTIONARY
360
156F
102
}
330
2
100
AcDbSymbolTableRecord
100
AcDbLayerTableRecord
  2
4
 70
     0
 62
     2
  6
CENTER
370
    -3
390
E94
  0
LAYER
  5
29
102
{ACAD_XDICTIONARY
360
1571
102
}
330
2
100
AcDbSymbolTableRecord
100
AcDbLayerTableRecord
  2
SK4
 70
     0
 62
     2
  6
CENTER
370
    -3
390
E94
  0
LAYER
  5
2A
102
{ACAD_XDICTIONARY
360
1573
102
}
330
2
100
AcDbSymbolTableRecord
100
AcDbLayerTableRecord
  2
5
 70
     0
 62
     7
  6
CONTINUOUS
370
    -3
390
E94
  0
LAYER
  5
2B
102
{ACAD_XDICTIONARY
360
1575
102
}
330
2
100
AcDbSymbolTableRecord
100
AcDbLayerTableRecord
  2
6
 70
     0
 62
     5
  6
CONTINUOUS
370
    -3
390
E94
  0
LAYER
  5
2C
102
{ACAD_XDICTIONARY
360
1577
102
}
330
2
100
AcDbSymbolTableRecord
100
AcDbLayerTableRecord
  2
SK6
 70
     0
 62
     5
  6
CONTINUOUS
370
    -3
390
E94
  0
LAYER
  5
2D
102
{ACAD_XDICTIONARY
360
1579
102
}
330
2
100
AcDbSymbolTableRecord
100
AcDbLayerTableRecord
  2
243
 70
     0
 62
     7
  6
CONTINUOUS
370
    -3
390
E94
  0
LAYER
  5
2E
330
2
100
AcDbSymbolTableRecord
100
AcDbLayerTableRecord
  2
DEFPOINTS
 70
     0
 62
     7
  6
CONTINUOUS
290
     0
370
    -3
390
E94
  0
LAYER
  5
C07
102
{ACAD_XDICTIONARY
360
157B
102
}
330
2
100
AcDbSymbolTableRecord
100
AcDbLayerTableRecord
  2
FRONT
 70
     0
 62
     7
  6
CONTINUOUS
370
    -3
390
E94
  0
ENDTAB
  0
TABLE
  2
STYLE
  5
3
330
0
100
AcDbSymbolTable
 70
     4
  0
STYLE
  5
10
330
3
100
AcDbSymbolTableRecord
100
AcDbTextStyleTableRecord
  2
STANDARD
 70
     0
 40
0.0
 41
1.0
 50
0.0
 71
     0
 42
5.0
  3
txt
  4

  0
STYLE
  5
1F
330
3
100
AcDbSymbolTableRecord
100
AcDbTextStyleTableRecord
  2
SIMPLEX
 70
     0
 40
0.0
 41
1.0
 50
0.0
 71
     0
 42
3.5
  3
simplex
  4

  0
STYLE
  5
2F
330
3
100
AcDbSymbolTableRecord
100
AcDbTextStyleTableRecord
  2
TXT
 70
     0
 40
8.0
 41
1.0
 50
0.0
 71
     0
 42
8.0
  3
txt
  4

  0
STYLE
  5
C08
330
3
100
AcDbSymbolTableRecord
100
AcDbTextStyleTableRecord
  2
UGMTXT
 70
     0
 40
0.0
 41
1.0
 50
0.0
 71
     0
 42
0.2
  3
ugmtxt
  4
bigfont
  0
ENDTAB
  0
TABLE
  2
VIEW
  5
6
330
0
100
AcDbSymbolTable
 70
     0
  0
ENDTAB
  0
TABLE
  2
UCS
  5
7
330
0
100
AcDbSymbolTable
 70
     0
  0
ENDTAB
  0
TABLE
  2
APPID
  5
9
330
0
100
AcDbSymbolTable
 70
     4
  0
APPID
  5
11
330
9
100
AcDbSymbolTableRecord
100
AcDbRegAppTableRecord
  2
ACAD
 70
     0
  0
APPID
  5
E8F
330
9
100
AcDbSymbolTableRecord
100
AcDbRegAppTableRecord
  2
CONTENTBLOCKICON
 70
     0
  0
APPID
  5
150A
330
9
100
AcDbSymbolTableRecord
100
AcDbRegAppTableRecord
  2
ACAD_EXEMPT_FROM_CAD_STANDARDS
 70
     0
  0
APPID
  5
163B
330
9
100
AcDbSymbolTableRecord
100
AcDbRegAppTableRecord
  2
ACAD_MLEADERVER
 70
     0
  0
ENDTAB
  0
TABLE
  2
DIMSTYLE
  5
A
330
0
100
AcDbSymbolTable
 70
     5
100
AcDbDimStyleTable
 71
     5
340
D91
340
1273
340
D93
340
D92
340
980
  0
DIMSTYLE
105
980
330
A
100
AcDbSymbolTableRecord
100
AcDbDimStyleTableRecord
  2
STANDARD
 70
     0
340
10
  0
DIMSTYLE
105
D91
102
{ACAD_REACTORS
330
150C
330
151A
102
}
330
A
100
AcDbSymbolTableRecord
100
AcDbDimStyleTableRecord
  2
V-TYGEN_-160
 70
     0
 41
3.5
 42
1.0
 43
0.5
 44
1.0
 73
     0
 74
     0
 77
     1
140
3.5
141
0.0
147
1.0
271
     0
272
     0
340
10
371
    -1
  0
DIMSTYLE
105
D92
330
A
100
AcDbSymbolTableRecord
100
AcDbDimStyleTableRecord
  2
V-TYG_160-300
 70
     0
 41
5.0
 42
1.0
 43
0.5
 44
1.0
 73
     0
 74
     0
 77
     1
140
5.0
141
0.0
147
1.0
271
     0
272
     0
340
10
  0
DIMSTYLE
105
D93
330
A
100
AcDbSymbolTableRecord
100
AcDbDimStyleTableRecord
  2
V-TYG_300-
 70
     0
 41
8.0
 42
1.0
 43
0.5
 44
1.0
 73
     0
 74
     0
 77
     1
140
8.0
141
0.0
147
1.0
271
     0
272
     0
340
10
  0
DIMSTYLE
105
1273
330
A
100
AcDbSymbolTableRecord
100
AcDbDimStyleTableRecord
  2
Inserts
 70
     0
 41
0.5
 42
1.0
 43
0.5
 44
1.0
 73
     0
 74
     0
 77
     1
140
0.8
141
0.0
147
1.0
271
     0
272
     0
340
10
371
    -1
  0
ENDTAB
  0
TABLE
  2
BLOCK_RECORD
  5
1
330
0
100
AcDbSymbolTable
 70
     5
  0
BLOCK_RECORD
  5
19
102
{ACAD_XDICTIONARY
360
E8D
102
}
330
1
100
AcDbSymbolTableRecord
100
AcDbBlockTableRecord
  2
*MODEL_SPACE
340
E95
  0
BLOCK_RECORD
  5
16
102
{ACAD_XDICTIONARY
360
E8B
102
}
330
1
100
AcDbSymbolTableRecord
100
AcDbBlockTableRecord
  2
*PAPER_SPACE
340
E96
  0
BLOCK_RECORD
  5
A8B
330
1
100
AcDbSymbolTableRecord
100
AcDbBlockTableRecord
  2
2D00035417
340
0
310
2800000020000000200000000100080000000000000400000000000000000000000000000000000000000000000080000080000000808000800000008000800080800000C0C0C000C0DCC000F0CAA6000020400000206000002080000020A0000020C0000020E00000400000004020000040400000406000004080000040A0
310
000040C0000040E00000600000006020000060400000606000006080000060A0000060C0000060E00000800000008020000080400000806000008080000080A0000080C0000080E00000A0000000A0200000A0400000A0600000A0800000A0A00000A0C00000A0E00000C0000000C0200000C0400000C0600000C0800000C0
310
A00000C0C00000C0E00000E0000000E0200000E0400000E0600000E0800000E0A00000E0C00000E0E00040000000400020004000400040006000400080004000A0004000C0004000E00040200000402020004020400040206000402080004020A0004020C0004020E000404000004040200040404000404060004040800040
310
40A0004040C0004040E00040600000406020004060400040606000406080004060A0004060C0004060E00040800000408020004080400040806000408080004080A0004080C0004080E00040A0000040A0200040A0400040A0600040A0800040A0A00040A0C00040A0E00040C0000040C0200040C0400040C0600040C08000
310
40C0A00040C0C00040C0E00040E0000040E0200040E0400040E0600040E0800040E0A00040E0C00040E0E00080000000800020008000400080006000800080008000A0008000C0008000E00080200000802020008020400080206000802080008020A0008020C0008020E00080400000804020008040400080406000804080
310
008040A0008040C0008040E00080600000806020008060400080606000806080008060A0008060C0008060E00080800000808020008080400080806000808080008080A0008080C0008080E00080A0000080A0200080A0400080A0600080A0800080A0A00080A0C00080A0E00080C0000080C0200080C0400080C0600080C0
310
800080C0A00080C0C00080C0E00080E0000080E0200080E0400080E0600080E0800080E0A00080E0C00080E0E000C0000000C0002000C0004000C0006000C0008000C000A000C000C000C000E000C0200000C0202000C0204000C0206000C0208000C020A000C020C000C020E000C0400000C0402000C0404000C0406000C0
310
408000C040A000C040C000C040E000C0600000C0602000C0604000C0606000C0608000C060A000C060C000C060E000C0800000C0802000C0804000C0806000C0808000C080A000C080C000C080E000C0A00000C0A02000C0A04000C0A06000C0A08000C0A0A000C0A0C000C0A0E000C0C00000C0C02000C0C04000C0C06000
310
C0C08000C0C0A000F0FBFF00A4A0A000808080000000FF0000FF000000FFFF00FF000000FF00FF00FFFF0000FFFFFF0000000000000000000000000000000000000000000000000000000000000000000000000000000000000000000000000000000000000000000000000000000000000000000000000000000000000000
310
00000000000000000000000000000000000000000000000000000000000000000000000000000000000000000000000000000000000000000000000000000000000000000000000000000000000000000000000000000000000000000000000000000000000000000000000000000000000000000000000000000000000000
310
00000000000000000000000000000000000000000000000000000000000000000000000000000000000000000000000000000000000000000000000000000000000000000000000000000000000000000000000000000000000000000000000000000000000000000000000000000000000000000000000000000000000000
310
00000000000000000000000000000000000000000000000000000000000000000000000000000000000000000000000000000000000000000000000000000000000000000000000000000000000000000000000000FEFEFEFEFEFEFEFEFEFEFEFEFEFEFEFEFEFEFEFEFEFE000000FEFEFEFE0000FEFE000000000000000000
310
0000000000000000000000FEFEFEFEFEFEFEFE0000FEFE0000000000000000000000000000000000000000FEFE0000FEFEFE000000FEFE0000000000000000000000000000000000000000FEFE0000FEFEFE000000FEFE0000000000000000000000000000000000000000FEFEFEFEFEFEFEFE000000FEFEFEFEFEFEFEFEFE
310
FEFEFEFEFEFEFEFEFEFEFEFEFE000000FEFEFEFE0000000000000000000000000000000000000000000000000000000000000000000000000000000000000000000000000000000000000000000000000000000000000000000000000000000000000000000000000000000000000000000000000000000000000000000000
310
00000000000000000000000000000000000000000000000000000000000000000000000000000000000000000000000000000000000000000000000000000000000000000000000000000000000000000000000000000000000000000000000000000000000000000000000000000000000000000000000000000000000000
310
00000000000000000000000000000000000000000000000000000000000000000000000000000000000000000000000000000000000000000000000000000000000000000000000000000000000000000000000000000000000000000000000000000000000000000000000000000000000000000000000000000000000000
310
0000000000000000000000000000000000000000000000000000000000000000000000000000000000000000000000000000000000000000
102
{BLKREFS
331
C04
102
}
  0
BLOCK_RECORD
  5
C03
330
1
100
AcDbSymbolTableRecord
100
AcDbBlockTableRecord
  2
ROFFE
340
0
310
2800000020000000200000000100080000000000000400000000000000000000000000000000000000000000000080000080000000808000800000008000800080800000C0C0C000C0DCC000F0CAA6000020400000206000002080000020A0000020C0000020E00000400000004020000040400000406000004080000040A0
310
000040C0000040E00000600000006020000060400000606000006080000060A0000060C0000060E00000800000008020000080400000806000008080000080A0000080C0000080E00000A0000000A0200000A0400000A0600000A0800000A0A00000A0C00000A0E00000C0000000C0200000C0400000C0600000C0800000C0
310
A00000C0C00000C0E00000E0000000E0200000E0400000E0600000E0800000E0A00000E0C00000E0E00040000000400020004000400040006000400080004000A0004000C0004000E00040200000402020004020400040206000402080004020A0004020C0004020E000404000004040200040404000404060004040800040
310
40A0004040C0004040E00040600000406020004060400040606000406080004060A0004060C0004060E00040800000408020004080400040806000408080004080A0004080C0004080E00040A0000040A0200040A0400040A0600040A0800040A0A00040A0C00040A0E00040C0000040C0200040C0400040C0600040C08000
310
40C0A00040C0C00040C0E00040E0000040E0200040E0400040E0600040E0800040E0A00040E0C00040E0E00080000000800020008000400080006000800080008000A0008000C0008000E00080200000802020008020400080206000802080008020A0008020C0008020E00080400000804020008040400080406000804080
310
008040A0008040C0008040E00080600000806020008060400080606000806080008060A0008060C0008060E00080800000808020008080400080806000808080008080A0008080C0008080E00080A0000080A0200080A0400080A0600080A0800080A0A00080A0C00080A0E00080C0000080C0200080C0400080C0600080C0
310
800080C0A00080C0C00080C0E00080E0000080E0200080E0400080E0600080E0800080E0A00080E0C00080E0E000C0000000C0002000C0004000C0006000C0008000C000A000C000C000C000E000C0200000C0202000C0204000C0206000C0208000C020A000C020C000C020E000C0400000C0402000C0404000C0406000C0
310
408000C040A000C040C000C040E000C0600000C0602000C0604000C0606000C0608000C060A000C060C000C060E000C0800000C0802000C0804000C0806000C0808000C080A000C080C000C080E000C0A00000C0A02000C0A04000C0A06000C0A08000C0A0A000C0A0C000C0A0E000C0C00000C0C02000C0C04000C0C06000
310
C0C08000C0C0A000F0FBFF00A4A0A000808080000000FF0000FF000000FFFF00FF000000FF00FF00FFFF0000FFFFFF0000000000000000000000000000000000000000000000000000000000000000000000000000000000000000000000000000000000000000000000000000000000000000000000000000000000000000
310
00000000000000000000000000000000000000000000000000000000000000000000000000000000000000000000000000000000000000000000000000000000000000000000000000000000000000000000000000000000000000000000000000000000000000000000000000000000000000000000000000000000000000
310
00000000000000000000000000000000000000000000000000000000000000000000000000000000000000000000000000000000000000000000000000000000000000000000000000000000000000000000000000000000000000000000000000000000000000000000000000000000000000000000000000000000000000
310
00000000000000000000000000000000000000000000000000000000000000000000000000000000000000000000000000000000000000000000000000000000000000000000000000000000000000000000000000FEFEFEFEFEFEFEFEFEFEFEFEFEFEFEFEFEFEFEFEFEFE000000FEFEFEFE0000FEFE000000000000000000
310
0000000000000000000000FEFEFEFEFEFEFEFE0000FEFE0000000000000000000000000000000000000000FEFE0000FEFEFE000000FEFE0000000000000000000000000000000000000000FEFE0000FEFEFE000000FEFE0000000000000000000000000000000000000000FEFEFEFEFEFEFEFE000000FEFEFEFEFEFEFEFEFE
310
FEFEFEFEFEFEFEFEFEFEFEFEFE000000FEFEFEFE0000000000000000000000000000000000000000000000000000000000000000000000000000000000000000000000000000000000000000000000000000000000000000000000000000000000000000000000000000000000000000000000000000000000000000000000
310
00000000000000000000000000000000000000000000000000000000000000000000000000000000000000000000000000000000000000000000000000000000000000000000000000000000000000000000000000000000000000000000000000000000000000000000000000000000000000000000000000000000000000
310
00000000000000000000000000000000000000000000000000000000000000000000000000000000000000000000000000000000000000000000000000000000000000000000000000000000000000000000000000000000000000000000000000000000000000000000000000000000000000000000000000000000000000
310
0000000000000000000000000000000000000000000000000000000000000000000000000000000000000000000000000000000000000000
  0
BLOCK_RECORD
  5
150D
330
1
100
AcDbSymbolTableRecord
100
AcDbBlockTableRecord
  2
*D3
340
0
  0
BLOCK_RECORD
  5
151B
330
1
100
AcDbSymbolTableRecord
100
AcDbBlockTableRecord
  2
*D4
340
0
  0
ENDTAB
  0
ENDSEC
  0
SECTION
  2
BLOCKS
  0
BLOCK
  5
1A
330
19
100
AcDbEntity
  8
0
100
AcDbBlockBegin
  2
*MODEL_SPACE
 70
     0
 10
0.0
 20
0.0
 30
0.0
  3
*MODEL_SPACE
  1

  0
ENDBLK
  5
1B
330
19
100
AcDbEntity
  8
0
100
AcDbBlockEnd
  0
BLOCK
  5
17
330
16
100
AcDbEntity
 67
     1
  8
0
100
AcDbBlockBegin
  2
*PAPER_SPACE
 70
     0
 10
0.0
 20
0.0
 30
0.0
  3
*PAPER_SPACE
  1

  0
ENDBLK
  5
18
330
16
100
AcDbEntity
 67
     1
  8
0
100
AcDbBlockEnd
  0
BLOCK
  5
C01
330
A8B
100
AcDbEntity
  8
0
100
AcDbBlockBegin
  2
2D00035417
 70
     0
 10
0.0
 20
0.0
 30
0.0
  3
2D00035417
  1

  0
LINE
  5
A8C
330
A8B
100
AcDbEntity
  8
FRONT
  6
Continuous
 62
     4
100
AcDbLine
 10
13.0560249122409
 20
-18.2717392234203
 30
0.0
 11
12.1899995084564
 21
-17.7717392234203
 31
0.0
  0
LINE
  5
A8D
330
A8B
100
AcDbEntity
  8
FRONT
  6
Continuous
 62
     4
100
AcDbLine
 10
12.1899995084564
 20
-29.7717392234203
 30
0.0
 11
13.0560249122409
 21
-29.2717392234203
 31
0.0
  0
LINE
  5
A8E
330
A8B
100
AcDbEntity
  8
FRONT
  6
Continuous
 62
     4
100
AcDbLine
 10
-49.8100004915436
 20
-18.2717392234203
 30
0.0
 11
-49.8100004915436
 21
-29.2717392234203
 31
0.0
  0
LINE
  5
A8F
330
A8B
100
AcDbEntity
  8
FRONT
  6
Continuous
 62
     4
100
AcDbLine
 10
-49.3100004915436
 20
-17.7717392234203
 30
0.0
 11
-49.3100004915436
 21
-29.7717392234203
 31
0.0
  0
LINE
  5
A90
330
A8B
100
AcDbEntity
  8
FRONT
  6
Continuous
 62
     4
100
AcDbLine
 10
12.1899995084564
 20
-17.7717392234203
 30
0.0
 11
12.1899995084564
 21
-29.7717392234203
 31
0.0
  0
LINE
  5
A91
330
A8B
100
AcDbEntity
  8
FRONT
  6
Continuous
 62
     4
100
AcDbLine
 10
-49.3100004915436
 20
-29.7717392234203
 30
0.0
 11
12.1899995084564
 21
-29.7717392234203
 31
0.0
  0
LINE
  5
A92
330
A8B
100
AcDbEntity
  8
FRONT
  6
Continuous
 62
     4
100
AcDbLine
 10
-49.8100004915436
 20
-29.2717392234203
 30
0.0
 11
-49.3100004915436
 21
-29.7717392234203
 31
0.0
  0
LINE
  5
A93
330
A8B
100
AcDbEntity
  8
FRONT
  6
Continuous
 62
     4
100
AcDbLine
 10
12.1899995084564
 20
-17.7717392234203
 30
0.0
 11
-49.3100004915436
 21
-17.7717392234203
 31
0.0
  0
LINE
  5
A94
330
A8B
100
AcDbEntity
  8
FRONT
  6
Continuous
 62
     4
100
AcDbLine
 10
-49.3100004915436
 20
-17.7717392234203
 30
0.0
 11
-49.8100004915436
 21
-18.2717392234203
 31
0.0
  0
LINE
  5
A95
330
A8B
100
AcDbEntity
  8
FRONT
  6
Continuous
 62
     4
100
AcDbLine
 10
29.4874517764985
 20
-20.2620598777619
 30
0.0
 11
29.4874517764985
 21
-28.7894819478209
 31
0.0
  0
LINE
  5
A96
330
A8B
100
AcDbEntity
  8
FRONT
  6
Continuous
 62
     4
100
AcDbLine
 10
23.3822041293836
 20
-20.353747795571
 30
0.0
 11
23.3822041293836
 21
-29.0404437141854
 31
0.0
  0
LINE
  5
A97
330
A8B
100
AcDbEntity
  8
FRONT
  6
Continuous
 62
     4
100
AcDbLine
 10
24.5880247662668
 20
-20.2278994637786
 30
0.0
 11
24.5880247662668
 21
-28.4870747377144
 31
0.0
  0
LINE
  5
A98
330
A8B
100
AcDbEntity
  8
FRONT
  6
Continuous
 62
     4
100
AcDbLine
 10
13.0560249122409
 20
-18.2717392234203
 30
0.0
 11
13.0560249122409
 21
-29.2717392234203
 31
0.0
  0
LINE
  5
A99
330
A8B
100
AcDbEntity
  8
FRONT
  6
Continuous
 62
     4
100
AcDbLine
 10
25.9383851897384
 20
-20.178533570248
 30
0.0
 11
25.9383851897384
 21
-28.8038040160837
 31
0.0
  0
LINE
  5
A9A
330
A8B
100
AcDbEntity
  8
FRONT
  6
Continuous
 62
     4
100
AcDbLine
 10
29.6787989038588
 20
-28.5881194515276
 30
0.0
 11
29.6787989038588
 21
-20.292460951796
 31
0.0
  0
LINE
  5
A9B
330
A8B
100
AcDbEntity
  8
FRONT
  6
Continuous
 62
     4
100
AcDbLine
 10
24.7141119602002
 20
-28.9205507884307
 30
0.0
 11
24.4599591966827
 21
-29.2465583851878
 31
0.0
  0
ELLIPSE
  5
A9C
330
A8B
100
AcDbEntity
  8
FRONT
  6
Continuous
 62
     4
100
AcDbEllipse
 10
24.7848360419728
 20
-28.608160625475
 30
0.0
 11
-0.1764278460445979
 21
0.0941977448772153
 31
0.0
210
0.0
220
0.0
230
1.0
 40
0.9833059182774052
 41
0.6405173247906966
 42
2.071687311428429
  0
ELLIPSE
  5
A9D
330
A8B
100
AcDbEntity
  8
FRONT
  6
Continuous
 62
     4
100
AcDbEllipse
 10
24.7762659273288
 20
-28.6242120380537
 30
0.0
 11
-0.264641769065345
 21
0.1412966173186371
 31
0.0
210
0.0
220
0.0
230
1.0
 40
0.9833059182774
 41
0.6405173248015057
 42
2.071687311439271
  0
ELLIPSE
  5
A9E
330
A8B
100
AcDbEntity
  8
FRONT
  6
Continuous
 62
     4
100
AcDbEllipse
 10
24.7249125051504
 20
-28.68547505535
 30
0.0
 11
-0.1776346087653321
 21
-0.1633261946229406
 31
0.0
210
0.0
220
0.0
230
1.0
 40
0.9518042298991375
 41
5.720439864303834
 42
7.08930315248491
  0
SPLINE
  5
A9F
330
A8B
100
AcDbEntity
  8
FRONT
  6
Continuous
 62
     4
100
AcDbSpline
210
0.0
220
0.0
230
1.0
 70
     8
 71
     2
 72
     6
 73
     3
 74
     0
 42
0.0000000001
 43
0.0000000001
 40
0.0
 40
0.0
 40
0.0
 40
1.0
 40
1.0
 40
1.0
 10
26.8124513678946
 20
-29.6488805829986
 30
0.0
 10
25.5286886452544
 20
-29.6050569432839
 30
0.0
 10
24.2449228450703
 20
-29.5331794859633
 30
0.0
  0
SPLINE
  5
AA0
330
A8B
100
AcDbEntity
  8
FRONT
  6
Continuous
 62
     4
100
AcDbSpline
210
0.0
220
0.0
230
1.0
 70
     8
 71
     2
 72
     6
 73
     3
 74
     0
 42
0.0000000001
 43
0.0000000001
 40
0.0
 40
0.0
 40
0.0
 40
1.0
 40
1.0
 40
1.0
 10
24.2271558536723
 20
-29.6022321251588
 30
0.0
 10
25.1828364744673
 20
-29.6499937031264
 30
0.0
 10
26.138495430229
 20
-29.6821134612264
 30
0.0
  0
SPLINE
  5
AA1
330
A8B
100
AcDbEntity
  8
FRONT
  6
Continuous
 62
     4
100
AcDbSpline
210
0.0
220
0.0
230
1.0
 70
     8
 71
     3
 72
    10
 73
     6
 74
     0
 42
0.0000000001
 43
0.0000000001
 40
0.0
 40
0.0
 40
0.0
 40
0.0
 40
0.413998097170399
 40
0.8317102975705793
 40
1.0
 40
1.0
 40
1.0
 40
1.0
 10
25.8425155325639
 20
-29.4234269501457
 30
0.0
 10
25.6422844249055
 20
-29.4093777327998
 30
0.0
 10
25.2486172997429
 20
-29.3721408585586
 30
0.0
 10
24.7864246753926
 20
-29.3107587815123
 30
0.0
 10
24.5320578028072
 20
-29.2615598546196
 30
0.0
 10
24.4599591966827
 20
-29.2465583851878
 30
0.0
  0
SPLINE
  5
AA2
330
A8B
100
AcDbEntity
  8
FRONT
  6
Continuous
 62
     4
100
AcDbSpline
210
0.0
220
0.0
230
1.0
 70
     8
 71
     2
 72
     6
 73
     3
 74
     0
 42
0.0000000001
 43
0.0000000001
 40
0.0
 40
0.0
 40
0.0
 40
1.0
 40
1.0
 40
1.0
 10
25.8042957432238
 20
-29.4388614706482
 30
0.0
 10
25.0778999823368
 20
-29.3996011868075
 30
0.0
 10
24.3515277504081
 20
-29.3515854267681
 30
0.0
  0
SPLINE
  5
AA3
330
A8B
100
AcDbEntity
  8
FRONT
  6
Continuous
 62
     4
100
AcDbSpline
210
0.0
220
0.0
230
1.0
 70
     8
 71
     2
 72
     6
 73
     3
 74
     0
 42
0.0000000001
 43
0.0000000001
 40
0.0
 40
0.0
 40
0.0
 40
1.0
 40
1.0
 40
1.0
 10
29.6763833898509
 20
-29.6858611651274
 30
0.0
 10
26.9680640650284
 20
-29.6537844476451
 30
0.0
 10
24.2595109201835
 20
-29.4962542896261
 30
0.0
  0
SPLINE
  5
AA4
330
A8B
100
AcDbEntity
  8
FRONT
  6
Continuous
 62
     4
100
AcDbSpline
210
0.0
220
0.0
230
1.0
 70
     8
 71
     3
 72
    13
 73
     9
 74
     0
 42
0.0000000001
 43
0.0000000001
 40
0.0
 40
0.0
 40
0.0
 40
0.0
 40
0.1221948788939986
 40
0.3409322576720923
 40
0.5593089850044601
 40
0.7634079375909129
 40
0.9483404453246466
 40
1.0
 40
1.0
 40
1.0
 40
1.0
 10
25.4076594554598
 20
-28.7807380644886
 30
0.0
 10
25.4000893662734
 20
-28.7586515870463
 30
0.0
 10
25.3682338429399
 20
-28.6985809998741
 30
0.0
 10
25.2636114212294
 20
-28.6015303608767
 30
0.0
 10
25.0788461039952
 20
-28.5135588172866
 30
0.0
 10
24.8605620754842
 20
-28.4687766083372
 30
0.0
 10
24.6918699634793
 20
-28.4714242558209
 30
0.0
 10
24.6065776227045
 20
-28.4838316521235
 30
0.0
 10
24.5880247662668
 20
-28.4870747377142
 30
0.0
  0
ELLIPSE
  5
AA5
330
A8B
100
AcDbEntity
  8
FRONT
  6
Continuous
 62
     4
100
AcDbEllipse
 10
17.8520193466186
 20
-23.7717392234539
 30
0.0
 11
-30.04133316929991
 21
2.588839177181584
 31
0.0
210
0.0
220
0.0
230
1.0
 40
0.1615314150625295
 41
1.478397138584063
 42
1.76983915316551
  0
SPLINE
  5
AA6
330
A8B
100
AcDbEntity
  8
FRONT
  6
Continuous
 62
     4
100
AcDbSpline
210
0.0
220
0.0
230
1.0
 70
     8
 71
     3
 72
    13
 73
     9
 74
     0
 42
0.0000000001
 43
0.0000000001
 40
0.0
 40
0.0
 40
0.0
 40
0.0
 40
0.111195031304195
 40
0.2657804119641697
 40
0.4822058427557557
 40
0.6989752890855822
 40
0.9172035917595028
 40
1.0
 40
1.0
 40
1.0
 40
1.0
 10
13.5353248812384
 20
-29.2717385505362
 30
0.0
 10
13.5885110481361
 20
-29.271049992003
 30
0.0
 10
13.7289832418358
 20
-29.2593068084598
 30
0.0
 10
14.0445835222192
 20
-29.1899290289049
 30
0.0
 10
14.5193706983966
 20
-29.0433868030582
 30
0.0
 10
15.130699381044
 20
-28.8313326601394
 30
0.0
 10
15.6702667619298
 20
-28.6451878909043
 30
0.0
 10
15.9981226308211
 20
-28.5341755362405
 30
0.0
 10
16.0896066603576
 20
-28.5032941582071
 30
0.0
  0
LINE
  5
AA7
330
A8B
100
AcDbEntity
  8
FRONT
  6
Continuous
 62
     4
100
AcDbLine
 10
13.0560249122409
 20
-29.2717392234203
 30
0.0
 11
13.5427462343366
 21
-29.2717392234203
 31
0.0
  0
ELLIPSE
  5
AA8
330
A8B
100
AcDbEntity
  8
FRONT
  6
Continuous
 62
     4
100
AcDbEllipse
 10
24.1900084996178
 20
-39.8400681300855
 30
0.0
 11
-14.85880604145566
 21
5.934210405159881
 31
0.0
210
0.0
220
0.0
230
0.9999999999999998
 40
0.8742329960678898
 41
5.792900081455464
 42
5.811533204192437
  0
SPLINE
  5
AA9
330
A8B
100
AcDbEntity
  8
FRONT
  6
Continuous
 62
     4
100
AcDbSpline
210
0.0
220
0.0
230
1.0
 70
     8
 71
     3
 72
    13
 73
     9
 74
     0
 42
0.0000000001
 43
0.0000000001
 40
0.0
 40
0.0
 40
0.0
 40
0.0
 40
0.0708887435082171
 40
0.2571724611284706
 40
0.5329963062952721
 40
0.7291217371113851
 40
0.9254339909461146
 40
1.0
 40
1.0
 40
1.0
 40
1.0
 10
13.385562011089
 20
-28.5623647128815
 30
0.0
 10
13.4039123701822
 20
-28.5485339973807
 30
0.0
 10
13.4757622324353
 20
-28.5008520858572
 30
0.0
 10
13.6783463522944
 20
-28.4200451119044
 30
0.0
 10
13.9737299741407
 20
-28.3641046053599
 30
0.0
 10
14.2852530780421
 20
-28.3446922266054
 30
0.0
 10
14.5044085345907
 20
-28.3506636630789
 30
0.0
 10
14.6294345010797
 20
-28.361299700543
 30
0.0
 10
14.6637776374571
 20
-28.3647917218255
 30
0.0
  0
SPLINE
  5
AAA
330
A8B
100
AcDbEntity
  8
FRONT
  6
Continuous
 62
     4
100
AcDbSpline
210
0.0
220
0.0
230
1.0
 70
     8
 71
     2
 72
     6
 73
     3
 74
     0
 42
0.0000000001
 43
0.0000000001
 40
0.0
 40
0.0
 40
0.0
 40
1.0
 40
1.0
 40
1.0
 10
13.3106630858079
 20
-28.6516164146935
 30
0.0
 10
13.3304627049848
 20
-28.6047238940529
 30
0.0
 10
13.385562011089
 20
-28.5623647128815
 30
0.0
  0
SPLINE
  5
AAB
330
A8B
100
AcDbEntity
  8
FRONT
  6
Continuous
 62
     4
100
AcDbSpline
210
0.0
220
0.0
230
1.0
 70
     8
 71
     3
 72
    12
 73
     8
 74
     0
 42
0.0000000001
 43
0.0000000001
 40
0.0
 40
0.0
 40
0.0
 40
0.0
 40
0.2338452144524324
 40
0.4675970184665896
 40
0.701762765663897
 40
0.9359711320872667
 40
1.0
 40
1.0
 40
1.0
 40
1.0
 10
13.3106630858079
 20
-28.6516164146935
 30
0.0
 10
13.271791435963
 20
-28.747202180213
 30
0.0
 10
13.2201111103266
 20
-28.9166257238405
 30
0.0
 10
13.2173423788733
 20
-29.1099594942421
 30
0.0
 10
13.2995939743326
 20
-29.2297207883789
 30
0.0
 10
13.4236639125518
 20
-29.2682479729876
 30
0.0
 10
13.5147629136775
 20
-29.2718157660809
 30
0.0
 10
13.5353248812384
 20
-29.2717385505362
 30
0.0
  0
LINE
  5
AAC
330
A8B
100
AcDbEntity
  8
FRONT
  6
Continuous
 62
     4
100
AcDbLine
 10
24.4543070007332
 20
-28.4987990893841
 30
0.0
 11
24.48104901377
 21
-28.6664347238174
 31
0.0
  0
LINE
  5
AAD
330
A8B
100
AcDbEntity
  8
FRONT
  6
Continuous
 62
     4
100
AcDbLine
 10
24.2419583409894
 20
-29.0538055003955
 30
0.0
 11
24.2614293801308
 21
-29.0288295505415
 31
0.0
  0
LINE
  5
AAE
330
A8B
100
AcDbEntity
  8
FRONT
  6
Continuous
 62
     4
100
AcDbLine
 10
23.9286291459634
 20
-29.2334267652181
 30
0.0
 11
23.9446664457865
 21
-29.3184987620453
 31
0.0
  0
LINE
  5
AAF
330
A8B
100
AcDbEntity
  8
FRONT
  6
Continuous
 62
     4
100
AcDbLine
 10
24.564757092119
 20
-28.4904527736212
 30
0.0
 11
24.5880247662668
 21
-28.6363090826508
 31
0.0
  0
LINE
  5
AB0
330
A8B
100
AcDbEntity
  8
FRONT
  6
Continuous
 62
     4
100
AcDbLine
 10
24.48104901377
 20
-28.6664347238174
 30
0.0
 11
24.4917336858141
 21
-28.7334129193017
 31
0.0
  0
LINE
  5
AB1
330
A8B
100
AcDbEntity
  8
FRONT
  6
Continuous
 62
     4
100
AcDbLine
 10
24.3054515382422
 20
-28.972361315566
 30
0.0
 11
24.4917336858141
 21
-28.7334129193017
 31
0.0
  0
ELLIPSE
  5
AB2
330
A8B
100
AcDbEntity
  8
FRONT
  6
Continuous
 62
     4
100
AcDbEllipse
 10
24.3501001647301
 20
-29.1358492501892
 30
0.0
 11
-0.1629665045002963
 21
0.162301935942986
 31
0.0
210
0.0
220
0.0
230
1.0
 40
0.885395213116765
 41
0.9406572002840926
 42
2.300026522294225
  0
ELLIPSE
  5
AB3
330
A8B
100
AcDbEntity
  8
FRONT
  6
Continuous
 62
     4
100
AcDbEllipse
 10
22.9227856622733
 20
-30.0092610989032
 30
0.0
 11
-0.1862107868856989
 21
2.621605320212951
 31
0.0
210
0.0
220
0.0
230
0.9999999999999998
 40
0.4178728177031461
 41
4.983018135371414
 42
5.015339106062617
  0
ELLIPSE
  5
AB4
330
A8B
100
AcDbEntity
  8
FRONT
  6
Continuous
 62
     4
100
AcDbEllipse
 10
23.0642130431284
 20
-23.8669564768052
 30
0.0
 11
-0.6453609818231091
 21
5.423953475707063
 31
0.0
210
0.0
220
0.0
230
1.0
 40
0.4002139493379774
 41
3.301152841311651
 42
3.433631365786768
  0
ELLIPSE
  5
AB5
330
A8B
100
AcDbEntity
  8
FRONT
  6
Continuous
 62
     4
100
AcDbEllipse
 10
24.2411442385618
 20
-29.3169212610229
 30
0.0
 11
-0.2141351294070844
 21
0.0839413268520247
 31
0.0
210
0.0
220
0.0
230
0.9999999999999998
 40
0.7465216560962231
 41
0.5997695972309498
 42
1.937897467873524
  0
ELLIPSE
  5
AB6
330
A8B
100
AcDbEntity
  8
FRONT
  6
Continuous
 62
     4
100
AcDbEllipse
 10
24.2406047754784
 20
-29.3178676188314
 30
0.0
 11
-0.1654325527084979
 21
0.1597875793175752
 31
0.0
210
0.0
220
0.0
230
1.0
 40
0.882922871075139
 41
0.9271183505009291
 42
2.296772776618916
  0
ELLIPSE
  5
AB7
330
A8B
100
AcDbEntity
  8
FRONT
  6
Continuous
 62
     4
100
AcDbEllipse
 10
24.4896191284136
 20
-28.6503833112389
 30
0.0
 11
-0.0987513760092463
 21
-0.0157532770020267
 31
0.0
210
0.0
220
0.0
230
1.0
 40
0.1458931740710974
 41
1.460656485145534
 42
3.031452811938669
  0
ELLIPSE
  5
AB8
330
A8B
100
AcDbEntity
  8
FRONT
  6
Continuous
 62
     4
100
AcDbEllipse
 10
347.409080681962
 20
-51.4252687495041
 30
0.0
 11
-342.1452092599433
 21
28.7644353191734
 31
0.0
210
0.0
220
0.0
230
1.0
 40
0.0434239235819959
 41
0.3305623080092169
 42
0.336553522992711
  0
ELLIPSE
  5
AB9
330
A8B
100
AcDbEntity
  8
FRONT
  6
Continuous
 62
     4
100
AcDbEllipse
 10
24.8027450754565
 20
-30.8594946498669
 30
0.0
 11
-0.6874421685867658
 21
4.776216476972511
 31
0.0
210
0.0
220
0.0
230
1.0
 40
0.0505508379540167
 41
1.059760007862942
 42
1.160653432741368
  0
SPLINE
  5
ABA
330
A8B
100
AcDbEntity
  8
FRONT
  6
Continuous
 62
     4
100
AcDbSpline
210
0.0
220
0.0
230
1.0
 70
    24
 71
     1
 72
     4
 73
     2
 74
     0
 42
0.0000000001
 43
0.0000000001
 40
0.0
 40
0.0
 40
1.0
 40
1.0
 10
24.0284727243145
 20
-29.3388083090501
 30
0.0
 10
24.0290121873989
 20
-29.3378619512462
 30
0.0
  0
SPLINE
  5
ABB
330
A8B
100
AcDbEntity
  8
FRONT
  6
Continuous
 62
     4
100
AcDbSpline
210
0.0
220
0.0
230
1.0
 70
     8
 71
     3
 72
    12
 73
     8
 74
     0
 42
0.0000000001
 43
0.0000000001
 40
0.0
 40
0.0
 40
0.0
 40
0.0
 40
0.0007970805857311
 40
0.2615790368690925
 40
0.5223632910078863
 40
0.9992029194147567
 40
1.0
 40
1.0
 40
1.0
 40
1.0
 10
24.2595109201835
 20
-29.4962542896261
 30
0.0
 10
24.2594826554735
 20
-29.4963502120227
 30
0.0
 10
24.2583009062498
 20
-29.5003607358679
 30
0.0
 10
24.2558448891317
 20
-29.5081174430783
 30
0.0
 10
24.2510153731898
 20
-29.5212114904518
 30
0.0
 10
24.2473263376753
 20
-29.529005277675
 30
0.0
 10
24.2449727439961
 20
-29.5330928251463
 30
0.0
 10
24.2449228450703
 20
-29.5331794859633
 30
0.0
  0
SPLINE
  5
ABC
330
A8B
100
AcDbEntity
  8
FRONT
  6
Continuous
 62
     4
100
AcDbSpline
210
0.0
220
0.0
230
1.0
 70
    24
 71
     1
 72
     4
 73
     2
 74
     0
 42
0.0000000001
 43
0.0000000001
 40
0.0
 40
0.0
 40
1.0
 40
1.0
 10
23.9608442332563
 20
-29.4094407139834
 30
0.0
 10
24.0284727243145
 20
-29.3388083090501
 30
0.0
  0
SPLINE
  5
ABD
330
A8B
100
AcDbEntity
  8
FRONT
  6
Continuous
 62
     4
100
AcDbSpline
210
0.0
220
0.0
230
1.0
 70
     8
 71
     2
 72
     6
 73
     3
 74
     0
 42
0.0000000001
 43
0.0000000001
 40
0.0
 40
0.0
 40
0.0
 40
1.0
 40
1.0
 40
1.0
 10
24.4561266482336
 20
-29.2459286860877
 30
0.0
 10
24.4036914918418
 20
-29.2981412028039
 30
0.0
 10
24.3515277504081
 20
-29.3515854267681
 30
0.0
  0
SPLINE
  5
ABE
330
A8B
100
AcDbEntity
  8
FRONT
  6
Continuous
 62
     4
100
AcDbSpline
210
0.0
220
0.0
230
1.0
 70
    24
 71
     1
 72
     4
 73
     2
 74
     0
 42
0.0000000001
 43
0.0000000001
 40
0.0
 40
0.0
 40
1.0
 40
1.0
 10
24.4599591966827
 20
-29.2465583851878
 30
0.0
 10
24.4561266482337
 20
-29.2459286860877
 30
0.0
  0
SPLINE
  5
ABF
330
A8B
100
AcDbEntity
  8
FRONT
  6
Continuous
 62
     4
100
AcDbSpline
210
0.0
220
0.0
230
1.0
 70
    24
 71
     1
 72
     4
 73
     2
 74
     0
 42
0.0000000001
 43
0.0000000001
 40
0.0
 40
0.0
 40
1.0
 40
1.0
 10
23.9446664457865
 20
-29.3184987620453
 30
0.0
 10
23.9608442332563
 20
-29.4094407139835
 30
0.0
  0
SPLINE
  5
AC0
330
A8B
100
AcDbEntity
  8
FRONT
  6
Continuous
 62
     4
100
AcDbSpline
210
0.0
220
0.0
230
1.0
 70
     8
 71
     3
 72
    12
 73
     8
 74
     0
 42
0.0000000001
 43
0.0000000001
 40
0.0
 40
0.0
 40
0.0
 40
0.0
 40
0.0001979715625893
 40
0.3804243462904076
 40
0.6884015213626393
 40
0.9998020284374039
 40
1.0
 40
1.0
 40
1.0
 40
1.0
 10
24.3515277504081
 20
-29.3515854267681
 30
0.0
 10
24.3514544569144
 20
-29.3516534566422
 30
0.0
 10
24.3379997161015
 20
-29.3641419357557
 30
0.0
 10
24.3146085826923
 20
-29.3910581853753
 30
0.0
 10
24.2841307653316
 20
-29.4405548803803
 30
0.0
 10
24.2673594028208
 20
-29.4767617041479
 30
0.0
 10
24.2595482702236
 20
-29.4961615266243
 30
0.0
 10
24.2595109201835
 20
-29.4962542896261
 30
0.0
  0
SPLINE
  5
AC1
330
A8B
100
AcDbEntity
  8
FRONT
  6
Continuous
 62
     4
100
AcDbSpline
210
0.0
220
0.0
230
1.0
 70
     8
 71
     3
 72
    11
 73
     7
 74
     0
 42
0.0000000001
 43
0.0000000001
 40
0.0
 40
0.0
 40
0.0
 40
0.0
 40
0.0003046676542752
 40
0.2859486271382446
 40
0.5715925864685599
 40
1.0
 40
1.0
 40
1.0
 40
1.0
 10
24.2449228450703
 20
-29.5331794859633
 30
0.0
 10
24.244854097945
 20
-29.5332521071224
 30
0.0
 10
24.2389045911225
 20
-29.5395368801722
 30
0.0
 10
24.2268928005268
 20
-29.5522558695329
 30
0.0
 10
24.2059038441346
 20
-29.5745864239611
 30
0.0
 10
24.1909292810936
 20
-29.5906125747582
 30
0.0
 10
24.1819512227935
 20
-29.6002551629038
 30
0.0
  0
SPLINE
  5
AC2
330
A8B
100
AcDbEntity
  8
FRONT
  6
Continuous
 62
     4
100
AcDbSpline
210
0.0
220
0.0
230
1.0
 70
     8
 71
     3
 72
    10
 73
     6
 74
     0
 42
0.0000000001
 43
0.0000000001
 40
0.0
 40
0.0
 40
0.0
 40
0.0
 40
0.3783609825527917
 40
0.8357001481048397
 40
1.0
 40
1.0
 40
1.0
 40
1.0
 10
24.1154740487519
 20
-28.7481038691658
 30
0.0
 10
24.1164024045192
 20
-28.7804524629649
 30
0.0
 10
24.1375699626593
 20
-28.8497694439596
 30
0.0
 10
24.2177318877631
 20
-28.9307097015444
 30
0.0
 10
24.2872882362182
 20
-28.9753502752158
 30
0.0
 10
24.3072166298778
 20
-28.9868929827442
 30
0.0
  0
SPLINE
  5
AC3
330
A8B
100
AcDbEntity
  8
FRONT
  6
Continuous
 62
     4
100
AcDbSpline
210
0.0
220
0.0
230
1.0
 70
    24
 71
     1
 72
     4
 73
     2
 74
     0
 42
0.0000000001
 43
0.0000000001
 40
0.0
 40
0.0
 40
1.0
 40
1.0
 10
24.1819512227934
 20
-29.6002551629038
 30
0.0
 10
24.2271558627839
 20
-29.6022329005206
 30
0.0
  0
SPLINE
  5
AC4
330
A8B
100
AcDbEntity
  8
FRONT
  6
Continuous
 62
     4
100
AcDbSpline
210
0.0
220
0.0
230
1.0
 70
    24
 71
     1
 72
     4
 73
     2
 74
     0
 42
0.0000000001
 43
0.0000000001
 40
0.0
 40
0.0
 40
1.0
 40
1.0
 10
24.029012187398
 20
-29.3378619512418
 30
0.0
 10
24.1379681135661
 20
-29.156789940408
 30
0.0
  0
SPLINE
  5
AC5
330
A8B
100
AcDbEntity
  8
FRONT
  6
Continuous
 62
     4
100
AcDbSpline
210
0.0
220
0.0
230
1.0
 70
    24
 71
     1
 72
     4
 73
     2
 74
     0
 42
0.0000000001
 43
0.0000000001
 40
0.0
 40
0.0
 40
1.0
 40
1.0
 10
24.1379681135661
 20
-29.156789940408
 30
0.0
 10
24.2419583409894
 20
-29.0538055003955
 30
0.0
  0
SPLINE
  5
AC6
330
A8B
100
AcDbEntity
  8
FRONT
  6
Continuous
 62
     4
100
AcDbSpline
210
0.0
220
0.0
230
1.0
 70
     8
 71
     3
 72
    12
 73
     8
 74
     0
 42
0.0000000001
 43
0.0000000001
 40
0.0
 40
0.0
 40
0.0
 40
0.0
 40
0.2440298709825522
 40
0.488120310074948
 40
0.7306421972591243
 40
0.9701993202335991
 40
1.0
 40
1.0
 40
1.0
 40
1.0
 10
24.1819512227935
 20
-29.6002551629038
 30
0.0
 10
24.1556212731477
 20
-29.5990064907454
 30
0.0
 10
24.1061452300959
 20
-29.5888922660028
 30
0.0
 10
24.0379825836857
 20
-29.5490948232347
 30
0.0
 10
23.9869470298638
 20
-29.4906184529305
 30
0.0
 10
23.966564210955
 20
-29.4399593047151
 30
0.0
 10
23.9613580492768
 20
-29.4124998990823
 30
0.0
 10
23.9608442332563
 20
-29.4094407139835
 30
0.0
  0
SPLINE
  5
AC7
330
A8B
100
AcDbEntity
  8
FRONT
  6
Continuous
 62
     4
100
AcDbSpline
210
0.0
220
0.0
230
1.0
 70
     8
 71
     3
 72
    12
 73
     8
 74
     0
 42
0.0000000001
 43
0.0000000001
 40
0.0
 40
0.0
 40
0.0
 40
0.0
 40
0.2494158432111992
 40
0.4988262431130359
 40
0.7483784991253286
 40
0.9306372409059042
 40
1.0
 40
1.0
 40
1.0
 40
1.0
 10
24.4561266482337
 20
-29.2459286860877
 30
0.0
 10
24.4307434076145
 20
-29.2426449856277
 30
0.0
 10
24.3830067694107
 20
-29.2290819373715
 30
0.0
 10
24.3169680730236
 20
-29.1857293294685
 30
0.0
 10
24.2715231903834
 20
-29.1308211711925
 30
0.0
 10
24.2501912131055
 20
-29.0843949728814
 30
0.0
 10
24.2435096535325
 20
-29.0604807567733
 30
0.0
 10
24.2419583409894
 20
-29.0538055003955
 30
0.0
  0
SPLINE
  5
AC8
330
A8B
100
AcDbEntity
  8
FRONT
  6
Continuous
 62
     4
100
AcDbSpline
210
0.0
220
0.0
230
1.0
 70
     8
 71
     3
 72
    12
 73
     8
 74
     0
 42
0.0000000001
 43
0.0000000001
 40
0.0
 40
0.0
 40
0.0
 40
0.0
 40
0.2310224464948759
 40
0.4620128681126269
 40
0.700559328220569
 40
0.9585437245442095
 40
1.0
 40
1.0
 40
1.0
 40
1.0
 10
24.5880247662669
 20
-28.4870747377144
 30
0.0
 10
24.5217090407251
 20
-28.4866040040453
 30
0.0
 10
24.4015507344426
 20
-28.4966960621836
 30
0.0
 10
24.2502654819311
 20
-28.5500942925869
 30
0.0
 10
24.1475770698711
 20
-28.631070377833
 30
0.0
 10
24.1168512082589
 20
-28.7023366376959
 30
0.0
 10
24.1153818926096
 20
-28.7425038335674
 30
0.0
 10
24.1154740487519
 20
-28.7481038691658
 30
0.0
  0
LINE
  5
AC9
330
A8B
100
AcDbEntity
  8
FRONT
  6
Continuous
 62
     4
100
AcDbLine
 10
28.0322358757794
 20
-27.5644526521331
 30
0.0
 11
28.0322432915171
 21
-26.9466514704202
 31
0.0
  0
LINE
  5
ACA
330
A8B
100
AcDbEntity
  8
FRONT
  6
Continuous
 62
     4
100
AcDbLine
 10
30.0882745453883
 20
-28.07758841822
 30
0.0
 11
29.7808591696361
 21
-26.7048677761207
 31
0.0
  0
ELLIPSE
  5
ACB
330
A8B
100
AcDbEntity
  8
FRONT
  6
Continuous
 62
     4
100
AcDbEllipse
 10
27.730741904554
 20
-23.7751237603401
 30
0.0
 11
-0.0787240753221909
 21
-5.634958844023342
 31
0.0
210
0.0
220
0.0
230
0.9999999999999998
 40
0.0848761530590921
 41
0.8344445634990043
 42
0.9971121243690364
  0
ELLIPSE
  5
ACC
330
A8B
100
AcDbEntity
  8
FRONT
  6
Continuous
 62
     4
100
AcDbEllipse
 10
27.0359224027674
 20
-26.932832693123
 30
0.0
 11
-0.7939253072066414
 21
0.4238898519389809
 31
0.0
210
0.0
220
0.0
230
1.0
 40
0.9833059182791441
 41
3.141592653589792
 42
6.283185307179584
  0
ELLIPSE
  5
ACD
330
A8B
100
AcDbEntity
  8
FRONT
  6
Continuous
 62
     4
100
AcDbEllipse
 10
27.0105793405264
 20
-26.980299029916
 30
0.0
 11
-0.6124566485468032
 21
0.3270007338409036
 31
0.0
210
0.0
220
0.0
230
1.0
 40
0.9833059182791558
 41
0.0
 42
6.283185307179584
  0
ELLIPSE
  5
ACE
330
A8B
100
AcDbEntity
  8
FRONT
  6
Continuous
 62
     4
100
AcDbEllipse
 10
25.7233286589496
 20
-23.7751759983857
 30
0.0
 11
-0.0799385486845723
 21
-5.721889020223127
 31
0.0
210
0.0
220
0.0
230
0.9999999999999998
 40
0.0848761529690107
 41
0.8609885795557556
 42
1.010813097306145
  0
ELLIPSE
  5
ACF
330
A8B
100
AcDbEntity
  8
FRONT
  6
Continuous
 62
     4
100
AcDbEllipse
 10
27.0359224027707
 20
-26.9328326931226
 30
0.0
 11
-0.793925307234311
 21
0.42388985189299
 31
0.0
210
0.0
220
0.0
230
1.0
 40
0.9833059182785405
 41
0.0
 42
1.217655899238259
  0
ELLIPSE
  5
AD0
330
A8B
100
AcDbEntity
  8
FRONT
  6
Continuous
 62
     4
100
AcDbEllipse
 10
26.9929493908919
 20
-27.0133190777317
 30
0.0
 11
-0.7939252851528728
 21
0.4238898401648104
 31
0.0
210
0.0
220
0.0
230
1.0
 40
0.9833059182791334
 41
3.193165641446312
 42
5.213279965006496
  0
LINE
  5
AD1
330
A8B
100
AcDbEntity
  8
FRONT
  6
Continuous
 62
     4
100
AcDbLine
 10
24.7814788330082
 20
-28.9203203362142
 30
0.0
 11
28.863616112686
 21
-28.9063559417729
 31
0.0
  0
ELLIPSE
  5
AD2
330
A8B
100
AcDbEntity
  8
FRONT
  6
Continuous
 62
     4
100
AcDbEllipse
 10
27.0359224041836
 20
-26.9328326941346
 30
0.0
 11
-0.7939253088795834
 21
0.4238898451415228
 31
0.0
210
0.0
220
0.0
230
0.9999999999999998
 40
0.9833059192021876
 41
2.862822081785346
 42
3.141592646178711
  0
ELLIPSE
  5
AD3
330
A8B
100
AcDbEntity
  8
FRONT
  6
Continuous
 62
     4
100
AcDbEllipse
 10
38.2214516344839
 20
-23.3516135773738
 30
0.0
 11
-60.22774572573949
 21
0.8391642046853387
 31
0.0
210
0.0
220
0.0
230
1.0
 40
0.0733360947234748
 41
1.395961454238489
 42
1.401822529636017
  0
ELLIPSE
  5
AD4
330
A8B
100
AcDbEntity
  8
FRONT
  6
Continuous
 62
     4
100
AcDbEllipse
 10
10.0877565006285
 20
-23.2527266839777
 30
0.0
 11
-74.39203540301211
 21
1.036502535843046
 31
0.0
210
0.0
220
0.0
230
1.0
 40
0.0733366707427299
 41
1.786532921110053
 42
1.835644438831914
  0
SPLINE
  5
AD5
330
A8B
100
AcDbEntity
  8
FRONT
  6
Continuous
 62
     4
100
AcDbSpline
210
0.0
220
0.0
230
1.0
 70
    24
 71
     1
 72
     4
 73
     2
 74
     0
 42
0.0000000001
 43
0.0000000001
 40
0.0
 40
0.0
 40
1.0
 40
1.0
 10
29.7848982285983
 20
-29.7470033654732
 30
0.0
 10
26.7961366307572
 20
-29.7023411696357
 30
0.0
  0
SPLINE
  5
AD6
330
A8B
100
AcDbEntity
  8
FRONT
  6
Continuous
 62
     4
100
AcDbSpline
210
0.0
220
0.0
230
1.0
 70
     8
 71
     2
 72
     6
 73
     3
 74
     0
 42
0.0000000001
 43
0.0000000001
 40
0.0
 40
0.0
 40
0.0
 40
1.0
 40
1.0
 40
1.0
 10
29.7238291078345
 20
-29.7115839162956
 30
0.0
 10
28.2682315717208
 20
-29.6985599791286
 30
0.0
 10
26.8124513678946
 20
-29.6488805829986
 30
0.0
  0
SPLINE
  5
AD7
330
A8B
100
AcDbEntity
  8
FRONT
  6
Continuous
 62
     4
100
AcDbSpline
210
0.0
220
0.0
230
1.0
 70
    24
 71
     1
 72
     4
 73
     2
 74
     0
 42
0.0000000001
 43
0.0000000001
 40
0.0
 40
0.0
 40
1.0
 40
1.0
 10
27.3286824553042
 20
-29.4831934468973
 30
0.0
 10
29.4401689325415
 20
-29.5239092656623
 30
0.0
  0
SPLINE
  5
AD8
330
A8B
100
AcDbEntity
  8
FRONT
  6
Continuous
 62
     4
100
AcDbSpline
210
0.0
220
0.0
230
1.0
 70
     8
 71
     2
 72
     6
 73
     3
 74
     0
 42
0.0000000001
 43
0.0000000001
 40
0.0
 40
0.0
 40
0.0
 40
1.0
 40
1.0
 40
1.0
 10
29.485383587135
 20
-29.5601220309657
 30
0.0
 10
28.3962687134895
 20
-29.5470693405072
 30
0.0
 10
27.3149346558818
 20
-29.5109259657027
 30
0.0
  0
SPLINE
  5
AD9
330
A8B
100
AcDbEntity
  8
FRONT
  6
Continuous
 62
     4
100
AcDbSpline
210
0.0
220
0.0
230
1.0
 70
     8
 71
     2
 72
     6
 73
     3
 74
     0
 42
0.0000000001
 43
0.0000000001
 40
0.0
 40
0.0
 40
0.0
 40
1.0
 40
1.0
 40
1.0
 10
29.5028955699303
 20
-29.5810848000753
 30
0.0
 10
28.4089436311685
 20
-29.5561819204931
 30
0.0
 10
27.3149346558818
 20
-29.5109259657026
 30
0.0
  0
LINE
  5
ADA
330
A8B
100
AcDbEntity
  8
FRONT
  6
Continuous
 62
     4
100
AcDbLine
 10
25.4050605261596
 20
-28.8034563487485
 30
0.0
 11
25.8916885517903
 21
-28.8017916654636
 31
0.0
  0
LINE
  5
ADB
330
A8B
100
AcDbEntity
  8
FRONT
  6
Continuous
 62
     4
100
AcDbLine
 10
24.7883113124257
 20
-28.805566157582
 30
0.0
 11
25.4050605261596
 21
-28.8034563487485
 31
0.0
  0
LINE
  5
ADC
330
A8B
100
AcDbEntity
  8
FRONT
  6
Continuous
 62
     4
100
AcDbLine
 10
24.7141119602002
 20
-28.9205507884307
 30
0.0
 11
24.7814788330082
 21
-28.9203203362142
 31
0.0
  0
LINE
  5
ADD
330
A8B
100
AcDbEntity
  8
FRONT
  6
Continuous
 62
     4
100
AcDbLine
 10
25.920394408467
 20
-29.4162044524357
 30
0.0
 11
25.8425155325639
 21
-29.4234269501457
 31
0.0
  0
ELLIPSE
  5
ADE
330
A8B
100
AcDbEntity
  8
FRONT
  6
Continuous
 62
     4
100
AcDbEllipse
 10
26.3801901607837
 20
-28.9892852929607
 30
0.0
 11
-0.0261303380478747
 21
-0.4993167493651739
 31
0.0
210
0.0
220
0.0
230
1.0
 40
0.207227326156888
 41
0.293361878369899
 42
0.4309508045600884
  0
ELLIPSE
  5
ADF
330
A8B
100
AcDbEntity
  8
FRONT
  6
Continuous
 62
     4
100
AcDbEllipse
 10
47.5405401418827
 20
-23.7715873231435
 30
0.0
 11
-66.41326335410838
 21
0.9269833922146549
 31
0.0
210
0.0
220
0.0
230
1.0
 40
0.0848785527739216
 41
1.232222219062653
 42
1.240685434065807
  0
ELLIPSE
  5
AE0
330
A8B
100
AcDbEntity
  8
FRONT
  6
Continuous
 62
     4
100
AcDbEllipse
 10
27.3091997775173
 20
-29.0272677626762
 30
0.0
 11
-0.0157629108455211
 21
-0.4997514551771808
 31
0.0
210
0.0
220
0.0
230
0.9999999999999998
 40
0.1634163455934212
 41
0.2596728804504972
 42
0.4271027027017509
  0
ELLIPSE
  5
AE1
330
A8B
100
AcDbEntity
  8
FRONT
  6
Continuous
 62
     4
100
AcDbEllipse
 10
38.2210635703332
 20
-23.351737073329
 30
0.0
 11
-60.22680518323547
 21
0.8391789498204172
 31
0.0
210
0.0
220
0.0
230
1.0
 40
0.073335099090449
 41
1.368153266464279
 42
1.373756158617132
  0
ELLIPSE
  5
AE2
330
A8B
100
AcDbEntity
  8
FRONT
  6
Continuous
 62
     4
100
AcDbEllipse
 10
24.7900489476525
 20
-28.9042689236407
 30
0.0
 11
-0.000342083369458
 21
0.0999994148984049
 31
0.0
210
0.0
220
0.0
230
0.9999999999999998
 40
0.0873785520673491
 41
0.1609135457003019
 42
1.731709872424159
  0
SPLINE
  5
AE3
330
A8B
100
AcDbEntity
  8
FRONT
  6
Continuous
 62
     4
100
AcDbSpline
210
0.0
220
0.0
230
1.0
 70
     8
 71
     3
 72
    10
 73
     6
 74
     0
 42
0.0000000001
 43
0.0000000001
 40
0.0
 40
0.0
 40
0.0
 40
0.0
 40
0.2568958804124872
 40
0.5137917608271178
 40
1.0
 40
1.0
 40
1.0
 40
1.0
 10
26.796136630345
 20
-29.7023410483864
 30
0.0
 10
26.7975332810273
 20
-29.6977484839789
 30
0.0
 10
26.800326794273
 20
-29.6885708765752
 30
0.0
 10
26.8057646731594
 20
-29.6707376447878
 30
0.0
 10
26.8098064682885
 20
-29.6575171761804
 30
0.0
 10
26.8124513678946
 20
-29.6488805829986
 30
0.0
  0
SPLINE
  5
AE4
330
A8B
100
AcDbEntity
  8
FRONT
  6
Continuous
 62
     4
100
AcDbSpline
210
0.0
220
0.0
230
1.0
 70
    24
 71
     1
 72
     4
 73
     2
 74
     0
 42
0.0000000001
 43
0.0000000001
 40
0.0
 40
0.0
 40
1.0
 40
1.0
 10
25.8425155325639
 20
-29.4234269501457
 30
0.0
 10
25.7674142621147
 20
-29.426861354522
 30
0.0
  0
SPLINE
  5
AE5
330
A8B
100
AcDbEntity
  8
FRONT
  6
Continuous
 62
     4
100
AcDbSpline
210
0.0
220
0.0
230
1.0
 70
     8
 71
     3
 72
    15
 73
    11
 74
     0
 42
0.0000000001
 43
0.0000000001
 40
0.0
 40
0.0
 40
0.0
 40
0.0
 40
0.140976339028535
 40
0.2892431856819297
 40
0.4121436114845082
 40
0.5144916745071848
 40
0.6168092444520747
 40
0.7567233522043856
 40
0.9739203035115163
 40
1.0
 40
1.0
 40
1.0
 40
1.0
 10
27.68450164325
 20
-27.5551784500228
 30
0.0
 10
27.6398194940774
 20
-27.6065239782098
 30
0.0
 10
27.5358619146483
 20
-27.7014571799955
 30
0.0
 10
27.3541142937792
 20
-27.8139033122484
 30
0.0
 10
27.1550966412183
 20
-27.8773177019129
 30
0.0
 10
26.965881223166
 20
-27.8887043672502
 30
0.0
 10
26.7765229942236
 20
-27.8529794813266
 30
0.0
 10
26.5653433024318
 20
-27.7475846367702
 30
0.0
 10
26.439801237066
 20
-27.6187240940732
 30
0.0
 10
26.3767890976078
 20
-27.5285435611281
 30
0.0
 10
26.3702540362645
 20
-27.5187292058614
 30
0.0
  0
SPLINE
  5
AE6
330
A8B
100
AcDbEntity
  8
FRONT
  6
Continuous
 62
     4
100
AcDbSpline
210
0.0
220
0.0
230
1.0
 70
    24
 71
     1
 72
     4
 73
     2
 74
     0
 42
0.0000000001
 43
0.0000000001
 40
0.0
 40
0.0
 40
1.0
 40
1.0
 10
25.8821095948392
 20
-29.4358275953925
 30
0.0
 10
25.7674142621147
 20
-29.426861354522
 30
0.0
  0
SPLINE
  5
AE7
330
A8B
100
AcDbEntity
  8
FRONT
  6
Continuous
 62
     4
100
AcDbSpline
210
0.0
220
0.0
230
1.0
 70
    24
 71
     1
 72
     4
 73
     2
 74
     0
 42
0.0000000001
 43
0.0000000001
 40
0.0
 40
0.0
 40
1.0
 40
1.0
 10
26.3850974233233
 20
-29.4688356393744
 30
0.0
 10
25.8624038350109
 20
-29.4419873663746
 30
0.0
  0
SPLINE
  5
AE8
330
A8B
100
AcDbEntity
  8
FRONT
  6
Continuous
 62
     4
100
AcDbSpline
210
0.0
220
0.0
230
1.0
 70
    24
 71
     1
 72
     4
 73
     2
 74
     0
 42
0.0000000001
 43
0.0000000001
 40
0.0
 40
0.0
 40
1.0
 40
1.0
 10
26.796136630758
 20
-29.7023411696358
 30
0.0
 10
26.1384954252823
 20
-29.6821134610602
 30
0.0
  0
SPLINE
  5
AE9
330
A8B
100
AcDbEntity
  8
FRONT
  6
Continuous
 62
     4
100
AcDbSpline
210
0.0
220
0.0
230
1.0
 70
    24
 71
     1
 72
     4
 73
     2
 74
     0
 42
0.0000000001
 43
0.0000000001
 40
0.0
 40
0.0
 40
1.0
 40
1.0
 10
25.920394408467
 20
-29.4162044524357
 30
0.0
 10
26.3996728392818
 20
-29.4452110016334
 30
0.0
  0
SPLINE
  5
AEA
330
A8B
100
AcDbEntity
  8
FRONT
  6
Continuous
 62
     4
100
AcDbSpline
210
0.0
220
0.0
230
1.0
 70
    24
 71
     1
 72
     4
 73
     2
 74
     0
 42
0.0000000001
 43
0.0000000001
 40
0.0
 40
0.0
 40
1.0
 40
1.0
 10
26.3850974233233
 20
-29.4688356393744
 30
0.0
 10
25.8821095948392
 20
-29.4358275953925
 30
0.0
  0
SPLINE
  5
AEB
330
A8B
100
AcDbEntity
  8
FRONT
  6
Continuous
 62
     4
100
AcDbSpline
210
0.0
220
0.0
230
1.0
 70
     8
 71
     3
 72
    11
 73
     7
 74
     0
 42
0.0000000001
 43
0.0000000001
 40
0.0
 40
0.0
 40
0.0
 40
0.0
 40
0.000063183656549
 40
0.6610072159485929
 40
0.9999368181050073
 40
1.0
 40
1.0
 40
1.0
 40
1.0
 10
27.3149346558818
 20
-29.5109259657026
 30
0.0
 10
27.3148347267232
 20
-29.5109222022912
 30
0.0
 10
27.1094595477238
 20
-29.5031876099147
 30
0.0
 10
26.7990684088289
 20
-29.4902166362479
 30
0.0
 10
26.4898036447994
 20
-29.4745125232929
 30
0.0
 10
26.385197276662
 20
-29.4688410531484
 30
0.0
 10
26.3850974233144
 20
-29.468835639374
 30
0.0
  0
SPLINE
  5
AEC
330
A8B
100
AcDbEntity
  8
FRONT
  6
Continuous
 62
     4
100
AcDbSpline
210
0.0
220
0.0
230
1.0
 70
    24
 71
     1
 72
     4
 73
     2
 74
     0
 42
0.0000000001
 43
0.0000000001
 40
0.0
 40
0.0
 40
1.0
 40
1.0
 10
26.3996728413243
 20
-29.4452110017278
 30
0.0
 10
27.3286824553042
 20
-29.4831934468973
 30
0.0
  0
SPLINE
  5
AED
330
A8B
100
AcDbEntity
  8
FRONT
  6
Continuous
 62
     4
100
AcDbSpline
210
0.0
220
0.0
230
1.0
 70
    24
 71
     1
 72
     4
 73
     2
 74
     0
 42
0.0000000001
 43
0.0000000001
 40
0.0
 40
0.0
 40
1.0
 40
1.0
 10
25.8624038350109
 20
-29.4419873663746
 30
0.0
 10
25.8042957432238
 20
-29.4388614706482
 30
0.0
  0
LINE
  5
AEE
330
A8B
100
AcDbEntity
  8
FRONT
  6
Continuous
 62
     4
100
AcDbLine
 10
30.1301432411591
 20
-28.4681201405998
 30
0.0
 11
30.1301458877983
 21
-28.4688738064269
 31
0.0
  0
LINE
  5
AEF
330
A8B
100
AcDbEntity
  8
FRONT
  6
Continuous
 62
     4
100
AcDbLine
 10
30.1196199401073
 20
-28.4625666390524
 30
0.0
 11
30.1225372359451
 21
-29.2933055549444
 31
0.0
  0
LINE
  5
AF0
330
A8B
100
AcDbEntity
  8
FRONT
  6
Continuous
 62
     4
100
AcDbLine
 10
30.1855347658683
 20
-28.4756711854943
 30
0.0
 11
30.1886021514817
 21
-29.349150167661
 31
0.0
  0
LINE
  5
AF1
330
A8B
100
AcDbEntity
  8
FRONT
  6
Continuous
 62
     4
100
AcDbLine
 10
29.779437784684
 20
-28.6437961862958
 30
0.0
 11
29.7795714812739
 21
-28.6818680742353
 31
0.0
  0
LINE
  5
AF2
330
A8B
100
AcDbEntity
  8
FRONT
  6
Continuous
 62
     4
100
AcDbLine
 10
29.779437784684
 20
-28.6437961862958
 30
0.0
 11
30.0576752771897
 21
-28.4765887034994
 31
0.0
  0
LINE
  5
AF3
330
A8B
100
AcDbEntity
  8
FRONT
  6
Continuous
 62
     4
100
AcDbLine
 10
30.0670861562206
 20
-28.4583551458682
 30
0.0
 11
30.0698427302392
 21
-29.2433263791931
 31
0.0
  0
LINE
  5
AF4
330
A8B
100
AcDbEntity
  8
FRONT
  6
Continuous
 62
     4
100
AcDbLine
 10
30.1301458877983
 20
-28.4688738064269
 30
0.0
 11
30.1330739731302
 21
-29.3026851747203
 31
0.0
  0
LINE
  5
AF5
330
A8B
100
AcDbEntity
  8
FRONT
  6
Continuous
 62
     4
100
AcDbLine
 10
30.0952702459583
 20
-28.1089581081721
 30
0.0
 11
30.0102043968619
 21
-28.1764693430079
 31
0.0
  0
LINE
  5
AF6
330
A8B
100
AcDbEntity
  8
FRONT
  6
Continuous
 62
     4
100
AcDbLine
 10
30.0102043968619
 20
-28.1764693430079
 30
0.0
 11
30.0576752771897
 21
-28.4765887034994
 31
0.0
  0
LINE
  5
AF7
330
A8B
100
AcDbEntity
  8
FRONT
  6
Continuous
 62
     4
100
AcDbLine
 10
29.7670156709341
 20
-28.5659266214055
 30
0.0
 11
29.6787989038588
 21
-28.0129288461082
 31
0.0
  0
LINE
  5
AF8
330
A8B
100
AcDbEntity
  8
FRONT
  6
Continuous
 62
     4
100
AcDbLine
 10
29.779437784684
 20
-28.6437961862958
 30
0.0
 11
29.7670156709341
 21
-28.5659266214055
 31
0.0
  0
ELLIPSE
  5
AF9
330
A8B
100
AcDbEntity
  8
FRONT
  6
Continuous
 62
     4
100
AcDbEllipse
 10
29.4717987573745
 20
-28.6081493071698
 30
0.0
 11
-0.2646417690684293
 21
0.1412966173143831
 31
0.0
210
0.0
220
0.0
230
1.0
 40
0.9833059182785888
 41
2.071687311421135
 42
3.782109978374953
  0
ELLIPSE
  5
AFA
330
A8B
100
AcDbEntity
  8
FRONT
  6
Continuous
 62
     4
100
AcDbEllipse
 10
30.9797625262567
 20
-27.9969354882683
 30
0.0
 11
-0.9665041965168652
 21
0.3765818908141549
 31
0.0
210
0.0
220
0.0
230
0.9999999999999998
 40
0.8498862410049405
 41
0.6298734289431917
 42
0.7760221204517431
  0
ELLIPSE
  5
AFB
330
A8B
100
AcDbEntity
  8
FRONT
  6
Continuous
 62
     4
100
AcDbEllipse
 10
29.4803688722307
 20
-28.5920978946458
 30
0.0
 11
-0.1764278450464169
 21
0.094197746298221
 31
0.0
210
0.0
220
0.0
230
1.0
 40
0.9833059187880415
 41
3.524855636639208
 42
3.716574258287971
  0
ELLIPSE
  5
AFC
330
A8B
100
AcDbEntity
  8
FRONT
  6
Continuous
 62
     4
100
AcDbEllipse
 10
29.6275273619383
 20
-27.7664746326884
 30
0.0
 11
-0.6378505702784448
 21
2.576726862152773
 31
0.0
210
0.0
220
0.0
230
1.0
 40
0.1420514033894129
 41
4.544013824159174
 42
4.556279548729346
  0
ELLIPSE
  5
AFD
330
A8B
100
AcDbEntity
  8
FRONT
  6
Continuous
 62
     4
100
AcDbEllipse
 10
29.4855817776974
 20
-28.8882061927534
 30
0.0
 11
-0.0003420833691217
 21
0.0999994148939525
 31
0.0
210
0.0
220
0.0
230
1.0
 40
0.0873785520668444
 41
0.1609135456945704
 42
1.732484486224235
  0
ELLIPSE
  5
AFE
330
A8B
100
AcDbEntity
  8
FRONT
  6
Continuous
 62
     4
100
AcDbEllipse
 10
30.1025098783542
 20
-21.8499715337931
 30
0.0
 11
-0.2231549673139982
 21
7.545048101838847
 31
0.0
210
0.0
220
0.0
230
1.0
 40
0.1565419392169584
 41
2.98028837913766
 42
3.026543021602508
  0
ELLIPSE
  5
AFF
330
A8B
100
AcDbEntity
  8
FRONT
  6
Continuous
 62
     4
100
AcDbEllipse
 10
29.9326536625389
 20
-28.4738726962351
 30
0.0
 11
-0.1999999433238031
 21
-0.0001525554653821
 31
0.0
210
0.0
220
0.0
230
1.0
 40
0.1775485647405439
 41
3.300064853530633
 42
3.503329043719288
  0
ELLIPSE
  5
B00
330
A8B
100
AcDbEntity
  8
FRONT
  6
Continuous
 62
     4
100
AcDbEllipse
 10
29.7755857855786
 20
-28.5498752088267
 30
0.0
 11
-0.0987513760100169
 21
-0.0157532770022912
 31
0.0
210
0.0
220
0.0
230
1.0
 40
0.1458931740712325
 41
0.1778612733484125
 42
1.460656485136271
  0
ELLIPSE
  5
B01
330
A8B
100
AcDbEntity
  8
FRONT
  6
Continuous
 62
     4
100
AcDbEllipse
 10
79.833502422248
 20
10.7784966592566
 30
0.0
 11
-52.91333538115097
 21
-41.25130454679958
 31
0.0
210
0.0
220
0.0
230
1.0
 40
0.0120306976498371
 41
0.3393916290940456
 42
0.3422858615911428
  0
ELLIPSE
  5
B02
330
A8B
100
AcDbEntity
  8
FRONT
  6
Continuous
 62
     4
100
AcDbEllipse
 10
29.4803688720239
 20
-28.5920978946137
 30
0.0
 11
-0.1764278461941974
 21
0.0941977445624821
 31
0.0
210
0.0
220
0.0
230
0.9999999999999998
 40
0.9833059182720552
 41
2.071687309673813
 42
2.454396003569158
  0
ELLIPSE
  5
B03
330
A8B
100
AcDbEntity
  8
FRONT
  6
Continuous
 62
     4
100
AcDbEllipse
 10
29.4803688720209
 20
-28.5920978945931
 30
0.0
 11
-0.1764278460477521
 21
0.0941977448654515
 31
0.0
210
0.0
220
0.0
230
1.0
 40
0.9833059182873423
 41
2.454396005236844
 42
3.524855627886243
  0
ELLIPSE
  5
B04
330
A8B
100
AcDbEntity
  8
FRONT
  6
Continuous
 62
     4
100
AcDbEllipse
 10
29.9975376834286
 20
-21.7871345244267
 30
0.0
 11
-0.0579833643088966
 21
6.690109145654452
 31
0.0
210
0.0
220
0.0
230
1.0
 40
0.0234081852915922
 41
3.155384266539653
 42
3.216552275148325
  0
ELLIPSE
  5
B05
330
A8B
100
AcDbEntity
  8
FRONT
  6
Continuous
 62
     4
100
AcDbEllipse
 10
81.5011303237875
 20
11.7886901317668
 30
0.0
 11
-54.58145203794352
 21
-42.26950703433849
 31
0.0
210
0.0
220
0.0
230
1.0
 40
0.0166389419643796
 41
0.3320360213461808
 42
0.3350067550538322
  0
ELLIPSE
  5
B06
330
A8B
100
AcDbEntity
  8
FRONT
  6
Continuous
 62
     4
100
AcDbEllipse
 10
29.9326552808643
 20
-28.4746270828764
 30
0.0
 11
-0.1999987668190257
 21
-0.0007023332506881
 31
0.0
210
0.0
220
0.0
230
1.0
 40
0.1608116416752289
 41
3.299567109250761
 42
3.504047308224818
  0
SPLINE
  5
B07
330
A8B
100
AcDbEntity
  8
FRONT
  6
Continuous
 62
     4
100
AcDbSpline
210
0.0
220
0.0
230
1.0
 70
     8
 71
     2
 72
     6
 73
     3
 74
     0
 42
0.0000000001
 43
0.0000000001
 40
0.0
 40
0.0
 40
0.0
 40
1.0
 40
1.0
 40
1.0
 10
30.1301442709761
 20
-28.4681194197146
 30
0.0
 10
30.1282094184118
 20
-28.3965839006329
 30
0.0
 10
30.1037024911759
 20
-28.3316541921642
 30
0.0
  0
SPLINE
  5
B08
330
A8B
100
AcDbEntity
  8
FRONT
  6
Continuous
 62
     4
100
AcDbSpline
210
0.0
220
0.0
230
1.0
 70
     8
 71
     3
 72
    11
 73
     7
 74
     0
 42
0.0000000001
 43
0.0000000001
 40
0.0
 40
0.0
 40
0.0
 40
0.0
 40
0.2797385983135209
 40
0.5594467342961888
 40
0.7797158294879042
 40
1.0
 40
1.0
 40
1.0
 40
1.0
 10
29.7848982275007
 20
-29.747003365471
 30
0.0
 10
29.8474551416527
 20
-29.7462230253401
 30
0.0
 10
29.9603597089042
 20
-29.7226271437833
 30
0.0
 10
30.0956785914278
 20
-29.6221403951348
 30
0.0
 10
30.172831311479
 20
-29.4888181964286
 30
0.0
 10
30.188302477756
 20
-29.3979550163039
 30
0.0
 10
30.1886021514817
 20
-29.349150167661
 30
0.0
  0
SPLINE
  5
B09
330
A8B
100
AcDbEntity
  8
FRONT
  6
Continuous
 62
     4
100
AcDbSpline
210
0.0
220
0.0
230
1.0
 70
    24
 71
     1
 72
     4
 73
     2
 74
     0
 42
0.0000000001
 43
0.0000000001
 40
0.0
 40
0.0
 40
1.0
 40
1.0
 10
30.1225372359451
 20
-29.2933055549444
 30
0.0
 10
30.0698427302392
 20
-29.2433263791931
 30
0.0
  0
SPLINE
  5
B0A
330
A8B
100
AcDbEntity
  8
FRONT
  6
Continuous
 62
     4
100
AcDbSpline
210
0.0
220
0.0
230
1.0
 70
     8
 71
     2
 72
     6
 73
     3
 74
     0
 42
0.0000000001
 43
0.0000000001
 40
0.0
 40
0.0
 40
0.0
 40
1.0
 40
1.0
 40
1.0
 10
29.7238291078345
 20
-29.7115839162956
 30
0.0
 10
29.7378343489405
 20
-29.7206183363189
 30
0.0
 10
29.7531081514214
 20
-29.7294719803236
 30
0.0
  0
SPLINE
  5
B0B
330
A8B
100
AcDbEntity
  8
FRONT
  6
Continuous
 62
     4
100
AcDbSpline
210
0.0
220
0.0
230
1.0
 70
    24
 71
     1
 72
     4
 73
     2
 74
     0
 42
0.0000000001
 43
0.0000000001
 40
0.0
 40
0.0
 40
1.0
 40
1.0
 10
30.1287780338191
 20
-29.2987156614995
 30
0.0
 10
30.1225372359451
 20
-29.2933055549444
 30
0.0
  0
SPLINE
  5
B0C
330
A8B
100
AcDbEntity
  8
FRONT
  6
Continuous
 62
     4
100
AcDbSpline
210
0.0
220
0.0
230
1.0
 70
     8
 71
     2
 72
     6
 73
     3
 74
     0
 42
0.0000000001
 43
0.0000000001
 40
0.0
 40
0.0
 40
0.0
 40
1.0
 40
1.0
 40
1.0
 10
29.7531081330572
 20
-29.7294718926945
 30
0.0
 10
29.768397283773
 20
-29.7383341785817
 30
0.0
 10
29.78489633833
 20
-29.7470025385056
 30
0.0
  0
SPLINE
  5
B0D
330
A8B
100
AcDbEntity
  8
FRONT
  6
Continuous
 62
     4
100
AcDbSpline
210
0.0
220
0.0
230
1.0
 70
     8
 71
     2
 72
     6
 73
     3
 74
     0
 42
0.0000000001
 43
0.0000000001
 40
0.0
 40
0.0
 40
0.0
 40
1.0
 40
1.0
 40
1.0
 10
30.119700769346
 20
-28.4611631729406
 30
0.0
 10
30.1232544917867
 20
-28.3934043236566
 30
0.0
 10
30.1037015557644
 20
-28.3316526988421
 30
0.0
  0
SPLINE
  5
B0E
330
A8B
100
AcDbEntity
  8
FRONT
  6
Continuous
 62
     4
100
AcDbSpline
210
0.0
220
0.0
230
1.0
 70
     8
 71
     2
 72
     6
 73
     3
 74
     0
 42
0.0000000001
 43
0.0000000001
 40
0.0
 40
0.0
 40
0.0
 40
1.0
 40
1.0
 40
1.0
 10
29.677538655738
 20
-28.6143593820215
 30
0.0
 10
29.6806935086381
 20
-28.5850931468505
 30
0.0
 10
29.6758933439369
 20
-28.5562027334843
 30
0.0
  0
SPLINE
  5
B0F
330
A8B
100
AcDbEntity
  8
FRONT
  6
Continuous
 62
     4
100
AcDbSpline
210
0.0
220
0.0
230
1.0
 70
     8
 71
     2
 72
     6
 73
     3
 74
     0
 42
0.0000000001
 43
0.0000000001
 40
0.0
 40
0.0
 40
0.0
 40
1.0
 40
1.0
 40
1.0
 10
30.1196199401073
 20
-28.4625666390524
 30
0.0
 10
30.0981118736337
 20
-28.4264801177923
 30
0.0
 10
30.0827491324119
 20
-28.4153223362935
 30
0.0
  0
SPLINE
  5
B10
330
A8B
100
AcDbEntity
  8
FRONT
  6
Continuous
 62
     4
100
AcDbSpline
210
0.0
220
0.0
230
1.0
 70
    24
 71
     1
 72
     4
 73
     2
 74
     0
 42
0.0000000001
 43
0.0000000001
 40
0.0
 40
0.0
 40
1.0
 40
1.0
 10
29.4796247042581
 20
-29.553430722971
 30
0.0
 10
29.4856138783447
 20
-29.5598473701686
 30
0.0
  0
SPLINE
  5
B11
330
A8B
100
AcDbEntity
  8
FRONT
  6
Continuous
 62
     4
100
AcDbSpline
210
0.0
220
0.0
230
1.0
 70
    24
 71
     1
 72
     4
 73
     2
 74
     0
 42
0.0000000001
 43
0.0000000001
 40
0.0
 40
0.0
 40
1.0
 40
1.0
 10
30.1855347658683
 20
-28.4756711854943
 30
0.0
 10
30.1851999011413
 20
-28.4295608128615
 30
0.0
  0
SPLINE
  5
B12
330
A8B
100
AcDbEntity
  8
FRONT
  6
Continuous
 62
     4
100
AcDbSpline
210
0.0
220
0.0
230
1.0
 70
     8
 71
     3
 72
    14
 73
    10
 74
     0
 42
0.0000000001
 43
0.0000000001
 40
0.0
 40
0.0
 40
0.0
 40
0.0
 40
0.1248883957440875
 40
0.2497714879519448
 40
0.3746545211303977
 40
0.4995231745160237
 40
0.6243751603251047
 40
0.7494560896066159
 40
1.0
 40
1.0
 40
1.0
 40
1.0
 10
30.0698427302391
 20
-29.2433263791931
 30
0.0
 10
30.0698721977168
 20
-29.2766318058043
 30
0.0
 10
30.0617696316965
 20
-29.3401804133871
 30
0.0
 10
30.0241428545798
 20
-29.4293427839212
 30
0.0
 10
29.964014396918
 20
-29.5032744619542
 30
0.0
 10
29.8854623236057
 20
-29.5569229545741
 30
0.0
 10
29.7936748040431
 20
-29.5870034321773
 30
0.0
 10
29.6639097313009
 20
-29.5852707042512
 30
0.0
 10
29.5676378664514
 20
-29.5855869326771
 30
0.0
 10
29.5028955699303
 20
-29.5810848000753
 30
0.0
  0
SPLINE
  5
B13
330
A8B
100
AcDbEntity
  8
FRONT
  6
Continuous
 62
     4
100
AcDbSpline
210
0.0
220
0.0
230
1.0
 70
     8
 71
     2
 72
     6
 73
     3
 74
     0
 42
0.0000000001
 43
0.0000000001
 40
0.0
 40
0.0
 40
0.0
 40
1.0
 40
1.0
 40
1.0
 10
30.1562477220534
 20
-28.2934794443294
 30
0.0
 10
30.1845051916076
 20
-28.3591288818937
 30
0.0
 10
30.1851999011413
 20
-28.4295608128625
 30
0.0
  0
SPLINE
  5
B14
330
A8B
100
AcDbEntity
  8
FRONT
  6
Continuous
 62
     4
100
AcDbSpline
210
0.0
220
0.0
230
1.0
 70
    24
 71
     1
 72
     4
 73
     2
 74
     0
 42
0.0000000001
 43
0.0000000001
 40
0.0
 40
0.0
 40
1.0
 40
1.0
 10
30.0827491324119
 20
-28.4153223362935
 30
0.0
 10
30.0670861562206
 20
-28.4583551458682
 30
0.0
  0
SPLINE
  5
B15
330
A8B
100
AcDbEntity
  8
FRONT
  6
Continuous
 62
     4
100
AcDbSpline
210
0.0
220
0.0
230
1.0
 70
     8
 71
     2
 72
     6
 73
     3
 74
     0
 42
0.0000000001
 43
0.0000000001
 40
0.0
 40
0.0
 40
0.0
 40
1.0
 40
1.0
 40
1.0
 10
30.0657842381243
 20
-28.3035262655526
 30
0.0
 10
30.081753449222
 20
-28.3100516329374
 30
0.0
 10
30.1037015557654
 20
-28.3316526988446
 30
0.0
  0
SPLINE
  5
B16
330
A8B
100
AcDbEntity
  8
FRONT
  6
Continuous
 62
     4
100
AcDbSpline
210
0.0
220
0.0
230
1.0
 70
    24
 71
     1
 72
     4
 73
     2
 74
     0
 42
0.0000000001
 43
0.0000000001
 40
0.0
 40
0.0
 40
1.0
 40
1.0
 10
30.1196199401073
 20
-28.4625666390524
 30
0.0
 10
30.1197007693467
 20
-28.4611631729423
 30
0.0
  0
SPLINE
  5
B17
330
A8B
100
AcDbEntity
  8
FRONT
  6
Continuous
 62
     4
100
AcDbSpline
210
0.0
220
0.0
230
1.0
 70
     8
 71
     2
 72
     6
 73
     3
 74
     0
 42
0.0000000001
 43
0.0000000001
 40
0.0
 40
0.0
 40
0.0
 40
1.0
 40
1.0
 40
1.0
 10
30.0698427302391
 20
-29.2433263791931
 30
0.0
 10
29.9224478205328
 20
-29.0701779364534
 30
0.0
 10
29.7795714812739
 20
-28.6818680742352
 30
0.0
  0
SPLINE
  5
B18
330
A8B
100
AcDbEntity
  8
FRONT
  6
Continuous
 62
     4
100
AcDbSpline
210
0.0
220
0.0
230
1.0
 70
    24
 71
     1
 72
     4
 73
     2
 74
     0
 42
0.0000000001
 43
0.0000000001
 40
0.0
 40
0.0
 40
1.0
 40
1.0
 10
29.4767706847602
 20
-28.9043564573751
 30
0.0
 10
28.863616112686
 20
-28.9063559417729
 30
0.0
  0
SPLINE
  5
B19
330
A8B
100
AcDbEntity
  8
FRONT
  6
Continuous
 62
     4
100
AcDbSpline
210
0.0
220
0.0
230
1.0
 70
    24
 71
     1
 72
     4
 73
     2
 74
     0
 42
0.0000000001
 43
0.0000000001
 40
0.0
 40
0.0
 40
1.0
 40
1.0
 10
30.1318209235181
 20
-28.2330058784959
 30
0.0
 10
30.0952702459583
 20
-28.1089581081721
 30
0.0
  0
SPLINE
  5
B1A
330
A8B
100
AcDbEntity
  8
FRONT
  6
Continuous
 62
     4
100
AcDbSpline
210
0.0
220
0.0
230
1.0
 70
     8
 71
     2
 72
     6
 73
     3
 74
     0
 42
0.0000000001
 43
0.0000000001
 40
0.0
 40
0.0
 40
0.0
 40
1.0
 40
1.0
 40
1.0
 10
29.6763833898509
 20
-29.6858611651274
 30
0.0
 10
29.6924138536616
 20
-29.6940556855475
 30
0.0
 10
29.704960493657
 20
-29.7008104479063
 30
0.0
  0
SPLINE
  5
B1B
330
A8B
100
AcDbEntity
  8
FRONT
  6
Continuous
 62
     4
100
AcDbSpline
210
0.0
220
0.0
230
1.0
 70
     8
 71
     3
 72
    10
 73
     6
 74
     0
 42
0.0000000001
 43
0.0000000001
 40
0.0
 40
0.0
 40
0.0
 40
0.0
 40
0.2802834343870607
 40
0.561500176492782
 40
1.0
 40
1.0
 40
1.0
 40
1.0
 10
30.1225372359451
 20
-29.2933055549444
 30
0.0
 10
30.1199811755569
 20
-29.3592202516988
 30
0.0
 10
30.0911923074525
 20
-29.4757399816973
 30
0.0
 10
29.9285306359832
 20
-29.6419485579761
 30
0.0
 10
29.7831939667081
 20
-29.684490210764
 30
0.0
 10
29.6763833898509
 20
-29.6858611651274
 30
0.0
  0
SPLINE
  5
B1C
330
A8B
100
AcDbEntity
  8
FRONT
  6
Continuous
 62
     4
100
AcDbSpline
210
0.0
220
0.0
230
1.0
 70
     8
 71
     2
 72
     6
 73
     3
 74
     0
 42
0.0000000001
 43
0.0000000001
 40
0.0
 40
0.0
 40
0.0
 40
1.0
 40
1.0
 40
1.0
 10
29.4874517764985
 20
-28.7894819478209
 30
0.0
 10
29.5248101447234
 20
-28.7890828224387
 30
0.0
 10
29.5582968409754
 20
-28.775467994971
 30
0.0
  0
SPLINE
  5
B1D
330
A8B
100
AcDbEntity
  8
FRONT
  6
Continuous
 62
     4
100
AcDbSpline
210
0.0
220
0.0
230
1.0
 70
    24
 71
     1
 72
     4
 73
     2
 74
     0
 42
0.0000000001
 43
0.0000000001
 40
0.0
 40
0.0
 40
1.0
 40
1.0
 10
29.440394792799
 20
-29.5240158633817
 30
0.0
 10
29.4458288916903
 20
-29.5277306483611
 30
0.0
  0
SPLINE
  5
B1E
330
A8B
100
AcDbEntity
  8
FRONT
  6
Continuous
 62
     4
100
AcDbSpline
210
0.0
220
0.0
230
1.0
 70
     8
 71
     2
 72
     6
 73
     3
 74
     0
 42
0.0000000001
 43
0.0000000001
 40
0.0
 40
0.0
 40
0.0
 40
1.0
 40
1.0
 40
1.0
 10
29.5028955699303
 20
-29.5810848000753
 30
0.0
 10
29.547056279906
 20
-29.6208820765403
 30
0.0
 10
29.6763833898509
 20
-29.6858611651274
 30
0.0
  0
SPLINE
  5
B1F
330
A8B
100
AcDbEntity
  8
FRONT
  6
Continuous
 62
     4
100
AcDbSpline
210
0.0
220
0.0
230
1.0
 70
    24
 71
     1
 72
     4
 73
     2
 74
     0
 42
0.0000000001
 43
0.0000000001
 40
0.0
 40
0.0
 40
1.0
 40
1.0
 10
29.4856138783447
 20
-29.5598473701686
 30
0.0
 10
29.5028955699303
 20
-29.5810848000753
 30
0.0
  0
SPLINE
  5
B20
330
A8B
100
AcDbEntity
  8
FRONT
  6
Continuous
 62
     4
100
AcDbSpline
210
0.0
220
0.0
230
1.0
 70
    24
 71
     1
 72
     4
 73
     2
 74
     0
 42
0.0000000001
 43
0.0000000001
 40
0.0
 40
0.0
 40
1.0
 40
1.0
 10
30.1562477220534
 20
-28.2934794443294
 30
0.0
 10
30.1318209235181
 20
-28.2330058784959
 30
0.0
  0
SPLINE
  5
B21
330
A8B
100
AcDbEntity
  8
FRONT
  6
Continuous
 62
     4
100
AcDbSpline
210
0.0
220
0.0
230
1.0
 70
     8
 71
     3
 72
    11
 73
     7
 74
     0
 42
0.0000000001
 43
0.0000000001
 40
0.0
 40
0.0
 40
0.0
 40
0.0
 40
0.2627757061120019
 40
0.5667558013116807
 40
0.8797139751218168
 40
1.0
 40
1.0
 40
1.0
 40
1.0
 10
29.5582968409754
 20
-28.775467994971
 30
0.0
 10
29.5758766535682
 20
-28.768144017845
 30
0.0
 10
29.6099092024157
 20
-28.7481786541157
 30
0.0
 10
29.6515803528677
 20
-28.7010727816975
 30
0.0
 10
29.6714987853641
 20
-28.6525370008885
 30
0.0
 10
29.6766136844799
 20
-28.622793026146
 30
0.0
 10
29.677538655738
 20
-28.6143593820215
 30
0.0
  0
SPLINE
  5
B22
330
A8B
100
AcDbEntity
  8
FRONT
  6
Continuous
 62
     4
100
AcDbSpline
210
0.0
220
0.0
230
1.0
 70
     8
 71
     3
 72
    11
 73
     7
 74
     0
 42
0.0000000001
 43
0.0000000001
 40
0.0
 40
0.0
 40
0.0
 40
0.0
 40
0.2793522346033047
 40
0.5593335184216813
 40
0.7797559679565327
 40
1.0
 40
1.0
 40
1.0
 40
1.0
 10
30.1330739731302
 20
-29.3026851747203
 30
0.0
 10
30.1318025830805
 20
-29.3662408005393
 30
0.0
 10
30.1066750164506
 20
-29.4809999336862
 30
0.0
 10
30.0005839617664
 20
-29.6178151319695
 30
0.0
 10
29.8636787768939
 20
-29.6960793043353
 30
0.0
 10
29.7724312276449
 20
-29.7114631401399
 30
0.0
 10
29.7238291078345
 20
-29.7115839162956
 30
0.0
  0
SPLINE
  5
B23
330
A8B
100
AcDbEntity
  8
FRONT
  6
Continuous
 62
     4
100
AcDbSpline
210
0.0
220
0.0
230
1.0
 70
     8
 71
     3
 72
    14
 73
    10
 74
     0
 42
0.0000000001
 43
0.0000000001
 40
0.0
 40
0.0
 40
0.0
 40
0.0
 40
0.1951062385720619
 40
0.3339125582488692
 40
0.4501474463006513
 40
0.566328053941413
 40
0.7231136318596933
 40
0.9477057072569012
 40
1.0
 40
1.0
 40
1.0
 40
1.0
 10
30.0827491324049
 20
-28.4153223362888
 30
0.0
 10
30.0847446506864
 20
-28.411487918185
 30
0.0
 10
30.087242657558
 20
-28.4029838422607
 30
0.0
 10
30.0892492237286
 20
-28.3874409527172
 30
0.0
 10
30.0884267980244
 20
-28.3711933616033
 30
0.0
 10
30.0851456104782
 20
-28.3529580639236
 30
0.0
 10
30.0784465126748
 20
-28.3307074467082
 30
0.0
 10
30.071257583209
 20
-28.31420069552
 30
0.0
 10
30.0666622432653
 20
-28.3051789095043
 30
0.0
 10
30.0657842381243
 20
-28.3035262655526
 30
0.0
  0
SPLINE
  5
B24
330
A8B
100
AcDbEntity
  8
FRONT
  6
Continuous
 62
     4
100
AcDbSpline
210
0.0
220
0.0
230
1.0
 70
     8
 71
     2
 72
     6
 73
     3
 74
     0
 42
0.0000000001
 43
0.0000000001
 40
0.0
 40
0.0
 40
0.0
 40
1.0
 40
1.0
 40
1.0
 10
29.7049604793362
 20
-29.7008104342622
 30
0.0
 10
29.7173431674357
 20
-29.7074535021183
 30
0.0
 10
29.7238291078345
 20
-29.7115839162956
 30
0.0
  0
SPLINE
  5
B25
330
A8B
100
AcDbEntity
  8
FRONT
  6
Continuous
 62
     4
100
AcDbSpline
210
0.0
220
0.0
230
1.0
 70
     8
 71
     2
 72
     6
 73
     3
 74
     0
 42
0.0000000001
 43
0.0000000001
 40
0.0
 40
0.0
 40
0.0
 40
1.0
 40
1.0
 40
1.0
 10
28.863616112686
 20
-28.9063559417729
 30
0.0
 10
29.0066097995952
 20
-29.2420742230336
 30
0.0
 10
29.4401689325414
 20
-29.5239092656623
 30
0.0
  0
SPLINE
  5
B26
330
A8B
100
AcDbEntity
  8
FRONT
  6
Continuous
 62
     4
100
AcDbSpline
210
0.0
220
0.0
230
1.0
 70
    24
 71
     1
 72
     4
 73
     2
 74
     0
 42
0.0000000001
 43
0.0000000001
 40
0.0
 40
0.0
 40
1.0
 40
1.0
 10
29.4458288916903
 20
-29.5277306483611
 30
0.0
 10
29.4796247042581
 20
-29.553430722971
 30
0.0
  0
SPLINE
  5
B27
330
A8B
100
AcDbEntity
  8
FRONT
  6
Continuous
 62
     4
100
AcDbSpline
210
0.0
220
0.0
230
1.0
 70
    24
 71
     1
 72
     4
 73
     2
 74
     0
 42
0.0000000001
 43
0.0000000001
 40
0.0
 40
0.0
 40
1.0
 40
1.0
 10
30.1330739731302
 20
-29.3026851747203
 30
0.0
 10
30.1287780338191
 20
-29.2987156614995
 30
0.0
  0
SPLINE
  5
B28
330
A8B
100
AcDbEntity
  8
FRONT
  6
Continuous
 62
     4
100
AcDbSpline
210
0.0
220
0.0
230
1.0
 70
     8
 71
     3
 72
    14
 73
    10
 74
     0
 42
0.0000000001
 43
0.0000000001
 40
0.0
 40
0.0
 40
0.0
 40
0.0
 40
0.142151055421
 40
0.2416441906233231
 40
0.337512840946061
 40
0.5226088307748542
 40
0.7069349958419002
 40
0.7832535482434971
 40
1.0
 40
1.0
 40
1.0
 40
1.0
 10
29.779571481274
 20
-28.6818680742352
 30
0.0
 10
29.7796862030299
 20
-28.7026729455753
 30
0.0
 10
29.7752723106351
 20
-28.7366797245986
 30
0.0
 10
29.7574444885919
 20
-28.7817153134537
 30
0.0
 10
29.7289685223066
 20
-28.8278449951899
 30
0.0
 10
29.6795904669742
 20
-28.8744719148969
 30
0.0
 10
29.6184518586156
 20
-28.8975829386952
 30
0.0
 10
29.5503796182235
 20
-28.9066592515583
 30
0.0
 10
29.5082631413543
 20
-28.90725500888
 30
0.0
 10
29.4767699917062
 20
-28.9043133186874
 30
0.0
  0
ELLIPSE
  5
B29
330
A8B
100
AcDbEntity
  8
FRONT
  6
Continuous
 62
     4
100
AcDbEllipse
 10
27.0359224027674
 20
-26.932832693123
 30
0.0
 11
-0.8821392302302177
 21
0.4709887243754463
 31
0.0
210
0.0
220
0.0
230
1.0
 40
0.9833059182791327
 41
3.625030345689558
 42
6.283185307179584
  0
SPLINE
  5
B2A
330
A8B
100
AcDbEntity
  8
FRONT
  6
Continuous
 62
     4
100
AcDbSpline
210
0.0
220
0.0
230
1.0
 70
     8
 71
     3
 72
    16
 73
    12
 74
     0
 42
0.0000000001
 43
0.0000000001
 40
0.0
 40
0.0
 40
0.0
 40
0.0
 40
0.129148378034396
 40
0.2674644537203973
 40
0.3841582685837871
 40
0.5013560291580168
 40
0.6062428686698798
 40
0.7064204883265523
 40
0.8086161864158006
 40
0.91809676777724
 40
1.0
 40
1.0
 40
1.0
 40
1.0
 10
28.0897214202634
 20
-26.8389976994844
 30
0.0
 10
28.0990907257201
 20
-26.7306531777781
 30
0.0
 10
28.0838208484484
 20
-26.5107973468239
 30
0.0
 10
27.9667078479538
 20
-26.1894359868656
 30
0.0
 10
27.7437471667822
 20
-25.924515543962
 30
0.0
 10
27.4577844584191
 20
-25.7615435655457
 30
0.0
 10
27.1433398284461
 20
-25.710825075612
 30
0.0
 10
26.8431115590512
 20
-25.7611780314674
 30
0.0
 10
26.5705801186534
 20
-25.8994394772491
 30
0.0
 10
26.3672600837469
 20
-26.0946025039201
 30
0.0
 10
26.271569294697
 20
-26.2394133798214
 30
0.0
 10
26.2370028546201
 20
-26.3059875296758
 30
0.0
  0
ELLIPSE
  5
B2B
330
A8B
100
AcDbEntity
  8
FRONT
  6
Continuous
 62
     4
100
AcDbEllipse
 10
26.99294939089
 20
-27.0133190777281
 30
0.0
 11
-0.7939252851790806
 21
0.4238898401086228
 31
0.0
210
0.0
220
0.0
230
1.0
 40
0.9833059182800139
 41
5.213279964936608
 42
6.231612357172
  0
SPLINE
  5
B2C
330
A8B
100
AcDbEntity
  8
FRONT
  6
Continuous
 62
     4
100
AcDbSpline
210
0.0
220
0.0
230
1.0
 70
     8
 71
     3
 72
    10
 73
     6
 74
     0
 42
0.0000000001
 43
0.0000000001
 40
0.0
 40
0.0
 40
0.0
 40
0.0
 40
0.1975215270407752
 40
0.8880294744614507
 40
1.0
 40
1.0
 40
1.0
 40
1.0
 10
26.2370028546201
 20
-26.3059875296758
 30
0.0
 10
26.2197994615558
 20
-26.3388207206131
 30
0.0
 10
26.1491526261781
 20
-26.4869992661456
 30
0.0
 10
26.1059607496341
 20
-26.6636783580788
 30
0.0
 10
26.0935972677075
 20
-26.8010467024683
 30
0.0
 10
26.0923429452708
 20
-26.8202317515003
 30
0.0
  0
LINE
  5
B2D
330
A8B
100
AcDbEntity
  8
FRONT
  6
Continuous
 62
     4
100
AcDbLine
 10
28.0897214202634
 20
-26.8389976994844
 30
0.0
 11
28.0322432915171
 21
-26.9466514704202
 31
0.0
  0
ELLIPSE
  5
B2E
330
A8B
100
AcDbEntity
  8
FRONT
  6
Continuous
 62
     4
100
AcDbEllipse
 10
30.1695126644468
 20
-26.1629517169637
 30
0.0
 11
-0.4845839650356391
 21
2.565417656625252
 31
0.0
210
0.0
220
0.0
230
0.9999999999999998
 40
0.1877462969956187
 41
1.545777644991644
 42
1.748054161917929
  0
ELLIPSE
  5
B2F
330
A8B
100
AcDbEntity
  8
FRONT
  6
Continuous
 62
     4
100
AcDbEllipse
 10
24.6550909382459
 20
-19.3663618296929
 30
0.0
 11
-0.7820027716041942
 21
-0.3331240993350395
 31
0.0
210
0.0
220
0.0
230
1.0
 40
0.3528380920404428
 41
1.238775038219452
 42
1.609788972500551
  0
ELLIPSE
  5
B30
330
A8B
100
AcDbEntity
  8
FRONT
  6
Continuous
 62
     4
100
AcDbEllipse
 10
24.4943786200837
 20
-18.4470065238879
 30
0.0
 11
-0.1775236042668109
 21
0.8312552970357225
 31
0.0
210
0.0
220
0.0
230
1.0
 40
0.1700246401022982
 41
4.325383915281284
 42
4.740398743479548
  0
SPLINE
  5
B31
330
A8B
100
AcDbEntity
  8
FRONT
  6
Continuous
 62
     4
100
AcDbSpline
210
0.0
220
0.0
230
1.0
 70
    24
 71
     1
 72
     4
 73
     2
 74
     0
 42
0.0000000001
 43
0.0000000001
 40
0.0
 40
0.0
 40
1.0
 40
1.0
 10
24.6306853209497
 20
-18.3935547567365
 30
0.0
 10
24.9005862197314
 20
-18.2983362180263
 30
0.0
  0
SPLINE
  5
B32
330
A8B
100
AcDbEntity
  8
FRONT
  6
Continuous
 62
     4
100
AcDbSpline
210
0.0
220
0.0
230
1.0
 70
    24
 71
     1
 72
     4
 73
     2
 74
     0
 42
0.0000000001
 43
0.0000000001
 40
0.0
 40
0.0
 40
1.0
 40
1.0
 10
24.6353964237706
 20
-18.9779764916123
 30
0.0
 10
24.7491417273818
 20
-19.5168343883256
 30
0.0
  0
SPLINE
  5
B33
330
A8B
100
AcDbEntity
  8
FRONT
  6
Continuous
 62
     4
100
AcDbSpline
210
0.0
220
0.0
230
1.0
 70
    24
 71
     1
 72
     4
 73
     2
 74
     0
 42
0.0000000001
 43
0.0000000001
 40
0.0
 40
0.0
 40
1.0
 40
1.0
 10
24.5880247662668
 20
-20.2278994637786
 30
0.0
 10
25.4029190638888
 20
-20.1701993312775
 30
0.0
  0
SPLINE
  5
B34
330
A8B
100
AcDbEntity
  8
FRONT
  6
Continuous
 62
     4
100
AcDbSpline
210
0.0
220
0.0
230
1.0
 70
    24
 71
     1
 72
     4
 73
     2
 74
     0
 42
0.0000000001
 43
0.0000000001
 40
0.0
 40
0.0
 40
1.0
 40
1.0
 10
24.9284895856153
 20
-20.1040203808982
 30
0.0
 10
24.6326796087974
 20
-20.1647673573813
 30
0.0
  0
SPLINE
  5
B35
330
A8B
100
AcDbEntity
  8
FRONT
  6
Continuous
 62
     4
100
AcDbSpline
210
0.0
220
0.0
230
1.0
 70
    24
 71
     1
 72
     4
 73
     2
 74
     0
 42
0.0000000001
 43
0.0000000001
 40
0.0
 40
0.0
 40
1.0
 40
1.0
 10
24.7491558061554
 20
-19.5169038996693
 30
0.0
 10
24.4580143212264
 20
-19.5804364553551
 30
0.0
  0
SPLINE
  5
B36
330
A8B
100
AcDbEntity
  8
FRONT
  6
Continuous
 62
     4
100
AcDbSpline
210
0.0
220
0.0
230
1.0
 70
     8
 71
     3
 72
    12
 73
     8
 74
     0
 42
0.0000000001
 43
0.0000000001
 40
0.0
 40
0.0
 40
0.0
 40
0.0
 40
0.2744697384182955
 40
0.551325202075647
 40
0.7557784030006751
 40
0.9601016673759271
 40
1.0
 40
1.0
 40
1.0
 40
1.0
 10
24.6922603184004
 20
-18.7327850007176
 30
0.0
 10
24.6833662918712
 20
-18.734813936211
 30
0.0
 10
24.6667492120932
 20
-18.7410297637869
 30
0.0
 10
24.6454354868189
 20
-18.754825659318
 30
0.0
 10
24.6319317170147
 20
-18.7729842683399
 30
0.0
 10
24.6275992230158
 20
-18.7867207142579
 30
0.0
 10
24.626553367493
 20
-18.7942031903437
 30
0.0
 10
24.6264193869503
 20
-18.7954330058888
 30
0.0
  0
SPLINE
  5
B37
330
A8B
100
AcDbEntity
  8
FRONT
  6
Continuous
 62
     4
100
AcDbSpline
210
0.0
220
0.0
230
1.0
 70
     8
 71
     2
 72
     6
 73
     3
 74
     0
 42
0.0000000001
 43
0.0000000001
 40
0.0
 40
0.0
 40
0.0
 40
1.0
 40
1.0
 40
1.0
 10
24.2271558536723
 20
-17.9412463216819
 30
0.0
 10
25.1828364744673
 20
-17.8934847437143
 30
0.0
 10
26.138495430229
 20
-17.8613649856143
 30
0.0
  0
ELLIPSE
  5
B38
330
A8B
100
AcDbEntity
  8
FRONT
  6
Continuous
 62
     4
100
AcDbEllipse
 10
17.8520193465735
 20
-23.7717392234537
 30
0.0
 11
-30.04133316949641
 21
-2.588839177206942
 31
0.0
210
0.0
220
0.0
230
1.0
 40
0.161531415063552
 41
4.513346154013638
 42
4.756988358425918
  0
SPLINE
  5
B39
330
A8B
100
AcDbEntity
  8
FRONT
  6
Continuous
 62
     4
100
AcDbSpline
210
0.0
220
0.0
230
1.0
 70
     8
 71
     3
 72
    19
 73
    15
 74
     0
 42
0.0000000001
 43
0.0000000001
 40
0.0
 40
0.0
 40
0.0
 40
0.0
 40
0.0378701787910131
 40
0.0905179988905895
 40
0.1642269556926017
 40
0.2380530753730911
 40
0.3123760441477659
 40
0.3869895302976412
 40
0.46147450164389
 40
0.5851496942702218
 40
0.7092835185565466
 40
0.833157903598639
 40
0.9165781401482579
 40
1.0
 40
1.0
 40
1.0
 40
1.0
 10
13.5353248812384
 20
-18.2717398963045
 30
0.0
 10
13.5885110481361
 20
-18.2724284548376
 30
0.0
 10
13.7289818939333
 20
-18.284172532946
 30
0.0
 10
14.0445914193817
 20
-18.3535441768103
 30
0.0
 10
14.5193286174725
 20
-18.5001195717127
 30
0.0
 10
15.1308552560828
 20
-18.7120423368057
 30
0.0
 10
15.811695937366
 20
-18.9476736506085
 30
0.0
 10
16.542948196553
 20
-19.1905104543088
 30
0.0
 10
17.4800859549799
 20
-19.4793559705571
 30
0.0
 10
18.6411942675086
 20
-19.7843486252609
 30
0.0
 10
20.0284859294267
 20
-20.0665653628463
 30
0.0
 10
21.2930886347321
 20
-20.241871202992
 30
0.0
 10
22.4136448834786
 20
-20.3299759893391
 30
0.0
 10
23.0588263739798
 20
-20.3508120260416
 30
0.0
 10
23.3822041293836
 20
-20.353747795571
 30
0.0
  0
LINE
  5
B3A
330
A8B
100
AcDbEntity
  8
FRONT
  6
Continuous
 62
     4
100
AcDbLine
 10
13.5427462343366
 20
-18.2717392234203
 30
0.0
 11
13.0560249122409
 21
-18.2717392234203
 31
0.0
  0
LINE
  5
B3B
330
A8B
100
AcDbEntity
  8
FRONT
  6
Continuous
 62
     4
100
AcDbLine
 10
23.3778209182926
 20
-20.1489592060027
 30
0.0
 11
23.77072512573
 21
-18.9363550343686
 31
0.0
  0
LINE
  5
B3C
330
A8B
100
AcDbEntity
  8
FRONT
  6
Continuous
 62
     4
100
AcDbLine
 10
23.3778209182926
 20
-20.1489592060027
 30
0.0
 11
24.5113130819984
 21
-19.7357962517334
 31
0.0
  0
LINE
  5
B3D
330
A8B
100
AcDbEntity
  8
FRONT
  6
Continuous
 62
     4
100
AcDbLine
 10
24.3187286661607
 20
-19.0504121848983
 30
0.0
 11
23.77072512573
 21
-18.9363550343686
 31
0.0
  0
LINE
  5
B3E
330
A8B
100
AcDbEntity
  8
FRONT
  6
Continuous
 62
     4
100
AcDbLine
 10
23.9286291459634
 20
-18.3100516816225
 30
0.0
 11
24.0190852474128
 21
-18.3288785037471
 31
0.0
  0
LINE
  5
B3F
330
A8B
100
AcDbEntity
  8
FRONT
  6
Continuous
 62
     4
100
AcDbLine
 10
23.9286291459634
 20
-18.3100516816225
 30
0.0
 11
23.9446664457865
 21
-18.2249796847954
 31
0.0
  0
ELLIPSE
  5
B40
330
A8B
100
AcDbEntity
  8
FRONT
  6
Continuous
 62
     4
100
AcDbEllipse
 10
24.1454058330622
 20
-18.1380166714622
 30
0.0
 11
-0.806489772482009
 21
-0.5912480410211467
 31
0.0
210
0.0
220
0.0
230
1.0
 40
0.0811337619020885
 41
1.354388177432271
 42
1.745711778396149
  0
ELLIPSE
  5
B41
330
A8B
100
AcDbEntity
  8
FRONT
  6
Continuous
 62
     4
100
AcDbEllipse
 10
347.359885497422
 20
3.87839745816333
 30
0.0
 11
-342.0959389744786
 21
-28.76099667904112
 31
0.0
210
0.0
220
0.0
230
1.0
 40
0.0434265181053538
 41
5.947803486633389
 42
5.952599622232146
  0
ELLIPSE
  5
B42
330
A8B
100
AcDbEntity
  8
FRONT
  6
Continuous
 62
     4
100
AcDbEllipse
 10
17.2926768502055
 20
-23.1129666195947
 30
0.0
 11
-7.307339427366882
 21
-3.063816270399228
 31
0.0
210
0.0
220
0.0
230
1.0
 40
0.2481866287351503
 41
3.052623486450511
 42
3.080913953302548
  0
ELLIPSE
  5
B43
330
A8B
100
AcDbEntity
  8
FRONT
  6
Continuous
 62
     4
100
AcDbEllipse
 10
24.4625065224131
 20
-18.6809777629425
 30
0.0
 11
-0.8217836972268276
 21
-0.2171901358713434
 31
0.0
210
0.0
220
0.0
230
0.9999999999999998
 40
0.3920499365775708
 41
1.292632269327997
 42
1.678371035082333
  0
ELLIPSE
  5
B44
330
A8B
100
AcDbEntity
  8
FRONT
  6
Continuous
 62
     4
100
AcDbEllipse
 10
17.5940989282463
 20
-23.0030971258578
 30
0.0
 11
-5.980729945729562
 21
-2.409864499793021
 31
0.0
210
0.0
220
0.0
230
0.9999999999999998
 40
0.3085337035018759
 41
3.290405811667822
 42
3.332639300504348
  0
ELLIPSE
  5
B45
330
A8B
100
AcDbEntity
  8
FRONT
  6
Continuous
 62
     4
100
AcDbEllipse
 10
24.2358929890881
 20
-20.5821629144179
 30
0.0
 11
-0.6673421078069362
 21
-2.286566163010705
 31
0.0
210
0.0
220
0.0
230
0.9999999999999998
 40
0.3978450525441507
 41
4.63866320637629
 42
4.650929689634258
  0
ELLIPSE
  5
B46
330
A8B
100
AcDbEntity
  8
FRONT
  6
Continuous
 62
     4
100
AcDbEllipse
 10
22.922784613347
 20
-17.5342164799217
 30
0.0
 11
-0.1862105098576039
 21
-2.621606840087076
 31
0.0
210
0.0
220
0.0
230
0.9999999999999998
 40
0.4178730016605411
 41
1.036429758151679
 42
1.300166956177833
  0
ELLIPSE
  5
B47
330
A8B
100
AcDbEntity
  8
FRONT
  6
Continuous
 62
     4
100
AcDbEllipse
 10
24.4417254285078
 20
-18.5030339832372
 30
0.0
 11
-0.8496785632609061
 21
0.0233738973287866
 31
0.0
210
0.0
220
0.0
230
0.9999999999999998
 40
0.3469230430269695
 41
1.426511375320845
 42
1.799447862846502
  0
ELLIPSE
  5
B48
330
A8B
100
AcDbEntity
  8
FRONT
  6
Continuous
 62
     4
100
AcDbEllipse
 10
23.9735648996092
 20
-20.9693548076786
 30
0.0
 11
-1.329462075118444
 21
-0.5309569405100488
 31
0.0
210
0.0
220
0.0
230
0.9999999999999998
 40
0.8742324331760295
 41
4.730475183920662
 42
5.327454682651223
  0
SPLINE
  5
B49
330
A8B
100
AcDbEntity
  8
FRONT
  6
Continuous
 62
     4
100
AcDbSpline
210
0.0
220
0.0
230
1.0
 70
    24
 71
     1
 72
     4
 73
     2
 74
     0
 42
0.0000000001
 43
0.0000000001
 40
0.0
 40
0.0
 40
1.0
 40
1.0
 10
24.6326796087974
 20
-20.1647673573813
 30
0.0
 10
24.5113130819984
 20
-19.7357962517334
 30
0.0
  0
SPLINE
  5
B4A
330
A8B
100
AcDbEntity
  8
FRONT
  6
Continuous
 62
     4
100
AcDbSpline
210
0.0
220
0.0
230
1.0
 70
    24
 71
     1
 72
     4
 73
     2
 74
     0
 42
0.0000000001
 43
0.0000000001
 40
0.0
 40
0.0
 40
1.0
 40
1.0
 10
23.3822041293836
 20
-20.353747795571
 30
0.0
 10
24.5880247662668
 20
-20.2278994637786
 30
0.0
  0
SPLINE
  5
B4B
330
A8B
100
AcDbEntity
  8
FRONT
  6
Continuous
 62
     4
100
AcDbSpline
210
0.0
220
0.0
230
1.0
 70
    24
 71
     1
 72
     4
 73
     2
 74
     0
 42
0.0000000001
 43
0.0000000001
 40
0.0
 40
0.0
 40
1.0
 40
1.0
 10
23.324830318747
 20
-20.2866880937532
 30
0.0
 10
23.3689000481811
 20
-20.1767231459878
 30
0.0
  0
SPLINE
  5
B4C
330
A8B
100
AcDbEntity
  8
FRONT
  6
Continuous
 62
     4
100
AcDbSpline
210
0.0
220
0.0
230
1.0
 70
    24
 71
     1
 72
     4
 73
     2
 74
     0
 42
0.0000000001
 43
0.0000000001
 40
0.0
 40
0.0
 40
1.0
 40
1.0
 10
24.0190852474128
 20
-18.3288785037471
 30
0.0
 10
23.9446664457865
 20
-18.2249796847954
 30
0.0
  0
SPLINE
  5
B4D
330
A8B
100
AcDbEntity
  8
FRONT
  6
Continuous
 62
     4
100
AcDbSpline
210
0.0
220
0.0
230
1.0
 70
    24
 71
     1
 72
     4
 73
     2
 74
     0
 42
0.0000000001
 43
0.0000000001
 40
0.0
 40
0.0
 40
1.0
 40
1.0
 10
24.1819512227934
 20
-17.9432232839369
 30
0.0
 10
24.2271558627839
 20
-17.94124554632
 30
0.0
  0
SPLINE
  5
B4E
330
A8B
100
AcDbEntity
  8
FRONT
  6
Continuous
 62
     4
100
AcDbSpline
210
0.0
220
0.0
230
1.0
 70
     8
 71
     2
 72
     6
 73
     3
 74
     0
 42
0.0000000001
 43
0.0000000001
 40
0.0
 40
0.0
 40
0.0
 40
1.0
 40
1.0
 40
1.0
 10
24.3115298420196
 20
-18.7913832484674
 30
0.0
 10
24.4472550882571
 20
-18.5830967487556
 30
0.0
 10
24.6306853209493
 20
-18.3935547567352
 30
0.0
  0
SPLINE
  5
B4F
330
A8B
100
AcDbEntity
  8
FRONT
  6
Continuous
 62
     4
100
AcDbSpline
210
0.0
220
0.0
230
1.0
 70
    24
 71
     1
 72
     4
 73
     2
 74
     0
 42
0.0000000001
 43
0.0000000001
 40
0.0
 40
0.0
 40
1.0
 40
1.0
 10
24.3329933319949
 20
-18.0995599175188
 30
0.0
 10
24.6306853209476
 20
-18.3935547567372
 30
0.0
  0
SPLINE
  5
B50
330
A8B
100
AcDbEntity
  8
FRONT
  6
Continuous
 62
     4
100
AcDbSpline
210
0.0
220
0.0
230
1.0
 70
    24
 71
     1
 72
     4
 73
     2
 74
     0
 42
0.0000000001
 43
0.0000000001
 40
0.0
 40
0.0
 40
1.0
 40
1.0
 10
24.62641938695
 20
-18.7954330058887
 30
0.0
 10
24.6353964237705
 20
-18.9779764916123
 30
0.0
  0
SPLINE
  5
B51
330
A8B
100
AcDbEntity
  8
FRONT
  6
Continuous
 62
     4
100
AcDbSpline
210
0.0
220
0.0
230
1.0
 70
    24
 71
     1
 72
     4
 73
     2
 74
     0
 42
0.0000000001
 43
0.0000000001
 40
0.0
 40
0.0
 40
1.0
 40
1.0
 10
24.3187286661607
 20
-19.0504121848983
 30
0.0
 10
24.3115298420329
 20
-18.7913832484754
 30
0.0
  0
SPLINE
  5
B52
330
A8B
100
AcDbEntity
  8
FRONT
  6
Continuous
 62
     4
100
AcDbSpline
210
0.0
220
0.0
230
1.0
 70
    24
 71
     1
 72
     4
 73
     2
 74
     0
 42
0.0000000001
 43
0.0000000001
 40
0.0
 40
0.0
 40
1.0
 40
1.0
 10
23.9446664457865
 20
-18.2249796847954
 30
0.0
 10
23.9608442332563
 20
-18.1340377328571
 30
0.0
  0
SPLINE
  5
B53
330
A8B
100
AcDbEntity
  8
FRONT
  6
Continuous
 62
     4
100
AcDbSpline
210
0.0
220
0.0
230
1.0
 70
    24
 71
     1
 72
     4
 73
     2
 74
     0
 42
0.0000000001
 43
0.0000000001
 40
0.0
 40
0.0
 40
1.0
 40
1.0
 10
24.4580143212299
 20
-19.5804364553651
 30
0.0
 10
24.3187286661608
 20
-19.0504121848983
 30
0.0
  0
SPLINE
  5
B54
330
A8B
100
AcDbEntity
  8
FRONT
  6
Continuous
 62
     4
100
AcDbSpline
210
0.0
220
0.0
230
1.0
 70
    24
 71
     1
 72
     4
 73
     2
 74
     0
 42
0.0000000001
 43
0.0000000001
 40
0.0
 40
0.0
 40
1.0
 40
1.0
 10
24.5113130819984
 20
-19.7357962517334
 30
0.0
 10
24.4580199441759
 20
-19.5804356460229
 30
0.0
  0
SPLINE
  5
B55
330
A8B
100
AcDbEntity
  8
FRONT
  6
Continuous
 62
     4
100
AcDbSpline
210
0.0
220
0.0
230
1.0
 70
     8
 71
     3
 72
    12
 73
     8
 74
     0
 42
0.0000000001
 43
0.0000000001
 40
0.0
 40
0.0
 40
0.0
 40
0.0
 40
0.2440298709825523
 40
0.488120310074948
 40
0.7306421972591242
 40
0.9701993202335991
 40
1.0
 40
1.0
 40
1.0
 40
1.0
 10
24.1819512227935
 20
-17.9432232839369
 30
0.0
 10
24.1556212731477
 20
-17.9444719560953
 30
0.0
 10
24.1061452300959
 20
-17.9545861808379
 30
0.0
 10
24.0379825836857
 20
-17.9943836236059
 30
0.0
 10
23.9869470298638
 20
-18.0528599939101
 30
0.0
 10
23.966564210955
 20
-18.1035191421256
 30
0.0
 10
23.9613580492768
 20
-18.1309785477584
 30
0.0
 10
23.9608442332563
 20
-18.1340377328572
 30
0.0
  0
SPLINE
  5
B56
330
A8B
100
AcDbEntity
  8
FRONT
  6
Continuous
 62
     4
100
AcDbSpline
210
0.0
220
0.0
230
1.0
 70
    24
 71
     1
 72
     4
 73
     2
 74
     0
 42
0.0000000001
 43
0.0000000001
 40
0.0
 40
0.0
 40
1.0
 40
1.0
 10
23.2969935887284
 20
-20.3407750219069
 30
0.0
 10
23.324830318747
 20
-20.2866880937532
 30
0.0
  0
SPLINE
  5
B57
330
A8B
100
AcDbEntity
  8
FRONT
  6
Continuous
 62
     4
100
AcDbSpline
210
0.0
220
0.0
230
1.0
 70
     8
 71
     2
 72
     6
 73
     3
 74
     0
 42
0.0000000001
 43
0.0000000001
 40
0.0
 40
0.0
 40
0.0
 40
1.0
 40
1.0
 40
1.0
 10
24.2271558536723
 20
-17.9412463216819
 30
0.0
 10
24.2788303943156
 20
-18.0211869649047
 30
0.0
 10
24.3329933319949
 20
-18.0995599175188
 30
0.0
  0
SPLINE
  5
B58
330
A8B
100
AcDbEntity
  8
FRONT
  6
Continuous
 62
     4
100
AcDbSpline
210
0.0
220
0.0
230
1.0
 70
     8
 71
     2
 72
     6
 73
     3
 74
     0
 42
0.0000000001
 43
0.0000000001
 40
0.0
 40
0.0
 40
0.0
 40
1.0
 40
1.0
 40
1.0
 10
24.3115298420334
 20
-18.791383248462
 30
0.0
 10
24.1305231221126
 20
-18.5835148721544
 30
0.0
 10
24.0190852474128
 20
-18.3288785037471
 30
0.0
  0
LINE
  5
B59
330
A8B
100
AcDbEntity
  8
FRONT
  6
Continuous
 62
     4
100
AcDbLine
 10
30.0882745453883
 20
-19.4658900286207
 30
0.0
 11
29.7808591696361
 21
-20.83861067072
 31
0.0
  0
LINE
  5
B5A
330
A8B
100
AcDbEntity
  8
FRONT
  6
Continuous
 62
     4
100
AcDbLine
 10
29.6787989038588
 20
-20.8236058393827
 30
0.0
 11
29.7808591696361
 21
-20.83861067072
 31
0.0
  0
ELLIPSE
  5
B5B
330
A8B
100
AcDbEntity
  8
FRONT
  6
Continuous
 62
     4
100
AcDbEllipse
 10
30.1695126640133
 20
-21.3805267296906
 30
0.0
 11
-0.4845839648273406
 21
-2.565417655414864
 31
0.0
210
0.0
220
0.0
230
1.0
 40
0.1877462969075319
 41
4.535131145218768
 42
4.737407662240475
  0
ELLIPSE
  5
B5C
330
A8B
100
AcDbEntity
  8
FRONT
  6
Continuous
 62
     4
100
AcDbEllipse
 10
26.7056074156894
 20
-19.991981668245
 30
0.0
 11
-1.088811819638892
 21
-0.5813346379390692
 31
0.0
210
0.0
220
0.0
230
1.0
 40
0.9833059182791359
 41
3.141592653589792
 42
5.933643914404618
  0
ELLIPSE
  5
B5D
330
A8B
100
AcDbEntity
  8
FRONT
  6
Continuous
 62
     4
100
AcDbEllipse
 10
26.7858630516747
 20
-19.9063451713963
 30
0.0
 11
-1.19524239155921
 21
-0.6381596805011488
 31
0.0
210
0.0
220
0.0
230
0.9999999999999998
 40
0.9833059182791515
 41
2.398313761510258
 42
5.985009272386527
  0
ELLIPSE
  5
B5E
330
A8B
100
AcDbEntity
  8
FRONT
  6
Continuous
 62
     4
100
AcDbEllipse
 10
26.7725793739773
 20
-19.8814654818993
 30
0.0
 11
-1.274184406475827
 21
-0.6803081278529028
 31
0.0
210
0.0
220
0.0
230
1.0
 40
0.9833059182793167
 41
2.393939591548555
 42
4.152487722051174
  0
ELLIPSE
  5
B5F
330
A8B
100
AcDbEntity
  8
FRONT
  6
Continuous
 62
     4
100
AcDbEllipse
 10
26.8144373295824
 20
-19.9598634197391
 30
0.0
 11
-1.09830870118782
 21
-0.5864051800623212
 31
0.0
210
0.0
220
0.0
230
0.9999999999999998
 40
0.9833059182791778
 41
2.421430119237939
 42
4.646060335807838
  0
ELLIPSE
  5
B60
330
A8B
100
AcDbEntity
  8
FRONT
  6
Continuous
 62
     4
100
AcDbEllipse
 10
26.7858630516747
 20
-19.9063451713964
 30
0.0
 11
-1.151135430047241
 21
-0.6146102442832692
 31
0.0
210
0.0
220
0.0
230
1.0
 40
0.9833059182791597
 41
2.854453356631227
 42
5.726113818514622
  0
ELLIPSE
  5
B61
330
A8B
100
AcDbEntity
  8
FRONT
  6
Continuous
 62
     4
100
AcDbEllipse
 10
26.8040940919221
 20
-19.9404910330211
 30
0.0
 11
-1.141300807152083
 21
-0.6093593764552427
 31
0.0
210
0.0
220
0.0
230
1.0
 40
0.9833059182793387
 41
2.854453356640041
 42
4.211497995772412
  0
ELLIPSE
  5
B62
330
A8B
100
AcDbEntity
  8
FRONT
  6
Continuous
 62
     4
100
AcDbEllipse
 10
26.7717223625125
 20
-19.8798603406418
 30
0.0
 11
-1.289463506136375
 21
-0.6884658918589805
 31
0.0
210
0.0
220
0.0
230
0.9999999999999998
 40
0.9833059182791195
 41
2.395557650275635
 42
4.152487722049663
  0
SPLINE
  5
B63
330
A8B
100
AcDbEntity
  8
FRONT
  6
Continuous
 62
     4
100
AcDbSpline
210
0.0
220
0.0
230
1.0
 70
    24
 71
     1
 72
     4
 73
     2
 74
     0
 42
0.0000000001
 43
0.0000000001
 40
0.0
 40
0.0
 40
1.0
 40
1.0
 10
29.4874517764985
 20
-20.2620598777619
 30
0.0
 10
25.9383851897384
 20
-20.178533570248
 30
0.0
  0
SPLINE
  5
B64
330
A8B
100
AcDbEntity
  8
FRONT
  6
Continuous
 62
     4
100
AcDbSpline
210
0.0
220
0.0
230
1.0
 70
    24
 71
     1
 72
     4
 73
     2
 74
     0
 42
0.0000000001
 43
0.0000000001
 40
0.0
 40
0.0
 40
1.0
 40
1.0
 10
28.3089350860402
 20
-18.7762884360884
 30
0.0
 10
27.3149882125781
 20
-18.5216670337892
 30
0.0
  0
SPLINE
  5
B65
330
A8B
100
AcDbEntity
  8
FRONT
  6
Continuous
 62
     4
100
AcDbSpline
210
0.0
220
0.0
230
1.0
 70
    24
 71
     1
 72
     4
 73
     2
 74
     0
 42
0.0000000001
 43
0.0000000001
 40
0.0
 40
0.0
 40
1.0
 40
1.0
 10
29.7848982285983
 20
-17.7964750813675
 30
0.0
 10
26.7961366307572
 20
-17.841137277205
 30
0.0
  0
SPLINE
  5
B66
330
A8B
100
AcDbEntity
  8
FRONT
  6
Continuous
 62
     4
100
AcDbSpline
210
0.0
220
0.0
230
1.0
 70
    24
 71
     1
 72
     4
 73
     2
 74
     0
 42
0.0000000001
 43
0.0000000001
 40
0.0
 40
0.0
 40
1.0
 40
1.0
 10
27.1135026886381
 20
-18.1352224463775
 30
0.0
 10
28.3866892466503
 20
-18.4364048148385
 30
0.0
  0
LINE
  5
B67
330
A8B
100
AcDbEntity
  8
FRONT
  6
Continuous
 62
     4
100
AcDbLine
 10
27.2923062163642
 20
-19.5884259214888
 30
0.0
 11
27.2344873831592
 21
-19.4801340274869
 31
0.0
  0
LINE
  5
B68
330
A8B
100
AcDbEntity
  8
FRONT
  6
Continuous
 62
     4
100
AcDbLine
 10
27.3876491449969
 20
-20.1598797099723
 30
0.0
 11
27.4161780729003
 21
-20.213313019938
 31
0.0
  0
LINE
  5
B69
330
A8B
100
AcDbEntity
  8
FRONT
  6
Continuous
 62
     4
100
AcDbLine
 10
25.9944635609217
 20
-20.1798533593142
 30
0.0
 11
25.9937929946553
 21
-20.1785974209456
 31
0.0
  0
LINE
  5
B6A
330
A8B
100
AcDbEntity
  8
FRONT
  6
Continuous
 62
     4
100
AcDbLine
 10
27.0275662557218
 20
-18.4403763668753
 30
0.0
 11
26.8829557125773
 21
-18.4398816753629
 31
0.0
  0
LINE
  5
B6B
330
A8B
100
AcDbEntity
  8
FRONT
  6
Continuous
 62
     4
100
AcDbLine
 10
26.2437094158358
 20
-19.5848388252377
 30
0.0
 11
26.1858905826308
 21
-19.4765469312358
 31
0.0
  0
LINE
  5
B6C
330
A8B
100
AcDbEntity
  8
FRONT
  6
Continuous
 62
     4
100
AcDbLine
 10
26.6322766869761
 20
-19.310125281612
 30
0.0
 11
26.5917505716752
 21
-19.38890499252
 31
0.0
  0
LINE
  5
B6D
330
A8B
100
AcDbEntity
  8
FRONT
  6
Continuous
 62
     4
100
AcDbLine
 10
26.5565818354605
 20
-19.2217506729009
 30
0.0
 11
26.5705718632554
 21
-19.194555114257
 31
0.0
  0
LINE
  5
B6E
330
A8B
100
AcDbEntity
  8
FRONT
  6
Continuous
 62
     4
100
AcDbLine
 10
26.5917505716752
 20
-19.38890499252
 30
0.0
 11
26.5339317384702
 21
-19.2806130985181
 31
0.0
  0
LINE
  5
B6F
330
A8B
100
AcDbEntity
  8
FRONT
  6
Continuous
 62
     4
100
AcDbLine
 10
26.1240955332894
 20
-19.4652238868025
 30
0.0
 11
26.0935654356494
 21
-19.4630914526288
 31
0.0
  0
LINE
  5
B70
330
A8B
100
AcDbEntity
  8
FRONT
  6
Continuous
 62
     4
100
AcDbLine
 10
25.9653388272458
 20
-19.7291579865868
 30
0.0
 11
25.9487273570988
 21
-19.7038857398714
 31
0.0
  0
LINE
  5
B71
330
A8B
100
AcDbEntity
  8
FRONT
  6
Continuous
 62
     4
100
AcDbLine
 10
26.1552702593702
 20
-19.5786616199838
 30
0.0
 11
26.2437094158358
 21
-19.5848388252377
 31
0.0
  0
LINE
  5
B72
330
A8B
100
AcDbEntity
  8
FRONT
  6
Continuous
 62
     4
100
AcDbLine
 10
26.1552702593702
 20
-19.5786616199838
 30
0.0
 11
26.0935654356494
 21
-19.4630914526288
 31
0.0
  0
LINE
  5
B73
330
A8B
100
AcDbEntity
  8
FRONT
  6
Continuous
 62
     4
100
AcDbLine
 10
27.4380910522814
 20
-19.7341960564938
 30
0.0
 11
27.4555902901685
 21
-19.7090404975204
 31
0.0
  0
LINE
  5
B74
330
A8B
100
AcDbEntity
  8
FRONT
  6
Continuous
 62
     4
100
AcDbLine
 10
27.3809522042178
 20
-19.5828544986071
 30
0.0
 11
27.2923062163642
 21
-19.5884259214888
 31
0.0
  0
LINE
  5
B75
330
A8B
100
AcDbEntity
  8
FRONT
  6
Continuous
 62
     4
100
AcDbLine
 10
26.9012805606893
 20
-19.2973702047707
 30
0.0
 11
26.9582291194434
 21
-19.4040321165788
 31
0.0
  0
LINE
  5
B76
330
A8B
100
AcDbEntity
  8
FRONT
  6
Continuous
 62
     4
100
AcDbLine
 10
27.2886458825551
 20
-19.4692076431806
 30
0.0
 11
27.3192473804971
 21
-19.4672843312522
 31
0.0
  0
LINE
  5
B77
330
A8B
100
AcDbEntity
  8
FRONT
  6
Continuous
 62
     4
100
AcDbLine
 10
27.3809522042178
 20
-19.5828544986071
 30
0.0
 11
27.3192473804971
 21
-19.4672843312522
 31
0.0
  0
LINE
  5
B78
330
A8B
100
AcDbEntity
  8
FRONT
  6
Continuous
 62
     4
100
AcDbLine
 10
26.07467969299
 20
-19.9198177027484
 30
0.0
 11
26.0187931348546
 21
-19.815144867026
 31
0.0
  0
LINE
  5
B79
330
A8B
100
AcDbEntity
  8
FRONT
  6
Continuous
 62
     4
100
AcDbLine
 10
26.6322766869761
 20
-19.310125281612
 30
0.0
 11
26.5705718632554
 21
-19.194555114257
 31
0.0
  0
LINE
  5
B7A
330
A8B
100
AcDbEntity
  8
FRONT
  6
Continuous
 62
     4
100
AcDbLine
 10
26.8647837112305
 20
-19.2228049864298
 30
0.0
 11
26.8517528514775
 21
-19.1955169932826
 31
0.0
  0
LINE
  5
B7B
330
A8B
100
AcDbEntity
  8
FRONT
  6
Continuous
 62
     4
100
AcDbLine
 10
27.4178287474668
 20
-20.2133518681107
 30
0.0
 11
27.4018445095452
 21
-20.1834141591885
 31
0.0
  0
ELLIPSE
  5
B7C
330
A8B
100
AcDbEntity
  8
FRONT
  6
Continuous
 62
     4
100
AcDbEllipse
 10
26.7642497685633
 20
-20.1018159749755
 30
0.0
 11
-0.5697208004759025
 21
-0.3041833576987884
 31
0.0
210
0.0
220
0.0
230
1.0
 40
0.9833059182803454
 41
3.141592653589792
 42
4.211497995854738
  0
ELLIPSE
  5
B7D
330
A8B
100
AcDbEntity
  8
FRONT
  6
Continuous
 62
     4
100
AcDbEllipse
 10
26.8846697355084
 20
-18.44309195787
 30
0.0
 11
-0.0012380506136597
 21
-0.0199616439988246
 31
0.0
210
0.0
220
0.0
230
1.0
 40
0.0966394604989199
 41
4.556861561911704
 42
5.60405911256103
  0
ELLIPSE
  5
B7E
330
A8B
100
AcDbEntity
  8
FRONT
  6
Continuous
 62
     4
100
AcDbEllipse
 10
27.3269865859046
 20
-19.6221834548625
 30
0.0
 11
-0.1387163939545198
 21
-0.0740629769062388
 31
0.0
210
0.0
220
0.0
230
1.0
 40
0.983305918279537
 41
3.141592653589792
 42
4.278357181632673
  0
ELLIPSE
  5
B7F
330
A8B
100
AcDbEntity
  8
FRONT
  6
Continuous
 62
     4
100
AcDbEllipse
 10
26.7591073762129
 20
-20.0921850738689
 30
0.0
 11
-0.5697232499858903
 21
-0.3041793370702448
 31
0.0
210
0.0
220
0.0
230
1.0
 40
0.9833058533003276
 41
2.4521226627569
 42
2.51349782037308
  0
ELLIPSE
  5
B80
330
A8B
100
AcDbEntity
  8
FRONT
  6
Continuous
 62
     4
100
AcDbEllipse
 10
27.3269865859059
 20
-19.6221834548625
 30
0.0
 11
-0.1387163939436924
 21
-0.0740629769240791
 31
0.0
210
0.0
220
0.0
230
1.0
 40
0.9833059182820004
 41
2.05024370739385
 42
3.141592653473066
  0
ELLIPSE
  5
B81
330
A8B
100
AcDbEntity
  8
FRONT
  6
Continuous
 62
     4
100
AcDbEllipse
 10
26.1420784010071
 20
-19.7334891414872
 30
0.0
 11
-0.138716393954182
 21
-0.0740629769072034
 31
0.0
210
0.0
220
0.0
230
1.0
 40
0.9833059182793643
 41
4.144638809916375
 42
6.033222504441043
  0
ELLIPSE
  5
B82
330
A8B
100
AcDbEntity
  8
FRONT
  6
Continuous
 62
     4
100
AcDbEllipse
 10
26.6974028743467
 20
-19.9766149568551
 30
0.0
 11
-0.6878480648487471
 21
-0.3672534576645039
 31
0.0
210
0.0
220
0.0
230
1.0
 40
0.9833059182825293
 41
3.364014017275521
 42
4.011784423528292
  0
ELLIPSE
  5
B83
330
A8B
100
AcDbEntity
  8
FRONT
  6
Continuous
 62
     4
100
AcDbEllipse
 10
27.3886914096242
 20
-19.7377536222209
 30
0.0
 11
-0.1387163939305158
 21
-0.0740629769569428
 31
0.0
210
0.0
220
0.0
230
0.9999999999999998
 40
0.9833059182794855
 41
3.579055150075236
 42
4.278357181272085
  0
ELLIPSE
  5
B84
330
A8B
100
AcDbEntity
  8
FRONT
  6
Continuous
 62
     4
100
AcDbEllipse
 10
26.7642497685618
 20
-20.1018159749793
 30
0.0
 11
-0.5697208004536415
 21
-0.3041833577478669
 31
0.0
210
0.0
220
0.0
230
0.9999999999999998
 40
0.9833059182795919
 41
4.211497995770305
 42
5.916687780929657
  0
ELLIPSE
  5
B85
330
A8B
100
AcDbEntity
  8
FRONT
  6
Continuous
 62
     4
100
AcDbEllipse
 10
26.7099552891033
 20
-19.2634884835528
 30
0.0
 11
-0.1387190760836097
 21
-0.074062710247625
 31
0.0
210
0.0
220
0.0
230
0.9999999999999998
 40
0.9832989179835243
 41
3.097450943316431
 42
3.141602023580455
  0
ELLIPSE
  5
B86
330
A8B
100
AcDbEntity
  8
FRONT
  6
Continuous
 62
     4
100
AcDbEllipse
 10
26.7099572888503
 20
-19.2634874721282
 30
0.0
 11
-0.1387163939537963
 21
-0.0740629769078515
 31
0.0
210
0.0
220
0.0
230
1.0
 40
0.9833059182791126
 41
3.141592653589792
 42
5.325554732817813
  0
ELLIPSE
  5
B87
330
A8B
100
AcDbEntity
  8
FRONT
  6
Continuous
 62
     4
100
AcDbEllipse
 10
26.7942965905016
 20
-20.1580922274807
 30
0.0
 11
-0.3532268962687824
 21
-0.1885936818296914
 31
0.0
210
0.0
220
0.0
230
1.0
 40
0.9833059182785307
 41
3.188548543609073
 42
4.2114979956971
  0
ELLIPSE
  5
B88
330
A8B
100
AcDbEntity
  8
FRONT
  6
Continuous
 62
     4
100
AcDbEllipse
 10
26.2738011143729
 20
-19.2316646951068
 30
0.0
 11
-0.3164233418824987
 21
-0.1689436554341971
 31
0.0
210
0.0
220
0.0
230
1.0
 40
0.9833059182770933
 41
1.003046156315968
 42
2.183962079224544
  0
ELLIPSE
  5
B89
330
A8B
100
AcDbEntity
  8
FRONT
  6
Continuous
 62
     4
100
AcDbEllipse
 10
26.6974028743308
 20
-19.9766149568479
 30
0.0
 11
-0.6878480647677431
 21
-0.3672534578178684
 31
0.0
210
0.0
220
0.0
230
1.0
 40
0.9833059182652659
 41
4.411211568248791
 42
5.058981974505009
  0
ELLIPSE
  5
B8A
330
A8B
100
AcDbEntity
  8
FRONT
  6
Continuous
 62
     4
100
AcDbEllipse
 10
26.7717223624262
 20
-19.8798603406333
 30
0.0
 11
-1.289463505490719
 21
-0.6884658929129687
 31
0.0
210
0.0
220
0.0
230
1.0
 40
0.9833059182902299
 41
5.42507150311212
 42
5.993725673721996
  0
ELLIPSE
  5
B8B
330
A8B
100
AcDbEntity
  8
FRONT
  6
Continuous
 62
     4
100
AcDbEllipse
 10
26.1604483659914
 20
-18.155733661216
 30
0.0
 11
-0.0211384512596285
 21
-0.8497371156793303
 31
0.0
210
0.0
220
0.0
230
0.9999999999999998
 40
0.1896634436923256
 41
1.168100390367426
 42
1.749625419812159
  0
ELLIPSE
  5
B8C
330
A8B
100
AcDbEntity
  8
FRONT
  6
Continuous
 62
     4
100
AcDbEllipse
 10
26.7716621125711
 20
-19.3790576394832
 30
0.0
 11
-0.138716393954067
 21
-0.0740629769073293
 31
0.0
210
0.0
220
0.0
230
1.0
 40
0.9833059182794162
 41
3.353232323526823
 42
5.325554732821572
  0
ELLIPSE
  5
B8D
330
A8B
100
AcDbEntity
  8
FRONT
  6
Continuous
 62
     4
100
AcDbEllipse
 10
26.0803736827829
 20
-19.6179189118756
 30
0.0
 11
-0.1387164275215775
 21
-0.0740631738835355
 31
0.0
210
0.0
220
0.0
230
1.0
 40
0.9833055364643515
 41
6.283184319510271
 42
6.372751261455347
  0
ELLIPSE
  5
B8E
330
A8B
100
AcDbEntity
  8
FRONT
  6
Continuous
 62
     4
100
AcDbEllipse
 10
26.6974028743185
 20
-19.9766149568637
 30
0.0
 11
-0.6878480646011706
 21
-0.3672534581129616
 31
0.0
210
0.0
220
0.0
230
1.0
 40
0.9833059182837756
 41
5.458409119012037
 42
6.053253327806824
  0
ELLIPSE
  5
B8F
330
A8B
100
AcDbEntity
  8
FRONT
  6
Continuous
 62
     4
100
AcDbEllipse
 10
26.7720727859938
 20
-19.8805166669759
 30
0.0
 11
-1.314616796581824
 21
-0.7018956497286183
 31
0.0
210
0.0
220
0.0
230
0.9999999999999998
 40
0.9833059182747907
 41
4.552187304562112
 42
5.292715336509727
  0
ELLIPSE
  5
B90
330
A8B
100
AcDbEntity
  8
FRONT
  6
Continuous
 62
     4
100
AcDbEllipse
 10
26.7768874937887
 20
-20.1254858265591
 30
0.0
 11
-0.3532268962957501
 21
-0.1885936817720534
 31
0.0
210
0.0
220
0.0
230
1.0
 40
0.9833059182800568
 41
3.141592653589792
 42
4.211497995858031
  0
ELLIPSE
  5
B91
330
A8B
100
AcDbEntity
  8
FRONT
  6
Continuous
 62
     4
100
AcDbEllipse
 10
17.3655207703142
 20
-23.2494044436593
 30
0.0
 11
-7.504621568768301
 21
-3.321134731786813
 31
0.0
210
0.0
220
0.0
230
1.0
 40
0.3415132900699109
 41
3.041715105904696
 42
3.07577658346799
  0
ELLIPSE
  5
B92
330
A8B
100
AcDbEntity
  8
FRONT
  6
Continuous
 62
     4
100
AcDbEllipse
 10
26.7768874938132
 20
-20.1254858265579
 30
0.0
 11
-0.3532268961353468
 21
-0.1885936820254782
 31
0.0
210
0.0
220
0.0
230
1.0
 40
0.9833059183033368
 41
2.433542523355816
 42
3.141592652947553
  0
ELLIPSE
  5
B93
330
A8B
100
AcDbEntity
  8
FRONT
  6
Continuous
 62
     4
100
AcDbEllipse
 10
26.7942965905023
 20
-20.1580922274791
 30
0.0
 11
-0.3532268962799985
 21
-0.1885936818057033
 31
0.0
210
0.0
220
0.0
230
0.9999999999999998
 40
0.9833059182790311
 41
4.211497995764053
 42
5.866656694161925
  0
ELLIPSE
  5
B94
330
A8B
100
AcDbEntity
  8
FRONT
  6
Continuous
 62
     4
100
AcDbEllipse
 10
26.80409409192
 20
-19.940491033019
 30
0.0
 11
-1.141300807144346
 21
-0.6093593764680998
 31
0.0
210
0.0
220
0.0
230
1.0
 40
0.9833059182778084
 41
4.211497995759971
 42
5.305260955205678
  0
ELLIPSE
  5
B95
330
A8B
100
AcDbEntity
  8
FRONT
  6
Continuous
 62
     4
100
AcDbEllipse
 10
26.7717256437522
 20
-19.8798664862457
 30
0.0
 11
-1.2898928947353
 21
-0.6886951495342341
 31
0.0
210
0.0
220
0.0
230
1.0
 40
0.9833059182785364
 41
4.211497995763918
 42
5.292715336570157
  0
ELLIPSE
  5
B96
330
A8B
100
AcDbEntity
  8
FRONT
  6
Continuous
 62
     4
100
AcDbEllipse
 10
26.7591076980611
 20
-20.0921851242214
 30
0.0
 11
-0.5697208004516448
 21
-0.3041833577510329
 31
0.0
210
0.0
220
0.0
230
1.0
 40
0.9833059182790732
 41
4.211497995764176
 42
5.932188545061793
  0
ELLIPSE
  5
B97
330
A8B
100
AcDbEntity
  8
FRONT
  6
Continuous
 62
     4
100
AcDbEllipse
 10
24.7601532395082
 20
-18.3710627916263
 30
0.0
 11
-0.2869743301033756
 21
0.8000910781621206
 31
0.0
210
0.0
220
0.0
230
1.0
 40
0.1844576932552187
 41
4.318012958595913
 42
4.737148911237754
  0
ELLIPSE
  5
B98
330
A8B
100
AcDbEntity
  8
FRONT
  6
Continuous
 62
     4
100
AcDbEllipse
 10
26.6974028743404
 20
-19.9766149568665
 30
0.0
 11
-0.8808790105358404
 21
-0.4703158722400647
 31
0.0
210
0.0
220
0.0
230
1.0
 40
0.9833059182791467
 41
2.390668816843747
 42
5.988551940869403
  0
ELLIPSE
  5
B99
330
A8B
100
AcDbEntity
  8
FRONT
  6
Continuous
 62
     4
100
AcDbEllipse
 10
26.9547202814034
 20
-18.3039393599337
 30
0.0
 11
-0.2364016993902184
 21
-0.8164644729534451
 31
0.0
210
0.0
220
0.0
230
0.9999999999999998
 40
0.1280545533618557
 41
1.440078277354396
 42
1.815854610802254
  0
ELLIPSE
  5
B9A
330
A8B
100
AcDbEntity
  8
FRONT
  6
Continuous
 62
     4
100
AcDbEllipse
 10
26.772579373982
 20
-19.8814654819001
 30
0.0
 11
-1.274184406513254
 21
-0.6803081277927215
 31
0.0
210
0.0
220
0.0
230
0.9999999999999998
 40
0.9833059182784806
 41
5.425071504014952
 42
5.994214383758207
  0
ELLIPSE
  5
B9B
330
A8B
100
AcDbEntity
  8
FRONT
  6
Continuous
 62
     4
100
AcDbEllipse
 10
25.9729246250655
 20
-18.1552392278092
 30
0.0
 11
-0.0163260565688646
 21
0.8498431972198538
 31
0.0
210
0.0
220
0.0
230
1.0
 40
0.1967958030989425
 41
4.311714536223275
 42
4.876679898782334
  0
ELLIPSE
  5
B9C
330
A8B
100
AcDbEntity
  8
FRONT
  6
Continuous
 62
     4
100
AcDbEllipse
 10
26.6974028743288
 20
-19.9766149568677
 30
0.0
 11
-0.6878480648432717
 21
-0.3672534577212541
 31
0.0
210
0.0
220
0.0
230
1.0
 40
0.9833059182736951
 41
2.316816466017689
 42
2.964586872260165
  0
ELLIPSE
  5
B9D
330
A8B
100
AcDbEntity
  8
FRONT
  6
Continuous
 62
     4
100
AcDbEllipse
 10
26.7591076980601
 20
-20.0921851242233
 30
0.0
 11
-0.5697208004383743
 21
-0.3041833577798674
 31
0.0
210
0.0
220
0.0
230
0.9999999999999998
 40
0.9833059182783683
 41
3.141592653589792
 42
4.211497995714275
  0
ELLIPSE
  5
B9E
330
A8B
100
AcDbEntity
  8
FRONT
  6
Continuous
 62
     4
100
AcDbEllipse
 10
26.8073595580089
 20
-18.4588434444446
 30
0.0
 11
-0.0004109759370388
 21
-0.119983668084697
 31
0.0
210
0.0
220
0.0
230
0.9999999999999998
 40
0.0873685432136738
 41
4.487162694202337
 42
4.526241732837313
  0
ELLIPSE
  5
B9F
330
A8B
100
AcDbEntity
  8
FRONT
  6
Continuous
 62
     4
100
AcDbEllipse
 10
26.7591076997319
 20
-20.0921851235597
 30
0.0
 11
-0.5697207959968914
 21
-0.3041833623035364
 31
0.0
210
0.0
220
0.0
230
1.0
 40
0.9833059196149559
 41
2.938742608956589
 42
3.141592644282478
  0
ELLIPSE
  5
BA0
330
A8B
100
AcDbEntity
  8
FRONT
  6
Continuous
 62
     4
100
AcDbEllipse
 10
27.2746524613273
 20
-19.2350884611443
 30
0.0
 11
-0.3164233418788596
 21
-0.1689436554438716
 31
0.0
210
0.0
220
0.0
230
0.9999999999999998
 40
0.9833059182783118
 41
0.0
 42
1.136764527997376
  0
ELLIPSE
  5
BA1
330
A8B
100
AcDbEntity
  8
FRONT
  6
Continuous
 62
     4
100
AcDbEllipse
 10
26.7725821083418
 20
-19.881470603234
 30
0.0
 11
-1.274168156721289
 21
-0.6802994518514309
 31
0.0
210
0.0
220
0.0
230
1.0
 40
0.9833059182777518
 41
4.211497995758451
 42
5.292715337516466
  0
ELLIPSE
  5
BA2
330
A8B
100
AcDbEntity
  8
FRONT
  6
Continuous
 62
     4
100
AcDbEllipse
 10
26.0803735772864
 20
-19.6179189741323
 30
0.0
 11
-0.1387163939551331
 21
-0.0740629769055295
 31
0.0
210
0.0
220
0.0
230
0.9999999999999998
 40
0.9833059182795551
 41
4.144638809929066
 42
6.283185307179584
  0
ELLIPSE
  5
BA3
330
A8B
100
AcDbEntity
  8
FRONT
  6
Continuous
 62
     4
100
AcDbEllipse
 10
25.7582563510835
 20
-20.0887613581841
 30
0.0
 11
-0.3164233420262994
 21
-0.1689436552114316
 31
0.0
210
0.0
220
0.0
230
0.9999999999999998
 40
0.983305918256555
 41
2.372365793430126
 42
3.141592654310951
  0
ELLIPSE
  5
BA4
330
A8B
100
AcDbEntity
  8
FRONT
  6
Continuous
 62
     4
100
AcDbEllipse
 10
26.7768874937876
 20
-20.1254858265611
 30
0.0
 11
-0.3532268962794111
 21
-0.1885936818066905
 31
0.0
210
0.0
220
0.0
230
1.0
 40
0.9833059182788758
 41
4.211497995761056
 42
5.951301366806
  0
SPLINE
  5
BA5
330
A8B
100
AcDbEntity
  8
FRONT
  6
Continuous
 62
     4
100
AcDbSpline
210
0.0
220
0.0
230
1.0
 70
    24
 71
     1
 72
     4
 73
     2
 74
     0
 42
0.0000000001
 43
0.0000000001
 40
0.0
 40
0.0
 40
1.0
 40
1.0
 10
26.8824946988061
 20
-18.4585493991847
 30
0.0
 10
26.7976806347153
 20
-18.455800854328
 30
0.0
  0
SPLINE
  5
BA6
330
A8B
100
AcDbEntity
  8
FRONT
  6
Continuous
 62
     4
100
AcDbSpline
210
0.0
220
0.0
230
1.0
 70
    24
 71
     1
 72
     4
 73
     2
 74
     0
 42
0.0000000001
 43
0.0000000001
 40
0.0
 40
0.0
 40
1.0
 40
1.0
 10
27.0275662557218
 20
-18.4403763668753
 30
0.0
 10
26.8799239105367
 20
-18.4349013727447
 30
0.0
  0
SPLINE
  5
BA7
330
A8B
100
AcDbEntity
  8
FRONT
  6
Continuous
 62
     4
100
AcDbSpline
210
0.0
220
0.0
230
1.0
 70
    24
 71
     1
 72
     4
 73
     2
 74
     0
 42
0.0000000001
 43
0.0000000001
 40
0.0
 40
0.0
 40
1.0
 40
1.0
 10
25.0066719831972
 20
-18.6296123582934
 30
0.0
 10
24.6922603184004
 20
-18.7327850007176
 30
0.0
  0
SPLINE
  5
BA8
330
A8B
100
AcDbEntity
  8
FRONT
  6
Continuous
 62
     4
100
AcDbSpline
210
0.0
220
0.0
230
1.0
 70
     8
 71
     2
 72
     6
 73
     3
 74
     0
 42
0.0000000001
 43
0.0000000001
 40
0.0
 40
0.0
 40
0.0
 40
1.0
 40
1.0
 40
1.0
 10
26.1332918459667
 20
-18.4837531749801
 30
0.0
 10
25.5590475147851
 20
-18.4635612744705
 30
0.0
 10
25.0066719831972
 20
-18.6296123582933
 30
0.0
  0
SPLINE
  5
BA9
330
A8B
100
AcDbEntity
  8
FRONT
  6
Continuous
 62
     4
100
AcDbSpline
210
0.0
220
0.0
230
1.0
 70
     8
 71
     3
 72
    11
 73
     7
 74
     0
 42
0.0000000001
 43
0.0000000001
 40
0.0
 40
0.0
 40
0.0
 40
0.0
 40
0.2500000000004002
 40
0.5000000000000384
 40
0.7500000000002445
 40
1.0
 40
1.0
 40
1.0
 40
1.0
 10
25.4332984181498
 20
-19.3783283684739
 30
0.0
 10
25.432332922192
 20
-19.3777678719922
 30
0.0
 10
25.4301442944458
 20
-19.376592821772
 30
0.0
 10
25.4259741317332
 20
-19.3746115591614
 30
0.0
 10
25.4212596887315
 20
-19.3725811558015
 30
0.0
 10
25.4180367516846
 20
-19.3713127221996
 30
0.0
 10
25.416381716193
 20
-19.3706899701301
 30
0.0
  0
SPLINE
  5
BAA
330
A8B
100
AcDbEntity
  8
FRONT
  6
Continuous
 62
     4
100
AcDbSpline
210
0.0
220
0.0
230
1.0
 70
    24
 71
     1
 72
     4
 73
     2
 74
     0
 42
0.0000000001
 43
0.0000000001
 40
0.0
 40
0.0
 40
1.0
 40
1.0
 10
26.3228023470809
 20
-18.008529835588
 30
0.0
 10
26.7990929130589
 20
-18.0606250957013
 30
0.0
  0
SPLINE
  5
BAB
330
A8B
100
AcDbEntity
  8
FRONT
  6
Continuous
 62
     4
100
AcDbSpline
210
0.0
220
0.0
230
1.0
 70
    24
 71
     1
 72
     4
 73
     2
 74
     0
 42
0.0000000001
 43
0.0000000001
 40
0.0
 40
0.0
 40
1.0
 40
1.0
 10
26.7990860135658
 20
-18.0601137247336
 30
0.0
 10
27.1135026886381
 20
-18.1352224463775
 30
0.0
  0
SPLINE
  5
BAC
330
A8B
100
AcDbEntity
  8
FRONT
  6
Continuous
 62
     4
100
AcDbSpline
210
0.0
220
0.0
230
1.0
 70
    24
 71
     1
 72
     4
 73
     2
 74
     0
 42
0.0000000001
 43
0.0000000001
 40
0.0
 40
0.0
 40
1.0
 40
1.0
 10
26.8933864528317
 20
-19.2818427405099
 30
0.0
 10
26.9009773660742
 20
-19.296800246432
 30
0.0
  0
SPLINE
  5
BAD
330
A8B
100
AcDbEntity
  8
FRONT
  6
Continuous
 62
     4
100
AcDbSpline
210
0.0
220
0.0
230
1.0
 70
    24
 71
     1
 72
     4
 73
     2
 74
     0
 42
0.0000000001
 43
0.0000000001
 40
0.0
 40
0.0
 40
1.0
 40
1.0
 10
26.1352482178371
 20
-18.0130753197446
 30
0.0
 10
26.1384954253012
 20
-17.8613649848995
 30
0.0
  0
SPLINE
  5
BAE
330
A8B
100
AcDbEntity
  8
FRONT
  6
Continuous
 62
     4
100
AcDbSpline
210
0.0
220
0.0
230
1.0
 70
     8
 71
     3
 72
    27
 73
    23
 74
     0
 42
0.0000000001
 43
0.0000000001
 40
0.0
 40
0.0
 40
0.0
 40
0.0
 40
0.2366252197469015
 40
0.5011857703755036
 40
0.6170954909511118
 40
0.6813809129738626
 40
0.7150700700809978
 40
0.7322963567034382
 40
0.7410042896839962
 40
0.7453818723743754
 40
0.7475765575058172
 40
0.7486753722519263
 40
0.7492251475017373
 40
0.7495001270756441
 40
0.7496376398473227
 40
0.7497064019790262
 40
0.7497407844813076
 40
0.7497751679411861
 40
0.7516543580812576
 40
0.7684406215659994
 40
0.8166950275236356
 40
1.0
 40
1.0
 40
1.0
 40
1.0
 10
26.7990928994729
 20
-18.0606250990068
 30
0.0
 10
26.7994873254388
 20
-18.0897074597611
 30
0.0
 10
26.8000503376336
 20
-18.1515183075938
 30
0.0
 10
26.8000126250845
 20
-18.2286431678957
 30
0.0
 10
26.7996180380915
 20
-18.2840513954359
 30
0.0
 10
26.799338946992
 20
-18.3106349083632
 30
0.0
 10
26.7991633194319
 20
-18.3249248728033
 30
0.0
 10
26.7990657322597
 20
-18.3323123788772
 30
0.0
 10
26.7990144115628
 20
-18.336065760537
 30
0.0
 10
26.7989881089323
 20
-18.3379572327276
 30
0.0
 10
26.7989699674514
 20
-18.3392458038605
 30
0.0
 10
26.7989685653456
 20
-18.3393457940305
 30
0.0
 10
26.7989671632397
 20
-18.3394457842005
 30
0.0
 10
26.7989657611339
 20
-18.3395457743705
 30
0.0
 10
26.798964359028
 20
-18.3396457645405
 30
0.0
 10
26.7989629569222
 20
-18.3397457547106
 30
0.0
 10
26.7989615548163
 20
-18.3398457448806
 30
0.0
 10
26.7989581459537
 20
-18.3400867945915
 30
0.0
 10
26.7989263286234
 20
-18.3424006939218
 30
0.0
 10
26.7988097132713
 20
-18.3506772301093
 30
0.0
 10
26.798333489852
 20
-18.3813420893588
 30
0.0
 10
26.7977643294725
 20
-18.409701676343
 30
0.0
 10
26.7972332995031
 20
-18.4320128596346
 30
0.0
  0
SPLINE
  5
BAF
330
A8B
100
AcDbEntity
  8
FRONT
  6
Continuous
 62
     4
100
AcDbSpline
210
0.0
220
0.0
230
1.0
 70
    24
 71
     1
 72
     4
 73
     2
 74
     0
 42
0.0000000001
 43
0.0000000001
 40
0.0
 40
0.0
 40
1.0
 40
1.0
 10
25.9653388272458
 20
-19.7291579865868
 30
0.0
 10
26.0007332201672
 20
-19.7843723012508
 30
0.0
  0
SPLINE
  5
BB0
330
A8B
100
AcDbEntity
  8
FRONT
  6
Continuous
 62
     4
100
AcDbSpline
210
0.0
220
0.0
230
1.0
 70
    24
 71
     1
 72
     4
 73
     2
 74
     0
 42
0.0000000001
 43
0.0000000001
 40
0.0
 40
0.0
 40
1.0
 40
1.0
 10
27.4380910522814
 20
-19.7341960564938
 30
0.0
 10
27.4087847350571
 20
-19.7891890394937
 30
0.0
  0
SPLINE
  5
BB1
330
A8B
100
AcDbEntity
  8
FRONT
  6
Continuous
 62
     4
100
AcDbSpline
210
0.0
220
0.0
230
1.0
 70
     8
 71
     3
 72
    13
 73
     9
 74
     0
 42
0.0000000001
 43
0.0000000001
 40
0.0
 40
0.0
 40
0.0
 40
0.0
 40
0.2195179240467221
 40
0.3900257003637577
 40
0.5330606690638802
 40
0.6760211201067881
 40
0.8783846008238288
 40
1.0
 40
1.0
 40
1.0
 40
1.0
 10
26.1858905826308
 20
-19.4765469312358
 30
0.0
 10
26.2150394149644
 20
-19.4827207091995
 30
0.0
 10
26.2681349588621
 20
-19.4851161637988
 30
0.0
 10
26.3467186224983
 20
-19.4702609796326
 30
0.0
 10
26.4117179565151
 20
-19.4389687530599
 30
0.0
 10
26.4703340856532
 20
-19.3907940615662
 30
0.0
 10
26.5095722831217
 20
-19.3354535484216
 30
0.0
 10
26.5282530972617
 20
-19.2958919669725
 30
0.0
 10
26.5339317384702
 20
-19.2806130985181
 30
0.0
  0
SPLINE
  5
BB2
330
A8B
100
AcDbEntity
  8
FRONT
  6
Continuous
 62
     4
100
AcDbSpline
210
0.0
220
0.0
230
1.0
 70
    24
 71
     1
 72
     4
 73
     2
 74
     0
 42
0.0000000001
 43
0.0000000001
 40
0.0
 40
0.0
 40
1.0
 40
1.0
 10
26.8647837112305
 20
-19.2228049864298
 30
0.0
 10
26.8933864528317
 20
-19.2818427405099
 30
0.0
  0
SPLINE
  5
BB3
330
A8B
100
AcDbEntity
  8
FRONT
  6
Continuous
 62
     4
100
AcDbSpline
210
0.0
220
0.0
230
1.0
 70
     8
 71
     3
 72
    11
 73
     7
 74
     0
 42
0.0000000001
 43
0.0000000001
 40
0.0
 40
0.0
 40
0.0
 40
0.0
 40
0.2500000000000269
 40
0.5000000000000613
 40
0.7499999999997869
 40
1.0
 40
1.0
 40
1.0
 40
1.0
 10
25.5145339407063
 20
-19.2066991979959
 30
0.0
 10
25.5135955307733
 20
-19.2060148989545
 30
0.0
 10
25.5114691911582
 20
-19.2045527302592
 30
0.0
 10
25.5074145008953
 20
-19.2020032986775
 30
0.0
 10
25.5028444945719
 20
-19.1993240886598
 30
0.0
 10
25.4997413150182
 20
-19.1976159102452
 30
0.0
 10
25.4981516784595
 20
-19.1967676047243
 30
0.0
  0
SPLINE
  5
BB4
330
A8B
100
AcDbEntity
  8
FRONT
  6
Continuous
 62
     4
100
AcDbSpline
210
0.0
220
0.0
230
1.0
 70
     8
 71
     2
 72
     6
 73
     3
 74
     0
 42
0.0000000001
 43
0.0000000001
 40
0.0
 40
0.0
 40
0.0
 40
1.0
 40
1.0
 40
1.0
 10
25.4163817161931
 20
-19.3706899701301
 30
0.0
 10
25.4513784434279
 20
-19.2808302952644
 30
0.0
 10
25.4981516784594
 20
-19.1967676047243
 30
0.0
  0
SPLINE
  5
BB5
330
A8B
100
AcDbEntity
  8
FRONT
  6
Continuous
 62
     4
100
AcDbSpline
210
0.0
220
0.0
230
1.0
 70
    24
 71
     1
 72
     4
 73
     2
 74
     0
 42
0.0000000001
 43
0.0000000001
 40
0.0
 40
0.0
 40
1.0
 40
1.0
 10
25.992673984489
 20
-20.1798245934033
 30
0.0
 10
25.9937929946553
 20
-20.1785974209456
 30
0.0
  0
SPLINE
  5
BB6
330
A8B
100
AcDbEntity
  8
FRONT
  6
Continuous
 62
     4
100
AcDbSpline
210
0.0
220
0.0
230
1.0
 70
    24
 71
     1
 72
     4
 73
     2
 74
     0
 42
0.0000000001
 43
0.0000000001
 40
0.0
 40
0.0
 40
1.0
 40
1.0
 10
26.7990928994728
 20
-18.0606250990073
 30
0.0
 10
26.7990860135658
 20
-18.0601137247336
 30
0.0
  0
SPLINE
  5
BB7
330
A8B
100
AcDbEntity
  8
FRONT
  6
Continuous
 62
     4
100
AcDbSpline
210
0.0
220
0.0
230
1.0
 70
    24
 71
     1
 72
     4
 73
     2
 74
     0
 42
0.0000000001
 43
0.0000000001
 40
0.0
 40
0.0
 40
1.0
 40
1.0
 10
26.7971339155449
 20
-18.4366022909753
 30
0.0
 10
26.8829557125773
 20
-18.4398816753629
 30
0.0
  0
SPLINE
  5
BB8
330
A8B
100
AcDbEntity
  8
FRONT
  6
Continuous
 62
     4
100
AcDbSpline
210
0.0
220
0.0
230
1.0
 70
     8
 71
     3
 72
    13
 73
     9
 74
     0
 42
0.0000000001
 43
0.0000000001
 40
0.0
 40
0.0
 40
0.0
 40
0.0
 40
0.1870906036410149
 40
0.3646813612908705
 40
0.5136542261935185
 40
0.6625496942781221
 40
0.8732997954630318
 40
1.0
 40
1.0
 40
1.0
 40
1.0
 10
26.9009773660742
 20
-19.296800246432
 30
0.0
 10
26.91258896915
 20
-19.3196218866172
 30
0.0
 10
26.9402388034034
 20
-19.36155930803
 30
0.0
 10
26.9930898160739
 20
-19.4170143935885
 30
0.0
 10
27.0531978438843
 20
-19.4567979803178
 30
0.0
 10
27.1209190808515
 20
-19.4823449221439
 30
0.0
 10
27.1820729780851
 20
-19.4875103297355
 30
0.0
 10
27.2205232718849
 20
-19.4831433014394
 30
0.0
 10
27.2344873831592
 20
-19.4801340274869
 30
0.0
  0
SPLINE
  5
BB9
330
A8B
100
AcDbEntity
  8
FRONT
  6
Continuous
 62
     4
100
AcDbSpline
210
0.0
220
0.0
230
1.0
 70
    24
 71
     1
 72
     4
 73
     2
 74
     0
 42
0.0000000001
 43
0.0000000001
 40
0.0
 40
0.0
 40
1.0
 40
1.0
 10
26.5565818354605
 20
-19.2217506729009
 30
0.0
 10
26.5339317384702
 20
-19.2806130985181
 30
0.0
  0
SPLINE
  5
BBA
330
A8B
100
AcDbEntity
  8
FRONT
  6
Continuous
 62
     4
100
AcDbSpline
210
0.0
220
0.0
230
1.0
 70
    24
 71
     1
 72
     4
 73
     2
 74
     0
 42
0.0000000001
 43
0.0000000001
 40
0.0
 40
0.0
 40
1.0
 40
1.0
 10
25.0066719831972
 20
-18.6296123582934
 30
0.0
 10
25.4740877103917
 20
-19.1843245513026
 30
0.0
  0
SPLINE
  5
BBB
330
A8B
100
AcDbEntity
  8
FRONT
  6
Continuous
 62
     4
100
AcDbSpline
210
0.0
220
0.0
230
1.0
 70
    24
 71
     1
 72
     4
 73
     2
 74
     0
 42
0.0000000001
 43
0.0000000001
 40
0.0
 40
0.0
 40
1.0
 40
1.0
 10
26.8799239105367
 20
-18.4349013727447
 30
0.0
 10
26.7972332995029
 20
-18.4320128596285
 30
0.0
  0
SPLINE
  5
BBC
330
A8B
100
AcDbEntity
  8
FRONT
  6
Continuous
 62
     4
100
AcDbSpline
210
0.0
220
0.0
230
1.0
 70
    24
 71
     1
 72
     4
 73
     2
 74
     0
 42
0.0000000001
 43
0.0000000001
 40
0.0
 40
0.0
 40
1.0
 40
1.0
 10
26.1240955332894
 20
-19.4652238868025
 30
0.0
 10
26.1858905826308
 20
-19.4765469312358
 30
0.0
  0
SPLINE
  5
BBD
330
A8B
100
AcDbEntity
  8
FRONT
  6
Continuous
 62
     4
100
AcDbSpline
210
0.0
220
0.0
230
1.0
 70
    24
 71
     1
 72
     4
 73
     2
 74
     0
 42
0.0000000001
 43
0.0000000001
 40
0.0
 40
0.0
 40
1.0
 40
1.0
 10
26.0187011076662
 20
-19.8149727342744
 30
0.0
 10
26.0007332201672
 20
-19.7843723012508
 30
0.0
  0
SPLINE
  5
BBE
330
A8B
100
AcDbEntity
  8
FRONT
  6
Continuous
 62
     4
100
AcDbSpline
210
0.0
220
0.0
230
1.0
 70
    24
 71
     1
 72
     4
 73
     2
 74
     0
 42
0.0000000001
 43
0.0000000001
 40
0.0
 40
0.0
 40
1.0
 40
1.0
 10
27.3149882125781
 20
-18.5216670337892
 30
0.0
 10
27.0275662557218
 20
-18.4403763668753
 30
0.0
  0
SPLINE
  5
BBF
330
A8B
100
AcDbEntity
  8
FRONT
  6
Continuous
 62
     4
100
AcDbSpline
210
0.0
220
0.0
230
1.0
 70
    24
 71
     1
 72
     4
 73
     2
 74
     0
 42
0.0000000001
 43
0.0000000001
 40
0.0
 40
0.0
 40
1.0
 40
1.0
 10
26.796136630758
 20
-17.8411372772049
 30
0.0
 10
26.1384954252823
 20
-17.8613649857804
 30
0.0
  0
SPLINE
  5
BC0
330
A8B
100
AcDbEntity
  8
FRONT
  6
Continuous
 62
     4
100
AcDbSpline
210
0.0
220
0.0
230
1.0
 70
     8
 71
     3
 72
    13
 73
     9
 74
     0
 42
0.0000000001
 43
0.0000000001
 40
0.0
 40
0.0
 40
0.0
 40
0.0
 40
0.2347537562056165
 40
0.4839866866904262
 40
0.5952214255276555
 40
0.7119727950652918
 40
0.96740910102467
 40
1.0
 40
1.0
 40
1.0
 40
1.0
 10
25.4740877103729
 20
-19.1843245512835
 30
0.0
 10
25.4401251694964
 20
-19.2445114450157
 30
0.0
 10
25.3567593663918
 20
-19.3524116068594
 30
0.0
 10
25.2109938290662
 20
-19.4470045415631
 30
0.0
 10
25.0848208943096
 20
-19.4949368062161
 30
0.0
 10
24.9517598594037
 20
-19.5247194432818
 30
0.0
 10
24.8374285257206
 20
-19.5264056580812
 30
0.0
 10
24.7581881956197
 20
-19.5179446811682
 30
0.0
 10
24.7492266611645
 20
-19.5168446986367
 30
0.0
  0
SPLINE
  5
BC1
330
A8B
100
AcDbEntity
  8
FRONT
  6
Continuous
 62
     4
100
AcDbSpline
210
0.0
220
0.0
230
1.0
 70
    24
 71
     1
 72
     4
 73
     2
 74
     0
 42
0.0000000001
 43
0.0000000001
 40
0.0
 40
0.0
 40
1.0
 40
1.0
 10
27.3878153799995
 20
-20.1601908303909
 30
0.0
 10
27.4018445095452
 20
-20.1834141591885
 30
0.0
  0
SPLINE
  5
BC2
330
A8B
100
AcDbEntity
  8
FRONT
  6
Continuous
 62
     4
100
AcDbSpline
210
0.0
220
0.0
230
1.0
 70
     8
 71
     3
 72
    13
 73
     9
 74
     0
 42
0.0000000001
 43
0.0000000001
 40
0.0
 40
0.0
 40
0.0
 40
0.0
 40
0.2396506614303369
 40
0.4258576417570409
 40
0.5820550163389703
 40
0.7381714217428096
 40
0.9591299429654435
 40
1.0
 40
1.0
 40
1.0
 40
1.0
 10
25.9937929946553
 20
-20.1785974209456
 30
0.0
 10
26.0119236952489
 20
-20.1600640951272
 30
0.0
 10
26.038050654575
 20
-20.1206711696649
 30
0.0
 10
26.0622346474837
 20
-20.0508676781134
 30
0.0
 10
26.067612939505
 20
-19.9807096462082
 30
0.0
 10
26.0571029396854
 20
-19.9044036897818
 30
0.0
 10
26.0367813382486
 20
-19.8501694956647
 30
0.0
 10
26.0212252797462
 20
-19.8196619519793
 30
0.0
 10
26.0187011076662
 20
-19.8149727342744
 30
0.0
  0
SPLINE
  5
BC3
330
A8B
100
AcDbEntity
  8
FRONT
  6
Continuous
 62
     4
100
AcDbSpline
210
0.0
220
0.0
230
1.0
 70
    24
 71
     1
 72
     4
 73
     2
 74
     0
 42
0.0000000001
 43
0.0000000001
 40
0.0
 40
0.0
 40
1.0
 40
1.0
 10
25.5145339407063
 20
-19.2066991979959
 30
0.0
 10
25.4332984181498
 20
-19.3783283684739
 30
0.0
  0
SPLINE
  5
BC4
330
A8B
100
AcDbEntity
  8
FRONT
  6
Continuous
 62
     4
100
AcDbSpline
210
0.0
220
0.0
230
1.0
 70
    24
 71
     1
 72
     4
 73
     2
 74
     0
 42
0.0000000001
 43
0.0000000001
 40
0.0
 40
0.0
 40
1.0
 40
1.0
 10
26.3004364053982
 20
-18.4924341633805
 30
0.0
 10
26.1332918458508
 20
-18.4837531759394
 30
0.0
  0
SPLINE
  5
BC5
330
A8B
100
AcDbEntity
  8
FRONT
  6
Continuous
 62
     4
100
AcDbSpline
210
0.0
220
0.0
230
1.0
 70
     8
 71
     3
 72
    11
 73
     7
 74
     0
 42
0.0000000001
 43
0.0000000001
 40
0.0
 40
0.0
 40
0.0
 40
0.0
 40
0.1281905622924043
 40
0.421624799894869
 40
0.7263899413642454
 40
1.0
 40
1.0
 40
1.0
 40
1.0
 10
24.9285356078111
 20
-20.1039782812498
 30
0.0
 10
24.9567217437863
 20
-20.0782900564087
 30
0.0
 10
25.0461776446321
 20
-19.9910506558515
 30
0.0
 10
25.1831271542394
 20
-19.8234959304319
 30
0.0
 10
25.3130893911964
 20
-19.5999645564832
 30
0.0
 10
25.3857190470724
 20
-19.4456713864042
 30
0.0
 10
25.4163816832333
 20
-19.3706900428912
 30
0.0
  0
SPLINE
  5
BC6
330
A8B
100
AcDbEntity
  8
FRONT
  6
Continuous
 62
     4
100
AcDbSpline
210
0.0
220
0.0
230
1.0
 70
    24
 71
     1
 72
     4
 73
     2
 74
     0
 42
0.0000000001
 43
0.0000000001
 40
0.0
 40
0.0
 40
1.0
 40
1.0
 10
27.4223079511518
 20
-20.2135403433901
 30
0.0
 10
27.4018445095452
 20
-20.1834141591885
 30
0.0
  0
SPLINE
  5
BC7
330
A8B
100
AcDbEntity
  8
FRONT
  6
Continuous
 62
     4
100
AcDbSpline
210
0.0
220
0.0
230
1.0
 70
     8
 71
     2
 72
     6
 73
     3
 74
     0
 42
0.0000000001
 43
0.0000000001
 40
0.0
 40
0.0
 40
0.0
 40
1.0
 40
1.0
 40
1.0
 10
26.7972332995031
 20
-18.4320128596346
 30
0.0
 10
26.5445789338595
 20
-18.4229141766158
 30
0.0
 10
26.3004364053982
 20
-18.4924341633805
 30
0.0
  0
SPLINE
  5
BC8
330
A8B
100
AcDbEntity
  8
FRONT
  6
Continuous
 62
     4
100
AcDbSpline
210
0.0
220
0.0
230
1.0
 70
    24
 71
     1
 72
     4
 73
     2
 74
     0
 42
0.0000000001
 43
0.0000000001
 40
0.0
 40
0.0
 40
1.0
 40
1.0
 10
26.1352479932932
 20
-18.0130753074631
 30
0.0
 10
26.3228023470809
 20
-18.008529835588
 30
0.0
  0
SPLINE
  5
BC9
330
A8B
100
AcDbEntity
  8
FRONT
  6
Continuous
 62
     4
100
AcDbSpline
210
0.0
220
0.0
230
1.0
 70
    24
 71
     1
 72
     4
 73
     2
 74
     0
 42
0.0000000001
 43
0.0000000001
 40
0.0
 40
0.0
 40
1.0
 40
1.0
 10
25.5007883996534
 20
-19.1981774606706
 30
0.0
 10
25.4740877103729
 20
-19.1843245512835
 30
0.0
  0
SPLINE
  5
BCA
330
A8B
100
AcDbEntity
  8
FRONT
  6
Continuous
 62
     4
100
AcDbSpline
210
0.0
220
0.0
230
1.0
 70
     8
 71
     3
 72
    10
 73
     6
 74
     0
 42
0.0000000001
 43
0.0000000001
 40
0.0
 40
0.0
 40
0.0
 40
0.0
 40
0.4926947242044152
 40
0.9999538112423723
 40
1.0
 40
1.0
 40
1.0
 40
1.0
 10
24.9005862197314
 20
-18.2983362180263
 30
0.0
 10
25.0954789392218
 20
-18.2159503978793
 30
0.0
 10
25.4979694675124
 20
-18.0852313499803
 30
0.0
 10
25.9202566796358
 20
-18.0227653648572
 30
0.0
 10
26.1351482762198
 20
-18.0130820606532
 30
0.0
 10
26.135248174848
 20
-18.0130775590867
 30
0.0
  0
SPLINE
  5
BCB
330
A8B
100
AcDbEntity
  8
FRONT
  6
Continuous
 62
     4
100
AcDbSpline
210
0.0
220
0.0
230
1.0
 70
     8
 71
     2
 72
     6
 73
     3
 74
     0
 42
0.0000000001
 43
0.0000000001
 40
0.0
 40
0.0
 40
0.0
 40
1.0
 40
1.0
 40
1.0
 10
24.7493112382634
 20
-19.5168592721748
 30
0.0
 10
24.7733677921006
 20
-19.573550287159
 30
0.0
 10
24.8030250972892
 20
-19.6290863652044
 30
0.0
  0
SPLINE
  5
BCC
330
A8B
100
AcDbEntity
  8
FRONT
  6
Continuous
 62
     4
100
AcDbSpline
210
0.0
220
0.0
230
1.0
 70
     8
 71
     3
 72
    11
 73
     7
 74
     0
 42
0.0000000001
 43
0.0000000001
 40
0.0
 40
0.0
 40
0.0
 40
0.0
 40
0.3213498426608201
 40
0.6577811939102644
 40
0.9998827329771151
 40
1.0
 40
1.0
 40
1.0
 40
1.0
 10
24.8030250972898
 20
-19.6290863652017
 30
0.0
 10
24.8266118676878
 20
-19.6751441459845
 30
0.0
 10
24.8681234306811
 20
-19.7726717136862
 30
0.0
 10
24.9073121666307
 20
-19.9338523885895
 30
0.0
 10
24.9230669044476
 20
-20.0464756372613
 30
0.0
 10
24.9284246015425
 20
-20.1036788649271
 30
0.0
 10
24.928433926805
 20
-20.1037784291751
 30
0.0
  0
SPLINE
  5
BCD
330
A8B
100
AcDbEntity
  8
FRONT
  6
Continuous
 62
     4
100
AcDbSpline
210
0.0
220
0.0
230
1.0
 70
    24
 71
     1
 72
     4
 73
     2
 74
     0
 42
0.0000000001
 43
0.0000000001
 40
0.0
 40
0.0
 40
1.0
 40
1.0
 10
27.2886458825551
 20
-19.4692076431806
 30
0.0
 10
27.2344873831592
 20
-19.4801340274869
 30
0.0
  0
SPLINE
  5
BCE
330
A8B
100
AcDbEntity
  8
FRONT
  6
Continuous
 62
     4
100
AcDbSpline
210
0.0
220
0.0
230
1.0
 70
     8
 71
     3
 72
    13
 73
     9
 74
     0
 42
0.0000000001
 43
0.0000000001
 40
0.0
 40
0.0
 40
0.0
 40
0.0
 40
0.2396506614303343
 40
0.4258576417570496
 40
0.5820550163389778
 40
0.7381714217428188
 40
0.9591299429654512
 40
1.0
 40
1.0
 40
1.0
 40
1.0
 10
27.4087847350571
 20
-19.7891890394937
 30
0.0
 10
27.3944613678654
 20
-19.8148533176738
 30
0.0
 10
27.3738265229498
 20
-19.8645327093033
 30
0.0
 10
27.3549904084314
 20
-19.9443525198927
 30
0.0
 10
27.3505909498165
 20
-20.0163438596945
 30
0.0
 10
27.3583092229844
 20
-20.0874210463604
 30
0.0
 10
27.3737903393433
 20
-20.1325892447124
 30
0.0
 10
27.3858551101721
 20
-20.1565577744864
 30
0.0
 10
27.3878153799995
 20
-20.1601908303909
 30
0.0
  0
LINE
  5
BCF
330
A8B
100
AcDbEntity
  8
FRONT
  6
Continuous
 62
     4
100
AcDbLine
 10
30.0882745453883
 20
-19.4658900286207
 30
0.0
 11
29.0308105120571
 21
-20.0214500147791
 31
0.0
  0
LINE
  5
BD0
330
A8B
100
AcDbEntity
  8
FRONT
  6
Continuous
 62
     4
100
AcDbLine
 10
30.1855347658683
 20
-19.0678072613464
 30
0.0
 11
30.1886021514817
 21
-18.1943282791797
 31
0.0
  0
LINE
  5
BD1
330
A8B
100
AcDbEntity
  8
FRONT
  6
Continuous
 62
     4
100
AcDbLine
 10
28.9008501652475
 20
-19.1578446872472
 30
0.0
 11
28.9000220421372
 21
-19.3936637926937
 31
0.0
  0
LINE
  5
BD2
330
A8B
100
AcDbEntity
  8
FRONT
  6
Continuous
 62
     4
100
AcDbLine
 10
28.58808420683
 20
-19.4069017387223
 30
0.0
 11
28.5889121590142
 21
-19.1711313067131
 31
0.0
  0
LINE
  5
BD3
330
A8B
100
AcDbEntity
  8
FRONT
  6
Continuous
 62
     4
100
AcDbLine
 10
29.8536702817474
 20
-18.8926455205838
 30
0.0
 11
29.8552637858104
 21
-18.4388739762141
 31
0.0
  0
LINE
  5
BD4
330
A8B
100
AcDbEntity
  8
FRONT
  6
Continuous
 62
     4
100
AcDbLine
 10
27.830534428239
 20
-19.4782890497959
 30
0.0
 11
27.7944192353282
 21
-19.4106470303057
 31
0.0
  0
LINE
  5
BD5
330
A8B
100
AcDbEntity
  8
FRONT
  6
Continuous
 62
     4
100
AcDbLine
 10
28.9000220421372
 20
-19.3936637926937
 30
0.0
 11
29.8536702817474
 21
-18.8926455205838
 31
0.0
  0
LINE
  5
BD6
330
A8B
100
AcDbEntity
  8
FRONT
  6
Continuous
 62
     4
100
AcDbLine
 10
30.0173602050854
 20
-18.3197683733793
 30
0.0
 11
30.0153832388481
 21
-18.8827358863861
 31
0.0
  0
ELLIPSE
  5
BD7
330
A8B
100
AcDbEntity
  8
FRONT
  6
Continuous
 62
     4
100
AcDbEllipse
 10
26.785863051605
 20
-19.9063451713945
 30
0.0
 11
-1.151135430529534
 21
-0.6146102435097502
 31
0.0
210
0.0
220
0.0
230
0.9999999999999998
 40
0.9833059182658811
 41
2.387532948130643
 42
2.854453357321848
  0
ELLIPSE
  5
BD8
330
A8B
100
AcDbEntity
  8
FRONT
  6
Continuous
 62
     4
100
AcDbEllipse
 10
35.5328965116754
 20
-16.3667675800579
 30
0.0
 11
-5.502211667105154
 21
-2.588827676295629
 31
0.0
210
0.0
220
0.0
230
1.0
 40
0.1586239430231971
 41
6.208012116159168
 42
6.457681703334741
  0
ELLIPSE
  5
BD9
330
A8B
100
AcDbEntity
  8
FRONT
  6
Continuous
 62
     4
100
AcDbEllipse
 10
36.1779239076521
 20
-16.5103162582415
 30
0.0
 11
-7.504621521697405
 21
-3.321134711197779
 31
0.0
210
0.0
220
0.0
230
1.0
 40
0.3415132911448714
 41
6.131781412421299
 42
6.217369236841816
  0
ELLIPSE
  5
BDA
330
A8B
100
AcDbEntity
  8
FRONT
  6
Continuous
 62
     4
100
AcDbEllipse
 10
28.515238232363
 20
-19.2704647318078
 30
0.0
 11
-0.8499947589592117
 21
0.0029849163490714
 31
0.0
210
0.0
220
0.0
230
1.0
 40
0.1608116416914428
 41
1.657167966400878
 42
2.041140401843712
  0
ELLIPSE
  5
BDB
330
A8B
100
AcDbEntity
  8
FRONT
  6
Continuous
 62
     4
100
AcDbEllipse
 10
36.1050778281632
 20
-16.3738792965865
 30
0.0
 11
-7.163008401427503
 21
-3.337131822624029
 31
0.0
210
0.0
220
0.0
230
1.0
 40
0.2488347320293084
 41
6.1272315578895
 42
6.212819382930589
  0
ELLIPSE
  5
BDC
330
A8B
100
AcDbEntity
  8
FRONT
  6
Continuous
 62
     4
100
AcDbEllipse
 10
30.3063571152819
 20
-19.0375855916153
 30
0.0
 11
-0.9999938318006432
 21
0.0035116660557411
 31
0.0
210
0.0
220
0.0
230
1.0
 40
0.1608116414610818
 41
5.008200129322958
 42
5.18273305487219
  0
ELLIPSE
  5
BDD
330
A8B
100
AcDbEntity
  8
FRONT
  6
Continuous
 62
     4
100
AcDbEllipse
 10
28.7522555457283
 20
-20.1384533895864
 30
0.0
 11
-0.7801070765252688
 21
-0.3375395473105581
 31
0.0
210
0.0
220
0.0
230
1.0
 40
0.0040693916708658
 41
1.563153189442481
 42
1.934167124601573
  0
ELLIPSE
  5
BDE
330
A8B
100
AcDbEntity
  8
FRONT
  6
Continuous
 62
     4
100
AcDbEllipse
 10
26.705607415723
 20
-19.9919816682415
 30
0.0
 11
-1.088811819437994
 21
-0.5813346382489481
 31
0.0
210
0.0
220
0.0
230
1.0
 40
0.983305918289052
 41
2.448217296598584
 42
3.141592653297247
  0
ELLIPSE
  5
BDF
330
A8B
100
AcDbEntity
  8
FRONT
  6
Continuous
 62
     4
100
AcDbEllipse
 10
35.8238703907072
 20
-16.521617285397
 30
0.0
 11
-5.931785057190547
 21
-2.503957966687563
 31
0.0
210
0.0
220
0.0
230
0.9999999999999998
 40
0.3000603614080196
 41
6.212003631040982
 42
6.468355228140294
  0
ELLIPSE
  5
BE0
330
A8B
100
AcDbEntity
  8
FRONT
  6
Continuous
 62
     4
100
AcDbEllipse
 10
26.7417226086525
 20
-20.0596236877257
 30
0.0
 11
-1.088811819366767
 21
-0.5813346383414362
 31
0.0
210
0.0
220
0.0
230
1.0
 40
0.9833059182967726
 41
2.505541426623854
 42
3.141592653205357
  0
ELLIPSE
  5
BE1
330
A8B
100
AcDbEntity
  8
FRONT
  6
Continuous
 62
     4
100
AcDbEllipse
 10
29.6275309383002
 20
-19.7770012715947
 30
0.0
 11
-0.6378475908704978
 21
-2.576716806991784
 31
0.0
210
0.0
220
0.0
230
1.0
 40
0.1420508862706076
 41
1.726905085211521
 42
1.739170856938258
  0
SPLINE
  5
BE2
330
A8B
100
AcDbEntity
  8
FRONT
  6
Continuous
 62
     4
100
AcDbSpline
210
0.0
220
0.0
230
1.0
 70
    24
 71
     1
 72
     4
 73
     2
 74
     0
 42
0.0000000001
 43
0.0000000001
 40
0.0
 40
0.0
 40
1.0
 40
1.0
 10
28.6859545377755
 20
-18.2960393842295
 30
0.0
 10
29.7848982275007
 20
-17.7964750813696
 30
0.0
  0
SPLINE
  5
BE3
330
A8B
100
AcDbEntity
  8
FRONT
  6
Continuous
 62
     4
100
AcDbSpline
210
0.0
220
0.0
230
1.0
 70
    24
 71
     1
 72
     4
 73
     2
 74
     0
 42
0.0000000001
 43
0.0000000001
 40
0.0
 40
0.0
 40
1.0
 40
1.0
 10
29.8670189966729
 20
-18.4302120350987
 30
0.0
 10
29.9631165679869
 20
-18.3595644781492
 30
0.0
  0
SPLINE
  5
BE4
330
A8B
100
AcDbEntity
  8
FRONT
  6
Continuous
 62
     4
100
AcDbSpline
210
0.0
220
0.0
230
1.0
 70
    24
 71
     1
 72
     4
 73
     2
 74
     0
 42
0.0000000001
 43
0.0000000001
 40
0.0
 40
0.0
 40
1.0
 40
1.0
 10
29.0901996966436
 20
-20.1882168820611
 30
0.0
 10
29.1084306928851
 20
-20.2531803373074
 30
0.0
  0
SPLINE
  5
BE5
330
A8B
100
AcDbEntity
  8
FRONT
  6
Continuous
 62
     4
100
AcDbSpline
210
0.0
220
0.0
230
1.0
 70
    24
 71
     1
 72
     4
 73
     2
 74
     0
 42
0.0000000001
 43
0.0000000001
 40
0.0
 40
0.0
 40
1.0
 40
1.0
 10
28.7973818675574
 20
-20.2455157502932
 30
0.0
 10
28.7476666787468
 20
-20.1442076941053
 30
0.0
  0
SPLINE
  5
BE6
330
A8B
100
AcDbEntity
  8
FRONT
  6
Continuous
 62
     4
100
AcDbSpline
210
0.0
220
0.0
230
1.0
 70
     8
 71
     2
 72
     6
 73
     3
 74
     0
 42
0.0000000001
 43
0.0000000001
 40
0.0
 40
0.0
 40
0.0
 40
1.0
 40
1.0
 40
1.0
 10
30.1562477220534
 20
-19.2499990025113
 30
0.0
 10
30.1845051916076
 20
-19.1843495649469
 30
0.0
 10
30.1851999011413
 20
-19.1139176339781
 30
0.0
  0
SPLINE
  5
BE7
330
A8B
100
AcDbEntity
  8
FRONT
  6
Continuous
 62
     4
100
AcDbSpline
210
0.0
220
0.0
230
1.0
 70
    24
 71
     1
 72
     4
 73
     2
 74
     0
 42
0.0000000001
 43
0.0000000001
 40
0.0
 40
0.0
 40
1.0
 40
1.0
 10
28.9014121840598
 20
-19.5774357317478
 30
0.0
 10
29.0308105120571
 20
-20.0214500147791
 30
0.0
  0
SPLINE
  5
BE8
330
A8B
100
AcDbEntity
  8
FRONT
  6
Continuous
 62
     4
100
AcDbSpline
210
0.0
220
0.0
230
1.0
 70
    24
 71
     1
 72
     4
 73
     2
 74
     0
 42
0.0000000001
 43
0.0000000001
 40
0.0
 40
0.0
 40
1.0
 40
1.0
 10
28.6149551394099
 20
-19.6557003003853
 30
0.0
 10
28.9014121840598
 20
-19.5774357317478
 30
0.0
  0
SPLINE
  5
BE9
330
A8B
100
AcDbEntity
  8
FRONT
  6
Continuous
 62
     4
100
AcDbSpline
210
0.0
220
0.0
230
1.0
 70
    24
 71
     1
 72
     4
 73
     2
 74
     0
 42
0.0000000001
 43
0.0000000001
 40
0.0
 40
0.0
 40
1.0
 40
1.0
 10
28.6831445259013
 20
-18.2973643965298
 30
0.0
 10
28.6847443617172
 20
-18.2966189181861
 30
0.0
  0
SPLINE
  5
BEA
330
A8B
100
AcDbEntity
  8
FRONT
  6
Continuous
 62
     4
100
AcDbSpline
210
0.0
220
0.0
230
1.0
 70
    24
 71
     1
 72
     4
 73
     2
 74
     0
 42
0.0000000001
 43
0.0000000001
 40
0.0
 40
0.0
 40
1.0
 40
1.0
 10
29.0308105120571
 20
-20.0214500147791
 30
0.0
 10
29.0901943822692
 20
-20.1882182693432
 30
0.0
  0
SPLINE
  5
BEB
330
A8B
100
AcDbEntity
  8
FRONT
  6
Continuous
 62
     4
100
AcDbSpline
210
0.0
220
0.0
230
1.0
 70
     8
 71
     3
 72
    12
 73
     8
 74
     0
 42
0.0000000001
 43
0.0000000001
 40
0.0
 40
0.0
 40
0.0
 40
0.0
 40
0.1495624586559048
 40
0.3981305669337531
 40
0.6362518309539893
 40
0.8431419366934655
 40
1.0
 40
1.0
 40
1.0
 40
1.0
 10
29.6758933439382
 20
-20.3083692879584
 30
0.0
 10
29.6786021833942
 20
-20.3054590978421
 30
0.0
 10
29.6807831795155
 20
-20.2977494840277
 30
0.0
 10
29.6630949297152
 20
-20.2849620935412
 30
0.0
 10
29.6148216239767
 20
-20.2725675476949
 30
0.0
 10
29.5508513207309
 20
-20.2647345332495
 30
0.0
 10
29.5074595846449
 20
-20.2625837879678
 30
0.0
 10
29.4874517764985
 20
-20.2620598777619
 30
0.0
  0
SPLINE
  5
BEC
330
A8B
100
AcDbEntity
  8
FRONT
  6
Continuous
 62
     4
100
AcDbSpline
210
0.0
220
0.0
230
1.0
 70
    24
 71
     1
 72
     4
 73
     2
 74
     0
 42
0.0000000001
 43
0.0000000001
 40
0.0
 40
0.0
 40
1.0
 40
1.0
 10
28.5888550989677
 20
-19.1711319005115
 30
0.0
 10
28.900777897107
 20
-19.1578986951761
 30
0.0
  0
SPLINE
  5
BED
330
A8B
100
AcDbEntity
  8
FRONT
  6
Continuous
 62
     4
100
AcDbSpline
210
0.0
220
0.0
230
1.0
 70
     8
 71
     3
 72
    11
 73
     7
 74
     0
 42
0.0000000001
 43
0.0000000001
 40
0.0
 40
0.0
 40
0.0
 40
0.0
 40
0.0001349180935091
 40
0.1930788600656165
 40
0.9998650818819635
 40
1.0
 40
1.0
 40
1.0
 40
1.0
 10
28.3866779569786
 20
-18.4363959954153
 30
0.0
 10
28.386724511138
 20
-18.4364844980155
 30
0.0
 10
28.3998912043038
 20
-18.4615152761694
 30
0.0
 10
28.5136790121673
 20
-18.5632714813842
 30
0.0
 10
28.6252274314724
 20
-18.6576133621496
 30
0.0
 10
28.6962297065251
 20
-18.7510054624459
 30
0.0
 10
28.6962902279692
 20
-18.7510850686943
 30
0.0
  0
SPLINE
  5
BEE
330
A8B
100
AcDbEntity
  8
FRONT
  6
Continuous
 62
     4
100
AcDbSpline
210
0.0
220
0.0
230
1.0
 70
    24
 71
     1
 72
     4
 73
     2
 74
     0
 42
0.0000000001
 43
0.0000000001
 40
0.0
 40
0.0
 40
1.0
 40
1.0
 10
29.6488370507192
 20
-18.5917036121692
 30
0.0
 10
29.8552637858104
 20
-18.4388739762141
 30
0.0
  0
SPLINE
  5
BEF
330
A8B
100
AcDbEntity
  8
FRONT
  6
Continuous
 62
     4
100
AcDbSpline
210
0.0
220
0.0
230
1.0
 70
     8
 71
     3
 72
    11
 73
     7
 74
     0
 42
0.0000000001
 43
0.0000000001
 40
0.0
 40
0.0
 40
0.0
 40
0.0
 40
0.0001278625790222
 40
0.8000466519499596
 40
0.9998721041576972
 40
1.0
 40
1.0
 40
1.0
 40
1.0
 10
28.6962902279692
 20
-18.7510850686943
 30
0.0
 10
28.6963525167783
 20
-18.7511632997896
 30
0.0
 10
28.7726920781023
 20
-18.8470413160701
 30
0.0
 10
28.8465156346939
 20
-18.9856585311573
 30
0.0
 10
28.8918871401171
 20
-19.1293620844579
 30
0.0
 10
28.9007384697528
 20
-19.1578001040524
 30
0.0
 10
28.9007681884876
 20
-19.1578955859712
 30
0.0
  0
SPLINE
  5
BF0
330
A8B
100
AcDbEntity
  8
FRONT
  6
Continuous
 62
     4
100
AcDbSpline
210
0.0
220
0.0
230
1.0
 70
    24
 71
     1
 72
     4
 73
     2
 74
     0
 42
0.0000000001
 43
0.0000000001
 40
0.0
 40
0.0
 40
1.0
 40
1.0
 10
29.1361158727875
 20
-18.9775353381157
 30
0.0
 10
29.6488370507192
 20
-18.5917036121692
 30
0.0
  0
SPLINE
  5
BF1
330
A8B
100
AcDbEntity
  8
FRONT
  6
Continuous
 62
     4
100
AcDbSpline
210
0.0
220
0.0
230
1.0
 70
    24
 71
     1
 72
     4
 73
     2
 74
     0
 42
0.0000000001
 43
0.0000000001
 40
0.0
 40
0.0
 40
1.0
 40
1.0
 10
30.1855347658683
 20
-19.0678072613464
 30
0.0
 10
30.1851999011413
 20
-19.1139176339792
 30
0.0
  0
SPLINE
  5
BF2
330
A8B
100
AcDbEntity
  8
FRONT
  6
Continuous
 62
     4
100
AcDbSpline
210
0.0
220
0.0
230
1.0
 70
    24
 71
     1
 72
     4
 73
     2
 74
     0
 42
0.0000000001
 43
0.0000000001
 40
0.0
 40
0.0
 40
1.0
 40
1.0
 10
29.8552637858104
 20
-18.4388739762141
 30
0.0
 10
29.8669886698526
 20
-18.4302343746722
 30
0.0
  0
SPLINE
  5
BF3
330
A8B
100
AcDbEntity
  8
FRONT
  6
Continuous
 62
     4
100
AcDbSpline
210
0.0
220
0.0
230
1.0
 70
     8
 71
     2
 72
     6
 73
     3
 74
     0
 42
0.0000000001
 43
0.0000000001
 40
0.0
 40
0.0
 40
0.0
 40
1.0
 40
1.0
 40
1.0
 10
29.6488370374034
 20
-18.5917036208869
 30
0.0
 10
29.7576119260466
 20
-18.5108051441539
 30
0.0
 10
29.8669885868119
 20
-18.4302344332208
 30
0.0
  0
SPLINE
  5
BF4
330
A8B
100
AcDbEntity
  8
FRONT
  6
Continuous
 62
     4
100
AcDbSpline
210
0.0
220
0.0
230
1.0
 70
    24
 71
     1
 72
     4
 73
     2
 74
     0
 42
0.0000000001
 43
0.0000000001
 40
0.0
 40
0.0
 40
1.0
 40
1.0
 10
28.3866779568561
 20
-18.4363959954731
 30
0.0
 10
28.6831397540262
 20
-18.2973509533484
 30
0.0
  0
SPLINE
  5
BF5
330
A8B
100
AcDbEntity
  8
FRONT
  6
Continuous
 62
     4
100
AcDbSpline
210
0.0
220
0.0
230
1.0
 70
     8
 71
     3
 72
    11
 73
     7
 74
     0
 42
0.0000000001
 43
0.0000000001
 40
0.0
 40
0.0
 40
0.0
 40
0.0
 40
0.1632580369825384
 40
0.5369633765782555
 40
0.9250992724447831
 40
1.0
 40
1.0
 40
1.0
 40
1.0
 10
28.6149091172141
 20
-19.6557424000337
 30
0.0
 10
28.5867229812388
 20
-19.6814306248749
 30
0.0
 10
28.4972197542423
 20
-19.7686464159655
 30
0.0
 10
28.3607250553666
 20
-19.936428031563
 30
0.0
 10
28.2613669018025
 20
-20.1041788680825
 30
0.0
 10
28.2139443657033
 20
-20.2004717301554
 30
0.0
 10
28.2064776360681
 20
-20.216161525744
 30
0.0
  0
SPLINE
  5
BF6
330
A8B
100
AcDbEntity
  8
FRONT
  6
Continuous
 62
     4
100
AcDbSpline
210
0.0
220
0.0
230
1.0
 70
    24
 71
     1
 72
     4
 73
     2
 74
     0
 42
0.0000000001
 43
0.0000000001
 40
0.0
 40
0.0
 40
1.0
 40
1.0
 10
30.1562477220534
 20
-19.2499990025113
 30
0.0
 10
30.1318209235181
 20
-19.3104725683447
 30
0.0
  0
SPLINE
  5
BF7
330
A8B
100
AcDbEntity
  8
FRONT
  6
Continuous
 62
     4
100
AcDbSpline
210
0.0
220
0.0
230
1.0
 70
    24
 71
     1
 72
     4
 73
     2
 74
     0
 42
0.0000000001
 43
0.0000000001
 40
0.0
 40
0.0
 40
1.0
 40
1.0
 10
28.8722996809167
 20
-20.2467524888237
 30
0.0
 10
29.0901996966469
 20
-20.1882168820721
 30
0.0
  0
SPLINE
  5
BF8
330
A8B
100
AcDbEntity
  8
FRONT
  6
Continuous
 62
     4
100
AcDbSpline
210
0.0
220
0.0
230
1.0
 70
    24
 71
     1
 72
     4
 73
     2
 74
     0
 42
0.0000000001
 43
0.0000000001
 40
0.0
 40
0.0
 40
1.0
 40
1.0
 10
30.1318209235181
 20
-19.3104725683447
 30
0.0
 10
30.0952702459583
 20
-19.4345203386686
 30
0.0
  0
SPLINE
  5
BF9
330
A8B
100
AcDbEntity
  8
FRONT
  6
Continuous
 62
     4
100
AcDbSpline
210
0.0
220
0.0
230
1.0
 70
     8
 71
     3
 72
    11
 73
     7
 74
     0
 42
0.0000000001
 43
0.0000000001
 40
0.0
 40
0.0
 40
0.0
 40
0.0
 40
0.3061272518132776
 40
0.6075448394179293
 40
0.8160124276962045
 40
1.0
 40
1.0
 40
1.0
 40
1.0
 10
28.588855099133
 20
-19.1711319008212
 30
0.0
 10
28.5852058041135
 20
-19.1169875423932
 30
0.0
 10
28.5625228752818
 20
-19.0167051537703
 30
0.0
 10
28.4930417991284
 20
-18.8919335166507
 30
0.0
 10
28.4015057786592
 20
-18.8127173190665
 30
0.0
 10
28.3401524557883
 20
-18.7855772705557
 30
0.0
 10
28.3089368695456
 20
-18.776281481291
 30
0.0
  0
SPLINE
  5
BFA
330
A8B
100
AcDbEntity
  8
FRONT
  6
Continuous
 62
     4
100
AcDbSpline
210
0.0
220
0.0
230
1.0
 70
     8
 71
     3
 72
    11
 73
     7
 74
     0
 42
0.0000000001
 43
0.0000000001
 40
0.0
 40
0.0
 40
0.0
 40
0.0
 40
0.3213498426608153
 40
0.6577811939102688
 40
0.999882732977116
 40
1.0
 40
1.0
 40
1.0
 40
1.0
 10
28.7476666787468
 20
-20.1442076941053
 30
0.0
 10
28.7224011675402
 20
-20.095005712521
 30
0.0
 10
28.6780553581807
 20
-19.9921697376853
 30
0.0
 10
28.636568320237
 20
-19.8266844536435
 30
0.0
 10
28.6203778997479
 20
-19.7132451923598
 30
0.0
 10
28.6150201235951
 20
-19.6560418163459
 30
0.0
 10
28.6150107982201
 20
-19.6559422521084
 30
0.0
  0
SPLINE
  5
BFB
330
A8B
100
AcDbEntity
  8
FRONT
  6
Continuous
 62
     4
100
AcDbSpline
210
0.0
220
0.0
230
1.0
 70
     8
 71
     2
 72
     6
 73
     3
 74
     0
 42
0.0000000001
 43
0.0000000001
 40
0.0
 40
0.0
 40
0.0
 40
1.0
 40
1.0
 40
1.0
 10
29.9637003619907
 20
-18.3591359514535
 30
0.0
 10
30.0756463331389
 20
-18.2769848462657
 30
0.0
 10
30.1886021514817
 20
-18.1943282791797
 30
0.0
  0
SPLINE
  5
BFC
330
A8B
100
AcDbEntity
  8
FRONT
  6
Continuous
 62
     4
100
AcDbSpline
210
0.0
220
0.0
230
1.0
 70
    24
 71
     1
 72
     4
 73
     2
 74
     0
 42
0.0000000001
 43
0.0000000001
 40
0.0
 40
0.0
 40
1.0
 40
1.0
 10
28.6847443617172
 20
-18.2966189181861
 30
0.0
 10
28.6859593038243
 20
-18.2960528243787
 30
0.0
  0
SPLINE
  5
BFD
330
A8B
100
AcDbEntity
  8
FRONT
  6
Continuous
 62
     4
100
AcDbSpline
210
0.0
220
0.0
230
1.0
 70
    24
 71
     1
 72
     4
 73
     2
 74
     0
 42
0.0000000001
 43
0.0000000001
 40
0.0
 40
0.0
 40
1.0
 40
1.0
 10
28.9008143806222
 20
-19.157872281376
 30
0.0
 10
29.1361158727874
 20
-18.9775353381157
 30
0.0
  0
SPLINE
  5
BFE
330
A8B
100
AcDbEntity
  8
FRONT
  6
Continuous
 62
     4
100
AcDbSpline
210
0.0
220
0.0
230
1.0
 70
     8
 71
     2
 72
     6
 73
     3
 74
     0
 42
0.0000000001
 43
0.0000000001
 40
0.0
 40
0.0
 40
0.0
 40
1.0
 40
1.0
 40
1.0
 10
28.3089333025349
 20
-18.7762953908858
 30
0.0
 10
28.3526892650761
 20
-18.6048870944255
 30
0.0
 10
28.3866892466503
 20
-18.4364048148385
 30
0.0
  0
SPLINE
  5
BFF
330
A8B
100
AcDbEntity
  8
FRONT
  6
Continuous
 62
     4
100
AcDbSpline
210
0.0
220
0.0
230
1.0
 70
     8
 71
     3
 72
    11
 73
     7
 74
     0
 42
0.0000000001
 43
0.0000000001
 40
0.0
 40
0.0
 40
0.0
 40
0.0
 40
0.2797385983135212
 40
0.5594467342961896
 40
0.779715829487904
 40
1.0
 40
1.0
 40
1.0
 40
1.0
 10
29.7848982275007
 20
-17.7964750813696
 30
0.0
 10
29.8474551416527
 20
-17.7972554215006
 30
0.0
 10
29.9603597089042
 20
-17.8208513030574
 30
0.0
 10
30.0956785914278
 20
-17.9213380517059
 30
0.0
 10
30.172831311479
 20
-18.0546602504121
 30
0.0
 10
30.188302477756
 20
-18.1455234305368
 30
0.0
 10
30.1886021514817
 20
-18.1943282791797
 30
0.0
  0
ELLIPSE
  5
C00
330
A8B
100
AcDbEntity
  8
FRONT
  6
Continuous
 62
     4
100
AcDbEllipse
 10
189.250595928979
 20
-23.7717392234203
 30
-0.000000000000001
 11
328.7085881680908
 21
-5.639364115381655
 31
0.9119127835859078
210
-0.0173763522628257
220
-0.9870276605374339
230
0.1596072044615736
 40
0.0173763522628256
 41
2.090738282879778
 42
2.09261634979419
  0
ENDBLK
  5
C02
330
A8B
100
AcDbEntity
  8
0
100
AcDbBlockEnd
  0
BLOCK
  5
C05
330
C03
100
AcDbEntity
  8
0
100
AcDbBlockBegin
  2
ROFFE
 70
     0
 10
0.0
 20
0.0
 30
0.0
  3
ROFFE
  1

  0
INSERT
  5
C04
330
C03
100
AcDbEntity
  8
0
  6
Continuous
100
AcDbBlockReference
  2
2D00035417
 10
0.0
 20
0.0
 30
0.0
  0
ENDBLK
  5
C06
330
C03
100
AcDbEntity
  8
0
100
AcDbBlockEnd
  0
BLOCK
  5
150E
330
150D
100
AcDbEntity
  8
0
100
AcDbBlockBegin
  2
*D3
 70
     1
 10
0.0
 20
0.0
 30
0.0
  3
*D3
  1

  0
LINE
  5
1547
330
150D
100
AcDbEntity
  8
2
 62
     0
370
    -2
100
AcDbLine
 10
7.99032599999998
 20
-7.4498445
 30
0.0
 11
14.475546858027
 21
-7.4498445
 31
0.0
  0
LINE
  5
1548
330
150D
100
AcDbEntity
  8
2
 62
     0
370
    -2
100
AcDbLine
 10
7.99032599999998
 20
7.4498445
 30
0.0
 11
14.475546858027
 21
7.4498445
 31
0.0
  0
LINE
  5
1549
330
150D
100
AcDbEntity
  8
2
 62
     0
100
AcDbLine
 10
13.475546858027
 20
-3.9498445
 30
0.0
 11
13.475546858027
 21
3.9498445
 31
0.0
  0
LINE
  5
154A
330
150D
100
AcDbEntity
  8
2
 62
     0
100
AcDbLine
 10
13.475546858027
 20
7.4498445
 30
0.0
 11
13.4755468580271
 21
40.6068038204862
 31
0.0
  0
SOLID
  5
154B
330
150D
100
AcDbEntity
  8
2
 62
     0
100
AcDbTrace
 10
12.8922135246937
 20
-3.9498445
 30
0.0
 11
14.0588801913604
 21
-3.9498445
 31
0.0
 12
13.475546858027
 22
-7.4498445
 32
0.0
 13
13.475546858027
 23
-7.4498445
 33
0.0
  0
SOLID
  5
154C
330
150D
100
AcDbEntity
  8
2
 62
     0
100
AcDbTrace
 10
12.8922135246937
 20
3.9498445
 30
0.0
 11
14.0588801913604
 21
3.9498445
 31
0.0
 12
13.475546858027
 22
7.4498445
 32
0.0
 13
13.475546858027
 23
7.4498445
 33
0.0
  0
MTEXT
  5
154D
330
150D
100
AcDbEntity
  8
2
 62
     0
100
AcDbMText
 10
10.725546858027
 20
28.2318038204862
 30
0.0
 40
3.5
 41
0.0
 71
     5
 72
     1
  1
\A1;%%C14.90k7
 11
0.0000000000000001
 21
1.0
 31
0.0
 73
     1
 44
1.0
1001
ACAD
1000
MTEXTBEGIN
1070
    73
1070
     1
1070
    44
1040
1.0
1070
    74
1070
     0
1000
MTEXTEND
  0
POINT
  5
154E
330
150D
100
AcDbEntity
  8
DEFPOINTS
 62
     0
100
AcDbPoint
 10
6.99032599999998
 20
-7.4498445
 30
0.0
  0
POINT
  5
154F
330
150D
100
AcDbEntity
  8
DEFPOINTS
 62
     0
100
AcDbPoint
 10
6.99032599999998
 20
7.4498445
 30
0.0
  0
POINT
  5
1550
330
150D
100
AcDbEntity
  8
DEFPOINTS
 62
     0
100
AcDbPoint
 10
13.475546858027
 20
7.4498445
 30
0.0
  0
ENDBLK
  5
150F
330
150D
100
AcDbEntity
  8
0
100
AcDbBlockEnd
  0
BLOCK
  5
151C
330
151B
100
AcDbEntity
  8
0
100
AcDbBlockBegin
  2
*D4
 70
     1
 10
0.0
 20
0.0
 30
0.0
  3
*D4
  1

  0
LINE
  5
1551
330
151B
100
AcDbEntity
  8
2
 62
     0
370
    -2
100
AcDbLine
 10
9.88568162895675
 20
-0.940394222883079
 30
0.0
 11
14.7649754799071
 21
-14.4370863218482
 31
0.0
  0
LINE
  5
1552
330
151B
100
AcDbEntity
  8
2
 62
     0
370
    -2
100
AcDbLine
 10
9.88567758100045
 20
0.940470585525041
 30
0.0
 11
14.7649133373316
 21
14.4371836865852
 31
0.0
  0
ARC
  5
1553
330
151B
100
AcDbEntity
  8
2
 62
     0
100
AcDbCircle
 10
-14.8343001365619
 20
3.74496218711329E-05
 30
0.0
 40
14.35159245861548
100
AcDbArc
 50
303.8837135592802
 51
56.11653306217918
  0
SOLID
  5
1554
330
151B
100
AcDbEntity
  8
2
 62
     0
100
AcDbTrace
 10
17.8105795849404
 20
-12.4345438103796
 30
0.0
 11
17.2831065099447
 21
-11.3939270383325
 31
0.0
 12
14.4249927313013
 22
-13.4966546493432
 32
0.0
 13
14.4249927313013
 23
-13.4966546493432
 33
0.0
  0
SOLID
  5
1555
330
151B
100
AcDbEntity
  8
2
 62
     0
100
AcDbTrace
 10
17.2830574661882
 20
11.3940352420313
 30
0.0
 11
17.8105260619935
 21
12.4346542845009
 31
0.0
 12
14.4249346366821
 22
13.496750550682
 32
0.0
 13
14.4249346366821
 23
13.496750550682
 33
0.0
  0
MTEXT
  5
1556
330
151B
100
AcDbEntity
  8
2
 62
     0
100
AcDbMText
 10
26.6472913388999
 20
8.51407201487575E-05
 30
0.0
 40
3.5
 41
0.0
 71
     5
 72
     1
  1
\A1;140\U+00B0
 11
0.0000027886934158
 21
-0.9999999999961117
 31
0.0
 73
     1
 44
1.0
1001
ACAD
1000
MTEXTBEGIN
1070
    73
1070
     1
1070
    44
1040
1.0
1070
    74
1070
     0
1000
MTEXTEND
  0
POINT
  5
1557
330
151B
100
AcDbEntity
  8
DEFPOINTS
 62
     0
100
AcDbPoint
 10
22.7194603895972
 20
-5.6938376627853
 30
0.0
  0
POINT
  5
1558
330
151B
100
AcDbEntity
  8
DEFPOINTS
 62
     0
100
AcDbPoint
 10
7.56124799999997
 20
5.48925849999999
 30
0.0
  0
POINT
  5
1559
330
151B
100
AcDbEntity
  8
DEFPOINTS
 62
     0
100
AcDbPoint
 10
7.56124799999998
 20
-5.48925750000002
 30
0.0
  0
POINT
  5
155A
330
151B
100
AcDbEntity
  8
DEFPOINTS
 62
     0
100
AcDbPoint
 10
7.96404999999998
 20
-4.37504550000002
 30
0.0
  0
POINT
  5
155B
330
151B
100
AcDbEntity
  8
DEFPOINTS
 62
     0
100
AcDbPoint
 10
7.96404999999998
 20
4.37506149999997
 30
0.0
  0
ENDBLK
  5
151D
330
151B
100
AcDbEntity
  8
0
100
AcDbBlockEnd
  0
ENDSEC
  0
SECTION
  2
ENTITIES
  0
LINE
  5
1444
330
19
100
AcDbEntity
  8
SK1
100
AcDbLine
 10
-4.85003700000005
 20
-1.19999650000001
 30
0.0
 11
-2.45004300000005
 21
-1.19999650000001
 31
0.0
  0
LINE
  5
1445
330
19
100
AcDbEntity
  8
SK1
100
AcDbLine
 10
-2.45004300000005
 20
1.19999749999998
 30
0.0
 11
-4.85003700000005
 21
1.19999749999998
 31
0.0
  0
LINE
  5
1446
330
19
100
AcDbEntity
  8
1
100
AcDbLine
 10
1.73580899999996
 20
2.19815049999998
 30
0.0
 11
1.73150599999991
 21
2.20002749999999
 31
0.0
  0
LINE
  5
1447
330
19
100
AcDbEntity
  8
1
100
AcDbLine
 10
1.73150599999991
 20
2.20002749999999
 30
0.0
 11
1.72717199999994
 21
2.20191949999999
 31
0.0
  0
LINE
  5
1448
330
19
100
AcDbEntity
  8
1
100
AcDbLine
 10
2.52545099999997
 20
1.8766485
 30
0.0
 11
2.47619599999996
 21
1.8953705
 31
0.0
  0
LINE
  5
1449
330
19
100
AcDbEntity
  8
1
100
AcDbLine
 10
2.47619599999996
 20
1.8953705
 30
0.0
 11
2.42724599999996
 21
1.91413949999999
 31
0.0
  0
LINE
  5
144A
330
19
100
AcDbEntity
  8
1
100
AcDbLine
 10
2.42724599999996
 20
1.91413949999999
 30
0.0
 11
2.37460299999998
 21
1.9344785
 31
0.0
  0
LINE
  5
144B
330
19
100
AcDbEntity
  8
1
100
AcDbLine
 10
2.37460299999998
 20
1.9344785
 30
0.0
 11
2.32244799999995
 21
1.95480350000001
 31
0.0
  0
LINE
  5
144C
330
19
100
AcDbEntity
  8
1
100
AcDbLine
 10
2.32244799999995
 20
1.95480350000001
 30
0.0
 11
2.28143299999993
 21
1.97090150000001
 31
0.0
  0
LINE
  5
144D
330
19
100
AcDbEntity
  8
1
100
AcDbLine
 10
2.28143299999993
 20
1.97090150000001
 30
0.0
 11
2.24108799999999
 21
1.98683150000001
 31
0.0
  0
LINE
  5
144E
330
19
100
AcDbEntity
  8
1
100
AcDbLine
 10
2.24108799999999
 20
1.98683150000001
 30
0.0
 11
2.21154699999994
 21
1.9985655
 31
0.0
  0
LINE
  5
144F
330
19
100
AcDbEntity
  8
1
100
AcDbLine
 10
2.21154699999994
 20
1.9985655
 30
0.0
 11
2.18304399999999
 21
2.0099335
 31
0.0
  0
LINE
  5
1450
330
19
100
AcDbEntity
  8
1
100
AcDbLine
 10
2.18304399999999
 20
2.0099335
 30
0.0
 11
2.15972899999997
 21
2.01928749999998
 31
0.0
  0
LINE
  5
1451
330
19
100
AcDbEntity
  8
1
100
AcDbLine
 10
2.15972899999997
 20
2.01928749999998
 30
0.0
 11
2.13717599999995
 21
2.02836649999999
 31
0.0
  0
LINE
  5
1452
330
19
100
AcDbEntity
  8
1
100
AcDbLine
 10
2.13717599999995
 20
2.02836649999999
 30
0.0
 11
2.10006699999997
 21
2.0434265
 31
0.0
  0
LINE
  5
1453
330
19
100
AcDbEntity
  8
1
100
AcDbLine
 10
2.10006699999997
 20
2.0434265
 30
0.0
 11
2.06356799999997
 21
2.05833450000002
 31
0.0
  0
LINE
  5
1454
330
19
100
AcDbEntity
  8
1
100
AcDbLine
 10
2.06356799999997
 20
2.05833450000002
 30
0.0
 11
2.01687599999997
 21
2.07760649999999
 31
0.0
  0
LINE
  5
1455
330
19
100
AcDbEntity
  8
1
100
AcDbLine
 10
2.01687599999997
 20
2.07760649999999
 30
0.0
 11
1.97076399999991
 21
2.09684749999998
 31
0.0
  0
LINE
  5
1456
330
19
100
AcDbEntity
  8
1
100
AcDbLine
 10
1.97076399999991
 20
2.09684749999998
 30
0.0
 11
1.91448899999994
 21
2.12062049999999
 31
0.0
  0
LINE
  5
1457
330
19
100
AcDbEntity
  8
1
100
AcDbLine
 10
1.91448899999994
 20
2.12062049999999
 30
0.0
 11
1.85864199999997
 21
2.14450050000001
 31
0.0
  0
LINE
  5
1458
330
19
100
AcDbEntity
  8
1
100
AcDbLine
 10
1.85864199999997
 20
2.14450050000001
 30
0.0
 11
1.74993899999993
 21
2.19191049999999
 31
0.0
  0
LINE
  5
1459
330
19
100
AcDbEntity
  8
1
100
AcDbLine
 10
6.99996899999996
 20
-2.40026849999999
 30
0.0
 11
6.99996899999996
 21
-1.31416250000002
 31
0.0
  0
LINE
  5
145A
330
19
100
AcDbEntity
  8
1
100
AcDbLine
 10
6.99996899999996
 20
-1.31416250000002
 30
0.0
 11
6.99996899999996
 21
-0.198241500000009
 31
0.0
  0
LINE
  5
145B
330
19
100
AcDbEntity
  8
1
100
AcDbLine
 10
6.99996899999996
 20
-2.40026849999999
 30
0.0
 11
8.44287099999996
 21
-0.556060500000012
 31
0.0
  0
LINE
  5
145C
330
19
100
AcDbEntity
  8
1
100
AcDbLine
 10
8.44287099999996
 20
-0.556060500000012
 30
0.0
 11
9.10226399999993
 21
0.19505349999999
 31
0.0
  0
LINE
  5
145D
330
19
100
AcDbEntity
  8
1
100
AcDbLine
 10
9.10226399999993
 20
0.19505349999999
 30
0.0
 11
9.40389999999996
 21
0.44512949999999
 31
0.0
  0
LINE
  5
145E
330
19
100
AcDbEntity
  8
1
100
AcDbLine
 10
9.40389999999996
 20
0.44512949999999
 30
0.0
 11
9.42663499999992
 21
0.455993499999991
 31
0.0
  0
LINE
  5
145F
330
19
100
AcDbEntity
  8
1
100
AcDbLine
 10
9.42663499999992
 20
0.455993499999991
 30
0.0
 11
9.28039499999994
 21
0.95329349999999
 31
0.0
  0
LINE
  5
1460
330
19
100
AcDbEntity
  8
1
100
AcDbLine
 10
9.28039499999994
 20
0.95329349999999
 30
0.0
 11
9.11996399999992
 21
1.45762649999999
 31
0.0
  0
LINE
  5
1461
330
19
100
AcDbEntity
  8
1
100
AcDbLine
 10
9.11996399999992
 20
1.45762649999999
 30
0.0
 11
8.97567699999996
 21
1.89341749999999
 31
0.0
  0
LINE
  5
1462
330
19
100
AcDbEntity
  8
1
100
AcDbLine
 10
8.97567699999996
 20
1.89341749999999
 30
0.0
 11
8.82833799999997
 21
2.32818649999998
 31
0.0
  0
LINE
  5
1463
330
19
100
AcDbEntity
  8
1
100
AcDbLine
 10
9.42663499999992
 20
-0.455993499999991
 30
0.0
 11
9.28039499999994
 21
-0.953292499999989
 31
0.0
  0
LINE
  5
1464
330
19
100
AcDbEntity
  8
1
100
AcDbLine
 10
9.28039499999994
 20
-0.953292499999989
 30
0.0
 11
9.11996399999992
 21
-1.45762650000002
 31
0.0
  0
LINE
  5
1465
330
19
100
AcDbEntity
  8
1
100
AcDbLine
 10
9.11996399999992
 20
-1.45762650000002
 30
0.0
 11
8.97567699999996
 21
-1.89341749999999
 31
0.0
  0
LINE
  5
1466
330
19
100
AcDbEntity
  8
1
100
AcDbLine
 10
8.97567699999996
 20
-1.89341749999999
 30
0.0
 11
8.82833799999997
 21
-2.3281855
 31
0.0
  0
LINE
  5
1467
330
19
100
AcDbEntity
  8
1
100
AcDbLine
 10
7.39855899999997
 20
-0.0131684999999919
 30
0.0
 11
7.50704899999994
 21
-0.125243499999989
 31
0.0
  0
LINE
  5
1468
330
19
100
AcDbEntity
  8
1
100
AcDbLine
 10
7.50704899999994
 20
-0.125243499999989
 30
0.0
 11
7.77978499999994
 21
-0.3023065
 31
0.0
  0
LINE
  5
1469
330
19
100
AcDbEntity
  8
1
100
AcDbLine
 10
7.77978499999994
 20
-0.3023065
 30
0.0
 11
8.05969199999998
 21
-0.339156500000019
 31
0.0
  0
LINE
  5
146A
330
19
100
AcDbEntity
  8
1
100
AcDbLine
 10
8.05969199999998
 20
-0.339156500000019
 30
0.0
 11
8.33392299999997
 21
-0.235473500000001
 31
0.0
  0
LINE
  5
146B
330
19
100
AcDbEntity
  8
1
100
AcDbLine
 10
8.33392299999997
 20
-0.235473500000001
 30
0.0
 11
8.59786999999994
 21
0.00317449999998942
 31
0.0
  0
LINE
  5
146C
330
19
100
AcDbEntity
  8
1
100
AcDbLine
 10
8.59786999999994
 20
0.00317449999998942
 30
0.0
 11
8.82742299999995
 21
0.364807500000001
 31
0.0
  0
LINE
  5
146D
330
19
100
AcDbEntity
  8
1
100
AcDbLine
 10
8.82742299999995
 20
0.364807500000001
 30
0.0
 11
8.98498499999993
 21
0.84465049999999
 31
0.0
  0
LINE
  5
146E
330
19
100
AcDbEntity
  8
1
100
AcDbLine
 10
8.98498499999993
 20
0.84465049999999
 30
0.0
 11
9.01541099999997
 21
1.3458255
 31
0.0
  0
LINE
  5
146F
330
19
100
AcDbEntity
  8
1
100
AcDbLine
 10
9.01541099999997
 20
1.3458255
 30
0.0
 11
8.94058199999995
 21
1.89364650000001
 31
0.0
  0
LINE
  5
1470
330
19
100
AcDbEntity
  8
1
100
AcDbLine
 10
8.94058199999995
 20
1.89364650000001
 30
0.0
 11
8.82833799999997
 21
2.32818649999998
 31
0.0
  0
LINE
  5
1471
330
19
100
AcDbEntity
  8
1
100
AcDbLine
 10
6.99032599999998
 20
-7.4498445
 30
0.0
 11
5.53674299999994
 21
-7.4149475
 31
0.0
  0
LINE
  5
1472
330
19
100
AcDbEntity
  8
1
100
AcDbLine
 10
5.53674299999994
 20
-7.4149475
 30
0.0
 11
4.07153299999993
 21
-7.31831350000003
 31
0.0
  0
LINE
  5
1473
330
19
100
AcDbEntity
  8
1
100
AcDbLine
 10
4.07153299999993
 20
-7.31831350000003
 30
0.0
 11
2.59954799999997
 21
-7.16012550000001
 31
0.0
  0
LINE
  5
1474
330
19
100
AcDbEntity
  8
1
100
AcDbLine
 10
2.59954799999997
 20
-7.16012550000001
 30
0.0
 11
1.12518299999994
 21
-6.94171150000001
 31
0.0
  0
LINE
  5
1475
330
19
100
AcDbEntity
  8
1
100
AcDbLine
 10
1.12518299999994
 20
-6.94171150000001
 30
0.0
 11
1.12518299999994
 21
-6.38127150000001
 31
0.0
  0
LINE
  5
1476
330
19
100
AcDbEntity
  8
1
100
AcDbLine
 10
1.12518299999994
 20
-6.38127150000001
 30
0.0
 11
1.12518299999994
 21
-5.63522350000001
 31
0.0
  0
LINE
  5
1477
330
19
100
AcDbEntity
  8
1
100
AcDbLine
 10
1.12518299999994
 20
-5.63522350000001
 30
0.0
 11
1.12518299999994
 21
-4.72523450000001
 31
0.0
  0
LINE
  5
1478
330
19
100
AcDbEntity
  8
1
100
AcDbLine
 10
1.12518299999994
 20
-4.72523450000001
 30
0.0
 11
1.12518299999994
 21
-3.67779549999999
 31
0.0
  0
LINE
  5
1479
330
19
100
AcDbEntity
  8
1
100
AcDbLine
 10
1.12518299999994
 20
-3.67779549999999
 30
0.0
 11
1.12518299999994
 21
-2.52336050000001
 31
0.0
  0
LINE
  5
147A
330
19
100
AcDbEntity
  8
1
100
AcDbLine
 10
1.12518299999994
 20
-2.52336050000001
 30
0.0
 11
1.12518299999994
 21
-1.29553250000002
 31
0.0
  0
LINE
  5
147B
330
19
100
AcDbEntity
  8
1
100
AcDbLine
 10
1.12518299999994
 20
-1.29553250000002
 30
0.0
 11
1.12518299999994
 21
-0.0299984999999907
 31
0.0
  0
LINE
  5
147C
330
19
100
AcDbEntity
  8
1
100
AcDbLine
 10
1.12518299999994
 20
-0.0299984999999907
 30
0.0
 11
1.12518299999994
 21
1.23638949999999
 31
0.0
  0
LINE
  5
147D
330
19
100
AcDbEntity
  8
1
100
AcDbLine
 10
1.12518299999994
 20
1.23638949999999
 30
0.0
 11
1.12518299999994
 21
2.46682750000001
 31
0.0
  0
LINE
  5
147E
330
19
100
AcDbEntity
  8
1
100
AcDbLine
 10
6.99032599999998
 20
-7.4498445
 30
0.0
 11
7.16247499999997
 21
-6.77854850000001
 31
0.0
  0
LINE
  5
147F
330
19
100
AcDbEntity
  8
1
100
AcDbLine
 10
7.16247499999997
 20
-6.77854850000001
 30
0.0
 11
7.39578199999994
 21
-5.99381949999999
 31
0.0
  0
LINE
  5
1480
330
19
100
AcDbEntity
  8
1
100
AcDbLine
 10
7.39578199999994
 20
-5.99381949999999
 30
0.0
 11
7.47717199999994
 21
-5.7413485
 31
0.0
  0
LINE
  5
1481
330
19
100
AcDbEntity
  8
1
100
AcDbLine
 10
7.47717199999994
 20
-5.7413485
 30
0.0
 11
7.56124799999997
 21
-5.48925750000002
 31
0.0
  0
LINE
  5
1482
330
19
100
AcDbEntity
  8
1
100
AcDbLine
 10
1.12518299999994
 20
-6.94171150000001
 30
0.0
 11
0.84963999999996
 21
-6.71743750000001
 31
0.0
  0
LINE
  5
1483
330
19
100
AcDbEntity
  8
1
100
AcDbLine
 10
0.84963999999996
 20
-6.71743750000001
 30
0.0
 11
0.570464999999951
 21
-6.49008150000002
 31
0.0
  0
LINE
  5
1484
330
19
100
AcDbEntity
  8
1
100
AcDbLine
 10
0.570464999999951
 20
-6.49008150000002
 30
0.0
 11
0.28701699999999
 21
-6.25965850000002
 31
0.0
  0
LINE
  5
1485
330
19
100
AcDbEntity
  8
1
100
AcDbLine
 10
0.28701699999999
 20
-6.25965850000002
 30
0.0
 11
0
 21
-6.02743550000001
 31
0.0
  0
LINE
  5
1486
330
19
100
AcDbEntity
  8
1
100
AcDbLine
 10
6.99032599999998
 20
-7.4498445
 30
0.0
 11
6.75424199999997
 21
-7.35366850000001
 31
0.0
  0
LINE
  5
1487
330
19
100
AcDbEntity
  8
1
100
AcDbLine
 10
6.75424199999997
 20
-7.35366850000001
 30
0.0
 11
6.58187799999996
 21
-7.08221450000001
 31
0.0
  0
LINE
  5
1488
330
19
100
AcDbEntity
  8
1
100
AcDbLine
 10
6.58187799999996
 20
-7.08221450000001
 30
0.0
 11
6.47729499999997
 21
-6.64196750000001
 31
0.0
  0
LINE
  5
1489
330
19
100
AcDbEntity
  8
1
100
AcDbLine
 10
6.47729499999997
 20
-6.64196750000001
 30
0.0
 11
6.44302299999998
 21
-6.04339549999999
 31
0.0
  0
LINE
  5
148A
330
19
100
AcDbEntity
  8
1
100
AcDbLine
 10
6.44302299999998
 20
-6.04339549999999
 30
0.0
 11
6.47988899999995
 21
-5.30079650000001
 31
0.0
  0
LINE
  5
148B
330
19
100
AcDbEntity
  8
1
100
AcDbLine
 10
6.47988899999995
 20
-5.30079650000001
 30
0.0
 11
6.58694399999996
 21
-4.43183850000001
 31
0.0
  0
LINE
  5
148C
330
19
100
AcDbEntity
  8
1
100
AcDbLine
 10
6.58694399999996
 20
-4.43183850000001
 30
0.0
 11
6.76171799999997
 21
-3.4572595
 31
0.0
  0
LINE
  5
148D
330
19
100
AcDbEntity
  8
1
100
AcDbLine
 10
6.76171799999997
 20
-3.4572595
 30
0.0
 11
6.99996899999996
 21
-2.40026849999999
 31
0.0
  0
LINE
  5
148E
330
19
100
AcDbEntity
  8
1
100
AcDbLine
 10
7.56124799999997
 20
-5.48925750000002
 30
0.0
 11
7.96404999999998
 21
-4.37504550000001
 31
0.0
  0
LINE
  5
148F
330
19
100
AcDbEntity
  8
1
100
AcDbLine
 10
7.96404999999998
 20
-4.37504550000001
 30
0.0
 11
8.40438799999998
 21
-3.2847445
 31
0.0
  0
LINE
  5
1490
330
19
100
AcDbEntity
  8
1
100
AcDbLine
 10
8.40438799999998
 20
-3.2847445
 30
0.0
 11
8.72372399999994
 21
-2.55671650000001
 31
0.0
  0
LINE
  5
1491
330
19
100
AcDbEntity
  8
1
100
AcDbLine
 10
8.72372399999994
 20
-2.55671650000001
 30
0.0
 11
8.82833799999997
 21
-2.3281855
 31
0.0
  0
LINE
  5
1492
330
19
100
AcDbEntity
  8
SK1
100
AcDbLine
 10
0
 20
-3.13282750000001
 30
0.0
 11
-0.0113830000000288
 21
-3.08326749999999
 31
0.0
  0
LINE
  5
1493
330
19
100
AcDbEntity
  8
SK1
100
AcDbLine
 10
-0.0113830000000288
 20
-3.08326749999999
 30
0.0
 11
-0.0451050000000404
 21
-3.03651450000002
 31
0.0
  0
LINE
  5
1494
330
19
100
AcDbEntity
  8
SK1
100
AcDbLine
 10
-0.0451050000000404
 20
-3.03651450000002
 30
0.0
 11
-0.0953680000000698
 21
-3.00009150000001
 31
0.0
  0
LINE
  5
1495
330
19
100
AcDbEntity
  8
SK1
100
AcDbLine
 10
-0.0953680000000698
 20
-3.00009150000001
 30
0.0
 11
-0.153809000000079
 21
-2.97726450000003
 31
0.0
  0
LINE
  5
1496
330
19
100
AcDbEntity
  8
SK1
100
AcDbLine
 10
-0.153809000000079
 20
-2.97726450000003
 30
0.0
 11
-0.21487500000001
 21
-2.96792549999999
 31
0.0
  0
LINE
  5
1497
330
19
100
AcDbEntity
  8
SK1
100
AcDbLine
 10
-0.21487500000001
 20
-2.96792549999999
 30
0.0
 11
-0.27517700000004
 21
-2.9719845
 31
0.0
  0
LINE
  5
1498
330
19
100
AcDbEntity
  8
SK1
100
AcDbLine
 10
-0.27517700000004
 20
-2.9719845
 30
0.0
 11
-0.33071900000005
 21
-2.9903565
 31
0.0
  0
LINE
  5
1499
330
19
100
AcDbEntity
  8
SK1
100
AcDbLine
 10
-0.33071900000005
 20
-2.9903565
 30
0.0
 11
-0.341431
 21
-2.9962915
 31
0.0
  0
LINE
  5
149A
330
19
100
AcDbEntity
  8
SK1
100
AcDbLine
 10
-0.341431
 20
-2.9962915
 30
0.0
 11
-0.43686000000003
 21
-3.0536805
 31
0.0
  0
LINE
  5
149B
330
19
100
AcDbEntity
  8
SK1
100
AcDbLine
 10
-0.43686000000003
 20
-3.0536805
 30
0.0
 11
-0.48480300000006
 21
-3.08241250000002
 31
0.0
  0
LINE
  5
149C
330
19
100
AcDbEntity
  8
SK1
100
AcDbLine
 10
-0.48480300000006
 20
-3.08241250000002
 30
0.0
 11
-0.532837000000029
 21
-3.11117550000002
 31
0.0
  0
LINE
  5
149D
330
19
100
AcDbEntity
  8
SK1
100
AcDbLine
 10
-0.532837000000029
 20
-3.11117550000002
 30
0.0
 11
-1.49133300000006
 21
-2.9979095
 31
0.0
  0
LINE
  5
149E
330
19
100
AcDbEntity
  8
SK1
100
AcDbLine
 10
-1.49133300000006
 20
-2.9979095
 30
0.0
 11
-1.97064200000006
 21
-2.93733150000001
 31
0.0
  0
LINE
  5
149F
330
19
100
AcDbEntity
  8
SK1
100
AcDbLine
 10
-1.97064200000006
 20
-2.93733150000001
 30
0.0
 11
-2.45004300000005
 21
-2.8742065
 31
0.0
  0
LINE
  5
14A0
330
19
100
AcDbEntity
  8
1
100
AcDbLine
 10
1.12518299999994
 20
2.46682750000001
 30
0.0
 11
2.58770699999996
 21
1.8182225
 31
0.0
  0
LINE
  5
14A1
330
19
100
AcDbEntity
  8
1
100
AcDbLine
 10
2.58770699999996
 20
1.8182225
 30
0.0
 11
4.05309999999997
 21
1.1551975
 31
0.0
  0
LINE
  5
14A2
330
19
100
AcDbEntity
  8
1
100
AcDbLine
 10
4.05309999999997
 20
1.1551975
 30
0.0
 11
5.52542099999999
 21
0.480896499999989
 31
0.0
  0
LINE
  5
14A3
330
19
100
AcDbEntity
  8
1
100
AcDbLine
 10
5.52542099999999
 20
0.480896499999989
 30
0.0
 11
6.99996899999996
 21
-0.198241500000009
 31
0.0
  0
LINE
  5
14A4
330
19
100
AcDbEntity
  8
1
100
AcDbLine
 10
6.99996899999996
 20
-0.198241500000009
 30
0.0
 11
7.39855899999997
 21
-0.0131684999999919
 31
0.0
  0
LINE
  5
14A5
330
19
100
AcDbEntity
  8
1
100
AcDbLine
 10
9.42663499999992
 20
0.455993499999991
 30
0.0
 11
9.42663499999992
 21
-0.455993499999991
 31
0.0
  0
LINE
  5
14A6
330
19
100
AcDbEntity
  8
1
100
AcDbLine
 10
6.99032599999998
 20
7.4498445
 30
0.0
 11
7.16247499999997
 21
6.77854949999998
 31
0.0
  0
LINE
  5
14A7
330
19
100
AcDbEntity
  8
1
100
AcDbLine
 10
7.16247499999997
 20
6.77854949999998
 30
0.0
 11
7.39578199999994
 21
5.99382049999998
 31
0.0
  0
LINE
  5
14A8
330
19
100
AcDbEntity
  8
1
100
AcDbLine
 10
7.39578199999994
 20
5.99382049999998
 30
0.0
 11
7.47717199999994
 21
5.7413485
 31
0.0
  0
LINE
  5
14A9
330
19
100
AcDbEntity
  8
1
100
AcDbLine
 10
7.47717199999994
 20
5.7413485
 30
0.0
 11
7.56124799999997
 21
5.48925849999999
 31
0.0
  0
LINE
  5
14AA
330
19
100
AcDbEntity
  8
1
100
AcDbLine
 10
6.99032599999998
 20
7.4498445
 30
0.0
 11
5.53674299999994
 21
7.4149475
 31
0.0
  0
LINE
  5
14AB
330
19
100
AcDbEntity
  8
1
100
AcDbLine
 10
5.53674299999994
 20
7.4149475
 30
0.0
 11
4.07153299999993
 21
7.31831349999997
 31
0.0
  0
LINE
  5
14AC
330
19
100
AcDbEntity
  8
1
100
AcDbLine
 10
4.07153299999993
 20
7.31831349999997
 30
0.0
 11
2.59954799999997
 21
7.16012550000001
 31
0.0
  0
LINE
  5
14AD
330
19
100
AcDbEntity
  8
1
100
AcDbLine
 10
2.59954799999997
 20
7.16012550000001
 30
0.0
 11
1.12518299999994
 21
6.94169649999999
 31
0.0
  0
LINE
  5
14AE
330
19
100
AcDbEntity
  8
1
100
AcDbLine
 10
7.56124799999997
 20
5.48925849999999
 30
0.0
 11
7.96404999999998
 21
4.37506149999997
 31
0.0
  0
LINE
  5
14AF
330
19
100
AcDbEntity
  8
1
100
AcDbLine
 10
7.96404999999998
 20
4.37506149999997
 30
0.0
 11
8.40438799999998
 21
3.28474450000001
 31
0.0
  0
LINE
  5
14B0
330
19
100
AcDbEntity
  8
1
100
AcDbLine
 10
8.40438799999998
 20
3.28474450000001
 30
0.0
 11
8.72372399999994
 21
2.55671749999998
 31
0.0
  0
LINE
  5
14B1
330
19
100
AcDbEntity
  8
1
100
AcDbLine
 10
8.72372399999994
 20
2.55671749999998
 30
0.0
 11
8.82833799999997
 21
2.32818649999998
 31
0.0
  0
LINE
  5
14B2
330
19
100
AcDbEntity
  8
1
100
AcDbLine
 10
0
 20
6.02743549999998
 30
0.0
 11
0
 21
5.6981665
 31
0.0
  0
LINE
  5
14B3
330
19
100
AcDbEntity
  8
1
100
AcDbLine
 10
0
 20
5.6981665
 30
0.0
 11
0
 21
5.37194849999999
 31
0.0
  0
LINE
  5
14B4
330
19
100
AcDbEntity
  8
1
100
AcDbLine
 10
0
 20
5.37194849999999
 30
0.0
 11
0
 21
5.0520475
 31
0.0
  0
LINE
  5
14B5
330
19
100
AcDbEntity
  8
1
100
AcDbLine
 10
0
 20
5.0520475
 30
0.0
 11
0
 21
4.73854049999999
 31
0.0
  0
LINE
  5
14B6
330
19
100
AcDbEntity
  8
1
100
AcDbLine
 10
0
 20
4.73854049999999
 30
0.0
 11
0
 21
4.35667449999998
 31
0.0
  0
LINE
  5
14B7
330
19
100
AcDbEntity
  8
1
100
AcDbLine
 10
0
 20
4.35667449999998
 30
0.0
 11
0
 21
3.98970049999998
 31
0.0
  0
LINE
  5
14B8
330
19
100
AcDbEntity
  8
1
100
AcDbLine
 10
0
 20
3.98970049999998
 30
0.0
 11
0
 21
3.63508649999999
 31
0.0
  0
LINE
  5
14B9
330
19
100
AcDbEntity
  8
1
100
AcDbLine
 10
0
 20
3.63508649999999
 30
0.0
 11
0
 21
3.30128449999999
 31
0.0
  0
LINE
  5
14BA
330
19
100
AcDbEntity
  8
1
100
AcDbLine
 10
0
 20
3.30128449999999
 30
0.0
 11
0
 21
3.13282750000001
 31
0.0
  0
LINE
  5
14BB
330
19
100
AcDbEntity
  8
SK1
100
AcDbLine
 10
-0.341431
 20
2.9962925
 30
0.0
 11
-0.43686000000003
 21
3.05366549999998
 31
0.0
  0
LINE
  5
14BC
330
19
100
AcDbEntity
  8
SK1
100
AcDbLine
 10
-0.43686000000003
 20
3.05366549999998
 30
0.0
 11
-0.48480300000006
 21
3.08241249999999
 31
0.0
  0
LINE
  5
14BD
330
19
100
AcDbEntity
  8
SK1
100
AcDbLine
 10
-0.48480300000006
 20
3.08241249999999
 30
0.0
 11
-0.532837000000029
 21
3.11117549999999
 31
0.0
  0
LINE
  5
14BE
330
19
100
AcDbEntity
  8
SK1
100
AcDbLine
 10
-0.532837000000029
 20
3.11117549999999
 30
0.0
 11
-1.49133300000006
 21
2.99790950000001
 31
0.0
  0
LINE
  5
14BF
330
19
100
AcDbEntity
  8
SK1
100
AcDbLine
 10
-1.49133300000006
 20
2.99790950000001
 30
0.0
 11
-1.97064200000006
 21
2.93733250000001
 31
0.0
  0
LINE
  5
14C0
330
19
100
AcDbEntity
  8
SK1
100
AcDbLine
 10
-1.97064200000006
 20
2.93733250000001
 30
0.0
 11
-2.45004300000005
 21
2.8742065
 31
0.0
  0
LINE
  5
14C3
330
19
100
AcDbEntity
  8
SK1
100
AcDbLine
 10
-0.532837000000029
 20
1.7297215
 30
0.0
 11
-0.437073
 21
1.69183350000002
 31
0.0
  0
LINE
  5
14C4
330
19
100
AcDbEntity
  8
SK1
100
AcDbLine
 10
-0.437073
 20
1.69183350000002
 30
0.0
 11
-0.38922200000002
 21
1.6739655
 31
0.0
  0
LINE
  5
14C5
330
19
100
AcDbEntity
  8
SK1
100
AcDbLine
 10
-0.38922200000002
 20
1.6739655
 30
0.0
 11
-0.341431
 21
1.6568305
 31
0.0
  0
LINE
  5
14C6
330
19
100
AcDbEntity
  8
1
100
AcDbLine
 10
1.12518299999994
 20
6.94169649999999
 30
0.0
 11
0.84963999999996
 21
6.71743749999998
 31
0.0
  0
LINE
  5
14C7
330
19
100
AcDbEntity
  8
1
100
AcDbLine
 10
0.84963999999996
 20
6.71743749999998
 30
0.0
 11
0.570464999999951
 21
6.4900665
 31
0.0
  0
LINE
  5
14C8
330
19
100
AcDbEntity
  8
1
100
AcDbLine
 10
0.570464999999951
 20
6.4900665
 30
0.0
 11
0.28701699999999
 21
6.25965950000001
 31
0.0
  0
LINE
  5
14C9
330
19
100
AcDbEntity
  8
1
100
AcDbLine
 10
0.28701699999999
 20
6.25965950000001
 30
0.0
 11
0
 21
6.02743549999998
 31
0.0
  0
LINE
  5
14CA
330
19
100
AcDbEntity
  8
1
100
AcDbLine
 10
2.52535999999992
 20
1.87620550000001
 30
0.0
 11
3.55819699999995
 21
1.48213249999999
 31
0.0
  0
LINE
  5
14CB
330
19
100
AcDbEntity
  8
1
100
AcDbLine
 10
3.55819699999995
 20
1.48213249999999
 30
0.0
 11
4.71642999999994
 21
1.03437849999999
 31
0.0
  0
LINE
  5
14CC
330
19
100
AcDbEntity
  8
1
100
AcDbLine
 10
4.71642999999994
 20
1.03437849999999
 30
0.0
 11
5.87625099999997
 21
0.582687499999981
 31
0.0
  0
LINE
  5
14CD
330
19
100
AcDbEntity
  8
1
100
AcDbLine
 10
5.87625099999997
 20
0.582687499999981
 30
0.0
 11
7.39855899999997
 21
-0.0131684999999919
 31
0.0
  0
LINE
  5
14CE
330
19
100
AcDbEntity
  8
SK1
100
AcDbLine
 10
-0.341431
 20
1.6568305
 30
0.0
 11
-0.29101600000002
 21
1.64161749999998
 31
0.0
  0
LINE
  5
14CF
330
19
100
AcDbEntity
  8
SK1
100
AcDbLine
 10
-0.29101600000002
 20
1.64161749999998
 30
0.0
 11
-0.231903000000049
 21
1.62774649999999
 31
0.0
  0
LINE
  5
14D0
330
19
100
AcDbEntity
  8
SK1
100
AcDbLine
 10
-0.231903000000049
 20
1.62774649999999
 30
0.0
 11
-0.17083800000006
 21
1.61633350000001
 31
0.0
  0
LINE
  5
14D1
330
19
100
AcDbEntity
  8
SK1
100
AcDbLine
 10
-0.17083800000006
 20
1.61633350000001
 30
0.0
 11
-0.11123700000002
 21
1.60778849999999
 31
0.0
  0
LINE
  5
14D2
330
19
100
AcDbEntity
  8
SK1
100
AcDbLine
 10
-0.11123700000002
 20
1.60778849999999
 30
0.0
 11
-0.0576180000000495
 21
1.60314949999999
 31
0.0
  0
LINE
  5
14D3
330
19
100
AcDbEntity
  8
SK1
100
AcDbLine
 10
-0.0576180000000495
 20
1.60314949999999
 30
0.0
 11
-0.0175780000000696
 21
1.6040805
 31
0.0
  0
LINE
  5
14D4
330
19
100
AcDbEntity
  8
SK1
100
AcDbLine
 10
-0.0175780000000696
 20
1.6040805
 30
0.0
 11
-0.000245000000068885
 21
1.61207649999999
 31
0.0
  0
LINE
  5
14D5
330
19
100
AcDbEntity
  8
SK1
100
AcDbLine
 10
-0.000245000000068885
 20
1.61207649999999
 30
0.0
 11
0
 21
1.61366249999999
 31
0.0
  0
LINE
  5
14D6
330
19
100
AcDbEntity
  8
1
100
AcDbLine
 10
0
 20
-6.02743550000001
 30
0.0
 11
0
 21
-5.32173150000002
 31
0.0
  0
LINE
  5
14D7
330
19
100
AcDbEntity
  8
1
100
AcDbLine
 10
0
 20
-5.32173150000002
 30
0.0
 11
0
 21
-4.42320250000002
 31
0.0
  0
LINE
  5
14D8
330
19
100
AcDbEntity
  8
1
100
AcDbLine
 10
0
 20
-4.42320250000002
 30
0.0
 11
0
 21
-3.3643795
 31
0.0
  0
LINE
  5
14D9
330
19
100
AcDbEntity
  8
1
100
AcDbLine
 10
0
 20
-3.3643795
 30
0.0
 11
0
 21
-2.18366949999999
 31
0.0
  0
LINE
  5
14DA
330
19
100
AcDbEntity
  8
1
100
AcDbLine
 10
0
 20
-2.18366949999999
 30
0.0
 11
0
 21
-0.92384349999999
 31
0.0
  0
LINE
  5
14DB
330
19
100
AcDbEntity
  8
1
100
AcDbLine
 10
0
 20
-0.92384349999999
 30
0.0
 11
0
 21
0.369461499999989
 31
0.0
  0
LINE
  5
14DC
330
19
100
AcDbEntity
  8
1
100
AcDbLine
 10
0
 20
0.369461499999989
 30
0.0
 11
0
 21
1.64938350000001
 31
0.0
  0
LINE
  5
14DD
330
19
100
AcDbEntity
  8
1
100
AcDbLine
 10
0
 20
1.64938350000001
 30
0.0
 11
0
 21
2.86953749999999
 31
0.0
  0
LINE
  5
14DE
330
19
100
AcDbEntity
  8
SK1
100
AcDbLine
 10
-0.532837000000029
 20
-3.11117550000002
 30
0.0
 11
-0.532837000000029
 21
-2.54743950000001
 31
0.0
  0
LINE
  5
14DF
330
19
100
AcDbEntity
  8
SK1
100
AcDbLine
 10
-0.532837000000029
 20
-2.54743950000001
 30
0.0
 11
-0.532837000000029
 21
-1.81576549999998
 31
0.0
  0
LINE
  5
14E0
330
19
100
AcDbEntity
  8
SK1
100
AcDbLine
 10
-0.532837000000029
 20
-1.81576549999998
 30
0.0
 11
-0.532837000000029
 21
-0.964385499999999
 31
0.0
  0
LINE
  5
14E1
330
19
100
AcDbEntity
  8
SK1
100
AcDbLine
 10
-0.532837000000029
 20
-0.964385499999999
 30
0.0
 11
-0.532837000000029
 21
-0.0494385000000186
 31
0.0
  0
LINE
  5
14E2
330
19
100
AcDbEntity
  8
SK1
100
AcDbLine
 10
-0.532837000000029
 20
-0.0494385000000186
 30
0.0
 11
-0.532837000000029
 21
0.868789499999981
 31
0.0
  0
LINE
  5
14E3
330
19
100
AcDbEntity
  8
SK1
100
AcDbLine
 10
-0.532837000000029
 20
0.868789499999981
 30
0.0
 11
-0.532837000000029
 21
1.7297215
 31
0.0
  0
LINE
  5
14EA
330
19
100
AcDbEntity
  8
SK1
100
AcDbLine
 10
-0.341431
 20
-2.9962915
 30
0.0
 11
-0.341431
 21
-2.4694515
 31
0.0
  0
LINE
  5
14EB
330
19
100
AcDbEntity
  8
SK1
100
AcDbLine
 10
-0.341431
 20
-2.4694515
 30
0.0
 11
-0.341431
 21
-1.77203350000001
 31
0.0
  0
LINE
  5
14EC
330
19
100
AcDbEntity
  8
SK1
100
AcDbLine
 10
-0.341431
 20
-1.77203350000001
 30
0.0
 11
-0.341431
 21
-0.95222450000001
 31
0.0
  0
LINE
  5
14ED
330
19
100
AcDbEntity
  8
SK1
100
AcDbLine
 10
-0.341431
 20
-0.95222450000001
 30
0.0
 11
-0.341431
 21
-0.0666504999999908
 31
0.0
  0
LINE
  5
14EE
330
19
100
AcDbEntity
  8
SK1
100
AcDbLine
 10
-0.341431
 20
-0.0666504999999908
 30
0.0
 11
-0.341431
 21
0.82353250000001
 31
0.0
  0
LINE
  5
14EF
330
19
100
AcDbEntity
  8
SK1
100
AcDbLine
 10
-0.341431
 20
0.82353250000001
 30
0.0
 11
-0.341431
 21
1.6568305
 31
0.0
  0
LINE
  5
14F0
330
19
100
AcDbEntity
  8
SK1
100
AcDbLine
 10
0
 20
3.13282750000001
 30
0.0
 11
-0.0113830000000288
 21
3.08326749999999
 31
0.0
  0
LINE
  5
14F1
330
19
100
AcDbEntity
  8
SK1
100
AcDbLine
 10
-0.0113830000000288
 20
3.08326749999999
 30
0.0
 11
-0.0451050000000404
 21
3.03649950000001
 31
0.0
  0
LINE
  5
14F2
330
19
100
AcDbEntity
  8
SK1
100
AcDbLine
 10
-0.0451050000000404
 20
3.03649950000001
 30
0.0
 11
-0.0953680000000698
 21
3.00009149999998
 31
0.0
  0
LINE
  5
14F3
330
19
100
AcDbEntity
  8
SK1
100
AcDbLine
 10
-0.0953680000000698
 20
3.00009149999998
 30
0.0
 11
-0.153809000000079
 21
2.97726449999998
 31
0.0
  0
LINE
  5
14F4
330
19
100
AcDbEntity
  8
SK1
100
AcDbLine
 10
-0.153809000000079
 20
2.97726449999998
 30
0.0
 11
-0.21487500000001
 21
2.96792649999999
 31
0.0
  0
LINE
  5
14F5
330
19
100
AcDbEntity
  8
SK1
100
AcDbLine
 10
-0.21487500000001
 20
2.96792649999999
 30
0.0
 11
-0.27517700000004
 21
2.97198549999998
 31
0.0
  0
LINE
  5
14F6
330
19
100
AcDbEntity
  8
SK1
100
AcDbLine
 10
-0.27517700000004
 20
2.97198549999998
 30
0.0
 11
-0.33071900000005
 21
2.9903715
 31
0.0
  0
LINE
  5
14F7
330
19
100
AcDbEntity
  8
SK1
100
AcDbLine
 10
-0.33071900000005
 20
2.9903715
 30
0.0
 11
-0.341431
 21
2.9962925
 31
0.0
  0
LINE
  5
14F8
330
19
100
AcDbEntity
  8
1
100
AcDbLine
 10
0
 20
2.86953749999999
 30
0.0
 11
0.564147999999991
 21
2.68360950000001
 31
0.0
  0
LINE
  5
14F9
330
19
100
AcDbEntity
  8
1
100
AcDbLine
 10
0.564147999999991
 20
2.68360950000001
 30
0.0
 11
1.12518299999994
 21
2.46682750000001
 31
0.0
  0
LINE
  5
14FA
330
19
100
AcDbEntity
  8
SK1
100
AcDbLine
 10
-2.45004300000005
 20
2.09858749999999
 30
0.0
 11
-1.49145500000003
 21
1.91792349999999
 31
0.0
  0
LINE
  5
14FB
330
19
100
AcDbEntity
  8
SK1
100
AcDbLine
 10
-1.49145500000003
 20
1.91792349999999
 30
0.0
 11
-1.01214600000003
 21
1.8247075
 31
0.0
  0
LINE
  5
14FC
330
19
100
AcDbEntity
  8
SK1
100
AcDbLine
 10
-1.01214600000003
 20
1.8247075
 30
0.0
 11
-0.532837000000029
 21
1.7297215
 31
0.0
  0
LINE
  5
1505
330
19
100
AcDbEntity
  8
SK1
100
AcDbLine
 10
-4.85003700000005
 20
1.19999749999998
 30
0.0
 11
-4.85003700000005
 21
-1.19999650000001
 31
0.0
  0
LINE
  5
1506
330
19
100
AcDbEntity
  8
SK1
100
AcDbLine
 10
-2.45004300000005
 20
2.8742065
 30
0.0
 11
-2.45004300000005
 21
-2.8742065
 31
0.0
  0
LINE
  5
1508
330
19
100
AcDbEntity
  8
4
100
AcDbLine
 10
0
 20
0
 30
0.0
 11
11.2373171759885
 21
0
 31
0.0
  0
LINE
  5
1509
330
19
100
AcDbEntity
  8
SK4
100
AcDbLine
 10
11.2373171759885
 20
0
 30
0.0
 11
-6.52598627954899
 21
0
 31
0.0
  0
DIMENSION
  5
150C
330
19
100
AcDbEntity
  8
2
100
AcDbDimension
  2
*D3
 10
13.475546858027
 20
7.4498445
 30
0.0
 11
13.475546858027
 21
28.2318038204862
 31
0.0
 70
   160
  1
%%C<>k7
 71
     5
 42
14.89968899999999
  3
V-TYGEN_-160
100
AcDbAlignedDimension
 13
6.99032599999998
 23
-7.4498445
 33
0.0
 14
6.99032599999998
 24
7.4498445
 34
0.0
 50
90.0
100
AcDbRotatedDimension
1001
ACAD
1000
DSTYLE
1002
{
1070
   271
1070
     2
1002
}
  0
DIMENSION
  5
151A
330
19
100
AcDbEntity
  8
2
100
AcDbDimension
  2
*D4
 10
7.96404999999998
 20
4.37506149999997
 30
0.0
 11
23.8972913389106
 21
7.74718132596774E-05
 31
0.0
 70
   162
 71
     5
 42
2.447799851259439
  3
V-TYGEN_-160
100
AcDb2LineAngularDimension
 13
7.56124799999997
 23
-5.48925750000002
 33
0.0
 14
7.96404999999998
 24
-4.37504550000001
 34
0.0
 15
7.56124799999997
 25
5.48925849999999
 35
0.0
 16
22.7194603895972
 26
-5.6938376627853
 36
0.0
  0
MTEXT
  5
155E
330
19
100
AcDbEntity
  8
SK6
100
AcDbMText
 10
-4.85003700000005
 20
-17.5107379212667
 30
0.0
 40
3.5
 41
40.25107659098881
 71
     1
 72
     5
  1
{\fMonospac821 BT|b0|i0|c0|p49;SD400-14.90-M\P02826231}
  7
SIMPLEX
 73
     1
 44
1.0
1001
ACAD
1000
ACAD_MTEXT_COLUMN_INFO_BEGIN
1070
    75
1070
     2
1070
    79
1070
     0
1070
    76
1070
     1
1070
    78
1070
     0
1070
    48
1040
40.25107659098881
1070
    49
1040
17.5
1070
    50
1070
     1
1040
0.0
1000
ACAD_MTEXT_COLUMN_INFO_END
1000
MTEXTBEGIN
1070
    73
1070
     1
1070
    44
1040
1.0
1070
    74
1070
     0
1000
MTEXTEND
  0
ENDSEC
  0
SECTION
  2
OBJECTS
  0
DICTIONARY
  5
C
330
0
100
AcDbDictionary
281
     1
  3
ACAD_COLOR
350
12BC
  3
ACAD_GROUP
350
D
  3
ACAD_LAYOUT
350
A85
  3
ACAD_MATERIAL
350
128A
  3
ACAD_MLEADERSTYLE
350
12D2
  3
ACAD_MLINESTYLE
350
E
  3
ACAD_PLOTSETTINGS
350
A86
  3
ACAD_PLOTSTYLENAME
350
E93
  3
ACAD_SCALELIST
350
12BF
  3
ACAD_TABLESTYLE
350
12BD
  3
ACAD_VISUALSTYLE
350
12A3
  3
ACDB_RECOMPOSE_DATA
350
1601
  3
AcDbVariableDictionary
350
157D
  3
DWGPROPS
350
1602
  0
DICTIONARY
  5
155F
330
F
100
AcDbDictionary
280
     1
281
     1
  3
ADSK_XREC_LAYER_RECONCILED
360
1560
  0
DICTIONARY
  5
1561
330
1E
100
AcDbDictionary
280
     1
281
     1
  3
ADSK_XREC_LAYER_RECONCILED
360
1562
  0
DICTIONARY
  5
1563
330
22
100
AcDbDictionary
280
     1
281
     1
  3
ADSK_XREC_LAYER_RECONCILED
360
1564
  0
DICTIONARY
  5
1565
330
23
100
AcDbDictionary
280
     1
281
     1
  3
ADSK_XREC_LAYER_RECONCILED
360
1566
  0
DICTIONARY
  5
1567
330
24
100
AcDbDictionary
280
     1
281
     1
  3
ADSK_XREC_LAYER_RECONCILED
360
1568
  0
DICTIONARY
  5
1569
330
25
100
AcDbDictionary
280
     1
281
     1
  3
ADSK_XREC_LAYER_RECONCILED
360
156A
  0
DICTIONARY
  5
156B
330
26
100
AcDbDictionary
280
     1
281
     1
  3
ADSK_XREC_LAYER_RECONCILED
360
156C
  0
DICTIONARY
  5
156D
330
27
100
AcDbDictionary
280
     1
281
     1
  3
ADSK_XREC_LAYER_RECONCILED
360
156E
  0
DICTIONARY
  5
156F
330
28
100
AcDbDictionary
280
     1
281
     1
  3
ADSK_XREC_LAYER_RECONCILED
360
1570
  0
DICTIONARY
  5
1571
330
29
100
AcDbDictionary
280
     1
281
     1
  3
ADSK_XREC_LAYER_RECONCILED
360
1572
  0
DICTIONARY
  5
1573
330
2A
100
AcDbDictionary
280
     1
281
     1
  3
ADSK_XREC_LAYER_RECONCILED
360
1574
  0
DICTIONARY
  5
1575
330
2B
100
AcDbDictionary
280
     1
281
     1
  3
ADSK_XREC_LAYER_RECONCILED
360
1576
  0
DICTIONARY
  5
1577
330
2C
100
AcDbDictionary
280
     1
281
     1
  3
ADSK_XREC_LAYER_RECONCILED
360
1578
  0
DICTIONARY
  5
1579
330
2D
100
AcDbDictionary
280
     1
281
     1
  3
ADSK_XREC_LAYER_RECONCILED
360
157A
  0
DICTIONARY
  5
157B
330
C07
100
AcDbDictionary
280
     1
281
     1
  3
ADSK_XREC_LAYER_RECONCILED
360
157C
  0
DICTIONARY
  5
E8D
330
19
100
AcDbDictionary
280
     1
281
     1
  0
DICTIONARY
  5
E8B
330
16
100
AcDbDictionary
280
     1
281
     1
  0
DICTIONARY
  5
12BC
102
{ACAD_REACTORS
330
C
102
}
330
C
100
AcDbDictionary
281
     1
  0
DICTIONARY
  5
D
102
{ACAD_REACTORS
330
C
102
}
330
C
100
AcDbDictionary
281
     1
  0
DICTIONARY
  5
A85
102
{ACAD_REACTORS
330
C
102
}
330
C
100
AcDbDictionary
281
     1
  3
Layout1
350
E96
  3
Model
350
E95
  0
DICTIONARY
  5
128A
102
{ACAD_REACTORS
330
C
102
}
330
C
100
AcDbDictionary
281
     1
  3
ByBlock
350
1293
  3
ByLayer
350
128B
  3
Global
350
129B
  0
DICTIONARY
  5
12D2
102
{ACAD_REACTORS
330
C
102
}
330
C
100
AcDbDictionary
281
     1
  3
Standard
350
12D3
  0
DICTIONARY
  5
E
102
{ACAD_REACTORS
330
C
102
}
330
C
100
AcDbDictionary
281
     1
  3
STANDARD
350
1C
  0
DICTIONARY
  5
A86
102
{ACAD_REACTORS
330
C
102
}
330
C
100
AcDbDictionary
281
     1
  0
ACDBDICTIONARYWDFLT
  5
E93
102
{ACAD_REACTORS
330
C
102
}
330
C
100
AcDbDictionary
281
     1
  3
Normal
350
E94
100
AcDbDictionaryWithDefault
340
E94
  0
DICTIONARY
  5
12BF
102
{ACAD_REACTORS
330
C
102
}
330
C
100
AcDbDictionary
281
     1
  3
A0
350
12C0
  3
A1
350
12C1
  3
A2
350
12C2
  3
A3
350
12C3
  3
A4
350
12C4
  3
A5
350
12C5
  3
A6
350
12C6
  3
A7
350
12C7
  3
A8
350
12C8
  3
A9
350
12C9
  3
B0
350
12CA
  3
B1
350
12CB
  3
B2
350
12CC
  3
B3
350
12CD
  3
B4
350
12CE
  3
B5
350
12CF
  3
B6
350
12D0
  3
B7
350
12D1
  0
DICTIONARY
  5
12BD
102
{ACAD_REACTORS
330
C
102
}
330
C
100
AcDbDictionary
281
     1
  3
Standard
350
12BE
  0
DICTIONARY
  5
12A3
102
{ACAD_REACTORS
330
C
102
}
330
C
100
AcDbDictionary
281
     1
  3
2dWireframe
350
12A9
  3
Basic
350
12A8
  3
Brighten
350
12AF
  3
ColorChange
350
12B3
  3
Conceptual
350
12AC
  3
Dim
350
12AE
  3
EdgeColorOff
350
12BB
  3
Facepattern
350
12B2
  3
Flat
350
12A4
  3
FlatWithEdges
350
12A5
  3
Gouraud
350
12A6
  3
GouraudWithEdges
350
12A7
  3
Hidden
350
12AB
  3
JitterOff
350
12B9
  3
Linepattern
350
12B1
  3
OverhangOff
350
12BA
  3
Realistic
350
12AD
  3
Shaded
350
12B8
  3
Shaded with edges
350
12B7
  3
Shades of Gray
350
12B4
  3
Sketchy
350
12B5
  3
Thicken
350
12B0
  3
Wireframe
350
12AA
  3
X-Ray
350
12B6
  0
XRECORD
  5
1601
102
{ACAD_REACTORS
330
C
102
}
330
C
100
AcDbXrecord
280
     1
 90
        1
330
12BE
330
155E
  0
DICTIONARY
  5
157D
102
{ACAD_REACTORS
330
C
102
}
330
C
100
AcDbDictionary
281
     1
  3
CANNOSCALE
350
1580
  3
CMLEADERSTYLE
350
157F
  3
CTABLESTYLE
350
157E
  3
DIMASSOC
350
1583
  3
INDEXCTL
350
1582
  3
SORTENTS
350
1581
  3
XCLIPFRAME
350
1584
  0
XRECORD
  5
1602
102
{ACAD_REACTORS
330
C
102
}
330
C
100
AcDbXrecord
280
     1
  1
DWGPROPS COOKIE
  2

  3

  4

  6

  7

  8
inpunbhak
  9

300
=
301
=
302
=
303
=
304
=
305
=
306
=
307
=
308
=
309
=
 40
0.0016862268518519
 41
2456217.648377662
 42
2456217.650063704
  1

 90
        0
  0
XRECORD
  5
1560
102
{ACAD_REACTORS
330
155F
102
}
330
155F
100
AcDbXrecord
280
     1
290
     1
  0
XRECORD
  5
1562
102
{ACAD_REACTORS
330
1561
102
}
330
1561
100
AcDbXrecord
280
     1
290
     1
  0
XRECORD
  5
1564
102
{ACAD_REACTORS
330
1563
102
}
330
1563
100
AcDbXrecord
280
     1
290
     1
  0
XRECORD
  5
1566
102
{ACAD_REACTORS
330
1565
102
}
330
1565
100
AcDbXrecord
280
     1
290
     1
  0
XRECORD
  5
1568
102
{ACAD_REACTORS
330
1567
102
}
330
1567
100
AcDbXrecord
280
     1
290
     1
  0
XRECORD
  5
156A
102
{ACAD_REACTORS
330
1569
102
}
330
1569
100
AcDbXrecord
280
     1
290
     1
  0
XRECORD
  5
156C
102
{ACAD_REACTORS
330
156B
102
}
330
156B
100
AcDbXrecord
280
     1
290
     1
  0
XRECORD
  5
156E
102
{ACAD_REACTORS
330
156D
102
}
330
156D
100
AcDbXrecord
280
     1
290
     1
  0
XRECORD
  5
1570
102
{ACAD_REACTORS
330
156F
102
}
330
156F
100
AcDbXrecord
280
     1
290
     1
  0
XRECORD
  5
1572
102
{ACAD_REACTORS
330
1571
102
}
330
1571
100
AcDbXrecord
280
     1
290
     1
  0
XRECORD
  5
1574
102
{ACAD_REACTORS
330
1573
102
}
330
1573
100
AcDbXrecord
280
     1
290
     1
  0
XRECORD
  5
1576
102
{ACAD_REACTORS
330
1575
102
}
330
1575
100
AcDbXrecord
280
     1
290
     1
  0
XRECORD
  5
1578
102
{ACAD_REACTORS
330
1577
102
}
330
1577
100
AcDbXrecord
280
     1
290
     1
  0
XRECORD
  5
157A
102
{ACAD_REACTORS
330
1579
102
}
330
1579
100
AcDbXrecord
280
     1
290
     1
  0
XRECORD
  5
157C
102
{ACAD_REACTORS
330
157B
102
}
330
157B
100
AcDbXrecord
280
     1
290
     1
  0
LAYOUT
  5
E96
102
{ACAD_XDICTIONARY
360
1605
102
}
102
{ACAD_REACTORS
330
A85
102
}
330
A85
100
AcDbPlotSettings
  1

  2
\\SECO_TOOLS\Q_HP8100_WMM.LANDSKAP.PL1.HUS_A.FAGERSTA.SE.SECO_TOOLS
  4

  6

 40
0.0
 41
0.0
 42
0.0
 43
0.0
 44
0.0
 45
0.0
 46
0.0
 47
0.0
 48
0.0
 49
0.0
140
0.0
141
0.0
142
1.0
143
1.0
 70
   688
 72
     0
 73
     0
 74
     5
  7

 75
    16
147
1.0
148
0.0
149
0.0
100
AcDbLayout
  1
Layout1
 70
     0
 71
     1
 10
0.0
 20
0.0
 11
12.0
 21
9.0
 12
0.0
 22
0.0
 32
0.0
 14
1.000000000000000E+20
 24
1.000000000000000E+20
 34
1.000000000000000E+20
 15
-1.000000000000000E+20
 25
-1.000000000000000E+20
 35
-1.000000000000000E+20
146
0.0
 13
0.0
 23
0.0
 33
0.0
 16
1.0
 26
0.0
 36
0.0
 17
0.0
 27
1.0
 37
0.0
 76
     0
330
16
  0
LAYOUT
  5
E95
102
{ACAD_XDICTIONARY
360
1603
102
}
102
{ACAD_REACTORS
330
A85
102
}
330
A85
100
AcDbPlotSettings
  1

  2
\\SECO_TOOLS\Q_HP8100_WMM.LANDSKAP.PL1.HUS_A.FAGERSTA.SE.SECO_TOOLS
  4

  6

 40
0.0
 41
0.0
 42
0.0
 43
0.0
 44
0.0
 45
0.0
 46
0.0
 47
0.0
 48
0.0
 49
0.0
140
0.0
141
0.0
142
1.0
143
1.0
 70
  1712
 72
     0
 73
     0
 74
     0
  7

 75
     0
147
1.0
148
0.0
149
0.0
100
AcDbLayout
  1
Model
 70
     1
 71
     0
 10
0.0
 20
0.0
 11
12.0
 21
9.0
 12
0.0
 22
0.0
 32
0.0
 14
0.0
 24
0.0
 34
0.0
 15
0.0
 25
0.0
 35
0.0
146
0.0
 13
0.0
 23
0.0
 33
0.0
 16
1.0
 26
0.0
 36
0.0
 17
0.0
 27
1.0
 37
0.0
 76
     0
330
19
331
1288
  0
MATERIAL
  5
1293
102
{ACAD_XDICTIONARY
360
1294
102
}
102
{ACAD_REACTORS
330
128A
102
}
330
128A
100
AcDbMaterial
  1
ByBlock
 72
     0
 43
0.0208333333333333
 43
0.0
 43
0.0
 43
0.0
 43
0.0
 43
0.0208333333333333
 43
0.0
 43
0.0
 43
0.0
 43
0.0
 43
1.0
 43
0.0
 43
0.0
 43
0.0
 43
0.0
 43
1.0
 77
     0
 47
0.0208333333333333
 47
0.0
 47
0.0
 47
0.0
 47
0.0
 47
0.0208333333333333
 47
0.0
 47
0.0
 47
0.0
 47
0.0
 47
1.0
 47
0.0
 47
0.0
 47
0.0
 47
0.0
 47
1.0
171
     0
 49
0.0208333333333333
 49
0.0
 49
0.0
 49
0.0
 49
0.0
 49
0.0208333333333333
 49
0.0
 49
0.0
 49
0.0
 49
0.0
 49
1.0
 49
0.0
 49
0.0
 49
0.0
 49
0.0
 49
1.0
175
     0
142
0.0208333333333333
142
0.0
142
0.0
142
0.0
142
0.0
142
0.0208333333333333
142
0.0
142
0.0
142
0.0
142
0.0
142
1.0
142
0.0
142
0.0
142
0.0
142
0.0
142
1.0
179
     0
144
0.0208333333333333
144
0.0
144
0.0
144
0.0
144
0.0
144
0.0208333333333333
144
0.0
144
0.0
144
0.0
144
0.0
144
1.0
144
0.0
144
0.0
144
0.0
144
0.0
144
1.0
147
0.0208333333333333
147
0.0
147
0.0
147
0.0
147
0.0
147
0.0208333333333333
147
0.0
147
0.0
147
0.0
147
0.0
147
1.0
147
0.0
147
0.0
147
0.0
147
0.0
147
1.0
  0
MATERIAL
  5
128B
102
{ACAD_XDICTIONARY
360
128C
102
}
102
{ACAD_REACTORS
330
128A
102
}
330
128A
100
AcDbMaterial
  1
ByLayer
 72
     0
 43
0.0208333333333333
 43
0.0
 43
0.0
 43
0.0
 43
0.0
 43
0.0208333333333333
 43
0.0
 43
0.0
 43
0.0
 43
0.0
 43
1.0
 43
0.0
 43
0.0
 43
0.0
 43
0.0
 43
1.0
 77
     0
 47
0.0208333333333333
 47
0.0
 47
0.0
 47
0.0
 47
0.0
 47
0.0208333333333333
 47
0.0
 47
0.0
 47
0.0
 47
0.0
 47
1.0
 47
0.0
 47
0.0
 47
0.0
 47
0.0
 47
1.0
171
     0
 49
0.0208333333333333
 49
0.0
 49
0.0
 49
0.0
 49
0.0
 49
0.0208333333333333
 49
0.0
 49
0.0
 49
0.0
 49
0.0
 49
1.0
 49
0.0
 49
0.0
 49
0.0
 49
0.0
 49
1.0
175
     0
142
0.0208333333333333
142
0.0
142
0.0
142
0.0
142
0.0
142
0.0208333333333333
142
0.0
142
0.0
142
0.0
142
0.0
142
1.0
142
0.0
142
0.0
142
0.0
142
0.0
142
1.0
179
     0
144
0.0208333333333333
144
0.0
144
0.0
144
0.0
144
0.0
144
0.0208333333333333
144
0.0
144
0.0
144
0.0
144
0.0
144
1.0
144
0.0
144
0.0
144
0.0
144
0.0
144
1.0
147
0.0208333333333333
147
0.0
147
0.0
147
0.0
147
0.0
147
0.0208333333333333
147
0.0
147
0.0
147
0.0
147
0.0
147
1.0
147
0.0
147
0.0
147
0.0
147
0.0
147
1.0
  0
MATERIAL
  5
129B
102
{ACAD_XDICTIONARY
360
129C
102
}
102
{ACAD_REACTORS
330
128A
102
}
330
128A
100
AcDbMaterial
  1
Global
 72
     0
 43
0.0208333333333333
 43
0.0
 43
0.0
 43
0.0
 43
0.0
 43
0.0208333333333333
 43
0.0
 43
0.0
 43
0.0
 43
0.0
 43
1.0
 43
0.0
 43
0.0
 43
0.0
 43
0.0
 43
1.0
 77
     0
 47
0.0208333333333333
 47
0.0
 47
0.0
 47
0.0
 47
0.0
 47
0.0208333333333333
 47
0.0
 47
0.0
 47
0.0
 47
0.0
 47
1.0
 47
0.0
 47
0.0
 47
0.0
 47
0.0
 47
1.0
171
     0
 49
0.0208333333333333
 49
0.0
 49
0.0
 49
0.0
 49
0.0
 49
0.0208333333333333
 49
0.0
 49
0.0
 49
0.0
 49
0.0
 49
1.0
 49
0.0
 49
0.0
 49
0.0
 49
0.0
 49
1.0
175
     0
142
0.0208333333333333
142
0.0
142
0.0
142
0.0
142
0.0
142
0.0208333333333333
142
0.0
142
0.0
142
0.0
142
0.0
142
1.0
142
0.0
142
0.0
142
0.0
142
0.0
142
1.0
179
     0
144
0.0208333333333333
144
0.0
144
0.0
144
0.0
144
0.0
144
0.0208333333333333
144
0.0
144
0.0
144
0.0
144
0.0
144
1.0
144
0.0
144
0.0
144
0.0
144
0.0
144
1.0
147
0.0208333333333333
147
0.0
147
0.0
147
0.0
147
0.0
147
0.0208333333333333
147
0.0
147
0.0
147
0.0
147
0.0
147
1.0
147
0.0
147
0.0
147
0.0
147
0.0
147
1.0
  0
MLEADERSTYLE
  5
12D3
102
{ACAD_REACTORS
330
12D2
102
}
330
12D2
100
AcDbMLeaderStyle
170
     2
171
     1
172
     0
 90
        2
 40
0.0
 41
0.0
173
     1
 91
-1056964608
340
13
 92
       -2
290
     1
 42
2.0
291
     1
 43
0.36
  3
Standard
 44
4.0
300

342
10
174
     1
178
     6
175
     1
176
     0
 93
-1056964608
 45
4.0
292
     0
297
     0
 46
4.0
 94
-1056964608
 47
1.0
 49
1.0
140
1.0
293
     1
141
0.0
294
     1
177
     0
142
1.0
295
     0
296
     0
143
0.125
1001
ACAD_MLEADERVER
1070
     2
  0
MLINESTYLE
  5
1C
102
{ACAD_REACTORS
330
E
102
}
330
E
100
AcDbMlineStyle
  2
STANDARD
 70
     0
  3

 62
     0
 51
90.0
 52
90.0
 71
     2
 49
0.5
 62
   256
  6
BYLAYER
 49
-0.5
 62
   256
  6
BYLAYER
  0
ACDBPLACEHOLDER
  5
E94
102
{ACAD_REACTORS
330
E93
102
}
330
E93
  0
SCALE
  5
12C0
102
{ACAD_REACTORS
330
12BF
102
}
330
12BF
100
AcDbScale
 70
     0
300
1:1
140
1.0
141
1.0
290
     1
  0
SCALE
  5
12C1
102
{ACAD_REACTORS
330
12BF
102
}
330
12BF
100
AcDbScale
 70
     0
300
1:25.4
140
25.4
141
1.0
290
     0
  0
SCALE
  5
12C2
102
{ACAD_REACTORS
330
12BF
102
}
330
12BF
100
AcDbScale
 70
     0
300
1:2
140
1.0
141
2.0
290
     0
  0
SCALE
  5
12C3
102
{ACAD_REACTORS
330
12BF
102
}
330
12BF
100
AcDbScale
 70
     0
300
1:4
140
1.0
141
4.0
290
     0
  0
SCALE
  5
12C4
102
{ACAD_REACTORS
330
12BF
102
}
330
12BF
100
AcDbScale
 70
     0
300
1:5
140
1.0
141
5.0
290
     0
  0
SCALE
  5
12C5
102
{ACAD_REACTORS
330
12BF
102
}
330
12BF
100
AcDbScale
 70
     0
300
1:8
140
1.0
141
8.0
290
     0
  0
SCALE
  5
12C6
102
{ACAD_REACTORS
330
12BF
102
}
330
12BF
100
AcDbScale
 70
     0
300
1:10
140
1.0
141
10.0
290
     0
  0
SCALE
  5
12C7
102
{ACAD_REACTORS
330
12BF
102
}
330
12BF
100
AcDbScale
 70
     0
300
1:16
140
1.0
141
16.0
290
     0
  0
SCALE
  5
12C8
102
{ACAD_REACTORS
330
12BF
102
}
330
12BF
100
AcDbScale
 70
     0
300
1:20
140
1.0
141
20.0
290
     0
  0
SCALE
  5
12C9
102
{ACAD_REACTORS
330
12BF
102
}
330
12BF
100
AcDbScale
 70
     0
300
1:30
140
1.0
141
30.0
290
     0
  0
SCALE
  5
12CA
102
{ACAD_REACTORS
330
12BF
102
}
330
12BF
100
AcDbScale
 70
     0
300
1:40
140
1.0
141
40.0
290
     0
  0
SCALE
  5
12CB
102
{ACAD_REACTORS
330
12BF
102
}
330
12BF
100
AcDbScale
 70
     0
300
1:50
140
1.0
141
50.0
290
     0
  0
SCALE
  5
12CC
102
{ACAD_REACTORS
330
12BF
102
}
330
12BF
100
AcDbScale
 70
     0
300
1:100
140
1.0
141
100.0
290
     0
  0
SCALE
  5
12CD
102
{ACAD_REACTORS
330
12BF
102
}
330
12BF
100
AcDbScale
 70
     0
300
2:1
140
2.0
141
1.0
290
     0
  0
SCALE
  5
12CE
102
{ACAD_REACTORS
330
12BF
102
}
330
12BF
100
AcDbScale
 70
     0
300
4:1
140
4.0
141
1.0
290
     0
  0
SCALE
  5
12CF
102
{ACAD_REACTORS
330
12BF
102
}
330
12BF
100
AcDbScale
 70
     0
300
8:1
140
8.0
141
1.0
290
     0
  0
SCALE
  5
12D0
102
{ACAD_REACTORS
330
12BF
102
}
330
12BF
100
AcDbScale
 70
     0
300
10:1
140
10.0
141
1.0
290
     0
  0
SCALE
  5
12D1
102
{ACAD_REACTORS
330
12BF
102
}
330
12BF
100
AcDbScale
 70
     0
300
100:1
140
100.0
141
1.0
290
     0
  0
TABLESTYLE
  5
12BE
102
{ACAD_XDICTIONARY
360
15FF
102
}
102
{ACAD_REACTORS
330
12BD
102
}
330
12BD
100
AcDbTableStyle
  3
Standard
 70
     0
 71
     0
 40
1.5
 41
1.5
280
     0
281
     0
  7
STANDARD
140
4.5
170
     2
 62
     0
 63
     7
283
     0
274
    -2
284
     1
 64
     0
275
    -2
285
     1
 65
     0
276
    -2
286
     1
 66
     0
277
    -2
287
     1
 67
     0
278
    -2
288
     1
 68
     0
279
    -2
289
     1
 69
     0
  7
STANDARD
140
6.0
170
     5
 62
     0
 63
     7
283
     0
274
    -2
284
     1
 64
     0
275
    -2
285
     1
 65
     0
276
    -2
286
     1
 66
     0
277
    -2
287
     1
 67
     0
278
    -2
288
     1
 68
     0
279
    -2
289
     1
 69
     0
  7
STANDARD
140
4.5
170
     5
 62
     0
 63
     7
283
     0
274
    -2
284
     1
 64
     0
275
    -2
285
     1
 65
     0
276
    -2
286
     1
 66
     0
277
    -2
287
     1
 67
     0
278
    -2
288
     1
 68
     0
279
    -2
289
     1
 69
     0
  0
VISUALSTYLE
  5
12A9
102
{ACAD_XDICTIONARY
360
1614
102
}
102
{ACAD_REACTORS
330
12A3
102
}
330
12A3
100
AcDbVisualStyle
  2
2dWireframe
 70
     4
 71
     0
 72
     2
 73
     0
 90
        0
 40
-0.6
 41
-30.0
 62
     5
 63
     7
 74
     1
 91
        4
 64
     7
 65
   257
 75
     1
175
     1
 42
1.0
 92
        0
 66
   257
 43
1.0
 76
     1
 77
     6
 78
     2
 67
     7
 79
     5
170
     0
171
     0
290
     0
174
     0
 93
        1
 44
0.0
173
     0
291
     0
 45
0.0
1001
ACAD
1000
AcDbSavedByObjectVersion
1070
     0
  0
VISUALSTYLE
  5
12A8
102
{ACAD_XDICTIONARY
360
1612
102
}
102
{ACAD_REACTORS
330
12A3
102
}
330
12A3
100
AcDbVisualStyle
  2
Basic
 70
     7
 71
     1
 72
     0
 73
     1
 90
        0
 40
-0.6
 41
-30.0
 62
     5
 63
     7
 74
     0
 91
        4
 64
     7
 65
   257
 75
     1
175
     1
 42
1.0
 92
        8
 66
     7
 43
1.0
 76
     1
 77
     6
 78
     2
 67
     7
 79
     5
170
     0
171
     0
290
     0
174
     0
 93
        1
 44
0.0
173
     0
291
     1
 45
0.0
1001
ACAD
1000
AcDbSavedByObjectVersion
1070
     0
  0
VISUALSTYLE
  5
12AF
102
{ACAD_XDICTIONARY
360
1620
102
}
102
{ACAD_REACTORS
330
12A3
102
}
330
12A3
100
AcDbVisualStyle
  2
Brighten
 70
    12
 71
     2
 72
     2
 73
     0
 90
        0
 40
-0.6
 41
-30.0
 62
     5
 63
     7
 74
     1
 91
        4
 64
     7
 65
   257
 75
     1
175
     1
 42
1.0
 92
        8
 66
     7
 43
1.0
 76
     1
 77
     6
 78
     2
 67
     7
 79
     5
170
     0
171
     0
290
     0
174
     0
 93
        1
 44
50.0
173
     0
291
     1
 45
0.0
1001
ACAD
1000
AcDbSavedByObjectVersion
1070
     0
  0
VISUALSTYLE
  5
12B3
102
{ACAD_XDICTIONARY
360
1628
102
}
102
{ACAD_REACTORS
330
12A3
102
}
330
12A3
100
AcDbVisualStyle
  2
ColorChange
 70
    16
 71
     2
 72
     2
 73
     3
 90
        0
 40
-0.6
 41
-30.0
 62
     5
 63
     8
 74
     1
 91
        4
 64
     7
 65
   257
 75
     1
175
     1
 42
1.0
 92
        8
 66
     8
 43
1.0
 76
     1
 77
     6
 78
     2
 67
     7
 79
     5
170
     0
171
     0
290
     0
174
     0
 93
        1
 44
0.0
173
     0
291
     1
 45
0.0
1001
ACAD
1000
AcDbSavedByObjectVersion
1070
     0
  0
VISUALSTYLE
  5
12AC
102
{ACAD_XDICTIONARY
360
161A
102
}
102
{ACAD_REACTORS
330
12A3
102
}
330
12A3
100
AcDbVisualStyle
  2
Conceptual
 70
     9
 71
     3
 72
     2
 73
     0
 90
        0
 40
-0.6
 41
-30.0
 62
     5
 63
     7
 74
     2
 91
        2
 64
     7
 65
   257
 75
     1
175
     1
 42
179.0
 92
        8
 66
     7
 43
1.0
 76
     1
 77
     6
 78
     2
 67
     7
 79
     3
170
     0
171
     0
290
     0
174
     0
 93
        1
 44
0.0
173
     0
291
     0
 45
0.0
1001
ACAD
1000
AcDbSavedByObjectVersion
1070
     0
  0
VISUALSTYLE
  5
12AE
102
{ACAD_XDICTIONARY
360
161E
102
}
102
{ACAD_REACTORS
330
12A3
102
}
330
12A3
100
AcDbVisualStyle
  2
Dim
 70
    11
 71
     2
 72
     2
 73
     0
 90
        0
 40
-0.6
 41
-30.0
 62
     5
 63
     7
 74
     1
 91
        4
 64
     7
 65
   257
 75
     1
175
     1
 42
1.0
 92
        8
 66
     7
 43
1.0
 76
     1
 77
     6
 78
     2
 67
     7
 79
     5
170
     0
171
     0
290
     0
174
     0
 93
        1
 44
-50.0
173
     0
291
     1
 45
0.0
1001
ACAD
1000
AcDbSavedByObjectVersion
1070
     0
  0
VISUALSTYLE
  5
12BB
102
{ACAD_XDICTIONARY
360
1638
102
}
102
{ACAD_REACTORS
330
12A3
102
}
330
12A3
100
AcDbVisualStyle
  2
EdgeColorOff
 70
    22
 71
     2
 72
     2
 73
     0
 90
        0
 40
-0.6
 41
-30.0
 62
     5
 63
     7
 74
     1
 91
        4
 64
     7
 65
   257
 75
     1
175
     1
 42
1.0
 92
        8
 66
     7
 43
1.0
 76
     1
 77
     6
 78
     2
 67
     7
 79
     5
170
     0
171
     0
290
     0
174
     0
 93
        1
 44
0.0
173
     0
291
     1
 45
0.0
1001
ACAD
1000
AcDbSavedByObjectVersion
1070
     0
  0
VISUALSTYLE
  5
12B2
102
{ACAD_XDICTIONARY
360
1626
102
}
102
{ACAD_REACTORS
330
12A3
102
}
330
12A3
100
AcDbVisualStyle
  2
Facepattern
 70
    15
 71
     2
 72
     2
 73
     0
 90
        0
 40
-0.6
 41
-30.0
 62
     5
 63
     7
 74
     1
 91
        4
 64
     7
 65
   257
 75
     1
175
     1
 42
1.0
 92
        8
 66
     7
 43
1.0
 76
     1
 77
     6
 78
     2
 67
     7
 79
     5
170
     0
171
     0
290
     0
174
     0
 93
        1
 44
0.0
173
     0
291
     1
 45
0.0
1001
ACAD
1000
AcDbSavedByObjectVersion
1070
     0
  0
VISUALSTYLE
  5
12A4
102
{ACAD_XDICTIONARY
360
160A
102
}
102
{ACAD_REACTORS
330
12A3
102
}
330
12A3
100
AcDbVisualStyle
  2
Flat
 70
     0
 71
     2
 72
     1
 73
     1
 90
        2
 40
-0.6
 41
30.0
 62
     5
 63
     7
 74
     0
 91
        0
 64
     7
 65
   257
 75
     1
175
     1
 42
1.0
 92
        8
 66
     7
 43
1.0
 76
     1
 77
     6
 78
     2
 67
     7
 79
     5
170
     0
171
     0
290
     0
174
     0
 93
       13
 44
0.0
173
     0
291
     1
 45
0.0
1001
ACAD
1000
AcDbSavedByObjectVersion
1070
     0
  0
VISUALSTYLE
  5
12A5
102
{ACAD_XDICTIONARY
360
160C
102
}
102
{ACAD_REACTORS
330
12A3
102
}
330
12A3
100
AcDbVisualStyle
  2
FlatWithEdges
 70
     1
 71
     2
 72
     1
 73
     1
 90
        2
 40
-0.6
 41
30.0
 62
     5
 63
     7
 74
     1
 91
        0
 64
     7
 65
   257
 75
     1
175
     1
 42
1.0
 92
        0
 66
   257
 43
1.0
 76
     1
 77
     6
 78
     2
 67
     7
 79
     5
170
     0
171
     0
290
     0
174
     0
 93
       13
 44
0.0
173
     0
291
     1
 45
0.0
1001
ACAD
1000
AcDbSavedByObjectVersion
1070
     0
  0
VISUALSTYLE
  5
12A6
102
{ACAD_XDICTIONARY
360
160E
102
}
102
{ACAD_REACTORS
330
12A3
102
}
330
12A3
100
AcDbVisualStyle
  2
Gouraud
 70
     2
 71
     2
 72
     2
 73
     1
 90
        2
 40
-0.6
 41
30.0
 62
     5
 63
     7
 74
     0
 91
        0
 64
     7
 65
   257
 75
     1
175
     1
 42
1.0
 92
        0
 66
     7
 43
1.0
 76
     1
 77
     6
 78
     2
 67
     7
 79
     5
170
     0
171
     0
290
     0
174
     0
 93
       13
 44
0.0
173
     0
291
     1
 45
0.0
1001
ACAD
1000
AcDbSavedByObjectVersion
1070
     0
  0
VISUALSTYLE
  5
12A7
102
{ACAD_XDICTIONARY
360
1610
102
}
102
{ACAD_REACTORS
330
12A3
102
}
330
12A3
100
AcDbVisualStyle
  2
GouraudWithEdges
 70
     3
 71
     2
 72
     2
 73
     1
 90
        2
 40
-0.6
 41
30.0
 62
     5
 63
     7
 74
     1
 91
        0
 64
     7
 65
   257
 75
     1
175
     1
 42
1.0
 92
        0
 66
   257
 43
1.0
 76
     1
 77
     6
 78
     2
 67
     7
 79
     5
170
     0
171
     0
290
     0
174
     0
 93
       13
 44
0.0
173
     0
291
     1
 45
0.0
1001
ACAD
1000
AcDbSavedByObjectVersion
1070
     0
  0
VISUALSTYLE
  5
12AB
102
{ACAD_XDICTIONARY
360
1618
102
}
102
{ACAD_REACTORS
330
12A3
102
}
330
12A3
100
AcDbVisualStyle
  2
Hidden
 70
     6
 71
     1
 72
     2
 73
     2
 90
        0
 40
-0.6
 41
-30.0
 62
     5
 63
     7
 74
     2
 91
        2
 64
     7
 65
   257
 75
     2
175
     1
 42
40.0
 92
        0
 66
   257
 43
1.0
 76
     1
 77
     6
 78
     2
 67
     7
 79
     3
170
     0
171
     0
290
     0
174
     0
 93
        1
 44
0.0
173
     0
291
     0
 45
0.0
1001
ACAD
1000
AcDbSavedByObjectVersion
1070
     0
  0
VISUALSTYLE
  5
12B9
102
{ACAD_XDICTIONARY
360
1634
102
}
102
{ACAD_REACTORS
330
12A3
102
}
330
12A3
100
AcDbVisualStyle
  2
JitterOff
 70
    20
 71
     2
 72
     2
 73
     0
 90
        0
 40
-0.6
 41
-30.0
 62
     5
 63
     7
 74
     1
 91
        4
 64
     7
 65
   257
 75
     1
175
     1
 42
1.0
 92
       10
 66
     7
 43
1.0
 76
     1
 77
     6
 78
     2
 67
     7
 79
     5
170
     0
171
     0
290
     0
174
     0
 93
        1
 44
0.0
173
     0
291
     1
 45
0.0
1001
ACAD
1000
AcDbSavedByObjectVersion
1070
     0
  0
VISUALSTYLE
  5
12B1
102
{ACAD_XDICTIONARY
360
1624
102
}
102
{ACAD_REACTORS
330
12A3
102
}
330
12A3
100
AcDbVisualStyle
  2
Linepattern
 70
    14
 71
     2
 72
     2
 73
     0
 90
        0
 40
-0.6
 41
-30.0
 62
     5
 63
     7
 74
     1
 91
        4
 64
     7
 65
   257
 75
     7
175
     7
 42
1.0
 92
        8
 66
     7
 43
1.0
 76
     1
 77
     6
 78
     2
 67
     7
 79
     5
170
     0
171
     0
290
     0
174
     0
 93
        1
 44
0.0
173
     0
291
     1
 45
0.0
1001
ACAD
1000
AcDbSavedByObjectVersion
1070
     0
  0
VISUALSTYLE
  5
12BA
102
{ACAD_XDICTIONARY
360
1636
102
}
102
{ACAD_REACTORS
330
12A3
102
}
330
12A3
100
AcDbVisualStyle
  2
OverhangOff
 70
    21
 71
     2
 72
     2
 73
     0
 90
        0
 40
-0.6
 41
-30.0
 62
     5
 63
     7
 74
     1
 91
        4
 64
     7
 65
   257
 75
     1
175
     1
 42
1.0
 92
        9
 66
     7
 43
1.0
 76
     1
 77
     6
 78
     2
 67
     7
 79
     5
170
     0
171
     0
290
     0
174
     0
 93
        1
 44
0.0
173
     0
291
     1
 45
0.0
1001
ACAD
1000
AcDbSavedByObjectVersion
1070
     0
  0
VISUALSTYLE
  5
12AD
102
{ACAD_XDICTIONARY
360
161C
102
}
102
{ACAD_REACTORS
330
12A3
102
}
330
12A3
100
AcDbVisualStyle
  2
Realistic
 70
     8
 71
     2
 72
     3
 73
     0
 90
        2
 40
-0.6
 41
30.0
 62
     5
 63
     7
 74
     0
 91
        0
 64
     7
 65
   257
 75
     1
175
     1
 42
1.0
 92
        8
 66
   257
 43
1.0
 76
     1
 77
     6
 78
     2
 67
     7
 79
     3
170
     0
171
     0
290
     0
174
     0
 93
       13
 44
0.0
173
     0
291
     0
 45
0.0
1001
ACAD
1000
AcDbSavedByObjectVersion
1070
     0
  0
VISUALSTYLE
  5
12B8
102
{ACAD_XDICTIONARY
360
1632
102
}
102
{ACAD_REACTORS
330
12A3
102
}
330
12A3
100
AcDbVisualStyle
  2
Shaded
 70
    27
 71
     2
 72
     2
 73
     1
 90
        2
 40
-0.6
 41
30.0
 62
     5
 63
     7
 74
     0
 91
        4
 64
     7
 65
   257
 75
     1
175
     1
 42
1.0
 92
        8
 66
   257
 43
1.0
 76
     1
 77
     6
 78
     2
 67
     8
 79
     3
170
     0
171
     0
290
     0
174
     0
 93
        5
 44
0.0
173
     0
291
     0
 45
0.0
1001
ACAD
1000
AcDbSavedByObjectVersion
1070
     0
  0
VISUALSTYLE
  5
12B7
102
{ACAD_XDICTIONARY
360
1630
102
}
102
{ACAD_REACTORS
330
12A3
102
}
330
12A3
100
AcDbVisualStyle
  2
Shaded with edges
 70
    26
 71
     2
 72
     2
 73
     1
 90
        2
 40
-0.6
 41
30.0
 62
     5
 63
     7
 74
     1
 91
       10
 64
     7
 65
   257
 75
     2
175
     1
 42
1.0
 92
        8
 66
   257
 43
1.0
 76
     1
 77
     6
 78
     2
 67
     7
 79
     3
170
     0
171
     0
290
     0
174
     0
 93
        5
 44
0.0
173
     0
291
     0
 45
0.0
1001
ACAD
1000
AcDbSavedByObjectVersion
1070
     0
  0
VISUALSTYLE
  5
12B4
102
{ACAD_XDICTIONARY
360
162A
102
}
102
{ACAD_REACTORS
330
12A3
102
}
330
12A3
100
AcDbVisualStyle
  2
Shades of Gray
 70
    23
 71
     2
 72
     2
 73
     3
 90
        0
 40
-0.6
 41
-30.0
 62
     5
 63
     7
 74
     2
 91
        2
 64
     7
 65
     7
 75
     1
175
     1
 42
40.0
 92
        8
 66
     7
 43
1.0
 76
     1
 77
     6
 78
     2
 67
     7
 79
     3
170
     0
171
     0
290
     0
174
     0
 93
        1
 44
0.0
173
     0
291
     0
 45
0.0
1001
ACAD
1000
AcDbSavedByObjectVersion
1070
     0
  0
VISUALSTYLE
  5
12B5
102
{ACAD_XDICTIONARY
360
162C
102
}
102
{ACAD_REACTORS
330
12A3
102
}
330
12A3
100
AcDbVisualStyle
  2
Sketchy
 70
    24
 71
     1
 72
     2
 73
     2
 90
        0
 40
-0.6
 41
-30.0
 62
     5
 63
     7
 74
     2
 91
        2
 64
     7
 65
     7
 75
     1
175
     1
 42
40.0
 92
       11
 66
     7
 43
1.0
 76
     1
 77
     6
 78
     2
 67
     7
 79
     6
170
     0
171
     0
290
     0
174
     0
 93
        1
 44
0.0
173
     0
291
     0
 45
0.0
1001
ACAD
1000
AcDbSavedByObjectVersion
1070
     0
  0
VISUALSTYLE
  5
12B0
102
{ACAD_XDICTIONARY
360
1622
102
}
102
{ACAD_REACTORS
330
12A3
102
}
330
12A3
100
AcDbVisualStyle
  2
Thicken
 70
    13
 71
     2
 72
     2
 73
     0
 90
        0
 40
-0.6
 41
-30.0
 62
     5
 63
     7
 74
     1
 91
        4
 64
     7
 65
   257
 75
     1
175
     1
 42
1.0
 92
       12
 66
     7
 43
1.0
 76
     1
 77
     6
 78
     2
 67
     7
 79
     5
170
     0
171
     0
290
     0
174
     0
 93
        1
 44
0.0
173
     0
291
     1
 45
0.0
1001
ACAD
1000
AcDbSavedByObjectVersion
1070
     0
  0
VISUALSTYLE
  5
12AA
102
{ACAD_XDICTIONARY
360
1616
102
}
102
{ACAD_REACTORS
330
12A3
102
}
330
12A3
100
AcDbVisualStyle
  2
Wireframe
 70
     5
 71
     0
 72
     2
 73
     0
 90
        0
 40
-0.6
 41
-30.0
 62
     5
 63
     7
 74
     1
 91
        4
 64
     7
 65
   257
 75
     1
175
     1
 42
1.0
 92
        0
 66
   257
 43
1.0
 76
     1
 77
     6
 78
     2
 67
     7
 79
     3
170
     0
171
     0
290
     0
174
     0
 93
        1
 44
0.0
173
     0
291
     0
 45
0.0
1001
ACAD
1000
AcDbSavedByObjectVersion
1070
     0
  0
VISUALSTYLE
  5
12B6
102
{ACAD_XDICTIONARY
360
162E
102
}
102
{ACAD_REACTORS
330
12A3
102
}
330
12A3
100
AcDbVisualStyle
  2
X-Ray
 70
    25
 71
     2
 72
     2
 73
     1
 90
        1
 40
0.5
 41
-30.0
 62
     5
 63
     7
 74
     1
 91
        0
 64
     7
 65
   257
 75
     1
175
     1
 42
1.0
 92
        8
 66
     7
 43
1.0
 76
     1
 77
     6
 78
     2
 67
     7
 79
     3
170
     0
171
     0
290
     0
174
     0
 93
       13
 44
0.0
173
     0
291
     0
 45
0.0
1001
ACAD
1000
AcDbSavedByObjectVersion
1070
     0
  0
DICTIONARYVAR
  5
1580
102
{ACAD_REACTORS
330
157D
102
}
330
157D
100
DictionaryVariables
280
     0
  1
1:1
  0
DICTIONARYVAR
  5
157F
102
{ACAD_REACTORS
330
157D
102
}
330
157D
100
DictionaryVariables
280
     0
  1
STANDARD
  0
DICTIONARYVAR
  5
157E
102
{ACAD_REACTORS
330
157D
102
}
330
157D
100
DictionaryVariables
280
     0
  1
STANDARD
  0
DICTIONARYVAR
  5
1583
102
{ACAD_REACTORS
330
157D
102
}
330
157D
100
DictionaryVariables
280
     0
  1
1
  0
DICTIONARYVAR
  5
1582
102
{ACAD_REACTORS
330
157D
102
}
330
157D
100
DictionaryVariables
280
     0
  1
0
  0
DICTIONARYVAR
  5
1581
102
{ACAD_REACTORS
330
157D
102
}
330
157D
100
DictionaryVariables
280
     0
  1
127
  0
DICTIONARYVAR
  5
1584
102
{ACAD_REACTORS
330
157D
102
}
330
157D
100
DictionaryVariables
280
     0
  1
2
  0
DICTIONARY
  5
1605
330
E96
100
AcDbDictionary
280
     1
281
     1
  3
ACAD_XREC_ROUNDTRIP
360
1606
  0
DICTIONARY
  5
1603
330
E95
100
AcDbDictionary
280
     1
281
     1
  3
ACAD_XREC_ROUNDTRIP
360
1604
  0
DICTIONARY
  5
1294
330
1293
100
AcDbDictionary
280
     1
281
     1
  3
ACAD_XREC_ROUNDTRIP
360
1608
  3
BUMPTILE
360
1296
  3
DIFFUSETILE
360
1295
  3
OPACITYTILE
360
1299
  3
REFLECTIONTILE
360
1298
  3
REFRACTIONTILE
360
129A
  3
SPECULARTILE
360
1297
  0
DICTIONARY
  5
128C
330
128B
100
AcDbDictionary
280
     1
281
     1
  3
ACAD_XREC_ROUNDTRIP
360
1607
  3
BUMPTILE
360
128E
  3
DIFFUSETILE
360
128D
  3
OPACITYTILE
360
1291
  3
REFLECTIONTILE
360
1290
  3
REFRACTIONTILE
360
1292
  3
SPECULARTILE
360
128F
  0
DICTIONARY
  5
129C
330
129B
100
AcDbDictionary
280
     1
281
     1
  3
ACAD_XREC_ROUNDTRIP
360
1609
  3
BUMPTILE
360
129E
  3
DIFFUSETILE
360
129D
  3
OPACITYTILE
360
12A1
  3
REFLECTIONTILE
360
12A0
  3
REFRACTIONTILE
360
12A2
  3
SPECULARTILE
360
129F
  0
DICTIONARY
  5
15FF
330
12BE
100
AcDbDictionary
280
     1
281
     1
  3
ACAD_ROUNDTRIP_2008_TABLESTYLE_CELLSTYLEMAP
360
1600
  3
ACAD_XREC_ROUNDTRIP
360
163A
  0
DICTIONARY
  5
1614
330
12A9
100
AcDbDictionary
280
     1
281
     1
  3
ACAD_XREC_ROUNDTRIP
360
1615
  0
DICTIONARY
  5
1612
330
12A8
100
AcDbDictionary
280
     1
281
     1
  3
ACAD_XREC_ROUNDTRIP
360
1613
  0
DICTIONARY
  5
1620
330
12AF
100
AcDbDictionary
280
     1
281
     1
  3
ACAD_XREC_ROUNDTRIP
360
1621
  0
DICTIONARY
  5
1628
330
12B3
100
AcDbDictionary
280
     1
281
     1
  3
ACAD_XREC_ROUNDTRIP
360
1629
  0
DICTIONARY
  5
161A
330
12AC
100
AcDbDictionary
280
     1
281
     1
  3
ACAD_XREC_ROUNDTRIP
360
161B
  0
DICTIONARY
  5
161E
330
12AE
100
AcDbDictionary
280
     1
281
     1
  3
ACAD_XREC_ROUNDTRIP
360
161F
  0
DICTIONARY
  5
1638
330
12BB
100
AcDbDictionary
280
     1
281
     1
  3
ACAD_XREC_ROUNDTRIP
360
1639
  0
DICTIONARY
  5
1626
330
12B2
100
AcDbDictionary
280
     1
281
     1
  3
ACAD_XREC_ROUNDTRIP
360
1627
  0
DICTIONARY
  5
160A
330
12A4
100
AcDbDictionary
280
     1
281
     1
  3
ACAD_XREC_ROUNDTRIP
360
160B
  0
DICTIONARY
  5
160C
330
12A5
100
AcDbDictionary
280
     1
281
     1
  3
ACAD_XREC_ROUNDTRIP
360
160D
  0
DICTIONARY
  5
160E
330
12A6
100
AcDbDictionary
280
     1
281
     1
  3
ACAD_XREC_ROUNDTRIP
360
160F
  0
DICTIONARY
  5
1610
330
12A7
100
AcDbDictionary
280
     1
281
     1
  3
ACAD_XREC_ROUNDTRIP
360
1611
  0
DICTIONARY
  5
1618
330
12AB
100
AcDbDictionary
280
     1
281
     1
  3
ACAD_XREC_ROUNDTRIP
360
1619
  0
DICTIONARY
  5
1634
330
12B9
100
AcDbDictionary
280
     1
281
     1
  3
ACAD_XREC_ROUNDTRIP
360
1635
  0
DICTIONARY
  5
1624
330
12B1
100
AcDbDictionary
280
     1
281
     1
  3
ACAD_XREC_ROUNDTRIP
360
1625
  0
DICTIONARY
  5
1636
330
12BA
100
AcDbDictionary
280
     1
281
     1
  3
ACAD_XREC_ROUNDTRIP
360
1637
  0
DICTIONARY
  5
161C
330
12AD
100
AcDbDictionary
280
     1
281
     1
  3
ACAD_XREC_ROUNDTRIP
360
161D
  0
DICTIONARY
  5
1632
330
12B8
100
AcDbDictionary
280
     1
281
     1
  3
ACAD_XREC_ROUNDTRIP
360
1633
  0
DICTIONARY
  5
1630
330
12B7
100
AcDbDictionary
280
     1
281
     1
  3
ACAD_XREC_ROUNDTRIP
360
1631
  0
DICTIONARY
  5
162A
330
12B4
100
AcDbDictionary
280
     1
281
     1
  3
ACAD_XREC_ROUNDTRIP
360
162B
  0
DICTIONARY
  5
162C
330
12B5
100
AcDbDictionary
280
     1
281
     1
  3
ACAD_XREC_ROUNDTRIP
360
162D
  0
DICTIONARY
  5
1622
330
12B0
100
AcDbDictionary
280
     1
281
     1
  3
ACAD_XREC_ROUNDTRIP
360
1623
  0
DICTIONARY
  5
1616
330
12AA
100
AcDbDictionary
280
     1
281
     1
  3
ACAD_XREC_ROUNDTRIP
360
1617
  0
DICTIONARY
  5
162E
330
12B6
100
AcDbDictionary
280
     1
281
     1
  3
ACAD_XREC_ROUNDTRIP
360
162F
  0
XRECORD
  5
1606
102
{ACAD_REACTORS
330
1605
102
}
330
1605
100
AcDbXrecord
280
     1
102
SHADEPLOT
 70
     0
102
SHADEPLOTRESLEVEL
 70
     2
102
SHADEPLOTCUSTOMDPI
 70
   300
  0
XRECORD
  5
1604
102
{ACAD_REACTORS
330
1603
102
}
330
1603
100
AcDbXrecord
280
     1
102
SHADEPLOT
 70
     0
102
SHADEPLOTRESLEVEL
 70
     2
102
SHADEPLOTCUSTOMDPI
 70
   300
  0
XRECORD
  5
1608
102
{ACAD_REACTORS
330
1294
102
}
330
1294
100
AcDbXrecord
280
     1
102
MATERIAL
148
0.0
149
0.0
149
0.0
 93
        0
 94
      127
282
     0
 72
     0
 77
     0
171
     0
175
     0
179
     0
273
     0
  0
XRECORD
  5
1296
102
{ACAD_REACTORS
330
1294
102
}
330
1294
100
AcDbXrecord
280
     1
270
     1
271
     1
  0
XRECORD
  5
1295
102
{ACAD_REACTORS
330
1294
102
}
330
1294
100
AcDbXrecord
280
     1
270
     1
271
     1
  0
XRECORD
  5
1299
102
{ACAD_REACTORS
330
1294
102
}
330
1294
100
AcDbXrecord
280
     1
270
     1
271
     1
  0
XRECORD
  5
1298
102
{ACAD_REACTORS
330
1294
102
}
330
1294
100
AcDbXrecord
280
     1
270
     1
271
     1
  0
XRECORD
  5
129A
102
{ACAD_REACTORS
330
1294
102
}
330
1294
100
AcDbXrecord
280
     1
270
     1
271
     1
  0
XRECORD
  5
1297
102
{ACAD_REACTORS
330
1294
102
}
330
1294
100
AcDbXrecord
280
     1
270
     1
271
     1
  0
XRECORD
  5
1607
102
{ACAD_REACTORS
330
128C
102
}
330
128C
100
AcDbXrecord
280
     1
102
MATERIAL
148
0.0
149
0.0
149
0.0
 93
        0
 94
      127
282
     0
 72
     0
 77
     0
171
     0
175
     0
179
     0
273
     0
  0
XRECORD
  5
128E
102
{ACAD_REACTORS
330
128C
102
}
330
128C
100
AcDbXrecord
280
     1
270
     1
271
     1
  0
XRECORD
  5
128D
102
{ACAD_REACTORS
330
128C
102
}
330
128C
100
AcDbXrecord
280
     1
270
     1
271
     1
  0
XRECORD
  5
1291
102
{ACAD_REACTORS
330
128C
102
}
330
128C
100
AcDbXrecord
280
     1
270
     1
271
     1
  0
XRECORD
  5
1290
102
{ACAD_REACTORS
330
128C
102
}
330
128C
100
AcDbXrecord
280
     1
270
     1
271
     1
  0
XRECORD
  5
1292
102
{ACAD_REACTORS
330
128C
102
}
330
128C
100
AcDbXrecord
280
     1
270
     1
271
     1
  0
XRECORD
  5
128F
102
{ACAD_REACTORS
330
128C
102
}
330
128C
100
AcDbXrecord
280
     1
270
     1
271
     1
  0
XRECORD
  5
1609
102
{ACAD_REACTORS
330
129C
102
}
330
129C
100
AcDbXrecord
280
     1
102
MATERIAL
148
0.0
149
0.0
149
0.0
 93
        0
 94
      127
282
     0
 72
     0
 77
     0
171
     0
175
     0
179
     0
273
     0
  0
XRECORD
  5
129E
102
{ACAD_REACTORS
330
129C
102
}
330
129C
100
AcDbXrecord
280
     1
270
     1
271
     1
  0
XRECORD
  5
129D
102
{ACAD_REACTORS
330
129C
102
}
330
129C
100
AcDbXrecord
280
     1
270
     1
271
     1
  0
XRECORD
  5
12A1
102
{ACAD_REACTORS
330
129C
102
}
330
129C
100
AcDbXrecord
280
     1
270
     1
271
     1
  0
XRECORD
  5
12A0
102
{ACAD_REACTORS
330
129C
102
}
330
129C
100
AcDbXrecord
280
     1
270
     1
271
     1
  0
XRECORD
  5
12A2
102
{ACAD_REACTORS
330
129C
102
}
330
129C
100
AcDbXrecord
280
     1
270
     1
271
     1
  0
XRECORD
  5
129F
102
{ACAD_REACTORS
330
129C
102
}
330
129C
100
AcDbXrecord
280
     1
270
     1
271
     1
  0
CELLSTYLEMAP
  5
1600
102
{ACAD_REACTORS
330
15FF
102
}
330
15FF
100
AcDbCellStyleMap
 90
        3
300
CELLSTYLE
  1
TABLEFORMAT_BEGIN
 90
        5
170
     1
 91
        0
 92
    32768
 62
   257
 93
        1
300
CONTENTFORMAT
  1
CONTENTFORMAT_BEGIN
 90
        0
 91
        0
 92
      512
 93
        0
300

 40
0.0
140
1.0
 94
        5
 62
     0
340
10
144
6.0
309
CONTENTFORMAT_END
171
     1
301
MARGIN
  1
CELLMARGIN_BEGIN
 40
1.5
 40
1.5
 40
1.5
 40
1.5
 40
4.5
 40
4.5
309
CELLMARGIN_END
 94
        6
 95
        1
302
GRIDFORMAT
  1
GRIDFORMAT_BEGIN
 90
        0
 91
        1
 62
     0
 92
       -2
340
0
 93
        0
 40
1.125
309
GRIDFORMAT_END
 95
        2
302
GRIDFORMAT
  1
GRIDFORMAT_BEGIN
 90
        0
 91
        1
 62
     0
 92
       -2
340
0
 93
        0
 40
1.125
309
GRIDFORMAT_END
 95
        4
302
GRIDFORMAT
  1
GRIDFORMAT_BEGIN
 90
        0
 91
        1
 62
     0
 92
       -2
340
0
 93
        0
 40
1.125
309
GRIDFORMAT_END
 95
        8
302
GRIDFORMAT
  1
GRIDFORMAT_BEGIN
 90
        0
 91
        1
 62
     0
 92
       -2
340
0
 93
        0
 40
1.125
309
GRIDFORMAT_END
 95
       16
302
GRIDFORMAT
  1
GRIDFORMAT_BEGIN
 90
        0
 91
        1
 62
     0
 92
       -2
340
0
 93
        0
 40
1.125
309
GRIDFORMAT_END
 95
       32
302
GRIDFORMAT
  1
GRIDFORMAT_BEGIN
 90
        0
 91
        1
 62
     0
 92
       -2
340
0
 93
        0
 40
1.125
309
GRIDFORMAT_END
309
TABLEFORMAT_END
  1
CELLSTYLE_BEGIN
 90
        1
 91
        1
300
_TITLE
309
CELLSTYLE_END
300
CELLSTYLE
  1
TABLEFORMAT_BEGIN
 90
        5
170
     1
 91
        0
 92
        0
 62
   257
 93
        1
300
CONTENTFORMAT
  1
CONTENTFORMAT_BEGIN
 90
        0
 91
        0
 92
      512
 93
        0
300

 40
0.0
140
1.0
 94
        5
 62
     0
340
10
144
4.5
309
CONTENTFORMAT_END
171
     1
301
MARGIN
  1
CELLMARGIN_BEGIN
 40
1.5
 40
1.5
 40
1.5
 40
1.5
 40
4.5
 40
4.5
309
CELLMARGIN_END
 94
        6
 95
        1
302
GRIDFORMAT
  1
GRIDFORMAT_BEGIN
 90
        0
 91
        1
 62
     0
 92
       -2
340
0
 93
        0
 40
1.125
309
GRIDFORMAT_END
 95
        2
302
GRIDFORMAT
  1
GRIDFORMAT_BEGIN
 90
        0
 91
        1
 62
     0
 92
       -2
340
0
 93
        0
 40
1.125
309
GRIDFORMAT_END
 95
        4
302
GRIDFORMAT
  1
GRIDFORMAT_BEGIN
 90
        0
 91
        1
 62
     0
 92
       -2
340
0
 93
        0
 40
1.125
309
GRIDFORMAT_END
 95
        8
302
GRIDFORMAT
  1
GRIDFORMAT_BEGIN
 90
        0
 91
        1
 62
     0
 92
       -2
340
0
 93
        0
 40
1.125
309
GRIDFORMAT_END
 95
       16
302
GRIDFORMAT
  1
GRIDFORMAT_BEGIN
 90
        0
 91
        1
 62
     0
 92
       -2
340
0
 93
        0
 40
1.125
309
GRIDFORMAT_END
 95
       32
302
GRIDFORMAT
  1
GRIDFORMAT_BEGIN
 90
        0
 91
        1
 62
     0
 92
       -2
340
0
 93
        0
 40
1.125
309
GRIDFORMAT_END
309
TABLEFORMAT_END
  1
CELLSTYLE_BEGIN
 90
        2
 91
        1
300
_HEADER
309
CELLSTYLE_END
300
CELLSTYLE
  1
TABLEFORMAT_BEGIN
 90
        5
170
     1
 91
        0
 92
        0
 62
   257
 93
        1
300
CONTENTFORMAT
  1
CONTENTFORMAT_BEGIN
 90
        0
 91
        0
 92
      512
 93
        0
300

 40
0.0
140
1.0
 94
        2
 62
     0
340
10
144
4.5
309
CONTENTFORMAT_END
171
     1
301
MARGIN
  1
CELLMARGIN_BEGIN
 40
1.5
 40
1.5
 40
1.5
 40
1.5
 40
4.5
 40
4.5
309
CELLMARGIN_END
 94
        6
 95
        1
302
GRIDFORMAT
  1
GRIDFORMAT_BEGIN
 90
        0
 91
        1
 62
     0
 92
       -2
340
0
 93
        0
 40
1.125
309
GRIDFORMAT_END
 95
        2
302
GRIDFORMAT
  1
GRIDFORMAT_BEGIN
 90
        0
 91
        1
 62
     0
 92
       -2
340
0
 93
        0
 40
1.125
309
GRIDFORMAT_END
 95
        4
302
GRIDFORMAT
  1
GRIDFORMAT_BEGIN
 90
        0
 91
        1
 62
     0
 92
       -2
340
0
 93
        0
 40
1.125
309
GRIDFORMAT_END
 95
        8
302
GRIDFORMAT
  1
GRIDFORMAT_BEGIN
 90
        0
 91
        1
 62
     0
 92
       -2
340
0
 93
        0
 40
1.125
309
GRIDFORMAT_END
 95
       16
302
GRIDFORMAT
  1
GRIDFORMAT_BEGIN
 90
        0
 91
        1
 62
     0
 92
       -2
340
0
 93
        0
 40
1.125
309
GRIDFORMAT_END
 95
       32
302
GRIDFORMAT
  1
GRIDFORMAT_BEGIN
 90
        0
 91
        1
 62
     0
 92
       -2
340
0
 93
        0
 40
1.125
309
GRIDFORMAT_END
309
TABLEFORMAT_END
  1
CELLSTYLE_BEGIN
 90
        3
 91
        2
300
_DATA
309
CELLSTYLE_END
  0
XRECORD
  5
163A
102
{ACAD_REACTORS
330
15FF
102
}
330
15FF
100
AcDbXrecord
280
     1
102
ACAD_ROUNDTRIP_PRE2007_TABLESTYLE
 90
      512
 91
        0
  1

 92
      512
 93
        0
  2

 94
      512
 95
        0
  3

  0
XRECORD
  5
1615
102
{ACAD_REACTORS
330
1614
102
}
330
1614
100
AcDbXrecord
280
     1
102
RTVSPropertyOp0
 70
     1
102
RTVSPropertyOp1
 70
     1
102
RTVSPropertyOp2
 70
     1
102
RTVSPropertyOp3
 70
     1
102
RTVSPropertyOp4
 70
     1
102
RTVSPropertyOp5
 70
     1
102
RTVSPropertyOp6
 70
     1
102
RTVSPropertyOp7
 70
     1
102
RTVSPropertyOp8
 70
     1
102
RTVSPropertyOp9
 70
     1
102
RTVSPropertyOp10
 70
     1
102
RTVSPropertyOp11
 70
     1
102
RTVSPropertyOp12
 70
     1
102
RTVSPropertyOp13
 70
     1
102
RTVSPropertyOp14
 70
     1
102
RTVSPropertyOp15
 70
     1
102
RTVSPropertyOp16
 70
     1
102
RTVSPropertyOp17
 70
     1
102
RTVSPropertyOp18
 70
     1
102
RTVSPropertyOp19
 70
     1
102
RTVSPropertyOp20
 70
     1
102
RTVSPropertyOp21
 70
     1
102
RTVSPropertyOp22
 70
     1
102
RTVSPropertyOp23
 70
     1
102
RTVSPropertyOp24
 70
     1
102
RTVSPropertyOp25
 70
     1
102
RTVSPropertyOp26
 70
     1
102
RTVSPropertyOp27
 70
     1
102
RTVSPropertyOp28
 70
     1
102
RTVSPropertyOp29
 70
     1
102
RTVSPropertyOp30
 70
     1
102
RTVSPropertyOp31
 70
     1
102
RTVSPropertyOp32
 70
     1
  0
XRECORD
  5
1613
102
{ACAD_REACTORS
330
1612
102
}
330
1612
100
AcDbXrecord
280
     1
102
RTVSPropertyOp0
 70
     1
102
RTVSPropertyOp1
 70
     1
102
RTVSPropertyOp2
 70
     1
102
RTVSPropertyOp3
 70
     1
102
RTVSPropertyOp4
 70
     1
102
RTVSPropertyOp5
 70
     1
102
RTVSPropertyOp6
 70
     1
102
RTVSPropertyOp7
 70
     1
102
RTVSPropertyOp8
 70
     1
102
RTVSPropertyOp9
 70
     1
102
RTVSPropertyOp10
 70
     1
102
RTVSPropertyOp11
 70
     1
102
RTVSPropertyOp12
 70
     1
102
RTVSPropertyOp13
 70
     1
102
RTVSPropertyOp14
 70
     1
102
RTVSPropertyOp15
 70
     1
102
RTVSPropertyOp16
 70
     1
102
RTVSPropertyOp17
 70
     1
102
RTVSPropertyOp18
 70
     1
102
RTVSPropertyOp19
 70
     1
102
RTVSPropertyOp20
 70
     1
102
RTVSPropertyOp21
 70
     1
102
RTVSPropertyOp22
 70
     1
102
RTVSPropertyOp23
 70
     1
102
RTVSPropertyOp24
 70
     1
102
RTVSPropertyOp25
 70
     1
102
RTVSPropertyOp26
 70
     1
102
RTVSPropertyOp27
 70
     1
102
RTVSPropertyOp28
 70
     1
102
RTVSPropertyOp29
 70
     1
102
RTVSPropertyOp30
 70
     1
102
RTVSPropertyOp31
 70
     1
102
RTVSPropertyOp32
 70
     1
  0
XRECORD
  5
1621
102
{ACAD_REACTORS
330
1620
102
}
330
1620
100
AcDbXrecord
280
     1
102
RTVSPropertyOp0
 70
     1
102
RTVSPropertyOp1
 70
     1
102
RTVSPropertyOp2
 70
     1
102
RTVSPropertyOp3
 70
     1
102
RTVSPropertyOp4
 70
     1
102
RTVSPropertyOp5
 70
     1
102
RTVSPropertyOp6
 70
     1
102
RTVSPropertyOp7
 70
     1
102
RTVSPropertyOp8
 70
     1
102
RTVSPropertyOp9
 70
     1
102
RTVSPropertyOp10
 70
     1
102
RTVSPropertyOp11
 70
     1
102
RTVSPropertyOp12
 70
     1
102
RTVSPropertyOp13
 70
     1
102
RTVSPropertyOp14
 70
     1
102
RTVSPropertyOp15
 70
     1
102
RTVSPropertyOp16
 70
     1
102
RTVSPropertyOp17
 70
     1
102
RTVSPropertyOp18
 70
     1
102
RTVSPropertyOp19
 70
     1
102
RTVSPropertyOp20
 70
     1
102
RTVSPropertyOp21
 70
     1
102
RTVSPropertyOp22
 70
     1
102
RTVSPropertyOp23
 70
     1
102
RTVSPropertyOp24
 70
     1
102
RTVSPropertyOp25
 70
     1
102
RTVSPropertyOp26
 70
     1
102
RTVSPropertyOp27
 70
     1
102
RTVSPropertyOp28
 70
     1
102
RTVSPropertyOp29
 70
     1
102
RTVSPropertyOp30
 70
     1
102
RTVSPropertyOp31
 70
     1
102
RTVSPropertyOp32
 70
     1
  0
XRECORD
  5
1629
102
{ACAD_REACTORS
330
1628
102
}
330
1628
100
AcDbXrecord
280
     1
102
RTVSPropertyOp0
 70
     1
102
RTVSPropertyOp1
 70
     1
102
RTVSPropertyOp2
 70
     1
102
RTVSPropertyOp3
 70
     1
102
RTVSPropertyOp4
 70
     1
102
RTVSPropertyOp5
 70
     1
102
RTVSPropertyOp6
 70
     1
102
RTVSPropertyOp7
 70
     1
102
RTVSPropertyOp8
 70
     1
102
RTVSPropertyOp9
 70
     1
102
RTVSPropertyOp10
 70
     1
102
RTVSPropertyOp11
 70
     1
102
RTVSPropertyOp12
 70
     1
102
RTVSPropertyOp13
 70
     1
102
RTVSPropertyOp14
 70
     1
102
RTVSPropertyOp15
 70
     1
102
RTVSPropertyOp16
 70
     1
102
RTVSPropertyOp17
 70
     1
102
RTVSPropertyOp18
 70
     1
102
RTVSPropertyOp19
 70
     1
102
RTVSPropertyOp20
 70
     1
102
RTVSPropertyOp21
 70
     1
102
RTVSPropertyOp22
 70
     1
102
RTVSPropertyOp23
 70
     1
102
RTVSPropertyOp24
 70
     1
102
RTVSPropertyOp25
 70
     1
102
RTVSPropertyOp26
 70
     1
102
RTVSPropertyOp27
 70
     1
102
RTVSPropertyOp28
 70
     1
102
RTVSPropertyOp29
 70
     1
102
RTVSPropertyOp30
 70
     1
102
RTVSPropertyOp31
 70
     1
102
RTVSPropertyOp32
 70
     1
  0
XRECORD
  5
161B
102
{ACAD_REACTORS
330
161A
102
}
330
161A
100
AcDbXrecord
280
     1
102
RTVSPropertyOp0
 70
     1
102
RTVSPropertyOp1
 70
     1
102
RTVSPropertyOp2
 70
     1
102
RTVSPropertyOp3
 70
     1
102
RTVSPropertyOp4
 70
     1
102
RTVSPropertyOp5
 70
     1
102
RTVSPropertyOp6
 70
     1
102
RTVSPropertyOp7
 70
     1
102
RTVSPropertyOp8
 70
     1
102
RTVSPropertyOp9
 70
     1
102
RTVSPropertyOp10
 70
     1
102
RTVSPropertyOp11
 70
     1
102
RTVSPropertyOp12
 70
     1
102
RTVSPropertyOp13
 70
     1
102
RTVSPropertyOp14
 70
     1
102
RTVSPropertyOp15
 70
     1
102
RTVSPropertyOp16
 70
     1
102
RTVSPropertyOp17
 70
     1
102
RTVSPropertyOp18
 70
     1
102
RTVSPropertyOp19
 70
     1
102
RTVSPropertyOp20
 70
     1
102
RTVSPropertyOp21
 70
     1
102
RTVSPropertyOp22
 70
     1
102
RTVSPropertyOp23
 70
     1
102
RTVSPropertyOp24
 70
     1
102
RTVSPropertyOp25
 70
     1
102
RTVSPropertyOp26
 70
     1
102
RTVSPropertyOp27
 70
     1
102
RTVSPropertyOp28
 70
     1
102
RTVSPropertyOp29
 70
     1
102
RTVSPropertyOp30
 70
     1
102
RTVSPropertyOp31
 70
     1
102
RTVSPropertyOp32
 70
     1
  0
XRECORD
  5
161F
102
{ACAD_REACTORS
330
161E
102
}
330
161E
100
AcDbXrecord
280
     1
102
RTVSPropertyOp0
 70
     1
102
RTVSPropertyOp1
 70
     1
102
RTVSPropertyOp2
 70
     1
102
RTVSPropertyOp3
 70
     1
102
RTVSPropertyOp4
 70
     1
102
RTVSPropertyOp5
 70
     1
102
RTVSPropertyOp6
 70
     1
102
RTVSPropertyOp7
 70
     1
102
RTVSPropertyOp8
 70
     1
102
RTVSPropertyOp9
 70
     1
102
RTVSPropertyOp10
 70
     1
102
RTVSPropertyOp11
 70
     1
102
RTVSPropertyOp12
 70
     1
102
RTVSPropertyOp13
 70
     1
102
RTVSPropertyOp14
 70
     1
102
RTVSPropertyOp15
 70
     1
102
RTVSPropertyOp16
 70
     1
102
RTVSPropertyOp17
 70
     1
102
RTVSPropertyOp18
 70
     1
102
RTVSPropertyOp19
 70
     1
102
RTVSPropertyOp20
 70
     1
102
RTVSPropertyOp21
 70
     1
102
RTVSPropertyOp22
 70
     1
102
RTVSPropertyOp23
 70
     1
102
RTVSPropertyOp24
 70
     1
102
RTVSPropertyOp25
 70
     1
102
RTVSPropertyOp26
 70
     1
102
RTVSPropertyOp27
 70
     1
102
RTVSPropertyOp28
 70
     1
102
RTVSPropertyOp29
 70
     1
102
RTVSPropertyOp30
 70
     1
102
RTVSPropertyOp31
 70
     1
102
RTVSPropertyOp32
 70
     1
  0
XRECORD
  5
1639
102
{ACAD_REACTORS
330
1638
102
}
330
1638
100
AcDbXrecord
280
     1
102
RTVSPropertyOp0
 70
     0
102
RTVSPropertyOp1
 70
     0
102
RTVSPropertyOp2
 70
     0
102
RTVSPropertyOp3
 70
     0
102
RTVSPropertyOp4
 70
     0
102
RTVSPropertyOp5
 70
     0
102
RTVSPropertyOp6
 70
     0
102
RTVSPropertyOp7
 70
     0
102
RTVSPropertyOp8
 70
     0
102
RTVSPropertyOp9
 70
     0
102
RTVSPropertyOp10
 70
     0
102
RTVSPropertyOp11
 70
     0
102
RTVSPropertyOp12
 70
     0
102
RTVSPropertyOp13
 70
     0
102
RTVSPropertyOp14
 70
     2
102
RTVSPropertyOp15
 70
     0
102
RTVSPropertyOp16
 70
     0
102
RTVSPropertyOp17
 70
     0
102
RTVSPropertyOp18
 70
     0
102
RTVSPropertyOp19
 70
     0
102
RTVSPropertyOp20
 70
     0
102
RTVSPropertyOp21
 70
     0
102
RTVSPropertyOp22
 70
     0
102
RTVSPropertyOp23
 70
     0
102
RTVSPropertyOp24
 70
     0
102
RTVSPropertyOp25
 70
     0
102
RTVSPropertyOp26
 70
     0
102
RTVSPropertyOp27
 70
     0
102
RTVSPropertyOp28
 70
     0
102
RTVSPropertyOp29
 70
     0
102
RTVSPropertyOp30
 70
     0
102
RTVSPropertyOp31
 70
     0
102
RTVSPropertyOp32
 70
     0
  0
XRECORD
  5
1627
102
{ACAD_REACTORS
330
1626
102
}
330
1626
100
AcDbXrecord
280
     1
102
RTVSPropertyOp0
 70
     1
102
RTVSPropertyOp1
 70
     1
102
RTVSPropertyOp2
 70
     1
102
RTVSPropertyOp3
 70
     1
102
RTVSPropertyOp4
 70
     1
102
RTVSPropertyOp5
 70
     1
102
RTVSPropertyOp6
 70
     1
102
RTVSPropertyOp7
 70
     1
102
RTVSPropertyOp8
 70
     1
102
RTVSPropertyOp9
 70
     1
102
RTVSPropertyOp10
 70
     1
102
RTVSPropertyOp11
 70
     1
102
RTVSPropertyOp12
 70
     1
102
RTVSPropertyOp13
 70
     1
102
RTVSPropertyOp14
 70
     1
102
RTVSPropertyOp15
 70
     1
102
RTVSPropertyOp16
 70
     1
102
RTVSPropertyOp17
 70
     1
102
RTVSPropertyOp18
 70
     1
102
RTVSPropertyOp19
 70
     1
102
RTVSPropertyOp20
 70
     1
102
RTVSPropertyOp21
 70
     1
102
RTVSPropertyOp22
 70
     1
102
RTVSPropertyOp23
 70
     1
102
RTVSPropertyOp24
 70
     1
102
RTVSPropertyOp25
 70
     1
102
RTVSPropertyOp26
 70
     1
102
RTVSPropertyOp27
 70
     1
102
RTVSPropertyOp28
 70
     1
102
RTVSPropertyOp29
 70
     1
102
RTVSPropertyOp30
 70
     1
102
RTVSPropertyOp31
 70
     1
102
RTVSPropertyOp32
 70
     1
  0
XRECORD
  5
160B
102
{ACAD_REACTORS
330
160A
102
}
330
160A
100
AcDbXrecord
280
     1
102
RTVSPropertyOp0
 70
     1
102
RTVSPropertyOp1
 70
     1
102
RTVSPropertyOp2
 70
     1
102
RTVSPropertyOp3
 70
     1
102
RTVSPropertyOp4
 70
     1
102
RTVSPropertyOp5
 70
     1
102
RTVSPropertyOp6
 70
     1
102
RTVSPropertyOp7
 70
     1
102
RTVSPropertyOp8
 70
     1
102
RTVSPropertyOp9
 70
     1
102
RTVSPropertyOp10
 70
     1
102
RTVSPropertyOp11
 70
     1
102
RTVSPropertyOp12
 70
     1
102
RTVSPropertyOp13
 70
     1
102
RTVSPropertyOp14
 70
     1
102
RTVSPropertyOp15
 70
     1
102
RTVSPropertyOp16
 70
     1
102
RTVSPropertyOp17
 70
     1
102
RTVSPropertyOp18
 70
     1
102
RTVSPropertyOp19
 70
     1
102
RTVSPropertyOp20
 70
     1
102
RTVSPropertyOp21
 70
     1
102
RTVSPropertyOp22
 70
     1
102
RTVSPropertyOp23
 70
     1
102
RTVSPropertyOp24
 70
     1
102
RTVSPropertyOp25
 70
     1
102
RTVSPropertyOp26
 70
     1
102
RTVSPropertyOp27
 70
     1
102
RTVSPropertyOp28
 70
     1
102
RTVSPropertyOp29
 70
     1
102
RTVSPropertyOp30
 70
     1
102
RTVSPropertyOp31
 70
     1
102
RTVSPropertyOp32
 70
     1
  0
XRECORD
  5
160D
102
{ACAD_REACTORS
330
160C
102
}
330
160C
100
AcDbXrecord
280
     1
102
RTVSPropertyOp0
 70
     1
102
RTVSPropertyOp1
 70
     1
102
RTVSPropertyOp2
 70
     1
102
RTVSPropertyOp3
 70
     1
102
RTVSPropertyOp4
 70
     1
102
RTVSPropertyOp5
 70
     1
102
RTVSPropertyOp6
 70
     1
102
RTVSPropertyOp7
 70
     1
102
RTVSPropertyOp8
 70
     1
102
RTVSPropertyOp9
 70
     1
102
RTVSPropertyOp10
 70
     1
102
RTVSPropertyOp11
 70
     1
102
RTVSPropertyOp12
 70
     1
102
RTVSPropertyOp13
 70
     1
102
RTVSPropertyOp14
 70
     1
102
RTVSPropertyOp15
 70
     1
102
RTVSPropertyOp16
 70
     1
102
RTVSPropertyOp17
 70
     1
102
RTVSPropertyOp18
 70
     1
102
RTVSPropertyOp19
 70
     1
102
RTVSPropertyOp20
 70
     1
102
RTVSPropertyOp21
 70
     1
102
RTVSPropertyOp22
 70
     1
102
RTVSPropertyOp23
 70
     1
102
RTVSPropertyOp24
 70
     1
102
RTVSPropertyOp25
 70
     1
102
RTVSPropertyOp26
 70
     1
102
RTVSPropertyOp27
 70
     1
102
RTVSPropertyOp28
 70
     1
102
RTVSPropertyOp29
 70
     1
102
RTVSPropertyOp30
 70
     1
102
RTVSPropertyOp31
 70
     1
102
RTVSPropertyOp32
 70
     1
  0
XRECORD
  5
160F
102
{ACAD_REACTORS
330
160E
102
}
330
160E
100
AcDbXrecord
280
     1
102
RTVSPropertyOp0
 70
     1
102
RTVSPropertyOp1
 70
     1
102
RTVSPropertyOp2
 70
     1
102
RTVSPropertyOp3
 70
     1
102
RTVSPropertyOp4
 70
     1
102
RTVSPropertyOp5
 70
     1
102
RTVSPropertyOp6
 70
     1
102
RTVSPropertyOp7
 70
     1
102
RTVSPropertyOp8
 70
     1
102
RTVSPropertyOp9
 70
     1
102
RTVSPropertyOp10
 70
     1
102
RTVSPropertyOp11
 70
     1
102
RTVSPropertyOp12
 70
     1
102
RTVSPropertyOp13
 70
     1
102
RTVSPropertyOp14
 70
     1
102
RTVSPropertyOp15
 70
     1
102
RTVSPropertyOp16
 70
     1
102
RTVSPropertyOp17
 70
     1
102
RTVSPropertyOp18
 70
     1
102
RTVSPropertyOp19
 70
     1
102
RTVSPropertyOp20
 70
     1
102
RTVSPropertyOp21
 70
     1
102
RTVSPropertyOp22
 70
     1
102
RTVSPropertyOp23
 70
     1
102
RTVSPropertyOp24
 70
     1
102
RTVSPropertyOp25
 70
     1
102
RTVSPropertyOp26
 70
     1
102
RTVSPropertyOp27
 70
     1
102
RTVSPropertyOp28
 70
     1
102
RTVSPropertyOp29
 70
     1
102
RTVSPropertyOp30
 70
     1
102
RTVSPropertyOp31
 70
     1
102
RTVSPropertyOp32
 70
     1
  0
XRECORD
  5
1611
102
{ACAD_REACTORS
330
1610
102
}
330
1610
100
AcDbXrecord
280
     1
102
RTVSPropertyOp0
 70
     1
102
RTVSPropertyOp1
 70
     1
102
RTVSPropertyOp2
 70
     1
102
RTVSPropertyOp3
 70
     1
102
RTVSPropertyOp4
 70
     1
102
RTVSPropertyOp5
 70
     1
102
RTVSPropertyOp6
 70
     1
102
RTVSPropertyOp7
 70
     1
102
RTVSPropertyOp8
 70
     1
102
RTVSPropertyOp9
 70
     1
102
RTVSPropertyOp10
 70
     1
102
RTVSPropertyOp11
 70
     1
102
RTVSPropertyOp12
 70
     1
102
RTVSPropertyOp13
 70
     1
102
RTVSPropertyOp14
 70
     1
102
RTVSPropertyOp15
 70
     1
102
RTVSPropertyOp16
 70
     1
102
RTVSPropertyOp17
 70
     1
102
RTVSPropertyOp18
 70
     1
102
RTVSPropertyOp19
 70
     1
102
RTVSPropertyOp20
 70
     1
102
RTVSPropertyOp21
 70
     1
102
RTVSPropertyOp22
 70
     1
102
RTVSPropertyOp23
 70
     1
102
RTVSPropertyOp24
 70
     1
102
RTVSPropertyOp25
 70
     1
102
RTVSPropertyOp26
 70
     1
102
RTVSPropertyOp27
 70
     1
102
RTVSPropertyOp28
 70
     1
102
RTVSPropertyOp29
 70
     1
102
RTVSPropertyOp30
 70
     1
102
RTVSPropertyOp31
 70
     1
102
RTVSPropertyOp32
 70
     1
  0
XRECORD
  5
1619
102
{ACAD_REACTORS
330
1618
102
}
330
1618
100
AcDbXrecord
280
     1
102
RTVSPropertyOp0
 70
     1
102
RTVSPropertyOp1
 70
     1
102
RTVSPropertyOp2
 70
     1
102
RTVSPropertyOp3
 70
     1
102
RTVSPropertyOp4
 70
     1
102
RTVSPropertyOp5
 70
     1
102
RTVSPropertyOp6
 70
     1
102
RTVSPropertyOp7
 70
     1
102
RTVSPropertyOp8
 70
     1
102
RTVSPropertyOp9
 70
     1
102
RTVSPropertyOp10
 70
     1
102
RTVSPropertyOp11
 70
     1
102
RTVSPropertyOp12
 70
     1
102
RTVSPropertyOp13
 70
     1
102
RTVSPropertyOp14
 70
     1
102
RTVSPropertyOp15
 70
     1
102
RTVSPropertyOp16
 70
     1
102
RTVSPropertyOp17
 70
     1
102
RTVSPropertyOp18
 70
     1
102
RTVSPropertyOp19
 70
     1
102
RTVSPropertyOp20
 70
     1
102
RTVSPropertyOp21
 70
     1
102
RTVSPropertyOp22
 70
     1
102
RTVSPropertyOp23
 70
     1
102
RTVSPropertyOp24
 70
     1
102
RTVSPropertyOp25
 70
     1
102
RTVSPropertyOp26
 70
     1
102
RTVSPropertyOp27
 70
     1
102
RTVSPropertyOp28
 70
     1
102
RTVSPropertyOp29
 70
     1
102
RTVSPropertyOp30
 70
     1
102
RTVSPropertyOp31
 70
     1
102
RTVSPropertyOp32
 70
     1
  0
XRECORD
  5
1635
102
{ACAD_REACTORS
330
1634
102
}
330
1634
100
AcDbXrecord
280
     1
102
RTVSPropertyOp0
 70
     0
102
RTVSPropertyOp1
 70
     0
102
RTVSPropertyOp2
 70
     0
102
RTVSPropertyOp3
 70
     0
102
RTVSPropertyOp4
 70
     0
102
RTVSPropertyOp5
 70
     0
102
RTVSPropertyOp6
 70
     0
102
RTVSPropertyOp7
 70
     0
102
RTVSPropertyOp8
 70
     0
102
RTVSPropertyOp9
 70
     0
102
RTVSPropertyOp10
 70
     0
102
RTVSPropertyOp11
 70
     0
102
RTVSPropertyOp12
 70
     0
102
RTVSPropertyOp13
 70
     0
102
RTVSPropertyOp14
 70
     2
102
RTVSPropertyOp15
 70
     0
102
RTVSPropertyOp16
 70
     0
102
RTVSPropertyOp17
 70
     0
102
RTVSPropertyOp18
 70
     0
102
RTVSPropertyOp19
 70
     0
102
RTVSPropertyOp20
 70
     0
102
RTVSPropertyOp21
 70
     0
102
RTVSPropertyOp22
 70
     0
102
RTVSPropertyOp23
 70
     0
102
RTVSPropertyOp24
 70
     0
102
RTVSPropertyOp25
 70
     0
102
RTVSPropertyOp26
 70
     0
102
RTVSPropertyOp27
 70
     0
102
RTVSPropertyOp28
 70
     0
102
RTVSPropertyOp29
 70
     0
102
RTVSPropertyOp30
 70
     0
102
RTVSPropertyOp31
 70
     0
102
RTVSPropertyOp32
 70
     0
  0
XRECORD
  5
1625
102
{ACAD_REACTORS
330
1624
102
}
330
1624
100
AcDbXrecord
280
     1
102
RTVSPropertyOp0
 70
     1
102
RTVSPropertyOp1
 70
     1
102
RTVSPropertyOp2
 70
     1
102
RTVSPropertyOp3
 70
     1
102
RTVSPropertyOp4
 70
     1
102
RTVSPropertyOp5
 70
     1
102
RTVSPropertyOp6
 70
     1
102
RTVSPropertyOp7
 70
     1
102
RTVSPropertyOp8
 70
     1
102
RTVSPropertyOp9
 70
     1
102
RTVSPropertyOp10
 70
     1
102
RTVSPropertyOp11
 70
     1
102
RTVSPropertyOp12
 70
     1
102
RTVSPropertyOp13
 70
     1
102
RTVSPropertyOp14
 70
     1
102
RTVSPropertyOp15
 70
     1
102
RTVSPropertyOp16
 70
     1
102
RTVSPropertyOp17
 70
     1
102
RTVSPropertyOp18
 70
     1
102
RTVSPropertyOp19
 70
     1
102
RTVSPropertyOp20
 70
     1
102
RTVSPropertyOp21
 70
     1
102
RTVSPropertyOp22
 70
     1
102
RTVSPropertyOp23
 70
     1
102
RTVSPropertyOp24
 70
     1
102
RTVSPropertyOp25
 70
     1
102
RTVSPropertyOp26
 70
     1
102
RTVSPropertyOp27
 70
     1
102
RTVSPropertyOp28
 70
     1
102
RTVSPropertyOp29
 70
     1
102
RTVSPropertyOp30
 70
     1
102
RTVSPropertyOp31
 70
     1
102
RTVSPropertyOp32
 70
     1
  0
XRECORD
  5
1637
102
{ACAD_REACTORS
330
1636
102
}
330
1636
100
AcDbXrecord
280
     1
102
RTVSPropertyOp0
 70
     0
102
RTVSPropertyOp1
 70
     0
102
RTVSPropertyOp2
 70
     0
102
RTVSPropertyOp3
 70
     0
102
RTVSPropertyOp4
 70
     0
102
RTVSPropertyOp5
 70
     0
102
RTVSPropertyOp6
 70
     0
102
RTVSPropertyOp7
 70
     0
102
RTVSPropertyOp8
 70
     0
102
RTVSPropertyOp9
 70
     0
102
RTVSPropertyOp10
 70
     0
102
RTVSPropertyOp11
 70
     0
102
RTVSPropertyOp12
 70
     0
102
RTVSPropertyOp13
 70
     0
102
RTVSPropertyOp14
 70
     2
102
RTVSPropertyOp15
 70
     0
102
RTVSPropertyOp16
 70
     0
102
RTVSPropertyOp17
 70
     0
102
RTVSPropertyOp18
 70
     0
102
RTVSPropertyOp19
 70
     0
102
RTVSPropertyOp20
 70
     0
102
RTVSPropertyOp21
 70
     0
102
RTVSPropertyOp22
 70
     0
102
RTVSPropertyOp23
 70
     0
102
RTVSPropertyOp24
 70
     0
102
RTVSPropertyOp25
 70
     0
102
RTVSPropertyOp26
 70
     0
102
RTVSPropertyOp27
 70
     0
102
RTVSPropertyOp28
 70
     0
102
RTVSPropertyOp29
 70
     0
102
RTVSPropertyOp30
 70
     0
102
RTVSPropertyOp31
 70
     0
102
RTVSPropertyOp32
 70
     0
  0
XRECORD
  5
161D
102
{ACAD_REACTORS
330
161C
102
}
330
161C
100
AcDbXrecord
280
     1
102
RTVSPropertyOp0
 70
     1
102
RTVSPropertyOp1
 70
     1
102
RTVSPropertyOp2
 70
     1
102
RTVSPropertyOp3
 70
     1
102
RTVSPropertyOp4
 70
     1
102
RTVSPropertyOp5
 70
     1
102
RTVSPropertyOp6
 70
     1
102
RTVSPropertyOp7
 70
     1
102
RTVSPropertyOp8
 70
     1
102
RTVSPropertyOp9
 70
     1
102
RTVSPropertyOp10
 70
     1
102
RTVSPropertyOp11
 70
     1
102
RTVSPropertyOp12
 70
     1
102
RTVSPropertyOp13
 70
     1
102
RTVSPropertyOp14
 70
     1
102
RTVSPropertyOp15
 70
     1
102
RTVSPropertyOp16
 70
     1
102
RTVSPropertyOp17
 70
     1
102
RTVSPropertyOp18
 70
     1
102
RTVSPropertyOp19
 70
     1
102
RTVSPropertyOp20
 70
     1
102
RTVSPropertyOp21
 70
     1
102
RTVSPropertyOp22
 70
     1
102
RTVSPropertyOp23
 70
     1
102
RTVSPropertyOp24
 70
     1
102
RTVSPropertyOp25
 70
     1
102
RTVSPropertyOp26
 70
     1
102
RTVSPropertyOp27
 70
     1
102
RTVSPropertyOp28
 70
     1
102
RTVSPropertyOp29
 70
     1
102
RTVSPropertyOp30
 70
     1
102
RTVSPropertyOp31
 70
     1
102
RTVSPropertyOp32
 70
     1
  0
XRECORD
  5
1633
102
{ACAD_REACTORS
330
1632
102
}
330
1632
100
AcDbXrecord
280
     1
102
RTVSPropertyOp0
 70
     1
102
RTVSPropertyOp1
 70
     1
102
RTVSPropertyOp2
 70
     1
102
RTVSPropertyOp3
 70
     1
102
RTVSPropertyOp4
 70
     1
102
RTVSPropertyOp5
 70
     1
102
RTVSPropertyOp6
 70
     1
102
RTVSPropertyOp7
 70
     1
102
RTVSPropertyOp8
 70
     1
102
RTVSPropertyOp9
 70
     1
102
RTVSPropertyOp10
 70
     1
102
RTVSPropertyOp11
 70
     1
102
RTVSPropertyOp12
 70
     1
102
RTVSPropertyOp13
 70
     1
102
RTVSPropertyOp14
 70
     1
102
RTVSPropertyOp15
 70
     1
102
RTVSPropertyOp16
 70
     1
102
RTVSPropertyOp17
 70
     1
102
RTVSPropertyOp18
 70
     1
102
RTVSPropertyOp19
 70
     1
102
RTVSPropertyOp20
 70
     1
102
RTVSPropertyOp21
 70
     1
102
RTVSPropertyOp22
 70
     1
102
RTVSPropertyOp23
 70
     1
102
RTVSPropertyOp24
 70
     1
102
RTVSPropertyOp25
 70
     1
102
RTVSPropertyOp26
 70
     1
102
RTVSPropertyOp27
 70
     1
102
RTVSPropertyOp28
 70
     1
102
RTVSPropertyOp29
 70
     1
102
RTVSPropertyOp30
 70
     1
102
RTVSPropertyOp31
 70
     1
102
RTVSPropertyOp32
 70
     1
  0
XRECORD
  5
1631
102
{ACAD_REACTORS
330
1630
102
}
330
1630
100
AcDbXrecord
280
     1
102
RTVSPropertyOp0
 70
     1
102
RTVSPropertyOp1
 70
     1
102
RTVSPropertyOp2
 70
     1
102
RTVSPropertyOp3
 70
     1
102
RTVSPropertyOp4
 70
     1
102
RTVSPropertyOp5
 70
     1
102
RTVSPropertyOp6
 70
     1
102
RTVSPropertyOp7
 70
     1
102
RTVSPropertyOp8
 70
     1
102
RTVSPropertyOp9
 70
     1
102
RTVSPropertyOp10
 70
     1
102
RTVSPropertyOp11
 70
     1
102
RTVSPropertyOp12
 70
     1
102
RTVSPropertyOp13
 70
     1
102
RTVSPropertyOp14
 70
     1
102
RTVSPropertyOp15
 70
     1
102
RTVSPropertyOp16
 70
     1
102
RTVSPropertyOp17
 70
     1
102
RTVSPropertyOp18
 70
     1
102
RTVSPropertyOp19
 70
     1
102
RTVSPropertyOp20
 70
     1
102
RTVSPropertyOp21
 70
     1
102
RTVSPropertyOp22
 70
     1
102
RTVSPropertyOp23
 70
     1
102
RTVSPropertyOp24
 70
     1
102
RTVSPropertyOp25
 70
     1
102
RTVSPropertyOp26
 70
     1
102
RTVSPropertyOp27
 70
     1
102
RTVSPropertyOp28
 70
     1
102
RTVSPropertyOp29
 70
     1
102
RTVSPropertyOp30
 70
     1
102
RTVSPropertyOp31
 70
     1
102
RTVSPropertyOp32
 70
     1
  0
XRECORD
  5
162B
102
{ACAD_REACTORS
330
162A
102
}
330
162A
100
AcDbXrecord
280
     1
102
RTVSPropertyOp0
 70
     1
102
RTVSPropertyOp1
 70
     1
102
RTVSPropertyOp2
 70
     1
102
RTVSPropertyOp3
 70
     1
102
RTVSPropertyOp4
 70
     1
102
RTVSPropertyOp5
 70
     1
102
RTVSPropertyOp6
 70
     1
102
RTVSPropertyOp7
 70
     1
102
RTVSPropertyOp8
 70
     1
102
RTVSPropertyOp9
 70
     1
102
RTVSPropertyOp10
 70
     1
102
RTVSPropertyOp11
 70
     1
102
RTVSPropertyOp12
 70
     1
102
RTVSPropertyOp13
 70
     1
102
RTVSPropertyOp14
 70
     1
102
RTVSPropertyOp15
 70
     1
102
RTVSPropertyOp16
 70
     1
102
RTVSPropertyOp17
 70
     1
102
RTVSPropertyOp18
 70
     1
102
RTVSPropertyOp19
 70
     1
102
RTVSPropertyOp20
 70
     1
102
RTVSPropertyOp21
 70
     1
102
RTVSPropertyOp22
 70
     1
102
RTVSPropertyOp23
 70
     1
102
RTVSPropertyOp24
 70
     1
102
RTVSPropertyOp25
 70
     1
102
RTVSPropertyOp26
 70
     1
102
RTVSPropertyOp27
 70
     1
102
RTVSPropertyOp28
 70
     1
102
RTVSPropertyOp29
 70
     1
102
RTVSPropertyOp30
 70
     1
102
RTVSPropertyOp31
 70
     1
102
RTVSPropertyOp32
 70
     1
  0
XRECORD
  5
162D
102
{ACAD_REACTORS
330
162C
102
}
330
162C
100
AcDbXrecord
280
     1
102
RTVSPropertyOp0
 70
     1
102
RTVSPropertyOp1
 70
     1
102
RTVSPropertyOp2
 70
     1
102
RTVSPropertyOp3
 70
     1
102
RTVSPropertyOp4
 70
     1
102
RTVSPropertyOp5
 70
     1
102
RTVSPropertyOp6
 70
     1
102
RTVSPropertyOp7
 70
     1
102
RTVSPropertyOp8
 70
     1
102
RTVSPropertyOp9
 70
     1
102
RTVSPropertyOp10
 70
     1
102
RTVSPropertyOp11
 70
     1
102
RTVSPropertyOp12
 70
     1
102
RTVSPropertyOp13
 70
     1
102
RTVSPropertyOp14
 70
     1
102
RTVSPropertyOp15
 70
     1
102
RTVSPropertyOp16
 70
     1
102
RTVSPropertyOp17
 70
     1
102
RTVSPropertyOp18
 70
     1
102
RTVSPropertyOp19
 70
     1
102
RTVSPropertyOp20
 70
     1
102
RTVSPropertyOp21
 70
     1
102
RTVSPropertyOp22
 70
     1
102
RTVSPropertyOp23
 70
     1
102
RTVSPropertyOp24
 70
     1
102
RTVSPropertyOp25
 70
     1
102
RTVSPropertyOp26
 70
     1
102
RTVSPropertyOp27
 70
     1
102
RTVSPropertyOp28
 70
     1
102
RTVSPropertyOp29
 70
     1
102
RTVSPropertyOp30
 70
     1
102
RTVSPropertyOp31
 70
     1
102
RTVSPropertyOp32
 70
     1
  0
XRECORD
  5
1623
102
{ACAD_REACTORS
330
1622
102
}
330
1622
100
AcDbXrecord
280
     1
102
RTVSPropertyOp0
 70
     1
102
RTVSPropertyOp1
 70
     1
102
RTVSPropertyOp2
 70
     1
102
RTVSPropertyOp3
 70
     1
102
RTVSPropertyOp4
 70
     1
102
RTVSPropertyOp5
 70
     1
102
RTVSPropertyOp6
 70
     1
102
RTVSPropertyOp7
 70
     1
102
RTVSPropertyOp8
 70
     1
102
RTVSPropertyOp9
 70
     1
102
RTVSPropertyOp10
 70
     1
102
RTVSPropertyOp11
 70
     1
102
RTVSPropertyOp12
 70
     1
102
RTVSPropertyOp13
 70
     1
102
RTVSPropertyOp14
 70
     1
102
RTVSPropertyOp15
 70
     1
102
RTVSPropertyOp16
 70
     1
102
RTVSPropertyOp17
 70
     1
102
RTVSPropertyOp18
 70
     1
102
RTVSPropertyOp19
 70
     1
102
RTVSPropertyOp20
 70
     1
102
RTVSPropertyOp21
 70
     1
102
RTVSPropertyOp22
 70
     1
102
RTVSPropertyOp23
 70
     1
102
RTVSPropertyOp24
 70
     1
102
RTVSPropertyOp25
 70
     1
102
RTVSPropertyOp26
 70
     1
102
RTVSPropertyOp27
 70
     1
102
RTVSPropertyOp28
 70
     1
102
RTVSPropertyOp29
 70
     1
102
RTVSPropertyOp30
 70
     1
102
RTVSPropertyOp31
 70
     1
102
RTVSPropertyOp32
 70
     1
  0
XRECORD
  5
1617
102
{ACAD_REACTORS
330
1616
102
}
330
1616
100
AcDbXrecord
280
     1
102
RTVSPropertyOp0
 70
     1
102
RTVSPropertyOp1
 70
     1
102
RTVSPropertyOp2
 70
     1
102
RTVSPropertyOp3
 70
     1
102
RTVSPropertyOp4
 70
     1
102
RTVSPropertyOp5
 70
     1
102
RTVSPropertyOp6
 70
     1
102
RTVSPropertyOp7
 70
     1
102
RTVSPropertyOp8
 70
     1
102
RTVSPropertyOp9
 70
     1
102
RTVSPropertyOp10
 70
     1
102
RTVSPropertyOp11
 70
     1
102
RTVSPropertyOp12
 70
     1
102
RTVSPropertyOp13
 70
     1
102
RTVSPropertyOp14
 70
     1
102
RTVSPropertyOp15
 70
     1
102
RTVSPropertyOp16
 70
     1
102
RTVSPropertyOp17
 70
     1
102
RTVSPropertyOp18
 70
     1
102
RTVSPropertyOp19
 70
     1
102
RTVSPropertyOp20
 70
     1
102
RTVSPropertyOp21
 70
     1
102
RTVSPropertyOp22
 70
     1
102
RTVSPropertyOp23
 70
     1
102
RTVSPropertyOp24
 70
     1
102
RTVSPropertyOp25
 70
     1
102
RTVSPropertyOp26
 70
     1
102
RTVSPropertyOp27
 70
     1
102
RTVSPropertyOp28
 70
     1
102
RTVSPropertyOp29
 70
     1
102
RTVSPropertyOp30
 70
     1
102
RTVSPropertyOp31
 70
     1
102
RTVSPropertyOp32
 70
     1
  0
XRECORD
  5
162F
102
{ACAD_REACTORS
330
162E
102
}
330
162E
100
AcDbXrecord
280
     1
102
RTVSPropertyOp0
 70
     1
102
RTVSPropertyOp1
 70
     1
102
RTVSPropertyOp2
 70
     1
102
RTVSPropertyOp3
 70
     1
102
RTVSPropertyOp4
 70
     1
102
RTVSPropertyOp5
 70
     1
102
RTVSPropertyOp6
 70
     1
102
RTVSPropertyOp7
 70
     1
102
RTVSPropertyOp8
 70
     1
102
RTVSPropertyOp9
 70
     1
102
RTVSPropertyOp10
 70
     1
102
RTVSPropertyOp11
 70
     1
102
RTVSPropertyOp12
 70
     1
102
RTVSPropertyOp13
 70
     1
102
RTVSPropertyOp14
 70
     1
102
RTVSPropertyOp15
 70
     1
102
RTVSPropertyOp16
 70
     1
102
RTVSPropertyOp17
 70
     1
102
RTVSPropertyOp18
 70
     1
102
RTVSPropertyOp19
 70
     1
102
RTVSPropertyOp20
 70
     1
102
RTVSPropertyOp21
 70
     1
102
RTVSPropertyOp22
 70
     1
102
RTVSPropertyOp23
 70
     1
102
RTVSPropertyOp24
 70
     1
102
RTVSPropertyOp25
 70
     1
102
RTVSPropertyOp26
 70
     1
102
RTVSPropertyOp27
 70
     1
102
RTVSPropertyOp28
 70
     1
102
RTVSPropertyOp29
 70
     1
102
RTVSPropertyOp30
 70
     1
102
RTVSPropertyOp31
 70
     1
102
RTVSPropertyOp32
 70
     1
  0
ENDSEC
  0
EOF
