  0
SECTION
  2
HEADER
  9
$ACADVER
  1
AC1015
  9
$ACADMAINTVER
 70
    20
  9
$DWGCODEPAGE
  3
ANSI_1252
  9
$INSBASE
 10
0.0
 20
0.0
 30
0.0
  9
$EXTMIN
 10
-87.33404787517917
 20
-49.91864485347867
 30
-0.0000000000112498
  9
$EXTMAX
 10
86.73712340659653
 20
74.45920390718413
 30
0.0000000000002956
  9
$LIMMIN
 10
0.0
 20
0.0
  9
$LIMMAX
 10
420.0
 20
297.0
  9
$ORTHOMODE
 70
     0
  9
$REGENMODE
 70
     1
  9
$FILLMODE
 70
     1
  9
$QTEXTMODE
 70
     0
  9
$MIRRTEXT
 70
     1
  9
$LTSCALE
 40
1.0
  9
$ATTMODE
 70
     1
  9
$TEXTSIZE
 40
0.2
  9
$TRACEWID
 40
1.0
  9
$TEXTSTYLE
  7
Standard
  9
$CLAYER
  8
0
  9
$CELTYPE
  6
ByLayer
  9
$CECOLOR
 62
   256
  9
$CELTSCALE
 40
1.0
  9
$DISPSILH
 70
     0
  9
$DIMSCALE
 40
1.0
  9
$DIMASZ
 40
2.5
  9
$DIMEXO
 40
0.0
  9
$DIMDLI
 40
3.75
  9
$DIMRND
 40
0.0
  9
$DIMDLE
 40
0.0
  9
$DIMEXE
 40
1.25
  9
$DIMTP
 40
0.0
  9
$DIMTM
 40
0.0
  9
$DIMTXT
 40
3.5
  9
$DIMCEN
 40
0.0
  9
$DIMTSZ
 40
0.0
  9
$DIMTOL
 70
     0
  9
$DIMLIM
 70
     0
  9
$DIMTIH
 70
     0
  9
$DIMTOH
 70
     0
  9
$DIMSE1
 70
     0
  9
$DIMSE2
 70
     0
  9
$DIMTAD
 70
     1
  9
$DIMZIN
 70
     8
  9
$DIMBLK
  1

  9
$DIMASO
 70
     1
  9
$DIMSHO
 70
     1
  9
$DIMPOST
  1

  9
$DIMAPOST
  1

  9
$DIMALT
 70
     0
  9
$DIMALTD
 70
     3
  9
$DIMALTF
 40
0.039370078
  9
$DIMLFAC
 40
1.0
  9
$DIMTOFL
 70
     0
  9
$DIMTVP
 40
0.0
  9
$DIMTIX
 70
     0
  9
$DIMSOXD
 70
     0
  9
$DIMSAH
 70
     0
  9
$DIMBLK1
  1

  9
$DIMBLK2
  1

  9
$DIMSTYLE
  2
Standard
  9
$DIMCLRD
 70
     0
  9
$DIMCLRE
 70
     0
  9
$DIMCLRT
 70
     0
  9
$DIMTFAC
 40
1.0
  9
$DIMGAP
 40
0.625
  9
$DIMJUST
 70
     0
  9
$DIMSD1
 70
     0
  9
$DIMSD2
 70
     0
  9
$DIMTOLJ
 70
     0
  9
$DIMTZIN
 70
     8
  9
$DIMALTZ
 70
     0
  9
$DIMALTTZ
 70
     0
  9
$DIMUPT
 70
     0
  9
$DIMDEC
 70
     2
  9
$DIMTDEC
 70
     2
  9
$DIMALTU
 70
     2
  9
$DIMALTTD
 70
     3
  9
$DIMTXSTY
  7
Standard
  9
$DIMAUNIT
 70
     0
  9
$DIMADEC
 70
     2
  9
$DIMALTRND
 40
0.0
  9
$DIMAZIN
 70
     2
  9
$DIMDSEP
 70
    46
  9
$DIMATFIT
 70
     3
  9
$DIMFRAC
 70
     0
  9
$DIMLDRBLK
  1

  9
$DIMLUNIT
 70
     2
  9
$DIMLWD
 70
    -2
  9
$DIMLWE
 70
    -2
  9
$DIMTMOVE
 70
     0
  9
$LUNITS
 70
     2
  9
$LUPREC
 70
     4
  9
$SKETCHINC
 40
1.0
  9
$FILLETRAD
 40
0.0
  9
$AUNITS
 70
     0
  9
$AUPREC
 70
     0
  9
$MENU
  1
.
  9
$ELEVATION
 40
0.0
  9
$PELEVATION
 40
0.0
  9
$THICKNESS
 40
0.0
  9
$LIMCHECK
 70
     0
  9
$CHAMFERA
 40
2.5
  9
$CHAMFERB
 40
2.5
  9
$CHAMFERC
 40
0.0
  9
$CHAMFERD
 40
0.0
  9
$SKPOLY
 70
     0
  9
$TDCREATE
 40
2453353.800459155
  9
$TDUCREATE
 40
2453353.717125822
  9
$TDUPDATE
 40
2460185.575228010
  9
$TDUUPDATE
 40
2460185.491894676
  9
$TDINDWG
 40
0.1334863889
  9
$TDUSRTIMER
 40
0.1334280671
  9
$USRTIMER
 70
     1
  9
$ANGBASE
 50
0.0
  9
$ANGDIR
 70
     0
  9
$PDMODE
 70
     3
  9
$PDSIZE
 40
0.0
  9
$PLINEWID
 40
0.0
  9
$SPLFRAME
 70
     0
  9
$SPLINETYPE
 70
     6
  9
$SPLINESEGS
 70
     8
  9
$HANDSEED
  5
3B5B
  9
$SURFTAB1
 70
     6
  9
$SURFTAB2
 70
     6
  9
$SURFTYPE
 70
     6
  9
$SURFU
 70
     6
  9
$SURFV
 70
     6
  9
$UCSBASE
  2

  9
$UCSNAME
  2

  9
$UCSORG
 10
0.0
 20
0.0
 30
0.0
  9
$UCSXDIR
 10
1.0
 20
0.0
 30
0.0
  9
$UCSYDIR
 10
0.0
 20
1.0
 30
0.0
  9
$UCSORTHOREF
  2

  9
$UCSORTHOVIEW
 70
     0
  9
$UCSORGTOP
 10
0.0
 20
0.0
 30
0.0
  9
$UCSORGBOTTOM
 10
0.0
 20
0.0
 30
0.0
  9
$UCSORGLEFT
 10
0.0
 20
0.0
 30
0.0
  9
$UCSORGRIGHT
 10
0.0
 20
0.0
 30
0.0
  9
$UCSORGFRONT
 10
0.0
 20
0.0
 30
0.0
  9
$UCSORGBACK
 10
0.0
 20
0.0
 30
0.0
  9
$PUCSBASE
  2

  9
$PUCSNAME
  2

  9
$PUCSORG
 10
0.0
 20
0.0
 30
0.0
  9
$PUCSXDIR
 10
1.0
 20
0.0
 30
0.0
  9
$PUCSYDIR
 10
0.0
 20
1.0
 30
0.0
  9
$PUCSORTHOREF
  2

  9
$PUCSORTHOVIEW
 70
     0
  9
$PUCSORGTOP
 10
0.0
 20
0.0
 30
0.0
  9
$PUCSORGBOTTOM
 10
0.0
 20
0.0
 30
0.0
  9
$PUCSORGLEFT
 10
0.0
 20
0.0
 30
0.0
  9
$PUCSORGRIGHT
 10
0.0
 20
0.0
 30
0.0
  9
$PUCSORGFRONT
 10
0.0
 20
0.0
 30
0.0
  9
$PUCSORGBACK
 10
0.0
 20
0.0
 30
0.0
  9
$USERI1
 70
     0
  9
$USERI2
 70
     0
  9
$USERI3
 70
     0
  9
$USERI4
 70
     0
  9
$USERI5
 70
     0
  9
$USERR1
 40
0.0
  9
$USERR2
 40
0.0
  9
$USERR3
 40
0.0
  9
$USERR4
 40
0.0
  9
$USERR5
 40
0.0
  9
$WORLDVIEW
 70
     1
  9
$SHADEDGE
 70
     3
  9
$SHADEDIF
 70
    70
  9
$TILEMODE
 70
     1
  9
$MAXACTVP
 70
    48
  9
$PINSBASE
 10
0.0
 20
0.0
 30
0.0
  9
$PLIMCHECK
 70
     0
  9
$PEXTMIN
 10
0.0
 20
0.0
 30
0.0
  9
$PEXTMAX
 10
281.007629
 20
92.32476
 30
2.0
  9
$PLIMMIN
 10
0.0
 20
0.0
  9
$PLIMMAX
 10
420.0
 20
297.0
  9
$UNITMODE
 70
     0
  9
$VISRETAIN
 70
     0
  9
$PLINEGEN
 70
     0
  9
$PSLTSCALE
 70
     1
  9
$TREEDEPTH
 70
  3020
  9
$CMLSTYLE
  2
Standard
  9
$CMLJUST
 70
     0
  9
$CMLSCALE
 40
20.0
  9
$PROXYGRAPHICS
 70
     0
  9
$MEASUREMENT
 70
     1
  9
$CELWEIGHT
370
    -1
  9
$ENDCAPS
280
     0
  9
$JOINSTYLE
280
     0
  9
$LWDISPLAY
290
     0
  9
$INSUNITS
 70
     0
  9
$HYPERLINKBASE
  1

  9
$STYLESHEET
  1

  9
$XEDIT
290
     1
  9
$CEPSNTYPE
380
     0
  9
$PSTYLEMODE
290
     0
  9
$FINGERPRINTGUID
  2

  9
$VERSIONGUID
  2
{4CC23DF6-68ED-44D8-AB92-388C14BD251B}
  9
$EXTNAMES
290
     0
  9
$PSVPSCALE
 40
0.0
  9
$OLESTARTUP
290
     0
  0
ENDSEC
  0
SECTION
  2
CLASSES
  0
CLASS
  1
ACDBDICTIONARYWDFLT
  2
AcDbDictionaryWithDefault
  3
ObjectDBX Classes
 90
        0
280
     0
281
     0
  0
CLASS
  1
ACDBPLACEHOLDER
  2
AcDbPlaceHolder
  3
ObjectDBX Classes
 90
        0
280
     0
281
     0
  0
CLASS
  1
LAYOUT
  2
AcDbLayout
  3
ObjectDBX Classes
 90
        0
280
     0
281
     0
  0
CLASS
  1
DICTIONARYVAR
  2
AcDbDictionaryVar
  3
ObjectDBX Classes
 90
        0
280
     0
281
     0
  0
CLASS
  1
TABLESTYLE
  2
AcDbTableStyle
  3
ObjectDBX Classes
 90
     4095
280
     0
281
     0
  0
CLASS
  1
SCALE
  2
AcDbScale
  3
ObjectDBX Classes
 90
     1153
280
     0
281
     0
  0
CLASS
  1
WIPEOUTVARIABLES
  2
AcDbWipeoutVariables
  3
"WipeOut|Product Desc:     WipeOut Dbx Application|Company:          Autodesk, Inc.|WEB Address:      www.autodesk.com"
 90
        0
280
     0
281
     0
  0
CLASS
  1
SORTENTSTABLE
  2
AcDbSortentsTable
  3
ObjectDBX Classes
 90
        0
280
     0
281
     0
  0
CLASS
  1
MATERIAL
  2
AcDbMaterial
  3
ObjectDBX Classes
 90
     1153
280
     0
281
     0
  0
CLASS
  1
VISUALSTYLE
  2
AcDbVisualStyle
  3
ObjectDBX Classes
 90
     4095
280
     0
281
     0
  0
CLASS
  1
MLEADERSTYLE
  2
AcDbMLeaderStyle
  3
ACDB_MLEADERSTYLE_CLASS
 90
     4095
280
     0
281
     0
  0
CLASS
  1
ACDBSECTIONVIEWSTYLE
  2
AcDbSectionViewStyle
  3
ObjectDBX Classes
 90
     1025
280
     0
281
     0
  0
CLASS
  1
ACDBDETAILVIEWSTYLE
  2
AcDbDetailViewStyle
  3
ObjectDBX Classes
 90
     1025
280
     0
281
     0
  0
CLASS
  1
CELLSTYLEMAP
  2
AcDbCellStyleMap
  3
ObjectDBX Classes
 90
     1152
280
     0
281
     0
  0
ENDSEC
  0
SECTION
  2
TABLES
  0
TABLE
  2
VPORT
  5
8
330
0
100
AcDbSymbolTable
 70
     1
  0
VPORT
  5
97
330
8
100
AcDbSymbolTableRecord
100
AcDbViewportTableRecord
  2
*ACTIVE
 70
     0
 10
0.0
 20
0.0
 11
1.0
 21
1.0
 12
-0.2984622342913283
 22
12.27027952685272
 13
0.0
 23
0.0
 14
1.0
 24
1.0
 15
0.5
 25
0.5
 16
0.0
 26
0.0
 36
1.0
 17
0.0
 27
0.0
 37
0.0
 40
125.2307254378787
 41
1.597254004576659
 42
50.0
 43
0.0
 44
0.0
 50
0.0
 51
0.0
 71
    16
 72
   100
 73
     1
 74
     3
 75
     0
 76
     0
 77
     0
 78
     1
281
     0
 65
     1
110
0.0
120
0.0
130
0.0
111
1.0
121
0.0
131
0.0
112
0.0
122
1.0
132
0.0
 79
     0
146
0.0
1001
ACAD_NAV_VCDISPLAY
1070
     3
  0
ENDTAB
  0
TABLE
  2
LTYPE
  5
5
330
0
100
AcDbSymbolTable
 70
     4
  0
LTYPE
  5
14
330
5
100
AcDbSymbolTableRecord
100
AcDbLinetypeTableRecord
  2
ByBlock
 70
     0
  3

 72
    65
 73
     0
 40
0.0
  0
LTYPE
  5
15
330
5
100
AcDbSymbolTableRecord
100
AcDbLinetypeTableRecord
  2
ByLayer
 70
     0
  3

 72
    65
 73
     0
 40
0.0
  0
LTYPE
  5
16
330
5
100
AcDbSymbolTableRecord
100
AcDbLinetypeTableRecord
  2
Continuous
 70
     0
  3
Solid line
 72
    65
 73
     0
 40
0.0
  0
LTYPE
  5
32D4
330
5
100
AcDbSymbolTableRecord
100
AcDbLinetypeTableRecord
  2
CENTER2
 70
     0
  3
Center (.5x) ___ _ ___ _ ___ _ ___ _ ___ _ ___
 72
    65
 73
     4
 40
28.57499999999999
 49
19.05
 74
     4
 75
     0
340
0
 46
1.0
 50
0.0
 44
0.0
 45
0.0
 49
-3.174999999999998
 74
     4
 75
     0
340
0
 46
1.0
 50
0.0
 44
0.0
 45
0.0
 49
3.174999999999998
 74
     4
 75
     0
340
0
 46
1.0
 50
0.0
 44
0.0
 45
0.0
 49
-3.174999999999998
 74
     4
 75
     0
340
0
 46
1.0
 50
0.0
 44
0.0
 45
0.0
  0
LTYPE
  5
32D6
330
5
100
AcDbSymbolTableRecord
100
AcDbLinetypeTableRecord
  2
HIDDEN
 70
     0
  3
Hidden __ __ __ __ __ __ __ __ __ __ __ __ __ _
 72
    65
 73
     2
 40
9.524999999999996
 49
6.349999999999997
 74
     4
 75
     0
340
0
 46
1.0
 50
0.0
 44
0.0
 45
0.0
 49
-3.174999999999998
 74
     4
 75
     0
340
0
 46
1.0
 50
0.0
 44
0.0
 45
0.0
  0
ENDTAB
  0
TABLE
  2
LAYER
  5
2
102
{ACAD_XDICTIONARY
360
32E3
102
}
330
0
100
AcDbSymbolTable
 70
    13
  0
LAYER
  5
10
102
{ACAD_XDICTIONARY
360
32D7
102
}
330
2
100
AcDbSymbolTableRecord
100
AcDbLayerTableRecord
  2
0
 70
     0
 62
     7
  6
Continuous
370
    13
390
F
  0
LAYER
  5
5FF
102
{ACAD_XDICTIONARY
360
32D8
102
}
330
2
100
AcDbSymbolTableRecord
100
AcDbLayerTableRecord
  2
1
 70
     0
 62
     4
  6
Continuous
370
    50
390
F
  0
LAYER
  5
601
102
{ACAD_XDICTIONARY
360
32D9
102
}
330
2
100
AcDbSymbolTableRecord
100
AcDbLayerTableRecord
  2
2
 70
     0
 62
     7
  6
Continuous
370
    25
390
F
  0
LAYER
  5
603
102
{ACAD_XDICTIONARY
360
32DA
102
}
330
2
100
AcDbSymbolTableRecord
100
AcDbLayerTableRecord
  2
SK2
 70
     0
 62
     7
  6
Continuous
370
    25
390
F
  0
LAYER
  5
607
102
{ACAD_XDICTIONARY
360
32DB
102
}
330
2
100
AcDbSymbolTableRecord
100
AcDbLayerTableRecord
  2
4
 70
     0
 62
     2
  6
CENTER2
370
    25
390
F
  0
LAYER
  5
609
102
{ACAD_XDICTIONARY
360
32DC
102
}
330
2
100
AcDbSymbolTableRecord
100
AcDbLayerTableRecord
  2
SK4
 70
     0
 62
     2
  6
CENTER2
370
    25
390
F
  0
LAYER
  5
60B
102
{ACAD_XDICTIONARY
360
32DD
102
}
330
2
100
AcDbSymbolTableRecord
100
AcDbLayerTableRecord
  2
SK6
 70
     0
 62
     5
  6
Continuous
370
    -3
390
F
  0
LAYER
  5
60D
102
{ACAD_XDICTIONARY
360
32DE
102
}
330
2
100
AcDbSymbolTableRecord
100
AcDbLayerTableRecord
  2
CUT
 70
     0
 62
     1
  6
Continuous
370
    25
390
F
  0
LAYER
  5
60F
102
{ACAD_XDICTIONARY
360
32DF
102
}
330
2
100
AcDbSymbolTableRecord
100
AcDbLayerTableRecord
  2
NOCUT
 70
     0
 62
     7
  6
Continuous
370
    -3
390
F
  0
LAYER
  5
611
102
{ACAD_XDICTIONARY
360
32E0
102
}
330
2
100
AcDbSymbolTableRecord
100
AcDbLayerTableRecord
  2
INFTOTAL
 70
     0
 62
     9
  6
Continuous
370
    18
390
F
1001
AcAecLayerStandard
1000

1000

  0
LAYER
  5
614
102
{ACAD_XDICTIONARY
360
32E1
102
}
330
2
100
AcDbSymbolTableRecord
100
AcDbLayerTableRecord
  2
SK1
 70
     0
 62
     4
  6
Continuous
370
    50
390
F
1001
AcAecLayerStandard
1000

1000

  0
LAYER
  5
616
330
2
100
AcDbSymbolTableRecord
100
AcDbLayerTableRecord
  2
Defpoints
 70
     0
 62
     7
  6
Continuous
290
     0
370
    -3
390
F
  0
LAYER
  5
1416
330
2
100
AcDbSymbolTableRecord
100
AcDbLayerTableRecord
  2
SK3
 70
     0
 62
     1
  6
HIDDEN
370
    35
390
F
  0
ENDTAB
  0
TABLE
  2
STYLE
  5
3
330
0
100
AcDbSymbolTable
 70
     2
  0
STYLE
  5
11
330
3
100
AcDbSymbolTableRecord
100
AcDbTextStyleTableRecord
  2
Standard
 70
     0
 40
0.0
 41
1.0
 50
0.0
 71
     0
 42
0.2
  3
monos.ttf
  4

1001
ACAD
1000
Monospac821 BT
1071
       49
  0
ENDTAB
  0
TABLE
  2
VIEW
  5
6
330
0
100
AcDbSymbolTable
 70
     0
  0
ENDTAB
  0
TABLE
  2
UCS
  5
7
330
0
100
AcDbSymbolTable
 70
     0
  0
ENDTAB
  0
TABLE
  2
APPID
  5
9
330
0
100
AcDbSymbolTable
 70
    21
  0
APPID
  5
12
330
9
100
AcDbSymbolTableRecord
100
AcDbRegAppTableRecord
  2
ACAD
 70
     0
  0
APPID
  5
32C1
330
9
100
AcDbSymbolTableRecord
100
AcDbRegAppTableRecord
  2
ACAD_PSEXT
 70
     0
  0
APPID
  5
32C2
330
9
100
AcDbSymbolTableRecord
100
AcDbRegAppTableRecord
  2
ACAD_EXEMPT_FROM_CAD_STANDARDS
 70
     0
  0
APPID
  5
32C3
330
9
100
AcDbSymbolTableRecord
100
AcDbRegAppTableRecord
  2
ACAD_MLEADERVER
 70
     0
  0
APPID
  5
32C4
330
9
100
AcDbSymbolTableRecord
100
AcDbRegAppTableRecord
  2
ACAD_DSTYLE_DIMJAG
 70
     0
  0
APPID
  5
32C5
330
9
100
AcDbSymbolTableRecord
100
AcDbRegAppTableRecord
  2
ACAD_DSTYLE_DIMBREAK
 70
     0
  0
APPID
  5
32C6
330
9
100
AcDbSymbolTableRecord
100
AcDbRegAppTableRecord
  2
ACAD_DSTYLE_DIMTALN
 70
     0
  0
APPID
  5
32C7
330
9
100
AcDbSymbolTableRecord
100
AcDbRegAppTableRecord
  2
AcAecLayerStandard
 70
     0
  0
APPID
  5
32C8
330
9
100
AcDbSymbolTableRecord
100
AcDbRegAppTableRecord
  2
DCO15
 70
     0
  0
APPID
  5
32C9
330
9
100
AcDbSymbolTableRecord
100
AcDbRegAppTableRecord
  2
AcadAnnoPO
 70
     0
  0
APPID
  5
32CA
330
9
100
AcDbSymbolTableRecord
100
AcDbRegAppTableRecord
  2
ACAD_DSTYLE_DIMRADIAL_EXTENSION
 70
     0
  0
APPID
  5
32CB
330
9
100
AcDbSymbolTableRecord
100
AcDbRegAppTableRecord
  2
ACAD_DSTYLE_DIMTEXT_FILL
 70
     0
  0
APPID
  5
32CC
330
9
100
AcDbSymbolTableRecord
100
AcDbRegAppTableRecord
  2
ACAD_DSTYLE_DIMEXT_LENGTH
 70
     0
  0
APPID
  5
32CD
330
9
100
AcDbSymbolTableRecord
100
AcDbRegAppTableRecord
  2
ACAD_DSTYLE_DIMEXT_ENABLED
 70
     0
  0
APPID
  5
32CE
330
9
100
AcDbSymbolTableRecord
100
AcDbRegAppTableRecord
  2
ACAD_DSTYLE_DIM_LINETYPE
 70
     0
  0
APPID
  5
32CF
330
9
100
AcDbSymbolTableRecord
100
AcDbRegAppTableRecord
  2
ACAD_DSTYLE_DIM_EXT1_LINETYPE
 70
     0
  0
APPID
  5
32D0
330
9
100
AcDbSymbolTableRecord
100
AcDbRegAppTableRecord
  2
ACAD_DSTYLE_DIM_EXT2_LINETYPE
 70
     0
  0
APPID
  5
32D1
330
9
100
AcDbSymbolTableRecord
100
AcDbRegAppTableRecord
  2
ACAD_DSTYLE_DIMJOGGED_JOGANGLE_SYMBOL
 70
     0
  0
APPID
  5
32D2
330
9
100
AcDbSymbolTableRecord
100
AcDbRegAppTableRecord
  2
ACAD_DSTYLE_DIMARC_LENGTH_SYMBOL
 70
     0
  0
APPID
  5
32D3
330
9
100
AcDbSymbolTableRecord
100
AcDbRegAppTableRecord
  2
AcLayerTools
 70
     0
  0
APPID
  5
3A38
330
9
100
AcDbSymbolTableRecord
100
AcDbRegAppTableRecord
  2
ACAD_NAV_VCDISPLAY
 70
     0
  0
ENDTAB
  0
TABLE
  2
DIMSTYLE
  5
A
330
0
100
AcDbSymbolTable
 70
     1
100
AcDbDimStyleTable
 71
     0
  0
DIMSTYLE
105
27
102
{ACAD_REACTORS
330
209D
330
20C1
330
20CE
330
20DE
330
288C
330
2D3C
330
2E70
102
}
330
A
100
AcDbSymbolTableRecord
100
AcDbDimStyleTableRecord
  2
Standard
 70
     0
 41
2.5
 42
0.0
 43
3.75
 44
1.25
 73
     0
 74
     0
 77
     1
 78
     8
 79
     2
140
3.5
141
0.0
143
0.039370078
147
0.625
171
     3
179
     2
271
     2
272
     2
274
     3
283
     0
284
     8
340
11
1001
ACAD_DSTYLE_DIMJAG
1070
   388
1040
1.5
1001
ACAD_DSTYLE_DIMTALN
1070
   392
1070
     0
  0
ENDTAB
  0
TABLE
  2
BLOCK_RECORD
  5
1
330
0
100
AcDbSymbolTable
 70
    15
  0
BLOCK_RECORD
  5
1F
102
{ACAD_XDICTIONARY
360
3303
102
}
330
1
100
AcDbSymbolTableRecord
100
AcDbBlockTableRecord
  2
*Model_Space
340
22
  0
BLOCK_RECORD
  5
73
330
1
100
AcDbSymbolTableRecord
100
AcDbBlockTableRecord
  2
*Paper_Space
340
74
  0
BLOCK_RECORD
  5
2D0
330
1
100
AcDbSymbolTableRecord
100
AcDbBlockTableRecord
  2
CERO_POINT
340
0
102
{BLKREFS
331
63B
102
}
1001
ACAD
1000
DesignCenter Data
1002
{
1070
     1
1070
     4
1002
}
  0
BLOCK_RECORD
  5
20A8
330
1
100
AcDbSymbolTableRecord
100
AcDbBlockTableRecord
  2
*D2
340
0
  0
BLOCK_RECORD
  5
20CD
330
1
100
AcDbSymbolTableRecord
100
AcDbBlockTableRecord
  2
*D3
340
0
  0
BLOCK_RECORD
  5
20DD
330
1
100
AcDbSymbolTableRecord
100
AcDbBlockTableRecord
  2
*D4
340
0
  0
BLOCK_RECORD
  5
20EA
330
1
100
AcDbSymbolTableRecord
100
AcDbBlockTableRecord
  2
*D5
340
0
  0
BLOCK_RECORD
  5
2897
330
1
100
AcDbSymbolTableRecord
100
AcDbBlockTableRecord
  2
*D6
340
0
  0
BLOCK_RECORD
  5
2D47
330
1
100
AcDbSymbolTableRecord
100
AcDbBlockTableRecord
  2
*D13
340
0
  0
BLOCK_RECORD
  5
2E7B
330
1
100
AcDbSymbolTableRecord
100
AcDbBlockTableRecord
  2
*D14
340
0
  0
ENDTAB
  0
ENDSEC
  0
SECTION
  2
BLOCKS
  0
BLOCK
  5
20
330
1F
100
AcDbEntity
  8
0
100
AcDbBlockBegin
  2
*Model_Space
 70
     0
 10
0.0
 20
0.0
 30
0.0
  3
*Model_Space
  1

  0
ENDBLK
  5
21
330
1F
100
AcDbEntity
  8
0
100
AcDbBlockEnd
  0
BLOCK
  5
75
330
73
100
AcDbEntity
 67
     1
  8
0
100
AcDbBlockBegin
  2
*Paper_Space
 70
     0
 10
0.0
 20
0.0
 30
0.0
  3
*Paper_Space
  1

  0
ENDBLK
  5
76
330
73
100
AcDbEntity
 67
     1
  8
0
100
AcDbBlockEnd
  0
BLOCK
  5
32E4
102
{ACAD_REACTORS
330
209D
330
20C1
330
20CE
330
20DE
330
288C
330
2D3C
330
2E70
102
}
330
2D0
100
AcDbEntity
  8
0
100
AcDbBlockBegin
  2
CERO_POINT
 70
     0
 10
0.0
 20
0.0
 30
0.0
  3
CERO_POINT
  1

  0
CIRCLE
  5
2D2
102
{ACAD_REACTORS
330
2D7
102
}
330
2D0
100
AcDbEntity
  8
SK2
100
AcDbCircle
 10
0.0
 20
0.0
 30
0.0
 40
2.5
  0
LINE
  5
2D3
330
2D0
100
AcDbEntity
  8
SK2
100
AcDbLine
 10
0.0900000000037835
 20
0.0
 30
0.0
 11
-0.0899999999965076
 21
0.0
 31
0.0
  0
LINE
  5
2D4
330
2D0
100
AcDbEntity
  8
SK2
100
AcDbLine
 10
0.0
 20
0.0899999999999182
 30
0.0
 11
0.0
 21
-0.0899999999999182
 31
0.0
  0
LINE
  5
2D5
102
{ACAD_REACTORS
330
2D7
102
}
330
2D0
100
AcDbEntity
  8
SK2
100
AcDbLine
 10
0.0
 20
-2.5
 30
0.0
 11
0.0
 21
2.5
 31
0.0
  0
LINE
  5
2D6
102
{ACAD_REACTORS
330
2D7
102
}
330
2D0
100
AcDbEntity
  8
SK2
100
AcDbLine
 10
2.5
 20
0.0
 30
0.0
 11
-2.5
 21
0.0
 31
0.0
  0
HATCH
  5
2D7
330
2D0
100
AcDbEntity
  8
SK2
100
AcDbHatch
 10
0.0
 20
0.0
 30
0.0
210
0.0
220
0.0
230
1.0
  2
ANSI31
 70
     0
 71
     1
 91
        2
 92
        7
 72
     1
 73
     1
 93
        3
 10
0.0
 20
-2.5
 42
0.4142135623730951
 10
2.5
 20
0.0
 42
0.0
 10
0.0
 20
0.0
 42
0.0
 97
        3
330
2D2
330
2D6
330
2D5
 92
        7
 72
     1
 73
     1
 93
        3
 10
0.0
 20
0.0
 42
0.0
 10
0.0
 20
2.5
 42
0.4142135623730951
 10
-2.5
 20
0.0
 42
0.0
 97
        3
330
2D6
330
2D5
330
2D2
 75
     0
 76
     1
 52
180.0
 41
0.1
 77
     0
 78
     1
 53
225.0
 43
5.170976743218488
 44
0.0
 45
0.2245064030267288
 46
-0.2245064030267289
 79
     0
 47
0.0243816376539857
 98
        2
 10
0.8789156907296272
 20
-1.044463114528752
 10
-0.8545028512526187
 20
0.7841600866017872
1001
ACAD
1010
0.0
1020
0.0
1030
0.0
  0
ENDBLK
  5
32E5
330
2D0
100
AcDbEntity
  8
0
100
AcDbBlockEnd
  0
BLOCK
  5
32E8
330
20A8
100
AcDbEntity
  8
0
100
AcDbBlockBegin
  2
*D2
 70
     1
 10
0.0
 20
0.0
 30
0.0
  3
*D2
  1

  0
LINE
  5
3A23
330
20A8
100
AcDbEntity
  8
SK2
 62
     0
370
    -2
100
AcDbLine
 10
-14.50000000000003
 20
-3.000000000000001
 30
0.0
 11
-30.34548988186141
 21
-3.000000000000003
 31
0.0
  0
LINE
  5
3A24
330
20A8
100
AcDbEntity
  8
SK2
 62
     0
370
    -2
100
AcDbLine
 10
-14.50000000000003
 20
3.000000000000001
 30
0.0
 11
-30.34548988186141
 21
2.999999999999998
 31
0.0
  0
LINE
  5
3A25
330
20A8
100
AcDbEntity
  8
SK2
 62
     0
370
    -2
100
AcDbLine
 10
-29.09548988186141
 20
-5.500000000000002
 30
0.0
 11
-29.09548988186141
 21
-8.000000000000005
 31
0.0
  0
LINE
  5
3A26
330
20A8
100
AcDbEntity
  8
SK2
 62
     0
370
    -2
100
AcDbLine
 10
-29.09548988186141
 20
5.5
 30
0.0
 11
-29.09548988186141
 21
8.0
 31
0.0
  0
LINE
  5
3A27
330
20A8
100
AcDbEntity
  8
SK2
 62
     0
370
    -2
100
AcDbLine
 10
-29.09548988186141
 20
-3.000000000000003
 30
0.0
 11
-29.09548988186141
 21
2.999999999999998
 31
0.0
  0
SOLID
  5
3A28
330
20A8
100
AcDbEntity
  8
SK2
 62
     0
100
AcDbTrace
 10
-29.51215654852808
 20
-5.500000000000002
 30
0.0
 11
-28.67882321519474
 21
-5.500000000000002
 31
0.0
 12
-29.09548988186141
 22
-3.000000000000003
 32
0.0
 13
-29.09548988186141
 23
-3.000000000000003
 33
0.0
  0
SOLID
  5
3A29
330
20A8
100
AcDbEntity
  8
SK2
 62
     0
100
AcDbTrace
 10
-29.51215654852808
 20
5.5
 30
0.0
 11
-28.67882321519474
 21
5.5
 31
0.0
 12
-29.09548988186141
 22
2.999999999999998
 32
0.0
 13
-29.09548988186141
 23
2.999999999999998
 33
0.0
  0
MTEXT
  5
3A2A
330
20A8
100
AcDbEntity
  8
SK2
 62
     0
100
AcDbMText
 10
-31.53197969212142
 20
0.0000000000000061
 30
0.0
 40
3.5
 41
0.0
 71
     5
 72
     1
  1
M6
 11
0.0000000000000001
 21
1.0
 31
0.0
 73
     1
 44
1.0
1001
ACAD
1000
MTEXTBEGIN
1070
    73
1070
     1
1070
    44
1040
1.0
1070
    74
1070
     0
1000
MTEXTEND
  0
POINT
  5
3A2B
330
20A8
100
AcDbEntity
  8
Defpoints
 62
     0
100
AcDbPoint
 10
-14.50000000000003
 20
-3.000000000000001
 30
0.0
  0
POINT
  5
3A2C
330
20A8
100
AcDbEntity
  8
Defpoints
 62
     0
100
AcDbPoint
 10
-14.50000000000003
 20
3.000000000000001
 30
0.0
  0
POINT
  5
3A2D
330
20A8
100
AcDbEntity
  8
Defpoints
 62
     0
100
AcDbPoint
 10
-29.09548988186141
 20
2.999999999999998
 30
0.0
  0
ENDBLK
  5
32E9
330
20A8
100
AcDbEntity
  8
0
100
AcDbBlockEnd
  0
BLOCK
  5
32EA
330
20CD
100
AcDbEntity
  8
0
100
AcDbBlockBegin
  2
*D3
 70
     1
 10
0.0
 20
0.0
 30
0.0
  3
*D3
  1

  0
LINE
  5
3348
330
20CD
100
AcDbEntity
  8
2
 62
     0
370
    -2
100
AcDbLine
 10
10.64996187204816
 20
5.999997944678958
 30
0.0
 11
10.64996187204816
 21
26.18817692435287
 31
0.0
  0
LINE
  5
3349
330
20CD
100
AcDbEntity
  8
2
 62
     0
370
    -2
100
AcDbLine
 10
16.94996187204817
 20
5.999997944678958
 30
0.0
 11
16.94996187204817
 21
26.18817692435287
 31
0.0
  0
LINE
  5
334A
330
20CD
100
AcDbEntity
  8
2
 62
     0
370
    -2
100
AcDbLine
 10
13.14996187204816
 20
24.93817692435287
 30
0.0
 11
14.44996187204817
 21
24.93817692435287
 31
0.0
  0
LINE
  5
334B
330
20CD
100
AcDbEntity
  8
2
 62
     0
370
    -2
100
AcDbLine
 10
16.94996187204817
 20
24.93817692435287
 30
0.0
 11
29.15850017141571
 21
24.93817692435287
 31
0.0
  0
SOLID
  5
334C
330
20CD
100
AcDbEntity
  8
2
 62
     0
100
AcDbTrace
 10
13.14996187204816
 20
25.35484359101954
 30
0.0
 11
13.14996187204816
 21
24.5215102576862
 31
0.0
 12
10.64996187204816
 22
24.93817692435287
 32
0.0
 13
10.64996187204816
 23
24.93817692435287
 33
0.0
  0
SOLID
  5
334D
330
20CD
100
AcDbEntity
  8
2
 62
     0
100
AcDbTrace
 10
14.44996187204817
 20
25.35484359101954
 30
0.0
 11
14.44996187204817
 21
24.5215102576862
 31
0.0
 12
16.94996187204817
 22
24.93817692435287
 32
0.0
 13
16.94996187204817
 23
24.93817692435287
 33
0.0
  0
MTEXT
  5
334E
330
20CD
100
AcDbEntity
  8
2
 62
     0
100
AcDbMText
 10
24.30423102173194
 20
27.37466673461288
 30
0.0
 40
3.5
 41
0.0
 71
     5
 72
     1
  1
6.3
 73
     1
 44
1.0
1001
ACAD
1000
MTEXTBEGIN
1070
    73
1070
     1
1070
    44
1040
1.0
1070
    74
1070
     0
1000
MTEXTEND
  0
POINT
  5
334F
330
20CD
100
AcDbEntity
  8
Defpoints
 62
     0
100
AcDbPoint
 10
10.64996187204816
 20
5.999997944678958
 30
0.0
  0
POINT
  5
3350
330
20CD
100
AcDbEntity
  8
Defpoints
 62
     0
100
AcDbPoint
 10
16.94996187204817
 20
5.999997944678958
 30
0.0
  0
POINT
  5
3351
330
20CD
100
AcDbEntity
  8
Defpoints
 62
     0
100
AcDbPoint
 10
16.94996187204817
 20
24.93817692435287
 30
0.0
  0
ENDBLK
  5
32EB
330
20CD
100
AcDbEntity
  8
0
100
AcDbBlockEnd
  0
BLOCK
  5
32EC
330
20DD
100
AcDbEntity
  8
0
100
AcDbBlockBegin
  2
*D4
 70
     1
 10
0.0
 20
0.0
 30
0.0
  3
*D4
  1

  0
MTEXT
  5
2A6B
330
20DD
100
AcDbEntity
  8
2
  6
ByBlock
 62
     0
100
AcDbMText
 10
31.4790337266799
 20
15.49241657437362
 30
0.0
 40
3.5
 41
0.0
 71
     5
 72
     1
  1
\A1;80%%d~90%%d
 11
0.9917003087138866
 21
-0.1285709831057623
 31
0.0
 73
     1
 44
1.0
1001
ACAD
1000
MTEXTBEGIN
1070
    73
1070
     1
1070
    44
1040
1.0
1070
    74
1070
     0
1000
MTEXTEND
  0
POINT
  5
2A6C
330
20DD
100
AcDbEntity
  8
Defpoints
  6
ByBlock
 62
     0
100
AcDbPoint
 10
5.583073303803971
 20
7.457278573528165
 30
0.0
  0
POINT
  5
2A6D
330
20DD
100
AcDbEntity
  8
Defpoints
  6
ByBlock
 62
     0
100
AcDbPoint
 10
16.95008830380398
 20
5.453308573528155
 30
0.0
  0
POINT
  5
2A6E
330
20DD
100
AcDbEntity
  8
Defpoints
  6
ByBlock
 62
     0
100
AcDbPoint
 10
16.94986630380397
 20
13.07067757352815
 30
0.0
  0
POINT
  5
2A6F
330
20DD
100
AcDbEntity
  8
Defpoints
  6
ByBlock
 62
     0
100
AcDbPoint
 10
16.95008830380398
 20
5.453308573528155
 30
0.0
  0
SOLID
  5
2A70
330
20DD
100
AcDbEntity
  8
2
  6
ByBlock
 62
     0
100
AcDbTrace
 10
16.94980502282631
 20
15.17337946338802
 30
0.0
 11
14.52416831846524
 21
14.4386021572826
 31
0.0
 12
14.41697766266678
 22
15.26501283470286
 32
0.0
 13
14.41697766266678
 23
15.26501283470286
 33
0.0
  0
SOLID
  5
2A71
330
20DD
100
AcDbEntity
  8
2
  6
ByBlock
 62
     0
100
AcDbTrace
 10
7.377637960990521
 20
7.140902309745443
 30
0.0
 11
7.727071274294713
 21
9.651182666730383
 31
0.0
 12
8.522327967732994
 22
9.402162113389225
 32
0.0
 13
8.522327967732994
 23
9.402162113389225
 33
0.0
  0
LINE
  5
2A72
330
20DD
100
AcDbEntity
  8
2
  6
ByBlock
 62
     0
370
    -2
100
AcDbLine
 10
16.94986630380397
 20
13.07067757352815
 30
0.0
 11
16.94976859292513
 21
16.42337946285717
 31
0.0
  0
ARC
  5
2A73
330
20DD
100
AcDbEntity
  8
2
  6
ByBlock
 62
     0
370
    -2
100
AcDbCircle
 10
16.95008830380398
 20
5.453308573528155
 30
0.0
 40
9.720070893987823
100
AcDbArc
 50
104.7790548697857
 51
155.2242840790281
  0
ARC
  5
2A74
330
20DD
100
AcDbEntity
  8
2
  6
ByBlock
 62
     0
370
    -2
100
AcDbCircle
 10
16.95008830380398
 20
5.453308573528155
 30
0.0
 40
9.720070893987823
100
AcDbArc
 50
69.04453566831913
 51
90.00166982366859
  0
LINE
  5
2A75
330
20DD
100
AcDbEntity
  8
2
  6
ByBlock
 62
     0
370
    -2
100
AcDbLine
 10
20.42639559802839
 20
14.53048135916309
 30
0.0
 11
41.92095968557949
 21
11.74377532319313
 31
0.0
  0
ENDBLK
  5
32ED
330
20DD
100
AcDbEntity
  8
0
100
AcDbBlockEnd
  0
BLOCK
  5
32EE
330
20EA
100
AcDbEntity
  8
0
100
AcDbBlockBegin
  2
*D5
 70
     1
 10
0.0
 20
0.0
 30
0.0
  3
*D5
  1

  0
LINE
  5
39F9
330
20EA
100
AcDbEntity
  8
SK2
 62
     0
370
    -2
100
AcDbLine
 10
-0.0000000000000284
 20
-5.5
 30
0.0
 11
-40.35159134407123
 21
-5.500000000000007
 31
0.0
  0
LINE
  5
39FA
330
20EA
100
AcDbEntity
  8
SK2
 62
     0
370
    -2
100
AcDbLine
 10
-0.0000000000000284
 20
5.5
 30
0.0
 11
-40.35159134407123
 21
5.499999999999995
 31
0.0
  0
LINE
  5
39FB
330
20EA
100
AcDbEntity
  8
SK2
 62
     0
370
    -2
100
AcDbLine
 10
-39.10159134407125
 20
-3.000000000000006
 30
0.0
 11
-39.10159134407125
 21
2.999999999999995
 31
0.0
  0
LINE
  5
39FC
330
20EA
100
AcDbEntity
  8
SK2
 62
     0
370
    -2
100
AcDbLine
 10
-39.10159134407125
 20
5.499999999999995
 30
0.0
 11
-39.10159134407125
 21
19.69038233520729
 31
0.0
  0
SOLID
  5
39FD
330
20EA
100
AcDbEntity
  8
SK2
 62
     0
100
AcDbTrace
 10
-39.5182580107379
 20
-3.000000000000006
 30
0.0
 11
-38.68492467740458
 21
-3.000000000000006
 31
0.0
 12
-39.10159134407125
 22
-5.500000000000007
 32
0.0
 13
-39.10159134407125
 23
-5.500000000000007
 33
0.0
  0
SOLID
  5
39FE
330
20EA
100
AcDbEntity
  8
SK2
 62
     0
100
AcDbTrace
 10
-39.5182580107379
 20
2.999999999999995
 30
0.0
 11
-38.68492467740458
 21
2.999999999999996
 31
0.0
 12
-39.10159134407125
 22
5.499999999999995
 32
0.0
 13
-39.10159134407125
 23
5.499999999999995
 33
0.0
  0
MTEXT
  5
39FF
330
20EA
100
AcDbEntity
  8
SK2
 62
     0
100
AcDbMText
 10
-41.94760329066293
 20
15.09068099999999
 30
0.0
 40
3.5
 41
0.0
 71
     5
 72
     1
  1
%%c11
 11
0.0000000000000001
 21
1.0
 31
0.0
 73
     1
 44
1.0
1001
ACAD
1000
MTEXTBEGIN
1070
    73
1070
     1
1070
    44
1040
1.0
1070
    74
1070
     0
1000
MTEXTEND
  0
POINT
  5
3A00
330
20EA
100
AcDbEntity
  8
Defpoints
 62
     0
100
AcDbPoint
 10
-0.0000000000000284
 20
-5.5
 30
0.0
  0
POINT
  5
3A01
330
20EA
100
AcDbEntity
  8
Defpoints
 62
     0
100
AcDbPoint
 10
-0.0000000000000284
 20
5.5
 30
0.0
  0
POINT
  5
3A02
330
20EA
100
AcDbEntity
  8
Defpoints
 62
     0
100
AcDbPoint
 10
-39.10159134407125
 20
5.499999999999995
 30
0.0
  0
ENDBLK
  5
32EF
330
20EA
100
AcDbEntity
  8
0
100
AcDbBlockEnd
  0
BLOCK
  5
32F0
330
2897
100
AcDbEntity
  8
0
100
AcDbBlockBegin
  2
*D6
 70
     1
 10
0.0
 20
0.0
 30
0.0
  3
*D6
  1

  0
POINT
  5
31AF
330
2897
100
AcDbEntity
  8
Defpoints
  6
ByBlock
 62
     0
100
AcDbPoint
 10
16.94996187204817
 20
6.0
 30
0.0
  0
POINT
  5
31B0
330
2897
100
AcDbEntity
  8
Defpoints
  6
ByBlock
 62
     0
100
AcDbPoint
 10
16.94999999999999
 20
-6.0
 30
0.0
  0
LINE
  5
31B1
330
2897
100
AcDbEntity
  8
2
  6
ByBlock
 62
     0
370
    -2
100
AcDbLine
 10
16.94996187204817
 20
6.0
 30
0.0
 11
43.4626540649033
 21
6.0
 31
0.0
  0
LINE
  5
31B2
330
2897
100
AcDbEntity
  8
2
  6
ByBlock
 62
     0
370
    -2
100
AcDbLine
 10
42.2126540649033
 20
6.0
 30
0.0
 11
42.2126540649033
 21
-5.066911560869981
 31
0.0
  0
SOLID
  5
31B3
330
2897
100
AcDbEntity
  8
2
  6
ByBlock
 62
     0
100
AcDbTrace
 10
42.2126540649033
 20
6.0
 30
0.0
 11
41.79598739823656
 21
3.5
 31
0.0
 12
42.62932073157005
 22
3.5
 32
0.0
 13
42.62932073157005
 23
3.5
 33
0.0
  0
MTEXT
  5
31B4
330
2897
100
AcDbEntity
  8
2
  6
ByBlock
 62
     0
100
AcDbMText
 10
39.66671239238046
 20
-0.0638370703569802
 30
0.0
 40
3.5
 41
0.0
 71
     5
 72
     1
  1
%%c12
 11
0.0000000000000001
 21
1.0
 31
0.0
 73
     1
 44
1.0
1001
ACAD
1000
MTEXTBEGIN
1070
    73
1070
     1
1070
    44
1040
1.0
1070
    74
1070
     0
1000
MTEXTEND
  0
ENDBLK
  5
32F1
330
2897
100
AcDbEntity
  8
0
100
AcDbBlockEnd
  0
BLOCK
  5
32FE
330
2D47
100
AcDbEntity
  8
0
100
AcDbBlockBegin
  2
*D13
 70
     1
 10
0.0
 20
0.0
 30
0.0
  3
*D13
  1

  0
POINT
  5
3132
330
2D47
100
AcDbEntity
  8
Defpoints
  6
ByBlock
 62
     0
100
AcDbPoint
 10
0.0
 20
0.0
 30
0.0
  0
POINT
  5
3133
330
2D47
100
AcDbEntity
  8
Defpoints
  6
ByBlock
 62
     0
100
AcDbPoint
 10
16.94996187204817
 20
4.842135765833206
 30
0.0
  0
LINE
  5
3134
330
2D47
100
AcDbEntity
  8
2
  6
ByBlock
 62
     0
370
    -2
100
AcDbLine
 10
0.0
 20
0.0
 30
0.0
 11
0.0
 21
36.76128431261597
 31
0.0
  0
LINE
  5
3135
330
2D47
100
AcDbEntity
  8
2
  6
ByBlock
 62
     0
370
    -2
100
AcDbLine
 10
16.94996187204817
 20
4.842135765833206
 30
0.0
 11
16.94996187204817
 21
36.76128431261597
 31
0.0
  0
LINE
  5
3136
330
2D47
100
AcDbEntity
  8
2
  6
ByBlock
 62
     0
370
    -2
100
AcDbLine
 10
0.0
 20
35.51128431261597
 30
0.0
 11
16.94996187204817
 21
35.51128431261597
 31
0.0
  0
SOLID
  5
3137
330
2D47
100
AcDbEntity
  8
2
  6
ByBlock
 62
     0
100
AcDbTrace
 10
0.0
 20
35.51128431261597
 30
0.0
 11
2.5
 21
35.09461764594922
 31
0.0
 12
2.5
 22
35.92795097928272
 32
0.0
 13
2.5
 23
35.92795097928272
 33
0.0
  0
SOLID
  5
3138
330
2D47
100
AcDbEntity
  8
2
  6
ByBlock
 62
     0
100
AcDbTrace
 10
16.94996187204817
 20
35.51128431261597
 30
0.0
 11
14.44996187204817
 21
35.09461764594922
 31
0.0
 12
14.44996187204817
 22
35.92795097928272
 32
0.0
 13
14.44996187204817
 23
35.92795097928272
 33
0.0
  0
MTEXT
  5
3139
330
2D47
100
AcDbEntity
  8
2
  6
ByBlock
 62
     0
100
AcDbMText
 10
8.474980936024081
 20
37.90842064430957
 30
0.0
 40
3.5
 41
0.0
 71
     5
 72
     1
  1
17
 73
     1
 44
1.0
1001
ACAD
1000
MTEXTBEGIN
1070
    73
1070
     1
1070
    44
1040
1.0
1070
    74
1070
     0
1000
MTEXTEND
  0
ENDBLK
  5
32FF
330
2D47
100
AcDbEntity
  8
0
100
AcDbBlockEnd
  0
BLOCK
  5
3300
330
2E7B
100
AcDbEntity
  8
0
100
AcDbBlockBegin
  2
*D14
 70
     1
 10
0.0
 20
0.0
 30
0.0
  3
*D14
  1

  0
LINE
  5
39F0
330
2E7B
100
AcDbEntity
  8
SK2
 62
     0
370
    -2
100
AcDbLine
 10
-14.5
 20
3.0
 30
0.0
 11
-14.5
 21
44.91115604983621
 31
0.0
  0
LINE
  5
39F1
330
2E7B
100
AcDbEntity
  8
SK2
 62
     0
370
    -2
100
AcDbLine
 10
16.94996187204817
 20
4.841894919217981
 30
0.0
 11
16.94996187204817
 21
44.91115604983621
 31
0.0
  0
LINE
  5
39F2
330
2E7B
100
AcDbEntity
  8
SK2
 62
     0
370
    -2
100
AcDbLine
 10
-12.0
 20
43.66115604983621
 30
0.0
 11
14.44996187204817
 21
43.66115604983621
 31
0.0
  0
SOLID
  5
39F3
330
2E7B
100
AcDbEntity
  8
SK2
 62
     0
100
AcDbTrace
 10
-12.0
 20
44.07782271650286
 30
0.0
 11
-12.0
 21
43.24448938316954
 31
0.0
 12
-14.5
 22
43.66115604983621
 32
0.0
 13
-14.5
 23
43.66115604983621
 33
0.0
  0
SOLID
  5
39F4
330
2E7B
100
AcDbEntity
  8
SK2
 62
     0
100
AcDbTrace
 10
14.44996187204817
 20
44.07782271650286
 30
0.0
 11
14.44996187204817
 21
43.24448938316954
 31
0.0
 12
16.94996187204817
 22
43.66115604983621
 32
0.0
 13
16.94996187204817
 23
43.66115604983621
 33
0.0
  0
MTEXT
  5
39F5
330
2E7B
100
AcDbEntity
  8
SK2
 62
     0
100
AcDbMText
 10
1.224980936024087
 20
46.09764586009621
 30
0.0
 40
3.5
 41
0.0
 71
     5
 72
     1
  1
31.5
 73
     1
 44
1.0
1001
ACAD
1000
MTEXTBEGIN
1070
    73
1070
     1
1070
    44
1040
1.0
1070
    74
1070
     0
1000
MTEXTEND
  0
POINT
  5
39F6
330
2E7B
100
AcDbEntity
  8
Defpoints
 62
     0
100
AcDbPoint
 10
-14.5
 20
3.0
 30
0.0
  0
POINT
  5
39F7
330
2E7B
100
AcDbEntity
  8
Defpoints
 62
     0
100
AcDbPoint
 10
16.94996187204817
 20
4.841894919217981
 30
0.0
  0
POINT
  5
39F8
330
2E7B
100
AcDbEntity
  8
Defpoints
 62
     0
100
AcDbPoint
 10
16.94996187204817
 20
43.66115604983621
 30
0.0
  0
ENDBLK
  5
3301
330
2E7B
100
AcDbEntity
  8
0
100
AcDbBlockEnd
  0
ENDSEC
  0
SECTION
  2
ENTITIES
  0
INSERT
  5
63B
330
1F
100
AcDbEntity
  8
SK2
100
AcDbBlockReference
  2
CERO_POINT
 10
0.0
 20
0.0
 30
0.0
  0
LINE
  5
63C
330
1F
100
AcDbEntity
  8
INFTOTAL
100
AcDbLine
 10
-87.32631117866217
 20
74.446036276732
 30
0.0
 11
-37.32631117866219
 21
74.44603627673199
 31
0.0
  0
LINE
  5
63D
330
1F
100
AcDbEntity
  8
INFTOTAL
100
AcDbLine
 10
86.73532450390132
 20
0.0866455548480687
 30
0.0
 11
86.73532450390132
 21
-49.91335444515192
 31
0.0
  0
LINE
  5
63E
330
1F
100
AcDbEntity
  8
INFTOTAL
100
AcDbLine
 10
86.73532450390132
 20
-49.91335444515192
 30
0.0
 11
36.73532450390132
 21
-49.91335444515192
 31
0.0
  0
LINE
  5
63F
330
1F
100
AcDbEntity
  8
INFTOTAL
100
AcDbLine
 10
-87.32631117866217
 20
24.44603627673201
 30
0.0
 11
-87.32631117866217
 21
74.446036276732
 31
0.0
  0
DIMENSION
  5
209D
330
1F
100
AcDbEntity
  8
SK2
100
AcDbDimension
  2
*D2
 10
-29.09548988186141
 20
2.999999999999998
 30
0.0
 11
-29.0954898818614
 21
0.0000000000000058
 31
0.0
 70
   161
  1
M<>
 71
     5
 42
6.0
  3
Standard
100
AcDbAlignedDimension
 13
-14.50000000000003
 23
-3.0
 33
0.0
 14
-14.50000000000003
 24
3.0
 34
0.0
1001
ACAD
1000
DSTYLE
1002
{
1070
   172
1070
     1
1002
}
  0
DIMENSION
  5
20C1
330
1F
100
AcDbEntity
  8
2
100
AcDbDimension
  2
*D3
 10
16.94996187204817
 20
24.93817692435287
 30
0.0
 11
24.30423102173194
 21
24.93817692435287
 31
0.0
 70
   161
 71
     5
 42
6.300000000000012
  3
Standard
100
AcDbAlignedDimension
 13
10.64996187204816
 23
5.999997944678958
 33
0.0
 14
16.94996187204817
 24
5.999997944678958
 34
0.0
  0
DIMENSION
  5
20CE
330
1F
100
AcDbEntity
  8
2
100
AcDbDimension
  2
*D4
 10
5.583073303803971
 20
7.457278573528165
 30
0.0
 11
31.4790337266799
 21
15.49241657437362
 31
0.0
 70
   162
  1
<>~90%%d
 71
     5
 42
1.39626338940393
  3
Standard
100
AcDb2LineAngularDimension
 13
16.95008830380398
 23
5.453308573528155
 33
0.0
 14
16.94986630380397
 24
13.07067757352815
 34
0.0
 15
16.95008830380398
 25
5.453308573528155
 35
0.0
 16
11.36414389690241
 26
13.40799293352348
 36
0.0
  0
DIMENSION
  5
20DE
330
1F
100
AcDbEntity
  8
SK2
100
AcDbDimension
  2
*D5
 10
-39.10159134407125
 20
5.499999999999995
 30
0.0
 11
-39.10159134407124
 21
15.09068099999999
 31
0.0
 70
   161
  1
%%c<>
 71
     5
 42
11.0
  3
Standard
100
AcDbAlignedDimension
 13
-0.0000000000000284
 23
-5.5
 33
0.0
 14
-0.0000000000000284
 24
5.5
 34
0.0
  0
LINE
  5
20EB
330
1F
100
AcDbEntity
  8
4
100
AcDbLine
 10
19.738181
 20
0.0
 30
0.0
 11
0.0
 21
0.0
 31
0.0
  0
LINE
  5
20EC
330
1F
100
AcDbEntity
  8
2
100
AcDbLine
 10
5.583073303803971
 20
7.457278573528165
 30
0.0
 11
18.78101830380398
 21
5.130521573528148
 31
0.0
  0
LINE
  5
20EE
330
1F
100
AcDbEntity
  8
SK3
100
AcDbLine
 10
5.999999999999972
 20
0.0
 30
0.0
 11
5.422648999999978
 21
1.0
 31
0.0
  0
LINE
  5
20EF
330
1F
100
AcDbEntity
  8
SK3
100
AcDbLine
 10
5.422648999999978
 20
1.0
 30
0.0
 11
-14.50000000000003
 21
1.0
 31
0.0
  0
LINE
  5
20F0
330
1F
100
AcDbEntity
  8
SK3
100
AcDbLine
 10
5.999999999999972
 20
0.0
 30
0.0
 11
5.723562999999981
 21
-0.4788029999999992
 31
0.0
  0
SPLINE
  5
20F1
330
1F
100
AcDbEntity
  8
SK3
100
AcDbSpline
210
0.0
220
0.0
230
1.0
 70
     8
 71
     5
 72
    15
 73
     9
 74
     0
 42
0.000000001
 43
0.0000000001
 40
0.0
 40
0.0
 40
0.0
 40
0.0
 40
0.0
 40
0.0
 40
0.5208046951210759
 40
0.5208046951210759
 40
0.5208046951210759
 40
1.087140435085339
 40
1.087140435085339
 40
1.087140435085339
 40
1.087140435085339
 40
1.087140435085339
 40
1.087140435085339
 10
5.723563288595756
 20
-0.4788016558089225
 30
0.0
 10
5.702796958697204
 20
-0.5147710583606227
 30
0.0
 10
5.674949779527423
 20
-0.5558659116786373
 30
0.0
 10
5.642730436724377
 20
-0.6043112460958469
 30
0.0
 10
5.578620100100436
 20
-0.7059450491509267
 30
0.0
 10
5.515750510391626
 20
-0.8151899341434328
 30
0.0
 10
5.483850594907607
 20
-0.8732198264059718
 30
0.0
 10
5.452733662558585
 20
-0.9314554436004984
 30
0.0
 10
5.42264924221459
 20
-0.9881927145119108
 30
0.0
  0
LINE
  5
20F2
330
1F
100
AcDbEntity
  8
SK3
100
AcDbLine
 10
5.112910999999995
 20
-1.0
 30
0.0
 11
-14.50000000000003
 21
-1.0
 31
0.0
  0
ARC
  5
20F3
330
1F
100
AcDbEntity
  8
SK3
100
AcDbCircle
 10
4.961851999999993
 20
6.553937999999987
 30
0.0
 40
7.555557999999995
100
AcDbArc
 50
271.1456200000001
 51
273.496223
  0
LINE
  5
212C
330
1F
100
AcDbEntity
  8
SK1
100
AcDbLine
 10
-14.5
 20
1.438276999999999
 30
0.0
 11
-14.5
 21
-3.0
 31
0.0
  0
LINE
  5
212D
330
1F
100
AcDbEntity
  8
SK1
100
AcDbLine
 10
-14.5
 20
3.0
 30
0.0
 11
-14.5
 21
1.438276999999999
 31
0.0
  0
LINE
  5
212E
330
1F
100
AcDbEntity
  8
SK1
100
AcDbLine
 10
-7.840178000000008
 20
3.0
 30
0.0
 11
-7.840178000000008
 21
1.438276999999999
 31
0.0
  0
LINE
  5
212F
330
1F
100
AcDbEntity
  8
SK1
100
AcDbLine
 10
-7.840178000000008
 20
1.438276999999999
 30
0.0
 11
-7.840178000000008
 21
-3.0
 31
0.0
  0
LINE
  5
2130
330
1F
100
AcDbEntity
  8
SK1
100
AcDbLine
 10
-5.175792000000001
 20
1.558132999999996
 30
0.0
 11
-5.175792000000001
 21
-3.25
 31
0.0
  0
LINE
  5
2131
330
1F
100
AcDbEntity
  8
SK1
100
AcDbLine
 10
-5.175792000000001
 20
3.25
 30
0.0
 11
-5.175792000000001
 21
1.558132999999996
 31
0.0
  0
LINE
  5
2132
330
1F
100
AcDbEntity
  8
1
100
AcDbLine
 10
0.0
 20
-4.826704000000005
 30
0.0
 11
0.0
 21
5.5
 31
0.0
  0
LINE
  5
2133
330
1F
100
AcDbEntity
  8
1
100
AcDbLine
 10
0.0
 20
-5.5
 30
0.0
 11
0.0
 21
-4.826704000000005
 31
0.0
  0
LINE
  5
2134
330
1F
100
AcDbEntity
  8
1
100
AcDbLine
 10
7.456994999999976
 20
5.5
 30
0.0
 11
7.456994999999976
 21
4.551615999999995
 31
0.0
  0
LINE
  5
2135
330
1F
100
AcDbEntity
  8
1
100
AcDbLine
 10
7.456994999999976
 20
3.329261000000001
 30
0.0
 11
7.456994999999976
 21
-4.826704000000005
 31
0.0
  0
LINE
  5
2136
330
1F
100
AcDbEntity
  8
1
100
AcDbLine
 10
7.175313999999986
 20
3.546572999999995
 30
0.0
 11
7.456994999999976
 21
3.329261000000001
 31
0.0
  0
SPLINE
  5
2137
330
1F
100
AcDbEntity
  8
1
100
AcDbSpline
210
0.0
220
0.0
230
1.0
 70
     8
 71
     5
 72
    18
 73
    12
 74
     0
 42
0.000000001
 43
0.0000000001
 40
0.0
 40
0.0
 40
0.0
 40
0.0
 40
0.0
 40
0.0
 40
0.8755491424246343
 40
0.8755491424246343
 40
0.8755491424246343
 40
1.493297952657544
 40
1.493297952657544
 40
1.493297952657544
 40
2.092045435223823
 40
2.092045435223823
 40
2.092045435223823
 40
2.092045435223823
 40
2.092045435223823
 40
2.092045435223823
 10
7.302127518884472
 20
4.538659322932659
 30
0.0
 10
7.201881956469177
 20
4.530234556868832
 30
0.0
 10
7.103367235816705
 20
4.512714820701289
 30
0.0
 10
7.007236373190123
 20
4.483772719943913
 30
0.0
 10
6.868766188078012
 20
4.41040912180361
 30
0.0
 10
6.789243015510579
 20
4.30263218148147
 30
0.0
 10
6.769017995338231
 20
4.253435345918803
 30
0.0
 10
6.752462866324547
 20
4.151538750728008
 30
0.0
 10
6.775046805018178
 20
4.046113715034662
 30
0.0
 10
6.794283249500862
 20
3.993959684521882
 30
0.0
 10
6.819545380957008
 20
3.943276275484576
 30
0.0
 10
6.849951948850502
 20
3.893757582930903
 30
0.0
  0
ARC
  5
2138
330
1F
100
AcDbEntity
  8
1
100
AcDbCircle
 10
8.007371999999975
 20
4.659373999999985
 30
0.0
 40
1.388612999999995
100
AcDbArc
 50
213.4840570000001
 51
233.2140030000001
  0
LINE
  5
2139
330
1F
100
AcDbEntity
  8
1
100
AcDbLine
 10
7.302127999999981
 20
4.538658999999995
 30
0.0
 11
7.456994999999976
 21
4.551615999999995
 31
0.0
  0
LINE
  5
213A
330
1F
100
AcDbEntity
  8
1
100
AcDbLine
 10
6.5
 20
3.774916999999986
 30
0.0
 11
1.5
 21
3.774916999999986
 31
0.0
  0
LINE
  5
213B
330
1F
100
AcDbEntity
  8
1
100
AcDbLine
 10
6.5
 20
3.774916999999986
 30
0.0
 11
6.5
 21
-3.774916999999986
 31
0.0
  0
LINE
  5
213C
330
1F
100
AcDbEntity
  8
1
100
AcDbLine
 10
1.5
 20
-3.774916999999986
 30
0.0
 11
6.5
 21
-3.774916999999986
 31
0.0
  0
LINE
  5
213D
330
1F
100
AcDbEntity
  8
1
100
AcDbLine
 10
1.5
 20
3.774916999999986
 30
0.0
 11
1.5
 21
-3.774916999999986
 31
0.0
  0
LINE
  5
213E
330
1F
100
AcDbEntity
  8
1
100
AcDbLine
 10
7.456994999999976
 20
-5.456004000000007
 30
0.0
 11
7.456994999999976
 21
-5.5
 31
0.0
  0
ARC
  5
213F
330
1F
100
AcDbEntity
  8
1
100
AcDbCircle
 10
8.017432999999982
 20
-0.7431259999999896
 30
0.0
 40
4.746069000000009
100
AcDbArc
 50
259.7795719999998
 51
263.218437
  0
SPLINE
  5
2140
330
1F
100
AcDbEntity
  8
1
100
AcDbSpline
210
0.0
220
0.0
230
1.0
 70
     8
 71
     5
 72
    15
 73
     9
 74
     0
 42
0.000000001
 43
0.0000000001
 40
0.0
 40
0.0
 40
0.0
 40
0.0
 40
0.0
 40
0.0
 40
0.7851256421868771
 40
0.7851256421868771
 40
0.7851256421868771
 40
1.087816718417359
 40
1.087816718417359
 40
1.087816718417359
 40
1.087816718417359
 40
1.087816718417359
 40
1.087816718417359
 10
7.302127518884472
 20
-4.959669540137298
 30
0.0
 10
7.212191809272525
 20
-4.965453656867993
 30
0.0
 10
7.123564264990987
 20
-4.976782851110186
 30
0.0
 10
7.036797446995477
 20
-4.994745501979848
 30
0.0
 10
6.929602889454088
 20
-5.029511818726262
 30
0.0
 10
6.850337958654306
 20
-5.074667151260229
 30
0.0
 10
6.830655443846838
 20
-5.088027540000012
 30
0.0
 10
6.813977860765075
 20
-5.1017994434944
 30
0.0
 10
6.800304967888052
 20
-5.115862189987268
 30
0.0
  0
SPLINE
  5
2141
330
1F
100
AcDbEntity
  8
1
100
AcDbSpline
210
0.0
220
0.0
230
1.0
 70
     8
 71
     5
 72
    18
 73
    12
 74
     0
 42
0.000000001
 43
0.0000000001
 40
0.0
 40
0.0
 40
0.0
 40
0.0
 40
0.0
 40
0.0
 40
0.5230028266088628
 40
0.5230028266088628
 40
0.5230028266088628
 40
1.583616069747276
 40
1.583616069747276
 40
1.583616069747276
 40
1.772234137857942
 40
1.772234137857942
 40
1.772234137857942
 40
1.772234137857942
 40
1.772234137857942
 40
1.772234137857942
 10
6.800304967888052
 20
-5.115862189987268
 30
0.0
 10
6.776680347989553
 20
-5.140160415945076
 30
0.0
 10
6.762026362799276
 20
-5.165326310333084
 30
0.0
 10
6.757188888508777
 20
-5.190178606818391
 30
0.0
 10
6.768512027716582
 20
-5.261827115971073
 30
0.0
 10
6.846551059868744
 20
-5.319932401199507
 30
0.0
 10
6.919083797805766
 20
-5.351388982427181
 30
0.0
 10
7.01590437645882
 20
-5.380965014298653
 30
0.0
 10
7.124625685248643
 20
-5.404173217111433
 30
0.0
 10
7.141294542461906
 20
-5.407538338971674
 30
0.0
 10
7.158191698968722
 20
-5.410768695305278
 30
0.0
 10
7.175314235105616
 20
-5.413872305621907
 30
0.0
  0
LINE
  5
2142
330
1F
100
AcDbEntity
  8
1
100
AcDbLine
 10
7.302127999999981
 20
-4.959669999999988
 30
0.0
 11
7.456994999999976
 21
-4.949680000000001
 31
0.0
  0
LINE
  5
2143
330
1F
100
AcDbEntity
  8
1
100
AcDbLine
 10
7.456994999999976
 20
-4.826704000000005
 30
0.0
 11
7.456994999999976
 21
-4.949680000000001
 31
0.0
  0
LINE
  5
2144
330
1F
100
AcDbEntity
  8
1
100
AcDbLine
 10
8.599999999999994
 20
5.599999999999994
 30
0.0
 11
8.599999999999994
 21
4.761737000000011
 31
0.0
  0
ARC
  5
2145
330
1F
100
AcDbEntity
  8
1
100
AcDbCircle
 10
29.49823599999999
 20
-112.14186
 30
0.0
 40
118.756833
100
AcDbArc
 50
100.135402
 51
100.696103
  0
LINE
  5
2146
330
1F
100
AcDbEntity
  8
1
100
AcDbLine
 10
8.599999999999994
 20
2.604069000000009
 30
0.0
 11
8.599999999999994
 21
-4.914461999999986
 31
0.0
  0
ARC
  5
2147
330
1F
100
AcDbEntity
  8
1
100
AcDbCircle
 10
14.82542899999999
 20
13.66569100000001
 30
0.0
 40
12.69348800000001
100
AcDbArc
 50
234.5164239999999
 51
240.6293949999999
  0
LINE
  5
2148
330
1F
100
AcDbEntity
  8
1
100
AcDbLine
 10
8.599999999999994
 20
-4.914461999999986
 30
0.0
 11
8.599999999999994
 21
-4.933199999999998
 31
0.0
  0
LINE
  5
2149
330
1F
100
AcDbEntity
  8
1
100
AcDbLine
 10
7.456994999999976
 20
-4.949680000000001
 30
0.0
 11
8.599999999999994
 21
-4.933199999999998
 31
0.0
  0
ARC
  5
214A
330
1F
100
AcDbEntity
  8
1
100
AcDbCircle
 10
9.300598999999976
 20
6.134462000000013
 30
0.0
 40
11.75088499999999
100
AcDbArc
 50
265.0444890000001
 51
266.5819480000001
  0
ARC
  5
214B
330
1F
100
AcDbEntity
  8
1
100
AcDbCircle
 10
8.862605999999997
 20
1.571246000000002
 30
0.0
 40
7.166712000000008
100
AcDbArc
 50
258.6888030000001
 51
265.3816540000001
  0
ELLIPSE
  5
214C
330
1F
100
AcDbEntity
  8
1
100
AcDbEllipse
 10
23.47443799999999
 20
219.845901
 30
0.0
 11
-11.34899044036865
 21
-218.3771820068359
 31
0.0
210
0.0
220
0.0
230
1.0
 40
0.175724
 41
6.189893618859874
 42
6.290332363421958
  0
LINE
  5
214D
330
1F
100
AcDbEntity
  8
1
100
AcDbLine
 10
8.873001999999981
 20
-4.914461999999986
 30
0.0
 11
10.37463
 21
-4.808571999999998
 31
0.0
  0
ARC
  5
214E
330
1F
100
AcDbEntity
  8
1
100
AcDbCircle
 10
60.435813
 20
4.176104000000009
 30
0.0
 40
50.86402500000001
100
AcDbArc
 50
188.0269099999999
 51
189.7537289999999
  0
LINE
  5
214F
330
1F
100
AcDbEntity
  8
1
100
AcDbLine
 10
10.069896
 20
-2.926488000000006
 30
0.0
 11
12.39999999999998
 21
-2.678821999999997
 31
0.0
  0
LINE
  5
2150
330
1F
100
AcDbEntity
  8
1
100
AcDbLine
 10
12.39999999999998
 20
-2.678821999999997
 30
0.0
 11
12.39999999999998
 21
1.460090000000008
 31
0.0
  0
ARC
  5
2151
330
1F
100
AcDbEntity
  8
1
100
AcDbCircle
 10
26.75191099999998
 20
-234.268
 30
0.0
 40
239.717979
100
AcDbArc
 50
93.91743899999999
 51
94.34270500000002
  0
ELLIPSE
  5
2152
330
1F
100
AcDbEntity
  8
1
100
AcDbEllipse
 10
9.95488499999999
 20
0.0063690000000065
 30
0.0
 11
-0.0984636396169663
 21
-5.593616962432861
 31
0.0
210
0.0
220
0.0
230
1.0
 40
0.122809
 41
2.634381404888213
 42
3.117460935118526
  0
LINE
  5
2153
330
1F
100
AcDbEntity
  8
1
100
AcDbLine
 10
10.069896
 20
5.598065999999986
 30
0.0
 11
11.26851699999997
 21
5.599999999999994
 31
0.0
  0
LINE
  5
2154
330
1F
100
AcDbEntity
  8
1
100
AcDbLine
 10
11.26851699999997
 20
5.599999999999994
 30
0.0
 11
12.39999999999998
 21
5.598275999999997
 31
0.0
  0
SPLINE
  5
2155
330
1F
100
AcDbEntity
  8
1
100
AcDbSpline
210
0.0
220
0.0
230
1.0
 70
     8
 71
     5
 72
    15
 73
     9
 74
     0
 42
0.000000001
 43
0.0000000001
 40
0.0
 40
0.0
 40
0.0
 40
0.0
 40
0.0
 40
0.0
 40
5.956676855760936
 40
5.956676855760936
 40
5.956676855760936
 40
6.578263499490467
 40
6.578263499490467
 40
6.578263499490467
 40
6.578263499490467
 40
6.578263499490467
 40
6.578263499490467
 10
12.39999999999998
 20
-5.412042797507667
 30
0.0
 10
11.68441666833269
 20
-5.414052281215021
 30
0.0
 10
10.96853253195764
 20
-5.441698888041827
 30
0.0
 10
10.26495887143767
 20
-5.494132814836945
 30
0.0
 10
9.512024312689931
 20
-5.558200561228858
 30
0.0
 10
8.799648236690643
 20
-5.588966822779721
 30
0.0
 10
8.732704800876888
 20
-5.591540089726834
 30
0.0
 10
8.666152986964505
 20
-5.593741162004818
 30
0.0
 10
8.599999999999994
 20
-5.595531725069122
 30
0.0
  0
LINE
  5
2156
330
1F
100
AcDbEntity
  8
1
100
AcDbLine
 10
8.599999999999994
 20
-4.933199999999998
 30
0.0
 11
8.873001999999981
 21
-4.914461999999986
 31
0.0
  0
LINE
  5
2157
330
1F
100
AcDbEntity
  8
1
100
AcDbLine
 10
12.52729099999999
 20
1.456128000000005
 30
0.0
 11
16.05229299999999
 21
1.380990999999995
 31
0.0
  0
LINE
  5
2158
330
1F
100
AcDbEntity
  8
1
100
AcDbLine
 10
12.39999999999998
 20
1.460090000000008
 30
0.0
 11
12.52729099999999
 21
1.456128000000005
 31
0.0
  0
ARC
  5
2159
330
1F
100
AcDbEntity
  8
1
100
AcDbCircle
 10
-88.79268200000002
 20
665.1770249999998
 30
0.0
 40
675.478619
100
AcDbArc
 50
278.61585
 51
278.929314
  0
LINE
  5
215A
330
1F
100
AcDbEntity
  8
1
100
AcDbLine
 10
16.05229299999999
 20
1.380990999999995
 30
0.0
 11
16.05229299999999
 21
-2.115167000000014
 31
0.0
  0
LINE
  5
215B
330
1F
100
AcDbEntity
  8
1
100
AcDbLine
 10
13.50719699999999
 20
5.496263999999996
 30
0.0
 11
12.39999999999998
 21
5.598275999999997
 31
0.0
  0
LINE
  5
215C
330
1F
100
AcDbEntity
  8
1
100
AcDbLine
 10
12.52729099999999
 20
-5.400997999999987
 30
0.0
 11
16.05229299999999
 21
-5.104353000000003
 31
0.0
  0
LINE
  5
215D
330
1F
100
AcDbEntity
  8
1
100
AcDbLine
 10
12.39999999999998
 20
-5.412043000000012
 30
0.0
 11
12.52729099999999
 21
-5.400997999999987
 31
0.0
  0
SPLINE
  5
215E
330
1F
100
AcDbEntity
  8
1
100
AcDbSpline
210
0.0
220
0.0
230
1.0
 70
     8
 71
     5
 72
    18
 73
    12
 74
     0
 42
0.000000001
 43
0.0000000001
 40
0.0
 40
0.0
 40
0.0
 40
0.0
 40
0.0
 40
0.0
 40
0.5056419099773214
 40
0.5056419099773214
 40
0.5056419099773214
 40
1.012505908370264
 40
1.012505908370264
 40
1.012505908370264
 40
1.261159238466281
 40
1.261159238466281
 40
1.261159238466281
 40
1.261159238466281
 40
1.261159238466281
 40
1.261159238466281
 10
16.05229344564859
 20
1.380991306210175
 30
0.0
 10
16.12352981562589
 20
1.379472860649571
 30
0.0
 10
16.19383840905155
 20
1.374287454669172
 30
0.0
 10
16.26110236023268
 20
1.365477855416657
 30
0.0
 10
16.38554893811215
 20
1.341132464122039
 30
0.0
 10
16.48297798090698
 20
1.305176279520565
 30
0.0
 10
16.52334010296883
 20
1.284718761325676
 30
0.0
 10
16.56916242517548
 20
1.251507082276787
 30
0.0
 10
16.59234036789168
 20
1.215776662359474
 30
0.0
 10
16.59744745993342
 20
1.203825838034987
 30
0.0
 10
16.59999999999999
 20
1.19176876307526
 30
0.0
 10
16.59999999999999
 20
1.17969026372208
 30
0.0
  0
LINE
  5
215F
330
1F
100
AcDbEntity
  8
1
100
AcDbLine
 10
16.59999999999999
 20
1.179689999999994
 30
0.0
 11
16.59999999999999
 21
-1.751462000000004
 31
0.0
  0
SPLINE
  5
2160
330
1F
100
AcDbEntity
  8
1
100
AcDbSpline
210
0.0
220
0.0
230
1.0
 70
     8
 71
     5
 72
    18
 73
    12
 74
     0
 42
0.000000001
 43
0.0000000001
 40
0.0
 40
0.0
 40
0.0
 40
0.0
 40
0.0
 40
0.0
 40
0.5116326490614915
 40
0.5116326490614915
 40
0.5116326490614915
 40
1.0243670338238
 40
1.0243670338238
 40
1.0243670338238
 40
1.274368023400889
 40
1.274368023400889
 40
1.274368023400889
 40
1.274368023400889
 40
1.274368023400889
 40
1.274368023400889
 10
16.59999999999999
 20
-1.751462459425198
 30
0.0
 10
16.59999999999999
 20
-1.787640350987969
 30
0.0
 10
16.5893061689282
 20
-1.824961814394725
 30
0.0
 10
16.56799828920785
 20
-1.862360469231646
 30
0.0
 10
16.5054712398607
 20
-1.935158777668249
 30
0.0
 10
16.40778332164989
 20
-1.999869403397128
 30
0.0
 10
16.35122577469852
 20
-2.029245051524014
 30
0.0
 10
16.25817229794885
 20
-2.067127490411932
 30
0.0
 10
16.15612322724564
 20
-2.094954343689038
 30
0.0
 10
16.12193239752625
 20
-2.102920815224023
 30
0.0
 10
16.08724006259118
 20
-2.109672678047417
 30
0.0
 10
16.05229344564859
 20
-2.115167113731956
 30
0.0
  0
ARC
  5
2161
330
1F
100
AcDbEntity
  8
1
100
AcDbCircle
 10
16.00619899999998
 20
-4.511539999999997
 30
0.0
 40
0.5941770000000123
100
AcDbArc
 50
274.4461279999988
 51
359.7213179999988
  0
LINE
  5
2162
330
1F
100
AcDbEntity
  8
1
100
AcDbLine
 10
16.59999999999999
 20
-4.419575000000008
 30
0.0
 11
16.59999999999999
 21
-4.514428000000007
 31
0.0
  0
LINE
  5
2163
330
1F
100
AcDbEntity
  8
1
100
AcDbLine
 10
10.32368099999999
 20
1.91430600000001
 30
0.0
 11
10.37463
 21
4.889890000000006
 31
0.0
  0
LINE
  5
2164
330
1F
100
AcDbEntity
  8
1
100
AcDbLine
 10
10.32262699999998
 20
1.80759900000001
 30
0.0
 11
10.32368099999999
 21
1.91430600000001
 31
0.0
  0
ELLIPSE
  5
2165
330
1F
100
AcDbEntity
  8
1
100
AcDbEllipse
 10
12.37857
 20
7.393709999999997
 30
0.0
 11
0.0
 21
-5.857481479644775
 31
0.0
210
0.0
220
0.0
230
1.0
 40
0.9925460000000001
 41
5.765090187740907
 42
5.921929876595187
  0
ELLIPSE
  5
2166
330
1F
100
AcDbEntity
  8
1
100
AcDbEllipse
 10
12.37857
 20
7.393709999999997
 30
0.0
 11
0.0
 21
-5.857481479644775
 31
0.0
210
0.0
220
0.0
230
1.0
 40
0.9925460000000001
 41
5.221520887953677
 42
5.620893880640039
  0
ARC
  5
2167
330
1F
100
AcDbEntity
  8
1
100
AcDbCircle
 10
8.882074999999986
 20
2.16343900000001
 30
0.0
 40
0.6037479999999962
100
AcDbArc
 50
114.867305000001
 51
126.624285000001
  0
ARC
  5
2168
330
1F
100
AcDbEntity
  8
1
100
AcDbCircle
 10
9.074908999999991
 20
1.745304000000004
 30
0.0
 40
1.064365
100
AcDbArc
 50
104.7717659999995
 51
114.8200109999995
  0
LINE
  5
2169
330
1F
100
AcDbEntity
  8
1
100
AcDbLine
 10
9.456847999999981
 20
2.188223999999991
 30
0.0
 11
9.442439999999976
 21
2.155401000000011
 31
0.0
  0
ARC
  5
216A
330
1F
100
AcDbEntity
  8
1
100
AcDbCircle
 10
8.21661899999998
 20
2.706331000000004
 30
0.0
 40
1.344113000000008
100
AcDbArc
 50
337.3272090000003
 51
342.6248960000003
  0
ELLIPSE
  5
216B
330
1F
100
AcDbEntity
  8
1
100
AcDbEllipse
 10
8.792102999999997
 20
2.235588000000007
 30
0.0
 11
0.6907666325569153
 21
0.3694149553775787
 31
0.0
210
0.0
220
0.0
230
0.9999999999999998
 40
0.6372430000000005
 41
5.705960415947967
 42
7.509910940508737
  0
ELLIPSE
  5
216C
330
1F
100
AcDbEntity
  8
1
100
AcDbEllipse
 10
12.509411
 20
-6.770241999999996
 30
0.0
 11
-6.543793201446533
 21
-0.9277750849723815
 31
0.0
210
0.0
220
0.0
230
1.0
 40
0.496273
 41
5.433897114731771
 42
5.591649300737539
  0
LINE
  5
216D
330
1F
100
AcDbEntity
  8
1
100
AcDbLine
 10
12.475504
 20
-5.00045399999999
 30
0.0
 11
12.52729099999999
 21
-5.400997999999987
 31
0.0
  0
LINE
  5
216E
330
1F
100
AcDbEntity
  8
SK1
100
AcDbLine
 10
-7.840178000000008
 20
3.0
 30
0.0
 11
-14.5
 21
3.0
 31
0.0
  0
LINE
  5
216F
330
1F
100
AcDbEntity
  8
SK1
100
AcDbLine
 10
-7.840178000000008
 20
-3.0
 30
0.0
 11
-14.5
 21
-3.0
 31
0.0
  0
ARC
  5
2170
330
1F
100
AcDbEntity
  8
SK1
100
AcDbCircle
 10
-6.571320000000013
 20
-3.800000000000011
 30
0.0
 40
1.5
100
AcDbArc
 50
21.51018800000015
 51
147.7690470000001
  0
ARC
  5
2171
330
1F
100
AcDbEntity
  8
SK1
100
AcDbCircle
 10
-6.571320000000013
 20
3.800000000000011
 30
0.0
 40
1.500000000000014
100
AcDbArc
 50
212.2309530000002
 51
338.4898120000002
  0
LINE
  5
2172
330
1F
100
AcDbEntity
  8
SK1
100
AcDbLine
 10
0.0
 20
3.25
 30
0.0
 11
-5.175792000000001
 21
3.25
 31
0.0
  0
LINE
  5
2173
330
1F
100
AcDbEntity
  8
SK1
100
AcDbLine
 10
0.0
 20
-3.25
 30
0.0
 11
-5.175792000000001
 21
-3.25
 31
0.0
  0
LINE
  5
2174
330
1F
100
AcDbEntity
  8
1
100
AcDbLine
 10
7.456994999999976
 20
5.5
 30
0.0
 11
0.0
 21
5.5
 31
0.0
  0
LINE
  5
2175
330
1F
100
AcDbEntity
  8
1
100
AcDbLine
 10
7.456994999999976
 20
-5.5
 30
0.0
 11
0.0
 21
-5.5
 31
0.0
  0
LINE
  5
2176
330
1F
100
AcDbEntity
  8
1
100
AcDbLine
 10
7.456994999999976
 20
5.5
 30
0.0
 11
8.599999999999994
 21
5.599999999999994
 31
0.0
  0
LINE
  5
2177
330
1F
100
AcDbEntity
  8
1
100
AcDbLine
 10
7.456994999999976
 20
-5.5
 30
0.0
 11
8.285532999999986
 21
-5.572487999999991
 31
0.0
  0
LINE
  5
2178
330
1F
100
AcDbEntity
  8
1
100
AcDbLine
 10
11.26851699999997
 20
5.599999999999994
 30
0.0
 11
8.599999999999994
 21
5.599999999999994
 31
0.0
  0
LINE
  5
2179
330
1F
100
AcDbEntity
  8
1
100
AcDbLine
 10
16.55469299999999
 20
1.256828000000011
 30
0.0
 11
16.73173199999999
 21
1.631900999999999
 31
0.0
  0
ARC
  5
217A
330
1F
100
AcDbEntity
  8
1
100
AcDbCircle
 10
13.919704
 20
18.254604
 30
0.0
 40
16.86316100000001
100
AcDbArc
 50
258.7029709999999
 51
264.8296619999999
  0
ARC
  5
217B
330
1F
100
AcDbEntity
  8
1
100
AcDbCircle
 10
13.896996
 20
18.25050100000001
 30
0.0
 40
16.85861600000001
100
AcDbArc
 50
272.6681709999999
 51
279.6801239999999
  0
ELLIPSE
  5
217C
330
1F
100
AcDbEntity
  8
1
100
AcDbEllipse
 10
13.308053
 20
3.394385999999997
 30
0.0
 11
0.0
 21
-1.059999942779539
 31
0.0
210
0.0
220
0.0
230
1.0
 40
0.9925460000000001
 41
0.1628801649159963
 42
2.978705112051379
  0
ARC
  5
217D
330
1F
100
AcDbEntity
  8
1
100
AcDbCircle
 10
16.51926999999998
 20
1.453383999999999
 30
0.0
 40
0.1998509999999931
100
AcDbArc
 50
280.2159210000004
 51
335.3121800000004
  0
ARC
  5
217E
330
1F
100
AcDbEntity
  8
1
100
AcDbCircle
 10
16.68398599999998
 20
1.836315000000013
 30
0.0
 40
0.2144770000000151
100
AcDbArc
 50
334.7923190000003
 51
359.0598670000003
  0
ARC
  5
217F
330
1F
100
AcDbEntity
  8
1
100
AcDbCircle
 10
16.69630899999999
 20
1.828458000000011
 30
0.0
 40
0.199850000000004
100
AcDbArc
 50
280.2160780000011
 51
335.3253650000012
  0
ARC
  5
2180
330
1F
100
AcDbEntity
  8
1
100
AcDbCircle
 10
10.55821299999999
 20
1.941503000000011
 30
0.0
 40
0.2095509999999934
100
AcDbArc
 50
178.5971879999989
 51
234.1925519999989
  0
LINE
  5
2181
330
1F
100
AcDbEntity
  8
1
100
AcDbLine
 10
10.32333799999998
 20
1.893098000000009
 30
0.0
 11
10.34860799999998
 21
1.946636000000012
 31
0.0
  0
LINE
  5
2182
330
1F
100
AcDbEntity
  8
1
100
AcDbLine
 10
16.94996599999999
 20
4.842136000000011
 30
0.0
 11
16.898438
 21
1.832796000000002
 31
0.0
  0
ARC
  5
2183
330
1F
100
AcDbEntity
  8
1
100
AcDbCircle
 10
16.74802799999998
 20
4.853408999999999
 30
0.0
 40
0.1999180000000007
100
AcDbArc
 50
23.08148799999812
 51
77.80455199999813
  0
ARC
  5
2184
330
1F
100
AcDbEntity
  8
1
100
AcDbCircle
 10
16.735491
 20
4.845962000000012
 30
0.0
 40
0.2145050000000015
100
AcDbArc
 50
358.9779320000029
 51
23.59842100000285
  0
ARC
  5
2185
330
1F
100
AcDbEntity
  8
1
100
AcDbCircle
 10
13.39218699999998
 20
-11.37133299999999
 30
0.0
 40
16.76785
100
AcDbArc
 50
78.30795199999997
 51
99.70042699999996
  0
ARC
  5
2186
330
1F
100
AcDbEntity
  8
1
100
AcDbCircle
 10
10.60541699999999
 20
4.956123999999988
 30
0.0
 40
0.2048639999999935
100
AcDbArc
 50
100.8770619999985
 51
180.0412179999985
  0
LINE
  5
2187
330
1F
100
AcDbEntity
  8
1
100
AcDbLine
 10
10.34860799999998
 20
1.946636000000012
 30
0.0
 11
10.40013599999997
 21
4.955975999999993
 31
0.0
  0
ELLIPSE
  5
2188
330
1F
100
AcDbEntity
  8
1
100
AcDbEllipse
 10
13.64928699999999
 20
3.394385999999997
 30
0.0
 11
0.0
 21
-1.059999942779539
 31
0.0
210
0.0
220
0.0
230
1.0
 40
0.9925460000000001
 41
3.141676262308648
 42
6.283268915898442
  0
ELLIPSE
  5
2189
330
1F
100
AcDbEntity
  8
1
100
AcDbEllipse
 10
13.64928699999999
 20
3.394385999999997
 30
0.0
 11
0.0
 21
-1.059999942779539
 31
0.0
210
0.0
220
0.0
230
1.0
 40
0.9925460000000001
 41
0.0000836087188561
 42
1.553546941796483
  0
ELLIPSE
  5
218A
330
1F
100
AcDbEntity
  8
1
100
AcDbEllipse
 10
13.64928699999999
 20
3.394385999999997
 30
0.0
 11
0.0
 21
-1.059999942779539
 31
0.0
210
0.0
220
0.0
230
1.0
 40
0.9925460000000001
 41
1.553546941796483
 42
3.141676262308648
  0
LINE
  5
218B
330
1F
100
AcDbEntity
  8
1
100
AcDbLine
 10
10.40013599999997
 20
4.955975999999993
 30
0.0
 11
10.312871
 21
5.155315999999999
 31
0.0
  0
ARC
  5
218C
330
1F
100
AcDbEntity
  8
1
100
AcDbCircle
 10
10.449174
 20
5.327944000000001
 30
0.0
 40
0.2131959999999949
100
AcDbArc
 50
154.740935999996
 51
167.3965509999959
  0
ARC
  5
218D
330
1F
100
AcDbEntity
  8
1
100
AcDbCircle
 10
10.43806799999999
 20
5.33538999999999
 30
0.0
 40
0.1998480000000052
100
AcDbArc
 50
100.2156269999971
 51
155.3125709999971
  0
LINE
  5
218E
330
1F
100
AcDbEntity
  8
1
100
AcDbLine
 10
16.62604099999999
 20
5.423777000000001
 30
0.0
 11
16.53892599999998
 21
5.441516000000007
 31
0.0
  0
LINE
  5
218F
330
1F
100
AcDbEntity
  8
1
100
AcDbLine
 10
10.402647
 20
5.531943000000011
 30
0.0
 11
10.49028199999998
 21
5.546638000000002
 31
0.0
  0
ARC
  5
2190
330
1F
100
AcDbEntity
  8
1
100
AcDbCircle
 10
16.58383099999998
 20
5.228477999999995
 30
0.0
 40
0.1999240000000109
100
AcDbArc
 50
23.07401499999993
 51
77.80418799999994
  0
LINE
  5
2191
330
1F
100
AcDbEntity
  8
1
100
AcDbLine
 10
16.79023599999999
 20
5.048703999999987
 30
0.0
 11
16.62604099999999
 21
5.423777000000001
 31
0.0
  0
ARC
  5
2192
330
1F
100
AcDbEntity
  8
1
100
AcDbCircle
 10
-22.99201100000002
 20
-2097.27767
 30
0.0
 40
2103.090796
100
AcDbArc
 50
88.92297099999998
 51
89.08778299999999
  0
LINE
  5
2193
330
1F
100
AcDbEntity
  8
1
100
AcDbLine
 10
10.56684199999998
 20
5.156869999999996
 30
0.0
 11
10.402647
 21
5.531943000000011
 31
0.0
  0
LINE
  5
2194
330
1F
100
AcDbEntity
  8
1
100
AcDbLine
 10
16.70097699999999
 20
1.369854999999999
 30
0.0
 11
16.87803599999998
 21
1.744969999999995
 31
0.0
  0
LINE
  5
2195
330
1F
100
AcDbEntity
  8
1
100
AcDbLine
 10
10.23846399999999
 20
5.380993999999986
 30
0.0
 11
10.25636299999999
 21
5.418916999999991
 31
0.0
  0
LINE
  5
2196
330
1F
100
AcDbEntity
  8
1
100
AcDbLine
 10
16.93205499999999
 20
4.931832000000012
 30
0.0
 11
16.76787099999999
 21
5.306879000000009
 31
0.0
  0
LINE
  5
2197
330
1F
100
AcDbEntity
  8
1
100
AcDbLine
 10
16.59999999999999
 20
0.2908239999999864
 30
0.0
 11
16.73173199999999
 21
1.046201999999994
 31
0.0
  0
LINE
  5
2198
330
1F
100
AcDbEntity
  8
1
100
AcDbLine
 10
16.59999999999999
 20
1.071166000000005
 30
0.0
 11
16.73173199999999
 21
1.046201999999994
 31
0.0
  0
SPLINE
  5
2199
330
1F
100
AcDbEntity
  8
1
100
AcDbSpline
210
0.0
220
0.0
230
1.0
 70
     8
 71
     5
 72
    18
 73
    12
 74
     0
 42
0.000000001
 43
0.0000000001
 40
0.0
 40
0.0
 40
0.0
 40
0.0
 40
0.0
 40
0.0
 40
0.0043357678272563
 40
0.0043357678272563
 40
0.0043357678272563
 40
0.2157322558013323
 40
0.2157322558013323
 40
0.2157322558013323
 40
0.3741694121668847
 40
0.3741694121668847
 40
0.3741694121668847
 40
0.3741694121668847
 40
0.3741694121668847
 40
0.3741694121668847
 10
16.72139918836217
 20
-0.0871503641171216
 30
0.0
 10
16.72138460465428
 20
-0.0869238230611415
 30
0.0
 10
16.72137002094638
 20
-0.086697282005133
 30
0.0
 10
16.72136371739273
 20
-0.0862800975503717
 30
0.0
 10
16.72058335884313
 20
-0.0718312294569046
 30
0.0
 10
16.71502969468264
 20
-0.0570294244503771
 30
0.0
 10
16.70477753059038
 20
-0.0424250175094301
 30
0.0
 10
16.68094734980446
 20
-0.0193197192594141
 30
0.0
 10
16.6484011592724
 20
-0.0000693872643751
 30
0.0
 10
16.63307218296958
 20
0.0073861938592472
 30
0.0
 10
16.61688659539669
 20
0.0138711191087282
 30
0.0
 10
16.59999998858157
 20
0.0193884405156837
 30
0.0
  0
LINE
  5
219A
330
1F
100
AcDbEntity
  8
1
100
AcDbLine
 10
16.72139899999999
 20
-0.0871500000000083
 30
0.0
 11
16.63407099999998
 21
-0.82728800000001
 31
0.0
  0
ELLIPSE
  5
219B
330
1F
100
AcDbEntity
  8
1
100
AcDbEllipse
 10
16.69995899999998
 20
0.9474089999999931
 30
0.0
 11
0.1979552507400513
 21
-0.0289166290313006
 31
0.0
210
0.0
220
0.0
230
1.0
 40
0.5134910000000003
 41
0.092726637493191
 42
1.484915949744195
  0
LINE
  5
219C
330
1F
100
AcDbEntity
  8
1
100
AcDbLine
 10
16.72139899999999
 20
-0.0871500000000083
 30
0.0
 11
16.898438
 21
0.9280280000000118
 31
0.0
  0
LINE
  5
219D
330
1F
100
AcDbEntity
  8
1
100
AcDbLine
 10
16.94996599999999
 20
-0.5821210000000008
 30
0.0
 11
16.898438
 21
0.9280280000000118
 31
0.0
  0
LINE
  5
219E
330
1F
100
AcDbEntity
  8
1
100
AcDbLine
 10
16.94963099999998
 20
-0.5902130000000057
 30
0.0
 11
16.94996599999999
 21
-0.5821210000000008
 31
0.0
  0
LINE
  5
219F
330
1F
100
AcDbEntity
  8
1
100
AcDbLine
 10
16.94996599999999
 20
-0.5821210000000008
 30
0.0
 11
16.79186399999998
 21
-1.922098000000003
 31
0.0
  0
LINE
  5
21A0
330
1F
100
AcDbEntity
  8
1
100
AcDbLine
 10
16.94963199999998
 20
-0.5902130000000057
 30
0.0
 11
16.79218599999999
 21
-1.92462900000001
 31
0.0
  0
ELLIPSE
  5
21A1
330
1F
100
AcDbEntity
  8
1
100
AcDbEllipse
 10
16.41025199999999
 20
-1.876048999999995
 30
0.0
 11
-0.1979675590991974
 21
-0.0285848584026098
 31
0.0
210
0.0
220
0.0
230
1.0
 40
0.513674
 41
1.693226468763884
 42
3.085415781014866
  0
LINE
  5
21A2
330
1F
100
AcDbEntity
  8
1
100
AcDbLine
 10
16.60873199999997
 20
-1.853218999999995
 30
0.0
 11
16.59999999999999
 21
-1.59916799999999
 31
0.0
  0
LINE
  5
21A3
330
1F
100
AcDbEntity
  8
1
100
AcDbLine
 10
16.72139899999999
 20
-1.37057200000001
 30
0.0
 11
16.720753
 21
-1.363944000000004
 31
0.0
  0
LINE
  5
21A4
330
1F
100
AcDbEntity
  8
1
100
AcDbLine
 10
16.72139899999999
 20
-1.37057200000001
 30
0.0
 11
16.59999999999999
 21
-0.618978999999996
 31
0.0
  0
LINE
  5
21A5
330
1F
100
AcDbEntity
  8
1
100
AcDbLine
 10
16.72139899999999
 20
-1.37057200000001
 30
0.0
 11
16.898438
 21
-2.760824000000014
 31
0.0
  0
LINE
  5
21A6
330
1F
100
AcDbEntity
  8
1
100
AcDbLine
 10
16.94996599999999
 20
-4.260015000000008
 30
0.0
 11
16.898438
 21
-2.760824000000014
 31
0.0
  0
ELLIPSE
  5
21A7
330
1F
100
AcDbEntity
  8
1
100
AcDbEllipse
 10
16.751486
 20
-4.282845000000008
 30
0.0
 11
-0.1979675590991974
 21
-0.0285848584026098
 31
0.0
210
0.0
220
0.0
230
1.0
 40
0.513674
 41
1.69322646876385
 42
3.08541578101487
  0
ARC
  5
21A8
330
1F
100
AcDbEntity
  8
1
100
AcDbCircle
 10
9.810710999999995
 20
28.85847100000001
 30
0.0
 40
33.963387
100
AcDbArc
 50
271.275703
 51
281.8587669999999
  0
ELLIPSE
  5
21A9
330
1F
100
AcDbEntity
  8
1
100
AcDbEllipse
 10
10.598615
 20
-4.990577999999998
 30
0.0
 11
-0.1979675590991974
 21
-0.0285848584026098
 31
0.0
210
0.0
220
0.0
230
1.0
 40
0.513674
 41
0.0085978276258909
 42
1.33601243967653
  0
SPLINE
  5
21AA
330
1F
100
AcDbEntity
  8
1
100
AcDbSpline
210
0.0
220
0.0
230
1.0
 70
     8
 71
     5
 72
    18
 73
    12
 74
     0
 42
0.000000001
 43
0.0000000001
 40
0.0
 40
0.0
 40
0.0
 40
0.0
 40
0.0
 40
0.0
 40
0.1631828238127119
 40
0.1631828238127119
 40
0.1631828238127119
 40
0.4270176454020742
 40
0.4270176454020742
 40
0.4270176454020742
 40
0.4292970226133596
 40
0.4292970226133596
 40
0.4292970226133596
 40
0.4292970226133596
 40
0.4292970226133596
 40
0.4292970226133596
 10
10.23658667744701
 20
-4.003491885333346
 30
0.0
 10
10.23831022589096
 20
-4.01416253694134
 30
0.0
 10
10.24277094265608
 20
-4.024431331868641
 30
0.0
 10
10.25011138421661
 20
-4.034198278952543
 30
0.0
 10
10.27520918351905
 20
-4.056654533090978
 30
0.0
 10
10.3139402106226
 20
-4.071615045955552
 30
0.0
 10
10.34203651580643
 20
-4.077570092881329
 30
0.0
 10
10.37160278988597
 20
-4.080159605274956
 30
0.0
 10
10.40186932758499
 20
-4.07960001245047
 30
0.0
 10
10.40212862393332
 20
-4.079594988341398
 30
0.0
 10
10.40238796978016
 20
-4.07958973339035
 30
0.0
 10
10.40264736479665
 20
-4.079584247668947
 30
0.0
  0
LINE
  5
21AB
330
1F
100
AcDbEntity
  8
1
100
AcDbLine
 10
10.25335899999999
 20
-2.907252999999997
 30
0.0
 11
10.402647
 21
-4.079584000000011
 31
0.0
  0
LINE
  5
21AC
330
1F
100
AcDbEntity
  8
1
100
AcDbLine
 10
16.44900199999998
 20
-1.973487000000004
 30
0.0
 11
16.62604099999999
 21
-3.363739000000009
 31
0.0
  0
LINE
  5
21AD
330
1F
100
AcDbEntity
  8
1
100
AcDbLine
 10
16.62604099999999
 20
-3.363739000000009
 30
0.0
 11
16.53892599999998
 21
-3.381871999999986
 31
0.0
  0
SPLINE
  5
21AE
330
1F
100
AcDbEntity
  8
1
100
AcDbSpline
210
0.0
220
0.0
230
1.0
 70
     8
 71
     5
 72
    18
 73
    12
 74
     0
 42
0.000000001
 43
0.0000000001
 40
0.502151655081422
 40
0.502151655081422
 40
0.502151655081422
 40
0.502151655081422
 40
0.502151655081422
 40
0.502151655081422
 40
4.066606102456836
 40
4.066606102456836
 40
4.066606102456836
 40
7.524212728860522
 40
7.524212728860522
 40
7.524212728860522
 40
11.51775886342234
 40
11.51775886342234
 40
11.51775886342234
 40
11.51775886342234
 40
11.51775886342234
 40
11.51775886342234
 10
10.49030838535492
 20
-4.077624871007941
 30
0.0
 10
10.82005411185639
 20
-3.825311618244653
 30
0.0
 10
11.16740094626101
 20
-3.595352624439413
 30
0.0
 10
11.53473857367379
 20
-3.390980226022378
 30
0.0
 10
12.2767105291351
 20
-3.060422645052228
 30
0.0
 10
13.06537724548033
 20
-2.871476001387038
 30
0.0
 10
13.47165692221526
 20
-2.815197235778071
 30
0.0
 10
14.33545110194819
 20
-2.780853251775253
 30
0.0
 10
15.19905749510608
 20
-2.916478139037138
 30
0.0
 10
15.65610634102066
 20
-3.034967685855662
 30
0.0
 10
16.1031516407447
 20
-3.192045056487216
 30
0.0
 10
16.53893879005759
 20
-3.381854221950703
 30
0.0
  0
LINE
  5
21AF
330
1F
100
AcDbEntity
  8
1
100
AcDbLine
 10
10.402647
 20
-4.079584000000011
 30
0.0
 11
10.49028199999998
 21
-4.077613000000012
 31
0.0
  0
SPLINE
  5
21B0
330
1F
100
AcDbEntity
  8
1
100
AcDbSpline
210
0.0
220
0.0
230
1.0
 70
     8
 71
     5
 72
    15
 73
     9
 74
     0
 42
0.000000001
 43
0.0000000001
 40
0.0
 40
0.0
 40
0.0
 40
0.0
 40
0.0
 40
0.0
 40
0.2849290509657141
 40
0.2849290509657141
 40
0.2849290509657141
 40
0.4550882204716887
 40
0.4550882204716887
 40
0.4550882204716887
 40
0.4550882204716887
 40
0.4550882204716887
 40
0.4550882204716887
 10
16.6260414001826
 20
-3.363739137276836
 30
0.0
 10
16.65810245265678
 20
-3.357022060628566
 30
0.0
 10
16.68899058349197
 20
-3.34697264915448
 30
0.0
 10
16.7175084725815
 20
-3.333744089919291
 30
0.0
 10
16.75574351257771
 20
-3.308210131399051
 30
0.0
 10
16.77785151043076
 20
-3.278249852130926
 30
0.0
 10
16.78356593727636
 20
-3.266393932645768
 30
0.0
 10
16.78615958254801
 20
-3.254775390351142
 30
0.0
 10
16.78577102345903
 20
-3.243470385225576
 30
0.0
  0
LINE
  5
21B1
330
1F
100
AcDbEntity
  8
1
100
AcDbLine
 10
16.60873199999997
 20
-1.853218999999995
 30
0.0
 11
16.78577099999998
 21
-3.243470000000001
 31
0.0
  0
LINE
  5
21B2
330
1F
100
AcDbEntity
  8
1
100
AcDbLine
 10
16.94996599999999
 20
-4.260015000000008
 30
0.0
 11
16.78577099999998
 21
-3.243470000000001
 31
0.0
  0
LINE
  5
21B3
330
1F
100
AcDbEntity
  8
1
100
AcDbLine
 10
16.79023599999999
 20
-4.380283999999988
 30
0.0
 11
16.62604099999999
 21
-3.363739000000009
 31
0.0
  0
SPLINE
  5
21B4
330
1F
100
AcDbEntity
  8
1
100
AcDbSpline
210
0.0
220
0.0
230
1.0
 70
     8
 71
     5
 72
    18
 73
    12
 74
     0
 42
0.000000001
 43
0.0000000001
 40
0.5023872400998465
 40
0.5023872400998465
 40
0.5023872400998465
 40
0.5023872400998465
 40
0.5023872400998465
 40
0.5023872400998465
 40
4.764544049339538
 40
4.764544049339538
 40
4.764544049339538
 40
8.212081646334681
 40
8.212081646334681
 40
8.212081646334681
 40
11.52161577632496
 40
11.52161577632496
 40
11.52161577632496
 40
11.52161577632496
 40
11.52161577632496
 40
11.52161577632496
 10
10.4902819869647
 20
-4.07761337302989
 30
0.0
 10
10.95538153862589
 20
-4.280191260301506
 30
0.0
 10
11.43330968061525
 20
-4.445487921974886
 30
0.0
 10
11.92255210761095
 20
-4.566387148438366
 30
0.0
 10
12.81833711368446
 20
-4.68868802059194
 30
0.0
 10
13.70978936117584
 20
-4.626949254238525
 30
0.0
 10
14.11268320064886
 20
-4.558961210617892
 30
0.0
 10
14.86590373059121
 20
-4.355637309758833
 30
0.0
 10
15.573591240724
 20
-4.024078677798711
 30
0.0
 10
15.91156918586753
 20
-3.831091949916981
 30
0.0
 10
16.23278633057814
 20
-3.616127562534615
 30
0.0
 10
16.53892341105941
 20
-3.381865990266448
 30
0.0
  0
LINE
  5
21B5
330
1F
100
AcDbEntity
  8
1
100
AcDbLine
 10
10.56684199999998
 20
-5.096128999999991
 30
0.0
 11
10.402647
 21
-4.079584000000011
 31
0.0
  0
LINE
  5
21B6
330
1F
100
AcDbEntity
  8
1
100
AcDbLine
 10
16.720753
 20
-1.363944000000004
 30
0.0
 11
16.59999999999999
 21
-0.6163490000000138
 31
0.0
  0
LINE
  5
21B7
330
1F
100
AcDbEntity
  8
1
100
AcDbLine
 10
16.72100599999999
 20
-1.365693999999991
 30
0.0
 11
16.898045
 21
-2.755944999999995
 31
0.0
  0
LINE
  5
21B8
330
1F
100
AcDbEntity
  8
1
100
AcDbLine
 10
10.099019
 20
-2.923438000000004
 30
0.0
 11
10.236334
 21
-4.001743000000003
 31
0.0
  0
LINE
  5
21B9
330
1F
100
AcDbEntity
  8
1
100
AcDbLine
 10
10.40078199999999
 20
-5.020036000000004
 30
0.0
 11
10.30726799999999
 21
-4.441082999999991
 31
0.0
  0
LINE
  5
2404
330
1F
100
AcDbEntity
  8
SK4
100
AcDbLine
 10
0.0
 20
0.0
 30
0.0
 11
-17.61310700000001
 21
0.0
 31
0.0
  0
LINE
  5
2405
330
1F
100
AcDbEntity
  8
SK3
100
AcDbLine
 10
5.490226714163782
 20
0.8829521137682077
 30
0.0
 11
7.948733343978915
 21
2.442498920898485
 31
0.0
  0
LINE
  5
2406
330
1F
100
AcDbEntity
  8
SK3
100
AcDbLine
 10
5.8303073620161
 20
0.2939158986195207
 30
0.0
 11
8.288813991831231
 21
1.853462705749798
 31
0.0
  0
DIMENSION
  5
288C
330
1F
100
AcDbEntity
  8
2
100
AcDbDimension
  2
*D6
 10
42.2126540649033
 20
-6.0
 30
0.0
 11
42.2126540649033
 21
-0.0638370703569802
 31
0.0
 70
   160
  1
%%c<>
 71
     5
 41
0.0
 42
12.0
  3
Standard
100
AcDbAlignedDimension
 13
16.94996187204817
 23
6.0
 33
0.0
 14
16.94999999999999
 24
-6.0
 34
0.0
 50
90.0
100
AcDbRotatedDimension
1001
ACAD
1000
DSTYLE
1002
{
1070
   282
1070
     1
1070
    76
1070
     1
1002
}
  0
DIMENSION
  5
2D3C
330
1F
100
AcDbEntity
  8
2
100
AcDbDimension
  2
*D13
 10
16.94996187204817
 20
35.51128431261597
 30
0.0
 11
8.474980936024081
 21
35.51128431261597
 31
0.0
 70
   160
  1
17
 71
     5
 41
0.0
 42
16.94996187204817
  3
Standard
100
AcDbAlignedDimension
 13
0.0
 23
0.0
 33
0.0
 14
16.94996187204817
 24
4.842135765833206
 34
0.0
100
AcDbRotatedDimension
  0
DIMENSION
  5
2E70
330
1F
100
AcDbEntity
  8
SK2
100
AcDbDimension
  2
*D14
 10
16.94996187204817
 20
43.66115604983621
 30
0.0
 11
1.224980936024087
 21
46.09764586009621
 31
0.0
 70
    32
  1
31.5
 71
     5
 41
0.0
 42
31.44996187204818
  3
Standard
100
AcDbAlignedDimension
 13
-14.5
 23
3.0
 33
0.0
 14
16.94996187204817
 24
4.841894919217981
 34
0.0
100
AcDbRotatedDimension
  0
LWPOLYLINE
  5
369F
330
1F
100
AcDbEntity
  8
CUT
100
AcDbPolyline
 90
      833
 70
     1
 43
0.0
 10
16.79574451618585
 20
5.466943955571836
 42
-0.3527011792879647
 10
16.95014496134027
 20
5.264400237411116
 10
16.95014499999999
 20
5.264400000000001
 10
16.87302793038387
 20
2.39127840633892
 10
16.87310237981298
 20
2.390330422995031
 10
16.87312955063566
 20
2.389389715382219
 10
16.87310894429037
 20
2.388458704352037
 10
16.87304033248772
 20
2.387537570298679
 10
16.87292356481478
 20
2.386626587611151
 10
16.87275856093668
 20
2.385726108603631
 10
16.87254530279808
 20
2.384836547445829
 10
16.8722838268247
 20
2.383958364093333
 10
16.87197421612488
 20
2.383092048217986
 10
16.87161659269107
 20
2.382238103138218
 10
16.87121110960138
 20
2.381397029749425
 10
16.87075794322108
 20
2.380569310454316
 10
16.87025728540418
 20
2.379755393093271
 10
16.86970933569486
 20
2.378955674874694
 10
16.86911429352911
 20
2.378170486305382
 10
16.86847235043615
 20
2.377400075120871
 10
16.86778368224002
 20
2.376644590215795
 10
16.86704841797263
 20
2.375904061192814
 10
16.86626645737302
 20
2.375178387466911
 10
16.86543768566325
 20
2.374467481264526
 10
16.86456213532104
 20
2.373771323708538
 10
16.86363997334646
 20
2.373089956254593
 10
16.86267148647816
 20
2.372423471537663
 10
16.86165706640969
 20
2.371772004218617
 10
16.8605971950057
 20
2.371135721830774
 10
16.85949242951821
 20
2.370514815626483
 10
16.85834338780284
 20
2.369909491423681
 10
16.85715073353513
 20
2.369319960452451
 10
16.85591516142669
 20
2.368746430201602
 10
16.85463738244155
 20
2.368189095265221
 10
16.85331810901235
 20
2.367648128189246
 10
16.85195804025662
 20
2.367123670318025
 10
16.85055784719303
 20
2.366615822640888
 10
16.84911815795764
 20
2.366124636638701
 10
16.84763954302014
 20
2.365650105130447
 10
16.84612250758258
 20
2.365192154818046
 10
16.84456778811843
 20
2.364750719312662
 10
16.84297640342687
 20
2.364325792001207
 10
16.84134920171434
 20
2.363917340367899
 10
16.8396868530653
 20
2.363525302467019
 10
16.83798987833917
 20
2.363149591195985
 10
16.83625867806731
 20
2.362790098568408
 10
16.83449356134992
 20
2.362446699987164
 10
16.832694774753
 20
2.362119258517449
 10
16.83086253120529
 20
2.361807629159859
 10
16.82899703889521
 20
2.361511663123443
 10
16.82709853016781
 20
2.361231212098772
 10
16.82516729042169
 20
2.360966132531004
 10
16.82320368700596
 20
2.360716289892949
 10
16.82120819811719
 20
2.36048156295813
 10
16.81918144169633
 20
2.360261848073859
 10
16.81712420432566
 20
2.360057063434287
 10
16.81503747012572
 20
2.35986715335348
 10
16.8129224496523
 20
2.359692092538481
 10
16.81078060956479
 20
2.359531889339825
 10
16.80861369090937
 20
2.359386506822374
 10
16.80642335489273
 20
2.359255786506694
 10
16.8042108729338
 20
2.359139559059439
 10
16.80197715576294
 20
2.359037657117912
 10
16.79972280390603
 20
2.358949915305594
 10
16.79744815816858
 20
2.358876170247673
 10
16.79515335011982
 20
2.358816260586568
 10
16.79283835257685
 20
2.358770026997455
 10
16.79050303008869
 20
2.358737312203786
 10
16.7881471894204
 20
2.358717960992831
 10
16.78577063003722
 20
2.358711820231181
 10
16.78337319458863
 20
2.358718738880297
 10
16.78095481939249
 20
2.358738568012017
 10
16.77851558491911
 20
2.358771160824093
 10
16.77605576627537
 20
2.358816372655712
 10
16.77357588368886
 20
2.358874061003024
 10
16.77107675299193
 20
2.358944085534663
 10
16.76855953610583
 20
2.35902630810728
 10
16.76602579152479
 20
2.359120592781063
 10
16.76347755612374
 20
2.359226799156104
 10
16.76091796448487
 20
2.359344626368812
 10
16.75835037329541
 20
2.359473656361854
 10
16.75577717242394
 20
2.359613552112096
 10
16.75319984742287
 20
2.35976405779846
 10
16.75061909644042
 20
2.359924988981622
 10
16.74803494713255
 20
2.360096222783726
 10
16.74544687357504
 20
2.360277688068108
 10
16.74285391317537
 20
2.360469355618995
 10
16.74025478358478
 20
2.360671228321224
 10
16.7376479996102
 20
2.360883331339953
 10
16.73503199012626
 20
2.361105702300377
 10
16.73240521498726
 20
2.361338381467437
 10
16.72976628193915
 20
2.36158140192553
 10
16.72711406353151
 20
2.36183477975823
 10
16.72444781402956
 20
2.362098504227991
 10
16.72176728632608
 20
2.362372527955866
 10
16.71907284885347
 20
2.362656757101218
 10
16.71636560249567
 20
2.36295104154143
 10
16.71364749750015
 20
2.363255165051621
 10
16.71092145035653
 20
2.363568835488196
 10
16.70126600438816
 20
2.364696145669576
 10
16.69160957496737
 20
2.365825469952333
 10
16.68195216000014
 20
2.366956791271043
 10
16.67229375854835
 20
2.368090092473566
 10
16.66263437021848
 20
2.369225356392683
 10
16.65297399514357
 20
2.37036256584849
 10
16.64331263396504
 20
2.371501703650768
 10
16.63365028781472
 20
2.372642752601369
 10
16.62398695829674
 20
2.373785695496595
 10
16.61432264746948
 20
2.374930515129584
 10
16.60465735782746
 20
2.376077194292681
 10
16.59499109228331
 20
2.377225715779826
 10
16.58532385414966
 20
2.378376062388931
 10
16.57565564712113
 20
2.379528216924266
 10
16.56598647525617
 20
2.380682162198831
 10
16.55631634295905
 20
2.381837881036747
 10
16.5466452549618
 20
2.382995356275626
 10
16.5369732163061
 20
2.384154570768964
 10
16.52730023232521
 20
2.385315507388506
 10
16.51762630862593
 20
2.386478149026643
 10
16.5079514510705
 20
2.387642478598784
 10
16.49827566575855
 20
2.388808479045732
 10
16.488598959009
 20
2.38997613333608
 10
16.47892133734202
 20
2.391145424468576
 10
16.46924280746096
 20
2.392316335474513
 10
16.45956337623424
 20
2.393488849420104
 10
16.44988305067732
 20
2.394662949408868
 10
16.44020183793459
 20
2.395838618584008
 10
16.43051974526134
 20
2.397015840130791
 10
16.42083678000568
 20
2.398194597278931
 10
16.41115294959043
 20
2.399374873304966
 10
16.4014682614951
 20
2.400556651534645
 10
16.39178272323777
 20
2.401739915345303
 10
16.38209634235709
 20
2.40292464816824
 10
16.37240912639412
 20
2.404110833491113
 10
16.36272108287431
 20
2.405298454860299
 10
16.35303221928945
 20
2.406487495883295
 10
16.34334254307953
 20
2.407677940231083
 10
16.33365206161474
 20
2.408869771640523
 10
16.32396078217735
 20
2.41006297391672
 10
16.31426871194367
 20
2.411257530935419
 10
16.30457585796594
 20
2.412453426645378
 10
16.29488222715431
 20
2.413650645070748
 10
16.28518782625874
 20
2.414849170313458
 10
16.27549266185091
 20
2.416048986555589
 10
16.26579674030618
 20
2.417250078061765
 10
16.25610006778553
 20
2.418452429181523
 10
16.24640265021745
 20
2.419656024351703
 10
16.23670449327987
 20
2.420860848098818
 10
16.22700560238213
 20
2.422066885041449
 10
16.21730598264688
 20
2.423274119892611
 10
16.207605638892
 20
2.424482537462141
 10
16.19790457561255
 20
2.425692122659082
 10
16.18820279696269
 20
2.426902860494056
 10
16.17850030673762
 20
2.428114736081651
 10
16.16879710835547
 20
2.429327734642796
 10
16.15909320483929
 20
2.430541841507151
 10
16.14938859879892
 20
2.431757042115475
 10
16.13968329241294
 20
2.432973322022016
 10
16.12997728741063
 20
2.434190666896889
 10
16.12027058505386
 20
2.435409062528457
 10
16.11056318611901
 20
2.43662849482571
 10
16.10085509135598
 20
2.437848949754909
 10
16.0911463283846
 20
2.439070409639249
 10
16.08143695812082
 20
2.440292852309588
 10
16.07172702856187
 20
2.441516257490436
 10
16.06201657225371
 20
2.442740607143611
 10
16.05230560795156
 20
2.443965885233172
 10
16.04259414228048
 20
2.445192077490311
 10
16.0328821713959
 20
2.446419171178292
 10
16.0231696826442
 20
2.447647154857352
 10
16.01345665622325
 20
2.448876018149616
 10
16.00374306684298
 20
2.450105751504024
 10
15.99402888538593
 20
2.451336345961236
 10
15.98431408056781
 20
2.452567792918548
 10
15.97459862059804
 20
2.453800083894816
 10
15.96488247484032
 20
2.455033210295358
 10
15.9551656154732
 20
2.456267163176884
 10
15.9454480191506
 20
2.457501933012403
 10
15.9357296686624
 20
2.458737509456135
 10
15.92601055459498
 20
2.459973881108437
 10
15.91629067699178
 20
2.461211035280713
 10
15.90657004701386
 20
2.462448957760325
 10
15.89684868860043
 20
2.463687632575513
 10
15.88712664012947
 20
2.464927041760318
 10
15.8774039560782
 20
2.466167165119481
 10
15.86768070868371
 20
2.46740797999337
 10
15.85795698960349
 20
2.468649461022894
 10
15.84823291157595
 20
2.469891579914416
 10
15.83850861008104
 20
2.471134305204668
 10
15.82878424500077
 20
2.472377602025673
 10
15.81906000227976
 20
2.473621431869653
 10
15.80933609558583
 20
2.474865752353943
 10
15.79961276797052
 20
2.476110516985915
 10
15.78989028391483
 20
2.477355676135589
 10
15.78016883939687
 20
2.478601188472838
 10
15.77044856843545
 20
2.47984702060812
 10
15.76072958187376
 20
2.481093142355937
 10
15.75101196868542
 20
2.482339526582211
 10
15.74129579685995
 20
2.483586149103878
 10
15.73158111428831
 20
2.484832988588484
 10
15.72186794964834
 20
2.486080026453783
 10
15.71215631329029
 20
2.48732724676733
 10
15.70244619812227
 20
2.488574636146084
 10
15.69273758049576
 20
2.489822183655999
 10
15.68303042109109
 20
2.491069880711628
 10
15.67332466580294
 20
2.492317720975705
 10
15.66362024662583
 20
2.493565700258759
 10
15.6539170825396
 20
2.494813816418701
 10
15.64421508039488
 20
2.496062069260423
 10
15.63451413579863
 20
2.497310460435392
 10
15.62481413399958
 20
2.49855899334125
 10
15.61511495077374
 20
2.499807673021411
 10
15.60541645330989
 20
2.501056506064654
 10
15.59571850109505
 20
2.502305500504721
 10
15.58602094680001
 20
2.50355466571992
 10
15.57632363716477
 20
2.504804012332711
 10
15.56662641388407
 20
2.506053552109309
 10
15.55692911449284
 20
2.507303297859278
 10
15.54723157325172
 20
2.508553263335133
 10
15.53753362203254
 20
2.509803463131929
 10
15.52783509120381
 20
2.511053912586863
 10
15.51813581051619
 20
2.51230462767887
 10
15.50843560998801
 20
2.513555624928218
 10
15.49873432079074
 20
2.514806921296103
 10
15.48903177613168
 20
2.516058534084414
 10
15.47932781078723
 20
2.517310480857509
 10
15.46962226161567
 20
2.518562778896328
 10
15.45991497387318
 20
2.5198154444014
 10
15.45020580264025
 20
2.521068492321989
 10
15.44049461337681
 20
2.522321936260127
 10
15.4307812824776
 20
2.523575788374666
 10
15.42106569782728
 20
2.524830059285303
 10
15.41134775935567
 20
2.526084757976634
 10
15.40162737959305
 20
2.527339891702193
 10
15.39190448422521
 20
2.528595465888484
 10
15.38217901264884
 20
2.529851484039029
 10
15.37245091852664
 20
2.531107947638408
 10
15.36272017034262
 20
2.532364856056295
 10
15.35298675195724
 20
2.533622206451503
 10
15.34325066316267
 20
2.534879993676026
 10
15.33351192023602
 20
2.536138210179306
 10
15.32377047950419
 20
2.537396854767179
 10
15.31402615490713
 20
2.538655941805224
 10
15.30427899746857
 20
2.539915457247758
 10
15.29452930055671
 20
2.541175358178281
 10
15.28477750906287
 20
2.542435583465818
 10
15.27502412858011
 20
2.543696064421238
 10
15.26526963458183
 20
2.54495673545359
 10
15.25551438160039
 20
2.546217544726434
 10
15.24575851240576
 20
2.54747846481416
 10
15.23600186718412
 20
2.548739503358337
 10
15.22624389271646
 20
2.55000071372402
 10
15.21648355155726
 20
2.551262205656098
 10
15.20671923121303
 20
2.552524155935615
 10
15.196948653321
 20
2.553786819036099
 10
15.18716878282772
 20
2.555050537779897
 10
15.17737573716766
 20
2.556315753994503
 10
15.16757462168615
 20
2.557581746210804
 10
15.15781221627354
 20
2.558842448438841
 10
15.14812878248678
 20
2.56009265200522
 10
15.13854283825162
 20
2.561329959047071
 10
15.12905462518232
 20
2.562554334621017
 10
15.11964958242931
 20
2.563767657974201
 10
15.11030182052675
 20
2.564973273815338
 10
15.10097759524009
 20
2.566175543585735
 10
15.09163878141373
 20
2.567379396730344
 10
15.08224634681854
 20
2.568589881968788
 10
15.0727638259995
 20
2.569811718566402
 10
15.06316079412327
 20
2.571048847605271
 10
15.05341634082579
 20
2.572303983255264
 10
15.04352254405985
 20
2.573578164045076
 10
15.03348794394271
 20
2.574870304133258
 10
15.02334101660367
 20
2.57617674457926
 10
15.01313317507973
 20
2.577490865631736
 10
15.00290863870614
 20
2.57880697353056
 10
14.99267164766379
 20
2.580124530393554
 10
14.98242295599855
 20
2.581443446292973
 10
14.97216381878444
 20
2.582763564817434
 10
14.96189582468294
 20
2.584084684624029
 10
14.9516207285023
 20
2.585406580990439
 10
14.94134028375684
 20
2.586729027367045
 10
14.93105607653729
 20
2.588051816760478
 10
14.9207695332314
 20
2.589374760755994
 10
14.91048216991076
 20
2.590697657424644
 10
14.90019551082117
 20
2.592020301793104
 10
14.88991107952166
 20
2.593342487001804
 10
14.87963041045627
 20
2.594664002837325
 10
14.86935506052565
 20
2.595984634264774
 10
14.85908662065894
 20
2.597304159960164
 10
14.84882655096168
 20
2.598622373455162
 10
14.83854768975063
 20
2.599942734589675
 10
14.82817911793799
 20
2.60127430769329
 10
14.8176772208965
 20
2.602622652863331
 10
14.80702966000103
 20
2.603989317765798
 10
14.79624955484948
 20
2.605372584222489
 10
14.7853696654835
 20
2.606768214798111
 10
14.77443657460933
 20
2.608170199387406
 10
14.76350486981863
 20
2.609571501802259
 10
14.75263132580923
 20
2.610964806358828
 10
14.74186908660599
 20
2.612343264464648
 10
14.73126184778156
 20
2.613701241205764
 10
14.7208380386772
 20
2.615035061933836
 10
14.71060500462361
 20
2.616343758853266
 10
14.70054318916171
 20
2.617629817608309
 10
14.69060031626342
 20
2.618899923870196
 10
14.6807188375194
 20
2.620161456773837
 10
14.67094916076575
 20
2.621408011629621
 10
14.66135642834413
 20
2.622631304540218
 10
14.65194521412533
 20
2.623830777207826
 10
14.64262768607428
 20
2.625017651987628
 10
14.63328355662405
 20
2.62620729530876
 10
14.62381276198403
 20
2.627412499223543
 10
14.61416926041014
 20
2.628639163040106
 10
14.60440100164475
 20
2.629881186752321
 10
14.59460222650699
 20
2.631126550097839
 10
14.58480662678565
 20
2.63237094957827
 10
14.57501183535939
 20
2.633614679916281
 10
14.56521599639309
 20
2.634857972206934
 10
14.5554197491788
 20
2.636100739307074
 10
14.54562308466306
 20
2.637342976614774
 10
14.53582599417056
 20
2.638584679527923
 10
14.52602846939959
 20
2.63982584344461
 10
14.51623050241748
 20
2.641066463763531
 10
14.50643208565609
 20
2.642306535884375
 10
14.49663321190724
 20
2.643546055208214
 10
14.48683387431817
 20
2.64478501713791
 10
14.47703406638702
 20
2.646023417078496
 10
14.46723378195825
 20
2.647261250437574
 10
14.45743301521814
 20
2.64849851262571
 10
14.44763176069022
 20
2.649735199056831
 10
14.43783001323072
 20
2.650971305148607
 10
14.42802776802406
 20
2.652206826322863
 10
14.41822502057828
 20
2.653441758005951
 10
14.4084217667205
 20
2.654676095629166
 10
14.3986180025924
 20
2.655909834629119
 10
14.38881372464564
 20
2.657142970448148
 10
14.37900892963735
 20
2.658375498534704
 10
14.36920361462557
 20
2.65960741434374
 10
14.35939777696472
 20
2.660838713337115
 10
14.34959141430105
 20
2.66206939098398
 10
14.33978452456809
 20
2.66329944276118
 10
14.32997710598211
 20
2.664528864153633
 10
14.32016915703761
 20
2.665757650654743
 10
14.31036067650272
 20
2.666985797766777
 10
14.3005516634147
 20
2.668213301001268
 10
14.29074211707539
 20
2.669440155879409
 10
14.28093203704665
 20
2.670666357932439
 10
14.27112142314583
 20
2.671891902702048
 10
14.26131027544124
 20
2.673116785740761
 10
14.25149859424758
 20
2.674341002612337
 10
14.24168638012143
 20
2.675564548892161
 10
14.23187363385667
 20
2.676787420167638
 10
14.22206035647996
 20
2.678009612038585
 10
14.2122465492462
 20
2.679231120117634
 10
14.20243221363399
 20
2.680451940030607
 10
14.19261735134106
 20
2.681672067416934
 10
14.18280196427976
 20
2.682891497930024
 10
14.17298605457249
 20
2.684110227237671
 10
14.16316962454718
 20
2.685328251022451
 10
14.15335267673274
 20
2.686545564982106
 10
14.14353521385453
 20
2.687762164829943
 10
14.13371723882976
 20
2.688978046295223
 10
14.12389875476303
 20
2.690193205123566
 10
14.11407976494174
 20
2.691407637077335
 10
14.10426027283155
 20
2.692621337936027
 10
14.09444028207184
 20
2.69383430349668
 10
14.08461979647117
 20
2.695046529574252
 10
14.07479882000276
 20
2.696258012002029
 10
14.06497735679989
 20
2.697468746632003
 10
14.05515541115142
 20
2.69867872933528
 10
14.04533298749721
 20
2.699887956002468
 10
14.03551009042359
 20
2.701096422544065
 10
14.0256867246588
 20
2.702304124890865
 10
14.01586289506848
 20
2.703511058994342
 10
14.00603860665112
 20
2.704717220827049
 10
13.99621386453347
 20
2.705922606383006
 10
13.98638867396606
 20
2.707127211678103
 10
13.97656304031864
 20
2.708331032750483
 10
13.96673696907561
 20
2.709534065660947
 10
13.9569104658315
 20
2.710736306493335
 10
13.94708353628643
 20
2.711937751354934
 10
13.93725618624156
 20
2.713138396376857
 10
13.92742842159455
 20
2.71433823771445
 10
13.91760024833502
 20
2.715537271547681
 10
13.90777167253998
 20
2.716735494081524
 10
13.89794270036934
 20
2.717932901546372
 10
13.88811333806134
 20
2.719129490198414
 10
13.87828359192798
 20
2.720325256320038
 10
13.86845346835051
 20
2.721520196220221
 10
13.85862297377491
 20
2.722714306234924
 10
13.84879211470728
 20
2.723907582727484
 10
13.83896089770935
 20
2.725100022089013
 10
13.82912932939394
 20
2.72629162073878
 10
13.81929741642038
 20
2.727482375124626
 10
13.80946516548999
 20
2.728672281723329
 10
13.79963258334153
 20
2.729861337041028
 10
13.78979967674669
 20
2.731049537613591
 10
13.77996645250548
 20
2.732236880007026
 10
13.77013291744177
 20
2.733423360817868
 10
13.76029907839868
 20
2.734608976673569
 10
13.75046494223405
 20
2.735793724232904
 10
13.74063051581594
 20
2.73697760018635
 10
13.73079580601804
 20
2.73816060125649
 10
13.72096081971514
 20
2.739342724198404
 10
13.71112556377861
 20
2.740523965800061
 10
13.70129004507183
 20
2.741704322882713
 10
13.69145427044564
 20
2.742883792301294
 10
13.68161824673384
 20
2.744062370944808
 10
13.67178198074862
 20
2.74524005573672
 10
13.66194547927599
 20
2.74641684363536
 10
13.6521087490713
 20
2.74759273163431
 10
13.64227179685465
 20
2.748767716762796
 10
13.63243462930636
 20
2.749941796086086
 10
13.62259725306243
 20
2.751114966705884
 10
13.61275967471
 20
2.752287225760721
 10
13.60292190078279
 20
2.75345857042635
 10
13.5930839377566
 20
2.754628997916138
 10
13.58324579204469
 20
2.755798505481461
 10
13.57340746999334
 20
2.756967090412105
 10
13.56356897787722
 20
2.758134750036644
 10
13.55373032189488
 20
2.75930148172285
 10
13.54389150816423
 20
2.760467282878074
 10
13.53405254271796
 20
2.761632150949646
 10
13.524213431499
 20
2.762796083425275
 10
13.51437418035602
 20
2.763959077833428
 10
13.50453479503883
 20
2.765121131743735
 10
13.49469528119389
 20
2.766282242767378
 10
13.48485564435973
 20
2.767442408557486
 10
13.4750158899624
 20
2.768601626809534
 10
13.46517602331098
 20
2.769759895261725
 10
13.455336049593
 20
2.770917211695395
 10
13.44549597386987
 20
2.772073573935398
 10
13.43565580107241
 20
2.77322897985051
 10
13.42581553599625
 20
2.774383427353814
 10
13.4159751832973
 20
2.775536914403093
 10
13.40613474748721
 20
2.776689439001235
 10
13.39629423292884
 20
2.777840999196613
 10
13.38645364383171
 20
2.778991593083486
 10
13.37661298424742
 20
2.780141218802397
 10
13.36677225806519
 20
2.781289874540552
 10
13.35693146900723
 20
2.782437558532232
 10
13.34709062062427
 20
2.783584269059175
 10
13.33724971629094
 20
2.784730004450973
 10
13.32740875920131
 20
2.785874763085463
 10
13.3175677523643
 20
2.787018543389129
 10
13.30772669859912
 20
2.788161343837485
 10
13.29788560053079
 20
2.789303162955477
 10
13.28804446058554
 20
2.790443999317871
 10
13.27820328098628
 20
2.791583851549654
 10
13.2683620637481
 20
2.79272271832642
 10
13.25852081067365
 20
2.793860598374766
 10
13.24867952334866
 20
2.794997490472689
 10
13.23883820313739
 20
2.796133393449981
 10
13.22899685117806
 20
2.79726830618861
 10
13.21915546837832
 20
2.798402227623134
 10
13.20931405541072
 20
2.799535156741076
 10
13.19947261270814
 20
2.80066709258333
 10
13.1896311404593
 20
2.801798034244547
 10
13.17978963860414
 20
2.802927980873538
 10
13.16994810682934
 20
2.804056931673655
 10
13.16010654456377
 20
2.805184885903199
 10
13.1502649509739
 20
2.806311842875802
 10
13.14042332495933
 20
2.807437801960824
 10
13.13058166514819
 20
2.808562762583752
 10
13.1207399698926
 20
2.809686724226591
 10
13.11089823726418
 20
2.810809686428253
 10
13.10105646504944
 20
2.811931648784956
 10
13.0912146507453
 20
2.813052610950615
 10
13.08137279155447
 20
2.81417257263724
 10
13.07153088438101
 20
2.815291533615323
 10
13.06168892582568
 20
2.816409493714242
 10
13.05184691218149
 20
2.817526452822641
 10
13.04200483942908
 20
2.818642410888836
 10
13.03216270323225
 20
2.8197573679212
 10
13.02232049893334
 20
2.820871323988566
 10
13.01247822154876
 20
2.821984279220611
 10
13.00263586576441
 20
2.823096233808256
 10
12.99279342593112
 20
2.824207188004059
 10
12.98295089606017
 20
2.825317142122607
 10
12.9731082694577
 20
2.826426096576625
 10
12.96326553407304
 20
2.827534052340441
 10
12.95342267699543
 20
2.828641010516501
 10
12.94357968994615
 20
2.829746971793981
 10
12.93373656870915
 20
2.830851936502231
 10
12.92389331239513
 20
2.831955904680643
 10
12.9140499227056
 20
2.833058876148508
 10
12.90420640319695
 20
2.834160850574874
 10
12.89436275854457
 20
2.835261827548419
 10
12.88451899380688
 20
2.836361806647296
 10
12.8746751136894
 20
2.837460787509005
 10
12.86483112180886
 20
2.838558769900249
 10
12.85498701995725
 20
2.839655753786799
 10
12.84514280736589
 20
2.840751739403348
 10
12.83529847996954
 20
2.84184672732338
 10
12.82545402967042
 20
2.842940718529023
 10
12.81560943736528
 20
2.844033715107404
 10
12.80576461612066
 20
2.845125725988463
 10
12.79591943672658
 20
2.846216764471705
 10
12.78607376487862
 20
2.847306844507716
 10
12.77622746464612
 20
2.848395980337116
 10
12.7663804015294
 20
2.849484186170629
 10
12.7565324455169
 20
2.850571475869173
 10
12.74668347414246
 20
2.851657862623918
 10
12.73683337554243
 20
2.852743358636375
 10
12.72698205151292
 20
2.853827974798468
 10
12.71712942056699
 20
2.854911720372609
 10
12.70727542099179
 20
2.855994602671774
 10
12.69742001390585
 20
2.857076626739578
 10
12.68756318631618
 20
2.858157795030353
 10
12.67770495417553
 20
2.859238107089224
 10
12.66784536543955
 20
2.860317559232184
 10
12.65798449516053
 20
2.861396145090247
 10
12.64812239883289
 20
2.86247386058875
 10
12.63825912790832
 20
2.863550702052894
 10
12.62839474526702
 20
2.864626664487759
 10
12.61852932422675
 20
2.865701741689393
 10
12.60866294751036
 20
2.866775926360461
 10
12.5987957062134
 20
2.867849210225898
 10
12.58892769877164
 20
2.868921584148546
 10
12.57905902992869
 20
2.869993038244801
 10
12.56918980970355
 20
2.871063562000264
 10
12.55932015235818
 20
2.872133144385383
 10
12.54945017536505
 20
2.873201773971103
 10
12.53957999837476
 20
2.874269439044509
 10
12.52970974218357
 20
2.87533612772447
 10
12.51983952770096
 20
2.876401828077287
 10
12.50996947491726
 20
2.877466528232343
 10
12.50009970187116
 20
2.878530216497745
 10
12.49023032361729
 20
2.879592881475971
 10
12.48036145119383
 20
2.880654512179511
 10
12.47049319059003
 20
2.881715098146521
 10
12.46062564171383
 20
2.88277462955647
 10
12.45075889735936
 20
2.883833097345778
 10
12.4408930421746
 20
2.884890493323462
 10
12.43102815162887
 20
2.885946810286792
 10
12.42116429098046
 20
2.887002042136928
 10
12.41130151424414
 20
2.888056183994571
 10
12.40143986315881
 20
2.889109232315606
 10
12.39157936615498
 20
2.890161185006747
 10
12.38172003732242
 20
2.891212041541191
 10
12.37186187537768
 20
2.892261803074251
 10
12.36200486263167
 20
2.893310472559013
 10
12.35214896370271
 20
2.894358054886805
 10
12.34229397404807
 20
2.895404571695701
 10
12.33243950605998
 20
2.896450062904528
 10
12.3225855698449
 20
2.897494530194093
 10
12.31273245821788
 20
2.898537948216879
 10
12.30288051529282
 20
2.899580287150688
 10
12.29302990507276
 20
2.900621535252295
 10
12.28318038004015
 20
2.901661721411101
 10
12.2733311249163
 20
2.902700929810978
 10
12.26348348703991
 20
2.903739009158825
 10
12.25362567443575
 20
2.904777167240647
 10
12.24372459228994
 20
2.905818835899821
 10
12.2337491194151
 20
2.906867249653506
 10
12.22369526754074
 20
2.907922819124121
 10
12.21358866380499
 20
2.908982860128564
 10
12.20346538398822
 20
2.910043598105718
 10
12.1933558187679
 20
2.911101858301785
 10
12.18326612403219
 20
2.912157011888906
 10
12.17317608633137
 20
2.913211202966103
 10
12.16306185042885
 20
2.914266961445913
 10
12.15291765775487
 20
2.915324918376758
 10
12.14275456860104
 20
2.916383939390622
 10
12.132580757774
 20
2.917443193770239
 10
12.12240398804705
 20
2.918501893475734
 10
12.11223993463115
 20
2.919558430208509
 10
12.10220684268344
 20
2.920600573083537
 10
12.09239799771959
 20
2.92161868059604
 10
12.0827795431263
 20
2.922616281881033
 10
12.07323960332615
 20
2.923604985066466
 10
12.06364112402438
 20
2.924599000622978
 10
12.05387471245557
 20
2.925609664713643
 10
12.04391147763045
 20
2.926639962543709
 10
12.0338495216841
 20
2.927679709828591
 10
12.02379134709707
 20
2.928718265655903
 10
12.0137531862234
 20
2.929753947770933
 10
12.00376125754993
 20
2.930784053549028
 10
11.99384593309782
 20
2.931805452648331
 10
11.98401597664107
 20
2.93281723270342
 10
11.97424725130559
 20
2.933821863121126
 10
11.96450125570375
 20
2.934823293940647
 10
11.95474082903546
 20
2.935825343450812
 10
11.94494756812654
 20
2.936829906872261
 10
11.935134392666
 20
2.937835663067502
 10
11.92532481910261
 20
2.938840209504131
 10
11.91552453517
 20
2.939842988832336
 10
11.90572751682067
 20
2.940844652159496
 10
11.89593322733451
 20
2.941845282316856
 10
11.88614322745299
 20
2.94284474297072
 10
11.876358861726
 20
2.943842914365797
 10
11.86657345636045
 20
2.944840485711452
 10
11.85678038751548
 20
2.945838137954302
 10
11.84697747306464
 20
2.946836098682113
 10
11.83716621774939
 20
2.947834218828748
 10
11.8273510348433
 20
2.948832051761008
 10
11.81753846781633
 20
2.949828932365475
 10
11.80773641199905
 20
2.950824056135357
 10
11.79795333624688
 20
2.951816558257334
 10
11.78819750460436
 20
2.952805592698401
 10
11.77847619796938
 20
2.953790411292708
 10
11.76879493575737
 20
2.954770442828413
 10
11.75915669756564
 20
2.955745372134518
 10
11.74956114483754
 20
2.956715219167719
 10
11.74000384252675
 20
2.957680418099241
 10
11.7304757324253
 20
2.95864187120423
 10
11.72100764816163
 20
2.95959649240383
 10
11.71170472715711
 20
2.960533758298941
 10
11.70264091520203
 20
2.961446267800443
 10
11.69384997045974
 20
2.962330642593595
 10
11.68533161887644
 20
2.963186910754808
 10
11.67705770959071
 20
2.964017890368431
 10
11.66897837034324
 20
2.964828573143527
 10
11.66102816288644
 20
2.96562550803065
 10
11.65313223839409
 20
2.966416184838621
 10
11.64521249287099
 20
2.967208417851315
 10
11.63719372256263
 20
2.96800972944443
 10
11.62900977936481
 20
2.968826733702274
 10
11.6206097262333
 20
2.969664520034534
 10
11.6119639925935
 20
2.970526036793062
 10
11.60307052975006
 20
2.971411474888651
 10
11.59396096629657
 20
2.972317651407814
 10
11.58470676352518
 20
2.97323739322956
 10
11.57540342917707
 20
2.974161121964979
 10
11.56607309332226
 20
2.975086627580028
 10
11.55671032692935
 20
2.976014468712736
 10
11.54731082407614
 20
2.976945094383821
 10
11.53787160048175
 20
2.977878823877021
 10
11.52839118256828
 20
2.978815827569631
 10
11.51886979652245
 20
2.979756107763062
 10
11.50930955735724
 20
2.980699479513366
 10
11.49971503102875
 20
2.98164551441743
 10
11.49009288998154
 20
2.982593574701365
 10
11.48044788593692
 20
2.983543213069483
 10
11.47078179018219
 20
2.984494277299845
 10
11.46109557379717
 20
2.985446695003352
 10
11.45140327486691
 20
2.986399109431015
 10
11.44173090267492
 20
2.987348988868906
 10
11.43210239625876
 20
2.988294006176991
 10
11.42252833637873
 20
2.989233147334939
 10
11.41300850169096
 20
2.990166455961221
 10
11.40353342857111
 20
2.991094873799302
 10
11.39408634296581
 20
2.992020050749626
 10
11.38464590247361
 20
2.992944076120004
 10
11.37518893842576
 20
2.993869209875984
 10
11.36569319796718
 20
2.994797613891229
 10
11.35614008594937
 20
2.995731083214204
 10
11.34651735703492
 20
2.996670781895058
 10
11.33682151563073
 20
2.997617012972284
 10
11.32705872793338
 20
2.998569141637372
 10
11.31724457251918
 20
2.999525628688778
 10
11.30740354772941
 20
3.000484082742945
 10
11.29755634830275
 20
3.001442489149389
 10
11.28770967896832
 20
3.002400198154696
 10
11.27786327934926
 20
3.003357239390886
 10
11.26801685156818
 20
3.004313645923833
 10
11.25817046487778
 20
3.005269415094274
 10
11.2483241209616
 20
3.006224550891356
 10
11.23847782170874
 20
3.007179057317209
 10
11.22863156920791
 20
3.008132938387233
 10
11.21878536574164
 20
3.009086198130359
 10
11.20893921378032
 20
3.01003884058933
 10
11.19909311597637
 20
3.010990869820966
 10
11.18924707515832
 20
3.011942289896451
 10
11.17940109432497
 20
3.012893104901589
 10
11.1695551766395
 20
3.013843318937091
 10
11.15970932542356
 20
3.014792936118846
 10
11.14986354415145
 20
3.015741960578187
 10
11.14001783644416
 20
3.016690396462173
 10
11.13017220606357
 20
3.017638247933855
 10
11.12032665690652
 20
3.018585519172555
 10
11.11048119299895
 20
3.019532214374136
 10
11.10063581849002
 20
3.020478337751278
 10
11.09079053764621
 20
3.02142389353375
 10
11.08094535484548
 20
3.022368885968678
 10
11.07110027457136
 20
3.023313319320831
 10
11.06125530140706
 20
3.024257197872882
 10
11.05141044002963
 20
3.025200525925685
 10
11.04156569520405
 20
3.026143307798553
 10
11.03172107177734
 20
3.027085547829523
 10
11.02187657467277
 20
3.028027250375638
 10
11.01203220888381
 20
3.028968419813216
 10
11.00218797946841
 20
3.029909060538118
 10
10.99234389154306
 20
3.030849176966032
 10
10.98249995027689
 20
3.031788773532743
 10
10.97265616088582
 20
3.032727854694396
 10
10.96281252862668
 20
3.033666424927787
 10
10.9529690587913
 20
3.034604488730618
 10
10.94312575670069
 20
3.03554205062179
 10
10.93328262769907
 20
3.036479115141654
 10
10.9234396771481
 20
3.037415686852305
 10
10.9135969104209
 20
3.038351770337841
 10
10.90375433289624
 20
3.039287370204643
 10
10.89391194995262
 20
3.040222491081649
 10
10.8840697669624
 20
3.041157137620619
 10
10.87422778928595
 20
3.042091314496421
 10
10.86438602226572
 20
3.043025026407296
 10
10.8545444712204
 20
3.043958278075129
 10
10.84470314143901
 20
3.044891074245733
 10
10.83486203817507
 20
3.04582341968911
 10
10.82502116664064
 20
3.046755319199732
 10
10.81518053200054
 20
3.047686777596812
 10
10.80534013936637
 20
3.048617799724578
 10
10.79549999379071
 20
3.049548390452546
 10
10.78566010026119
 20
3.050478554675791
 10
10.77582046369464
 20
3.051408297315227
 10
10.7659810889312
 20
3.052337623317869
 10
10.75614198072843
 20
3.05326653765712
 10
10.74630314375544
 20
3.054195045333033
 10
10.73646458258703
 20
3.055123151372591
 10
10.72662630169777
 20
3.056050860829976
 10
10.71678830545615
 20
3.056978178786843
 10
10.70695059811868
 20
3.057905110352602
 10
10.69711318382405
 20
3.058831660664673
 10
10.6872760665872
 20
3.059757834888778
 10
10.67743925029345
 20
3.060683638219203
 10
10.66760273869268
 20
3.06160907587908
 10
10.65776653539334
 20
3.062534153120646
 10
10.6479306438567
 20
3.063458875225533
 10
10.63809506739086
 20
3.064383247505031
 10
10.62825980914492
 20
3.065307275300364
 10
10.61842487210312
 20
3.066230963982962
 10
10.6085902590789
 20
3.06715431895474
 10
10.59875597270908
 20
3.068077345648362
 10
10.58892201544796
 20
3.069000049527521
 10
10.57908838956142
 20
3.069922436087212
 10
10.56925509712107
 20
3.070844510854001
 10
10.55942213999834
 20
3.071766279386303
 10
10.54958951985864
 20
3.072687747274653
 10
10.53975723815545
 20
3.073608920141981
 10
10.52992529612444
 20
3.074529803643883
 10
10.52009369477761
 20
3.075450403468892
 10
10.51026243489739
 20
3.076370725338761
 10
10.50043151678649
 20
3.077290775031589
 10
10.49765645219026
 20
3.077552455299393
 10
10.49488364863859
 20
3.077817952899155
 10
10.49211310555593
 20
3.078087301757292
 10
10.48934502085666
 20
3.078360515463781
 10
10.48657976542696
 20
3.078637590050093
 10
10.48381785759327
 20
3.078918506768403
 10
10.48105993759072
 20
3.079203234870805
 10
10.47830674203154
 20
3.079491734388513
 10
10.47555907837358
 20
3.079783958911082
 10
10.47281779938866
 20
3.080079858365604
 10
10.47008377763108
 20
3.080379381795931
 10
10.46735787990601
 20
3.080682480141873
 10
10.46464094173797
 20
3.080989109018417
 10
10.46193374183925
 20
3.081299231494926
 10
10.45923697657836
 20
3.081612820874359
 10
10.45655123444847
 20
3.08192986347248
 10
10.45387697053583
 20
3.082250361397053
 10
10.45121448098825
 20
3.082574335327073
 10
10.44856387748351
 20
3.082901827291959
 10
10.44592506343018
 20
3.083232903636302
 10
10.44329783316327
 20
3.083567657461943
 10
10.4406821627408
 20
3.083906175684493
 10
10.43807825135073
 20
3.084248514132938
 10
10.43548649317441
 20
3.084594700217668
 10
10.43290745066483
 20
3.084944736856596
 10
10.4303418278249
 20
3.085298606401268
 10
10.42779044348562
 20
3.085656274562984
 10
10.42525420458437
 20
3.086017694338918
 10
10.42273407944315
 20
3.086382809938226
 10
10.4202310710468
 20
3.086751560708163
 10
10.41774619032126
 20
3.087123885060207
 10
10.41528042941179
 20
3.087499724396168
 10
10.41283473496124
 20
3.087879027034305
 10
10.41040998138826
 20
3.088261752135444
 10
10.40800694416556
 20
3.088647873629096
 10
10.40562627309815
 20
3.089037384139571
 10
10.40326846560158
 20
3.089430298912089
 10
10.40093383998016
 20
3.089826659738908
 10
10.39862250870525
 20
3.090226538885429
 10
10.3963343674709
 20
3.090630045863608
 10
10.39406930257606
 20
3.09103732539587
 10
10.39182743543271
 20
3.091448489605819
 10
10.38960911824271
 20
3.091863600614684
 10
10.3874149031529
 20
3.092282676755582
 10
10.38524551147285
 20
3.092705698865265
 10
10.38310180289252
 20
3.093132616575896
 10
10.38098474469999
 20
3.093563354606806
 10
10.37889538099914
 20
3.09399781905626
 10
10.37683480192735
 20
3.094435903693216
 10
10.37480411287323
 20
3.094877496249088
 10
10.37280440369429
 20
3.095322484709517
 10
10.37083671793464
 20
3.09577076360612
 10
10.36890202204271
 20
3.096222240308263
 10
10.36700117458893
 20
3.096676841314823
 10
10.36513489548346
 20
3.097134518545948
 10
10.36330373519385
 20
3.097595255634816
 10
10.36150804396279
 20
3.098059074219408
 10
10.35974794102574
 20
3.098526040234263
 10
10.35802333030278
 20
3.098996277551576
 10
10.35633420520396
 20
3.099469956042986
 10
10.35468078428689
 20
3.099947187836768
 10
10.35306347186731
 20
3.100428012404079
 10
10.35148283005628
 20
3.100912405968016
 10
10.3499395508016
 20
3.101400290914676
 10
10.34843442792928
 20
3.101891545204205
 10
10.34696832918499
 20
3.102386011781836
 10
10.34554216827547
 20
3.102883507988944
 10
10.34415687691
 20
3.103383834974093
 10
10.34281337684186
 20
3.103886787104078
 10
10.34151255190972
 20
3.104392161374974
 10
10.34025522007917
 20
3.104899766823193
 10
10.33904210548408
 20
3.105409433936515
 10
10.3378738104681
 20
3.105921024065147
 10
10.33675078762608
 20
3.106434438832768
 10
10.33567331184554
 20
3.106949629547575
 10
10.33464145234808
 20
3.107466606613328
 10
10.33365508217712
 20
3.107985453320841
 10
10.33271420328503
 20
3.108506323691551
 10
10.33181899185481
 20
3.109029319081558
 10
10.33096969132165
 20
3.109554453033154
 10
10.330166599254
 20
3.110081662078051
 10
10.32941005507351
 20
3.110610816757282
 10
10.32870042777487
 20
3.111141732641096
 10
10.32803810364574
 20
3.11167418134887
 10
10.32742347398665
 20
3.112207901568996
 10
10.32685692283086
 20
3.112742610078791
 10
10.32633881466429
 20
3.113278012764399
 10
10.32586948214541
 20
3.113813815640683
 10
10.32544921382512
 20
3.114349735871138
 10
10.32507824186664
 20
3.114885512787776
 10
10.32475672976545
 20
3.115420918911046
 10
10.32448476006912
 20
3.115955770969718
 10
10.32426232209726
 20
3.116489940920795
 10
10.32408929966139
 20
3.117023366969404
 10
10.32396505327291
 20
3.11755780888546
 10
10.40007199999999
 20
5.701773999999998
 10
10.40007360720492
 20
5.701773671172634
 42
-0.3757720216486829
 10
10.58525541148777
 20
5.901213057325631
 10
13.85772132526415
 20
5.901213057325631
  0
LWPOLYLINE
  5
39E1
330
1F
100
AcDbEntity
  8
NOCUT
100
AcDbPolyline
 90
       13
 70
     1
 43
0.0
 10
16.05229344564859
 20
5.280465818855041
 42
-0.38887873185299
 10
16.59999999999999
 20
4.682748999999999
 10
16.59999999999999
 20
2.245028999999999
 10
16.59999999999999
 20
0.0
 10
0.0
 20
0.0
 10
0.0
 20
2.636839999999998
 10
0.0
 20
5.5
 10
1.5
 20
5.5
 10
6.5
 20
5.5
 10
7.456994999999976
 20
5.5
 10
8.599999999999994
 20
5.600000000000001
 10
12.39999999999998
 20
5.600000000000001
 10
16.05229299999999
 20
5.280466000000001
  0
MTEXT
  5
3B0F
330
1F
100
AcDbEntity
  8
SK6
100
AcDbMText
 10
-22.27850282203144
 20
-26.43603110112298
 30
0.0
 40
3.5
 41
49.98568165846803
 71
     1
 72
     1
  1
12L8D012017X4R00
 73
     1
 44
1.0
1001
ACAD
1000
MTEXTBEGIN
1070
    73
1070
     1
1070
    44
1040
1.0
1070
    74
1070
     0
1000
MTEXTEND
  0
VIEWPORT
  5
34
102
{ACAD_XDICTIONARY
360
3B22
102
}
330
73
100
AcDbEntity
 67
     1
  8
0
 62
     0
370
     0
100
AcDbViewport
 10
0.0
 20
0.0
 30
0.0
 40
1000.0
 41
1000.0
 68
     1
 69
     1
 12
0.0
 22
0.0
 13
0.0
 23
0.0
 14
1.0
 24
1.0
 15
1.0
 25
1.0
 16
0.0
 26
0.0
 36
1.0
 17
0.0
 27
0.0
 37
0.0
 42
50.0
 43
0.0
 44
0.0
 45
1000.0
 50
0.0
 51
0.0
 72
   100
 90
   557056
  1

281
     0
 71
     0
 74
     0
110
0.0
120
0.0
130
0.0
111
1.0
121
0.0
131
0.0
112
0.0
122
1.0
132
0.0
 79
     0
146
0.0
  0
ENDSEC
  0
SECTION
  2
OBJECTS
  0
DICTIONARY
  5
C
330
0
100
AcDbDictionary
281
     1
  3
ACAD_2007HEADERVARS_RT
350
3B1D
  3
ACAD_CIP_PREVIOUS_PRODUCT_INFO
350
3347
  3
ACAD_COLOR
350
6C
  3
ACAD_DETAILVIEWSTYLE
350
3343
  3
ACAD_GROUP
350
D
  3
ACAD_LAYOUT
350
1A
  3
ACAD_MATERIAL
350
6B
  3
ACAD_MLEADERSTYLE
350
2C9
  3
ACAD_MLINESTYLE
350
17
  3
ACAD_PLOTSETTINGS
350
19
  3
ACAD_PLOTSTYLENAME
350
E
  3
ACAD_SCALELIST
350
99
  3
ACAD_SECTIONVIEWSTYLE
350
3341
  3
ACAD_TABLESTYLE
350
92
  3
ACAD_VISUALSTYLE
350
2A0
  3
ACAD_WIPEOUT_VARS
350
32E2
  3
ACDB_RECOMPOSE_DATA
350
3B1B
  3
ACDBHEADERROUNDTRIPXREC
350
3306
  3
AcDbVariableDictionary
350
3B10
  3
ASE_INDEX_DICTIONARY
350
A41
  3
DWGPROPS
350
3B1C
  0
DICTIONARY
  5
32E3
330
2
100
AcDbDictionary
280
     1
281
     1
  3
ACAD_LAYERSTATES
360
62D
  0
DICTIONARY
  5
32D7
330
10
100
AcDbDictionary
280
     1
281
     1
  3
ADSK_XREC_LAYER_RECONCILED
360
A32
  0
DICTIONARY
  5
32D8
330
5FF
100
AcDbDictionary
280
     1
281
     1
  3
ADSK_XREC_LAYER_RECONCILED
360
A33
  0
DICTIONARY
  5
32D9
330
601
100
AcDbDictionary
280
     1
281
     1
  3
ADSK_XREC_LAYER_RECONCILED
360
A34
  0
DICTIONARY
  5
32DA
330
603
100
AcDbDictionary
280
     1
281
     1
  3
ADSK_XREC_LAYER_RECONCILED
360
A35
  0
DICTIONARY
  5
32DB
330
607
100
AcDbDictionary
280
     1
281
     1
  3
ADSK_XREC_LAYER_RECONCILED
360
A36
  0
DICTIONARY
  5
32DC
330
609
100
AcDbDictionary
280
     1
281
     1
  3
ADSK_XREC_LAYER_RECONCILED
360
A37
  0
DICTIONARY
  5
32DD
330
60B
100
AcDbDictionary
280
     1
281
     1
  3
ADSK_XREC_LAYER_RECONCILED
360
A38
  0
DICTIONARY
  5
32DE
330
60D
100
AcDbDictionary
280
     1
281
     1
  3
ADSK_XREC_LAYER_RECONCILED
360
A39
  0
DICTIONARY
  5
32DF
330
60F
100
AcDbDictionary
280
     1
281
     1
  3
ADSK_XREC_LAYER_RECONCILED
360
A3A
  0
DICTIONARY
  5
32E0
330
611
100
AcDbDictionary
280
     1
281
     1
  3
ADSK_XREC_LAYER_RECONCILED
360
A3B
  0
DICTIONARY
  5
32E1
330
614
100
AcDbDictionary
280
     1
281
     1
  3
ADSK_XREC_LAYER_RECONCILED
360
A3D
  0
DICTIONARY
  5
3303
330
1F
100
AcDbDictionary
280
     1
281
     1
  3
ACAD_SORTENTS
360
3304
  0
DICTIONARY
  5
3B22
330
34
100
AcDbDictionary
280
     1
281
     1
  3
ACAD_XREC_ROUNDTRIP
360
3B23
  0
DICTIONARY
  5
3B1D
102
{ACAD_REACTORS
330
C
102
}
330
C
100
AcDbDictionary
281
     1
  3
DIMFXL
350
3B1E
  3
DIMJOGANG
350
3B1F
  0
XRECORD
  5
3347
102
{ACAD_REACTORS
330
C
102
}
330
C
100
AcDbXrecord
280
     1
300
ACDLT
300
2015
300
ACDLT_F_S
  0
DICTIONARY
  5
6C
102
{ACAD_REACTORS
330
C
102
}
330
C
100
AcDbDictionary
281
     1
  0
DICTIONARY
  5
3343
102
{ACAD_REACTORS
330
C
102
}
330
C
100
AcDbDictionary
281
     1
  3
METRIC50
350
3344
  0
DICTIONARY
  5
D
102
{ACAD_REACTORS
330
C
102
}
330
C
100
AcDbDictionary
281
     1
  0
DICTIONARY
  5
1A
102
{ACAD_REACTORS
330
C
102
}
330
C
100
AcDbDictionary
281
     1
  3
Layout1
350
74
  3
Model
350
22
  0
DICTIONARY
  5
6B
102
{ACAD_REACTORS
330
C
102
}
330
C
100
AcDbDictionary
281
     1
  3
ByBlock
350
3317
  3
ByLayer
350
330F
  3
Global
350
331F
  0
DICTIONARY
  5
2C9
102
{ACAD_REACTORS
330
C
102
}
330
C
100
AcDbDictionary
281
     1
  3
Standard
350
3340
  0
DICTIONARY
  5
17
102
{ACAD_REACTORS
330
C
102
}
330
C
100
AcDbDictionary
281
     1
  3
Standard
350
18
  0
DICTIONARY
  5
19
102
{ACAD_REACTORS
330
C
102
}
330
C
100
AcDbDictionary
281
     1
  0
ACDBDICTIONARYWDFLT
  5
E
102
{ACAD_REACTORS
330
C
102
}
330
C
100
AcDbDictionary
281
     1
  3
Normal
350
F
100
AcDbDictionaryWithDefault
340
F
  0
DICTIONARY
  5
99
102
{ACAD_REACTORS
330
C
102
}
330
C
100
AcDbDictionary
281
     1
  3
A0
350
9A
  3
A1
350
9B
  3
A2
350
9C
  3
A3
350
9D
  3
A4
350
9E
  3
A5
350
9F
  3
A6
350
A0
  3
A7
350
A1
  3
A8
350
A2
  3
A9
350
A3
  3
B0
350
A4
  3
B1
350
A5
  3
B2
350
A6
  3
B3
350
A7
  3
B4
350
A8
  3
B5
350
A9
  3
B6
350
AA
  3
B7
350
AB
  3
B8
350
AC
  3
B9
350
AD
  3
C0
350
AE
  3
C1
350
AF
  3
C2
350
B0
  3
C3
350
B1
  3
C4
350
B2
  3
C5
350
B3
  3
C6
350
B4
  3
C7
350
B5
  3
C8
350
B6
  3
C9
350
B7
  3
D0
350
B8
  3
D1
350
B9
  3
D2
350
BA
  0
DICTIONARY
  5
3341
102
{ACAD_REACTORS
330
C
102
}
330
C
100
AcDbDictionary
281
     1
  3
METRIC50
350
3342
  0
DICTIONARY
  5
92
102
{ACAD_REACTORS
330
C
102
}
330
C
100
AcDbDictionary
281
     1
  3
Standard
350
333F
  0
DICTIONARY
  5
2A0
102
{ACAD_REACTORS
330
C
102
}
330
C
100
AcDbDictionary
281
     1
  3
2dWireframe
350
332C
  3
Basic
350
332B
  3
Brighten
350
3332
  3
ColorChange
350
3336
  3
Conceptual
350
332F
  3
Dim
350
3331
  3
EdgeColorOff
350
333E
  3
Facepattern
350
3335
  3
Flat
350
3327
  3
FlatWithEdges
350
3328
  3
Gouraud
350
3329
  3
GouraudWithEdges
350
332A
  3
Hidden
350
332E
  3
JitterOff
350
333C
  3
Linepattern
350
3334
  3
OverhangOff
350
333D
  3
Realistic
350
3330
  3
Shaded
350
333B
  3
Shaded with edges
350
333A
  3
Shades of Gray
350
3337
  3
Sketchy
350
3338
  3
Thicken
350
3333
  3
Wireframe
350
332D
  3
X-Ray
350
3339
  0
WIPEOUTVARIABLES
  5
32E2
102
{ACAD_REACTORS
330
C
102
}
330
C
100
AcDbWipeoutVariables
 70
     1
  0
XRECORD
  5
3B1B
102
{ACAD_REACTORS
330
C
102
}
330
C
100
AcDbXrecord
280
     1
 90
        1
330
333F
  0
DICTIONARY
  5
3306
102
{ACAD_REACTORS
330
C
102
}
330
C
100
AcDbDictionary
281
     1
  3
COLORDICT
350
3307
  3
MATERIALDICT
350
3308
  0
DICTIONARY
  5
3B10
102
{ACAD_REACTORS
330
C
102
}
330
C
100
AcDbDictionary
281
     1
  3
CANNOSCALE
350
3B15
  3
CMLEADERSTYLE
350
3B12
  3
CTABLESTYLE
350
3B11
  3
CVIEWDETAILSTYLE
350
3B13
  3
CVIEWSECTIONSTYLE
350
3B14
  3
DIMASSOC
350
3B18
  3
INDEXCTL
350
3B17
  3
SORTENTS
350
3B16
  3
XCLIPFRAME
350
3B19
  0
DICTIONARY
  5
A41
102
{ACAD_REACTORS
330
C
102
}
330
C
100
AcDbDictionary
281
     1
  3
ASEBLOCKHIERARCHYINDEXRECORD
350
A42
  0
XRECORD
  5
3B1C
102
{ACAD_REACTORS
330
C
102
}
330
C
100
AcDbXrecord
280
     1
  1
DWGPROPS COOKIE
  2

  3

  4

  6

  7

  8
ruebsamenm
  9

300
=
301
=
302
=
303
=
304
=
305
=
306
=
307
=
308
=
309
=
 40
0.1334847337962963
 41
2453353.800459155
 42
2460185.57522801
  1

 90
        0
  0
DICTIONARY
  5
62D
102
{ACAD_REACTORS
330
32E3
102
}
330
32E3
100
AcDbDictionary
281
     1
  3
_LAYISO_STATE
350
B87
  0
XRECORD
  5
A32
102
{ACAD_REACTORS
330
32D7
102
}
330
32D7
100
AcDbXrecord
280
     1
290
     1
  0
XRECORD
  5
A33
102
{ACAD_REACTORS
330
32D8
102
}
330
32D8
100
AcDbXrecord
280
     1
290
     1
  0
XRECORD
  5
A34
102
{ACAD_REACTORS
330
32D9
102
}
330
32D9
100
AcDbXrecord
280
     1
290
     1
  0
XRECORD
  5
A35
102
{ACAD_REACTORS
330
32DA
102
}
330
32DA
100
AcDbXrecord
280
     1
290
     1
  0
XRECORD
  5
A36
102
{ACAD_REACTORS
330
32DB
102
}
330
32DB
100
AcDbXrecord
280
     1
290
     1
  0
XRECORD
  5
A37
102
{ACAD_REACTORS
330
32DC
102
}
330
32DC
100
AcDbXrecord
280
     1
290
     1
  0
XRECORD
  5
A38
102
{ACAD_REACTORS
330
32DD
102
}
330
32DD
100
AcDbXrecord
280
     1
290
     1
  0
XRECORD
  5
A39
102
{ACAD_REACTORS
330
32DE
102
}
330
32DE
100
AcDbXrecord
280
     1
290
     1
  0
XRECORD
  5
A3A
102
{ACAD_REACTORS
330
32DF
102
}
330
32DF
100
AcDbXrecord
280
     1
290
     1
  0
XRECORD
  5
A3B
102
{ACAD_REACTORS
330
32E0
102
}
330
32E0
100
AcDbXrecord
280
     1
290
     1
  0
XRECORD
  5
A3D
102
{ACAD_REACTORS
330
32E1
102
}
330
32E1
100
AcDbXrecord
280
     1
290
     1
  0
SORTENTSTABLE
  5
3304
102
{ACAD_REACTORS
330
3303
102
}
330
3303
100
AcDbSortentsTable
330
1F
331
369F
  5
369E
331
39E1
  5
3693
331
2D3C
  5
369A
331
2404
  5
368D
331
2405
  5
368E
331
2406
  5
368F
331
2E70
  5
369B
331
288C
  5
3690
  0
XRECORD
  5
3B23
102
{ACAD_REACTORS
330
3B22
102
}
330
3B22
100
AcDbXrecord
280
     1
102
SHADEPLOT
 70
     0
  0
XRECORD
  5
3B1E
102
{ACAD_REACTORS
330
3B1D
102
}
330
3B1D
100
AcDbXrecord
280
     1
 40
1.25
  0
XRECORD
  5
3B1F
102
{ACAD_REACTORS
330
3B1D
102
}
330
3B1D
100
AcDbXrecord
280
     1
 40
1.570796326794896
  0
ACDBDETAILVIEWSTYLE
  5
3344
102
{ACAD_XDICTIONARY
360
3B59
102
}
102
{ACAD_REACTORS
330
3343
102
}
330
3343
100
AcDbModelDocViewStyle
 70
     0
  3
Metric50
290
     0
100
AcDbDetailViewStyle
 70
     0
 71
     0
 90
        3
 71
     1
340
11
 40
5.0
340
0
 40
5.0
300

 40
0.0
280
     1
 71
     2
340
16
 90
       25
 71
     3
340
11
 40
5.0
 90
        0
 40
15.0
 90
        1
300
%<\AcVar ViewDetailId>% (%<\AcVar ViewScale \f "%sn">%)
 71
     4
340
16
 90
       25
340
16
 90
       25
280
     0
  0
LAYOUT
  5
74
102
{ACAD_XDICTIONARY
360
3B24
102
}
102
{ACAD_REACTORS
330
1A
102
}
330
1A
100
AcDbPlotSettings
  1

  2
none_device
  4
Letter_(8.50_x_11.00_Inches)
  6

 40
6.349999999999998
 41
6.349999999999998
 42
6.350005079999998
 43
6.350005079999998
 44
215.9
 45
279.4
 46
0.0
 47
0.0
 48
0.0
 49
0.0
140
0.0
141
0.0
142
1.0
143
1.0
 70
   544
 72
     0
 73
     0
 74
     0
  7

 75
    16
147
1.0
148
0.0
149
0.0
100
AcDbLayout
  1
Layout1
 70
     1
 71
     1
 10
0.0
 20
0.0
 11
420.0
 21
297.0
 12
0.0
 22
0.0
 32
0.0
 14
0.0
 24
0.0
 34
0.0
 15
281.007629
 25
92.32476
 35
2.0
146
0.0
 13
0.0
 23
0.0
 33
0.0
 16
1.0
 26
0.0
 36
0.0
 17
0.0
 27
1.0
 37
0.0
 76
     0
330
73
331
34
  0
LAYOUT
  5
22
102
{ACAD_XDICTIONARY
360
3B20
102
}
102
{ACAD_REACTORS
330
1A
102
}
330
1A
100
AcDbPlotSettings
  1

  2
none_device
  4
Letter_(8.50_x_11.00_Inches)
  6

 40
6.349999999999998
 41
6.349999999999998
 42
6.350005079999998
 43
6.350005079999998
 44
215.9
 45
279.4
 46
0.0
 47
0.0
 48
0.0
 49
0.0
140
0.0
141
0.0
142
1.0
143
1.0
 70
 11936
 72
     0
 73
     0
 74
     0
  7

 75
     0
147
0.0342362219598424
148
0.0
149
0.0
100
AcDbLayout
  1
Model
 70
     1
 71
     0
 10
0.0
 20
0.0
 11
420.0
 21
297.0
 12
0.0
 22
0.0
 32
0.0
 14
-87.32631117866217
 24
-49.91335444515192
 34
0.0
 15
86.73532450390132
 25
74.446036276732
 35
0.0
146
0.0
 13
0.0
 23
0.0
 33
0.0
 16
1.0
 26
0.0
 36
0.0
 17
0.0
 27
1.0
 37
0.0
 76
     0
330
1F
331
97
  0
MATERIAL
  5
3317
102
{ACAD_XDICTIONARY
360
3318
102
}
102
{ACAD_REACTORS
330
6B
102
}
330
6B
100
AcDbMaterial
  1
ByBlock
 72
     0
 43
0.0208333333333333
 43
0.0
 43
0.0
 43
0.0
 43
0.0
 43
0.0208333333333333
 43
0.0
 43
0.0
 43
0.0
 43
0.0
 43
1.0
 43
0.0
 43
0.0
 43
0.0
 43
0.0
 43
1.0
 77
     0
 47
0.0208333333333333
 47
0.0
 47
0.0
 47
0.0
 47
0.0
 47
0.0208333333333333
 47
0.0
 47
0.0
 47
0.0
 47
0.0
 47
1.0
 47
0.0
 47
0.0
 47
0.0
 47
0.0
 47
1.0
171
     0
 49
0.0208333333333333
 49
0.0
 49
0.0
 49
0.0
 49
0.0
 49
0.0208333333333333
 49
0.0
 49
0.0
 49
0.0
 49
0.0
 49
1.0
 49
0.0
 49
0.0
 49
0.0
 49
0.0
 49
1.0
175
     0
142
0.0208333333333333
142
0.0
142
0.0
142
0.0
142
0.0
142
0.0208333333333333
142
0.0
142
0.0
142
0.0
142
0.0
142
1.0
142
0.0
142
0.0
142
0.0
142
0.0
142
1.0
179
     0
144
0.0208333333333333
144
0.0
144
0.0
144
0.0
144
0.0
144
0.0208333333333333
144
0.0
144
0.0
144
0.0
144
0.0
144
1.0
144
0.0
144
0.0
144
0.0
144
0.0
144
1.0
147
0.0208333333333333
147
0.0
147
0.0
147
0.0
147
0.0
147
0.0208333333333333
147
0.0
147
0.0
147
0.0
147
0.0
147
1.0
147
0.0
147
0.0
147
0.0
147
0.0
147
1.0
  0
MATERIAL
  5
330F
102
{ACAD_XDICTIONARY
360
3310
102
}
102
{ACAD_REACTORS
330
6B
102
}
330
6B
100
AcDbMaterial
  1
ByLayer
 72
     0
 43
0.0208333333333333
 43
0.0
 43
0.0
 43
0.0
 43
0.0
 43
0.0208333333333333
 43
0.0
 43
0.0
 43
0.0
 43
0.0
 43
1.0
 43
0.0
 43
0.0
 43
0.0
 43
0.0
 43
1.0
 77
     0
 47
0.0208333333333333
 47
0.0
 47
0.0
 47
0.0
 47
0.0
 47
0.0208333333333333
 47
0.0
 47
0.0
 47
0.0
 47
0.0
 47
1.0
 47
0.0
 47
0.0
 47
0.0
 47
0.0
 47
1.0
171
     0
 49
0.0208333333333333
 49
0.0
 49
0.0
 49
0.0
 49
0.0
 49
0.0208333333333333
 49
0.0
 49
0.0
 49
0.0
 49
0.0
 49
1.0
 49
0.0
 49
0.0
 49
0.0
 49
0.0
 49
1.0
175
     0
142
0.0208333333333333
142
0.0
142
0.0
142
0.0
142
0.0
142
0.0208333333333333
142
0.0
142
0.0
142
0.0
142
0.0
142
1.0
142
0.0
142
0.0
142
0.0
142
0.0
142
1.0
179
     0
144
0.0208333333333333
144
0.0
144
0.0
144
0.0
144
0.0
144
0.0208333333333333
144
0.0
144
0.0
144
0.0
144
0.0
144
1.0
144
0.0
144
0.0
144
0.0
144
0.0
144
1.0
147
0.0208333333333333
147
0.0
147
0.0
147
0.0
147
0.0
147
0.0208333333333333
147
0.0
147
0.0
147
0.0
147
0.0
147
1.0
147
0.0
147
0.0
147
0.0
147
0.0
147
1.0
  0
MATERIAL
  5
331F
102
{ACAD_XDICTIONARY
360
3320
102
}
102
{ACAD_REACTORS
330
6B
102
}
330
6B
100
AcDbMaterial
  1
Global
 72
     0
 43
0.0208333333333333
 43
0.0
 43
0.0
 43
0.0
 43
0.0
 43
0.0208333333333333
 43
0.0
 43
0.0
 43
0.0
 43
0.0
 43
1.0
 43
0.0
 43
0.0
 43
0.0
 43
0.0
 43
1.0
 77
     0
 47
0.0208333333333333
 47
0.0
 47
0.0
 47
0.0
 47
0.0
 47
0.0208333333333333
 47
0.0
 47
0.0
 47
0.0
 47
0.0
 47
1.0
 47
0.0
 47
0.0
 47
0.0
 47
0.0
 47
1.0
171
     0
 49
0.0208333333333333
 49
0.0
 49
0.0
 49
0.0
 49
0.0
 49
0.0208333333333333
 49
0.0
 49
0.0
 49
0.0
 49
0.0
 49
1.0
 49
0.0
 49
0.0
 49
0.0
 49
0.0
 49
1.0
175
     0
142
0.0208333333333333
142
0.0
142
0.0
142
0.0
142
0.0
142
0.0208333333333333
142
0.0
142
0.0
142
0.0
142
0.0
142
1.0
142
0.0
142
0.0
142
0.0
142
0.0
142
1.0
179
     0
144
0.0208333333333333
144
0.0
144
0.0
144
0.0
144
0.0
144
0.0208333333333333
144
0.0
144
0.0
144
0.0
144
0.0
144
1.0
144
0.0
144
0.0
144
0.0
144
0.0
144
1.0
147
0.0208333333333333
147
0.0
147
0.0
147
0.0
147
0.0
147
0.0208333333333333
147
0.0
147
0.0
147
0.0
147
0.0
147
1.0
147
0.0
147
0.0
147
0.0
147
0.0
147
1.0
  0
MLEADERSTYLE
  5
3340
102
{ACAD_REACTORS
330
2C9
102
}
330
2C9
100
AcDbMLeaderStyle
170
     2
171
     1
172
     0
 90
        2
 40
0.0
 41
0.0
173
     1
 91
-1056964608
340
14
 92
       -2
290
     1
 42
2.0
291
     1
 43
0.36
  3
Standard
 44
4.0
300

342
11
174
     1
178
     6
175
     1
176
     0
 93
-1056964608
 45
4.0
292
     0
297
     0
 46
4.0
 94
-1056964608
 47
1.0
 49
1.0
140
1.0
293
     1
141
0.0
294
     1
177
     0
142
1.0
295
     0
296
     0
143
0.125
1001
ACAD_MLEADERVER
1070
     2
  0
MLINESTYLE
  5
18
102
{ACAD_REACTORS
330
17
102
}
330
17
100
AcDbMlineStyle
  2
STANDARD
 70
     0
  3

 62
     0
 51
90.0
 52
90.0
 71
     2
 49
0.5
 62
   256
  6
BYLAYER
 49
-0.5
 62
   256
  6
BYLAYER
  0
ACDBPLACEHOLDER
  5
F
102
{ACAD_REACTORS
330
E
102
}
330
E
  0
SCALE
  5
9A
102
{ACAD_REACTORS
330
99
102
}
330
99
100
AcDbScale
 70
     0
300
1:1
140
1.0
141
1.0
290
     1
  0
SCALE
  5
9B
102
{ACAD_REACTORS
330
99
102
}
330
99
100
AcDbScale
 70
     0
300
1:2
140
1.0
141
2.0
290
     0
  0
SCALE
  5
9C
102
{ACAD_REACTORS
330
99
102
}
330
99
100
AcDbScale
 70
     0
300
1:4
140
1.0
141
4.0
290
     0
  0
SCALE
  5
9D
102
{ACAD_REACTORS
330
99
102
}
330
99
100
AcDbScale
 70
     0
300
1:5
140
1.0
141
5.0
290
     0
  0
SCALE
  5
9E
102
{ACAD_REACTORS
330
99
102
}
330
99
100
AcDbScale
 70
     0
300
1:8
140
1.0
141
8.0
290
     0
  0
SCALE
  5
9F
102
{ACAD_REACTORS
330
99
102
}
330
99
100
AcDbScale
 70
     0
300
1:10
140
1.0
141
10.0
290
     0
  0
SCALE
  5
A0
102
{ACAD_REACTORS
330
99
102
}
330
99
100
AcDbScale
 70
     0
300
1:16
140
1.0
141
16.0
290
     0
  0
SCALE
  5
A1
102
{ACAD_REACTORS
330
99
102
}
330
99
100
AcDbScale
 70
     0
300
1:20
140
1.0
141
20.0
290
     0
  0
SCALE
  5
A2
102
{ACAD_REACTORS
330
99
102
}
330
99
100
AcDbScale
 70
     0
300
1:30
140
1.0
141
30.0
290
     0
  0
SCALE
  5
A3
102
{ACAD_REACTORS
330
99
102
}
330
99
100
AcDbScale
 70
     0
300
1:40
140
1.0
141
40.0
290
     0
  0
SCALE
  5
A4
102
{ACAD_REACTORS
330
99
102
}
330
99
100
AcDbScale
 70
     0
300
1:50
140
1.0
141
50.0
290
     0
  0
SCALE
  5
A5
102
{ACAD_REACTORS
330
99
102
}
330
99
100
AcDbScale
 70
     0
300
1:100
140
1.0
141
100.0
290
     0
  0
SCALE
  5
A6
102
{ACAD_REACTORS
330
99
102
}
330
99
100
AcDbScale
 70
     0
300
2:1
140
2.0
141
1.0
290
     0
  0
SCALE
  5
A7
102
{ACAD_REACTORS
330
99
102
}
330
99
100
AcDbScale
 70
     0
300
4:1
140
4.0
141
1.0
290
     0
  0
SCALE
  5
A8
102
{ACAD_REACTORS
330
99
102
}
330
99
100
AcDbScale
 70
     0
300
8:1
140
8.0
141
1.0
290
     0
  0
SCALE
  5
A9
102
{ACAD_REACTORS
330
99
102
}
330
99
100
AcDbScale
 70
     0
300
10:1
140
10.0
141
1.0
290
     0
  0
SCALE
  5
AA
102
{ACAD_REACTORS
330
99
102
}
330
99
100
AcDbScale
 70
     0
300
100:1
140
100.0
141
1.0
290
     0
  0
SCALE
  5
AB
102
{ACAD_REACTORS
330
99
102
}
330
99
100
AcDbScale
 70
     0
300
1/128" = 1'-0"
140
0.0078125
141
12.0
290
     0
  0
SCALE
  5
AC
102
{ACAD_REACTORS
330
99
102
}
330
99
100
AcDbScale
 70
     0
300
1/64" = 1'-0"
140
0.015625
141
12.0
290
     0
  0
SCALE
  5
AD
102
{ACAD_REACTORS
330
99
102
}
330
99
100
AcDbScale
 70
     0
300
1/32" = 1'-0"
140
0.03125
141
12.0
290
     0
  0
SCALE
  5
AE
102
{ACAD_REACTORS
330
99
102
}
330
99
100
AcDbScale
 70
     0
300
1/16" = 1'-0"
140
0.0625
141
12.0
290
     0
  0
SCALE
  5
AF
102
{ACAD_REACTORS
330
99
102
}
330
99
100
AcDbScale
 70
     0
300
3/32" = 1'-0"
140
0.09375
141
12.0
290
     0
  0
SCALE
  5
B0
102
{ACAD_REACTORS
330
99
102
}
330
99
100
AcDbScale
 70
     0
300
1/8" = 1'-0"
140
0.125
141
12.0
290
     0
  0
SCALE
  5
B1
102
{ACAD_REACTORS
330
99
102
}
330
99
100
AcDbScale
 70
     0
300
3/16" = 1'-0"
140
0.1875
141
12.0
290
     0
  0
SCALE
  5
B2
102
{ACAD_REACTORS
330
99
102
}
330
99
100
AcDbScale
 70
     0
300
1/4" = 1'-0"
140
0.25
141
12.0
290
     0
  0
SCALE
  5
B3
102
{ACAD_REACTORS
330
99
102
}
330
99
100
AcDbScale
 70
     0
300
3/8" = 1'-0"
140
0.375
141
12.0
290
     0
  0
SCALE
  5
B4
102
{ACAD_REACTORS
330
99
102
}
330
99
100
AcDbScale
 70
     0
300
1/2" = 1'-0"
140
0.5
141
12.0
290
     0
  0
SCALE
  5
B5
102
{ACAD_REACTORS
330
99
102
}
330
99
100
AcDbScale
 70
     0
300
3/4" = 1'-0"
140
0.75
141
12.0
290
     0
  0
SCALE
  5
B6
102
{ACAD_REACTORS
330
99
102
}
330
99
100
AcDbScale
 70
     0
300
1" = 1'-0"
140
1.0
141
12.0
290
     0
  0
SCALE
  5
B7
102
{ACAD_REACTORS
330
99
102
}
330
99
100
AcDbScale
 70
     0
300
1-1/2" = 1'-0"
140
1.5
141
12.0
290
     0
  0
SCALE
  5
B8
102
{ACAD_REACTORS
330
99
102
}
330
99
100
AcDbScale
 70
     0
300
3" = 1'-0"
140
3.0
141
12.0
290
     0
  0
SCALE
  5
B9
102
{ACAD_REACTORS
330
99
102
}
330
99
100
AcDbScale
 70
     0
300
6" = 1'-0"
140
6.0
141
12.0
290
     0
  0
SCALE
  5
BA
102
{ACAD_REACTORS
330
99
102
}
330
99
100
AcDbScale
 70
     0
300
1'-0" = 1'-0"
140
12.0
141
12.0
290
     0
  0
ACDBSECTIONVIEWSTYLE
  5
3342
102
{ACAD_XDICTIONARY
360
3B57
102
}
102
{ACAD_REACTORS
330
3341
102
}
330
3341
100
AcDbModelDocViewStyle
 70
     0
  3
Metric50
290
     0
100
AcDbSectionViewStyle
 70
     0
 71
     0
 90
      102
 71
     1
340
11
 40
5.0
340
0
340
0
 40
5.0
300
I, O, Q, S, X, Z
 40
10.0
 90
        0
 40
2.5
 90
        0
 71
     2
340
16
 90
       25
340
16
 90
       50
 40
5.0
 40
2.5
 40
5.0
 71
     3
340
11
 40
5.0
 90
        0
 40
15.0
 90
        1
300
%<\AcVar ViewSectionStartId>%-%<\AcVar ViewSectionEndId>% (%<\AcVar ViewScale \f "%sn">%)
 71
     4
300
ANSI31
 40
1.0
 90
        0
290
     0
290
     0
 90
        6
 40
0.0
 40
1.570796326794896
 40
0.2617993877991494
 40
1.308996938995747
 40
-0.2617993877991494
 40
1.832595714594045
  0
TABLESTYLE
  5
333F
102
{ACAD_XDICTIONARY
360
3AC3
102
}
102
{ACAD_REACTORS
330
92
102
}
330
92
100
AcDbTableStyle
  3
Standard
 70
     0
 71
     0
 40
1.5
 41
1.5
280
     0
281
     0
  7
Standard
140
4.5
170
     2
 62
     0
 63
     7
283
     0
274
    -2
284
     1
 64
     0
275
    -2
285
     1
 65
     0
276
    -2
286
     1
 66
     0
277
    -2
287
     1
 67
     0
278
    -2
288
     1
 68
     0
279
    -2
289
     1
 69
     0
  7
Standard
140
6.0
170
     5
 62
     0
 63
     7
283
     0
274
    -2
284
     1
 64
     0
275
    -2
285
     1
 65
     0
276
    -2
286
     1
 66
     0
277
    -2
287
     1
 67
     0
278
    -2
288
     1
 68
     0
279
    -2
289
     1
 69
     0
  7
Standard
140
4.5
170
     5
 62
     0
 63
     7
283
     0
274
    -2
284
     1
 64
     0
275
    -2
285
     1
 65
     0
276
    -2
286
     1
 66
     0
277
    -2
287
     1
 67
     0
278
    -2
288
     1
 68
     0
279
    -2
289
     1
 69
     0
  0
VISUALSTYLE
  5
332C
102
{ACAD_XDICTIONARY
360
3B30
102
}
102
{ACAD_REACTORS
330
2A0
102
}
330
2A0
100
AcDbVisualStyle
  2

 70
     4
 71
     0
 72
     2
 73
     0
 90
        0
 40
-0.6
 41
-30.0
 62
     5
 63
     7
 74
     1
 91
        4
 64
     7
 65
   257
 75
     1
175
     1
 42
1.0
 92
        0
 66
   257
 43
1.0
 76
     1
 77
     6
 78
     2
 67
     7
 79
     5
170
     0
171
     0
290
     0
174
     0
 93
        1
 44
0.0
173
     0
291
     0
 45
0.0
1001
ACAD
1000
AcDbSavedByObjectVersion
1070
     0
  0
VISUALSTYLE
  5
332B
102
{ACAD_XDICTIONARY
360
3B2E
102
}
102
{ACAD_REACTORS
330
2A0
102
}
330
2A0
100
AcDbVisualStyle
  2

 70
     7
 71
     1
 72
     0
 73
     1
 90
        0
 40
-0.6
 41
-30.0
 62
     5
 63
     7
 74
     0
 91
        4
 64
     7
 65
   257
 75
     1
175
     1
 42
1.0
 92
        8
 66
     7
 43
1.0
 76
     1
 77
     6
 78
     2
 67
     7
 79
     5
170
     0
171
     0
290
     0
174
     0
 93
        1
 44
0.0
173
     0
291
     1
 45
0.0
1001
ACAD
1000
AcDbSavedByObjectVersion
1070
     0
  0
VISUALSTYLE
  5
3332
102
{ACAD_XDICTIONARY
360
3B3C
102
}
102
{ACAD_REACTORS
330
2A0
102
}
330
2A0
100
AcDbVisualStyle
  2

 70
    12
 71
     2
 72
     2
 73
     0
 90
        0
 40
-0.6
 41
-30.0
 62
     5
 63
     7
 74
     1
 91
        4
 64
     7
 65
   257
 75
     1
175
     1
 42
1.0
 92
        8
 66
     7
 43
1.0
 76
     1
 77
     6
 78
     2
 67
     7
 79
     5
170
     0
171
     0
290
     0
174
     0
 93
        1
 44
50.0
173
     0
291
     1
 45
0.0
1001
ACAD
1000
AcDbSavedByObjectVersion
1070
     0
  0
VISUALSTYLE
  5
3336
102
{ACAD_XDICTIONARY
360
3B44
102
}
102
{ACAD_REACTORS
330
2A0
102
}
330
2A0
100
AcDbVisualStyle
  2

 70
    16
 71
     2
 72
     2
 73
     3
 90
        0
 40
-0.6
 41
-30.0
 62
     5
 63
     8
 74
     1
 91
        4
 64
     7
 65
   257
 75
     1
175
     1
 42
1.0
 92
        8
 66
     8
 43
1.0
 76
     1
 77
     6
 78
     2
 67
     7
 79
     5
170
     0
171
     0
290
     0
174
     0
 93
        1
 44
0.0
173
     0
291
     1
 45
0.0
1001
ACAD
1000
AcDbSavedByObjectVersion
1070
     0
  0
VISUALSTYLE
  5
332F
102
{ACAD_XDICTIONARY
360
3B36
102
}
102
{ACAD_REACTORS
330
2A0
102
}
330
2A0
100
AcDbVisualStyle
  2

 70
     9
 71
     3
 72
     2
 73
     0
 90
        0
 40
-0.6
 41
-30.0
 62
     5
 63
     7
 74
     2
 91
        2
 64
     7
 65
   257
 75
     1
175
     1
 42
179.0
 92
        8
 66
     7
 43
1.0
 76
     1
 77
     6
 78
     2
 67
     7
 79
     3
170
     0
171
     0
290
     0
174
     0
 93
        1
 44
0.0
173
     0
291
     0
 45
0.0
1001
ACAD
1000
AcDbSavedByObjectVersion
1070
     0
  0
VISUALSTYLE
  5
3331
102
{ACAD_XDICTIONARY
360
3B3A
102
}
102
{ACAD_REACTORS
330
2A0
102
}
330
2A0
100
AcDbVisualStyle
  2

 70
    11
 71
     2
 72
     2
 73
     0
 90
        0
 40
-0.6
 41
-30.0
 62
     5
 63
     7
 74
     1
 91
        4
 64
     7
 65
   257
 75
     1
175
     1
 42
1.0
 92
        8
 66
     7
 43
1.0
 76
     1
 77
     6
 78
     2
 67
     7
 79
     5
170
     0
171
     0
290
     0
174
     0
 93
        1
 44
-50.0
173
     0
291
     1
 45
0.0
1001
ACAD
1000
AcDbSavedByObjectVersion
1070
     0
  0
VISUALSTYLE
  5
333E
102
{ACAD_XDICTIONARY
360
3B54
102
}
102
{ACAD_REACTORS
330
2A0
102
}
330
2A0
100
AcDbVisualStyle
  2

 70
    22
 71
     2
 72
     2
 73
     0
 90
        0
 40
-0.6
 41
-30.0
 62
     5
 63
     7
 74
     1
 91
        4
 64
     7
 65
   257
 75
     1
175
     1
 42
1.0
 92
        8
 66
     7
 43
1.0
 76
     1
 77
     6
 78
     2
 67
     7
 79
     5
170
     0
171
     0
290
     0
174
     0
 93
        1
 44
0.0
173
     0
291
     1
 45
0.0
1001
ACAD
1000
AcDbSavedByObjectVersion
1070
     0
  0
VISUALSTYLE
  5
3335
102
{ACAD_XDICTIONARY
360
3B42
102
}
102
{ACAD_REACTORS
330
2A0
102
}
330
2A0
100
AcDbVisualStyle
  2

 70
    15
 71
     2
 72
     2
 73
     0
 90
        0
 40
-0.6
 41
-30.0
 62
     5
 63
     7
 74
     1
 91
        4
 64
     7
 65
   257
 75
     1
175
     1
 42
1.0
 92
        8
 66
     7
 43
1.0
 76
     1
 77
     6
 78
     2
 67
     7
 79
     5
170
     0
171
     0
290
     0
174
     0
 93
        1
 44
0.0
173
     0
291
     1
 45
0.0
1001
ACAD
1000
AcDbSavedByObjectVersion
1070
     0
  0
VISUALSTYLE
  5
3327
102
{ACAD_XDICTIONARY
360
3B26
102
}
102
{ACAD_REACTORS
330
2A0
102
}
330
2A0
100
AcDbVisualStyle
  2

 70
     0
 71
     2
 72
     1
 73
     1
 90
        2
 40
-0.6
 41
30.0
 62
     5
 63
     7
 74
     0
 91
        0
 64
     7
 65
   257
 75
     1
175
     1
 42
1.0
 92
        8
 66
     7
 43
1.0
 76
     1
 77
     6
 78
     2
 67
     7
 79
     5
170
     0
171
     0
290
     0
174
     0
 93
       13
 44
0.0
173
     0
291
     1
 45
0.0
1001
ACAD
1000
AcDbSavedByObjectVersion
1070
     0
  0
VISUALSTYLE
  5
3328
102
{ACAD_XDICTIONARY
360
3B28
102
}
102
{ACAD_REACTORS
330
2A0
102
}
330
2A0
100
AcDbVisualStyle
  2

 70
     1
 71
     2
 72
     1
 73
     1
 90
        2
 40
-0.6
 41
30.0
 62
     5
 63
     7
 74
     1
 91
        0
 64
     7
 65
   257
 75
     1
175
     1
 42
1.0
 92
        0
 66
   257
 43
1.0
 76
     1
 77
     6
 78
     2
 67
     7
 79
     5
170
     0
171
     0
290
     0
174
     0
 93
       13
 44
0.0
173
     0
291
     1
 45
0.0
1001
ACAD
1000
AcDbSavedByObjectVersion
1070
     0
  0
VISUALSTYLE
  5
3329
102
{ACAD_XDICTIONARY
360
3B2A
102
}
102
{ACAD_REACTORS
330
2A0
102
}
330
2A0
100
AcDbVisualStyle
  2

 70
     2
 71
     2
 72
     2
 73
     1
 90
        2
 40
-0.6
 41
30.0
 62
     5
 63
     7
 74
     0
 91
        0
 64
     7
 65
   257
 75
     1
175
     1
 42
1.0
 92
        0
 66
     7
 43
1.0
 76
     1
 77
     6
 78
     2
 67
     7
 79
     5
170
     0
171
     0
290
     0
174
     0
 93
       13
 44
0.0
173
     0
291
     1
 45
0.0
1001
ACAD
1000
AcDbSavedByObjectVersion
1070
     0
  0
VISUALSTYLE
  5
332A
102
{ACAD_XDICTIONARY
360
3B2C
102
}
102
{ACAD_REACTORS
330
2A0
102
}
330
2A0
100
AcDbVisualStyle
  2

 70
     3
 71
     2
 72
     2
 73
     1
 90
        2
 40
-0.6
 41
30.0
 62
     5
 63
     7
 74
     1
 91
        0
 64
     7
 65
   257
 75
     1
175
     1
 42
1.0
 92
        0
 66
   257
 43
1.0
 76
     1
 77
     6
 78
     2
 67
     7
 79
     5
170
     0
171
     0
290
     0
174
     0
 93
       13
 44
0.0
173
     0
291
     1
 45
0.0
1001
ACAD
1000
AcDbSavedByObjectVersion
1070
     0
  0
VISUALSTYLE
  5
332E
102
{ACAD_XDICTIONARY
360
3B34
102
}
102
{ACAD_REACTORS
330
2A0
102
}
330
2A0
100
AcDbVisualStyle
  2

 70
     6
 71
     1
 72
     2
 73
     2
 90
        0
 40
-0.6
 41
-30.0
 62
     5
 63
     7
 74
     2
 91
        2
 64
     7
 65
   257
 75
     2
175
     1
 42
40.0
 92
        0
 66
   257
 43
1.0
 76
     1
 77
     6
 78
     2
 67
     7
 79
     3
170
     0
171
     0
290
     0
174
     0
 93
        1
 44
0.0
173
     0
291
     0
 45
0.0
1001
ACAD
1000
AcDbSavedByObjectVersion
1070
     0
  0
VISUALSTYLE
  5
333C
102
{ACAD_XDICTIONARY
360
3B50
102
}
102
{ACAD_REACTORS
330
2A0
102
}
330
2A0
100
AcDbVisualStyle
  2

 70
    20
 71
     2
 72
     2
 73
     0
 90
        0
 40
-0.6
 41
-30.0
 62
     5
 63
     7
 74
     1
 91
        4
 64
     7
 65
   257
 75
     1
175
     1
 42
1.0
 92
       10
 66
     7
 43
1.0
 76
     1
 77
     6
 78
     2
 67
     7
 79
     5
170
     0
171
     0
290
     0
174
     0
 93
        1
 44
0.0
173
     0
291
     1
 45
0.0
1001
ACAD
1000
AcDbSavedByObjectVersion
1070
     0
  0
VISUALSTYLE
  5
3334
102
{ACAD_XDICTIONARY
360
3B40
102
}
102
{ACAD_REACTORS
330
2A0
102
}
330
2A0
100
AcDbVisualStyle
  2

 70
    14
 71
     2
 72
     2
 73
     0
 90
        0
 40
-0.6
 41
-30.0
 62
     5
 63
     7
 74
     1
 91
        4
 64
     7
 65
   257
 75
     7
175
     7
 42
1.0
 92
        8
 66
     7
 43
1.0
 76
     1
 77
     6
 78
     2
 67
     7
 79
     5
170
     0
171
     0
290
     0
174
     0
 93
        1
 44
0.0
173
     0
291
     1
 45
0.0
1001
ACAD
1000
AcDbSavedByObjectVersion
1070
     0
  0
VISUALSTYLE
  5
333D
102
{ACAD_XDICTIONARY
360
3B52
102
}
102
{ACAD_REACTORS
330
2A0
102
}
330
2A0
100
AcDbVisualStyle
  2

 70
    21
 71
     2
 72
     2
 73
     0
 90
        0
 40
-0.6
 41
-30.0
 62
     5
 63
     7
 74
     1
 91
        4
 64
     7
 65
   257
 75
     1
175
     1
 42
1.0
 92
        9
 66
     7
 43
1.0
 76
     1
 77
     6
 78
     2
 67
     7
 79
     5
170
     0
171
     0
290
     0
174
     0
 93
        1
 44
0.0
173
     0
291
     1
 45
0.0
1001
ACAD
1000
AcDbSavedByObjectVersion
1070
     0
  0
VISUALSTYLE
  5
3330
102
{ACAD_XDICTIONARY
360
3B38
102
}
102
{ACAD_REACTORS
330
2A0
102
}
330
2A0
100
AcDbVisualStyle
  2

 70
     8
 71
     2
 72
     3
 73
     0
 90
        2
 40
-0.6
 41
30.0
 62
     5
 63
     7
 74
     0
 91
        0
 64
     7
 65
   257
 75
     1
175
     1
 42
1.0
 92
        8
 66
   257
 43
1.0
 76
     1
 77
     6
 78
     2
 67
     7
 79
     3
170
     0
171
     0
290
     0
174
     0
 93
       13
 44
0.0
173
     0
291
     0
 45
0.0
1001
ACAD
1000
AcDbSavedByObjectVersion
1070
     0
  0
VISUALSTYLE
  5
333B
102
{ACAD_XDICTIONARY
360
3B4E
102
}
102
{ACAD_REACTORS
330
2A0
102
}
330
2A0
100
AcDbVisualStyle
  2

 70
    27
 71
     2
 72
     2
 73
     1
 90
        2
 40
-0.6
 41
30.0
 62
     5
 63
     7
 74
     0
 91
        4
 64
     7
 65
   257
 75
     1
175
     1
 42
1.0
 92
        8
 66
   257
 43
1.0
 76
     1
 77
     6
 78
     2
 67
     8
 79
     3
170
     0
171
     0
290
     0
174
     0
 93
        5
 44
0.0
173
     0
291
     0
 45
0.0
1001
ACAD
1000
AcDbSavedByObjectVersion
1070
     0
  0
VISUALSTYLE
  5
333A
102
{ACAD_XDICTIONARY
360
3B4C
102
}
102
{ACAD_REACTORS
330
2A0
102
}
330
2A0
100
AcDbVisualStyle
  2

 70
    26
 71
     2
 72
     2
 73
     1
 90
        2
 40
-0.6
 41
30.0
 62
     5
 63
     7
 74
     1
 91
        2
 64
     7
 65
   257
 75
     2
175
     1
 42
1.0
 92
        8
 66
   257
 43
1.0
 76
     1
 77
     6
 78
     2
 67
     7
 79
     3
170
     0
171
     0
290
     0
174
     0
 93
        5
 44
0.0
173
     0
291
     0
 45
0.0
1001
ACAD
1000
AcDbSavedByObjectVersion
1070
     0
  0
VISUALSTYLE
  5
3337
102
{ACAD_XDICTIONARY
360
3B46
102
}
102
{ACAD_REACTORS
330
2A0
102
}
330
2A0
100
AcDbVisualStyle
  2

 70
    23
 71
     2
 72
     2
 73
     3
 90
        0
 40
-0.6
 41
-30.0
 62
     5
 63
     7
 74
     2
 91
        2
 64
     7
 65
     7
 75
     1
175
     1
 42
40.0
 92
        8
 66
     7
 43
1.0
 76
     1
 77
     6
 78
     2
 67
     7
 79
     3
170
     0
171
     0
290
     0
174
     0
 93
        1
 44
0.0
173
     0
291
     0
 45
0.0
1001
ACAD
1000
AcDbSavedByObjectVersion
1070
     0
  0
VISUALSTYLE
  5
3338
102
{ACAD_XDICTIONARY
360
3B48
102
}
102
{ACAD_REACTORS
330
2A0
102
}
330
2A0
100
AcDbVisualStyle
  2

 70
    24
 71
     1
 72
     2
 73
     2
 90
        0
 40
-0.6
 41
-30.0
 62
     5
 63
     7
 74
     2
 91
        2
 64
     7
 65
     7
 75
     1
175
     1
 42
40.0
 92
       11
 66
     7
 43
1.0
 76
     1
 77
     6
 78
     2
 67
     7
 79
     6
170
     0
171
     0
290
     0
174
     0
 93
        1
 44
0.0
173
     0
291
     0
 45
0.0
1001
ACAD
1000
AcDbSavedByObjectVersion
1070
     0
  0
VISUALSTYLE
  5
3333
102
{ACAD_XDICTIONARY
360
3B3E
102
}
102
{ACAD_REACTORS
330
2A0
102
}
330
2A0
100
AcDbVisualStyle
  2

 70
    13
 71
     2
 72
     2
 73
     0
 90
        0
 40
-0.6
 41
-30.0
 62
     5
 63
     7
 74
     1
 91
        4
 64
     7
 65
   257
 75
     1
175
     1
 42
1.0
 92
       12
 66
     7
 43
1.0
 76
     1
 77
     6
 78
     2
 67
     7
 79
     5
170
     0
171
     0
290
     0
174
     0
 93
        1
 44
0.0
173
     0
291
     1
 45
0.0
1001
ACAD
1000
AcDbSavedByObjectVersion
1070
     0
  0
VISUALSTYLE
  5
332D
102
{ACAD_XDICTIONARY
360
3B32
102
}
102
{ACAD_REACTORS
330
2A0
102
}
330
2A0
100
AcDbVisualStyle
  2

 70
     5
 71
     0
 72
     2
 73
     0
 90
        0
 40
-0.6
 41
-30.0
 62
     5
 63
     7
 74
     1
 91
        4
 64
     7
 65
   257
 75
     1
175
     1
 42
1.0
 92
        0
 66
   257
 43
1.0
 76
     1
 77
     6
 78
     2
 67
     7
 79
     3
170
     0
171
     0
290
     0
174
     0
 93
        1
 44
0.0
173
     0
291
     0
 45
0.0
1001
ACAD
1000
AcDbSavedByObjectVersion
1070
     0
  0
VISUALSTYLE
  5
3339
102
{ACAD_XDICTIONARY
360
3B4A
102
}
102
{ACAD_REACTORS
330
2A0
102
}
330
2A0
100
AcDbVisualStyle
  2

 70
    25
 71
     2
 72
     2
 73
     1
 90
        1
 40
0.5
 41
-30.0
 62
     5
 63
     7
 74
     1
 91
        0
 64
     7
 65
   257
 75
     1
175
     1
 42
1.0
 92
        8
 66
     7
 43
1.0
 76
     1
 77
     6
 78
     2
 67
     7
 79
     3
170
     0
171
     0
290
     0
174
     0
 93
       13
 44
0.0
173
     0
291
     0
 45
0.0
1001
ACAD
1000
AcDbSavedByObjectVersion
1070
     0
  0
XRECORD
  5
3307
102
{ACAD_REACTORS
330
3306
102
}
330
3306
100
AcDbXrecord
280
     1
340
6C
  0
XRECORD
  5
3308
102
{ACAD_REACTORS
330
3306
102
}
330
3306
100
AcDbXrecord
280
     1
340
6B
  0
DICTIONARYVAR
  5
3B15
102
{ACAD_REACTORS
330
3B10
102
}
330
3B10
100
DictionaryVariables
280
     0
  1
1:1
  0
DICTIONARYVAR
  5
3B12
102
{ACAD_REACTORS
330
3B10
102
}
330
3B10
100
DictionaryVariables
280
     0
  1
STANDARD
  0
DICTIONARYVAR
  5
3B11
102
{ACAD_REACTORS
330
3B10
102
}
330
3B10
100
DictionaryVariables
280
     0
  1
STANDARD
  0
DICTIONARYVAR
  5
3B13
102
{ACAD_REACTORS
330
3B10
102
}
330
3B10
100
DictionaryVariables
280
     0
  1
METRIC50
  0
DICTIONARYVAR
  5
3B14
102
{ACAD_REACTORS
330
3B10
102
}
330
3B10
100
DictionaryVariables
280
     0
  1
METRIC50
  0
DICTIONARYVAR
  5
3B18
102
{ACAD_REACTORS
330
3B10
102
}
330
3B10
100
DictionaryVariables
280
     0
  1
1
  0
DICTIONARYVAR
  5
3B17
102
{ACAD_REACTORS
330
3B10
102
}
330
3B10
100
DictionaryVariables
280
     0
  1
0
  0
DICTIONARYVAR
  5
3B16
102
{ACAD_REACTORS
330
3B10
102
}
330
3B10
100
DictionaryVariables
280
     0
  1
127
  0
DICTIONARYVAR
  5
3B19
102
{ACAD_REACTORS
330
3B10
102
}
330
3B10
100
DictionaryVariables
280
     0
  1
2
  0
XRECORD
  5
A42
102
{ACAD_REACTORS
330
A41
102
}
330
A41
100
AcDbXrecord
280
     1
330
63B
  0
XRECORD
  5
B87
102
{ACAD_REACTORS
330
62D
102
}
330
62D
100
AcDbXrecord
280
     1
 91
      535
301

290
     0
302
0
330
616
 90
        0
 62
     7
370
    -3
331
16
390
0
330
0
 90
        8
 62
     4
370
    50
331
16
390
0
330
614
 90
        8
 62
     4
370
    50
331
16
390
0
330
611
 90
        8
 62
     9
370
    18
331
16
390
0
330
60F
 90
        8
 62
     7
370
    -3
331
16
390
0
330
60D
 90
        8
 62
     1
370
    25
331
16
390
0
330
60B
 90
        8
 62
     5
370
    -3
331
16
390
0
330
609
 90
        8
 62
     2
370
    25
331
32D4
390
0
330
607
 90
        8
 62
     2
370
    25
331
32D4
390
0
330
603
 90
        8
 62
     7
370
    25
331
16
390
0
330
601
 90
        8
 62
     7
370
    25
331
16
390
0
330
5FF
 90
        8
 62
     4
370
    50
331
16
390
0
330
10
 90
        8
 62
     7
370
    13
331
16
390
0
  0
DICTIONARY
  5
3B59
330
3344
100
AcDbDictionary
280
     1
281
     1
  3
ACAD_XREC_ROUNDTRIP
360
3B5A
  0
DICTIONARY
  5
3B24
330
74
100
AcDbDictionary
280
     1
281
     1
  3
ACAD_XREC_ROUNDTRIP
360
3B25
  0
DICTIONARY
  5
3B20
330
22
100
AcDbDictionary
280
     1
281
     1
  3
ACAD_XREC_ROUNDTRIP
360
3B21
  0
DICTIONARY
  5
3318
330
3317
100
AcDbDictionary
280
     1
281
     1
  3
ACAD_XREC_ROUNDTRIP
360
3AD1
  3
BUMPTILE
360
331A
  3
DIFFUSETILE
360
3319
  3
OPACITYTILE
360
331D
  3
REFLECTIONTILE
360
331C
  3
REFRACTIONTILE
360
331E
  3
SPECULARTILE
360
331B
  0
DICTIONARY
  5
3310
330
330F
100
AcDbDictionary
280
     1
281
     1
  3
ACAD_XREC_ROUNDTRIP
360
3AD0
  3
BUMPTILE
360
3312
  3
DIFFUSETILE
360
3311
  3
OPACITYTILE
360
3315
  3
REFLECTIONTILE
360
3314
  3
REFRACTIONTILE
360
3316
  3
SPECULARTILE
360
3313
  0
DICTIONARY
  5
3320
330
331F
100
AcDbDictionary
280
     1
281
     1
  3
ACAD_XREC_ROUNDTRIP
360
3AD2
  3
BUMPTILE
360
3322
  3
DIFFUSETILE
360
3321
  3
OPACITYTILE
360
3325
  3
REFLECTIONTILE
360
3324
  3
REFRACTIONTILE
360
3326
  3
SPECULARTILE
360
3323
  0
DICTIONARY
  5
3B57
330
3342
100
AcDbDictionary
280
     1
281
     1
  3
ACAD_XREC_ROUNDTRIP
360
3B58
  0
DICTIONARY
  5
3AC3
330
333F
100
AcDbDictionary
280
     1
281
     1
  3
ACAD_ROUNDTRIP_2008_TABLESTYLE_CELLSTYLEMAP
360
3B1A
  3
ACAD_XREC_ROUNDTRIP
360
3B56
  0
DICTIONARY
  5
3B30
330
332C
100
AcDbDictionary
280
     1
281
     1
  3
ACAD_XREC_ROUNDTRIP
360
3B31
  0
DICTIONARY
  5
3B2E
330
332B
100
AcDbDictionary
280
     1
281
     1
  3
ACAD_XREC_ROUNDTRIP
360
3B2F
  0
DICTIONARY
  5
3B3C
330
3332
100
AcDbDictionary
280
     1
281
     1
  3
ACAD_XREC_ROUNDTRIP
360
3B3D
  0
DICTIONARY
  5
3B44
330
3336
100
AcDbDictionary
280
     1
281
     1
  3
ACAD_XREC_ROUNDTRIP
360
3B45
  0
DICTIONARY
  5
3B36
330
332F
100
AcDbDictionary
280
     1
281
     1
  3
ACAD_XREC_ROUNDTRIP
360
3B37
  0
DICTIONARY
  5
3B3A
330
3331
100
AcDbDictionary
280
     1
281
     1
  3
ACAD_XREC_ROUNDTRIP
360
3B3B
  0
DICTIONARY
  5
3B54
330
333E
100
AcDbDictionary
280
     1
281
     1
  3
ACAD_XREC_ROUNDTRIP
360
3B55
  0
DICTIONARY
  5
3B42
330
3335
100
AcDbDictionary
280
     1
281
     1
  3
ACAD_XREC_ROUNDTRIP
360
3B43
  0
DICTIONARY
  5
3B26
330
3327
100
AcDbDictionary
280
     1
281
     1
  3
ACAD_XREC_ROUNDTRIP
360
3B27
  0
DICTIONARY
  5
3B28
330
3328
100
AcDbDictionary
280
     1
281
     1
  3
ACAD_XREC_ROUNDTRIP
360
3B29
  0
DICTIONARY
  5
3B2A
330
3329
100
AcDbDictionary
280
     1
281
     1
  3
ACAD_XREC_ROUNDTRIP
360
3B2B
  0
DICTIONARY
  5
3B2C
330
332A
100
AcDbDictionary
280
     1
281
     1
  3
ACAD_XREC_ROUNDTRIP
360
3B2D
  0
DICTIONARY
  5
3B34
330
332E
100
AcDbDictionary
280
     1
281
     1
  3
ACAD_XREC_ROUNDTRIP
360
3B35
  0
DICTIONARY
  5
3B50
330
333C
100
AcDbDictionary
280
     1
281
     1
  3
ACAD_XREC_ROUNDTRIP
360
3B51
  0
DICTIONARY
  5
3B40
330
3334
100
AcDbDictionary
280
     1
281
     1
  3
ACAD_XREC_ROUNDTRIP
360
3B41
  0
DICTIONARY
  5
3B52
330
333D
100
AcDbDictionary
280
     1
281
     1
  3
ACAD_XREC_ROUNDTRIP
360
3B53
  0
DICTIONARY
  5
3B38
330
3330
100
AcDbDictionary
280
     1
281
     1
  3
ACAD_XREC_ROUNDTRIP
360
3B39
  0
DICTIONARY
  5
3B4E
330
333B
100
AcDbDictionary
280
     1
281
     1
  3
ACAD_XREC_ROUNDTRIP
360
3B4F
  0
DICTIONARY
  5
3B4C
330
333A
100
AcDbDictionary
280
     1
281
     1
  3
ACAD_XREC_ROUNDTRIP
360
3B4D
  0
DICTIONARY
  5
3B46
330
3337
100
AcDbDictionary
280
     1
281
     1
  3
ACAD_XREC_ROUNDTRIP
360
3B47
  0
DICTIONARY
  5
3B48
330
3338
100
AcDbDictionary
280
     1
281
     1
  3
ACAD_XREC_ROUNDTRIP
360
3B49
  0
DICTIONARY
  5
3B3E
330
3333
100
AcDbDictionary
280
     1
281
     1
  3
ACAD_XREC_ROUNDTRIP
360
3B3F
  0
DICTIONARY
  5
3B32
330
332D
100
AcDbDictionary
280
     1
281
     1
  3
ACAD_XREC_ROUNDTRIP
360
3B33
  0
DICTIONARY
  5
3B4A
330
3339
100
AcDbDictionary
280
     1
281
     1
  3
ACAD_XREC_ROUNDTRIP
360
3B4B
  0
XRECORD
  5
3B5A
102
{ACAD_REACTORS
330
3B59
102
}
330
3B59
100
AcDbXrecord
280
     1
102
DISPLAYNAME
  1
METRIC50
102
FLAGS
 90
        0
  0
XRECORD
  5
3B25
102
{ACAD_REACTORS
330
3B24
102
}
330
3B24
100
AcDbXrecord
280
     1
102
SHADEPLOT
 70
     0
102
SHADEPLOTRESLEVEL
 70
     2
102
SHADEPLOTCUSTOMDPI
 70
   300
  0
XRECORD
  5
3B21
102
{ACAD_REACTORS
330
3B20
102
}
330
3B20
100
AcDbXrecord
280
     1
102
SHADEPLOT
 70
     0
102
SHADEPLOTRESLEVEL
 70
     2
102
SHADEPLOTCUSTOMDPI
 70
   300
  0
XRECORD
  5
3AD1
102
{ACAD_REACTORS
330
3318
102
}
330
3318
100
AcDbXrecord
280
     1
102
MATERIAL
148
0.0
149
0.0
149
0.0
 93
        0
 94
      127
282
     0
 72
     0
 77
     0
171
     0
175
     0
179
     0
273
     0
  0
XRECORD
  5
331A
102
{ACAD_REACTORS
330
3318
102
}
330
3318
100
AcDbXrecord
280
     1
270
     1
271
     1
  0
XRECORD
  5
3319
102
{ACAD_REACTORS
330
3318
102
}
330
3318
100
AcDbXrecord
280
     1
270
     1
271
     1
  0
XRECORD
  5
331D
102
{ACAD_REACTORS
330
3318
102
}
330
3318
100
AcDbXrecord
280
     1
270
     1
271
     1
  0
XRECORD
  5
331C
102
{ACAD_REACTORS
330
3318
102
}
330
3318
100
AcDbXrecord
280
     1
270
     1
271
     1
  0
XRECORD
  5
331E
102
{ACAD_REACTORS
330
3318
102
}
330
3318
100
AcDbXrecord
280
     1
270
     1
271
     1
  0
XRECORD
  5
331B
102
{ACAD_REACTORS
330
3318
102
}
330
3318
100
AcDbXrecord
280
     1
270
     1
271
     1
  0
XRECORD
  5
3AD0
102
{ACAD_REACTORS
330
3310
102
}
330
3310
100
AcDbXrecord
280
     1
102
MATERIAL
148
0.0
149
0.0
149
0.0
 93
        0
 94
      127
282
     0
 72
     0
 77
     0
171
     0
175
     0
179
     0
273
     0
  0
XRECORD
  5
3312
102
{ACAD_REACTORS
330
3310
102
}
330
3310
100
AcDbXrecord
280
     1
270
     1
271
     1
  0
XRECORD
  5
3311
102
{ACAD_REACTORS
330
3310
102
}
330
3310
100
AcDbXrecord
280
     1
270
     1
271
     1
  0
XRECORD
  5
3315
102
{ACAD_REACTORS
330
3310
102
}
330
3310
100
AcDbXrecord
280
     1
270
     1
271
     1
  0
XRECORD
  5
3314
102
{ACAD_REACTORS
330
3310
102
}
330
3310
100
AcDbXrecord
280
     1
270
     1
271
     1
  0
XRECORD
  5
3316
102
{ACAD_REACTORS
330
3310
102
}
330
3310
100
AcDbXrecord
280
     1
270
     1
271
     1
  0
XRECORD
  5
3313
102
{ACAD_REACTORS
330
3310
102
}
330
3310
100
AcDbXrecord
280
     1
270
     1
271
     1
  0
XRECORD
  5
3AD2
102
{ACAD_REACTORS
330
3320
102
}
330
3320
100
AcDbXrecord
280
     1
102
MATERIAL
148
0.0
149
0.0
149
0.0
 93
        0
 94
      127
282
     0
 72
     0
 77
     0
171
     0
175
     0
179
     0
273
     0
  0
XRECORD
  5
3322
102
{ACAD_REACTORS
330
3320
102
}
330
3320
100
AcDbXrecord
280
     1
270
     1
271
     1
  0
XRECORD
  5
3321
102
{ACAD_REACTORS
330
3320
102
}
330
3320
100
AcDbXrecord
280
     1
270
     1
271
     1
  0
XRECORD
  5
3325
102
{ACAD_REACTORS
330
3320
102
}
330
3320
100
AcDbXrecord
280
     1
270
     1
271
     1
  0
XRECORD
  5
3324
102
{ACAD_REACTORS
330
3320
102
}
330
3320
100
AcDbXrecord
280
     1
270
     1
271
     1
  0
XRECORD
  5
3326
102
{ACAD_REACTORS
330
3320
102
}
330
3320
100
AcDbXrecord
280
     1
270
     1
271
     1
  0
XRECORD
  5
3323
102
{ACAD_REACTORS
330
3320
102
}
330
3320
100
AcDbXrecord
280
     1
270
     1
271
     1
  0
XRECORD
  5
3B58
102
{ACAD_REACTORS
330
3B57
102
}
330
3B57
100
AcDbXrecord
280
     1
102
DISPLAYNAME
  1
METRIC50
102
FLAGS
 90
        0
  0
CELLSTYLEMAP
  5
3B1A
102
{ACAD_REACTORS
330
3AC3
102
}
330
3AC3
100
AcDbCellStyleMap
 90
        3
300
CELLSTYLE
  1
TABLEFORMAT_BEGIN
 90
        5
170
     1
 91
        0
 92
    32768
 62
   257
 93
        1
300
CONTENTFORMAT
  1
CONTENTFORMAT_BEGIN
 90
        0
 91
        0
 92
      512
 93
        0
300

 40
0.0
140
1.0
 94
        5
 62
     0
340
11
144
6.0
309
CONTENTFORMAT_END
171
     1
301
MARGIN
  1
CELLMARGIN_BEGIN
 40
1.5
 40
1.5
 40
1.5
 40
1.5
 40
0.18
 40
0.18
309
CELLMARGIN_END
 94
        6
 95
        1
302
GRIDFORMAT
  1
GRIDFORMAT_BEGIN
 90
        0
 91
        1
 62
     0
 92
       -2
340
0
 93
        0
 40
1.125
309
GRIDFORMAT_END
 95
        2
302
GRIDFORMAT
  1
GRIDFORMAT_BEGIN
 90
        0
 91
        1
 62
     0
 92
       -2
340
0
 93
        0
 40
1.125
309
GRIDFORMAT_END
 95
        4
302
GRIDFORMAT
  1
GRIDFORMAT_BEGIN
 90
        0
 91
        1
 62
     0
 92
       -2
340
0
 93
        0
 40
1.125
309
GRIDFORMAT_END
 95
        8
302
GRIDFORMAT
  1
GRIDFORMAT_BEGIN
 90
        0
 91
        1
 62
     0
 92
       -2
340
0
 93
        0
 40
1.125
309
GRIDFORMAT_END
 95
       16
302
GRIDFORMAT
  1
GRIDFORMAT_BEGIN
 90
        0
 91
        1
 62
     0
 92
       -2
340
0
 93
        0
 40
1.125
309
GRIDFORMAT_END
 95
       32
302
GRIDFORMAT
  1
GRIDFORMAT_BEGIN
 90
        0
 91
        1
 62
     0
 92
       -2
340
0
 93
        0
 40
1.125
309
GRIDFORMAT_END
309
TABLEFORMAT_END
  1
CELLSTYLE_BEGIN
 90
        1
 91
        1
300
_TITLE
309
CELLSTYLE_END
300
CELLSTYLE
  1
TABLEFORMAT_BEGIN
 90
        5
170
     1
 91
        0
 92
        0
 62
   257
 93
        1
300
CONTENTFORMAT
  1
CONTENTFORMAT_BEGIN
 90
        0
 91
        0
 92
      512
 93
        0
300

 40
0.0
140
1.0
 94
        5
 62
     0
340
11
144
4.5
309
CONTENTFORMAT_END
171
     1
301
MARGIN
  1
CELLMARGIN_BEGIN
 40
1.5
 40
1.5
 40
1.5
 40
1.5
 40
0.18
 40
0.18
309
CELLMARGIN_END
 94
        6
 95
        1
302
GRIDFORMAT
  1
GRIDFORMAT_BEGIN
 90
        0
 91
        1
 62
     0
 92
       -2
340
0
 93
        0
 40
1.125
309
GRIDFORMAT_END
 95
        2
302
GRIDFORMAT
  1
GRIDFORMAT_BEGIN
 90
        0
 91
        1
 62
     0
 92
       -2
340
0
 93
        0
 40
1.125
309
GRIDFORMAT_END
 95
        4
302
GRIDFORMAT
  1
GRIDFORMAT_BEGIN
 90
        0
 91
        1
 62
     0
 92
       -2
340
0
 93
        0
 40
1.125
309
GRIDFORMAT_END
 95
        8
302
GRIDFORMAT
  1
GRIDFORMAT_BEGIN
 90
        0
 91
        1
 62
     0
 92
       -2
340
0
 93
        0
 40
1.125
309
GRIDFORMAT_END
 95
       16
302
GRIDFORMAT
  1
GRIDFORMAT_BEGIN
 90
        0
 91
        1
 62
     0
 92
       -2
340
0
 93
        0
 40
1.125
309
GRIDFORMAT_END
 95
       32
302
GRIDFORMAT
  1
GRIDFORMAT_BEGIN
 90
        0
 91
        1
 62
     0
 92
       -2
340
0
 93
        0
 40
1.125
309
GRIDFORMAT_END
309
TABLEFORMAT_END
  1
CELLSTYLE_BEGIN
 90
        2
 91
        1
300
_HEADER
309
CELLSTYLE_END
300
CELLSTYLE
  1
TABLEFORMAT_BEGIN
 90
        5
170
     1
 91
        0
 92
        0
 62
   257
 93
        1
300
CONTENTFORMAT
  1
CONTENTFORMAT_BEGIN
 90
        0
 91
        0
 92
      512
 93
        0
300

 40
0.0
140
1.0
 94
        2
 62
     0
340
11
144
4.5
309
CONTENTFORMAT_END
171
     1
301
MARGIN
  1
CELLMARGIN_BEGIN
 40
1.5
 40
1.5
 40
1.5
 40
1.5
 40
0.18
 40
0.18
309
CELLMARGIN_END
 94
        6
 95
        1
302
GRIDFORMAT
  1
GRIDFORMAT_BEGIN
 90
        0
 91
        1
 62
     0
 92
       -2
340
0
 93
        0
 40
1.125
309
GRIDFORMAT_END
 95
        2
302
GRIDFORMAT
  1
GRIDFORMAT_BEGIN
 90
        0
 91
        1
 62
     0
 92
       -2
340
0
 93
        0
 40
1.125
309
GRIDFORMAT_END
 95
        4
302
GRIDFORMAT
  1
GRIDFORMAT_BEGIN
 90
        0
 91
        1
 62
     0
 92
       -2
340
0
 93
        0
 40
1.125
309
GRIDFORMAT_END
 95
        8
302
GRIDFORMAT
  1
GRIDFORMAT_BEGIN
 90
        0
 91
        1
 62
     0
 92
       -2
340
0
 93
        0
 40
1.125
309
GRIDFORMAT_END
 95
       16
302
GRIDFORMAT
  1
GRIDFORMAT_BEGIN
 90
        0
 91
        1
 62
     0
 92
       -2
340
0
 93
        0
 40
1.125
309
GRIDFORMAT_END
 95
       32
302
GRIDFORMAT
  1
GRIDFORMAT_BEGIN
 90
        0
 91
        1
 62
     0
 92
       -2
340
0
 93
        0
 40
1.125
309
GRIDFORMAT_END
309
TABLEFORMAT_END
  1
CELLSTYLE_BEGIN
 90
        3
 91
        2
300
_DATA
309
CELLSTYLE_END
  0
XRECORD
  5
3B56
102
{ACAD_REACTORS
330
3AC3
102
}
330
3AC3
100
AcDbXrecord
280
     1
102
ACAD_ROUNDTRIP_PRE2007_TABLESTYLE
 90
      512
 91
        0
  1

 92
      512
 93
        0
  2

 94
      512
 95
        0
  3

  0
XRECORD
  5
3B31
102
{ACAD_REACTORS
330
3B30
102
}
330
3B30
100
AcDbXrecord
280
     1
102
RTVSPost2010Prop28
280
     1
102
RTVSPost2010PropOp28
 70
     1
102
RTVSPost2010Prop29
280
     1
102
RTVSPost2010PropOp29
 70
     1
102
RTVSPost2010Prop30
280
     0
102
RTVSPost2010PropOp30
 70
     1
102
RTVSPost2010Prop31
280
     0
102
RTVSPost2010PropOp31
 70
     1
102
RTVSPost2010Prop32
280
     0
102
RTVSPost2010PropOp32
 70
     1
102
RTVSPost2010Prop33
280
     0
102
RTVSPost2010PropOp33
 70
     1
102
RTVSPost2010Prop34
280
     0
102
RTVSPost2010PropOp34
 70
     1
102
RTVSPost2010Prop35
280
     0
102
RTVSPost2010PropOp35
 70
     1
102
RTVSPost2010Prop36
280
     0
102
RTVSPost2010PropOp36
 70
     1
102
RTVSPost2010Prop37
 90
       50
102
RTVSPost2010PropOp37
 70
     1
102
RTVSPost2010Prop38
140
0.0
102
RTVSPost2010PropOp38
 70
     1
102
RTVSPost2010Prop39
140
1.0
102
RTVSPost2010PropOp39
 70
     1
102
RTVSPost2010Prop40
 90
        0
102
RTVSPost2010PropOp40
 70
     1
102
RTVSPost2010Prop41ColorIndex
 90
       18
102
RTVSPost2010Prop41ColorRGB
 90
        0
102
RTVSPost2010PropOp41
 70
     1
102
RTVSPost2010Prop42
 90
       50
102
RTVSPost2010PropOp42
 70
     1
102
RTVSPost2010Prop43
 90
        3
102
RTVSPost2010PropOp43
 70
     1
102
RTVSPost2010Prop44ColorIndex
 90
        5
102
RTVSPost2010Prop44ColorRGB
 90
      255
102
RTVSPost2010PropOp44
 70
     1
102
RTVSPost2010Prop45
280
     0
102
RTVSPost2010PropOp45
 70
     1
102
RTVSPost2010Prop46
 90
       50
102
RTVSPost2010PropOp46
 70
     1
102
RTVSPost2010Prop47
 90
       50
102
RTVSPost2010PropOp47
 70
     1
102
RTVSPost2010Prop48
 90
       50
102
RTVSPost2010PropOp48
 70
     1
102
RTVSPost2010Prop49
280
     0
102
RTVSPost2010PropOp49
 70
     1
102
RTVSPost2010Prop50
 90
       50
102
RTVSPost2010PropOp50
 70
     1
102
RTVSPost2010Prop51ColorIndex
 90
      256
102
RTVSPost2010Prop51ColorRGB
 90
-16777216
102
RTVSPost2010PropOp51
 70
     0
102
RTVSPost2010Prop52
140
1.0
102
RTVSPost2010PropOp52
 70
     0
102
RTVSPost2010Prop53
 90
        2
102
RTVSPost2010PropOp53
 70
     1
102
RTVSPost2010Prop54
  1
strokes_ogs.tif
102
RTVSPost2010PropOp54
 70
     1
102
RTVSPost2010Prop55
280
     0
102
RTVSPost2010PropOp55
 70
     1
102
RTVSPost2010Prop56
140
1.0
102
RTVSPost2010PropOp56
 70
     1
102
RTVSPost2010Prop57
140
1.0
102
RTVSPost2010PropOp57
 70
     1
102
RTVSPropertyOp0
 70
     1
102
RTVSPropertyOp1
 70
     1
102
RTVSPropertyOp2
 70
     1
102
RTVSPropertyOp3
 70
     1
102
RTVSPropertyOp4
 70
     1
102
RTVSPropertyOp5
 70
     1
102
RTVSPropertyOp6
 70
     1
102
RTVSPropertyOp7
 70
     1
102
RTVSPropertyOp8
 70
     1
102
RTVSPropertyOp9
 70
     1
102
RTVSPropertyOp10
 70
     1
102
RTVSPropertyOp11
 70
     1
102
RTVSPropertyOp12
 70
     1
102
RTVSPropertyOp13
 70
     1
102
RTVSPropertyOp14
 70
     1
102
RTVSPropertyOp15
 70
     1
102
RTVSPropertyOp16
 70
     1
102
RTVSPropertyOp17
 70
     1
102
RTVSPropertyOp18
 70
     1
102
RTVSPropertyOp19
 70
     1
102
RTVSPropertyOp20
 70
     1
102
RTVSPropertyOp21
 70
     1
102
RTVSPropertyOp22
 70
     1
102
RTVSPropertyOp23
 70
     1
102
RTVSPropertyOp24
 70
     1
102
RTVSPropertyOp25
 70
     1
102
RTVSPropertyOp26
 70
     1
102
RTVSPropertyOp27
 70
     1
102
RTVSPropertyOp28
 70
     1
102
RTVSPropertyOp29
 70
     1
102
RTVSPropertyOp30
 70
     1
102
RTVSPropertyOp31
 70
     1
102
RTVSPropertyOp32
 70
     1
102
RTVSPropertyOp33
 70
     1
102
RTVSPropertyOp34
 70
     1
102
RTVSPropertyOp35
 70
     1
102
RTVSPropertyOp36
 70
     1
102
RTVSPropertyOp37
 70
     1
102
RTVSPropertyOp38
 70
     1
102
RTVSPropertyOp39
 70
     1
102
RTVSPropertyOp40
 70
     1
102
RTVSPropertyOp41
 70
     1
102
RTVSPropertyOp42
 70
     1
102
RTVSPropertyOp43
 70
     1
102
RTVSPropertyOp44
 70
     1
102
RTVSPropertyOp45
 70
     1
102
RTVSPropertyOp46
 70
     1
102
RTVSPropertyOp47
 70
     1
102
RTVSPropertyOp48
 70
     1
102
RTVSPropertyOp49
 70
     1
102
RTVSPropertyOp50
 70
     1
102
RTVSPropertyOp51
 70
     0
102
RTVSPropertyOp52
 70
     0
102
RTVSPropertyOp53
 70
     1
102
RTVSPropertyOp54
 70
     1
102
RTVSPropertyOp55
 70
     1
102
RTVSPropertyOp56
 70
     1
102
RTVSPropertyOp57
 70
     1
102
RTVSPropertyOp58
 70
     1
102
RTVSPropertyOp59
 70
     1
102
RTVSPropertyOp60
 70
     1
102
RTVSPropertyOp61
 70
     1
102
RTVSPropertyOp62
 70
     1
  0
XRECORD
  5
3B2F
102
{ACAD_REACTORS
330
3B2E
102
}
330
3B2E
100
AcDbXrecord
280
     1
102
RTVSPost2010Prop28
280
     0
102
RTVSPost2010PropOp28
 70
     1
102
RTVSPost2010Prop29
280
     1
102
RTVSPost2010PropOp29
 70
     1
102
RTVSPost2010Prop30
280
     1
102
RTVSPost2010PropOp30
 70
     1
102
RTVSPost2010Prop31
280
     0
102
RTVSPost2010PropOp31
 70
     1
102
RTVSPost2010Prop32
280
     0
102
RTVSPost2010PropOp32
 70
     1
102
RTVSPost2010Prop33
280
     0
102
RTVSPost2010PropOp33
 70
     1
102
RTVSPost2010Prop34
280
     0
102
RTVSPost2010PropOp34
 70
     1
102
RTVSPost2010Prop35
280
     0
102
RTVSPost2010PropOp35
 70
     1
102
RTVSPost2010Prop36
280
     0
102
RTVSPost2010PropOp36
 70
     1
102
RTVSPost2010Prop37
 90
       50
102
RTVSPost2010PropOp37
 70
     1
102
RTVSPost2010Prop38
140
0.0
102
RTVSPost2010PropOp38
 70
     1
102
RTVSPost2010Prop39
140
1.0
102
RTVSPost2010PropOp39
 70
     1
102
RTVSPost2010Prop40
 90
        0
102
RTVSPost2010PropOp40
 70
     1
102
RTVSPost2010Prop41ColorIndex
 90
       18
102
RTVSPost2010Prop41ColorRGB
 90
        0
102
RTVSPost2010PropOp41
 70
     1
102
RTVSPost2010Prop42
 90
       50
102
RTVSPost2010PropOp42
 70
     1
102
RTVSPost2010Prop43
 90
        3
102
RTVSPost2010PropOp43
 70
     1
102
RTVSPost2010Prop44ColorIndex
 90
        5
102
RTVSPost2010Prop44ColorRGB
 90
      255
102
RTVSPost2010PropOp44
 70
     1
102
RTVSPost2010Prop45
280
     0
102
RTVSPost2010PropOp45
 70
     1
102
RTVSPost2010Prop46
 90
       50
102
RTVSPost2010PropOp46
 70
     1
102
RTVSPost2010Prop47
 90
       50
102
RTVSPost2010PropOp47
 70
     1
102
RTVSPost2010Prop48
 90
       50
102
RTVSPost2010PropOp48
 70
     1
102
RTVSPost2010Prop49
280
     0
102
RTVSPost2010PropOp49
 70
     1
102
RTVSPost2010Prop50
 90
       50
102
RTVSPost2010PropOp50
 70
     1
102
RTVSPost2010Prop51ColorIndex
 90
      256
102
RTVSPost2010Prop51ColorRGB
 90
-16777216
102
RTVSPost2010PropOp51
 70
     0
102
RTVSPost2010Prop52
140
1.0
102
RTVSPost2010PropOp52
 70
     0
102
RTVSPost2010Prop53
 90
        2
102
RTVSPost2010PropOp53
 70
     1
102
RTVSPost2010Prop54
  1
strokes_ogs.tif
102
RTVSPost2010PropOp54
 70
     1
102
RTVSPost2010Prop55
280
     0
102
RTVSPost2010PropOp55
 70
     1
102
RTVSPost2010Prop56
140
1.0
102
RTVSPost2010PropOp56
 70
     1
102
RTVSPost2010Prop57
140
1.0
102
RTVSPost2010PropOp57
 70
     1
102
RTVSPropertyOp0
 70
     1
102
RTVSPropertyOp1
 70
     1
102
RTVSPropertyOp2
 70
     1
102
RTVSPropertyOp3
 70
     1
102
RTVSPropertyOp4
 70
     1
102
RTVSPropertyOp5
 70
     1
102
RTVSPropertyOp6
 70
     1
102
RTVSPropertyOp7
 70
     1
102
RTVSPropertyOp8
 70
     1
102
RTVSPropertyOp9
 70
     1
102
RTVSPropertyOp10
 70
     1
102
RTVSPropertyOp11
 70
     1
102
RTVSPropertyOp12
 70
     1
102
RTVSPropertyOp13
 70
     1
102
RTVSPropertyOp14
 70
     1
102
RTVSPropertyOp15
 70
     1
102
RTVSPropertyOp16
 70
     1
102
RTVSPropertyOp17
 70
     1
102
RTVSPropertyOp18
 70
     1
102
RTVSPropertyOp19
 70
     1
102
RTVSPropertyOp20
 70
     1
102
RTVSPropertyOp21
 70
     1
102
RTVSPropertyOp22
 70
     1
102
RTVSPropertyOp23
 70
     1
102
RTVSPropertyOp24
 70
     1
102
RTVSPropertyOp25
 70
     1
102
RTVSPropertyOp26
 70
     1
102
RTVSPropertyOp27
 70
     1
102
RTVSPropertyOp28
 70
     1
102
RTVSPropertyOp29
 70
     1
102
RTVSPropertyOp30
 70
     1
102
RTVSPropertyOp31
 70
     1
102
RTVSPropertyOp32
 70
     1
102
RTVSPropertyOp33
 70
     1
102
RTVSPropertyOp34
 70
     1
102
RTVSPropertyOp35
 70
     1
102
RTVSPropertyOp36
 70
     1
102
RTVSPropertyOp37
 70
     1
102
RTVSPropertyOp38
 70
     1
102
RTVSPropertyOp39
 70
     1
102
RTVSPropertyOp40
 70
     1
102
RTVSPropertyOp41
 70
     1
102
RTVSPropertyOp42
 70
     1
102
RTVSPropertyOp43
 70
     1
102
RTVSPropertyOp44
 70
     1
102
RTVSPropertyOp45
 70
     1
102
RTVSPropertyOp46
 70
     1
102
RTVSPropertyOp47
 70
     1
102
RTVSPropertyOp48
 70
     1
102
RTVSPropertyOp49
 70
     1
102
RTVSPropertyOp50
 70
     1
102
RTVSPropertyOp51
 70
     0
102
RTVSPropertyOp52
 70
     0
102
RTVSPropertyOp53
 70
     1
102
RTVSPropertyOp54
 70
     1
102
RTVSPropertyOp55
 70
     1
102
RTVSPropertyOp56
 70
     1
102
RTVSPropertyOp57
 70
     1
102
RTVSPropertyOp58
 70
     1
102
RTVSPropertyOp59
 70
     1
102
RTVSPropertyOp60
 70
     1
102
RTVSPropertyOp61
 70
     1
102
RTVSPropertyOp62
 70
     1
  0
XRECORD
  5
3B3D
102
{ACAD_REACTORS
330
3B3C
102
}
330
3B3C
100
AcDbXrecord
280
     1
102
RTVSPost2010Prop28
280
     0
102
RTVSPost2010PropOp28
 70
     1
102
RTVSPost2010Prop29
280
     1
102
RTVSPost2010PropOp29
 70
     1
102
RTVSPost2010Prop30
280
     1
102
RTVSPost2010PropOp30
 70
     1
102
RTVSPost2010Prop31
280
     0
102
RTVSPost2010PropOp31
 70
     1
102
RTVSPost2010Prop32
280
     0
102
RTVSPost2010PropOp32
 70
     1
102
RTVSPost2010Prop33
280
     0
102
RTVSPost2010PropOp33
 70
     1
102
RTVSPost2010Prop34
280
     0
102
RTVSPost2010PropOp34
 70
     1
102
RTVSPost2010Prop35
280
     0
102
RTVSPost2010PropOp35
 70
     1
102
RTVSPost2010Prop36
280
     0
102
RTVSPost2010PropOp36
 70
     1
102
RTVSPost2010Prop37
 90
       50
102
RTVSPost2010PropOp37
 70
     1
102
RTVSPost2010Prop38
140
0.0
102
RTVSPost2010PropOp38
 70
     1
102
RTVSPost2010Prop39
140
1.0
102
RTVSPost2010PropOp39
 70
     1
102
RTVSPost2010Prop40
 90
        0
102
RTVSPost2010PropOp40
 70
     1
102
RTVSPost2010Prop41ColorIndex
 90
       18
102
RTVSPost2010Prop41ColorRGB
 90
        0
102
RTVSPost2010PropOp41
 70
     1
102
RTVSPost2010Prop42
 90
       50
102
RTVSPost2010PropOp42
 70
     1
102
RTVSPost2010Prop43
 90
        3
102
RTVSPost2010PropOp43
 70
     1
102
RTVSPost2010Prop44ColorIndex
 90
        5
102
RTVSPost2010Prop44ColorRGB
 90
      255
102
RTVSPost2010PropOp44
 70
     1
102
RTVSPost2010Prop45
280
     0
102
RTVSPost2010PropOp45
 70
     1
102
RTVSPost2010Prop46
 90
       50
102
RTVSPost2010PropOp46
 70
     1
102
RTVSPost2010Prop47
 90
       50
102
RTVSPost2010PropOp47
 70
     1
102
RTVSPost2010Prop48
 90
       50
102
RTVSPost2010PropOp48
 70
     1
102
RTVSPost2010Prop49
280
     0
102
RTVSPost2010PropOp49
 70
     1
102
RTVSPost2010Prop50
 90
       50
102
RTVSPost2010PropOp50
 70
     1
102
RTVSPost2010Prop51ColorIndex
 90
      256
102
RTVSPost2010Prop51ColorRGB
 90
-16777216
102
RTVSPost2010PropOp51
 70
     0
102
RTVSPost2010Prop52
140
1.0
102
RTVSPost2010PropOp52
 70
     0
102
RTVSPost2010Prop53
 90
        2
102
RTVSPost2010PropOp53
 70
     1
102
RTVSPost2010Prop54
  1
strokes_ogs.tif
102
RTVSPost2010PropOp54
 70
     1
102
RTVSPost2010Prop55
280
     0
102
RTVSPost2010PropOp55
 70
     1
102
RTVSPost2010Prop56
140
1.0
102
RTVSPost2010PropOp56
 70
     1
102
RTVSPost2010Prop57
140
1.0
102
RTVSPost2010PropOp57
 70
     1
102
RTVSPropertyOp0
 70
     1
102
RTVSPropertyOp1
 70
     1
102
RTVSPropertyOp2
 70
     1
102
RTVSPropertyOp3
 70
     1
102
RTVSPropertyOp4
 70
     1
102
RTVSPropertyOp5
 70
     1
102
RTVSPropertyOp6
 70
     1
102
RTVSPropertyOp7
 70
     1
102
RTVSPropertyOp8
 70
     1
102
RTVSPropertyOp9
 70
     1
102
RTVSPropertyOp10
 70
     1
102
RTVSPropertyOp11
 70
     1
102
RTVSPropertyOp12
 70
     1
102
RTVSPropertyOp13
 70
     1
102
RTVSPropertyOp14
 70
     1
102
RTVSPropertyOp15
 70
     1
102
RTVSPropertyOp16
 70
     1
102
RTVSPropertyOp17
 70
     1
102
RTVSPropertyOp18
 70
     1
102
RTVSPropertyOp19
 70
     1
102
RTVSPropertyOp20
 70
     1
102
RTVSPropertyOp21
 70
     1
102
RTVSPropertyOp22
 70
     1
102
RTVSPropertyOp23
 70
     1
102
RTVSPropertyOp24
 70
     1
102
RTVSPropertyOp25
 70
     1
102
RTVSPropertyOp26
 70
     1
102
RTVSPropertyOp27
 70
     1
102
RTVSPropertyOp28
 70
     1
102
RTVSPropertyOp29
 70
     1
102
RTVSPropertyOp30
 70
     1
102
RTVSPropertyOp31
 70
     1
102
RTVSPropertyOp32
 70
     1
102
RTVSPropertyOp33
 70
     1
102
RTVSPropertyOp34
 70
     1
102
RTVSPropertyOp35
 70
     1
102
RTVSPropertyOp36
 70
     1
102
RTVSPropertyOp37
 70
     1
102
RTVSPropertyOp38
 70
     1
102
RTVSPropertyOp39
 70
     1
102
RTVSPropertyOp40
 70
     1
102
RTVSPropertyOp41
 70
     1
102
RTVSPropertyOp42
 70
     1
102
RTVSPropertyOp43
 70
     1
102
RTVSPropertyOp44
 70
     1
102
RTVSPropertyOp45
 70
     1
102
RTVSPropertyOp46
 70
     1
102
RTVSPropertyOp47
 70
     1
102
RTVSPropertyOp48
 70
     1
102
RTVSPropertyOp49
 70
     1
102
RTVSPropertyOp50
 70
     1
102
RTVSPropertyOp51
 70
     0
102
RTVSPropertyOp52
 70
     0
102
RTVSPropertyOp53
 70
     1
102
RTVSPropertyOp54
 70
     1
102
RTVSPropertyOp55
 70
     1
102
RTVSPropertyOp56
 70
     1
102
RTVSPropertyOp57
 70
     1
102
RTVSPropertyOp58
 70
     1
102
RTVSPropertyOp59
 70
     1
102
RTVSPropertyOp60
 70
     1
102
RTVSPropertyOp61
 70
     1
102
RTVSPropertyOp62
 70
     1
  0
XRECORD
  5
3B45
102
{ACAD_REACTORS
330
3B44
102
}
330
3B44
100
AcDbXrecord
280
     1
102
RTVSPost2010Prop28
280
     0
102
RTVSPost2010PropOp28
 70
     1
102
RTVSPost2010Prop29
280
     1
102
RTVSPost2010PropOp29
 70
     1
102
RTVSPost2010Prop30
280
     1
102
RTVSPost2010PropOp30
 70
     1
102
RTVSPost2010Prop31
280
     0
102
RTVSPost2010PropOp31
 70
     1
102
RTVSPost2010Prop32
280
     0
102
RTVSPost2010PropOp32
 70
     1
102
RTVSPost2010Prop33
280
     0
102
RTVSPost2010PropOp33
 70
     1
102
RTVSPost2010Prop34
280
     0
102
RTVSPost2010PropOp34
 70
     1
102
RTVSPost2010Prop35
280
     0
102
RTVSPost2010PropOp35
 70
     1
102
RTVSPost2010Prop36
280
     0
102
RTVSPost2010PropOp36
 70
     1
102
RTVSPost2010Prop37
 90
       50
102
RTVSPost2010PropOp37
 70
     1
102
RTVSPost2010Prop38
140
0.0
102
RTVSPost2010PropOp38
 70
     1
102
RTVSPost2010Prop39
140
1.0
102
RTVSPost2010PropOp39
 70
     1
102
RTVSPost2010Prop40
 90
        0
102
RTVSPost2010PropOp40
 70
     1
102
RTVSPost2010Prop41ColorIndex
 90
       18
102
RTVSPost2010Prop41ColorRGB
 90
        0
102
RTVSPost2010PropOp41
 70
     1
102
RTVSPost2010Prop42
 90
       50
102
RTVSPost2010PropOp42
 70
     1
102
RTVSPost2010Prop43
 90
        3
102
RTVSPost2010PropOp43
 70
     1
102
RTVSPost2010Prop44ColorIndex
 90
        5
102
RTVSPost2010Prop44ColorRGB
 90
      255
102
RTVSPost2010PropOp44
 70
     1
102
RTVSPost2010Prop45
280
     0
102
RTVSPost2010PropOp45
 70
     1
102
RTVSPost2010Prop46
 90
       50
102
RTVSPost2010PropOp46
 70
     1
102
RTVSPost2010Prop47
 90
       50
102
RTVSPost2010PropOp47
 70
     1
102
RTVSPost2010Prop48
 90
       50
102
RTVSPost2010PropOp48
 70
     1
102
RTVSPost2010Prop49
280
     0
102
RTVSPost2010PropOp49
 70
     1
102
RTVSPost2010Prop50
 90
       50
102
RTVSPost2010PropOp50
 70
     1
102
RTVSPost2010Prop51ColorIndex
 90
      256
102
RTVSPost2010Prop51ColorRGB
 90
-16777216
102
RTVSPost2010PropOp51
 70
     0
102
RTVSPost2010Prop52
140
1.0
102
RTVSPost2010PropOp52
 70
     0
102
RTVSPost2010Prop53
 90
        2
102
RTVSPost2010PropOp53
 70
     1
102
RTVSPost2010Prop54
  1
strokes_ogs.tif
102
RTVSPost2010PropOp54
 70
     1
102
RTVSPost2010Prop55
280
     0
102
RTVSPost2010PropOp55
 70
     1
102
RTVSPost2010Prop56
140
1.0
102
RTVSPost2010PropOp56
 70
     1
102
RTVSPost2010Prop57
140
1.0
102
RTVSPost2010PropOp57
 70
     1
102
RTVSPropertyOp0
 70
     1
102
RTVSPropertyOp1
 70
     1
102
RTVSPropertyOp2
 70
     1
102
RTVSPropertyOp3
 70
     1
102
RTVSPropertyOp4
 70
     1
102
RTVSPropertyOp5
 70
     1
102
RTVSPropertyOp6
 70
     1
102
RTVSPropertyOp7
 70
     1
102
RTVSPropertyOp8
 70
     1
102
RTVSPropertyOp9
 70
     1
102
RTVSPropertyOp10
 70
     1
102
RTVSPropertyOp11
 70
     1
102
RTVSPropertyOp12
 70
     1
102
RTVSPropertyOp13
 70
     1
102
RTVSPropertyOp14
 70
     1
102
RTVSPropertyOp15
 70
     1
102
RTVSPropertyOp16
 70
     1
102
RTVSPropertyOp17
 70
     1
102
RTVSPropertyOp18
 70
     1
102
RTVSPropertyOp19
 70
     1
102
RTVSPropertyOp20
 70
     1
102
RTVSPropertyOp21
 70
     1
102
RTVSPropertyOp22
 70
     1
102
RTVSPropertyOp23
 70
     1
102
RTVSPropertyOp24
 70
     1
102
RTVSPropertyOp25
 70
     1
102
RTVSPropertyOp26
 70
     1
102
RTVSPropertyOp27
 70
     1
102
RTVSPropertyOp28
 70
     1
102
RTVSPropertyOp29
 70
     1
102
RTVSPropertyOp30
 70
     1
102
RTVSPropertyOp31
 70
     1
102
RTVSPropertyOp32
 70
     1
102
RTVSPropertyOp33
 70
     1
102
RTVSPropertyOp34
 70
     1
102
RTVSPropertyOp35
 70
     1
102
RTVSPropertyOp36
 70
     1
102
RTVSPropertyOp37
 70
     1
102
RTVSPropertyOp38
 70
     1
102
RTVSPropertyOp39
 70
     1
102
RTVSPropertyOp40
 70
     1
102
RTVSPropertyOp41
 70
     1
102
RTVSPropertyOp42
 70
     1
102
RTVSPropertyOp43
 70
     1
102
RTVSPropertyOp44
 70
     1
102
RTVSPropertyOp45
 70
     1
102
RTVSPropertyOp46
 70
     1
102
RTVSPropertyOp47
 70
     1
102
RTVSPropertyOp48
 70
     1
102
RTVSPropertyOp49
 70
     1
102
RTVSPropertyOp50
 70
     1
102
RTVSPropertyOp51
 70
     0
102
RTVSPropertyOp52
 70
     0
102
RTVSPropertyOp53
 70
     1
102
RTVSPropertyOp54
 70
     1
102
RTVSPropertyOp55
 70
     1
102
RTVSPropertyOp56
 70
     1
102
RTVSPropertyOp57
 70
     1
102
RTVSPropertyOp58
 70
     1
102
RTVSPropertyOp59
 70
     1
102
RTVSPropertyOp60
 70
     1
102
RTVSPropertyOp61
 70
     1
102
RTVSPropertyOp62
 70
     1
  0
XRECORD
  5
3B37
102
{ACAD_REACTORS
330
3B36
102
}
330
3B36
100
AcDbXrecord
280
     1
102
RTVSPost2010Prop28
280
     0
102
RTVSPost2010PropOp28
 70
     1
102
RTVSPost2010Prop29
280
     1
102
RTVSPost2010PropOp29
 70
     1
102
RTVSPost2010Prop30
280
     1
102
RTVSPost2010PropOp30
 70
     1
102
RTVSPost2010Prop31
280
     0
102
RTVSPost2010PropOp31
 70
     1
102
RTVSPost2010Prop32
280
     0
102
RTVSPost2010PropOp32
 70
     1
102
RTVSPost2010Prop33
280
     0
102
RTVSPost2010PropOp33
 70
     1
102
RTVSPost2010Prop34
280
     0
102
RTVSPost2010PropOp34
 70
     1
102
RTVSPost2010Prop35
280
     0
102
RTVSPost2010PropOp35
 70
     1
102
RTVSPost2010Prop36
280
     0
102
RTVSPost2010PropOp36
 70
     1
102
RTVSPost2010Prop37
 90
       50
102
RTVSPost2010PropOp37
 70
     1
102
RTVSPost2010Prop38
140
0.0
102
RTVSPost2010PropOp38
 70
     1
102
RTVSPost2010Prop39
140
1.0
102
RTVSPost2010PropOp39
 70
     1
102
RTVSPost2010Prop40
 90
        0
102
RTVSPost2010PropOp40
 70
     1
102
RTVSPost2010Prop41ColorIndex
 90
       18
102
RTVSPost2010Prop41ColorRGB
 90
        0
102
RTVSPost2010PropOp41
 70
     1
102
RTVSPost2010Prop42
 90
       50
102
RTVSPost2010PropOp42
 70
     1
102
RTVSPost2010Prop43
 90
        3
102
RTVSPost2010PropOp43
 70
     1
102
RTVSPost2010Prop44ColorIndex
 90
        5
102
RTVSPost2010Prop44ColorRGB
 90
      255
102
RTVSPost2010PropOp44
 70
     1
102
RTVSPost2010Prop45
280
     0
102
RTVSPost2010PropOp45
 70
     1
102
RTVSPost2010Prop46
 90
       50
102
RTVSPost2010PropOp46
 70
     1
102
RTVSPost2010Prop47
 90
       50
102
RTVSPost2010PropOp47
 70
     1
102
RTVSPost2010Prop48
 90
       50
102
RTVSPost2010PropOp48
 70
     1
102
RTVSPost2010Prop49
280
     0
102
RTVSPost2010PropOp49
 70
     1
102
RTVSPost2010Prop50
 90
       50
102
RTVSPost2010PropOp50
 70
     1
102
RTVSPost2010Prop51ColorIndex
 90
      256
102
RTVSPost2010Prop51ColorRGB
 90
-16777216
102
RTVSPost2010PropOp51
 70
     0
102
RTVSPost2010Prop52
140
1.0
102
RTVSPost2010PropOp52
 70
     0
102
RTVSPost2010Prop53
 90
        2
102
RTVSPost2010PropOp53
 70
     1
102
RTVSPost2010Prop54
  1
strokes_ogs.tif
102
RTVSPost2010PropOp54
 70
     1
102
RTVSPost2010Prop55
280
     0
102
RTVSPost2010PropOp55
 70
     1
102
RTVSPost2010Prop56
140
1.0
102
RTVSPost2010PropOp56
 70
     1
102
RTVSPost2010Prop57
140
1.0
102
RTVSPost2010PropOp57
 70
     1
102
RTVSPropertyOp0
 70
     1
102
RTVSPropertyOp1
 70
     1
102
RTVSPropertyOp2
 70
     1
102
RTVSPropertyOp3
 70
     1
102
RTVSPropertyOp4
 70
     1
102
RTVSPropertyOp5
 70
     1
102
RTVSPropertyOp6
 70
     1
102
RTVSPropertyOp7
 70
     1
102
RTVSPropertyOp8
 70
     1
102
RTVSPropertyOp9
 70
     1
102
RTVSPropertyOp10
 70
     1
102
RTVSPropertyOp11
 70
     1
102
RTVSPropertyOp12
 70
     1
102
RTVSPropertyOp13
 70
     1
102
RTVSPropertyOp14
 70
     1
102
RTVSPropertyOp15
 70
     1
102
RTVSPropertyOp16
 70
     1
102
RTVSPropertyOp17
 70
     1
102
RTVSPropertyOp18
 70
     1
102
RTVSPropertyOp19
 70
     1
102
RTVSPropertyOp20
 70
     1
102
RTVSPropertyOp21
 70
     1
102
RTVSPropertyOp22
 70
     1
102
RTVSPropertyOp23
 70
     1
102
RTVSPropertyOp24
 70
     1
102
RTVSPropertyOp25
 70
     1
102
RTVSPropertyOp26
 70
     1
102
RTVSPropertyOp27
 70
     1
102
RTVSPropertyOp28
 70
     1
102
RTVSPropertyOp29
 70
     1
102
RTVSPropertyOp30
 70
     1
102
RTVSPropertyOp31
 70
     1
102
RTVSPropertyOp32
 70
     1
102
RTVSPropertyOp33
 70
     1
102
RTVSPropertyOp34
 70
     1
102
RTVSPropertyOp35
 70
     1
102
RTVSPropertyOp36
 70
     1
102
RTVSPropertyOp37
 70
     1
102
RTVSPropertyOp38
 70
     1
102
RTVSPropertyOp39
 70
     1
102
RTVSPropertyOp40
 70
     1
102
RTVSPropertyOp41
 70
     1
102
RTVSPropertyOp42
 70
     1
102
RTVSPropertyOp43
 70
     1
102
RTVSPropertyOp44
 70
     1
102
RTVSPropertyOp45
 70
     1
102
RTVSPropertyOp46
 70
     1
102
RTVSPropertyOp47
 70
     1
102
RTVSPropertyOp48
 70
     1
102
RTVSPropertyOp49
 70
     1
102
RTVSPropertyOp50
 70
     1
102
RTVSPropertyOp51
 70
     0
102
RTVSPropertyOp52
 70
     0
102
RTVSPropertyOp53
 70
     1
102
RTVSPropertyOp54
 70
     1
102
RTVSPropertyOp55
 70
     1
102
RTVSPropertyOp56
 70
     1
102
RTVSPropertyOp57
 70
     1
102
RTVSPropertyOp58
 70
     1
102
RTVSPropertyOp59
 70
     1
102
RTVSPropertyOp60
 70
     1
102
RTVSPropertyOp61
 70
     1
102
RTVSPropertyOp62
 70
     1
  0
XRECORD
  5
3B3B
102
{ACAD_REACTORS
330
3B3A
102
}
330
3B3A
100
AcDbXrecord
280
     1
102
RTVSPost2010Prop28
280
     0
102
RTVSPost2010PropOp28
 70
     1
102
RTVSPost2010Prop29
280
     1
102
RTVSPost2010PropOp29
 70
     1
102
RTVSPost2010Prop30
280
     1
102
RTVSPost2010PropOp30
 70
     1
102
RTVSPost2010Prop31
280
     0
102
RTVSPost2010PropOp31
 70
     1
102
RTVSPost2010Prop32
280
     0
102
RTVSPost2010PropOp32
 70
     1
102
RTVSPost2010Prop33
280
     0
102
RTVSPost2010PropOp33
 70
     1
102
RTVSPost2010Prop34
280
     0
102
RTVSPost2010PropOp34
 70
     1
102
RTVSPost2010Prop35
280
     0
102
RTVSPost2010PropOp35
 70
     1
102
RTVSPost2010Prop36
280
     0
102
RTVSPost2010PropOp36
 70
     1
102
RTVSPost2010Prop37
 90
       50
102
RTVSPost2010PropOp37
 70
     1
102
RTVSPost2010Prop38
140
0.0
102
RTVSPost2010PropOp38
 70
     1
102
RTVSPost2010Prop39
140
1.0
102
RTVSPost2010PropOp39
 70
     1
102
RTVSPost2010Prop40
 90
        0
102
RTVSPost2010PropOp40
 70
     1
102
RTVSPost2010Prop41ColorIndex
 90
       18
102
RTVSPost2010Prop41ColorRGB
 90
        0
102
RTVSPost2010PropOp41
 70
     1
102
RTVSPost2010Prop42
 90
       50
102
RTVSPost2010PropOp42
 70
     1
102
RTVSPost2010Prop43
 90
        3
102
RTVSPost2010PropOp43
 70
     1
102
RTVSPost2010Prop44ColorIndex
 90
        5
102
RTVSPost2010Prop44ColorRGB
 90
      255
102
RTVSPost2010PropOp44
 70
     1
102
RTVSPost2010Prop45
280
     0
102
RTVSPost2010PropOp45
 70
     1
102
RTVSPost2010Prop46
 90
       50
102
RTVSPost2010PropOp46
 70
     1
102
RTVSPost2010Prop47
 90
       50
102
RTVSPost2010PropOp47
 70
     1
102
RTVSPost2010Prop48
 90
       50
102
RTVSPost2010PropOp48
 70
     1
102
RTVSPost2010Prop49
280
     0
102
RTVSPost2010PropOp49
 70
     1
102
RTVSPost2010Prop50
 90
       50
102
RTVSPost2010PropOp50
 70
     1
102
RTVSPost2010Prop51ColorIndex
 90
      256
102
RTVSPost2010Prop51ColorRGB
 90
-16777216
102
RTVSPost2010PropOp51
 70
     0
102
RTVSPost2010Prop52
140
1.0
102
RTVSPost2010PropOp52
 70
     0
102
RTVSPost2010Prop53
 90
        2
102
RTVSPost2010PropOp53
 70
     1
102
RTVSPost2010Prop54
  1
strokes_ogs.tif
102
RTVSPost2010PropOp54
 70
     1
102
RTVSPost2010Prop55
280
     0
102
RTVSPost2010PropOp55
 70
     1
102
RTVSPost2010Prop56
140
1.0
102
RTVSPost2010PropOp56
 70
     1
102
RTVSPost2010Prop57
140
1.0
102
RTVSPost2010PropOp57
 70
     1
102
RTVSPropertyOp0
 70
     1
102
RTVSPropertyOp1
 70
     1
102
RTVSPropertyOp2
 70
     1
102
RTVSPropertyOp3
 70
     1
102
RTVSPropertyOp4
 70
     1
102
RTVSPropertyOp5
 70
     1
102
RTVSPropertyOp6
 70
     1
102
RTVSPropertyOp7
 70
     1
102
RTVSPropertyOp8
 70
     1
102
RTVSPropertyOp9
 70
     1
102
RTVSPropertyOp10
 70
     1
102
RTVSPropertyOp11
 70
     1
102
RTVSPropertyOp12
 70
     1
102
RTVSPropertyOp13
 70
     1
102
RTVSPropertyOp14
 70
     1
102
RTVSPropertyOp15
 70
     1
102
RTVSPropertyOp16
 70
     1
102
RTVSPropertyOp17
 70
     1
102
RTVSPropertyOp18
 70
     1
102
RTVSPropertyOp19
 70
     1
102
RTVSPropertyOp20
 70
     1
102
RTVSPropertyOp21
 70
     1
102
RTVSPropertyOp22
 70
     1
102
RTVSPropertyOp23
 70
     1
102
RTVSPropertyOp24
 70
     1
102
RTVSPropertyOp25
 70
     1
102
RTVSPropertyOp26
 70
     1
102
RTVSPropertyOp27
 70
     1
102
RTVSPropertyOp28
 70
     1
102
RTVSPropertyOp29
 70
     1
102
RTVSPropertyOp30
 70
     1
102
RTVSPropertyOp31
 70
     1
102
RTVSPropertyOp32
 70
     1
102
RTVSPropertyOp33
 70
     1
102
RTVSPropertyOp34
 70
     1
102
RTVSPropertyOp35
 70
     1
102
RTVSPropertyOp36
 70
     1
102
RTVSPropertyOp37
 70
     1
102
RTVSPropertyOp38
 70
     1
102
RTVSPropertyOp39
 70
     1
102
RTVSPropertyOp40
 70
     1
102
RTVSPropertyOp41
 70
     1
102
RTVSPropertyOp42
 70
     1
102
RTVSPropertyOp43
 70
     1
102
RTVSPropertyOp44
 70
     1
102
RTVSPropertyOp45
 70
     1
102
RTVSPropertyOp46
 70
     1
102
RTVSPropertyOp47
 70
     1
102
RTVSPropertyOp48
 70
     1
102
RTVSPropertyOp49
 70
     1
102
RTVSPropertyOp50
 70
     1
102
RTVSPropertyOp51
 70
     0
102
RTVSPropertyOp52
 70
     0
102
RTVSPropertyOp53
 70
     1
102
RTVSPropertyOp54
 70
     1
102
RTVSPropertyOp55
 70
     1
102
RTVSPropertyOp56
 70
     1
102
RTVSPropertyOp57
 70
     1
102
RTVSPropertyOp58
 70
     1
102
RTVSPropertyOp59
 70
     1
102
RTVSPropertyOp60
 70
     1
102
RTVSPropertyOp61
 70
     1
102
RTVSPropertyOp62
 70
     1
  0
XRECORD
  5
3B55
102
{ACAD_REACTORS
330
3B54
102
}
330
3B54
100
AcDbXrecord
280
     1
102
RTVSPost2010Prop28
280
     0
102
RTVSPost2010PropOp28
 70
     1
102
RTVSPost2010Prop29
280
     1
102
RTVSPost2010PropOp29
 70
     1
102
RTVSPost2010Prop30
280
     1
102
RTVSPost2010PropOp30
 70
     1
102
RTVSPost2010Prop31
280
     0
102
RTVSPost2010PropOp31
 70
     1
102
RTVSPost2010Prop32
280
     0
102
RTVSPost2010PropOp32
 70
     1
102
RTVSPost2010Prop33
280
     0
102
RTVSPost2010PropOp33
 70
     1
102
RTVSPost2010Prop34
280
     0
102
RTVSPost2010PropOp34
 70
     1
102
RTVSPost2010Prop35
280
     0
102
RTVSPost2010PropOp35
 70
     1
102
RTVSPost2010Prop36
280
     0
102
RTVSPost2010PropOp36
 70
     1
102
RTVSPost2010Prop37
 90
       50
102
RTVSPost2010PropOp37
 70
     0
102
RTVSPost2010Prop38
140
0.0
102
RTVSPost2010PropOp38
 70
     0
102
RTVSPost2010Prop39
140
1.0
102
RTVSPost2010PropOp39
 70
     0
102
RTVSPost2010Prop40
 90
        0
102
RTVSPost2010PropOp40
 70
     0
102
RTVSPost2010Prop41ColorIndex
 90
       18
102
RTVSPost2010Prop41ColorRGB
 90
        0
102
RTVSPost2010PropOp41
 70
     0
102
RTVSPost2010Prop42
 90
       50
102
RTVSPost2010PropOp42
 70
     0
102
RTVSPost2010Prop43
 90
        3
102
RTVSPost2010PropOp43
 70
     0
102
RTVSPost2010Prop44ColorIndex
 90
        5
102
RTVSPost2010Prop44ColorRGB
 90
      255
102
RTVSPost2010PropOp44
 70
     0
102
RTVSPost2010Prop45
280
     0
102
RTVSPost2010PropOp45
 70
     1
102
RTVSPost2010Prop46
 90
       50
102
RTVSPost2010PropOp46
 70
     0
102
RTVSPost2010Prop47
 90
       50
102
RTVSPost2010PropOp47
 70
     0
102
RTVSPost2010Prop48
 90
       50
102
RTVSPost2010PropOp48
 70
     0
102
RTVSPost2010Prop49
280
     0
102
RTVSPost2010PropOp49
 70
     1
102
RTVSPost2010Prop50
 90
       50
102
RTVSPost2010PropOp50
 70
     0
102
RTVSPost2010Prop51ColorIndex
 90
      256
102
RTVSPost2010Prop51ColorRGB
 90
-16777216
102
RTVSPost2010PropOp51
 70
     0
102
RTVSPost2010Prop52
140
1.0
102
RTVSPost2010PropOp52
 70
     0
102
RTVSPost2010Prop53
 90
        2
102
RTVSPost2010PropOp53
 70
     0
102
RTVSPost2010Prop54
  1
strokes_ogs.tif
102
RTVSPost2010PropOp54
 70
     0
102
RTVSPost2010Prop55
280
     0
102
RTVSPost2010PropOp55
 70
     1
102
RTVSPost2010Prop56
140
1.0
102
RTVSPost2010PropOp56
 70
     0
102
RTVSPost2010Prop57
140
1.0
102
RTVSPost2010PropOp57
 70
     0
102
RTVSPropertyOp0
 70
     0
102
RTVSPropertyOp1
 70
     0
102
RTVSPropertyOp2
 70
     0
102
RTVSPropertyOp3
 70
     0
102
RTVSPropertyOp4
 70
     0
102
RTVSPropertyOp5
 70
     0
102
RTVSPropertyOp6
 70
     0
102
RTVSPropertyOp7
 70
     0
102
RTVSPropertyOp8
 70
     0
102
RTVSPropertyOp9
 70
     0
102
RTVSPropertyOp10
 70
     0
102
RTVSPropertyOp11
 70
     0
102
RTVSPropertyOp12
 70
     0
102
RTVSPropertyOp13
 70
     0
102
RTVSPropertyOp14
 70
     2
102
RTVSPropertyOp15
 70
     0
102
RTVSPropertyOp16
 70
     0
102
RTVSPropertyOp17
 70
     0
102
RTVSPropertyOp18
 70
     0
102
RTVSPropertyOp19
 70
     0
102
RTVSPropertyOp20
 70
     0
102
RTVSPropertyOp21
 70
     0
102
RTVSPropertyOp22
 70
     0
102
RTVSPropertyOp23
 70
     0
102
RTVSPropertyOp24
 70
     0
102
RTVSPropertyOp25
 70
     0
102
RTVSPropertyOp26
 70
     0
102
RTVSPropertyOp27
 70
     0
102
RTVSPropertyOp28
 70
     1
102
RTVSPropertyOp29
 70
     1
102
RTVSPropertyOp30
 70
     1
102
RTVSPropertyOp31
 70
     1
102
RTVSPropertyOp32
 70
     1
102
RTVSPropertyOp33
 70
     1
102
RTVSPropertyOp34
 70
     1
102
RTVSPropertyOp35
 70
     1
102
RTVSPropertyOp36
 70
     1
102
RTVSPropertyOp37
 70
     0
102
RTVSPropertyOp38
 70
     0
102
RTVSPropertyOp39
 70
     0
102
RTVSPropertyOp40
 70
     0
102
RTVSPropertyOp41
 70
     0
102
RTVSPropertyOp42
 70
     0
102
RTVSPropertyOp43
 70
     0
102
RTVSPropertyOp44
 70
     0
102
RTVSPropertyOp45
 70
     1
102
RTVSPropertyOp46
 70
     0
102
RTVSPropertyOp47
 70
     0
102
RTVSPropertyOp48
 70
     0
102
RTVSPropertyOp49
 70
     1
102
RTVSPropertyOp50
 70
     0
102
RTVSPropertyOp51
 70
     0
102
RTVSPropertyOp52
 70
     0
102
RTVSPropertyOp53
 70
     0
102
RTVSPropertyOp54
 70
     0
102
RTVSPropertyOp55
 70
     1
102
RTVSPropertyOp56
 70
     0
102
RTVSPropertyOp57
 70
     0
102
RTVSPropertyOp58
 70
     0
102
RTVSPropertyOp59
 70
     0
102
RTVSPropertyOp60
 70
     0
102
RTVSPropertyOp61
 70
     0
102
RTVSPropertyOp62
 70
     0
  0
XRECORD
  5
3B43
102
{ACAD_REACTORS
330
3B42
102
}
330
3B42
100
AcDbXrecord
280
     1
102
RTVSPost2010Prop28
280
     0
102
RTVSPost2010PropOp28
 70
     1
102
RTVSPost2010Prop29
280
     1
102
RTVSPost2010PropOp29
 70
     1
102
RTVSPost2010Prop30
280
     1
102
RTVSPost2010PropOp30
 70
     1
102
RTVSPost2010Prop31
280
     0
102
RTVSPost2010PropOp31
 70
     1
102
RTVSPost2010Prop32
280
     0
102
RTVSPost2010PropOp32
 70
     1
102
RTVSPost2010Prop33
280
     0
102
RTVSPost2010PropOp33
 70
     1
102
RTVSPost2010Prop34
280
     0
102
RTVSPost2010PropOp34
 70
     1
102
RTVSPost2010Prop35
280
     0
102
RTVSPost2010PropOp35
 70
     1
102
RTVSPost2010Prop36
280
     0
102
RTVSPost2010PropOp36
 70
     1
102
RTVSPost2010Prop37
 90
       50
102
RTVSPost2010PropOp37
 70
     1
102
RTVSPost2010Prop38
140
0.0
102
RTVSPost2010PropOp38
 70
     1
102
RTVSPost2010Prop39
140
1.0
102
RTVSPost2010PropOp39
 70
     1
102
RTVSPost2010Prop40
 90
        0
102
RTVSPost2010PropOp40
 70
     1
102
RTVSPost2010Prop41ColorIndex
 90
       18
102
RTVSPost2010Prop41ColorRGB
 90
        0
102
RTVSPost2010PropOp41
 70
     1
102
RTVSPost2010Prop42
 90
       50
102
RTVSPost2010PropOp42
 70
     1
102
RTVSPost2010Prop43
 90
        3
102
RTVSPost2010PropOp43
 70
     1
102
RTVSPost2010Prop44ColorIndex
 90
        5
102
RTVSPost2010Prop44ColorRGB
 90
      255
102
RTVSPost2010PropOp44
 70
     1
102
RTVSPost2010Prop45
280
     0
102
RTVSPost2010PropOp45
 70
     1
102
RTVSPost2010Prop46
 90
       50
102
RTVSPost2010PropOp46
 70
     1
102
RTVSPost2010Prop47
 90
       50
102
RTVSPost2010PropOp47
 70
     1
102
RTVSPost2010Prop48
 90
       50
102
RTVSPost2010PropOp48
 70
     1
102
RTVSPost2010Prop49
280
     0
102
RTVSPost2010PropOp49
 70
     1
102
RTVSPost2010Prop50
 90
       50
102
RTVSPost2010PropOp50
 70
     1
102
RTVSPost2010Prop51ColorIndex
 90
      256
102
RTVSPost2010Prop51ColorRGB
 90
-16777216
102
RTVSPost2010PropOp51
 70
     0
102
RTVSPost2010Prop52
140
1.0
102
RTVSPost2010PropOp52
 70
     0
102
RTVSPost2010Prop53
 90
        2
102
RTVSPost2010PropOp53
 70
     1
102
RTVSPost2010Prop54
  1
strokes_ogs.tif
102
RTVSPost2010PropOp54
 70
     1
102
RTVSPost2010Prop55
280
     0
102
RTVSPost2010PropOp55
 70
     1
102
RTVSPost2010Prop56
140
1.0
102
RTVSPost2010PropOp56
 70
     1
102
RTVSPost2010Prop57
140
1.0
102
RTVSPost2010PropOp57
 70
     1
102
RTVSPropertyOp0
 70
     1
102
RTVSPropertyOp1
 70
     1
102
RTVSPropertyOp2
 70
     1
102
RTVSPropertyOp3
 70
     1
102
RTVSPropertyOp4
 70
     1
102
RTVSPropertyOp5
 70
     1
102
RTVSPropertyOp6
 70
     1
102
RTVSPropertyOp7
 70
     1
102
RTVSPropertyOp8
 70
     1
102
RTVSPropertyOp9
 70
     1
102
RTVSPropertyOp10
 70
     1
102
RTVSPropertyOp11
 70
     1
102
RTVSPropertyOp12
 70
     1
102
RTVSPropertyOp13
 70
     1
102
RTVSPropertyOp14
 70
     1
102
RTVSPropertyOp15
 70
     1
102
RTVSPropertyOp16
 70
     1
102
RTVSPropertyOp17
 70
     1
102
RTVSPropertyOp18
 70
     1
102
RTVSPropertyOp19
 70
     1
102
RTVSPropertyOp20
 70
     1
102
RTVSPropertyOp21
 70
     1
102
RTVSPropertyOp22
 70
     1
102
RTVSPropertyOp23
 70
     1
102
RTVSPropertyOp24
 70
     1
102
RTVSPropertyOp25
 70
     1
102
RTVSPropertyOp26
 70
     1
102
RTVSPropertyOp27
 70
     1
102
RTVSPropertyOp28
 70
     1
102
RTVSPropertyOp29
 70
     1
102
RTVSPropertyOp30
 70
     1
102
RTVSPropertyOp31
 70
     1
102
RTVSPropertyOp32
 70
     1
102
RTVSPropertyOp33
 70
     1
102
RTVSPropertyOp34
 70
     1
102
RTVSPropertyOp35
 70
     1
102
RTVSPropertyOp36
 70
     1
102
RTVSPropertyOp37
 70
     1
102
RTVSPropertyOp38
 70
     1
102
RTVSPropertyOp39
 70
     1
102
RTVSPropertyOp40
 70
     1
102
RTVSPropertyOp41
 70
     1
102
RTVSPropertyOp42
 70
     1
102
RTVSPropertyOp43
 70
     1
102
RTVSPropertyOp44
 70
     1
102
RTVSPropertyOp45
 70
     1
102
RTVSPropertyOp46
 70
     1
102
RTVSPropertyOp47
 70
     1
102
RTVSPropertyOp48
 70
     1
102
RTVSPropertyOp49
 70
     1
102
RTVSPropertyOp50
 70
     1
102
RTVSPropertyOp51
 70
     0
102
RTVSPropertyOp52
 70
     0
102
RTVSPropertyOp53
 70
     1
102
RTVSPropertyOp54
 70
     1
102
RTVSPropertyOp55
 70
     1
102
RTVSPropertyOp56
 70
     1
102
RTVSPropertyOp57
 70
     1
102
RTVSPropertyOp58
 70
     1
102
RTVSPropertyOp59
 70
     1
102
RTVSPropertyOp60
 70
     1
102
RTVSPropertyOp61
 70
     1
102
RTVSPropertyOp62
 70
     1
  0
XRECORD
  5
3B27
102
{ACAD_REACTORS
330
3B26
102
}
330
3B26
100
AcDbXrecord
280
     1
102
RTVSPost2010Prop28
280
     0
102
RTVSPost2010PropOp28
 70
     1
102
RTVSPost2010Prop29
280
     1
102
RTVSPost2010PropOp29
 70
     1
102
RTVSPost2010Prop30
280
     1
102
RTVSPost2010PropOp30
 70
     1
102
RTVSPost2010Prop31
280
     0
102
RTVSPost2010PropOp31
 70
     1
102
RTVSPost2010Prop32
280
     0
102
RTVSPost2010PropOp32
 70
     1
102
RTVSPost2010Prop33
280
     0
102
RTVSPost2010PropOp33
 70
     1
102
RTVSPost2010Prop34
280
     0
102
RTVSPost2010PropOp34
 70
     1
102
RTVSPost2010Prop35
280
     0
102
RTVSPost2010PropOp35
 70
     1
102
RTVSPost2010Prop36
280
     0
102
RTVSPost2010PropOp36
 70
     1
102
RTVSPost2010Prop37
 90
       50
102
RTVSPost2010PropOp37
 70
     1
102
RTVSPost2010Prop38
140
0.0
102
RTVSPost2010PropOp38
 70
     1
102
RTVSPost2010Prop39
140
1.0
102
RTVSPost2010PropOp39
 70
     1
102
RTVSPost2010Prop40
 90
        0
102
RTVSPost2010PropOp40
 70
     1
102
RTVSPost2010Prop41ColorIndex
 90
       18
102
RTVSPost2010Prop41ColorRGB
 90
        0
102
RTVSPost2010PropOp41
 70
     1
102
RTVSPost2010Prop42
 90
       50
102
RTVSPost2010PropOp42
 70
     1
102
RTVSPost2010Prop43
 90
        3
102
RTVSPost2010PropOp43
 70
     1
102
RTVSPost2010Prop44ColorIndex
 90
        5
102
RTVSPost2010Prop44ColorRGB
 90
      255
102
RTVSPost2010PropOp44
 70
     1
102
RTVSPost2010Prop45
280
     0
102
RTVSPost2010PropOp45
 70
     1
102
RTVSPost2010Prop46
 90
       50
102
RTVSPost2010PropOp46
 70
     1
102
RTVSPost2010Prop47
 90
       50
102
RTVSPost2010PropOp47
 70
     1
102
RTVSPost2010Prop48
 90
       50
102
RTVSPost2010PropOp48
 70
     1
102
RTVSPost2010Prop49
280
     0
102
RTVSPost2010PropOp49
 70
     1
102
RTVSPost2010Prop50
 90
       50
102
RTVSPost2010PropOp50
 70
     1
102
RTVSPost2010Prop51ColorIndex
 90
      256
102
RTVSPost2010Prop51ColorRGB
 90
-16777216
102
RTVSPost2010PropOp51
 70
     0
102
RTVSPost2010Prop52
140
1.0
102
RTVSPost2010PropOp52
 70
     0
102
RTVSPost2010Prop53
 90
        2
102
RTVSPost2010PropOp53
 70
     1
102
RTVSPost2010Prop54
  1
strokes_ogs.tif
102
RTVSPost2010PropOp54
 70
     1
102
RTVSPost2010Prop55
280
     0
102
RTVSPost2010PropOp55
 70
     1
102
RTVSPost2010Prop56
140
1.0
102
RTVSPost2010PropOp56
 70
     1
102
RTVSPost2010Prop57
140
1.0
102
RTVSPost2010PropOp57
 70
     1
102
RTVSPropertyOp0
 70
     1
102
RTVSPropertyOp1
 70
     1
102
RTVSPropertyOp2
 70
     1
102
RTVSPropertyOp3
 70
     1
102
RTVSPropertyOp4
 70
     1
102
RTVSPropertyOp5
 70
     1
102
RTVSPropertyOp6
 70
     1
102
RTVSPropertyOp7
 70
     1
102
RTVSPropertyOp8
 70
     1
102
RTVSPropertyOp9
 70
     1
102
RTVSPropertyOp10
 70
     1
102
RTVSPropertyOp11
 70
     1
102
RTVSPropertyOp12
 70
     1
102
RTVSPropertyOp13
 70
     1
102
RTVSPropertyOp14
 70
     1
102
RTVSPropertyOp15
 70
     1
102
RTVSPropertyOp16
 70
     1
102
RTVSPropertyOp17
 70
     1
102
RTVSPropertyOp18
 70
     1
102
RTVSPropertyOp19
 70
     1
102
RTVSPropertyOp20
 70
     1
102
RTVSPropertyOp21
 70
     1
102
RTVSPropertyOp22
 70
     1
102
RTVSPropertyOp23
 70
     1
102
RTVSPropertyOp24
 70
     1
102
RTVSPropertyOp25
 70
     1
102
RTVSPropertyOp26
 70
     1
102
RTVSPropertyOp27
 70
     1
102
RTVSPropertyOp28
 70
     1
102
RTVSPropertyOp29
 70
     1
102
RTVSPropertyOp30
 70
     1
102
RTVSPropertyOp31
 70
     1
102
RTVSPropertyOp32
 70
     1
102
RTVSPropertyOp33
 70
     1
102
RTVSPropertyOp34
 70
     1
102
RTVSPropertyOp35
 70
     1
102
RTVSPropertyOp36
 70
     1
102
RTVSPropertyOp37
 70
     1
102
RTVSPropertyOp38
 70
     1
102
RTVSPropertyOp39
 70
     1
102
RTVSPropertyOp40
 70
     1
102
RTVSPropertyOp41
 70
     1
102
RTVSPropertyOp42
 70
     1
102
RTVSPropertyOp43
 70
     1
102
RTVSPropertyOp44
 70
     1
102
RTVSPropertyOp45
 70
     1
102
RTVSPropertyOp46
 70
     1
102
RTVSPropertyOp47
 70
     1
102
RTVSPropertyOp48
 70
     1
102
RTVSPropertyOp49
 70
     1
102
RTVSPropertyOp50
 70
     1
102
RTVSPropertyOp51
 70
     0
102
RTVSPropertyOp52
 70
     0
102
RTVSPropertyOp53
 70
     1
102
RTVSPropertyOp54
 70
     1
102
RTVSPropertyOp55
 70
     1
102
RTVSPropertyOp56
 70
     1
102
RTVSPropertyOp57
 70
     1
102
RTVSPropertyOp58
 70
     1
102
RTVSPropertyOp59
 70
     1
102
RTVSPropertyOp60
 70
     1
102
RTVSPropertyOp61
 70
     1
102
RTVSPropertyOp62
 70
     1
  0
XRECORD
  5
3B29
102
{ACAD_REACTORS
330
3B28
102
}
330
3B28
100
AcDbXrecord
280
     1
102
RTVSPost2010Prop28
280
     0
102
RTVSPost2010PropOp28
 70
     1
102
RTVSPost2010Prop29
280
     1
102
RTVSPost2010PropOp29
 70
     1
102
RTVSPost2010Prop30
280
     1
102
RTVSPost2010PropOp30
 70
     1
102
RTVSPost2010Prop31
280
     0
102
RTVSPost2010PropOp31
 70
     1
102
RTVSPost2010Prop32
280
     0
102
RTVSPost2010PropOp32
 70
     1
102
RTVSPost2010Prop33
280
     0
102
RTVSPost2010PropOp33
 70
     1
102
RTVSPost2010Prop34
280
     0
102
RTVSPost2010PropOp34
 70
     1
102
RTVSPost2010Prop35
280
     0
102
RTVSPost2010PropOp35
 70
     1
102
RTVSPost2010Prop36
280
     0
102
RTVSPost2010PropOp36
 70
     1
102
RTVSPost2010Prop37
 90
       50
102
RTVSPost2010PropOp37
 70
     1
102
RTVSPost2010Prop38
140
0.0
102
RTVSPost2010PropOp38
 70
     1
102
RTVSPost2010Prop39
140
1.0
102
RTVSPost2010PropOp39
 70
     1
102
RTVSPost2010Prop40
 90
        0
102
RTVSPost2010PropOp40
 70
     1
102
RTVSPost2010Prop41ColorIndex
 90
       18
102
RTVSPost2010Prop41ColorRGB
 90
        0
102
RTVSPost2010PropOp41
 70
     1
102
RTVSPost2010Prop42
 90
       50
102
RTVSPost2010PropOp42
 70
     1
102
RTVSPost2010Prop43
 90
        3
102
RTVSPost2010PropOp43
 70
     1
102
RTVSPost2010Prop44ColorIndex
 90
        5
102
RTVSPost2010Prop44ColorRGB
 90
      255
102
RTVSPost2010PropOp44
 70
     1
102
RTVSPost2010Prop45
280
     0
102
RTVSPost2010PropOp45
 70
     1
102
RTVSPost2010Prop46
 90
       50
102
RTVSPost2010PropOp46
 70
     1
102
RTVSPost2010Prop47
 90
       50
102
RTVSPost2010PropOp47
 70
     1
102
RTVSPost2010Prop48
 90
       50
102
RTVSPost2010PropOp48
 70
     1
102
RTVSPost2010Prop49
280
     0
102
RTVSPost2010PropOp49
 70
     1
102
RTVSPost2010Prop50
 90
       50
102
RTVSPost2010PropOp50
 70
     1
102
RTVSPost2010Prop51ColorIndex
 90
      256
102
RTVSPost2010Prop51ColorRGB
 90
-16777216
102
RTVSPost2010PropOp51
 70
     0
102
RTVSPost2010Prop52
140
1.0
102
RTVSPost2010PropOp52
 70
     0
102
RTVSPost2010Prop53
 90
        2
102
RTVSPost2010PropOp53
 70
     1
102
RTVSPost2010Prop54
  1
strokes_ogs.tif
102
RTVSPost2010PropOp54
 70
     1
102
RTVSPost2010Prop55
280
     0
102
RTVSPost2010PropOp55
 70
     1
102
RTVSPost2010Prop56
140
1.0
102
RTVSPost2010PropOp56
 70
     1
102
RTVSPost2010Prop57
140
1.0
102
RTVSPost2010PropOp57
 70
     1
102
RTVSPropertyOp0
 70
     1
102
RTVSPropertyOp1
 70
     1
102
RTVSPropertyOp2
 70
     1
102
RTVSPropertyOp3
 70
     1
102
RTVSPropertyOp4
 70
     1
102
RTVSPropertyOp5
 70
     1
102
RTVSPropertyOp6
 70
     1
102
RTVSPropertyOp7
 70
     1
102
RTVSPropertyOp8
 70
     1
102
RTVSPropertyOp9
 70
     1
102
RTVSPropertyOp10
 70
     1
102
RTVSPropertyOp11
 70
     1
102
RTVSPropertyOp12
 70
     1
102
RTVSPropertyOp13
 70
     1
102
RTVSPropertyOp14
 70
     1
102
RTVSPropertyOp15
 70
     1
102
RTVSPropertyOp16
 70
     1
102
RTVSPropertyOp17
 70
     1
102
RTVSPropertyOp18
 70
     1
102
RTVSPropertyOp19
 70
     1
102
RTVSPropertyOp20
 70
     1
102
RTVSPropertyOp21
 70
     1
102
RTVSPropertyOp22
 70
     1
102
RTVSPropertyOp23
 70
     1
102
RTVSPropertyOp24
 70
     1
102
RTVSPropertyOp25
 70
     1
102
RTVSPropertyOp26
 70
     1
102
RTVSPropertyOp27
 70
     1
102
RTVSPropertyOp28
 70
     1
102
RTVSPropertyOp29
 70
     1
102
RTVSPropertyOp30
 70
     1
102
RTVSPropertyOp31
 70
     1
102
RTVSPropertyOp32
 70
     1
102
RTVSPropertyOp33
 70
     1
102
RTVSPropertyOp34
 70
     1
102
RTVSPropertyOp35
 70
     1
102
RTVSPropertyOp36
 70
     1
102
RTVSPropertyOp37
 70
     1
102
RTVSPropertyOp38
 70
     1
102
RTVSPropertyOp39
 70
     1
102
RTVSPropertyOp40
 70
     1
102
RTVSPropertyOp41
 70
     1
102
RTVSPropertyOp42
 70
     1
102
RTVSPropertyOp43
 70
     1
102
RTVSPropertyOp44
 70
     1
102
RTVSPropertyOp45
 70
     1
102
RTVSPropertyOp46
 70
     1
102
RTVSPropertyOp47
 70
     1
102
RTVSPropertyOp48
 70
     1
102
RTVSPropertyOp49
 70
     1
102
RTVSPropertyOp50
 70
     1
102
RTVSPropertyOp51
 70
     0
102
RTVSPropertyOp52
 70
     0
102
RTVSPropertyOp53
 70
     1
102
RTVSPropertyOp54
 70
     1
102
RTVSPropertyOp55
 70
     1
102
RTVSPropertyOp56
 70
     1
102
RTVSPropertyOp57
 70
     1
102
RTVSPropertyOp58
 70
     1
102
RTVSPropertyOp59
 70
     1
102
RTVSPropertyOp60
 70
     1
102
RTVSPropertyOp61
 70
     1
102
RTVSPropertyOp62
 70
     1
  0
XRECORD
  5
3B2B
102
{ACAD_REACTORS
330
3B2A
102
}
330
3B2A
100
AcDbXrecord
280
     1
102
RTVSPost2010Prop28
280
     0
102
RTVSPost2010PropOp28
 70
     1
102
RTVSPost2010Prop29
280
     1
102
RTVSPost2010PropOp29
 70
     1
102
RTVSPost2010Prop30
280
     1
102
RTVSPost2010PropOp30
 70
     1
102
RTVSPost2010Prop31
280
     0
102
RTVSPost2010PropOp31
 70
     1
102
RTVSPost2010Prop32
280
     0
102
RTVSPost2010PropOp32
 70
     1
102
RTVSPost2010Prop33
280
     0
102
RTVSPost2010PropOp33
 70
     1
102
RTVSPost2010Prop34
280
     0
102
RTVSPost2010PropOp34
 70
     1
102
RTVSPost2010Prop35
280
     0
102
RTVSPost2010PropOp35
 70
     1
102
RTVSPost2010Prop36
280
     0
102
RTVSPost2010PropOp36
 70
     1
102
RTVSPost2010Prop37
 90
       50
102
RTVSPost2010PropOp37
 70
     1
102
RTVSPost2010Prop38
140
0.0
102
RTVSPost2010PropOp38
 70
     1
102
RTVSPost2010Prop39
140
1.0
102
RTVSPost2010PropOp39
 70
     1
102
RTVSPost2010Prop40
 90
        0
102
RTVSPost2010PropOp40
 70
     1
102
RTVSPost2010Prop41ColorIndex
 90
       18
102
RTVSPost2010Prop41ColorRGB
 90
        0
102
RTVSPost2010PropOp41
 70
     1
102
RTVSPost2010Prop42
 90
       50
102
RTVSPost2010PropOp42
 70
     1
102
RTVSPost2010Prop43
 90
        3
102
RTVSPost2010PropOp43
 70
     1
102
RTVSPost2010Prop44ColorIndex
 90
        5
102
RTVSPost2010Prop44ColorRGB
 90
      255
102
RTVSPost2010PropOp44
 70
     1
102
RTVSPost2010Prop45
280
     0
102
RTVSPost2010PropOp45
 70
     1
102
RTVSPost2010Prop46
 90
       50
102
RTVSPost2010PropOp46
 70
     1
102
RTVSPost2010Prop47
 90
       50
102
RTVSPost2010PropOp47
 70
     1
102
RTVSPost2010Prop48
 90
       50
102
RTVSPost2010PropOp48
 70
     1
102
RTVSPost2010Prop49
280
     0
102
RTVSPost2010PropOp49
 70
     1
102
RTVSPost2010Prop50
 90
       50
102
RTVSPost2010PropOp50
 70
     1
102
RTVSPost2010Prop51ColorIndex
 90
      256
102
RTVSPost2010Prop51ColorRGB
 90
-16777216
102
RTVSPost2010PropOp51
 70
     0
102
RTVSPost2010Prop52
140
1.0
102
RTVSPost2010PropOp52
 70
     0
102
RTVSPost2010Prop53
 90
        2
102
RTVSPost2010PropOp53
 70
     1
102
RTVSPost2010Prop54
  1
strokes_ogs.tif
102
RTVSPost2010PropOp54
 70
     1
102
RTVSPost2010Prop55
280
     0
102
RTVSPost2010PropOp55
 70
     1
102
RTVSPost2010Prop56
140
1.0
102
RTVSPost2010PropOp56
 70
     1
102
RTVSPost2010Prop57
140
1.0
102
RTVSPost2010PropOp57
 70
     1
102
RTVSPropertyOp0
 70
     1
102
RTVSPropertyOp1
 70
     1
102
RTVSPropertyOp2
 70
     1
102
RTVSPropertyOp3
 70
     1
102
RTVSPropertyOp4
 70
     1
102
RTVSPropertyOp5
 70
     1
102
RTVSPropertyOp6
 70
     1
102
RTVSPropertyOp7
 70
     1
102
RTVSPropertyOp8
 70
     1
102
RTVSPropertyOp9
 70
     1
102
RTVSPropertyOp10
 70
     1
102
RTVSPropertyOp11
 70
     1
102
RTVSPropertyOp12
 70
     1
102
RTVSPropertyOp13
 70
     1
102
RTVSPropertyOp14
 70
     1
102
RTVSPropertyOp15
 70
     1
102
RTVSPropertyOp16
 70
     1
102
RTVSPropertyOp17
 70
     1
102
RTVSPropertyOp18
 70
     1
102
RTVSPropertyOp19
 70
     1
102
RTVSPropertyOp20
 70
     1
102
RTVSPropertyOp21
 70
     1
102
RTVSPropertyOp22
 70
     1
102
RTVSPropertyOp23
 70
     1
102
RTVSPropertyOp24
 70
     1
102
RTVSPropertyOp25
 70
     1
102
RTVSPropertyOp26
 70
     1
102
RTVSPropertyOp27
 70
     1
102
RTVSPropertyOp28
 70
     1
102
RTVSPropertyOp29
 70
     1
102
RTVSPropertyOp30
 70
     1
102
RTVSPropertyOp31
 70
     1
102
RTVSPropertyOp32
 70
     1
102
RTVSPropertyOp33
 70
     1
102
RTVSPropertyOp34
 70
     1
102
RTVSPropertyOp35
 70
     1
102
RTVSPropertyOp36
 70
     1
102
RTVSPropertyOp37
 70
     1
102
RTVSPropertyOp38
 70
     1
102
RTVSPropertyOp39
 70
     1
102
RTVSPropertyOp40
 70
     1
102
RTVSPropertyOp41
 70
     1
102
RTVSPropertyOp42
 70
     1
102
RTVSPropertyOp43
 70
     1
102
RTVSPropertyOp44
 70
     1
102
RTVSPropertyOp45
 70
     1
102
RTVSPropertyOp46
 70
     1
102
RTVSPropertyOp47
 70
     1
102
RTVSPropertyOp48
 70
     1
102
RTVSPropertyOp49
 70
     1
102
RTVSPropertyOp50
 70
     1
102
RTVSPropertyOp51
 70
     0
102
RTVSPropertyOp52
 70
     0
102
RTVSPropertyOp53
 70
     1
102
RTVSPropertyOp54
 70
     1
102
RTVSPropertyOp55
 70
     1
102
RTVSPropertyOp56
 70
     1
102
RTVSPropertyOp57
 70
     1
102
RTVSPropertyOp58
 70
     1
102
RTVSPropertyOp59
 70
     1
102
RTVSPropertyOp60
 70
     1
102
RTVSPropertyOp61
 70
     1
102
RTVSPropertyOp62
 70
     1
  0
XRECORD
  5
3B2D
102
{ACAD_REACTORS
330
3B2C
102
}
330
3B2C
100
AcDbXrecord
280
     1
102
RTVSPost2010Prop28
280
     0
102
RTVSPost2010PropOp28
 70
     1
102
RTVSPost2010Prop29
280
     1
102
RTVSPost2010PropOp29
 70
     1
102
RTVSPost2010Prop30
280
     1
102
RTVSPost2010PropOp30
 70
     1
102
RTVSPost2010Prop31
280
     0
102
RTVSPost2010PropOp31
 70
     1
102
RTVSPost2010Prop32
280
     0
102
RTVSPost2010PropOp32
 70
     1
102
RTVSPost2010Prop33
280
     0
102
RTVSPost2010PropOp33
 70
     1
102
RTVSPost2010Prop34
280
     0
102
RTVSPost2010PropOp34
 70
     1
102
RTVSPost2010Prop35
280
     0
102
RTVSPost2010PropOp35
 70
     1
102
RTVSPost2010Prop36
280
     0
102
RTVSPost2010PropOp36
 70
     1
102
RTVSPost2010Prop37
 90
       50
102
RTVSPost2010PropOp37
 70
     1
102
RTVSPost2010Prop38
140
0.0
102
RTVSPost2010PropOp38
 70
     1
102
RTVSPost2010Prop39
140
1.0
102
RTVSPost2010PropOp39
 70
     1
102
RTVSPost2010Prop40
 90
        0
102
RTVSPost2010PropOp40
 70
     1
102
RTVSPost2010Prop41ColorIndex
 90
       18
102
RTVSPost2010Prop41ColorRGB
 90
        0
102
RTVSPost2010PropOp41
 70
     1
102
RTVSPost2010Prop42
 90
       50
102
RTVSPost2010PropOp42
 70
     1
102
RTVSPost2010Prop43
 90
        3
102
RTVSPost2010PropOp43
 70
     1
102
RTVSPost2010Prop44ColorIndex
 90
        5
102
RTVSPost2010Prop44ColorRGB
 90
      255
102
RTVSPost2010PropOp44
 70
     1
102
RTVSPost2010Prop45
280
     0
102
RTVSPost2010PropOp45
 70
     1
102
RTVSPost2010Prop46
 90
       50
102
RTVSPost2010PropOp46
 70
     1
102
RTVSPost2010Prop47
 90
       50
102
RTVSPost2010PropOp47
 70
     1
102
RTVSPost2010Prop48
 90
       50
102
RTVSPost2010PropOp48
 70
     1
102
RTVSPost2010Prop49
280
     0
102
RTVSPost2010PropOp49
 70
     1
102
RTVSPost2010Prop50
 90
       50
102
RTVSPost2010PropOp50
 70
     1
102
RTVSPost2010Prop51ColorIndex
 90
      256
102
RTVSPost2010Prop51ColorRGB
 90
-16777216
102
RTVSPost2010PropOp51
 70
     0
102
RTVSPost2010Prop52
140
1.0
102
RTVSPost2010PropOp52
 70
     0
102
RTVSPost2010Prop53
 90
        2
102
RTVSPost2010PropOp53
 70
     1
102
RTVSPost2010Prop54
  1
strokes_ogs.tif
102
RTVSPost2010PropOp54
 70
     1
102
RTVSPost2010Prop55
280
     0
102
RTVSPost2010PropOp55
 70
     1
102
RTVSPost2010Prop56
140
1.0
102
RTVSPost2010PropOp56
 70
     1
102
RTVSPost2010Prop57
140
1.0
102
RTVSPost2010PropOp57
 70
     1
102
RTVSPropertyOp0
 70
     1
102
RTVSPropertyOp1
 70
     1
102
RTVSPropertyOp2
 70
     1
102
RTVSPropertyOp3
 70
     1
102
RTVSPropertyOp4
 70
     1
102
RTVSPropertyOp5
 70
     1
102
RTVSPropertyOp6
 70
     1
102
RTVSPropertyOp7
 70
     1
102
RTVSPropertyOp8
 70
     1
102
RTVSPropertyOp9
 70
     1
102
RTVSPropertyOp10
 70
     1
102
RTVSPropertyOp11
 70
     1
102
RTVSPropertyOp12
 70
     1
102
RTVSPropertyOp13
 70
     1
102
RTVSPropertyOp14
 70
     1
102
RTVSPropertyOp15
 70
     1
102
RTVSPropertyOp16
 70
     1
102
RTVSPropertyOp17
 70
     1
102
RTVSPropertyOp18
 70
     1
102
RTVSPropertyOp19
 70
     1
102
RTVSPropertyOp20
 70
     1
102
RTVSPropertyOp21
 70
     1
102
RTVSPropertyOp22
 70
     1
102
RTVSPropertyOp23
 70
     1
102
RTVSPropertyOp24
 70
     1
102
RTVSPropertyOp25
 70
     1
102
RTVSPropertyOp26
 70
     1
102
RTVSPropertyOp27
 70
     1
102
RTVSPropertyOp28
 70
     1
102
RTVSPropertyOp29
 70
     1
102
RTVSPropertyOp30
 70
     1
102
RTVSPropertyOp31
 70
     1
102
RTVSPropertyOp32
 70
     1
102
RTVSPropertyOp33
 70
     1
102
RTVSPropertyOp34
 70
     1
102
RTVSPropertyOp35
 70
     1
102
RTVSPropertyOp36
 70
     1
102
RTVSPropertyOp37
 70
     1
102
RTVSPropertyOp38
 70
     1
102
RTVSPropertyOp39
 70
     1
102
RTVSPropertyOp40
 70
     1
102
RTVSPropertyOp41
 70
     1
102
RTVSPropertyOp42
 70
     1
102
RTVSPropertyOp43
 70
     1
102
RTVSPropertyOp44
 70
     1
102
RTVSPropertyOp45
 70
     1
102
RTVSPropertyOp46
 70
     1
102
RTVSPropertyOp47
 70
     1
102
RTVSPropertyOp48
 70
     1
102
RTVSPropertyOp49
 70
     1
102
RTVSPropertyOp50
 70
     1
102
RTVSPropertyOp51
 70
     0
102
RTVSPropertyOp52
 70
     0
102
RTVSPropertyOp53
 70
     1
102
RTVSPropertyOp54
 70
     1
102
RTVSPropertyOp55
 70
     1
102
RTVSPropertyOp56
 70
     1
102
RTVSPropertyOp57
 70
     1
102
RTVSPropertyOp58
 70
     1
102
RTVSPropertyOp59
 70
     1
102
RTVSPropertyOp60
 70
     1
102
RTVSPropertyOp61
 70
     1
102
RTVSPropertyOp62
 70
     1
  0
XRECORD
  5
3B35
102
{ACAD_REACTORS
330
3B34
102
}
330
3B34
100
AcDbXrecord
280
     1
102
RTVSPost2010Prop28
280
     0
102
RTVSPost2010PropOp28
 70
     1
102
RTVSPost2010Prop29
280
     1
102
RTVSPost2010PropOp29
 70
     1
102
RTVSPost2010Prop30
280
     1
102
RTVSPost2010PropOp30
 70
     1
102
RTVSPost2010Prop31
280
     0
102
RTVSPost2010PropOp31
 70
     1
102
RTVSPost2010Prop32
280
     0
102
RTVSPost2010PropOp32
 70
     1
102
RTVSPost2010Prop33
280
     0
102
RTVSPost2010PropOp33
 70
     1
102
RTVSPost2010Prop34
280
     0
102
RTVSPost2010PropOp34
 70
     1
102
RTVSPost2010Prop35
280
     0
102
RTVSPost2010PropOp35
 70
     1
102
RTVSPost2010Prop36
280
     0
102
RTVSPost2010PropOp36
 70
     1
102
RTVSPost2010Prop37
 90
       50
102
RTVSPost2010PropOp37
 70
     1
102
RTVSPost2010Prop38
140
0.0
102
RTVSPost2010PropOp38
 70
     1
102
RTVSPost2010Prop39
140
1.0
102
RTVSPost2010PropOp39
 70
     1
102
RTVSPost2010Prop40
 90
        0
102
RTVSPost2010PropOp40
 70
     1
102
RTVSPost2010Prop41ColorIndex
 90
       18
102
RTVSPost2010Prop41ColorRGB
 90
        0
102
RTVSPost2010PropOp41
 70
     1
102
RTVSPost2010Prop42
 90
       50
102
RTVSPost2010PropOp42
 70
     1
102
RTVSPost2010Prop43
 90
        3
102
RTVSPost2010PropOp43
 70
     1
102
RTVSPost2010Prop44ColorIndex
 90
        5
102
RTVSPost2010Prop44ColorRGB
 90
      255
102
RTVSPost2010PropOp44
 70
     1
102
RTVSPost2010Prop45
280
     0
102
RTVSPost2010PropOp45
 70
     1
102
RTVSPost2010Prop46
 90
       50
102
RTVSPost2010PropOp46
 70
     1
102
RTVSPost2010Prop47
 90
       50
102
RTVSPost2010PropOp47
 70
     1
102
RTVSPost2010Prop48
 90
       50
102
RTVSPost2010PropOp48
 70
     1
102
RTVSPost2010Prop49
280
     0
102
RTVSPost2010PropOp49
 70
     1
102
RTVSPost2010Prop50
 90
       50
102
RTVSPost2010PropOp50
 70
     1
102
RTVSPost2010Prop51ColorIndex
 90
      256
102
RTVSPost2010Prop51ColorRGB
 90
-16777216
102
RTVSPost2010PropOp51
 70
     0
102
RTVSPost2010Prop52
140
1.0
102
RTVSPost2010PropOp52
 70
     0
102
RTVSPost2010Prop53
 90
        2
102
RTVSPost2010PropOp53
 70
     1
102
RTVSPost2010Prop54
  1
strokes_ogs.tif
102
RTVSPost2010PropOp54
 70
     1
102
RTVSPost2010Prop55
280
     0
102
RTVSPost2010PropOp55
 70
     1
102
RTVSPost2010Prop56
140
1.0
102
RTVSPost2010PropOp56
 70
     1
102
RTVSPost2010Prop57
140
1.0
102
RTVSPost2010PropOp57
 70
     1
102
RTVSPropertyOp0
 70
     1
102
RTVSPropertyOp1
 70
     1
102
RTVSPropertyOp2
 70
     1
102
RTVSPropertyOp3
 70
     1
102
RTVSPropertyOp4
 70
     1
102
RTVSPropertyOp5
 70
     1
102
RTVSPropertyOp6
 70
     1
102
RTVSPropertyOp7
 70
     1
102
RTVSPropertyOp8
 70
     1
102
RTVSPropertyOp9
 70
     1
102
RTVSPropertyOp10
 70
     1
102
RTVSPropertyOp11
 70
     1
102
RTVSPropertyOp12
 70
     1
102
RTVSPropertyOp13
 70
     1
102
RTVSPropertyOp14
 70
     1
102
RTVSPropertyOp15
 70
     1
102
RTVSPropertyOp16
 70
     1
102
RTVSPropertyOp17
 70
     1
102
RTVSPropertyOp18
 70
     1
102
RTVSPropertyOp19
 70
     1
102
RTVSPropertyOp20
 70
     1
102
RTVSPropertyOp21
 70
     1
102
RTVSPropertyOp22
 70
     1
102
RTVSPropertyOp23
 70
     1
102
RTVSPropertyOp24
 70
     1
102
RTVSPropertyOp25
 70
     1
102
RTVSPropertyOp26
 70
     1
102
RTVSPropertyOp27
 70
     1
102
RTVSPropertyOp28
 70
     1
102
RTVSPropertyOp29
 70
     1
102
RTVSPropertyOp30
 70
     1
102
RTVSPropertyOp31
 70
     1
102
RTVSPropertyOp32
 70
     1
102
RTVSPropertyOp33
 70
     1
102
RTVSPropertyOp34
 70
     1
102
RTVSPropertyOp35
 70
     1
102
RTVSPropertyOp36
 70
     1
102
RTVSPropertyOp37
 70
     1
102
RTVSPropertyOp38
 70
     1
102
RTVSPropertyOp39
 70
     1
102
RTVSPropertyOp40
 70
     1
102
RTVSPropertyOp41
 70
     1
102
RTVSPropertyOp42
 70
     1
102
RTVSPropertyOp43
 70
     1
102
RTVSPropertyOp44
 70
     1
102
RTVSPropertyOp45
 70
     1
102
RTVSPropertyOp46
 70
     1
102
RTVSPropertyOp47
 70
     1
102
RTVSPropertyOp48
 70
     1
102
RTVSPropertyOp49
 70
     1
102
RTVSPropertyOp50
 70
     1
102
RTVSPropertyOp51
 70
     0
102
RTVSPropertyOp52
 70
     0
102
RTVSPropertyOp53
 70
     1
102
RTVSPropertyOp54
 70
     1
102
RTVSPropertyOp55
 70
     1
102
RTVSPropertyOp56
 70
     1
102
RTVSPropertyOp57
 70
     1
102
RTVSPropertyOp58
 70
     1
102
RTVSPropertyOp59
 70
     1
102
RTVSPropertyOp60
 70
     1
102
RTVSPropertyOp61
 70
     1
102
RTVSPropertyOp62
 70
     1
  0
XRECORD
  5
3B51
102
{ACAD_REACTORS
330
3B50
102
}
330
3B50
100
AcDbXrecord
280
     1
102
RTVSPost2010Prop28
280
     0
102
RTVSPost2010PropOp28
 70
     1
102
RTVSPost2010Prop29
280
     1
102
RTVSPost2010PropOp29
 70
     1
102
RTVSPost2010Prop30
280
     1
102
RTVSPost2010PropOp30
 70
     1
102
RTVSPost2010Prop31
280
     0
102
RTVSPost2010PropOp31
 70
     1
102
RTVSPost2010Prop32
280
     0
102
RTVSPost2010PropOp32
 70
     1
102
RTVSPost2010Prop33
280
     0
102
RTVSPost2010PropOp33
 70
     1
102
RTVSPost2010Prop34
280
     0
102
RTVSPost2010PropOp34
 70
     1
102
RTVSPost2010Prop35
280
     0
102
RTVSPost2010PropOp35
 70
     1
102
RTVSPost2010Prop36
280
     0
102
RTVSPost2010PropOp36
 70
     1
102
RTVSPost2010Prop37
 90
       50
102
RTVSPost2010PropOp37
 70
     0
102
RTVSPost2010Prop38
140
0.0
102
RTVSPost2010PropOp38
 70
     0
102
RTVSPost2010Prop39
140
1.0
102
RTVSPost2010PropOp39
 70
     0
102
RTVSPost2010Prop40
 90
        0
102
RTVSPost2010PropOp40
 70
     0
102
RTVSPost2010Prop41ColorIndex
 90
       18
102
RTVSPost2010Prop41ColorRGB
 90
        0
102
RTVSPost2010PropOp41
 70
     0
102
RTVSPost2010Prop42
 90
       50
102
RTVSPost2010PropOp42
 70
     0
102
RTVSPost2010Prop43
 90
        3
102
RTVSPost2010PropOp43
 70
     0
102
RTVSPost2010Prop44ColorIndex
 90
        5
102
RTVSPost2010Prop44ColorRGB
 90
      255
102
RTVSPost2010PropOp44
 70
     0
102
RTVSPost2010Prop45
280
     0
102
RTVSPost2010PropOp45
 70
     1
102
RTVSPost2010Prop46
 90
       50
102
RTVSPost2010PropOp46
 70
     0
102
RTVSPost2010Prop47
 90
       50
102
RTVSPost2010PropOp47
 70
     0
102
RTVSPost2010Prop48
 90
       50
102
RTVSPost2010PropOp48
 70
     0
102
RTVSPost2010Prop49
280
     0
102
RTVSPost2010PropOp49
 70
     1
102
RTVSPost2010Prop50
 90
       50
102
RTVSPost2010PropOp50
 70
     0
102
RTVSPost2010Prop51ColorIndex
 90
      256
102
RTVSPost2010Prop51ColorRGB
 90
-16777216
102
RTVSPost2010PropOp51
 70
     0
102
RTVSPost2010Prop52
140
1.0
102
RTVSPost2010PropOp52
 70
     0
102
RTVSPost2010Prop53
 90
        2
102
RTVSPost2010PropOp53
 70
     0
102
RTVSPost2010Prop54
  1
strokes_ogs.tif
102
RTVSPost2010PropOp54
 70
     0
102
RTVSPost2010Prop55
280
     0
102
RTVSPost2010PropOp55
 70
     1
102
RTVSPost2010Prop56
140
1.0
102
RTVSPost2010PropOp56
 70
     0
102
RTVSPost2010Prop57
140
1.0
102
RTVSPost2010PropOp57
 70
     0
102
RTVSPropertyOp0
 70
     0
102
RTVSPropertyOp1
 70
     0
102
RTVSPropertyOp2
 70
     0
102
RTVSPropertyOp3
 70
     0
102
RTVSPropertyOp4
 70
     0
102
RTVSPropertyOp5
 70
     0
102
RTVSPropertyOp6
 70
     0
102
RTVSPropertyOp7
 70
     0
102
RTVSPropertyOp8
 70
     0
102
RTVSPropertyOp9
 70
     0
102
RTVSPropertyOp10
 70
     0
102
RTVSPropertyOp11
 70
     0
102
RTVSPropertyOp12
 70
     0
102
RTVSPropertyOp13
 70
     0
102
RTVSPropertyOp14
 70
     2
102
RTVSPropertyOp15
 70
     0
102
RTVSPropertyOp16
 70
     0
102
RTVSPropertyOp17
 70
     0
102
RTVSPropertyOp18
 70
     0
102
RTVSPropertyOp19
 70
     0
102
RTVSPropertyOp20
 70
     0
102
RTVSPropertyOp21
 70
     0
102
RTVSPropertyOp22
 70
     0
102
RTVSPropertyOp23
 70
     0
102
RTVSPropertyOp24
 70
     0
102
RTVSPropertyOp25
 70
     0
102
RTVSPropertyOp26
 70
     0
102
RTVSPropertyOp27
 70
     0
102
RTVSPropertyOp28
 70
     1
102
RTVSPropertyOp29
 70
     1
102
RTVSPropertyOp30
 70
     1
102
RTVSPropertyOp31
 70
     1
102
RTVSPropertyOp32
 70
     1
102
RTVSPropertyOp33
 70
     1
102
RTVSPropertyOp34
 70
     1
102
RTVSPropertyOp35
 70
     1
102
RTVSPropertyOp36
 70
     1
102
RTVSPropertyOp37
 70
     0
102
RTVSPropertyOp38
 70
     0
102
RTVSPropertyOp39
 70
     0
102
RTVSPropertyOp40
 70
     0
102
RTVSPropertyOp41
 70
     0
102
RTVSPropertyOp42
 70
     0
102
RTVSPropertyOp43
 70
     0
102
RTVSPropertyOp44
 70
     0
102
RTVSPropertyOp45
 70
     1
102
RTVSPropertyOp46
 70
     0
102
RTVSPropertyOp47
 70
     0
102
RTVSPropertyOp48
 70
     0
102
RTVSPropertyOp49
 70
     1
102
RTVSPropertyOp50
 70
     0
102
RTVSPropertyOp51
 70
     0
102
RTVSPropertyOp52
 70
     0
102
RTVSPropertyOp53
 70
     0
102
RTVSPropertyOp54
 70
     0
102
RTVSPropertyOp55
 70
     1
102
RTVSPropertyOp56
 70
     0
102
RTVSPropertyOp57
 70
     0
102
RTVSPropertyOp58
 70
     0
102
RTVSPropertyOp59
 70
     0
102
RTVSPropertyOp60
 70
     0
102
RTVSPropertyOp61
 70
     0
102
RTVSPropertyOp62
 70
     0
  0
XRECORD
  5
3B41
102
{ACAD_REACTORS
330
3B40
102
}
330
3B40
100
AcDbXrecord
280
     1
102
RTVSPost2010Prop28
280
     0
102
RTVSPost2010PropOp28
 70
     1
102
RTVSPost2010Prop29
280
     1
102
RTVSPost2010PropOp29
 70
     1
102
RTVSPost2010Prop30
280
     1
102
RTVSPost2010PropOp30
 70
     1
102
RTVSPost2010Prop31
280
     0
102
RTVSPost2010PropOp31
 70
     1
102
RTVSPost2010Prop32
280
     0
102
RTVSPost2010PropOp32
 70
     1
102
RTVSPost2010Prop33
280
     0
102
RTVSPost2010PropOp33
 70
     1
102
RTVSPost2010Prop34
280
     0
102
RTVSPost2010PropOp34
 70
     1
102
RTVSPost2010Prop35
280
     0
102
RTVSPost2010PropOp35
 70
     1
102
RTVSPost2010Prop36
280
     0
102
RTVSPost2010PropOp36
 70
     1
102
RTVSPost2010Prop37
 90
       50
102
RTVSPost2010PropOp37
 70
     1
102
RTVSPost2010Prop38
140
0.0
102
RTVSPost2010PropOp38
 70
     1
102
RTVSPost2010Prop39
140
1.0
102
RTVSPost2010PropOp39
 70
     1
102
RTVSPost2010Prop40
 90
        0
102
RTVSPost2010PropOp40
 70
     1
102
RTVSPost2010Prop41ColorIndex
 90
       18
102
RTVSPost2010Prop41ColorRGB
 90
        0
102
RTVSPost2010PropOp41
 70
     1
102
RTVSPost2010Prop42
 90
       50
102
RTVSPost2010PropOp42
 70
     1
102
RTVSPost2010Prop43
 90
        3
102
RTVSPost2010PropOp43
 70
     1
102
RTVSPost2010Prop44ColorIndex
 90
        5
102
RTVSPost2010Prop44ColorRGB
 90
      255
102
RTVSPost2010PropOp44
 70
     1
102
RTVSPost2010Prop45
280
     0
102
RTVSPost2010PropOp45
 70
     1
102
RTVSPost2010Prop46
 90
       50
102
RTVSPost2010PropOp46
 70
     1
102
RTVSPost2010Prop47
 90
       50
102
RTVSPost2010PropOp47
 70
     1
102
RTVSPost2010Prop48
 90
       50
102
RTVSPost2010PropOp48
 70
     1
102
RTVSPost2010Prop49
280
     0
102
RTVSPost2010PropOp49
 70
     1
102
RTVSPost2010Prop50
 90
       50
102
RTVSPost2010PropOp50
 70
     1
102
RTVSPost2010Prop51ColorIndex
 90
      256
102
RTVSPost2010Prop51ColorRGB
 90
-16777216
102
RTVSPost2010PropOp51
 70
     0
102
RTVSPost2010Prop52
140
1.0
102
RTVSPost2010PropOp52
 70
     0
102
RTVSPost2010Prop53
 90
        2
102
RTVSPost2010PropOp53
 70
     1
102
RTVSPost2010Prop54
  1
strokes_ogs.tif
102
RTVSPost2010PropOp54
 70
     1
102
RTVSPost2010Prop55
280
     0
102
RTVSPost2010PropOp55
 70
     1
102
RTVSPost2010Prop56
140
1.0
102
RTVSPost2010PropOp56
 70
     1
102
RTVSPost2010Prop57
140
1.0
102
RTVSPost2010PropOp57
 70
     1
102
RTVSPropertyOp0
 70
     1
102
RTVSPropertyOp1
 70
     1
102
RTVSPropertyOp2
 70
     1
102
RTVSPropertyOp3
 70
     1
102
RTVSPropertyOp4
 70
     1
102
RTVSPropertyOp5
 70
     1
102
RTVSPropertyOp6
 70
     1
102
RTVSPropertyOp7
 70
     1
102
RTVSPropertyOp8
 70
     1
102
RTVSPropertyOp9
 70
     1
102
RTVSPropertyOp10
 70
     1
102
RTVSPropertyOp11
 70
     1
102
RTVSPropertyOp12
 70
     1
102
RTVSPropertyOp13
 70
     1
102
RTVSPropertyOp14
 70
     1
102
RTVSPropertyOp15
 70
     1
102
RTVSPropertyOp16
 70
     1
102
RTVSPropertyOp17
 70
     1
102
RTVSPropertyOp18
 70
     1
102
RTVSPropertyOp19
 70
     1
102
RTVSPropertyOp20
 70
     1
102
RTVSPropertyOp21
 70
     1
102
RTVSPropertyOp22
 70
     1
102
RTVSPropertyOp23
 70
     1
102
RTVSPropertyOp24
 70
     1
102
RTVSPropertyOp25
 70
     1
102
RTVSPropertyOp26
 70
     1
102
RTVSPropertyOp27
 70
     1
102
RTVSPropertyOp28
 70
     1
102
RTVSPropertyOp29
 70
     1
102
RTVSPropertyOp30
 70
     1
102
RTVSPropertyOp31
 70
     1
102
RTVSPropertyOp32
 70
     1
102
RTVSPropertyOp33
 70
     1
102
RTVSPropertyOp34
 70
     1
102
RTVSPropertyOp35
 70
     1
102
RTVSPropertyOp36
 70
     1
102
RTVSPropertyOp37
 70
     1
102
RTVSPropertyOp38
 70
     1
102
RTVSPropertyOp39
 70
     1
102
RTVSPropertyOp40
 70
     1
102
RTVSPropertyOp41
 70
     1
102
RTVSPropertyOp42
 70
     1
102
RTVSPropertyOp43
 70
     1
102
RTVSPropertyOp44
 70
     1
102
RTVSPropertyOp45
 70
     1
102
RTVSPropertyOp46
 70
     1
102
RTVSPropertyOp47
 70
     1
102
RTVSPropertyOp48
 70
     1
102
RTVSPropertyOp49
 70
     1
102
RTVSPropertyOp50
 70
     1
102
RTVSPropertyOp51
 70
     0
102
RTVSPropertyOp52
 70
     0
102
RTVSPropertyOp53
 70
     1
102
RTVSPropertyOp54
 70
     1
102
RTVSPropertyOp55
 70
     1
102
RTVSPropertyOp56
 70
     1
102
RTVSPropertyOp57
 70
     1
102
RTVSPropertyOp58
 70
     1
102
RTVSPropertyOp59
 70
     1
102
RTVSPropertyOp60
 70
     1
102
RTVSPropertyOp61
 70
     1
102
RTVSPropertyOp62
 70
     1
  0
XRECORD
  5
3B53
102
{ACAD_REACTORS
330
3B52
102
}
330
3B52
100
AcDbXrecord
280
     1
102
RTVSPost2010Prop28
280
     0
102
RTVSPost2010PropOp28
 70
     1
102
RTVSPost2010Prop29
280
     1
102
RTVSPost2010PropOp29
 70
     1
102
RTVSPost2010Prop30
280
     1
102
RTVSPost2010PropOp30
 70
     1
102
RTVSPost2010Prop31
280
     0
102
RTVSPost2010PropOp31
 70
     1
102
RTVSPost2010Prop32
280
     0
102
RTVSPost2010PropOp32
 70
     1
102
RTVSPost2010Prop33
280
     0
102
RTVSPost2010PropOp33
 70
     1
102
RTVSPost2010Prop34
280
     0
102
RTVSPost2010PropOp34
 70
     1
102
RTVSPost2010Prop35
280
     0
102
RTVSPost2010PropOp35
 70
     1
102
RTVSPost2010Prop36
280
     0
102
RTVSPost2010PropOp36
 70
     1
102
RTVSPost2010Prop37
 90
       50
102
RTVSPost2010PropOp37
 70
     0
102
RTVSPost2010Prop38
140
0.0
102
RTVSPost2010PropOp38
 70
     0
102
RTVSPost2010Prop39
140
1.0
102
RTVSPost2010PropOp39
 70
     0
102
RTVSPost2010Prop40
 90
        0
102
RTVSPost2010PropOp40
 70
     0
102
RTVSPost2010Prop41ColorIndex
 90
       18
102
RTVSPost2010Prop41ColorRGB
 90
        0
102
RTVSPost2010PropOp41
 70
     0
102
RTVSPost2010Prop42
 90
       50
102
RTVSPost2010PropOp42
 70
     0
102
RTVSPost2010Prop43
 90
        3
102
RTVSPost2010PropOp43
 70
     0
102
RTVSPost2010Prop44ColorIndex
 90
        5
102
RTVSPost2010Prop44ColorRGB
 90
      255
102
RTVSPost2010PropOp44
 70
     0
102
RTVSPost2010Prop45
280
     0
102
RTVSPost2010PropOp45
 70
     1
102
RTVSPost2010Prop46
 90
       50
102
RTVSPost2010PropOp46
 70
     0
102
RTVSPost2010Prop47
 90
       50
102
RTVSPost2010PropOp47
 70
     0
102
RTVSPost2010Prop48
 90
       50
102
RTVSPost2010PropOp48
 70
     0
102
RTVSPost2010Prop49
280
     0
102
RTVSPost2010PropOp49
 70
     1
102
RTVSPost2010Prop50
 90
       50
102
RTVSPost2010PropOp50
 70
     0
102
RTVSPost2010Prop51ColorIndex
 90
      256
102
RTVSPost2010Prop51ColorRGB
 90
-16777216
102
RTVSPost2010PropOp51
 70
     0
102
RTVSPost2010Prop52
140
1.0
102
RTVSPost2010PropOp52
 70
     0
102
RTVSPost2010Prop53
 90
        2
102
RTVSPost2010PropOp53
 70
     0
102
RTVSPost2010Prop54
  1
strokes_ogs.tif
102
RTVSPost2010PropOp54
 70
     0
102
RTVSPost2010Prop55
280
     0
102
RTVSPost2010PropOp55
 70
     1
102
RTVSPost2010Prop56
140
1.0
102
RTVSPost2010PropOp56
 70
     0
102
RTVSPost2010Prop57
140
1.0
102
RTVSPost2010PropOp57
 70
     0
102
RTVSPropertyOp0
 70
     0
102
RTVSPropertyOp1
 70
     0
102
RTVSPropertyOp2
 70
     0
102
RTVSPropertyOp3
 70
     0
102
RTVSPropertyOp4
 70
     0
102
RTVSPropertyOp5
 70
     0
102
RTVSPropertyOp6
 70
     0
102
RTVSPropertyOp7
 70
     0
102
RTVSPropertyOp8
 70
     0
102
RTVSPropertyOp9
 70
     0
102
RTVSPropertyOp10
 70
     0
102
RTVSPropertyOp11
 70
     0
102
RTVSPropertyOp12
 70
     0
102
RTVSPropertyOp13
 70
     0
102
RTVSPropertyOp14
 70
     2
102
RTVSPropertyOp15
 70
     0
102
RTVSPropertyOp16
 70
     0
102
RTVSPropertyOp17
 70
     0
102
RTVSPropertyOp18
 70
     0
102
RTVSPropertyOp19
 70
     0
102
RTVSPropertyOp20
 70
     0
102
RTVSPropertyOp21
 70
     0
102
RTVSPropertyOp22
 70
     0
102
RTVSPropertyOp23
 70
     0
102
RTVSPropertyOp24
 70
     0
102
RTVSPropertyOp25
 70
     0
102
RTVSPropertyOp26
 70
     0
102
RTVSPropertyOp27
 70
     0
102
RTVSPropertyOp28
 70
     1
102
RTVSPropertyOp29
 70
     1
102
RTVSPropertyOp30
 70
     1
102
RTVSPropertyOp31
 70
     1
102
RTVSPropertyOp32
 70
     1
102
RTVSPropertyOp33
 70
     1
102
RTVSPropertyOp34
 70
     1
102
RTVSPropertyOp35
 70
     1
102
RTVSPropertyOp36
 70
     1
102
RTVSPropertyOp37
 70
     0
102
RTVSPropertyOp38
 70
     0
102
RTVSPropertyOp39
 70
     0
102
RTVSPropertyOp40
 70
     0
102
RTVSPropertyOp41
 70
     0
102
RTVSPropertyOp42
 70
     0
102
RTVSPropertyOp43
 70
     0
102
RTVSPropertyOp44
 70
     0
102
RTVSPropertyOp45
 70
     1
102
RTVSPropertyOp46
 70
     0
102
RTVSPropertyOp47
 70
     0
102
RTVSPropertyOp48
 70
     0
102
RTVSPropertyOp49
 70
     1
102
RTVSPropertyOp50
 70
     0
102
RTVSPropertyOp51
 70
     0
102
RTVSPropertyOp52
 70
     0
102
RTVSPropertyOp53
 70
     0
102
RTVSPropertyOp54
 70
     0
102
RTVSPropertyOp55
 70
     1
102
RTVSPropertyOp56
 70
     0
102
RTVSPropertyOp57
 70
     0
102
RTVSPropertyOp58
 70
     0
102
RTVSPropertyOp59
 70
     0
102
RTVSPropertyOp60
 70
     0
102
RTVSPropertyOp61
 70
     0
102
RTVSPropertyOp62
 70
     0
  0
XRECORD
  5
3B39
102
{ACAD_REACTORS
330
3B38
102
}
330
3B38
100
AcDbXrecord
280
     1
102
RTVSPost2010Prop28
280
     0
102
RTVSPost2010PropOp28
 70
     1
102
RTVSPost2010Prop29
280
     1
102
RTVSPost2010PropOp29
 70
     1
102
RTVSPost2010Prop30
280
     1
102
RTVSPost2010PropOp30
 70
     1
102
RTVSPost2010Prop31
280
     0
102
RTVSPost2010PropOp31
 70
     1
102
RTVSPost2010Prop32
280
     0
102
RTVSPost2010PropOp32
 70
     1
102
RTVSPost2010Prop33
280
     0
102
RTVSPost2010PropOp33
 70
     1
102
RTVSPost2010Prop34
280
     0
102
RTVSPost2010PropOp34
 70
     1
102
RTVSPost2010Prop35
280
     0
102
RTVSPost2010PropOp35
 70
     1
102
RTVSPost2010Prop36
280
     0
102
RTVSPost2010PropOp36
 70
     1
102
RTVSPost2010Prop37
 90
       50
102
RTVSPost2010PropOp37
 70
     1
102
RTVSPost2010Prop38
140
0.0
102
RTVSPost2010PropOp38
 70
     1
102
RTVSPost2010Prop39
140
1.0
102
RTVSPost2010PropOp39
 70
     1
102
RTVSPost2010Prop40
 90
        0
102
RTVSPost2010PropOp40
 70
     1
102
RTVSPost2010Prop41ColorIndex
 90
       18
102
RTVSPost2010Prop41ColorRGB
 90
        0
102
RTVSPost2010PropOp41
 70
     1
102
RTVSPost2010Prop42
 90
       50
102
RTVSPost2010PropOp42
 70
     1
102
RTVSPost2010Prop43
 90
        3
102
RTVSPost2010PropOp43
 70
     1
102
RTVSPost2010Prop44ColorIndex
 90
        5
102
RTVSPost2010Prop44ColorRGB
 90
      255
102
RTVSPost2010PropOp44
 70
     1
102
RTVSPost2010Prop45
280
     0
102
RTVSPost2010PropOp45
 70
     1
102
RTVSPost2010Prop46
 90
       50
102
RTVSPost2010PropOp46
 70
     1
102
RTVSPost2010Prop47
 90
       50
102
RTVSPost2010PropOp47
 70
     1
102
RTVSPost2010Prop48
 90
       50
102
RTVSPost2010PropOp48
 70
     1
102
RTVSPost2010Prop49
280
     0
102
RTVSPost2010PropOp49
 70
     1
102
RTVSPost2010Prop50
 90
       50
102
RTVSPost2010PropOp50
 70
     1
102
RTVSPost2010Prop51ColorIndex
 90
      256
102
RTVSPost2010Prop51ColorRGB
 90
-16777216
102
RTVSPost2010PropOp51
 70
     0
102
RTVSPost2010Prop52
140
1.0
102
RTVSPost2010PropOp52
 70
     0
102
RTVSPost2010Prop53
 90
        2
102
RTVSPost2010PropOp53
 70
     1
102
RTVSPost2010Prop54
  1
strokes_ogs.tif
102
RTVSPost2010PropOp54
 70
     1
102
RTVSPost2010Prop55
280
     0
102
RTVSPost2010PropOp55
 70
     1
102
RTVSPost2010Prop56
140
1.0
102
RTVSPost2010PropOp56
 70
     1
102
RTVSPost2010Prop57
140
1.0
102
RTVSPost2010PropOp57
 70
     1
102
RTVSPropertyOp0
 70
     1
102
RTVSPropertyOp1
 70
     1
102
RTVSPropertyOp2
 70
     1
102
RTVSPropertyOp3
 70
     1
102
RTVSPropertyOp4
 70
     1
102
RTVSPropertyOp5
 70
     1
102
RTVSPropertyOp6
 70
     1
102
RTVSPropertyOp7
 70
     1
102
RTVSPropertyOp8
 70
     1
102
RTVSPropertyOp9
 70
     1
102
RTVSPropertyOp10
 70
     1
102
RTVSPropertyOp11
 70
     1
102
RTVSPropertyOp12
 70
     1
102
RTVSPropertyOp13
 70
     1
102
RTVSPropertyOp14
 70
     1
102
RTVSPropertyOp15
 70
     1
102
RTVSPropertyOp16
 70
     1
102
RTVSPropertyOp17
 70
     1
102
RTVSPropertyOp18
 70
     1
102
RTVSPropertyOp19
 70
     1
102
RTVSPropertyOp20
 70
     1
102
RTVSPropertyOp21
 70
     1
102
RTVSPropertyOp22
 70
     1
102
RTVSPropertyOp23
 70
     1
102
RTVSPropertyOp24
 70
     1
102
RTVSPropertyOp25
 70
     1
102
RTVSPropertyOp26
 70
     1
102
RTVSPropertyOp27
 70
     1
102
RTVSPropertyOp28
 70
     1
102
RTVSPropertyOp29
 70
     1
102
RTVSPropertyOp30
 70
     1
102
RTVSPropertyOp31
 70
     1
102
RTVSPropertyOp32
 70
     1
102
RTVSPropertyOp33
 70
     1
102
RTVSPropertyOp34
 70
     1
102
RTVSPropertyOp35
 70
     1
102
RTVSPropertyOp36
 70
     1
102
RTVSPropertyOp37
 70
     1
102
RTVSPropertyOp38
 70
     1
102
RTVSPropertyOp39
 70
     1
102
RTVSPropertyOp40
 70
     1
102
RTVSPropertyOp41
 70
     1
102
RTVSPropertyOp42
 70
     1
102
RTVSPropertyOp43
 70
     1
102
RTVSPropertyOp44
 70
     1
102
RTVSPropertyOp45
 70
     1
102
RTVSPropertyOp46
 70
     1
102
RTVSPropertyOp47
 70
     1
102
RTVSPropertyOp48
 70
     1
102
RTVSPropertyOp49
 70
     1
102
RTVSPropertyOp50
 70
     1
102
RTVSPropertyOp51
 70
     0
102
RTVSPropertyOp52
 70
     0
102
RTVSPropertyOp53
 70
     1
102
RTVSPropertyOp54
 70
     1
102
RTVSPropertyOp55
 70
     1
102
RTVSPropertyOp56
 70
     1
102
RTVSPropertyOp57
 70
     1
102
RTVSPropertyOp58
 70
     1
102
RTVSPropertyOp59
 70
     1
102
RTVSPropertyOp60
 70
     1
102
RTVSPropertyOp61
 70
     1
102
RTVSPropertyOp62
 70
     1
  0
XRECORD
  5
3B4F
102
{ACAD_REACTORS
330
3B4E
102
}
330
3B4E
100
AcDbXrecord
280
     1
102
RTVSPost2010Prop28
280
     0
102
RTVSPost2010PropOp28
 70
     1
102
RTVSPost2010Prop29
280
     1
102
RTVSPost2010PropOp29
 70
     1
102
RTVSPost2010Prop30
280
     1
102
RTVSPost2010PropOp30
 70
     1
102
RTVSPost2010Prop31
280
     0
102
RTVSPost2010PropOp31
 70
     1
102
RTVSPost2010Prop32
280
     0
102
RTVSPost2010PropOp32
 70
     1
102
RTVSPost2010Prop33
280
     0
102
RTVSPost2010PropOp33
 70
     1
102
RTVSPost2010Prop34
280
     0
102
RTVSPost2010PropOp34
 70
     1
102
RTVSPost2010Prop35
280
     0
102
RTVSPost2010PropOp35
 70
     1
102
RTVSPost2010Prop36
280
     0
102
RTVSPost2010PropOp36
 70
     1
102
RTVSPost2010Prop37
 90
       50
102
RTVSPost2010PropOp37
 70
     1
102
RTVSPost2010Prop38
140
0.0
102
RTVSPost2010PropOp38
 70
     1
102
RTVSPost2010Prop39
140
1.0
102
RTVSPost2010PropOp39
 70
     1
102
RTVSPost2010Prop40
 90
        0
102
RTVSPost2010PropOp40
 70
     1
102
RTVSPost2010Prop41ColorIndex
 90
       18
102
RTVSPost2010Prop41ColorRGB
 90
        0
102
RTVSPost2010PropOp41
 70
     1
102
RTVSPost2010Prop42
 90
       50
102
RTVSPost2010PropOp42
 70
     1
102
RTVSPost2010Prop43
 90
        3
102
RTVSPost2010PropOp43
 70
     1
102
RTVSPost2010Prop44ColorIndex
 90
        5
102
RTVSPost2010Prop44ColorRGB
 90
      255
102
RTVSPost2010PropOp44
 70
     1
102
RTVSPost2010Prop45
280
     0
102
RTVSPost2010PropOp45
 70
     1
102
RTVSPost2010Prop46
 90
       50
102
RTVSPost2010PropOp46
 70
     1
102
RTVSPost2010Prop47
 90
       50
102
RTVSPost2010PropOp47
 70
     1
102
RTVSPost2010Prop48
 90
       50
102
RTVSPost2010PropOp48
 70
     1
102
RTVSPost2010Prop49
280
     0
102
RTVSPost2010PropOp49
 70
     1
102
RTVSPost2010Prop50
 90
       50
102
RTVSPost2010PropOp50
 70
     1
102
RTVSPost2010Prop51ColorIndex
 90
      256
102
RTVSPost2010Prop51ColorRGB
 90
-16777216
102
RTVSPost2010PropOp51
 70
     0
102
RTVSPost2010Prop52
140
1.0
102
RTVSPost2010PropOp52
 70
     0
102
RTVSPost2010Prop53
 90
        2
102
RTVSPost2010PropOp53
 70
     1
102
RTVSPost2010Prop54
  1
strokes_ogs.tif
102
RTVSPost2010PropOp54
 70
     1
102
RTVSPost2010Prop55
280
     0
102
RTVSPost2010PropOp55
 70
     1
102
RTVSPost2010Prop56
140
1.0
102
RTVSPost2010PropOp56
 70
     1
102
RTVSPost2010Prop57
140
1.0
102
RTVSPost2010PropOp57
 70
     1
102
RTVSPropertyOp0
 70
     1
102
RTVSPropertyOp1
 70
     1
102
RTVSPropertyOp2
 70
     1
102
RTVSPropertyOp3
 70
     1
102
RTVSPropertyOp4
 70
     1
102
RTVSPropertyOp5
 70
     1
102
RTVSPropertyOp6
 70
     1
102
RTVSPropertyOp7
 70
     1
102
RTVSPropertyOp8
 70
     1
102
RTVSPropertyOp9
 70
     1
102
RTVSPropertyOp10
 70
     1
102
RTVSPropertyOp11
 70
     1
102
RTVSPropertyOp12
 70
     1
102
RTVSPropertyOp13
 70
     1
102
RTVSPropertyOp14
 70
     1
102
RTVSPropertyOp15
 70
     1
102
RTVSPropertyOp16
 70
     1
102
RTVSPropertyOp17
 70
     1
102
RTVSPropertyOp18
 70
     1
102
RTVSPropertyOp19
 70
     1
102
RTVSPropertyOp20
 70
     1
102
RTVSPropertyOp21
 70
     1
102
RTVSPropertyOp22
 70
     1
102
RTVSPropertyOp23
 70
     1
102
RTVSPropertyOp24
 70
     1
102
RTVSPropertyOp25
 70
     1
102
RTVSPropertyOp26
 70
     1
102
RTVSPropertyOp27
 70
     1
102
RTVSPropertyOp28
 70
     1
102
RTVSPropertyOp29
 70
     1
102
RTVSPropertyOp30
 70
     1
102
RTVSPropertyOp31
 70
     1
102
RTVSPropertyOp32
 70
     1
102
RTVSPropertyOp33
 70
     1
102
RTVSPropertyOp34
 70
     1
102
RTVSPropertyOp35
 70
     1
102
RTVSPropertyOp36
 70
     1
102
RTVSPropertyOp37
 70
     1
102
RTVSPropertyOp38
 70
     1
102
RTVSPropertyOp39
 70
     1
102
RTVSPropertyOp40
 70
     1
102
RTVSPropertyOp41
 70
     1
102
RTVSPropertyOp42
 70
     1
102
RTVSPropertyOp43
 70
     1
102
RTVSPropertyOp44
 70
     1
102
RTVSPropertyOp45
 70
     1
102
RTVSPropertyOp46
 70
     1
102
RTVSPropertyOp47
 70
     1
102
RTVSPropertyOp48
 70
     1
102
RTVSPropertyOp49
 70
     1
102
RTVSPropertyOp50
 70
     1
102
RTVSPropertyOp51
 70
     0
102
RTVSPropertyOp52
 70
     0
102
RTVSPropertyOp53
 70
     1
102
RTVSPropertyOp54
 70
     1
102
RTVSPropertyOp55
 70
     1
102
RTVSPropertyOp56
 70
     1
102
RTVSPropertyOp57
 70
     1
102
RTVSPropertyOp58
 70
     1
102
RTVSPropertyOp59
 70
     1
102
RTVSPropertyOp60
 70
     1
102
RTVSPropertyOp61
 70
     1
102
RTVSPropertyOp62
 70
     1
  0
XRECORD
  5
3B4D
102
{ACAD_REACTORS
330
3B4C
102
}
330
3B4C
100
AcDbXrecord
280
     1
102
RTVSPost2010Prop28
280
     0
102
RTVSPost2010PropOp28
 70
     1
102
RTVSPost2010Prop29
280
     1
102
RTVSPost2010PropOp29
 70
     1
102
RTVSPost2010Prop30
280
     1
102
RTVSPost2010PropOp30
 70
     1
102
RTVSPost2010Prop31
280
     0
102
RTVSPost2010PropOp31
 70
     1
102
RTVSPost2010Prop32
280
     0
102
RTVSPost2010PropOp32
 70
     1
102
RTVSPost2010Prop33
280
     0
102
RTVSPost2010PropOp33
 70
     1
102
RTVSPost2010Prop34
280
     0
102
RTVSPost2010PropOp34
 70
     1
102
RTVSPost2010Prop35
280
     0
102
RTVSPost2010PropOp35
 70
     1
102
RTVSPost2010Prop36
280
     0
102
RTVSPost2010PropOp36
 70
     1
102
RTVSPost2010Prop37
 90
       50
102
RTVSPost2010PropOp37
 70
     1
102
RTVSPost2010Prop38
140
0.0
102
RTVSPost2010PropOp38
 70
     1
102
RTVSPost2010Prop39
140
1.0
102
RTVSPost2010PropOp39
 70
     1
102
RTVSPost2010Prop40
 90
        0
102
RTVSPost2010PropOp40
 70
     1
102
RTVSPost2010Prop41ColorIndex
 90
       18
102
RTVSPost2010Prop41ColorRGB
 90
        0
102
RTVSPost2010PropOp41
 70
     1
102
RTVSPost2010Prop42
 90
       50
102
RTVSPost2010PropOp42
 70
     1
102
RTVSPost2010Prop43
 90
        3
102
RTVSPost2010PropOp43
 70
     1
102
RTVSPost2010Prop44ColorIndex
 90
        5
102
RTVSPost2010Prop44ColorRGB
 90
      255
102
RTVSPost2010PropOp44
 70
     1
102
RTVSPost2010Prop45
280
     0
102
RTVSPost2010PropOp45
 70
     1
102
RTVSPost2010Prop46
 90
       50
102
RTVSPost2010PropOp46
 70
     1
102
RTVSPost2010Prop47
 90
       50
102
RTVSPost2010PropOp47
 70
     1
102
RTVSPost2010Prop48
 90
       50
102
RTVSPost2010PropOp48
 70
     1
102
RTVSPost2010Prop49
280
     0
102
RTVSPost2010PropOp49
 70
     1
102
RTVSPost2010Prop50
 90
       50
102
RTVSPost2010PropOp50
 70
     1
102
RTVSPost2010Prop51ColorIndex
 90
      256
102
RTVSPost2010Prop51ColorRGB
 90
-16777216
102
RTVSPost2010PropOp51
 70
     0
102
RTVSPost2010Prop52
140
1.0
102
RTVSPost2010PropOp52
 70
     0
102
RTVSPost2010Prop53
 90
        2
102
RTVSPost2010PropOp53
 70
     1
102
RTVSPost2010Prop54
  1
strokes_ogs.tif
102
RTVSPost2010PropOp54
 70
     1
102
RTVSPost2010Prop55
280
     0
102
RTVSPost2010PropOp55
 70
     1
102
RTVSPost2010Prop56
140
1.0
102
RTVSPost2010PropOp56
 70
     1
102
RTVSPost2010Prop57
140
1.0
102
RTVSPost2010PropOp57
 70
     1
102
RTVSPropertyOp0
 70
     1
102
RTVSPropertyOp1
 70
     1
102
RTVSPropertyOp2
 70
     1
102
RTVSPropertyOp3
 70
     1
102
RTVSPropertyOp4
 70
     1
102
RTVSPropertyOp5
 70
     1
102
RTVSPropertyOp6
 70
     1
102
RTVSPropertyOp7
 70
     1
102
RTVSPropertyOp8
 70
     1
102
RTVSPropertyOp9
 70
     1
102
RTVSPropertyOp10
 70
     1
102
RTVSPropertyOp11
 70
     1
102
RTVSPropertyOp12
 70
     1
102
RTVSPropertyOp13
 70
     1
102
RTVSPropertyOp14
 70
     1
102
RTVSPropertyOp15
 70
     1
102
RTVSPropertyOp16
 70
     1
102
RTVSPropertyOp17
 70
     1
102
RTVSPropertyOp18
 70
     1
102
RTVSPropertyOp19
 70
     1
102
RTVSPropertyOp20
 70
     1
102
RTVSPropertyOp21
 70
     1
102
RTVSPropertyOp22
 70
     1
102
RTVSPropertyOp23
 70
     1
102
RTVSPropertyOp24
 70
     1
102
RTVSPropertyOp25
 70
     1
102
RTVSPropertyOp26
 70
     1
102
RTVSPropertyOp27
 70
     1
102
RTVSPropertyOp28
 70
     1
102
RTVSPropertyOp29
 70
     1
102
RTVSPropertyOp30
 70
     1
102
RTVSPropertyOp31
 70
     1
102
RTVSPropertyOp32
 70
     1
102
RTVSPropertyOp33
 70
     1
102
RTVSPropertyOp34
 70
     1
102
RTVSPropertyOp35
 70
     1
102
RTVSPropertyOp36
 70
     1
102
RTVSPropertyOp37
 70
     1
102
RTVSPropertyOp38
 70
     1
102
RTVSPropertyOp39
 70
     1
102
RTVSPropertyOp40
 70
     1
102
RTVSPropertyOp41
 70
     1
102
RTVSPropertyOp42
 70
     1
102
RTVSPropertyOp43
 70
     1
102
RTVSPropertyOp44
 70
     1
102
RTVSPropertyOp45
 70
     1
102
RTVSPropertyOp46
 70
     1
102
RTVSPropertyOp47
 70
     1
102
RTVSPropertyOp48
 70
     1
102
RTVSPropertyOp49
 70
     1
102
RTVSPropertyOp50
 70
     1
102
RTVSPropertyOp51
 70
     0
102
RTVSPropertyOp52
 70
     0
102
RTVSPropertyOp53
 70
     1
102
RTVSPropertyOp54
 70
     1
102
RTVSPropertyOp55
 70
     1
102
RTVSPropertyOp56
 70
     1
102
RTVSPropertyOp57
 70
     1
102
RTVSPropertyOp58
 70
     1
102
RTVSPropertyOp59
 70
     1
102
RTVSPropertyOp60
 70
     1
102
RTVSPropertyOp61
 70
     1
102
RTVSPropertyOp62
 70
     1
  0
XRECORD
  5
3B47
102
{ACAD_REACTORS
330
3B46
102
}
330
3B46
100
AcDbXrecord
280
     1
102
RTVSPost2010Prop28
280
     0
102
RTVSPost2010PropOp28
 70
     1
102
RTVSPost2010Prop29
280
     1
102
RTVSPost2010PropOp29
 70
     1
102
RTVSPost2010Prop30
280
     1
102
RTVSPost2010PropOp30
 70
     1
102
RTVSPost2010Prop31
280
     0
102
RTVSPost2010PropOp31
 70
     1
102
RTVSPost2010Prop32
280
     0
102
RTVSPost2010PropOp32
 70
     1
102
RTVSPost2010Prop33
280
     0
102
RTVSPost2010PropOp33
 70
     1
102
RTVSPost2010Prop34
280
     0
102
RTVSPost2010PropOp34
 70
     1
102
RTVSPost2010Prop35
280
     0
102
RTVSPost2010PropOp35
 70
     1
102
RTVSPost2010Prop36
280
     0
102
RTVSPost2010PropOp36
 70
     1
102
RTVSPost2010Prop37
 90
       50
102
RTVSPost2010PropOp37
 70
     1
102
RTVSPost2010Prop38
140
0.0
102
RTVSPost2010PropOp38
 70
     1
102
RTVSPost2010Prop39
140
1.0
102
RTVSPost2010PropOp39
 70
     1
102
RTVSPost2010Prop40
 90
        0
102
RTVSPost2010PropOp40
 70
     1
102
RTVSPost2010Prop41ColorIndex
 90
       18
102
RTVSPost2010Prop41ColorRGB
 90
        0
102
RTVSPost2010PropOp41
 70
     1
102
RTVSPost2010Prop42
 90
       50
102
RTVSPost2010PropOp42
 70
     1
102
RTVSPost2010Prop43
 90
        3
102
RTVSPost2010PropOp43
 70
     1
102
RTVSPost2010Prop44ColorIndex
 90
        5
102
RTVSPost2010Prop44ColorRGB
 90
      255
102
RTVSPost2010PropOp44
 70
     1
102
RTVSPost2010Prop45
280
     0
102
RTVSPost2010PropOp45
 70
     1
102
RTVSPost2010Prop46
 90
       50
102
RTVSPost2010PropOp46
 70
     1
102
RTVSPost2010Prop47
 90
       50
102
RTVSPost2010PropOp47
 70
     1
102
RTVSPost2010Prop48
 90
       50
102
RTVSPost2010PropOp48
 70
     1
102
RTVSPost2010Prop49
280
     0
102
RTVSPost2010PropOp49
 70
     1
102
RTVSPost2010Prop50
 90
       50
102
RTVSPost2010PropOp50
 70
     1
102
RTVSPost2010Prop51ColorIndex
 90
      256
102
RTVSPost2010Prop51ColorRGB
 90
-16777216
102
RTVSPost2010PropOp51
 70
     0
102
RTVSPost2010Prop52
140
1.0
102
RTVSPost2010PropOp52
 70
     0
102
RTVSPost2010Prop53
 90
        2
102
RTVSPost2010PropOp53
 70
     1
102
RTVSPost2010Prop54
  1
strokes_ogs.tif
102
RTVSPost2010PropOp54
 70
     1
102
RTVSPost2010Prop55
280
     0
102
RTVSPost2010PropOp55
 70
     1
102
RTVSPost2010Prop56
140
1.0
102
RTVSPost2010PropOp56
 70
     1
102
RTVSPost2010Prop57
140
1.0
102
RTVSPost2010PropOp57
 70
     1
102
RTVSPropertyOp0
 70
     1
102
RTVSPropertyOp1
 70
     1
102
RTVSPropertyOp2
 70
     1
102
RTVSPropertyOp3
 70
     1
102
RTVSPropertyOp4
 70
     1
102
RTVSPropertyOp5
 70
     1
102
RTVSPropertyOp6
 70
     1
102
RTVSPropertyOp7
 70
     1
102
RTVSPropertyOp8
 70
     1
102
RTVSPropertyOp9
 70
     1
102
RTVSPropertyOp10
 70
     1
102
RTVSPropertyOp11
 70
     1
102
RTVSPropertyOp12
 70
     1
102
RTVSPropertyOp13
 70
     1
102
RTVSPropertyOp14
 70
     1
102
RTVSPropertyOp15
 70
     1
102
RTVSPropertyOp16
 70
     1
102
RTVSPropertyOp17
 70
     1
102
RTVSPropertyOp18
 70
     1
102
RTVSPropertyOp19
 70
     1
102
RTVSPropertyOp20
 70
     1
102
RTVSPropertyOp21
 70
     1
102
RTVSPropertyOp22
 70
     1
102
RTVSPropertyOp23
 70
     1
102
RTVSPropertyOp24
 70
     1
102
RTVSPropertyOp25
 70
     1
102
RTVSPropertyOp26
 70
     1
102
RTVSPropertyOp27
 70
     1
102
RTVSPropertyOp28
 70
     1
102
RTVSPropertyOp29
 70
     1
102
RTVSPropertyOp30
 70
     1
102
RTVSPropertyOp31
 70
     1
102
RTVSPropertyOp32
 70
     1
102
RTVSPropertyOp33
 70
     1
102
RTVSPropertyOp34
 70
     1
102
RTVSPropertyOp35
 70
     1
102
RTVSPropertyOp36
 70
     1
102
RTVSPropertyOp37
 70
     1
102
RTVSPropertyOp38
 70
     1
102
RTVSPropertyOp39
 70
     1
102
RTVSPropertyOp40
 70
     1
102
RTVSPropertyOp41
 70
     1
102
RTVSPropertyOp42
 70
     1
102
RTVSPropertyOp43
 70
     1
102
RTVSPropertyOp44
 70
     1
102
RTVSPropertyOp45
 70
     1
102
RTVSPropertyOp46
 70
     1
102
RTVSPropertyOp47
 70
     1
102
RTVSPropertyOp48
 70
     1
102
RTVSPropertyOp49
 70
     1
102
RTVSPropertyOp50
 70
     1
102
RTVSPropertyOp51
 70
     0
102
RTVSPropertyOp52
 70
     0
102
RTVSPropertyOp53
 70
     1
102
RTVSPropertyOp54
 70
     1
102
RTVSPropertyOp55
 70
     1
102
RTVSPropertyOp56
 70
     1
102
RTVSPropertyOp57
 70
     1
102
RTVSPropertyOp58
 70
     1
102
RTVSPropertyOp59
 70
     1
102
RTVSPropertyOp60
 70
     1
102
RTVSPropertyOp61
 70
     1
102
RTVSPropertyOp62
 70
     1
  0
XRECORD
  5
3B49
102
{ACAD_REACTORS
330
3B48
102
}
330
3B48
100
AcDbXrecord
280
     1
102
RTVSPost2010Prop28
280
     0
102
RTVSPost2010PropOp28
 70
     1
102
RTVSPost2010Prop29
280
     1
102
RTVSPost2010PropOp29
 70
     1
102
RTVSPost2010Prop30
280
     1
102
RTVSPost2010PropOp30
 70
     1
102
RTVSPost2010Prop31
280
     0
102
RTVSPost2010PropOp31
 70
     1
102
RTVSPost2010Prop32
280
     0
102
RTVSPost2010PropOp32
 70
     1
102
RTVSPost2010Prop33
280
     0
102
RTVSPost2010PropOp33
 70
     1
102
RTVSPost2010Prop34
280
     0
102
RTVSPost2010PropOp34
 70
     1
102
RTVSPost2010Prop35
280
     0
102
RTVSPost2010PropOp35
 70
     1
102
RTVSPost2010Prop36
280
     0
102
RTVSPost2010PropOp36
 70
     1
102
RTVSPost2010Prop37
 90
       50
102
RTVSPost2010PropOp37
 70
     1
102
RTVSPost2010Prop38
140
0.0
102
RTVSPost2010PropOp38
 70
     1
102
RTVSPost2010Prop39
140
1.0
102
RTVSPost2010PropOp39
 70
     1
102
RTVSPost2010Prop40
 90
        0
102
RTVSPost2010PropOp40
 70
     1
102
RTVSPost2010Prop41ColorIndex
 90
       18
102
RTVSPost2010Prop41ColorRGB
 90
        0
102
RTVSPost2010PropOp41
 70
     1
102
RTVSPost2010Prop42
 90
       50
102
RTVSPost2010PropOp42
 70
     1
102
RTVSPost2010Prop43
 90
        3
102
RTVSPost2010PropOp43
 70
     1
102
RTVSPost2010Prop44ColorIndex
 90
        5
102
RTVSPost2010Prop44ColorRGB
 90
      255
102
RTVSPost2010PropOp44
 70
     1
102
RTVSPost2010Prop45
280
     0
102
RTVSPost2010PropOp45
 70
     1
102
RTVSPost2010Prop46
 90
       50
102
RTVSPost2010PropOp46
 70
     1
102
RTVSPost2010Prop47
 90
       50
102
RTVSPost2010PropOp47
 70
     1
102
RTVSPost2010Prop48
 90
       50
102
RTVSPost2010PropOp48
 70
     1
102
RTVSPost2010Prop49
280
     0
102
RTVSPost2010PropOp49
 70
     1
102
RTVSPost2010Prop50
 90
       50
102
RTVSPost2010PropOp50
 70
     1
102
RTVSPost2010Prop51ColorIndex
 90
      256
102
RTVSPost2010Prop51ColorRGB
 90
-16777216
102
RTVSPost2010PropOp51
 70
     0
102
RTVSPost2010Prop52
140
1.0
102
RTVSPost2010PropOp52
 70
     0
102
RTVSPost2010Prop53
 90
        2
102
RTVSPost2010PropOp53
 70
     1
102
RTVSPost2010Prop54
  1
strokes_ogs.tif
102
RTVSPost2010PropOp54
 70
     1
102
RTVSPost2010Prop55
280
     0
102
RTVSPost2010PropOp55
 70
     1
102
RTVSPost2010Prop56
140
1.0
102
RTVSPost2010PropOp56
 70
     1
102
RTVSPost2010Prop57
140
1.0
102
RTVSPost2010PropOp57
 70
     1
102
RTVSPropertyOp0
 70
     1
102
RTVSPropertyOp1
 70
     1
102
RTVSPropertyOp2
 70
     1
102
RTVSPropertyOp3
 70
     1
102
RTVSPropertyOp4
 70
     1
102
RTVSPropertyOp5
 70
     1
102
RTVSPropertyOp6
 70
     1
102
RTVSPropertyOp7
 70
     1
102
RTVSPropertyOp8
 70
     1
102
RTVSPropertyOp9
 70
     1
102
RTVSPropertyOp10
 70
     1
102
RTVSPropertyOp11
 70
     1
102
RTVSPropertyOp12
 70
     1
102
RTVSPropertyOp13
 70
     1
102
RTVSPropertyOp14
 70
     1
102
RTVSPropertyOp15
 70
     1
102
RTVSPropertyOp16
 70
     1
102
RTVSPropertyOp17
 70
     1
102
RTVSPropertyOp18
 70
     1
102
RTVSPropertyOp19
 70
     1
102
RTVSPropertyOp20
 70
     1
102
RTVSPropertyOp21
 70
     1
102
RTVSPropertyOp22
 70
     1
102
RTVSPropertyOp23
 70
     1
102
RTVSPropertyOp24
 70
     1
102
RTVSPropertyOp25
 70
     1
102
RTVSPropertyOp26
 70
     1
102
RTVSPropertyOp27
 70
     1
102
RTVSPropertyOp28
 70
     1
102
RTVSPropertyOp29
 70
     1
102
RTVSPropertyOp30
 70
     1
102
RTVSPropertyOp31
 70
     1
102
RTVSPropertyOp32
 70
     1
102
RTVSPropertyOp33
 70
     1
102
RTVSPropertyOp34
 70
     1
102
RTVSPropertyOp35
 70
     1
102
RTVSPropertyOp36
 70
     1
102
RTVSPropertyOp37
 70
     1
102
RTVSPropertyOp38
 70
     1
102
RTVSPropertyOp39
 70
     1
102
RTVSPropertyOp40
 70
     1
102
RTVSPropertyOp41
 70
     1
102
RTVSPropertyOp42
 70
     1
102
RTVSPropertyOp43
 70
     1
102
RTVSPropertyOp44
 70
     1
102
RTVSPropertyOp45
 70
     1
102
RTVSPropertyOp46
 70
     1
102
RTVSPropertyOp47
 70
     1
102
RTVSPropertyOp48
 70
     1
102
RTVSPropertyOp49
 70
     1
102
RTVSPropertyOp50
 70
     1
102
RTVSPropertyOp51
 70
     0
102
RTVSPropertyOp52
 70
     0
102
RTVSPropertyOp53
 70
     1
102
RTVSPropertyOp54
 70
     1
102
RTVSPropertyOp55
 70
     1
102
RTVSPropertyOp56
 70
     1
102
RTVSPropertyOp57
 70
     1
102
RTVSPropertyOp58
 70
     1
102
RTVSPropertyOp59
 70
     1
102
RTVSPropertyOp60
 70
     1
102
RTVSPropertyOp61
 70
     1
102
RTVSPropertyOp62
 70
     1
  0
XRECORD
  5
3B3F
102
{ACAD_REACTORS
330
3B3E
102
}
330
3B3E
100
AcDbXrecord
280
     1
102
RTVSPost2010Prop28
280
     0
102
RTVSPost2010PropOp28
 70
     1
102
RTVSPost2010Prop29
280
     1
102
RTVSPost2010PropOp29
 70
     1
102
RTVSPost2010Prop30
280
     1
102
RTVSPost2010PropOp30
 70
     1
102
RTVSPost2010Prop31
280
     0
102
RTVSPost2010PropOp31
 70
     1
102
RTVSPost2010Prop32
280
     0
102
RTVSPost2010PropOp32
 70
     1
102
RTVSPost2010Prop33
280
     0
102
RTVSPost2010PropOp33
 70
     1
102
RTVSPost2010Prop34
280
     0
102
RTVSPost2010PropOp34
 70
     1
102
RTVSPost2010Prop35
280
     0
102
RTVSPost2010PropOp35
 70
     1
102
RTVSPost2010Prop36
280
     0
102
RTVSPost2010PropOp36
 70
     1
102
RTVSPost2010Prop37
 90
       50
102
RTVSPost2010PropOp37
 70
     1
102
RTVSPost2010Prop38
140
0.0
102
RTVSPost2010PropOp38
 70
     1
102
RTVSPost2010Prop39
140
1.0
102
RTVSPost2010PropOp39
 70
     1
102
RTVSPost2010Prop40
 90
        0
102
RTVSPost2010PropOp40
 70
     1
102
RTVSPost2010Prop41ColorIndex
 90
       18
102
RTVSPost2010Prop41ColorRGB
 90
        0
102
RTVSPost2010PropOp41
 70
     1
102
RTVSPost2010Prop42
 90
       50
102
RTVSPost2010PropOp42
 70
     1
102
RTVSPost2010Prop43
 90
        3
102
RTVSPost2010PropOp43
 70
     1
102
RTVSPost2010Prop44ColorIndex
 90
        5
102
RTVSPost2010Prop44ColorRGB
 90
      255
102
RTVSPost2010PropOp44
 70
     1
102
RTVSPost2010Prop45
280
     0
102
RTVSPost2010PropOp45
 70
     1
102
RTVSPost2010Prop46
 90
       50
102
RTVSPost2010PropOp46
 70
     1
102
RTVSPost2010Prop47
 90
       50
102
RTVSPost2010PropOp47
 70
     1
102
RTVSPost2010Prop48
 90
       50
102
RTVSPost2010PropOp48
 70
     1
102
RTVSPost2010Prop49
280
     0
102
RTVSPost2010PropOp49
 70
     1
102
RTVSPost2010Prop50
 90
       50
102
RTVSPost2010PropOp50
 70
     1
102
RTVSPost2010Prop51ColorIndex
 90
      256
102
RTVSPost2010Prop51ColorRGB
 90
-16777216
102
RTVSPost2010PropOp51
 70
     0
102
RTVSPost2010Prop52
140
1.0
102
RTVSPost2010PropOp52
 70
     0
102
RTVSPost2010Prop53
 90
        2
102
RTVSPost2010PropOp53
 70
     1
102
RTVSPost2010Prop54
  1
strokes_ogs.tif
102
RTVSPost2010PropOp54
 70
     1
102
RTVSPost2010Prop55
280
     0
102
RTVSPost2010PropOp55
 70
     1
102
RTVSPost2010Prop56
140
1.0
102
RTVSPost2010PropOp56
 70
     1
102
RTVSPost2010Prop57
140
1.0
102
RTVSPost2010PropOp57
 70
     1
102
RTVSPropertyOp0
 70
     1
102
RTVSPropertyOp1
 70
     1
102
RTVSPropertyOp2
 70
     1
102
RTVSPropertyOp3
 70
     1
102
RTVSPropertyOp4
 70
     1
102
RTVSPropertyOp5
 70
     1
102
RTVSPropertyOp6
 70
     1
102
RTVSPropertyOp7
 70
     1
102
RTVSPropertyOp8
 70
     1
102
RTVSPropertyOp9
 70
     1
102
RTVSPropertyOp10
 70
     1
102
RTVSPropertyOp11
 70
     1
102
RTVSPropertyOp12
 70
     1
102
RTVSPropertyOp13
 70
     1
102
RTVSPropertyOp14
 70
     1
102
RTVSPropertyOp15
 70
     1
102
RTVSPropertyOp16
 70
     1
102
RTVSPropertyOp17
 70
     1
102
RTVSPropertyOp18
 70
     1
102
RTVSPropertyOp19
 70
     1
102
RTVSPropertyOp20
 70
     1
102
RTVSPropertyOp21
 70
     1
102
RTVSPropertyOp22
 70
     1
102
RTVSPropertyOp23
 70
     1
102
RTVSPropertyOp24
 70
     1
102
RTVSPropertyOp25
 70
     1
102
RTVSPropertyOp26
 70
     1
102
RTVSPropertyOp27
 70
     1
102
RTVSPropertyOp28
 70
     1
102
RTVSPropertyOp29
 70
     1
102
RTVSPropertyOp30
 70
     1
102
RTVSPropertyOp31
 70
     1
102
RTVSPropertyOp32
 70
     1
102
RTVSPropertyOp33
 70
     1
102
RTVSPropertyOp34
 70
     1
102
RTVSPropertyOp35
 70
     1
102
RTVSPropertyOp36
 70
     1
102
RTVSPropertyOp37
 70
     1
102
RTVSPropertyOp38
 70
     1
102
RTVSPropertyOp39
 70
     1
102
RTVSPropertyOp40
 70
     1
102
RTVSPropertyOp41
 70
     1
102
RTVSPropertyOp42
 70
     1
102
RTVSPropertyOp43
 70
     1
102
RTVSPropertyOp44
 70
     1
102
RTVSPropertyOp45
 70
     1
102
RTVSPropertyOp46
 70
     1
102
RTVSPropertyOp47
 70
     1
102
RTVSPropertyOp48
 70
     1
102
RTVSPropertyOp49
 70
     1
102
RTVSPropertyOp50
 70
     1
102
RTVSPropertyOp51
 70
     0
102
RTVSPropertyOp52
 70
     0
102
RTVSPropertyOp53
 70
     1
102
RTVSPropertyOp54
 70
     1
102
RTVSPropertyOp55
 70
     1
102
RTVSPropertyOp56
 70
     1
102
RTVSPropertyOp57
 70
     1
102
RTVSPropertyOp58
 70
     1
102
RTVSPropertyOp59
 70
     1
102
RTVSPropertyOp60
 70
     1
102
RTVSPropertyOp61
 70
     1
102
RTVSPropertyOp62
 70
     1
  0
XRECORD
  5
3B33
102
{ACAD_REACTORS
330
3B32
102
}
330
3B32
100
AcDbXrecord
280
     1
102
RTVSPost2010Prop28
280
     0
102
RTVSPost2010PropOp28
 70
     1
102
RTVSPost2010Prop29
280
     1
102
RTVSPost2010PropOp29
 70
     1
102
RTVSPost2010Prop30
280
     1
102
RTVSPost2010PropOp30
 70
     1
102
RTVSPost2010Prop31
280
     0
102
RTVSPost2010PropOp31
 70
     1
102
RTVSPost2010Prop32
280
     0
102
RTVSPost2010PropOp32
 70
     1
102
RTVSPost2010Prop33
280
     0
102
RTVSPost2010PropOp33
 70
     1
102
RTVSPost2010Prop34
280
     0
102
RTVSPost2010PropOp34
 70
     1
102
RTVSPost2010Prop35
280
     0
102
RTVSPost2010PropOp35
 70
     1
102
RTVSPost2010Prop36
280
     0
102
RTVSPost2010PropOp36
 70
     1
102
RTVSPost2010Prop37
 90
       50
102
RTVSPost2010PropOp37
 70
     1
102
RTVSPost2010Prop38
140
0.0
102
RTVSPost2010PropOp38
 70
     1
102
RTVSPost2010Prop39
140
1.0
102
RTVSPost2010PropOp39
 70
     1
102
RTVSPost2010Prop40
 90
        0
102
RTVSPost2010PropOp40
 70
     1
102
RTVSPost2010Prop41ColorIndex
 90
       18
102
RTVSPost2010Prop41ColorRGB
 90
        0
102
RTVSPost2010PropOp41
 70
     1
102
RTVSPost2010Prop42
 90
       50
102
RTVSPost2010PropOp42
 70
     1
102
RTVSPost2010Prop43
 90
        3
102
RTVSPost2010PropOp43
 70
     1
102
RTVSPost2010Prop44ColorIndex
 90
        5
102
RTVSPost2010Prop44ColorRGB
 90
      255
102
RTVSPost2010PropOp44
 70
     1
102
RTVSPost2010Prop45
280
     0
102
RTVSPost2010PropOp45
 70
     1
102
RTVSPost2010Prop46
 90
       50
102
RTVSPost2010PropOp46
 70
     1
102
RTVSPost2010Prop47
 90
       50
102
RTVSPost2010PropOp47
 70
     1
102
RTVSPost2010Prop48
 90
       50
102
RTVSPost2010PropOp48
 70
     1
102
RTVSPost2010Prop49
280
     0
102
RTVSPost2010PropOp49
 70
     1
102
RTVSPost2010Prop50
 90
       50
102
RTVSPost2010PropOp50
 70
     1
102
RTVSPost2010Prop51ColorIndex
 90
      256
102
RTVSPost2010Prop51ColorRGB
 90
-16777216
102
RTVSPost2010PropOp51
 70
     0
102
RTVSPost2010Prop52
140
1.0
102
RTVSPost2010PropOp52
 70
     0
102
RTVSPost2010Prop53
 90
        2
102
RTVSPost2010PropOp53
 70
     1
102
RTVSPost2010Prop54
  1
strokes_ogs.tif
102
RTVSPost2010PropOp54
 70
     1
102
RTVSPost2010Prop55
280
     0
102
RTVSPost2010PropOp55
 70
     1
102
RTVSPost2010Prop56
140
1.0
102
RTVSPost2010PropOp56
 70
     1
102
RTVSPost2010Prop57
140
1.0
102
RTVSPost2010PropOp57
 70
     1
102
RTVSPropertyOp0
 70
     1
102
RTVSPropertyOp1
 70
     1
102
RTVSPropertyOp2
 70
     1
102
RTVSPropertyOp3
 70
     1
102
RTVSPropertyOp4
 70
     1
102
RTVSPropertyOp5
 70
     1
102
RTVSPropertyOp6
 70
     1
102
RTVSPropertyOp7
 70
     1
102
RTVSPropertyOp8
 70
     1
102
RTVSPropertyOp9
 70
     1
102
RTVSPropertyOp10
 70
     1
102
RTVSPropertyOp11
 70
     1
102
RTVSPropertyOp12
 70
     1
102
RTVSPropertyOp13
 70
     1
102
RTVSPropertyOp14
 70
     1
102
RTVSPropertyOp15
 70
     1
102
RTVSPropertyOp16
 70
     1
102
RTVSPropertyOp17
 70
     1
102
RTVSPropertyOp18
 70
     1
102
RTVSPropertyOp19
 70
     1
102
RTVSPropertyOp20
 70
     1
102
RTVSPropertyOp21
 70
     1
102
RTVSPropertyOp22
 70
     1
102
RTVSPropertyOp23
 70
     1
102
RTVSPropertyOp24
 70
     1
102
RTVSPropertyOp25
 70
     1
102
RTVSPropertyOp26
 70
     1
102
RTVSPropertyOp27
 70
     1
102
RTVSPropertyOp28
 70
     1
102
RTVSPropertyOp29
 70
     1
102
RTVSPropertyOp30
 70
     1
102
RTVSPropertyOp31
 70
     1
102
RTVSPropertyOp32
 70
     1
102
RTVSPropertyOp33
 70
     1
102
RTVSPropertyOp34
 70
     1
102
RTVSPropertyOp35
 70
     1
102
RTVSPropertyOp36
 70
     1
102
RTVSPropertyOp37
 70
     1
102
RTVSPropertyOp38
 70
     1
102
RTVSPropertyOp39
 70
     1
102
RTVSPropertyOp40
 70
     1
102
RTVSPropertyOp41
 70
     1
102
RTVSPropertyOp42
 70
     1
102
RTVSPropertyOp43
 70
     1
102
RTVSPropertyOp44
 70
     1
102
RTVSPropertyOp45
 70
     1
102
RTVSPropertyOp46
 70
     1
102
RTVSPropertyOp47
 70
     1
102
RTVSPropertyOp48
 70
     1
102
RTVSPropertyOp49
 70
     1
102
RTVSPropertyOp50
 70
     1
102
RTVSPropertyOp51
 70
     0
102
RTVSPropertyOp52
 70
     0
102
RTVSPropertyOp53
 70
     1
102
RTVSPropertyOp54
 70
     1
102
RTVSPropertyOp55
 70
     1
102
RTVSPropertyOp56
 70
     1
102
RTVSPropertyOp57
 70
     1
102
RTVSPropertyOp58
 70
     1
102
RTVSPropertyOp59
 70
     1
102
RTVSPropertyOp60
 70
     1
102
RTVSPropertyOp61
 70
     1
102
RTVSPropertyOp62
 70
     1
  0
XRECORD
  5
3B4B
102
{ACAD_REACTORS
330
3B4A
102
}
330
3B4A
100
AcDbXrecord
280
     1
102
RTVSPost2010Prop28
280
     0
102
RTVSPost2010PropOp28
 70
     1
102
RTVSPost2010Prop29
280
     1
102
RTVSPost2010PropOp29
 70
     1
102
RTVSPost2010Prop30
280
     1
102
RTVSPost2010PropOp30
 70
     1
102
RTVSPost2010Prop31
280
     0
102
RTVSPost2010PropOp31
 70
     1
102
RTVSPost2010Prop32
280
     0
102
RTVSPost2010PropOp32
 70
     1
102
RTVSPost2010Prop33
280
     0
102
RTVSPost2010PropOp33
 70
     1
102
RTVSPost2010Prop34
280
     0
102
RTVSPost2010PropOp34
 70
     1
102
RTVSPost2010Prop35
280
     0
102
RTVSPost2010PropOp35
 70
     1
102
RTVSPost2010Prop36
280
     0
102
RTVSPost2010PropOp36
 70
     1
102
RTVSPost2010Prop37
 90
       50
102
RTVSPost2010PropOp37
 70
     1
102
RTVSPost2010Prop38
140
0.0
102
RTVSPost2010PropOp38
 70
     1
102
RTVSPost2010Prop39
140
1.0
102
RTVSPost2010PropOp39
 70
     1
102
RTVSPost2010Prop40
 90
        0
102
RTVSPost2010PropOp40
 70
     1
102
RTVSPost2010Prop41ColorIndex
 90
       18
102
RTVSPost2010Prop41ColorRGB
 90
        0
102
RTVSPost2010PropOp41
 70
     1
102
RTVSPost2010Prop42
 90
       50
102
RTVSPost2010PropOp42
 70
     1
102
RTVSPost2010Prop43
 90
        3
102
RTVSPost2010PropOp43
 70
     1
102
RTVSPost2010Prop44ColorIndex
 90
        5
102
RTVSPost2010Prop44ColorRGB
 90
      255
102
RTVSPost2010PropOp44
 70
     1
102
RTVSPost2010Prop45
280
     0
102
RTVSPost2010PropOp45
 70
     1
102
RTVSPost2010Prop46
 90
       50
102
RTVSPost2010PropOp46
 70
     1
102
RTVSPost2010Prop47
 90
       50
102
RTVSPost2010PropOp47
 70
     1
102
RTVSPost2010Prop48
 90
       50
102
RTVSPost2010PropOp48
 70
     1
102
RTVSPost2010Prop49
280
     0
102
RTVSPost2010PropOp49
 70
     1
102
RTVSPost2010Prop50
 90
       50
102
RTVSPost2010PropOp50
 70
     1
102
RTVSPost2010Prop51ColorIndex
 90
      256
102
RTVSPost2010Prop51ColorRGB
 90
-16777216
102
RTVSPost2010PropOp51
 70
     0
102
RTVSPost2010Prop52
140
1.0
102
RTVSPost2010PropOp52
 70
     0
102
RTVSPost2010Prop53
 90
        2
102
RTVSPost2010PropOp53
 70
     1
102
RTVSPost2010Prop54
  1
strokes_ogs.tif
102
RTVSPost2010PropOp54
 70
     1
102
RTVSPost2010Prop55
280
     0
102
RTVSPost2010PropOp55
 70
     1
102
RTVSPost2010Prop56
140
1.0
102
RTVSPost2010PropOp56
 70
     1
102
RTVSPost2010Prop57
140
1.0
102
RTVSPost2010PropOp57
 70
     1
102
RTVSPropertyOp0
 70
     1
102
RTVSPropertyOp1
 70
     1
102
RTVSPropertyOp2
 70
     1
102
RTVSPropertyOp3
 70
     1
102
RTVSPropertyOp4
 70
     1
102
RTVSPropertyOp5
 70
     1
102
RTVSPropertyOp6
 70
     1
102
RTVSPropertyOp7
 70
     1
102
RTVSPropertyOp8
 70
     1
102
RTVSPropertyOp9
 70
     1
102
RTVSPropertyOp10
 70
     1
102
RTVSPropertyOp11
 70
     1
102
RTVSPropertyOp12
 70
     1
102
RTVSPropertyOp13
 70
     1
102
RTVSPropertyOp14
 70
     1
102
RTVSPropertyOp15
 70
     1
102
RTVSPropertyOp16
 70
     1
102
RTVSPropertyOp17
 70
     1
102
RTVSPropertyOp18
 70
     1
102
RTVSPropertyOp19
 70
     1
102
RTVSPropertyOp20
 70
     1
102
RTVSPropertyOp21
 70
     1
102
RTVSPropertyOp22
 70
     1
102
RTVSPropertyOp23
 70
     1
102
RTVSPropertyOp24
 70
     1
102
RTVSPropertyOp25
 70
     1
102
RTVSPropertyOp26
 70
     1
102
RTVSPropertyOp27
 70
     1
102
RTVSPropertyOp28
 70
     1
102
RTVSPropertyOp29
 70
     1
102
RTVSPropertyOp30
 70
     1
102
RTVSPropertyOp31
 70
     1
102
RTVSPropertyOp32
 70
     1
102
RTVSPropertyOp33
 70
     1
102
RTVSPropertyOp34
 70
     1
102
RTVSPropertyOp35
 70
     1
102
RTVSPropertyOp36
 70
     1
102
RTVSPropertyOp37
 70
     1
102
RTVSPropertyOp38
 70
     1
102
RTVSPropertyOp39
 70
     1
102
RTVSPropertyOp40
 70
     1
102
RTVSPropertyOp41
 70
     1
102
RTVSPropertyOp42
 70
     1
102
RTVSPropertyOp43
 70
     1
102
RTVSPropertyOp44
 70
     1
102
RTVSPropertyOp45
 70
     1
102
RTVSPropertyOp46
 70
     1
102
RTVSPropertyOp47
 70
     1
102
RTVSPropertyOp48
 70
     1
102
RTVSPropertyOp49
 70
     1
102
RTVSPropertyOp50
 70
     1
102
RTVSPropertyOp51
 70
     0
102
RTVSPropertyOp52
 70
     0
102
RTVSPropertyOp53
 70
     1
102
RTVSPropertyOp54
 70
     1
102
RTVSPropertyOp55
 70
     1
102
RTVSPropertyOp56
 70
     1
102
RTVSPropertyOp57
 70
     1
102
RTVSPropertyOp58
 70
     1
102
RTVSPropertyOp59
 70
     1
102
RTVSPropertyOp60
 70
     1
102
RTVSPropertyOp61
 70
     1
102
RTVSPropertyOp62
 70
     1
  0
ENDSEC
  0
EOF
