  0
SECTION
  2
HEADER
  9
$ACADVER
  1
AC1015
  9
$ACADMAINTVER
 70
    20
  9
$DWGCODEPAGE
  3
ANSI_1252
  9
$INSBASE
 10
0.0
 20
0.0
 30
0.0
  9
$EXTMIN
 10
-87.35727402936049
 20
-49.934527063568
 30
-0.0000000349181948
  9
$EXTMAX
 10
86.7472926962248
 20
74.46599458796038
 30
0.0000000814935747
  9
$LIMMIN
 10
0.0
 20
0.0
  9
$LIMMAX
 10
420.0
 20
297.0
  9
$ORTHOMODE
 70
     0
  9
$REGENMODE
 70
     1
  9
$FILLMODE
 70
     1
  9
$QTEXTMODE
 70
     0
  9
$MIRRTEXT
 70
     1
  9
$LTSCALE
 40
1.0
  9
$ATTMODE
 70
     1
  9
$TEXTSIZE
 40
0.2
  9
$TRACEWID
 40
1.0
  9
$TEXTSTYLE
  7
Standard
  9
$CLAYER
  8
0
  9
$CELTYPE
  6
ByLayer
  9
$CECOLOR
 62
   256
  9
$CELTSCALE
 40
1.0
  9
$DISPSILH
 70
     0
  9
$DIMSCALE
 40
1.0
  9
$DIMASZ
 40
2.5
  9
$DIMEXO
 40
0.0
  9
$DIMDLI
 40
3.75
  9
$DIMRND
 40
0.0
  9
$DIMDLE
 40
0.0
  9
$DIMEXE
 40
1.25
  9
$DIMTP
 40
0.0
  9
$DIMTM
 40
0.0
  9
$DIMTXT
 40
3.5
  9
$DIMCEN
 40
0.0
  9
$DIMTSZ
 40
0.0
  9
$DIMTOL
 70
     0
  9
$DIMLIM
 70
     0
  9
$DIMTIH
 70
     0
  9
$DIMTOH
 70
     0
  9
$DIMSE1
 70
     0
  9
$DIMSE2
 70
     0
  9
$DIMTAD
 70
     1
  9
$DIMZIN
 70
     8
  9
$DIMBLK
  1

  9
$DIMASO
 70
     1
  9
$DIMSHO
 70
     1
  9
$DIMPOST
  1

  9
$DIMAPOST
  1

  9
$DIMALT
 70
     0
  9
$DIMALTD
 70
     3
  9
$DIMALTF
 40
0.039370078
  9
$DIMLFAC
 40
1.0
  9
$DIMTOFL
 70
     0
  9
$DIMTVP
 40
0.0
  9
$DIMTIX
 70
     0
  9
$DIMSOXD
 70
     0
  9
$DIMSAH
 70
     0
  9
$DIMBLK1
  1

  9
$DIMBLK2
  1

  9
$DIMSTYLE
  2
Standard
  9
$DIMCLRD
 70
     0
  9
$DIMCLRE
 70
     0
  9
$DIMCLRT
 70
     0
  9
$DIMTFAC
 40
1.0
  9
$DIMGAP
 40
0.625
  9
$DIMJUST
 70
     0
  9
$DIMSD1
 70
     0
  9
$DIMSD2
 70
     0
  9
$DIMTOLJ
 70
     0
  9
$DIMTZIN
 70
     8
  9
$DIMALTZ
 70
     0
  9
$DIMALTTZ
 70
     0
  9
$DIMUPT
 70
     0
  9
$DIMDEC
 70
     2
  9
$DIMTDEC
 70
     2
  9
$DIMALTU
 70
     2
  9
$DIMALTTD
 70
     3
  9
$DIMTXSTY
  7
Standard
  9
$DIMAUNIT
 70
     0
  9
$DIMADEC
 70
     2
  9
$DIMALTRND
 40
0.0
  9
$DIMAZIN
 70
     2
  9
$DIMDSEP
 70
    46
  9
$DIMATFIT
 70
     3
  9
$DIMFRAC
 70
     0
  9
$DIMLDRBLK
  1

  9
$DIMLUNIT
 70
     2
  9
$DIMLWD
 70
    -2
  9
$DIMLWE
 70
    -2
  9
$DIMTMOVE
 70
     0
  9
$LUNITS
 70
     2
  9
$LUPREC
 70
     4
  9
$SKETCHINC
 40
1.0
  9
$FILLETRAD
 40
0.0
  9
$AUNITS
 70
     0
  9
$AUPREC
 70
     0
  9
$MENU
  1
.
  9
$ELEVATION
 40
0.0
  9
$PELEVATION
 40
0.0
  9
$THICKNESS
 40
0.0
  9
$LIMCHECK
 70
     0
  9
$CHAMFERA
 40
2.5
  9
$CHAMFERB
 40
2.5
  9
$CHAMFERC
 40
0.0
  9
$CHAMFERD
 40
0.0
  9
$SKPOLY
 70
     0
  9
$TDCREATE
 40
2453353.800459155
  9
$TDUCREATE
 40
2453353.717125822
  9
$TDUPDATE
 40
2460185.618914561
  9
$TDUUPDATE
 40
2460185.535581227
  9
$TDINDWG
 40
0.1761238310
  9
$TDUSRTIMER
 40
0.1761001852
  9
$USRTIMER
 70
     1
  9
$ANGBASE
 50
0.0
  9
$ANGDIR
 70
     0
  9
$PDMODE
 70
     3
  9
$PDSIZE
 40
0.0
  9
$PLINEWID
 40
0.0
  9
$SPLFRAME
 70
     0
  9
$SPLINETYPE
 70
     6
  9
$SPLINESEGS
 70
     8
  9
$HANDSEED
  5
3E7E
  9
$SURFTAB1
 70
     6
  9
$SURFTAB2
 70
     6
  9
$SURFTYPE
 70
     6
  9
$SURFU
 70
     6
  9
$SURFV
 70
     6
  9
$UCSBASE
  2

  9
$UCSNAME
  2

  9
$UCSORG
 10
0.0
 20
0.0
 30
0.0
  9
$UCSXDIR
 10
1.0
 20
0.0
 30
0.0
  9
$UCSYDIR
 10
0.0
 20
1.0
 30
0.0
  9
$UCSORTHOREF
  2

  9
$UCSORTHOVIEW
 70
     0
  9
$UCSORGTOP
 10
0.0
 20
0.0
 30
0.0
  9
$UCSORGBOTTOM
 10
0.0
 20
0.0
 30
0.0
  9
$UCSORGLEFT
 10
0.0
 20
0.0
 30
0.0
  9
$UCSORGRIGHT
 10
0.0
 20
0.0
 30
0.0
  9
$UCSORGFRONT
 10
0.0
 20
0.0
 30
0.0
  9
$UCSORGBACK
 10
0.0
 20
0.0
 30
0.0
  9
$PUCSBASE
  2

  9
$PUCSNAME
  2

  9
$PUCSORG
 10
0.0
 20
0.0
 30
0.0
  9
$PUCSXDIR
 10
1.0
 20
0.0
 30
0.0
  9
$PUCSYDIR
 10
0.0
 20
1.0
 30
0.0
  9
$PUCSORTHOREF
  2

  9
$PUCSORTHOVIEW
 70
     0
  9
$PUCSORGTOP
 10
0.0
 20
0.0
 30
0.0
  9
$PUCSORGBOTTOM
 10
0.0
 20
0.0
 30
0.0
  9
$PUCSORGLEFT
 10
0.0
 20
0.0
 30
0.0
  9
$PUCSORGRIGHT
 10
0.0
 20
0.0
 30
0.0
  9
$PUCSORGFRONT
 10
0.0
 20
0.0
 30
0.0
  9
$PUCSORGBACK
 10
0.0
 20
0.0
 30
0.0
  9
$USERI1
 70
     0
  9
$USERI2
 70
     0
  9
$USERI3
 70
     0
  9
$USERI4
 70
     0
  9
$USERI5
 70
     0
  9
$USERR1
 40
0.0
  9
$USERR2
 40
0.0
  9
$USERR3
 40
0.0
  9
$USERR4
 40
0.0
  9
$USERR5
 40
0.0
  9
$WORLDVIEW
 70
     1
  9
$SHADEDGE
 70
     3
  9
$SHADEDIF
 70
    70
  9
$TILEMODE
 70
     1
  9
$MAXACTVP
 70
    48
  9
$PINSBASE
 10
0.0
 20
0.0
 30
0.0
  9
$PLIMCHECK
 70
     0
  9
$PEXTMIN
 10
0.0
 20
0.0
 30
0.0
  9
$PEXTMAX
 10
281.007629
 20
92.32476
 30
2.0
  9
$PLIMMIN
 10
0.0
 20
0.0
  9
$PLIMMAX
 10
420.0
 20
297.0
  9
$UNITMODE
 70
     0
  9
$VISRETAIN
 70
     0
  9
$PLINEGEN
 70
     0
  9
$PSLTSCALE
 70
     1
  9
$TREEDEPTH
 70
  3020
  9
$CMLSTYLE
  2
Standard
  9
$CMLJUST
 70
     0
  9
$CMLSCALE
 40
20.0
  9
$PROXYGRAPHICS
 70
     0
  9
$MEASUREMENT
 70
     1
  9
$CELWEIGHT
370
    -1
  9
$ENDCAPS
280
     0
  9
$JOINSTYLE
280
     0
  9
$LWDISPLAY
290
     0
  9
$INSUNITS
 70
     0
  9
$HYPERLINKBASE
  1

  9
$STYLESHEET
  1

  9
$XEDIT
290
     1
  9
$CEPSNTYPE
380
     0
  9
$PSTYLEMODE
290
     0
  9
$FINGERPRINTGUID
  2

  9
$VERSIONGUID
  2
{EA0CF39B-624F-44CA-885B-70B06FA549BB}
  9
$EXTNAMES
290
     0
  9
$PSVPSCALE
 40
0.0
  9
$OLESTARTUP
290
     0
  0
ENDSEC
  0
SECTION
  2
CLASSES
  0
CLASS
  1
ACDBDICTIONARYWDFLT
  2
AcDbDictionaryWithDefault
  3
ObjectDBX Classes
 90
        0
280
     0
281
     0
  0
CLASS
  1
ACDBPLACEHOLDER
  2
AcDbPlaceHolder
  3
ObjectDBX Classes
 90
        0
280
     0
281
     0
  0
CLASS
  1
LAYOUT
  2
AcDbLayout
  3
ObjectDBX Classes
 90
        0
280
     0
281
     0
  0
CLASS
  1
DICTIONARYVAR
  2
AcDbDictionaryVar
  3
ObjectDBX Classes
 90
        0
280
     0
281
     0
  0
CLASS
  1
TABLESTYLE
  2
AcDbTableStyle
  3
ObjectDBX Classes
 90
     4095
280
     0
281
     0
  0
CLASS
  1
SCALE
  2
AcDbScale
  3
ObjectDBX Classes
 90
     1153
280
     0
281
     0
  0
CLASS
  1
WIPEOUTVARIABLES
  2
AcDbWipeoutVariables
  3
"WipeOut|Product Desc:     WipeOut Dbx Application|Company:          Autodesk, Inc.|WEB Address:      www.autodesk.com"
 90
        0
280
     0
281
     0
  0
CLASS
  1
SORTENTSTABLE
  2
AcDbSortentsTable
  3
ObjectDBX Classes
 90
        0
280
     0
281
     0
  0
CLASS
  1
MATERIAL
  2
AcDbMaterial
  3
ObjectDBX Classes
 90
     1153
280
     0
281
     0
  0
CLASS
  1
VISUALSTYLE
  2
AcDbVisualStyle
  3
ObjectDBX Classes
 90
     4095
280
     0
281
     0
  0
CLASS
  1
MLEADERSTYLE
  2
AcDbMLeaderStyle
  3
ACDB_MLEADERSTYLE_CLASS
 90
     4095
280
     0
281
     0
  0
CLASS
  1
ACDBSECTIONVIEWSTYLE
  2
AcDbSectionViewStyle
  3
ObjectDBX Classes
 90
     1025
280
     0
281
     0
  0
CLASS
  1
ACDBDETAILVIEWSTYLE
  2
AcDbDetailViewStyle
  3
ObjectDBX Classes
 90
     1025
280
     0
281
     0
  0
CLASS
  1
CELLSTYLEMAP
  2
AcDbCellStyleMap
  3
ObjectDBX Classes
 90
     1152
280
     0
281
     0
  0
ENDSEC
  0
SECTION
  2
TABLES
  0
TABLE
  2
VPORT
  5
8
330
0
100
AcDbSymbolTable
 70
     1
  0
VPORT
  5
97
330
8
100
AcDbSymbolTableRecord
100
AcDbViewportTableRecord
  2
*ACTIVE
 70
     0
 10
0.0
 20
0.0
 11
1.0
 21
1.0
 12
-0.3049906665678392
 22
12.2657337621962
 13
0.0
 23
0.0
 14
1.0
 24
1.0
 15
0.5
 25
0.5
 16
0.0
 26
0.0
 36
1.0
 17
0.0
 27
0.0
 37
0.0
 40
125.253553799996
 41
1.597254004576659
 42
50.0
 43
0.0
 44
0.0
 50
0.0
 51
0.0
 71
    16
 72
   100
 73
     1
 74
     3
 75
     0
 76
     0
 77
     0
 78
     1
281
     0
 65
     1
110
0.0
120
0.0
130
0.0
111
1.0
121
0.0
131
0.0
112
0.0
122
1.0
132
0.0
 79
     0
146
0.0
1001
ACAD_NAV_VCDISPLAY
1070
     3
  0
ENDTAB
  0
TABLE
  2
LTYPE
  5
5
330
0
100
AcDbSymbolTable
 70
     4
  0
LTYPE
  5
14
330
5
100
AcDbSymbolTableRecord
100
AcDbLinetypeTableRecord
  2
ByBlock
 70
     0
  3

 72
    65
 73
     0
 40
0.0
  0
LTYPE
  5
15
330
5
100
AcDbSymbolTableRecord
100
AcDbLinetypeTableRecord
  2
ByLayer
 70
     0
  3

 72
    65
 73
     0
 40
0.0
  0
LTYPE
  5
16
330
5
100
AcDbSymbolTableRecord
100
AcDbLinetypeTableRecord
  2
Continuous
 70
     0
  3
Solid line
 72
    65
 73
     0
 40
0.0
  0
LTYPE
  5
3CE8
330
5
100
AcDbSymbolTableRecord
100
AcDbLinetypeTableRecord
  2
CENTER2
 70
     0
  3
Center (.5x) ___ _ ___ _ ___ _ ___ _ ___ _ ___
 72
    65
 73
     4
 40
28.57499999999999
 49
19.05
 74
     4
 75
     0
340
0
 46
1.0
 50
0.0
 44
0.0
 45
0.0
 49
-3.174999999999998
 74
     4
 75
     0
340
0
 46
1.0
 50
0.0
 44
0.0
 45
0.0
 49
3.174999999999998
 74
     4
 75
     0
340
0
 46
1.0
 50
0.0
 44
0.0
 45
0.0
 49
-3.174999999999998
 74
     4
 75
     0
340
0
 46
1.0
 50
0.0
 44
0.0
 45
0.0
  0
LTYPE
  5
3CEA
330
5
100
AcDbSymbolTableRecord
100
AcDbLinetypeTableRecord
  2
HIDDEN
 70
     0
  3
Hidden __ __ __ __ __ __ __ __ __ __ __ __ __ _
 72
    65
 73
     2
 40
9.524999999999996
 49
6.349999999999997
 74
     4
 75
     0
340
0
 46
1.0
 50
0.0
 44
0.0
 45
0.0
 49
-3.174999999999998
 74
     4
 75
     0
340
0
 46
1.0
 50
0.0
 44
0.0
 45
0.0
  0
ENDTAB
  0
TABLE
  2
LAYER
  5
2
102
{ACAD_XDICTIONARY
360
3CF6
102
}
330
0
100
AcDbSymbolTable
 70
    13
  0
LAYER
  5
10
102
{ACAD_XDICTIONARY
360
3CEB
102
}
330
2
100
AcDbSymbolTableRecord
100
AcDbLayerTableRecord
  2
0
 70
     0
 62
     7
  6
Continuous
370
    13
390
F
  0
LAYER
  5
5FF
102
{ACAD_XDICTIONARY
360
3CEC
102
}
330
2
100
AcDbSymbolTableRecord
100
AcDbLayerTableRecord
  2
1
 70
     0
 62
     4
  6
Continuous
370
    50
390
F
  0
LAYER
  5
601
102
{ACAD_XDICTIONARY
360
3CED
102
}
330
2
100
AcDbSymbolTableRecord
100
AcDbLayerTableRecord
  2
2
 70
     0
 62
     7
  6
Continuous
370
    25
390
F
  0
LAYER
  5
603
102
{ACAD_XDICTIONARY
360
3CEE
102
}
330
2
100
AcDbSymbolTableRecord
100
AcDbLayerTableRecord
  2
SK2
 70
     0
 62
     7
  6
Continuous
370
    25
390
F
  0
LAYER
  5
607
102
{ACAD_XDICTIONARY
360
3CEF
102
}
330
2
100
AcDbSymbolTableRecord
100
AcDbLayerTableRecord
  2
4
 70
     0
 62
     2
  6
CENTER2
370
    25
390
F
  0
LAYER
  5
609
102
{ACAD_XDICTIONARY
360
3CF0
102
}
330
2
100
AcDbSymbolTableRecord
100
AcDbLayerTableRecord
  2
SK4
 70
     0
 62
     2
  6
CENTER2
370
    25
390
F
  0
LAYER
  5
60B
102
{ACAD_XDICTIONARY
360
3CF1
102
}
330
2
100
AcDbSymbolTableRecord
100
AcDbLayerTableRecord
  2
SK6
 70
     0
 62
     5
  6
Continuous
370
    -3
390
F
  0
LAYER
  5
60D
102
{ACAD_XDICTIONARY
360
3CF2
102
}
330
2
100
AcDbSymbolTableRecord
100
AcDbLayerTableRecord
  2
CUT
 70
     0
 62
     1
  6
Continuous
370
    25
390
F
  0
LAYER
  5
60F
330
2
100
AcDbSymbolTableRecord
100
AcDbLayerTableRecord
  2
NOCUT
 70
     0
 62
     7
  6
Continuous
370
    -3
390
F
  0
LAYER
  5
611
102
{ACAD_XDICTIONARY
360
3CF3
102
}
330
2
100
AcDbSymbolTableRecord
100
AcDbLayerTableRecord
  2
INFTOTAL
 70
     0
 62
     9
  6
Continuous
370
    18
390
F
1001
AcAecLayerStandard
1000

1000

  0
LAYER
  5
614
102
{ACAD_XDICTIONARY
360
3CF4
102
}
330
2
100
AcDbSymbolTableRecord
100
AcDbLayerTableRecord
  2
SK1
 70
     0
 62
     4
  6
Continuous
370
    50
390
F
1001
AcAecLayerStandard
1000

1000

  0
LAYER
  5
616
330
2
100
AcDbSymbolTableRecord
100
AcDbLayerTableRecord
  2
Defpoints
 70
     0
 62
     7
  6
Continuous
290
     0
370
    -3
390
F
  0
LAYER
  5
1416
330
2
100
AcDbSymbolTableRecord
100
AcDbLayerTableRecord
  2
SK3
 70
     0
 62
     1
  6
HIDDEN
370
    35
390
F
  0
ENDTAB
  0
TABLE
  2
STYLE
  5
3
330
0
100
AcDbSymbolTable
 70
     2
  0
STYLE
  5
11
330
3
100
AcDbSymbolTableRecord
100
AcDbTextStyleTableRecord
  2
Standard
 70
     0
 40
0.0
 41
1.0
 50
0.0
 71
     0
 42
0.2
  3
monos.ttf
  4

1001
ACAD
1000
Monospac821 BT
1071
       49
  0
STYLE
  5
F86
330
3
100
AcDbSymbolTableRecord
100
AcDbTextStyleTableRecord
  2
MM_STANDARD
 70
     0
 40
3.5
 41
1.0
 50
0.0
 71
     0
 42
3.5
  3
monos.ttf
  4

1001
ACAD
1000
Monospac821 BT
1071
       49
  0
ENDTAB
  0
TABLE
  2
VIEW
  5
6
330
0
100
AcDbSymbolTable
 70
     0
  0
ENDTAB
  0
TABLE
  2
UCS
  5
7
330
0
100
AcDbSymbolTable
 70
     0
  0
ENDTAB
  0
TABLE
  2
APPID
  5
9
330
0
100
AcDbSymbolTable
 70
    21
  0
APPID
  5
12
330
9
100
AcDbSymbolTableRecord
100
AcDbRegAppTableRecord
  2
ACAD
 70
     0
  0
APPID
  5
3CD5
330
9
100
AcDbSymbolTableRecord
100
AcDbRegAppTableRecord
  2
ACAD_PSEXT
 70
     0
  0
APPID
  5
3CD6
330
9
100
AcDbSymbolTableRecord
100
AcDbRegAppTableRecord
  2
ACAD_EXEMPT_FROM_CAD_STANDARDS
 70
     0
  0
APPID
  5
3CD7
330
9
100
AcDbSymbolTableRecord
100
AcDbRegAppTableRecord
  2
ACAD_MLEADERVER
 70
     0
  0
APPID
  5
3CD8
330
9
100
AcDbSymbolTableRecord
100
AcDbRegAppTableRecord
  2
ACAD_DSTYLE_DIMJAG
 70
     0
  0
APPID
  5
3CD9
330
9
100
AcDbSymbolTableRecord
100
AcDbRegAppTableRecord
  2
ACAD_DSTYLE_DIMBREAK
 70
     0
  0
APPID
  5
3CDA
330
9
100
AcDbSymbolTableRecord
100
AcDbRegAppTableRecord
  2
ACAD_DSTYLE_DIMTALN
 70
     0
  0
APPID
  5
3CDB
330
9
100
AcDbSymbolTableRecord
100
AcDbRegAppTableRecord
  2
AcAecLayerStandard
 70
     0
  0
APPID
  5
3CDC
330
9
100
AcDbSymbolTableRecord
100
AcDbRegAppTableRecord
  2
DCO15
 70
     0
  0
APPID
  5
3CDD
330
9
100
AcDbSymbolTableRecord
100
AcDbRegAppTableRecord
  2
AcadAnnoPO
 70
     0
  0
APPID
  5
3CDE
330
9
100
AcDbSymbolTableRecord
100
AcDbRegAppTableRecord
  2
ACAD_DSTYLE_DIMRADIAL_EXTENSION
 70
     0
  0
APPID
  5
3CDF
330
9
100
AcDbSymbolTableRecord
100
AcDbRegAppTableRecord
  2
ACAD_DSTYLE_DIMTEXT_FILL
 70
     0
  0
APPID
  5
3CE0
330
9
100
AcDbSymbolTableRecord
100
AcDbRegAppTableRecord
  2
ACAD_DSTYLE_DIMEXT_LENGTH
 70
     0
  0
APPID
  5
3CE1
330
9
100
AcDbSymbolTableRecord
100
AcDbRegAppTableRecord
  2
ACAD_DSTYLE_DIMEXT_ENABLED
 70
     0
  0
APPID
  5
3CE2
330
9
100
AcDbSymbolTableRecord
100
AcDbRegAppTableRecord
  2
ACAD_DSTYLE_DIM_LINETYPE
 70
     0
  0
APPID
  5
3CE3
330
9
100
AcDbSymbolTableRecord
100
AcDbRegAppTableRecord
  2
ACAD_DSTYLE_DIM_EXT1_LINETYPE
 70
     0
  0
APPID
  5
3CE4
330
9
100
AcDbSymbolTableRecord
100
AcDbRegAppTableRecord
  2
ACAD_DSTYLE_DIM_EXT2_LINETYPE
 70
     0
  0
APPID
  5
3CE5
330
9
100
AcDbSymbolTableRecord
100
AcDbRegAppTableRecord
  2
ACAD_DSTYLE_DIMJOGGED_JOGANGLE_SYMBOL
 70
     0
  0
APPID
  5
3CE6
330
9
100
AcDbSymbolTableRecord
100
AcDbRegAppTableRecord
  2
ACAD_DSTYLE_DIMARC_LENGTH_SYMBOL
 70
     0
  0
APPID
  5
3CE7
330
9
100
AcDbSymbolTableRecord
100
AcDbRegAppTableRecord
  2
AcLayerTools
 70
     0
  0
APPID
  5
3DA0
330
9
100
AcDbSymbolTableRecord
100
AcDbRegAppTableRecord
  2
ACAD_NAV_VCDISPLAY
 70
     0
  0
ENDTAB
  0
TABLE
  2
DIMSTYLE
  5
A
330
0
100
AcDbSymbolTable
 70
     1
100
AcDbDimStyleTable
 71
     0
  0
DIMSTYLE
105
27
102
{ACAD_REACTORS
330
2111
330
2129
330
2136
330
214F
330
302E
330
3176
102
}
330
A
100
AcDbSymbolTableRecord
100
AcDbDimStyleTableRecord
  2
Standard
 70
     0
 41
2.5
 42
0.0
 43
3.75
 44
1.25
 73
     0
 74
     0
 77
     1
 78
     8
 79
     2
140
3.5
141
0.0
143
0.039370078
147
0.625
171
     3
179
     2
271
     2
272
     2
274
     3
283
     0
284
     8
340
11
1001
ACAD_DSTYLE_DIMJAG
1070
   388
1040
1.5
1001
ACAD_DSTYLE_DIMTALN
1070
   392
1070
     0
  0
ENDTAB
  0
TABLE
  2
BLOCK_RECORD
  5
1
330
0
100
AcDbSymbolTable
 70
    15
  0
BLOCK_RECORD
  5
1F
102
{ACAD_XDICTIONARY
360
3D16
102
}
330
1
100
AcDbSymbolTableRecord
100
AcDbBlockTableRecord
  2
*Model_Space
340
22
  0
BLOCK_RECORD
  5
73
330
1
100
AcDbSymbolTableRecord
100
AcDbBlockTableRecord
  2
*Paper_Space
340
74
  0
BLOCK_RECORD
  5
2D0
330
1
100
AcDbSymbolTableRecord
100
AcDbBlockTableRecord
  2
CERO_POINT
340
0
102
{BLKREFS
331
63B
102
}
1001
ACAD
1000
DesignCenter Data
1002
{
1070
     1
1070
     4
1002
}
  0
BLOCK_RECORD
  5
211C
330
1
100
AcDbSymbolTableRecord
100
AcDbBlockTableRecord
  2
*D2
340
0
  0
BLOCK_RECORD
  5
2135
330
1
100
AcDbSymbolTableRecord
100
AcDbBlockTableRecord
  2
*D3
340
0
  0
BLOCK_RECORD
  5
2142
330
1
100
AcDbSymbolTableRecord
100
AcDbBlockTableRecord
  2
*D4
340
0
  0
BLOCK_RECORD
  5
215B
330
1
100
AcDbSymbolTableRecord
100
AcDbBlockTableRecord
  2
*D5
340
0
  0
BLOCK_RECORD
  5
3039
330
1
100
AcDbSymbolTableRecord
100
AcDbBlockTableRecord
  2
*D12
340
0
  0
BLOCK_RECORD
  5
3181
330
1
100
AcDbSymbolTableRecord
100
AcDbBlockTableRecord
  2
*D13
340
0
  0
ENDTAB
  0
ENDSEC
  0
SECTION
  2
BLOCKS
  0
BLOCK
  5
20
330
1F
100
AcDbEntity
  8
0
100
AcDbBlockBegin
  2
*Model_Space
 70
     0
 10
0.0
 20
0.0
 30
0.0
  3
*Model_Space
  1

  0
ENDBLK
  5
21
330
1F
100
AcDbEntity
  8
0
100
AcDbBlockEnd
  0
BLOCK
  5
75
330
73
100
AcDbEntity
 67
     1
  8
0
100
AcDbBlockBegin
  2
*Paper_Space
 70
     0
 10
0.0
 20
0.0
 30
0.0
  3
*Paper_Space
  1

  0
ENDBLK
  5
76
330
73
100
AcDbEntity
 67
     1
  8
0
100
AcDbBlockEnd
  0
BLOCK
  5
3CF7
102
{ACAD_REACTORS
330
2111
330
2129
330
2136
330
214F
330
302E
330
3176
102
}
330
2D0
100
AcDbEntity
  8
0
100
AcDbBlockBegin
  2
CERO_POINT
 70
     0
 10
0.0
 20
0.0
 30
0.0
  3
CERO_POINT
  1

  0
CIRCLE
  5
2D2
102
{ACAD_REACTORS
330
2D7
102
}
330
2D0
100
AcDbEntity
  8
SK2
100
AcDbCircle
 10
0.0
 20
0.0
 30
0.0
 40
2.5
  0
LINE
  5
2D3
330
2D0
100
AcDbEntity
  8
SK2
100
AcDbLine
 10
0.0900000000037835
 20
0.0
 30
0.0
 11
-0.0899999999965076
 21
0.0
 31
0.0
  0
LINE
  5
2D4
330
2D0
100
AcDbEntity
  8
SK2
100
AcDbLine
 10
0.0
 20
0.0899999999999182
 30
0.0
 11
0.0
 21
-0.0899999999999182
 31
0.0
  0
LINE
  5
2D5
102
{ACAD_REACTORS
330
2D7
102
}
330
2D0
100
AcDbEntity
  8
SK2
100
AcDbLine
 10
0.0
 20
-2.5
 30
0.0
 11
0.0
 21
2.5
 31
0.0
  0
LINE
  5
2D6
102
{ACAD_REACTORS
330
2D7
102
}
330
2D0
100
AcDbEntity
  8
SK2
100
AcDbLine
 10
2.5
 20
0.0
 30
0.0
 11
-2.5
 21
0.0
 31
0.0
  0
HATCH
  5
2D7
330
2D0
100
AcDbEntity
  8
SK2
100
AcDbHatch
 10
0.0
 20
0.0
 30
0.0
210
0.0
220
0.0
230
1.0
  2
ANSI31
 70
     0
 71
     1
 91
        2
 92
        7
 72
     1
 73
     1
 93
        3
 10
0.0
 20
-2.5
 42
0.4142135623730951
 10
2.5
 20
0.0
 42
0.0
 10
0.0
 20
0.0
 42
0.0
 97
        3
330
2D2
330
2D6
330
2D5
 92
        7
 72
     1
 73
     1
 93
        3
 10
0.0
 20
0.0
 42
0.0
 10
0.0
 20
2.5
 42
0.4142135623730951
 10
-2.5
 20
0.0
 42
0.0
 97
        3
330
2D6
330
2D5
330
2D2
 75
     0
 76
     1
 52
180.0
 41
0.1
 77
     0
 78
     1
 53
225.0
 43
5.170976743218488
 44
0.0
 45
0.2245064030267288
 46
-0.2245064030267289
 79
     0
 47
0.0243816376539857
 98
        2
 10
0.8789156907296272
 20
-1.044463114528752
 10
-0.8545028512526187
 20
0.7841600866017872
1001
ACAD
1010
0.0
1020
0.0
1030
0.0
  0
ENDBLK
  5
3CF8
330
2D0
100
AcDbEntity
  8
0
100
AcDbBlockEnd
  0
BLOCK
  5
3CFB
330
211C
100
AcDbEntity
  8
0
100
AcDbBlockBegin
  2
*D2
 70
     1
 10
0.0
 20
0.0
 30
0.0
  3
*D2
  1

  0
LINE
  5
3D86
330
211C
100
AcDbEntity
  8
SK2
 62
     0
370
    -2
100
AcDbLine
 10
0.0
 20
-6.500000000000002
 30
0.0
 11
-42.09157999999997
 21
-6.500000000000009
 31
0.0
  0
LINE
  5
3D87
330
211C
100
AcDbEntity
  8
SK2
 62
     0
370
    -2
100
AcDbLine
 10
0.0
 20
6.500000000000002
 30
0.0
 11
-42.09157999999997
 21
6.499999999999996
 31
0.0
  0
LINE
  5
3D88
330
211C
100
AcDbEntity
  8
SK2
 62
     0
370
    -2
100
AcDbLine
 10
-40.84157999999997
 20
-4.000000000000007
 30
0.0
 11
-40.84157999999997
 21
3.999999999999996
 31
0.0
  0
SOLID
  5
3D89
330
211C
100
AcDbEntity
  8
SK2
 62
     0
100
AcDbTrace
 10
-41.25824666666665
 20
-4.000000000000007
 30
0.0
 11
-40.42491333333332
 21
-4.000000000000007
 31
0.0
 12
-40.84157999999997
 22
-6.500000000000007
 32
0.0
 13
-40.84157999999997
 23
-6.500000000000007
 33
0.0
  0
SOLID
  5
3D8A
330
211C
100
AcDbEntity
  8
SK2
 62
     0
100
AcDbTrace
 10
-41.25824666666665
 20
3.999999999999996
 30
0.0
 11
-40.42491333333332
 21
3.999999999999996
 31
0.0
 12
-40.84157999999997
 22
6.499999999999997
 32
0.0
 13
-40.84157999999997
 23
6.499999999999997
 33
0.0
  0
MTEXT
  5
3D8B
330
211C
100
AcDbEntity
  8
SK2
 62
     0
100
AcDbMText
 10
-43.68759194659168
 20
0.0000000000000003
 30
0.0
 40
3.5
 41
0.0
 71
     5
 72
     1
  1
%%c13
 11
0.0000000000000001
 21
1.0
 31
0.0
 73
     1
 44
1.0
1001
ACAD
1000
MTEXTBEGIN
1070
    73
1070
     1
1070
    44
1040
1.0
1070
    74
1070
     0
1000
MTEXTEND
  0
POINT
  5
3D8C
330
211C
100
AcDbEntity
  8
Defpoints
 62
     0
100
AcDbPoint
 10
0.0
 20
-6.500000000000002
 30
0.0
  0
POINT
  5
3D8D
330
211C
100
AcDbEntity
  8
Defpoints
 62
     0
100
AcDbPoint
 10
0.0
 20
6.500000000000002
 30
0.0
  0
POINT
  5
3D8E
330
211C
100
AcDbEntity
  8
Defpoints
 62
     0
100
AcDbPoint
 10
-40.84157999999997
 20
6.499999999999997
 30
0.0
  0
ENDBLK
  5
3CFC
330
211C
100
AcDbEntity
  8
0
100
AcDbBlockEnd
  0
BLOCK
  5
3CFD
330
2135
100
AcDbEntity
  8
0
100
AcDbBlockBegin
  2
*D3
 70
     1
 10
0.0
 20
0.0
 30
0.0
  3
*D3
  1

  0
POINT
  5
3517
330
2135
100
AcDbEntity
  8
Defpoints
  6
ByBlock
 62
     0
100
AcDbPoint
 10
22.94557400000002
 20
8.000000000000001
 30
0.0
  0
POINT
  5
3518
330
2135
100
AcDbEntity
  8
Defpoints
  6
ByBlock
 62
     0
100
AcDbPoint
 10
16.80557400000006
 20
8.000000000000001
 30
0.0
  0
LINE
  5
3519
330
2135
100
AcDbEntity
  8
2
  6
ByBlock
 62
     0
370
    -2
100
AcDbLine
 10
22.94557400000002
 20
8.000000000000001
 30
0.0
 11
22.94557400000002
 21
24.70372100000001
 31
0.0
  0
LINE
  5
351A
330
2135
100
AcDbEntity
  8
2
  6
ByBlock
 62
     0
370
    -2
100
AcDbLine
 10
16.80557400000006
 20
8.000000000000001
 30
0.0
 11
16.80557400000006
 21
24.70372100000001
 31
0.0
  0
LINE
  5
351B
330
2135
100
AcDbEntity
  8
2
  6
ByBlock
 62
     0
370
    -2
100
AcDbLine
 10
22.94557400000002
 20
23.45372100000001
 30
0.0
 11
16.80557400000006
 21
23.45372100000001
 31
0.0
  0
SOLID
  5
351C
330
2135
100
AcDbEntity
  8
2
  6
ByBlock
 62
     0
100
AcDbTrace
 10
22.94557400000002
 20
23.45372100000001
 30
0.0
 11
20.44557400000002
 21
23.87038766666676
 31
0.0
 12
20.44557400000002
 22
23.03705433333326
 32
0.0
 13
20.44557400000002
 23
23.03705433333326
 33
0.0
  0
LINE
  5
351D
330
2135
100
AcDbEntity
  8
2
  6
ByBlock
 62
     0
370
    -2
100
AcDbLine
 10
19.30557400000006
 20
23.45372100000001
 30
0.0
 11
1.212636543921336
 21
23.45372100000001
 31
0.0
  0
SOLID
  5
351E
330
2135
100
AcDbEntity
  8
2
  6
ByBlock
 62
     0
100
AcDbTrace
 10
16.80557400000006
 20
23.45372100000001
 30
0.0
 11
19.30557400000006
 21
23.87038766666676
 31
0.0
 12
19.30557400000006
 22
23.03705433333326
 32
0.0
 13
19.30557400000006
 23
23.03705433333326
 33
0.0
  0
MTEXT
  5
351F
330
2135
100
AcDbEntity
  8
2
  6
ByBlock
 62
     0
100
AcDbMText
 10
7.759105271960692
 20
25.90127897610683
 30
0.0
 40
3.5
 41
0.0
 71
     5
 72
     1
  1
6.14
 73
     1
 44
1.0
1001
ACAD
1000
MTEXTBEGIN
1070
    73
1070
     1
1070
    44
1040
1.0
1070
    74
1070
     0
1000
MTEXTEND
  0
ENDBLK
  5
3CFE
330
2135
100
AcDbEntity
  8
0
100
AcDbBlockEnd
  0
BLOCK
  5
3CFF
330
2142
100
AcDbEntity
  8
0
100
AcDbBlockBegin
  2
*D4
 70
     1
 10
0.0
 20
0.0
 30
0.0
  3
*D4
  1

  0
LINE
  5
3D8F
330
2142
100
AcDbEntity
  8
2
 62
     0
370
    -2
100
AcDbLine
 10
22.94557400000003
 20
8.000000000000001
 30
0.0
 11
49.02347172407583
 21
8.007648006957156
 31
0.0
  0
LINE
  5
3D90
330
2142
100
AcDbEntity
  8
2
 62
     0
370
    -2
100
AcDbLine
 10
47.77420496640353
 20
5.507281520184685
 30
0.0
 11
47.77729433051621
 21
-5.026720581843258
 31
0.0
  0
SOLID
  5
3D91
330
2142
100
AcDbEntity
  8
2
 62
     0
100
AcDbTrace
 10
48.19087161515135
 20
5.507403718279874
 30
0.0
 11
47.3575383176557
 21
5.507159322089496
 31
0.0
 12
47.7734717778324
 22
8.007281412671586
 32
0.0
 13
47.7734717778324
 23
8.007281412671586
 33
0.0
  0
MTEXT
  5
3D92
330
2142
100
AcDbEntity
  8
2
 62
     0
100
AcDbMText
 10
50.62182949850545
 20
0.0091630588444855
 30
0.0
 40
3.5
 41
0.0
 71
     5
 72
     1
  1
%%c16
 11
0.0002932754284558
 21
-0.9999999569947606
 31
0.0
 73
     1
 44
1.0
1001
ACAD
1000
MTEXTBEGIN
1070
    73
1070
     1
1070
    44
1040
1.0
1070
    74
1070
     0
1000
MTEXTEND
  0
POINT
  5
3D93
330
2142
100
AcDbEntity
  8
Defpoints
 62
     0
100
AcDbPoint
 10
22.95026640705712
 20
-8.000000000000001
 30
0.0
  0
POINT
  5
3D94
330
2142
100
AcDbEntity
  8
Defpoints
 62
     0
100
AcDbPoint
 10
22.94557400000003
 20
8.000000000000001
 30
0.0
  0
POINT
  5
3D95
330
2142
100
AcDbEntity
  8
Defpoints
 62
     0
100
AcDbPoint
 10
47.7734717778324
 20
8.007281412671586
 30
0.0
  0
ENDBLK
  5
3D00
330
2142
100
AcDbEntity
  8
0
100
AcDbBlockEnd
  0
BLOCK
  5
3D01
330
215B
100
AcDbEntity
  8
0
100
AcDbBlockBegin
  2
*D5
 70
     1
 10
0.0
 20
0.0
 30
0.0
  3
*D5
  1

  0
LINE
  5
3D7D
330
215B
100
AcDbEntity
  8
SK2
 62
     0
370
    -2
100
AcDbLine
 10
-17.50000000000001
 20
-4.0
 30
0.0
 11
-33.128262
 21
-4.000000000000004
 31
0.0
  0
LINE
  5
3D7E
330
215B
100
AcDbEntity
  8
SK2
 62
     0
370
    -2
100
AcDbLine
 10
-17.50000000000001
 20
4.0
 30
0.0
 11
-33.128262
 21
3.999999999999998
 31
0.0
  0
LINE
  5
3D7F
330
215B
100
AcDbEntity
  8
SK2
 62
     0
370
    -2
100
AcDbLine
 10
-31.878262
 20
-1.500000000000003
 30
0.0
 11
-31.878262
 21
1.499999999999998
 31
0.0
  0
SOLID
  5
3D80
330
215B
100
AcDbEntity
  8
SK2
 62
     0
100
AcDbTrace
 10
-32.29492866666666
 20
-1.500000000000003
 30
0.0
 11
-31.46159533333333
 21
-1.500000000000003
 31
0.0
 12
-31.878262
 22
-4.000000000000002
 32
0.0
 13
-31.878262
 23
-4.000000000000002
 33
0.0
  0
SOLID
  5
3D81
330
215B
100
AcDbEntity
  8
SK2
 62
     0
100
AcDbTrace
 10
-32.29492866666666
 20
1.499999999999998
 30
0.0
 11
-31.46159533333333
 21
1.499999999999998
 31
0.0
 12
-31.878262
 22
3.999999999999998
 32
0.0
 13
-31.878262
 23
3.999999999999998
 33
0.0
  0
MTEXT
  5
3D82
330
215B
100
AcDbEntity
  8
SK2
 62
     0
100
AcDbMText
 10
-34.31475181026002
 20
0.0000000000000003
 30
0.0
 40
3.5
 41
0.0
 71
     5
 72
     1
  1
M8
 11
0.0000000000000001
 21
1.0
 31
0.0
 73
     1
 44
1.0
1001
ACAD
1000
MTEXTBEGIN
1070
    73
1070
     1
1070
    44
1040
1.0
1070
    74
1070
     0
1000
MTEXTEND
  0
POINT
  5
3D83
330
215B
100
AcDbEntity
  8
Defpoints
 62
     0
100
AcDbPoint
 10
-17.50000000000001
 20
-4.0
 30
0.0
  0
POINT
  5
3D84
330
215B
100
AcDbEntity
  8
Defpoints
 62
     0
100
AcDbPoint
 10
-17.50000000000001
 20
4.0
 30
0.0
  0
POINT
  5
3D85
330
215B
100
AcDbEntity
  8
Defpoints
 62
     0
100
AcDbPoint
 10
-31.878262
 20
3.999999999999998
 30
0.0
  0
ENDBLK
  5
3D02
330
215B
100
AcDbEntity
  8
0
100
AcDbBlockEnd
  0
BLOCK
  5
3D0F
330
3039
100
AcDbEntity
  8
0
100
AcDbBlockBegin
  2
*D12
 70
     1
 10
0.0
 20
0.0
 30
0.0
  3
*D12
  1

  0
POINT
  5
3558
330
3039
100
AcDbEntity
  8
Defpoints
  6
ByBlock
 62
     0
100
AcDbPoint
 10
0.0
 20
0.0
 30
0.0
  0
POINT
  5
3559
330
3039
100
AcDbEntity
  8
Defpoints
  6
ByBlock
 62
     0
100
AcDbPoint
 10
22.94557400000002
 20
5.548189000000008
 30
0.0
  0
LINE
  5
355A
330
3039
100
AcDbEntity
  8
2
  6
ByBlock
 62
     0
370
    -2
100
AcDbLine
 10
0.0
 20
0.0
 30
0.0
 11
0.0
 21
34.28562815830094
 31
0.0
  0
LINE
  5
355B
330
3039
100
AcDbEntity
  8
2
  6
ByBlock
 62
     0
370
    -2
100
AcDbLine
 10
22.94557400000002
 20
5.548189000000008
 30
0.0
 11
22.94557400000002
 21
34.28562815830094
 31
0.0
  0
LINE
  5
355C
330
3039
100
AcDbEntity
  8
2
  6
ByBlock
 62
     0
370
    -2
100
AcDbLine
 10
0.0
 20
33.03562815830094
 30
0.0
 11
22.94557400000002
 21
33.03562815830094
 31
0.0
  0
SOLID
  5
355D
330
3039
100
AcDbEntity
  8
2
  6
ByBlock
 62
     0
100
AcDbTrace
 10
0.0
 20
33.03562815830094
 30
0.0
 11
2.5
 21
32.61896149163419
 31
0.0
 12
2.5
 22
33.4522948249677
 32
0.0
 13
2.5
 23
33.4522948249677
 33
0.0
  0
SOLID
  5
355E
330
3039
100
AcDbEntity
  8
2
  6
ByBlock
 62
     0
100
AcDbTrace
 10
22.94557400000002
 20
33.03562815830094
 30
0.0
 11
20.44557400000002
 21
32.61896149163419
 31
0.0
 12
20.44557400000002
 22
33.4522948249677
 32
0.0
 13
20.44557400000002
 23
33.4522948249677
 33
0.0
  0
MTEXT
  5
355F
330
3039
100
AcDbEntity
  8
2
  6
ByBlock
 62
     0
100
AcDbMText
 10
11.47278700000001
 20
35.48318613440777
 30
0.0
 40
3.5
 41
0.0
 71
     5
 72
     1
  1
23
 73
     1
 44
1.0
1001
ACAD
1000
MTEXTBEGIN
1070
    73
1070
     1
1070
    44
1040
1.0
1070
    74
1070
     0
1000
MTEXTEND
  0
ENDBLK
  5
3D10
330
3039
100
AcDbEntity
  8
0
100
AcDbBlockEnd
  0
BLOCK
  5
3D11
330
3181
100
AcDbEntity
  8
0
100
AcDbBlockBegin
  2
*D13
 70
     1
 10
0.0
 20
0.0
 30
0.0
  3
*D13
  1

  0
LINE
  5
3D74
330
3181
100
AcDbEntity
  8
SK2
 62
     0
370
    -2
100
AcDbLine
 10
-17.5
 20
4.0
 30
0.0
 11
-17.5
 21
41.25304364943327
 31
0.0
  0
LINE
  5
3D75
330
3181
100
AcDbEntity
  8
SK2
 62
     0
370
    -2
100
AcDbLine
 10
22.94557400000002
 20
5.548189000000008
 30
0.0
 11
22.94557400000002
 21
41.25304364943327
 31
0.0
  0
LINE
  5
3D76
330
3181
100
AcDbEntity
  8
SK2
 62
     0
370
    -2
100
AcDbLine
 10
-15.0
 20
40.00304364943327
 30
0.0
 11
20.44557400000002
 21
40.00304364943327
 31
0.0
  0
SOLID
  5
3D77
330
3181
100
AcDbEntity
  8
SK2
 62
     0
100
AcDbTrace
 10
-15.0
 20
40.41971031609995
 30
0.0
 11
-15.0
 21
39.58637698276663
 31
0.0
 12
-17.5
 22
40.00304364943327
 32
0.0
 13
-17.5
 23
40.00304364943327
 33
0.0
  0
SOLID
  5
3D78
330
3181
100
AcDbEntity
  8
SK2
 62
     0
100
AcDbTrace
 10
20.44557400000002
 20
40.41971031609995
 30
0.0
 11
20.44557400000002
 21
39.58637698276663
 31
0.0
 12
22.94557400000002
 22
40.00304364943327
 32
0.0
 13
22.94557400000002
 23
40.00304364943327
 33
0.0
  0
MTEXT
  5
3D79
330
3181
100
AcDbEntity
  8
SK2
 62
     0
100
AcDbMText
 10
2.722787000000011
 20
42.43953345969329
 30
0.0
 40
3.5
 41
0.0
 71
     5
 72
     1
  1
40.5
 73
     1
 44
1.0
1001
ACAD
1000
MTEXTBEGIN
1070
    73
1070
     1
1070
    44
1040
1.0
1070
    74
1070
     0
1000
MTEXTEND
  0
POINT
  5
3D7A
330
3181
100
AcDbEntity
  8
Defpoints
 62
     0
100
AcDbPoint
 10
-17.5
 20
4.0
 30
0.0
  0
POINT
  5
3D7B
330
3181
100
AcDbEntity
  8
Defpoints
 62
     0
100
AcDbPoint
 10
22.94557400000002
 20
5.548189000000008
 30
0.0
  0
POINT
  5
3D7C
330
3181
100
AcDbEntity
  8
Defpoints
 62
     0
100
AcDbPoint
 10
22.94557400000002
 20
40.00304364943327
 30
0.0
  0
ENDBLK
  5
3D12
330
3181
100
AcDbEntity
  8
0
100
AcDbBlockEnd
  0
ENDSEC
  0
SECTION
  2
ENTITIES
  0
INSERT
  5
63B
330
1F
100
AcDbEntity
  8
SK2
100
AcDbBlockReference
  2
CERO_POINT
 10
0.0
 20
0.0
 30
0.0
  0
LINE
  5
63C
330
1F
100
AcDbEntity
  8
INFTOTAL
100
AcDbLine
 10
-87.32631117866217
 20
74.446036276732
 30
0.0
 11
-37.32631117866219
 21
74.44603627673199
 31
0.0
  0
LINE
  5
63D
330
1F
100
AcDbEntity
  8
INFTOTAL
100
AcDbLine
 10
86.73532450390132
 20
0.0866455548480687
 30
0.0
 11
86.73532450390132
 21
-49.91335444515192
 31
0.0
  0
LINE
  5
63E
330
1F
100
AcDbEntity
  8
INFTOTAL
100
AcDbLine
 10
86.73532450390132
 20
-49.91335444515192
 30
0.0
 11
36.73532450390132
 21
-49.91335444515192
 31
0.0
  0
LINE
  5
63F
330
1F
100
AcDbEntity
  8
INFTOTAL
100
AcDbLine
 10
-87.32631117866217
 20
24.44603627673201
 30
0.0
 11
-87.32631117866217
 21
74.446036276732
 31
0.0
  0
LINE
  5
17FA
330
1F
100
AcDbEntity
  8
SK3
100
AcDbLine
 10
10.83226618061889
 20
1.5
 30
0.0
 11
-17.5
 21
1.5
 31
0.0
  0
LINE
  5
17FB
330
1F
100
AcDbEntity
  8
SK3
100
AcDbLine
 10
9.977150180618878
 20
-1.5
 30
0.0
 11
-17.5
 21
-1.5
 31
0.0
  0
LINE
  5
17FC
330
1F
100
AcDbEntity
  8
SK3
100
AcDbLine
 10
11.69829218061889
 20
0.0
 30
0.0
 11
10.83226618061889
 21
1.5
 31
0.0
  0
LINE
  5
17FD
330
1F
100
AcDbEntity
  8
SK3
100
AcDbLine
 10
11.69829218061889
 20
0.0
 30
0.0
 11
11.08835618061889
 21
-1.056439000000012
 31
0.0
  0
ARC
  5
17FE
330
1F
100
AcDbEntity
  8
SK3
100
AcDbCircle
 10
13.14703318061888
 20
-2.842502999999993
 30
0.0
 40
2.724496000000006
100
AcDbArc
 50
139.0557909999997
 51
148.1654959999997
  0
SPLINE
  5
17FF
330
1F
100
AcDbEntity
  8
SK3
100
AcDbSpline
210
0.0
220
0.0
230
1.0
 70
     8
 71
     5
 72
    18
 73
    12
 74
     0
 42
0.000000001
 43
0.0000000001
 40
0.0
 40
0.0
 40
0.0
 40
0.0
 40
0.0
 40
0.0
 40
0.5088680093735447
 40
0.5088680093735447
 40
0.5088680093735447
 40
1.469227488836931
 40
1.469227488836931
 40
1.469227488836931
 40
1.88648394992821
 40
1.88648394992821
 40
1.88648394992821
 40
1.88648394992821
 40
1.88648394992821
 40
1.88648394992821
 10
9.977150372049607
 20
-1.49999987500459
 30
0.0
 10
9.984147651068411
 20
-1.499999220671524
 30
0.0
 10
10.00076402132719
 20
-1.495741467032701
 30
0.0
 10
10.0265581389294
 20
-1.487569012081564
 30
0.0
 10
10.12212068772186
 20
-1.457617895767525
 30
0.0
 10
10.26698908815621
 20
-1.420103595285156
 30
0.0
 10
10.37255588224298
 20
-1.401697022502501
 30
0.0
 10
10.53126325012474
 20
-1.388717329862487
 30
0.0
 10
10.69052801988033
 20
-1.393015472640739
 30
0.0
 10
10.73850374226927
 20
-1.39584419911958
 30
0.0
 10
10.78582625559429
 20
-1.400022010385698
 30
0.0
 10
10.8322665520239
 20
-1.405355742125323
 30
0.0
  0
DIMENSION
  5
2111
330
1F
100
AcDbEntity
  8
SK2
100
AcDbDimension
  2
*D2
 10
-40.84157999999997
 20
6.499999999999997
 30
0.0
 11
-40.84157999999996
 21
0.0
 31
0.0
 70
   161
  1
%%c<>
 71
     5
 42
13.0
  3
Standard
100
AcDbAlignedDimension
 13
0.0
 23
-6.5
 33
0.0
 14
0.0
 24
6.5
 34
0.0
  0
DIMENSION
  5
2129
330
1F
100
AcDbEntity
  8
2
100
AcDbDimension
  2
*D3
 10
16.80557400000006
 20
23.45372100000001
 30
0.0
 11
7.759105271960692
 21
23.45372100000001
 31
0.0
 70
   161
 71
     5
 42
6.139999999999957
  3
Standard
100
AcDbAlignedDimension
 13
22.94557400000002
 23
8.000000000000001
 33
0.0
 14
16.80557400000006
 24
8.000000000000001
 34
0.0
  0
DIMENSION
  5
2136
330
1F
100
AcDbEntity
  8
2
100
AcDbDimension
  2
*D4
 10
47.7734717778324
 20
8.007281412671586
 30
0.0
 11
47.77581767430717
 21
0.0083283934714586
 31
0.0
 70
   161
  1
%%c<>
 71
     5
 42
16.00000068808386
  3
Standard
100
AcDbAlignedDimension
 13
22.95026640705711
 23
-8.0
 33
0.0
 14
22.94557400000002
 24
8.0
 34
0.0
1001
ACAD
1000
DSTYLE
1002
{
1070
    75
1070
     1
1070
   281
1070
     1
1002
}
  0
DIMENSION
  5
214F
330
1F
100
AcDbEntity
  8
SK2
100
AcDbDimension
  2
*D5
 10
-31.878262
 20
3.999999999999998
 30
0.0
 11
-31.87826199999999
 21
0.0
 31
0.0
 70
   161
  1
M8
 71
     5
 42
8.000000000000001
  3
Standard
100
AcDbAlignedDimension
 13
-17.5
 23
-4.0
 33
0.0
 14
-17.5
 24
4.0
 34
0.0
  0
LINE
  5
215C
330
1F
100
AcDbEntity
  8
SK4
100
AcDbLine
 10
-21.48745400000001
 20
0.0
 30
0.0
 11
0.0
 21
0.0
 31
0.0
  0
LINE
  5
215E
330
1F
100
AcDbEntity
  8
1
100
AcDbLine
 10
21.87320799999998
 20
-2.91408899999999
 30
0.0
 11
21.86848100000004
 21
-2.865008999999986
 31
0.0
  0
LINE
  5
215F
330
1F
100
AcDbEntity
  8
1
100
AcDbLine
 10
22.35000000000002
 20
-4.776030999999988
 30
0.0
 11
22.04921100000001
 21
-3.720206999999988
 31
0.0
  0
SPLINE
  5
2160
330
1F
100
AcDbEntity
  8
1
100
AcDbSpline
210
0.0
220
0.0
230
1.0
 70
     8
 71
     5
 72
    12
 73
     6
 74
     0
 42
0.000000001
 43
0.0000000001
 40
0.0
 40
0.0
 40
0.0
 40
0.0
 40
0.0
 40
0.0
 40
1.505389500723383
 40
1.505389500723383
 40
1.505389500723383
 40
1.505389500723383
 40
1.505389500723383
 40
1.505389500723383
 10
22.04921119154034
 20
-3.720207051532583
 30
0.0
 10
22.00339514305631
 20
-3.559380487454575
 30
0.0
 10
21.95912302445703
 20
-3.38641520905233
 30
0.0
 10
21.91762413540386
 20
-3.206428430396016
 30
0.0
 10
21.88784770818421
 20
-3.045875804260021
 30
0.0
 10
21.87320761746616
 20
-2.914088898663948
 30
0.0
  0
LINE
  5
2161
330
1F
100
AcDbEntity
  8
1
100
AcDbLine
 10
22.35000000000002
 20
1.933500000000007
 30
0.0
 11
22.35000000000002
 21
0.063114000000013
 31
0.0
  0
LINE
  5
2162
330
1F
100
AcDbEntity
  8
1
100
AcDbLine
 10
22.35000000000002
 20
-5.127822000000008
 30
0.0
 11
22.35000000000002
 21
-5.479872
 31
0.0
  0
LINE
  5
2163
330
1F
100
AcDbEntity
  8
1
100
AcDbLine
 10
22.35000000000002
 20
-4.776028999999994
 30
0.0
 11
22.35000000000002
 21
-5.127822000000008
 31
0.0
  0
LINE
  5
2164
330
1F
100
AcDbEntity
  8
1
100
AcDbLine
 10
21.92542300000002
 20
-5.633697000000013
 30
0.0
 11
21.92542300000002
 21
-6.054018000000013
 31
0.0
  0
SPLINE
  5
2165
330
1F
100
AcDbEntity
  8
1
100
AcDbSpline
210
0.0
220
0.0
230
1.0
 70
     8
 71
     5
 72
    18
 73
    12
 74
     0
 42
0.000000001
 43
0.0000000001
 40
0.0
 40
0.0
 40
0.0
 40
0.0
 40
0.0
 40
0.0
 40
0.4345549029380711
 40
0.4345549029380711
 40
0.4345549029380711
 40
0.8715382782774574
 40
0.8715382782774574
 40
0.8715382782774574
 40
1.087837675252099
 40
1.087837675252099
 40
1.087837675252099
 40
1.087837675252099
 40
1.087837675252099
 40
1.087837675252099
 10
22.35000000000002
 20
-5.127821773732191
 30
0.0
 10
22.35000000000002
 20
-5.184652590312082
 30
0.0
 10
22.34213876112773
 20
-5.240996245162619
 30
0.0
 10
22.32643288120551
 20
-5.295584306423422
 30
0.0
 10
22.28000967900675
 20
-5.39908178745253
 30
0.0
 10
22.20642303543463
 20
-5.486514506993215
 30
0.0
 10
22.16339202422955
 20
-5.525285744675159
 30
0.0
 10
22.09137059250162
 20
-5.57443306570792
 30
0.0
 10
22.01037193095436
 20
-5.609198885377594
 30
0.0
 10
21.98270640229441
 20
-5.619067363347256
 30
0.0
 10
21.95433986845353
 20
-5.627244011771495
 30
0.0
 10
21.92542302283363
 20
-5.633696724609791
 30
0.0
  0
ARC
  5
2166
330
1F
100
AcDbEntity
  8
1
100
AcDbCircle
 10
21.74945500000001
 20
-5.479921999999986
 30
0.0
 40
0.6005330000000133
100
AcDbArc
 50
293.8855080000003
 51
0.0047860000002476
  0
LINE
  5
2167
330
1F
100
AcDbEntity
  8
1
100
AcDbLine
 10
22.35000000000002
 20
0.0631180000000029
 30
0.0
 11
21.92542300000002
 21
-0.0117470000000139
 31
0.0
  0
LINE
  5
2168
330
1F
100
AcDbEntity
  8
1
100
AcDbLine
 10
21.92542300000002
 20
2.216438000000009
 30
0.0
 11
21.92542300000002
 21
-0.0117470000000139
 31
0.0
  0
SPLINE
  5
2169
330
1F
100
AcDbEntity
  8
1
100
AcDbSpline
210
0.0
220
0.0
230
1.0
 70
     8
 71
     5
 72
    18
 73
    12
 74
     0
 42
0.000000001
 43
0.0000000001
 40
0.0
 40
0.0
 40
0.0
 40
0.0
 40
0.0
 40
0.0
 40
0.4345549029436046
 40
0.4345549029436046
 40
0.4345549029436046
 40
0.8715382782796144
 40
0.8715382782796144
 40
0.8715382782796144
 40
1.08783767525442
 40
1.08783767525442
 40
1.08783767525442
 40
1.08783767525442
 40
1.08783767525442
 40
1.08783767525442
 10
22.35000000000002
 20
1.933500109456985
 30
0.0
 10
22.35000000000002
 20
1.956888515991608
 30
0.0
 10
22.34213876112756
 20
1.981460422915546
 30
0.0
 10
22.32643288120607
 20
2.006690892063998
 30
0.0
 10
22.28000967900743
 20
2.05745761580809
 30
0.0
 10
22.20642303543519
 20
2.10639516229935
 30
0.0
 10
22.16339202422881
 20
2.129926957543347
 30
0.0
 10
22.09137059250122
 20
2.162832802052321
 30
0.0
 10
22.01037193095436
 20
2.191400481498646
 30
0.0
 10
21.98270640229447
 20
2.200332378348804
 30
0.0
 10
21.95433986845359
 20
2.208691425723599
 30
0.0
 10
21.92542302283363
 20
2.216437880642417
 30
0.0
  0
ARC
  5
216A
330
1F
100
AcDbEntity
  8
1
100
AcDbCircle
 10
-192.605751
 20
-799.4976290000002
 30
0.0
 40
829.9211809999999
100
AcDbArc
 50
75.01916999999997
 51
75.31023199999999
  0
LINE
  5
216B
330
1F
100
AcDbEntity
  8
1
100
AcDbLine
 10
17.85000000000002
 20
3.296020999999995
 30
0.0
 11
17.85000000000002
 21
-0.7303540000000055
 31
0.0
  0
LINE
  5
216C
330
1F
100
AcDbEntity
  8
1
100
AcDbLine
 10
17.85000000000002
 20
-0.7303540000000055
 30
0.0
 11
21.92542300000002
 21
-0.0117470000000139
 31
0.0
  0
LINE
  5
216D
330
1F
100
AcDbEntity
  8
1
100
AcDbLine
 10
17.85000000000002
 20
7.263373000000001
 30
0.0
 11
18.50030700000002
 21
7.074440000000008
 31
0.0
  0
LINE
  5
216E
330
1F
100
AcDbEntity
  8
1
100
AcDbLine
 10
17.85000000000002
 20
7.300000000000013
 30
0.0
 11
17.85000000000002
 21
7.263373000000001
 31
0.0
  0
ARC
  5
216F
330
1F
100
AcDbEntity
  8
1
100
AcDbCircle
 10
-49.799269
 20
316.8239199999999
 30
0.0
 40
330.338371
100
AcDbArc
 50
281.817072
 51
282.540227
  0
LINE
  5
2170
330
1F
100
AcDbEntity
  8
1
100
AcDbLine
 10
17.85000000000002
 20
-6.513542999999997
 30
0.0
 11
17.85000000000002
 21
-7.300000000000013
 31
0.0
  0
LINE
  5
2171
330
1F
100
AcDbEntity
  8
1
100
AcDbLine
 10
16.66941500000001
 20
-6.424128999999994
 30
0.0
 11
17.85000000000002
 21
-6.513542999999997
 31
0.0
  0
LINE
  5
2172
330
1F
100
AcDbEntity
  8
1
100
AcDbLine
 10
16.66941500000001
 20
-6.424128999999994
 30
0.0
 11
16.45607699999999
 21
-6.406352999999996
 31
0.0
  0
LINE
  5
2173
330
1F
100
AcDbEntity
  8
1
100
AcDbLine
 10
14.35000000000002
 20
-6.406352999999996
 30
0.0
 11
14.35000000000002
 21
-7.300000000000013
 31
0.0
  0
LINE
  5
2174
330
1F
100
AcDbEntity
  8
1
100
AcDbLine
 10
14.35000000000002
 20
-6.084357000000013
 30
0.0
 11
14.35000000000002
 21
-6.406352999999996
 31
0.0
  0
ARC
  5
2175
330
1F
100
AcDbEntity
  8
1
100
AcDbCircle
 10
17.80101400000001
 20
9.491828999999995
 30
0.0
 40
15.95443
100
AcDbArc
 50
257.5075150000001
 51
265.1644660000002
  0
LINE
  5
2176
330
1F
100
AcDbEntity
  8
1
100
AcDbLine
 10
14.35000000000002
 20
4.033682999999995
 30
0.0
 11
14.35000000000002
 21
-3.987606999999997
 31
0.0
  0
LINE
  5
2177
330
1F
100
AcDbEntity
  8
1
100
AcDbLine
 10
14.35000000000002
 20
-3.987606999999997
 30
0.0
 11
16.43393800000001
 21
-3.620152999999988
 31
0.0
  0
ARC
  5
2178
330
1F
100
AcDbEntity
  8
1
100
AcDbCircle
 10
-12.967221
 20
-5.378367999999995
 30
0.0
 40
29.454285
100
AcDbArc
 50
3.422262999999988
 51
8.494326999999987
  0
LINE
  5
2179
330
1F
100
AcDbEntity
  8
1
100
AcDbLine
 10
16.164514
 20
-1.027549999999989
 30
0.0
 11
17.85000000000002
 21
-0.7303540000000055
 31
0.0
  0
LINE
  5
217A
330
1F
100
AcDbEntity
  8
1
100
AcDbLine
 10
16.66941500000001
 20
3.467068000000011
 30
0.0
 11
17.85000000000002
 21
3.296020999999995
 31
0.0
  0
ARC
  5
217B
330
1F
100
AcDbEntity
  8
1
100
AcDbCircle
 10
18.53929699999998
 20
16.12937600000001
 30
0.0
 40
12.800102
100
AcDbArc
 50
250.8966669999999
 51
261.5996669999999
  0
LINE
  5
217C
330
1F
100
AcDbEntity
  8
1
100
AcDbLine
 10
14.35000000000002
 20
7.300000000000013
 30
0.0
 11
14.35000000000002
 21
6.114654000000002
 31
0.0
  0
ARC
  5
217D
330
1F
100
AcDbEntity
  8
1
100
AcDbCircle
 10
31.28506099999998
 20
-141.340185
 30
0.0
 40
148.424156
100
AcDbArc
 50
95.742548
 51
96.55166499999999
  0
ELLIPSE
  5
217E
330
1F
100
AcDbEntity
  8
1
100
AcDbEllipse
 10
14.45862399999999
 20
0.0103110000000015
 30
0.0
 11
-1.586257457733154
 21
-7.284768104553222
 31
0.0
210
0.0
220
0.0
230
1.0
 40
0.168673
 41
2.659047353546478
 42
3.036983517778861
  0
LINE
  5
217F
330
1F
100
AcDbEntity
  8
1
100
AcDbLine
 10
16.164514
 20
7.227318999999994
 30
0.0
 11
16.35325399999999
 21
7.231973000000011
 31
0.0
  0
LINE
  5
2180
330
1F
100
AcDbEntity
  8
1
100
AcDbLine
 10
17.57032600000002
 20
7.258244999999987
 30
0.0
 11
17.85000000000002
 21
7.263373000000001
 31
0.0
  0
ARC
  5
2181
330
1F
100
AcDbEntity
  8
1
100
AcDbCircle
 10
19.10675300000003
 20
23.11302599999999
 30
0.0
 40
19.66362900000001
100
AcDbArc
 50
251.3661269999999
 51
256.00074
  0
SPLINE
  5
2182
330
1F
100
AcDbEntity
  8
1
100
AcDbSpline
210
0.0
220
0.0
230
1.0
 70
     8
 71
     5
 72
    18
 73
    12
 74
     0
 42
0.000000001
 43
0.0000000001
 40
0.0
 40
0.0
 40
0.0
 40
0.0
 40
0.0
 40
0.0
 40
0.6577780065205828
 40
0.6577780065205828
 40
0.6577780065205828
 40
1.283695452251952
 40
1.283695452251952
 40
1.283695452251952
 40
2.083904159600463
 40
2.083904159600463
 40
2.083904159600463
 40
2.083904159600463
 40
2.083904159600463
 40
2.083904159600463
 10
12.62914797070545
 20
5.447054726107153
 30
0.0
 10
12.55946012012254
 20
5.418517915692945
 30
0.0
 10
12.49246888138543
 20
5.385199858068062
 30
0.0
 10
12.42873616980438
 20
5.346040742738865
 30
0.0
 10
12.32016171683875
 20
5.258671591061159
 30
0.0
 10
12.25307783922017
 20
5.152927836554568
 30
0.0
 10
12.23358406045674
 20
5.098506283086892
 30
0.0
 10
12.22080819544226
 20
4.972903620062766
 30
0.0
 10
12.26989191741382
 20
4.85484365318041
 30
0.0
 10
12.31300739124521
 20
4.793732614607308
 30
0.0
 10
12.36561935194123
 20
4.738722207572891
 30
0.0
 10
12.42596685039223
 20
4.689086023755664
 30
0.0
  0
ARC
  5
2183
330
1F
100
AcDbEntity
  8
1
100
AcDbCircle
 10
13.19813499999998
 20
5.682499000000007
 30
0.0
 40
1.258895999999968
100
AcDbArc
 50
232.1425170000011
 51
252.7078180000011
  0
ARC
  5
2184
330
1F
100
AcDbEntity
  8
1
100
AcDbCircle
 10
32.39066200000002
 20
-42.954302
 30
0.0
 40
52.280188
100
AcDbArc
 50
110.186425
 51
112.209422
  0
LINE
  5
2185
330
1F
100
AcDbEntity
  8
1
100
AcDbLine
 10
11.10033299999998
 20
6.609262000000001
 30
0.0
 11
11.10033299999998
 21
-5.800173
 31
0.0
  0
ARC
  5
2186
330
1F
100
AcDbEntity
  8
1
100
AcDbCircle
 10
20.16391700000003
 20
7.904558000000008
 30
0.0
 40
15.148771
100
AcDbArc
 50
241.017306
 51
247.431797
  0
SPLINE
  5
2187
330
1F
100
AcDbEntity
  8
1
100
AcDbSpline
210
0.0
220
0.0
230
1.0
 70
     8
 71
     5
 72
    21
 73
    15
 74
     0
 42
0.000000001
 43
0.0000000001
 40
0.0
 40
0.0
 40
0.0
 40
0.0
 40
0.0
 40
0.0
 40
0.6117217008298125
 40
0.6117217008298125
 40
0.6117217008298125
 40
1.198967290598874
 40
1.198967290598874
 40
1.198967290598874
 40
2.083318357822597
 40
2.083318357822597
 40
2.083318357822597
 40
2.993992409768108
 40
2.993992409768108
 40
2.993992409768108
 40
2.993992409768108
 40
2.993992409768108
 40
2.993992409768108
 10
12.62914797070545
 20
-4.291039983569588
 30
0.0
 10
12.56306061291713
 20
-4.302692967831092
 30
0.0
 10
12.49919829018097
 20
-4.320476836146526
 30
0.0
 10
12.43861600867041
 20
-4.345331109725606
 30
0.0
 10
12.33294937886893
 20
-4.409824202212461
 30
0.0
 10
12.26383098551992
 20
-4.501724360991431
 30
0.0
 10
12.24165845830817
 20
-4.552127191159058
 30
0.0
 10
12.21652721077749
 20
-4.685967398530976
 30
0.0
 10
12.25833683491823
 20
-4.824407199162037
 30
0.0
 10
12.30269928498637
 20
-4.903959974706311
 30
0.0
 10
12.41494376405126
 20
-5.052890574300762
 30
0.0
 10
12.56435263221186
 20
-5.181472928980781
 30
0.0
 10
12.64590913535756
 20
-5.241104801349847
 30
0.0
 10
12.73288522641951
 20
-5.296336546557967
 30
0.0
 10
12.82374198916204
 20
-5.346906181606896
 30
0.0
  0
LINE
  5
2188
330
1F
100
AcDbEntity
  8
1
100
AcDbLine
 10
12.62914899999998
 20
-4.291040000000008
 30
0.0
 11
14.35000000000002
 21
-3.987606999999997
 31
0.0
  0
LINE
  5
2189
330
1F
100
AcDbEntity
  8
1
100
AcDbLine
 10
11.10033299999998
 20
-5.800173
 30
0.0
 11
11.10033299999998
 21
-6.609262000000001
 31
0.0
  0
LINE
  5
218A
330
1F
100
AcDbEntity
  8
1
100
AcDbLine
 10
10.06077499999998
 20
-5.704286999999991
 30
0.0
 11
10.06077499999998
 21
-6.5
 31
0.0
  0
LINE
  5
218B
330
1F
100
AcDbEntity
  8
1
100
AcDbLine
 10
10.06077499999998
 20
-4.153312
 30
0.0
 11
10.06077499999998
 21
-5.704286999999991
 31
0.0
  0
ARC
  5
218C
330
1F
100
AcDbEntity
  8
1
100
AcDbCircle
 10
10.05982599999999
 20
-7.375980999999996
 30
0.0
 40
3.222676000000001
100
AcDbArc
 50
82.14964999999926
 51
89.98312899999929
  0
LINE
  5
218D
330
1F
100
AcDbEntity
  8
1
100
AcDbLine
 10
10.583417
 20
-4.196048999999987
 30
0.0
 11
10.5
 21
-4.183497999999985
 31
0.0
  0
ARC
  5
218E
330
1F
100
AcDbEntity
  8
1
100
AcDbCircle
 10
10.02177399999999
 20
-7.610496000000012
 30
0.0
 40
3.460352000000008
100
AcDbArc
 50
73.57895600000005
 51
80.65905400000005
  0
LINE
  5
218F
330
1F
100
AcDbEntity
  8
1
100
AcDbLine
 10
11.0
 20
-3.628362000000008
 30
0.0
 11
11.0
 21
-4.291270999999995
 31
0.0
  0
LINE
  5
2190
330
1F
100
AcDbEntity
  8
1
100
AcDbLine
 10
11.0
 20
3.628362000000008
 30
0.0
 11
11.0
 21
-3.628362000000008
 31
0.0
  0
LINE
  5
2191
330
1F
100
AcDbEntity
  8
1
100
AcDbLine
 10
11.0
 20
4.291270999999995
 30
0.0
 11
11.0
 21
3.628362000000008
 31
0.0
  0
ARC
  5
2192
330
1F
100
AcDbEntity
  8
1
100
AcDbCircle
 10
10.02177599999999
 20
7.610486000000008
 30
0.0
 40
3.460341999999985
100
AcDbArc
 50
279.340935
 51
286.421055
  0
LINE
  5
2193
330
1F
100
AcDbEntity
  8
1
100
AcDbLine
 10
2.5
 20
-4.153312
 30
0.0
 11
10.06077499999998
 21
-4.153312
 31
0.0
  0
LINE
  5
2194
330
1F
100
AcDbEntity
  8
1
100
AcDbLine
 10
2.0
 20
-4.153312
 30
0.0
 11
2.5
 21
-4.153312
 31
0.0
  0
LINE
  5
2195
330
1F
100
AcDbEntity
  8
1
100
AcDbLine
 10
2.5
 20
4.153312
 30
0.0
 11
2.0
 21
4.153312
 31
0.0
  0
LINE
  5
2196
330
1F
100
AcDbEntity
  8
1
100
AcDbLine
 10
10.06077499999998
 20
4.153312
 30
0.0
 11
2.5
 21
4.153312
 31
0.0
  0
ARC
  5
2197
330
1F
100
AcDbEntity
  8
1
100
AcDbCircle
 10
10.05982599999999
 20
7.375979999999997
 30
0.0
 40
3.222676000000011
100
AcDbArc
 50
270.0168710000006
 51
277.8503500000007
  0
LINE
  5
2198
330
1F
100
AcDbEntity
  8
1
100
AcDbLine
 10
10.5
 20
4.183497999999985
 30
0.0
 11
10.583417
 21
4.196048999999987
 31
0.0
  0
LINE
  5
2199
330
1F
100
AcDbEntity
  8
1
100
AcDbLine
 10
10.06077499999998
 20
6.5
 30
0.0
 11
10.06077499999998
 21
4.153312
 31
0.0
  0
LINE
  5
219A
330
1F
100
AcDbEntity
  8
1
100
AcDbLine
 10
2.0
 20
-3.464101999999996
 30
0.0
 11
2.0
 21
-4.153312
 31
0.0
  0
LINE
  5
219B
330
1F
100
AcDbEntity
  8
1
100
AcDbLine
 10
2.0
 20
3.464101999999996
 30
0.0
 11
2.0
 21
-3.464101999999996
 31
0.0
  0
LINE
  5
219C
330
1F
100
AcDbEntity
  8
1
100
AcDbLine
 10
2.0
 20
4.153312
 30
0.0
 11
2.0
 21
3.464101999999996
 31
0.0
  0
LINE
  5
219D
330
1F
100
AcDbEntity
  8
1
100
AcDbLine
 10
0.0
 20
-5.704286999999991
 30
0.0
 11
0.0
 21
6.5
 31
0.0
  0
LINE
  5
219E
330
1F
100
AcDbEntity
  8
SK1
100
AcDbLine
 10
-5.142369999999971
 20
2.037558999999987
 30
0.0
 11
-5.142369999999971
 21
-4.25
 31
0.0
  0
LINE
  5
219F
330
1F
100
AcDbEntity
  8
SK1
100
AcDbLine
 10
-5.142369999999971
 20
4.25
 30
0.0
 11
-5.142369999999971
 21
2.037558999999987
 31
0.0
  0
LINE
  5
21A0
330
1F
100
AcDbEntity
  8
1
100
AcDbLine
 10
0.0
 20
-6.5
 30
0.0
 11
0.0
 21
-5.704286999999991
 31
0.0
  0
LINE
  5
21A1
330
1F
100
AcDbEntity
  8
SK1
100
AcDbLine
 10
-17.5
 20
1.917701999999991
 30
0.0
 11
-17.5
 21
-4.0
 31
0.0
  0
LINE
  5
21A2
330
1F
100
AcDbEntity
  8
SK1
100
AcDbLine
 10
-8.564733999999987
 20
-4.0
 30
0.0
 11
-8.564733999999987
 21
1.917701999999991
 31
0.0
  0
LINE
  5
21A3
330
1F
100
AcDbEntity
  8
SK1
100
AcDbLine
 10
-8.564733999999987
 20
1.917701999999991
 30
0.0
 11
-8.564733999999987
 21
4.0
 31
0.0
  0
LINE
  5
21A4
330
1F
100
AcDbEntity
  8
SK1
100
AcDbLine
 10
-17.5
 20
4.0
 30
0.0
 11
-17.5
 21
1.917701999999991
 31
0.0
  0
LINE
  5
21A5
330
1F
100
AcDbEntity
  8
1
100
AcDbLine
 10
15.88752199999999
 20
3.673410999999986
 30
0.0
 11
16.43393800000001
 21
6.339123999999997
 31
0.0
  0
LINE
  5
21A6
330
1F
100
AcDbEntity
  8
1
100
AcDbLine
 10
15.87482999999997
 20
3.609226000000006
 30
0.0
 11
15.88752199999999
 21
3.673410999999986
 31
0.0
  0
ELLIPSE
  5
21A7
330
1F
100
AcDbEntity
  8
1
100
AcDbEllipse
 10
18.28597300000001
 20
12.18948699999999
 30
0.0
 11
0.0
 21
-8.857481956481931
 31
0.0
210
0.0
220
0.0
230
1.0
 40
0.9848079999999999
 41
5.577571039899146
 42
6.004637512865141
  0
LINE
  5
21A8
330
1F
100
AcDbEntity
  8
1
100
AcDbLine
 10
15.83531800000003
 20
-3.791495999999995
 30
0.0
 11
15.94238200000001
 21
-3.769515000000013
 31
0.0
  0
ELLIPSE
  5
21A9
330
1F
100
AcDbEntity
  8
1
100
AcDbEllipse
 10
16.02639900000003
 20
-4.503852999999992
 30
0.0
 11
0.1388794034719467
 21
-0.7873520255088807
 31
0.0
210
0.0
220
0.0
230
1.0
 40
0.2043810000000001
 41
3.141579781126236
 42
3.546936432693741
  0
ELLIPSE
  5
21AA
330
1F
100
AcDbEntity
  8
1
100
AcDbEllipse
 10
16.35043300000001
 20
-4.447217999999992
 30
0.0
 11
0.138918548822403
 21
-0.7878462076187134
 31
0.0
210
0.0
220
0.0
230
1.0
 40
0.237817
 41
3.864331994058756
 42
5.061454830783549
  0
LINE
  5
21AB
330
1F
100
AcDbEntity
  8
1
100
AcDbLine
 10
12.82374199999998
 20
-5.34690599999999
 30
0.0
 11
16.22188199999999
 21
-4.747722000000009
 31
0.0
  0
SPLINE
  5
21AC
330
1F
100
AcDbEntity
  8
1
100
AcDbSpline
210
0.0
220
0.0
230
1.0
 70
     8
 71
     5
 72
    15
 73
     9
 74
     0
 42
0.000000001
 43
0.0000000001
 40
0.0
 40
0.0
 40
0.0
 40
0.0
 40
0.0
 40
0.0
 40
0.7033292340305733
 40
0.7033292340305733
 40
0.7033292340305733
 40
0.8742309602746065
 40
0.8742309602746065
 40
0.8742309602746065
 40
0.8742309602746065
 40
0.8742309602746065
 40
0.8742309602746065
 10
15.33244011277492
 20
-4.585431333331257
 30
0.0
 10
15.25214585863853
 20
-4.584434256409651
 30
0.0
 10
15.17249621296997
 20
-4.564894630786284
 30
0.0
 10
15.09753915214054
 20
-4.535401928811039
 30
0.0
 10
15.01104174110117
 20
-4.489310595333023
 30
0.0
 10
14.93632230172221
 20
-4.431851491176872
 30
0.0
 10
14.92218940794311
 20
-4.420177811869051
 30
0.0
 10
14.90862074111607
 20
-4.408099421117868
 30
0.0
 10
14.89566547786933
 20
-4.39560836819382
 30
0.0
  0
SPLINE
  5
21AD
330
1F
100
AcDbEntity
  8
1
100
AcDbSpline
210
0.0
220
0.0
230
1.0
 70
     8
 71
     5
 72
    21
 73
    15
 74
     0
 42
0.000000001
 43
0.0000000001
 40
0.0
 40
0.0
 40
0.0
 40
0.0
 40
0.0
 40
0.0
 40
0.4126679180925822
 40
0.4126679180925822
 40
0.4126679180925822
 40
0.8165948015959909
 40
0.8165948015959909
 40
0.8165948015959909
 40
1.440938913263689
 40
1.440938913263689
 40
1.440938913263689
 40
2.078459354522939
 40
2.078459354522939
 40
2.078459354522939
 40
2.078459354522939
 40
2.078459354522939
 40
2.078459354522939
 10
14.89566547786933
 20
-4.39560836819382
 30
0.0
 10
14.86438304655707
 20
-4.365446842513279
 30
0.0
 10
14.83667775794027
 20
-4.332879367768781
 30
0.0
 10
14.81325289512569
 20
-4.297667685665542
 30
0.0
 10
14.77978236036483
 20
-4.224421284237138
 30
0.0
 10
14.77805533396258
 20
-4.147350005645706
 30
0.0
 10
14.7867597855622
 20
-4.110290887695783
 30
0.0
 10
14.83223173910807
 20
-4.022166918133535
 30
0.0
 10
14.92263781404483
 20
-3.955557103502627
 30
0.0
 10
14.98718348229295
 20
-3.923948414725458
 30
0.0
 10
15.12151792898072
 20
-3.872469679871158
 30
0.0
 10
15.26477443837786
 20
-3.837452571741891
 30
0.0
 10
15.33766293923128
 20
-3.822359395396233
 30
0.0
 10
15.40959249621176
 20
-3.808705552340456
 30
0.0
 10
15.47718852286982
 20
-3.798544308114001
 30
0.0
  0
SPLINE
  5
21AE
330
1F
100
AcDbEntity
  8
1
100
AcDbSpline
210
0.0
220
0.0
230
1.0
 70
     8
 71
     5
 72
    27
 73
    21
 74
     0
 42
0.000000001
 43
0.0000000001
 40
0.0
 40
0.0
 40
0.0
 40
0.0
 40
0.0
 40
0.0
 40
0.200856832043655
 40
0.200856832043655
 40
0.200856832043655
 40
0.4043006159617148
 40
0.4043006159617148
 40
0.4043006159617148
 40
0.8116348299783389
 40
0.8116348299783389
 40
0.8116348299783389
 40
1.407659035579409
 40
1.407659035579409
 40
1.407659035579409
 40
1.894938017607545
 40
1.894938017607545
 40
1.894938017607545
 40
1.92948981397316
 40
1.92948981397316
 40
1.92948981397316
 40
1.92948981397316
 40
1.92948981397316
 40
1.92948981397316
 10
15.33244011277492
 20
-4.585431333331257
 30
0.0
 10
15.35537055379285
 20
-4.585716078656901
 30
0.0
 10
15.37835344008516
 20
-4.584488047273509
 30
0.0
 10
15.40165469496122
 20
-4.581487519043947
 30
0.0
 10
15.44713871461664
 20
-4.571634733229898
 30
0.0
 10
15.49029444612677
 20
-4.553795786181551
 30
0.0
 10
15.51159545656412
 20
-4.542482776676308
 30
0.0
 10
15.57076753231746
 20
-4.503693824436596
 30
0.0
 10
15.61978466318152
 20
-4.450436817701558
 30
0.0
 10
15.64780238095523
 20
-4.410486001664168
 30
0.0
 10
15.70694172142635
 20
-4.308578386087503
 30
0.0
 10
15.74670366228099
 20
-4.199500184100428
 30
0.0
 10
15.76511793150752
 20
-4.134594975718187
 30
0.0
 10
15.78801284933803
 20
-4.021071985168418
 30
0.0
 10
15.78757270308603
 20
-3.923984855517375
 30
0.0
 10
15.78189106476015
 20
-3.88513769167659
 30
0.0
 10
15.76840603976933
 20
-3.851637209708968
 30
0.0
 10
15.74664357101182
 20
-3.827240017656037
 30
0.0
 10
15.74516592993638
 20
-3.825664353437276
 30
0.0
 10
15.7436521367195
 20
-3.824129168760123
 30
0.0
 10
15.74210185945287
 20
-3.822634171234313
 30
0.0
  0
SPLINE
  5
21AF
330
1F
100
AcDbEntity
  8
1
100
AcDbSpline
210
0.0
220
0.0
230
1.0
 70
     8
 71
     5
 72
    15
 73
     9
 74
     0
 42
0.000000001
 43
0.0000000001
 40
0.0
 40
0.0
 40
0.0
 40
0.0
 40
0.0
 40
0.0
 40
0.45137782826955
 40
0.45137782826955
 40
0.45137782826955
 40
0.6614137916794352
 40
0.6614137916794352
 40
0.6614137916794352
 40
0.6614137916794352
 40
0.6614137916794352
 40
0.6614137916794352
 10
15.74210185945287
 20
-3.822634171234313
 30
0.0
 10
15.72184934411524
 20
-3.803103819488683
 30
0.0
 10
15.69537031111469
 20
-3.790431969257581
 30
0.0
 10
15.66270518843783
 20
-3.78478473053093
 30
0.0
 10
15.60688871835947
 20
-3.783623060961133
 30
0.0
 10
15.54248607573078
 20
-3.789711011478372
 30
0.0
 10
15.52125796846644
 20
-3.792228077178776
 30
0.0
 10
15.49945854852433
 20
-3.7951966088371
 30
0.0
 10
15.47718852287034
 20
-3.798544308114513
 30
0.0
  0
LINE
  5
21B0
330
1F
100
AcDbEntity
  8
1
100
AcDbLine
 10
22.04921100000001
 20
-3.720206999999988
 30
0.0
 11
16.22188199999999
 21
-4.747722000000009
 31
0.0
  0
LINE
  5
21B1
330
1F
100
AcDbEntity
  8
1
100
AcDbLine
 10
16.22188199999999
 20
-4.747722000000009
 30
0.0
 11
16.66941500000001
 21
-6.424128999999994
 31
0.0
  0
ARC
  5
21B2
330
1F
100
AcDbEntity
  8
1
100
AcDbCircle
 10
21.74994199999998
 20
-5.480077999999991
 30
0.0
 40
0.6001670000000231
100
AcDbArc
 50
287.0009550000034
 51
293.8490900000035
  0
LINE
  5
21B3
330
1F
100
AcDbEntity
  8
1
100
AcDbLine
 10
18.75485100000003
 20
7.023358999999999
 30
0.0
 11
17.85000000000002
 21
7.300000000000013
 31
0.0
  0
LINE
  5
21B4
330
1F
100
AcDbEntity
  8
1
100
AcDbLine
 10
21.92542300000002
 20
-6.054018000000013
 30
0.0
 11
17.85000000000002
 21
-7.300000000000013
 31
0.0
  0
LINE
  5
21B5
330
1F
100
AcDbEntity
  8
1
100
AcDbLine
 10
17.85000000000002
 20
-7.300000000000013
 30
0.0
 11
14.35000000000002
 21
-7.300000000000013
 31
0.0
  0
LINE
  5
21B6
330
1F
100
AcDbEntity
  8
1
100
AcDbLine
 10
17.85000000000002
 20
7.300000000000013
 30
0.0
 11
17.35437300000001
 21
7.300000000000013
 31
0.0
  0
LINE
  5
21B7
330
1F
100
AcDbEntity
  8
1
100
AcDbLine
 10
16.41223200000002
 20
7.300000000000013
 30
0.0
 11
14.35000000000002
 21
7.300000000000013
 31
0.0
  0
LINE
  5
21B8
330
1F
100
AcDbEntity
  8
1
100
AcDbLine
 10
11.10033299999998
 20
6.609262000000001
 30
0.0
 11
14.35000000000002
 21
7.300000000000013
 31
0.0
  0
LINE
  5
21B9
330
1F
100
AcDbEntity
  8
1
100
AcDbLine
 10
11.10033299999998
 20
-6.609262000000001
 30
0.0
 11
14.35000000000002
 21
-7.300000000000013
 31
0.0
  0
LINE
  5
21BA
330
1F
100
AcDbEntity
  8
1
100
AcDbLine
 10
11.0
 20
-6.589007000000008
 30
0.0
 11
11.10033299999998
 21
-6.609262000000001
 31
0.0
  0
ARC
  5
21BB
330
1F
100
AcDbEntity
  8
1
100
AcDbCircle
 10
10.06077599999998
 20
-11.49999099999999
 30
0.0
 40
4.999991000000008
100
AcDbArc
 50
79.1729450000001
 51
84.00000500000009
  0
ARC
  5
21BC
330
1F
100
AcDbEntity
  8
1
100
AcDbCircle
 10
10.06077499999998
 20
-11.49999800000001
 30
0.0
 40
4.99999799999999
100
AcDbArc
 50
83.99999900000009
 51
90.00000100000011
  0
ARC
  5
21BD
330
1F
100
AcDbEntity
  8
1
100
AcDbCircle
 10
10.06077499999998
 20
11.499999
 30
0.0
 40
4.999998999999995
100
AcDbArc
 50
275.9999990000002
 51
282.0000000000003
  0
ARC
  5
21BE
330
1F
100
AcDbEntity
  8
1
100
AcDbCircle
 10
10.06077499999998
 20
11.49999800000001
 30
0.0
 40
4.999998000000005
100
AcDbArc
 50
269.9999990000001
 51
276.0000010000001
  0
LINE
  5
21BF
330
1F
100
AcDbEntity
  8
1
100
AcDbLine
 10
10.06077499999998
 20
-6.5
 30
0.0
 11
2.0
 21
-6.5
 31
0.0
  0
LINE
  5
21C0
330
1F
100
AcDbEntity
  8
1
100
AcDbLine
 10
10.06077499999998
 20
6.5
 30
0.0
 11
0.0
 21
6.5
 31
0.0
  0
ARC
  5
21C1
330
1F
100
AcDbEntity
  8
SK1
100
AcDbCircle
 10
-6.928439000000026
 20
-5.150006999999988
 30
0.0
 40
2.000013999999999
100
AcDbArc
 50
26.74371299999966
 51
35.09960299999965
  0
ARC
  5
21C2
330
1F
100
AcDbEntity
  8
SK1
100
AcDbCircle
 10
-6.928439000000026
 20
5.150006999999988
 30
0.0
 40
2.000014000000025
100
AcDbArc
 50
324.9003970000007
 51
333.2562870000007
  0
LINE
  5
21C3
330
1F
100
AcDbEntity
  8
1
100
AcDbLine
 10
2.0
 20
-6.5
 30
0.0
 11
0.0
 21
-6.5
 31
0.0
  0
LINE
  5
21C4
330
1F
100
AcDbEntity
  8
SK1
100
AcDbLine
 10
0.0
 20
-4.25
 30
0.0
 11
-5.142369999999971
 21
-4.25
 31
0.0
  0
LINE
  5
21C5
330
1F
100
AcDbEntity
  8
SK1
100
AcDbLine
 10
0.0
 20
4.25
 30
0.0
 11
-5.142369999999971
 21
4.25
 31
0.0
  0
LINE
  5
21C6
330
1F
100
AcDbEntity
  8
SK1
100
AcDbLine
 10
-8.564733999999987
 20
-4.0
 30
0.0
 11
-17.5
 21
-4.0
 31
0.0
  0
LINE
  5
21C7
330
1F
100
AcDbEntity
  8
SK1
100
AcDbLine
 10
-8.564733999999987
 20
4.0
 30
0.0
 11
-17.5
 21
4.0
 31
0.0
  0
ARC
  5
21C8
330
1F
100
AcDbEntity
  8
SK1
100
AcDbCircle
 10
-6.928426999999999
 20
5.150000000000004
 30
0.0
 40
2.000000000000003
100
AcDbArc
 50
215.099632
 51
324.9003680000001
  0
ARC
  5
21C9
330
1F
100
AcDbEntity
  8
SK1
100
AcDbCircle
 10
-6.928426999999999
 20
-5.150000000000004
 30
0.0
 40
2.000000000000003
100
AcDbArc
 50
35.09963200000005
 51
144.900368
  0
LINE
  5
21CA
330
1F
100
AcDbEntity
  8
1
100
AcDbLine
 10
21.94701200000003
 20
2.210532999999998
 30
0.0
 11
22.14211299999999
 21
2.435581000000013
 31
0.0
  0
LINE
  5
21CB
330
1F
100
AcDbEntity
  8
1
100
AcDbLine
 10
15.98550899999998
 20
3.586122999999986
 30
0.0
 11
16.09590200000002
 21
3.713460999999995
 31
0.0
  0
ARC
  5
21CC
330
1F
100
AcDbEntity
  8
1
100
AcDbCircle
 10
22.56163800000002
 20
19.20362399999999
 30
0.0
 40
16.78543599999999
100
AcDbArc
 50
247.343895
 51
249.755663
  0
ARC
  5
21CD
330
1F
100
AcDbEntity
  8
1
100
AcDbCircle
 10
22.48600700000003
 20
19.07114799999998
 30
0.0
 40
16.639115
100
AcDbArc
 50
264.1691419999999
 51
268.81574
  0
ELLIPSE
  5
21CE
330
1F
100
AcDbEntity
  8
1
100
AcDbEllipse
 10
18.975683
 20
4.747324999999988
 30
0.0
 11
0.0
 21
-1.059999942779539
 31
0.0
210
0.0
220
0.0
230
1.0
 40
0.9848079999999999
 41
0.2350122195124811
 42
2.906564854759833
  0
ARC
  5
21CF
330
1F
100
AcDbEntity
  8
1
100
AcDbCircle
 10
22.13190700000001
 20
2.64414400000001
 30
0.0
 40
0.2139389999999644
100
AcDbArc
 50
319.2196049999957
 51
348.5175099999957
  0
ARC
  5
21D0
330
1F
100
AcDbEntity
  8
1
100
AcDbCircle
 10
22.14455800000002
 20
2.631362999999993
 30
0.0
 40
0.1958949999999889
100
AcDbArc
 50
269.2846819999981
 51
319.6331859999982
  0
ARC
  5
21D1
330
1F
100
AcDbEntity
  8
1
100
AcDbCircle
 10
16.17973699999999
 20
3.901173999999997
 30
0.0
 40
0.2060899999999805
100
AcDbArc
 50
167.3340349999957
 51
245.9337819999957
  0
LINE
  5
21D2
330
1F
100
AcDbEntity
  8
1
100
AcDbLine
 10
15.93273699999997
 20
3.893995999999986
 30
0.0
 11
15.97822100000002
 21
3.946460999999997
 31
0.0
  0
LINE
  5
21D3
330
1F
100
AcDbEntity
  8
1
100
AcDbLine
 10
22.94557400000002
 20
5.548189000000008
 30
0.0
 11
22.34157499999998
 21
2.601552999999996
 31
0.0
  0
ARC
  5
21D4
330
1F
100
AcDbEntity
  8
1
100
AcDbCircle
 10
22.75068399999998
 20
5.599572999999991
 30
0.0
 40
0.1974020000000083
100
AcDbArc
 50
24.14909599999462
 51
66.96877499999463
  0
ARC
  5
21D5
330
1F
100
AcDbEntity
  8
1
100
AcDbCircle
 10
22.73523999999998
 20
5.591742000000011
 30
0.0
 40
0.2147780000000388
100
AcDbArc
 50
348.3014770000058
 51
24.36983900000586
  0
ARC
  5
21D6
330
1F
100
AcDbEntity
  8
1
100
AcDbCircle
 10
16.44402200000001
 20
-9.478653000000008
 30
0.0
 40
16.541159
100
AcDbArc
 50
67.29827200000007
 51
88.83032300000008
  0
ARC
  5
21D7
330
1F
100
AcDbEntity
  8
1
100
AcDbCircle
 10
16.782377
 20
6.856639000000001
 30
0.0
 40
0.2029469999999956
100
AcDbArc
 50
90.19686100000015
 51
169.6767840000002
  0
LINE
  5
21D8
330
1F
100
AcDbEntity
  8
1
100
AcDbLine
 10
15.97822100000002
 20
3.946460999999997
 30
0.0
 11
16.58222000000001
 21
6.893098000000008
 31
0.0
  0
ELLIPSE
  5
21D9
330
1F
100
AcDbEntity
  8
1
100
AcDbEllipse
 10
19.46189800000002
 20
4.747324999999988
 30
0.0
 11
0.0
 21
-1.059999942779539
 31
0.0
210
0.0
220
0.0
230
1.0
 40
0.9848079999999999
 41
3.141642307293537
 42
6.283234960883332
  0
ELLIPSE
  5
21DA
330
1F
100
AcDbEntity
  8
1
100
AcDbEllipse
 10
19.46189800000002
 20
4.747324999999988
 30
0.0
 11
0.0
 21
-1.059999942779539
 31
0.0
210
0.0
220
0.0
230
1.0
 40
0.9848079999999999
 41
0.0000496537037466
 42
1.365585074929059
  0
ELLIPSE
  5
21DB
330
1F
100
AcDbEntity
  8
1
100
AcDbEllipse
 10
19.46189800000002
 20
4.747324999999988
 30
0.0
 11
0.0
 21
-1.059999942779539
 31
0.0
210
0.0
220
0.0
230
1.0
 40
0.9848079999999999
 41
1.365585074929059
 42
3.141642307293537
  0
LINE
  5
21DC
330
1F
100
AcDbEntity
  8
1
100
AcDbLine
 10
16.58222000000001
 20
6.893098000000008
 30
0.0
 11
16.41439300000001
 21
7.260356000000002
 31
0.0
  0
ARC
  5
21DD
330
1F
100
AcDbEntity
  8
1
100
AcDbCircle
 10
16.62403899999998
 20
7.217775999999987
 30
0.0
 40
0.2139149999999942
100
AcDbArc
 50
139.2178809999989
 51
168.5193079999988
  0
ARC
  5
21DE
330
1F
100
AcDbEntity
  8
1
100
AcDbCircle
 10
16.61140699999999
 20
7.230552999999987
 30
0.0
 40
0.1958890000000111
100
AcDbArc
 50
89.28382100000137
 51
139.6340690000014
  0
LINE
  5
21DF
330
1F
100
AcDbEntity
  8
1
100
AcDbLine
 10
22.66006600000003
 20
6.148448000000002
 30
0.0
 11
22.578417
 21
6.182274000000008
 31
0.0
  0
LINE
  5
21E0
330
1F
100
AcDbEntity
  8
1
100
AcDbLine
 10
16.61385499999999
 20
7.426326999999987
 30
0.0
 11
16.701978
 21
7.424264999999991
 31
0.0
  0
ARC
  5
21E1
330
1F
100
AcDbEntity
  8
1
100
AcDbCircle
 10
22.582854
 20
5.966826999999994
 30
0.0
 40
0.1974080000000147
100
AcDbArc
 50
24.14986199999586
 51
66.96843299999587
  0
LINE
  5
21E2
330
1F
100
AcDbEntity
  8
1
100
AcDbLine
 10
22.82789300000002
 20
5.781190000000008
 30
0.0
 11
22.66006600000003
 21
6.148448000000002
 31
0.0
  0
SPLINE
  5
21E3
330
1F
100
AcDbEntity
  8
1
100
AcDbSpline
210
0.0
220
0.0
230
1.0
 70
     8
 71
     5
 72
    18
 73
    12
 74
     0
 42
0.000000001
 43
0.0000000001
 40
0.5023872400998465
 40
0.5023872400998465
 40
0.5023872400998465
 40
0.5023872400998465
 40
0.5023872400998465
 40
0.5023872400998465
 40
4.764544049339538
 40
4.764544049339538
 40
4.764544049339538
 40
8.212081646334681
 40
8.212081646334681
 40
8.212081646334681
 40
11.52161577632496
 40
11.52161577632496
 40
11.52161577632496
 40
11.52161577632496
 40
11.52161577632496
 40
11.52161577632496
 10
16.70197860667696
 20
7.424265431053327
 30
0.0
 10
17.17003162966198
 20
7.336099610145282
 30
0.0
 10
17.64828354572063
 20
7.244273977159394
 30
0.0
 10
18.13480209476012
 20
7.148890637707069
 30
0.0
 10
19.01933483350496
 20
6.971409610742312
 30
0.0
 10
19.88798739573048
 20
6.789532140021151
 30
0.0
 10
20.2780417585235
 20
6.706183968975665
 30
0.0
 10
21.00243825202142
 20
6.548179105528133
 30
0.0
 10
21.67415686480132
 20
6.395700433790552
 30
0.0
 10
21.99276596767385
 20
6.321887266125344
 30
0.0
 10
22.29357959289166
 20
6.250830897277352
 30
0.0
 10
22.57841237372708
 20
6.182268533873043
 30
0.0
  0
LINE
  5
21E4
330
1F
100
AcDbEntity
  8
1
100
AcDbLine
 10
16.78168199999999
 20
7.059068999999992
 30
0.0
 11
16.61385499999999
 21
7.426326999999987
 31
0.0
  0
LINE
  5
21E5
330
1F
100
AcDbEntity
  8
1
100
AcDbLine
 10
22.01944700000001
 20
2.187838999999995
 30
0.0
 11
22.29389600000002
 21
2.504414999999995
 31
0.0
  0
LINE
  5
21E6
330
1F
100
AcDbEntity
  8
1
100
AcDbLine
 10
16.24928
 20
7.112040000000008
 30
0.0
 11
16.46207199999998
 21
7.357494000000002
 31
0.0
  0
LINE
  5
21E7
330
1F
100
AcDbEntity
  8
1
100
AcDbLine
 10
22.93086499999998
 20
5.680356999999986
 30
0.0
 11
22.763037
 21
6.047615000000008
 31
0.0
  0
ARC
  5
21E8
330
1F
100
AcDbEntity
  8
1
100
AcDbCircle
 10
22.74408699999998
 20
5.593456000000002
 30
0.0
 40
0.2060739999999963
100
AcDbArc
 50
347.3379700000009
 51
65.94368600000082
  0
LINE
  5
21E9
330
1F
100
AcDbEntity
  8
1
100
AcDbLine
 10
22.94557400000002
 20
5.548189000000008
 30
0.0
 11
22.34157499999998
 21
2.601552999999996
 31
0.0
  0
ARC
  5
21EA
330
1F
100
AcDbEntity
  8
1
100
AcDbCircle
 10
22.14141799999999
 20
2.638012000000002
 30
0.0
 40
0.2029469999999956
100
AcDbArc
 50
270.1968610000001
 51
349.6767840000002
  0
ARC
  5
21EB
330
1F
100
AcDbEntity
  8
1
100
AcDbCircle
 10
22.48600700000003
 20
19.07114799999998
 30
0.0
 40
16.639115
100
AcDbArc
 50
264.1691419999999
 51
268.81574
  0
ARC
  5
21EC
330
1F
100
AcDbEntity
  8
1
100
AcDbCircle
 10
16.17973699999999
 20
3.901173999999997
 30
0.0
 40
0.2060899999999805
100
AcDbArc
 50
167.3340349999957
 51
245.9337819999957
  0
LINE
  5
21ED
330
1F
100
AcDbEntity
  8
1
100
AcDbLine
 10
15.97822100000002
 20
3.946460999999997
 30
0.0
 11
16.58222000000001
 21
6.893098000000008
 31
0.0
  0
ARC
  5
21EE
330
1F
100
AcDbEntity
  8
1
100
AcDbCircle
 10
16.782377
 20
6.856639000000001
 30
0.0
 40
0.2029469999999956
100
AcDbArc
 50
90.19686100000015
 51
169.6767840000002
  0
ARC
  5
21EF
330
1F
100
AcDbEntity
  8
1
100
AcDbCircle
 10
16.44402200000001
 20
-9.478653000000008
 30
0.0
 40
16.541159
100
AcDbArc
 50
67.29827200000007
 51
88.83032300000008
  0
LINE
  5
21F0
330
1F
100
AcDbEntity
  8
1
100
AcDbLine
 10
22.18621400000001
 20
2.115270000000009
 30
0.0
 11
22.270715
 21
2.477667999999994
 31
0.0
  0
LINE
  5
21F1
330
1F
100
AcDbEntity
  8
1
100
AcDbLine
 10
22.94557400000002
 20
2.675060999999999
 30
0.0
 11
22.37719099999998
 21
2.775282000000004
 31
0.0
  0
LINE
  5
21F2
330
1F
100
AcDbEntity
  8
1
100
AcDbLine
 10
22.94999899999999
 20
2.674281000000008
 30
0.0
 11
22.94557400000002
 21
2.675060999999999
 31
0.0
  0
LINE
  5
21F3
330
1F
100
AcDbEntity
  8
1
100
AcDbLine
 10
22.782173
 20
1.282275999999995
 30
0.0
 11
22.77774599999998
 21
1.283055999999987
 31
0.0
  0
LINE
  5
21F4
330
1F
100
AcDbEntity
  8
1
100
AcDbLine
 10
22.48088000000001
 20
0.0098950000000002
 30
0.0
 11
22.77774599999998
 21
1.283055999999987
 31
0.0
  0
LINE
  5
21F5
330
1F
100
AcDbEntity
  8
1
100
AcDbLine
 10
22.94557400000002
 20
2.675060999999999
 30
0.0
 11
22.77774599999998
 21
1.283055999999987
 31
0.0
  0
LINE
  5
21F6
330
1F
100
AcDbEntity
  8
1
100
AcDbLine
 10
22.48318399999999
 20
0.0000139999999931
 30
0.0
 11
22.782173
 21
1.282275999999995
 31
0.0
  0
LINE
  5
21F7
330
1F
100
AcDbEntity
  8
1
100
AcDbLine
 10
22.94999999999999
 20
2.674281000000008
 30
0.0
 11
22.782173
 21
1.282275999999995
 31
0.0
  0
LINE
  5
21F8
330
1F
100
AcDbEntity
  8
1
100
AcDbLine
 10
22.82789300000002
 20
2.69581099999999
 30
0.0
 11
22.94991399999998
 21
2.674295999999996
 31
0.0
  0
LINE
  5
21F9
330
1F
100
AcDbEntity
  8
1
100
AcDbLine
 10
22.94557400000002
 20
2.675060999999999
 30
0.0
 11
22.37719099999998
 21
2.775282000000004
 31
0.0
  0
LINE
  5
21FA
330
1F
100
AcDbEntity
  8
1
100
AcDbLine
 10
22.37718599999999
 20
2.775283000000001
 30
0.0
 11
22.82789300000002
 21
2.69581099999999
 31
0.0
  0
LINE
  5
21FB
330
1F
100
AcDbEntity
  8
1
100
AcDbLine
 10
22.243022
 20
-5.821999000000003
 30
0.0
 11
22.341678
 21
-5.781190000000008
 31
0.0
  0
ARC
  5
21FC
330
1F
100
AcDbEntity
  8
1
100
AcDbCircle
 10
22.25784299999998
 20
-5.593477000000007
 30
0.0
 40
0.2060900000000032
100
AcDbArc
 50
294.066218000002
 51
12.66596500000201
  0
LINE
  5
21FD
330
1F
100
AcDbEntity
  8
1
100
AcDbLine
 10
22.45935900000001
 20
-5.548189000000008
 30
0.0
 11
22.35000100000002
 21
-5.014683999999988
 31
0.0
  0
LINE
  5
21FE
330
1F
100
AcDbEntity
  8
1
100
AcDbLine
 10
22.17559499999999
 20
-4.163833000000009
 30
0.0
 11
21.90793200000002
 21
-2.858024999999998
 31
0.0
  0
LINE
  5
21FF
330
1F
100
AcDbEntity
  8
1
100
AcDbLine
 10
22.94557400000002
 20
-5.548189000000008
 30
0.0
 11
22.37718599999999
 21
-2.775283000000001
 31
0.0
  0
ARC
  5
2200
330
1F
100
AcDbEntity
  8
1
100
AcDbCircle
 10
22.73523999999998
 20
-5.591742000000011
 30
0.0
 40
0.2147780000000105
100
AcDbArc
 50
335.6301610000038
 51
11.69852300000384
  0
ARC
  5
2201
330
1F
100
AcDbEntity
  8
1
100
AcDbCircle
 10
16.61140699999999
 20
-7.230552999999987
 30
0.0
 40
0.1958889999999784
100
AcDbArc
 50
220.365931000005
 51
270.716179000005
  0
LINE
  5
2202
330
1F
100
AcDbEntity
  8
1
100
AcDbLine
 10
16.50433800000002
 20
-7.300001000000007
 30
0.0
 11
16.61385499999999
 21
-7.426326999999987
 31
0.0
  0
LINE
  5
2203
330
1F
100
AcDbEntity
  8
1
100
AcDbLine
 10
22.341678
 20
-5.781190000000008
 30
0.0
 11
22.66006600000003
 21
-6.148448000000002
 31
0.0
  0
LINE
  5
2204
330
1F
100
AcDbEntity
  8
1
100
AcDbLine
 10
22.66006600000003
 20
-6.148448000000002
 30
0.0
 11
22.578417
 21
-6.182274000000008
 31
0.0
  0
LINE
  5
2205
330
1F
100
AcDbEntity
  8
1
100
AcDbLine
 10
16.70200499999999
 20
-7.424260000000002
 30
0.0
 11
17.22556600000001
 21
-7.299999000000013
 31
0.0
  0
ARC
  5
2206
330
1F
100
AcDbEntity
  8
1
100
AcDbCircle
 10
49.24338999999998
 20
-148.187719
 30
0.0
 40
144.487152
100
AcDbArc
 50
100.634833
 51
101.878393
  0
LINE
  5
2207
330
1F
100
AcDbEntity
  8
1
100
AcDbLine
 10
16.61385499999999
 20
-7.426326999999987
 30
0.0
 11
16.701978
 21
-7.424264999999991
 31
0.0
  0
ARC
  5
2208
330
1F
100
AcDbEntity
  8
1
100
AcDbCircle
 10
22.582854
 20
-5.966826999999994
 30
0.0
 40
0.1974079999999928
100
AcDbArc
 50
293.031566999998
 51
335.850137999998
  0
ARC
  5
2209
330
1F
100
AcDbEntity
  8
1
100
AcDbCircle
 10
22.56741900000003
 20
-5.959001999999997
 30
0.0
 40
0.2147729999999882
100
AcDbArc
 50
335.6299969999984
 51
11.69946199999837
  0
LINE
  5
220A
330
1F
100
AcDbEntity
  8
1
100
AcDbLine
 10
22.45935900000001
 20
-5.548189000000008
 30
0.0
 11
22.77774599999998
 21
-5.915447
 31
0.0
  0
LINE
  5
220B
330
1F
100
AcDbEntity
  8
1
100
AcDbLine
 10
22.94557400000002
 20
-5.548189000000008
 30
0.0
 11
22.77774599999998
 21
-5.915447
 31
0.0
  0
LINE
  5
220C
330
1F
100
AcDbEntity
  8
1
100
AcDbLine
 10
16.70197899999999
 20
-7.424264999999991
 30
0.0
 11
17.35437400000001
 21
-7.300000000000013
 31
0.0
  0
ARC
  5
220D
330
1F
100
AcDbEntity
  8
1
100
AcDbCircle
 10
-2.705750000000023
 20
99.763233
 30
0.0
 40
108.921235
100
AcDbArc
 50
281.363207
 51
283.422712
  0
LINE
  5
220E
330
1F
100
AcDbEntity
  8
1
100
AcDbLine
 10
16.41223000000002
 20
-7.300001000000007
 30
0.0
 11
16.46207199999998
 21
-7.357494000000002
 31
0.0
  0
LINE
  5
220F
330
1F
100
AcDbEntity
  8
1
100
AcDbLine
 10
22.93086499999998
 20
-5.680356999999986
 30
0.0
 11
22.763037
 21
-6.047615000000008
 31
0.0
  0
ARC
  5
2210
330
1F
100
AcDbEntity
  8
1
100
AcDbCircle
 10
22.73524500000002
 20
-5.591742000000011
 30
0.0
 40
0.2147729999999793
100
AcDbArc
 50
335.6029440000006
 51
11.69881000000062
  0
LINE
  5
2211
330
1F
100
AcDbEntity
  8
1
100
AcDbLine
 10
22.94557400000002
 20
-5.548189000000008
 30
0.0
 11
22.37718599999999
 21
-2.775283000000001
 31
0.0
  0
LINE
  5
2212
330
1F
100
AcDbEntity
  8
1
100
AcDbLine
 10
22.341678
 20
0.061649999999986
 30
0.0
 11
22.46378399999998
 21
0.0831809999999962
 31
0.0
  0
LINE
  5
2213
330
1F
100
AcDbEntity
  8
1
100
AcDbLine
 10
15.97379599999999
 20
-3.90437399999999
 30
0.0
 11
15.97822100000002
 21
-3.903593000000001
 31
0.0
  0
LINE
  5
2214
330
1F
100
AcDbEntity
  8
1
100
AcDbLine
 10
15.93273800000003
 20
-3.708529999999995
 30
0.0
 11
15.97822100000002
 21
-3.903593000000001
 31
0.0
  0
LINE
  5
2215
330
1F
100
AcDbEntity
  8
1
100
AcDbLine
 10
22.82789300000002
 20
-2.69581099999999
 30
0.0
 11
22.94999899999999
 21
-2.674281000000008
 31
0.0
  0
LINE
  5
2216
330
1F
100
AcDbEntity
  8
1
100
AcDbLine
 10
16.78168199999999
 20
-3.761921999999998
 30
0.0
 11
22.82789300000002
 21
-2.69581099999999
 31
0.0
  0
LINE
  5
2217
330
1F
100
AcDbEntity
  8
1
100
AcDbLine
 10
16.78168199999999
 20
-3.761921999999998
 30
0.0
 11
16.58222000000001
 21
-3.797091999999991
 31
0.0
  0
LINE
  5
2218
330
1F
100
AcDbEntity
  8
1
100
AcDbLine
 10
15.97822100000002
 20
-3.903593000000001
 30
0.0
 11
16.58222000000001
 21
-3.797091999999991
 31
0.0
  0
LINE
  5
2219
330
1F
100
AcDbEntity
  8
1
100
AcDbLine
 10
16.58222000000001
 20
-3.797091999999991
 30
0.0
 11
16.41439300000001
 21
-2.405087000000009
 31
0.0
  0
LINE
  5
221A
330
1F
100
AcDbEntity
  8
1
100
AcDbLine
 10
16.262989
 20
-1.755768999999985
 30
0.0
 11
16.41439300000001
 21
-2.405087000000009
 31
0.0
  0
LINE
  5
221B
330
1F
100
AcDbEntity
  8
1
100
AcDbLine
 10
16.41439300000001
 20
-2.405087000000009
 30
0.0
 11
16.61385499999999
 21
-2.369916999999985
 31
0.0
  0
LINE
  5
221C
330
1F
100
AcDbEntity
  8
1
100
AcDbLine
 10
16.29546700000003
 20
-1.004459999999995
 30
0.0
 11
16.61385499999999
 21
-2.369916999999985
 31
0.0
  0
LINE
  5
221D
330
1F
100
AcDbEntity
  8
1
100
AcDbLine
 10
22.341678
 20
0.061649999999986
 30
0.0
 11
22.66006600000003
 21
-1.303807000000004
 31
0.0
  0
LINE
  5
221E
330
1F
100
AcDbEntity
  8
1
100
AcDbLine
 10
22.66006600000003
 20
-1.303807000000004
 30
0.0
 11
22.578417
 21
-1.318204000000009
 31
0.0
  0
SPLINE
  5
221F
330
1F
100
AcDbEntity
  8
1
100
AcDbSpline
210
0.0
220
0.0
230
1.0
 70
     8
 71
     5
 72
    18
 73
    12
 74
     0
 42
0.000000001
 43
0.0000000001
 40
0.502151655081422
 40
0.502151655081422
 40
0.502151655081422
 40
0.502151655081422
 40
0.502151655081422
 40
0.502151655081422
 40
4.066606102456836
 40
4.066606102456836
 40
4.066606102456836
 40
7.524212728860522
 40
7.524212728860522
 40
7.524212728860522
 40
11.51775886342234
 40
11.51775886342234
 40
11.51775886342234
 40
11.51775886342234
 40
11.51775886342234
 40
11.51775886342234
 10
16.70200517269853
 20
-2.354390530058365
 30
0.0
 10
17.00880454722721
 20
-2.051101147204803
 30
0.0
 10
17.33424571316436
 20
-1.77286175745999
 30
0.0
 10
17.68087212738101
 20
-1.52330053159352
 30
0.0
 10
18.38621180563968
 20
-1.113904344888396
 30
0.0
 10
19.14621243555786
 20
-0.8657163960159833
 30
0.0
 10
19.54032140190628
 20
-0.7851278564254473
 30
0.0
 10
20.38363466742618
 20
-0.7119986493117381
 30
0.0
 10
21.2375135010418
 20
-0.8345468723505289
 30
0.0
 10
21.69236844493452
 20
-0.9531792744156176
 30
0.0
 10
22.13987229399652
 20
-1.116623451882956
 30
0.0
 10
22.5784266824877
 20
-1.318186666759827
 30
0.0
  0
LINE
  5
2220
330
1F
100
AcDbEntity
  8
1
100
AcDbLine
 10
16.61385499999999
 20
-2.369916999999985
 30
0.0
 11
16.701978
 21
-2.354377999999996
 31
0.0
  0
LINE
  5
2221
330
1F
100
AcDbEntity
  8
1
100
AcDbLine
 10
22.66006600000003
 20
-1.303807000000004
 30
0.0
 11
22.782173
 21
-1.282275999999995
 31
0.0
  0
LINE
  5
2222
330
1F
100
AcDbEntity
  8
1
100
AcDbLine
 10
22.82789300000002
 20
-2.69581099999999
 30
0.0
 11
22.66006600000003
 21
-1.303807000000004
 31
0.0
  0
SPLINE
  5
2223
330
1F
100
AcDbEntity
  8
1
100
AcDbSpline
210
0.0
220
0.0
230
1.0
 70
     8
 71
     5
 72
    18
 73
    12
 74
     0
 42
0.000000001
 43
0.0000000001
 40
0.5023872400998465
 40
0.5023872400998465
 40
0.5023872400998465
 40
0.5023872400998465
 40
0.5023872400998465
 40
0.5023872400998465
 40
4.764544049339538
 40
4.764544049339538
 40
4.764544049339538
 40
8.212081646334681
 40
8.212081646334681
 40
8.212081646334681
 40
11.52161577632496
 40
11.52161577632496
 40
11.52161577632496
 40
11.52161577632496
 40
11.52161577632496
 40
11.52161577632496
 10
16.70197860667696
 20
-2.354378320057973
 30
0.0
 10
17.17003162966198
 20
-2.56950110748326
 30
0.0
 10
17.64828354572063
 20
-2.741206427565487
 30
0.0
 10
18.13480209476012
 20
-2.861360907311251
 30
0.0
 10
19.01933483350496
 20
-2.967318979039618
 30
0.0
 10
19.88798739573048
 20
-2.861576989966549
 30
0.0
 10
20.2780417585235
 20
-2.76764026584314
 30
0.0
 10
21.00243825202142
 20
-2.504279516101832
 30
0.0
 10
21.67415686480132
 20
-2.095064192726454
 30
0.0
 10
21.99276596767385
 20
-1.859752048367879
 30
0.0
 10
22.29357959289166
 20
-1.599790777901234
 30
0.0
 10
22.57841237372708
 20
-1.318200812653288
 30
0.0
  0
LINE
  5
2224
330
1F
100
AcDbEntity
  8
1
100
AcDbLine
 10
16.78168199999999
 20
-3.761921999999998
 30
0.0
 11
16.61385499999999
 21
-2.369916999999985
 31
0.0
  0
LINE
  5
2225
330
1F
100
AcDbEntity
  8
1
100
AcDbLine
 10
15.92831200000001
 20
-3.709309999999987
 30
0.0
 11
15.973795
 21
-3.90437399999999
 31
0.0
  0
LINE
  5
2226
330
1F
100
AcDbEntity
  8
1
100
AcDbLine
 10
22.46378500000004
 20
0.0831809999999962
 30
0.0
 11
22.782173
 21
-1.282275999999995
 31
0.0
  0
LINE
  5
2227
330
1F
100
AcDbEntity
  8
1
100
AcDbLine
 10
22.94999999999999
 20
-2.674281000000008
 30
0.0
 11
22.782173
 21
-1.282275999999995
 31
0.0
  0
LINE
  5
2228
330
1F
100
AcDbEntity
  8
1
100
AcDbLine
 10
22.82789300000002
 20
-2.69581099999999
 30
0.0
 11
22.94999899999999
 21
-2.674281000000008
 31
0.0
  0
LINE
  5
2229
330
1F
100
AcDbEntity
  8
1
100
AcDbLine
 10
15.97379699999999
 20
-3.90437399999999
 30
0.0
 11
15.97822100000002
 21
-3.903593000000001
 31
0.0
  0
LINE
  5
222A
330
1F
100
AcDbEntity
  8
1
100
AcDbLine
 10
15.97822100000002
 20
-3.903593000000001
 30
0.0
 11
16.58222000000001
 21
-3.797091999999991
 31
0.0
  0
LINE
  5
222B
330
1F
100
AcDbEntity
  8
1
100
AcDbLine
 10
16.78168199999999
 20
-3.761921999999998
 30
0.0
 11
16.58222000000001
 21
-3.797091999999991
 31
0.0
  0
LINE
  5
222C
330
1F
100
AcDbEntity
  8
1
100
AcDbLine
 10
16.78168199999999
 20
-3.761921999999998
 30
0.0
 11
22.82789300000002
 21
-2.69581099999999
 31
0.0
  0
LINE
  5
2395
330
1F
100
AcDbEntity
  8
4
100
AcDbLine
 10
0.0
 20
0.0
 30
0.0
 11
26.35597999999999
 21
0.0
 31
0.0
  0
LINE
  5
2429
330
1F
100
AcDbEntity
  8
SK3
100
AcDbLine
 10
11.0174789172361
 20
1.179202350823393
 30
0.0
 11
13.60900290718456
 21
2.996263903843238
 31
0.0
  0
LINE
  5
242A
330
1F
100
AcDbEntity
  8
SK3
100
AcDbLine
 10
11.2652791806189
 20
0.75
 30
0.0
 11
13.85680317056736
 21
2.567061553019845
 31
0.0
  0
DIMENSION
  5
302E
330
1F
100
AcDbEntity
  8
2
100
AcDbDimension
  2
*D12
 10
22.94557400000002
 20
33.03562815830094
 30
0.0
 11
11.47278700000001
 21
35.48318613440777
 31
0.0
 70
    32
  1
23
 71
     5
 41
0.0
 42
22.94557400000002
  3
Standard
100
AcDbAlignedDimension
 13
0.0
 23
0.0
 33
0.0
 14
22.94557400000002
 24
5.548189000000008
 34
0.0
100
AcDbRotatedDimension
  0
DIMENSION
  5
3176
330
1F
100
AcDbEntity
  8
SK2
100
AcDbDimension
  2
*D13
 10
22.94557400000002
 20
40.00304364943327
 30
0.0
 11
2.722787000000011
 21
42.43953345969329
 31
0.0
 70
    32
  1
40.5
 71
     5
 41
0.0
 42
40.44557400000002
  3
Standard
100
AcDbAlignedDimension
 13
-17.5
 23
4.0
 33
0.0
 14
22.94557400000002
 24
5.548189000000008
 34
0.0
100
AcDbRotatedDimension
  0
LINE
  5
3912
330
1F
100
AcDbEntity
  8
2
100
AcDbLine
 10
22.94557400000002
 20
6.322350989587227
 30
0.0
 11
22.94557400000002
 21
11.91727395026281
 31
0.0
  0
MTEXT
  5
3BE5
330
1F
100
AcDbEntity
  8
2
100
AcDbMText
 10
37.47128801742674
 20
14.58455596074417
 30
0.0
 40
3.499999999999998
 41
0.0
 71
     5
 72
     1
  1
\A1;69%%d~81%%d
  7
MM_STANDARD
 11
0.9885931697720568
 21
-0.150610572935758
 31
0.0
 73
     1
 44
1.0
1001
ACAD
1000
MTEXTBEGIN
1070
    73
1070
     1
1070
    44
1040
1.0
1070
    74
1070
     0
1000
MTEXTEND
  0
SOLID
  5
3BE6
330
1F
100
AcDbEntity
  8
2
100
AcDbTrace
 10
22.94557400000002
 20
14.62190111833668
 30
0.0
 11
20.53684548095979
 21
13.83346086525885
 31
0.0
 12
20.41133667017996
 22
14.65728850673573
 32
0.0
 13
20.41133667017996
 23
14.65728850673573
 33
0.0
  0
SOLID
  5
3BE7
330
1F
100
AcDbEntity
  8
2
100
AcDbTrace
 10
15.19727691788965
 20
9.296644967489392
 30
0.0
 11
16.07242975361055
 21
11.67524090317095
 31
0.0
 12
16.79656071460357
 22
11.26283479776507
 32
0.0
 13
16.79656071460357
 23
11.26283479776507
 33
0.0
  0
LINE
  5
3BE8
330
1F
100
AcDbEntity
  8
2
100
AcDbLine
 10
22.94557400000002
 20
6.322350989587223
 30
0.0
 11
14.03030145507654
 21
9.744605087580607
 31
0.0
  0
ARC
  5
3BE9
330
1F
100
AcDbEntity
  8
2
100
AcDbCircle
 10
22.94557400000002
 20
6.322350989587223
 30
0.0
 40
8.299550128749459
100
AcDbArc
 50
107.3246236019418
 51
141.6753674053486
  0
ARC
  5
3BEA
330
1F
100
AcDbEntity
  8
2
100
AcDbCircle
 10
22.94557400000002
 20
6.322350989587223
 30
0.0
 40
8.299550128749457
100
AcDbArc
 50
65.40408983140946
 51
90.00000000000005
  0
LINE
  5
3BEB
330
1F
100
AcDbEntity
  8
2
100
AcDbLine
 10
26.39997863509982
 20
13.86884825365789
 30
0.0
 11
47.82719717830931
 21
10.60444611141311
 31
0.0
  0
LWPOLYLINE
  5
3D5E
330
1F
100
AcDbEntity
  8
CUT
100
AcDbPolyline
 90
      814
 70
     1
 43
0.0
 10
16.59109999999998
 20
7.820142000000002
 10
15.8918003162128
 20
5.022266297103623
 10
15.89141965382912
 20
5.020757371165146
 10
15.89111831297065
 20
5.019370334032407
 10
15.89086299524707
 20
5.017972228127368
 10
15.89065389501839
 20
5.016563196000191
 10
15.89049117587017
 20
5.015143562097017
 10
15.89037497149206
 20
5.013713803523204
 10
15.89030538655625
 20
5.012274520806551
 10
15.89028249759607
 20
5.010826408660533
 10
15.89030635388447
 20
5.009370226747534
 10
15.89037697831255
 20
5.007906770442072
 10
15.89049436826807
 20
5.00643684159404
 10
15.890658496514
 20
5.004961219291926
 10
15.89086931206701
 20
5.003480630626052
 10
15.89112674107601
 20
5.001995721451797
 10
15.89143068770067
 20
5.000507027152843
 10
15.89178103498992
 20
4.99901494340439
 10
15.89217764576052
 20
4.997519696936391
 10
15.89262036347552
 20
4.996021316296794
 10
15.89310907092042
 20
4.994519610087745
 10
15.89364390695741
 20
4.993014319425231
 10
15.89422497831863
 20
4.991505376930823
 10
15.89485225194491
 20
4.989992922589426
 10
15.89552557082608
 20
4.988477275390209
 10
15.89624466993335
 20
4.986958904955386
 10
15.89700919215159
 20
4.985438403168974
 10
15.89781870421176
 20
4.98391645580557
 10
15.89867271262318
 20
4.982393814159133
 10
15.89957067960592
 20
4.980871266671743
 10
15.90051203902309
 20
4.979349610562382
 10
15.90149621231327
 20
4.977829623455695
 10
15.90252262442275
 20
4.976312035010778
 10
15.90359071973797
 20
4.974797498549937
 10
15.90469997801777
 20
4.973286562687468
 10
15.90584993032585
 20
4.971779642958424
 10
15.90704017496296
 20
4.970276993447386
 10
15.90827039339938
 20
4.968778678417246
 10
15.90954037833848
 20
4.967284546524286
 10
15.91085018991161
 20
4.9657943199483
 10
15.91219991826472
 20
4.964307847656706
 10
15.91358944905697
 20
4.962825153797991
 10
15.91501848119687
 20
4.961346415819504
 10
15.91648655154042
 20
4.959871942161686
 10
15.91799305958915
 20
4.958402149952294
 10
15.91953729218822
 20
4.956937542700637
 10
15.92111844822452
 20
4.955478687991804
 10
15.92273566332468
 20
4.954026195180902
 10
15.92438803455325
 20
4.952580693087273
 10
15.92607464511069
 20
4.951142807688738
 10
15.92779458903151
 20
4.949713139815823
 10
15.92954699588231
 20
4.948292242845986
 10
15.93133105545991
 20
4.946880600397849
 10
15.93314604248936
 20
4.945478604025438
 10
15.9349913413221
 20
4.9440865309124
 10
15.93686647063398
 20
4.942704521566241
 10
15.93877110812337
 20
4.941332557512559
 10
15.94070513259709
 20
4.939970446026102
 10
15.94266868308275
 20
4.938617933773058
 10
15.94466181564738
 20
4.937274880880356
 10
15.9466843689847
 20
4.935941270971213
 10
15.9487359890666
 20
4.934617195935677
 10
15.95081615490183
 20
4.933302840743106
 10
15.9529242042949
 20
4.931998468254637
 10
15.95505935960482
 20
4.930704404035681
 10
15.95722075350397
 20
4.929421021168388
 10
15.95940745473689
 20
4.928148725064138
 10
15.96161849387906
 20
4.926887938276016
 10
15.96385288909576
 20
4.925639085311289
 10
15.96610967190086
 20
4.924402577443889
 10
15.96838791291562
 20
4.9231787975269
 10
15.9706867476275
 20
4.921968084805019
 10
15.97300540214902
 20
4.920770719727056
 10
15.9753432189765
 20
4.919586908758401
 10
15.97769968274891
 20
4.918416769193505
 10
15.98007444600668
 20
4.917260313968371
 10
15.98246735629263
 20
4.916117436673261
 10
15.98487852621554
 20
4.914987933557793
 10
15.98730814098974
 20
4.91387163770637
 10
15.98975618339551
 20
4.912768470234113
 10
15.99222243811863
 20
4.911678431488728
 10
15.99470651650314
 20
4.910601591001393
 10
15.99720788130406
 20
4.909538077437653
 10
15.99972587144011
 20
4.908488068548302
 10
16.00225972674646
 20
4.907451781120283
 10
16.00480861272741
 20
4.906429460927568
 10
16.00737164530917
 20
4.905421372682061
 10
16.00994791559258
 20
4.904427789984476
 10
16.01253651460581
 20
4.903448985275234
 10
16.01513655805709
 20
4.902485219785356
 10
16.01774721108749
 20
4.901536733487342
 10
16.02036771302358
 20
4.900603735046077
 10
16.02299740213019
 20
4.899686391769708
 10
16.02563574036316
 20
4.898784819560539
 10
16.02828233812201
 20
4.897899072865924
 10
16.03093697900273
 20
4.897029134629159
 10
16.03359964455972
 20
4.896174906237392
 10
16.04324355322169
 20
4.89311476338975
 10
16.05288836583658
 20
4.890056069184429
 10
16.06253408153242
 20
4.88699881917322
 10
16.0721806989967
 20
4.883943009041225
 10
16.08182821669259
 20
4.880888634538587
 10
16.09147663286483
 20
4.877835691478948
 10
16.10112594554575
 20
4.874784175737886
 10
16.1107761525612
 20
4.87173408325138
 10
16.12042725153649
 20
4.868685410014245
 10
16.13007923990235
 20
4.865638152078597
 10
16.13973211490091
 20
4.862592305552291
 10
16.14938587359161
 20
4.859547866597377
 10
16.15904051285717
 20
4.856504831428551
 10
16.16869602940956
 20
4.853463196311606
 10
16.17835241979594
 20
4.850422957561871
 10
16.18800968040458
 20
4.847384111542679
 10
16.19766780747089
 20
4.844346654663806
 10
16.2073267970833
 20
4.841310583379922
 10
16.21698664518925
 20
4.83827589418904
 10
16.22664734760112
 20
4.835242583630972
 10
16.23630890000219
 20
4.832210648285777
 10
16.24597129795267
 20
4.829180084772213
 10
16.25563453689547
 20
4.826150889746172
 10
16.26529861216235
 20
4.823123059899155
 10
16.27496351897976
 20
4.820096591956704
 10
16.28462925247482
 20
4.817071482676861
 10
16.29429580768127
 20
4.814047728848611
 10
16.30396317954543
 20
4.81102532729034
 10
16.31363136293218
 20
4.808004274848277
 10
16.32330035263083
 20
4.804984568394958
 10
16.33297014336116
 20
4.801966204827658
 10
16.34264072977934
 20
4.798949181066848
 10
16.35231210648386
 20
4.79593349405466
 10
16.36198426802152
 20
4.792919140753308
 10
16.37165720889338
 20
4.78990611814357
 10
16.38133092356068
 20
4.786894423223214
 10
16.39100540645081
 20
4.783884053005456
 10
16.40068065196329
 20
4.780875004517416
 10
16.41035665447567
 20
4.777867274798563
 10
16.42003340834955
 20
4.774860860899162
 10
16.42971090793647
 20
4.771855759878731
 10
16.43938914758389
 20
4.768851968804487
 10
16.44906812164115
 20
4.765849484749797
 10
16.45874782446539
 20
4.762848304792629
 10
16.46842825042757
 20
4.759848426013999
 10
16.47810939391835
 20
4.756849845496426
 10
16.48779124935408
 20
4.753852560322383
 10
16.49747381118275
 20
4.750856567572736
 10
16.50715707388993
 20
4.74786186432521
 10
16.51684103200473
 20
4.74486844765283
 10
16.52652568010578
 20
4.741876314622369
 10
16.53621101282715
 20
4.738885462292804
 10
16.54589702486427
 20
4.735895887713766
 10
16.55558371097999
 20
4.732907587923987
 10
16.56527106601041
 20
4.729920559949748
 10
16.57495908487092
 20
4.72693480080334
 10
16.58464776256212
 20
4.723950307481501
 10
16.59433709417578
 20
4.720967076963872
 10
16.60402707490076
 20
4.717985106211449
 10
16.61371770002903
 20
4.715004392165035
 10
16.62340896496156
 20
4.712024931743681
 10
16.63310086521432
 20
4.709046721843143
 10
16.64279339642417
 20
4.706069759334331
 10
16.6524865543549
 20
4.703094041061763
 10
16.66218033490311
 20
4.700119563842008
 10
16.67187473410419
 20
4.697146324462138
 10
16.68156974813829
 20
4.694174319678184
 10
16.69126537333624
 20
4.691203546213579
 10
16.70096160618551
 20
4.688234000757612
 10
16.71065844333619
 20
4.685265679963875
 10
16.72035588160694
 20
4.682298580448723
 10
16.73005391799087
 20
4.679332698789706
 10
16.73975254966161
 20
4.676368031524041
 10
16.74945177397917
 20
4.67340457514704
 10
16.75915158849592
 20
4.670442326110582
 10
16.76885199096259
 20
4.667481280821546
 10
16.77855297731847
 20
4.664521436254094
 10
16.78825445216253
 20
4.661562817223456
 10
16.79795717026403
 20
4.658605189681495
 10
16.80765912050381
 20
4.655649161695388
 10
16.81734647564278
 20
4.65269893920187
 10
16.8269928429823
 20
4.649762554660153
 10
16.83657733390367
 20
4.646846354429027
 10
16.84608925466711
 20
4.643953567405874
 10
16.85552830568422
 20
4.64108425607942
 10
16.86490426629586
 20
4.638235428110806
 10
16.8742347586989
 20
4.635401725644863
 10
16.88354229685209
 20
4.63257631800259
 10
16.8928512300821
 20
4.629751826070521
 10
16.90218468074399
 20
4.626921248594072
 10
16.91156148188176
 20
4.624078888470881
 10
16.92099311488887
 20
4.621221279044149
 10
16.93048123980513
 20
4.618347930377002
 10
16.94001628470658
 20
4.615461746785793
 10
16.94957404314471
 20
4.612570047487988
 10
16.95912705037462
 20
4.609681124097347
 10
16.96866020744079
 20
4.606799514777156
 10
16.97817235301435
 20
4.603925534377366
 10
16.98766144430936
 20
4.601059755461646
 10
16.99712215406957
 20
4.598203735385561
 10
17.00654733491024
 20
4.595359578133191
 10
17.0159324571651
 20
4.592528603785893
 10
17.02527555245845
 20
4.589711365487723
 10
17.03457670908614
 20
4.586907800880766
 10
17.04383785610999
 20
4.584117296956533
 10
17.05306254745232
 20
4.58133875490737
 10
17.06225574599039
 20
4.57857065497784
 10
17.07142148507565
 20
4.575811758240217
 10
17.08050398509607
 20
4.573078775387865
 10
17.08940498524462
 20
4.570401163889653
 10
17.09806818093031
 20
4.567795790555488
 10
17.10647738235286
 20
4.565267485223524
 10
17.11464965183179
 20
4.562811101213387
 10
17.12262844113545
 20
4.560413575779388
 10
17.13047672881007
 20
4.558055990563746
 10
17.13827015750884
 20
4.555715632049808
 10
17.14609017132095
 20
4.553368052015271
 10
17.15401715310064
 20
4.550989127985403
 10
17.16212356179627
 20
4.548557123686257
 10
17.17046706977936
 20
4.546054749497896
 10
17.17908370017368
 20
4.54347122290761
 10
17.18798096418423
 20
4.540804328963143
 10
17.19713099842639
 20
4.538062480725903
 10
17.2064637022549
 20
4.535266779724191
 10
17.21586986742507
 20
4.532450075699028
 10
17.2253053715193
 20
4.529625673891726
 10
17.23477902701968
 20
4.526790975001238
 10
17.24429551099147
 20
4.523944611667456
 10
17.25385524350345
 20
4.521086486042533
 10
17.26345521459863
 20
4.518217522532103
 10
17.273089811265
 20
4.515339420536497
 10
17.28275164440626
 20
4.51245440719196
 10
17.29243237581256
 20
4.509564990111878
 10
17.30212354513124
 20
4.506673710127996
 10
17.3118173968376
 20
4.503782894031631
 10
17.32150770720556
 20
4.500894407314893
 10
17.33119061127849
 20
4.498009406911916
 10
17.34086542983988
 20
4.495128093940058
 10
17.35053549638412
 20
4.492249466441139
 10
17.36020849020628
 20
4.489371219620451
 10
17.36988792307087
 20
4.486492288265242
 10
17.37957154517898
 20
4.483613323879995
 10
17.3892584004116
 20
4.480734589544962
 10
17.39895123091219
 20
4.477855245820823
 10
17.40865468572634
 20
4.474973881315928
 10
17.41835128220434
 20
4.472095650407478
 10
17.42801853415227
 20
4.469227206324438
 10
17.43765976170108
 20
4.466367573371957
 10
17.44730747272169
 20
4.463507133678112
 10
17.45700320033838
 20
4.460633595288409
 10
17.46677997558311
 20
4.457737187408718
 10
17.47664227281851
 20
4.454816606234824
 10
17.48656235641217
 20
4.451880101161656
 10
17.49650967287198
 20
4.448936756710203
 10
17.50646642234098
 20
4.445991868672183
 10
17.51635367147557
 20
4.443068745328773
 10
17.52606018062471
 20
4.440200220734409
 10
17.53560133499749
 20
4.437381746573089
 10
17.54507992081248
 20
4.434582972976294
 10
17.55463050952596
 20
4.43176416848511
 10
17.56436384206011
 20
4.428892640012369
 10
17.57431121303126
 20
4.425959152804785
 10
17.58437524058812
 20
4.422992464417512
 10
17.59444924014955
 20
4.42002406417587
 10
17.6045201938928
 20
4.417057767910151
 10
17.61457990063231
 20
4.414095964299447
 10
17.62461921173916
 20
4.411141316454876
 10
17.63462768874606
 20
4.408196862300794
 10
17.64461650507322
 20
4.40525929257588
 10
17.65461180862576
 20
4.402320898204052
 10
17.66463060947902
 20
4.399376647068755
 10
17.67465754410702
 20
4.396431010029548
 10
17.68465636720438
 20
4.393494595458431
 10
17.69459006553969
 20
4.390578247196321
 10
17.70444027670541
 20
4.387687343816131
 10
17.71422483784228
 20
4.384816647070342
 10
17.72398171377502
 20
4.381955025637801
 10
17.73373792247229
 20
4.379094571068013
 10
17.74349511586154
 20
4.376234817161525
 10
17.7532536344103
 20
4.373375668496668
 10
17.76301402959874
 20
4.370516962020722
 10
17.77277627103982
 20
4.367658702395361
 10
17.78254002142087
 20
4.364800982892687
 10
17.79230491144522
 20
4.361943906291261
 10
17.80207081477388
 20
4.359087505772151
 10
17.81183806934613
 20
4.356231681212675
 10
17.82160698093457
 20
4.353376341683596
 10
17.83137759623933
 20
4.350521470788159
 10
17.84114993750576
 20
4.347667059346441
 10
17.85092400904211
 20
4.344813103507056
 10
17.86069979836558
 20
4.341959604400641
 10
17.87047727734853
 20
4.339106567793367
 10
17.88025640336458
 20
4.336254003740418
 10
17.89003712043476
 20
4.333401926239508
 10
17.89981936037364
 20
4.330550352884368
 10
17.90960304393547
 20
4.327699304518243
 10
17.91938808196032
 20
4.324848804887401
 10
17.92917437652025
 20
4.321998880294612
 10
17.93896182206537
 20
4.319149559252667
 10
17.94875030657005
 20
4.316300872137858
 10
17.95853971267905
 20
4.313452850843488
 10
17.96832991885361
 20
4.310605528433359
 10
17.97812080051764
 20
4.307758938795278
 10
17.98791223120384
 20
4.304913116294553
 10
17.99770408369982
 20
4.302068095427483
 10
18.00749623119429
 20
4.299223910474871
 10
18.01728854842313
 20
4.296380595155503
 10
18.02708091281557
 20
4.293538182279664
 10
18.03687320564032
 20
4.290696703402622
 10
18.04666531315172
 20
4.287856188478134
 10
18.05645712773585
 20
4.28501666551194
 10
18.06624854905669
 20
4.282178160215258
 10
18.07603948520227
 20
4.279340695658294
 10
18.08582985383077
 20
4.276504291923725
 10
18.09561958331667
 20
4.273668965760203
 10
18.10540861389694
 20
4.270834730235852
 10
18.11519689104638
 20
4.268001596614741
 10
18.12498433676626
 20
4.265169582715468
 10
18.13477089196689
 20
4.262338701128517
 10
18.14455653194578
 20
4.259508954847325
 10
18.15434126323756
 20
4.256680338160906
 10
18.16412512044473
 20
4.253852837552051
 10
18.17390816306809
 20
4.251026432595529
 10
18.18369047233739
 20
4.248201096856274
 10
18.1934721480418
 20
4.245376798787578
 10
18.20325330536053
 20
4.242553502629301
 10
18.21303407169337
 20
4.239731169306053
 10
18.22281458349123
 20
4.236909757325391
 10
18.23259498308677
 20
4.234089223676018
 10
18.24237541552483
 20
4.231269524725977
 10
18.2521560253931
 20
4.228450617120845
 10
18.26193695136058
 20
4.225632459336772
 10
18.27171827113015
 20
4.222815027365302
 10
18.28150000034687
 20
4.219998314874096
 10
18.29128214698684
 20
4.217182317617044
 10
18.3010647147255
 20
4.214367032488548
 10
18.31084770378181
 20
4.211552457300362
 10
18.32063111176241
 20
4.208738590558422
 10
18.33041493450588
 20
4.205925431239696
 10
18.34019916692688
 20
4.203112978569013
 10
18.34998380386034
 20
4.200301231795908
 10
18.35976884090567
 20
4.197490189971453
 10
18.36955427527096
 20
4.194679851725108
 10
18.37934010661711
 20
4.191870215041546
 10
18.38912633790211
 20
4.189061277037495
 10
18.39891297622516
 20
4.186253033738585
 10
18.40870003366869
 20
4.183445479856783
 10
18.4184875249301
 20
4.180638609453053
 10
18.42827545895671
 20
4.177832418224428
 10
18.4380638429649
 20
4.175026902358818
 10
18.44785268377205
 20
4.172222058163638
 10
18.45764198780196
 20
4.169417882064453
 10
18.46743176109028
 20
4.166614370603631
 10
18.47722200928998
 20
4.163811520438968
 10
18.48701273767673
 20
4.161009328342342
 10
18.49680395115446
 20
4.158207791198353
 10
18.50659565426062
 20
4.155406906002957
 10
18.51638785117178
 20
4.152606669862115
 10
18.52618054570899
 20
4.149807079990439
 10
18.53597374134326
 20
4.147008133709817
 10
18.54576744120094
 20
4.144209828448076
 10
18.55556164806922
 20
4.141412161737606
 10
18.56535636440156
 20
4.13861513121401
 10
18.57515159232309
 20
4.135818734614751
 10
18.58494733363609
 20
4.133022969777779
 10
18.59474358982541
 20
4.130227834640185
 10
18.60454036206393
 20
4.127433327236841
 10
18.61433765121798
 20
4.124639445699036
 10
18.62413545785276
 20
4.121846188253122
 10
18.63393378223784
 20
4.11905355321916
 10
18.64373262435254
 20
4.116261539009549
 10
18.65353198389141
 20
4.113470144127682
 10
18.66333186026965
 20
4.11067936716658
 10
18.67313225262854
 20
4.107889206807532
 10
18.68293315984091
 20
4.105099661818742
 10
18.69273458051654
 20
4.102310731053973
 10
18.70253651300766
 20
4.099522413451178
 10
18.71233895541431
 20
4.096734708031149
 10
18.72214190558985
 20
4.093947613896164
 10
18.73194536114636
 20
4.091161130228613
 10
18.74174931946008
 20
4.088375256289657
 10
18.75155377767689
 20
4.085589991417858
 10
18.76135873271769
 20
4.082805335027829
 10
18.77116418128388
 20
4.080021286608868
 10
18.7809701198628
 20
4.077237845723603
 10
18.79077654473315
 20
4.074455012006638
 10
18.80058345197042
 20
4.071672785163188
 10
18.81039083745237
 20
4.068891164967721
 10
18.82019869686447
 20
4.066110151262608
 10
18.83000702570526
 20
4.063329743956756
 10
18.83981581929189
 20
4.060549943024255
 10
18.8496250727655
 20
4.057770748503013
 10
18.85943478109669
 20
4.054992160493406
 10
18.86924493909092
 20
4.052214179156915
 10
18.87905554139401
 20
4.049436804714768
 10
18.88886658249752
 20
4.046660037446587
 10
18.89867805674422
 20
4.04388387768902
 10
18.90848995833352
 20
4.041108325834389
 10
18.91830228132693
 20
4.038333382329332
 10
18.92811501965348
 20
4.035559047673443
 10
18.93792816711514
 20
4.032785322417915
 10
18.94774171739232
 20
4.030012207164181
 10
18.95755566404924
 20
4.027239702562557
 10
18.96737000053941
 20
4.024467809310876
 10
18.97718472021109
 20
4.021696528153143
 10
18.98699981631265
 20
4.018925859878171
 10
18.99681528199812
 20
4.016155805318215
 10
19.00663111033252
 20
4.013386365347624
 10
19.01644729429738
 20
4.010617540881482
 10
19.02626382679613
 20
4.007849332874244
 10
19.03608070065959
 20
4.00508174231838
 10
19.04589790865134
 20
4.002314770243021
 10
19.05571544347324
 20
3.999548417712592
 10
19.0655332977708
 20
3.996782685825461
 10
19.07535146413865
 20
3.994017575712582
 10
19.085169935126
 20
3.991253088536132
 10
19.09498870324202
 20
3.98848922548815
 10
19.10480776096135
 20
3.985725987789188
 10
19.1146271007295
 20
3.982963376686943
 10
19.12444671496828
 20
3.98020139345491
 10
19.1342665960813
 20
3.977440039391011
 10
19.14408673645929
 20
3.974679315816247
 10
19.15390712848569
 20
3.971919224073332
 10
19.16372776454197
 20
3.969159765525338
 10
19.17354863701314
 20
3.966400941554346
 10
19.18336973829315
 20
3.963642753560066
 10
19.19319106079035
 20
3.960885202958502
 10
19.20301259693291
 20
3.958128291180575
 10
19.2128343391743
 20
3.955372019670783
 10
19.22265627999867
 20
3.952616389885823
 10
19.23247841192635
 20
3.949861403293248
 10
19.24230072751925
 20
3.947107061370103
 10
19.25212321938632
 20
3.944353365601566
 10
19.26194588018897
 20
3.941600317479591
 10
19.27176870264651
 20
3.938847918501548
 10
19.28159167954164
 20
3.936096170168871
 10
19.29141480372582
 20
3.933345073985691
 10
19.30123806812474
 20
3.930594631457485
 10
19.31106146574378
 20
3.927844844089707
 10
19.3208849896734
 20
3.925095713386448
 10
19.33070863309463
 20
3.922347240849062
 10
19.34053238928449
 20
3.919599427974808
 10
19.3503562516214
 20
3.916852276255506
 10
19.3601802135907
 20
3.914105787176163
 10
19.37000426878998
 20
3.911359962213623
 10
19.37982841093462
 20
3.908614802835204
 10
19.38965263386316
 20
3.905870310497348
 10
19.39947693154278
 20
3.903126486644253
 10
19.40930129807471
 20
3.900383332706521
 10
19.41912572769972
 20
3.897640850099793
 10
19.42895021480349
 20
3.894899040223405
 10
19.43877475392211
 20
3.892157904459013
 10
19.44859933974746
 20
3.889417444169241
 10
19.45842396713272
 20
3.886677660696328
 10
19.46824863109776
 20
3.883938555360765
 10
19.47807332683459
 20
3.881200129459933
 10
19.48789804971281
 20
3.878462384266756
 10
19.49772279528504
 20
3.87572532102833
 10
19.50754755929236
 20
3.872988940964571
 10
19.51737233766975
 20
3.87025324526686
 10
19.52719712655155
 20
3.867518235096676
 10
19.53702192227684
 20
3.864783911584247
 10
19.54684672139497
 20
3.862050275827183
 10
19.55667152067092
 20
3.859317328889127
 10
19.56649631709078
 20
3.85658507179839
 10
19.57632110786718
 20
3.853853505546593
 10
19.58614589044471
 20
3.85112263108731
 10
19.59597066250542
 20
3.848392449334714
 10
19.60579542197418
 20
3.845662961162213
 10
19.61562016702418
 20
3.842934167401093
 10
19.62544489608234
 20
3.840206068839161
 10
19.63526960783475
 20
3.837478666219384
 10
19.64509430123215
 20
3.834751960238538
 10
19.65491897549528
 20
3.832025951545838
 10
19.66474363012044
 20
3.829300640741593
 10
19.67456826488481
 20
3.826576028375836
 10
19.68439287985199
 20
3.823852114946973
 10
19.69421747537737
 20
3.821128900900423
 10
19.7040420521136
 20
3.818406386627258
 10
19.71386661101602
 20
3.815684572462846
 10
19.72369115334813
 20
3.812963458685495
 10
19.73351568068698
 20
3.810243045515091
 10
19.74334019492862
 20
3.807523333111743
 10
19.75316469829359
 20
3.804804321574419
 10
19.7629891933323
 20
3.802086010939596
 10
19.7728136829305
 20
3.799368401179894
 10
19.7826381703147
 20
3.796651492202727
 10
19.79246265905764
 20
3.793935283848933
 10
19.8022871530837
 20
3.791219775891423
 10
19.81211165667435
 20
3.788504968033823
 10
19.8219361744736
 20
3.785790859909118
 10
19.83176071149342
 20
3.783077451078281
 10
19.84158527311921
 20
3.780364741028931
 10
19.85140986511518
 20
3.777652729173964
 10
19.86123449362987
 20
3.774941414850203
 10
19.87105916520152
 20
3.772230797317027
 10
19.88088388676357
 20
3.769520875755028
 10
19.89070866565003
 20
3.766811649264643
 10
19.90053350960099
 20
3.764103116864796
 10
19.91035842676801
 20
3.761395277491545
 10
19.9201834256906
 20
3.758688130005018
 10
19.93000850088935
 20
3.755981677315511
 10
19.93983363835843
 20
3.753275924799738
 10
19.94965887188624
 20
3.750570864161716
 10
19.95948425923042
 20
3.747866480263821
 10
19.96930984611056
 20
3.745162761448502
 10
19.97913563020082
 20
3.742459709859987
 10
19.98896152512271
 20
3.739757351766008
 10
19.9987873410107
 20
3.73705574314407
 10
20.00861358389387
 20
3.734354741591284
 10
20.01844285185915
 20
3.731653609200356
 10
20.02827940928121
 20
3.728951136268935
 10
20.03812856057644
 20
3.726245821927634
 10
20.04799604269895
 20
3.723536049399647
 10
20.05788741763643
 20
3.720820261260346
 10
20.06780746490612
 20
3.718097134696891
 10
20.07776626040168
 20
3.715363923849146
 10
20.08782597486677
 20
3.712603629597848
 10
20.09804880751768
 20
3.709799249076753
 10
20.10846151387718
 20
3.706943492647038
 10
20.11906130585131
 20
3.704037166584944
 10
20.12982214404026
 20
3.701087448284213
 10
20.14070103004904
 20
3.698106161458508
 10
20.15164429879832
 20
3.695108051343848
 10
20.16259391083518
 20
3.692109059901037
 10
20.17349374464386
 20
3.689124601018096
 10
20.18429588895659
 20
3.686167835712695
 10
20.19496693506429
 20
3.683247947334574
 10
20.20549426912738
 20
3.680368416767988
 10
20.21589236448657
 20
3.677525297634124
 10
20.22620907397358
 20
3.674705491493538
 10
20.2365155831868
 20
3.671889502320104
 10
20.24683162482395
 20
3.669071938032701
 10
20.2571556133727
 20
3.666253247715125
 10
20.26748584668599
 20
3.663433909156393
 10
20.27782054410185
 20
3.660614418541749
 10
20.28815787574974
 20
3.657795282559964
 10
20.29849599185666
 20
3.654977010510631
 10
20.30883305205338
 20
3.652160106411486
 10
20.31916725468071
 20
3.649345061105685
 10
20.32949686609564
 20
3.646532344369126
 10
20.33982024997758
 20
3.643722397017739
 10
20.35013589663461
 20
3.640915623014796
 10
20.36044245230961
 20
3.638112381578205
 10
20.37073874848655
 20
3.635312979287816
 10
20.38102383119664
 20
3.632517662192721
 10
20.39129668819857
 20
3.629726689745287
 10
20.40152706659568
 20
3.626948238032575
 10
20.41164543154247
 20
3.6242011166215
 10
20.42160629355086
 20
3.621497616418787
 10
20.43139105347155
 20
3.618842740535992
 10
20.4410034983741
 20
3.616235425661129
 10
20.45046529742702
 20
3.613669763430287
 10
20.45981149777785
 20
3.611136221799253
 10
20.4690860204333
 20
3.608622866415138
 10
20.47833715613927
 20
3.606116581987997
 10
20.48761306126102
 20
3.603604293662451
 10
20.49695725366319
 20
3.601074188389308
 10
20.50640410858994
 20
3.598516936297191
 10
20.51597435454501
 20
3.595926912064153
 10
20.52567056917184
 20
3.593303416289304
 10
20.53547267513364
 20
3.590651896864434
 10
20.5453334359935
 20
3.58798517034563
 10
20.55519196559648
 20
3.585319766383693
 10
20.5650363428066
 20
3.582658969200372
 10
20.57487015261449
 20
3.580001862053986
 10
20.58469718372883
 20
3.577347466625691
 10
20.59452094058874
 20
3.574694873455113
 10
20.6043441553762
 20
3.572043372375998
 10
20.61416830002841
 20
3.569392582951845
 10
20.62399310082689
 20
3.5667425842291
 10
20.63381705351495
 20
3.564093779491993
 10
20.64363964938094
 20
3.561446307644908
 10
20.65346067335889
 20
3.558800229388906
 10
20.66327996252643
 20
3.556155591147097
 10
20.67309739417931
 20
3.553512428172658
 10
20.68291287390607
 20
3.550870767656836
 10
20.69272632366263
 20
3.548230631836966
 10
20.70253767009914
 20
3.545592041039233
 10
20.71234685053174
 20
3.542955012167842
 10
20.72215383257161
 20
3.540319553712731
 10
20.73195860363364
 20
3.537685668532008
 10
20.74176116890638
 20
3.535053354417462
 10
20.75156155072955
 20
3.532422604294893
 10
20.7613597879714
 20
3.529793406424436
 10
20.77115593540621
 20
3.527165744600888
 10
20.78095006309169
 20
3.524539598354045
 10
20.79074225574647
 20
3.521914943149015
 10
20.80053261212746
 20
3.519291750586567
 10
20.81032124440739
 20
3.516669988603438
 10
20.82010827755214
 20
3.514049621672675
 10
20.82989384869829
 20
3.511430611003959
 10
20.83967810653047
 20
3.508812914743933
 10
20.84946121065885
 20
3.506196488176531
 10
20.85924333074952
 20
3.503581283965733
 10
20.869024642216
 20
3.500967253215903
 10
20.87880532275327
 20
3.498354346857909
 10
20.88858555196489
 20
3.495742515994941
 10
20.89836551044212
 20
3.493131712130441
 10
20.90814537882606
 20
3.490521887397376
 10
20.91792533686978
 20
3.487912994787535
 10
20.92770556250046
 20
3.485304988380798
 10
20.93748623088155
 20
3.482697823574441
 10
20.94726751347485
 20
3.480091457312403
 10
20.95704957710268
 20
3.477485848314588
 10
20.96683258301004
 20
3.474880957306133
 10
20.97661668592668
 20
3.472276747246711
 10
20.98640203312929
 20
3.469673183559804
 10
20.9961887635036
 20
3.467070234361989
 10
21.00597700660654
 20
3.464467870692234
 10
21.01576688172836
 20
3.461866066741169
 10
21.02555849695479
 20
3.459264800080384
 10
21.0353519482291
 20
3.456664051891706
 10
21.04514731841435
 20
3.454063807196483
 10
21.05494467635543
 20
3.451464055084883
 10
21.06474407594125
 20
3.448864788945162
 10
21.07454555516683
 20
3.446266006692959
 10
21.08434913519547
 20
3.44366771100058
 10
21.09415481942088
 20
3.441069909526285
 10
21.10396259252929
 20
3.438472615143568
 10
21.11377241956162
 20
3.435875846170448
 10
21.12358424497561
 20
3.433279626598748
 10
21.13339799170788
 20
3.430683986323392
 10
21.14321356023622
 20
3.428088961371676
 10
21.15303082764156
 20
3.42549459413256
 10
21.16284962764034
 20
3.422900938637519
 10
21.17266969695412
 20
3.420308074608986
 10
21.18249077250739
 20
3.417716081331596
 10
21.19231262198942
 20
3.415125029509046
 10
21.20213504214286
 20
3.412534981744388
 10
21.21195785704822
 20
3.409945993021421
 10
21.2217809164083
 20
3.407358111186096
 10
21.23160409383268
 20
3.404771377427913
 10
21.24142728512212
 20
3.402185826761328
 10
21.25125040655309
 20
3.399601488507141
 10
21.26107339316215
 20
3.397018386773903
 10
21.2708961970305
 20
3.394436540939318
 10
21.28071878556832
 20
3.391855966131638
 10
21.29054113979935
 20
3.389276673711066
 10
21.30036325264523
 20
3.386698671751156
 10
21.31018512721004
 20
3.384121965520205
 10
21.32000677506473
 20
3.381546557962667
 10
21.32982821453156
 20
3.378972450180541
 10
21.3396494689686
 20
3.376399641914778
 10
21.34947056505412
 20
3.373828132026673
 10
21.35929153107111
 20
3.371257918979276
 10
21.36911239519171
 20
3.368689001318781
 10
21.37893318376165
 20
3.366121378155933
 10
21.38875391958474
 20
3.363555049647426
 10
21.39857462020731
 20
3.360990017477301
 10
21.40839529620266
 20
3.358426285338345
 10
21.41821594945553
 20
3.355863859413496
 10
21.42803657144654
 20
3.353302748857243
 10
21.43785714153668
 20
3.350742966277013
 10
21.44767762525171
 20
3.348184528214593
 10
21.45749797267805
 20
3.3456274555966
 10
21.46731813936592
 20
3.343071767933129
 10
21.4771381199652
 20
3.340517473946495
 10
21.48695791427505
 20
3.337964580965393
 10
21.49677752148413
 20
3.335413096522183
 10
21.50659694019308
 20
3.332863028347091
 10
21.51641616843703
 20
3.330314384362389
 10
21.52623520370807
 20
3.327767172676593
 10
21.53605404297771
 20
3.325221401578662
 10
21.54587268271944
 20
3.322677079532169
 10
21.55569111893115
 20
3.320134215169516
 10
21.56550934715764
 20
3.317592817286108
 10
21.5753273625131
 20
3.315052894834555
 10
21.58514515970364
 20
3.312514456918853
 10
21.5949627330497
 20
3.309977512788591
 10
21.60478007650862
 20
3.307442071833126
 10
21.61459718369705
 20
3.304908143575786
 10
21.6244140479135
 20
3.302375737668058
 10
21.63423066216078
 20
3.299844863883774
 10
21.64404701916854
 20
3.297315532113313
 10
21.6538631114157
 20
3.294787752357785
 10
21.66367893115298
 20
3.292261534723223
 10
21.67349447042536
 20
3.289736889414779
 10
21.68330972109456
 20
3.287213826730909
 10
21.69312467486158
 20
3.284692357057573
 10
21.70293932328915
 20
3.282172490862414
 10
21.7127536578242
 20
3.279654238688966
 10
21.72256766982038
 20
3.277137611150828
 10
21.73238135056052
 20
3.274622618925871
 10
21.74219469127914
 20
3.272109272750418
 10
21.75200768318495
 20
3.269597583413443
 10
21.76182031748327
 20
3.267087561750757
 10
21.7716325853986
 20
3.264579218639201
 10
21.78144447819707
 20
3.262072564990845
 10
21.79125598720891
 20
3.259567611747165
 10
21.80106710385095
 20
3.257064369873247
 10
21.81087781964915
 20
3.254562850351975
 10
21.82068812626101
 20
3.252063064178217
 10
21.83049801549811
 20
3.249565022353026
 10
21.8403074793486
 20
3.247068735877823
 10
21.85011650999964
 20
3.244574215748595
 10
21.85992509985995
 20
3.24208147295008
 10
21.86973324158225
 20
3.239590518449964
 10
21.87954092808576
 20
3.237101363193073
 10
21.88934815257869
 20
3.234614018095558
 10
21.89915490858075
 20
3.232128494039093
 10
21.90896118994558
 20
3.22964480186506
 10
21.9187669908833
 20
3.227162952368753
 10
21.92857230598297
 20
3.224682956293551
 10
21.93837713023505
 20
3.222204824325128
 10
21.94818145905395
 20
3.219728567085629
 10
21.95798528830043
 20
3.217254195127876
 10
21.9677886143042
 20
3.214781718929546
 10
21.97759143388631
 20
3.21231114888737
 10
21.98739374438167
 20
3.209842495311324
 10
21.99719554366155
 20
3.20737576841882
 10
22.00699683015607
 20
3.204910978328899
 10
22.01679760287665
 20
3.202448135056413
 10
22.02659786143854
 20
3.199987248506233
 10
22.03639760608329
 20
3.197528328467426
 10
22.0461968377012
 20
3.195071384607453
 10
22.05599555845478
 20
3.192616426315819
 10
22.05871659266716
 20
3.191943740794368
 10
22.06143926613618
 20
3.191288283786556
 10
22.06416361847425
 20
3.190650150499536
 10
22.06688947267382
 20
3.19002947351189
 10
22.06961646224792
 20
3.189426417994558
 10
22.07234405835184
 20
3.18884117693646
 10
22.07507159690476
 20
3.188273966370102
 10
22.07779830571135
 20
3.187725020597201
 10
22.0805233315834
 20
3.187194587414297
 10
22.08324576746147
 20
3.18668292333837
 10
22.08596467953654
 20
3.186190288832456
 10
22.08867913437154
 20
3.185716943531258
 10
22.09138822602311
 20
3.185263141466773
 10
22.09409110316316
 20
3.184829126293901
 10
22.09678699620046
 20
3.184415126516056
 10
22.09947524440235
 20
3.184021350710795
 10
22.10215532301634
 20
3.183647982755423
 10
22.10482687039171
 20
3.183295177052613
 10
22.10748971510117
 20
3.182963053756021
 10
22.11014390306248
 20
3.182651693995908
 10
22.11278968716931
 20
3.182361159179488
 10
22.11542723328892
 20
3.182091603568768
 10
22.11805644469914
 20
3.181843218210612
 10
22.12067699585867
 20
3.181616194709595
 10
22.1232883625082
 20
3.181410724616308
 10
22.12588985175284
 20
3.181226998836792
 10
22.12848063214453
 20
3.181065207041956
 10
22.13105976376446
 20
3.180925537077003
 10
22.13362622830552
 20
3.18080817437087
 10
22.13617895915464
 20
3.180713301345641
 10
22.13871687147531
 20
3.180641096825977
 10
22.14123889228993
 20
3.180591735448553
 10
22.14374399056227
 20
3.180565387071471
 10
22.14623120727987
 20
3.180562216183696
 10
22.14869968553644
 20
3.180582381314477
 10
22.15114870061434
 20
3.180626034442781
 10
22.15357769006695
 20
3.180693320406714
 10
22.1559862838011
 20
3.180784376312951
 10
22.1583743341595
 20
3.180899330946165
 10
22.16074194553424
 20
3.181038304471301
 10
22.16308936451521
 20
3.181201464247175
 10
22.16541657740096
 20
3.181389069604469
 10
22.16772330377525
 20
3.181601338005755
 10
22.1700090451609
 20
3.181838432056823
 10
22.1722731171877
 20
3.182100465975258
 10
22.17451468176035
 20
3.182387512059022
 10
22.1767327792264
 20
3.182699607155031
 10
22.17892636054414
 20
3.183036759127731
 10
22.18109431945054
 20
3.183398953327686
 10
22.18323552462916
 20
3.183786159060149
 10
22.18534885187812
 20
3.184198336053646
 10
22.18743321627799
 20
3.184635440928555
 10
22.18948760435969
 20
3.185097433665683
 10
22.19151110627249
 20
3.18558428407485
 10
22.19350294795185
 20
3.186095978263462
 10
22.19546252328739
 20
3.186632525105093
 10
22.19738942629084
 20
3.187193962708072
 10
22.1992834832639
 20
3.187780364884047
 10
22.20114478490188
 20
3.188391847641924
 10
22.20297357763024
 20
3.189028607804845
 10
22.2047697966036
 20
3.189690915471448
 10
22.20653313604426
 20
3.190378928779102
 10
22.20826312368918
 20
3.191092678409049
 10
22.20995914791553
 20
3.191832084343036
 10
22.21162048486626
 20
3.192596972619924
 10
22.21324632557566
 20
3.193387092092331
 10
22.21483580309489
 20
3.194202131183248
 10
22.21638801961757
 20
3.195041734642669
 10
22.21790207360531
 20
3.195905520304215
 10
22.21937708691329
 20
3.196793095841757
 10
22.2208122319158
 20
3.197704075526049
 10
22.22220675863181
 20
3.198638096981348
 10
22.22356002185051
 20
3.199594837942043
 10
22.22487150825688
 20
3.200574033009274
 10
22.22614086355726
 20
3.201575490407566
 10
22.22736791960488
 20
3.202599108741453
 10
22.22855272152541
 20
3.2036448937521
 10
22.2296955361746
 20
3.204712976106106
 10
22.23079650997747
 20
3.205803584356815
 10
22.23185550334803
 20
3.206916829454779
 10
22.23287228545867
 20
3.208052627067544
 10
22.23384655735388
 20
3.209210722243705
 10
22.23477796762532
 20
3.210390715911696
 10
22.23566612808707
 20
3.211592091378578
 10
22.23651062945066
 20
3.212814240828842
 10
22.23731105700029
 20
3.214056491823189
 10
22.23806700626794
 20
3.215318133797328
 10
22.23877809870854
 20
3.216598444560768
 10
22.23944399737509
 20
3.217896716795601
 10
22.2400644225938
 20
3.219212284555312
 10
22.24063916763929
 20
3.220544549763549
 10
22.24116811440966
 20
3.221893008712933
 10
22.24165124910167
 20
3.223257278563834
 10
22.24208867788591
 20
3.224637123843177
 10
22.24248404108274
 20
3.226044581300933
 10
22.94478099999998
 20
6.131525999999992
 10
22.94477980232779
 20
6.131525397584923
 42
0.357978890362319
 10
22.8329527794968
 20
6.362804948369411
 42
0.0789190524767712
 10
16.8107079560476
 20
7.976444852651852
 42
0.3691721567146371
 10
16.59110147251658
 20
7.820141842413586
  0
LWPOLYLINE
  5
3D66
330
1F
100
AcDbEntity
  8
NOCUT
100
AcDbPolyline
 90
       14
 70
     1
 43
0.0
 10
21.92542299999997
 20
6.054017999999999
 10
17.84999999999997
 20
7.299999999999998
 10
14.34999999999997
 20
7.299999999999998
 10
11.10033299999998
 20
6.609262000000001
 10
11.0
 20
6.589005999999997
 10
11.0
 20
6.5
 10
2.0
 20
6.5
 10
0.0
 20
6.5
 10
0.0
 20
3.116265999999995
 10
0.0
 20
0.0
 10
22.34999999999997
 20
0.0
 10
22.34999999999997
 20
2.627364999999997
 10
22.34999999999996
 20
5.48023499999999
 42
0.3297505471403163
 10
21.92542302283363
 20
6.05401785357778
  0
MTEXT
  5
3E32
330
1F
100
AcDbEntity
  8
SK6
100
AcDbMText
 10
-14.25514071863608
 20
-32.12645541442908
 30
0.0
 40
3.499999999999998
 41
49.985681658468
 71
     1
 72
     1
  1
12M8D016023X5R00
 73
     1
 44
1.0
1001
ACAD
1000
MTEXTBEGIN
1070
    73
1070
     1
1070
    44
1040
1.0
1070
    74
1070
     0
1000
MTEXTEND
  0
VIEWPORT
  5
34
102
{ACAD_XDICTIONARY
360
3E45
102
}
330
73
100
AcDbEntity
 67
     1
  8
0
 62
     0
370
     0
100
AcDbViewport
 10
0.0
 20
0.0
 30
0.0
 40
1000.0
 41
1000.0
 68
     1
 69
     1
 12
0.0
 22
0.0
 13
0.0
 23
0.0
 14
1.0
 24
1.0
 15
1.0
 25
1.0
 16
0.0
 26
0.0
 36
1.0
 17
0.0
 27
0.0
 37
0.0
 42
50.0
 43
0.0
 44
0.0
 45
1000.0
 50
0.0
 51
0.0
 72
   100
 90
   557056
  1

281
     0
 71
     0
 74
     0
110
0.0
120
0.0
130
0.0
111
1.0
121
0.0
131
0.0
112
0.0
122
1.0
132
0.0
 79
     0
146
0.0
  0
ENDSEC
  0
SECTION
  2
OBJECTS
  0
DICTIONARY
  5
C
330
0
100
AcDbDictionary
281
     1
  3
ACAD_2007HEADERVARS_RT
350
3E40
  3
ACAD_CIP_PREVIOUS_PRODUCT_INFO
350
3D5A
  3
ACAD_COLOR
350
6C
  3
ACAD_DETAILVIEWSTYLE
350
3D56
  3
ACAD_GROUP
350
D
  3
ACAD_LAYOUT
350
1A
  3
ACAD_MATERIAL
350
6B
  3
ACAD_MLEADERSTYLE
350
2C9
  3
ACAD_MLINESTYLE
350
17
  3
ACAD_PLOTSETTINGS
350
19
  3
ACAD_PLOTSTYLENAME
350
E
  3
ACAD_SCALELIST
350
99
  3
ACAD_SECTIONVIEWSTYLE
350
3D54
  3
ACAD_TABLESTYLE
350
92
  3
ACAD_VISUALSTYLE
350
2A0
  3
ACAD_WIPEOUT_VARS
350
3CF5
  3
ACDB_RECOMPOSE_DATA
350
3E3E
  3
ACDBHEADERROUNDTRIPXREC
350
3D19
  3
AcDbVariableDictionary
350
3E33
  3
ASE_INDEX_DICTIONARY
350
A41
  3
DWGPROPS
350
3E3F
  0
DICTIONARY
  5
3CF6
330
2
100
AcDbDictionary
280
     1
281
     1
  3
ACAD_LAYERSTATES
360
62D
  0
DICTIONARY
  5
3CEB
330
10
100
AcDbDictionary
280
     1
281
     1
  3
ADSK_XREC_LAYER_RECONCILED
360
A32
  0
DICTIONARY
  5
3CEC
330
5FF
100
AcDbDictionary
280
     1
281
     1
  3
ADSK_XREC_LAYER_RECONCILED
360
A33
  0
DICTIONARY
  5
3CED
330
601
100
AcDbDictionary
280
     1
281
     1
  3
ADSK_XREC_LAYER_RECONCILED
360
A34
  0
DICTIONARY
  5
3CEE
330
603
100
AcDbDictionary
280
     1
281
     1
  3
ADSK_XREC_LAYER_RECONCILED
360
A35
  0
DICTIONARY
  5
3CEF
330
607
100
AcDbDictionary
280
     1
281
     1
  3
ADSK_XREC_LAYER_RECONCILED
360
A36
  0
DICTIONARY
  5
3CF0
330
609
100
AcDbDictionary
280
     1
281
     1
  3
ADSK_XREC_LAYER_RECONCILED
360
A37
  0
DICTIONARY
  5
3CF1
330
60B
100
AcDbDictionary
280
     1
281
     1
  3
ADSK_XREC_LAYER_RECONCILED
360
A38
  0
DICTIONARY
  5
3CF2
330
60D
100
AcDbDictionary
280
     1
281
     1
  3
ADSK_XREC_LAYER_RECONCILED
360
A39
  0
DICTIONARY
  5
3CF3
330
611
100
AcDbDictionary
280
     1
281
     1
  3
ADSK_XREC_LAYER_RECONCILED
360
A3B
  0
DICTIONARY
  5
3CF4
330
614
100
AcDbDictionary
280
     1
281
     1
  3
ADSK_XREC_LAYER_RECONCILED
360
A3D
  0
DICTIONARY
  5
3D16
330
1F
100
AcDbDictionary
280
     1
281
     1
  3
ACAD_SORTENTS
360
3D17
  0
DICTIONARY
  5
3E45
330
34
100
AcDbDictionary
280
     1
281
     1
  3
ACAD_XREC_ROUNDTRIP
360
3E46
  0
DICTIONARY
  5
3E40
102
{ACAD_REACTORS
330
C
102
}
330
C
100
AcDbDictionary
281
     1
  3
DIMFXL
350
3E41
  3
DIMJOGANG
350
3E42
  0
XRECORD
  5
3D5A
102
{ACAD_REACTORS
330
C
102
}
330
C
100
AcDbXrecord
280
     1
300
ACDLT
300
2015
300
ACDLT_F_S
  0
DICTIONARY
  5
6C
102
{ACAD_REACTORS
330
C
102
}
330
C
100
AcDbDictionary
281
     1
  0
DICTIONARY
  5
3D56
102
{ACAD_REACTORS
330
C
102
}
330
C
100
AcDbDictionary
281
     1
  3
METRIC50
350
3D57
  0
DICTIONARY
  5
D
102
{ACAD_REACTORS
330
C
102
}
330
C
100
AcDbDictionary
281
     1
  0
DICTIONARY
  5
1A
102
{ACAD_REACTORS
330
C
102
}
330
C
100
AcDbDictionary
281
     1
  3
Layout1
350
74
  3
Model
350
22
  0
DICTIONARY
  5
6B
102
{ACAD_REACTORS
330
C
102
}
330
C
100
AcDbDictionary
281
     1
  3
ByBlock
350
3D2A
  3
ByLayer
350
3D22
  3
Global
350
3D32
  0
DICTIONARY
  5
2C9
102
{ACAD_REACTORS
330
C
102
}
330
C
100
AcDbDictionary
281
     1
  3
Standard
350
3D53
  0
DICTIONARY
  5
17
102
{ACAD_REACTORS
330
C
102
}
330
C
100
AcDbDictionary
281
     1
  3
Standard
350
18
  0
DICTIONARY
  5
19
102
{ACAD_REACTORS
330
C
102
}
330
C
100
AcDbDictionary
281
     1
  0
ACDBDICTIONARYWDFLT
  5
E
102
{ACAD_REACTORS
330
C
102
}
330
C
100
AcDbDictionary
281
     1
  3
Normal
350
F
100
AcDbDictionaryWithDefault
340
F
  0
DICTIONARY
  5
99
102
{ACAD_REACTORS
330
C
102
}
330
C
100
AcDbDictionary
281
     1
  3
A0
350
9A
  3
A1
350
9B
  3
A2
350
9C
  3
A3
350
9D
  3
A4
350
9E
  3
A5
350
9F
  3
A6
350
A0
  3
A7
350
A1
  3
A8
350
A2
  3
A9
350
A3
  3
B0
350
A4
  3
B1
350
A5
  3
B2
350
A6
  3
B3
350
A7
  3
B4
350
A8
  3
B5
350
A9
  3
B6
350
AA
  3
B7
350
AB
  3
B8
350
AC
  3
B9
350
AD
  3
C0
350
AE
  3
C1
350
AF
  3
C2
350
B0
  3
C3
350
B1
  3
C4
350
B2
  3
C5
350
B3
  3
C6
350
B4
  3
C7
350
B5
  3
C8
350
B6
  3
C9
350
B7
  3
D0
350
B8
  3
D1
350
B9
  3
D2
350
BA
  0
DICTIONARY
  5
3D54
102
{ACAD_REACTORS
330
C
102
}
330
C
100
AcDbDictionary
281
     1
  3
METRIC50
350
3D55
  0
DICTIONARY
  5
92
102
{ACAD_REACTORS
330
C
102
}
330
C
100
AcDbDictionary
281
     1
  3
Standard
350
3D52
  0
DICTIONARY
  5
2A0
102
{ACAD_REACTORS
330
C
102
}
330
C
100
AcDbDictionary
281
     1
  3
2dWireframe
350
3D3F
  3
Basic
350
3D3E
  3
Brighten
350
3D45
  3
ColorChange
350
3D49
  3
Conceptual
350
3D42
  3
Dim
350
3D44
  3
EdgeColorOff
350
3D51
  3
Facepattern
350
3D48
  3
Flat
350
3D3A
  3
FlatWithEdges
350
3D3B
  3
Gouraud
350
3D3C
  3
GouraudWithEdges
350
3D3D
  3
Hidden
350
3D41
  3
JitterOff
350
3D4F
  3
Linepattern
350
3D47
  3
OverhangOff
350
3D50
  3
Realistic
350
3D43
  3
Shaded
350
3D4E
  3
Shaded with edges
350
3D4D
  3
Shades of Gray
350
3D4A
  3
Sketchy
350
3D4B
  3
Thicken
350
3D46
  3
Wireframe
350
3D40
  3
X-Ray
350
3D4C
  0
WIPEOUTVARIABLES
  5
3CF5
102
{ACAD_REACTORS
330
C
102
}
330
C
100
AcDbWipeoutVariables
 70
     1
  0
XRECORD
  5
3E3E
102
{ACAD_REACTORS
330
C
102
}
330
C
100
AcDbXrecord
280
     1
 90
        1
330
3D52
  0
DICTIONARY
  5
3D19
102
{ACAD_REACTORS
330
C
102
}
330
C
100
AcDbDictionary
281
     1
  3
COLORDICT
350
3D1A
  3
MATERIALDICT
350
3D1B
  0
DICTIONARY
  5
3E33
102
{ACAD_REACTORS
330
C
102
}
330
C
100
AcDbDictionary
281
     1
  3
CANNOSCALE
350
3E38
  3
CMLEADERSTYLE
350
3E35
  3
CTABLESTYLE
350
3E34
  3
CVIEWDETAILSTYLE
350
3E36
  3
CVIEWSECTIONSTYLE
350
3E37
  3
DIMASSOC
350
3E3B
  3
INDEXCTL
350
3E3A
  3
SORTENTS
350
3E39
  3
XCLIPFRAME
350
3E3C
  0
DICTIONARY
  5
A41
102
{ACAD_REACTORS
330
C
102
}
330
C
100
AcDbDictionary
281
     1
  3
ASEBLOCKHIERARCHYINDEXRECORD
350
A42
  0
XRECORD
  5
3E3F
102
{ACAD_REACTORS
330
C
102
}
330
C
100
AcDbXrecord
280
     1
  1
DWGPROPS COOKIE
  2

  3

  4

  6

  7

  8
ruebsamenm
  9

300
=
301
=
302
=
303
=
304
=
305
=
306
=
307
=
308
=
309
=
 40
0.1761221527777778
 41
2453353.800459155
 42
2460185.618914561
  1

 90
        0
  0
DICTIONARY
  5
62D
102
{ACAD_REACTORS
330
3CF6
102
}
330
3CF6
100
AcDbDictionary
281
     1
  3
_LAYISO_STATE
350
B87
  0
XRECORD
  5
A32
102
{ACAD_REACTORS
330
3CEB
102
}
330
3CEB
100
AcDbXrecord
280
     1
290
     1
  0
XRECORD
  5
A33
102
{ACAD_REACTORS
330
3CEC
102
}
330
3CEC
100
AcDbXrecord
280
     1
290
     1
  0
XRECORD
  5
A34
102
{ACAD_REACTORS
330
3CED
102
}
330
3CED
100
AcDbXrecord
280
     1
290
     1
  0
XRECORD
  5
A35
102
{ACAD_REACTORS
330
3CEE
102
}
330
3CEE
100
AcDbXrecord
280
     1
290
     1
  0
XRECORD
  5
A36
102
{ACAD_REACTORS
330
3CEF
102
}
330
3CEF
100
AcDbXrecord
280
     1
290
     1
  0
XRECORD
  5
A37
102
{ACAD_REACTORS
330
3CF0
102
}
330
3CF0
100
AcDbXrecord
280
     1
290
     1
  0
XRECORD
  5
A38
102
{ACAD_REACTORS
330
3CF1
102
}
330
3CF1
100
AcDbXrecord
280
     1
290
     1
  0
XRECORD
  5
A39
102
{ACAD_REACTORS
330
3CF2
102
}
330
3CF2
100
AcDbXrecord
280
     1
290
     1
  0
XRECORD
  5
A3B
102
{ACAD_REACTORS
330
3CF3
102
}
330
3CF3
100
AcDbXrecord
280
     1
290
     1
  0
XRECORD
  5
A3D
102
{ACAD_REACTORS
330
3CF4
102
}
330
3CF4
100
AcDbXrecord
280
     1
290
     1
  0
SORTENTSTABLE
  5
3D17
102
{ACAD_REACTORS
330
3D16
102
}
330
3D16
100
AcDbSortentsTable
330
1F
331
3D66
  5
242E
331
3D5E
  5
2234
  0
XRECORD
  5
3E46
102
{ACAD_REACTORS
330
3E45
102
}
330
3E45
100
AcDbXrecord
280
     1
102
SHADEPLOT
 70
     0
  0
XRECORD
  5
3E41
102
{ACAD_REACTORS
330
3E40
102
}
330
3E40
100
AcDbXrecord
280
     1
 40
1.25
  0
XRECORD
  5
3E42
102
{ACAD_REACTORS
330
3E40
102
}
330
3E40
100
AcDbXrecord
280
     1
 40
1.570796326794896
  0
ACDBDETAILVIEWSTYLE
  5
3D57
102
{ACAD_XDICTIONARY
360
3E7C
102
}
102
{ACAD_REACTORS
330
3D56
102
}
330
3D56
100
AcDbModelDocViewStyle
 70
     0
  3
Metric50
290
     0
100
AcDbDetailViewStyle
 70
     0
 71
     0
 90
        3
 71
     1
340
11
 40
5.0
340
0
 40
5.0
300

 40
0.0
280
     1
 71
     2
340
16
 90
       25
 71
     3
340
11
 40
5.0
 90
        0
 40
15.0
 90
        1
300
%<\AcVar ViewDetailId>% (%<\AcVar ViewScale \f "%sn">%)
 71
     4
340
16
 90
       25
340
16
 90
       25
280
     0
  0
LAYOUT
  5
74
102
{ACAD_XDICTIONARY
360
3E47
102
}
102
{ACAD_REACTORS
330
1A
102
}
330
1A
100
AcDbPlotSettings
  1

  2
none_device
  4
Letter_(8.50_x_11.00_Inches)
  6

 40
6.349999999999998
 41
6.349999999999998
 42
6.350005079999998
 43
6.350005079999998
 44
215.9
 45
279.4
 46
0.0
 47
0.0
 48
0.0
 49
0.0
140
0.0
141
0.0
142
1.0
143
1.0
 70
   544
 72
     0
 73
     0
 74
     0
  7

 75
    16
147
1.0
148
0.0
149
0.0
100
AcDbLayout
  1
Layout1
 70
     1
 71
     1
 10
0.0
 20
0.0
 11
420.0
 21
297.0
 12
0.0
 22
0.0
 32
0.0
 14
0.0
 24
0.0
 34
0.0
 15
281.007629
 25
92.32476
 35
2.0
146
0.0
 13
0.0
 23
0.0
 33
0.0
 16
1.0
 26
0.0
 36
0.0
 17
0.0
 27
1.0
 37
0.0
 76
     0
330
73
331
34
  0
LAYOUT
  5
22
102
{ACAD_XDICTIONARY
360
3E43
102
}
102
{ACAD_REACTORS
330
1A
102
}
330
1A
100
AcDbPlotSettings
  1

  2
none_device
  4
Letter_(8.50_x_11.00_Inches)
  6

 40
6.349999999999998
 41
6.349999999999998
 42
6.350005079999998
 43
6.350005079999998
 44
215.9
 45
279.4
 46
0.0
 47
0.0
 48
0.0
 49
0.0
140
0.0
141
0.0
142
1.0
143
1.0
 70
 11936
 72
     0
 73
     0
 74
     0
  7

 75
     0
147
0.0214301232666203
148
0.0
149
0.0
100
AcDbLayout
  1
Model
 70
     1
 71
     0
 10
0.0
 20
0.0
 11
420.0
 21
297.0
 12
0.0
 22
0.0
 32
0.0
 14
-87.32631117866217
 24
-49.91335444515192
 34
0.0
 15
86.73532450390132
 25
74.446036276732
 35
0.0
146
0.0
 13
0.0
 23
0.0
 33
0.0
 16
1.0
 26
0.0
 36
0.0
 17
0.0
 27
1.0
 37
0.0
 76
     0
330
1F
331
97
  0
MATERIAL
  5
3D2A
102
{ACAD_XDICTIONARY
360
3D2B
102
}
102
{ACAD_REACTORS
330
6B
102
}
330
6B
100
AcDbMaterial
  1
ByBlock
 72
     0
 43
0.0208333333333333
 43
0.0
 43
0.0
 43
0.0
 43
0.0
 43
0.0208333333333333
 43
0.0
 43
0.0
 43
0.0
 43
0.0
 43
1.0
 43
0.0
 43
0.0
 43
0.0
 43
0.0
 43
1.0
 77
     0
 47
0.0208333333333333
 47
0.0
 47
0.0
 47
0.0
 47
0.0
 47
0.0208333333333333
 47
0.0
 47
0.0
 47
0.0
 47
0.0
 47
1.0
 47
0.0
 47
0.0
 47
0.0
 47
0.0
 47
1.0
171
     0
 49
0.0208333333333333
 49
0.0
 49
0.0
 49
0.0
 49
0.0
 49
0.0208333333333333
 49
0.0
 49
0.0
 49
0.0
 49
0.0
 49
1.0
 49
0.0
 49
0.0
 49
0.0
 49
0.0
 49
1.0
175
     0
142
0.0208333333333333
142
0.0
142
0.0
142
0.0
142
0.0
142
0.0208333333333333
142
0.0
142
0.0
142
0.0
142
0.0
142
1.0
142
0.0
142
0.0
142
0.0
142
0.0
142
1.0
179
     0
144
0.0208333333333333
144
0.0
144
0.0
144
0.0
144
0.0
144
0.0208333333333333
144
0.0
144
0.0
144
0.0
144
0.0
144
1.0
144
0.0
144
0.0
144
0.0
144
0.0
144
1.0
147
0.0208333333333333
147
0.0
147
0.0
147
0.0
147
0.0
147
0.0208333333333333
147
0.0
147
0.0
147
0.0
147
0.0
147
1.0
147
0.0
147
0.0
147
0.0
147
0.0
147
1.0
  0
MATERIAL
  5
3D22
102
{ACAD_XDICTIONARY
360
3D23
102
}
102
{ACAD_REACTORS
330
6B
102
}
330
6B
100
AcDbMaterial
  1
ByLayer
 72
     0
 43
0.0208333333333333
 43
0.0
 43
0.0
 43
0.0
 43
0.0
 43
0.0208333333333333
 43
0.0
 43
0.0
 43
0.0
 43
0.0
 43
1.0
 43
0.0
 43
0.0
 43
0.0
 43
0.0
 43
1.0
 77
     0
 47
0.0208333333333333
 47
0.0
 47
0.0
 47
0.0
 47
0.0
 47
0.0208333333333333
 47
0.0
 47
0.0
 47
0.0
 47
0.0
 47
1.0
 47
0.0
 47
0.0
 47
0.0
 47
0.0
 47
1.0
171
     0
 49
0.0208333333333333
 49
0.0
 49
0.0
 49
0.0
 49
0.0
 49
0.0208333333333333
 49
0.0
 49
0.0
 49
0.0
 49
0.0
 49
1.0
 49
0.0
 49
0.0
 49
0.0
 49
0.0
 49
1.0
175
     0
142
0.0208333333333333
142
0.0
142
0.0
142
0.0
142
0.0
142
0.0208333333333333
142
0.0
142
0.0
142
0.0
142
0.0
142
1.0
142
0.0
142
0.0
142
0.0
142
0.0
142
1.0
179
     0
144
0.0208333333333333
144
0.0
144
0.0
144
0.0
144
0.0
144
0.0208333333333333
144
0.0
144
0.0
144
0.0
144
0.0
144
1.0
144
0.0
144
0.0
144
0.0
144
0.0
144
1.0
147
0.0208333333333333
147
0.0
147
0.0
147
0.0
147
0.0
147
0.0208333333333333
147
0.0
147
0.0
147
0.0
147
0.0
147
1.0
147
0.0
147
0.0
147
0.0
147
0.0
147
1.0
  0
MATERIAL
  5
3D32
102
{ACAD_XDICTIONARY
360
3D33
102
}
102
{ACAD_REACTORS
330
6B
102
}
330
6B
100
AcDbMaterial
  1
Global
 72
     0
 43
0.0208333333333333
 43
0.0
 43
0.0
 43
0.0
 43
0.0
 43
0.0208333333333333
 43
0.0
 43
0.0
 43
0.0
 43
0.0
 43
1.0
 43
0.0
 43
0.0
 43
0.0
 43
0.0
 43
1.0
 77
     0
 47
0.0208333333333333
 47
0.0
 47
0.0
 47
0.0
 47
0.0
 47
0.0208333333333333
 47
0.0
 47
0.0
 47
0.0
 47
0.0
 47
1.0
 47
0.0
 47
0.0
 47
0.0
 47
0.0
 47
1.0
171
     0
 49
0.0208333333333333
 49
0.0
 49
0.0
 49
0.0
 49
0.0
 49
0.0208333333333333
 49
0.0
 49
0.0
 49
0.0
 49
0.0
 49
1.0
 49
0.0
 49
0.0
 49
0.0
 49
0.0
 49
1.0
175
     0
142
0.0208333333333333
142
0.0
142
0.0
142
0.0
142
0.0
142
0.0208333333333333
142
0.0
142
0.0
142
0.0
142
0.0
142
1.0
142
0.0
142
0.0
142
0.0
142
0.0
142
1.0
179
     0
144
0.0208333333333333
144
0.0
144
0.0
144
0.0
144
0.0
144
0.0208333333333333
144
0.0
144
0.0
144
0.0
144
0.0
144
1.0
144
0.0
144
0.0
144
0.0
144
0.0
144
1.0
147
0.0208333333333333
147
0.0
147
0.0
147
0.0
147
0.0
147
0.0208333333333333
147
0.0
147
0.0
147
0.0
147
0.0
147
1.0
147
0.0
147
0.0
147
0.0
147
0.0
147
1.0
  0
MLEADERSTYLE
  5
3D53
102
{ACAD_REACTORS
330
2C9
102
}
330
2C9
100
AcDbMLeaderStyle
170
     2
171
     1
172
     0
 90
        2
 40
0.0
 41
0.0
173
     1
 91
-1056964608
340
14
 92
       -2
290
     1
 42
2.0
291
     1
 43
0.36
  3
Standard
 44
4.0
300

342
11
174
     1
178
     6
175
     1
176
     0
 93
-1056964608
 45
4.0
292
     0
297
     0
 46
4.0
 94
-1056964608
 47
1.0
 49
1.0
140
1.0
293
     1
141
0.0
294
     1
177
     0
142
1.0
295
     0
296
     0
143
0.125
1001
ACAD_MLEADERVER
1070
     2
  0
MLINESTYLE
  5
18
102
{ACAD_REACTORS
330
17
102
}
330
17
100
AcDbMlineStyle
  2
STANDARD
 70
     0
  3

 62
     0
 51
90.0
 52
90.0
 71
     2
 49
0.5
 62
   256
  6
BYLAYER
 49
-0.5
 62
   256
  6
BYLAYER
  0
ACDBPLACEHOLDER
  5
F
102
{ACAD_REACTORS
330
E
102
}
330
E
  0
SCALE
  5
9A
102
{ACAD_REACTORS
330
99
102
}
330
99
100
AcDbScale
 70
     0
300
1:1
140
1.0
141
1.0
290
     1
  0
SCALE
  5
9B
102
{ACAD_REACTORS
330
99
102
}
330
99
100
AcDbScale
 70
     0
300
1:2
140
1.0
141
2.0
290
     0
  0
SCALE
  5
9C
102
{ACAD_REACTORS
330
99
102
}
330
99
100
AcDbScale
 70
     0
300
1:4
140
1.0
141
4.0
290
     0
  0
SCALE
  5
9D
102
{ACAD_REACTORS
330
99
102
}
330
99
100
AcDbScale
 70
     0
300
1:5
140
1.0
141
5.0
290
     0
  0
SCALE
  5
9E
102
{ACAD_REACTORS
330
99
102
}
330
99
100
AcDbScale
 70
     0
300
1:8
140
1.0
141
8.0
290
     0
  0
SCALE
  5
9F
102
{ACAD_REACTORS
330
99
102
}
330
99
100
AcDbScale
 70
     0
300
1:10
140
1.0
141
10.0
290
     0
  0
SCALE
  5
A0
102
{ACAD_REACTORS
330
99
102
}
330
99
100
AcDbScale
 70
     0
300
1:16
140
1.0
141
16.0
290
     0
  0
SCALE
  5
A1
102
{ACAD_REACTORS
330
99
102
}
330
99
100
AcDbScale
 70
     0
300
1:20
140
1.0
141
20.0
290
     0
  0
SCALE
  5
A2
102
{ACAD_REACTORS
330
99
102
}
330
99
100
AcDbScale
 70
     0
300
1:30
140
1.0
141
30.0
290
     0
  0
SCALE
  5
A3
102
{ACAD_REACTORS
330
99
102
}
330
99
100
AcDbScale
 70
     0
300
1:40
140
1.0
141
40.0
290
     0
  0
SCALE
  5
A4
102
{ACAD_REACTORS
330
99
102
}
330
99
100
AcDbScale
 70
     0
300
1:50
140
1.0
141
50.0
290
     0
  0
SCALE
  5
A5
102
{ACAD_REACTORS
330
99
102
}
330
99
100
AcDbScale
 70
     0
300
1:100
140
1.0
141
100.0
290
     0
  0
SCALE
  5
A6
102
{ACAD_REACTORS
330
99
102
}
330
99
100
AcDbScale
 70
     0
300
2:1
140
2.0
141
1.0
290
     0
  0
SCALE
  5
A7
102
{ACAD_REACTORS
330
99
102
}
330
99
100
AcDbScale
 70
     0
300
4:1
140
4.0
141
1.0
290
     0
  0
SCALE
  5
A8
102
{ACAD_REACTORS
330
99
102
}
330
99
100
AcDbScale
 70
     0
300
8:1
140
8.0
141
1.0
290
     0
  0
SCALE
  5
A9
102
{ACAD_REACTORS
330
99
102
}
330
99
100
AcDbScale
 70
     0
300
10:1
140
10.0
141
1.0
290
     0
  0
SCALE
  5
AA
102
{ACAD_REACTORS
330
99
102
}
330
99
100
AcDbScale
 70
     0
300
100:1
140
100.0
141
1.0
290
     0
  0
SCALE
  5
AB
102
{ACAD_REACTORS
330
99
102
}
330
99
100
AcDbScale
 70
     0
300
1/128" = 1'-0"
140
0.0078125
141
12.0
290
     0
  0
SCALE
  5
AC
102
{ACAD_REACTORS
330
99
102
}
330
99
100
AcDbScale
 70
     0
300
1/64" = 1'-0"
140
0.015625
141
12.0
290
     0
  0
SCALE
  5
AD
102
{ACAD_REACTORS
330
99
102
}
330
99
100
AcDbScale
 70
     0
300
1/32" = 1'-0"
140
0.03125
141
12.0
290
     0
  0
SCALE
  5
AE
102
{ACAD_REACTORS
330
99
102
}
330
99
100
AcDbScale
 70
     0
300
1/16" = 1'-0"
140
0.0625
141
12.0
290
     0
  0
SCALE
  5
AF
102
{ACAD_REACTORS
330
99
102
}
330
99
100
AcDbScale
 70
     0
300
3/32" = 1'-0"
140
0.09375
141
12.0
290
     0
  0
SCALE
  5
B0
102
{ACAD_REACTORS
330
99
102
}
330
99
100
AcDbScale
 70
     0
300
1/8" = 1'-0"
140
0.125
141
12.0
290
     0
  0
SCALE
  5
B1
102
{ACAD_REACTORS
330
99
102
}
330
99
100
AcDbScale
 70
     0
300
3/16" = 1'-0"
140
0.1875
141
12.0
290
     0
  0
SCALE
  5
B2
102
{ACAD_REACTORS
330
99
102
}
330
99
100
AcDbScale
 70
     0
300
1/4" = 1'-0"
140
0.25
141
12.0
290
     0
  0
SCALE
  5
B3
102
{ACAD_REACTORS
330
99
102
}
330
99
100
AcDbScale
 70
     0
300
3/8" = 1'-0"
140
0.375
141
12.0
290
     0
  0
SCALE
  5
B4
102
{ACAD_REACTORS
330
99
102
}
330
99
100
AcDbScale
 70
     0
300
1/2" = 1'-0"
140
0.5
141
12.0
290
     0
  0
SCALE
  5
B5
102
{ACAD_REACTORS
330
99
102
}
330
99
100
AcDbScale
 70
     0
300
3/4" = 1'-0"
140
0.75
141
12.0
290
     0
  0
SCALE
  5
B6
102
{ACAD_REACTORS
330
99
102
}
330
99
100
AcDbScale
 70
     0
300
1" = 1'-0"
140
1.0
141
12.0
290
     0
  0
SCALE
  5
B7
102
{ACAD_REACTORS
330
99
102
}
330
99
100
AcDbScale
 70
     0
300
1-1/2" = 1'-0"
140
1.5
141
12.0
290
     0
  0
SCALE
  5
B8
102
{ACAD_REACTORS
330
99
102
}
330
99
100
AcDbScale
 70
     0
300
3" = 1'-0"
140
3.0
141
12.0
290
     0
  0
SCALE
  5
B9
102
{ACAD_REACTORS
330
99
102
}
330
99
100
AcDbScale
 70
     0
300
6" = 1'-0"
140
6.0
141
12.0
290
     0
  0
SCALE
  5
BA
102
{ACAD_REACTORS
330
99
102
}
330
99
100
AcDbScale
 70
     0
300
1'-0" = 1'-0"
140
12.0
141
12.0
290
     0
  0
ACDBSECTIONVIEWSTYLE
  5
3D55
102
{ACAD_XDICTIONARY
360
3E7A
102
}
102
{ACAD_REACTORS
330
3D54
102
}
330
3D54
100
AcDbModelDocViewStyle
 70
     0
  3
Metric50
290
     0
100
AcDbSectionViewStyle
 70
     0
 71
     0
 90
      102
 71
     1
340
11
 40
5.0
340
0
340
0
 40
5.0
300
I, O, Q, S, X, Z
 40
10.0
 90
        0
 40
2.5
 90
        0
 71
     2
340
16
 90
       25
340
16
 90
       50
 40
5.0
 40
2.5
 40
5.0
 71
     3
340
11
 40
5.0
 90
        0
 40
15.0
 90
        1
300
%<\AcVar ViewSectionStartId>%-%<\AcVar ViewSectionEndId>% (%<\AcVar ViewScale \f "%sn">%)
 71
     4
300
ANSI31
 40
1.0
 90
        0
290
     0
290
     0
 90
        6
 40
0.0
 40
1.570796326794896
 40
0.2617993877991494
 40
1.308996938995747
 40
-0.2617993877991494
 40
1.832595714594045
  0
TABLESTYLE
  5
3D52
102
{ACAD_XDICTIONARY
360
3DE6
102
}
102
{ACAD_REACTORS
330
92
102
}
330
92
100
AcDbTableStyle
  3
Standard
 70
     0
 71
     0
 40
1.5
 41
1.5
280
     0
281
     0
  7
Standard
140
4.5
170
     2
 62
     0
 63
     7
283
     0
274
    -2
284
     1
 64
     0
275
    -2
285
     1
 65
     0
276
    -2
286
     1
 66
     0
277
    -2
287
     1
 67
     0
278
    -2
288
     1
 68
     0
279
    -2
289
     1
 69
     0
  7
Standard
140
6.0
170
     5
 62
     0
 63
     7
283
     0
274
    -2
284
     1
 64
     0
275
    -2
285
     1
 65
     0
276
    -2
286
     1
 66
     0
277
    -2
287
     1
 67
     0
278
    -2
288
     1
 68
     0
279
    -2
289
     1
 69
     0
  7
Standard
140
4.5
170
     5
 62
     0
 63
     7
283
     0
274
    -2
284
     1
 64
     0
275
    -2
285
     1
 65
     0
276
    -2
286
     1
 66
     0
277
    -2
287
     1
 67
     0
278
    -2
288
     1
 68
     0
279
    -2
289
     1
 69
     0
  0
VISUALSTYLE
  5
3D3F
102
{ACAD_XDICTIONARY
360
3E53
102
}
102
{ACAD_REACTORS
330
2A0
102
}
330
2A0
100
AcDbVisualStyle
  2

 70
     4
 71
     0
 72
     2
 73
     0
 90
        0
 40
-0.6
 41
-30.0
 62
     5
 63
     7
 74
     1
 91
        4
 64
     7
 65
   257
 75
     1
175
     1
 42
1.0
 92
        0
 66
   257
 43
1.0
 76
     1
 77
     6
 78
     2
 67
     7
 79
     5
170
     0
171
     0
290
     0
174
     0
 93
        1
 44
0.0
173
     0
291
     0
 45
0.0
1001
ACAD
1000
AcDbSavedByObjectVersion
1070
     0
  0
VISUALSTYLE
  5
3D3E
102
{ACAD_XDICTIONARY
360
3E51
102
}
102
{ACAD_REACTORS
330
2A0
102
}
330
2A0
100
AcDbVisualStyle
  2

 70
     7
 71
     1
 72
     0
 73
     1
 90
        0
 40
-0.6
 41
-30.0
 62
     5
 63
     7
 74
     0
 91
        4
 64
     7
 65
   257
 75
     1
175
     1
 42
1.0
 92
        8
 66
     7
 43
1.0
 76
     1
 77
     6
 78
     2
 67
     7
 79
     5
170
     0
171
     0
290
     0
174
     0
 93
        1
 44
0.0
173
     0
291
     1
 45
0.0
1001
ACAD
1000
AcDbSavedByObjectVersion
1070
     0
  0
VISUALSTYLE
  5
3D45
102
{ACAD_XDICTIONARY
360
3E5F
102
}
102
{ACAD_REACTORS
330
2A0
102
}
330
2A0
100
AcDbVisualStyle
  2

 70
    12
 71
     2
 72
     2
 73
     0
 90
        0
 40
-0.6
 41
-30.0
 62
     5
 63
     7
 74
     1
 91
        4
 64
     7
 65
   257
 75
     1
175
     1
 42
1.0
 92
        8
 66
     7
 43
1.0
 76
     1
 77
     6
 78
     2
 67
     7
 79
     5
170
     0
171
     0
290
     0
174
     0
 93
        1
 44
50.0
173
     0
291
     1
 45
0.0
1001
ACAD
1000
AcDbSavedByObjectVersion
1070
     0
  0
VISUALSTYLE
  5
3D49
102
{ACAD_XDICTIONARY
360
3E67
102
}
102
{ACAD_REACTORS
330
2A0
102
}
330
2A0
100
AcDbVisualStyle
  2

 70
    16
 71
     2
 72
     2
 73
     3
 90
        0
 40
-0.6
 41
-30.0
 62
     5
 63
     8
 74
     1
 91
        4
 64
     7
 65
   257
 75
     1
175
     1
 42
1.0
 92
        8
 66
     8
 43
1.0
 76
     1
 77
     6
 78
     2
 67
     7
 79
     5
170
     0
171
     0
290
     0
174
     0
 93
        1
 44
0.0
173
     0
291
     1
 45
0.0
1001
ACAD
1000
AcDbSavedByObjectVersion
1070
     0
  0
VISUALSTYLE
  5
3D42
102
{ACAD_XDICTIONARY
360
3E59
102
}
102
{ACAD_REACTORS
330
2A0
102
}
330
2A0
100
AcDbVisualStyle
  2

 70
     9
 71
     3
 72
     2
 73
     0
 90
        0
 40
-0.6
 41
-30.0
 62
     5
 63
     7
 74
     2
 91
        2
 64
     7
 65
   257
 75
     1
175
     1
 42
179.0
 92
        8
 66
     7
 43
1.0
 76
     1
 77
     6
 78
     2
 67
     7
 79
     3
170
     0
171
     0
290
     0
174
     0
 93
        1
 44
0.0
173
     0
291
     0
 45
0.0
1001
ACAD
1000
AcDbSavedByObjectVersion
1070
     0
  0
VISUALSTYLE
  5
3D44
102
{ACAD_XDICTIONARY
360
3E5D
102
}
102
{ACAD_REACTORS
330
2A0
102
}
330
2A0
100
AcDbVisualStyle
  2

 70
    11
 71
     2
 72
     2
 73
     0
 90
        0
 40
-0.6
 41
-30.0
 62
     5
 63
     7
 74
     1
 91
        4
 64
     7
 65
   257
 75
     1
175
     1
 42
1.0
 92
        8
 66
     7
 43
1.0
 76
     1
 77
     6
 78
     2
 67
     7
 79
     5
170
     0
171
     0
290
     0
174
     0
 93
        1
 44
-50.0
173
     0
291
     1
 45
0.0
1001
ACAD
1000
AcDbSavedByObjectVersion
1070
     0
  0
VISUALSTYLE
  5
3D51
102
{ACAD_XDICTIONARY
360
3E77
102
}
102
{ACAD_REACTORS
330
2A0
102
}
330
2A0
100
AcDbVisualStyle
  2

 70
    22
 71
     2
 72
     2
 73
     0
 90
        0
 40
-0.6
 41
-30.0
 62
     5
 63
     7
 74
     1
 91
        4
 64
     7
 65
   257
 75
     1
175
     1
 42
1.0
 92
        8
 66
     7
 43
1.0
 76
     1
 77
     6
 78
     2
 67
     7
 79
     5
170
     0
171
     0
290
     0
174
     0
 93
        1
 44
0.0
173
     0
291
     1
 45
0.0
1001
ACAD
1000
AcDbSavedByObjectVersion
1070
     0
  0
VISUALSTYLE
  5
3D48
102
{ACAD_XDICTIONARY
360
3E65
102
}
102
{ACAD_REACTORS
330
2A0
102
}
330
2A0
100
AcDbVisualStyle
  2

 70
    15
 71
     2
 72
     2
 73
     0
 90
        0
 40
-0.6
 41
-30.0
 62
     5
 63
     7
 74
     1
 91
        4
 64
     7
 65
   257
 75
     1
175
     1
 42
1.0
 92
        8
 66
     7
 43
1.0
 76
     1
 77
     6
 78
     2
 67
     7
 79
     5
170
     0
171
     0
290
     0
174
     0
 93
        1
 44
0.0
173
     0
291
     1
 45
0.0
1001
ACAD
1000
AcDbSavedByObjectVersion
1070
     0
  0
VISUALSTYLE
  5
3D3A
102
{ACAD_XDICTIONARY
360
3E49
102
}
102
{ACAD_REACTORS
330
2A0
102
}
330
2A0
100
AcDbVisualStyle
  2

 70
     0
 71
     2
 72
     1
 73
     1
 90
        2
 40
-0.6
 41
30.0
 62
     5
 63
     7
 74
     0
 91
        0
 64
     7
 65
   257
 75
     1
175
     1
 42
1.0
 92
        8
 66
     7
 43
1.0
 76
     1
 77
     6
 78
     2
 67
     7
 79
     5
170
     0
171
     0
290
     0
174
     0
 93
       13
 44
0.0
173
     0
291
     1
 45
0.0
1001
ACAD
1000
AcDbSavedByObjectVersion
1070
     0
  0
VISUALSTYLE
  5
3D3B
102
{ACAD_XDICTIONARY
360
3E4B
102
}
102
{ACAD_REACTORS
330
2A0
102
}
330
2A0
100
AcDbVisualStyle
  2

 70
     1
 71
     2
 72
     1
 73
     1
 90
        2
 40
-0.6
 41
30.0
 62
     5
 63
     7
 74
     1
 91
        0
 64
     7
 65
   257
 75
     1
175
     1
 42
1.0
 92
        0
 66
   257
 43
1.0
 76
     1
 77
     6
 78
     2
 67
     7
 79
     5
170
     0
171
     0
290
     0
174
     0
 93
       13
 44
0.0
173
     0
291
     1
 45
0.0
1001
ACAD
1000
AcDbSavedByObjectVersion
1070
     0
  0
VISUALSTYLE
  5
3D3C
102
{ACAD_XDICTIONARY
360
3E4D
102
}
102
{ACAD_REACTORS
330
2A0
102
}
330
2A0
100
AcDbVisualStyle
  2

 70
     2
 71
     2
 72
     2
 73
     1
 90
        2
 40
-0.6
 41
30.0
 62
     5
 63
     7
 74
     0
 91
        0
 64
     7
 65
   257
 75
     1
175
     1
 42
1.0
 92
        0
 66
     7
 43
1.0
 76
     1
 77
     6
 78
     2
 67
     7
 79
     5
170
     0
171
     0
290
     0
174
     0
 93
       13
 44
0.0
173
     0
291
     1
 45
0.0
1001
ACAD
1000
AcDbSavedByObjectVersion
1070
     0
  0
VISUALSTYLE
  5
3D3D
102
{ACAD_XDICTIONARY
360
3E4F
102
}
102
{ACAD_REACTORS
330
2A0
102
}
330
2A0
100
AcDbVisualStyle
  2

 70
     3
 71
     2
 72
     2
 73
     1
 90
        2
 40
-0.6
 41
30.0
 62
     5
 63
     7
 74
     1
 91
        0
 64
     7
 65
   257
 75
     1
175
     1
 42
1.0
 92
        0
 66
   257
 43
1.0
 76
     1
 77
     6
 78
     2
 67
     7
 79
     5
170
     0
171
     0
290
     0
174
     0
 93
       13
 44
0.0
173
     0
291
     1
 45
0.0
1001
ACAD
1000
AcDbSavedByObjectVersion
1070
     0
  0
VISUALSTYLE
  5
3D41
102
{ACAD_XDICTIONARY
360
3E57
102
}
102
{ACAD_REACTORS
330
2A0
102
}
330
2A0
100
AcDbVisualStyle
  2

 70
     6
 71
     1
 72
     2
 73
     2
 90
        0
 40
-0.6
 41
-30.0
 62
     5
 63
     7
 74
     2
 91
        2
 64
     7
 65
   257
 75
     2
175
     1
 42
40.0
 92
        0
 66
   257
 43
1.0
 76
     1
 77
     6
 78
     2
 67
     7
 79
     3
170
     0
171
     0
290
     0
174
     0
 93
        1
 44
0.0
173
     0
291
     0
 45
0.0
1001
ACAD
1000
AcDbSavedByObjectVersion
1070
     0
  0
VISUALSTYLE
  5
3D4F
102
{ACAD_XDICTIONARY
360
3E73
102
}
102
{ACAD_REACTORS
330
2A0
102
}
330
2A0
100
AcDbVisualStyle
  2

 70
    20
 71
     2
 72
     2
 73
     0
 90
        0
 40
-0.6
 41
-30.0
 62
     5
 63
     7
 74
     1
 91
        4
 64
     7
 65
   257
 75
     1
175
     1
 42
1.0
 92
       10
 66
     7
 43
1.0
 76
     1
 77
     6
 78
     2
 67
     7
 79
     5
170
     0
171
     0
290
     0
174
     0
 93
        1
 44
0.0
173
     0
291
     1
 45
0.0
1001
ACAD
1000
AcDbSavedByObjectVersion
1070
     0
  0
VISUALSTYLE
  5
3D47
102
{ACAD_XDICTIONARY
360
3E63
102
}
102
{ACAD_REACTORS
330
2A0
102
}
330
2A0
100
AcDbVisualStyle
  2

 70
    14
 71
     2
 72
     2
 73
     0
 90
        0
 40
-0.6
 41
-30.0
 62
     5
 63
     7
 74
     1
 91
        4
 64
     7
 65
   257
 75
     7
175
     7
 42
1.0
 92
        8
 66
     7
 43
1.0
 76
     1
 77
     6
 78
     2
 67
     7
 79
     5
170
     0
171
     0
290
     0
174
     0
 93
        1
 44
0.0
173
     0
291
     1
 45
0.0
1001
ACAD
1000
AcDbSavedByObjectVersion
1070
     0
  0
VISUALSTYLE
  5
3D50
102
{ACAD_XDICTIONARY
360
3E75
102
}
102
{ACAD_REACTORS
330
2A0
102
}
330
2A0
100
AcDbVisualStyle
  2

 70
    21
 71
     2
 72
     2
 73
     0
 90
        0
 40
-0.6
 41
-30.0
 62
     5
 63
     7
 74
     1
 91
        4
 64
     7
 65
   257
 75
     1
175
     1
 42
1.0
 92
        9
 66
     7
 43
1.0
 76
     1
 77
     6
 78
     2
 67
     7
 79
     5
170
     0
171
     0
290
     0
174
     0
 93
        1
 44
0.0
173
     0
291
     1
 45
0.0
1001
ACAD
1000
AcDbSavedByObjectVersion
1070
     0
  0
VISUALSTYLE
  5
3D43
102
{ACAD_XDICTIONARY
360
3E5B
102
}
102
{ACAD_REACTORS
330
2A0
102
}
330
2A0
100
AcDbVisualStyle
  2

 70
     8
 71
     2
 72
     3
 73
     0
 90
        2
 40
-0.6
 41
30.0
 62
     5
 63
     7
 74
     0
 91
        0
 64
     7
 65
   257
 75
     1
175
     1
 42
1.0
 92
        8
 66
   257
 43
1.0
 76
     1
 77
     6
 78
     2
 67
     7
 79
     3
170
     0
171
     0
290
     0
174
     0
 93
       13
 44
0.0
173
     0
291
     0
 45
0.0
1001
ACAD
1000
AcDbSavedByObjectVersion
1070
     0
  0
VISUALSTYLE
  5
3D4E
102
{ACAD_XDICTIONARY
360
3E71
102
}
102
{ACAD_REACTORS
330
2A0
102
}
330
2A0
100
AcDbVisualStyle
  2

 70
    27
 71
     2
 72
     2
 73
     1
 90
        2
 40
-0.6
 41
30.0
 62
     5
 63
     7
 74
     0
 91
        4
 64
     7
 65
   257
 75
     1
175
     1
 42
1.0
 92
        8
 66
   257
 43
1.0
 76
     1
 77
     6
 78
     2
 67
     8
 79
     3
170
     0
171
     0
290
     0
174
     0
 93
        5
 44
0.0
173
     0
291
     0
 45
0.0
1001
ACAD
1000
AcDbSavedByObjectVersion
1070
     0
  0
VISUALSTYLE
  5
3D4D
102
{ACAD_XDICTIONARY
360
3E6F
102
}
102
{ACAD_REACTORS
330
2A0
102
}
330
2A0
100
AcDbVisualStyle
  2

 70
    26
 71
     2
 72
     2
 73
     1
 90
        2
 40
-0.6
 41
30.0
 62
     5
 63
     7
 74
     1
 91
        2
 64
     7
 65
   257
 75
     2
175
     1
 42
1.0
 92
        8
 66
   257
 43
1.0
 76
     1
 77
     6
 78
     2
 67
     7
 79
     3
170
     0
171
     0
290
     0
174
     0
 93
        5
 44
0.0
173
     0
291
     0
 45
0.0
1001
ACAD
1000
AcDbSavedByObjectVersion
1070
     0
  0
VISUALSTYLE
  5
3D4A
102
{ACAD_XDICTIONARY
360
3E69
102
}
102
{ACAD_REACTORS
330
2A0
102
}
330
2A0
100
AcDbVisualStyle
  2

 70
    23
 71
     2
 72
     2
 73
     3
 90
        0
 40
-0.6
 41
-30.0
 62
     5
 63
     7
 74
     2
 91
        2
 64
     7
 65
     7
 75
     1
175
     1
 42
40.0
 92
        8
 66
     7
 43
1.0
 76
     1
 77
     6
 78
     2
 67
     7
 79
     3
170
     0
171
     0
290
     0
174
     0
 93
        1
 44
0.0
173
     0
291
     0
 45
0.0
1001
ACAD
1000
AcDbSavedByObjectVersion
1070
     0
  0
VISUALSTYLE
  5
3D4B
102
{ACAD_XDICTIONARY
360
3E6B
102
}
102
{ACAD_REACTORS
330
2A0
102
}
330
2A0
100
AcDbVisualStyle
  2

 70
    24
 71
     1
 72
     2
 73
     2
 90
        0
 40
-0.6
 41
-30.0
 62
     5
 63
     7
 74
     2
 91
        2
 64
     7
 65
     7
 75
     1
175
     1
 42
40.0
 92
       11
 66
     7
 43
1.0
 76
     1
 77
     6
 78
     2
 67
     7
 79
     6
170
     0
171
     0
290
     0
174
     0
 93
        1
 44
0.0
173
     0
291
     0
 45
0.0
1001
ACAD
1000
AcDbSavedByObjectVersion
1070
     0
  0
VISUALSTYLE
  5
3D46
102
{ACAD_XDICTIONARY
360
3E61
102
}
102
{ACAD_REACTORS
330
2A0
102
}
330
2A0
100
AcDbVisualStyle
  2

 70
    13
 71
     2
 72
     2
 73
     0
 90
        0
 40
-0.6
 41
-30.0
 62
     5
 63
     7
 74
     1
 91
        4
 64
     7
 65
   257
 75
     1
175
     1
 42
1.0
 92
       12
 66
     7
 43
1.0
 76
     1
 77
     6
 78
     2
 67
     7
 79
     5
170
     0
171
     0
290
     0
174
     0
 93
        1
 44
0.0
173
     0
291
     1
 45
0.0
1001
ACAD
1000
AcDbSavedByObjectVersion
1070
     0
  0
VISUALSTYLE
  5
3D40
102
{ACAD_XDICTIONARY
360
3E55
102
}
102
{ACAD_REACTORS
330
2A0
102
}
330
2A0
100
AcDbVisualStyle
  2

 70
     5
 71
     0
 72
     2
 73
     0
 90
        0
 40
-0.6
 41
-30.0
 62
     5
 63
     7
 74
     1
 91
        4
 64
     7
 65
   257
 75
     1
175
     1
 42
1.0
 92
        0
 66
   257
 43
1.0
 76
     1
 77
     6
 78
     2
 67
     7
 79
     3
170
     0
171
     0
290
     0
174
     0
 93
        1
 44
0.0
173
     0
291
     0
 45
0.0
1001
ACAD
1000
AcDbSavedByObjectVersion
1070
     0
  0
VISUALSTYLE
  5
3D4C
102
{ACAD_XDICTIONARY
360
3E6D
102
}
102
{ACAD_REACTORS
330
2A0
102
}
330
2A0
100
AcDbVisualStyle
  2

 70
    25
 71
     2
 72
     2
 73
     1
 90
        1
 40
0.5
 41
-30.0
 62
     5
 63
     7
 74
     1
 91
        0
 64
     7
 65
   257
 75
     1
175
     1
 42
1.0
 92
        8
 66
     7
 43
1.0
 76
     1
 77
     6
 78
     2
 67
     7
 79
     3
170
     0
171
     0
290
     0
174
     0
 93
       13
 44
0.0
173
     0
291
     0
 45
0.0
1001
ACAD
1000
AcDbSavedByObjectVersion
1070
     0
  0
XRECORD
  5
3D1A
102
{ACAD_REACTORS
330
3D19
102
}
330
3D19
100
AcDbXrecord
280
     1
340
6C
  0
XRECORD
  5
3D1B
102
{ACAD_REACTORS
330
3D19
102
}
330
3D19
100
AcDbXrecord
280
     1
340
6B
  0
DICTIONARYVAR
  5
3E38
102
{ACAD_REACTORS
330
3E33
102
}
330
3E33
100
DictionaryVariables
280
     0
  1
1:1
  0
DICTIONARYVAR
  5
3E35
102
{ACAD_REACTORS
330
3E33
102
}
330
3E33
100
DictionaryVariables
280
     0
  1
STANDARD
  0
DICTIONARYVAR
  5
3E34
102
{ACAD_REACTORS
330
3E33
102
}
330
3E33
100
DictionaryVariables
280
     0
  1
STANDARD
  0
DICTIONARYVAR
  5
3E36
102
{ACAD_REACTORS
330
3E33
102
}
330
3E33
100
DictionaryVariables
280
     0
  1
METRIC50
  0
DICTIONARYVAR
  5
3E37
102
{ACAD_REACTORS
330
3E33
102
}
330
3E33
100
DictionaryVariables
280
     0
  1
METRIC50
  0
DICTIONARYVAR
  5
3E3B
102
{ACAD_REACTORS
330
3E33
102
}
330
3E33
100
DictionaryVariables
280
     0
  1
1
  0
DICTIONARYVAR
  5
3E3A
102
{ACAD_REACTORS
330
3E33
102
}
330
3E33
100
DictionaryVariables
280
     0
  1
0
  0
DICTIONARYVAR
  5
3E39
102
{ACAD_REACTORS
330
3E33
102
}
330
3E33
100
DictionaryVariables
280
     0
  1
127
  0
DICTIONARYVAR
  5
3E3C
102
{ACAD_REACTORS
330
3E33
102
}
330
3E33
100
DictionaryVariables
280
     0
  1
2
  0
XRECORD
  5
A42
102
{ACAD_REACTORS
330
A41
102
}
330
A41
100
AcDbXrecord
280
     1
330
63B
  0
XRECORD
  5
B87
102
{ACAD_REACTORS
330
62D
102
}
330
62D
100
AcDbXrecord
280
     1
 91
      535
301

290
     0
302
0
330
616
 90
        0
 62
     7
370
    -3
331
16
390
0
330
0
 90
        8
 62
     4
370
    50
331
16
390
0
330
614
 90
        8
 62
     4
370
    50
331
16
390
0
330
611
 90
        8
 62
     9
370
    18
331
16
390
0
330
60F
 90
        8
 62
     7
370
    -3
331
16
390
0
330
60D
 90
        8
 62
     1
370
    25
331
16
390
0
330
60B
 90
        8
 62
     5
370
    -3
331
16
390
0
330
609
 90
        8
 62
     2
370
    25
331
3CE8
390
0
330
607
 90
        8
 62
     2
370
    25
331
3CE8
390
0
330
603
 90
        8
 62
     7
370
    25
331
16
390
0
330
601
 90
        8
 62
     7
370
    25
331
16
390
0
330
5FF
 90
        8
 62
     4
370
    50
331
16
390
0
330
10
 90
        8
 62
     7
370
    13
331
16
390
0
  0
DICTIONARY
  5
3E7C
330
3D57
100
AcDbDictionary
280
     1
281
     1
  3
ACAD_XREC_ROUNDTRIP
360
3E7D
  0
DICTIONARY
  5
3E47
330
74
100
AcDbDictionary
280
     1
281
     1
  3
ACAD_XREC_ROUNDTRIP
360
3E48
  0
DICTIONARY
  5
3E43
330
22
100
AcDbDictionary
280
     1
281
     1
  3
ACAD_XREC_ROUNDTRIP
360
3E44
  0
DICTIONARY
  5
3D2B
330
3D2A
100
AcDbDictionary
280
     1
281
     1
  3
ACAD_XREC_ROUNDTRIP
360
3DF4
  3
BUMPTILE
360
3D2D
  3
DIFFUSETILE
360
3D2C
  3
OPACITYTILE
360
3D30
  3
REFLECTIONTILE
360
3D2F
  3
REFRACTIONTILE
360
3D31
  3
SPECULARTILE
360
3D2E
  0
DICTIONARY
  5
3D23
330
3D22
100
AcDbDictionary
280
     1
281
     1
  3
ACAD_XREC_ROUNDTRIP
360
3DF3
  3
BUMPTILE
360
3D25
  3
DIFFUSETILE
360
3D24
  3
OPACITYTILE
360
3D28
  3
REFLECTIONTILE
360
3D27
  3
REFRACTIONTILE
360
3D29
  3
SPECULARTILE
360
3D26
  0
DICTIONARY
  5
3D33
330
3D32
100
AcDbDictionary
280
     1
281
     1
  3
ACAD_XREC_ROUNDTRIP
360
3DF5
  3
BUMPTILE
360
3D35
  3
DIFFUSETILE
360
3D34
  3
OPACITYTILE
360
3D38
  3
REFLECTIONTILE
360
3D37
  3
REFRACTIONTILE
360
3D39
  3
SPECULARTILE
360
3D36
  0
DICTIONARY
  5
3E7A
330
3D55
100
AcDbDictionary
280
     1
281
     1
  3
ACAD_XREC_ROUNDTRIP
360
3E7B
  0
DICTIONARY
  5
3DE6
330
3D52
100
AcDbDictionary
280
     1
281
     1
  3
ACAD_ROUNDTRIP_2008_TABLESTYLE_CELLSTYLEMAP
360
3E3D
  3
ACAD_XREC_ROUNDTRIP
360
3E79
  0
DICTIONARY
  5
3E53
330
3D3F
100
AcDbDictionary
280
     1
281
     1
  3
ACAD_XREC_ROUNDTRIP
360
3E54
  0
DICTIONARY
  5
3E51
330
3D3E
100
AcDbDictionary
280
     1
281
     1
  3
ACAD_XREC_ROUNDTRIP
360
3E52
  0
DICTIONARY
  5
3E5F
330
3D45
100
AcDbDictionary
280
     1
281
     1
  3
ACAD_XREC_ROUNDTRIP
360
3E60
  0
DICTIONARY
  5
3E67
330
3D49
100
AcDbDictionary
280
     1
281
     1
  3
ACAD_XREC_ROUNDTRIP
360
3E68
  0
DICTIONARY
  5
3E59
330
3D42
100
AcDbDictionary
280
     1
281
     1
  3
ACAD_XREC_ROUNDTRIP
360
3E5A
  0
DICTIONARY
  5
3E5D
330
3D44
100
AcDbDictionary
280
     1
281
     1
  3
ACAD_XREC_ROUNDTRIP
360
3E5E
  0
DICTIONARY
  5
3E77
330
3D51
100
AcDbDictionary
280
     1
281
     1
  3
ACAD_XREC_ROUNDTRIP
360
3E78
  0
DICTIONARY
  5
3E65
330
3D48
100
AcDbDictionary
280
     1
281
     1
  3
ACAD_XREC_ROUNDTRIP
360
3E66
  0
DICTIONARY
  5
3E49
330
3D3A
100
AcDbDictionary
280
     1
281
     1
  3
ACAD_XREC_ROUNDTRIP
360
3E4A
  0
DICTIONARY
  5
3E4B
330
3D3B
100
AcDbDictionary
280
     1
281
     1
  3
ACAD_XREC_ROUNDTRIP
360
3E4C
  0
DICTIONARY
  5
3E4D
330
3D3C
100
AcDbDictionary
280
     1
281
     1
  3
ACAD_XREC_ROUNDTRIP
360
3E4E
  0
DICTIONARY
  5
3E4F
330
3D3D
100
AcDbDictionary
280
     1
281
     1
  3
ACAD_XREC_ROUNDTRIP
360
3E50
  0
DICTIONARY
  5
3E57
330
3D41
100
AcDbDictionary
280
     1
281
     1
  3
ACAD_XREC_ROUNDTRIP
360
3E58
  0
DICTIONARY
  5
3E73
330
3D4F
100
AcDbDictionary
280
     1
281
     1
  3
ACAD_XREC_ROUNDTRIP
360
3E74
  0
DICTIONARY
  5
3E63
330
3D47
100
AcDbDictionary
280
     1
281
     1
  3
ACAD_XREC_ROUNDTRIP
360
3E64
  0
DICTIONARY
  5
3E75
330
3D50
100
AcDbDictionary
280
     1
281
     1
  3
ACAD_XREC_ROUNDTRIP
360
3E76
  0
DICTIONARY
  5
3E5B
330
3D43
100
AcDbDictionary
280
     1
281
     1
  3
ACAD_XREC_ROUNDTRIP
360
3E5C
  0
DICTIONARY
  5
3E71
330
3D4E
100
AcDbDictionary
280
     1
281
     1
  3
ACAD_XREC_ROUNDTRIP
360
3E72
  0
DICTIONARY
  5
3E6F
330
3D4D
100
AcDbDictionary
280
     1
281
     1
  3
ACAD_XREC_ROUNDTRIP
360
3E70
  0
DICTIONARY
  5
3E69
330
3D4A
100
AcDbDictionary
280
     1
281
     1
  3
ACAD_XREC_ROUNDTRIP
360
3E6A
  0
DICTIONARY
  5
3E6B
330
3D4B
100
AcDbDictionary
280
     1
281
     1
  3
ACAD_XREC_ROUNDTRIP
360
3E6C
  0
DICTIONARY
  5
3E61
330
3D46
100
AcDbDictionary
280
     1
281
     1
  3
ACAD_XREC_ROUNDTRIP
360
3E62
  0
DICTIONARY
  5
3E55
330
3D40
100
AcDbDictionary
280
     1
281
     1
  3
ACAD_XREC_ROUNDTRIP
360
3E56
  0
DICTIONARY
  5
3E6D
330
3D4C
100
AcDbDictionary
280
     1
281
     1
  3
ACAD_XREC_ROUNDTRIP
360
3E6E
  0
XRECORD
  5
3E7D
102
{ACAD_REACTORS
330
3E7C
102
}
330
3E7C
100
AcDbXrecord
280
     1
102
DISPLAYNAME
  1
METRIC50
102
FLAGS
 90
        0
  0
XRECORD
  5
3E48
102
{ACAD_REACTORS
330
3E47
102
}
330
3E47
100
AcDbXrecord
280
     1
102
SHADEPLOT
 70
     0
102
SHADEPLOTRESLEVEL
 70
     2
102
SHADEPLOTCUSTOMDPI
 70
   300
  0
XRECORD
  5
3E44
102
{ACAD_REACTORS
330
3E43
102
}
330
3E43
100
AcDbXrecord
280
     1
102
SHADEPLOT
 70
     0
102
SHADEPLOTRESLEVEL
 70
     2
102
SHADEPLOTCUSTOMDPI
 70
   300
  0
XRECORD
  5
3DF4
102
{ACAD_REACTORS
330
3D2B
102
}
330
3D2B
100
AcDbXrecord
280
     1
102
MATERIAL
148
0.0
149
0.0
149
0.0
 93
        0
 94
      127
282
     0
 72
     0
 77
     0
171
     0
175
     0
179
     0
273
     0
  0
XRECORD
  5
3D2D
102
{ACAD_REACTORS
330
3D2B
102
}
330
3D2B
100
AcDbXrecord
280
     1
270
     1
271
     1
  0
XRECORD
  5
3D2C
102
{ACAD_REACTORS
330
3D2B
102
}
330
3D2B
100
AcDbXrecord
280
     1
270
     1
271
     1
  0
XRECORD
  5
3D30
102
{ACAD_REACTORS
330
3D2B
102
}
330
3D2B
100
AcDbXrecord
280
     1
270
     1
271
     1
  0
XRECORD
  5
3D2F
102
{ACAD_REACTORS
330
3D2B
102
}
330
3D2B
100
AcDbXrecord
280
     1
270
     1
271
     1
  0
XRECORD
  5
3D31
102
{ACAD_REACTORS
330
3D2B
102
}
330
3D2B
100
AcDbXrecord
280
     1
270
     1
271
     1
  0
XRECORD
  5
3D2E
102
{ACAD_REACTORS
330
3D2B
102
}
330
3D2B
100
AcDbXrecord
280
     1
270
     1
271
     1
  0
XRECORD
  5
3DF3
102
{ACAD_REACTORS
330
3D23
102
}
330
3D23
100
AcDbXrecord
280
     1
102
MATERIAL
148
0.0
149
0.0
149
0.0
 93
        0
 94
      127
282
     0
 72
     0
 77
     0
171
     0
175
     0
179
     0
273
     0
  0
XRECORD
  5
3D25
102
{ACAD_REACTORS
330
3D23
102
}
330
3D23
100
AcDbXrecord
280
     1
270
     1
271
     1
  0
XRECORD
  5
3D24
102
{ACAD_REACTORS
330
3D23
102
}
330
3D23
100
AcDbXrecord
280
     1
270
     1
271
     1
  0
XRECORD
  5
3D28
102
{ACAD_REACTORS
330
3D23
102
}
330
3D23
100
AcDbXrecord
280
     1
270
     1
271
     1
  0
XRECORD
  5
3D27
102
{ACAD_REACTORS
330
3D23
102
}
330
3D23
100
AcDbXrecord
280
     1
270
     1
271
     1
  0
XRECORD
  5
3D29
102
{ACAD_REACTORS
330
3D23
102
}
330
3D23
100
AcDbXrecord
280
     1
270
     1
271
     1
  0
XRECORD
  5
3D26
102
{ACAD_REACTORS
330
3D23
102
}
330
3D23
100
AcDbXrecord
280
     1
270
     1
271
     1
  0
XRECORD
  5
3DF5
102
{ACAD_REACTORS
330
3D33
102
}
330
3D33
100
AcDbXrecord
280
     1
102
MATERIAL
148
0.0
149
0.0
149
0.0
 93
        0
 94
      127
282
     0
 72
     0
 77
     0
171
     0
175
     0
179
     0
273
     0
  0
XRECORD
  5
3D35
102
{ACAD_REACTORS
330
3D33
102
}
330
3D33
100
AcDbXrecord
280
     1
270
     1
271
     1
  0
XRECORD
  5
3D34
102
{ACAD_REACTORS
330
3D33
102
}
330
3D33
100
AcDbXrecord
280
     1
270
     1
271
     1
  0
XRECORD
  5
3D38
102
{ACAD_REACTORS
330
3D33
102
}
330
3D33
100
AcDbXrecord
280
     1
270
     1
271
     1
  0
XRECORD
  5
3D37
102
{ACAD_REACTORS
330
3D33
102
}
330
3D33
100
AcDbXrecord
280
     1
270
     1
271
     1
  0
XRECORD
  5
3D39
102
{ACAD_REACTORS
330
3D33
102
}
330
3D33
100
AcDbXrecord
280
     1
270
     1
271
     1
  0
XRECORD
  5
3D36
102
{ACAD_REACTORS
330
3D33
102
}
330
3D33
100
AcDbXrecord
280
     1
270
     1
271
     1
  0
XRECORD
  5
3E7B
102
{ACAD_REACTORS
330
3E7A
102
}
330
3E7A
100
AcDbXrecord
280
     1
102
DISPLAYNAME
  1
METRIC50
102
FLAGS
 90
        0
  0
CELLSTYLEMAP
  5
3E3D
102
{ACAD_REACTORS
330
3DE6
102
}
330
3DE6
100
AcDbCellStyleMap
 90
        3
300
CELLSTYLE
  1
TABLEFORMAT_BEGIN
 90
        5
170
     1
 91
        0
 92
    32768
 62
   257
 93
        1
300
CONTENTFORMAT
  1
CONTENTFORMAT_BEGIN
 90
        0
 91
        0
 92
      512
 93
        0
300

 40
0.0
140
1.0
 94
        5
 62
     0
340
11
144
6.0
309
CONTENTFORMAT_END
171
     1
301
MARGIN
  1
CELLMARGIN_BEGIN
 40
1.5
 40
1.5
 40
1.5
 40
1.5
 40
0.18
 40
0.18
309
CELLMARGIN_END
 94
        6
 95
        1
302
GRIDFORMAT
  1
GRIDFORMAT_BEGIN
 90
        0
 91
        1
 62
     0
 92
       -2
340
0
 93
        0
 40
1.125
309
GRIDFORMAT_END
 95
        2
302
GRIDFORMAT
  1
GRIDFORMAT_BEGIN
 90
        0
 91
        1
 62
     0
 92
       -2
340
0
 93
        0
 40
1.125
309
GRIDFORMAT_END
 95
        4
302
GRIDFORMAT
  1
GRIDFORMAT_BEGIN
 90
        0
 91
        1
 62
     0
 92
       -2
340
0
 93
        0
 40
1.125
309
GRIDFORMAT_END
 95
        8
302
GRIDFORMAT
  1
GRIDFORMAT_BEGIN
 90
        0
 91
        1
 62
     0
 92
       -2
340
0
 93
        0
 40
1.125
309
GRIDFORMAT_END
 95
       16
302
GRIDFORMAT
  1
GRIDFORMAT_BEGIN
 90
        0
 91
        1
 62
     0
 92
       -2
340
0
 93
        0
 40
1.125
309
GRIDFORMAT_END
 95
       32
302
GRIDFORMAT
  1
GRIDFORMAT_BEGIN
 90
        0
 91
        1
 62
     0
 92
       -2
340
0
 93
        0
 40
1.125
309
GRIDFORMAT_END
309
TABLEFORMAT_END
  1
CELLSTYLE_BEGIN
 90
        1
 91
        1
300
_TITLE
309
CELLSTYLE_END
300
CELLSTYLE
  1
TABLEFORMAT_BEGIN
 90
        5
170
     1
 91
        0
 92
        0
 62
   257
 93
        1
300
CONTENTFORMAT
  1
CONTENTFORMAT_BEGIN
 90
        0
 91
        0
 92
      512
 93
        0
300

 40
0.0
140
1.0
 94
        5
 62
     0
340
11
144
4.5
309
CONTENTFORMAT_END
171
     1
301
MARGIN
  1
CELLMARGIN_BEGIN
 40
1.5
 40
1.5
 40
1.5
 40
1.5
 40
0.18
 40
0.18
309
CELLMARGIN_END
 94
        6
 95
        1
302
GRIDFORMAT
  1
GRIDFORMAT_BEGIN
 90
        0
 91
        1
 62
     0
 92
       -2
340
0
 93
        0
 40
1.125
309
GRIDFORMAT_END
 95
        2
302
GRIDFORMAT
  1
GRIDFORMAT_BEGIN
 90
        0
 91
        1
 62
     0
 92
       -2
340
0
 93
        0
 40
1.125
309
GRIDFORMAT_END
 95
        4
302
GRIDFORMAT
  1
GRIDFORMAT_BEGIN
 90
        0
 91
        1
 62
     0
 92
       -2
340
0
 93
        0
 40
1.125
309
GRIDFORMAT_END
 95
        8
302
GRIDFORMAT
  1
GRIDFORMAT_BEGIN
 90
        0
 91
        1
 62
     0
 92
       -2
340
0
 93
        0
 40
1.125
309
GRIDFORMAT_END
 95
       16
302
GRIDFORMAT
  1
GRIDFORMAT_BEGIN
 90
        0
 91
        1
 62
     0
 92
       -2
340
0
 93
        0
 40
1.125
309
GRIDFORMAT_END
 95
       32
302
GRIDFORMAT
  1
GRIDFORMAT_BEGIN
 90
        0
 91
        1
 62
     0
 92
       -2
340
0
 93
        0
 40
1.125
309
GRIDFORMAT_END
309
TABLEFORMAT_END
  1
CELLSTYLE_BEGIN
 90
        2
 91
        1
300
_HEADER
309
CELLSTYLE_END
300
CELLSTYLE
  1
TABLEFORMAT_BEGIN
 90
        5
170
     1
 91
        0
 92
        0
 62
   257
 93
        1
300
CONTENTFORMAT
  1
CONTENTFORMAT_BEGIN
 90
        0
 91
        0
 92
      512
 93
        0
300

 40
0.0
140
1.0
 94
        2
 62
     0
340
11
144
4.5
309
CONTENTFORMAT_END
171
     1
301
MARGIN
  1
CELLMARGIN_BEGIN
 40
1.5
 40
1.5
 40
1.5
 40
1.5
 40
0.18
 40
0.18
309
CELLMARGIN_END
 94
        6
 95
        1
302
GRIDFORMAT
  1
GRIDFORMAT_BEGIN
 90
        0
 91
        1
 62
     0
 92
       -2
340
0
 93
        0
 40
1.125
309
GRIDFORMAT_END
 95
        2
302
GRIDFORMAT
  1
GRIDFORMAT_BEGIN
 90
        0
 91
        1
 62
     0
 92
       -2
340
0
 93
        0
 40
1.125
309
GRIDFORMAT_END
 95
        4
302
GRIDFORMAT
  1
GRIDFORMAT_BEGIN
 90
        0
 91
        1
 62
     0
 92
       -2
340
0
 93
        0
 40
1.125
309
GRIDFORMAT_END
 95
        8
302
GRIDFORMAT
  1
GRIDFORMAT_BEGIN
 90
        0
 91
        1
 62
     0
 92
       -2
340
0
 93
        0
 40
1.125
309
GRIDFORMAT_END
 95
       16
302
GRIDFORMAT
  1
GRIDFORMAT_BEGIN
 90
        0
 91
        1
 62
     0
 92
       -2
340
0
 93
        0
 40
1.125
309
GRIDFORMAT_END
 95
       32
302
GRIDFORMAT
  1
GRIDFORMAT_BEGIN
 90
        0
 91
        1
 62
     0
 92
       -2
340
0
 93
        0
 40
1.125
309
GRIDFORMAT_END
309
TABLEFORMAT_END
  1
CELLSTYLE_BEGIN
 90
        3
 91
        2
300
_DATA
309
CELLSTYLE_END
  0
XRECORD
  5
3E79
102
{ACAD_REACTORS
330
3DE6
102
}
330
3DE6
100
AcDbXrecord
280
     1
102
ACAD_ROUNDTRIP_PRE2007_TABLESTYLE
 90
      512
 91
        0
  1

 92
      512
 93
        0
  2

 94
      512
 95
        0
  3

  0
XRECORD
  5
3E54
102
{ACAD_REACTORS
330
3E53
102
}
330
3E53
100
AcDbXrecord
280
     1
102
RTVSPost2010Prop28
280
     1
102
RTVSPost2010PropOp28
 70
     1
102
RTVSPost2010Prop29
280
     1
102
RTVSPost2010PropOp29
 70
     1
102
RTVSPost2010Prop30
280
     0
102
RTVSPost2010PropOp30
 70
     1
102
RTVSPost2010Prop31
280
     0
102
RTVSPost2010PropOp31
 70
     1
102
RTVSPost2010Prop32
280
     0
102
RTVSPost2010PropOp32
 70
     1
102
RTVSPost2010Prop33
280
     0
102
RTVSPost2010PropOp33
 70
     1
102
RTVSPost2010Prop34
280
     0
102
RTVSPost2010PropOp34
 70
     1
102
RTVSPost2010Prop35
280
     0
102
RTVSPost2010PropOp35
 70
     1
102
RTVSPost2010Prop36
280
     0
102
RTVSPost2010PropOp36
 70
     1
102
RTVSPost2010Prop37
 90
       50
102
RTVSPost2010PropOp37
 70
     1
102
RTVSPost2010Prop38
140
0.0
102
RTVSPost2010PropOp38
 70
     1
102
RTVSPost2010Prop39
140
1.0
102
RTVSPost2010PropOp39
 70
     1
102
RTVSPost2010Prop40
 90
        0
102
RTVSPost2010PropOp40
 70
     1
102
RTVSPost2010Prop41ColorIndex
 90
       18
102
RTVSPost2010Prop41ColorRGB
 90
        0
102
RTVSPost2010PropOp41
 70
     1
102
RTVSPost2010Prop42
 90
       50
102
RTVSPost2010PropOp42
 70
     1
102
RTVSPost2010Prop43
 90
        3
102
RTVSPost2010PropOp43
 70
     1
102
RTVSPost2010Prop44ColorIndex
 90
        5
102
RTVSPost2010Prop44ColorRGB
 90
      255
102
RTVSPost2010PropOp44
 70
     1
102
RTVSPost2010Prop45
280
     0
102
RTVSPost2010PropOp45
 70
     1
102
RTVSPost2010Prop46
 90
       50
102
RTVSPost2010PropOp46
 70
     1
102
RTVSPost2010Prop47
 90
       50
102
RTVSPost2010PropOp47
 70
     1
102
RTVSPost2010Prop48
 90
       50
102
RTVSPost2010PropOp48
 70
     1
102
RTVSPost2010Prop49
280
     0
102
RTVSPost2010PropOp49
 70
     1
102
RTVSPost2010Prop50
 90
       50
102
RTVSPost2010PropOp50
 70
     1
102
RTVSPost2010Prop51ColorIndex
 90
      256
102
RTVSPost2010Prop51ColorRGB
 90
-16777216
102
RTVSPost2010PropOp51
 70
     0
102
RTVSPost2010Prop52
140
1.0
102
RTVSPost2010PropOp52
 70
     0
102
RTVSPost2010Prop53
 90
        2
102
RTVSPost2010PropOp53
 70
     1
102
RTVSPost2010Prop54
  1
strokes_ogs.tif
102
RTVSPost2010PropOp54
 70
     1
102
RTVSPost2010Prop55
280
     0
102
RTVSPost2010PropOp55
 70
     1
102
RTVSPost2010Prop56
140
1.0
102
RTVSPost2010PropOp56
 70
     1
102
RTVSPost2010Prop57
140
1.0
102
RTVSPost2010PropOp57
 70
     1
102
RTVSPropertyOp0
 70
     1
102
RTVSPropertyOp1
 70
     1
102
RTVSPropertyOp2
 70
     1
102
RTVSPropertyOp3
 70
     1
102
RTVSPropertyOp4
 70
     1
102
RTVSPropertyOp5
 70
     1
102
RTVSPropertyOp6
 70
     1
102
RTVSPropertyOp7
 70
     1
102
RTVSPropertyOp8
 70
     1
102
RTVSPropertyOp9
 70
     1
102
RTVSPropertyOp10
 70
     1
102
RTVSPropertyOp11
 70
     1
102
RTVSPropertyOp12
 70
     1
102
RTVSPropertyOp13
 70
     1
102
RTVSPropertyOp14
 70
     1
102
RTVSPropertyOp15
 70
     1
102
RTVSPropertyOp16
 70
     1
102
RTVSPropertyOp17
 70
     1
102
RTVSPropertyOp18
 70
     1
102
RTVSPropertyOp19
 70
     1
102
RTVSPropertyOp20
 70
     1
102
RTVSPropertyOp21
 70
     1
102
RTVSPropertyOp22
 70
     1
102
RTVSPropertyOp23
 70
     1
102
RTVSPropertyOp24
 70
     1
102
RTVSPropertyOp25
 70
     1
102
RTVSPropertyOp26
 70
     1
102
RTVSPropertyOp27
 70
     1
102
RTVSPropertyOp28
 70
     1
102
RTVSPropertyOp29
 70
     1
102
RTVSPropertyOp30
 70
     1
102
RTVSPropertyOp31
 70
     1
102
RTVSPropertyOp32
 70
     1
102
RTVSPropertyOp33
 70
     1
102
RTVSPropertyOp34
 70
     1
102
RTVSPropertyOp35
 70
     1
102
RTVSPropertyOp36
 70
     1
102
RTVSPropertyOp37
 70
     1
102
RTVSPropertyOp38
 70
     1
102
RTVSPropertyOp39
 70
     1
102
RTVSPropertyOp40
 70
     1
102
RTVSPropertyOp41
 70
     1
102
RTVSPropertyOp42
 70
     1
102
RTVSPropertyOp43
 70
     1
102
RTVSPropertyOp44
 70
     1
102
RTVSPropertyOp45
 70
     1
102
RTVSPropertyOp46
 70
     1
102
RTVSPropertyOp47
 70
     1
102
RTVSPropertyOp48
 70
     1
102
RTVSPropertyOp49
 70
     1
102
RTVSPropertyOp50
 70
     1
102
RTVSPropertyOp51
 70
     0
102
RTVSPropertyOp52
 70
     0
102
RTVSPropertyOp53
 70
     1
102
RTVSPropertyOp54
 70
     1
102
RTVSPropertyOp55
 70
     1
102
RTVSPropertyOp56
 70
     1
102
RTVSPropertyOp57
 70
     1
102
RTVSPropertyOp58
 70
     1
102
RTVSPropertyOp59
 70
     1
102
RTVSPropertyOp60
 70
     1
102
RTVSPropertyOp61
 70
     1
102
RTVSPropertyOp62
 70
     1
  0
XRECORD
  5
3E52
102
{ACAD_REACTORS
330
3E51
102
}
330
3E51
100
AcDbXrecord
280
     1
102
RTVSPost2010Prop28
280
     0
102
RTVSPost2010PropOp28
 70
     1
102
RTVSPost2010Prop29
280
     1
102
RTVSPost2010PropOp29
 70
     1
102
RTVSPost2010Prop30
280
     1
102
RTVSPost2010PropOp30
 70
     1
102
RTVSPost2010Prop31
280
     0
102
RTVSPost2010PropOp31
 70
     1
102
RTVSPost2010Prop32
280
     0
102
RTVSPost2010PropOp32
 70
     1
102
RTVSPost2010Prop33
280
     0
102
RTVSPost2010PropOp33
 70
     1
102
RTVSPost2010Prop34
280
     0
102
RTVSPost2010PropOp34
 70
     1
102
RTVSPost2010Prop35
280
     0
102
RTVSPost2010PropOp35
 70
     1
102
RTVSPost2010Prop36
280
     0
102
RTVSPost2010PropOp36
 70
     1
102
RTVSPost2010Prop37
 90
       50
102
RTVSPost2010PropOp37
 70
     1
102
RTVSPost2010Prop38
140
0.0
102
RTVSPost2010PropOp38
 70
     1
102
RTVSPost2010Prop39
140
1.0
102
RTVSPost2010PropOp39
 70
     1
102
RTVSPost2010Prop40
 90
        0
102
RTVSPost2010PropOp40
 70
     1
102
RTVSPost2010Prop41ColorIndex
 90
       18
102
RTVSPost2010Prop41ColorRGB
 90
        0
102
RTVSPost2010PropOp41
 70
     1
102
RTVSPost2010Prop42
 90
       50
102
RTVSPost2010PropOp42
 70
     1
102
RTVSPost2010Prop43
 90
        3
102
RTVSPost2010PropOp43
 70
     1
102
RTVSPost2010Prop44ColorIndex
 90
        5
102
RTVSPost2010Prop44ColorRGB
 90
      255
102
RTVSPost2010PropOp44
 70
     1
102
RTVSPost2010Prop45
280
     0
102
RTVSPost2010PropOp45
 70
     1
102
RTVSPost2010Prop46
 90
       50
102
RTVSPost2010PropOp46
 70
     1
102
RTVSPost2010Prop47
 90
       50
102
RTVSPost2010PropOp47
 70
     1
102
RTVSPost2010Prop48
 90
       50
102
RTVSPost2010PropOp48
 70
     1
102
RTVSPost2010Prop49
280
     0
102
RTVSPost2010PropOp49
 70
     1
102
RTVSPost2010Prop50
 90
       50
102
RTVSPost2010PropOp50
 70
     1
102
RTVSPost2010Prop51ColorIndex
 90
      256
102
RTVSPost2010Prop51ColorRGB
 90
-16777216
102
RTVSPost2010PropOp51
 70
     0
102
RTVSPost2010Prop52
140
1.0
102
RTVSPost2010PropOp52
 70
     0
102
RTVSPost2010Prop53
 90
        2
102
RTVSPost2010PropOp53
 70
     1
102
RTVSPost2010Prop54
  1
strokes_ogs.tif
102
RTVSPost2010PropOp54
 70
     1
102
RTVSPost2010Prop55
280
     0
102
RTVSPost2010PropOp55
 70
     1
102
RTVSPost2010Prop56
140
1.0
102
RTVSPost2010PropOp56
 70
     1
102
RTVSPost2010Prop57
140
1.0
102
RTVSPost2010PropOp57
 70
     1
102
RTVSPropertyOp0
 70
     1
102
RTVSPropertyOp1
 70
     1
102
RTVSPropertyOp2
 70
     1
102
RTVSPropertyOp3
 70
     1
102
RTVSPropertyOp4
 70
     1
102
RTVSPropertyOp5
 70
     1
102
RTVSPropertyOp6
 70
     1
102
RTVSPropertyOp7
 70
     1
102
RTVSPropertyOp8
 70
     1
102
RTVSPropertyOp9
 70
     1
102
RTVSPropertyOp10
 70
     1
102
RTVSPropertyOp11
 70
     1
102
RTVSPropertyOp12
 70
     1
102
RTVSPropertyOp13
 70
     1
102
RTVSPropertyOp14
 70
     1
102
RTVSPropertyOp15
 70
     1
102
RTVSPropertyOp16
 70
     1
102
RTVSPropertyOp17
 70
     1
102
RTVSPropertyOp18
 70
     1
102
RTVSPropertyOp19
 70
     1
102
RTVSPropertyOp20
 70
     1
102
RTVSPropertyOp21
 70
     1
102
RTVSPropertyOp22
 70
     1
102
RTVSPropertyOp23
 70
     1
102
RTVSPropertyOp24
 70
     1
102
RTVSPropertyOp25
 70
     1
102
RTVSPropertyOp26
 70
     1
102
RTVSPropertyOp27
 70
     1
102
RTVSPropertyOp28
 70
     1
102
RTVSPropertyOp29
 70
     1
102
RTVSPropertyOp30
 70
     1
102
RTVSPropertyOp31
 70
     1
102
RTVSPropertyOp32
 70
     1
102
RTVSPropertyOp33
 70
     1
102
RTVSPropertyOp34
 70
     1
102
RTVSPropertyOp35
 70
     1
102
RTVSPropertyOp36
 70
     1
102
RTVSPropertyOp37
 70
     1
102
RTVSPropertyOp38
 70
     1
102
RTVSPropertyOp39
 70
     1
102
RTVSPropertyOp40
 70
     1
102
RTVSPropertyOp41
 70
     1
102
RTVSPropertyOp42
 70
     1
102
RTVSPropertyOp43
 70
     1
102
RTVSPropertyOp44
 70
     1
102
RTVSPropertyOp45
 70
     1
102
RTVSPropertyOp46
 70
     1
102
RTVSPropertyOp47
 70
     1
102
RTVSPropertyOp48
 70
     1
102
RTVSPropertyOp49
 70
     1
102
RTVSPropertyOp50
 70
     1
102
RTVSPropertyOp51
 70
     0
102
RTVSPropertyOp52
 70
     0
102
RTVSPropertyOp53
 70
     1
102
RTVSPropertyOp54
 70
     1
102
RTVSPropertyOp55
 70
     1
102
RTVSPropertyOp56
 70
     1
102
RTVSPropertyOp57
 70
     1
102
RTVSPropertyOp58
 70
     1
102
RTVSPropertyOp59
 70
     1
102
RTVSPropertyOp60
 70
     1
102
RTVSPropertyOp61
 70
     1
102
RTVSPropertyOp62
 70
     1
  0
XRECORD
  5
3E60
102
{ACAD_REACTORS
330
3E5F
102
}
330
3E5F
100
AcDbXrecord
280
     1
102
RTVSPost2010Prop28
280
     0
102
RTVSPost2010PropOp28
 70
     1
102
RTVSPost2010Prop29
280
     1
102
RTVSPost2010PropOp29
 70
     1
102
RTVSPost2010Prop30
280
     1
102
RTVSPost2010PropOp30
 70
     1
102
RTVSPost2010Prop31
280
     0
102
RTVSPost2010PropOp31
 70
     1
102
RTVSPost2010Prop32
280
     0
102
RTVSPost2010PropOp32
 70
     1
102
RTVSPost2010Prop33
280
     0
102
RTVSPost2010PropOp33
 70
     1
102
RTVSPost2010Prop34
280
     0
102
RTVSPost2010PropOp34
 70
     1
102
RTVSPost2010Prop35
280
     0
102
RTVSPost2010PropOp35
 70
     1
102
RTVSPost2010Prop36
280
     0
102
RTVSPost2010PropOp36
 70
     1
102
RTVSPost2010Prop37
 90
       50
102
RTVSPost2010PropOp37
 70
     1
102
RTVSPost2010Prop38
140
0.0
102
RTVSPost2010PropOp38
 70
     1
102
RTVSPost2010Prop39
140
1.0
102
RTVSPost2010PropOp39
 70
     1
102
RTVSPost2010Prop40
 90
        0
102
RTVSPost2010PropOp40
 70
     1
102
RTVSPost2010Prop41ColorIndex
 90
       18
102
RTVSPost2010Prop41ColorRGB
 90
        0
102
RTVSPost2010PropOp41
 70
     1
102
RTVSPost2010Prop42
 90
       50
102
RTVSPost2010PropOp42
 70
     1
102
RTVSPost2010Prop43
 90
        3
102
RTVSPost2010PropOp43
 70
     1
102
RTVSPost2010Prop44ColorIndex
 90
        5
102
RTVSPost2010Prop44ColorRGB
 90
      255
102
RTVSPost2010PropOp44
 70
     1
102
RTVSPost2010Prop45
280
     0
102
RTVSPost2010PropOp45
 70
     1
102
RTVSPost2010Prop46
 90
       50
102
RTVSPost2010PropOp46
 70
     1
102
RTVSPost2010Prop47
 90
       50
102
RTVSPost2010PropOp47
 70
     1
102
RTVSPost2010Prop48
 90
       50
102
RTVSPost2010PropOp48
 70
     1
102
RTVSPost2010Prop49
280
     0
102
RTVSPost2010PropOp49
 70
     1
102
RTVSPost2010Prop50
 90
       50
102
RTVSPost2010PropOp50
 70
     1
102
RTVSPost2010Prop51ColorIndex
 90
      256
102
RTVSPost2010Prop51ColorRGB
 90
-16777216
102
RTVSPost2010PropOp51
 70
     0
102
RTVSPost2010Prop52
140
1.0
102
RTVSPost2010PropOp52
 70
     0
102
RTVSPost2010Prop53
 90
        2
102
RTVSPost2010PropOp53
 70
     1
102
RTVSPost2010Prop54
  1
strokes_ogs.tif
102
RTVSPost2010PropOp54
 70
     1
102
RTVSPost2010Prop55
280
     0
102
RTVSPost2010PropOp55
 70
     1
102
RTVSPost2010Prop56
140
1.0
102
RTVSPost2010PropOp56
 70
     1
102
RTVSPost2010Prop57
140
1.0
102
RTVSPost2010PropOp57
 70
     1
102
RTVSPropertyOp0
 70
     1
102
RTVSPropertyOp1
 70
     1
102
RTVSPropertyOp2
 70
     1
102
RTVSPropertyOp3
 70
     1
102
RTVSPropertyOp4
 70
     1
102
RTVSPropertyOp5
 70
     1
102
RTVSPropertyOp6
 70
     1
102
RTVSPropertyOp7
 70
     1
102
RTVSPropertyOp8
 70
     1
102
RTVSPropertyOp9
 70
     1
102
RTVSPropertyOp10
 70
     1
102
RTVSPropertyOp11
 70
     1
102
RTVSPropertyOp12
 70
     1
102
RTVSPropertyOp13
 70
     1
102
RTVSPropertyOp14
 70
     1
102
RTVSPropertyOp15
 70
     1
102
RTVSPropertyOp16
 70
     1
102
RTVSPropertyOp17
 70
     1
102
RTVSPropertyOp18
 70
     1
102
RTVSPropertyOp19
 70
     1
102
RTVSPropertyOp20
 70
     1
102
RTVSPropertyOp21
 70
     1
102
RTVSPropertyOp22
 70
     1
102
RTVSPropertyOp23
 70
     1
102
RTVSPropertyOp24
 70
     1
102
RTVSPropertyOp25
 70
     1
102
RTVSPropertyOp26
 70
     1
102
RTVSPropertyOp27
 70
     1
102
RTVSPropertyOp28
 70
     1
102
RTVSPropertyOp29
 70
     1
102
RTVSPropertyOp30
 70
     1
102
RTVSPropertyOp31
 70
     1
102
RTVSPropertyOp32
 70
     1
102
RTVSPropertyOp33
 70
     1
102
RTVSPropertyOp34
 70
     1
102
RTVSPropertyOp35
 70
     1
102
RTVSPropertyOp36
 70
     1
102
RTVSPropertyOp37
 70
     1
102
RTVSPropertyOp38
 70
     1
102
RTVSPropertyOp39
 70
     1
102
RTVSPropertyOp40
 70
     1
102
RTVSPropertyOp41
 70
     1
102
RTVSPropertyOp42
 70
     1
102
RTVSPropertyOp43
 70
     1
102
RTVSPropertyOp44
 70
     1
102
RTVSPropertyOp45
 70
     1
102
RTVSPropertyOp46
 70
     1
102
RTVSPropertyOp47
 70
     1
102
RTVSPropertyOp48
 70
     1
102
RTVSPropertyOp49
 70
     1
102
RTVSPropertyOp50
 70
     1
102
RTVSPropertyOp51
 70
     0
102
RTVSPropertyOp52
 70
     0
102
RTVSPropertyOp53
 70
     1
102
RTVSPropertyOp54
 70
     1
102
RTVSPropertyOp55
 70
     1
102
RTVSPropertyOp56
 70
     1
102
RTVSPropertyOp57
 70
     1
102
RTVSPropertyOp58
 70
     1
102
RTVSPropertyOp59
 70
     1
102
RTVSPropertyOp60
 70
     1
102
RTVSPropertyOp61
 70
     1
102
RTVSPropertyOp62
 70
     1
  0
XRECORD
  5
3E68
102
{ACAD_REACTORS
330
3E67
102
}
330
3E67
100
AcDbXrecord
280
     1
102
RTVSPost2010Prop28
280
     0
102
RTVSPost2010PropOp28
 70
     1
102
RTVSPost2010Prop29
280
     1
102
RTVSPost2010PropOp29
 70
     1
102
RTVSPost2010Prop30
280
     1
102
RTVSPost2010PropOp30
 70
     1
102
RTVSPost2010Prop31
280
     0
102
RTVSPost2010PropOp31
 70
     1
102
RTVSPost2010Prop32
280
     0
102
RTVSPost2010PropOp32
 70
     1
102
RTVSPost2010Prop33
280
     0
102
RTVSPost2010PropOp33
 70
     1
102
RTVSPost2010Prop34
280
     0
102
RTVSPost2010PropOp34
 70
     1
102
RTVSPost2010Prop35
280
     0
102
RTVSPost2010PropOp35
 70
     1
102
RTVSPost2010Prop36
280
     0
102
RTVSPost2010PropOp36
 70
     1
102
RTVSPost2010Prop37
 90
       50
102
RTVSPost2010PropOp37
 70
     1
102
RTVSPost2010Prop38
140
0.0
102
RTVSPost2010PropOp38
 70
     1
102
RTVSPost2010Prop39
140
1.0
102
RTVSPost2010PropOp39
 70
     1
102
RTVSPost2010Prop40
 90
        0
102
RTVSPost2010PropOp40
 70
     1
102
RTVSPost2010Prop41ColorIndex
 90
       18
102
RTVSPost2010Prop41ColorRGB
 90
        0
102
RTVSPost2010PropOp41
 70
     1
102
RTVSPost2010Prop42
 90
       50
102
RTVSPost2010PropOp42
 70
     1
102
RTVSPost2010Prop43
 90
        3
102
RTVSPost2010PropOp43
 70
     1
102
RTVSPost2010Prop44ColorIndex
 90
        5
102
RTVSPost2010Prop44ColorRGB
 90
      255
102
RTVSPost2010PropOp44
 70
     1
102
RTVSPost2010Prop45
280
     0
102
RTVSPost2010PropOp45
 70
     1
102
RTVSPost2010Prop46
 90
       50
102
RTVSPost2010PropOp46
 70
     1
102
RTVSPost2010Prop47
 90
       50
102
RTVSPost2010PropOp47
 70
     1
102
RTVSPost2010Prop48
 90
       50
102
RTVSPost2010PropOp48
 70
     1
102
RTVSPost2010Prop49
280
     0
102
RTVSPost2010PropOp49
 70
     1
102
RTVSPost2010Prop50
 90
       50
102
RTVSPost2010PropOp50
 70
     1
102
RTVSPost2010Prop51ColorIndex
 90
      256
102
RTVSPost2010Prop51ColorRGB
 90
-16777216
102
RTVSPost2010PropOp51
 70
     0
102
RTVSPost2010Prop52
140
1.0
102
RTVSPost2010PropOp52
 70
     0
102
RTVSPost2010Prop53
 90
        2
102
RTVSPost2010PropOp53
 70
     1
102
RTVSPost2010Prop54
  1
strokes_ogs.tif
102
RTVSPost2010PropOp54
 70
     1
102
RTVSPost2010Prop55
280
     0
102
RTVSPost2010PropOp55
 70
     1
102
RTVSPost2010Prop56
140
1.0
102
RTVSPost2010PropOp56
 70
     1
102
RTVSPost2010Prop57
140
1.0
102
RTVSPost2010PropOp57
 70
     1
102
RTVSPropertyOp0
 70
     1
102
RTVSPropertyOp1
 70
     1
102
RTVSPropertyOp2
 70
     1
102
RTVSPropertyOp3
 70
     1
102
RTVSPropertyOp4
 70
     1
102
RTVSPropertyOp5
 70
     1
102
RTVSPropertyOp6
 70
     1
102
RTVSPropertyOp7
 70
     1
102
RTVSPropertyOp8
 70
     1
102
RTVSPropertyOp9
 70
     1
102
RTVSPropertyOp10
 70
     1
102
RTVSPropertyOp11
 70
     1
102
RTVSPropertyOp12
 70
     1
102
RTVSPropertyOp13
 70
     1
102
RTVSPropertyOp14
 70
     1
102
RTVSPropertyOp15
 70
     1
102
RTVSPropertyOp16
 70
     1
102
RTVSPropertyOp17
 70
     1
102
RTVSPropertyOp18
 70
     1
102
RTVSPropertyOp19
 70
     1
102
RTVSPropertyOp20
 70
     1
102
RTVSPropertyOp21
 70
     1
102
RTVSPropertyOp22
 70
     1
102
RTVSPropertyOp23
 70
     1
102
RTVSPropertyOp24
 70
     1
102
RTVSPropertyOp25
 70
     1
102
RTVSPropertyOp26
 70
     1
102
RTVSPropertyOp27
 70
     1
102
RTVSPropertyOp28
 70
     1
102
RTVSPropertyOp29
 70
     1
102
RTVSPropertyOp30
 70
     1
102
RTVSPropertyOp31
 70
     1
102
RTVSPropertyOp32
 70
     1
102
RTVSPropertyOp33
 70
     1
102
RTVSPropertyOp34
 70
     1
102
RTVSPropertyOp35
 70
     1
102
RTVSPropertyOp36
 70
     1
102
RTVSPropertyOp37
 70
     1
102
RTVSPropertyOp38
 70
     1
102
RTVSPropertyOp39
 70
     1
102
RTVSPropertyOp40
 70
     1
102
RTVSPropertyOp41
 70
     1
102
RTVSPropertyOp42
 70
     1
102
RTVSPropertyOp43
 70
     1
102
RTVSPropertyOp44
 70
     1
102
RTVSPropertyOp45
 70
     1
102
RTVSPropertyOp46
 70
     1
102
RTVSPropertyOp47
 70
     1
102
RTVSPropertyOp48
 70
     1
102
RTVSPropertyOp49
 70
     1
102
RTVSPropertyOp50
 70
     1
102
RTVSPropertyOp51
 70
     0
102
RTVSPropertyOp52
 70
     0
102
RTVSPropertyOp53
 70
     1
102
RTVSPropertyOp54
 70
     1
102
RTVSPropertyOp55
 70
     1
102
RTVSPropertyOp56
 70
     1
102
RTVSPropertyOp57
 70
     1
102
RTVSPropertyOp58
 70
     1
102
RTVSPropertyOp59
 70
     1
102
RTVSPropertyOp60
 70
     1
102
RTVSPropertyOp61
 70
     1
102
RTVSPropertyOp62
 70
     1
  0
XRECORD
  5
3E5A
102
{ACAD_REACTORS
330
3E59
102
}
330
3E59
100
AcDbXrecord
280
     1
102
RTVSPost2010Prop28
280
     0
102
RTVSPost2010PropOp28
 70
     1
102
RTVSPost2010Prop29
280
     1
102
RTVSPost2010PropOp29
 70
     1
102
RTVSPost2010Prop30
280
     1
102
RTVSPost2010PropOp30
 70
     1
102
RTVSPost2010Prop31
280
     0
102
RTVSPost2010PropOp31
 70
     1
102
RTVSPost2010Prop32
280
     0
102
RTVSPost2010PropOp32
 70
     1
102
RTVSPost2010Prop33
280
     0
102
RTVSPost2010PropOp33
 70
     1
102
RTVSPost2010Prop34
280
     0
102
RTVSPost2010PropOp34
 70
     1
102
RTVSPost2010Prop35
280
     0
102
RTVSPost2010PropOp35
 70
     1
102
RTVSPost2010Prop36
280
     0
102
RTVSPost2010PropOp36
 70
     1
102
RTVSPost2010Prop37
 90
       50
102
RTVSPost2010PropOp37
 70
     1
102
RTVSPost2010Prop38
140
0.0
102
RTVSPost2010PropOp38
 70
     1
102
RTVSPost2010Prop39
140
1.0
102
RTVSPost2010PropOp39
 70
     1
102
RTVSPost2010Prop40
 90
        0
102
RTVSPost2010PropOp40
 70
     1
102
RTVSPost2010Prop41ColorIndex
 90
       18
102
RTVSPost2010Prop41ColorRGB
 90
        0
102
RTVSPost2010PropOp41
 70
     1
102
RTVSPost2010Prop42
 90
       50
102
RTVSPost2010PropOp42
 70
     1
102
RTVSPost2010Prop43
 90
        3
102
RTVSPost2010PropOp43
 70
     1
102
RTVSPost2010Prop44ColorIndex
 90
        5
102
RTVSPost2010Prop44ColorRGB
 90
      255
102
RTVSPost2010PropOp44
 70
     1
102
RTVSPost2010Prop45
280
     0
102
RTVSPost2010PropOp45
 70
     1
102
RTVSPost2010Prop46
 90
       50
102
RTVSPost2010PropOp46
 70
     1
102
RTVSPost2010Prop47
 90
       50
102
RTVSPost2010PropOp47
 70
     1
102
RTVSPost2010Prop48
 90
       50
102
RTVSPost2010PropOp48
 70
     1
102
RTVSPost2010Prop49
280
     0
102
RTVSPost2010PropOp49
 70
     1
102
RTVSPost2010Prop50
 90
       50
102
RTVSPost2010PropOp50
 70
     1
102
RTVSPost2010Prop51ColorIndex
 90
      256
102
RTVSPost2010Prop51ColorRGB
 90
-16777216
102
RTVSPost2010PropOp51
 70
     0
102
RTVSPost2010Prop52
140
1.0
102
RTVSPost2010PropOp52
 70
     0
102
RTVSPost2010Prop53
 90
        2
102
RTVSPost2010PropOp53
 70
     1
102
RTVSPost2010Prop54
  1
strokes_ogs.tif
102
RTVSPost2010PropOp54
 70
     1
102
RTVSPost2010Prop55
280
     0
102
RTVSPost2010PropOp55
 70
     1
102
RTVSPost2010Prop56
140
1.0
102
RTVSPost2010PropOp56
 70
     1
102
RTVSPost2010Prop57
140
1.0
102
RTVSPost2010PropOp57
 70
     1
102
RTVSPropertyOp0
 70
     1
102
RTVSPropertyOp1
 70
     1
102
RTVSPropertyOp2
 70
     1
102
RTVSPropertyOp3
 70
     1
102
RTVSPropertyOp4
 70
     1
102
RTVSPropertyOp5
 70
     1
102
RTVSPropertyOp6
 70
     1
102
RTVSPropertyOp7
 70
     1
102
RTVSPropertyOp8
 70
     1
102
RTVSPropertyOp9
 70
     1
102
RTVSPropertyOp10
 70
     1
102
RTVSPropertyOp11
 70
     1
102
RTVSPropertyOp12
 70
     1
102
RTVSPropertyOp13
 70
     1
102
RTVSPropertyOp14
 70
     1
102
RTVSPropertyOp15
 70
     1
102
RTVSPropertyOp16
 70
     1
102
RTVSPropertyOp17
 70
     1
102
RTVSPropertyOp18
 70
     1
102
RTVSPropertyOp19
 70
     1
102
RTVSPropertyOp20
 70
     1
102
RTVSPropertyOp21
 70
     1
102
RTVSPropertyOp22
 70
     1
102
RTVSPropertyOp23
 70
     1
102
RTVSPropertyOp24
 70
     1
102
RTVSPropertyOp25
 70
     1
102
RTVSPropertyOp26
 70
     1
102
RTVSPropertyOp27
 70
     1
102
RTVSPropertyOp28
 70
     1
102
RTVSPropertyOp29
 70
     1
102
RTVSPropertyOp30
 70
     1
102
RTVSPropertyOp31
 70
     1
102
RTVSPropertyOp32
 70
     1
102
RTVSPropertyOp33
 70
     1
102
RTVSPropertyOp34
 70
     1
102
RTVSPropertyOp35
 70
     1
102
RTVSPropertyOp36
 70
     1
102
RTVSPropertyOp37
 70
     1
102
RTVSPropertyOp38
 70
     1
102
RTVSPropertyOp39
 70
     1
102
RTVSPropertyOp40
 70
     1
102
RTVSPropertyOp41
 70
     1
102
RTVSPropertyOp42
 70
     1
102
RTVSPropertyOp43
 70
     1
102
RTVSPropertyOp44
 70
     1
102
RTVSPropertyOp45
 70
     1
102
RTVSPropertyOp46
 70
     1
102
RTVSPropertyOp47
 70
     1
102
RTVSPropertyOp48
 70
     1
102
RTVSPropertyOp49
 70
     1
102
RTVSPropertyOp50
 70
     1
102
RTVSPropertyOp51
 70
     0
102
RTVSPropertyOp52
 70
     0
102
RTVSPropertyOp53
 70
     1
102
RTVSPropertyOp54
 70
     1
102
RTVSPropertyOp55
 70
     1
102
RTVSPropertyOp56
 70
     1
102
RTVSPropertyOp57
 70
     1
102
RTVSPropertyOp58
 70
     1
102
RTVSPropertyOp59
 70
     1
102
RTVSPropertyOp60
 70
     1
102
RTVSPropertyOp61
 70
     1
102
RTVSPropertyOp62
 70
     1
  0
XRECORD
  5
3E5E
102
{ACAD_REACTORS
330
3E5D
102
}
330
3E5D
100
AcDbXrecord
280
     1
102
RTVSPost2010Prop28
280
     0
102
RTVSPost2010PropOp28
 70
     1
102
RTVSPost2010Prop29
280
     1
102
RTVSPost2010PropOp29
 70
     1
102
RTVSPost2010Prop30
280
     1
102
RTVSPost2010PropOp30
 70
     1
102
RTVSPost2010Prop31
280
     0
102
RTVSPost2010PropOp31
 70
     1
102
RTVSPost2010Prop32
280
     0
102
RTVSPost2010PropOp32
 70
     1
102
RTVSPost2010Prop33
280
     0
102
RTVSPost2010PropOp33
 70
     1
102
RTVSPost2010Prop34
280
     0
102
RTVSPost2010PropOp34
 70
     1
102
RTVSPost2010Prop35
280
     0
102
RTVSPost2010PropOp35
 70
     1
102
RTVSPost2010Prop36
280
     0
102
RTVSPost2010PropOp36
 70
     1
102
RTVSPost2010Prop37
 90
       50
102
RTVSPost2010PropOp37
 70
     1
102
RTVSPost2010Prop38
140
0.0
102
RTVSPost2010PropOp38
 70
     1
102
RTVSPost2010Prop39
140
1.0
102
RTVSPost2010PropOp39
 70
     1
102
RTVSPost2010Prop40
 90
        0
102
RTVSPost2010PropOp40
 70
     1
102
RTVSPost2010Prop41ColorIndex
 90
       18
102
RTVSPost2010Prop41ColorRGB
 90
        0
102
RTVSPost2010PropOp41
 70
     1
102
RTVSPost2010Prop42
 90
       50
102
RTVSPost2010PropOp42
 70
     1
102
RTVSPost2010Prop43
 90
        3
102
RTVSPost2010PropOp43
 70
     1
102
RTVSPost2010Prop44ColorIndex
 90
        5
102
RTVSPost2010Prop44ColorRGB
 90
      255
102
RTVSPost2010PropOp44
 70
     1
102
RTVSPost2010Prop45
280
     0
102
RTVSPost2010PropOp45
 70
     1
102
RTVSPost2010Prop46
 90
       50
102
RTVSPost2010PropOp46
 70
     1
102
RTVSPost2010Prop47
 90
       50
102
RTVSPost2010PropOp47
 70
     1
102
RTVSPost2010Prop48
 90
       50
102
RTVSPost2010PropOp48
 70
     1
102
RTVSPost2010Prop49
280
     0
102
RTVSPost2010PropOp49
 70
     1
102
RTVSPost2010Prop50
 90
       50
102
RTVSPost2010PropOp50
 70
     1
102
RTVSPost2010Prop51ColorIndex
 90
      256
102
RTVSPost2010Prop51ColorRGB
 90
-16777216
102
RTVSPost2010PropOp51
 70
     0
102
RTVSPost2010Prop52
140
1.0
102
RTVSPost2010PropOp52
 70
     0
102
RTVSPost2010Prop53
 90
        2
102
RTVSPost2010PropOp53
 70
     1
102
RTVSPost2010Prop54
  1
strokes_ogs.tif
102
RTVSPost2010PropOp54
 70
     1
102
RTVSPost2010Prop55
280
     0
102
RTVSPost2010PropOp55
 70
     1
102
RTVSPost2010Prop56
140
1.0
102
RTVSPost2010PropOp56
 70
     1
102
RTVSPost2010Prop57
140
1.0
102
RTVSPost2010PropOp57
 70
     1
102
RTVSPropertyOp0
 70
     1
102
RTVSPropertyOp1
 70
     1
102
RTVSPropertyOp2
 70
     1
102
RTVSPropertyOp3
 70
     1
102
RTVSPropertyOp4
 70
     1
102
RTVSPropertyOp5
 70
     1
102
RTVSPropertyOp6
 70
     1
102
RTVSPropertyOp7
 70
     1
102
RTVSPropertyOp8
 70
     1
102
RTVSPropertyOp9
 70
     1
102
RTVSPropertyOp10
 70
     1
102
RTVSPropertyOp11
 70
     1
102
RTVSPropertyOp12
 70
     1
102
RTVSPropertyOp13
 70
     1
102
RTVSPropertyOp14
 70
     1
102
RTVSPropertyOp15
 70
     1
102
RTVSPropertyOp16
 70
     1
102
RTVSPropertyOp17
 70
     1
102
RTVSPropertyOp18
 70
     1
102
RTVSPropertyOp19
 70
     1
102
RTVSPropertyOp20
 70
     1
102
RTVSPropertyOp21
 70
     1
102
RTVSPropertyOp22
 70
     1
102
RTVSPropertyOp23
 70
     1
102
RTVSPropertyOp24
 70
     1
102
RTVSPropertyOp25
 70
     1
102
RTVSPropertyOp26
 70
     1
102
RTVSPropertyOp27
 70
     1
102
RTVSPropertyOp28
 70
     1
102
RTVSPropertyOp29
 70
     1
102
RTVSPropertyOp30
 70
     1
102
RTVSPropertyOp31
 70
     1
102
RTVSPropertyOp32
 70
     1
102
RTVSPropertyOp33
 70
     1
102
RTVSPropertyOp34
 70
     1
102
RTVSPropertyOp35
 70
     1
102
RTVSPropertyOp36
 70
     1
102
RTVSPropertyOp37
 70
     1
102
RTVSPropertyOp38
 70
     1
102
RTVSPropertyOp39
 70
     1
102
RTVSPropertyOp40
 70
     1
102
RTVSPropertyOp41
 70
     1
102
RTVSPropertyOp42
 70
     1
102
RTVSPropertyOp43
 70
     1
102
RTVSPropertyOp44
 70
     1
102
RTVSPropertyOp45
 70
     1
102
RTVSPropertyOp46
 70
     1
102
RTVSPropertyOp47
 70
     1
102
RTVSPropertyOp48
 70
     1
102
RTVSPropertyOp49
 70
     1
102
RTVSPropertyOp50
 70
     1
102
RTVSPropertyOp51
 70
     0
102
RTVSPropertyOp52
 70
     0
102
RTVSPropertyOp53
 70
     1
102
RTVSPropertyOp54
 70
     1
102
RTVSPropertyOp55
 70
     1
102
RTVSPropertyOp56
 70
     1
102
RTVSPropertyOp57
 70
     1
102
RTVSPropertyOp58
 70
     1
102
RTVSPropertyOp59
 70
     1
102
RTVSPropertyOp60
 70
     1
102
RTVSPropertyOp61
 70
     1
102
RTVSPropertyOp62
 70
     1
  0
XRECORD
  5
3E78
102
{ACAD_REACTORS
330
3E77
102
}
330
3E77
100
AcDbXrecord
280
     1
102
RTVSPost2010Prop28
280
     0
102
RTVSPost2010PropOp28
 70
     1
102
RTVSPost2010Prop29
280
     1
102
RTVSPost2010PropOp29
 70
     1
102
RTVSPost2010Prop30
280
     1
102
RTVSPost2010PropOp30
 70
     1
102
RTVSPost2010Prop31
280
     0
102
RTVSPost2010PropOp31
 70
     1
102
RTVSPost2010Prop32
280
     0
102
RTVSPost2010PropOp32
 70
     1
102
RTVSPost2010Prop33
280
     0
102
RTVSPost2010PropOp33
 70
     1
102
RTVSPost2010Prop34
280
     0
102
RTVSPost2010PropOp34
 70
     1
102
RTVSPost2010Prop35
280
     0
102
RTVSPost2010PropOp35
 70
     1
102
RTVSPost2010Prop36
280
     0
102
RTVSPost2010PropOp36
 70
     1
102
RTVSPost2010Prop37
 90
       50
102
RTVSPost2010PropOp37
 70
     0
102
RTVSPost2010Prop38
140
0.0
102
RTVSPost2010PropOp38
 70
     0
102
RTVSPost2010Prop39
140
1.0
102
RTVSPost2010PropOp39
 70
     0
102
RTVSPost2010Prop40
 90
        0
102
RTVSPost2010PropOp40
 70
     0
102
RTVSPost2010Prop41ColorIndex
 90
       18
102
RTVSPost2010Prop41ColorRGB
 90
        0
102
RTVSPost2010PropOp41
 70
     0
102
RTVSPost2010Prop42
 90
       50
102
RTVSPost2010PropOp42
 70
     0
102
RTVSPost2010Prop43
 90
        3
102
RTVSPost2010PropOp43
 70
     0
102
RTVSPost2010Prop44ColorIndex
 90
        5
102
RTVSPost2010Prop44ColorRGB
 90
      255
102
RTVSPost2010PropOp44
 70
     0
102
RTVSPost2010Prop45
280
     0
102
RTVSPost2010PropOp45
 70
     1
102
RTVSPost2010Prop46
 90
       50
102
RTVSPost2010PropOp46
 70
     0
102
RTVSPost2010Prop47
 90
       50
102
RTVSPost2010PropOp47
 70
     0
102
RTVSPost2010Prop48
 90
       50
102
RTVSPost2010PropOp48
 70
     0
102
RTVSPost2010Prop49
280
     0
102
RTVSPost2010PropOp49
 70
     1
102
RTVSPost2010Prop50
 90
       50
102
RTVSPost2010PropOp50
 70
     0
102
RTVSPost2010Prop51ColorIndex
 90
      256
102
RTVSPost2010Prop51ColorRGB
 90
-16777216
102
RTVSPost2010PropOp51
 70
     0
102
RTVSPost2010Prop52
140
1.0
102
RTVSPost2010PropOp52
 70
     0
102
RTVSPost2010Prop53
 90
        2
102
RTVSPost2010PropOp53
 70
     0
102
RTVSPost2010Prop54
  1
strokes_ogs.tif
102
RTVSPost2010PropOp54
 70
     0
102
RTVSPost2010Prop55
280
     0
102
RTVSPost2010PropOp55
 70
     1
102
RTVSPost2010Prop56
140
1.0
102
RTVSPost2010PropOp56
 70
     0
102
RTVSPost2010Prop57
140
1.0
102
RTVSPost2010PropOp57
 70
     0
102
RTVSPropertyOp0
 70
     0
102
RTVSPropertyOp1
 70
     0
102
RTVSPropertyOp2
 70
     0
102
RTVSPropertyOp3
 70
     0
102
RTVSPropertyOp4
 70
     0
102
RTVSPropertyOp5
 70
     0
102
RTVSPropertyOp6
 70
     0
102
RTVSPropertyOp7
 70
     0
102
RTVSPropertyOp8
 70
     0
102
RTVSPropertyOp9
 70
     0
102
RTVSPropertyOp10
 70
     0
102
RTVSPropertyOp11
 70
     0
102
RTVSPropertyOp12
 70
     0
102
RTVSPropertyOp13
 70
     0
102
RTVSPropertyOp14
 70
     2
102
RTVSPropertyOp15
 70
     0
102
RTVSPropertyOp16
 70
     0
102
RTVSPropertyOp17
 70
     0
102
RTVSPropertyOp18
 70
     0
102
RTVSPropertyOp19
 70
     0
102
RTVSPropertyOp20
 70
     0
102
RTVSPropertyOp21
 70
     0
102
RTVSPropertyOp22
 70
     0
102
RTVSPropertyOp23
 70
     0
102
RTVSPropertyOp24
 70
     0
102
RTVSPropertyOp25
 70
     0
102
RTVSPropertyOp26
 70
     0
102
RTVSPropertyOp27
 70
     0
102
RTVSPropertyOp28
 70
     1
102
RTVSPropertyOp29
 70
     1
102
RTVSPropertyOp30
 70
     1
102
RTVSPropertyOp31
 70
     1
102
RTVSPropertyOp32
 70
     1
102
RTVSPropertyOp33
 70
     1
102
RTVSPropertyOp34
 70
     1
102
RTVSPropertyOp35
 70
     1
102
RTVSPropertyOp36
 70
     1
102
RTVSPropertyOp37
 70
     0
102
RTVSPropertyOp38
 70
     0
102
RTVSPropertyOp39
 70
     0
102
RTVSPropertyOp40
 70
     0
102
RTVSPropertyOp41
 70
     0
102
RTVSPropertyOp42
 70
     0
102
RTVSPropertyOp43
 70
     0
102
RTVSPropertyOp44
 70
     0
102
RTVSPropertyOp45
 70
     1
102
RTVSPropertyOp46
 70
     0
102
RTVSPropertyOp47
 70
     0
102
RTVSPropertyOp48
 70
     0
102
RTVSPropertyOp49
 70
     1
102
RTVSPropertyOp50
 70
     0
102
RTVSPropertyOp51
 70
     0
102
RTVSPropertyOp52
 70
     0
102
RTVSPropertyOp53
 70
     0
102
RTVSPropertyOp54
 70
     0
102
RTVSPropertyOp55
 70
     1
102
RTVSPropertyOp56
 70
     0
102
RTVSPropertyOp57
 70
     0
102
RTVSPropertyOp58
 70
     0
102
RTVSPropertyOp59
 70
     0
102
RTVSPropertyOp60
 70
     0
102
RTVSPropertyOp61
 70
     0
102
RTVSPropertyOp62
 70
     0
  0
XRECORD
  5
3E66
102
{ACAD_REACTORS
330
3E65
102
}
330
3E65
100
AcDbXrecord
280
     1
102
RTVSPost2010Prop28
280
     0
102
RTVSPost2010PropOp28
 70
     1
102
RTVSPost2010Prop29
280
     1
102
RTVSPost2010PropOp29
 70
     1
102
RTVSPost2010Prop30
280
     1
102
RTVSPost2010PropOp30
 70
     1
102
RTVSPost2010Prop31
280
     0
102
RTVSPost2010PropOp31
 70
     1
102
RTVSPost2010Prop32
280
     0
102
RTVSPost2010PropOp32
 70
     1
102
RTVSPost2010Prop33
280
     0
102
RTVSPost2010PropOp33
 70
     1
102
RTVSPost2010Prop34
280
     0
102
RTVSPost2010PropOp34
 70
     1
102
RTVSPost2010Prop35
280
     0
102
RTVSPost2010PropOp35
 70
     1
102
RTVSPost2010Prop36
280
     0
102
RTVSPost2010PropOp36
 70
     1
102
RTVSPost2010Prop37
 90
       50
102
RTVSPost2010PropOp37
 70
     1
102
RTVSPost2010Prop38
140
0.0
102
RTVSPost2010PropOp38
 70
     1
102
RTVSPost2010Prop39
140
1.0
102
RTVSPost2010PropOp39
 70
     1
102
RTVSPost2010Prop40
 90
        0
102
RTVSPost2010PropOp40
 70
     1
102
RTVSPost2010Prop41ColorIndex
 90
       18
102
RTVSPost2010Prop41ColorRGB
 90
        0
102
RTVSPost2010PropOp41
 70
     1
102
RTVSPost2010Prop42
 90
       50
102
RTVSPost2010PropOp42
 70
     1
102
RTVSPost2010Prop43
 90
        3
102
RTVSPost2010PropOp43
 70
     1
102
RTVSPost2010Prop44ColorIndex
 90
        5
102
RTVSPost2010Prop44ColorRGB
 90
      255
102
RTVSPost2010PropOp44
 70
     1
102
RTVSPost2010Prop45
280
     0
102
RTVSPost2010PropOp45
 70
     1
102
RTVSPost2010Prop46
 90
       50
102
RTVSPost2010PropOp46
 70
     1
102
RTVSPost2010Prop47
 90
       50
102
RTVSPost2010PropOp47
 70
     1
102
RTVSPost2010Prop48
 90
       50
102
RTVSPost2010PropOp48
 70
     1
102
RTVSPost2010Prop49
280
     0
102
RTVSPost2010PropOp49
 70
     1
102
RTVSPost2010Prop50
 90
       50
102
RTVSPost2010PropOp50
 70
     1
102
RTVSPost2010Prop51ColorIndex
 90
      256
102
RTVSPost2010Prop51ColorRGB
 90
-16777216
102
RTVSPost2010PropOp51
 70
     0
102
RTVSPost2010Prop52
140
1.0
102
RTVSPost2010PropOp52
 70
     0
102
RTVSPost2010Prop53
 90
        2
102
RTVSPost2010PropOp53
 70
     1
102
RTVSPost2010Prop54
  1
strokes_ogs.tif
102
RTVSPost2010PropOp54
 70
     1
102
RTVSPost2010Prop55
280
     0
102
RTVSPost2010PropOp55
 70
     1
102
RTVSPost2010Prop56
140
1.0
102
RTVSPost2010PropOp56
 70
     1
102
RTVSPost2010Prop57
140
1.0
102
RTVSPost2010PropOp57
 70
     1
102
RTVSPropertyOp0
 70
     1
102
RTVSPropertyOp1
 70
     1
102
RTVSPropertyOp2
 70
     1
102
RTVSPropertyOp3
 70
     1
102
RTVSPropertyOp4
 70
     1
102
RTVSPropertyOp5
 70
     1
102
RTVSPropertyOp6
 70
     1
102
RTVSPropertyOp7
 70
     1
102
RTVSPropertyOp8
 70
     1
102
RTVSPropertyOp9
 70
     1
102
RTVSPropertyOp10
 70
     1
102
RTVSPropertyOp11
 70
     1
102
RTVSPropertyOp12
 70
     1
102
RTVSPropertyOp13
 70
     1
102
RTVSPropertyOp14
 70
     1
102
RTVSPropertyOp15
 70
     1
102
RTVSPropertyOp16
 70
     1
102
RTVSPropertyOp17
 70
     1
102
RTVSPropertyOp18
 70
     1
102
RTVSPropertyOp19
 70
     1
102
RTVSPropertyOp20
 70
     1
102
RTVSPropertyOp21
 70
     1
102
RTVSPropertyOp22
 70
     1
102
RTVSPropertyOp23
 70
     1
102
RTVSPropertyOp24
 70
     1
102
RTVSPropertyOp25
 70
     1
102
RTVSPropertyOp26
 70
     1
102
RTVSPropertyOp27
 70
     1
102
RTVSPropertyOp28
 70
     1
102
RTVSPropertyOp29
 70
     1
102
RTVSPropertyOp30
 70
     1
102
RTVSPropertyOp31
 70
     1
102
RTVSPropertyOp32
 70
     1
102
RTVSPropertyOp33
 70
     1
102
RTVSPropertyOp34
 70
     1
102
RTVSPropertyOp35
 70
     1
102
RTVSPropertyOp36
 70
     1
102
RTVSPropertyOp37
 70
     1
102
RTVSPropertyOp38
 70
     1
102
RTVSPropertyOp39
 70
     1
102
RTVSPropertyOp40
 70
     1
102
RTVSPropertyOp41
 70
     1
102
RTVSPropertyOp42
 70
     1
102
RTVSPropertyOp43
 70
     1
102
RTVSPropertyOp44
 70
     1
102
RTVSPropertyOp45
 70
     1
102
RTVSPropertyOp46
 70
     1
102
RTVSPropertyOp47
 70
     1
102
RTVSPropertyOp48
 70
     1
102
RTVSPropertyOp49
 70
     1
102
RTVSPropertyOp50
 70
     1
102
RTVSPropertyOp51
 70
     0
102
RTVSPropertyOp52
 70
     0
102
RTVSPropertyOp53
 70
     1
102
RTVSPropertyOp54
 70
     1
102
RTVSPropertyOp55
 70
     1
102
RTVSPropertyOp56
 70
     1
102
RTVSPropertyOp57
 70
     1
102
RTVSPropertyOp58
 70
     1
102
RTVSPropertyOp59
 70
     1
102
RTVSPropertyOp60
 70
     1
102
RTVSPropertyOp61
 70
     1
102
RTVSPropertyOp62
 70
     1
  0
XRECORD
  5
3E4A
102
{ACAD_REACTORS
330
3E49
102
}
330
3E49
100
AcDbXrecord
280
     1
102
RTVSPost2010Prop28
280
     0
102
RTVSPost2010PropOp28
 70
     1
102
RTVSPost2010Prop29
280
     1
102
RTVSPost2010PropOp29
 70
     1
102
RTVSPost2010Prop30
280
     1
102
RTVSPost2010PropOp30
 70
     1
102
RTVSPost2010Prop31
280
     0
102
RTVSPost2010PropOp31
 70
     1
102
RTVSPost2010Prop32
280
     0
102
RTVSPost2010PropOp32
 70
     1
102
RTVSPost2010Prop33
280
     0
102
RTVSPost2010PropOp33
 70
     1
102
RTVSPost2010Prop34
280
     0
102
RTVSPost2010PropOp34
 70
     1
102
RTVSPost2010Prop35
280
     0
102
RTVSPost2010PropOp35
 70
     1
102
RTVSPost2010Prop36
280
     0
102
RTVSPost2010PropOp36
 70
     1
102
RTVSPost2010Prop37
 90
       50
102
RTVSPost2010PropOp37
 70
     1
102
RTVSPost2010Prop38
140
0.0
102
RTVSPost2010PropOp38
 70
     1
102
RTVSPost2010Prop39
140
1.0
102
RTVSPost2010PropOp39
 70
     1
102
RTVSPost2010Prop40
 90
        0
102
RTVSPost2010PropOp40
 70
     1
102
RTVSPost2010Prop41ColorIndex
 90
       18
102
RTVSPost2010Prop41ColorRGB
 90
        0
102
RTVSPost2010PropOp41
 70
     1
102
RTVSPost2010Prop42
 90
       50
102
RTVSPost2010PropOp42
 70
     1
102
RTVSPost2010Prop43
 90
        3
102
RTVSPost2010PropOp43
 70
     1
102
RTVSPost2010Prop44ColorIndex
 90
        5
102
RTVSPost2010Prop44ColorRGB
 90
      255
102
RTVSPost2010PropOp44
 70
     1
102
RTVSPost2010Prop45
280
     0
102
RTVSPost2010PropOp45
 70
     1
102
RTVSPost2010Prop46
 90
       50
102
RTVSPost2010PropOp46
 70
     1
102
RTVSPost2010Prop47
 90
       50
102
RTVSPost2010PropOp47
 70
     1
102
RTVSPost2010Prop48
 90
       50
102
RTVSPost2010PropOp48
 70
     1
102
RTVSPost2010Prop49
280
     0
102
RTVSPost2010PropOp49
 70
     1
102
RTVSPost2010Prop50
 90
       50
102
RTVSPost2010PropOp50
 70
     1
102
RTVSPost2010Prop51ColorIndex
 90
      256
102
RTVSPost2010Prop51ColorRGB
 90
-16777216
102
RTVSPost2010PropOp51
 70
     0
102
RTVSPost2010Prop52
140
1.0
102
RTVSPost2010PropOp52
 70
     0
102
RTVSPost2010Prop53
 90
        2
102
RTVSPost2010PropOp53
 70
     1
102
RTVSPost2010Prop54
  1
strokes_ogs.tif
102
RTVSPost2010PropOp54
 70
     1
102
RTVSPost2010Prop55
280
     0
102
RTVSPost2010PropOp55
 70
     1
102
RTVSPost2010Prop56
140
1.0
102
RTVSPost2010PropOp56
 70
     1
102
RTVSPost2010Prop57
140
1.0
102
RTVSPost2010PropOp57
 70
     1
102
RTVSPropertyOp0
 70
     1
102
RTVSPropertyOp1
 70
     1
102
RTVSPropertyOp2
 70
     1
102
RTVSPropertyOp3
 70
     1
102
RTVSPropertyOp4
 70
     1
102
RTVSPropertyOp5
 70
     1
102
RTVSPropertyOp6
 70
     1
102
RTVSPropertyOp7
 70
     1
102
RTVSPropertyOp8
 70
     1
102
RTVSPropertyOp9
 70
     1
102
RTVSPropertyOp10
 70
     1
102
RTVSPropertyOp11
 70
     1
102
RTVSPropertyOp12
 70
     1
102
RTVSPropertyOp13
 70
     1
102
RTVSPropertyOp14
 70
     1
102
RTVSPropertyOp15
 70
     1
102
RTVSPropertyOp16
 70
     1
102
RTVSPropertyOp17
 70
     1
102
RTVSPropertyOp18
 70
     1
102
RTVSPropertyOp19
 70
     1
102
RTVSPropertyOp20
 70
     1
102
RTVSPropertyOp21
 70
     1
102
RTVSPropertyOp22
 70
     1
102
RTVSPropertyOp23
 70
     1
102
RTVSPropertyOp24
 70
     1
102
RTVSPropertyOp25
 70
     1
102
RTVSPropertyOp26
 70
     1
102
RTVSPropertyOp27
 70
     1
102
RTVSPropertyOp28
 70
     1
102
RTVSPropertyOp29
 70
     1
102
RTVSPropertyOp30
 70
     1
102
RTVSPropertyOp31
 70
     1
102
RTVSPropertyOp32
 70
     1
102
RTVSPropertyOp33
 70
     1
102
RTVSPropertyOp34
 70
     1
102
RTVSPropertyOp35
 70
     1
102
RTVSPropertyOp36
 70
     1
102
RTVSPropertyOp37
 70
     1
102
RTVSPropertyOp38
 70
     1
102
RTVSPropertyOp39
 70
     1
102
RTVSPropertyOp40
 70
     1
102
RTVSPropertyOp41
 70
     1
102
RTVSPropertyOp42
 70
     1
102
RTVSPropertyOp43
 70
     1
102
RTVSPropertyOp44
 70
     1
102
RTVSPropertyOp45
 70
     1
102
RTVSPropertyOp46
 70
     1
102
RTVSPropertyOp47
 70
     1
102
RTVSPropertyOp48
 70
     1
102
RTVSPropertyOp49
 70
     1
102
RTVSPropertyOp50
 70
     1
102
RTVSPropertyOp51
 70
     0
102
RTVSPropertyOp52
 70
     0
102
RTVSPropertyOp53
 70
     1
102
RTVSPropertyOp54
 70
     1
102
RTVSPropertyOp55
 70
     1
102
RTVSPropertyOp56
 70
     1
102
RTVSPropertyOp57
 70
     1
102
RTVSPropertyOp58
 70
     1
102
RTVSPropertyOp59
 70
     1
102
RTVSPropertyOp60
 70
     1
102
RTVSPropertyOp61
 70
     1
102
RTVSPropertyOp62
 70
     1
  0
XRECORD
  5
3E4C
102
{ACAD_REACTORS
330
3E4B
102
}
330
3E4B
100
AcDbXrecord
280
     1
102
RTVSPost2010Prop28
280
     0
102
RTVSPost2010PropOp28
 70
     1
102
RTVSPost2010Prop29
280
     1
102
RTVSPost2010PropOp29
 70
     1
102
RTVSPost2010Prop30
280
     1
102
RTVSPost2010PropOp30
 70
     1
102
RTVSPost2010Prop31
280
     0
102
RTVSPost2010PropOp31
 70
     1
102
RTVSPost2010Prop32
280
     0
102
RTVSPost2010PropOp32
 70
     1
102
RTVSPost2010Prop33
280
     0
102
RTVSPost2010PropOp33
 70
     1
102
RTVSPost2010Prop34
280
     0
102
RTVSPost2010PropOp34
 70
     1
102
RTVSPost2010Prop35
280
     0
102
RTVSPost2010PropOp35
 70
     1
102
RTVSPost2010Prop36
280
     0
102
RTVSPost2010PropOp36
 70
     1
102
RTVSPost2010Prop37
 90
       50
102
RTVSPost2010PropOp37
 70
     1
102
RTVSPost2010Prop38
140
0.0
102
RTVSPost2010PropOp38
 70
     1
102
RTVSPost2010Prop39
140
1.0
102
RTVSPost2010PropOp39
 70
     1
102
RTVSPost2010Prop40
 90
        0
102
RTVSPost2010PropOp40
 70
     1
102
RTVSPost2010Prop41ColorIndex
 90
       18
102
RTVSPost2010Prop41ColorRGB
 90
        0
102
RTVSPost2010PropOp41
 70
     1
102
RTVSPost2010Prop42
 90
       50
102
RTVSPost2010PropOp42
 70
     1
102
RTVSPost2010Prop43
 90
        3
102
RTVSPost2010PropOp43
 70
     1
102
RTVSPost2010Prop44ColorIndex
 90
        5
102
RTVSPost2010Prop44ColorRGB
 90
      255
102
RTVSPost2010PropOp44
 70
     1
102
RTVSPost2010Prop45
280
     0
102
RTVSPost2010PropOp45
 70
     1
102
RTVSPost2010Prop46
 90
       50
102
RTVSPost2010PropOp46
 70
     1
102
RTVSPost2010Prop47
 90
       50
102
RTVSPost2010PropOp47
 70
     1
102
RTVSPost2010Prop48
 90
       50
102
RTVSPost2010PropOp48
 70
     1
102
RTVSPost2010Prop49
280
     0
102
RTVSPost2010PropOp49
 70
     1
102
RTVSPost2010Prop50
 90
       50
102
RTVSPost2010PropOp50
 70
     1
102
RTVSPost2010Prop51ColorIndex
 90
      256
102
RTVSPost2010Prop51ColorRGB
 90
-16777216
102
RTVSPost2010PropOp51
 70
     0
102
RTVSPost2010Prop52
140
1.0
102
RTVSPost2010PropOp52
 70
     0
102
RTVSPost2010Prop53
 90
        2
102
RTVSPost2010PropOp53
 70
     1
102
RTVSPost2010Prop54
  1
strokes_ogs.tif
102
RTVSPost2010PropOp54
 70
     1
102
RTVSPost2010Prop55
280
     0
102
RTVSPost2010PropOp55
 70
     1
102
RTVSPost2010Prop56
140
1.0
102
RTVSPost2010PropOp56
 70
     1
102
RTVSPost2010Prop57
140
1.0
102
RTVSPost2010PropOp57
 70
     1
102
RTVSPropertyOp0
 70
     1
102
RTVSPropertyOp1
 70
     1
102
RTVSPropertyOp2
 70
     1
102
RTVSPropertyOp3
 70
     1
102
RTVSPropertyOp4
 70
     1
102
RTVSPropertyOp5
 70
     1
102
RTVSPropertyOp6
 70
     1
102
RTVSPropertyOp7
 70
     1
102
RTVSPropertyOp8
 70
     1
102
RTVSPropertyOp9
 70
     1
102
RTVSPropertyOp10
 70
     1
102
RTVSPropertyOp11
 70
     1
102
RTVSPropertyOp12
 70
     1
102
RTVSPropertyOp13
 70
     1
102
RTVSPropertyOp14
 70
     1
102
RTVSPropertyOp15
 70
     1
102
RTVSPropertyOp16
 70
     1
102
RTVSPropertyOp17
 70
     1
102
RTVSPropertyOp18
 70
     1
102
RTVSPropertyOp19
 70
     1
102
RTVSPropertyOp20
 70
     1
102
RTVSPropertyOp21
 70
     1
102
RTVSPropertyOp22
 70
     1
102
RTVSPropertyOp23
 70
     1
102
RTVSPropertyOp24
 70
     1
102
RTVSPropertyOp25
 70
     1
102
RTVSPropertyOp26
 70
     1
102
RTVSPropertyOp27
 70
     1
102
RTVSPropertyOp28
 70
     1
102
RTVSPropertyOp29
 70
     1
102
RTVSPropertyOp30
 70
     1
102
RTVSPropertyOp31
 70
     1
102
RTVSPropertyOp32
 70
     1
102
RTVSPropertyOp33
 70
     1
102
RTVSPropertyOp34
 70
     1
102
RTVSPropertyOp35
 70
     1
102
RTVSPropertyOp36
 70
     1
102
RTVSPropertyOp37
 70
     1
102
RTVSPropertyOp38
 70
     1
102
RTVSPropertyOp39
 70
     1
102
RTVSPropertyOp40
 70
     1
102
RTVSPropertyOp41
 70
     1
102
RTVSPropertyOp42
 70
     1
102
RTVSPropertyOp43
 70
     1
102
RTVSPropertyOp44
 70
     1
102
RTVSPropertyOp45
 70
     1
102
RTVSPropertyOp46
 70
     1
102
RTVSPropertyOp47
 70
     1
102
RTVSPropertyOp48
 70
     1
102
RTVSPropertyOp49
 70
     1
102
RTVSPropertyOp50
 70
     1
102
RTVSPropertyOp51
 70
     0
102
RTVSPropertyOp52
 70
     0
102
RTVSPropertyOp53
 70
     1
102
RTVSPropertyOp54
 70
     1
102
RTVSPropertyOp55
 70
     1
102
RTVSPropertyOp56
 70
     1
102
RTVSPropertyOp57
 70
     1
102
RTVSPropertyOp58
 70
     1
102
RTVSPropertyOp59
 70
     1
102
RTVSPropertyOp60
 70
     1
102
RTVSPropertyOp61
 70
     1
102
RTVSPropertyOp62
 70
     1
  0
XRECORD
  5
3E4E
102
{ACAD_REACTORS
330
3E4D
102
}
330
3E4D
100
AcDbXrecord
280
     1
102
RTVSPost2010Prop28
280
     0
102
RTVSPost2010PropOp28
 70
     1
102
RTVSPost2010Prop29
280
     1
102
RTVSPost2010PropOp29
 70
     1
102
RTVSPost2010Prop30
280
     1
102
RTVSPost2010PropOp30
 70
     1
102
RTVSPost2010Prop31
280
     0
102
RTVSPost2010PropOp31
 70
     1
102
RTVSPost2010Prop32
280
     0
102
RTVSPost2010PropOp32
 70
     1
102
RTVSPost2010Prop33
280
     0
102
RTVSPost2010PropOp33
 70
     1
102
RTVSPost2010Prop34
280
     0
102
RTVSPost2010PropOp34
 70
     1
102
RTVSPost2010Prop35
280
     0
102
RTVSPost2010PropOp35
 70
     1
102
RTVSPost2010Prop36
280
     0
102
RTVSPost2010PropOp36
 70
     1
102
RTVSPost2010Prop37
 90
       50
102
RTVSPost2010PropOp37
 70
     1
102
RTVSPost2010Prop38
140
0.0
102
RTVSPost2010PropOp38
 70
     1
102
RTVSPost2010Prop39
140
1.0
102
RTVSPost2010PropOp39
 70
     1
102
RTVSPost2010Prop40
 90
        0
102
RTVSPost2010PropOp40
 70
     1
102
RTVSPost2010Prop41ColorIndex
 90
       18
102
RTVSPost2010Prop41ColorRGB
 90
        0
102
RTVSPost2010PropOp41
 70
     1
102
RTVSPost2010Prop42
 90
       50
102
RTVSPost2010PropOp42
 70
     1
102
RTVSPost2010Prop43
 90
        3
102
RTVSPost2010PropOp43
 70
     1
102
RTVSPost2010Prop44ColorIndex
 90
        5
102
RTVSPost2010Prop44ColorRGB
 90
      255
102
RTVSPost2010PropOp44
 70
     1
102
RTVSPost2010Prop45
280
     0
102
RTVSPost2010PropOp45
 70
     1
102
RTVSPost2010Prop46
 90
       50
102
RTVSPost2010PropOp46
 70
     1
102
RTVSPost2010Prop47
 90
       50
102
RTVSPost2010PropOp47
 70
     1
102
RTVSPost2010Prop48
 90
       50
102
RTVSPost2010PropOp48
 70
     1
102
RTVSPost2010Prop49
280
     0
102
RTVSPost2010PropOp49
 70
     1
102
RTVSPost2010Prop50
 90
       50
102
RTVSPost2010PropOp50
 70
     1
102
RTVSPost2010Prop51ColorIndex
 90
      256
102
RTVSPost2010Prop51ColorRGB
 90
-16777216
102
RTVSPost2010PropOp51
 70
     0
102
RTVSPost2010Prop52
140
1.0
102
RTVSPost2010PropOp52
 70
     0
102
RTVSPost2010Prop53
 90
        2
102
RTVSPost2010PropOp53
 70
     1
102
RTVSPost2010Prop54
  1
strokes_ogs.tif
102
RTVSPost2010PropOp54
 70
     1
102
RTVSPost2010Prop55
280
     0
102
RTVSPost2010PropOp55
 70
     1
102
RTVSPost2010Prop56
140
1.0
102
RTVSPost2010PropOp56
 70
     1
102
RTVSPost2010Prop57
140
1.0
102
RTVSPost2010PropOp57
 70
     1
102
RTVSPropertyOp0
 70
     1
102
RTVSPropertyOp1
 70
     1
102
RTVSPropertyOp2
 70
     1
102
RTVSPropertyOp3
 70
     1
102
RTVSPropertyOp4
 70
     1
102
RTVSPropertyOp5
 70
     1
102
RTVSPropertyOp6
 70
     1
102
RTVSPropertyOp7
 70
     1
102
RTVSPropertyOp8
 70
     1
102
RTVSPropertyOp9
 70
     1
102
RTVSPropertyOp10
 70
     1
102
RTVSPropertyOp11
 70
     1
102
RTVSPropertyOp12
 70
     1
102
RTVSPropertyOp13
 70
     1
102
RTVSPropertyOp14
 70
     1
102
RTVSPropertyOp15
 70
     1
102
RTVSPropertyOp16
 70
     1
102
RTVSPropertyOp17
 70
     1
102
RTVSPropertyOp18
 70
     1
102
RTVSPropertyOp19
 70
     1
102
RTVSPropertyOp20
 70
     1
102
RTVSPropertyOp21
 70
     1
102
RTVSPropertyOp22
 70
     1
102
RTVSPropertyOp23
 70
     1
102
RTVSPropertyOp24
 70
     1
102
RTVSPropertyOp25
 70
     1
102
RTVSPropertyOp26
 70
     1
102
RTVSPropertyOp27
 70
     1
102
RTVSPropertyOp28
 70
     1
102
RTVSPropertyOp29
 70
     1
102
RTVSPropertyOp30
 70
     1
102
RTVSPropertyOp31
 70
     1
102
RTVSPropertyOp32
 70
     1
102
RTVSPropertyOp33
 70
     1
102
RTVSPropertyOp34
 70
     1
102
RTVSPropertyOp35
 70
     1
102
RTVSPropertyOp36
 70
     1
102
RTVSPropertyOp37
 70
     1
102
RTVSPropertyOp38
 70
     1
102
RTVSPropertyOp39
 70
     1
102
RTVSPropertyOp40
 70
     1
102
RTVSPropertyOp41
 70
     1
102
RTVSPropertyOp42
 70
     1
102
RTVSPropertyOp43
 70
     1
102
RTVSPropertyOp44
 70
     1
102
RTVSPropertyOp45
 70
     1
102
RTVSPropertyOp46
 70
     1
102
RTVSPropertyOp47
 70
     1
102
RTVSPropertyOp48
 70
     1
102
RTVSPropertyOp49
 70
     1
102
RTVSPropertyOp50
 70
     1
102
RTVSPropertyOp51
 70
     0
102
RTVSPropertyOp52
 70
     0
102
RTVSPropertyOp53
 70
     1
102
RTVSPropertyOp54
 70
     1
102
RTVSPropertyOp55
 70
     1
102
RTVSPropertyOp56
 70
     1
102
RTVSPropertyOp57
 70
     1
102
RTVSPropertyOp58
 70
     1
102
RTVSPropertyOp59
 70
     1
102
RTVSPropertyOp60
 70
     1
102
RTVSPropertyOp61
 70
     1
102
RTVSPropertyOp62
 70
     1
  0
XRECORD
  5
3E50
102
{ACAD_REACTORS
330
3E4F
102
}
330
3E4F
100
AcDbXrecord
280
     1
102
RTVSPost2010Prop28
280
     0
102
RTVSPost2010PropOp28
 70
     1
102
RTVSPost2010Prop29
280
     1
102
RTVSPost2010PropOp29
 70
     1
102
RTVSPost2010Prop30
280
     1
102
RTVSPost2010PropOp30
 70
     1
102
RTVSPost2010Prop31
280
     0
102
RTVSPost2010PropOp31
 70
     1
102
RTVSPost2010Prop32
280
     0
102
RTVSPost2010PropOp32
 70
     1
102
RTVSPost2010Prop33
280
     0
102
RTVSPost2010PropOp33
 70
     1
102
RTVSPost2010Prop34
280
     0
102
RTVSPost2010PropOp34
 70
     1
102
RTVSPost2010Prop35
280
     0
102
RTVSPost2010PropOp35
 70
     1
102
RTVSPost2010Prop36
280
     0
102
RTVSPost2010PropOp36
 70
     1
102
RTVSPost2010Prop37
 90
       50
102
RTVSPost2010PropOp37
 70
     1
102
RTVSPost2010Prop38
140
0.0
102
RTVSPost2010PropOp38
 70
     1
102
RTVSPost2010Prop39
140
1.0
102
RTVSPost2010PropOp39
 70
     1
102
RTVSPost2010Prop40
 90
        0
102
RTVSPost2010PropOp40
 70
     1
102
RTVSPost2010Prop41ColorIndex
 90
       18
102
RTVSPost2010Prop41ColorRGB
 90
        0
102
RTVSPost2010PropOp41
 70
     1
102
RTVSPost2010Prop42
 90
       50
102
RTVSPost2010PropOp42
 70
     1
102
RTVSPost2010Prop43
 90
        3
102
RTVSPost2010PropOp43
 70
     1
102
RTVSPost2010Prop44ColorIndex
 90
        5
102
RTVSPost2010Prop44ColorRGB
 90
      255
102
RTVSPost2010PropOp44
 70
     1
102
RTVSPost2010Prop45
280
     0
102
RTVSPost2010PropOp45
 70
     1
102
RTVSPost2010Prop46
 90
       50
102
RTVSPost2010PropOp46
 70
     1
102
RTVSPost2010Prop47
 90
       50
102
RTVSPost2010PropOp47
 70
     1
102
RTVSPost2010Prop48
 90
       50
102
RTVSPost2010PropOp48
 70
     1
102
RTVSPost2010Prop49
280
     0
102
RTVSPost2010PropOp49
 70
     1
102
RTVSPost2010Prop50
 90
       50
102
RTVSPost2010PropOp50
 70
     1
102
RTVSPost2010Prop51ColorIndex
 90
      256
102
RTVSPost2010Prop51ColorRGB
 90
-16777216
102
RTVSPost2010PropOp51
 70
     0
102
RTVSPost2010Prop52
140
1.0
102
RTVSPost2010PropOp52
 70
     0
102
RTVSPost2010Prop53
 90
        2
102
RTVSPost2010PropOp53
 70
     1
102
RTVSPost2010Prop54
  1
strokes_ogs.tif
102
RTVSPost2010PropOp54
 70
     1
102
RTVSPost2010Prop55
280
     0
102
RTVSPost2010PropOp55
 70
     1
102
RTVSPost2010Prop56
140
1.0
102
RTVSPost2010PropOp56
 70
     1
102
RTVSPost2010Prop57
140
1.0
102
RTVSPost2010PropOp57
 70
     1
102
RTVSPropertyOp0
 70
     1
102
RTVSPropertyOp1
 70
     1
102
RTVSPropertyOp2
 70
     1
102
RTVSPropertyOp3
 70
     1
102
RTVSPropertyOp4
 70
     1
102
RTVSPropertyOp5
 70
     1
102
RTVSPropertyOp6
 70
     1
102
RTVSPropertyOp7
 70
     1
102
RTVSPropertyOp8
 70
     1
102
RTVSPropertyOp9
 70
     1
102
RTVSPropertyOp10
 70
     1
102
RTVSPropertyOp11
 70
     1
102
RTVSPropertyOp12
 70
     1
102
RTVSPropertyOp13
 70
     1
102
RTVSPropertyOp14
 70
     1
102
RTVSPropertyOp15
 70
     1
102
RTVSPropertyOp16
 70
     1
102
RTVSPropertyOp17
 70
     1
102
RTVSPropertyOp18
 70
     1
102
RTVSPropertyOp19
 70
     1
102
RTVSPropertyOp20
 70
     1
102
RTVSPropertyOp21
 70
     1
102
RTVSPropertyOp22
 70
     1
102
RTVSPropertyOp23
 70
     1
102
RTVSPropertyOp24
 70
     1
102
RTVSPropertyOp25
 70
     1
102
RTVSPropertyOp26
 70
     1
102
RTVSPropertyOp27
 70
     1
102
RTVSPropertyOp28
 70
     1
102
RTVSPropertyOp29
 70
     1
102
RTVSPropertyOp30
 70
     1
102
RTVSPropertyOp31
 70
     1
102
RTVSPropertyOp32
 70
     1
102
RTVSPropertyOp33
 70
     1
102
RTVSPropertyOp34
 70
     1
102
RTVSPropertyOp35
 70
     1
102
RTVSPropertyOp36
 70
     1
102
RTVSPropertyOp37
 70
     1
102
RTVSPropertyOp38
 70
     1
102
RTVSPropertyOp39
 70
     1
102
RTVSPropertyOp40
 70
     1
102
RTVSPropertyOp41
 70
     1
102
RTVSPropertyOp42
 70
     1
102
RTVSPropertyOp43
 70
     1
102
RTVSPropertyOp44
 70
     1
102
RTVSPropertyOp45
 70
     1
102
RTVSPropertyOp46
 70
     1
102
RTVSPropertyOp47
 70
     1
102
RTVSPropertyOp48
 70
     1
102
RTVSPropertyOp49
 70
     1
102
RTVSPropertyOp50
 70
     1
102
RTVSPropertyOp51
 70
     0
102
RTVSPropertyOp52
 70
     0
102
RTVSPropertyOp53
 70
     1
102
RTVSPropertyOp54
 70
     1
102
RTVSPropertyOp55
 70
     1
102
RTVSPropertyOp56
 70
     1
102
RTVSPropertyOp57
 70
     1
102
RTVSPropertyOp58
 70
     1
102
RTVSPropertyOp59
 70
     1
102
RTVSPropertyOp60
 70
     1
102
RTVSPropertyOp61
 70
     1
102
RTVSPropertyOp62
 70
     1
  0
XRECORD
  5
3E58
102
{ACAD_REACTORS
330
3E57
102
}
330
3E57
100
AcDbXrecord
280
     1
102
RTVSPost2010Prop28
280
     0
102
RTVSPost2010PropOp28
 70
     1
102
RTVSPost2010Prop29
280
     1
102
RTVSPost2010PropOp29
 70
     1
102
RTVSPost2010Prop30
280
     1
102
RTVSPost2010PropOp30
 70
     1
102
RTVSPost2010Prop31
280
     0
102
RTVSPost2010PropOp31
 70
     1
102
RTVSPost2010Prop32
280
     0
102
RTVSPost2010PropOp32
 70
     1
102
RTVSPost2010Prop33
280
     0
102
RTVSPost2010PropOp33
 70
     1
102
RTVSPost2010Prop34
280
     0
102
RTVSPost2010PropOp34
 70
     1
102
RTVSPost2010Prop35
280
     0
102
RTVSPost2010PropOp35
 70
     1
102
RTVSPost2010Prop36
280
     0
102
RTVSPost2010PropOp36
 70
     1
102
RTVSPost2010Prop37
 90
       50
102
RTVSPost2010PropOp37
 70
     1
102
RTVSPost2010Prop38
140
0.0
102
RTVSPost2010PropOp38
 70
     1
102
RTVSPost2010Prop39
140
1.0
102
RTVSPost2010PropOp39
 70
     1
102
RTVSPost2010Prop40
 90
        0
102
RTVSPost2010PropOp40
 70
     1
102
RTVSPost2010Prop41ColorIndex
 90
       18
102
RTVSPost2010Prop41ColorRGB
 90
        0
102
RTVSPost2010PropOp41
 70
     1
102
RTVSPost2010Prop42
 90
       50
102
RTVSPost2010PropOp42
 70
     1
102
RTVSPost2010Prop43
 90
        3
102
RTVSPost2010PropOp43
 70
     1
102
RTVSPost2010Prop44ColorIndex
 90
        5
102
RTVSPost2010Prop44ColorRGB
 90
      255
102
RTVSPost2010PropOp44
 70
     1
102
RTVSPost2010Prop45
280
     0
102
RTVSPost2010PropOp45
 70
     1
102
RTVSPost2010Prop46
 90
       50
102
RTVSPost2010PropOp46
 70
     1
102
RTVSPost2010Prop47
 90
       50
102
RTVSPost2010PropOp47
 70
     1
102
RTVSPost2010Prop48
 90
       50
102
RTVSPost2010PropOp48
 70
     1
102
RTVSPost2010Prop49
280
     0
102
RTVSPost2010PropOp49
 70
     1
102
RTVSPost2010Prop50
 90
       50
102
RTVSPost2010PropOp50
 70
     1
102
RTVSPost2010Prop51ColorIndex
 90
      256
102
RTVSPost2010Prop51ColorRGB
 90
-16777216
102
RTVSPost2010PropOp51
 70
     0
102
RTVSPost2010Prop52
140
1.0
102
RTVSPost2010PropOp52
 70
     0
102
RTVSPost2010Prop53
 90
        2
102
RTVSPost2010PropOp53
 70
     1
102
RTVSPost2010Prop54
  1
strokes_ogs.tif
102
RTVSPost2010PropOp54
 70
     1
102
RTVSPost2010Prop55
280
     0
102
RTVSPost2010PropOp55
 70
     1
102
RTVSPost2010Prop56
140
1.0
102
RTVSPost2010PropOp56
 70
     1
102
RTVSPost2010Prop57
140
1.0
102
RTVSPost2010PropOp57
 70
     1
102
RTVSPropertyOp0
 70
     1
102
RTVSPropertyOp1
 70
     1
102
RTVSPropertyOp2
 70
     1
102
RTVSPropertyOp3
 70
     1
102
RTVSPropertyOp4
 70
     1
102
RTVSPropertyOp5
 70
     1
102
RTVSPropertyOp6
 70
     1
102
RTVSPropertyOp7
 70
     1
102
RTVSPropertyOp8
 70
     1
102
RTVSPropertyOp9
 70
     1
102
RTVSPropertyOp10
 70
     1
102
RTVSPropertyOp11
 70
     1
102
RTVSPropertyOp12
 70
     1
102
RTVSPropertyOp13
 70
     1
102
RTVSPropertyOp14
 70
     1
102
RTVSPropertyOp15
 70
     1
102
RTVSPropertyOp16
 70
     1
102
RTVSPropertyOp17
 70
     1
102
RTVSPropertyOp18
 70
     1
102
RTVSPropertyOp19
 70
     1
102
RTVSPropertyOp20
 70
     1
102
RTVSPropertyOp21
 70
     1
102
RTVSPropertyOp22
 70
     1
102
RTVSPropertyOp23
 70
     1
102
RTVSPropertyOp24
 70
     1
102
RTVSPropertyOp25
 70
     1
102
RTVSPropertyOp26
 70
     1
102
RTVSPropertyOp27
 70
     1
102
RTVSPropertyOp28
 70
     1
102
RTVSPropertyOp29
 70
     1
102
RTVSPropertyOp30
 70
     1
102
RTVSPropertyOp31
 70
     1
102
RTVSPropertyOp32
 70
     1
102
RTVSPropertyOp33
 70
     1
102
RTVSPropertyOp34
 70
     1
102
RTVSPropertyOp35
 70
     1
102
RTVSPropertyOp36
 70
     1
102
RTVSPropertyOp37
 70
     1
102
RTVSPropertyOp38
 70
     1
102
RTVSPropertyOp39
 70
     1
102
RTVSPropertyOp40
 70
     1
102
RTVSPropertyOp41
 70
     1
102
RTVSPropertyOp42
 70
     1
102
RTVSPropertyOp43
 70
     1
102
RTVSPropertyOp44
 70
     1
102
RTVSPropertyOp45
 70
     1
102
RTVSPropertyOp46
 70
     1
102
RTVSPropertyOp47
 70
     1
102
RTVSPropertyOp48
 70
     1
102
RTVSPropertyOp49
 70
     1
102
RTVSPropertyOp50
 70
     1
102
RTVSPropertyOp51
 70
     0
102
RTVSPropertyOp52
 70
     0
102
RTVSPropertyOp53
 70
     1
102
RTVSPropertyOp54
 70
     1
102
RTVSPropertyOp55
 70
     1
102
RTVSPropertyOp56
 70
     1
102
RTVSPropertyOp57
 70
     1
102
RTVSPropertyOp58
 70
     1
102
RTVSPropertyOp59
 70
     1
102
RTVSPropertyOp60
 70
     1
102
RTVSPropertyOp61
 70
     1
102
RTVSPropertyOp62
 70
     1
  0
XRECORD
  5
3E74
102
{ACAD_REACTORS
330
3E73
102
}
330
3E73
100
AcDbXrecord
280
     1
102
RTVSPost2010Prop28
280
     0
102
RTVSPost2010PropOp28
 70
     1
102
RTVSPost2010Prop29
280
     1
102
RTVSPost2010PropOp29
 70
     1
102
RTVSPost2010Prop30
280
     1
102
RTVSPost2010PropOp30
 70
     1
102
RTVSPost2010Prop31
280
     0
102
RTVSPost2010PropOp31
 70
     1
102
RTVSPost2010Prop32
280
     0
102
RTVSPost2010PropOp32
 70
     1
102
RTVSPost2010Prop33
280
     0
102
RTVSPost2010PropOp33
 70
     1
102
RTVSPost2010Prop34
280
     0
102
RTVSPost2010PropOp34
 70
     1
102
RTVSPost2010Prop35
280
     0
102
RTVSPost2010PropOp35
 70
     1
102
RTVSPost2010Prop36
280
     0
102
RTVSPost2010PropOp36
 70
     1
102
RTVSPost2010Prop37
 90
       50
102
RTVSPost2010PropOp37
 70
     0
102
RTVSPost2010Prop38
140
0.0
102
RTVSPost2010PropOp38
 70
     0
102
RTVSPost2010Prop39
140
1.0
102
RTVSPost2010PropOp39
 70
     0
102
RTVSPost2010Prop40
 90
        0
102
RTVSPost2010PropOp40
 70
     0
102
RTVSPost2010Prop41ColorIndex
 90
       18
102
RTVSPost2010Prop41ColorRGB
 90
        0
102
RTVSPost2010PropOp41
 70
     0
102
RTVSPost2010Prop42
 90
       50
102
RTVSPost2010PropOp42
 70
     0
102
RTVSPost2010Prop43
 90
        3
102
RTVSPost2010PropOp43
 70
     0
102
RTVSPost2010Prop44ColorIndex
 90
        5
102
RTVSPost2010Prop44ColorRGB
 90
      255
102
RTVSPost2010PropOp44
 70
     0
102
RTVSPost2010Prop45
280
     0
102
RTVSPost2010PropOp45
 70
     1
102
RTVSPost2010Prop46
 90
       50
102
RTVSPost2010PropOp46
 70
     0
102
RTVSPost2010Prop47
 90
       50
102
RTVSPost2010PropOp47
 70
     0
102
RTVSPost2010Prop48
 90
       50
102
RTVSPost2010PropOp48
 70
     0
102
RTVSPost2010Prop49
280
     0
102
RTVSPost2010PropOp49
 70
     1
102
RTVSPost2010Prop50
 90
       50
102
RTVSPost2010PropOp50
 70
     0
102
RTVSPost2010Prop51ColorIndex
 90
      256
102
RTVSPost2010Prop51ColorRGB
 90
-16777216
102
RTVSPost2010PropOp51
 70
     0
102
RTVSPost2010Prop52
140
1.0
102
RTVSPost2010PropOp52
 70
     0
102
RTVSPost2010Prop53
 90
        2
102
RTVSPost2010PropOp53
 70
     0
102
RTVSPost2010Prop54
  1
strokes_ogs.tif
102
RTVSPost2010PropOp54
 70
     0
102
RTVSPost2010Prop55
280
     0
102
RTVSPost2010PropOp55
 70
     1
102
RTVSPost2010Prop56
140
1.0
102
RTVSPost2010PropOp56
 70
     0
102
RTVSPost2010Prop57
140
1.0
102
RTVSPost2010PropOp57
 70
     0
102
RTVSPropertyOp0
 70
     0
102
RTVSPropertyOp1
 70
     0
102
RTVSPropertyOp2
 70
     0
102
RTVSPropertyOp3
 70
     0
102
RTVSPropertyOp4
 70
     0
102
RTVSPropertyOp5
 70
     0
102
RTVSPropertyOp6
 70
     0
102
RTVSPropertyOp7
 70
     0
102
RTVSPropertyOp8
 70
     0
102
RTVSPropertyOp9
 70
     0
102
RTVSPropertyOp10
 70
     0
102
RTVSPropertyOp11
 70
     0
102
RTVSPropertyOp12
 70
     0
102
RTVSPropertyOp13
 70
     0
102
RTVSPropertyOp14
 70
     2
102
RTVSPropertyOp15
 70
     0
102
RTVSPropertyOp16
 70
     0
102
RTVSPropertyOp17
 70
     0
102
RTVSPropertyOp18
 70
     0
102
RTVSPropertyOp19
 70
     0
102
RTVSPropertyOp20
 70
     0
102
RTVSPropertyOp21
 70
     0
102
RTVSPropertyOp22
 70
     0
102
RTVSPropertyOp23
 70
     0
102
RTVSPropertyOp24
 70
     0
102
RTVSPropertyOp25
 70
     0
102
RTVSPropertyOp26
 70
     0
102
RTVSPropertyOp27
 70
     0
102
RTVSPropertyOp28
 70
     1
102
RTVSPropertyOp29
 70
     1
102
RTVSPropertyOp30
 70
     1
102
RTVSPropertyOp31
 70
     1
102
RTVSPropertyOp32
 70
     1
102
RTVSPropertyOp33
 70
     1
102
RTVSPropertyOp34
 70
     1
102
RTVSPropertyOp35
 70
     1
102
RTVSPropertyOp36
 70
     1
102
RTVSPropertyOp37
 70
     0
102
RTVSPropertyOp38
 70
     0
102
RTVSPropertyOp39
 70
     0
102
RTVSPropertyOp40
 70
     0
102
RTVSPropertyOp41
 70
     0
102
RTVSPropertyOp42
 70
     0
102
RTVSPropertyOp43
 70
     0
102
RTVSPropertyOp44
 70
     0
102
RTVSPropertyOp45
 70
     1
102
RTVSPropertyOp46
 70
     0
102
RTVSPropertyOp47
 70
     0
102
RTVSPropertyOp48
 70
     0
102
RTVSPropertyOp49
 70
     1
102
RTVSPropertyOp50
 70
     0
102
RTVSPropertyOp51
 70
     0
102
RTVSPropertyOp52
 70
     0
102
RTVSPropertyOp53
 70
     0
102
RTVSPropertyOp54
 70
     0
102
RTVSPropertyOp55
 70
     1
102
RTVSPropertyOp56
 70
     0
102
RTVSPropertyOp57
 70
     0
102
RTVSPropertyOp58
 70
     0
102
RTVSPropertyOp59
 70
     0
102
RTVSPropertyOp60
 70
     0
102
RTVSPropertyOp61
 70
     0
102
RTVSPropertyOp62
 70
     0
  0
XRECORD
  5
3E64
102
{ACAD_REACTORS
330
3E63
102
}
330
3E63
100
AcDbXrecord
280
     1
102
RTVSPost2010Prop28
280
     0
102
RTVSPost2010PropOp28
 70
     1
102
RTVSPost2010Prop29
280
     1
102
RTVSPost2010PropOp29
 70
     1
102
RTVSPost2010Prop30
280
     1
102
RTVSPost2010PropOp30
 70
     1
102
RTVSPost2010Prop31
280
     0
102
RTVSPost2010PropOp31
 70
     1
102
RTVSPost2010Prop32
280
     0
102
RTVSPost2010PropOp32
 70
     1
102
RTVSPost2010Prop33
280
     0
102
RTVSPost2010PropOp33
 70
     1
102
RTVSPost2010Prop34
280
     0
102
RTVSPost2010PropOp34
 70
     1
102
RTVSPost2010Prop35
280
     0
102
RTVSPost2010PropOp35
 70
     1
102
RTVSPost2010Prop36
280
     0
102
RTVSPost2010PropOp36
 70
     1
102
RTVSPost2010Prop37
 90
       50
102
RTVSPost2010PropOp37
 70
     1
102
RTVSPost2010Prop38
140
0.0
102
RTVSPost2010PropOp38
 70
     1
102
RTVSPost2010Prop39
140
1.0
102
RTVSPost2010PropOp39
 70
     1
102
RTVSPost2010Prop40
 90
        0
102
RTVSPost2010PropOp40
 70
     1
102
RTVSPost2010Prop41ColorIndex
 90
       18
102
RTVSPost2010Prop41ColorRGB
 90
        0
102
RTVSPost2010PropOp41
 70
     1
102
RTVSPost2010Prop42
 90
       50
102
RTVSPost2010PropOp42
 70
     1
102
RTVSPost2010Prop43
 90
        3
102
RTVSPost2010PropOp43
 70
     1
102
RTVSPost2010Prop44ColorIndex
 90
        5
102
RTVSPost2010Prop44ColorRGB
 90
      255
102
RTVSPost2010PropOp44
 70
     1
102
RTVSPost2010Prop45
280
     0
102
RTVSPost2010PropOp45
 70
     1
102
RTVSPost2010Prop46
 90
       50
102
RTVSPost2010PropOp46
 70
     1
102
RTVSPost2010Prop47
 90
       50
102
RTVSPost2010PropOp47
 70
     1
102
RTVSPost2010Prop48
 90
       50
102
RTVSPost2010PropOp48
 70
     1
102
RTVSPost2010Prop49
280
     0
102
RTVSPost2010PropOp49
 70
     1
102
RTVSPost2010Prop50
 90
       50
102
RTVSPost2010PropOp50
 70
     1
102
RTVSPost2010Prop51ColorIndex
 90
      256
102
RTVSPost2010Prop51ColorRGB
 90
-16777216
102
RTVSPost2010PropOp51
 70
     0
102
RTVSPost2010Prop52
140
1.0
102
RTVSPost2010PropOp52
 70
     0
102
RTVSPost2010Prop53
 90
        2
102
RTVSPost2010PropOp53
 70
     1
102
RTVSPost2010Prop54
  1
strokes_ogs.tif
102
RTVSPost2010PropOp54
 70
     1
102
RTVSPost2010Prop55
280
     0
102
RTVSPost2010PropOp55
 70
     1
102
RTVSPost2010Prop56
140
1.0
102
RTVSPost2010PropOp56
 70
     1
102
RTVSPost2010Prop57
140
1.0
102
RTVSPost2010PropOp57
 70
     1
102
RTVSPropertyOp0
 70
     1
102
RTVSPropertyOp1
 70
     1
102
RTVSPropertyOp2
 70
     1
102
RTVSPropertyOp3
 70
     1
102
RTVSPropertyOp4
 70
     1
102
RTVSPropertyOp5
 70
     1
102
RTVSPropertyOp6
 70
     1
102
RTVSPropertyOp7
 70
     1
102
RTVSPropertyOp8
 70
     1
102
RTVSPropertyOp9
 70
     1
102
RTVSPropertyOp10
 70
     1
102
RTVSPropertyOp11
 70
     1
102
RTVSPropertyOp12
 70
     1
102
RTVSPropertyOp13
 70
     1
102
RTVSPropertyOp14
 70
     1
102
RTVSPropertyOp15
 70
     1
102
RTVSPropertyOp16
 70
     1
102
RTVSPropertyOp17
 70
     1
102
RTVSPropertyOp18
 70
     1
102
RTVSPropertyOp19
 70
     1
102
RTVSPropertyOp20
 70
     1
102
RTVSPropertyOp21
 70
     1
102
RTVSPropertyOp22
 70
     1
102
RTVSPropertyOp23
 70
     1
102
RTVSPropertyOp24
 70
     1
102
RTVSPropertyOp25
 70
     1
102
RTVSPropertyOp26
 70
     1
102
RTVSPropertyOp27
 70
     1
102
RTVSPropertyOp28
 70
     1
102
RTVSPropertyOp29
 70
     1
102
RTVSPropertyOp30
 70
     1
102
RTVSPropertyOp31
 70
     1
102
RTVSPropertyOp32
 70
     1
102
RTVSPropertyOp33
 70
     1
102
RTVSPropertyOp34
 70
     1
102
RTVSPropertyOp35
 70
     1
102
RTVSPropertyOp36
 70
     1
102
RTVSPropertyOp37
 70
     1
102
RTVSPropertyOp38
 70
     1
102
RTVSPropertyOp39
 70
     1
102
RTVSPropertyOp40
 70
     1
102
RTVSPropertyOp41
 70
     1
102
RTVSPropertyOp42
 70
     1
102
RTVSPropertyOp43
 70
     1
102
RTVSPropertyOp44
 70
     1
102
RTVSPropertyOp45
 70
     1
102
RTVSPropertyOp46
 70
     1
102
RTVSPropertyOp47
 70
     1
102
RTVSPropertyOp48
 70
     1
102
RTVSPropertyOp49
 70
     1
102
RTVSPropertyOp50
 70
     1
102
RTVSPropertyOp51
 70
     0
102
RTVSPropertyOp52
 70
     0
102
RTVSPropertyOp53
 70
     1
102
RTVSPropertyOp54
 70
     1
102
RTVSPropertyOp55
 70
     1
102
RTVSPropertyOp56
 70
     1
102
RTVSPropertyOp57
 70
     1
102
RTVSPropertyOp58
 70
     1
102
RTVSPropertyOp59
 70
     1
102
RTVSPropertyOp60
 70
     1
102
RTVSPropertyOp61
 70
     1
102
RTVSPropertyOp62
 70
     1
  0
XRECORD
  5
3E76
102
{ACAD_REACTORS
330
3E75
102
}
330
3E75
100
AcDbXrecord
280
     1
102
RTVSPost2010Prop28
280
     0
102
RTVSPost2010PropOp28
 70
     1
102
RTVSPost2010Prop29
280
     1
102
RTVSPost2010PropOp29
 70
     1
102
RTVSPost2010Prop30
280
     1
102
RTVSPost2010PropOp30
 70
     1
102
RTVSPost2010Prop31
280
     0
102
RTVSPost2010PropOp31
 70
     1
102
RTVSPost2010Prop32
280
     0
102
RTVSPost2010PropOp32
 70
     1
102
RTVSPost2010Prop33
280
     0
102
RTVSPost2010PropOp33
 70
     1
102
RTVSPost2010Prop34
280
     0
102
RTVSPost2010PropOp34
 70
     1
102
RTVSPost2010Prop35
280
     0
102
RTVSPost2010PropOp35
 70
     1
102
RTVSPost2010Prop36
280
     0
102
RTVSPost2010PropOp36
 70
     1
102
RTVSPost2010Prop37
 90
       50
102
RTVSPost2010PropOp37
 70
     0
102
RTVSPost2010Prop38
140
0.0
102
RTVSPost2010PropOp38
 70
     0
102
RTVSPost2010Prop39
140
1.0
102
RTVSPost2010PropOp39
 70
     0
102
RTVSPost2010Prop40
 90
        0
102
RTVSPost2010PropOp40
 70
     0
102
RTVSPost2010Prop41ColorIndex
 90
       18
102
RTVSPost2010Prop41ColorRGB
 90
        0
102
RTVSPost2010PropOp41
 70
     0
102
RTVSPost2010Prop42
 90
       50
102
RTVSPost2010PropOp42
 70
     0
102
RTVSPost2010Prop43
 90
        3
102
RTVSPost2010PropOp43
 70
     0
102
RTVSPost2010Prop44ColorIndex
 90
        5
102
RTVSPost2010Prop44ColorRGB
 90
      255
102
RTVSPost2010PropOp44
 70
     0
102
RTVSPost2010Prop45
280
     0
102
RTVSPost2010PropOp45
 70
     1
102
RTVSPost2010Prop46
 90
       50
102
RTVSPost2010PropOp46
 70
     0
102
RTVSPost2010Prop47
 90
       50
102
RTVSPost2010PropOp47
 70
     0
102
RTVSPost2010Prop48
 90
       50
102
RTVSPost2010PropOp48
 70
     0
102
RTVSPost2010Prop49
280
     0
102
RTVSPost2010PropOp49
 70
     1
102
RTVSPost2010Prop50
 90
       50
102
RTVSPost2010PropOp50
 70
     0
102
RTVSPost2010Prop51ColorIndex
 90
      256
102
RTVSPost2010Prop51ColorRGB
 90
-16777216
102
RTVSPost2010PropOp51
 70
     0
102
RTVSPost2010Prop52
140
1.0
102
RTVSPost2010PropOp52
 70
     0
102
RTVSPost2010Prop53
 90
        2
102
RTVSPost2010PropOp53
 70
     0
102
RTVSPost2010Prop54
  1
strokes_ogs.tif
102
RTVSPost2010PropOp54
 70
     0
102
RTVSPost2010Prop55
280
     0
102
RTVSPost2010PropOp55
 70
     1
102
RTVSPost2010Prop56
140
1.0
102
RTVSPost2010PropOp56
 70
     0
102
RTVSPost2010Prop57
140
1.0
102
RTVSPost2010PropOp57
 70
     0
102
RTVSPropertyOp0
 70
     0
102
RTVSPropertyOp1
 70
     0
102
RTVSPropertyOp2
 70
     0
102
RTVSPropertyOp3
 70
     0
102
RTVSPropertyOp4
 70
     0
102
RTVSPropertyOp5
 70
     0
102
RTVSPropertyOp6
 70
     0
102
RTVSPropertyOp7
 70
     0
102
RTVSPropertyOp8
 70
     0
102
RTVSPropertyOp9
 70
     0
102
RTVSPropertyOp10
 70
     0
102
RTVSPropertyOp11
 70
     0
102
RTVSPropertyOp12
 70
     0
102
RTVSPropertyOp13
 70
     0
102
RTVSPropertyOp14
 70
     2
102
RTVSPropertyOp15
 70
     0
102
RTVSPropertyOp16
 70
     0
102
RTVSPropertyOp17
 70
     0
102
RTVSPropertyOp18
 70
     0
102
RTVSPropertyOp19
 70
     0
102
RTVSPropertyOp20
 70
     0
102
RTVSPropertyOp21
 70
     0
102
RTVSPropertyOp22
 70
     0
102
RTVSPropertyOp23
 70
     0
102
RTVSPropertyOp24
 70
     0
102
RTVSPropertyOp25
 70
     0
102
RTVSPropertyOp26
 70
     0
102
RTVSPropertyOp27
 70
     0
102
RTVSPropertyOp28
 70
     1
102
RTVSPropertyOp29
 70
     1
102
RTVSPropertyOp30
 70
     1
102
RTVSPropertyOp31
 70
     1
102
RTVSPropertyOp32
 70
     1
102
RTVSPropertyOp33
 70
     1
102
RTVSPropertyOp34
 70
     1
102
RTVSPropertyOp35
 70
     1
102
RTVSPropertyOp36
 70
     1
102
RTVSPropertyOp37
 70
     0
102
RTVSPropertyOp38
 70
     0
102
RTVSPropertyOp39
 70
     0
102
RTVSPropertyOp40
 70
     0
102
RTVSPropertyOp41
 70
     0
102
RTVSPropertyOp42
 70
     0
102
RTVSPropertyOp43
 70
     0
102
RTVSPropertyOp44
 70
     0
102
RTVSPropertyOp45
 70
     1
102
RTVSPropertyOp46
 70
     0
102
RTVSPropertyOp47
 70
     0
102
RTVSPropertyOp48
 70
     0
102
RTVSPropertyOp49
 70
     1
102
RTVSPropertyOp50
 70
     0
102
RTVSPropertyOp51
 70
     0
102
RTVSPropertyOp52
 70
     0
102
RTVSPropertyOp53
 70
     0
102
RTVSPropertyOp54
 70
     0
102
RTVSPropertyOp55
 70
     1
102
RTVSPropertyOp56
 70
     0
102
RTVSPropertyOp57
 70
     0
102
RTVSPropertyOp58
 70
     0
102
RTVSPropertyOp59
 70
     0
102
RTVSPropertyOp60
 70
     0
102
RTVSPropertyOp61
 70
     0
102
RTVSPropertyOp62
 70
     0
  0
XRECORD
  5
3E5C
102
{ACAD_REACTORS
330
3E5B
102
}
330
3E5B
100
AcDbXrecord
280
     1
102
RTVSPost2010Prop28
280
     0
102
RTVSPost2010PropOp28
 70
     1
102
RTVSPost2010Prop29
280
     1
102
RTVSPost2010PropOp29
 70
     1
102
RTVSPost2010Prop30
280
     1
102
RTVSPost2010PropOp30
 70
     1
102
RTVSPost2010Prop31
280
     0
102
RTVSPost2010PropOp31
 70
     1
102
RTVSPost2010Prop32
280
     0
102
RTVSPost2010PropOp32
 70
     1
102
RTVSPost2010Prop33
280
     0
102
RTVSPost2010PropOp33
 70
     1
102
RTVSPost2010Prop34
280
     0
102
RTVSPost2010PropOp34
 70
     1
102
RTVSPost2010Prop35
280
     0
102
RTVSPost2010PropOp35
 70
     1
102
RTVSPost2010Prop36
280
     0
102
RTVSPost2010PropOp36
 70
     1
102
RTVSPost2010Prop37
 90
       50
102
RTVSPost2010PropOp37
 70
     1
102
RTVSPost2010Prop38
140
0.0
102
RTVSPost2010PropOp38
 70
     1
102
RTVSPost2010Prop39
140
1.0
102
RTVSPost2010PropOp39
 70
     1
102
RTVSPost2010Prop40
 90
        0
102
RTVSPost2010PropOp40
 70
     1
102
RTVSPost2010Prop41ColorIndex
 90
       18
102
RTVSPost2010Prop41ColorRGB
 90
        0
102
RTVSPost2010PropOp41
 70
     1
102
RTVSPost2010Prop42
 90
       50
102
RTVSPost2010PropOp42
 70
     1
102
RTVSPost2010Prop43
 90
        3
102
RTVSPost2010PropOp43
 70
     1
102
RTVSPost2010Prop44ColorIndex
 90
        5
102
RTVSPost2010Prop44ColorRGB
 90
      255
102
RTVSPost2010PropOp44
 70
     1
102
RTVSPost2010Prop45
280
     0
102
RTVSPost2010PropOp45
 70
     1
102
RTVSPost2010Prop46
 90
       50
102
RTVSPost2010PropOp46
 70
     1
102
RTVSPost2010Prop47
 90
       50
102
RTVSPost2010PropOp47
 70
     1
102
RTVSPost2010Prop48
 90
       50
102
RTVSPost2010PropOp48
 70
     1
102
RTVSPost2010Prop49
280
     0
102
RTVSPost2010PropOp49
 70
     1
102
RTVSPost2010Prop50
 90
       50
102
RTVSPost2010PropOp50
 70
     1
102
RTVSPost2010Prop51ColorIndex
 90
      256
102
RTVSPost2010Prop51ColorRGB
 90
-16777216
102
RTVSPost2010PropOp51
 70
     0
102
RTVSPost2010Prop52
140
1.0
102
RTVSPost2010PropOp52
 70
     0
102
RTVSPost2010Prop53
 90
        2
102
RTVSPost2010PropOp53
 70
     1
102
RTVSPost2010Prop54
  1
strokes_ogs.tif
102
RTVSPost2010PropOp54
 70
     1
102
RTVSPost2010Prop55
280
     0
102
RTVSPost2010PropOp55
 70
     1
102
RTVSPost2010Prop56
140
1.0
102
RTVSPost2010PropOp56
 70
     1
102
RTVSPost2010Prop57
140
1.0
102
RTVSPost2010PropOp57
 70
     1
102
RTVSPropertyOp0
 70
     1
102
RTVSPropertyOp1
 70
     1
102
RTVSPropertyOp2
 70
     1
102
RTVSPropertyOp3
 70
     1
102
RTVSPropertyOp4
 70
     1
102
RTVSPropertyOp5
 70
     1
102
RTVSPropertyOp6
 70
     1
102
RTVSPropertyOp7
 70
     1
102
RTVSPropertyOp8
 70
     1
102
RTVSPropertyOp9
 70
     1
102
RTVSPropertyOp10
 70
     1
102
RTVSPropertyOp11
 70
     1
102
RTVSPropertyOp12
 70
     1
102
RTVSPropertyOp13
 70
     1
102
RTVSPropertyOp14
 70
     1
102
RTVSPropertyOp15
 70
     1
102
RTVSPropertyOp16
 70
     1
102
RTVSPropertyOp17
 70
     1
102
RTVSPropertyOp18
 70
     1
102
RTVSPropertyOp19
 70
     1
102
RTVSPropertyOp20
 70
     1
102
RTVSPropertyOp21
 70
     1
102
RTVSPropertyOp22
 70
     1
102
RTVSPropertyOp23
 70
     1
102
RTVSPropertyOp24
 70
     1
102
RTVSPropertyOp25
 70
     1
102
RTVSPropertyOp26
 70
     1
102
RTVSPropertyOp27
 70
     1
102
RTVSPropertyOp28
 70
     1
102
RTVSPropertyOp29
 70
     1
102
RTVSPropertyOp30
 70
     1
102
RTVSPropertyOp31
 70
     1
102
RTVSPropertyOp32
 70
     1
102
RTVSPropertyOp33
 70
     1
102
RTVSPropertyOp34
 70
     1
102
RTVSPropertyOp35
 70
     1
102
RTVSPropertyOp36
 70
     1
102
RTVSPropertyOp37
 70
     1
102
RTVSPropertyOp38
 70
     1
102
RTVSPropertyOp39
 70
     1
102
RTVSPropertyOp40
 70
     1
102
RTVSPropertyOp41
 70
     1
102
RTVSPropertyOp42
 70
     1
102
RTVSPropertyOp43
 70
     1
102
RTVSPropertyOp44
 70
     1
102
RTVSPropertyOp45
 70
     1
102
RTVSPropertyOp46
 70
     1
102
RTVSPropertyOp47
 70
     1
102
RTVSPropertyOp48
 70
     1
102
RTVSPropertyOp49
 70
     1
102
RTVSPropertyOp50
 70
     1
102
RTVSPropertyOp51
 70
     0
102
RTVSPropertyOp52
 70
     0
102
RTVSPropertyOp53
 70
     1
102
RTVSPropertyOp54
 70
     1
102
RTVSPropertyOp55
 70
     1
102
RTVSPropertyOp56
 70
     1
102
RTVSPropertyOp57
 70
     1
102
RTVSPropertyOp58
 70
     1
102
RTVSPropertyOp59
 70
     1
102
RTVSPropertyOp60
 70
     1
102
RTVSPropertyOp61
 70
     1
102
RTVSPropertyOp62
 70
     1
  0
XRECORD
  5
3E72
102
{ACAD_REACTORS
330
3E71
102
}
330
3E71
100
AcDbXrecord
280
     1
102
RTVSPost2010Prop28
280
     0
102
RTVSPost2010PropOp28
 70
     1
102
RTVSPost2010Prop29
280
     1
102
RTVSPost2010PropOp29
 70
     1
102
RTVSPost2010Prop30
280
     1
102
RTVSPost2010PropOp30
 70
     1
102
RTVSPost2010Prop31
280
     0
102
RTVSPost2010PropOp31
 70
     1
102
RTVSPost2010Prop32
280
     0
102
RTVSPost2010PropOp32
 70
     1
102
RTVSPost2010Prop33
280
     0
102
RTVSPost2010PropOp33
 70
     1
102
RTVSPost2010Prop34
280
     0
102
RTVSPost2010PropOp34
 70
     1
102
RTVSPost2010Prop35
280
     0
102
RTVSPost2010PropOp35
 70
     1
102
RTVSPost2010Prop36
280
     0
102
RTVSPost2010PropOp36
 70
     1
102
RTVSPost2010Prop37
 90
       50
102
RTVSPost2010PropOp37
 70
     1
102
RTVSPost2010Prop38
140
0.0
102
RTVSPost2010PropOp38
 70
     1
102
RTVSPost2010Prop39
140
1.0
102
RTVSPost2010PropOp39
 70
     1
102
RTVSPost2010Prop40
 90
        0
102
RTVSPost2010PropOp40
 70
     1
102
RTVSPost2010Prop41ColorIndex
 90
       18
102
RTVSPost2010Prop41ColorRGB
 90
        0
102
RTVSPost2010PropOp41
 70
     1
102
RTVSPost2010Prop42
 90
       50
102
RTVSPost2010PropOp42
 70
     1
102
RTVSPost2010Prop43
 90
        3
102
RTVSPost2010PropOp43
 70
     1
102
RTVSPost2010Prop44ColorIndex
 90
        5
102
RTVSPost2010Prop44ColorRGB
 90
      255
102
RTVSPost2010PropOp44
 70
     1
102
RTVSPost2010Prop45
280
     0
102
RTVSPost2010PropOp45
 70
     1
102
RTVSPost2010Prop46
 90
       50
102
RTVSPost2010PropOp46
 70
     1
102
RTVSPost2010Prop47
 90
       50
102
RTVSPost2010PropOp47
 70
     1
102
RTVSPost2010Prop48
 90
       50
102
RTVSPost2010PropOp48
 70
     1
102
RTVSPost2010Prop49
280
     0
102
RTVSPost2010PropOp49
 70
     1
102
RTVSPost2010Prop50
 90
       50
102
RTVSPost2010PropOp50
 70
     1
102
RTVSPost2010Prop51ColorIndex
 90
      256
102
RTVSPost2010Prop51ColorRGB
 90
-16777216
102
RTVSPost2010PropOp51
 70
     0
102
RTVSPost2010Prop52
140
1.0
102
RTVSPost2010PropOp52
 70
     0
102
RTVSPost2010Prop53
 90
        2
102
RTVSPost2010PropOp53
 70
     1
102
RTVSPost2010Prop54
  1
strokes_ogs.tif
102
RTVSPost2010PropOp54
 70
     1
102
RTVSPost2010Prop55
280
     0
102
RTVSPost2010PropOp55
 70
     1
102
RTVSPost2010Prop56
140
1.0
102
RTVSPost2010PropOp56
 70
     1
102
RTVSPost2010Prop57
140
1.0
102
RTVSPost2010PropOp57
 70
     1
102
RTVSPropertyOp0
 70
     1
102
RTVSPropertyOp1
 70
     1
102
RTVSPropertyOp2
 70
     1
102
RTVSPropertyOp3
 70
     1
102
RTVSPropertyOp4
 70
     1
102
RTVSPropertyOp5
 70
     1
102
RTVSPropertyOp6
 70
     1
102
RTVSPropertyOp7
 70
     1
102
RTVSPropertyOp8
 70
     1
102
RTVSPropertyOp9
 70
     1
102
RTVSPropertyOp10
 70
     1
102
RTVSPropertyOp11
 70
     1
102
RTVSPropertyOp12
 70
     1
102
RTVSPropertyOp13
 70
     1
102
RTVSPropertyOp14
 70
     1
102
RTVSPropertyOp15
 70
     1
102
RTVSPropertyOp16
 70
     1
102
RTVSPropertyOp17
 70
     1
102
RTVSPropertyOp18
 70
     1
102
RTVSPropertyOp19
 70
     1
102
RTVSPropertyOp20
 70
     1
102
RTVSPropertyOp21
 70
     1
102
RTVSPropertyOp22
 70
     1
102
RTVSPropertyOp23
 70
     1
102
RTVSPropertyOp24
 70
     1
102
RTVSPropertyOp25
 70
     1
102
RTVSPropertyOp26
 70
     1
102
RTVSPropertyOp27
 70
     1
102
RTVSPropertyOp28
 70
     1
102
RTVSPropertyOp29
 70
     1
102
RTVSPropertyOp30
 70
     1
102
RTVSPropertyOp31
 70
     1
102
RTVSPropertyOp32
 70
     1
102
RTVSPropertyOp33
 70
     1
102
RTVSPropertyOp34
 70
     1
102
RTVSPropertyOp35
 70
     1
102
RTVSPropertyOp36
 70
     1
102
RTVSPropertyOp37
 70
     1
102
RTVSPropertyOp38
 70
     1
102
RTVSPropertyOp39
 70
     1
102
RTVSPropertyOp40
 70
     1
102
RTVSPropertyOp41
 70
     1
102
RTVSPropertyOp42
 70
     1
102
RTVSPropertyOp43
 70
     1
102
RTVSPropertyOp44
 70
     1
102
RTVSPropertyOp45
 70
     1
102
RTVSPropertyOp46
 70
     1
102
RTVSPropertyOp47
 70
     1
102
RTVSPropertyOp48
 70
     1
102
RTVSPropertyOp49
 70
     1
102
RTVSPropertyOp50
 70
     1
102
RTVSPropertyOp51
 70
     0
102
RTVSPropertyOp52
 70
     0
102
RTVSPropertyOp53
 70
     1
102
RTVSPropertyOp54
 70
     1
102
RTVSPropertyOp55
 70
     1
102
RTVSPropertyOp56
 70
     1
102
RTVSPropertyOp57
 70
     1
102
RTVSPropertyOp58
 70
     1
102
RTVSPropertyOp59
 70
     1
102
RTVSPropertyOp60
 70
     1
102
RTVSPropertyOp61
 70
     1
102
RTVSPropertyOp62
 70
     1
  0
XRECORD
  5
3E70
102
{ACAD_REACTORS
330
3E6F
102
}
330
3E6F
100
AcDbXrecord
280
     1
102
RTVSPost2010Prop28
280
     0
102
RTVSPost2010PropOp28
 70
     1
102
RTVSPost2010Prop29
280
     1
102
RTVSPost2010PropOp29
 70
     1
102
RTVSPost2010Prop30
280
     1
102
RTVSPost2010PropOp30
 70
     1
102
RTVSPost2010Prop31
280
     0
102
RTVSPost2010PropOp31
 70
     1
102
RTVSPost2010Prop32
280
     0
102
RTVSPost2010PropOp32
 70
     1
102
RTVSPost2010Prop33
280
     0
102
RTVSPost2010PropOp33
 70
     1
102
RTVSPost2010Prop34
280
     0
102
RTVSPost2010PropOp34
 70
     1
102
RTVSPost2010Prop35
280
     0
102
RTVSPost2010PropOp35
 70
     1
102
RTVSPost2010Prop36
280
     0
102
RTVSPost2010PropOp36
 70
     1
102
RTVSPost2010Prop37
 90
       50
102
RTVSPost2010PropOp37
 70
     1
102
RTVSPost2010Prop38
140
0.0
102
RTVSPost2010PropOp38
 70
     1
102
RTVSPost2010Prop39
140
1.0
102
RTVSPost2010PropOp39
 70
     1
102
RTVSPost2010Prop40
 90
        0
102
RTVSPost2010PropOp40
 70
     1
102
RTVSPost2010Prop41ColorIndex
 90
       18
102
RTVSPost2010Prop41ColorRGB
 90
        0
102
RTVSPost2010PropOp41
 70
     1
102
RTVSPost2010Prop42
 90
       50
102
RTVSPost2010PropOp42
 70
     1
102
RTVSPost2010Prop43
 90
        3
102
RTVSPost2010PropOp43
 70
     1
102
RTVSPost2010Prop44ColorIndex
 90
        5
102
RTVSPost2010Prop44ColorRGB
 90
      255
102
RTVSPost2010PropOp44
 70
     1
102
RTVSPost2010Prop45
280
     0
102
RTVSPost2010PropOp45
 70
     1
102
RTVSPost2010Prop46
 90
       50
102
RTVSPost2010PropOp46
 70
     1
102
RTVSPost2010Prop47
 90
       50
102
RTVSPost2010PropOp47
 70
     1
102
RTVSPost2010Prop48
 90
       50
102
RTVSPost2010PropOp48
 70
     1
102
RTVSPost2010Prop49
280
     0
102
RTVSPost2010PropOp49
 70
     1
102
RTVSPost2010Prop50
 90
       50
102
RTVSPost2010PropOp50
 70
     1
102
RTVSPost2010Prop51ColorIndex
 90
      256
102
RTVSPost2010Prop51ColorRGB
 90
-16777216
102
RTVSPost2010PropOp51
 70
     0
102
RTVSPost2010Prop52
140
1.0
102
RTVSPost2010PropOp52
 70
     0
102
RTVSPost2010Prop53
 90
        2
102
RTVSPost2010PropOp53
 70
     1
102
RTVSPost2010Prop54
  1
strokes_ogs.tif
102
RTVSPost2010PropOp54
 70
     1
102
RTVSPost2010Prop55
280
     0
102
RTVSPost2010PropOp55
 70
     1
102
RTVSPost2010Prop56
140
1.0
102
RTVSPost2010PropOp56
 70
     1
102
RTVSPost2010Prop57
140
1.0
102
RTVSPost2010PropOp57
 70
     1
102
RTVSPropertyOp0
 70
     1
102
RTVSPropertyOp1
 70
     1
102
RTVSPropertyOp2
 70
     1
102
RTVSPropertyOp3
 70
     1
102
RTVSPropertyOp4
 70
     1
102
RTVSPropertyOp5
 70
     1
102
RTVSPropertyOp6
 70
     1
102
RTVSPropertyOp7
 70
     1
102
RTVSPropertyOp8
 70
     1
102
RTVSPropertyOp9
 70
     1
102
RTVSPropertyOp10
 70
     1
102
RTVSPropertyOp11
 70
     1
102
RTVSPropertyOp12
 70
     1
102
RTVSPropertyOp13
 70
     1
102
RTVSPropertyOp14
 70
     1
102
RTVSPropertyOp15
 70
     1
102
RTVSPropertyOp16
 70
     1
102
RTVSPropertyOp17
 70
     1
102
RTVSPropertyOp18
 70
     1
102
RTVSPropertyOp19
 70
     1
102
RTVSPropertyOp20
 70
     1
102
RTVSPropertyOp21
 70
     1
102
RTVSPropertyOp22
 70
     1
102
RTVSPropertyOp23
 70
     1
102
RTVSPropertyOp24
 70
     1
102
RTVSPropertyOp25
 70
     1
102
RTVSPropertyOp26
 70
     1
102
RTVSPropertyOp27
 70
     1
102
RTVSPropertyOp28
 70
     1
102
RTVSPropertyOp29
 70
     1
102
RTVSPropertyOp30
 70
     1
102
RTVSPropertyOp31
 70
     1
102
RTVSPropertyOp32
 70
     1
102
RTVSPropertyOp33
 70
     1
102
RTVSPropertyOp34
 70
     1
102
RTVSPropertyOp35
 70
     1
102
RTVSPropertyOp36
 70
     1
102
RTVSPropertyOp37
 70
     1
102
RTVSPropertyOp38
 70
     1
102
RTVSPropertyOp39
 70
     1
102
RTVSPropertyOp40
 70
     1
102
RTVSPropertyOp41
 70
     1
102
RTVSPropertyOp42
 70
     1
102
RTVSPropertyOp43
 70
     1
102
RTVSPropertyOp44
 70
     1
102
RTVSPropertyOp45
 70
     1
102
RTVSPropertyOp46
 70
     1
102
RTVSPropertyOp47
 70
     1
102
RTVSPropertyOp48
 70
     1
102
RTVSPropertyOp49
 70
     1
102
RTVSPropertyOp50
 70
     1
102
RTVSPropertyOp51
 70
     0
102
RTVSPropertyOp52
 70
     0
102
RTVSPropertyOp53
 70
     1
102
RTVSPropertyOp54
 70
     1
102
RTVSPropertyOp55
 70
     1
102
RTVSPropertyOp56
 70
     1
102
RTVSPropertyOp57
 70
     1
102
RTVSPropertyOp58
 70
     1
102
RTVSPropertyOp59
 70
     1
102
RTVSPropertyOp60
 70
     1
102
RTVSPropertyOp61
 70
     1
102
RTVSPropertyOp62
 70
     1
  0
XRECORD
  5
3E6A
102
{ACAD_REACTORS
330
3E69
102
}
330
3E69
100
AcDbXrecord
280
     1
102
RTVSPost2010Prop28
280
     0
102
RTVSPost2010PropOp28
 70
     1
102
RTVSPost2010Prop29
280
     1
102
RTVSPost2010PropOp29
 70
     1
102
RTVSPost2010Prop30
280
     1
102
RTVSPost2010PropOp30
 70
     1
102
RTVSPost2010Prop31
280
     0
102
RTVSPost2010PropOp31
 70
     1
102
RTVSPost2010Prop32
280
     0
102
RTVSPost2010PropOp32
 70
     1
102
RTVSPost2010Prop33
280
     0
102
RTVSPost2010PropOp33
 70
     1
102
RTVSPost2010Prop34
280
     0
102
RTVSPost2010PropOp34
 70
     1
102
RTVSPost2010Prop35
280
     0
102
RTVSPost2010PropOp35
 70
     1
102
RTVSPost2010Prop36
280
     0
102
RTVSPost2010PropOp36
 70
     1
102
RTVSPost2010Prop37
 90
       50
102
RTVSPost2010PropOp37
 70
     1
102
RTVSPost2010Prop38
140
0.0
102
RTVSPost2010PropOp38
 70
     1
102
RTVSPost2010Prop39
140
1.0
102
RTVSPost2010PropOp39
 70
     1
102
RTVSPost2010Prop40
 90
        0
102
RTVSPost2010PropOp40
 70
     1
102
RTVSPost2010Prop41ColorIndex
 90
       18
102
RTVSPost2010Prop41ColorRGB
 90
        0
102
RTVSPost2010PropOp41
 70
     1
102
RTVSPost2010Prop42
 90
       50
102
RTVSPost2010PropOp42
 70
     1
102
RTVSPost2010Prop43
 90
        3
102
RTVSPost2010PropOp43
 70
     1
102
RTVSPost2010Prop44ColorIndex
 90
        5
102
RTVSPost2010Prop44ColorRGB
 90
      255
102
RTVSPost2010PropOp44
 70
     1
102
RTVSPost2010Prop45
280
     0
102
RTVSPost2010PropOp45
 70
     1
102
RTVSPost2010Prop46
 90
       50
102
RTVSPost2010PropOp46
 70
     1
102
RTVSPost2010Prop47
 90
       50
102
RTVSPost2010PropOp47
 70
     1
102
RTVSPost2010Prop48
 90
       50
102
RTVSPost2010PropOp48
 70
     1
102
RTVSPost2010Prop49
280
     0
102
RTVSPost2010PropOp49
 70
     1
102
RTVSPost2010Prop50
 90
       50
102
RTVSPost2010PropOp50
 70
     1
102
RTVSPost2010Prop51ColorIndex
 90
      256
102
RTVSPost2010Prop51ColorRGB
 90
-16777216
102
RTVSPost2010PropOp51
 70
     0
102
RTVSPost2010Prop52
140
1.0
102
RTVSPost2010PropOp52
 70
     0
102
RTVSPost2010Prop53
 90
        2
102
RTVSPost2010PropOp53
 70
     1
102
RTVSPost2010Prop54
  1
strokes_ogs.tif
102
RTVSPost2010PropOp54
 70
     1
102
RTVSPost2010Prop55
280
     0
102
RTVSPost2010PropOp55
 70
     1
102
RTVSPost2010Prop56
140
1.0
102
RTVSPost2010PropOp56
 70
     1
102
RTVSPost2010Prop57
140
1.0
102
RTVSPost2010PropOp57
 70
     1
102
RTVSPropertyOp0
 70
     1
102
RTVSPropertyOp1
 70
     1
102
RTVSPropertyOp2
 70
     1
102
RTVSPropertyOp3
 70
     1
102
RTVSPropertyOp4
 70
     1
102
RTVSPropertyOp5
 70
     1
102
RTVSPropertyOp6
 70
     1
102
RTVSPropertyOp7
 70
     1
102
RTVSPropertyOp8
 70
     1
102
RTVSPropertyOp9
 70
     1
102
RTVSPropertyOp10
 70
     1
102
RTVSPropertyOp11
 70
     1
102
RTVSPropertyOp12
 70
     1
102
RTVSPropertyOp13
 70
     1
102
RTVSPropertyOp14
 70
     1
102
RTVSPropertyOp15
 70
     1
102
RTVSPropertyOp16
 70
     1
102
RTVSPropertyOp17
 70
     1
102
RTVSPropertyOp18
 70
     1
102
RTVSPropertyOp19
 70
     1
102
RTVSPropertyOp20
 70
     1
102
RTVSPropertyOp21
 70
     1
102
RTVSPropertyOp22
 70
     1
102
RTVSPropertyOp23
 70
     1
102
RTVSPropertyOp24
 70
     1
102
RTVSPropertyOp25
 70
     1
102
RTVSPropertyOp26
 70
     1
102
RTVSPropertyOp27
 70
     1
102
RTVSPropertyOp28
 70
     1
102
RTVSPropertyOp29
 70
     1
102
RTVSPropertyOp30
 70
     1
102
RTVSPropertyOp31
 70
     1
102
RTVSPropertyOp32
 70
     1
102
RTVSPropertyOp33
 70
     1
102
RTVSPropertyOp34
 70
     1
102
RTVSPropertyOp35
 70
     1
102
RTVSPropertyOp36
 70
     1
102
RTVSPropertyOp37
 70
     1
102
RTVSPropertyOp38
 70
     1
102
RTVSPropertyOp39
 70
     1
102
RTVSPropertyOp40
 70
     1
102
RTVSPropertyOp41
 70
     1
102
RTVSPropertyOp42
 70
     1
102
RTVSPropertyOp43
 70
     1
102
RTVSPropertyOp44
 70
     1
102
RTVSPropertyOp45
 70
     1
102
RTVSPropertyOp46
 70
     1
102
RTVSPropertyOp47
 70
     1
102
RTVSPropertyOp48
 70
     1
102
RTVSPropertyOp49
 70
     1
102
RTVSPropertyOp50
 70
     1
102
RTVSPropertyOp51
 70
     0
102
RTVSPropertyOp52
 70
     0
102
RTVSPropertyOp53
 70
     1
102
RTVSPropertyOp54
 70
     1
102
RTVSPropertyOp55
 70
     1
102
RTVSPropertyOp56
 70
     1
102
RTVSPropertyOp57
 70
     1
102
RTVSPropertyOp58
 70
     1
102
RTVSPropertyOp59
 70
     1
102
RTVSPropertyOp60
 70
     1
102
RTVSPropertyOp61
 70
     1
102
RTVSPropertyOp62
 70
     1
  0
XRECORD
  5
3E6C
102
{ACAD_REACTORS
330
3E6B
102
}
330
3E6B
100
AcDbXrecord
280
     1
102
RTVSPost2010Prop28
280
     0
102
RTVSPost2010PropOp28
 70
     1
102
RTVSPost2010Prop29
280
     1
102
RTVSPost2010PropOp29
 70
     1
102
RTVSPost2010Prop30
280
     1
102
RTVSPost2010PropOp30
 70
     1
102
RTVSPost2010Prop31
280
     0
102
RTVSPost2010PropOp31
 70
     1
102
RTVSPost2010Prop32
280
     0
102
RTVSPost2010PropOp32
 70
     1
102
RTVSPost2010Prop33
280
     0
102
RTVSPost2010PropOp33
 70
     1
102
RTVSPost2010Prop34
280
     0
102
RTVSPost2010PropOp34
 70
     1
102
RTVSPost2010Prop35
280
     0
102
RTVSPost2010PropOp35
 70
     1
102
RTVSPost2010Prop36
280
     0
102
RTVSPost2010PropOp36
 70
     1
102
RTVSPost2010Prop37
 90
       50
102
RTVSPost2010PropOp37
 70
     1
102
RTVSPost2010Prop38
140
0.0
102
RTVSPost2010PropOp38
 70
     1
102
RTVSPost2010Prop39
140
1.0
102
RTVSPost2010PropOp39
 70
     1
102
RTVSPost2010Prop40
 90
        0
102
RTVSPost2010PropOp40
 70
     1
102
RTVSPost2010Prop41ColorIndex
 90
       18
102
RTVSPost2010Prop41ColorRGB
 90
        0
102
RTVSPost2010PropOp41
 70
     1
102
RTVSPost2010Prop42
 90
       50
102
RTVSPost2010PropOp42
 70
     1
102
RTVSPost2010Prop43
 90
        3
102
RTVSPost2010PropOp43
 70
     1
102
RTVSPost2010Prop44ColorIndex
 90
        5
102
RTVSPost2010Prop44ColorRGB
 90
      255
102
RTVSPost2010PropOp44
 70
     1
102
RTVSPost2010Prop45
280
     0
102
RTVSPost2010PropOp45
 70
     1
102
RTVSPost2010Prop46
 90
       50
102
RTVSPost2010PropOp46
 70
     1
102
RTVSPost2010Prop47
 90
       50
102
RTVSPost2010PropOp47
 70
     1
102
RTVSPost2010Prop48
 90
       50
102
RTVSPost2010PropOp48
 70
     1
102
RTVSPost2010Prop49
280
     0
102
RTVSPost2010PropOp49
 70
     1
102
RTVSPost2010Prop50
 90
       50
102
RTVSPost2010PropOp50
 70
     1
102
RTVSPost2010Prop51ColorIndex
 90
      256
102
RTVSPost2010Prop51ColorRGB
 90
-16777216
102
RTVSPost2010PropOp51
 70
     0
102
RTVSPost2010Prop52
140
1.0
102
RTVSPost2010PropOp52
 70
     0
102
RTVSPost2010Prop53
 90
        2
102
RTVSPost2010PropOp53
 70
     1
102
RTVSPost2010Prop54
  1
strokes_ogs.tif
102
RTVSPost2010PropOp54
 70
     1
102
RTVSPost2010Prop55
280
     0
102
RTVSPost2010PropOp55
 70
     1
102
RTVSPost2010Prop56
140
1.0
102
RTVSPost2010PropOp56
 70
     1
102
RTVSPost2010Prop57
140
1.0
102
RTVSPost2010PropOp57
 70
     1
102
RTVSPropertyOp0
 70
     1
102
RTVSPropertyOp1
 70
     1
102
RTVSPropertyOp2
 70
     1
102
RTVSPropertyOp3
 70
     1
102
RTVSPropertyOp4
 70
     1
102
RTVSPropertyOp5
 70
     1
102
RTVSPropertyOp6
 70
     1
102
RTVSPropertyOp7
 70
     1
102
RTVSPropertyOp8
 70
     1
102
RTVSPropertyOp9
 70
     1
102
RTVSPropertyOp10
 70
     1
102
RTVSPropertyOp11
 70
     1
102
RTVSPropertyOp12
 70
     1
102
RTVSPropertyOp13
 70
     1
102
RTVSPropertyOp14
 70
     1
102
RTVSPropertyOp15
 70
     1
102
RTVSPropertyOp16
 70
     1
102
RTVSPropertyOp17
 70
     1
102
RTVSPropertyOp18
 70
     1
102
RTVSPropertyOp19
 70
     1
102
RTVSPropertyOp20
 70
     1
102
RTVSPropertyOp21
 70
     1
102
RTVSPropertyOp22
 70
     1
102
RTVSPropertyOp23
 70
     1
102
RTVSPropertyOp24
 70
     1
102
RTVSPropertyOp25
 70
     1
102
RTVSPropertyOp26
 70
     1
102
RTVSPropertyOp27
 70
     1
102
RTVSPropertyOp28
 70
     1
102
RTVSPropertyOp29
 70
     1
102
RTVSPropertyOp30
 70
     1
102
RTVSPropertyOp31
 70
     1
102
RTVSPropertyOp32
 70
     1
102
RTVSPropertyOp33
 70
     1
102
RTVSPropertyOp34
 70
     1
102
RTVSPropertyOp35
 70
     1
102
RTVSPropertyOp36
 70
     1
102
RTVSPropertyOp37
 70
     1
102
RTVSPropertyOp38
 70
     1
102
RTVSPropertyOp39
 70
     1
102
RTVSPropertyOp40
 70
     1
102
RTVSPropertyOp41
 70
     1
102
RTVSPropertyOp42
 70
     1
102
RTVSPropertyOp43
 70
     1
102
RTVSPropertyOp44
 70
     1
102
RTVSPropertyOp45
 70
     1
102
RTVSPropertyOp46
 70
     1
102
RTVSPropertyOp47
 70
     1
102
RTVSPropertyOp48
 70
     1
102
RTVSPropertyOp49
 70
     1
102
RTVSPropertyOp50
 70
     1
102
RTVSPropertyOp51
 70
     0
102
RTVSPropertyOp52
 70
     0
102
RTVSPropertyOp53
 70
     1
102
RTVSPropertyOp54
 70
     1
102
RTVSPropertyOp55
 70
     1
102
RTVSPropertyOp56
 70
     1
102
RTVSPropertyOp57
 70
     1
102
RTVSPropertyOp58
 70
     1
102
RTVSPropertyOp59
 70
     1
102
RTVSPropertyOp60
 70
     1
102
RTVSPropertyOp61
 70
     1
102
RTVSPropertyOp62
 70
     1
  0
XRECORD
  5
3E62
102
{ACAD_REACTORS
330
3E61
102
}
330
3E61
100
AcDbXrecord
280
     1
102
RTVSPost2010Prop28
280
     0
102
RTVSPost2010PropOp28
 70
     1
102
RTVSPost2010Prop29
280
     1
102
RTVSPost2010PropOp29
 70
     1
102
RTVSPost2010Prop30
280
     1
102
RTVSPost2010PropOp30
 70
     1
102
RTVSPost2010Prop31
280
     0
102
RTVSPost2010PropOp31
 70
     1
102
RTVSPost2010Prop32
280
     0
102
RTVSPost2010PropOp32
 70
     1
102
RTVSPost2010Prop33
280
     0
102
RTVSPost2010PropOp33
 70
     1
102
RTVSPost2010Prop34
280
     0
102
RTVSPost2010PropOp34
 70
     1
102
RTVSPost2010Prop35
280
     0
102
RTVSPost2010PropOp35
 70
     1
102
RTVSPost2010Prop36
280
     0
102
RTVSPost2010PropOp36
 70
     1
102
RTVSPost2010Prop37
 90
       50
102
RTVSPost2010PropOp37
 70
     1
102
RTVSPost2010Prop38
140
0.0
102
RTVSPost2010PropOp38
 70
     1
102
RTVSPost2010Prop39
140
1.0
102
RTVSPost2010PropOp39
 70
     1
102
RTVSPost2010Prop40
 90
        0
102
RTVSPost2010PropOp40
 70
     1
102
RTVSPost2010Prop41ColorIndex
 90
       18
102
RTVSPost2010Prop41ColorRGB
 90
        0
102
RTVSPost2010PropOp41
 70
     1
102
RTVSPost2010Prop42
 90
       50
102
RTVSPost2010PropOp42
 70
     1
102
RTVSPost2010Prop43
 90
        3
102
RTVSPost2010PropOp43
 70
     1
102
RTVSPost2010Prop44ColorIndex
 90
        5
102
RTVSPost2010Prop44ColorRGB
 90
      255
102
RTVSPost2010PropOp44
 70
     1
102
RTVSPost2010Prop45
280
     0
102
RTVSPost2010PropOp45
 70
     1
102
RTVSPost2010Prop46
 90
       50
102
RTVSPost2010PropOp46
 70
     1
102
RTVSPost2010Prop47
 90
       50
102
RTVSPost2010PropOp47
 70
     1
102
RTVSPost2010Prop48
 90
       50
102
RTVSPost2010PropOp48
 70
     1
102
RTVSPost2010Prop49
280
     0
102
RTVSPost2010PropOp49
 70
     1
102
RTVSPost2010Prop50
 90
       50
102
RTVSPost2010PropOp50
 70
     1
102
RTVSPost2010Prop51ColorIndex
 90
      256
102
RTVSPost2010Prop51ColorRGB
 90
-16777216
102
RTVSPost2010PropOp51
 70
     0
102
RTVSPost2010Prop52
140
1.0
102
RTVSPost2010PropOp52
 70
     0
102
RTVSPost2010Prop53
 90
        2
102
RTVSPost2010PropOp53
 70
     1
102
RTVSPost2010Prop54
  1
strokes_ogs.tif
102
RTVSPost2010PropOp54
 70
     1
102
RTVSPost2010Prop55
280
     0
102
RTVSPost2010PropOp55
 70
     1
102
RTVSPost2010Prop56
140
1.0
102
RTVSPost2010PropOp56
 70
     1
102
RTVSPost2010Prop57
140
1.0
102
RTVSPost2010PropOp57
 70
     1
102
RTVSPropertyOp0
 70
     1
102
RTVSPropertyOp1
 70
     1
102
RTVSPropertyOp2
 70
     1
102
RTVSPropertyOp3
 70
     1
102
RTVSPropertyOp4
 70
     1
102
RTVSPropertyOp5
 70
     1
102
RTVSPropertyOp6
 70
     1
102
RTVSPropertyOp7
 70
     1
102
RTVSPropertyOp8
 70
     1
102
RTVSPropertyOp9
 70
     1
102
RTVSPropertyOp10
 70
     1
102
RTVSPropertyOp11
 70
     1
102
RTVSPropertyOp12
 70
     1
102
RTVSPropertyOp13
 70
     1
102
RTVSPropertyOp14
 70
     1
102
RTVSPropertyOp15
 70
     1
102
RTVSPropertyOp16
 70
     1
102
RTVSPropertyOp17
 70
     1
102
RTVSPropertyOp18
 70
     1
102
RTVSPropertyOp19
 70
     1
102
RTVSPropertyOp20
 70
     1
102
RTVSPropertyOp21
 70
     1
102
RTVSPropertyOp22
 70
     1
102
RTVSPropertyOp23
 70
     1
102
RTVSPropertyOp24
 70
     1
102
RTVSPropertyOp25
 70
     1
102
RTVSPropertyOp26
 70
     1
102
RTVSPropertyOp27
 70
     1
102
RTVSPropertyOp28
 70
     1
102
RTVSPropertyOp29
 70
     1
102
RTVSPropertyOp30
 70
     1
102
RTVSPropertyOp31
 70
     1
102
RTVSPropertyOp32
 70
     1
102
RTVSPropertyOp33
 70
     1
102
RTVSPropertyOp34
 70
     1
102
RTVSPropertyOp35
 70
     1
102
RTVSPropertyOp36
 70
     1
102
RTVSPropertyOp37
 70
     1
102
RTVSPropertyOp38
 70
     1
102
RTVSPropertyOp39
 70
     1
102
RTVSPropertyOp40
 70
     1
102
RTVSPropertyOp41
 70
     1
102
RTVSPropertyOp42
 70
     1
102
RTVSPropertyOp43
 70
     1
102
RTVSPropertyOp44
 70
     1
102
RTVSPropertyOp45
 70
     1
102
RTVSPropertyOp46
 70
     1
102
RTVSPropertyOp47
 70
     1
102
RTVSPropertyOp48
 70
     1
102
RTVSPropertyOp49
 70
     1
102
RTVSPropertyOp50
 70
     1
102
RTVSPropertyOp51
 70
     0
102
RTVSPropertyOp52
 70
     0
102
RTVSPropertyOp53
 70
     1
102
RTVSPropertyOp54
 70
     1
102
RTVSPropertyOp55
 70
     1
102
RTVSPropertyOp56
 70
     1
102
RTVSPropertyOp57
 70
     1
102
RTVSPropertyOp58
 70
     1
102
RTVSPropertyOp59
 70
     1
102
RTVSPropertyOp60
 70
     1
102
RTVSPropertyOp61
 70
     1
102
RTVSPropertyOp62
 70
     1
  0
XRECORD
  5
3E56
102
{ACAD_REACTORS
330
3E55
102
}
330
3E55
100
AcDbXrecord
280
     1
102
RTVSPost2010Prop28
280
     0
102
RTVSPost2010PropOp28
 70
     1
102
RTVSPost2010Prop29
280
     1
102
RTVSPost2010PropOp29
 70
     1
102
RTVSPost2010Prop30
280
     1
102
RTVSPost2010PropOp30
 70
     1
102
RTVSPost2010Prop31
280
     0
102
RTVSPost2010PropOp31
 70
     1
102
RTVSPost2010Prop32
280
     0
102
RTVSPost2010PropOp32
 70
     1
102
RTVSPost2010Prop33
280
     0
102
RTVSPost2010PropOp33
 70
     1
102
RTVSPost2010Prop34
280
     0
102
RTVSPost2010PropOp34
 70
     1
102
RTVSPost2010Prop35
280
     0
102
RTVSPost2010PropOp35
 70
     1
102
RTVSPost2010Prop36
280
     0
102
RTVSPost2010PropOp36
 70
     1
102
RTVSPost2010Prop37
 90
       50
102
RTVSPost2010PropOp37
 70
     1
102
RTVSPost2010Prop38
140
0.0
102
RTVSPost2010PropOp38
 70
     1
102
RTVSPost2010Prop39
140
1.0
102
RTVSPost2010PropOp39
 70
     1
102
RTVSPost2010Prop40
 90
        0
102
RTVSPost2010PropOp40
 70
     1
102
RTVSPost2010Prop41ColorIndex
 90
       18
102
RTVSPost2010Prop41ColorRGB
 90
        0
102
RTVSPost2010PropOp41
 70
     1
102
RTVSPost2010Prop42
 90
       50
102
RTVSPost2010PropOp42
 70
     1
102
RTVSPost2010Prop43
 90
        3
102
RTVSPost2010PropOp43
 70
     1
102
RTVSPost2010Prop44ColorIndex
 90
        5
102
RTVSPost2010Prop44ColorRGB
 90
      255
102
RTVSPost2010PropOp44
 70
     1
102
RTVSPost2010Prop45
280
     0
102
RTVSPost2010PropOp45
 70
     1
102
RTVSPost2010Prop46
 90
       50
102
RTVSPost2010PropOp46
 70
     1
102
RTVSPost2010Prop47
 90
       50
102
RTVSPost2010PropOp47
 70
     1
102
RTVSPost2010Prop48
 90
       50
102
RTVSPost2010PropOp48
 70
     1
102
RTVSPost2010Prop49
280
     0
102
RTVSPost2010PropOp49
 70
     1
102
RTVSPost2010Prop50
 90
       50
102
RTVSPost2010PropOp50
 70
     1
102
RTVSPost2010Prop51ColorIndex
 90
      256
102
RTVSPost2010Prop51ColorRGB
 90
-16777216
102
RTVSPost2010PropOp51
 70
     0
102
RTVSPost2010Prop52
140
1.0
102
RTVSPost2010PropOp52
 70
     0
102
RTVSPost2010Prop53
 90
        2
102
RTVSPost2010PropOp53
 70
     1
102
RTVSPost2010Prop54
  1
strokes_ogs.tif
102
RTVSPost2010PropOp54
 70
     1
102
RTVSPost2010Prop55
280
     0
102
RTVSPost2010PropOp55
 70
     1
102
RTVSPost2010Prop56
140
1.0
102
RTVSPost2010PropOp56
 70
     1
102
RTVSPost2010Prop57
140
1.0
102
RTVSPost2010PropOp57
 70
     1
102
RTVSPropertyOp0
 70
     1
102
RTVSPropertyOp1
 70
     1
102
RTVSPropertyOp2
 70
     1
102
RTVSPropertyOp3
 70
     1
102
RTVSPropertyOp4
 70
     1
102
RTVSPropertyOp5
 70
     1
102
RTVSPropertyOp6
 70
     1
102
RTVSPropertyOp7
 70
     1
102
RTVSPropertyOp8
 70
     1
102
RTVSPropertyOp9
 70
     1
102
RTVSPropertyOp10
 70
     1
102
RTVSPropertyOp11
 70
     1
102
RTVSPropertyOp12
 70
     1
102
RTVSPropertyOp13
 70
     1
102
RTVSPropertyOp14
 70
     1
102
RTVSPropertyOp15
 70
     1
102
RTVSPropertyOp16
 70
     1
102
RTVSPropertyOp17
 70
     1
102
RTVSPropertyOp18
 70
     1
102
RTVSPropertyOp19
 70
     1
102
RTVSPropertyOp20
 70
     1
102
RTVSPropertyOp21
 70
     1
102
RTVSPropertyOp22
 70
     1
102
RTVSPropertyOp23
 70
     1
102
RTVSPropertyOp24
 70
     1
102
RTVSPropertyOp25
 70
     1
102
RTVSPropertyOp26
 70
     1
102
RTVSPropertyOp27
 70
     1
102
RTVSPropertyOp28
 70
     1
102
RTVSPropertyOp29
 70
     1
102
RTVSPropertyOp30
 70
     1
102
RTVSPropertyOp31
 70
     1
102
RTVSPropertyOp32
 70
     1
102
RTVSPropertyOp33
 70
     1
102
RTVSPropertyOp34
 70
     1
102
RTVSPropertyOp35
 70
     1
102
RTVSPropertyOp36
 70
     1
102
RTVSPropertyOp37
 70
     1
102
RTVSPropertyOp38
 70
     1
102
RTVSPropertyOp39
 70
     1
102
RTVSPropertyOp40
 70
     1
102
RTVSPropertyOp41
 70
     1
102
RTVSPropertyOp42
 70
     1
102
RTVSPropertyOp43
 70
     1
102
RTVSPropertyOp44
 70
     1
102
RTVSPropertyOp45
 70
     1
102
RTVSPropertyOp46
 70
     1
102
RTVSPropertyOp47
 70
     1
102
RTVSPropertyOp48
 70
     1
102
RTVSPropertyOp49
 70
     1
102
RTVSPropertyOp50
 70
     1
102
RTVSPropertyOp51
 70
     0
102
RTVSPropertyOp52
 70
     0
102
RTVSPropertyOp53
 70
     1
102
RTVSPropertyOp54
 70
     1
102
RTVSPropertyOp55
 70
     1
102
RTVSPropertyOp56
 70
     1
102
RTVSPropertyOp57
 70
     1
102
RTVSPropertyOp58
 70
     1
102
RTVSPropertyOp59
 70
     1
102
RTVSPropertyOp60
 70
     1
102
RTVSPropertyOp61
 70
     1
102
RTVSPropertyOp62
 70
     1
  0
XRECORD
  5
3E6E
102
{ACAD_REACTORS
330
3E6D
102
}
330
3E6D
100
AcDbXrecord
280
     1
102
RTVSPost2010Prop28
280
     0
102
RTVSPost2010PropOp28
 70
     1
102
RTVSPost2010Prop29
280
     1
102
RTVSPost2010PropOp29
 70
     1
102
RTVSPost2010Prop30
280
     1
102
RTVSPost2010PropOp30
 70
     1
102
RTVSPost2010Prop31
280
     0
102
RTVSPost2010PropOp31
 70
     1
102
RTVSPost2010Prop32
280
     0
102
RTVSPost2010PropOp32
 70
     1
102
RTVSPost2010Prop33
280
     0
102
RTVSPost2010PropOp33
 70
     1
102
RTVSPost2010Prop34
280
     0
102
RTVSPost2010PropOp34
 70
     1
102
RTVSPost2010Prop35
280
     0
102
RTVSPost2010PropOp35
 70
     1
102
RTVSPost2010Prop36
280
     0
102
RTVSPost2010PropOp36
 70
     1
102
RTVSPost2010Prop37
 90
       50
102
RTVSPost2010PropOp37
 70
     1
102
RTVSPost2010Prop38
140
0.0
102
RTVSPost2010PropOp38
 70
     1
102
RTVSPost2010Prop39
140
1.0
102
RTVSPost2010PropOp39
 70
     1
102
RTVSPost2010Prop40
 90
        0
102
RTVSPost2010PropOp40
 70
     1
102
RTVSPost2010Prop41ColorIndex
 90
       18
102
RTVSPost2010Prop41ColorRGB
 90
        0
102
RTVSPost2010PropOp41
 70
     1
102
RTVSPost2010Prop42
 90
       50
102
RTVSPost2010PropOp42
 70
     1
102
RTVSPost2010Prop43
 90
        3
102
RTVSPost2010PropOp43
 70
     1
102
RTVSPost2010Prop44ColorIndex
 90
        5
102
RTVSPost2010Prop44ColorRGB
 90
      255
102
RTVSPost2010PropOp44
 70
     1
102
RTVSPost2010Prop45
280
     0
102
RTVSPost2010PropOp45
 70
     1
102
RTVSPost2010Prop46
 90
       50
102
RTVSPost2010PropOp46
 70
     1
102
RTVSPost2010Prop47
 90
       50
102
RTVSPost2010PropOp47
 70
     1
102
RTVSPost2010Prop48
 90
       50
102
RTVSPost2010PropOp48
 70
     1
102
RTVSPost2010Prop49
280
     0
102
RTVSPost2010PropOp49
 70
     1
102
RTVSPost2010Prop50
 90
       50
102
RTVSPost2010PropOp50
 70
     1
102
RTVSPost2010Prop51ColorIndex
 90
      256
102
RTVSPost2010Prop51ColorRGB
 90
-16777216
102
RTVSPost2010PropOp51
 70
     0
102
RTVSPost2010Prop52
140
1.0
102
RTVSPost2010PropOp52
 70
     0
102
RTVSPost2010Prop53
 90
        2
102
RTVSPost2010PropOp53
 70
     1
102
RTVSPost2010Prop54
  1
strokes_ogs.tif
102
RTVSPost2010PropOp54
 70
     1
102
RTVSPost2010Prop55
280
     0
102
RTVSPost2010PropOp55
 70
     1
102
RTVSPost2010Prop56
140
1.0
102
RTVSPost2010PropOp56
 70
     1
102
RTVSPost2010Prop57
140
1.0
102
RTVSPost2010PropOp57
 70
     1
102
RTVSPropertyOp0
 70
     1
102
RTVSPropertyOp1
 70
     1
102
RTVSPropertyOp2
 70
     1
102
RTVSPropertyOp3
 70
     1
102
RTVSPropertyOp4
 70
     1
102
RTVSPropertyOp5
 70
     1
102
RTVSPropertyOp6
 70
     1
102
RTVSPropertyOp7
 70
     1
102
RTVSPropertyOp8
 70
     1
102
RTVSPropertyOp9
 70
     1
102
RTVSPropertyOp10
 70
     1
102
RTVSPropertyOp11
 70
     1
102
RTVSPropertyOp12
 70
     1
102
RTVSPropertyOp13
 70
     1
102
RTVSPropertyOp14
 70
     1
102
RTVSPropertyOp15
 70
     1
102
RTVSPropertyOp16
 70
     1
102
RTVSPropertyOp17
 70
     1
102
RTVSPropertyOp18
 70
     1
102
RTVSPropertyOp19
 70
     1
102
RTVSPropertyOp20
 70
     1
102
RTVSPropertyOp21
 70
     1
102
RTVSPropertyOp22
 70
     1
102
RTVSPropertyOp23
 70
     1
102
RTVSPropertyOp24
 70
     1
102
RTVSPropertyOp25
 70
     1
102
RTVSPropertyOp26
 70
     1
102
RTVSPropertyOp27
 70
     1
102
RTVSPropertyOp28
 70
     1
102
RTVSPropertyOp29
 70
     1
102
RTVSPropertyOp30
 70
     1
102
RTVSPropertyOp31
 70
     1
102
RTVSPropertyOp32
 70
     1
102
RTVSPropertyOp33
 70
     1
102
RTVSPropertyOp34
 70
     1
102
RTVSPropertyOp35
 70
     1
102
RTVSPropertyOp36
 70
     1
102
RTVSPropertyOp37
 70
     1
102
RTVSPropertyOp38
 70
     1
102
RTVSPropertyOp39
 70
     1
102
RTVSPropertyOp40
 70
     1
102
RTVSPropertyOp41
 70
     1
102
RTVSPropertyOp42
 70
     1
102
RTVSPropertyOp43
 70
     1
102
RTVSPropertyOp44
 70
     1
102
RTVSPropertyOp45
 70
     1
102
RTVSPropertyOp46
 70
     1
102
RTVSPropertyOp47
 70
     1
102
RTVSPropertyOp48
 70
     1
102
RTVSPropertyOp49
 70
     1
102
RTVSPropertyOp50
 70
     1
102
RTVSPropertyOp51
 70
     0
102
RTVSPropertyOp52
 70
     0
102
RTVSPropertyOp53
 70
     1
102
RTVSPropertyOp54
 70
     1
102
RTVSPropertyOp55
 70
     1
102
RTVSPropertyOp56
 70
     1
102
RTVSPropertyOp57
 70
     1
102
RTVSPropertyOp58
 70
     1
102
RTVSPropertyOp59
 70
     1
102
RTVSPropertyOp60
 70
     1
102
RTVSPropertyOp61
 70
     1
102
RTVSPropertyOp62
 70
     1
  0
ENDSEC
  0
EOF
