  0
SECTION
  2
HEADER
  9
$ACADVER
  1
AC1015
  9
$ACADMAINTVER
 70
    20
  9
$DWGCODEPAGE
  3
ANSI_1252
  9
$INSBASE
 10
0.0
 20
0.0
 30
0.0
  9
$EXTMIN
 10
-98.21514723800966
 20
-63.78600961736629
 30
-0.0000000349181948
  9
$EXTMAX
 10
44.97607527111654
 20
40.24307325510676
 30
0.0000000814935747
  9
$LIMMIN
 10
-170.0
 20
-170.0
  9
$LIMMAX
 10
519.0
 20
260.0
  9
$ORTHOMODE
 70
     0
  9
$REGENMODE
 70
     1
  9
$FILLMODE
 70
     1
  9
$QTEXTMODE
 70
     0
  9
$MIRRTEXT
 70
     0
  9
$LTSCALE
 40
1.0
  9
$ATTMODE
 70
     1
  9
$TEXTSIZE
 40
3.5
  9
$TRACEWID
 40
1.0
  9
$TEXTSTYLE
  7
MM_STANDARD
  9
$CLAYER
  8
0
  9
$CELTYPE
  6
ByLayer
  9
$CECOLOR
 62
   256
  9
$CELTSCALE
 40
1.0
  9
$DISPSILH
 70
     0
  9
$DIMSCALE
 40
1.0
  9
$DIMASZ
 40
2.5
  9
$DIMEXO
 40
0.0
  9
$DIMDLI
 40
3.75
  9
$DIMRND
 40
0.0
  9
$DIMDLE
 40
0.0
  9
$DIMEXE
 40
1.25
  9
$DIMTP
 40
0.0
  9
$DIMTM
 40
0.0
  9
$DIMTXT
 40
3.5
  9
$DIMCEN
 40
0.0
  9
$DIMTSZ
 40
0.0
  9
$DIMTOL
 70
     0
  9
$DIMLIM
 70
     0
  9
$DIMTIH
 70
     0
  9
$DIMTOH
 70
     0
  9
$DIMSE1
 70
     0
  9
$DIMSE2
 70
     0
  9
$DIMTAD
 70
     1
  9
$DIMZIN
 70
     9
  9
$DIMBLK
  1

  9
$DIMASO
 70
     1
  9
$DIMSHO
 70
     1
  9
$DIMPOST
  1

  9
$DIMAPOST
  1

  9
$DIMALT
 70
     0
  9
$DIMALTD
 70
     3
  9
$DIMALTF
 40
0.039370078
  9
$DIMLFAC
 40
1.0
  9
$DIMTOFL
 70
     0
  9
$DIMTVP
 40
0.0
  9
$DIMTIX
 70
     0
  9
$DIMSOXD
 70
     0
  9
$DIMSAH
 70
     0
  9
$DIMBLK1
  1

  9
$DIMBLK2
  1

  9
$DIMSTYLE
  2
MM_STANDARD
  9
$DIMCLRD
 70
   256
  9
$DIMCLRE
 70
   256
  9
$DIMCLRT
 70
   256
  9
$DIMTFAC
 40
1.0
  9
$DIMGAP
 40
0.625
  9
$DIMJUST
 70
     0
  9
$DIMSD1
 70
     0
  9
$DIMSD2
 70
     0
  9
$DIMTOLJ
 70
     1
  9
$DIMTZIN
 70
     8
  9
$DIMALTZ
 70
     0
  9
$DIMALTTZ
 70
     0
  9
$DIMUPT
 70
     0
  9
$DIMDEC
 70
     2
  9
$DIMTDEC
 70
     2
  9
$DIMALTU
 70
     2
  9
$DIMALTTD
 70
     3
  9
$DIMTXSTY
  7
MM_STANDARD
  9
$DIMAUNIT
 70
     0
  9
$DIMADEC
 70
     2
  9
$DIMALTRND
 40
0.0
  9
$DIMAZIN
 70
     2
  9
$DIMDSEP
 70
    46
  9
$DIMATFIT
 70
     3
  9
$DIMFRAC
 70
     0
  9
$DIMLDRBLK
  1

  9
$DIMLUNIT
 70
     2
  9
$DIMLWD
 70
    -1
  9
$DIMLWE
 70
    -1
  9
$DIMTMOVE
 70
     0
  9
$LUNITS
 70
     2
  9
$LUPREC
 70
     4
  9
$SKETCHINC
 40
1.0
  9
$FILLETRAD
 40
2.0
  9
$AUNITS
 70
     0
  9
$AUPREC
 70
     0
  9
$MENU
  1
.
  9
$ELEVATION
 40
0.0
  9
$PELEVATION
 40
0.0
  9
$THICKNESS
 40
0.0
  9
$LIMCHECK
 70
     0
  9
$CHAMFERA
 40
0.0
  9
$CHAMFERB
 40
0.0
  9
$CHAMFERC
 40
0.0
  9
$CHAMFERD
 40
0.0
  9
$SKPOLY
 70
     0
  9
$TDCREATE
 40
2453353.758792489
  9
$TDUCREATE
 40
2453353.717125822
  9
$TDUPDATE
 40
2459585.660387165
  9
$TDUUPDATE
 40
2459585.618720498
  9
$TDINDWG
 40
2.7423436921
  9
$TDUSRTIMER
 40
2.7423187037
  9
$USRTIMER
 70
     1
  9
$ANGBASE
 50
0.0
  9
$ANGDIR
 70
     0
  9
$PDMODE
 70
     1
  9
$PDSIZE
 40
0.0
  9
$PLINEWID
 40
0.0
  9
$SPLFRAME
 70
     0
  9
$SPLINETYPE
 70
     6
  9
$SPLINESEGS
 70
     8
  9
$HANDSEED
  5
30895
  9
$SURFTAB1
 70
     6
  9
$SURFTAB2
 70
     6
  9
$SURFTYPE
 70
     6
  9
$SURFU
 70
     6
  9
$SURFV
 70
     6
  9
$UCSBASE
  2

  9
$UCSNAME
  2

  9
$UCSORG
 10
0.0
 20
0.0
 30
0.0
  9
$UCSXDIR
 10
1.0
 20
0.0
 30
0.0
  9
$UCSYDIR
 10
0.0
 20
1.0
 30
0.0
  9
$UCSORTHOREF
  2

  9
$UCSORTHOVIEW
 70
     0
  9
$UCSORGTOP
 10
0.0
 20
0.0
 30
0.0
  9
$UCSORGBOTTOM
 10
0.0
 20
0.0
 30
0.0
  9
$UCSORGLEFT
 10
0.0
 20
0.0
 30
0.0
  9
$UCSORGRIGHT
 10
0.0
 20
0.0
 30
0.0
  9
$UCSORGFRONT
 10
0.0
 20
0.0
 30
0.0
  9
$UCSORGBACK
 10
0.0
 20
0.0
 30
0.0
  9
$PUCSBASE
  2

  9
$PUCSNAME
  2

  9
$PUCSORG
 10
0.0
 20
0.0
 30
0.0
  9
$PUCSXDIR
 10
1.0
 20
0.0
 30
0.0
  9
$PUCSYDIR
 10
0.0
 20
1.0
 30
0.0
  9
$PUCSORTHOREF
  2

  9
$PUCSORTHOVIEW
 70
     0
  9
$PUCSORGTOP
 10
0.0
 20
0.0
 30
0.0
  9
$PUCSORGBOTTOM
 10
0.0
 20
0.0
 30
0.0
  9
$PUCSORGLEFT
 10
0.0
 20
0.0
 30
0.0
  9
$PUCSORGRIGHT
 10
0.0
 20
0.0
 30
0.0
  9
$PUCSORGFRONT
 10
0.0
 20
0.0
 30
0.0
  9
$PUCSORGBACK
 10
0.0
 20
0.0
 30
0.0
  9
$USERI1
 70
     0
  9
$USERI2
 70
     0
  9
$USERI3
 70
     0
  9
$USERI4
 70
     0
  9
$USERI5
 70
     0
  9
$USERR1
 40
0.0
  9
$USERR2
 40
0.0
  9
$USERR3
 40
0.0
  9
$USERR4
 40
0.0
  9
$USERR5
 40
0.0
  9
$WORLDVIEW
 70
     1
  9
$SHADEDGE
 70
     3
  9
$SHADEDIF
 70
    70
  9
$TILEMODE
 70
     1
  9
$MAXACTVP
 70
    64
  9
$PINSBASE
 10
0.0
 20
0.0
 30
0.0
  9
$PLIMCHECK
 70
     0
  9
$PEXTMIN
 10
0.0
 20
0.0
 30
0.0
  9
$PEXTMAX
 10
0.0
 20
0.0
 30
0.0
  9
$PLIMMIN
 10
0.0
 20
0.0
  9
$PLIMMAX
 10
12.0
 20
9.0
  9
$UNITMODE
 70
     0
  9
$VISRETAIN
 70
     0
  9
$PLINEGEN
 70
     0
  9
$PSLTSCALE
 70
     1
  9
$TREEDEPTH
 70
  3020
  9
$CMLSTYLE
  2
Standard
  9
$CMLJUST
 70
     0
  9
$CMLSCALE
 40
20.0
  9
$PROXYGRAPHICS
 70
     0
  9
$MEASUREMENT
 70
     1
  9
$CELWEIGHT
370
    -1
  9
$ENDCAPS
280
     0
  9
$JOINSTYLE
280
     0
  9
$LWDISPLAY
290
     0
  9
$INSUNITS
 70
     4
  9
$HYPERLINKBASE
  1

  9
$STYLESHEET
  1

  9
$XEDIT
290
     1
  9
$CEPSNTYPE
380
     0
  9
$PSTYLEMODE
290
     1
  9
$FINGERPRINTGUID
  2
{049C219F-BC74-4B97-8A86-7E4B06A8BFF9}
  9
$VERSIONGUID
  2
{B6F1E4CB-8E71-4DA2-AF25-A15EF299B015}
  9
$EXTNAMES
290
     1
  9
$PSVPSCALE
 40
0.0
  9
$OLESTARTUP
290
     0
  0
ENDSEC
  0
SECTION
  2
CLASSES
  0
CLASS
  1
ACDBDICTIONARYWDFLT
  2
AcDbDictionaryWithDefault
  3
ObjectDBX Classes
 90
        0
280
     0
281
     0
  0
CLASS
  1
ACDBPLACEHOLDER
  2
AcDbPlaceHolder
  3
ObjectDBX Classes
 90
        0
280
     0
281
     0
  0
CLASS
  1
LAYOUT
  2
AcDbLayout
  3
ObjectDBX Classes
 90
        0
280
     0
281
     0
  0
CLASS
  1
DICTIONARYVAR
  2
AcDbDictionaryVar
  3
ObjectDBX Classes
 90
        0
280
     0
281
     0
  0
CLASS
  1
TABLESTYLE
  2
AcDbTableStyle
  3
ObjectDBX Classes
 90
     4095
280
     0
281
     0
  0
CLASS
  1
SCALE
  2
AcDbScale
  3
ObjectDBX Classes
 90
     1153
280
     0
281
     0
  0
CLASS
  1
RASTERVARIABLES
  2
AcDbRasterVariables
  3
ISM
 90
        0
280
     0
281
     0
  0
CLASS
  1
DIMASSOC
  2
AcDbDimAssoc
  3
"AcDbDimAssoc|Product Desc:     AcDim ARX App For Dimension|Company:          Autodesk, Inc.|WEB Address:      www.autodesk.com"
 90
        0
280
     0
281
     0
  0
CLASS
  1
SORTENTSTABLE
  2
AcDbSortentsTable
  3
ObjectDBX Classes
 90
        0
280
     0
281
     0
  0
CLASS
  1
MATERIAL
  2
AcDbMaterial
  3
ObjectDBX Classes
 90
     1153
280
     0
281
     0
  0
CLASS
  1
VISUALSTYLE
  2
AcDbVisualStyle
  3
ObjectDBX Classes
 90
     4095
280
     0
281
     0
  0
CLASS
  1
MLEADERSTYLE
  2
AcDbMLeaderStyle
  3
ACDB_MLEADERSTYLE_CLASS
 90
     4095
280
     0
281
     0
  0
CLASS
  1
ACDBSECTIONVIEWSTYLE
  2
AcDbSectionViewStyle
  3
ObjectDBX Classes
 90
     1025
280
     0
281
     0
  0
CLASS
  1
ACDBDETAILVIEWSTYLE
  2
AcDbDetailViewStyle
  3
ObjectDBX Classes
 90
     1025
280
     0
281
     0
  0
CLASS
  1
CELLSTYLEMAP
  2
AcDbCellStyleMap
  3
ObjectDBX Classes
 90
     1152
280
     0
281
     0
  0
ENDSEC
  0
SECTION
  2
TABLES
  0
TABLE
  2
VPORT
  5
8
330
0
100
AcDbSymbolTable
 70
     1
  0
VPORT
  5
97
330
8
100
AcDbSymbolTableRecord
100
AcDbViewportTableRecord
  2
*Active
 70
     0
 10
0.0
 20
0.0
 11
1.0
 21
1.0
 12
-26.61953598344654
 22
-11.77146818112976
 13
0.0
 23
0.0
 14
5.0
 24
5.0
 15
5.0
 25
5.0
 16
0.0
 26
0.0
 36
1.0
 17
0.0
 27
0.0
 37
0.0
 40
104.7367637083402
 41
1.793416572077185
 42
50.0
 43
0.0
 44
0.0
 50
0.0
 51
0.0
 71
    16
 72
  2000
 73
     1
 74
     1
 75
     0
 76
     0
 77
     0
 78
     0
281
     0
 65
     1
110
0.0
120
0.0
130
0.0
111
1.0
121
0.0
131
0.0
112
0.0
122
1.0
132
0.0
 79
     0
146
0.0
1001
ACAD_NAV_VCDISPLAY
1070
     3
  0
ENDTAB
  0
TABLE
  2
LTYPE
  5
5
330
0
100
AcDbSymbolTable
 70
     4
  0
LTYPE
  5
14
330
5
100
AcDbSymbolTableRecord
100
AcDbLinetypeTableRecord
  2
ByBlock
 70
     0
  3

 72
    65
 73
     0
 40
0.0
  0
LTYPE
  5
15
330
5
100
AcDbSymbolTableRecord
100
AcDbLinetypeTableRecord
  2
ByLayer
 70
     0
  3

 72
    65
 73
     0
 40
0.0
  0
LTYPE
  5
16
330
5
100
AcDbSymbolTableRecord
100
AcDbLinetypeTableRecord
  2
Continuous
 70
     0
  3
Solid line
 72
    65
 73
     0
 40
0.0
  0
LTYPE
  5
30754
330
5
100
AcDbSymbolTableRecord
100
AcDbLinetypeTableRecord
  2
CENTER2
 70
     0
  3
Center (.5x) ___ _ ___ _ ___ _ ___ _ ___ _ ___
 72
    65
 73
     4
 40
28.57499999999999
 49
19.05
 74
     4
 75
     0
340
0
 46
1.0
 50
0.0
 44
0.0
 45
0.0
 49
-3.174999999999998
 74
     4
 75
     0
340
0
 46
1.0
 50
0.0
 44
0.0
 45
0.0
 49
3.174999999999998
 74
     4
 75
     0
340
0
 46
1.0
 50
0.0
 44
0.0
 45
0.0
 49
-3.174999999999998
 74
     4
 75
     0
340
0
 46
1.0
 50
0.0
 44
0.0
 45
0.0
  0
LTYPE
  5
30755
330
5
100
AcDbSymbolTableRecord
100
AcDbLinetypeTableRecord
  2
HIDDEN
 70
     0
  3
Hidden __ __ __ __ __ __ __ __ __ __ __ __ __ _
 72
    65
 73
     2
 40
9.524999999999996
 49
6.349999999999997
 74
     4
 75
     0
340
0
 46
1.0
 50
0.0
 44
0.0
 45
0.0
 49
-3.174999999999998
 74
     4
 75
     0
340
0
 46
1.0
 50
0.0
 44
0.0
 45
0.0
  0
ENDTAB
  0
TABLE
  2
LAYER
  5
2
102
{ACAD_XDICTIONARY
360
30760
102
}
330
0
100
AcDbSymbolTable
 70
    16
  0
LAYER
  5
10
102
{ACAD_XDICTIONARY
360
30756
102
}
330
2
100
AcDbSymbolTableRecord
100
AcDbLayerTableRecord
  2
0
 70
     0
 62
     7
  6
Continuous
370
    -3
390
F
  0
LAYER
  5
23
102
{ACAD_XDICTIONARY
360
30757
102
}
330
2
100
AcDbSymbolTableRecord
100
AcDbLayerTableRecord
  2
1
 70
     0
 62
     4
  6
Continuous
370
    50
390
F
  0
LAYER
  5
25
102
{ACAD_XDICTIONARY
360
30758
102
}
330
2
100
AcDbSymbolTableRecord
100
AcDbLayerTableRecord
  2
2
 70
     0
 62
     7
  6
Continuous
370
    25
390
F
  0
LAYER
  5
2A
102
{ACAD_XDICTIONARY
360
3075A
102
}
330
2
100
AcDbSymbolTableRecord
100
AcDbLayerTableRecord
  2
4
 70
     0
 62
     2
  6
CENTER2
370
    25
390
F
  0
LAYER
  5
2E
102
{ACAD_XDICTIONARY
360
3075B
102
}
330
2
100
AcDbSymbolTableRecord
100
AcDbLayerTableRecord
  2
SK6
 70
     0
 62
     5
  6
Continuous
370
    -3
390
F
  0
LAYER
  5
2F
330
2
100
AcDbSymbolTableRecord
100
AcDbLayerTableRecord
  2
DEFPOINTS
 70
     0
 62
     7
  6
Continuous
290
     0
370
    25
390
F
  0
LAYER
  5
375
102
{ACAD_XDICTIONARY
360
3075C
102
}
330
2
100
AcDbSymbolTableRecord
100
AcDbLayerTableRecord
  2
CUT
 70
     0
 62
     1
  6
Continuous
370
    25
390
F
  0
LAYER
  5
376
102
{ACAD_XDICTIONARY
360
3075D
102
}
330
2
100
AcDbSymbolTableRecord
100
AcDbLayerTableRecord
  2
NOCUT
 70
     0
 62
     7
  6
Continuous
370
    -3
390
F
  0
LAYER
  5
49B
102
{ACAD_XDICTIONARY
360
3075E
102
}
330
2
100
AcDbSymbolTableRecord
100
AcDbLayerTableRecord
  2
INFTOTAL
 70
     0
 62
     9
  6
Continuous
370
    18
390
F
1001
AcAecLayerStandard
1000

1000

  0
LAYER
  5
6C2
102
{ACAD_XDICTIONARY
360
3075F
102
}
330
2
100
AcDbSymbolTableRecord
100
AcDbLayerTableRecord
  2
INSERT
 70
     0
 62
     4
  6
Continuous
370
    50
390
F
1001
AcAecLayerStandard
1000

1000

  0
LAYER
  5
2037B
330
2
100
AcDbSymbolTableRecord
100
AcDbLayerTableRecord
  2
SK3
 70
     0
 62
     1
  6
HIDDEN
370
    35
390
F
  0
LAYER
  5
24735
330
2
100
AcDbSymbolTableRecord
100
AcDbLayerTableRecord
  2
SKVIEW1
 70
     0
 62
     4
  6
Continuous
370
    50
390
F
1001
AcAecLayerStandard
1000

1000

  0
LAYER
  5
24737
330
2
100
AcDbSymbolTableRecord
100
AcDbLayerTableRecord
  2
SKVIEW2
 70
     0
 62
     7
  6
Continuous
370
    25
390
F
1001
AcAecLayerStandard
1000

1000

  0
LAYER
  5
2473B
330
2
100
AcDbSymbolTableRecord
100
AcDbLayerTableRecord
  2
SKVIEW4
 70
     0
 62
     2
  6
CENTER2
370
    25
390
F
1001
AcAecLayerStandard
1000

1000

  0
LAYER
  5
307DC
330
2
100
AcDbSymbolTableRecord
100
AcDbLayerTableRecord
  2
SK2
 70
     0
 62
     7
  6
Continuous
370
    25
390
F
1001
AcAecLayerStandard
1000

1000

1001
AcCmTransparency
1071
        0
  0
ENDTAB
  0
TABLE
  2
STYLE
  5
3
330
0
100
AcDbSymbolTable
 70
     2
  0
STYLE
  5
11
330
3
100
AcDbSymbolTableRecord
100
AcDbTextStyleTableRecord
  2
Standard
 70
     0
 40
0.0
 41
1.0
 50
0.0
 71
     0
 42
5.0
  3
monos.ttf
  4

1001
ACAD
1000
Monospac821 BT
1071
       49
  0
STYLE
  5
8B9
330
3
100
AcDbSymbolTableRecord
100
AcDbTextStyleTableRecord
  2
MM_STANDARD
 70
     0
 40
3.5
 41
1.0
 50
0.0
 71
     0
 42
3.5
  3
monos.ttf
  4

1001
ACAD
1000
Monospac821 BT
1071
       49
  0
ENDTAB
  0
TABLE
  2
VIEW
  5
6
330
0
100
AcDbSymbolTable
 70
     0
  0
ENDTAB
  0
TABLE
  2
UCS
  5
7
330
0
100
AcDbSymbolTable
 70
     0
  0
ENDTAB
  0
TABLE
  2
APPID
  5
9
330
0
100
AcDbSymbolTable
 70
    26
  0
APPID
  5
12
330
9
100
AcDbSymbolTableRecord
100
AcDbRegAppTableRecord
  2
ACAD
 70
     0
  0
APPID
  5
3073C
330
9
100
AcDbSymbolTableRecord
100
AcDbRegAppTableRecord
  2
ACAD_PSEXT
 70
     0
  0
APPID
  5
3073D
330
9
100
AcDbSymbolTableRecord
100
AcDbRegAppTableRecord
  2
ACAD_EXEMPT_FROM_CAD_STANDARDS
 70
     0
  0
APPID
  5
3073E
330
9
100
AcDbSymbolTableRecord
100
AcDbRegAppTableRecord
  2
ACAD_MLEADERVER
 70
     0
  0
APPID
  5
3073F
330
9
100
AcDbSymbolTableRecord
100
AcDbRegAppTableRecord
  2
ACAD_DSTYLE_DIMJAG
 70
     0
  0
APPID
  5
30740
330
9
100
AcDbSymbolTableRecord
100
AcDbRegAppTableRecord
  2
ACAD_DSTYLE_DIMBREAK
 70
     0
  0
APPID
  5
30741
330
9
100
AcDbSymbolTableRecord
100
AcDbRegAppTableRecord
  2
ACAD_DSTYLE_DIMTALN
 70
     0
  0
APPID
  5
30742
330
9
100
AcDbSymbolTableRecord
100
AcDbRegAppTableRecord
  2
AcAecLayerStandard
 70
     0
  0
APPID
  5
30743
330
9
100
AcDbSymbolTableRecord
100
AcDbRegAppTableRecord
  2
DCO15
 70
     0
  0
APPID
  5
30744
330
9
100
AcDbSymbolTableRecord
100
AcDbRegAppTableRecord
  2
AcadAnnoPO
 70
     0
  0
APPID
  5
30745
330
9
100
AcDbSymbolTableRecord
100
AcDbRegAppTableRecord
  2
ACAD_DSTYLE_DIMRADIAL_EXTENSION
 70
     0
  0
APPID
  5
30746
330
9
100
AcDbSymbolTableRecord
100
AcDbRegAppTableRecord
  2
AcadAnnotative
 70
     0
  0
APPID
  5
30747
330
9
100
AcDbSymbolTableRecord
100
AcDbRegAppTableRecord
  2
AcDbDynamicBlockGUID
 70
     0
  0
APPID
  5
30748
330
9
100
AcDbSymbolTableRecord
100
AcDbRegAppTableRecord
  2
AcDbBlockRepETag
 70
     0
  0
APPID
  5
30749
330
9
100
AcDbSymbolTableRecord
100
AcDbRegAppTableRecord
  2
MCAD_NO_VIS
 70
     0
  0
APPID
  5
3074A
330
9
100
AcDbSymbolTableRecord
100
AcDbRegAppTableRecord
  2
ACAD_TEMP_GRAPHIC
 70
     0
  0
APPID
  5
3074B
330
9
100
AcDbSymbolTableRecord
100
AcDbRegAppTableRecord
  2
ACATTRIBSERVICES
 70
     0
  0
APPID
  5
3074C
330
9
100
AcDbSymbolTableRecord
100
AcDbRegAppTableRecord
  2
DESIGNERASSEMBLIES
 70
     0
  0
APPID
  5
3074D
330
9
100
AcDbSymbolTableRecord
100
AcDbRegAppTableRecord
  2
ACAD_NAV_VCDISPLAY
 70
     0
  0
APPID
  5
3074E
330
9
100
AcDbSymbolTableRecord
100
AcDbRegAppTableRecord
  2
ACAD_DSTYLE_DIM_LINETYPE
 70
     0
  0
APPID
  5
3074F
330
9
100
AcDbSymbolTableRecord
100
AcDbRegAppTableRecord
  2
ACAD_DSTYLE_DIM_EXT1_LINETYPE
 70
     0
  0
APPID
  5
30750
330
9
100
AcDbSymbolTableRecord
100
AcDbRegAppTableRecord
  2
ACAD_DSTYLE_DIM_EXT2_LINETYPE
 70
     0
  0
APPID
  5
30751
330
9
100
AcDbSymbolTableRecord
100
AcDbRegAppTableRecord
  2
ACAD_DSTYLE_DIMARC_LENGTH_SYMBOL
 70
     0
  0
APPID
  5
30752
330
9
100
AcDbSymbolTableRecord
100
AcDbRegAppTableRecord
  2
AcDbAttr
 70
     0
  0
APPID
  5
30753
330
9
100
AcDbSymbolTableRecord
100
AcDbRegAppTableRecord
  2
AcadAnnoMonitorAlertIconDisabled
 70
     0
  0
APPID
  5
307DD
330
9
100
AcDbSymbolTableRecord
100
AcDbRegAppTableRecord
  2
AcCmTransparency
 70
     0
  0
ENDTAB
  0
TABLE
  2
DIMSTYLE
  5
A
330
0
100
AcDbSymbolTable
 70
     3
100
AcDbDimStyleTable
 71
     1
340
3F
  0
DIMSTYLE
105
27
330
A
100
AcDbSymbolTableRecord
100
AcDbDimStyleTableRecord
  2
Standard
 70
     0
 77
     1
276
     1
278
     0
340
11
  0
DIMSTYLE
105
3F
102
{ACAD_REACTORS
330
30443
330
30444
330
30445
330
30446
330
30449
330
3044A
102
}
330
A
100
AcDbSymbolTableRecord
100
AcDbDimStyleTableRecord
  2
MM_STANDARD
 70
     0
 41
2.5
 42
0.0
 43
3.75
 44
1.25
 73
     0
 74
     0
 77
     1
 78
     1
140
3.5
141
0.0
143
0.039370078
147
0.625
171
     3
176
   256
177
   256
178
   256
179
     2
271
     2
272
     2
274
     3
284
     8
340
8B9
371
    -1
372
    -1
1001
ACAD_DSTYLE_DIMJAG
1070
   388
1040
1.5
1001
ACAD_DSTYLE_DIMTALN
1070
   392
1070
     0
  0
ENDTAB
  0
TABLE
  2
BLOCK_RECORD
  5
1
330
0
100
AcDbSymbolTable
 70
    10
  0
BLOCK_RECORD
  5
1F
102
{ACAD_XDICTIONARY
360
30775
102
}
330
1
100
AcDbSymbolTableRecord
100
AcDbBlockTableRecord
  2
*Model_Space
340
22
  0
BLOCK_RECORD
  5
73
330
1
100
AcDbSymbolTableRecord
100
AcDbBlockTableRecord
  2
*Paper_Space
340
74
  0
BLOCK_RECORD
  5
3057E
330
1
100
AcDbSymbolTableRecord
100
AcDbBlockTableRecord
  2
*D2
340
0
  0
BLOCK_RECORD
  5
3058A
330
1
100
AcDbSymbolTableRecord
100
AcDbBlockTableRecord
  2
*D3
340
0
  0
BLOCK_RECORD
  5
30598
330
1
100
AcDbSymbolTableRecord
100
AcDbBlockTableRecord
  2
*D4
340
0
  0
BLOCK_RECORD
  5
305A6
330
1
100
AcDbSymbolTableRecord
100
AcDbBlockTableRecord
  2
*D5
340
0
  0
BLOCK_RECORD
  5
305B3
330
1
100
AcDbSymbolTableRecord
100
AcDbBlockTableRecord
  2
*D6
340
0
  0
BLOCK_RECORD
  5
305BE
330
1
100
AcDbSymbolTableRecord
100
AcDbBlockTableRecord
  2
*D7
340
0
  0
ENDTAB
  0
ENDSEC
  0
SECTION
  2
BLOCKS
  0
BLOCK
  5
20
330
1F
100
AcDbEntity
  8
0
100
AcDbBlockBegin
  2
*Model_Space
 70
     0
 10
0.0
 20
0.0
 30
0.0
  3
*Model_Space
  1

  0
ENDBLK
  5
21
330
1F
100
AcDbEntity
  8
0
100
AcDbBlockEnd
  0
BLOCK
  5
75
330
73
100
AcDbEntity
 67
     1
  8
0
100
AcDbBlockBegin
  2
*Paper_Space
 70
     0
 10
0.0
 20
0.0
 30
0.0
  3
*Paper_Space
  1

  0
ENDBLK
  5
76
330
73
100
AcDbEntity
 67
     1
  8
0
100
AcDbBlockEnd
  0
BLOCK
  5
30765
330
3057E
100
AcDbEntity
  8
0
100
AcDbBlockBegin
  2
*D2
 70
     1
 10
0.0
 20
0.0
 30
0.0
  3
*D2
  1

  0
LINE
  5
307FD
330
3057E
100
AcDbEntity
  8
SK2
  6
ByBlock
100
AcDbLine
 10
0.0000000000001137
 20
-6.5
 30
0.0
 11
-15.02634585330065
 21
-6.499999999999995
 31
0.0
  0
LINE
  5
307FE
330
3057E
100
AcDbEntity
  8
SK2
  6
ByBlock
100
AcDbLine
 10
0.0000000000001137
 20
6.500000000000111
 30
0.0
 11
-15.02634585330065
 21
6.500000000000116
 31
0.0
  0
LINE
  5
307FF
330
3057E
100
AcDbEntity
  8
SK2
  6
ByBlock
100
AcDbLine
 10
-13.77634585330065
 20
-3.999999999999996
 30
0.0
 11
-13.77634585330065
 21
4.000000000000115
 31
0.0
  0
SOLID
  5
30800
330
3057E
100
AcDbEntity
  8
SK2
100
AcDbTrace
 10
-14.19301251996732
 20
-3.999999999999996
 30
0.0
 11
-13.35967918663398
 21
-3.999999999999996
 31
0.0
 12
-13.77634585330065
 22
-6.499999999999996
 32
0.0
 13
-13.77634585330065
 23
-6.499999999999996
 33
0.0
  0
SOLID
  5
30801
330
3057E
100
AcDbEntity
  8
SK2
100
AcDbTrace
 10
-14.19301251996731
 20
4.000000000000116
 30
0.0
 11
-13.35967918663398
 21
4.000000000000115
 31
0.0
 12
-13.77634585330065
 22
6.500000000000115
 32
0.0
 13
-13.77634585330065
 23
6.500000000000115
 33
0.0
  0
MTEXT
  5
30802
330
3057E
100
AcDbEntity
  8
SK2
100
AcDbMText
 10
-16.26448710417907
 20
0.0000000000000003
 30
0.0
 40
3.5
 41
0.0
 71
     5
 72
     1
  1
\A1;%%c13
  7
MM_STANDARD
 11
0.0000000000000001
 21
1.0
 31
0.0
 73
     1
 44
1.0
1001
ACAD
1000
MTEXTBEGIN
1070
    73
1070
     1
1070
    44
1040
1.0
1070
    74
1070
     0
1000
MTEXTEND
  0
POINT
  5
30803
330
3057E
100
AcDbEntity
  8
DEFPOINTS
 62
     0
100
AcDbPoint
 10
0.0000000000001137
 20
-6.5
 30
0.0
  0
POINT
  5
30804
330
3057E
100
AcDbEntity
  8
DEFPOINTS
 62
     0
100
AcDbPoint
 10
0.0000000000001137
 20
6.500000000000111
 30
0.0
  0
POINT
  5
30805
330
3057E
100
AcDbEntity
  8
DEFPOINTS
 62
     0
100
AcDbPoint
 10
-13.77634585330065
 20
6.500000000000115
 30
0.0
  0
ENDBLK
  5
30766
330
3057E
100
AcDbEntity
  8
0
100
AcDbBlockEnd
  0
BLOCK
  5
30767
330
3058A
100
AcDbEntity
  8
0
100
AcDbBlockBegin
  2
*D3
 70
     1
 10
0.0
 20
0.0
 30
0.0
  3
*D3
  1

  0
LINE
  5
305DC
330
3058A
100
AcDbEntity
  8
2
  6
ByBlock
100
AcDbLine
 10
7.699722753517107
 20
-8.729137330803382
 30
0.0
 11
7.699541163514521
 21
-19.63515488425318
 31
0.0
  0
LINE
  5
305DD
330
3058A
100
AcDbEntity
  8
2
  6
ByBlock
100
AcDbLine
 10
5.499585404024514
 20
-12.34999957438748
 30
0.0
 11
5.499464103585284
 21
-19.63511825199975
 31
0.0
  0
LINE
  5
305DE
330
3058A
100
AcDbEntity
  8
2
  6
ByBlock
100
AcDbLine
 10
2.999484916983165
 20
-18.38507662607035
 30
0.0
 11
0.4994849173297121
 21
-18.38503499996768
 31
0.0
  0
LINE
  5
305DF
330
3058A
100
AcDbEntity
  8
2
  6
ByBlock
100
AcDbLine
 10
10.19956197621931
 20
-18.38519651052912
 30
0.0
 11
22.41793864353476
 21
-18.3853999518898
 31
0.0
  0
LINE
  5
305E0
330
3058A
100
AcDbEntity
  8
2
  6
ByBlock
100
AcDbLine
 10
5.499484916636617
 20
-18.38511825217302
 30
0.0
 11
7.699561976565856
 21
-18.38515488442646
 31
0.0
  0
SOLID
  5
305E1
330
3058A
100
AcDbEntity
  8
2
100
AcDbTrace
 10
2.999491854666943
 20
-17.96840995946144
 30
0.0
 11
2.999477979299386
 21
-18.80174329267926
 31
0.0
 12
5.499484916636617
 22
-18.38511825217302
 32
0.0
 13
5.499484916636617
 23
-18.38511825217302
 33
0.0
  0
SOLID
  5
305E2
330
3058A
100
AcDbEntity
  8
2
100
AcDbTrace
 10
10.19956891390309
 20
-17.96852984392022
 30
0.0
 11
10.19955503853553
 21
-18.80186317713804
 31
0.0
 12
7.699561976565856
 22
-18.38515488442646
 32
0.0
 13
7.699561976565856
 23
-18.38515488442646
 33
0.0
  0
MTEXT
  5
305E3
330
3058A
100
AcDbEntity
  8
2
100
AcDbMText
 10
17.55879003879114
 20
-15.99925087874475
 30
0.0
 40
3.5
 41
0.0
 71
     5
 72
     1
  1
\A1;2.2
  7
MM_STANDARD
 11
0.9999999998613816
 21
-0.0000166504410678
 31
0.0
 73
     1
 44
1.0
1001
ACAD
1000
MTEXTBEGIN
1070
    73
1070
     1
1070
    44
1040
1.0
1070
    74
1070
     0
1000
MTEXTEND
  0
POINT
  5
305E4
330
3058A
100
AcDbEntity
  8
DEFPOINTS
 62
     0
100
AcDbPoint
 10
7.699722753517107
 20
-8.729137330803382
 30
0.0
  0
POINT
  5
305E5
330
3058A
100
AcDbEntity
  8
DEFPOINTS
 62
     0
100
AcDbPoint
 10
5.499585404024514
 20
-12.34999957438748
 30
0.0
  0
POINT
  5
305E6
330
3058A
100
AcDbEntity
  8
DEFPOINTS
 62
     0
100
AcDbPoint
 10
5.499484916636617
 20
-18.38511825217302
 30
0.0
  0
ENDBLK
  5
30768
330
3058A
100
AcDbEntity
  8
0
100
AcDbBlockEnd
  0
BLOCK
  5
30769
330
30598
100
AcDbEntity
  8
0
100
AcDbBlockBegin
  2
*D4
 70
     1
 10
0.0
 20
0.0
 30
0.0
  3
*D4
  1

  0
LINE
  5
307F2
330
30598
100
AcDbEntity
  8
SK2
  6
ByBlock
100
AcDbLine
 10
3.363127883715856
 20
8.848828704570157
 30
0.0
 11
-10.89876611198564
 21
8.848947437982506
 31
0.0
  0
LINE
  5
307F3
330
30598
100
AcDbEntity
  8
SK2
  6
ByBlock
100
AcDbLine
 10
5.500000000000113
 20
12.35000000000011
 30
0.0
 11
-10.89873696381447
 21
12.35013652310136
 31
0.0
  0
LINE
  5
307F4
330
30598
100
AcDbEntity
  8
SK2
  6
ByBlock
100
AcDbLine
 10
-9.648786925080225
 20
6.348937031543511
 30
0.0
 11
-9.648807738131488
 21
3.848937031630147
 31
0.0
  0
LINE
  5
307F5
330
30598
100
AcDbEntity
  8
SK2
  6
ByBlock
100
AcDbLine
 10
-9.648716150806528
 20
14.85012611648909
 30
0.0
 11
-9.648613877257009
 21
27.13491178015332
 31
0.0
  0
LINE
  5
307F6
330
30598
100
AcDbEntity
  8
SK2
  6
ByBlock
100
AcDbLine
 10
-9.64876611202896
 20
8.848937031456873
 30
0.0
 11
-9.648736963857793
 21
12.35012611657572
 31
0.0
  0
SOLID
  5
307F7
330
30598
100
AcDbEntity
  8
SK2
100
AcDbTrace
 10
-10.06545359173245
 20
6.348940500385388
 30
0.0
 11
-9.232120258427997
 21
6.348933562701633
 31
0.0
 12
-9.64876611202896
 22
8.848937031456873
 32
0.0
 13
-9.64876611202896
 23
8.848937031456873
 33
0.0
  0
SOLID
  5
307F8
330
30598
100
AcDbEntity
  8
SK2
100
AcDbTrace
 10
-10.06538281745875
 20
14.85012958533096
 30
0.0
 11
-9.2320494841543
 21
14.85012264764721
 31
0.0
 12
-9.648736963857793
 22
12.35012611657572
 32
0.0
 13
-9.648736963857793
 23
12.35012611657572
 33
0.0
  0
MTEXT
  5
307F9
330
30598
100
AcDbEntity
  8
SK2
100
AcDbMText
 10
-12.08514437672841
 20
22.24745841741345
 30
0.0
 40
3.5
 41
0.0
 71
     5
 72
     1
  1
\A1;3.5
  7
MM_STANDARD
 11
0.0000083252205058
 21
0.9999999999653454
 31
0.0
 73
     1
 44
1.0
1001
ACAD
1000
MTEXTBEGIN
1070
    73
1070
     1
1070
    44
1040
1.0
1070
    74
1070
     0
1000
MTEXTEND
  0
POINT
  5
307FA
330
30598
100
AcDbEntity
  8
DEFPOINTS
 62
     0
100
AcDbPoint
 10
3.363127883715856
 20
8.848828704570157
 30
0.0
  0
POINT
  5
307FB
330
30598
100
AcDbEntity
  8
DEFPOINTS
 62
     0
100
AcDbPoint
 10
5.500000000000113
 20
12.35000000000011
 30
0.0
  0
POINT
  5
307FC
330
30598
100
AcDbEntity
  8
DEFPOINTS
 62
     0
100
AcDbPoint
 10
-9.648736963857793
 20
12.35012611657572
 30
0.0
  0
ENDBLK
  5
3076A
330
30598
100
AcDbEntity
  8
0
100
AcDbBlockEnd
  0
BLOCK
  5
3076B
330
305A6
100
AcDbEntity
  8
0
100
AcDbBlockBegin
  2
*D5
 70
     1
 10
0.0
 20
0.0
 30
0.0
  3
*D5
  1

  0
LINE
  5
305F2
330
305A6
100
AcDbEntity
  8
2
  6
ByBlock
100
AcDbLine
 10
7.699722753517107
 20
-8.729137330803382
 30
0.0
 11
7.699374659103844
 21
-29.6351548828671
 31
0.0
  0
LINE
  5
305F3
330
305A6
100
AcDbEntity
  8
2
  6
ByBlock
100
AcDbLine
 10
0.0000000000001137
 20
-6.5
 30
0.0
 11
-0.0003852083982531
 21
-29.63502667846917
 31
0.0
  0
LINE
  5
305F4
330
305A6
100
AcDbEntity
  8
2
  6
ByBlock
100
AcDbLine
 10
2.499635604306535
 20
-28.38506830474511
 30
0.0
 11
5.199395472501726
 21
-28.3851132569377
 31
0.0
  0
LINE
  5
305F5
330
305A6
100
AcDbEntity
  8
2
  6
ByBlock
100
AcDbLine
 10
7.699395472155179
 20
-28.38515488304037
 30
0.0
 11
22.66268368711164
 21
-28.385404028389
 31
0.0
  0
SOLID
  5
305F6
330
305A6
100
AcDbEntity
  8
2
100
AcDbTrace
 10
2.499642541990312
 20
-27.9684016381362
 30
0.0
 11
2.499628666622755
 21
-28.80173497135402
 31
0.0
 12
-0.0003643953469183
 22
-28.38502667864244
 32
0.0
 13
-0.0003643953469183
 23
-28.38502667864244
 33
0.0
  0
SOLID
  5
305F7
330
305A6
100
AcDbEntity
  8
2
100
AcDbTrace
 10
5.199402410185504
 20
-27.96844659032879
 30
0.0
 11
5.199388534817948
 21
-28.8017799235466
 31
0.0
 12
7.699395472155179
 22
-28.38515488304037
 32
0.0
 13
7.699395472155179
 23
-28.38515488304037
 33
0.0
  0
MTEXT
  5
305F8
330
305A6
100
AcDbEntity
  8
2
100
AcDbMText
 10
17.80599449048823
 20
-26.01032316204252
 30
0.0
 40
3.5
 41
0.0
 71
     5
 72
     1
  1
\A1;7.7
  7
MM_STANDARD
 11
0.9999999998613816
 21
-0.0000166504410678
 31
0.0
 73
     1
 44
1.0
1001
ACAD
1000
MTEXTBEGIN
1070
    73
1070
     1
1070
    44
1040
1.0
1070
    74
1070
     0
1000
MTEXTEND
  0
POINT
  5
305F9
330
305A6
100
AcDbEntity
  8
DEFPOINTS
 62
     0
100
AcDbPoint
 10
7.699722753517107
 20
-8.729137330803382
 30
0.0
  0
POINT
  5
305FA
330
305A6
100
AcDbEntity
  8
DEFPOINTS
 62
     0
100
AcDbPoint
 10
0.0000000000001137
 20
-6.5
 30
0.0
  0
POINT
  5
305FB
330
305A6
100
AcDbEntity
  8
DEFPOINTS
 62
     0
100
AcDbPoint
 10
-0.0003643953469183
 20
-28.38502667864244
 30
0.0
  0
ENDBLK
  5
3076C
330
305A6
100
AcDbEntity
  8
0
100
AcDbBlockEnd
  0
BLOCK
  5
3076D
330
305B3
100
AcDbEntity
  8
0
100
AcDbBlockBegin
  2
*D6
 70
     1
 10
0.0
 20
0.0
 30
0.0
  3
*D6
  1

  0
LINE
  5
30624
330
305B3
100
AcDbEntity
  8
SKVIEW2
  6
ByBlock
100
AcDbLine
 10
-32.3320714687588
 20
-15.14277004429046
 30
0.0
 11
-49.52607212459247
 21
-3.503576644542451
 31
0.0
  0
LINE
  5
30625
330
305B3
100
AcDbEntity
  8
SKVIEW2
  6
ByBlock
100
AcDbLine
 10
-59.87739064900742
 20
3.50357664454285
 30
0.0
 11
-61.94765440416879
 21
4.905007336395008
 31
0.0
  0
MTEXT
  5
30626
102
{ACAD_XDICTIONARY
360
3085B
102
}
330
305B3
100
AcDbEntity
  8
SKVIEW2
100
AcDbMText
 10
-36.14154842894592
 20
-9.127233247425387
 30
0.0
 40
3.5
 41
0.0
 71
     5
 72
     1
  1
\A1;\U+22057.5
  7
MM_STANDARD
 11
0.8281055020645398
 21
-0.5605722767408646
 31
0.0
 73
     1
 44
1.0
1001
ACAD
1000
MTEXTBEGIN
1070
    73
1070
     1
1070
    44
1040
1.0
1070
    74
1070
     0
1000
MTEXTEND
  0
LINE
  5
30627
330
305B3
100
AcDbEntity
  8
SKVIEW2
  6
ByBlock
100
AcDbLine
 10
-57.80712689384609
 20
2.102145952690686
 30
0.0
 11
-51.59633587975385
 21
-2.102145952690289
 31
0.0
  0
SOLID
  5
30628
330
305B3
100
AcDbEntity
  8
SKVIEW2
100
AcDbTrace
 10
-59.64381886703208
 20
3.848620603736406
 30
0.0
 11
-60.11096243098279
 21
3.158532685349288
 31
0.0
 12
-57.80712689384609
 22
2.102145952690686
 32
0.0
 13
-57.80712689384609
 23
2.102145952690686
 33
0.0
  0
SOLID
  5
30629
330
305B3
100
AcDbEntity
  8
SKVIEW2
100
AcDbTrace
 10
-49.29250034261713
 20
-3.158532685348891
 30
0.0
 11
-49.75964390656784
 21
-3.848620603736011
 31
0.0
 12
-51.59633587975385
 22
-2.102145952690289
 32
0.0
 13
-51.59633587975385
 23
-2.102145952690289
 33
0.0
  0
POINT
  5
3062A
330
305B3
100
AcDbEntity
  8
DEFPOINTS
 62
     0
100
AcDbPoint
 10
-51.59633587975385
 20
-2.102145952690289
 30
0.0
  0
POINT
  5
3062B
330
305B3
100
AcDbEntity
  8
DEFPOINTS
 62
     0
100
AcDbPoint
 10
-57.80712689384609
 20
2.102145952690686
 30
0.0
  0
ENDBLK
  5
3076E
330
305B3
100
AcDbEntity
  8
0
100
AcDbBlockEnd
  0
BLOCK
  5
3076F
330
305BE
100
AcDbEntity
  8
0
100
AcDbBlockBegin
  2
*D7
 70
     1
 10
0.0
 20
0.0
 30
0.0
  3
*D7
  1

  0
LINE
  5
3062C
330
305BE
100
AcDbEntity
  8
SKVIEW2
  6
ByBlock
100
AcDbLine
 10
-54.70173188679986
 20
-12.34999999999988
 30
0.0
 11
-75.78862670172473
 21
-12.34982444695076
 31
0.0
  0
LINE
  5
3062D
330
305BE
100
AcDbEntity
  8
SKVIEW2
  6
ByBlock
100
AcDbLine
 10
-54.70168788679984
 20
12.35000000000011
 30
0.0
 11
-75.78842106877823
 21
12.3501755517036
 31
0.0
  0
LINE
  5
3062E
330
305BE
100
AcDbEntity
  8
SKVIEW2
  6
ByBlock
100
AcDbLine
 10
-74.53860588871676
 20
-9.849834853563024
 30
0.0
 11
-74.53844188187281
 21
9.850165145264604
 31
0.0
  0
SOLID
  5
3062F
330
305BE
100
AcDbEntity
  8
SKVIEW2
100
AcDbTrace
 10
-74.95527255536899
 20
-9.849831384721147
 30
0.0
 11
-74.12193922206454
 21
-9.849838322404904
 31
0.0
 12
-74.53862670176801
 22
-12.34983485347639
 32
0.0
 13
-74.53862670176801
 23
-12.34983485347639
 33
0.0
  0
SOLID
  5
30630
330
305BE
100
AcDbEntity
  8
SKVIEW2
100
AcDbTrace
 10
-74.95510854852504
 20
9.850168614106484
 30
0.0
 11
-74.12177521522058
 21
9.850161676422731
 31
0.0
 12
-74.53842106882155
 22
12.35016514517797
 32
0.0
 13
-74.53842106882155
 23
12.35016514517797
 33
0.0
  0
MTEXT
  5
30631
330
305BE
100
AcDbEntity
  8
SKVIEW2
100
AcDbMText
 10
-77.38453583316275
 20
0.0000236936770178
 30
0.0
 40
3.5
 41
0.0
 71
     5
 72
     1
  1
\A1;%%c24.7
  7
MM_STANDARD
 11
0.0000083252205058
 21
0.9999999999653454
 31
0.0
 73
     1
 44
1.0
1001
ACAD
1000
MTEXTBEGIN
1070
    73
1070
     1
1070
    44
1040
1.0
1070
    74
1070
     0
1000
MTEXTEND
  0
POINT
  5
30632
330
305BE
100
AcDbEntity
  8
DEFPOINTS
 62
     0
100
AcDbPoint
 10
-54.70173188679986
 20
-12.34999999999988
 30
0.0
  0
POINT
  5
30633
330
305BE
100
AcDbEntity
  8
DEFPOINTS
 62
     0
100
AcDbPoint
 10
-54.70168788679984
 20
12.35000000000011
 30
0.0
  0
POINT
  5
30634
330
305BE
100
AcDbEntity
  8
DEFPOINTS
 62
     0
100
AcDbPoint
 10
-74.53842106882155
 20
12.35016514517797
 30
0.0
  0
ENDBLK
  5
30770
330
305BE
100
AcDbEntity
  8
0
100
AcDbBlockEnd
  0
ENDSEC
  0
SECTION
  2
ENTITIES
  0
LINE
  5
AA8
330
1F
100
AcDbEntity
  8
INFTOTAL
100
AcDbLine
 10
-98.17457471847591
 20
-3.365803987488107
 30
0.0
 11
-98.17457471847591
 21
40.22591840875064
 31
0.0
  0
LINE
  5
AA9
330
1F
100
AcDbEntity
  8
INFTOTAL
100
AcDbLine
 10
-98.17457471847591
 20
40.22591840875064
 30
0.0
 11
-41.77078834971689
 21
40.22591840875064
 31
0.0
  0
LINE
  5
AAA
330
1F
100
AcDbEntity
  8
INFTOTAL
100
AcDbLine
 10
-10.41217385225673
 20
-63.7591494202006
 30
0.0
 11
44.94660739882738
 21
-63.7591494202006
 31
0.0
  0
LINE
  5
AAB
330
1F
100
AcDbEntity
  8
INFTOTAL
100
AcDbLine
 10
44.94660739882738
 20
-63.7591494202006
 30
0.0
 11
44.94660739882738
 21
-23.31103322360605
 31
0.0
  0
POINT
  5
AFA
330
1F
100
AcDbEntity
  8
INSERT
100
AcDbPoint
 10
120.6316161181774
 20
18.06659889820604
 30
0.0
  0
POINT
  5
AFB
330
1F
100
AcDbEntity
  8
INSERT
100
AcDbPoint
 10
117.3316161181774
 20
20.61513489820602
 30
0.0
  0
POINT
  5
136D
330
1F
100
AcDbEntity
  8
CUT
100
AcDbPoint
 10
146.7557154741219
 20
18.03682647108094
 30
0.0
  0
POINT
  5
410F
330
1F
100
AcDbEntity
  8
0
 62
     7
370
     5
100
AcDbPoint
 10
694.5793644972614
 20
32.06429484497903
 30
0.0
  0
POINT
  5
4112
330
1F
100
AcDbEntity
  8
0
 62
     7
370
     5
100
AcDbPoint
 10
694.7265624972615
 20
3.587258844979031
 30
0.0
  0
POINT
  5
4BBB
330
1F
100
AcDbEntity
  8
0
 62
     7
370
     5
100
AcDbPoint
 10
928.2803214655135
 20
36.14402775200896
 30
0.0
  0
POINT
  5
4BBE
330
1F
100
AcDbEntity
  8
0
 62
     7
370
     5
100
AcDbPoint
 10
927.9725574655133
 20
-13.37717824799107
 30
0.0
  0
POINT
  5
4C3D
330
1F
100
AcDbEntity
  8
0
 62
     7
370
     5
100
AcDbPoint
 10
1260.468250897024
 20
34.18197122255629
 30
0.0
  0
POINT
  5
4C41
330
1F
100
AcDbEntity
  8
0
 62
     7
370
     5
100
AcDbPoint
 10
1192.987798897024
 20
34.42276422255628
 30
0.0
  0
POINT
  5
4CA6
330
1F
100
AcDbEntity
  8
0
 62
     7
370
     5
100
AcDbPoint
 10
1531.370477890708
 20
36.54134112174947
 30
0.0
  0
POINT
  5
4CAA
330
1F
100
AcDbEntity
  8
0
 62
     7
370
     5
100
AcDbPoint
 10
1454.809556890707
 20
33.56345212174947
 30
0.0
  0
POINT
  5
4D13
330
1F
100
AcDbEntity
  8
0
 62
     7
370
     5
100
AcDbPoint
 10
705.1278997494348
 20
-154.9600065549146
 30
0.0
  0
POINT
  5
4D16
330
1F
100
AcDbEntity
  8
0
 62
     7
370
     5
100
AcDbPoint
 10
704.8201357494348
 20
-214.4959135549147
 30
0.0
  0
POINT
  5
4D94
330
1F
100
AcDbEntity
  8
0
 62
     7
370
     5
100
AcDbPoint
 10
1787.824033288602
 20
31.89640981289145
 30
0.0
  0
POINT
  5
4D98
330
1F
100
AcDbEntity
  8
0
 62
     7
370
     5
100
AcDbPoint
 10
1715.838491288602
 20
29.33517681289146
 30
0.0
  0
POINT
  5
4DFF
330
1F
100
AcDbEntity
  8
0
 62
     3
370
     5
100
AcDbPoint
 10
1267.112797580298
 20
-159.0002427017263
 30
0.0
  0
POINT
  5
4E03
330
1F
100
AcDbEntity
  8
0
 62
     3
370
     5
100
AcDbPoint
 10
1194.506377580298
 20
-161.9343927017263
 30
0.0
  0
POINT
  5
4E6A
330
1F
100
AcDbEntity
  8
0
 62
     7
370
     5
100
AcDbPoint
 10
1544.710960196184
 20
-155.8112991948312
 30
0.0
  0
POINT
  5
4E6E
330
1F
100
AcDbEntity
  8
0
 62
     3
370
     5
100
AcDbPoint
 10
1456.283339196184
 20
-157.1011921948312
 30
0.0
  0
POINT
  5
4ED5
330
1F
100
AcDbEntity
  8
0
 62
     7
370
     5
100
AcDbPoint
 10
923.0975508391153
 20
-198.2811869580544
 30
0.0
  0
POINT
  5
4ED6
330
1F
100
AcDbEntity
  8
0
 62
     7
370
     5
100
AcDbPoint
 10
958.0975508391155
 20
-190.2811869580544
 30
0.0
  0
POINT
  5
4ED9
330
1F
100
AcDbEntity
  8
0
 62
     7
370
     5
100
AcDbPoint
 10
957.9030798391153
 20
-228.1917289580544
 30
0.0
  0
POINT
  5
4F57
330
1F
100
AcDbEntity
  8
0
 62
     7
370
     5
100
AcDbPoint
 10
450.9331152202981
 20
34.51099349283641
 30
0.0
  0
POINT
  5
4F5A
330
1F
100
AcDbEntity
  8
0
 62
     7
370
     5
100
AcDbPoint
 10
450.3789362202981
 20
-3.505724507163591
 30
0.0
  0
POINT
  5
4FD6
330
1F
100
AcDbEntity
  8
0
 62
     7
370
     5
100
AcDbPoint
 10
414.7355793530676
 20
-182.3643573412055
 30
0.0
  0
POINT
  5
4FD9
330
1F
100
AcDbEntity
  8
0
 62
     7
370
     5
100
AcDbPoint
 10
414.4028163530678
 20
-227.6410343412055
 30
0.0
  0
POINT
  5
5057
330
1F
100
AcDbEntity
  8
0
 62
     7
370
     5
100
AcDbPoint
 10
411.1596871436125
 20
-404.5108996529686
 30
0.0
  0
POINT
  5
505A
330
1F
100
AcDbEntity
  8
0
 62
     7
370
     5
100
AcDbPoint
 10
410.8519251436126
 20
-448.9004636529686
 30
0.0
  0
POINT
  5
50DA
330
1F
100
AcDbEntity
  8
0
 62
     7
370
     5
100
AcDbPoint
 10
696.3752719090887
 20
-405.5632373962983
 30
0.0
  0
POINT
  5
50DD
330
1F
100
AcDbEntity
  8
0
 62
     7
370
     5
100
AcDbPoint
 10
696.0675099090884
 20
-458.9718843962983
 30
0.0
  0
POINT
  5
515E
330
1F
100
AcDbEntity
  8
0
 62
     7
370
     5
100
AcDbPoint
 10
942.932329238496
 20
-403.2148016805113
 30
0.0
  0
POINT
  5
5161
330
1F
100
AcDbEntity
  8
0
 62
     3
370
     5
100
AcDbPoint
 10
942.624565238496
 20
-476.4638956805113
 30
0.0
  0
POINT
  5
51E0
330
1F
100
AcDbEntity
  8
0
 62
     7
370
     5
100
AcDbPoint
 10
380.0596661818993
 20
-637.2898669140809
 30
0.0
  0
POINT
  5
51E4
330
1F
100
AcDbEntity
  8
0
 62
     7
370
     5
100
AcDbPoint
 10
379.7269051818993
 20
-669.3765459140807
 30
0.0
  0
POINT
  5
5263
330
1F
100
AcDbEntity
  8
0
 62
     7
370
     5
100
AcDbPoint
 10
656.1064603234972
 20
-644.2320044768857
 30
0.0
  0
POINT
  5
5267
330
1F
100
AcDbEntity
  8
0
 62
     7
370
     5
100
AcDbPoint
 10
655.7736983234972
 20
-681.5918884768857
 30
0.0
  0
POINT
  5
52E6
330
1F
100
AcDbEntity
  8
0
 62
     7
370
     5
100
AcDbPoint
 10
921.5387707571863
 20
-642.2430056930917
 30
0.0
  0
POINT
  5
52EA
330
1F
100
AcDbEntity
  8
0
 62
     7
370
     5
100
AcDbPoint
 10
921.2310077571864
 20
-692.8111586930919
 30
0.0
  0
POINT
  5
536A
330
1F
100
AcDbEntity
  8
0
 62
     7
370
     5
100
AcDbPoint
 10
1232.563978885883
 20
-644.0998079544141
 30
0.0
  0
POINT
  5
536E
330
1F
100
AcDbEntity
  8
0
 62
     7
370
     5
100
AcDbPoint
 10
1232.256215885883
 20
-701.4147569544141
 30
0.0
  0
POINT
  5
53EE
330
1F
100
AcDbEntity
  8
0
 62
     7
370
     5
100
AcDbPoint
 10
1530.052638397992
 20
-643.475919607774
 30
0.0
  0
POINT
  5
53F2
330
1F
100
AcDbEntity
  8
0
 62
     7
370
     5
100
AcDbPoint
 10
1529.744875397992
 20
-702.095046607774
 30
0.0
  0
POINT
  5
5472
330
1F
100
AcDbEntity
  8
0
 62
     7
370
     5
100
AcDbPoint
 10
684.9908237883022
 20
27.90718926625232
 30
0.0
  0
POINT
  5
5475
330
1F
100
AcDbEntity
  8
0
 62
     7
370
     5
100
AcDbPoint
 10
685.1380217883022
 20
-0.5698467337476814
 30
0.0
  0
POINT
  5
C167
330
1F
100
AcDbEntity
  8
0
 62
     7
370
     5
100
AcDbPoint
 10
404.6381194571074
 20
31.25869005531058
 30
0.0
  0
POINT
  5
C170
330
1F
100
AcDbEntity
  8
0
 62
     7
370
     5
100
AcDbPoint
 10
404.6381194571074
 20
-40.40044294468938
 30
0.0
  0
POINT
  5
C178
330
1F
100
AcDbEntity
  8
0
 62
     7
370
     5
100
AcDbPoint
 10
693.6166312048997
 20
32.91651042690259
 30
0.0
  0
POINT
  5
C182
330
1F
100
AcDbEntity
  8
0
 62
     7
370
     5
100
AcDbPoint
 10
693.6166312048997
 20
-48.79153757309743
 30
0.0
  0
POINT
  5
C255
330
1F
100
AcDbEntity
  8
0
 62
     7
370
     5
100
AcDbPoint
 10
969.8580521302226
 20
-44.97487572475608
 30
0.0
  0
POINT
  5
C258
330
1F
100
AcDbEntity
  8
0
 62
     7
370
     5
100
AcDbPoint
 10
969.8580521302226
 20
15.7863642752439
 30
0.0
  0
POINT
  5
C2E1
330
1F
100
AcDbEntity
  8
0
 62
     7
370
     5
100
AcDbPoint
 10
1225.348704188238
 20
-52.24776141224177
 30
0.0
  0
POINT
  5
C2E4
330
1F
100
AcDbEntity
  8
0
 62
     7
370
     5
100
AcDbPoint
 10
1225.348704188238
 20
11.68361158775823
 30
0.0
  0
POINT
  5
C36E
330
1F
100
AcDbEntity
  8
0
 62
     7
370
     5
100
AcDbPoint
 10
1738.913115957113
 20
-214.1607529893734
 30
0.0
  0
POINT
  5
C377
330
1F
100
AcDbEntity
  8
0
 62
     3
370
     5
100
AcDbPoint
 10
1738.913115957113
 20
-286.8828409893735
 30
0.0
  0
POINT
  5
C42D
330
1F
100
AcDbEntity
  8
0
 62
     7
370
     5
100
AcDbPoint
 10
430.2380300204257
 20
-176.3158258460635
 30
0.0
  0
POINT
  5
C437
330
1F
100
AcDbEntity
  8
0
 62
     7
370
     5
100
AcDbPoint
 10
430.2380300204257
 20
-251.7521558460636
 30
0.0
  0
POINT
  5
C533
330
1F
100
AcDbEntity
  8
0
 62
     3
370
     5
100
AcDbPoint
 10
724.0359074233313
 20
-257.7049218719476
 30
0.0
  0
POINT
  5
C536
330
1F
100
AcDbEntity
  8
0
 62
     3
370
     5
100
AcDbPoint
 10
724.0359074233313
 20
-176.2890638719476
 30
0.0
  0
POINT
  5
C652
330
1F
100
AcDbEntity
  8
0
 62
     7
370
     5
100
AcDbPoint
 10
1006.718794540682
 20
-163.3460002642659
 30
0.0
  0
POINT
  5
C65C
330
1F
100
AcDbEntity
  8
0
 62
     7
370
     5
100
AcDbPoint
 10
1006.718794540682
 20
-271.4659132642659
 30
0.0
  0
POINT
  5
C79F
330
1F
100
AcDbEntity
  8
0
 62
     7
370
     5
100
AcDbPoint
 10
680.0273543974197
 20
-609.8288373451556
 30
0.0
  0
POINT
  5
C7A3
330
1F
100
AcDbEntity
  8
0
 62
     7
370
     5
100
AcDbPoint
 10
680.0273543974197
 20
-565.0385583451557
 30
0.0
  0
POINT
  5
C85B
330
1F
100
AcDbEntity
  8
0
 62
     7
370
     5
100
AcDbPoint
 10
981.854726218849
 20
-559.8376501395787
 30
0.0
  0
POINT
  5
C863
330
1F
100
AcDbEntity
  8
0
 62
     7
370
     5
100
AcDbPoint
 10
981.854726218849
 20
-623.6282751395788
 30
0.0
  0
POINT
  5
C930
330
1F
100
AcDbEntity
  8
0
 62
     7
370
     5
100
AcDbPoint
 10
1216.759569404171
 20
-624.5477225769705
 30
0.0
  0
POINT
  5
C934
330
1F
100
AcDbEntity
  8
0
 62
     7
370
     5
100
AcDbPoint
 10
1202.759569404171
 20
-560.1965945769704
 30
0.0
  0
POINT
  5
C935
330
1F
100
AcDbEntity
  8
0
 62
     7
370
     5
100
AcDbPoint
 10
1216.759569404171
 20
-551.6965945769704
 30
0.0
  0
POINT
  5
CA12
330
1F
100
AcDbEntity
  8
0
 62
     7
370
     5
100
AcDbPoint
 10
1458.761001673632
 20
-627.5597008720548
 30
0.0
  0
POINT
  5
CA16
330
1F
100
AcDbEntity
  8
0
 62
     7
370
     5
100
AcDbPoint
 10
1443.761001673632
 20
-571.7910898720547
 30
0.0
  0
POINT
  5
CA17
330
1F
100
AcDbEntity
  8
0
 62
     7
370
     5
100
AcDbPoint
 10
1458.761001673632
 20
-561.2910898720547
 30
0.0
  0
POINT
  5
CB25
330
1F
100
AcDbEntity
  8
0
 62
     7
370
     5
100
AcDbPoint
 10
1712.749014983699
 20
-637.6031663899041
 30
0.0
  0
POINT
  5
CB29
330
1F
100
AcDbEntity
  8
0
 62
     7
370
     5
100
AcDbPoint
 10
1712.749014983699
 20
-557.403845389904
 30
0.0
  0
POINT
  5
CC4B
330
1F
100
AcDbEntity
  8
0
 62
     7
370
     5
100
AcDbPoint
 10
1990.420039580178
 20
-639.3672597641932
 30
0.0
  0
POINT
  5
CC4F
330
1F
100
AcDbEntity
  8
0
 62
     7
370
     5
100
AcDbPoint
 10
1975.420039580178
 20
-571.8308197641934
 30
0.0
  0
POINT
  5
CC50
330
1F
100
AcDbEntity
  8
0
 62
     7
370
     5
100
AcDbPoint
 10
1990.420039580178
 20
-554.3308197641933
 30
0.0
  0
POINT
  5
D588
330
1F
100
AcDbEntity
  8
0
 62
     7
370
     5
100
AcDbPoint
 10
643.6762534904714
 20
-418.5518022854259
 30
0.0
  0
POINT
  5
D590
330
1F
100
AcDbEntity
  8
0
 62
     7
370
     5
100
AcDbPoint
 10
698.8426964904712
 20
-418.5518022854259
 30
0.0
  0
POINT
  5
D89C
330
1F
100
AcDbEntity
  8
0
 62
     7
370
     5
100
AcDbPoint
 10
918.4554480131433
 20
-418.2516555129392
 30
0.0
  0
POINT
  5
D8A3
330
1F
100
AcDbEntity
  8
0
 62
     7
370
     5
100
AcDbPoint
 10
998.0069960131432
 20
-418.2516555129392
 30
0.0
  0
POINT
  5
DAF2
330
1F
100
AcDbEntity
  8
0
 62
     7
370
     5
100
AcDbPoint
 10
1973.075374951941
 20
-60.50318164632196
 30
0.0
  0
POINT
  5
DAF5
330
1F
100
AcDbEntity
  8
0
 62
     7
370
     5
100
AcDbPoint
 10
1973.075374951941
 20
1.00896335367804
 30
0.0
  0
POINT
  5
DCBB
330
1F
100
AcDbEntity
  8
0
 62
     7
370
     5
100
AcDbPoint
 10
2228.446041001848
 20
-631.5679862622897
 30
0.0
  0
POINT
  5
DCBF
330
1F
100
AcDbEntity
  8
0
 62
     7
370
     5
100
AcDbPoint
 10
2228.446041001848
 20
-581.1017172622897
 30
0.0
  0
POINT
  5
DECF
330
1F
100
AcDbEntity
  8
0
 62
     7
370
     5
100
AcDbPoint
 10
2470.518201269178
 20
-576.6616946872675
 30
0.0
  0
POINT
  5
DED7
330
1F
100
AcDbEntity
  8
0
 62
     7
370
     5
100
AcDbPoint
 10
2470.518201269178
 20
-638.2022576872675
 30
0.0
  0
POINT
  5
E102
330
1F
100
AcDbEntity
  8
0
 62
     7
370
     5
100
AcDbPoint
 10
1449.716374392063
 20
-281.2570516923841
 30
0.0
  0
POINT
  5
E105
330
1F
100
AcDbEntity
  8
0
 62
     7
370
     5
100
AcDbPoint
 10
1449.716374392063
 20
-216.7933926923841
 30
0.0
  0
POINT
  5
E20E
330
1F
100
AcDbEntity
  8
0
 62
     7
370
     5
100
AcDbPoint
 10
1444.226360693917
 20
7.118696944552222
 30
0.0
  0
POINT
  5
E217
330
1F
100
AcDbEntity
  8
0
 62
     7
370
     5
100
AcDbPoint
 10
1444.226360693917
 20
-50.75492105544778
 30
0.0
  0
POINT
  5
E328
330
1F
100
AcDbEntity
  8
0
 62
     7
370
     5
100
AcDbPoint
 10
1674.557421043983
 20
-57.27887800498226
 30
0.0
  0
POINT
  5
E32B
330
1F
100
AcDbEntity
  8
0
 62
     7
370
     5
100
AcDbPoint
 10
1674.557421043983
 20
6.273895995017768
 30
0.0
  0
POINT
  5
E438
330
1F
100
AcDbEntity
  8
0
 62
     7
370
     5
100
AcDbPoint
 10
1221.741516539144
 20
-220.2351919986821
 30
0.0
  0
POINT
  5
E441
330
1F
100
AcDbEntity
  8
0
 62
     7
370
     5
100
AcDbPoint
 10
1221.741516539144
 20
-278.4038869986821
 30
0.0
  0
POINT
  5
E533
330
1F
100
AcDbEntity
  8
0
 62
     7
370
     5
100
AcDbPoint
 10
435.7613867553435
 20
-401.853645371286
 30
0.0
  0
POINT
  5
E537
330
1F
100
AcDbEntity
  8
0
 62
     7
370
     5
100
AcDbPoint
 10
336.0458187553437
 20
-401.853645371286
 30
0.0
  0
POINT
  5
E6D2
330
1F
100
AcDbEntity
  8
0
 62
     7
370
     5
100
AcDbPoint
 10
394.2075911881555
 20
-612.6712758301417
 30
0.0
  0
POINT
  5
E6D6
330
1F
100
AcDbEntity
  8
0
 62
     7
370
     5
100
AcDbPoint
 10
394.2075911881555
 20
-562.1020128301418
 30
0.0
  0
POINT
  5
12895
330
1F
100
AcDbEntity
  8
0
 62
     7
370
     5
100
AcDbPoint
 10
514.3576994832141
 20
-558.6978028967338
 30
0.0
  0
POINT
  5
1289C
330
1F
100
AcDbEntity
  8
0
 62
     7
370
     5
100
AcDbPoint
 10
514.3576994832141
 20
-524.0331488967338
 30
0.0
  0
POINT
  5
1289D
330
1F
100
AcDbEntity
  8
0
 62
     7
370
     5
100
AcDbPoint
 10
514.3576994832141
 20
-526.4631488967337
 30
0.0
  0
POINT
  5
1299A
330
1F
100
AcDbEntity
  8
0
 62
     7
370
     5
100
AcDbPoint
 10
273.0238152774181
 20
35.53337152575214
 30
0.0
  0
POINT
  5
1299D
330
1F
100
AcDbEntity
  8
0
 62
     7
370
     5
100
AcDbPoint
 10
273.0238152774181
 20
-16.30945047424785
 30
0.0
  0
POINT
  5
12A19
330
1F
100
AcDbEntity
  8
0
 62
     7
370
     5
100
AcDbPoint
 10
530.0071960054782
 20
34.28476473790624
 30
0.0
  0
POINT
  5
12A1A
330
1F
100
AcDbEntity
  8
0
 62
     7
370
     5
100
AcDbPoint
 10
530.0071960054782
 20
28.42976573790625
 30
0.0
  0
POINT
  5
12A1D
330
1F
100
AcDbEntity
  8
0
 62
     7
370
     5
100
AcDbPoint
 10
530.2789780054783
 20
-25.24190226209373
 30
0.0
  0
POINT
  5
12AA6
330
1F
100
AcDbEntity
  8
0
 62
     7
370
     5
100
AcDbPoint
 10
803.5390081451089
 20
38.33315219974614
 30
0.0
  0
POINT
  5
12AA7
330
1F
100
AcDbEntity
  8
0
 62
     7
370
     5
100
AcDbPoint
 10
803.5390081451089
 20
32.44315219974615
 30
0.0
  0
POINT
  5
12AAA
330
1F
100
AcDbEntity
  8
0
 62
     7
370
     5
100
AcDbPoint
 10
803.5390081451089
 20
-33.77549080025384
 30
0.0
  0
POINT
  5
12B2B
330
1F
100
AcDbEntity
  8
0
 62
     7
370
     5
100
AcDbPoint
 10
246.4739127018369
 20
-292.0641451649423
 30
0.0
  0
POINT
  5
12B40
330
1F
100
AcDbEntity
  8
0
 62
     7
370
     5
100
AcDbPoint
 10
246.1857397018369
 20
-234.4124741649423
 30
0.0
  0
POINT
  5
12B41
330
1F
100
AcDbEntity
  8
0
 62
     7
370
     5
100
AcDbPoint
 10
246.1857397018369
 20
-239.6974741649422
 30
0.0
  0
POINT
  5
12BA1
330
1F
100
AcDbEntity
  8
0
 62
     7
370
     5
100
AcDbPoint
 10
503.361992156836
 20
-293.942128217062
 30
0.0
  0
POINT
  5
12BB5
330
1F
100
AcDbEntity
  8
0
 62
     7
370
     5
100
AcDbPoint
 10
503.361992156836
 20
-232.058278217062
 30
0.0
  0
POINT
  5
12BB6
330
1F
100
AcDbEntity
  8
0
 62
     7
370
     5
100
AcDbPoint
 10
503.361992156836
 20
-237.898279217062
 30
0.0
  0
POINT
  5
12C16
330
1F
100
AcDbEntity
  8
0
 62
     7
370
     5
100
AcDbPoint
 10
773.9808530456294
 20
-320.1483272428673
 30
0.0
  0
POINT
  5
12C17
330
1F
100
AcDbEntity
  8
0
 62
     7
370
     5
100
AcDbPoint
 10
776.9808530456294
 20
-286.8983272428673
 30
0.0
  0
POINT
  5
12C2B
330
1F
100
AcDbEntity
  8
0
 62
     7
370
     5
100
AcDbPoint
 10
776.9808530456294
 20
-225.7099922428672
 30
0.0
  0
POINT
  5
12C8B
330
1F
100
AcDbEntity
  8
0
 62
     7
370
     5
100
AcDbPoint
 10
258.823540701837
 20
-572.0746798648522
 30
0.0
  0
POINT
  5
12C92
330
1F
100
AcDbEntity
  8
0
 62
     7
370
     5
100
AcDbPoint
 10
258.8235127018369
 20
-543.1961818648521
 30
0.0
  0
POINT
  5
12C93
330
1F
100
AcDbEntity
  8
0
 62
     7
370
     5
100
AcDbPoint
 10
258.8235127018369
 20
-544.8461818648523
 30
0.0
  0
POINT
  5
14051
330
1F
100
AcDbEntity
  8
0
 62
     7
370
     5
100
AcDbPoint
 10
690.9556627618442
 20
-532.2047645406313
 30
0.0
  0
POINT
  5
14058
330
1F
100
AcDbEntity
  8
0
 62
     7
370
     5
100
AcDbPoint
 10
690.9556627618442
 20
-497.5401105406314
 30
0.0
  0
POINT
  5
14059
330
1F
100
AcDbEntity
  8
0
 62
     7
370
     5
100
AcDbPoint
 10
690.9556627618442
 20
-499.9701105406314
 30
0.0
  0
POINT
  5
175ED
330
1F
100
AcDbEntity
  8
0
 62
     7
370
     5
100
AcDbPoint
 10
329.8984453452037
 20
37.75833189686949
 30
0.0
  0
POINT
  5
175F0
330
1F
100
AcDbEntity
  8
0
 62
     7
370
     5
100
AcDbPoint
 10
329.8984453452037
 20
-10.8089411031305
 30
0.0
  0
POINT
  5
17673
330
1F
100
AcDbEntity
  8
0
 62
     7
370
     5
100
AcDbPoint
 10
651.3183805762602
 20
33.1650220174441
 30
0.0
  0
POINT
  5
17677
330
1F
100
AcDbEntity
  8
0
 62
     7
370
     5
100
AcDbPoint
 10
651.3183805762602
 20
-21.99992098255592
 30
0.0
  0
POINT
  5
1770F
330
1F
100
AcDbEntity
  8
0
 62
     7
370
     5
100
AcDbPoint
 10
1014.212196760976
 20
-27.33731747488401
 30
0.0
  0
POINT
  5
17718
330
1F
100
AcDbEntity
  8
0
 62
     7
370
     5
100
AcDbPoint
 10
1014.212196760976
 20
30.00474752511599
 30
0.0
  0
POINT
  5
17790
330
1F
100
AcDbEntity
  8
0
 62
     7
370
     5
100
AcDbPoint
 10
1421.356448019548
 20
-26.9349024739204
 30
0.0
  0
POINT
  5
1779E
330
1F
100
AcDbEntity
  8
0
 62
     7
370
     5
100
AcDbPoint
 10
1421.356448019548
 20
21.9806675260796
 30
0.0
  0
POINT
  5
1779F
330
1F
100
AcDbEntity
  8
0
 62
     7
370
     5
100
AcDbPoint
 10
1413.056448019548
 20
21.9806675260796
 30
0.0
  0
POINT
  5
1781A
330
1F
100
AcDbEntity
  8
0
 62
     7
370
     5
100
AcDbPoint
 10
1720.045575829729
 20
23.92611327127983
 30
0.0
  0
POINT
  5
1781D
330
1F
100
AcDbEntity
  8
0
 62
     7
370
     5
100
AcDbPoint
 10
1720.045575829729
 20
-24.59612772872018
 30
0.0
  0
POINT
  5
178A0
330
1F
100
AcDbEntity
  8
0
 62
     7
370
     5
100
AcDbPoint
 10
359.2272976195882
 20
-230.0319820838431
 30
0.0
  0
POINT
  5
178A3
330
1F
100
AcDbEntity
  8
0
 62
     7
370
     5
100
AcDbPoint
 10
359.2273026195881
 20
-278.361407083843
 30
0.0
  0
POINT
  5
17926
330
1F
100
AcDbEntity
  8
0
 62
     7
370
     5
100
AcDbPoint
 10
669.6174077737214
 20
-230.0319820838431
 30
0.0
  0
POINT
  5
17929
330
1F
100
AcDbEntity
  8
0
 62
     7
370
     5
100
AcDbPoint
 10
669.6174087737214
 20
-278.361407083843
 30
0.0
  0
POINT
  5
179AC
330
1F
100
AcDbEntity
  8
0
 62
     7
370
     5
100
AcDbPoint
 10
1023.306532042488
 20
-235.6329118492064
 30
0.0
  0
POINT
  5
179AF
330
1F
100
AcDbEntity
  8
0
 62
     7
370
     5
100
AcDbPoint
 10
1023.306532042488
 20
-284.2001848492064
 30
0.0
  0
POINT
  5
17A32
330
1F
100
AcDbEntity
  8
0
 62
     7
370
     5
100
AcDbPoint
 10
1352.196645196622
 20
-235.6329118492064
 30
0.0
  0
POINT
  5
17A36
330
1F
100
AcDbEntity
  8
0
 62
     7
370
     5
100
AcDbPoint
 10
1352.196645196622
 20
-290.7980508492065
 30
0.0
  0
POINT
  5
17AD1
330
1F
100
AcDbEntity
  8
0
 62
     7
370
     5
100
AcDbPoint
 10
1715.365188016996
 20
-237.9716865944066
 30
0.0
  0
POINT
  5
17AD4
330
1F
100
AcDbEntity
  8
0
 62
     7
370
     5
100
AcDbPoint
 10
1715.365188016996
 20
-286.5389595944066
 30
0.0
  0
POINT
  5
17B57
330
1F
100
AcDbEntity
  8
0
 62
     7
370
     5
100
AcDbPoint
 10
331.5674947966618
 20
-480.7206417139288
 30
0.0
  0
POINT
  5
17B5A
330
1F
100
AcDbEntity
  8
0
 62
     7
370
     5
100
AcDbPoint
 10
331.5674987966619
 20
-532.8452337139288
 30
0.0
  0
POINT
  5
17BD8
330
1F
100
AcDbEntity
  8
0
 62
     7
370
     5
100
AcDbPoint
 10
667.4370134195751
 20
-483.059416459129
 30
0.0
  0
POINT
  5
17BDB
330
1F
100
AcDbEntity
  8
0
 62
     7
370
     5
100
AcDbPoint
 10
667.4370134195751
 20
-535.184008459129
 30
0.0
  0
POINT
  5
17C59
330
1F
100
AcDbEntity
  8
0
 62
     7
370
     5
100
AcDbPoint
 10
1032.757662940594
 20
-479.9258798209486
 30
0.0
  0
POINT
  5
17C5C
330
1F
100
AcDbEntity
  8
0
 62
     7
370
     5
100
AcDbPoint
 10
1032.757665940594
 20
-532.1255208209487
 30
0.0
  0
POINT
  5
17CDA
330
1F
100
AcDbEntity
  8
0
 62
     7
370
     5
100
AcDbPoint
 10
1350.446793750775
 20
-475.452849330548
 30
0.0
  0
POINT
  5
17CDE
330
1F
100
AcDbEntity
  8
0
 62
     7
370
     5
100
AcDbPoint
 10
1350.446795750775
 20
-535.7299113305479
 30
0.0
  0
POINT
  5
17D79
330
1F
100
AcDbEntity
  8
0
 62
     7
370
     5
100
AcDbPoint
 10
1724.816312373689
 20
-484.6034323315118
 30
0.0
  0
POINT
  5
17D7C
330
1F
100
AcDbEntity
  8
0
 62
     7
370
     5
100
AcDbPoint
 10
1724.816312373689
 20
-536.8030733315118
 30
0.0
  0
POINT
  5
17DFA
330
1F
100
AcDbEntity
  8
0
 62
     7
370
     5
100
AcDbPoint
 10
292.6784219762804
 20
-717.1006079596696
 30
0.0
  0
POINT
  5
17DFE
330
1F
100
AcDbEntity
  8
0
 62
     7
370
     5
100
AcDbPoint
 10
292.6784249762804
 20
-777.3013929596698
 30
0.0
  0
POINT
  5
17E99
330
1F
100
AcDbEntity
  8
0
 62
     7
370
     5
100
AcDbPoint
 10
668.1772397573285
 20
-728.8489624009062
 30
0.0
  0
POINT
  5
17E9C
330
1F
100
AcDbEntity
  8
0
 62
     7
370
     5
100
AcDbPoint
 10
668.1772397573285
 20
-780.9735614009062
 30
0.0
  0
POINT
  5
17F19
330
1F
100
AcDbEntity
  8
0
 62
     7
370
     5
100
AcDbPoint
 10
1014.680140542377
 20
-727.4779055808943
 30
0.0
  0
POINT
  5
17F1E
330
1F
100
AcDbEntity
  8
0
 62
     7
370
     5
100
AcDbPoint
 10
1014.680139542377
 20
-792.8842465808943
 30
0.0
  0
POINT
  5
17F82
330
1F
100
AcDbEntity
  8
0
 62
     7
370
     5
100
AcDbPoint
 10
1363.039112172955
 20
-778.9168242007557
 30
0.0
  0
POINT
  5
17F8B
330
1F
100
AcDbEntity
  8
0
 62
     7
370
     5
100
AcDbPoint
 10
1363.039112172955
 20
-712.5175752007558
 30
0.0
  0
POINT
  5
17FE8
330
1F
100
AcDbEntity
  8
0
 62
     7
370
     5
100
AcDbPoint
 10
1718.366870633272
 20
-723.7460446679111
 30
0.0
  0
POINT
  5
17FEB
330
1F
100
AcDbEntity
  8
0
 62
     7
370
     5
100
AcDbPoint
 10
1718.366871633272
 20
-789.389202667911
 30
0.0
  0
POINT
  5
18051
330
1F
100
AcDbEntity
  8
0
 62
     7
370
     5
100
AcDbPoint
 10
319.6383345054979
 20
-967.5893901625666
 30
0.0
  0
POINT
  5
18054
330
1F
100
AcDbEntity
  8
0
 62
     7
370
     5
100
AcDbPoint
 10
319.6383355054979
 20
-1032.973459162567
 30
0.0
  0
POINT
  5
180BA
330
1F
100
AcDbEntity
  8
0
 62
     7
370
     5
100
AcDbPoint
 10
680.5370709864296
 20
-963.1934877025301
 30
0.0
  0
POINT
  5
180BB
330
1F
100
AcDbEntity
  8
0
 62
     7
370
     5
100
AcDbPoint
 10
629.5370709864297
 20
-967.19348770253
 30
0.0
  0
POINT
  5
180BE
330
1F
100
AcDbEntity
  8
0
 62
     7
370
     5
100
AcDbPoint
 10
680.5370759864297
 20
-1028.58231170253
 30
0.0
  0
POINT
  5
18125
330
1F
100
AcDbEntity
  8
0
 62
     7
370
     5
100
AcDbPoint
 10
1025.504908559649
 20
-985.5078641637318
 30
0.0
  0
POINT
  5
18128
330
1F
100
AcDbEntity
  8
0
 62
     7
370
     5
100
AcDbPoint
 10
935.4436665596491
 20
-985.5078641637318
 30
0.0
  0
POINT
  5
181A3
330
1F
100
AcDbEntity
  8
0
 62
     7
370
     5
100
AcDbPoint
 10
1372.616021513803
 20
-994.9832624236179
 30
0.0
  0
POINT
  5
181A6
330
1F
100
AcDbEntity
  8
0
 62
     7
370
     5
100
AcDbPoint
 10
1282.554779513803
 20
-994.9832624236179
 30
0.0
  0
POINT
  5
18221
330
1F
100
AcDbEntity
  8
0
 62
     7
370
     5
100
AcDbPoint
 10
1726.183901955964
 20
-986.4057379766256
 30
0.0
  0
POINT
  5
18224
330
1F
100
AcDbEntity
  8
0
 62
     7
370
     5
100
AcDbPoint
 10
1636.122660955965
 20
-987.7852319766256
 30
0.0
  0
POINT
  5
1829F
330
1F
100
AcDbEntity
  8
0
 62
     7
370
     5
100
AcDbPoint
 10
315.0667151318947
 20
-1233.667447704089
 30
0.0
  0
POINT
  5
182A2
330
1F
100
AcDbEntity
  8
0
 62
     7
370
     5
100
AcDbPoint
 10
225.0054731318947
 20
-1234.512880704089
 30
0.0
  0
POINT
  5
1831D
330
1F
100
AcDbEntity
  8
0
 62
     7
370
     5
100
AcDbPoint
 10
666.5716365787308
 20
-1228.374582524101
 30
0.0
  0
POINT
  5
18320
330
1F
100
AcDbEntity
  8
0
 62
     7
370
     5
100
AcDbPoint
 10
576.510395578731
 20
-1229.476628524102
 30
0.0
  0
POINT
  5
1C1E5
330
1F
100
AcDbEntity
  8
0
 62
     7
370
     5
100
AcDbPoint
 10
565.1931729999843
 20
-252.0327741049043
 30
0.0
  0
POINT
  5
1C1E8
330
1F
100
AcDbEntity
  8
0
 62
     7
370
     5
100
AcDbPoint
 10
571.0793859999843
 20
-171.4824511049043
 30
0.0
  0
POINT
  5
1C393
330
1F
100
AcDbEntity
  8
0
 62
     7
370
     5
100
AcDbPoint
 10
852.7529560248229
 20
-161.0786730235244
 30
0.0
  0
POINT
  5
1C3A1
330
1F
100
AcDbEntity
  8
0
 62
     7
370
     5
100
AcDbPoint
 10
853.6840430248233
 20
-256.0650500235244
 30
0.0
  0
POINT
  5
1C476
330
1F
100
AcDbEntity
  8
0
 62
     7
370
     5
100
AcDbPoint
 10
1100.710829294269
 20
-179.9690311044011
 30
0.0
  0
POINT
  5
1C484
330
1F
100
AcDbEntity
  8
0
 62
     7
370
     5
100
AcDbPoint
 10
1097.008556294269
 20
-246.8144071044011
 30
0.0
  0
POINT
  5
1C54E
330
1F
100
AcDbEntity
  8
0
 62
     7
370
     5
100
AcDbPoint
 10
327.4559894717282
 20
-242.3690707660675
 30
0.0
  0
POINT
  5
1C54F
330
1F
100
AcDbEntity
  8
0
 62
     7
370
     5
100
AcDbPoint
 10
323.7573724717281
 20
-242.3490727660675
 30
0.0
  0
POINT
  5
1C632
330
1F
100
AcDbEntity
  8
0
 62
     7
370
     5
100
AcDbPoint
 10
301.1069300782104
 20
37.7626127561465
 30
0.0
  0
POINT
  5
1C640
330
1F
100
AcDbEntity
  8
0
 62
     7
370
     5
100
AcDbPoint
 10
301.4480630782105
 20
-36.93915824385351
 30
0.0
  0
POINT
  5
1C6B9
330
1F
100
AcDbEntity
  8
0
 62
     1
370
     5
100
AcDbPoint
 10
582.4029449258979
 20
29.4620864008466
 30
0.0
  0
POINT
  5
1C6C7
330
1F
100
AcDbEntity
  8
0
 62
     7
370
     5
100
AcDbPoint
 10
567.6899119258981
 20
-44.52450559915339
 30
0.0
  0
POINT
  5
1C740
330
1F
100
AcDbEntity
  8
0
 62
     7
370
     5
100
AcDbPoint
 10
838.8170717714807
 20
31.21800268959555
 30
0.0
  0
POINT
  5
1C74E
330
1F
100
AcDbEntity
  8
0
 62
     7
370
     5
100
AcDbPoint
 10
830.8810477714807
 20
-42.18143931040443
 30
0.0
  0
POINT
  5
1C7C7
330
1F
100
AcDbEntity
  8
0
 62
     7
370
     5
100
AcDbPoint
 10
1082.103046320498
 20
26.65705560741793
 30
0.0
  0
POINT
  5
1C850
330
1F
100
AcDbEntity
  8
0
 62
     7
370
     5
100
AcDbPoint
 10
1320.708032031059
 20
-54.79519568133104
 30
0.0
  0
POINT
  5
1C851
330
1F
100
AcDbEntity
  8
0
 62
     7
370
     5
100
AcDbPoint
 10
1317.008086031059
 20
-54.77519668133105
 30
0.0
  0
POINT
  5
1C9A2
330
1F
100
AcDbEntity
  8
0
 62
     7
370
     5
100
AcDbPoint
 10
1351.994597785224
 20
-177.9923767989125
 30
0.0
  0
POINT
  5
1C9B0
330
1F
100
AcDbEntity
  8
0
 62
     7
370
     5
100
AcDbPoint
 10
1347.069666785224
 20
-246.9150937989126
 30
0.0
  0
POINT
  5
1C9B1
330
1F
100
AcDbEntity
  8
0
 62
     7
370
     5
100
AcDbPoint
 10
1343.369666785224
 20
-246.9154057989126
 30
0.0
  0
POINT
  5
1CBC0
330
1F
100
AcDbEntity
  8
0
 62
     7
370
     5
100
AcDbPoint
 10
317.2946666194903
 20
-384.0973382926297
 30
0.0
  0
POINT
  5
1CBCE
330
1F
100
AcDbEntity
  8
0
 62
     7
370
     5
100
AcDbPoint
 10
305.7896836194903
 20
-451.8667572926297
 30
0.0
  0
POINT
  5
1CE43
330
1F
100
AcDbEntity
  8
0
 62
     7
370
     5
100
AcDbPoint
 10
610.2304875856865
 20
-368.9630837278421
 30
0.0
  0
POINT
  5
1CE51
330
1F
100
AcDbEntity
  8
0
 62
     7
370
     5
100
AcDbPoint
 10
597.1811595856864
 20
-452.2435397278421
 30
0.0
  0
POINT
  5
1CFFB
330
1F
100
AcDbEntity
  8
0
 62
     7
370
     5
100
AcDbPoint
 10
839.2202580447737
 20
-378.5041957660768
 30
0.0
  0
POINT
  5
1D009
330
1F
100
AcDbEntity
  8
0
 62
     7
370
     5
100
AcDbPoint
 10
825.6021750447738
 20
-448.0865117660767
 30
0.0
  0
POINT
  5
1D1B5
330
1F
100
AcDbEntity
  8
0
 62
     7
370
     5
100
AcDbPoint
 10
1100.187375054744
 20
-364.0090280464956
 30
0.0
  0
POINT
  5
1D1C3
330
1F
100
AcDbEntity
  8
0
 62
     7
370
     5
100
AcDbPoint
 10
1086.025427054744
 20
-454.4328780464955
 30
0.0
  0
POINT
  5
1D374
330
1F
100
AcDbEntity
  8
0
 62
     7
370
     5
100
AcDbPoint
 10
1381.669306853374
 20
-372.7791370028926
 30
0.0
  0
POINT
  5
1D382
330
1F
100
AcDbEntity
  8
0
 62
     7
370
     5
100
AcDbPoint
 10
1368.476322853373
 20
-450.1870130028925
 30
0.0
  0
POINT
  5
1D6D5
330
1F
100
AcDbEntity
  8
0
 62
     7
370
     5
100
AcDbPoint
 10
555.980533625745
 20
-586.1972507296687
 30
0.0
  0
POINT
  5
1D6E2
330
1F
100
AcDbEntity
  8
0
 62
     7
370
     5
100
AcDbPoint
 10
545.2688206257452
 20
-642.7388317296686
 30
0.0
  0
POINT
  5
1D913
330
1F
100
AcDbEntity
  8
0
 62
     7
370
     5
100
AcDbPoint
 10
811.7646110501747
 20
-579.6655508098913
 30
0.0
  0
POINT
  5
1D920
330
1F
100
AcDbEntity
  8
0
 62
     7
370
     5
100
AcDbPoint
 10
805.5538980501744
 20
-635.4594578098913
 30
0.0
  0
POINT
  5
1DA40
330
1F
100
AcDbEntity
  8
0
 62
     7
370
     5
100
AcDbPoint
 10
298.0831789389279
 20
-586.3373810040569
 30
0.0
  0
POINT
  5
1E2C1
330
1F
100
AcDbEntity
  8
0
 62
     7
370
     5
100
AcDbPoint
 10
1353.213944337289
 20
-176.2661773838116
 30
0.0
  0
POINT
  5
1E2CF
330
1F
100
AcDbEntity
  8
0
 62
     7
370
     5
100
AcDbPoint
 10
1348.289013337289
 20
-245.1888943838117
 30
0.0
  0
POINT
  5
1E2D0
330
1F
100
AcDbEntity
  8
0
 62
     7
370
     5
100
AcDbPoint
 10
1344.589013337289
 20
-245.1892063838116
 30
0.0
  0
POINT
  5
1E4A3
330
1F
100
AcDbEntity
  8
0
 62
     7
370
     5
100
AcDbPoint
 10
1326.152836266696
 20
34.20326680208106
 30
0.0
  0
POINT
  5
1E4B1
330
1F
100
AcDbEntity
  8
0
 62
     7
370
     5
100
AcDbPoint
 10
1326.493969266696
 20
-40.49850419791893
 30
0.0
  0
DIMENSION
  5
30443
330
1F
100
AcDbEntity
  8
SK2
100
AcDbDimension
  2
*D2
 10
-13.77634585330065
 20
6.500000000000115
 30
0.0
 11
-13.77634585330065
 21
0.0
 31
0.0
 70
   161
  1
%%c<>
 71
     5
 42
13.00000000000011
  3
MM_STANDARD
100
AcDbAlignedDimension
 13
0.0000000000001137
 23
-6.5
 33
0.0
 14
0.0000000000001137
 24
6.500000000000111
 34
0.0
1001
ACAD
1000
DSTYLE
1002
{
1070
    78
1070
     9
1070
    79
1070
     2
1070
    90
1070
     1
1070
   172
1070
     1
1070
   345
1005
14
1070
   346
1005
14
1070
   347
1005
14
1002
}
1001
ACAD_DSTYLE_DIMARC_LENGTH_SYMBOL
1070
   379
1070
     1
1001
ACAD_DSTYLE_DIM_LINETYPE
1070
   380
1005
14
1001
ACAD_DSTYLE_DIM_EXT1_LINETYPE
1070
   381
1005
14
1001
ACAD_DSTYLE_DIM_EXT2_LINETYPE
1070
   382
1005
14
  0
DIMENSION
  5
30444
330
1F
100
AcDbEntity
  8
2
100
AcDbDimension
  2
*D3
 10
5.499484916636617
 20
-18.38511825217302
 30
0.0
 11
17.55875030970376
 21
-18.3853190442608
 31
0.0
 70
   160
 71
     5
 42
2.20007706023421
  3
MM_STANDARD
100
AcDbAlignedDimension
 13
7.699722753517107
 23
-8.729137330803382
 33
0.0
 14
5.499585404024514
 24
-12.34999957438748
 34
0.0
 50
179.9990459999997
100
AcDbRotatedDimension
1001
ACAD
1000
DSTYLE
1002
{
1070
   279
1070
     0
1070
    78
1070
     9
1070
    79
1070
     2
1070
    90
1070
     1
1070
   172
1070
     1
1070
   345
1005
14
1070
   346
1005
14
1070
   347
1005
14
1002
}
1001
ACAD_DSTYLE_DIMARC_LENGTH_SYMBOL
1070
   379
1070
     1
1001
ACAD_DSTYLE_DIM_LINETYPE
1070
   380
1005
14
1001
ACAD_DSTYLE_DIM_EXT1_LINETYPE
1070
   381
1005
14
1001
ACAD_DSTYLE_DIM_EXT2_LINETYPE
1070
   382
1005
14
  0
DIMENSION
  5
30445
330
1F
100
AcDbEntity
  8
SK2
100
AcDbDimension
  2
*D4
 10
-9.648736963857793
 20
12.35012611657572
 30
0.0
 11
-9.648654566552837
 21
22.24743813309851
 31
0.0
 70
   160
 71
     5
 42
3.501189085240181
  3
MM_STANDARD
100
AcDbAlignedDimension
 13
3.363127883715856
 23
8.848828704570157
 33
0.0
 14
5.500000000000113
 24
12.35000000000011
 34
0.0
 50
89.99952300000151
100
AcDbRotatedDimension
1001
ACAD
1000
DSTYLE
1002
{
1070
    78
1070
     9
1070
    79
1070
     2
1070
    90
1070
     1
1070
   172
1070
     1
1070
   345
1005
14
1070
   346
1005
14
1070
   347
1005
14
1002
}
1001
ACAD_DSTYLE_DIMARC_LENGTH_SYMBOL
1070
   379
1070
     1
1001
ACAD_DSTYLE_DIM_LINETYPE
1070
   380
1005
14
1001
ACAD_DSTYLE_DIM_EXT1_LINETYPE
1070
   381
1005
14
1001
ACAD_DSTYLE_DIM_EXT2_LINETYPE
1070
   382
1005
14
  0
DIMENSION
  5
30446
330
1F
100
AcDbEntity
  8
2
100
AcDbDimension
  2
*D5
 10
-0.0003643953469183
 20
-28.38502667864244
 30
0.0
 11
17.8059549456907
 21
-28.3853231617133
 31
0.0
 70
   160
 71
     5
 42
7.699759868569427
  3
MM_STANDARD
100
AcDbAlignedDimension
 13
7.699722753517107
 23
-8.729137330803382
 33
0.0
 14
0.0000000000001137
 24
-6.5
 34
0.0
 50
179.9990459999997
100
AcDbRotatedDimension
1001
ACAD
1000
DSTYLE
1002
{
1070
   279
1070
     0
1070
    78
1070
     9
1070
    79
1070
     2
1070
    90
1070
     1
1070
   172
1070
     1
1070
   345
1005
14
1070
   346
1005
14
1070
   347
1005
14
1002
}
1001
ACAD_DSTYLE_DIMARC_LENGTH_SYMBOL
1070
   379
1070
     1
1001
ACAD_DSTYLE_DIM_LINETYPE
1070
   380
1005
14
1001
ACAD_DSTYLE_DIM_EXT1_LINETYPE
1070
   381
1005
14
1001
ACAD_DSTYLE_DIM_EXT2_LINETYPE
1070
   382
1005
14
  0
LINE
  5
30447
330
1F
100
AcDbEntity
  8
4
100
AcDbLine
 10
-2.145303999999895
 20
0.0
 30
0.0
 11
10.65333599999997
 21
0.0
 31
0.0
  0
LINE
  5
30448
330
1F
100
AcDbEntity
  8
1
100
AcDbLine
 10
5.222831999999812
 20
-4.114418999999883
 30
0.0
 11
5.777167999999959
 21
-4.114418999999883
 31
0.0
  0
DIMENSION
  5
30449
330
1F
100
AcDbEntity
  8
SKVIEW2
100
AcDbDimension
  2
*D6
 10
-57.80712689384609
 20
2.102145952690686
 30
0.0
 11
-37.73694382547854
 21
-11.48403139933939
 31
0.0
 70
   163
 71
     5
 42
-1.0
  3
MM_STANDARD
100
AcDbDiametricDimension
 15
-51.59633587975385
 25
-2.102145952690289
 35
0.0
 40
0.0
1001
ACAD
1000
DSTYLE
1002
{
1070
    78
1070
     9
1070
    79
1070
     2
1070
    90
1070
     1
1070
   172
1070
     1
1070
   345
1005
14
1070
   346
1005
14
1070
   347
1005
14
1002
}
1001
ACAD_DSTYLE_DIMARC_LENGTH_SYMBOL
1070
   379
1070
     1
1001
ACAD_DSTYLE_DIM_LINETYPE
1070
   380
1005
14
1001
ACAD_DSTYLE_DIM_EXT1_LINETYPE
1070
   381
1005
14
1001
ACAD_DSTYLE_DIM_EXT2_LINETYPE
1070
   382
1005
14
  0
DIMENSION
  5
3044A
330
1F
100
AcDbEntity
  8
SKVIEW2
100
AcDbDimension
  2
*D7
 10
-74.53842106882155
 20
12.35016514517797
 30
0.0
 11
-74.53852388666968
 21
0.0
 31
0.0
 70
   160
  1
%%c<>
 71
     5
 42
24.69999999951033
  3
MM_STANDARD
100
AcDbAlignedDimension
 13
-54.70173188679985
 23
-12.34999999999988
 33
0.0
 14
-54.70168788679984
 24
12.35000000000011
 34
0.0
 50
89.99952300000151
100
AcDbRotatedDimension
1001
ACAD
1000
DSTYLE
1002
{
1070
    78
1070
     9
1070
    79
1070
     2
1070
    90
1070
     1
1070
   172
1070
     1
1070
   345
1005
14
1070
   346
1005
14
1070
   347
1005
14
1002
}
1001
ACAD_DSTYLE_DIMARC_LENGTH_SYMBOL
1070
   379
1070
     1
1001
ACAD_DSTYLE_DIM_LINETYPE
1070
   380
1005
14
1001
ACAD_DSTYLE_DIM_EXT1_LINETYPE
1070
   381
1005
14
1001
ACAD_DSTYLE_DIM_EXT2_LINETYPE
1070
   382
1005
14
  0
LINE
  5
3044D
330
1F
100
AcDbEntity
  8
1
100
AcDbLine
 10
3.299999999999953
 20
8.602733
 30
0.0
 11
3.299999999999953
 21
8.728533000000112
 31
0.0
  0
LINE
  5
3044E
330
1F
100
AcDbEntity
  8
1
100
AcDbLine
 10
3.299999999999953
 20
8.602733
 30
0.0
 11
3.299999999999953
 21
7.832425999999997
 31
0.0
  0
LINE
  5
3044F
330
1F
100
AcDbEntity
  8
1
100
AcDbLine
 10
7.70000000000016
 20
8.602733
 30
0.0
 11
7.70000000000016
 21
7.92163499999998
 31
0.0
  0
LINE
  5
30450
330
1F
100
AcDbEntity
  8
1
100
AcDbLine
 10
7.70000000000016
 20
8.602733
 30
0.0
 11
3.299999999999953
 21
8.602733
 31
0.0
  0
ARC
  5
30451
330
1F
100
AcDbEntity
  8
1
100
AcDbCircle
 10
5.500000000000113
 20
12.1500060000001
 30
0.0
 40
0.199994
100
AcDbArc
 50
29.99703900000102
 51
150.0029580000028
  0
ARC
  5
30452
330
1F
100
AcDbEntity
  8
1
100
AcDbCircle
 10
1156.221900999999
 20
-652.5413559999996
 30
0.0
 40
1329.100041
100
AcDbArc
 50
149.9879879999985
 51
150.1631419999952
  0
LINE
  5
30453
330
1F
100
AcDbEntity
  8
1
100
AcDbLine
 10
7.70000000000016
 20
8.602733
 30
0.0
 11
7.70000000000016
 21
8.728533000000112
 31
0.0
  0
ARC
  5
30454
330
1F
100
AcDbEntity
  8
1
100
AcDbCircle
 10
-1145.749926999999
 20
-652.8497859999998
 30
0.0
 40
1329.711535
100
AcDbArc
 50
29.83706600000086
 51
30.01214000000131
  0
LINE
  5
30455
330
1F
100
AcDbEntity
  8
1
100
AcDbLine
 10
3.299999999999953
 20
-4.786601000000018
 30
0.0
 11
3.299999999999953
 21
-7.157346000000018
 31
0.0
  0
LINE
  5
30456
330
1F
100
AcDbEntity
  8
1
100
AcDbLine
 10
3.299999999999953
 20
-7.157346000000018
 30
0.0
 11
3.299999999999953
 21
-8.728532999999998
 31
0.0
  0
LINE
  5
30457
330
1F
100
AcDbEntity
  8
1
100
AcDbLine
 10
5.326794999999947
 20
-12.2499939999999
 30
0.0
 11
5.326794999999947
 21
-12.0581369999999
 31
0.0
  0
ARC
  5
30458
330
1F
100
AcDbEntity
  8
1
100
AcDbCircle
 10
6.479824000000121
 20
-11.57350200000002
 30
0.0
 40
1.250537999999999
100
AcDbArc
 50
194.4552280000009
 51
202.7977330000001
  0
SPLINE
  5
30459
330
1F
100
AcDbEntity
  8
1
100
AcDbSpline
210
0.0
220
0.0
230
1.0
 70
     8
 71
     5
 72
    15
 73
     9
 74
     0
 42
0.000000001
 43
0.0000000001
 40
0.0
 40
0.0
 40
0.0
 40
0.0
 40
0.0
 40
0.0
 40
1.924509025188459
 40
1.924509025188459
 40
1.924509025188459
 40
2.172953475008315
 40
2.172953475008315
 40
2.172953475008315
 40
2.172953475008315
 40
2.172953475008315
 40
2.172953475008315
 10
5.269059892324206
 20
-11.88561747110998
 30
0.0
 10
5.246552227406936
 20
-11.78850878185699
 30
0.0
 10
5.194429285692081
 20
-11.63832396388182
 30
0.0
 10
5.120401922345876
 20
-11.45489254931598
 30
0.0
 10
5.028198459577652
 20
-11.24382240642751
 30
0.0
 10
4.92572057333632
 20
-11.02537404001722
 30
0.0
 10
4.913875508129081
 20
-11.00031307268307
 30
0.0
 10
4.90190887007884
 20
-10.97518062667896
 30
0.0
 10
4.889825233491136
 20
-10.94998563035679
 30
0.0
  0
SPLINE
  5
3045A
330
1F
100
AcDbEntity
  8
1
100
AcDbSpline
210
0.0
220
0.0
230
1.0
 70
     8
 71
     5
 72
    12
 73
     6
 74
     0
 42
0.000000001
 43
0.0000000001
 40
0.0
 40
0.0
 40
0.0
 40
0.0
 40
0.0
 40
0.0
 40
6.210713942798808
 40
6.210713942798808
 40
6.210713942798808
 40
6.210713942798808
 40
6.210713942798808
 40
6.210713942798808
 10
3.299999999999953
 20
-7.157346144153477
 30
0.0
 10
3.553133410110603
 20
-7.902441513178728
 30
0.0
 10
3.847764949731753
 20
-8.659689752853779
 30
0.0
 10
4.175532325336121
 20
-9.424846921282892
 30
0.0
 10
4.524517109917268
 20
-10.18829962937721
 30
0.0
 10
4.889825233491136
 20
-10.94998563035679
 30
0.0
  0
ARC
  5
3045B
330
1F
100
AcDbEntity
  8
1
100
AcDbCircle
 10
1156.751201999999
 20
652.8505189999997
 30
0.0
 40
1329.713006
100
AcDbArc
 50
209.8370660000008
 51
210.0121400000013
  0
SPLINE
  5
3045C
330
1F
100
AcDbEntity
  8
1
100
AcDbSpline
210
0.0
220
0.0
230
1.0
 70
     8
 71
     5
 72
    24
 73
    18
 74
     0
 42
0.000000001
 43
0.0000000001
 40
0.0
 40
0.0
 40
0.0
 40
0.0
 40
0.0
 40
0.0
 40
0.2922012856677021
 40
0.2922012856677021
 40
0.2922012856677021
 40
0.3934741869289268
 40
0.3934741869289268
 40
0.3934741869289268
 40
0.499705082828916
 40
0.499705082828916
 40
0.499705082828916
 40
0.7161390617690207
 40
0.7161390617690207
 40
0.7161390617690207
 40
1.00212772733754
 40
1.00212772733754
 40
1.00212772733754
 40
1.00212772733754
 40
1.00212772733754
 40
1.00212772733754
 10
5.326794919243183
 20
-12.0581369059995
 30
0.0
 10
5.334666189731705
 20
-12.0777798239221
 30
0.0
 10
5.344723190401167
 20
-12.09779116033792
 30
0.0
 10
5.357053458062863
 20
-12.11699742988611
 30
0.0
 10
5.379082053556202
 20
-12.14357056076557
 30
0.0
 10
5.410530270393336
 20
-12.16596055969648
 30
0.0
 10
5.419426454228529
 20
-12.1714235820516
 30
0.0
 10
5.438618846950248
 20
-12.18131094544719
 30
0.0
 10
5.460598752198166
 20
-12.18833382258671
 30
0.0
 10
5.472650981417357
 20
-12.19098155795177
 30
0.0
 10
5.509602559298173
 20
-12.19533260842672
 30
0.0
 10
5.547494582292641
 20
-12.1885658817028
 30
0.0
 10
5.570403348311401
 20
-12.1786108236931
 30
0.0
 10
5.61372831293761
 20
-12.15182304611519
 30
0.0
 10
5.642519196171861
 20
-12.11763578418538
 30
0.0
 10
5.655703302329242
 20
-12.09694064473697
 30
0.0
 10
5.665501164813803
 20
-12.07736218720151
 30
0.0
 10
5.673205080757156
 20
-12.0581369059995
 30
0.0
  0
ARC
  5
3045D
330
1F
100
AcDbEntity
  8
1
100
AcDbCircle
 10
5.499998000000117
 20
-12.150011
 30
0.0
 40
0.199989
100
AcDbArc
 50
209.996057999999
 51
330.0045229999957
  0
LINE
  5
3045E
330
1F
100
AcDbEntity
  8
1
100
AcDbLine
 10
5.673205000000165
 20
-12.2499939999999
 30
0.0
 11
5.673205000000165
 21
-12.0581369999999
 31
0.0
  0
LINE
  5
3045F
330
1F
100
AcDbEntity
  8
1
100
AcDbLine
 10
7.70000000000016
 20
-8.728532999999998
 30
0.0
 11
7.70000000000016
 21
-7.157346000000018
 31
0.0
  0
SPLINE
  5
30460
330
1F
100
AcDbEntity
  8
1
100
AcDbSpline
210
0.0
220
0.0
230
1.0
 70
     8
 71
     5
 72
    15
 73
     9
 74
     0
 42
0.000000001
 43
0.0000000001
 40
0.0
 40
0.0
 40
0.0
 40
0.0
 40
0.0
 40
0.0
 40
5.856070815073721
 40
5.856070815073721
 40
5.856070815073721
 40
6.306991048007692
 40
6.306991048007692
 40
6.306991048007692
 40
6.306991048007692
 40
6.306991048007692
 40
6.306991048007692
 10
7.70000000000016
 20
-7.157346144153477
 30
0.0
 10
7.46690401084129
 20
-7.843461588119282
 30
0.0
 10
7.197536818096182
 20
-8.543069337463888
 30
0.0
 10
6.898092034798652
 20
-9.252175001619493
 30
0.0
 10
6.552846787035491
 20
-10.01848882067571
 30
0.0
 10
6.188809830965737
 20
-10.78546708637739
 30
0.0
 10
6.162687511433545
 20
-10.8403083110928
 30
0.0
 10
6.136475651825207
 20
-10.89514694797898
 30
0.0
 10
6.110174766509202
 20
-10.94998563035679
 30
0.0
  0
SPLINE
  5
30461
330
1F
100
AcDbEntity
  8
1
100
AcDbSpline
210
0.0
220
0.0
230
1.0
 70
     8
 71
     5
 72
    15
 73
     9
 74
     0
 42
0.000000001
 43
0.0000000001
 40
0.0
 40
0.0
 40
0.0
 40
0.0
 40
0.0
 40
0.0
 40
1.952141039441275
 40
1.952141039441275
 40
1.952141039441275
 40
2.203908260428788
 40
2.203908260428788
 40
2.203908260428788
 40
2.203908260428788
 40
2.203908260428788
 40
2.203908260428788
 10
5.730940107675793
 20
-11.88561747110998
 30
0.0
 10
5.753256505534522
 20
-11.78933399821938
 30
0.0
 10
5.804766637134775
 20
-11.64052913508558
 30
0.0
 10
5.878327339385236
 20
-11.45787412483571
 30
0.0
 10
5.970803889398438
 20
-11.24598140573559
 30
0.0
 10
6.074021952363067
 20
-11.025918940188
 30
0.0
 10
6.085947318344437
 20
-11.00068523984041
 30
0.0
 10
6.097999817048616
 20
-10.97537101865808
 30
0.0
 10
6.110174766509202
 20
-10.94998563035679
 30
0.0
  0
ARC
  5
30462
330
1F
100
AcDbEntity
  8
1
100
AcDbCircle
 10
4.520189999999955
 20
-11.57350600000001
 30
0.0
 40
1.250523
100
AcDbArc
 50
337.2022200000035
 51
345.5448220000016
  0
ARC
  5
30463
330
1F
100
AcDbEntity
  8
1
100
AcDbCircle
 10
-1145.749926999999
 20
652.8497859999998
 30
0.0
 40
1329.711535
100
AcDbArc
 50
329.9878599999987
 51
330.1629339999991
  0
LINE
  5
30464
330
1F
100
AcDbEntity
  8
1
100
AcDbLine
 10
7.70000000000016
 20
-4.786601000000018
 30
0.0
 11
7.70000000000016
 21
-7.157346000000018
 31
0.0
  0
LINE
  5
30465
330
1F
100
AcDbEntity
  8
1
100
AcDbLine
 10
3.299999999999953
 20
-4.786601000000018
 30
0.0
 11
4.060956000000146
 21
-4.786601000000018
 31
0.0
  0
LINE
  5
30466
330
1F
100
AcDbEntity
  8
1
100
AcDbLine
 10
6.939043999999968
 20
-4.786601000000018
 30
0.0
 11
7.70000000000016
 21
-4.786601000000018
 31
0.0
  0
LINE
  5
30467
330
1F
100
AcDbEntity
  8
1
100
AcDbLine
 10
6.110175000000139
 20
-10.94998599999999
 30
0.0
 11
4.889825000000087
 21
-10.94998599999999
 31
0.0
  0
LINE
  5
30468
330
1F
100
AcDbEntity
  8
1
100
AcDbLine
 10
5.730940000000146
 20
-11.88561699999999
 30
0.0
 11
5.269059999999966
 21
-11.88561699999999
 31
0.0
  0
LINE
  5
30469
330
1F
100
AcDbEntity
  8
1
100
AcDbLine
 10
3.299999999999953
 20
2.774698000000114
 30
0.0
 11
3.299999999999953
 21
0.7645160000000999
 31
0.0
  0
LINE
  5
3046A
330
1F
100
AcDbEntity
  8
1
100
AcDbLine
 10
3.299999999999953
 20
0.7645160000000999
 30
0.0
 11
3.299999999999953
 21
-3.985418999999893
 31
0.0
  0
ARC
  5
3046B
330
1F
100
AcDbEntity
  8
1
100
AcDbCircle
 10
607.4916590000005
 20
569.1925780000001
 30
0.0
 40
832.8149019999997
100
AcDbArc
 50
223.4910929999989
 51
223.6933270000022
  0
LINE
  5
3046C
330
1F
100
AcDbEntity
  8
1
100
AcDbLine
 10
5.326794999999947
 20
-6.114497999999997
 30
0.0
 11
5.326794999999947
 21
-4.158808000000021
 31
0.0
  0
ARC
  5
3046D
330
1F
100
AcDbEntity
  8
1
100
AcDbCircle
 10
8.475995000000013
 20
-3.498985000000004
 30
0.0
 40
3.217548999999998
100
AcDbArc
 50
184.6478400000014
 51
191.8334810000006
  0
SPLINE
  5
3046E
330
1F
100
AcDbEntity
  8
1
100
AcDbSpline
210
0.0
220
0.0
230
1.0
 70
     8
 71
     5
 72
    12
 73
     6
 74
     0
 42
0.000000001
 43
0.0000000001
 40
0.0
 40
0.0
 40
0.0
 40
0.0
 40
0.0
 40
0.0
 40
2.369569467997088
 40
2.369569467997088
 40
2.369569467997088
 40
2.369569467997088
 40
2.369569467997088
 40
2.369569467997088
 10
5.269059892324206
 20
-3.759703608028388
 30
0.0
 10
5.24623742555525
 20
-3.473403826345219
 30
0.0
 10
5.192253312239698
 20
-3.183873430859875
 30
0.0
 10
5.111658963900707
 20
-2.909791223808069
 30
0.0
 10
5.009478409245388
 20
-2.662847507699296
 30
0.0
 10
4.889825233491136
 20
-2.451307981022295
 30
0.0
  0
SPLINE
  5
3046F
330
1F
100
AcDbEntity
  8
1
100
AcDbSpline
210
0.0
220
0.0
230
1.0
 70
     8
 71
     5
 72
    12
 73
     6
 74
     0
 42
0.000000001
 43
0.0000000001
 40
0.0
 40
0.0
 40
0.0
 40
0.0
 40
0.0
 40
0.0
 40
6.210713942936219
 40
6.210713942936219
 40
6.210713942936219
 40
6.210713942936219
 40
6.210713942936219
 40
6.210713942936219
 10
3.299999999999953
 20
0.7645156106898128
 30
0.0
 10
3.553133410116059
 20
0.1327404908674055
 30
0.0
 10
3.847764949750171
 20
-0.509339190795913
 30
0.0
 10
4.175532325320887
 20
-1.158124946036508
 30
0.0
 10
4.524517109909311
 20
-1.805465469391065
 30
0.0
 10
4.889825233491136
 20
-2.451307981022295
 30
0.0
  0
SPLINE
  5
30470
330
1F
100
AcDbEntity
  8
1
100
AcDbSpline
210
0.0
220
0.0
230
1.0
 70
     8
 71
     5
 72
    36
 73
    30
 74
     0
 42
0.000000001
 43
0.0000000001
 40
0.0
 40
0.0
 40
0.0
 40
0.0
 40
0.0
 40
0.0
 40
0.0597297142276105
 40
0.0597297142276105
 40
0.0597297142276105
 40
0.1197034582288631
 40
0.1197034582288631
 40
0.1197034582288631
 40
0.1795936341116947
 40
0.1795936341116947
 40
0.1795936341116947
 40
0.2394092105396286
 40
0.2394092105396286
 40
0.2394092105396286
 40
0.2991752108775025
 40
0.2991752108775025
 40
0.2991752108775025
 40
0.3589249270202615
 40
0.3589249270202615
 40
0.3589249270202615
 40
0.418694323372672
 40
0.418694323372672
 40
0.418694323372672
 40
0.4785160769847515
 40
0.4785160769847515
 40
0.4785160769847515
 40
0.5928034419853973
 40
0.5928034419853973
 40
0.5928034419853973
 40
0.5928034419853973
 40
0.5928034419853973
 40
0.5928034419853973
 10
5.326794919243183
 20
-6.114498325305419
 30
0.0
 10
5.33099533840209
 20
-6.118897532384182
 30
0.0
 10
5.335579154366882
 20
-6.123164802416196
 30
0.0
 10
5.340555122313843
 20
-6.127302687123999
 30
0.0
 10
5.351186342874711
 20
-6.135228980397812
 30
0.0
 10
5.363145430372127
 20
-6.142441223770902
 30
0.0
 10
5.369480314175574
 20
-6.145876887986815
 30
0.0
 10
5.38266223380583
 20
-6.152297415340398
 30
0.0
 10
5.396899913615243
 20
-6.157846040271492
 30
0.0
 10
5.404287581984249
 20
-6.160400946495598
 30
0.0
 10
5.419406672636226
 20
-6.165004788811187
 30
0.0
 10
5.435252571656178
 20
-6.168621515197798
 30
0.0
 10
5.443362136830161
 20
-6.170181260223812
 30
0.0
 10
5.459742535681016
 20
-6.172762754525193
 30
0.0
 10
5.476486284108544
 20
-6.174286724663487
 30
0.0
 10
5.484954897359557
 20
-6.174782083499735
 30
0.0
 10
5.501864824180527
 20
-6.175226708171094
 30
0.0
 10
5.51875756174263
 20
-6.174591867766706
 30
0.0
 10
5.527206894853292
 20
-6.174001568135678
 30
0.0
 10
5.543891790666178
 20
-6.172290675273472
 30
0.0
 10
5.560180338334475
 20
-6.1695278754664
 30
0.0
 10
5.568233896442278
 20
-6.16787925086288
 30
0.0
 10
5.583950626910223
 20
-6.164090462735287
 30
0.0
 10
5.598911392892091
 20
-6.159325111808981
 30
0.0
 10
5.606211382327841
 20
-6.156692486231093
 30
0.0
 10
5.626644400395661
 20
-6.148407600159488
 30
0.0
 10
5.644794357750356
 20
-6.138308825086396
 30
0.0
 10
5.655727175313812
 20
-6.130850249853607
 30
0.0
 10
5.66516796148096
 20
-6.122915807150518
 30
0.0
 10
5.673205080757156
 20
-6.114498325305419
 30
0.0
  0
LINE
  5
30471
330
1F
100
AcDbEntity
  8
1
100
AcDbLine
 10
5.673205000000165
 20
-6.114497999999997
 30
0.0
 11
5.673205000000165
 21
-4.158808000000021
 31
0.0
  0
SPLINE
  5
30472
330
1F
100
AcDbEntity
  8
1
100
AcDbSpline
210
0.0
220
0.0
230
1.0
 70
     8
 71
     5
 72
    30
 73
    24
 74
     0
 42
0.000000001
 43
0.0000000001
 40
0.0
 40
0.0
 40
0.0
 40
0.0
 40
0.0
 40
0.0
 40
0.2172757323199205
 40
0.2172757323199205
 40
0.2172757323199205
 40
0.3261531961859476
 40
0.3261531961859476
 40
0.3261531961859476
 40
0.5078647102904112
 40
0.5078647102904112
 40
0.5078647102904112
 40
0.6049194359962115
 40
0.6049194359962115
 40
0.6049194359962115
 40
0.6781002078954579
 40
0.6781002078954579
 40
0.6781002078954579
 40
0.8973566691583243
 40
0.8973566691583243
 40
0.8973566691583243
 40
1.083393701593375
 40
1.083393701593375
 40
1.083393701593375
 40
1.083393701593375
 40
1.083393701593375
 40
1.083393701593375
 10
5.326794919243183
 20
-4.158807570896185
 30
0.0
 10
5.331916316996171
 20
-4.183422223806701
 30
0.0
 10
5.337990557802753
 20
-4.207837625644997
 30
0.0
 10
5.345224275336021
 20
-4.231963430522995
 30
0.0
 10
5.358177890162891
 20
-4.267456346158495
 30
0.0
 10
5.375339241693723
 20
-4.301027989640886
 30
0.0
 10
5.381628560583634
 20
-4.312009514688695
 30
0.0
 10
5.399851601156115
 20
-4.340189172731783
 30
0.0
 10
5.423024004693728
 20
-4.364951482298778
 30
0.0
 10
5.44017419778413
 20
-4.378929492769883
 30
0.0
 10
5.470243330944184
 20
-4.393497618252381
 30
0.0
 10
5.502771577180624
 20
-4.395535098065066
 30
0.0
 10
5.51435299949628
 20
-4.394486131434064
 30
0.0
 10
5.533611685335358
 20
-4.389894833432889
 30
0.0
 10
5.551492967365788
 20
-4.381141189884373
 30
0.0
 10
5.558822547010777
 20
-4.376723917296914
 30
0.0
 10
5.586357121549326
 20
-4.357106577832808
 30
0.0
 10
5.608334425581006
 20
-4.330217854644587
 30
0.0
 10
5.621832308902526
 20
-4.308312695328083
 30
0.0
 10
5.642712814126752
 20
-4.266295440125104
 30
0.0
 10
5.657778793499687
 20
-4.221669502387213
 30
0.0
 10
5.663736345340679
 20
-4.200812992406325
 30
0.0
 10
5.668820009171894
 20
-4.179883265512216
 30
0.0
 10
5.673205080757156
 20
-4.158807570896185
 30
0.0
  0
ARC
  5
30473
330
1F
100
AcDbEntity
  8
1
100
AcDbCircle
 10
-596.4909889999999
 20
569.1919409999997
 30
0.0
 40
832.8139769999996
100
AcDbArc
 50
316.3066729999977
 51
316.5089070000011
  0
LINE
  5
30474
330
1F
100
AcDbEntity
  8
1
100
AcDbLine
 10
7.70000000000016
 20
-3.985418999999893
 30
0.0
 11
7.70000000000016
 21
0.7645160000000999
 31
0.0
  0
SPLINE
  5
30475
330
1F
100
AcDbEntity
  8
1
100
AcDbSpline
210
0.0
220
0.0
230
1.0
 70
     8
 71
     5
 72
    15
 73
     9
 74
     0
 42
0.000000001
 43
0.0000000001
 40
0.0
 40
0.0
 40
0.0
 40
0.0
 40
0.0
 40
0.0
 40
5.856070815199601
 40
5.856070815199601
 40
5.856070815199601
 40
6.306991048133553
 40
6.306991048133553
 40
6.306991048133553
 40
6.306991048133553
 40
6.306991048133553
 40
6.306991048133553
 10
7.70000000000016
 20
0.7645156106898128
 30
0.0
 10
7.466904010836173
 20
0.1827502624628039
 30
0.0
 10
7.197536818083449
 20
-0.4104553700578891
 30
0.0
 10
6.898092034812407
 20
-1.011714396101069
 30
0.0
 10
6.552846787042994
 20
-1.66148088906621
 30
0.0
 10
6.188809830965737
 20
-2.311810774148995
 30
0.0
 10
6.162687511433545
 20
-2.358311293082977
 30
0.0
 10
6.136475651825207
 20
-2.404809617766318
 30
0.0
 10
6.110174766509202
 20
-2.451307981022295
 30
0.0
  0
SPLINE
  5
30476
330
1F
100
AcDbEntity
  8
1
100
AcDbSpline
210
0.0
220
0.0
230
1.0
 70
     8
 71
     5
 72
    12
 73
     6
 74
     0
 42
0.000000001
 43
0.0000000001
 40
0.0
 40
0.0
 40
0.0
 40
0.0
 40
0.0
 40
0.0
 40
2.396320170885132
 40
2.396320170885132
 40
2.396320170885132
 40
2.396320170885132
 40
2.396320170885132
 40
2.396320170885132
 10
5.730940107675793
 20
-3.759703608028388
 30
0.0
 10
5.753663667324075
 20
-3.474644581228004
 30
0.0
 10
5.807314545865096
 20
-3.185941947534216
 30
0.0
 10
5.887623997969626
 20
-2.911728177143912
 30
0.0
 10
5.989919055248264
 20
-2.663912753774694
 30
0.0
 10
6.110174766509202
 20
-2.451307981022295
 30
0.0
  0
ARC
  5
30477
330
1F
100
AcDbEntity
  8
1
100
AcDbCircle
 10
2.524006000000099
 20
-3.498985000000004
 30
0.0
 40
3.217547999999998
100
AcDbArc
 50
348.1665170000002
 51
355.3521619999993
  0
LINE
  5
30478
330
1F
100
AcDbEntity
  8
1
100
AcDbLine
 10
7.70000000000016
 20
2.774698000000114
 30
0.0
 11
7.70000000000016
 21
0.7645160000000999
 31
0.0
  0
LINE
  5
30479
330
1F
100
AcDbEntity
  8
1
100
AcDbLine
 10
3.299999999999953
 20
2.774698000000114
 30
0.0
 11
7.70000000000016
 21
2.774698000000114
 31
0.0
  0
LINE
  5
3047A
330
1F
100
AcDbEntity
  8
1
100
AcDbLine
 10
6.110175000000139
 20
-2.451307999999897
 30
0.0
 11
4.889825000000087
 21
-2.451307999999897
 31
0.0
  0
LINE
  5
3047B
330
1F
100
AcDbEntity
  8
1
100
AcDbLine
 10
5.730940000000146
 20
-3.759703999999885
 30
0.0
 11
5.269059999999966
 21
-3.759703999999885
 31
0.0
  0
LINE
  5
3047C
330
1F
100
AcDbEntity
  8
1
100
AcDbLine
 10
3.299999999999953
 20
4.693373000000092
 30
0.0
 11
3.299999999999953
 21
4.743113999999991
 31
0.0
  0
LINE
  5
3047D
330
1F
100
AcDbEntity
  8
1
100
AcDbLine
 10
3.299999999999953
 20
4.693373000000092
 30
0.0
 11
3.299999999999953
 21
3.836590000000001
 31
0.0
  0
LINE
  5
3047E
330
1F
100
AcDbEntity
  8
1
100
AcDbLine
 10
3.299999999999953
 20
7.921862000000003
 30
0.0
 11
3.299999999999953
 21
7.669622000000002
 31
0.0
  0
LINE
  5
3047F
330
1F
100
AcDbEntity
  8
1
100
AcDbLine
 10
3.299999999999953
 20
7.669622000000002
 30
0.0
 11
3.299999999999953
 21
4.743113999999991
 31
0.0
  0
ARC
  5
30480
330
1F
100
AcDbEntity
  8
1
100
AcDbCircle
 10
6.392075999999973
 20
0.9927940000001171
 30
0.0
 40
7.587697
100
AcDbArc
 50
112.1544669999995
 51
114.0486809999974
  0
ARC
  5
30481
330
1F
100
AcDbEntity
  8
1
100
AcDbCircle
 10
426.3818709999993
 20
-608.9822239999997
 30
0.0
 40
745.42412
100
AcDbArc
 50
124.3920840000024
 51
124.5810899999973
  0
LINE
  5
30482
330
1F
100
AcDbEntity
  8
1
100
AcDbLine
 10
5.326794999999947
 20
6.135495999999988
 30
0.0
 11
5.326794999999947
 21
7.899329000000107
 31
0.0
  0
ARC
  5
30483
330
1F
100
AcDbEntity
  8
1
100
AcDbCircle
 10
6.086863000000107
 20
8.212069999999982
 30
0.0
 40
0.8221079999999998
100
AcDbArc
 50
186.0139449999996
 51
202.3653919999991
  0
SPLINE
  5
30484
330
1F
100
AcDbEntity
  8
1
100
AcDbSpline
210
0.0
220
0.0
230
1.0
 70
     8
 71
     5
 72
    15
 73
     9
 74
     0
 42
0.000000001
 43
0.0000000001
 40
0.0
 40
0.0
 40
0.0
 40
0.0
 40
0.0
 40
0.0
 40
1.191185393547157
 40
1.191185393547157
 40
1.191185393547157
 40
1.673728065042094
 40
1.673728065042094
 40
1.673728065042094
 40
1.673728065042094
 40
1.673728065042094
 40
1.673728065042094
 10
5.269059892324206
 20
8.125913863081706
 30
0.0
 10
5.256169260917204
 20
8.232006011596892
 30
0.0
 10
5.232881089255214
 20
8.324492987674773
 30
0.0
 10
5.198782888088203
 20
8.398409225298678
 30
0.0
 10
5.137051616646089
 20
8.472469594660509
 30
0.0
 10
5.060354530957623
 20
8.505808864602299
 30
0.0
 10
5.03703410096773
 20
8.512104635648597
 30
0.0
 10
5.012844930312667
 20
8.515158382470701
 30
0.0
 10
4.987820666621246
 20
8.515158044636196
 30
0.0
  0
ARC
  5
30485
330
1F
100
AcDbEntity
  8
1
100
AcDbCircle
 10
4.992627999999966
 20
8.189862000000005
 30
0.0
 40
0.325402
100
AcDbArc
 50
90.84664700000271
 51
108.4122530000023
  0
ARC
  5
30486
330
1F
100
AcDbEntity
  8
1
100
AcDbCircle
 10
10.35241399999994
 20
-9.250758000000015
 30
0.0
 40
18.570204
100
AcDbArc
 50
107.1063389999995
 51
111.5529559999988
  0
SPLINE
  5
30487
330
1F
100
AcDbEntity
  8
1
100
AcDbSpline
210
0.0
220
0.0
230
1.0
 70
     8
 71
     5
 72
    36
 73
    30
 74
     0
 42
0.000000001
 43
0.0000000001
 40
0.0
 40
0.0
 40
0.0
 40
0.0
 40
0.0
 40
0.0
 40
0.0597297142276111
 40
0.0597297142276111
 40
0.0597297142276111
 40
0.1197034582288621
 40
0.1197034582288621
 40
0.1197034582288621
 40
0.1795936341116954
 40
0.1795936341116954
 40
0.1795936341116954
 40
0.2394092105396297
 40
0.2394092105396297
 40
0.2394092105396297
 40
0.2991752108775032
 40
0.2991752108775032
 40
0.2991752108775032
 40
0.3589249270202617
 40
0.3589249270202617
 40
0.3589249270202617
 40
0.4186943233726714
 40
0.4186943233726714
 40
0.4186943233726714
 40
0.47851607698475
 40
0.47851607698475
 40
0.47851607698475
 40
0.592803441985395
 40
0.592803441985395
 40
0.592803441985395
 40
0.592803441985395
 40
0.592803441985395
 40
0.592803441985395
 10
5.326794919243183
 20
6.135495676206801
 30
0.0
 10
5.33099533840209
 20
6.138372681806885
 30
0.0
 10
5.335579154366882
 20
6.141163402852697
 30
0.0
 10
5.340555122313843
 20
6.143869508126527
 30
0.0
 10
5.351186342874711
 20
6.149053167301588
 30
0.0
 10
5.363145430372127
 20
6.153769850149672
 30
0.0
 10
5.369480314175574
 20
6.156016715326103
 30
0.0
 10
5.38266223380583
 20
6.160215629544296
 30
0.0
 10
5.396899913615243
 20
6.163844334607205
 30
0.0
 10
5.404287581984249
 20
6.165515199238625
 30
0.0
 10
5.419406672636226
 20
6.168526032756402
 30
0.0
 10
5.435252571656178
 20
6.1708913094715
 30
0.0
 10
5.443362136830161
 20
6.171911355833116
 30
0.0
 10
5.459742535681016
 20
6.173599608608697
 30
0.0
 10
5.476486284108544
 20
6.174596258810481
 30
0.0
 10
5.484954897359557
 20
6.174920214950787
 30
0.0
 10
5.501864824180527
 20
6.175210991821928
 30
0.0
 10
5.51875756174263
 20
6.174795817140107
 30
0.0
 10
5.527206894853292
 20
6.174409771356494
 30
0.0
 10
5.543891790666178
 20
6.173290876915415
 30
0.0
 10
5.560180338334475
 20
6.171484053464125
 30
0.0
 10
5.568233896442278
 20
6.170405881390905
 30
0.0
 10
5.583950626910223
 20
6.167928079263106
 30
0.0
 10
5.598911392892091
 20
6.164811621897911
 30
0.0
 10
5.606211382327841
 20
6.163089930148686
 30
0.0
 10
5.626644400395661
 20
6.157671757465009
 30
0.0
 10
5.644794357750356
 20
6.151067332640422
 30
0.0
 10
5.655727175313812
 20
6.146189553002129
 30
0.0
 10
5.66516796148096
 20
6.141000564240782
 30
0.0
 10
5.673205080757156
 20
6.135495676206801
 30
0.0
  0
LINE
  5
30488
330
1F
100
AcDbEntity
  8
1
100
AcDbLine
 10
5.673205000000165
 20
6.135495999999988
 30
0.0
 11
5.673205000000165
 21
7.899329000000107
 31
0.0
  0
SPLINE
  5
30489
330
1F
100
AcDbEntity
  8
1
100
AcDbSpline
210
0.0
220
0.0
230
1.0
 70
     8
 71
     5
 72
    24
 73
    18
 74
     0
 42
0.000000001
 43
0.0000000001
 40
0.0
 40
0.0
 40
0.0
 40
0.0
 40
0.0
 40
0.0
 40
0.2866049988800403
 40
0.2866049988800403
 40
0.2866049988800403
 40
0.3855191634117394
 40
0.3855191634117394
 40
0.3855191634117394
 40
0.5990795739746134
 40
0.5990795739746134
 40
0.5990795739746134
 40
0.7041656012481049
 40
0.7041656012481049
 40
0.7041656012481049
 40
0.9867257762174176
 40
0.9867257762174176
 40
0.9867257762174176
 40
0.9867257762174176
 40
0.9867257762174176
 40
0.9867257762174176
 10
5.326794919243183
 20
7.899329335103401
 30
0.0
 10
5.334578400956046
 20
7.881343914190579
 30
0.0
 10
5.344563719238749
 20
7.864335637116993
 30
0.0
 10
5.357080452530452
 20
7.848933367689994
 30
0.0
 10
5.379326872354681
 20
7.829623830147625
 30
0.0
 10
5.410977933388608
 20
7.814732640681397
 30
0.0
 10
5.419872364125692
 20
7.811210008497197
 30
0.0
 10
5.449337594541133
 20
7.801605993857691
 30
0.0
 10
5.4849064587097
 20
7.796709941498901
 30
0.0
 10
5.511195407206287
 20
7.796488902570587
 30
0.0
 10
5.548071763601683
 20
7.801020967965996
 30
0.0
 10
5.578441232142608
 20
7.810554494240419
 30
0.0
 10
5.587977037878886
 20
7.814244812945077
 30
0.0
 10
5.619812808176902
 20
7.829067556122992
 30
0.0
 10
5.642709429151749
 20
7.848633082176801
 30
0.0
 10
5.655717511965463
 20
7.864815661140085
 30
0.0
 10
5.665531446440695
 20
7.881597740400308
 30
0.0
 10
5.673205080757156
 20
7.899329335103401
 30
0.0
  0
LINE
  5
3048A
330
1F
100
AcDbEntity
  8
1
100
AcDbLine
 10
7.70000000000016
 20
7.669622000000002
 30
0.0
 11
7.70000000000016
 21
7.921862000000003
 31
0.0
  0
ARC
  5
3048B
330
1F
100
AcDbEntity
  8
1
100
AcDbCircle
 10
4.607925000000136
 20
0.9927979999999934
 30
0.0
 40
7.587692999999998
100
AcDbArc
 50
65.951318000003
 51
67.84553399999743
  0
ARC
  5
3048C
330
1F
100
AcDbEntity
  8
1
100
AcDbCircle
 10
-415.3813999999998
 20
-608.9815389999999
 30
0.0
 40
745.42329
100
AcDbArc
 50
55.41891000000267
 51
55.6079159999976
  0
LINE
  5
3048D
330
1F
100
AcDbEntity
  8
1
100
AcDbLine
 10
7.70000000000016
 20
4.743113999999991
 30
0.0
 11
7.70000000000016
 21
7.669622000000002
 31
0.0
  0
ARC
  5
3048E
330
1F
100
AcDbEntity
  8
1
100
AcDbCircle
 10
0.6479090000001408
 20
-9.249849999999895
 30
0.0
 40
18.569242
100
AcDbArc
 50
68.44694299999651
 51
72.89378999999894
  0
SPLINE
  5
3048F
330
1F
100
AcDbEntity
  8
1
100
AcDbSpline
210
0.0
220
0.0
230
1.0
 70
     8
 71
     5
 72
    15
 73
     9
 74
     0
 42
0.000000001
 43
0.0000000001
 40
0.0
 40
0.0
 40
0.0
 40
0.0
 40
0.0
 40
0.0
 40
1.209904248958034
 40
1.209904248958034
 40
1.209904248958034
 40
1.701423805607388
 40
1.701423805607388
 40
1.701423805607388
 40
1.701423805607388
 40
1.701423805607388
 40
1.701423805607388
 10
5.730940107675793
 20
8.125913863081706
 30
0.0
 10
5.743779491245958
 20
8.231584232945294
 30
0.0
 10
5.766930591812752
 20
8.323730067631915
 30
0.0
 10
5.800814003626668
 20
8.397621852405618
 30
0.0
 10
5.862349238296474
 20
8.472007143024598
 30
0.0
 10
5.939173160233167
 20
8.505673056673202
 30
0.0
 10
5.962611059040682
 20
8.512056312203583
 30
0.0
 10
5.986957789604047
 20
8.515158332547287
 30
0.0
 10
6.012178827607726
 20
8.515158044642902
 30
0.0
  0
ARC
  5
30490
330
1F
100
AcDbEntity
  8
1
100
AcDbCircle
 10
6.007372000000144
 20
8.189863000000116
 30
0.0
 40
0.325401
100
AcDbArc
 50
71.58772800000109
 51
89.15347100000316
  0
ARC
  5
30491
330
1F
100
AcDbEntity
  8
1
100
AcDbCircle
 10
4.913133000000128
 20
8.21207099999998
 30
0.0
 40
0.8221129999999996
100
AcDbArc
 50
337.6346629999984
 51
353.9860089999994
  0
LINE
  5
30492
330
1F
100
AcDbEntity
  8
1
100
AcDbLine
 10
7.70000000000016
 20
4.693373000000092
 30
0.0
 11
7.70000000000016
 21
4.743113999999991
 31
0.0
  0
LINE
  5
30493
330
1F
100
AcDbEntity
  8
1
100
AcDbLine
 10
7.70000000000016
 20
3.836590000000001
 30
0.0
 11
7.70000000000016
 21
4.693373000000092
 31
0.0
  0
LINE
  5
30494
330
1F
100
AcDbEntity
  8
1
100
AcDbLine
 10
3.299999999999953
 20
3.836590000000001
 30
0.0
 11
7.70000000000016
 21
3.836590000000001
 31
0.0
  0
LINE
  5
30495
330
1F
100
AcDbEntity
  8
1
100
AcDbLine
 10
5.730940000000146
 20
8.125914000000106
 30
0.0
 11
5.269059999999966
 21
8.125914000000106
 31
0.0
  0
LINE
  5
30496
330
1F
100
AcDbEntity
  8
1
100
AcDbLine
 10
7.70000000000016
 20
4.693373000000092
 30
0.0
 11
3.299999999999953
 21
4.693373000000092
 31
0.0
  0
LINE
  5
30497
330
1F
100
AcDbEntity
  8
1
100
AcDbLine
 10
4.987821000000167
 20
8.515157999999985
 30
0.0
 11
6.012178999999946
 21
8.515157999999985
 31
0.0
  0
LINE
  5
30498
330
1F
100
AcDbEntity
  8
1
100
AcDbLine
 10
3.299999999999953
 20
8.602733
 30
0.0
 11
3.299999999999953
 21
8.728533000000112
 31
0.0
  0
LINE
  5
30499
330
1F
100
AcDbEntity
  8
1
100
AcDbLine
 10
3.299999999999953
 20
8.602733
 30
0.0
 11
3.299999999999953
 21
7.832425999999997
 31
0.0
  0
ARC
  5
3049A
330
1F
100
AcDbEntity
  8
1
100
AcDbCircle
 10
1156.751201999999
 20
-652.8505190000002
 30
0.0
 40
1329.713005
100
AcDbArc
 50
149.9878599999987
 51
150.1629339999991
  0
ARC
  5
3049B
330
1F
100
AcDbEntity
  8
1
100
AcDbCircle
 10
5.499998000000117
 20
12.15001100000009
 30
0.0
 40
0.199989
100
AcDbArc
 50
29.99547700000431
 51
150.0039420000009
  0
ARC
  5
3049C
330
1F
100
AcDbEntity
  8
1
100
AcDbCircle
 10
-1145.749925999999
 20
-652.8497859999998
 30
0.0
 40
1329.711534
100
AcDbArc
 50
29.83706600000086
 51
30.01214000000131
  0
LINE
  5
3049D
330
1F
100
AcDbEntity
  8
1
100
AcDbLine
 10
7.70000000000016
 20
8.602733
 30
0.0
 11
7.70000000000016
 21
8.728533000000112
 31
0.0
  0
LINE
  5
3049E
330
1F
100
AcDbEntity
  8
1
100
AcDbLine
 10
7.70000000000016
 20
7.921845000000103
 30
0.0
 11
7.70000000000016
 21
8.602733
 31
0.0
  0
LINE
  5
3049F
330
1F
100
AcDbEntity
  8
1
100
AcDbLine
 10
7.70000000000016
 20
8.602733
 30
0.0
 11
3.299999999999953
 21
8.602733
 31
0.0
  0
LINE
  5
304A0
330
1F
100
AcDbEntity
  8
1
100
AcDbLine
 10
3.299999999999953
 20
-4.786601000000018
 30
0.0
 11
3.299999999999953
 21
-7.157346000000018
 31
0.0
  0
LINE
  5
304A1
330
1F
100
AcDbEntity
  8
1
100
AcDbLine
 10
3.299999999999953
 20
-7.157346000000018
 30
0.0
 11
3.299999999999953
 21
-8.728532999999998
 31
0.0
  0
LINE
  5
304A2
330
1F
100
AcDbEntity
  8
1
100
AcDbLine
 10
5.326794999999947
 20
-12.2499939999999
 30
0.0
 11
5.326794999999947
 21
-12.0581369999999
 31
0.0
  0
ARC
  5
304A3
330
1F
100
AcDbEntity
  8
1
100
AcDbCircle
 10
6.479824000000121
 20
-11.57350200000002
 30
0.0
 40
1.250537999999999
100
AcDbArc
 50
194.4552280000009
 51
202.7977330000001
  0
SPLINE
  5
304A4
330
1F
100
AcDbEntity
  8
1
100
AcDbSpline
210
0.0
220
0.0
230
1.0
 70
     8
 71
     5
 72
    15
 73
     9
 74
     0
 42
0.000000001
 43
0.0000000001
 40
0.0
 40
0.0
 40
0.0
 40
0.0
 40
0.0
 40
0.0
 40
1.924509025188459
 40
1.924509025188459
 40
1.924509025188459
 40
2.172953475008315
 40
2.172953475008315
 40
2.172953475008315
 40
2.172953475008315
 40
2.172953475008315
 40
2.172953475008315
 10
5.269059892324206
 20
-11.88561747110998
 30
0.0
 10
5.246552227406936
 20
-11.78850878185699
 30
0.0
 10
5.194429285692081
 20
-11.63832396388182
 30
0.0
 10
5.120401922345876
 20
-11.45489254931598
 30
0.0
 10
5.028198459577652
 20
-11.24382240642751
 30
0.0
 10
4.92572057333632
 20
-11.02537404001722
 30
0.0
 10
4.913875508129081
 20
-11.00031307268307
 30
0.0
 10
4.90190887007884
 20
-10.97518062667896
 30
0.0
 10
4.889825233491136
 20
-10.94998563035679
 30
0.0
  0
SPLINE
  5
304A5
330
1F
100
AcDbEntity
  8
1
100
AcDbSpline
210
0.0
220
0.0
230
1.0
 70
     8
 71
     5
 72
    12
 73
     6
 74
     0
 42
0.000000001
 43
0.0000000001
 40
0.0
 40
0.0
 40
0.0
 40
0.0
 40
0.0
 40
0.0
 40
6.210713942798808
 40
6.210713942798808
 40
6.210713942798808
 40
6.210713942798808
 40
6.210713942798808
 40
6.210713942798808
 10
3.299999999999953
 20
-7.157346144153477
 30
0.0
 10
3.553133410110603
 20
-7.902441513178728
 30
0.0
 10
3.847764949731753
 20
-8.659689752853779
 30
0.0
 10
4.175532325336121
 20
-9.424846921282892
 30
0.0
 10
4.524517109917268
 20
-10.18829962937721
 30
0.0
 10
4.889825233491136
 20
-10.94998563035679
 30
0.0
  0
ARC
  5
304A6
330
1F
100
AcDbEntity
  8
1
100
AcDbCircle
 10
1156.751201999999
 20
652.8505189999997
 30
0.0
 40
1329.713006
100
AcDbArc
 50
209.8370660000008
 51
210.0121400000013
  0
SPLINE
  5
304A7
330
1F
100
AcDbEntity
  8
1
100
AcDbSpline
210
0.0
220
0.0
230
1.0
 70
     8
 71
     5
 72
    24
 73
    18
 74
     0
 42
0.000000001
 43
0.0000000001
 40
0.0
 40
0.0
 40
0.0
 40
0.0
 40
0.0
 40
0.0
 40
0.2922012856677021
 40
0.2922012856677021
 40
0.2922012856677021
 40
0.3934741869289268
 40
0.3934741869289268
 40
0.3934741869289268
 40
0.499705082828916
 40
0.499705082828916
 40
0.499705082828916
 40
0.7161390617690207
 40
0.7161390617690207
 40
0.7161390617690207
 40
1.00212772733754
 40
1.00212772733754
 40
1.00212772733754
 40
1.00212772733754
 40
1.00212772733754
 40
1.00212772733754
 10
5.326794919243183
 20
-12.0581369059995
 30
0.0
 10
5.334666189731705
 20
-12.0777798239221
 30
0.0
 10
5.344723190401167
 20
-12.09779116033792
 30
0.0
 10
5.357053458062863
 20
-12.11699742988611
 30
0.0
 10
5.379082053556202
 20
-12.14357056076557
 30
0.0
 10
5.410530270393336
 20
-12.16596055969648
 30
0.0
 10
5.419426454228529
 20
-12.1714235820516
 30
0.0
 10
5.438618846950248
 20
-12.18131094544719
 30
0.0
 10
5.460598752198166
 20
-12.18833382258671
 30
0.0
 10
5.472650981417357
 20
-12.19098155795177
 30
0.0
 10
5.509602559298173
 20
-12.19533260842672
 30
0.0
 10
5.547494582292641
 20
-12.1885658817028
 30
0.0
 10
5.570403348311401
 20
-12.1786108236931
 30
0.0
 10
5.61372831293761
 20
-12.15182304611519
 30
0.0
 10
5.642519196171861
 20
-12.11763578418538
 30
0.0
 10
5.655703302329242
 20
-12.09694064473697
 30
0.0
 10
5.665501164813803
 20
-12.07736218720151
 30
0.0
 10
5.673205080757156
 20
-12.0581369059995
 30
0.0
  0
ARC
  5
304A8
330
1F
100
AcDbEntity
  8
1
100
AcDbCircle
 10
5.499998000000117
 20
-12.150011
 30
0.0
 40
0.199989
100
AcDbArc
 50
209.996057999999
 51
330.0045229999957
  0
LINE
  5
304A9
330
1F
100
AcDbEntity
  8
1
100
AcDbLine
 10
5.673205000000165
 20
-12.2499939999999
 30
0.0
 11
5.673205000000165
 21
-12.0581369999999
 31
0.0
  0
LINE
  5
304AA
330
1F
100
AcDbEntity
  8
1
100
AcDbLine
 10
7.70000000000016
 20
-8.728532999999998
 30
0.0
 11
7.70000000000016
 21
-7.157346000000018
 31
0.0
  0
SPLINE
  5
304AB
330
1F
100
AcDbEntity
  8
1
100
AcDbSpline
210
0.0
220
0.0
230
1.0
 70
     8
 71
     5
 72
    15
 73
     9
 74
     0
 42
0.000000001
 43
0.0000000001
 40
0.0
 40
0.0
 40
0.0
 40
0.0
 40
0.0
 40
0.0
 40
5.856070815073721
 40
5.856070815073721
 40
5.856070815073721
 40
6.306991048007692
 40
6.306991048007692
 40
6.306991048007692
 40
6.306991048007692
 40
6.306991048007692
 40
6.306991048007692
 10
7.70000000000016
 20
-7.157346144153477
 30
0.0
 10
7.46690401084129
 20
-7.843461588119282
 30
0.0
 10
7.197536818096182
 20
-8.543069337463888
 30
0.0
 10
6.898092034798652
 20
-9.252175001619493
 30
0.0
 10
6.552846787035491
 20
-10.01848882067571
 30
0.0
 10
6.188809830965737
 20
-10.78546708637739
 30
0.0
 10
6.162687511433545
 20
-10.8403083110928
 30
0.0
 10
6.136475651825207
 20
-10.89514694797898
 30
0.0
 10
6.110174766509202
 20
-10.94998563035679
 30
0.0
  0
SPLINE
  5
304AC
330
1F
100
AcDbEntity
  8
1
100
AcDbSpline
210
0.0
220
0.0
230
1.0
 70
     8
 71
     5
 72
    15
 73
     9
 74
     0
 42
0.000000001
 43
0.0000000001
 40
0.0
 40
0.0
 40
0.0
 40
0.0
 40
0.0
 40
0.0
 40
1.952141039441275
 40
1.952141039441275
 40
1.952141039441275
 40
2.203908260428788
 40
2.203908260428788
 40
2.203908260428788
 40
2.203908260428788
 40
2.203908260428788
 40
2.203908260428788
 10
5.730940107675793
 20
-11.88561747110998
 30
0.0
 10
5.753256505534522
 20
-11.78933399821938
 30
0.0
 10
5.804766637134775
 20
-11.64052913508558
 30
0.0
 10
5.878327339385236
 20
-11.45787412483571
 30
0.0
 10
5.970803889398438
 20
-11.24598140573559
 30
0.0
 10
6.074021952363067
 20
-11.025918940188
 30
0.0
 10
6.085947318344437
 20
-11.00068523984041
 30
0.0
 10
6.097999817048616
 20
-10.97537101865808
 30
0.0
 10
6.110174766509202
 20
-10.94998563035679
 30
0.0
  0
ARC
  5
304AD
330
1F
100
AcDbEntity
  8
1
100
AcDbCircle
 10
4.520189999999955
 20
-11.57350600000001
 30
0.0
 40
1.250523
100
AcDbArc
 50
337.2022200000035
 51
345.5448220000016
  0
ARC
  5
304AE
330
1F
100
AcDbEntity
  8
1
100
AcDbCircle
 10
-1145.749926999999
 20
652.8497859999998
 30
0.0
 40
1329.711535
100
AcDbArc
 50
329.9878599999987
 51
330.1629339999991
  0
LINE
  5
304AF
330
1F
100
AcDbEntity
  8
1
100
AcDbLine
 10
7.70000000000016
 20
-4.786601000000018
 30
0.0
 11
7.70000000000016
 21
-7.157346000000018
 31
0.0
  0
LINE
  5
304B0
330
1F
100
AcDbEntity
  8
1
100
AcDbLine
 10
3.299999999999953
 20
-4.786601000000018
 30
0.0
 11
4.060956000000146
 21
-4.786601000000018
 31
0.0
  0
LINE
  5
304B1
330
1F
100
AcDbEntity
  8
1
100
AcDbLine
 10
6.939043999999968
 20
-4.786601000000018
 30
0.0
 11
7.70000000000016
 21
-4.786601000000018
 31
0.0
  0
LINE
  5
304B2
330
1F
100
AcDbEntity
  8
1
100
AcDbLine
 10
6.110175000000139
 20
-10.94998599999999
 30
0.0
 11
4.889825000000087
 21
-10.94998599999999
 31
0.0
  0
LINE
  5
304B3
330
1F
100
AcDbEntity
  8
1
100
AcDbLine
 10
5.730940000000146
 20
-11.88561699999999
 30
0.0
 11
5.269059999999966
 21
-11.88561699999999
 31
0.0
  0
LINE
  5
304B4
330
1F
100
AcDbEntity
  8
1
100
AcDbLine
 10
0.0000000000001137
 20
-5.704287000000022
 30
0.0
 11
0.0000000000001137
 21
-6.5
 31
0.0
  0
LINE
  5
304B5
330
1F
100
AcDbEntity
  8
1
100
AcDbLine
 10
0.0000000000001137
 20
6.500000000000111
 30
0.0
 11
0.0000000000001137
 21
-5.704287000000022
 31
0.0
  0
LINE
  5
304B6
330
1F
100
AcDbEntity
  8
1
100
AcDbLine
 10
3.299999999999953
 20
-6.713411000000008
 30
0.0
 11
3.299999999999953
 21
-7.561299000000018
 31
0.0
  0
LINE
  5
304B7
330
1F
100
AcDbEntity
  8
1
100
AcDbLine
 10
3.299999999999953
 20
-6.713506999999906
 30
0.0
 11
3.299999999999953
 21
-7.649988000000008
 31
0.0
  0
LINE
  5
304B8
330
1F
100
AcDbEntity
  8
1
100
AcDbLine
 10
3.299999999999953
 20
7.561299000000103
 30
0.0
 11
3.299999999999953
 21
3.836590000000001
 31
0.0
  0
SPLINE
  5
304B9
330
1F
100
AcDbEntity
  8
1
100
AcDbSpline
210
0.0
220
0.0
230
1.0
 70
     8
 71
     5
 72
    24
 73
    18
 74
     0
 42
0.000000001
 43
0.0000000001
 40
0.0
 40
0.0
 40
0.0
 40
0.0
 40
0.0
 40
0.0
 40
0.0624203711167434
 40
0.0624203711167434
 40
0.0624203711167434
 40
0.2186714295205522
 40
0.2186714295205522
 40
0.2186714295205522
 40
0.3606856540236642
 40
0.3606856540236642
 40
0.3606856540236642
 40
0.9216859285426208
 40
0.9216859285426208
 40
0.9216859285426208
 40
1.375782840596561
 40
1.375782840596561
 40
1.375782840596561
 40
1.375782840596561
 40
1.375782840596561
 40
1.375782840596561
 10
3.299999999999953
 20
3.836590425132698
 30
0.0
 10
3.307207683613569
 20
3.836590425132698
 30
0.0
 10
3.31441546799499
 20
3.836585595805018
 30
0.0
 10
3.321673658095392
 20
3.834813863627601
 30
0.0
 10
3.346229223171917
 20
3.828765334791198
 30
0.0
 10
3.368900617108123
 20
3.8163002941383
 30
0.0
 10
3.38358164585304
 20
3.804575455529203
 30
0.0
 10
3.407985065543471
 20
3.779390710514718
 30
0.0
 10
3.426572355484609
 20
3.750202252030589
 30
0.0
 10
3.43444770917108
 20
3.735489526782088
 30
0.0
 10
3.468476187896384
 20
3.660861684003292
 30
0.0
 10
3.482049111113723
 20
3.579551583191516
 30
0.0
 10
3.488181356995254
 20
3.517424306859112
 30
0.0
 10
3.494159780875634
 20
3.403561599510908
 30
0.0
 10
3.494004776635732
 20
3.294470027168613
 30
0.0
 10
3.493098614904283
 20
3.246695204796508
 30
0.0
 10
3.491028232166853
 20
3.200525041685096
 30
0.0
 10
3.485911118218155
 20
3.156426172422698
 30
0.0
  0
SPLINE
  5
304BA
330
1F
100
AcDbEntity
  8
1
100
AcDbSpline
210
0.0
220
0.0
230
1.0
 70
     8
 71
     5
 72
    36
 73
    30
 74
     0
 42
0.000000001
 43
0.0000000001
 40
0.0
 40
0.0
 40
0.0
 40
0.0
 40
0.0
 40
0.0
 40
0.007551742226683
 40
0.007551742226683
 40
0.007551742226683
 40
0.0151034844533642
 40
0.0151034844533642
 40
0.0151034844533642
 40
0.0226540995417899
 40
0.0226540995417899
 40
0.0226540995417899
 40
0.0302047146302173
 40
0.0302047146302173
 40
0.0302047146302173
 40
0.0426092405838766
 40
0.0426092405838766
 40
0.0426092405838766
 40
0.0797135154035338
 40
0.0797135154035338
 40
0.0797135154035338
 40
0.2138053860893517
 40
0.2138053860893517
 40
0.2138053860893517
 40
0.4147021703003463
 40
0.4147021703003463
 40
0.4147021703003463
 40
0.7677435470150913
 40
0.7677435470150913
 40
0.7677435470150913
 40
0.7677435470150913
 40
0.7677435470150913
 40
0.7677435470150913
 10
3.299999999999953
 20
2.774697862143199
 30
0.0
 10
3.301067977627667
 20
2.774697862143199
 30
0.0
 10
3.302135955255379
 20
2.774697862143199
 30
0.0
 10
3.303207125490871
 20
2.774736935420917
 30
0.0
 10
3.305334295417196
 20
2.774891033362108
 30
0.0
 10
3.307461465343407
 20
2.775045131303272
 30
0.0
 10
3.308523631331126
 20
2.775161132836018
 30
0.0
 10
3.310625106217571
 20
2.775464781655926
 30
0.0
 10
3.312726581104128
 20
2.775768430475806
 30
0.0
 10
3.313771452203694
 20
2.775957875765726
 30
0.0
 10
3.31583273187357
 20
2.776402676937094
 30
0.0
 10
3.317894011543671
 20
2.776847478108521
 30
0.0
 10
3.318915117656046
 20
2.777105233758986
 30
0.0
 10
3.321570994198736
 20
2.777864969846176
 30
0.0
 10
3.324226870741084
 20
2.778624705933281
 30
0.0
 10
3.325824225747396
 20
2.779221753144184
 30
0.0
 10
3.332171664210591
 20
2.781579802274279
 30
0.0
 10
3.338170469189321
 20
2.784491182216783
 30
0.0
 10
3.342515123435646
 20
2.786956472598916
 30
0.0
 10
3.361369794939263
 20
2.799088654637698
 30
0.0
 10
3.376323540506746
 20
2.814670517619703
 30
0.0
 10
3.386678473059191
 20
2.827815420860018
 30
0.0
 10
3.408912994669435
 20
2.861145320655707
 30
0.0
 10
3.425359886774912
 20
2.896577783422428
 30
0.0
 10
3.433845675804718
 20
2.917883368905592
 30
0.0
 10
3.454502635391803
 20
2.977896131370981
 30
0.0
 10
3.468485848389149
 20
3.03908807721899
 30
0.0
 10
3.475611912871953
 20
3.077876199940419
 30
0.0
 10
3.481350796765127
 20
3.117125695322413
 30
0.0
 10
3.485911118218608
 20
3.156426172422698
 30
0.0
  0
LINE
  5
304BB
330
1F
100
AcDbEntity
  8
1
100
AcDbLine
 10
3.299999999999953
 20
2.774698000000114
 30
0.0
 11
3.299999999999953
 21
-3.813398000000006
 31
0.0
  0
ARC
  5
304BC
330
1F
100
AcDbEntity
  8
1
100
AcDbCircle
 10
1.70665299999996
 20
-4.173029999999896
 30
0.0
 40
1.786783
100
AcDbArc
 50
354.7537379999996
 51
359.4772219999984
  0
SPLINE
  5
304BD
330
1F
100
AcDbEntity
  8
1
100
AcDbSpline
210
0.0
220
0.0
230
1.0
 70
     8
 71
     5
 72
    36
 73
    30
 74
     0
 42
0.000000001
 43
0.0000000001
 40
0.0
 40
0.0
 40
0.0
 40
0.0
 40
0.0
 40
0.0
 40
0.007551742226682
 40
0.007551742226682
 40
0.007551742226682
 40
0.0151034844533645
 40
0.0151034844533645
 40
0.0151034844533645
 40
0.022654099541791
 40
0.022654099541791
 40
0.022654099541791
 40
0.0302047146302149
 40
0.0302047146302149
 40
0.0302047146302149
 40
0.042609240583875
 40
0.042609240583875
 40
0.042609240583875
 40
0.0797135154035268
 40
0.0797135154035268
 40
0.0797135154035268
 40
0.2138053860893387
 40
0.2138053860893387
 40
0.2138053860893387
 40
0.4147021703020933
 40
0.4147021703020933
 40
0.4147021703020933
 40
0.7677435470173109
 40
0.7677435470173109
 40
0.7677435470173109
 40
0.7677435470173109
 40
0.7677435470173109
 40
0.7677435470173109
 10
3.299999999999953
 20
-4.786601492309188
 30
0.0
 10
3.301067977627667
 20
-4.786601492309188
 30
0.0
 10
3.302135955255379
 20
-4.786601492309188
 30
0.0
 10
3.303207125490871
 20
-4.786555410535213
 30
0.0
 10
3.305334295417196
 20
-4.786373672352083
 30
0.0
 10
3.307461465343407
 20
-4.78619193416921
 30
0.0
 10
3.308523631331126
 20
-4.786055125671707
 30
0.0
 10
3.310625106217571
 20
-4.785697011965708
 30
0.0
 10
3.312726581104128
 20
-4.785338898259708
 30
0.0
 10
3.313771452203694
 20
-4.785115472544076
 30
0.0
 10
3.31583273187357
 20
-4.784590888269576
 30
0.0
 10
3.317894011543671
 20
-4.78406630399499
 30
0.0
 10
3.318915117656046
 20
-4.783762315225003
 30
0.0
 10
3.321570994198736
 20
-4.782866306784001
 30
0.0
 10
3.324226870741084
 20
-4.781970298342797
 30
0.0
 10
3.325824225747396
 20
-4.781266159958818
 30
0.0
 10
3.332171664210591
 20
-4.778485152236783
 30
0.0
 10
3.338170469189321
 20
-4.775051563852827
 30
0.0
 10
3.342515123435646
 20
-4.772144079228296
 30
0.0
 10
3.361369794939263
 20
-4.757835771778728
 30
0.0
 10
3.376323540506746
 20
-4.739459020962384
 30
0.0
 10
3.386678473059191
 20
-4.7239563425195
 30
0.0
 10
3.408912994669663
 20
-4.684648124754374
 30
0.0
 10
3.425359886775027
 20
-4.642860211471571
 30
0.0
 10
3.433845675804718
 20
-4.617733085411089
 30
0.0
 10
3.454502635391803
 20
-4.546955952862703
 30
0.0
 10
3.468485848389149
 20
-4.474788129148919
 30
0.0
 10
3.475611912871953
 20
-4.429042657846395
 30
0.0
 10
3.481350796765127
 20
-4.382753058384706
 30
0.0
 10
3.485911118218608
 20
-4.336403332715207
 30
0.0
  0
LINE
  5
304BE
330
1F
100
AcDbEntity
  8
1
100
AcDbLine
 10
3.299999999999953
 20
-4.786601000000018
 30
0.0
 11
3.299999999999953
 21
-6.713506999999906
 31
0.0
  0
LINE
  5
304BF
330
1F
100
AcDbEntity
  8
1
100
AcDbLine
 10
3.299999999999953
 20
7.649987999999978
 30
0.0
 11
3.299999999999953
 21
6.713506999999991
 31
0.0
  0
LINE
  5
304C0
330
1F
100
AcDbEntity
  8
1
100
AcDbLine
 10
2.799999999999954
 20
-5.704287000000022
 30
0.0
 11
2.799999999999954
 21
-6.5
 31
0.0
  0
LINE
  5
304C1
330
1F
100
AcDbEntity
  8
1
100
AcDbLine
 10
2.799999999999954
 20
6.500000000000111
 30
0.0
 11
2.799999999999954
 21
-5.704287000000022
 31
0.0
  0
LINE
  5
304C2
330
1F
100
AcDbEntity
  8
1
100
AcDbLine
 10
3.299999999999953
 20
3.836590000000001
 30
0.0
 11
7.70000000000016
 21
3.836590000000001
 31
0.0
  0
LINE
  5
304C3
330
1F
100
AcDbEntity
  8
1
100
AcDbLine
 10
7.70000000000016
 20
3.156426000000095
 30
0.0
 11
3.485910999999986
 21
3.156426000000095
 31
0.0
  0
LINE
  5
304C4
330
1F
100
AcDbEntity
  8
1
100
AcDbLine
 10
7.70000000000016
 20
3.156426000000095
 30
0.0
 11
7.70000000000016
 21
3.836590000000001
 31
0.0
  0
LINE
  5
304C5
330
1F
100
AcDbEntity
  8
1
100
AcDbLine
 10
7.70000000000016
 20
3.156426000000095
 30
0.0
 11
7.70000000000016
 21
2.774698000000114
 31
0.0
  0
LINE
  5
304C6
330
1F
100
AcDbEntity
  8
1
100
AcDbLine
 10
7.70000000000016
 20
2.774698000000114
 30
0.0
 11
3.299999999999953
 21
2.774698000000114
 31
0.0
  0
LINE
  5
304C7
330
1F
100
AcDbEntity
  8
1
100
AcDbLine
 10
7.70000000000016
 20
-4.336403000000017
 30
0.0
 11
7.366856000000097
 21
-4.336403000000017
 31
0.0
  0
LINE
  5
304C8
330
1F
100
AcDbEntity
  8
1
100
AcDbLine
 10
3.63314700000012
 20
-4.336403000000017
 30
0.0
 11
3.485910999999986
 21
-4.336403000000017
 31
0.0
  0
LINE
  5
304C9
330
1F
100
AcDbEntity
  8
1
100
AcDbLine
 10
7.70000000000016
 20
-4.336403000000017
 30
0.0
 11
7.70000000000016
 21
-3.985418999999893
 31
0.0
  0
LINE
  5
304CA
330
1F
100
AcDbEntity
  8
1
100
AcDbLine
 10
7.70000000000016
 20
-4.336403000000017
 30
0.0
 11
7.70000000000016
 21
-4.786601000000018
 31
0.0
  0
LINE
  5
304CB
330
1F
100
AcDbEntity
  8
1
100
AcDbLine
 10
7.70000000000016
 20
-4.786601000000018
 30
0.0
 11
6.939043999999968
 21
-4.786601000000018
 31
0.0
  0
LINE
  5
304CC
330
1F
100
AcDbEntity
  8
1
100
AcDbLine
 10
4.060956000000146
 20
-4.786601000000018
 30
0.0
 11
3.299999999999953
 21
-4.786601000000018
 31
0.0
  0
ARC
  5
304CD
330
1F
100
AcDbEntity
  8
1
100
AcDbCircle
 10
2.799999999999954
 20
-7.199999999999902
 30
0.0
 40
0.7
100
AcDbArc
 50
44.41493599999737
 51
90.00001000000102
  0
ARC
  5
304CE
330
1F
100
AcDbEntity
  8
1
100
AcDbCircle
 10
2.799999999999954
 20
7.199999999999986
 30
0.0
 40
0.7
100
AcDbArc
 50
269.999989999999
 51
315.5850920000028
  0
LINE
  5
304CF
330
1F
100
AcDbEntity
  8
1
100
AcDbLine
 10
2.799999999999954
 20
-6.5
 30
0.0
 11
0.0000000000001137
 21
-6.5
 31
0.0
  0
LINE
  5
304D0
330
1F
100
AcDbEntity
  8
1
100
AcDbLine
 10
2.799999999999954
 20
6.500000000000111
 30
0.0
 11
0.0000000000001137
 21
6.500000000000111
 31
0.0
  0
LINE
  5
304D1
330
1F
100
AcDbEntity
  8
1
100
AcDbLine
 10
3.299999999999953
 20
8.739487999999994
 30
0.0
 11
3.299999999999953
 21
7.649999999999977
 31
0.0
  0
LINE
  5
304D2
330
1F
100
AcDbEntity
  8
1
100
AcDbLine
 10
3.299999999999953
 20
7.649999999999977
 30
0.0
 11
7.70000000000016
 21
7.649999999999977
 31
0.0
  0
LINE
  5
304D3
330
1F
100
AcDbEntity
  8
1
100
AcDbLine
 10
7.70000000000016
 20
7.649999999999977
 30
0.0
 11
7.70000000000016
 21
8.739487999999994
 31
0.0
  0
LINE
  5
304D4
330
1F
100
AcDbEntity
  8
1
100
AcDbLine
 10
5.673205000000165
 20
12.25
 30
0.0
 11
7.70000000000016
 21
8.739487999999994
 31
0.0
  0
ARC
  5
304D5
330
1F
100
AcDbEntity
  8
1
100
AcDbCircle
 10
5.500000000000113
 20
12.15
 30
0.0
 40
0.2
100
AcDbArc
 50
30.00000000000055
 51
149.9999999999994
  0
LINE
  5
304D6
330
1F
100
AcDbEntity
  8
1
100
AcDbLine
 10
3.299999999999953
 20
8.739487999999994
 30
0.0
 11
5.326794999999947
 21
12.25
 31
0.0
  0
LINE
  5
304D7
330
1F
100
AcDbEntity
  8
SKVIEW4
100
AcDbLine
 10
-40.80976388679971
 20
0.0
 30
0.0
 11
-68.59369988679985
 21
0.0
 31
0.0
  0
LINE
  5
304D8
330
1F
100
AcDbEntity
  8
SKVIEW4
100
AcDbLine
 10
-54.70173188679985
 20
13.8919680000001
 30
0.0
 11
-54.70173188679985
 21
-13.89196799999991
 31
0.0
  0
ARC
  5
304D9
330
1F
100
AcDbEntity
  8
SKVIEW1
100
AcDbCircle
 10
-54.70173188679985
 20
0.0
 30
0.0
 40
7.65
100
AcDbArc
 50
38.73355000000096
 51
89.89971200000098
  0
LINE
  5
304DA
330
1F
100
AcDbEntity
  8
SKVIEW1
100
AcDbLine
 10
-50.15489988679973
 20
8.322920000000095
 30
0.0
 11
-51.21028088679985
 21
10.94998600000011
 31
0.0
  0
LINE
  5
304DB
330
1F
100
AcDbEntity
  8
SKVIEW1
100
AcDbLine
 10
-49.68664988679984
 20
7.157346000000102
 30
0.0
 11
-50.15489988679973
 21
8.322920000000095
 31
0.0
  0
LINE
  5
304DC
330
1F
100
AcDbEntity
  8
SKVIEW1
100
AcDbLine
 10
-48.73424088679985
 20
4.786601000000104
 30
0.0
 11
-49.68664988679984
 21
7.157346000000102
 31
0.0
  0
ARC
  5
304DD
330
1F
100
AcDbEntity
  8
SKVIEW1
100
AcDbCircle
 10
-55.2418658867997
 20
8.482821000000111
 30
0.0
 40
1.0
100
AcDbArc
 50
303.6091469999987
 51
6.886999999999765
  0
LINE
  5
304DE
330
1F
100
AcDbEntity
  8
SKVIEW1
100
AcDbLine
 10
-54.68960888679998
 20
12.2499940000001
 30
0.0
 11
-54.70168788679984
 21
12.35000000000011
 31
0.0
  0
LINE
  5
304DF
330
1F
100
AcDbEntity
  8
SKVIEW1
100
AcDbLine
 10
-54.2490818868
 20
8.602733
 30
0.0
 11
-54.26427588679974
 21
8.728533000000112
 31
0.0
  0
LINE
  5
304E0
330
1F
100
AcDbEntity
  8
SKVIEW1
100
AcDbLine
 10
-54.26427588679974
 20
8.728533000000112
 30
0.0
 11
-54.68960888679998
 21
12.2499940000001
 31
0.0
  0
ARC
  5
304E1
330
1F
100
AcDbEntity
  8
SKVIEW1
100
AcDbCircle
 10
-52.73825788679971
 20
10.33614600000001
 30
0.0
 40
1.646666999999999
100
AcDbArc
 50
21.88700000000377
 51
70.21589899999991
  0
ARC
  5
304E2
330
1F
100
AcDbEntity
  8
SKVIEW1
100
AcDbCircle
 10
-51.50394588680001
 20
13.76756700000001
 30
0.0
 40
2.0
100
AcDbArc
 50
231.9477680000036
 51
250.2158989999999
  0
ARC
  5
304E3
330
1F
100
AcDbEntity
  8
SKVIEW1
100
AcDbCircle
 10
-54.70173188679985
 20
0.0
 30
0.0
 40
8.739487999999996
100
AcDbArc
 50
54.98144800000169
 51
87.13085599999958
  0
ARC
  5
304E4
330
1F
100
AcDbEntity
  8
SKVIEW1
100
AcDbCircle
 10
-54.70173188679985
 20
0.0
 30
0.0
 40
12.25
100
AcDbArc
 50
79.84607899999841
 51
89.94329899999931
  0
ARC
  5
304E5
330
1F
100
AcDbEntity
  8
SKVIEW1
100
AcDbCircle
 10
-54.70173188679985
 20
0.0000049999999874
 30
0.0
 40
12.349995
100
AcDbArc
 50
80.84466900000093
 51
89.99979800000316
  0
LINE
  5
304E6
330
1F
100
AcDbEntity
  8
SKVIEW1
100
AcDbLine
 10
-44.0062958868
 20
6.174961999999991
 30
0.0
 11
-44.08686488679972
 21
6.114498000000111
 31
0.0
  0
ARC
  5
304E7
330
1F
100
AcDbEntity
  8
SKVIEW1
100
AcDbCircle
 10
-54.70173188679985
 20
0.0
 30
0.0
 40
12.25
100
AcDbArc
 50
19.84607900000118
 51
29.94329899999774
  0
ARC
  5
304E8
330
1F
100
AcDbEntity
  8
SKVIEW1
100
AcDbCircle
 10
-41.17977588679969
 20
4.114418999999998
 30
0.0
 40
2.0
100
AcDbArc
 50
171.9477950000011
 51
190.2158989999993
  0
LINE
  5
304E9
330
1F
100
AcDbEntity
  8
SKVIEW1
100
AcDbLine
 10
-46.92387288679968
 20
3.985418999999978
 30
0.0
 11
-44.08686488679972
 21
6.114498000000111
 31
0.0
  0
ARC
  5
304EA
330
1F
100
AcDbEntity
  8
SKVIEW1
100
AcDbCircle
 10
-54.70173188679985
 20
0.0
 30
0.0
 40
8.739487999999996
100
AcDbArc
 50
354.9814480000002
 51
27.13085600000136
  0
LINE
  5
304EB
330
1F
100
AcDbEntity
  8
SKVIEW1
100
AcDbLine
 10
-45.99574688679957
 20
-0.7645160000000148
 30
0.0
 11
-43.47304088679971
 21
2.451307999999983
 31
0.0
  0
ARC
  5
304EC
330
1F
100
AcDbEntity
  8
SKVIEW1
100
AcDbCircle
 10
-44.76862988679999
 20
3.467653999999981
 30
0.0
 40
1.646666999999999
100
AcDbArc
 50
321.8870000000004
 51
10.21589899999952
  0
LINE
  5
304ED
330
1F
100
AcDbEntity
  8
SKVIEW1
100
AcDbLine
 10
-47.57266788679987
 20
-2.774697999999999
 30
0.0
 11
-45.99574688679957
 21
-0.7645160000000148
 31
0.0
  0
LINE
  5
304EE
330
1F
100
AcDbEntity
  8
SKVIEW1
100
AcDbLine
 10
-47.02522188679973
 20
3.909359999999991
 30
0.0
 11
-46.92387288679968
 21
3.985418999999978
 31
0.0
  0
ARC
  5
304EF
330
1F
100
AcDbEntity
  8
SKVIEW1
100
AcDbCircle
 10
-47.62546088679971
 20
4.709181000000112
 30
0.0
 40
1.0
100
AcDbArc
 50
243.6091470000016
 51
306.8869999999979
  0
ARC
  5
304F0
330
1F
100
AcDbEntity
  8
SKVIEW1
100
AcDbCircle
 10
-54.70173188679985
 20
0.0
 30
0.0
 40
7.65
100
AcDbArc
 50
338.7335499999983
 51
29.89971200000044
  0
ARC
  5
304F1
330
1F
100
AcDbEntity
  8
SKVIEW1
100
AcDbCircle
 10
-54.70168488679985
 20
0.0000239999999962
 30
0.0
 40
12.349947
100
AcDbArc
 50
20.84464300000035
 51
29.99981199999839
  0
LINE
  5
304F2
330
1F
100
AcDbEntity
  8
SKVIEW1
100
AcDbLine
 10
-44.00633988679999
 20
-6.175037999999887
 30
0.0
 11
-44.0989868867997
 21
-6.135495999999902
 31
0.0
  0
ARC
  5
304F3
330
1F
100
AcDbEntity
  8
SKVIEW1
100
AcDbCircle
 10
-54.70173188679985
 20
0.0
 30
0.0
 40
12.25
100
AcDbArc
 50
319.8460790000035
 51
329.9432990000022
  0
ARC
  5
304F4
330
1F
100
AcDbEntity
  8
SKVIEW1
100
AcDbCircle
 10
-44.37756188679986
 20
-9.653147999999902
 30
0.0
 40
2.0
100
AcDbArc
 50
111.9477950000011
 51
130.2158989999989
  0
LINE
  5
304F5
330
1F
100
AcDbEntity
  8
SKVIEW1
100
AcDbLine
 10
-47.3613288867997
 20
-4.743113999999906
 30
0.0
 11
-44.0989868867997
 21
-6.135495999999902
 31
0.0
  0
ARC
  5
304F6
330
1F
100
AcDbEntity
  8
SKVIEW1
100
AcDbCircle
 10
-54.70173188679985
 20
0.0
 30
0.0
 40
8.739487999999996
100
AcDbArc
 50
294.9814480000018
 51
327.1308560000002
  0
LINE
  5
304F7
330
1F
100
AcDbEntity
  8
SKVIEW1
100
AcDbLine
 10
-50.3202158867997
 20
-8.020309999999881
 30
0.0
 11
-46.96449188679968
 21
-8.498677999999898
 31
0.0
  0
ARC
  5
304F8
330
1F
100
AcDbEntity
  8
SKVIEW1
100
AcDbCircle
 10
-46.73210388679956
 20
-6.868491000000005
 30
0.0
 40
1.646666999999999
100
AcDbArc
 50
261.8870000000025
 51
310.2158989999989
  0
LINE
  5
304F9
330
1F
100
AcDbEntity
  8
SKVIEW1
100
AcDbLine
 10
-51.01082988679968
 20
-7.921861999999888
 30
0.0
 11
-50.3202158867997
 21
-8.020309999999881
 31
0.0
  0
LINE
  5
304FA
330
1F
100
AcDbEntity
  8
SKVIEW1
100
AcDbLine
 10
-51.01082988679968
 20
-7.921861999999888
 30
0.0
 11
-53.54015888679987
 21
-7.561299000000018
 31
0.0
  0
LINE
  5
304FB
330
1F
100
AcDbEntity
  8
SKVIEW1
100
AcDbLine
 10
-47.47787188680002
 20
-4.693372999999893
 30
0.0
 11
-47.3613288867997
 21
-4.743113999999906
 31
0.0
  0
ARC
  5
304FC
330
1F
100
AcDbEntity
  8
SKVIEW1
100
AcDbCircle
 10
-47.08532588679985
 20
-3.773640999999883
 30
0.0
 40
1.0
100
AcDbArc
 50
183.6091470000004
 51
246.8869999999981
  0
ARC
  5
304FD
330
1F
100
AcDbEntity
  8
SKVIEW1
100
AcDbCircle
 10
-54.70173188679985
 20
0.0
 30
0.0
 40
7.65
100
AcDbArc
 50
278.7335500000009
 51
329.8997120000022
  0
ARC
  5
304FE
330
1F
100
AcDbEntity
  8
SKVIEW1
100
AcDbCircle
 10
-54.70168788679984
 20
-0.0000289999998984
 30
0.0
 40
12.349947
100
AcDbArc
 50
320.8446429999989
 51
329.9998119999968
  0
ARC
  5
304FF
330
1F
100
AcDbEntity
  8
SKVIEW1
100
AcDbCircle
 10
-57.89951788679967
 20
-13.7675669999999
 30
0.0
 40
2.0
100
AcDbArc
 50
51.94779499999807
 51
70.21589899999991
  0
LINE
  5
30500
330
1F
100
AcDbEntity
  8
SKVIEW1
100
AcDbLine
 10
-54.70177588679985
 20
-12.35000000000002
 30
0.0
 11
-54.7138548867997
 21
-12.2499939999999
 31
0.0
  0
ARC
  5
30501
330
1F
100
AcDbEntity
  8
SKVIEW1
100
AcDbCircle
 10
-54.70173188679985
 20
0.0
 30
0.0
 40
12.25
100
AcDbArc
 50
259.8460789999983
 51
269.9432989999993
  0
ARC
  5
30502
330
1F
100
AcDbEntity
  8
SKVIEW1
100
AcDbCircle
 10
-54.70173188679985
 20
0.0
 30
0.0
 40
8.739487999999996
100
AcDbArc
 50
234.9814480000017
 51
267.1308559999996
  0
LINE
  5
30503
330
1F
100
AcDbEntity
  8
SKVIEW1
100
AcDbLine
 10
-59.71681388679975
 20
-7.157346000000018
 30
0.0
 11
-58.19318288679972
 21
-10.94998599999999
 31
0.0
  0
ARC
  5
30504
330
1F
100
AcDbEntity
  8
SKVIEW1
100
AcDbCircle
 10
-56.66520588679986
 20
-10.3361459999999
 30
0.0
 40
1.646666999999999
100
AcDbArc
 50
201.8870000000021
 51
250.2158989999999
  0
LINE
  5
30505
330
1F
100
AcDbEntity
  8
SKVIEW1
100
AcDbLine
 10
-55.13918788679973
 20
-8.728532999999998
 30
0.0
 11
-54.7138548867997
 21
-12.2499939999999
 31
0.0
  0
LINE
  5
30506
330
1F
100
AcDbEntity
  8
SKVIEW1
100
AcDbLine
 10
-60.66922288679984
 20
-4.786601000000018
 30
0.0
 11
-59.71681388679975
 21
-7.157346000000018
 31
0.0
  0
LINE
  5
30507
330
1F
100
AcDbEntity
  8
SKVIEW1
100
AcDbLine
 10
-55.15438188679958
 20
-8.602732999999885
 30
0.0
 11
-55.13918788679973
 21
-8.728532999999998
 31
0.0
  0
ARC
  5
30508
330
1F
100
AcDbEntity
  8
SKVIEW1
100
AcDbCircle
 10
-54.16159788679999
 20
-8.482821000000001
 30
0.0
 40
1.0
100
AcDbArc
 50
123.6091469999987
 51
186.8869999999997
  0
ARC
  5
30509
330
1F
100
AcDbEntity
  8
SKVIEW1
100
AcDbCircle
 10
-54.70173188679985
 20
0.0
 30
0.0
 40
7.65
100
AcDbArc
 50
218.7335500000009
 51
269.899712000001
  0
ARC
  5
3050A
330
1F
100
AcDbEntity
  8
SKVIEW1
100
AcDbCircle
 10
-54.70173488679971
 20
-0.0000529999998946
 30
0.0
 40
12.349947
100
AcDbArc
 50
260.8446429999974
 51
269.9998120000032
  0
LINE
  5
3050B
330
1F
100
AcDbEntity
  8
SKVIEW1
100
AcDbLine
 10
-65.39716788679971
 20
-6.174961999999906
 30
0.0
 11
-65.31659888679974
 21
-6.114497999999997
 31
0.0
  0
ARC
  5
3050C
330
1F
100
AcDbEntity
  8
SKVIEW1
100
AcDbCircle
 10
-54.70173188679985
 20
0.0
 30
0.0
 40
12.25
100
AcDbArc
 50
199.8460790000011
 51
209.9432989999976
  0
ARC
  5
3050D
330
1F
100
AcDbEntity
  8
SKVIEW1
100
AcDbCircle
 10
-68.22368788680001
 20
-4.114418999999883
 30
0.0
 40
2.0
100
AcDbArc
 50
351.9477950000011
 51
10.21589899999952
  0
LINE
  5
3050E
330
1F
100
AcDbEntity
  8
SKVIEW1
100
AcDbLine
 10
-62.4795908868
 20
-3.985418999999893
 30
0.0
 11
-65.31659888679974
 21
-6.114497999999997
 31
0.0
  0
ARC
  5
3050F
330
1F
100
AcDbEntity
  8
SKVIEW1
100
AcDbCircle
 10
-54.70173188679985
 20
0.0
 30
0.0
 40
8.739487999999996
100
AcDbArc
 50
174.9814479999999
 51
207.1308560000013
  0
LINE
  5
30510
330
1F
100
AcDbEntity
  8
SKVIEW1
100
AcDbLine
 10
-63.40771688680002
 20
0.7645160000000999
 30
0.0
 11
-65.93042288679987
 21
-2.451307999999897
 31
0.0
  0
ARC
  5
30511
330
1F
100
AcDbEntity
  8
SKVIEW1
100
AcDbCircle
 10
-64.63483388679971
 20
-3.467653999999896
 30
0.0
 40
1.646666999999999
100
AcDbArc
 50
141.8870000000003
 51
190.2158989999993
  0
ARC
  5
30512
330
1F
100
AcDbEntity
  8
SKVIEW1
100
AcDbCircle
 10
-54.70173188679985
 20
0.0
 30
0.0
 40
7.65
100
AcDbArc
 50
158.7335499999984
 51
209.8997120000004
  0
LINE
  5
30513
330
1F
100
AcDbEntity
  8
SKVIEW1
100
AcDbLine
 10
-61.8307958867997
 20
2.774698000000114
 30
0.0
 11
-63.40771688680002
 21
0.7645160000000999
 31
0.0
  0
LINE
  5
30514
330
1F
100
AcDbEntity
  8
SKVIEW1
100
AcDbLine
 10
-62.37824188680008
 20
-3.90936000000002
 30
0.0
 11
-62.4795908868
 21
-3.985418999999893
 31
0.0
  0
ARC
  5
30515
330
1F
100
AcDbEntity
  8
SKVIEW1
100
AcDbCircle
 10
-61.7780028868001
 20
-4.709181
 30
0.0
 40
1.0
100
AcDbArc
 50
63.60914700000159
 51
126.8869999999988
  0
ARC
  5
30516
330
1F
100
AcDbEntity
  8
SKVIEW1
100
AcDbCircle
 10
-54.70177888679973
 20
-0.0000239999998826
 30
0.0
 40
12.349947
100
AcDbArc
 50
200.8446430000003
 51
209.9998119999983
  0
LINE
  5
30517
330
1F
100
AcDbEntity
  8
SKVIEW1
100
AcDbLine
 10
-65.3971238867997
 20
6.175037999999999
 30
0.0
 11
-65.30447688679988
 21
6.135495999999988
 31
0.0
  0
ARC
  5
30518
330
1F
100
AcDbEntity
  8
SKVIEW1
100
AcDbCircle
 10
-54.70173188679985
 20
0.0
 30
0.0
 40
12.25
100
AcDbArc
 50
139.8460790000035
 51
149.9432990000006
  0
ARC
  5
30519
330
1F
100
AcDbEntity
  8
SKVIEW1
100
AcDbCircle
 10
-65.02590188679994
 20
9.653147999999987
 30
0.0
 40
2.0
100
AcDbArc
 50
291.9477950000011
 51
310.2158989999989
  0
ARC
  5
3051A
330
1F
100
AcDbEntity
  8
SKVIEW1
100
AcDbCircle
 10
-54.70173188679985
 20
0.0
 30
0.0
 40
8.739487999999996
100
AcDbArc
 50
114.9814480000018
 51
147.1308560000001
  0
LINE
  5
3051B
330
1F
100
AcDbEntity
  8
SKVIEW1
100
AcDbLine
 10
-58.3926338868
 20
7.921862000000003
 30
0.0
 11
-59.08324788679999
 21
8.020309999999991
 31
0.0
  0
LINE
  5
3051C
330
1F
100
AcDbEntity
  8
SKVIEW1
100
AcDbLine
 10
-62.0421348868
 20
4.743113999999991
 30
0.0
 11
-65.30447688679988
 21
6.135495999999988
 31
0.0
  0
LINE
  5
3051D
330
1F
100
AcDbEntity
  8
SKVIEW1
100
AcDbLine
 10
-59.08324788679999
 20
8.020309999999991
 30
0.0
 11
-62.43897188679954
 21
8.498677999999982
 31
0.0
  0
ARC
  5
3051E
330
1F
100
AcDbEntity
  8
SKVIEW1
100
AcDbCircle
 10
-62.67135988680002
 20
6.868491000000175
 30
0.0
 40
1.646666999999999
100
AcDbArc
 50
81.88700000000251
 51
130.2158989999989
  0
LINE
  5
3051F
330
1F
100
AcDbEntity
  8
SKVIEW1
100
AcDbLine
 10
-61.92559188679968
 20
4.693373000000092
 30
0.0
 11
-62.0421348868
 21
4.743113999999991
 31
0.0
  0
ARC
  5
30520
330
1F
100
AcDbEntity
  8
SKVIEW1
100
AcDbCircle
 10
-62.31813788679983
 20
3.773641000000111
 30
0.0
 40
1.0
100
AcDbArc
 50
3.609147000000518
 51
66.88699999999828
  0
ARC
  5
30521
330
1F
100
AcDbEntity
  8
SKVIEW1
100
AcDbCircle
 10
-54.70173188679985
 20
0.0
 30
0.0
 40
7.65
100
AcDbArc
 50
98.73355000000092
 51
149.8997120000022
  0
LINE
  5
30522
330
1F
100
AcDbEntity
  8
SKVIEW1
100
AcDbLine
 10
-58.3926338868
 20
7.921862000000003
 30
0.0
 11
-55.86330488679994
 21
7.561299000000103
 31
0.0
  0
ARC
  5
30523
330
1F
100
AcDbEntity
  8
SKVIEW1
100
AcDbCircle
 10
-54.70177588679985
 20
0.0000290000000973
 30
0.0
 40
12.349947
100
AcDbArc
 50
140.8446429999976
 51
149.9998119999968
  0
ARC
  5
30524
330
1F
100
AcDbEntity
  8
SKVIEW1
100
AcDbCircle
 10
-51.50394588680001
 20
13.76756700000001
 30
0.0
 40
2.0
100
AcDbArc
 50
231.947794999998
 51
250.2158989999999
  0
LINE
  5
30525
330
1F
100
AcDbEntity
  8
SKVIEW1
100
AcDbLine
 10
-54.70168788679984
 20
12.35000000000011
 30
0.0
 11
-54.68960888679998
 21
12.2499940000001
 31
0.0
  0
ARC
  5
30526
330
1F
100
AcDbEntity
  8
SKVIEW1
100
AcDbCircle
 10
-54.70173188679985
 20
0.0
 30
0.0
 40
12.25
100
AcDbArc
 50
79.84607899999841
 51
89.94329899999931
  0
ARC
  5
30527
330
1F
100
AcDbEntity
  8
SKVIEW1
100
AcDbCircle
 10
-54.70173188679985
 20
0.0
 30
0.0
 40
8.739487999999996
100
AcDbArc
 50
54.98144800000169
 51
87.13085599999958
  0
LINE
  5
30528
330
1F
100
AcDbEntity
  8
SKVIEW1
100
AcDbLine
 10
-49.68664988679984
 20
7.157346000000102
 30
0.0
 11
-51.21028088679985
 21
10.94998600000011
 31
0.0
  0
ARC
  5
30529
330
1F
100
AcDbEntity
  8
SKVIEW1
100
AcDbCircle
 10
-52.73825788679971
 20
10.33614600000001
 30
0.0
 40
1.646666999999999
100
AcDbArc
 50
21.88700000000377
 51
70.21589899999991
  0
LINE
  5
3052A
330
1F
100
AcDbEntity
  8
SKVIEW1
100
AcDbLine
 10
-54.26427588679974
 20
8.728533000000112
 30
0.0
 11
-54.68960888679998
 21
12.2499940000001
 31
0.0
  0
LINE
  5
3052B
330
1F
100
AcDbEntity
  8
SKVIEW1
100
AcDbLine
 10
-48.73424088679985
 20
4.786601000000104
 30
0.0
 11
-49.68664988679984
 21
7.157346000000102
 31
0.0
  0
LINE
  5
3052C
330
1F
100
AcDbEntity
  8
SKVIEW1
100
AcDbLine
 10
-54.2490818868
 20
8.602733
 30
0.0
 11
-54.26427588679974
 21
8.728533000000112
 31
0.0
  0
ARC
  5
3052D
330
1F
100
AcDbEntity
  8
SKVIEW1
100
AcDbCircle
 10
-55.2418658867997
 20
8.482821000000111
 30
0.0
 40
1.0
100
AcDbArc
 50
303.6091469999987
 51
6.886999999999765
  0
ARC
  5
3052E
330
1F
100
AcDbEntity
  8
SKVIEW1
100
AcDbCircle
 10
-54.70173188679985
 20
0.0
 30
0.0
 40
7.65
100
AcDbArc
 50
38.73355000000096
 51
89.89971200000098
  0
ARC
  5
3052F
330
1F
100
AcDbEntity
  8
SKVIEW1
100
AcDbCircle
 10
-54.70172888679986
 20
0.0000529999999799
 30
0.0
 40
12.349947
100
AcDbArc
 50
80.84464299999734
 51
89.99981200000325
  0
LINE
  5
30530
330
1F
100
AcDbEntity
  8
SKVIEW1
100
AcDbLine
 10
-44.0062958868
 20
6.174961999999991
 30
0.0
 11
-44.08686488679972
 21
6.114498000000111
 31
0.0
  0
ARC
  5
30531
330
1F
100
AcDbEntity
  8
SKVIEW1
100
AcDbCircle
 10
-54.70173188679985
 20
0.0
 30
0.0
 40
12.25
100
AcDbArc
 50
19.84607900000118
 51
29.94329899999774
  0
ARC
  5
30532
330
1F
100
AcDbEntity
  8
SKVIEW1
100
AcDbCircle
 10
-41.17977588679969
 20
4.114418999999998
 30
0.0
 40
2.0
100
AcDbArc
 50
171.9477950000011
 51
190.2158989999993
  0
LINE
  5
30533
330
1F
100
AcDbEntity
  8
SKVIEW1
100
AcDbLine
 10
-46.92387288679968
 20
3.985418999999978
 30
0.0
 11
-44.08686488679972
 21
6.114498000000111
 31
0.0
  0
ARC
  5
30534
330
1F
100
AcDbEntity
  8
SKVIEW1
100
AcDbCircle
 10
-54.70173188679985
 20
0.0
 30
0.0
 40
8.739487999999996
100
AcDbArc
 50
354.9814480000002
 51
27.13085600000136
  0
LINE
  5
30535
330
1F
100
AcDbEntity
  8
SKVIEW1
100
AcDbLine
 10
-45.99574688679957
 20
-0.7645160000000148
 30
0.0
 11
-43.47304088679971
 21
2.451307999999983
 31
0.0
  0
ARC
  5
30536
330
1F
100
AcDbEntity
  8
SKVIEW1
100
AcDbCircle
 10
-44.76862988679999
 20
3.467653999999981
 30
0.0
 40
1.646666999999999
100
AcDbArc
 50
321.8870000000004
 51
10.21589899999952
  0
LINE
  5
30537
330
1F
100
AcDbEntity
  8
SKVIEW1
100
AcDbLine
 10
-47.57266788679987
 20
-2.774697999999999
 30
0.0
 11
-45.99574688679957
 21
-0.7645160000000148
 31
0.0
  0
LINE
  5
30538
330
1F
100
AcDbEntity
  8
SKVIEW1
100
AcDbLine
 10
-47.02522188679973
 20
3.909359999999991
 30
0.0
 11
-46.92387288679968
 21
3.985418999999978
 31
0.0
  0
ARC
  5
30539
330
1F
100
AcDbEntity
  8
SKVIEW1
100
AcDbCircle
 10
-47.62546088679971
 20
4.709181000000112
 30
0.0
 40
1.0
100
AcDbArc
 50
243.6091470000016
 51
306.8869999999979
  0
ARC
  5
3053A
330
1F
100
AcDbEntity
  8
SKVIEW1
100
AcDbCircle
 10
-54.70173188679985
 20
0.0
 30
0.0
 40
7.65
100
AcDbArc
 50
338.7335499999983
 51
29.89971200000044
  0
ARC
  5
3053B
330
1F
100
AcDbEntity
  8
SKVIEW1
100
AcDbCircle
 10
-54.70168488679985
 20
0.0000239999999962
 30
0.0
 40
12.349947
100
AcDbArc
 50
20.84464300000035
 51
29.99981199999839
  0
LINE
  5
3053C
330
1F
100
AcDbEntity
  8
SKVIEW1
100
AcDbLine
 10
-44.00633988679999
 20
-6.175037999999887
 30
0.0
 11
-44.0989868867997
 21
-6.135495999999902
 31
0.0
  0
ARC
  5
3053D
330
1F
100
AcDbEntity
  8
SKVIEW1
100
AcDbCircle
 10
-54.70173188679985
 20
0.0
 30
0.0
 40
12.25
100
AcDbArc
 50
319.8460790000035
 51
329.9432990000022
  0
ARC
  5
3053E
330
1F
100
AcDbEntity
  8
SKVIEW1
100
AcDbCircle
 10
-44.37756188679986
 20
-9.653147999999902
 30
0.0
 40
2.0
100
AcDbArc
 50
111.9477950000011
 51
130.2158989999989
  0
LINE
  5
3053F
330
1F
100
AcDbEntity
  8
SKVIEW1
100
AcDbLine
 10
-47.3613288867997
 20
-4.743113999999906
 30
0.0
 11
-44.0989868867997
 21
-6.135495999999902
 31
0.0
  0
ARC
  5
30540
330
1F
100
AcDbEntity
  8
SKVIEW1
100
AcDbCircle
 10
-54.70173188679985
 20
0.0
 30
0.0
 40
8.739487999999996
100
AcDbArc
 50
294.9814480000018
 51
327.1308560000002
  0
LINE
  5
30541
330
1F
100
AcDbEntity
  8
SKVIEW1
100
AcDbLine
 10
-50.3202158867997
 20
-8.020309999999881
 30
0.0
 11
-46.96449188679968
 21
-8.498677999999898
 31
0.0
  0
ARC
  5
30542
330
1F
100
AcDbEntity
  8
SKVIEW1
100
AcDbCircle
 10
-46.73210388679956
 20
-6.868491000000005
 30
0.0
 40
1.646666999999999
100
AcDbArc
 50
261.8870000000025
 51
310.2158989999989
  0
LINE
  5
30543
330
1F
100
AcDbEntity
  8
SKVIEW1
100
AcDbLine
 10
-51.01082988679968
 20
-7.921861999999888
 30
0.0
 11
-50.3202158867997
 21
-8.020309999999881
 31
0.0
  0
LINE
  5
30544
330
1F
100
AcDbEntity
  8
SKVIEW1
100
AcDbLine
 10
-51.01082988679968
 20
-7.921861999999888
 30
0.0
 11
-53.54015888679987
 21
-7.561299000000018
 31
0.0
  0
LINE
  5
30545
330
1F
100
AcDbEntity
  8
SKVIEW1
100
AcDbLine
 10
-47.47787188680002
 20
-4.693372999999893
 30
0.0
 11
-47.3613288867997
 21
-4.743113999999906
 31
0.0
  0
ARC
  5
30546
330
1F
100
AcDbEntity
  8
SKVIEW1
100
AcDbCircle
 10
-47.08532588679985
 20
-3.773640999999883
 30
0.0
 40
1.0
100
AcDbArc
 50
183.6091470000004
 51
246.8869999999981
  0
ARC
  5
30547
330
1F
100
AcDbEntity
  8
SKVIEW1
100
AcDbCircle
 10
-54.70173188679985
 20
0.0
 30
0.0
 40
7.65
100
AcDbArc
 50
278.7335500000009
 51
329.8997120000022
  0
ARC
  5
30548
330
1F
100
AcDbEntity
  8
SKVIEW1
100
AcDbCircle
 10
-54.70168788679984
 20
-0.0000289999998984
 30
0.0
 40
12.349947
100
AcDbArc
 50
320.8446429999989
 51
329.9998119999968
  0
ARC
  5
30549
330
1F
100
AcDbEntity
  8
SKVIEW1
100
AcDbCircle
 10
-57.89951788679967
 20
-13.7675669999999
 30
0.0
 40
2.0
100
AcDbArc
 50
51.94779499999807
 51
70.21589899999991
  0
LINE
  5
3054A
330
1F
100
AcDbEntity
  8
SKVIEW1
100
AcDbLine
 10
-54.70177588679985
 20
-12.35000000000002
 30
0.0
 11
-54.7138548867997
 21
-12.2499939999999
 31
0.0
  0
ARC
  5
3054B
330
1F
100
AcDbEntity
  8
SKVIEW1
100
AcDbCircle
 10
-54.70173188679985
 20
0.0
 30
0.0
 40
12.25
100
AcDbArc
 50
259.8460789999983
 51
269.9432989999993
  0
ARC
  5
3054C
330
1F
100
AcDbEntity
  8
SKVIEW1
100
AcDbCircle
 10
-54.70173188679985
 20
0.0
 30
0.0
 40
8.739487999999996
100
AcDbArc
 50
234.9814480000017
 51
267.1308559999996
  0
LINE
  5
3054D
330
1F
100
AcDbEntity
  8
SKVIEW1
100
AcDbLine
 10
-59.71681388679975
 20
-7.157346000000018
 30
0.0
 11
-58.19318288679972
 21
-10.94998599999999
 31
0.0
  0
ARC
  5
3054E
330
1F
100
AcDbEntity
  8
SKVIEW1
100
AcDbCircle
 10
-56.66520588679986
 20
-10.3361459999999
 30
0.0
 40
1.646666999999999
100
AcDbArc
 50
201.8870000000021
 51
250.2158989999999
  0
LINE
  5
3054F
330
1F
100
AcDbEntity
  8
SKVIEW1
100
AcDbLine
 10
-55.13918788679973
 20
-8.728532999999998
 30
0.0
 11
-54.7138548867997
 21
-12.2499939999999
 31
0.0
  0
LINE
  5
30550
330
1F
100
AcDbEntity
  8
SKVIEW1
100
AcDbLine
 10
-60.66922288679984
 20
-4.786601000000018
 30
0.0
 11
-59.71681388679975
 21
-7.157346000000018
 31
0.0
  0
LINE
  5
30551
330
1F
100
AcDbEntity
  8
SKVIEW1
100
AcDbLine
 10
-55.15438188679958
 20
-8.602732999999885
 30
0.0
 11
-55.13918788679973
 21
-8.728532999999998
 31
0.0
  0
ARC
  5
30552
330
1F
100
AcDbEntity
  8
SKVIEW1
100
AcDbCircle
 10
-54.16159788679999
 20
-8.482821000000001
 30
0.0
 40
1.0
100
AcDbArc
 50
123.6091469999987
 51
186.8869999999997
  0
ARC
  5
30553
330
1F
100
AcDbEntity
  8
SKVIEW1
100
AcDbCircle
 10
-54.70173188679985
 20
0.0
 30
0.0
 40
7.65
100
AcDbArc
 50
218.7335500000009
 51
269.899712000001
  0
ARC
  5
30554
330
1F
100
AcDbEntity
  8
SKVIEW1
100
AcDbCircle
 10
-54.70173488679971
 20
-0.0000529999998946
 30
0.0
 40
12.349947
100
AcDbArc
 50
260.8446429999974
 51
269.9998120000032
  0
CIRCLE
  5
30555
330
1F
100
AcDbEntity
  8
SKVIEW1
100
AcDbCircle
 10
-54.70173188679985
 20
0.0
 30
0.0
 40
3.75
  0
ARC
  5
30556
330
1F
100
AcDbEntity
  8
SKVIEW1
100
AcDbCircle
 10
-62.31813788679983
 20
3.773641000000111
 30
0.0
 40
1.0
100
AcDbArc
 50
321.8870000000004
 51
3.609147000000518
  0
LINE
  5
30557
330
1F
100
AcDbEntity
  8
SKVIEW1
100
AcDbLine
 10
-61.53134288679972
 20
3.156426000000095
 30
0.0
 11
-61.8307958867997
 21
2.774698000000114
 31
0.0
  0
ARC
  5
30558
330
1F
100
AcDbEntity
  8
SKVIEW1
100
AcDbCircle
 10
-61.7780028868001
 20
-4.709181
 30
0.0
 40
1.0
100
AcDbArc
 50
21.88700000000377
 51
63.60914700000159
  0
LINE
  5
30559
330
1F
100
AcDbEntity
  8
SKVIEW1
100
AcDbLine
 10
-60.8500828868
 20
-4.336403000000017
 30
0.0
 11
-60.66922288679984
 21
-4.786601000000018
 31
0.0
  0
ARC
  5
3055A
330
1F
100
AcDbEntity
  8
SKVIEW1
100
AcDbCircle
 10
-54.16159788679999
 20
-8.482821000000001
 30
0.0
 40
1.0
100
AcDbArc
 50
81.88700000000251
 51
123.6091469999987
  0
LINE
  5
3055B
330
1F
100
AcDbEntity
  8
SKVIEW1
100
AcDbLine
 10
-53.54015888679987
 20
-7.561299000000018
 30
0.0
 11
-54.0204718868
 21
-7.492829999999997
 31
0.0
  0
ARC
  5
3055C
330
1F
100
AcDbEntity
  8
SKVIEW1
100
AcDbCircle
 10
-47.08532588679985
 20
-3.773640999999883
 30
0.0
 40
1.0
100
AcDbArc
 50
141.8870000000003
 51
183.6091470000004
  0
LINE
  5
3055D
330
1F
100
AcDbEntity
  8
SKVIEW1
100
AcDbLine
 10
-47.87212088679972
 20
-3.156426000000009
 30
0.0
 11
-47.57266788679987
 21
-2.774697999999999
 31
0.0
  0
ARC
  5
3055E
330
1F
100
AcDbEntity
  8
SKVIEW1
100
AcDbCircle
 10
-47.62546088679971
 20
4.709181000000112
 30
0.0
 40
1.0
100
AcDbArc
 50
201.8870000000021
 51
243.6091470000016
  0
LINE
  5
3055F
330
1F
100
AcDbEntity
  8
SKVIEW1
100
AcDbLine
 10
-48.55338088679967
 20
4.336403000000102
 30
0.0
 11
-48.73424088679985
 21
4.786601000000104
 31
0.0
  0
ARC
  5
30560
330
1F
100
AcDbEntity
  8
SKVIEW1
100
AcDbCircle
 10
-55.2418658867997
 20
8.482821000000111
 30
0.0
 40
1.0
100
AcDbArc
 50
261.8870000000025
 51
303.6091469999987
  0
LINE
  5
30561
330
1F
100
AcDbEntity
  8
SKVIEW1
100
AcDbLine
 10
-55.86330488679994
 20
7.561299000000103
 30
0.0
 11
-55.38299188679957
 21
7.49283000000011
 31
0.0
  0
ARC
  5
30562
330
1F
100
AcDbEntity
  8
SKVIEW1
100
AcDbCircle
 10
-54.70173188679985
 20
0.0
 30
0.0
 40
7.65
100
AcDbArc
 50
218.7335500000009
 51
269.899712000001
  0
ARC
  5
30563
330
1F
100
AcDbEntity
  8
SKVIEW1
100
AcDbCircle
 10
-54.70173188679985
 20
0.0
 30
0.0
 40
7.65
100
AcDbArc
 50
278.7335500000009
 51
329.8997120000022
  0
ARC
  5
30564
330
1F
100
AcDbEntity
  8
SKVIEW1
100
AcDbCircle
 10
-54.70173188679985
 20
0.0
 30
0.0
 40
7.65
100
AcDbArc
 50
338.7335499999983
 51
29.89971200000044
  0
ARC
  5
30565
330
1F
100
AcDbEntity
  8
SKVIEW1
100
AcDbCircle
 10
-54.70173188679985
 20
0.0
 30
0.0
 40
7.65
100
AcDbArc
 50
38.73355000000096
 51
89.89971200000098
  0
ARC
  5
30566
330
1F
100
AcDbEntity
  8
SKVIEW1
100
AcDbCircle
 10
-54.70173188679985
 20
0.0
 30
0.0
 40
7.65
100
AcDbArc
 50
98.73355000000092
 51
149.8997120000022
  0
ARC
  5
30567
330
1F
100
AcDbEntity
  8
SKVIEW1
100
AcDbCircle
 10
-54.70173188679985
 20
0.0
 30
0.0
 40
7.65
100
AcDbArc
 50
158.7335499999984
 51
209.8997120000004
  0
LINE
  5
30568
330
1F
100
AcDbEntity
  8
SKVIEW1
100
AcDbLine
 10
-54.70173188679985
 20
8.739487999999994
 30
0.0
 11
-54.70173188679985
 21
7.649999999999977
 31
0.0
  0
LINE
  5
30569
330
1F
100
AcDbEntity
  8
SKVIEW1
100
AcDbLine
 10
-54.70173188679985
 20
7.649999999999977
 30
0.0
 11
-54.70173188679985
 21
8.739487999999994
 31
0.0
  0
LINE
  5
3056A
330
1F
100
AcDbEntity
  8
SKVIEW1
100
AcDbLine
 10
-54.70173188679985
 20
12.25
 30
0.0
 11
-54.70173188679985
 21
8.739487999999994
 31
0.0
  0
LINE
  5
3056B
330
1F
100
AcDbEntity
  8
SKVIEW1
100
AcDbLine
 10
-54.70173188679985
 20
12.35000000000011
 30
0.0
 11
-54.70173188679985
 21
12.25
 31
0.0
  0
LINE
  5
3056C
330
1F
100
AcDbEntity
  8
SKVIEW1
100
AcDbLine
 10
-54.70173188679985
 20
8.739487999999994
 30
0.0
 11
-54.70173188679985
 21
12.25
 31
0.0
  0
LINE
  5
30576
330
1F
100
AcDbEntity
  8
SK3
 48
0.5
100
AcDbLine
 10
7.699999999999817
 20
-3.75
 30
0.0
 11
-0.0000000000002274
 21
-3.75
 31
0.0
  0
LINE
  5
30577
330
1F
100
AcDbEntity
  8
SK3
 48
0.5
100
AcDbLine
 10
7.699999999999817
 20
3.75
 30
0.0
 11
-0.0000000000002274
 21
3.75
 31
0.0
  0
MTEXT
  5
307B7
330
1F
100
AcDbEntity
  8
SK6
100
AcDbMText
 10
-44.82367486226178
 20
-41.87307016448977
 30
0.0
 40
3.5
 41
43.61705903021785
 71
     1
 72
     1
  1
18Y24730LPRP60
  7
MM_STANDARD
 73
     1
 44
1.0
1001
ACAD
1000
MTEXTBEGIN
1070
    73
1070
     1
1070
    44
1040
1.0
1070
    74
1070
     0
1000
MTEXTEND
  0
LWPOLYLINE
  5
307BE
330
1F
100
AcDbEntity
  8
NOCUT
 62
     7
370
    13
100
AcDbPolyline
 90
        9
 70
     1
 43
0.0
 10
3.300003467978072
 20
6.710105590958876
 42
-0.2015676998790107
 10
2.79999999999984
 20
6.499999999999987
 10
-0.0000000000002274
 20
6.500000000000111
 10
0.0
 20
0.0
 10
7.699999999999818
 20
0.0
 10
7.699999999999818
 20
8.739487999999994
 10
3.299999999999613
 20
8.739487999999994
 10
3.299999999999613
 20
6.710102051443214
 10
3.299999999999613
 20
6.713506999999991
  0
LINE
  5
307D4
330
1F
100
AcDbEntity
  8
2
100
AcDbLine
 10
-4.956923026331907
 20
26.61053921694279
 30
0.0
 11
3.917863224383798
 21
14.33788555990611
 31
0.0
  0
MTEXT
  5
307D5
330
1F
100
AcDbEntity
  8
2
100
AcDbMText
 10
0.7223552483615096
 20
22.91484834476056
 30
0.0
 40
3.5
 41
0.0
 71
     5
 72
     1
  1
\A1;R0.2
  7
MM_STANDARD
 11
0.585976583561356
 21
-0.8103279851503101
 31
0.0
 73
     1
 44
1.0
1001
ACAD
1000
MTEXTBEGIN
1070
    73
1070
     1
1070
    44
1040
1.0
1070
    74
1070
     0
1000
MTEXTEND
  0
LINE
  5
307D6
330
1F
100
AcDbEntity
  8
2
100
AcDbLine
 10
5.499999999999658
 20
12.15
 30
0.0
 11
5.382804683287188
 21
12.31206559703034
 31
0.0
  0
SOLID
  5
307D7
330
1F
100
AcDbEntity
  8
2
100
AcDbTrace
 10
4.255499884863095
 20
14.58204246972334
 30
0.0
 11
3.580226563904502
 21
14.09372865008888
 31
0.0
 12
5.382804683287188
 22
12.31206559703034
 32
0.0
 13
5.382804683287188
 23
12.31206559703034
 33
0.0
  0
LWPOLYLINE
  5
307D8
330
1F
100
AcDbEntity
  8
CUT
 62
     1
 48
0.240324
370
    35
100
AcDbPolyline
 90
        4
 70
     1
 43
0.0
 10
5.326878607517109
 20
12.25014481247126
 42
-0.5767928861897265
 10
5.673121392660085
 20
12.25014481216376
 10
7.699999999999818
 20
8.739487999999994
 10
3.299999999999613
 20
8.739487999999994
  0
ENDSEC
  0
SECTION
  2
OBJECTS
  0
DICTIONARY
  5
C
330
0
100
AcDbDictionary
281
     1
  3
ACAD_2007HEADERVARS_RT
350
30852
  3
ACAD_CIP_PREVIOUS_PRODUCT_INFO
350
741
  3
ACAD_COLOR
350
6C
  3
ACAD_DETAILVIEWSTYLE
350
8E4
  3
ACAD_GROUP
350
D
  3
ACAD_IMAGE_VARS
350
959
  3
ACAD_LAYOUT
350
1A
  3
ACAD_MATERIAL
350
6B
  3
ACAD_MLEADERSTYLE
350
43C
  3
ACAD_MLINESTYLE
350
17
  3
ACAD_PLOTSETTINGS
350
19
  3
ACAD_PLOTSTYLENAME
350
E
  3
ACAD_SCALELIST
350
99
  3
ACAD_SECTIONVIEWSTYLE
350
8E2
  3
ACAD_TABLESTYLE
350
92
  3
ACAD_VISUALSTYLE
350
3F2
  3
ACDB_RECOMPOSE_DATA
350
30850
  3
ACDBHEADERROUNDTRIPXREC
350
30778
  3
AcDbVariableDictionary
350
59
  3
ACMDICTIONARY
350
76D
  3
AEC_PROPERTY_SET_DEFS
350
5CF
  3
AMG
350
743
  3
AMGSNAPSETTINGS
350
7F6
  3
APPDATA
350
958
  3
ASE_INDEX_DICTIONARY
350
8C6
  3
DWGPROPS
350
30851
  0
DICTIONARY
  5
30760
330
2
100
AcDbDictionary
280
     1
281
     1
  3
ACAD_LAYERFILTERS
360
6C6
  3
ACAD_LAYERSTATES
360
17C7
  3
ACLYDICTIONARY
360
6C5
  0
DICTIONARY
  5
30756
330
10
100
AcDbDictionary
280
     1
281
     1
  3
ADSK_XREC_LAYER_RECONCILED
360
904
  0
DICTIONARY
  5
30757
330
23
100
AcDbDictionary
280
     1
281
     1
  3
ADSK_XREC_LAYER_RECONCILED
360
905
  0
DICTIONARY
  5
30758
330
25
100
AcDbDictionary
280
     1
281
     1
  3
ADSK_XREC_LAYER_RECONCILED
360
907
  0
DICTIONARY
  5
3075A
330
2A
100
AcDbDictionary
280
     1
281
     1
  3
ADSK_XREC_LAYER_RECONCILED
360
90B
  0
DICTIONARY
  5
3075B
330
2E
100
AcDbDictionary
280
     1
281
     1
  3
ADSK_XREC_LAYER_RECONCILED
360
90E
  0
DICTIONARY
  5
3075C
330
375
100
AcDbDictionary
280
     1
281
     1
  3
ADSK_XREC_LAYER_RECONCILED
360
90F
  0
DICTIONARY
  5
3075D
330
376
100
AcDbDictionary
280
     1
281
     1
  3
ADSK_XREC_LAYER_RECONCILED
360
910
  0
DICTIONARY
  5
3075E
330
49B
100
AcDbDictionary
280
     1
281
     1
  3
ADSK_XREC_LAYER_RECONCILED
360
918
  0
DICTIONARY
  5
3075F
330
6C2
100
AcDbDictionary
280
     1
281
     1
  3
ADSK_XREC_LAYER_RECONCILED
360
91D
  0
DICTIONARY
  5
30775
330
1F
100
AcDbDictionary
280
     1
281
     1
  3
ACAD_SORTENTS
360
30776
  0
DICTIONARY
  5
3085B
330
30626
100
AcDbDictionary
280
     1
281
     1
  3
ACAD_MTEXT_RT
360
3085C
  0
DICTIONARY
  5
30852
102
{ACAD_REACTORS
330
C
102
}
330
C
100
AcDbDictionary
281
     1
  3
DIMARCSYM
350
30853
  3
DIMLTEX1
350
30855
  3
DIMLTEX2
350
30856
  3
DIMLTYPE
350
30854
  0
XRECORD
  5
741
102
{ACAD_REACTORS
330
C
102
}
330
C
100
AcDbXrecord
280
     1
300
ACDLT
300
2015
300
ACDLT_F_S
  0
DICTIONARY
  5
6C
102
{ACAD_REACTORS
330
C
102
}
330
C
100
AcDbDictionary
281
     1
  0
DICTIONARY
  5
8E4
102
{ACAD_REACTORS
330
C
102
}
330
C
100
AcDbDictionary
281
     1
  3
Metric50
350
307B4
  0
DICTIONARY
  5
D
102
{ACAD_REACTORS
330
C
102
}
330
C
100
AcDbDictionary
281
     1
  0
RASTERVARIABLES
  5
959
102
{ACAD_REACTORS
330
C
102
}
330
C
100
AcDbRasterVariables
 90
        0
 70
     1
 71
     1
 72
     1
  0
DICTIONARY
  5
1A
102
{ACAD_REACTORS
330
C
102
}
330
C
100
AcDbDictionary
281
     1
  3
Layout1
350
74
  3
Model
350
22
  0
DICTIONARY
  5
6B
102
{ACAD_REACTORS
330
C
102
}
330
C
100
AcDbDictionary
281
     1
  3
ByBlock
350
30789
  3
ByLayer
350
30781
  3
Global
350
30791
  0
DICTIONARY
  5
43C
102
{ACAD_REACTORS
330
C
102
}
330
C
100
AcDbDictionary
281
     1
  3
Standard
350
307B2
  0
DICTIONARY
  5
17
102
{ACAD_REACTORS
330
C
102
}
330
C
100
AcDbDictionary
281
     1
  3
Standard
350
18
  0
DICTIONARY
  5
19
102
{ACAD_REACTORS
330
C
102
}
330
C
100
AcDbDictionary
281
     1
  0
ACDBDICTIONARYWDFLT
  5
E
102
{ACAD_REACTORS
330
C
102
}
330
C
100
AcDbDictionary
281
     1
  3
Normal
350
F
100
AcDbDictionaryWithDefault
340
F
  0
DICTIONARY
  5
99
102
{ACAD_REACTORS
330
C
102
}
330
C
100
AcDbDictionary
281
     1
  3
A0
350
9A
  3
A1
350
9B
  3
A2
350
9C
  3
A3
350
9D
  3
A4
350
9E
  3
A5
350
9F
  3
A6
350
A0
  3
A7
350
A1
  3
A8
350
A2
  3
A9
350
A3
  3
B0
350
A4
  3
B1
350
A5
  3
B2
350
A6
  3
B3
350
A7
  3
B4
350
A8
  3
B5
350
A9
  3
B6
350
AA
  3
B7
350
AB
  3
B8
350
AC
  3
B9
350
AD
  3
C0
350
AE
  3
C1
350
AF
  3
C2
350
B0
  3
C3
350
B1
  3
C4
350
B2
  3
C5
350
B3
  3
C6
350
B4
  3
C7
350
B5
  3
C8
350
B6
  3
C9
350
B7
  3
D0
350
B8
  3
D1
350
B9
  3
D2
350
BA
  0
DICTIONARY
  5
8E2
102
{ACAD_REACTORS
330
C
102
}
330
C
100
AcDbDictionary
281
     1
  3
Metric50
350
307B3
  0
DICTIONARY
  5
92
102
{ACAD_REACTORS
330
C
102
}
330
C
100
AcDbDictionary
281
     1
  3
Standard
350
307B1
  0
DICTIONARY
  5
3F2
102
{ACAD_REACTORS
330
C
102
}
330
C
100
AcDbDictionary
281
     1
  3
2dWireframe
350
3079E
  3
Basic
350
3079D
  3
Brighten
350
307A4
  3
ColorChange
350
307A8
  3
Conceptual
350
307A1
  3
Dim
350
307A3
  3
EdgeColorOff
350
307B0
  3
Facepattern
350
307A7
  3
Flat
350
30799
  3
FlatWithEdges
350
3079A
  3
Gouraud
350
3079B
  3
GouraudWithEdges
350
3079C
  3
Hidden
350
307A0
  3
JitterOff
350
307AE
  3
Linepattern
350
307A6
  3
OverhangOff
350
307AF
  3
Realistic
350
307A2
  3
Shaded
350
307AD
  3
Shaded with edges
350
307AC
  3
Shades of Gray
350
307A9
  3
Sketchy
350
307AA
  3
Thicken
350
307A5
  3
Wireframe
350
3079F
  3
X-Ray
350
307AB
  0
XRECORD
  5
30850
102
{ACAD_REACTORS
330
C
102
}
330
C
100
AcDbXrecord
280
     1
 90
        1
330
307B1
  0
DICTIONARY
  5
30778
102
{ACAD_REACTORS
330
C
102
}
330
C
100
AcDbDictionary
281
     1
  3
COLORDICT
350
30779
  3
MATERIALDICT
350
3077A
  0
DICTIONARY
  5
59
102
{ACAD_REACTORS
330
C
102
}
330
C
100
AcDbDictionary
281
     1
  3
CANNOSCALE
350
30777
  3
CMLEADERSTYLE
350
447
  3
CTABLESTYLE
350
38E
  3
CVIEWDETAILSTYLE
350
8FB
  3
CVIEWSECTIONSTYLE
350
8FC
  3
DIMASSOC
350
359
  3
HALOGAP
350
AF7
  3
HIDETEXT
350
358
  3
INDEXCTL
350
9BE
  3
LAYEREVAL
350
7AE
  3
LAYERNOTIFY
350
7AF
  3
LIGHTINGUNITS
350
44A
  3
MSLTSCALE
350
448
  3
SORTENTS
350
9BD
  3
XCLIPFRAME
350
30806
  0
DICTIONARY
  5
76D
102
{ACAD_REACTORS
330
C
102
}
330
C
100
AcDbDictionary
281
     1
  3
ACMSTDDICTIONARY
350
76F
  0
DICTIONARY
  5
5CF
102
{ACAD_REACTORS
330
C
102
}
330
C
100
AcDbDictionary
281
     1
  0
DICTIONARY
  5
743
102
{ACAD_REACTORS
330
C
102
}
330
C
100
AcDbDictionary
281
     1
  3
ACMGSETTINGS
350
744
  0
DICTIONARY
  5
7F6
102
{ACAD_REACTORS
330
C
102
}
330
C
100
AcDbDictionary
281
     1
  0
DICTIONARY
  5
958
102
{ACAD_REACTORS
330
C
102
}
330
C
100
AcDbDictionary
281
     1
  0
DICTIONARY
  5
8C6
102
{ACAD_REACTORS
330
C
102
}
330
C
100
AcDbDictionary
281
     1
  3
ASEBLOCKHIERARCHYINDEXRECORD
350
8C7
  0
XRECORD
  5
30851
102
{ACAD_REACTORS
330
C
102
}
330
C
100
AcDbXrecord
280
     1
  1
DWGPROPS COOKIE
  2

  3

  4

  6

  7

  8
ruebsamenm
  9

300
=
301
=
302
=
303
=
304
=
305
=
306
=
307
=
308
=
309
=
 40
2.742342407407407
 41
2453353.758792489
 42
2459585.660387165
  1

 90
        0
  0
DICTIONARY
  5
6C6
102
{ACAD_REACTORS
330
30760
102
}
330
30760
100
AcDbDictionary
281
     1
  0
DICTIONARY
  5
17C7
102
{ACAD_REACTORS
330
30760
102
}
330
30760
100
AcDbDictionary
281
     1
  0
DICTIONARY
  5
6C5
102
{ACAD_REACTORS
330
30760
102
}
330
30760
100
AcDbDictionary
281
     1
  0
XRECORD
  5
904
102
{ACAD_REACTORS
330
30756
102
}
330
30756
100
AcDbXrecord
280
     1
290
     1
  0
XRECORD
  5
905
102
{ACAD_REACTORS
330
30757
102
}
330
30757
100
AcDbXrecord
280
     1
290
     1
  0
XRECORD
  5
907
102
{ACAD_REACTORS
330
30758
102
}
330
30758
100
AcDbXrecord
280
     1
290
     1
  0
XRECORD
  5
90B
102
{ACAD_REACTORS
330
3075A
102
}
330
3075A
100
AcDbXrecord
280
     1
290
     1
  0
XRECORD
  5
90E
102
{ACAD_REACTORS
330
3075B
102
}
330
3075B
100
AcDbXrecord
280
     1
290
     1
  0
XRECORD
  5
90F
102
{ACAD_REACTORS
330
3075C
102
}
330
3075C
100
AcDbXrecord
280
     1
290
     1
  0
XRECORD
  5
910
102
{ACAD_REACTORS
330
3075D
102
}
330
3075D
100
AcDbXrecord
280
     1
290
     1
  0
XRECORD
  5
918
102
{ACAD_REACTORS
330
3075E
102
}
330
3075E
100
AcDbXrecord
280
     1
290
     1
  0
XRECORD
  5
91D
102
{ACAD_REACTORS
330
3075F
102
}
330
3075F
100
AcDbXrecord
280
     1
290
     1
  0
SORTENTSTABLE
  5
30776
102
{ACAD_REACTORS
330
30775
102
}
330
30775
100
AcDbSortentsTable
330
1F
331
30560
  5
30561
331
30528
  5
30529
331
304F8
  5
304F9
331
304C8
  5
304C9
331
1C9B0
  5
1C9B0
331
30551
  5
30552
331
30519
  5
3051A
331
304E9
  5
304EA
331
304A0
  5
304A1
331
30470
  5
30471
331
C170
  5
C170
331
4D98
  5
4D98
331
1CE51
  5
1CE51
331
4FD9
  5
4FD9
331
1C851
  5
1C632
331
12BA1
  5
12B2B
331
14051
  5
14051
331
E441
  5
C65C
331
304C1
  5
304C2
331
30491
  5
30492
331
30461
  5
30462
331
30542
  5
30543
331
3053A
  5
3053B
331
3050A
  5
3050B
331
304DA
  5
304DB
331
18051
  5
18051
331
17D79
  5
17D79
331
17AD1
  5
17AD1
331
536A
  5
536A
331
C182
  5
C258
331
304B2
  5
304B3
331
30482
  5
30483
331
30452
  5
30453
331
30563
  5
30564
331
3052B
  5
3052C
331
304FB
  5
304FC
331
304CB
  5
304CC
331
30443
  5
30443
331
4BBB
  5
4BBB
331
AFA
  5
AFA
331
30554
  5
30555
331
3051C
  5
3051D
331
304EC
  5
304ED
331
304A3
  5
304A4
331
30473
  5
30474
331
1E4A3
  5
1E4A3
331
51E4
  5
51E4
331
1D913
  5
1D920
331
DAF2
  5
E438
331
304C4
  5
304C5
331
30494
  5
30495
331
30464
  5
30465
331
307D5
  5
307D8
331
30545
  5
30546
331
3053D
  5
3053E
331
3050D
  5
3050E
331
304DD
  5
304DE
331
18054
  5
18054
331
17D7C
  5
17D7C
331
17AD4
  5
17AD4
331
DAF5
  5
E441
331
C42D
  5
C930
331
304B5
  5
304B6
331
30485
  5
30486
331
30455
  5
30456
331
30566
  5
30567
331
3052E
  5
3052F
331
304FE
  5
304FF
331
304CE
  5
304CF
331
30446
  5
30446
331
52E6
  5
52E6
331
C36E
  5
C85B
331
E20E
  5
C42D
331
12C16
  5
12BA1
331
304A6
  5
304A7
331
30476
  5
30477
331
307B7
  5
307DB
331
30557
  5
30558
331
3051F
  5
30520
331
304EF
  5
304F0
331
17F1E
  5
17F1E
331
17926
  5
17926
331
4BBE
  5
4BBE
331
1C7C7
  5
1C54E
331
DECF
  5
E6D2
331
304C7
  5
304C8
331
30497
  5
30498
331
30467
  5
30468
331
1E2CF
  5
1E2CF
331
307D8
  5
307D5
331
30548
  5
30549
331
30510
  5
30511
331
304E0
  5
304E1
331
1829F
  5
1829F
331
410F
  5
410F
331
DED7
  5
E6D6
331
E6D6
  5
CB29
331
1289D
  5
12C93
331
12B40
  5
12AA7
331
304B8
  5
304B9
331
30488
  5
30489
331
30458
  5
30459
331
30449
  5
30449
331
17FE8
  5
17FE8
331
30569
  5
3056A
331
30531
  5
30532
331
30501
  5
30502
331
304D1
  5
304D2
331
4C41
  5
4C41
331
E438
  5
C652
331
304A9
  5
304AA
331
30479
  5
3047A
331
1E4B1
  5
1E4B1
331
3055A
  5
3055B
331
30522
  5
30523
331
304F2
  5
304F3
331
1C9A2
  5
1C9A2
331
17929
  5
17929
331
5472
  5
5472
331
AA9
  5
AA9
331
C652
  5
CA16
331
3049A
  5
3049B
331
3046A
  5
3046B
331
3054B
  5
3054C
331
30513
  5
30514
331
304E3
  5
304E4
331
1CE43
  5
1CE43
331
182A2
  5
182A2
331
180BA
  5
180BA
331
4112
  5
4112
331
E102
  5
C79F
331
C863
  5
D588
331
CA12
  5
DAF2
331
CB29
  5
DECF
331
CC50
  5
E105
331
304BB
  5
304BC
331
3048B
  5
3048C
331
3045B
  5
3045C
331
3056C
  5
3056F
331
30534
  5
30535
331
30504
  5
30505
331
304D4
  5
304D5
331
3055D
  5
3055E
331
30525
  5
30526
331
304F5
  5
304F6
331
304AC
  5
304AD
331
3047C
  5
3047D
331
17FEB
  5
17FEB
331
12C93
  5
12C2B
331
5475
  5
5475
331
1D6D5
  5
1D6E2
331
DCBB
  5
E533
331
E105
  5
C7A3
331
3049D
  5
3049E
331
3046D
  5
3046E
331
3054E
  5
3054F
331
30516
  5
30517
331
304E6
  5
304E7
331
4E6E
  5
4E6E
331
1C54E
  5
1C640
331
304BE
  5
304BF
331
3048E
  5
3048F
331
3045E
  5
3045F
331
3044F
  5
30450
331
17CDE
  5
17CDE
331
17A36
  5
17A36
331
1779E
  5
1779E
331
53EE
  5
53EE
331
30537
  5
30538
331
30507
  5
30508
331
304D7
  5
304D8
331
4DFF
  5
4DFF
331
1C6C7
  5
1C3A1
331
1C74E
  5
1C484
331
C377
  5
C863
331
C79F
  5
CC4B
331
304AF
  5
304B0
331
3047F
  5
30480
331
E217
  5
C437
331
12BB5
  5
12B40
331
C934
  5
D89C
331
12A19
  5
1289D
331
30540
  5
30541
331
30538
  5
30539
331
30508
  5
30509
331
304D8
  5
304D9
331
18320
  5
18320
331
1C740
  5
1C476
331
304B0
  5
304B1
331
30480
  5
30481
331
30450
  5
30451
331
30561
  5
30562
331
30529
  5
3052A
331
304F9
  5
304FA
331
304C9
  5
304CA
331
17790
  5
17790
331
1C3A1
  5
1C851
331
304A1
  5
304A2
331
30471
  5
30472
331
1D009
  5
1D009
331
1C9B1
  5
1C9B1
331
30552
  5
30553
331
3051A
  5
3051B
331
304EA
  5
304EB
331
17F19
  5
17F19
331
1D382
  5
1D382
331
53F2
  5
53F2
331
1C632
  5
1C1E5
331
1C6B9
  5
1C393
331
1DA40
  5
1D6D5
331
E328
  5
C533
331
304C2
  5
304C3
331
30492
  5
30493
331
30462
  5
30463
331
17DFA
  5
17DFA
331
1781A
  5
1781A
331
30543
  5
30544
331
3053B
  5
3053C
331
3050B
  5
3050C
331
304DB
  5
304DC
331
1D1C3
  5
1D1C3
331
4E03
  5
4E03
331
C7A3
  5
CC4F
331
12A1A
  5
1299A
331
CC4B
  5
DED7
331
12B2B
  5
12AA6
331
E32B
  5
C536
331
17673
  5
17673
331
304B3
  5
304B4
331
30483
  5
30484
331
30453
  5
30454
331
30564
  5
30565
331
3052C
  5
3052D
331
304FC
  5
304FD
331
304CC
  5
304CD
331
30444
  5
30444
331
181A3
  5
181A3
331
17F8B
  5
17F8B
331
AFB
  5
AFB
331
304A4
  5
304A5
331
30474
  5
30475
331
30555
  5
30556
331
3051D
  5
3051E
331
304ED
  5
304EE
331
4ED5
  5
4ED5
331
D89C
  5
E328
331
C65C
  5
CA17
331
12C8B
  5
12C16
331
304C5
  5
304C6
331
30495
  5
30496
331
30465
  5
30466
331
307D6
  5
307D9
331
1781D
  5
1781D
331
30576
  5
307C5
331
30546
  5
30547
331
3053E
  5
3053F
331
3050E
  5
3050F
331
304DE
  5
304DF
331
1CBCE
  5
1CBCE
331
304B6
  5
304B7
331
30486
  5
30487
331
30456
  5
30457
331
30447
  5
30447
331
181A6
  5
181A6
331
536E
  5
536E
331
515E
  5
515E
331
4FD6
  5
4FD6
331
30567
  5
30568
331
3052F
  5
30530
331
304FF
  5
30500
331
304CF
  5
304D0
331
C167
  5
C167
331
4F57
  5
4F57
331
4CA6
  5
4CA6
331
30558
  5
30559
331
30520
  5
30521
331
304F0
  5
304F1
331
304A7
  5
304A8
331
30477
  5
30478
331
12C17
  5
12BB5
331
12A1D
  5
1299D
331
1C640
  5
1C1E8
331
30498
  5
30499
331
30468
  5
30469
331
1E2D0
  5
1E2D0
331
30549
  5
3054A
331
30511
  5
30512
331
304E1
  5
304E2
331
178A0
  5
178A0
331
14058
  5
14058
331
5161
  5
5161
331
304B9
  5
304BA
331
30489
  5
3048A
331
30459
  5
3045A
331
1E2C1
  5
1E2C1
331
3044A
  5
3044A
331
18221
  5
18221
331
3056A
  5
3056B
331
30532
  5
30533
331
30502
  5
30503
331
304D2
  5
304D3
331
52EA
  5
52EA
331
50DA
  5
50DA
331
4F5A
  5
4F5A
331
304AA
  5
304AB
331
3047A
  5
3047B
331
3055B
  5
3055C
331
30523
  5
30524
331
304F3
  5
304F4
331
17F82
  5
17F82
331
AAA
  5
AAA
331
12B41
  5
12AAA
331
1CFFB
  5
1CFFB
331
5263
  5
5263
331
3049B
  5
3049C
331
3046B
  5
3046C
331
3054C
  5
3054D
331
30514
  5
30515
331
304E4
  5
304E5
331
304BC
  5
304BD
331
3048C
  5
3048D
331
3045C
  5
3045D
331
1D374
  5
1D374
331
30535
  5
30536
331
30505
  5
30506
331
304D5
  5
304D6
331
3044D
  5
3044E
331
1D1B5
  5
1D1B5
331
18224
  5
18224
331
180BB
  5
180BB
331
178A3
  5
178A3
331
50DD
  5
50DD
331
307BE
  5
307D6
331
304AD
  5
304AE
331
3047D
  5
3047E
331
3055E
  5
3055F
331
30526
  5
30527
331
304F6
  5
304F7
331
12895
  5
12C8B
331
E533
  5
C178
331
CA16
  5
DAF5
331
1C393
  5
1C850
331
3049E
  5
3049F
331
3046E
  5
3046F
331
3054F
  5
30550
331
30517
  5
30518
331
304E7
  5
304E8
331
180BE
  5
180BE
331
12AA6
  5
12A19
331
1C54F
  5
1C6B9
331
304BF
  5
304C0
331
3048F
  5
30490
331
3045F
  5
30460
331
1779F
  5
1779F
331
1770F
  5
1770F
331
DCBF
  5
E537
331
C437
  5
C934
331
12BB6
  5
12B41
331
D590
  5
E217
331
C935
  5
D8A3
331
C85B
  5
CC50
331
30550
  5
30551
331
30518
  5
30519
331
304E8
  5
304E9
331
1C1E8
  5
1C7C7
331
51E0
  5
51E0
331
C930
  5
D590
331
30541
  5
30542
331
30539
  5
3053A
331
30509
  5
3050A
331
304D9
  5
304DA
331
304C0
  5
304C1
331
30490
  5
30491
331
30460
  5
30461
331
304B1
  5
304B2
331
30481
  5
30482
331
30451
  5
30452
331
30562
  5
30563
331
3052A
  5
3052B
331
304FA
  5
304FB
331
304CA
  5
304CB
331
17C59
  5
17C59
331
17718
  5
17718
331
D588
  5
E20E
331
C258
  5
C2E4
331
1C850
  5
1C54F
331
505A
  5
505A
331
E6D2
  5
CB25
331
1D6E2
  5
1D913
331
304A2
  5
304A3
331
30472
  5
30473
331
17B5A
  5
17B5A
331
30553
  5
30554
331
3051B
  5
3051C
331
304EB
  5
304EC
331
4D13
  5
4D13
331
307D4
  5
307D7
331
30544
  5
30545
331
3053C
  5
3053D
331
3050C
  5
3050D
331
304DC
  5
304DD
331
304C3
  5
304C4
331
30493
  5
30494
331
30463
  5
30464
331
C533
  5
C935
331
304B4
  5
304B5
331
30484
  5
30485
331
30454
  5
30455
331
30445
  5
30445
331
17C5C
  5
17C5C
331
179AC
  5
179AC
331
30565
  5
30566
331
3052D
  5
3052E
331
304FD
  5
304FE
331
304CD
  5
304CE
331
4C3D
  5
4C3D
331
1289C
  5
12C92
331
304A5
  5
304A6
331
30475
  5
30476
331
1831D
  5
1831D
331
18125
  5
18125
331
175ED
  5
175ED
331
30556
  5
30557
331
3051E
  5
3051F
331
304EE
  5
304EF
331
4ED6
  5
4ED6
331
4D16
  5
4D16
331
304C6
  5
304C7
331
30496
  5
30497
331
30466
  5
30467
331
307D7
  5
307DA
331
30577
  5
307D4
331
30547
  5
30548
331
3053F
  5
30540
331
3050F
  5
30510
331
304DF
  5
304E0
331
17DFE
  5
17DFE
331
C536
  5
CA12
331
304B7
  5
304B8
331
30487
  5
30488
331
30457
  5
30458
331
30568
  5
30569
331
30530
  5
30531
331
30500
  5
30501
331
304D0
  5
304D1
331
30448
  5
30448
331
1CBC0
  5
1CBC0
331
179AF
  5
179AF
331
17677
  5
17677
331
175F0
  5
175F0
331
AA8
  5
AA8
331
C178
  5
C255
331
304A8
  5
304A9
331
30478
  5
30479
331
18128
  5
18128
331
17BD8
  5
17BD8
331
30559
  5
3055A
331
30521
  5
30522
331
304F1
  5
304F2
331
4ED9
  5
4ED9
331
1D920
  5
1DA40
331
CC4F
  5
E102
331
30499
  5
3049A
331
30469
  5
3046A
331
17E99
  5
17E99
331
14059
  5
14059
331
3054A
  5
3054B
331
30512
  5
30513
331
304E2
  5
304E3
331
4E6A
  5
4E6A
331
4CAA
  5
4CAA
331
12C92
  5
12C17
331
304BA
  5
304BB
331
3048A
  5
3048B
331
3045A
  5
3045B
331
3056B
  5
3056C
331
30533
  5
30534
331
30503
  5
30504
331
304D3
  5
304D4
331
17CDA
  5
17CDA
331
17A32
  5
17A32
331
1299A
  5
12895
331
304AB
  5
304AC
331
3047B
  5
3047C
331
17BDB
  5
17BDB
331
3055C
  5
3055D
331
30524
  5
30525
331
304F4
  5
304F5
331
4D94
  5
4D94
331
AAB
  5
AAB
331
12C2B
  5
12BB6
331
3049C
  5
3049D
331
3046C
  5
3046D
331
3054D
  5
3054E
331
30515
  5
30516
331
304E5
  5
304E6
331
17E9C
  5
17E9C
331
1C1E5
  5
1C74E
331
304BD
  5
304BE
331
3048D
  5
3048E
331
3045D
  5
3045E
331
30536
  5
30537
331
30506
  5
30507
331
304D6
  5
304D7
331
3044E
  5
3044F
331
136D
  5
136D
331
1299D
  5
1289C
331
304AE
  5
304AF
331
3047E
  5
3047F
331
3055F
  5
30560
331
30527
  5
30528
331
304F7
  5
304F8
331
5267
  5
5267
331
5057
  5
5057
331
CA17
  5
DCBB
331
1C476
  5
1C6C7
331
C255
  5
C2E1
331
C2E4
  5
C377
331
D8A3
  5
E32B
331
C2E1
  5
C36E
331
3049F
  5
304A0
331
3046F
  5
30470
331
17B57
  5
17B57
331
12AA7
  5
12A1A
331
E537
  5
C182
331
CB25
  5
DCBF
331
1C484
  5
1C740
331
12AAA
  5
12A1D
  0
XRECORD
  5
3085C
102
{ACAD_REACTORS
330
3085B
102
}
330
3085B
100
AcDbXrecord
280
     1
 40
5789.0
  1
\A1;\U+22057.5
  0
XRECORD
  5
30853
102
{ACAD_REACTORS
330
30852
102
}
330
30852
100
AcDbXrecord
280
     1
 70
     1
  0
XRECORD
  5
30855
102
{ACAD_REACTORS
330
30852
102
}
330
30852
100
AcDbXrecord
280
     1
340
14
  0
XRECORD
  5
30856
102
{ACAD_REACTORS
330
30852
102
}
330
30852
100
AcDbXrecord
280
     1
340
14
  0
XRECORD
  5
30854
102
{ACAD_REACTORS
330
30852
102
}
330
30852
100
AcDbXrecord
280
     1
340
14
  0
ACDBDETAILVIEWSTYLE
  5
307B4
102
{ACAD_XDICTIONARY
360
30893
102
}
102
{ACAD_REACTORS
330
8E4
102
}
330
8E4
100
AcDbModelDocViewStyle
 70
     0
  3
Metric50
290
     0
100
AcDbDetailViewStyle
 70
     0
 71
     0
 90
        3
 71
     1
340
11
 40
5.0
340
0
 40
5.0
300

 40
0.0
280
     1
 71
     2
340
16
 90
       25
 71
     3
340
11
 40
5.0
 90
        0
 40
15.0
 90
        1
300
%<\AcVar ViewDetailId>% (%<\AcVar ViewScale \f "%sn">%)
 71
     4
340
16
 90
       25
340
16
 90
       25
280
     0
  0
LAYOUT
  5
74
102
{ACAD_XDICTIONARY
360
30859
102
}
102
{ACAD_REACTORS
330
1A
102
}
330
1A
100
AcDbPlotSettings
  1

  2
\\ADSCCNDC1\hq601xrx1
  4

  6

 40
0.0
 41
0.0
 42
0.0
 43
0.0
 44
0.0
 45
0.0
 46
0.0
 47
0.0
 48
0.0
 49
0.0
140
0.0
141
0.0
142
1.0
143
1.0
 70
   688
 72
     0
 73
     0
 74
     5
  7
monochrome.ctb
 75
    16
147
1.0
148
0.0
149
0.0
100
AcDbLayout
  1
Layout1
 70
     1
 71
     1
 10
0.0
 20
0.0
 11
12.0
 21
9.0
 12
0.0
 22
0.0
 32
0.0
 14
0.0
 24
0.0
 34
0.0
 15
0.0
 25
0.0
 35
0.0
146
0.0
 13
0.0
 23
0.0
 33
0.0
 16
1.0
 26
0.0
 36
0.0
 17
0.0
 27
1.0
 37
0.0
 76
     0
330
73
  0
LAYOUT
  5
22
102
{ACAD_XDICTIONARY
360
30857
102
}
102
{ACAD_REACTORS
330
1A
102
}
330
1A
100
AcDbPlotSettings
  1

  2
DWG To PDF.pc3
  4
ISO_expand_A0_(841.00_x_1189.00_MM)
  6

 40
5.793749809265137
 41
5.79376220703125
 42
10.79374980926514
 43
10.793701171875
 44
841.0
 45
1189.0
 46
-0.0000000000000142
 47
277.0515806674956
 48
0.0
 49
0.0
140
0.0
141
0.0
142
1.0
143
0.0145558200469394
 70
 11956
 72
     1
 73
     0
 74
     1
  7
monochrome.ctb
 75
     0
147
68.70104169845581
148
70.55856307424345
149
1453.505808791571
100
AcDbLayout
  1
Model
 70
     1
 71
     0
 10
-170.0
 20
-170.0
 11
519.0
 21
260.0
 12
0.0
 22
0.0
 32
0.0
 14
-98.17857769519422
 24
-63.81452177063443
 34
-0.0015258207003583
 15
44.95570332109855
 25
40.26791361389064
 35
0.0000000349246037
146
0.0
 13
0.0
 23
0.0
 33
0.0
 16
1.0
 26
0.0
 36
0.0
 17
0.0
 27
1.0
 37
0.0
 76
     0
330
1F
331
97
  0
MATERIAL
  5
30789
102
{ACAD_XDICTIONARY
360
3078A
102
}
102
{ACAD_REACTORS
330
6B
102
}
330
6B
100
AcDbMaterial
  1
ByBlock
 72
     0
 43
0.0008202099737533
 43
0.0
 43
0.0
 43
0.0
 43
0.0
 43
0.0008202099737533
 43
0.0
 43
0.0
 43
0.0
 43
0.0
 43
1.0
 43
0.0
 43
0.0
 43
0.0
 43
0.0
 43
1.0
 77
     0
 47
0.0008202099737533
 47
0.0
 47
0.0
 47
0.0
 47
0.0
 47
0.0008202099737533
 47
0.0
 47
0.0
 47
0.0
 47
0.0
 47
1.0
 47
0.0
 47
0.0
 47
0.0
 47
0.0
 47
1.0
171
     0
 49
0.0008202099737533
 49
0.0
 49
0.0
 49
0.0
 49
0.0
 49
0.0008202099737533
 49
0.0
 49
0.0
 49
0.0
 49
0.0
 49
1.0
 49
0.0
 49
0.0
 49
0.0
 49
0.0
 49
1.0
175
     0
142
0.0008202099737533
142
0.0
142
0.0
142
0.0
142
0.0
142
0.0008202099737533
142
0.0
142
0.0
142
0.0
142
0.0
142
1.0
142
0.0
142
0.0
142
0.0
142
0.0
142
1.0
179
     0
144
0.0008202099737533
144
0.0
144
0.0
144
0.0
144
0.0
144
0.0008202099737533
144
0.0
144
0.0
144
0.0
144
0.0
144
1.0
144
0.0
144
0.0
144
0.0
144
0.0
144
1.0
147
0.0008202099737533
147
0.0
147
0.0
147
0.0
147
0.0
147
0.0008202099737533
147
0.0
147
0.0
147
0.0
147
0.0
147
1.0
147
0.0
147
0.0
147
0.0
147
0.0
147
1.0
  0
MATERIAL
  5
30781
102
{ACAD_XDICTIONARY
360
30782
102
}
102
{ACAD_REACTORS
330
6B
102
}
330
6B
100
AcDbMaterial
  1
ByLayer
 72
     0
 43
0.0008202099737533
 43
0.0
 43
0.0
 43
0.0
 43
0.0
 43
0.0008202099737533
 43
0.0
 43
0.0
 43
0.0
 43
0.0
 43
1.0
 43
0.0
 43
0.0
 43
0.0
 43
0.0
 43
1.0
 77
     0
 47
0.0008202099737533
 47
0.0
 47
0.0
 47
0.0
 47
0.0
 47
0.0008202099737533
 47
0.0
 47
0.0
 47
0.0
 47
0.0
 47
1.0
 47
0.0
 47
0.0
 47
0.0
 47
0.0
 47
1.0
171
     0
 49
0.0008202099737533
 49
0.0
 49
0.0
 49
0.0
 49
0.0
 49
0.0008202099737533
 49
0.0
 49
0.0
 49
0.0
 49
0.0
 49
1.0
 49
0.0
 49
0.0
 49
0.0
 49
0.0
 49
1.0
175
     0
142
0.0008202099737533
142
0.0
142
0.0
142
0.0
142
0.0
142
0.0008202099737533
142
0.0
142
0.0
142
0.0
142
0.0
142
1.0
142
0.0
142
0.0
142
0.0
142
0.0
142
1.0
179
     0
144
0.0008202099737533
144
0.0
144
0.0
144
0.0
144
0.0
144
0.0008202099737533
144
0.0
144
0.0
144
0.0
144
0.0
144
1.0
144
0.0
144
0.0
144
0.0
144
0.0
144
1.0
147
0.0008202099737533
147
0.0
147
0.0
147
0.0
147
0.0
147
0.0008202099737533
147
0.0
147
0.0
147
0.0
147
0.0
147
1.0
147
0.0
147
0.0
147
0.0
147
0.0
147
1.0
  0
MATERIAL
  5
30791
102
{ACAD_XDICTIONARY
360
30792
102
}
102
{ACAD_REACTORS
330
6B
102
}
330
6B
100
AcDbMaterial
  1
Global
 72
     0
 43
0.0008202099737533
 43
0.0
 43
0.0
 43
0.0
 43
0.0
 43
0.0008202099737533
 43
0.0
 43
0.0
 43
0.0
 43
0.0
 43
1.0
 43
0.0
 43
0.0
 43
0.0
 43
0.0
 43
1.0
 77
     0
 47
0.0008202099737533
 47
0.0
 47
0.0
 47
0.0
 47
0.0
 47
0.0008202099737533
 47
0.0
 47
0.0
 47
0.0
 47
0.0
 47
1.0
 47
0.0
 47
0.0
 47
0.0
 47
0.0
 47
1.0
171
     0
 49
0.0008202099737533
 49
0.0
 49
0.0
 49
0.0
 49
0.0
 49
0.0008202099737533
 49
0.0
 49
0.0
 49
0.0
 49
0.0
 49
1.0
 49
0.0
 49
0.0
 49
0.0
 49
0.0
 49
1.0
175
     0
142
0.0008202099737533
142
0.0
142
0.0
142
0.0
142
0.0
142
0.0008202099737533
142
0.0
142
0.0
142
0.0
142
0.0
142
1.0
142
0.0
142
0.0
142
0.0
142
0.0
142
1.0
179
     0
144
0.0008202099737533
144
0.0
144
0.0
144
0.0
144
0.0
144
0.0008202099737533
144
0.0
144
0.0
144
0.0
144
0.0
144
1.0
144
0.0
144
0.0
144
0.0
144
0.0
144
1.0
147
0.0008202099737533
147
0.0
147
0.0
147
0.0
147
0.0
147
0.0008202099737533
147
0.0
147
0.0
147
0.0
147
0.0
147
1.0
147
0.0
147
0.0
147
0.0
147
0.0
147
1.0
  0
MLEADERSTYLE
  5
307B2
102
{ACAD_REACTORS
330
43C
102
}
330
43C
100
AcDbMLeaderStyle
170
     2
171
     1
172
     0
 90
        2
 40
0.0
 41
0.0
173
     1
 91
-1056964608
340
14
 92
       -2
290
     1
 42
2.0
291
     1
 43
0.36
  3
Standard
 44
4.0
300

342
11
174
     1
178
     6
175
     1
176
     0
 93
-1056964608
 45
4.0
292
     0
297
     0
 46
4.0
 94
-1056964608
 47
1.0
 49
1.0
140
1.0
293
     1
141
0.0
294
     1
177
     0
142
1.0
295
     0
296
     0
143
0.125
1001
ACAD_MLEADERVER
1070
     2
  0
MLINESTYLE
  5
18
102
{ACAD_REACTORS
330
17
102
}
330
17
100
AcDbMlineStyle
  2
STANDARD
 70
     0
  3

 62
     0
 51
90.0
 52
90.0
 71
     2
 49
0.5
 62
   256
  6
BYLAYER
 49
-0.5
 62
   256
  6
BYLAYER
  0
ACDBPLACEHOLDER
  5
F
102
{ACAD_REACTORS
330
E
102
}
330
E
  0
SCALE
  5
9A
102
{ACAD_REACTORS
330
99
102
}
330
99
100
AcDbScale
 70
     0
300
1:1
140
1.0
141
1.0
290
     1
  0
SCALE
  5
9B
102
{ACAD_REACTORS
330
99
102
}
330
99
100
AcDbScale
 70
     0
300
1:2
140
1.0
141
2.0
290
     0
  0
SCALE
  5
9C
102
{ACAD_REACTORS
330
99
102
}
330
99
100
AcDbScale
 70
     0
300
1:4
140
1.0
141
4.0
290
     0
  0
SCALE
  5
9D
102
{ACAD_REACTORS
330
99
102
}
330
99
100
AcDbScale
 70
     0
300
1:5
140
1.0
141
5.0
290
     0
  0
SCALE
  5
9E
102
{ACAD_REACTORS
330
99
102
}
330
99
100
AcDbScale
 70
     0
300
1:8
140
1.0
141
8.0
290
     0
  0
SCALE
  5
9F
102
{ACAD_REACTORS
330
99
102
}
330
99
100
AcDbScale
 70
     0
300
1:10
140
1.0
141
10.0
290
     0
  0
SCALE
  5
A0
102
{ACAD_REACTORS
330
99
102
}
330
99
100
AcDbScale
 70
     0
300
1:16
140
1.0
141
16.0
290
     0
  0
SCALE
  5
A1
102
{ACAD_REACTORS
330
99
102
}
330
99
100
AcDbScale
 70
     0
300
1:20
140
1.0
141
20.0
290
     0
  0
SCALE
  5
A2
102
{ACAD_REACTORS
330
99
102
}
330
99
100
AcDbScale
 70
     0
300
1:30
140
1.0
141
30.0
290
     0
  0
SCALE
  5
A3
102
{ACAD_REACTORS
330
99
102
}
330
99
100
AcDbScale
 70
     0
300
1:40
140
1.0
141
40.0
290
     0
  0
SCALE
  5
A4
102
{ACAD_REACTORS
330
99
102
}
330
99
100
AcDbScale
 70
     0
300
1:50
140
1.0
141
50.0
290
     0
  0
SCALE
  5
A5
102
{ACAD_REACTORS
330
99
102
}
330
99
100
AcDbScale
 70
     0
300
1:100
140
1.0
141
100.0
290
     0
  0
SCALE
  5
A6
102
{ACAD_REACTORS
330
99
102
}
330
99
100
AcDbScale
 70
     0
300
2:1
140
2.0
141
1.0
290
     0
  0
SCALE
  5
A7
102
{ACAD_REACTORS
330
99
102
}
330
99
100
AcDbScale
 70
     0
300
4:1
140
4.0
141
1.0
290
     0
  0
SCALE
  5
A8
102
{ACAD_REACTORS
330
99
102
}
330
99
100
AcDbScale
 70
     0
300
8:1
140
8.0
141
1.0
290
     0
  0
SCALE
  5
A9
102
{ACAD_REACTORS
330
99
102
}
330
99
100
AcDbScale
 70
     0
300
10:1
140
10.0
141
1.0
290
     0
  0
SCALE
  5
AA
102
{ACAD_REACTORS
330
99
102
}
330
99
100
AcDbScale
 70
     0
300
100:1
140
100.0
141
1.0
290
     0
  0
SCALE
  5
AB
102
{ACAD_REACTORS
330
99
102
}
330
99
100
AcDbScale
 70
     0
300
1/128" = 1'-0"
140
0.0078125
141
12.0
290
     0
  0
SCALE
  5
AC
102
{ACAD_REACTORS
330
99
102
}
330
99
100
AcDbScale
 70
     0
300
1/64" = 1'-0"
140
0.015625
141
12.0
290
     0
  0
SCALE
  5
AD
102
{ACAD_REACTORS
330
99
102
}
330
99
100
AcDbScale
 70
     0
300
1/32" = 1'-0"
140
0.03125
141
12.0
290
     0
  0
SCALE
  5
AE
102
{ACAD_REACTORS
330
99
102
}
330
99
100
AcDbScale
 70
     0
300
1/16" = 1'-0"
140
0.0625
141
12.0
290
     0
  0
SCALE
  5
AF
102
{ACAD_REACTORS
330
99
102
}
330
99
100
AcDbScale
 70
     0
300
3/32" = 1'-0"
140
0.09375
141
12.0
290
     0
  0
SCALE
  5
B0
102
{ACAD_REACTORS
330
99
102
}
330
99
100
AcDbScale
 70
     0
300
1/8" = 1'-0"
140
0.125
141
12.0
290
     0
  0
SCALE
  5
B1
102
{ACAD_REACTORS
330
99
102
}
330
99
100
AcDbScale
 70
     0
300
3/16" = 1'-0"
140
0.1875
141
12.0
290
     0
  0
SCALE
  5
B2
102
{ACAD_REACTORS
330
99
102
}
330
99
100
AcDbScale
 70
     0
300
1/4" = 1'-0"
140
0.25
141
12.0
290
     0
  0
SCALE
  5
B3
102
{ACAD_REACTORS
330
99
102
}
330
99
100
AcDbScale
 70
     0
300
3/8" = 1'-0"
140
0.375
141
12.0
290
     0
  0
SCALE
  5
B4
102
{ACAD_REACTORS
330
99
102
}
330
99
100
AcDbScale
 70
     0
300
1/2" = 1'-0"
140
0.5
141
12.0
290
     0
  0
SCALE
  5
B5
102
{ACAD_REACTORS
330
99
102
}
330
99
100
AcDbScale
 70
     0
300
3/4" = 1'-0"
140
0.75
141
12.0
290
     0
  0
SCALE
  5
B6
102
{ACAD_REACTORS
330
99
102
}
330
99
100
AcDbScale
 70
     0
300
1" = 1'-0"
140
1.0
141
12.0
290
     0
  0
SCALE
  5
B7
102
{ACAD_REACTORS
330
99
102
}
330
99
100
AcDbScale
 70
     0
300
1-1/2" = 1'-0"
140
1.5
141
12.0
290
     0
  0
SCALE
  5
B8
102
{ACAD_REACTORS
330
99
102
}
330
99
100
AcDbScale
 70
     0
300
3" = 1'-0"
140
3.0
141
12.0
290
     0
  0
SCALE
  5
B9
102
{ACAD_REACTORS
330
99
102
}
330
99
100
AcDbScale
 70
     0
300
6" = 1'-0"
140
6.0
141
12.0
290
     0
  0
SCALE
  5
BA
102
{ACAD_REACTORS
330
99
102
}
330
99
100
AcDbScale
 70
     0
300
1'-0" = 1'-0"
140
12.0
141
12.0
290
     0
  0
ACDBSECTIONVIEWSTYLE
  5
307B3
102
{ACAD_XDICTIONARY
360
30891
102
}
102
{ACAD_REACTORS
330
8E2
102
}
330
8E2
100
AcDbModelDocViewStyle
 70
     0
  3
Metric50
290
     0
100
AcDbSectionViewStyle
 70
     0
 71
     0
 90
      102
 71
     1
340
11
 40
5.0
340
0
340
0
 40
5.0
300
I, O, Q, S, X, Z
 40
10.0
 90
        0
 40
2.5
 90
        0
 71
     2
340
16
 90
       25
340
16
 90
       50
 40
5.0
 40
2.5
 40
5.0
 71
     3
340
11
 40
5.0
 90
        0
 40
15.0
 90
        1
300
%<\AcVar ViewSectionStartId>%-%<\AcVar ViewSectionEndId>% (%<\AcVar ViewScale \f "%sn">%)
 71
     4
300
ANSI31
 40
1.0
 90
        0
290
     0
290
     0
 90
        6
 40
0.0
 40
1.570796326794896
 40
0.2617993877991494
 40
1.308996938995747
 40
-0.2617993877991494
 40
1.832595714594046
  0
TABLESTYLE
  5
307B1
102
{ACAD_XDICTIONARY
360
3084E
102
}
102
{ACAD_REACTORS
330
92
102
}
330
92
100
AcDbTableStyle
  3
Standard
 70
     0
 71
     0
 40
1.5
 41
1.5
280
     0
281
     0
  7
Standard
140
4.5
170
     2
 62
     0
 63
     7
283
     0
274
    -2
284
     1
 64
     0
275
    -2
285
     1
 65
     0
276
    -2
286
     1
 66
     0
277
    -2
287
     1
 67
     0
278
    -2
288
     1
 68
     0
279
    -2
289
     1
 69
     0
  7
Standard
140
6.0
170
     5
 62
     0
 63
     7
283
     0
274
    -2
284
     1
 64
     0
275
    -2
285
     1
 65
     0
276
    -2
286
     1
 66
     0
277
    -2
287
     1
 67
     0
278
    -2
288
     1
 68
     0
279
    -2
289
     1
 69
     0
  7
Standard
140
4.5
170
     5
 62
     0
 63
     7
283
     0
274
    -2
284
     1
 64
     0
275
    -2
285
     1
 65
     0
276
    -2
286
     1
 66
     0
277
    -2
287
     1
 67
     0
278
    -2
288
     1
 68
     0
279
    -2
289
     1
 69
     0
  0
VISUALSTYLE
  5
3079E
102
{ACAD_XDICTIONARY
360
3086A
102
}
102
{ACAD_REACTORS
330
3F2
102
}
330
3F2
100
AcDbVisualStyle
  2
2dWireframe
 70
     4
 71
     0
 72
     2
 73
     0
 90
        0
 40
-0.6
 41
-30.0
 62
     5
 63
     7
 74
     1
 91
        4
 64
     7
 65
   257
 75
     1
175
     1
 42
1.0
 92
        0
 66
   257
 43
1.0
 76
     1
 77
     6
 78
     2
 67
     7
 79
     5
170
     0
171
     0
290
     0
174
     0
 93
        1
 44
0.0
173
     0
291
     0
 45
0.0
1001
ACAD
1000
AcDbSavedByObjectVersion
1070
     0
  0
VISUALSTYLE
  5
3079D
102
{ACAD_XDICTIONARY
360
30868
102
}
102
{ACAD_REACTORS
330
3F2
102
}
330
3F2
100
AcDbVisualStyle
  2
Basic
 70
     7
 71
     1
 72
     0
 73
     1
 90
        0
 40
-0.6
 41
-30.0
 62
     5
 63
     7
 74
     0
 91
        4
 64
     7
 65
   257
 75
     1
175
     1
 42
1.0
 92
        8
 66
     7
 43
1.0
 76
     1
 77
     6
 78
     2
 67
     7
 79
     5
170
     0
171
     0
290
     0
174
     0
 93
        1
 44
0.0
173
     0
291
     1
 45
0.0
1001
ACAD
1000
AcDbSavedByObjectVersion
1070
     0
  0
VISUALSTYLE
  5
307A4
102
{ACAD_XDICTIONARY
360
30876
102
}
102
{ACAD_REACTORS
330
3F2
102
}
330
3F2
100
AcDbVisualStyle
  2
Brighten
 70
    12
 71
     2
 72
     2
 73
     0
 90
        0
 40
-0.6
 41
-30.0
 62
     5
 63
     7
 74
     1
 91
        4
 64
     7
 65
   257
 75
     1
175
     1
 42
1.0
 92
        8
 66
     7
 43
1.0
 76
     1
 77
     6
 78
     2
 67
     7
 79
     5
170
     0
171
     0
290
     0
174
     0
 93
        1
 44
50.0
173
     0
291
     1
 45
0.0
1001
ACAD
1000
AcDbSavedByObjectVersion
1070
     0
  0
VISUALSTYLE
  5
307A8
102
{ACAD_XDICTIONARY
360
3087E
102
}
102
{ACAD_REACTORS
330
3F2
102
}
330
3F2
100
AcDbVisualStyle
  2
ColorChange
 70
    16
 71
     2
 72
     2
 73
     3
 90
        0
 40
-0.6
 41
-30.0
 62
     5
 63
     8
 74
     1
 91
        4
 64
     7
 65
   257
 75
     1
175
     1
 42
1.0
 92
        8
 66
     8
 43
1.0
 76
     1
 77
     6
 78
     2
 67
     7
 79
     5
170
     0
171
     0
290
     0
174
     0
 93
        1
 44
0.0
173
     0
291
     1
 45
0.0
1001
ACAD
1000
AcDbSavedByObjectVersion
1070
     0
  0
VISUALSTYLE
  5
307A1
102
{ACAD_XDICTIONARY
360
30870
102
}
102
{ACAD_REACTORS
330
3F2
102
}
330
3F2
100
AcDbVisualStyle
  2
Conceptual
 70
     9
 71
     3
 72
     2
 73
     0
 90
        0
 40
-0.6
 41
-30.0
 62
     5
 63
     7
 74
     2
 91
        2
 64
     7
 65
   257
 75
     1
175
     1
 42
179.0
 92
        8
 66
     7
 43
1.0
 76
     1
 77
     6
 78
     2
 67
     7
 79
     3
170
     0
171
     0
290
     0
174
     0
 93
        1
 44
0.0
173
     0
291
     0
 45
0.0
1001
ACAD
1000
AcDbSavedByObjectVersion
1070
     0
  0
VISUALSTYLE
  5
307A3
102
{ACAD_XDICTIONARY
360
30874
102
}
102
{ACAD_REACTORS
330
3F2
102
}
330
3F2
100
AcDbVisualStyle
  2
Dim
 70
    11
 71
     2
 72
     2
 73
     0
 90
        0
 40
-0.6
 41
-30.0
 62
     5
 63
     7
 74
     1
 91
        4
 64
     7
 65
   257
 75
     1
175
     1
 42
1.0
 92
        8
 66
     7
 43
1.0
 76
     1
 77
     6
 78
     2
 67
     7
 79
     5
170
     0
171
     0
290
     0
174
     0
 93
        1
 44
-50.0
173
     0
291
     1
 45
0.0
1001
ACAD
1000
AcDbSavedByObjectVersion
1070
     0
  0
VISUALSTYLE
  5
307B0
102
{ACAD_XDICTIONARY
360
3088E
102
}
102
{ACAD_REACTORS
330
3F2
102
}
330
3F2
100
AcDbVisualStyle
  2
EdgeColorOff
 70
    22
 71
     2
 72
     2
 73
     0
 90
        0
 40
-0.6
 41
-30.0
 62
     5
 63
     7
 74
     1
 91
        4
 64
     7
 65
   257
 75
     1
175
     1
 42
1.0
 92
        8
 66
     7
 43
1.0
 76
     1
 77
     6
 78
     2
 67
     7
 79
     5
170
     0
171
     0
290
     0
174
     0
 93
        1
 44
0.0
173
     0
291
     1
 45
0.0
1001
ACAD
1000
AcDbSavedByObjectVersion
1070
     0
  0
VISUALSTYLE
  5
307A7
102
{ACAD_XDICTIONARY
360
3087C
102
}
102
{ACAD_REACTORS
330
3F2
102
}
330
3F2
100
AcDbVisualStyle
  2
Facepattern
 70
    15
 71
     2
 72
     2
 73
     0
 90
        0
 40
-0.6
 41
-30.0
 62
     5
 63
     7
 74
     1
 91
        4
 64
     7
 65
   257
 75
     1
175
     1
 42
1.0
 92
        8
 66
     7
 43
1.0
 76
     1
 77
     6
 78
     2
 67
     7
 79
     5
170
     0
171
     0
290
     0
174
     0
 93
        1
 44
0.0
173
     0
291
     1
 45
0.0
1001
ACAD
1000
AcDbSavedByObjectVersion
1070
     0
  0
VISUALSTYLE
  5
30799
102
{ACAD_XDICTIONARY
360
30860
102
}
102
{ACAD_REACTORS
330
3F2
102
}
330
3F2
100
AcDbVisualStyle
  2
Flat
 70
     0
 71
     2
 72
     1
 73
     1
 90
        2
 40
-0.6
 41
30.0
 62
     5
 63
     7
 74
     0
 91
        0
 64
     7
 65
   257
 75
     1
175
     1
 42
1.0
 92
        8
 66
     7
 43
1.0
 76
     1
 77
     6
 78
     2
 67
     7
 79
     5
170
     0
171
     0
290
     0
174
     0
 93
       13
 44
0.0
173
     0
291
     1
 45
0.0
1001
ACAD
1000
AcDbSavedByObjectVersion
1070
     0
  0
VISUALSTYLE
  5
3079A
102
{ACAD_XDICTIONARY
360
30862
102
}
102
{ACAD_REACTORS
330
3F2
102
}
330
3F2
100
AcDbVisualStyle
  2
FlatWithEdges
 70
     1
 71
     2
 72
     1
 73
     1
 90
        2
 40
-0.6
 41
30.0
 62
     5
 63
     7
 74
     1
 91
        0
 64
     7
 65
   257
 75
     1
175
     1
 42
1.0
 92
        0
 66
   257
 43
1.0
 76
     1
 77
     6
 78
     2
 67
     7
 79
     5
170
     0
171
     0
290
     0
174
     0
 93
       13
 44
0.0
173
     0
291
     1
 45
0.0
1001
ACAD
1000
AcDbSavedByObjectVersion
1070
     0
  0
VISUALSTYLE
  5
3079B
102
{ACAD_XDICTIONARY
360
30864
102
}
102
{ACAD_REACTORS
330
3F2
102
}
330
3F2
100
AcDbVisualStyle
  2
Gouraud
 70
     2
 71
     2
 72
     2
 73
     1
 90
        2
 40
-0.6
 41
30.0
 62
     5
 63
     7
 74
     0
 91
        0
 64
     7
 65
   257
 75
     1
175
     1
 42
1.0
 92
        0
 66
     7
 43
1.0
 76
     1
 77
     6
 78
     2
 67
     7
 79
     5
170
     0
171
     0
290
     0
174
     0
 93
       13
 44
0.0
173
     0
291
     1
 45
0.0
1001
ACAD
1000
AcDbSavedByObjectVersion
1070
     0
  0
VISUALSTYLE
  5
3079C
102
{ACAD_XDICTIONARY
360
30866
102
}
102
{ACAD_REACTORS
330
3F2
102
}
330
3F2
100
AcDbVisualStyle
  2
GouraudWithEdges
 70
     3
 71
     2
 72
     2
 73
     1
 90
        2
 40
-0.6
 41
30.0
 62
     5
 63
     7
 74
     1
 91
        0
 64
     7
 65
   257
 75
     1
175
     1
 42
1.0
 92
        0
 66
   257
 43
1.0
 76
     1
 77
     6
 78
     2
 67
     7
 79
     5
170
     0
171
     0
290
     0
174
     0
 93
       13
 44
0.0
173
     0
291
     1
 45
0.0
1001
ACAD
1000
AcDbSavedByObjectVersion
1070
     0
  0
VISUALSTYLE
  5
307A0
102
{ACAD_XDICTIONARY
360
3086E
102
}
102
{ACAD_REACTORS
330
3F2
102
}
330
3F2
100
AcDbVisualStyle
  2
Hidden
 70
     6
 71
     1
 72
     2
 73
     2
 90
        0
 40
-0.6
 41
-30.0
 62
     5
 63
     7
 74
     2
 91
        2
 64
     7
 65
   257
 75
     2
175
     1
 42
40.0
 92
        0
 66
   257
 43
1.0
 76
     1
 77
     6
 78
     2
 67
     7
 79
     3
170
     0
171
     0
290
     0
174
     0
 93
        1
 44
0.0
173
     0
291
     0
 45
0.0
1001
ACAD
1000
AcDbSavedByObjectVersion
1070
     0
  0
VISUALSTYLE
  5
307AE
102
{ACAD_XDICTIONARY
360
3088A
102
}
102
{ACAD_REACTORS
330
3F2
102
}
330
3F2
100
AcDbVisualStyle
  2
JitterOff
 70
    20
 71
     2
 72
     2
 73
     0
 90
        0
 40
-0.6
 41
-30.0
 62
     5
 63
     7
 74
     1
 91
        4
 64
     7
 65
   257
 75
     1
175
     1
 42
1.0
 92
       10
 66
     7
 43
1.0
 76
     1
 77
     6
 78
     2
 67
     7
 79
     5
170
     0
171
     0
290
     0
174
     0
 93
        1
 44
0.0
173
     0
291
     1
 45
0.0
1001
ACAD
1000
AcDbSavedByObjectVersion
1070
     0
  0
VISUALSTYLE
  5
307A6
102
{ACAD_XDICTIONARY
360
3087A
102
}
102
{ACAD_REACTORS
330
3F2
102
}
330
3F2
100
AcDbVisualStyle
  2
Linepattern
 70
    14
 71
     2
 72
     2
 73
     0
 90
        0
 40
-0.6
 41
-30.0
 62
     5
 63
     7
 74
     1
 91
        4
 64
     7
 65
   257
 75
     7
175
     7
 42
1.0
 92
        8
 66
     7
 43
1.0
 76
     1
 77
     6
 78
     2
 67
     7
 79
     5
170
     0
171
     0
290
     0
174
     0
 93
        1
 44
0.0
173
     0
291
     1
 45
0.0
1001
ACAD
1000
AcDbSavedByObjectVersion
1070
     0
  0
VISUALSTYLE
  5
307AF
102
{ACAD_XDICTIONARY
360
3088C
102
}
102
{ACAD_REACTORS
330
3F2
102
}
330
3F2
100
AcDbVisualStyle
  2
OverhangOff
 70
    21
 71
     2
 72
     2
 73
     0
 90
        0
 40
-0.6
 41
-30.0
 62
     5
 63
     7
 74
     1
 91
        4
 64
     7
 65
   257
 75
     1
175
     1
 42
1.0
 92
        9
 66
     7
 43
1.0
 76
     1
 77
     6
 78
     2
 67
     7
 79
     5
170
     0
171
     0
290
     0
174
     0
 93
        1
 44
0.0
173
     0
291
     1
 45
0.0
1001
ACAD
1000
AcDbSavedByObjectVersion
1070
     0
  0
VISUALSTYLE
  5
307A2
102
{ACAD_XDICTIONARY
360
30872
102
}
102
{ACAD_REACTORS
330
3F2
102
}
330
3F2
100
AcDbVisualStyle
  2
Realistic
 70
     8
 71
     2
 72
     3
 73
     0
 90
        2
 40
-0.6
 41
30.0
 62
     5
 63
     7
 74
     0
 91
        0
 64
     7
 65
   257
 75
     1
175
     1
 42
1.0
 92
        8
 66
   257
 43
1.0
 76
     1
 77
     6
 78
     2
 67
     7
 79
     3
170
     0
171
     0
290
     0
174
     0
 93
       13
 44
0.0
173
     0
291
     0
 45
0.0
1001
ACAD
1000
AcDbSavedByObjectVersion
1070
     0
  0
VISUALSTYLE
  5
307AD
102
{ACAD_XDICTIONARY
360
30888
102
}
102
{ACAD_REACTORS
330
3F2
102
}
330
3F2
100
AcDbVisualStyle
  2
Shaded
 70
    27
 71
     2
 72
     2
 73
     1
 90
        2
 40
-0.6
 41
30.0
 62
     5
 63
     7
 74
     0
 91
        4
 64
     7
 65
   257
 75
     1
175
     1
 42
1.0
 92
        8
 66
   257
 43
1.0
 76
     1
 77
     6
 78
     2
 67
     8
 79
     3
170
     0
171
     0
290
     0
174
     0
 93
        5
 44
0.0
173
     0
291
     0
 45
0.0
1001
ACAD
1000
AcDbSavedByObjectVersion
1070
     0
  0
VISUALSTYLE
  5
307AC
102
{ACAD_XDICTIONARY
360
30886
102
}
102
{ACAD_REACTORS
330
3F2
102
}
330
3F2
100
AcDbVisualStyle
  2
Shaded with edges
 70
    26
 71
     2
 72
     2
 73
     1
 90
        2
 40
-0.6
 41
30.0
 62
     5
 63
     7
 74
     1
 91
       10
 64
     7
 65
   257
 75
     2
175
     1
 42
1.0
 92
        8
 66
   257
 43
1.0
 76
     1
 77
     6
 78
     2
 67
     7
 79
     3
170
     0
171
     0
290
     0
174
     0
 93
        5
 44
0.0
173
     0
291
     0
 45
0.0
1001
ACAD
1000
AcDbSavedByObjectVersion
1070
     0
  0
VISUALSTYLE
  5
307A9
102
{ACAD_XDICTIONARY
360
30880
102
}
102
{ACAD_REACTORS
330
3F2
102
}
330
3F2
100
AcDbVisualStyle
  2
Shades of Gray
 70
    23
 71
     2
 72
     2
 73
     3
 90
        0
 40
-0.6
 41
-30.0
 62
     5
 63
     7
 74
     2
 91
        2
 64
     7
 65
     7
 75
     1
175
     1
 42
40.0
 92
        8
 66
     7
 43
1.0
 76
     1
 77
     6
 78
     2
 67
     7
 79
     3
170
     0
171
     0
290
     0
174
     0
 93
        1
 44
0.0
173
     0
291
     0
 45
0.0
1001
ACAD
1000
AcDbSavedByObjectVersion
1070
     0
  0
VISUALSTYLE
  5
307AA
102
{ACAD_XDICTIONARY
360
30882
102
}
102
{ACAD_REACTORS
330
3F2
102
}
330
3F2
100
AcDbVisualStyle
  2
Sketchy
 70
    24
 71
     1
 72
     2
 73
     2
 90
        0
 40
-0.6
 41
-30.0
 62
     5
 63
     7
 74
     2
 91
        2
 64
     7
 65
     7
 75
     1
175
     1
 42
40.0
 92
       11
 66
     7
 43
1.0
 76
     1
 77
     6
 78
     2
 67
     7
 79
     6
170
     0
171
     0
290
     0
174
     0
 93
        1
 44
0.0
173
     0
291
     0
 45
0.0
1001
ACAD
1000
AcDbSavedByObjectVersion
1070
     0
  0
VISUALSTYLE
  5
307A5
102
{ACAD_XDICTIONARY
360
30878
102
}
102
{ACAD_REACTORS
330
3F2
102
}
330
3F2
100
AcDbVisualStyle
  2
Thicken
 70
    13
 71
     2
 72
     2
 73
     0
 90
        0
 40
-0.6
 41
-30.0
 62
     5
 63
     7
 74
     1
 91
        4
 64
     7
 65
   257
 75
     1
175
     1
 42
1.0
 92
       12
 66
     7
 43
1.0
 76
     1
 77
     6
 78
     2
 67
     7
 79
     5
170
     0
171
     0
290
     0
174
     0
 93
        1
 44
0.0
173
     0
291
     1
 45
0.0
1001
ACAD
1000
AcDbSavedByObjectVersion
1070
     0
  0
VISUALSTYLE
  5
3079F
102
{ACAD_XDICTIONARY
360
3086C
102
}
102
{ACAD_REACTORS
330
3F2
102
}
330
3F2
100
AcDbVisualStyle
  2
Wireframe
 70
     5
 71
     0
 72
     2
 73
     0
 90
        0
 40
-0.6
 41
-30.0
 62
     5
 63
     7
 74
     1
 91
        4
 64
     7
 65
   257
 75
     1
175
     1
 42
1.0
 92
        0
 66
   257
 43
1.0
 76
     1
 77
     6
 78
     2
 67
     7
 79
     3
170
     0
171
     0
290
     0
174
     0
 93
        1
 44
0.0
173
     0
291
     0
 45
0.0
1001
ACAD
1000
AcDbSavedByObjectVersion
1070
     0
  0
VISUALSTYLE
  5
307AB
102
{ACAD_XDICTIONARY
360
30884
102
}
102
{ACAD_REACTORS
330
3F2
102
}
330
3F2
100
AcDbVisualStyle
  2
X-Ray
 70
    25
 71
     2
 72
     2
 73
     1
 90
        1
 40
0.5
 41
-30.0
 62
     5
 63
     7
 74
     1
 91
        0
 64
     7
 65
   257
 75
     1
175
     1
 42
1.0
 92
        8
 66
     7
 43
1.0
 76
     1
 77
     6
 78
     2
 67
     7
 79
     3
170
     0
171
     0
290
     0
174
     0
 93
       13
 44
0.0
173
     0
291
     0
 45
0.0
1001
ACAD
1000
AcDbSavedByObjectVersion
1070
     0
  0
XRECORD
  5
30779
102
{ACAD_REACTORS
330
30778
102
}
330
30778
100
AcDbXrecord
280
     1
340
6C
  0
XRECORD
  5
3077A
102
{ACAD_REACTORS
330
30778
102
}
330
30778
100
AcDbXrecord
280
     1
340
6B
  0
DICTIONARYVAR
  5
30777
102
{ACAD_REACTORS
330
59
102
}
330
59
100
DictionaryVariables
280
     0
  1
1:1
  0
DICTIONARYVAR
  5
447
102
{ACAD_REACTORS
330
59
102
}
330
59
100
DictionaryVariables
280
     0
  1
STANDARD
  0
DICTIONARYVAR
  5
38E
102
{ACAD_REACTORS
330
59
102
}
330
59
100
DictionaryVariables
280
     0
  1
STANDARD
  0
DICTIONARYVAR
  5
8FB
102
{ACAD_REACTORS
330
59
102
}
330
59
100
DictionaryVariables
280
     0
  1
Metric50
  0
DICTIONARYVAR
  5
8FC
102
{ACAD_REACTORS
330
59
102
}
330
59
100
DictionaryVariables
280
     0
  1
Metric50
  0
DICTIONARYVAR
  5
359
102
{ACAD_REACTORS
330
59
102
}
330
59
100
DictionaryVariables
280
     0
  1
2
  0
DICTIONARYVAR
  5
AF7
102
{ACAD_REACTORS
330
59
102
}
330
59
100
DictionaryVariables
280
     0
  1
0
  0
DICTIONARYVAR
  5
358
102
{ACAD_REACTORS
330
59
102
}
330
59
100
DictionaryVariables
280
     0
  1
1
  0
DICTIONARYVAR
  5
9BE
102
{ACAD_REACTORS
330
59
102
}
330
59
100
DictionaryVariables
280
     0
  1
0
  0
DICTIONARYVAR
  5
7AE
102
{ACAD_REACTORS
330
59
102
}
330
59
100
DictionaryVariables
280
     0
  1
1
  0
DICTIONARYVAR
  5
7AF
102
{ACAD_REACTORS
330
59
102
}
330
59
100
DictionaryVariables
280
     0
  1
15
  0
DICTIONARYVAR
  5
44A
102
{ACAD_REACTORS
330
59
102
}
330
59
100
DictionaryVariables
280
     0
  1
0
  0
DICTIONARYVAR
  5
448
102
{ACAD_REACTORS
330
59
102
}
330
59
100
DictionaryVariables
280
     0
  1
1
  0
DICTIONARYVAR
  5
9BD
102
{ACAD_REACTORS
330
59
102
}
330
59
100
DictionaryVariables
280
     0
  1
127
  0
DICTIONARYVAR
  5
30806
102
{ACAD_REACTORS
330
59
102
}
330
59
100
DictionaryVariables
280
     0
  1
2
  0
DICTIONARY
  5
76F
102
{ACAD_REACTORS
330
76D
102
}
330
76D
100
AcDbDictionary
281
     1
  0
DICTIONARY
  5
744
102
{ACAD_REACTORS
330
743
102
}
330
743
100
AcDbDictionary
281
     1
  0
XRECORD
  5
8C7
102
{ACAD_REACTORS
330
8C6
102
}
330
8C6
100
AcDbXrecord
280
     1
  0
DICTIONARY
  5
30893
330
307B4
100
AcDbDictionary
280
     1
281
     1
  3
ACAD_XREC_ROUNDTRIP
360
30894
  0
DICTIONARY
  5
30859
330
74
100
AcDbDictionary
280
     1
281
     1
  3
ACAD_XREC_ROUNDTRIP
360
3085A
  0
DICTIONARY
  5
30857
330
22
100
AcDbDictionary
280
     1
281
     1
  3
ACAD_XREC_ROUNDTRIP
360
30858
  0
DICTIONARY
  5
3078A
330
30789
100
AcDbDictionary
280
     1
281
     1
  3
ACAD_XREC_ROUNDTRIP
360
3085E
  3
BUMPTILE
360
3078C
  3
DIFFUSETILE
360
3078B
  3
OPACITYTILE
360
3078F
  3
REFLECTIONTILE
360
3078E
  3
REFRACTIONTILE
360
30790
  3
SPECULARTILE
360
3078D
  0
DICTIONARY
  5
30782
330
30781
100
AcDbDictionary
280
     1
281
     1
  3
ACAD_XREC_ROUNDTRIP
360
3085D
  3
BUMPTILE
360
30784
  3
DIFFUSETILE
360
30783
  3
OPACITYTILE
360
30787
  3
REFLECTIONTILE
360
30786
  3
REFRACTIONTILE
360
30788
  3
SPECULARTILE
360
30785
  0
DICTIONARY
  5
30792
330
30791
100
AcDbDictionary
280
     1
281
     1
  3
ACAD_XREC_ROUNDTRIP
360
3085F
  3
BUMPTILE
360
30794
  3
DIFFUSETILE
360
30793
  3
OPACITYTILE
360
30797
  3
REFLECTIONTILE
360
30796
  3
REFRACTIONTILE
360
30798
  3
SPECULARTILE
360
30795
  0
DICTIONARY
  5
30891
330
307B3
100
AcDbDictionary
280
     1
281
     1
  3
ACAD_XREC_ROUNDTRIP
360
30892
  0
DICTIONARY
  5
3084E
330
307B1
100
AcDbDictionary
280
     1
281
     1
  3
ACAD_ROUNDTRIP_2008_TABLESTYLE_CELLSTYLEMAP
360
3084F
  3
ACAD_XREC_ROUNDTRIP
360
30890
  0
DICTIONARY
  5
3086A
330
3079E
100
AcDbDictionary
280
     1
281
     1
  3
ACAD_XREC_ROUNDTRIP
360
3086B
  0
DICTIONARY
  5
30868
330
3079D
100
AcDbDictionary
280
     1
281
     1
  3
ACAD_XREC_ROUNDTRIP
360
30869
  0
DICTIONARY
  5
30876
330
307A4
100
AcDbDictionary
280
     1
281
     1
  3
ACAD_XREC_ROUNDTRIP
360
30877
  0
DICTIONARY
  5
3087E
330
307A8
100
AcDbDictionary
280
     1
281
     1
  3
ACAD_XREC_ROUNDTRIP
360
3087F
  0
DICTIONARY
  5
30870
330
307A1
100
AcDbDictionary
280
     1
281
     1
  3
ACAD_XREC_ROUNDTRIP
360
30871
  0
DICTIONARY
  5
30874
330
307A3
100
AcDbDictionary
280
     1
281
     1
  3
ACAD_XREC_ROUNDTRIP
360
30875
  0
DICTIONARY
  5
3088E
330
307B0
100
AcDbDictionary
280
     1
281
     1
  3
ACAD_XREC_ROUNDTRIP
360
3088F
  0
DICTIONARY
  5
3087C
330
307A7
100
AcDbDictionary
280
     1
281
     1
  3
ACAD_XREC_ROUNDTRIP
360
3087D
  0
DICTIONARY
  5
30860
330
30799
100
AcDbDictionary
280
     1
281
     1
  3
ACAD_XREC_ROUNDTRIP
360
30861
  0
DICTIONARY
  5
30862
330
3079A
100
AcDbDictionary
280
     1
281
     1
  3
ACAD_XREC_ROUNDTRIP
360
30863
  0
DICTIONARY
  5
30864
330
3079B
100
AcDbDictionary
280
     1
281
     1
  3
ACAD_XREC_ROUNDTRIP
360
30865
  0
DICTIONARY
  5
30866
330
3079C
100
AcDbDictionary
280
     1
281
     1
  3
ACAD_XREC_ROUNDTRIP
360
30867
  0
DICTIONARY
  5
3086E
330
307A0
100
AcDbDictionary
280
     1
281
     1
  3
ACAD_XREC_ROUNDTRIP
360
3086F
  0
DICTIONARY
  5
3088A
330
307AE
100
AcDbDictionary
280
     1
281
     1
  3
ACAD_XREC_ROUNDTRIP
360
3088B
  0
DICTIONARY
  5
3087A
330
307A6
100
AcDbDictionary
280
     1
281
     1
  3
ACAD_XREC_ROUNDTRIP
360
3087B
  0
DICTIONARY
  5
3088C
330
307AF
100
AcDbDictionary
280
     1
281
     1
  3
ACAD_XREC_ROUNDTRIP
360
3088D
  0
DICTIONARY
  5
30872
330
307A2
100
AcDbDictionary
280
     1
281
     1
  3
ACAD_XREC_ROUNDTRIP
360
30873
  0
DICTIONARY
  5
30888
330
307AD
100
AcDbDictionary
280
     1
281
     1
  3
ACAD_XREC_ROUNDTRIP
360
30889
  0
DICTIONARY
  5
30886
330
307AC
100
AcDbDictionary
280
     1
281
     1
  3
ACAD_XREC_ROUNDTRIP
360
30887
  0
DICTIONARY
  5
30880
330
307A9
100
AcDbDictionary
280
     1
281
     1
  3
ACAD_XREC_ROUNDTRIP
360
30881
  0
DICTIONARY
  5
30882
330
307AA
100
AcDbDictionary
280
     1
281
     1
  3
ACAD_XREC_ROUNDTRIP
360
30883
  0
DICTIONARY
  5
30878
330
307A5
100
AcDbDictionary
280
     1
281
     1
  3
ACAD_XREC_ROUNDTRIP
360
30879
  0
DICTIONARY
  5
3086C
330
3079F
100
AcDbDictionary
280
     1
281
     1
  3
ACAD_XREC_ROUNDTRIP
360
3086D
  0
DICTIONARY
  5
30884
330
307AB
100
AcDbDictionary
280
     1
281
     1
  3
ACAD_XREC_ROUNDTRIP
360
30885
  0
XRECORD
  5
30894
102
{ACAD_REACTORS
330
30893
102
}
330
30893
100
AcDbXrecord
280
     1
102
DISPLAYNAME
  1
Metric50
102
FLAGS
 90
        0
  0
XRECORD
  5
3085A
102
{ACAD_REACTORS
330
30859
102
}
330
30859
100
AcDbXrecord
280
     1
102
SHADEPLOT
 70
     0
102
SHADEPLOTRESLEVEL
 70
     2
102
SHADEPLOTCUSTOMDPI
 70
   300
  0
XRECORD
  5
30858
102
{ACAD_REACTORS
330
30857
102
}
330
30857
100
AcDbXrecord
280
     1
102
SHADEPLOT
 70
     0
102
SHADEPLOTRESLEVEL
 70
     4
102
SHADEPLOTCUSTOMDPI
 70
   300
  0
XRECORD
  5
3085E
102
{ACAD_REACTORS
330
3078A
102
}
330
3078A
100
AcDbXrecord
280
     1
102
MATERIAL
148
0.0
149
0.0
149
0.0
 93
        0
 94
      127
282
     0
 72
     0
 77
     0
171
     0
175
     0
179
     0
273
     0
  0
XRECORD
  5
3078C
102
{ACAD_REACTORS
330
3078A
102
}
330
3078A
100
AcDbXrecord
280
     1
270
     1
271
     1
  0
XRECORD
  5
3078B
102
{ACAD_REACTORS
330
3078A
102
}
330
3078A
100
AcDbXrecord
280
     1
270
     1
271
     1
  0
XRECORD
  5
3078F
102
{ACAD_REACTORS
330
3078A
102
}
330
3078A
100
AcDbXrecord
280
     1
270
     1
271
     1
  0
XRECORD
  5
3078E
102
{ACAD_REACTORS
330
3078A
102
}
330
3078A
100
AcDbXrecord
280
     1
270
     1
271
     1
  0
XRECORD
  5
30790
102
{ACAD_REACTORS
330
3078A
102
}
330
3078A
100
AcDbXrecord
280
     1
270
     1
271
     1
  0
XRECORD
  5
3078D
102
{ACAD_REACTORS
330
3078A
102
}
330
3078A
100
AcDbXrecord
280
     1
270
     1
271
     1
  0
XRECORD
  5
3085D
102
{ACAD_REACTORS
330
30782
102
}
330
30782
100
AcDbXrecord
280
     1
102
MATERIAL
148
0.0
149
0.0
149
0.0
 93
        0
 94
      127
282
     0
 72
     0
 77
     0
171
     0
175
     0
179
     0
273
     0
  0
XRECORD
  5
30784
102
{ACAD_REACTORS
330
30782
102
}
330
30782
100
AcDbXrecord
280
     1
270
     1
271
     1
  0
XRECORD
  5
30783
102
{ACAD_REACTORS
330
30782
102
}
330
30782
100
AcDbXrecord
280
     1
270
     1
271
     1
  0
XRECORD
  5
30787
102
{ACAD_REACTORS
330
30782
102
}
330
30782
100
AcDbXrecord
280
     1
270
     1
271
     1
  0
XRECORD
  5
30786
102
{ACAD_REACTORS
330
30782
102
}
330
30782
100
AcDbXrecord
280
     1
270
     1
271
     1
  0
XRECORD
  5
30788
102
{ACAD_REACTORS
330
30782
102
}
330
30782
100
AcDbXrecord
280
     1
270
     1
271
     1
  0
XRECORD
  5
30785
102
{ACAD_REACTORS
330
30782
102
}
330
30782
100
AcDbXrecord
280
     1
270
     1
271
     1
  0
XRECORD
  5
3085F
102
{ACAD_REACTORS
330
30792
102
}
330
30792
100
AcDbXrecord
280
     1
102
MATERIAL
148
0.0
149
0.0
149
0.0
 93
        0
 94
      127
282
     0
 72
     0
 77
     0
171
     0
175
     0
179
     0
273
     0
  0
XRECORD
  5
30794
102
{ACAD_REACTORS
330
30792
102
}
330
30792
100
AcDbXrecord
280
     1
270
     1
271
     1
  0
XRECORD
  5
30793
102
{ACAD_REACTORS
330
30792
102
}
330
30792
100
AcDbXrecord
280
     1
270
     1
271
     1
  0
XRECORD
  5
30797
102
{ACAD_REACTORS
330
30792
102
}
330
30792
100
AcDbXrecord
280
     1
270
     1
271
     1
  0
XRECORD
  5
30796
102
{ACAD_REACTORS
330
30792
102
}
330
30792
100
AcDbXrecord
280
     1
270
     1
271
     1
  0
XRECORD
  5
30798
102
{ACAD_REACTORS
330
30792
102
}
330
30792
100
AcDbXrecord
280
     1
270
     1
271
     1
  0
XRECORD
  5
30795
102
{ACAD_REACTORS
330
30792
102
}
330
30792
100
AcDbXrecord
280
     1
270
     1
271
     1
  0
XRECORD
  5
30892
102
{ACAD_REACTORS
330
30891
102
}
330
30891
100
AcDbXrecord
280
     1
102
DISPLAYNAME
  1
Metric50
102
FLAGS
 90
        0
  0
CELLSTYLEMAP
  5
3084F
102
{ACAD_REACTORS
330
3084E
102
}
330
3084E
100
AcDbCellStyleMap
 90
        3
300
CELLSTYLE
  1
TABLEFORMAT_BEGIN
 90
        5
170
     1
 91
        0
 92
    32768
 62
   257
 93
        1
300
CONTENTFORMAT
  1
CONTENTFORMAT_BEGIN
 90
        0
 91
        0
 92
      512
 93
        0
300

 40
0.0
140
1.0
 94
        5
 62
     0
340
11
144
6.0
309
CONTENTFORMAT_END
171
     1
301
MARGIN
  1
CELLMARGIN_BEGIN
 40
1.5
 40
1.5
 40
1.5
 40
1.5
 40
4.5
 40
4.5
309
CELLMARGIN_END
 94
        6
 95
        1
302
GRIDFORMAT
  1
GRIDFORMAT_BEGIN
 90
        0
 91
        1
 62
     0
 92
       -2
340
0
 93
        0
 40
1.125
309
GRIDFORMAT_END
 95
        2
302
GRIDFORMAT
  1
GRIDFORMAT_BEGIN
 90
        0
 91
        1
 62
     0
 92
       -2
340
0
 93
        0
 40
1.125
309
GRIDFORMAT_END
 95
        4
302
GRIDFORMAT
  1
GRIDFORMAT_BEGIN
 90
        0
 91
        1
 62
     0
 92
       -2
340
0
 93
        0
 40
1.125
309
GRIDFORMAT_END
 95
        8
302
GRIDFORMAT
  1
GRIDFORMAT_BEGIN
 90
        0
 91
        1
 62
     0
 92
       -2
340
0
 93
        0
 40
1.125
309
GRIDFORMAT_END
 95
       16
302
GRIDFORMAT
  1
GRIDFORMAT_BEGIN
 90
        0
 91
        1
 62
     0
 92
       -2
340
0
 93
        0
 40
1.125
309
GRIDFORMAT_END
 95
       32
302
GRIDFORMAT
  1
GRIDFORMAT_BEGIN
 90
        0
 91
        1
 62
     0
 92
       -2
340
0
 93
        0
 40
1.125
309
GRIDFORMAT_END
309
TABLEFORMAT_END
  1
CELLSTYLE_BEGIN
 90
        1
 91
        1
300
_TITLE
309
CELLSTYLE_END
300
CELLSTYLE
  1
TABLEFORMAT_BEGIN
 90
        5
170
     1
 91
        0
 92
        0
 62
   257
 93
        1
300
CONTENTFORMAT
  1
CONTENTFORMAT_BEGIN
 90
        0
 91
        0
 92
      512
 93
        0
300

 40
0.0
140
1.0
 94
        5
 62
     0
340
11
144
4.5
309
CONTENTFORMAT_END
171
     1
301
MARGIN
  1
CELLMARGIN_BEGIN
 40
1.5
 40
1.5
 40
1.5
 40
1.5
 40
4.5
 40
4.5
309
CELLMARGIN_END
 94
        6
 95
        1
302
GRIDFORMAT
  1
GRIDFORMAT_BEGIN
 90
        0
 91
        1
 62
     0
 92
       -2
340
0
 93
        0
 40
1.125
309
GRIDFORMAT_END
 95
        2
302
GRIDFORMAT
  1
GRIDFORMAT_BEGIN
 90
        0
 91
        1
 62
     0
 92
       -2
340
0
 93
        0
 40
1.125
309
GRIDFORMAT_END
 95
        4
302
GRIDFORMAT
  1
GRIDFORMAT_BEGIN
 90
        0
 91
        1
 62
     0
 92
       -2
340
0
 93
        0
 40
1.125
309
GRIDFORMAT_END
 95
        8
302
GRIDFORMAT
  1
GRIDFORMAT_BEGIN
 90
        0
 91
        1
 62
     0
 92
       -2
340
0
 93
        0
 40
1.125
309
GRIDFORMAT_END
 95
       16
302
GRIDFORMAT
  1
GRIDFORMAT_BEGIN
 90
        0
 91
        1
 62
     0
 92
       -2
340
0
 93
        0
 40
1.125
309
GRIDFORMAT_END
 95
       32
302
GRIDFORMAT
  1
GRIDFORMAT_BEGIN
 90
        0
 91
        1
 62
     0
 92
       -2
340
0
 93
        0
 40
1.125
309
GRIDFORMAT_END
309
TABLEFORMAT_END
  1
CELLSTYLE_BEGIN
 90
        2
 91
        1
300
_HEADER
309
CELLSTYLE_END
300
CELLSTYLE
  1
TABLEFORMAT_BEGIN
 90
        5
170
     1
 91
        0
 92
        0
 62
   257
 93
        1
300
CONTENTFORMAT
  1
CONTENTFORMAT_BEGIN
 90
        0
 91
        0
 92
      512
 93
        0
300

 40
0.0
140
1.0
 94
        2
 62
     0
340
11
144
4.5
309
CONTENTFORMAT_END
171
     1
301
MARGIN
  1
CELLMARGIN_BEGIN
 40
1.5
 40
1.5
 40
1.5
 40
1.5
 40
4.5
 40
4.5
309
CELLMARGIN_END
 94
        6
 95
        1
302
GRIDFORMAT
  1
GRIDFORMAT_BEGIN
 90
        0
 91
        1
 62
     0
 92
       -2
340
0
 93
        0
 40
1.125
309
GRIDFORMAT_END
 95
        2
302
GRIDFORMAT
  1
GRIDFORMAT_BEGIN
 90
        0
 91
        1
 62
     0
 92
       -2
340
0
 93
        0
 40
1.125
309
GRIDFORMAT_END
 95
        4
302
GRIDFORMAT
  1
GRIDFORMAT_BEGIN
 90
        0
 91
        1
 62
     0
 92
       -2
340
0
 93
        0
 40
1.125
309
GRIDFORMAT_END
 95
        8
302
GRIDFORMAT
  1
GRIDFORMAT_BEGIN
 90
        0
 91
        1
 62
     0
 92
       -2
340
0
 93
        0
 40
1.125
309
GRIDFORMAT_END
 95
       16
302
GRIDFORMAT
  1
GRIDFORMAT_BEGIN
 90
        0
 91
        1
 62
     0
 92
       -2
340
0
 93
        0
 40
1.125
309
GRIDFORMAT_END
 95
       32
302
GRIDFORMAT
  1
GRIDFORMAT_BEGIN
 90
        0
 91
        1
 62
     0
 92
       -2
340
0
 93
        0
 40
1.125
309
GRIDFORMAT_END
309
TABLEFORMAT_END
  1
CELLSTYLE_BEGIN
 90
        3
 91
        2
300
_DATA
309
CELLSTYLE_END
  0
XRECORD
  5
30890
102
{ACAD_REACTORS
330
3084E
102
}
330
3084E
100
AcDbXrecord
280
     1
102
ACAD_ROUNDTRIP_PRE2007_TABLESTYLE
 90
      512
 91
        0
  1

 92
      512
 93
        0
  2

 94
      512
 95
        0
  3

  0
XRECORD
  5
3086B
102
{ACAD_REACTORS
330
3086A
102
}
330
3086A
100
AcDbXrecord
280
     1
102
RTVSPost2010Prop28
280
     1
102
RTVSPost2010PropOp28
 70
     1
102
RTVSPost2010Prop29
280
     1
102
RTVSPost2010PropOp29
 70
     1
102
RTVSPost2010Prop30
280
     0
102
RTVSPost2010PropOp30
 70
     1
102
RTVSPost2010Prop31
280
     0
102
RTVSPost2010PropOp31
 70
     1
102
RTVSPost2010Prop32
280
     0
102
RTVSPost2010PropOp32
 70
     1
102
RTVSPost2010Prop33
280
     0
102
RTVSPost2010PropOp33
 70
     1
102
RTVSPost2010Prop34
280
     0
102
RTVSPost2010PropOp34
 70
     1
102
RTVSPost2010Prop35
280
     0
102
RTVSPost2010PropOp35
 70
     1
102
RTVSPost2010Prop36
280
     0
102
RTVSPost2010PropOp36
 70
     1
102
RTVSPost2010Prop37
 90
       50
102
RTVSPost2010PropOp37
 70
     1
102
RTVSPost2010Prop38
140
0.0
102
RTVSPost2010PropOp38
 70
     1
102
RTVSPost2010Prop39
140
1.0
102
RTVSPost2010PropOp39
 70
     1
102
RTVSPost2010Prop40
 90
        0
102
RTVSPost2010PropOp40
 70
     1
102
RTVSPost2010Prop41ColorIndex
 90
       18
102
RTVSPost2010Prop41ColorRGB
 90
        0
102
RTVSPost2010PropOp41
 70
     1
102
RTVSPost2010Prop42
 90
       50
102
RTVSPost2010PropOp42
 70
     1
102
RTVSPost2010Prop43
 90
        3
102
RTVSPost2010PropOp43
 70
     1
102
RTVSPost2010Prop44ColorIndex
 90
        5
102
RTVSPost2010Prop44ColorRGB
 90
      255
102
RTVSPost2010PropOp44
 70
     1
102
RTVSPost2010Prop45
280
     0
102
RTVSPost2010PropOp45
 70
     1
102
RTVSPost2010Prop46
 90
       50
102
RTVSPost2010PropOp46
 70
     1
102
RTVSPost2010Prop47
 90
       50
102
RTVSPost2010PropOp47
 70
     1
102
RTVSPost2010Prop48
 90
       50
102
RTVSPost2010PropOp48
 70
     1
102
RTVSPost2010Prop49
280
     0
102
RTVSPost2010PropOp49
 70
     1
102
RTVSPost2010Prop50
 90
       50
102
RTVSPost2010PropOp50
 70
     1
102
RTVSPost2010Prop51ColorIndex
 90
      256
102
RTVSPost2010Prop51ColorRGB
 90
-16777216
102
RTVSPost2010PropOp51
 70
     0
102
RTVSPost2010Prop52
140
1.0
102
RTVSPost2010PropOp52
 70
     0
102
RTVSPost2010Prop53
 90
        2
102
RTVSPost2010PropOp53
 70
     1
102
RTVSPost2010Prop54
  1
strokes_ogs.tif
102
RTVSPost2010PropOp54
 70
     1
102
RTVSPost2010Prop55
280
     0
102
RTVSPost2010PropOp55
 70
     1
102
RTVSPost2010Prop56
140
1.0
102
RTVSPost2010PropOp56
 70
     1
102
RTVSPost2010Prop57
140
1.0
102
RTVSPost2010PropOp57
 70
     1
102
RTVSPropertyOp0
 70
     1
102
RTVSPropertyOp1
 70
     1
102
RTVSPropertyOp2
 70
     1
102
RTVSPropertyOp3
 70
     1
102
RTVSPropertyOp4
 70
     1
102
RTVSPropertyOp5
 70
     1
102
RTVSPropertyOp6
 70
     1
102
RTVSPropertyOp7
 70
     1
102
RTVSPropertyOp8
 70
     1
102
RTVSPropertyOp9
 70
     1
102
RTVSPropertyOp10
 70
     1
102
RTVSPropertyOp11
 70
     1
102
RTVSPropertyOp12
 70
     1
102
RTVSPropertyOp13
 70
     1
102
RTVSPropertyOp14
 70
     1
102
RTVSPropertyOp15
 70
     1
102
RTVSPropertyOp16
 70
     1
102
RTVSPropertyOp17
 70
     1
102
RTVSPropertyOp18
 70
     1
102
RTVSPropertyOp19
 70
     1
102
RTVSPropertyOp20
 70
     1
102
RTVSPropertyOp21
 70
     1
102
RTVSPropertyOp22
 70
     1
102
RTVSPropertyOp23
 70
     1
102
RTVSPropertyOp24
 70
     1
102
RTVSPropertyOp25
 70
     1
102
RTVSPropertyOp26
 70
     1
102
RTVSPropertyOp27
 70
     1
102
RTVSPropertyOp28
 70
     1
102
RTVSPropertyOp29
 70
     1
102
RTVSPropertyOp30
 70
     1
102
RTVSPropertyOp31
 70
     1
102
RTVSPropertyOp32
 70
     1
102
RTVSPropertyOp33
 70
     1
102
RTVSPropertyOp34
 70
     1
102
RTVSPropertyOp35
 70
     1
102
RTVSPropertyOp36
 70
     1
102
RTVSPropertyOp37
 70
     1
102
RTVSPropertyOp38
 70
     1
102
RTVSPropertyOp39
 70
     1
102
RTVSPropertyOp40
 70
     1
102
RTVSPropertyOp41
 70
     1
102
RTVSPropertyOp42
 70
     1
102
RTVSPropertyOp43
 70
     1
102
RTVSPropertyOp44
 70
     1
102
RTVSPropertyOp45
 70
     1
102
RTVSPropertyOp46
 70
     1
102
RTVSPropertyOp47
 70
     1
102
RTVSPropertyOp48
 70
     1
102
RTVSPropertyOp49
 70
     1
102
RTVSPropertyOp50
 70
     1
102
RTVSPropertyOp51
 70
     0
102
RTVSPropertyOp52
 70
     0
102
RTVSPropertyOp53
 70
     1
102
RTVSPropertyOp54
 70
     1
102
RTVSPropertyOp55
 70
     1
102
RTVSPropertyOp56
 70
     1
102
RTVSPropertyOp57
 70
     1
102
RTVSPropertyOp58
 70
     1
102
RTVSPropertyOp59
 70
     1
102
RTVSPropertyOp60
 70
     1
102
RTVSPropertyOp61
 70
     1
102
RTVSPropertyOp62
 70
     1
  0
XRECORD
  5
30869
102
{ACAD_REACTORS
330
30868
102
}
330
30868
100
AcDbXrecord
280
     1
102
RTVSPost2010Prop28
280
     0
102
RTVSPost2010PropOp28
 70
     1
102
RTVSPost2010Prop29
280
     1
102
RTVSPost2010PropOp29
 70
     1
102
RTVSPost2010Prop30
280
     1
102
RTVSPost2010PropOp30
 70
     1
102
RTVSPost2010Prop31
280
     0
102
RTVSPost2010PropOp31
 70
     1
102
RTVSPost2010Prop32
280
     0
102
RTVSPost2010PropOp32
 70
     1
102
RTVSPost2010Prop33
280
     0
102
RTVSPost2010PropOp33
 70
     1
102
RTVSPost2010Prop34
280
     0
102
RTVSPost2010PropOp34
 70
     1
102
RTVSPost2010Prop35
280
     0
102
RTVSPost2010PropOp35
 70
     1
102
RTVSPost2010Prop36
280
     0
102
RTVSPost2010PropOp36
 70
     1
102
RTVSPost2010Prop37
 90
       50
102
RTVSPost2010PropOp37
 70
     1
102
RTVSPost2010Prop38
140
0.0
102
RTVSPost2010PropOp38
 70
     1
102
RTVSPost2010Prop39
140
1.0
102
RTVSPost2010PropOp39
 70
     1
102
RTVSPost2010Prop40
 90
        0
102
RTVSPost2010PropOp40
 70
     1
102
RTVSPost2010Prop41ColorIndex
 90
       18
102
RTVSPost2010Prop41ColorRGB
 90
        0
102
RTVSPost2010PropOp41
 70
     1
102
RTVSPost2010Prop42
 90
       50
102
RTVSPost2010PropOp42
 70
     1
102
RTVSPost2010Prop43
 90
        3
102
RTVSPost2010PropOp43
 70
     1
102
RTVSPost2010Prop44ColorIndex
 90
        5
102
RTVSPost2010Prop44ColorRGB
 90
      255
102
RTVSPost2010PropOp44
 70
     1
102
RTVSPost2010Prop45
280
     0
102
RTVSPost2010PropOp45
 70
     1
102
RTVSPost2010Prop46
 90
       50
102
RTVSPost2010PropOp46
 70
     1
102
RTVSPost2010Prop47
 90
       50
102
RTVSPost2010PropOp47
 70
     1
102
RTVSPost2010Prop48
 90
       50
102
RTVSPost2010PropOp48
 70
     1
102
RTVSPost2010Prop49
280
     0
102
RTVSPost2010PropOp49
 70
     1
102
RTVSPost2010Prop50
 90
       50
102
RTVSPost2010PropOp50
 70
     1
102
RTVSPost2010Prop51ColorIndex
 90
      256
102
RTVSPost2010Prop51ColorRGB
 90
-16777216
102
RTVSPost2010PropOp51
 70
     0
102
RTVSPost2010Prop52
140
1.0
102
RTVSPost2010PropOp52
 70
     0
102
RTVSPost2010Prop53
 90
        2
102
RTVSPost2010PropOp53
 70
     1
102
RTVSPost2010Prop54
  1
strokes_ogs.tif
102
RTVSPost2010PropOp54
 70
     1
102
RTVSPost2010Prop55
280
     0
102
RTVSPost2010PropOp55
 70
     1
102
RTVSPost2010Prop56
140
1.0
102
RTVSPost2010PropOp56
 70
     1
102
RTVSPost2010Prop57
140
1.0
102
RTVSPost2010PropOp57
 70
     1
102
RTVSPropertyOp0
 70
     1
102
RTVSPropertyOp1
 70
     1
102
RTVSPropertyOp2
 70
     1
102
RTVSPropertyOp3
 70
     1
102
RTVSPropertyOp4
 70
     1
102
RTVSPropertyOp5
 70
     1
102
RTVSPropertyOp6
 70
     1
102
RTVSPropertyOp7
 70
     1
102
RTVSPropertyOp8
 70
     1
102
RTVSPropertyOp9
 70
     1
102
RTVSPropertyOp10
 70
     1
102
RTVSPropertyOp11
 70
     1
102
RTVSPropertyOp12
 70
     1
102
RTVSPropertyOp13
 70
     1
102
RTVSPropertyOp14
 70
     1
102
RTVSPropertyOp15
 70
     1
102
RTVSPropertyOp16
 70
     1
102
RTVSPropertyOp17
 70
     1
102
RTVSPropertyOp18
 70
     1
102
RTVSPropertyOp19
 70
     1
102
RTVSPropertyOp20
 70
     1
102
RTVSPropertyOp21
 70
     1
102
RTVSPropertyOp22
 70
     1
102
RTVSPropertyOp23
 70
     1
102
RTVSPropertyOp24
 70
     1
102
RTVSPropertyOp25
 70
     1
102
RTVSPropertyOp26
 70
     1
102
RTVSPropertyOp27
 70
     1
102
RTVSPropertyOp28
 70
     1
102
RTVSPropertyOp29
 70
     1
102
RTVSPropertyOp30
 70
     1
102
RTVSPropertyOp31
 70
     1
102
RTVSPropertyOp32
 70
     1
102
RTVSPropertyOp33
 70
     1
102
RTVSPropertyOp34
 70
     1
102
RTVSPropertyOp35
 70
     1
102
RTVSPropertyOp36
 70
     1
102
RTVSPropertyOp37
 70
     1
102
RTVSPropertyOp38
 70
     1
102
RTVSPropertyOp39
 70
     1
102
RTVSPropertyOp40
 70
     1
102
RTVSPropertyOp41
 70
     1
102
RTVSPropertyOp42
 70
     1
102
RTVSPropertyOp43
 70
     1
102
RTVSPropertyOp44
 70
     1
102
RTVSPropertyOp45
 70
     1
102
RTVSPropertyOp46
 70
     1
102
RTVSPropertyOp47
 70
     1
102
RTVSPropertyOp48
 70
     1
102
RTVSPropertyOp49
 70
     1
102
RTVSPropertyOp50
 70
     1
102
RTVSPropertyOp51
 70
     0
102
RTVSPropertyOp52
 70
     0
102
RTVSPropertyOp53
 70
     1
102
RTVSPropertyOp54
 70
     1
102
RTVSPropertyOp55
 70
     1
102
RTVSPropertyOp56
 70
     1
102
RTVSPropertyOp57
 70
     1
102
RTVSPropertyOp58
 70
     1
102
RTVSPropertyOp59
 70
     1
102
RTVSPropertyOp60
 70
     1
102
RTVSPropertyOp61
 70
     1
102
RTVSPropertyOp62
 70
     1
  0
XRECORD
  5
30877
102
{ACAD_REACTORS
330
30876
102
}
330
30876
100
AcDbXrecord
280
     1
102
RTVSPost2010Prop28
280
     0
102
RTVSPost2010PropOp28
 70
     1
102
RTVSPost2010Prop29
280
     1
102
RTVSPost2010PropOp29
 70
     1
102
RTVSPost2010Prop30
280
     1
102
RTVSPost2010PropOp30
 70
     1
102
RTVSPost2010Prop31
280
     0
102
RTVSPost2010PropOp31
 70
     1
102
RTVSPost2010Prop32
280
     0
102
RTVSPost2010PropOp32
 70
     1
102
RTVSPost2010Prop33
280
     0
102
RTVSPost2010PropOp33
 70
     1
102
RTVSPost2010Prop34
280
     0
102
RTVSPost2010PropOp34
 70
     1
102
RTVSPost2010Prop35
280
     0
102
RTVSPost2010PropOp35
 70
     1
102
RTVSPost2010Prop36
280
     0
102
RTVSPost2010PropOp36
 70
     1
102
RTVSPost2010Prop37
 90
       50
102
RTVSPost2010PropOp37
 70
     1
102
RTVSPost2010Prop38
140
0.0
102
RTVSPost2010PropOp38
 70
     1
102
RTVSPost2010Prop39
140
1.0
102
RTVSPost2010PropOp39
 70
     1
102
RTVSPost2010Prop40
 90
        0
102
RTVSPost2010PropOp40
 70
     1
102
RTVSPost2010Prop41ColorIndex
 90
       18
102
RTVSPost2010Prop41ColorRGB
 90
        0
102
RTVSPost2010PropOp41
 70
     1
102
RTVSPost2010Prop42
 90
       50
102
RTVSPost2010PropOp42
 70
     1
102
RTVSPost2010Prop43
 90
        3
102
RTVSPost2010PropOp43
 70
     1
102
RTVSPost2010Prop44ColorIndex
 90
        5
102
RTVSPost2010Prop44ColorRGB
 90
      255
102
RTVSPost2010PropOp44
 70
     1
102
RTVSPost2010Prop45
280
     0
102
RTVSPost2010PropOp45
 70
     1
102
RTVSPost2010Prop46
 90
       50
102
RTVSPost2010PropOp46
 70
     1
102
RTVSPost2010Prop47
 90
       50
102
RTVSPost2010PropOp47
 70
     1
102
RTVSPost2010Prop48
 90
       50
102
RTVSPost2010PropOp48
 70
     1
102
RTVSPost2010Prop49
280
     0
102
RTVSPost2010PropOp49
 70
     1
102
RTVSPost2010Prop50
 90
       50
102
RTVSPost2010PropOp50
 70
     1
102
RTVSPost2010Prop51ColorIndex
 90
      256
102
RTVSPost2010Prop51ColorRGB
 90
-16777216
102
RTVSPost2010PropOp51
 70
     0
102
RTVSPost2010Prop52
140
1.0
102
RTVSPost2010PropOp52
 70
     0
102
RTVSPost2010Prop53
 90
        2
102
RTVSPost2010PropOp53
 70
     1
102
RTVSPost2010Prop54
  1
strokes_ogs.tif
102
RTVSPost2010PropOp54
 70
     1
102
RTVSPost2010Prop55
280
     0
102
RTVSPost2010PropOp55
 70
     1
102
RTVSPost2010Prop56
140
1.0
102
RTVSPost2010PropOp56
 70
     1
102
RTVSPost2010Prop57
140
1.0
102
RTVSPost2010PropOp57
 70
     1
102
RTVSPropertyOp0
 70
     1
102
RTVSPropertyOp1
 70
     1
102
RTVSPropertyOp2
 70
     1
102
RTVSPropertyOp3
 70
     1
102
RTVSPropertyOp4
 70
     1
102
RTVSPropertyOp5
 70
     1
102
RTVSPropertyOp6
 70
     1
102
RTVSPropertyOp7
 70
     1
102
RTVSPropertyOp8
 70
     1
102
RTVSPropertyOp9
 70
     1
102
RTVSPropertyOp10
 70
     1
102
RTVSPropertyOp11
 70
     1
102
RTVSPropertyOp12
 70
     1
102
RTVSPropertyOp13
 70
     1
102
RTVSPropertyOp14
 70
     1
102
RTVSPropertyOp15
 70
     1
102
RTVSPropertyOp16
 70
     1
102
RTVSPropertyOp17
 70
     1
102
RTVSPropertyOp18
 70
     1
102
RTVSPropertyOp19
 70
     1
102
RTVSPropertyOp20
 70
     1
102
RTVSPropertyOp21
 70
     1
102
RTVSPropertyOp22
 70
     1
102
RTVSPropertyOp23
 70
     1
102
RTVSPropertyOp24
 70
     1
102
RTVSPropertyOp25
 70
     1
102
RTVSPropertyOp26
 70
     1
102
RTVSPropertyOp27
 70
     1
102
RTVSPropertyOp28
 70
     1
102
RTVSPropertyOp29
 70
     1
102
RTVSPropertyOp30
 70
     1
102
RTVSPropertyOp31
 70
     1
102
RTVSPropertyOp32
 70
     1
102
RTVSPropertyOp33
 70
     1
102
RTVSPropertyOp34
 70
     1
102
RTVSPropertyOp35
 70
     1
102
RTVSPropertyOp36
 70
     1
102
RTVSPropertyOp37
 70
     1
102
RTVSPropertyOp38
 70
     1
102
RTVSPropertyOp39
 70
     1
102
RTVSPropertyOp40
 70
     1
102
RTVSPropertyOp41
 70
     1
102
RTVSPropertyOp42
 70
     1
102
RTVSPropertyOp43
 70
     1
102
RTVSPropertyOp44
 70
     1
102
RTVSPropertyOp45
 70
     1
102
RTVSPropertyOp46
 70
     1
102
RTVSPropertyOp47
 70
     1
102
RTVSPropertyOp48
 70
     1
102
RTVSPropertyOp49
 70
     1
102
RTVSPropertyOp50
 70
     1
102
RTVSPropertyOp51
 70
     0
102
RTVSPropertyOp52
 70
     0
102
RTVSPropertyOp53
 70
     1
102
RTVSPropertyOp54
 70
     1
102
RTVSPropertyOp55
 70
     1
102
RTVSPropertyOp56
 70
     1
102
RTVSPropertyOp57
 70
     1
102
RTVSPropertyOp58
 70
     1
102
RTVSPropertyOp59
 70
     1
102
RTVSPropertyOp60
 70
     1
102
RTVSPropertyOp61
 70
     1
102
RTVSPropertyOp62
 70
     1
  0
XRECORD
  5
3087F
102
{ACAD_REACTORS
330
3087E
102
}
330
3087E
100
AcDbXrecord
280
     1
102
RTVSPost2010Prop28
280
     0
102
RTVSPost2010PropOp28
 70
     1
102
RTVSPost2010Prop29
280
     1
102
RTVSPost2010PropOp29
 70
     1
102
RTVSPost2010Prop30
280
     1
102
RTVSPost2010PropOp30
 70
     1
102
RTVSPost2010Prop31
280
     0
102
RTVSPost2010PropOp31
 70
     1
102
RTVSPost2010Prop32
280
     0
102
RTVSPost2010PropOp32
 70
     1
102
RTVSPost2010Prop33
280
     0
102
RTVSPost2010PropOp33
 70
     1
102
RTVSPost2010Prop34
280
     0
102
RTVSPost2010PropOp34
 70
     1
102
RTVSPost2010Prop35
280
     0
102
RTVSPost2010PropOp35
 70
     1
102
RTVSPost2010Prop36
280
     0
102
RTVSPost2010PropOp36
 70
     1
102
RTVSPost2010Prop37
 90
       50
102
RTVSPost2010PropOp37
 70
     1
102
RTVSPost2010Prop38
140
0.0
102
RTVSPost2010PropOp38
 70
     1
102
RTVSPost2010Prop39
140
1.0
102
RTVSPost2010PropOp39
 70
     1
102
RTVSPost2010Prop40
 90
        0
102
RTVSPost2010PropOp40
 70
     1
102
RTVSPost2010Prop41ColorIndex
 90
       18
102
RTVSPost2010Prop41ColorRGB
 90
        0
102
RTVSPost2010PropOp41
 70
     1
102
RTVSPost2010Prop42
 90
       50
102
RTVSPost2010PropOp42
 70
     1
102
RTVSPost2010Prop43
 90
        3
102
RTVSPost2010PropOp43
 70
     1
102
RTVSPost2010Prop44ColorIndex
 90
        5
102
RTVSPost2010Prop44ColorRGB
 90
      255
102
RTVSPost2010PropOp44
 70
     1
102
RTVSPost2010Prop45
280
     0
102
RTVSPost2010PropOp45
 70
     1
102
RTVSPost2010Prop46
 90
       50
102
RTVSPost2010PropOp46
 70
     1
102
RTVSPost2010Prop47
 90
       50
102
RTVSPost2010PropOp47
 70
     1
102
RTVSPost2010Prop48
 90
       50
102
RTVSPost2010PropOp48
 70
     1
102
RTVSPost2010Prop49
280
     0
102
RTVSPost2010PropOp49
 70
     1
102
RTVSPost2010Prop50
 90
       50
102
RTVSPost2010PropOp50
 70
     1
102
RTVSPost2010Prop51ColorIndex
 90
      256
102
RTVSPost2010Prop51ColorRGB
 90
-16777216
102
RTVSPost2010PropOp51
 70
     0
102
RTVSPost2010Prop52
140
1.0
102
RTVSPost2010PropOp52
 70
     0
102
RTVSPost2010Prop53
 90
        2
102
RTVSPost2010PropOp53
 70
     1
102
RTVSPost2010Prop54
  1
strokes_ogs.tif
102
RTVSPost2010PropOp54
 70
     1
102
RTVSPost2010Prop55
280
     0
102
RTVSPost2010PropOp55
 70
     1
102
RTVSPost2010Prop56
140
1.0
102
RTVSPost2010PropOp56
 70
     1
102
RTVSPost2010Prop57
140
1.0
102
RTVSPost2010PropOp57
 70
     1
102
RTVSPropertyOp0
 70
     1
102
RTVSPropertyOp1
 70
     1
102
RTVSPropertyOp2
 70
     1
102
RTVSPropertyOp3
 70
     1
102
RTVSPropertyOp4
 70
     1
102
RTVSPropertyOp5
 70
     1
102
RTVSPropertyOp6
 70
     1
102
RTVSPropertyOp7
 70
     1
102
RTVSPropertyOp8
 70
     1
102
RTVSPropertyOp9
 70
     1
102
RTVSPropertyOp10
 70
     1
102
RTVSPropertyOp11
 70
     1
102
RTVSPropertyOp12
 70
     1
102
RTVSPropertyOp13
 70
     1
102
RTVSPropertyOp14
 70
     1
102
RTVSPropertyOp15
 70
     1
102
RTVSPropertyOp16
 70
     1
102
RTVSPropertyOp17
 70
     1
102
RTVSPropertyOp18
 70
     1
102
RTVSPropertyOp19
 70
     1
102
RTVSPropertyOp20
 70
     1
102
RTVSPropertyOp21
 70
     1
102
RTVSPropertyOp22
 70
     1
102
RTVSPropertyOp23
 70
     1
102
RTVSPropertyOp24
 70
     1
102
RTVSPropertyOp25
 70
     1
102
RTVSPropertyOp26
 70
     1
102
RTVSPropertyOp27
 70
     1
102
RTVSPropertyOp28
 70
     1
102
RTVSPropertyOp29
 70
     1
102
RTVSPropertyOp30
 70
     1
102
RTVSPropertyOp31
 70
     1
102
RTVSPropertyOp32
 70
     1
102
RTVSPropertyOp33
 70
     1
102
RTVSPropertyOp34
 70
     1
102
RTVSPropertyOp35
 70
     1
102
RTVSPropertyOp36
 70
     1
102
RTVSPropertyOp37
 70
     1
102
RTVSPropertyOp38
 70
     1
102
RTVSPropertyOp39
 70
     1
102
RTVSPropertyOp40
 70
     1
102
RTVSPropertyOp41
 70
     1
102
RTVSPropertyOp42
 70
     1
102
RTVSPropertyOp43
 70
     1
102
RTVSPropertyOp44
 70
     1
102
RTVSPropertyOp45
 70
     1
102
RTVSPropertyOp46
 70
     1
102
RTVSPropertyOp47
 70
     1
102
RTVSPropertyOp48
 70
     1
102
RTVSPropertyOp49
 70
     1
102
RTVSPropertyOp50
 70
     1
102
RTVSPropertyOp51
 70
     0
102
RTVSPropertyOp52
 70
     0
102
RTVSPropertyOp53
 70
     1
102
RTVSPropertyOp54
 70
     1
102
RTVSPropertyOp55
 70
     1
102
RTVSPropertyOp56
 70
     1
102
RTVSPropertyOp57
 70
     1
102
RTVSPropertyOp58
 70
     1
102
RTVSPropertyOp59
 70
     1
102
RTVSPropertyOp60
 70
     1
102
RTVSPropertyOp61
 70
     1
102
RTVSPropertyOp62
 70
     1
  0
XRECORD
  5
30871
102
{ACAD_REACTORS
330
30870
102
}
330
30870
100
AcDbXrecord
280
     1
102
RTVSPost2010Prop28
280
     0
102
RTVSPost2010PropOp28
 70
     1
102
RTVSPost2010Prop29
280
     1
102
RTVSPost2010PropOp29
 70
     1
102
RTVSPost2010Prop30
280
     1
102
RTVSPost2010PropOp30
 70
     1
102
RTVSPost2010Prop31
280
     0
102
RTVSPost2010PropOp31
 70
     1
102
RTVSPost2010Prop32
280
     0
102
RTVSPost2010PropOp32
 70
     1
102
RTVSPost2010Prop33
280
     0
102
RTVSPost2010PropOp33
 70
     1
102
RTVSPost2010Prop34
280
     0
102
RTVSPost2010PropOp34
 70
     1
102
RTVSPost2010Prop35
280
     0
102
RTVSPost2010PropOp35
 70
     1
102
RTVSPost2010Prop36
280
     0
102
RTVSPost2010PropOp36
 70
     1
102
RTVSPost2010Prop37
 90
       50
102
RTVSPost2010PropOp37
 70
     1
102
RTVSPost2010Prop38
140
0.0
102
RTVSPost2010PropOp38
 70
     1
102
RTVSPost2010Prop39
140
1.0
102
RTVSPost2010PropOp39
 70
     1
102
RTVSPost2010Prop40
 90
        0
102
RTVSPost2010PropOp40
 70
     1
102
RTVSPost2010Prop41ColorIndex
 90
       18
102
RTVSPost2010Prop41ColorRGB
 90
        0
102
RTVSPost2010PropOp41
 70
     1
102
RTVSPost2010Prop42
 90
       50
102
RTVSPost2010PropOp42
 70
     1
102
RTVSPost2010Prop43
 90
        3
102
RTVSPost2010PropOp43
 70
     1
102
RTVSPost2010Prop44ColorIndex
 90
        5
102
RTVSPost2010Prop44ColorRGB
 90
      255
102
RTVSPost2010PropOp44
 70
     1
102
RTVSPost2010Prop45
280
     0
102
RTVSPost2010PropOp45
 70
     1
102
RTVSPost2010Prop46
 90
       50
102
RTVSPost2010PropOp46
 70
     1
102
RTVSPost2010Prop47
 90
       50
102
RTVSPost2010PropOp47
 70
     1
102
RTVSPost2010Prop48
 90
       50
102
RTVSPost2010PropOp48
 70
     1
102
RTVSPost2010Prop49
280
     0
102
RTVSPost2010PropOp49
 70
     1
102
RTVSPost2010Prop50
 90
       50
102
RTVSPost2010PropOp50
 70
     1
102
RTVSPost2010Prop51ColorIndex
 90
      256
102
RTVSPost2010Prop51ColorRGB
 90
-16777216
102
RTVSPost2010PropOp51
 70
     0
102
RTVSPost2010Prop52
140
1.0
102
RTVSPost2010PropOp52
 70
     0
102
RTVSPost2010Prop53
 90
        2
102
RTVSPost2010PropOp53
 70
     1
102
RTVSPost2010Prop54
  1
strokes_ogs.tif
102
RTVSPost2010PropOp54
 70
     1
102
RTVSPost2010Prop55
280
     0
102
RTVSPost2010PropOp55
 70
     1
102
RTVSPost2010Prop56
140
1.0
102
RTVSPost2010PropOp56
 70
     1
102
RTVSPost2010Prop57
140
1.0
102
RTVSPost2010PropOp57
 70
     1
102
RTVSPropertyOp0
 70
     1
102
RTVSPropertyOp1
 70
     1
102
RTVSPropertyOp2
 70
     1
102
RTVSPropertyOp3
 70
     1
102
RTVSPropertyOp4
 70
     1
102
RTVSPropertyOp5
 70
     1
102
RTVSPropertyOp6
 70
     1
102
RTVSPropertyOp7
 70
     1
102
RTVSPropertyOp8
 70
     1
102
RTVSPropertyOp9
 70
     1
102
RTVSPropertyOp10
 70
     1
102
RTVSPropertyOp11
 70
     1
102
RTVSPropertyOp12
 70
     1
102
RTVSPropertyOp13
 70
     1
102
RTVSPropertyOp14
 70
     1
102
RTVSPropertyOp15
 70
     1
102
RTVSPropertyOp16
 70
     1
102
RTVSPropertyOp17
 70
     1
102
RTVSPropertyOp18
 70
     1
102
RTVSPropertyOp19
 70
     1
102
RTVSPropertyOp20
 70
     1
102
RTVSPropertyOp21
 70
     1
102
RTVSPropertyOp22
 70
     1
102
RTVSPropertyOp23
 70
     1
102
RTVSPropertyOp24
 70
     1
102
RTVSPropertyOp25
 70
     1
102
RTVSPropertyOp26
 70
     1
102
RTVSPropertyOp27
 70
     1
102
RTVSPropertyOp28
 70
     1
102
RTVSPropertyOp29
 70
     1
102
RTVSPropertyOp30
 70
     1
102
RTVSPropertyOp31
 70
     1
102
RTVSPropertyOp32
 70
     1
102
RTVSPropertyOp33
 70
     1
102
RTVSPropertyOp34
 70
     1
102
RTVSPropertyOp35
 70
     1
102
RTVSPropertyOp36
 70
     1
102
RTVSPropertyOp37
 70
     1
102
RTVSPropertyOp38
 70
     1
102
RTVSPropertyOp39
 70
     1
102
RTVSPropertyOp40
 70
     1
102
RTVSPropertyOp41
 70
     1
102
RTVSPropertyOp42
 70
     1
102
RTVSPropertyOp43
 70
     1
102
RTVSPropertyOp44
 70
     1
102
RTVSPropertyOp45
 70
     1
102
RTVSPropertyOp46
 70
     1
102
RTVSPropertyOp47
 70
     1
102
RTVSPropertyOp48
 70
     1
102
RTVSPropertyOp49
 70
     1
102
RTVSPropertyOp50
 70
     1
102
RTVSPropertyOp51
 70
     0
102
RTVSPropertyOp52
 70
     0
102
RTVSPropertyOp53
 70
     1
102
RTVSPropertyOp54
 70
     1
102
RTVSPropertyOp55
 70
     1
102
RTVSPropertyOp56
 70
     1
102
RTVSPropertyOp57
 70
     1
102
RTVSPropertyOp58
 70
     1
102
RTVSPropertyOp59
 70
     1
102
RTVSPropertyOp60
 70
     1
102
RTVSPropertyOp61
 70
     1
102
RTVSPropertyOp62
 70
     1
  0
XRECORD
  5
30875
102
{ACAD_REACTORS
330
30874
102
}
330
30874
100
AcDbXrecord
280
     1
102
RTVSPost2010Prop28
280
     0
102
RTVSPost2010PropOp28
 70
     1
102
RTVSPost2010Prop29
280
     1
102
RTVSPost2010PropOp29
 70
     1
102
RTVSPost2010Prop30
280
     1
102
RTVSPost2010PropOp30
 70
     1
102
RTVSPost2010Prop31
280
     0
102
RTVSPost2010PropOp31
 70
     1
102
RTVSPost2010Prop32
280
     0
102
RTVSPost2010PropOp32
 70
     1
102
RTVSPost2010Prop33
280
     0
102
RTVSPost2010PropOp33
 70
     1
102
RTVSPost2010Prop34
280
     0
102
RTVSPost2010PropOp34
 70
     1
102
RTVSPost2010Prop35
280
     0
102
RTVSPost2010PropOp35
 70
     1
102
RTVSPost2010Prop36
280
     0
102
RTVSPost2010PropOp36
 70
     1
102
RTVSPost2010Prop37
 90
       50
102
RTVSPost2010PropOp37
 70
     1
102
RTVSPost2010Prop38
140
0.0
102
RTVSPost2010PropOp38
 70
     1
102
RTVSPost2010Prop39
140
1.0
102
RTVSPost2010PropOp39
 70
     1
102
RTVSPost2010Prop40
 90
        0
102
RTVSPost2010PropOp40
 70
     1
102
RTVSPost2010Prop41ColorIndex
 90
       18
102
RTVSPost2010Prop41ColorRGB
 90
        0
102
RTVSPost2010PropOp41
 70
     1
102
RTVSPost2010Prop42
 90
       50
102
RTVSPost2010PropOp42
 70
     1
102
RTVSPost2010Prop43
 90
        3
102
RTVSPost2010PropOp43
 70
     1
102
RTVSPost2010Prop44ColorIndex
 90
        5
102
RTVSPost2010Prop44ColorRGB
 90
      255
102
RTVSPost2010PropOp44
 70
     1
102
RTVSPost2010Prop45
280
     0
102
RTVSPost2010PropOp45
 70
     1
102
RTVSPost2010Prop46
 90
       50
102
RTVSPost2010PropOp46
 70
     1
102
RTVSPost2010Prop47
 90
       50
102
RTVSPost2010PropOp47
 70
     1
102
RTVSPost2010Prop48
 90
       50
102
RTVSPost2010PropOp48
 70
     1
102
RTVSPost2010Prop49
280
     0
102
RTVSPost2010PropOp49
 70
     1
102
RTVSPost2010Prop50
 90
       50
102
RTVSPost2010PropOp50
 70
     1
102
RTVSPost2010Prop51ColorIndex
 90
      256
102
RTVSPost2010Prop51ColorRGB
 90
-16777216
102
RTVSPost2010PropOp51
 70
     0
102
RTVSPost2010Prop52
140
1.0
102
RTVSPost2010PropOp52
 70
     0
102
RTVSPost2010Prop53
 90
        2
102
RTVSPost2010PropOp53
 70
     1
102
RTVSPost2010Prop54
  1
strokes_ogs.tif
102
RTVSPost2010PropOp54
 70
     1
102
RTVSPost2010Prop55
280
     0
102
RTVSPost2010PropOp55
 70
     1
102
RTVSPost2010Prop56
140
1.0
102
RTVSPost2010PropOp56
 70
     1
102
RTVSPost2010Prop57
140
1.0
102
RTVSPost2010PropOp57
 70
     1
102
RTVSPropertyOp0
 70
     1
102
RTVSPropertyOp1
 70
     1
102
RTVSPropertyOp2
 70
     1
102
RTVSPropertyOp3
 70
     1
102
RTVSPropertyOp4
 70
     1
102
RTVSPropertyOp5
 70
     1
102
RTVSPropertyOp6
 70
     1
102
RTVSPropertyOp7
 70
     1
102
RTVSPropertyOp8
 70
     1
102
RTVSPropertyOp9
 70
     1
102
RTVSPropertyOp10
 70
     1
102
RTVSPropertyOp11
 70
     1
102
RTVSPropertyOp12
 70
     1
102
RTVSPropertyOp13
 70
     1
102
RTVSPropertyOp14
 70
     1
102
RTVSPropertyOp15
 70
     1
102
RTVSPropertyOp16
 70
     1
102
RTVSPropertyOp17
 70
     1
102
RTVSPropertyOp18
 70
     1
102
RTVSPropertyOp19
 70
     1
102
RTVSPropertyOp20
 70
     1
102
RTVSPropertyOp21
 70
     1
102
RTVSPropertyOp22
 70
     1
102
RTVSPropertyOp23
 70
     1
102
RTVSPropertyOp24
 70
     1
102
RTVSPropertyOp25
 70
     1
102
RTVSPropertyOp26
 70
     1
102
RTVSPropertyOp27
 70
     1
102
RTVSPropertyOp28
 70
     1
102
RTVSPropertyOp29
 70
     1
102
RTVSPropertyOp30
 70
     1
102
RTVSPropertyOp31
 70
     1
102
RTVSPropertyOp32
 70
     1
102
RTVSPropertyOp33
 70
     1
102
RTVSPropertyOp34
 70
     1
102
RTVSPropertyOp35
 70
     1
102
RTVSPropertyOp36
 70
     1
102
RTVSPropertyOp37
 70
     1
102
RTVSPropertyOp38
 70
     1
102
RTVSPropertyOp39
 70
     1
102
RTVSPropertyOp40
 70
     1
102
RTVSPropertyOp41
 70
     1
102
RTVSPropertyOp42
 70
     1
102
RTVSPropertyOp43
 70
     1
102
RTVSPropertyOp44
 70
     1
102
RTVSPropertyOp45
 70
     1
102
RTVSPropertyOp46
 70
     1
102
RTVSPropertyOp47
 70
     1
102
RTVSPropertyOp48
 70
     1
102
RTVSPropertyOp49
 70
     1
102
RTVSPropertyOp50
 70
     1
102
RTVSPropertyOp51
 70
     0
102
RTVSPropertyOp52
 70
     0
102
RTVSPropertyOp53
 70
     1
102
RTVSPropertyOp54
 70
     1
102
RTVSPropertyOp55
 70
     1
102
RTVSPropertyOp56
 70
     1
102
RTVSPropertyOp57
 70
     1
102
RTVSPropertyOp58
 70
     1
102
RTVSPropertyOp59
 70
     1
102
RTVSPropertyOp60
 70
     1
102
RTVSPropertyOp61
 70
     1
102
RTVSPropertyOp62
 70
     1
  0
XRECORD
  5
3088F
102
{ACAD_REACTORS
330
3088E
102
}
330
3088E
100
AcDbXrecord
280
     1
102
RTVSPost2010Prop28
280
     0
102
RTVSPost2010PropOp28
 70
     1
102
RTVSPost2010Prop29
280
     1
102
RTVSPost2010PropOp29
 70
     1
102
RTVSPost2010Prop30
280
     1
102
RTVSPost2010PropOp30
 70
     1
102
RTVSPost2010Prop31
280
     0
102
RTVSPost2010PropOp31
 70
     1
102
RTVSPost2010Prop32
280
     0
102
RTVSPost2010PropOp32
 70
     1
102
RTVSPost2010Prop33
280
     0
102
RTVSPost2010PropOp33
 70
     1
102
RTVSPost2010Prop34
280
     0
102
RTVSPost2010PropOp34
 70
     1
102
RTVSPost2010Prop35
280
     0
102
RTVSPost2010PropOp35
 70
     1
102
RTVSPost2010Prop36
280
     0
102
RTVSPost2010PropOp36
 70
     1
102
RTVSPost2010Prop37
 90
       50
102
RTVSPost2010PropOp37
 70
     0
102
RTVSPost2010Prop38
140
0.0
102
RTVSPost2010PropOp38
 70
     0
102
RTVSPost2010Prop39
140
1.0
102
RTVSPost2010PropOp39
 70
     0
102
RTVSPost2010Prop40
 90
        0
102
RTVSPost2010PropOp40
 70
     0
102
RTVSPost2010Prop41ColorIndex
 90
       18
102
RTVSPost2010Prop41ColorRGB
 90
        0
102
RTVSPost2010PropOp41
 70
     0
102
RTVSPost2010Prop42
 90
       50
102
RTVSPost2010PropOp42
 70
     0
102
RTVSPost2010Prop43
 90
        3
102
RTVSPost2010PropOp43
 70
     0
102
RTVSPost2010Prop44ColorIndex
 90
        5
102
RTVSPost2010Prop44ColorRGB
 90
      255
102
RTVSPost2010PropOp44
 70
     0
102
RTVSPost2010Prop45
280
     0
102
RTVSPost2010PropOp45
 70
     1
102
RTVSPost2010Prop46
 90
       50
102
RTVSPost2010PropOp46
 70
     0
102
RTVSPost2010Prop47
 90
       50
102
RTVSPost2010PropOp47
 70
     0
102
RTVSPost2010Prop48
 90
       50
102
RTVSPost2010PropOp48
 70
     0
102
RTVSPost2010Prop49
280
     0
102
RTVSPost2010PropOp49
 70
     1
102
RTVSPost2010Prop50
 90
       50
102
RTVSPost2010PropOp50
 70
     0
102
RTVSPost2010Prop51ColorIndex
 90
      256
102
RTVSPost2010Prop51ColorRGB
 90
-16777216
102
RTVSPost2010PropOp51
 70
     0
102
RTVSPost2010Prop52
140
1.0
102
RTVSPost2010PropOp52
 70
     0
102
RTVSPost2010Prop53
 90
        2
102
RTVSPost2010PropOp53
 70
     0
102
RTVSPost2010Prop54
  1
strokes_ogs.tif
102
RTVSPost2010PropOp54
 70
     0
102
RTVSPost2010Prop55
280
     0
102
RTVSPost2010PropOp55
 70
     1
102
RTVSPost2010Prop56
140
1.0
102
RTVSPost2010PropOp56
 70
     0
102
RTVSPost2010Prop57
140
1.0
102
RTVSPost2010PropOp57
 70
     0
102
RTVSPropertyOp0
 70
     0
102
RTVSPropertyOp1
 70
     0
102
RTVSPropertyOp2
 70
     0
102
RTVSPropertyOp3
 70
     0
102
RTVSPropertyOp4
 70
     0
102
RTVSPropertyOp5
 70
     0
102
RTVSPropertyOp6
 70
     0
102
RTVSPropertyOp7
 70
     0
102
RTVSPropertyOp8
 70
     0
102
RTVSPropertyOp9
 70
     0
102
RTVSPropertyOp10
 70
     0
102
RTVSPropertyOp11
 70
     0
102
RTVSPropertyOp12
 70
     0
102
RTVSPropertyOp13
 70
     0
102
RTVSPropertyOp14
 70
     2
102
RTVSPropertyOp15
 70
     0
102
RTVSPropertyOp16
 70
     0
102
RTVSPropertyOp17
 70
     0
102
RTVSPropertyOp18
 70
     0
102
RTVSPropertyOp19
 70
     0
102
RTVSPropertyOp20
 70
     0
102
RTVSPropertyOp21
 70
     0
102
RTVSPropertyOp22
 70
     0
102
RTVSPropertyOp23
 70
     0
102
RTVSPropertyOp24
 70
     0
102
RTVSPropertyOp25
 70
     0
102
RTVSPropertyOp26
 70
     0
102
RTVSPropertyOp27
 70
     0
102
RTVSPropertyOp28
 70
     1
102
RTVSPropertyOp29
 70
     1
102
RTVSPropertyOp30
 70
     1
102
RTVSPropertyOp31
 70
     1
102
RTVSPropertyOp32
 70
     1
102
RTVSPropertyOp33
 70
     1
102
RTVSPropertyOp34
 70
     1
102
RTVSPropertyOp35
 70
     1
102
RTVSPropertyOp36
 70
     1
102
RTVSPropertyOp37
 70
     0
102
RTVSPropertyOp38
 70
     0
102
RTVSPropertyOp39
 70
     0
102
RTVSPropertyOp40
 70
     0
102
RTVSPropertyOp41
 70
     0
102
RTVSPropertyOp42
 70
     0
102
RTVSPropertyOp43
 70
     0
102
RTVSPropertyOp44
 70
     0
102
RTVSPropertyOp45
 70
     1
102
RTVSPropertyOp46
 70
     0
102
RTVSPropertyOp47
 70
     0
102
RTVSPropertyOp48
 70
     0
102
RTVSPropertyOp49
 70
     1
102
RTVSPropertyOp50
 70
     0
102
RTVSPropertyOp51
 70
     0
102
RTVSPropertyOp52
 70
     0
102
RTVSPropertyOp53
 70
     0
102
RTVSPropertyOp54
 70
     0
102
RTVSPropertyOp55
 70
     1
102
RTVSPropertyOp56
 70
     0
102
RTVSPropertyOp57
 70
     0
102
RTVSPropertyOp58
 70
     0
102
RTVSPropertyOp59
 70
     0
102
RTVSPropertyOp60
 70
     0
102
RTVSPropertyOp61
 70
     0
102
RTVSPropertyOp62
 70
     0
  0
XRECORD
  5
3087D
102
{ACAD_REACTORS
330
3087C
102
}
330
3087C
100
AcDbXrecord
280
     1
102
RTVSPost2010Prop28
280
     0
102
RTVSPost2010PropOp28
 70
     1
102
RTVSPost2010Prop29
280
     1
102
RTVSPost2010PropOp29
 70
     1
102
RTVSPost2010Prop30
280
     1
102
RTVSPost2010PropOp30
 70
     1
102
RTVSPost2010Prop31
280
     0
102
RTVSPost2010PropOp31
 70
     1
102
RTVSPost2010Prop32
280
     0
102
RTVSPost2010PropOp32
 70
     1
102
RTVSPost2010Prop33
280
     0
102
RTVSPost2010PropOp33
 70
     1
102
RTVSPost2010Prop34
280
     0
102
RTVSPost2010PropOp34
 70
     1
102
RTVSPost2010Prop35
280
     0
102
RTVSPost2010PropOp35
 70
     1
102
RTVSPost2010Prop36
280
     0
102
RTVSPost2010PropOp36
 70
     1
102
RTVSPost2010Prop37
 90
       50
102
RTVSPost2010PropOp37
 70
     1
102
RTVSPost2010Prop38
140
0.0
102
RTVSPost2010PropOp38
 70
     1
102
RTVSPost2010Prop39
140
1.0
102
RTVSPost2010PropOp39
 70
     1
102
RTVSPost2010Prop40
 90
        0
102
RTVSPost2010PropOp40
 70
     1
102
RTVSPost2010Prop41ColorIndex
 90
       18
102
RTVSPost2010Prop41ColorRGB
 90
        0
102
RTVSPost2010PropOp41
 70
     1
102
RTVSPost2010Prop42
 90
       50
102
RTVSPost2010PropOp42
 70
     1
102
RTVSPost2010Prop43
 90
        3
102
RTVSPost2010PropOp43
 70
     1
102
RTVSPost2010Prop44ColorIndex
 90
        5
102
RTVSPost2010Prop44ColorRGB
 90
      255
102
RTVSPost2010PropOp44
 70
     1
102
RTVSPost2010Prop45
280
     0
102
RTVSPost2010PropOp45
 70
     1
102
RTVSPost2010Prop46
 90
       50
102
RTVSPost2010PropOp46
 70
     1
102
RTVSPost2010Prop47
 90
       50
102
RTVSPost2010PropOp47
 70
     1
102
RTVSPost2010Prop48
 90
       50
102
RTVSPost2010PropOp48
 70
     1
102
RTVSPost2010Prop49
280
     0
102
RTVSPost2010PropOp49
 70
     1
102
RTVSPost2010Prop50
 90
       50
102
RTVSPost2010PropOp50
 70
     1
102
RTVSPost2010Prop51ColorIndex
 90
      256
102
RTVSPost2010Prop51ColorRGB
 90
-16777216
102
RTVSPost2010PropOp51
 70
     0
102
RTVSPost2010Prop52
140
1.0
102
RTVSPost2010PropOp52
 70
     0
102
RTVSPost2010Prop53
 90
        2
102
RTVSPost2010PropOp53
 70
     1
102
RTVSPost2010Prop54
  1
strokes_ogs.tif
102
RTVSPost2010PropOp54
 70
     1
102
RTVSPost2010Prop55
280
     0
102
RTVSPost2010PropOp55
 70
     1
102
RTVSPost2010Prop56
140
1.0
102
RTVSPost2010PropOp56
 70
     1
102
RTVSPost2010Prop57
140
1.0
102
RTVSPost2010PropOp57
 70
     1
102
RTVSPropertyOp0
 70
     1
102
RTVSPropertyOp1
 70
     1
102
RTVSPropertyOp2
 70
     1
102
RTVSPropertyOp3
 70
     1
102
RTVSPropertyOp4
 70
     1
102
RTVSPropertyOp5
 70
     1
102
RTVSPropertyOp6
 70
     1
102
RTVSPropertyOp7
 70
     1
102
RTVSPropertyOp8
 70
     1
102
RTVSPropertyOp9
 70
     1
102
RTVSPropertyOp10
 70
     1
102
RTVSPropertyOp11
 70
     1
102
RTVSPropertyOp12
 70
     1
102
RTVSPropertyOp13
 70
     1
102
RTVSPropertyOp14
 70
     1
102
RTVSPropertyOp15
 70
     1
102
RTVSPropertyOp16
 70
     1
102
RTVSPropertyOp17
 70
     1
102
RTVSPropertyOp18
 70
     1
102
RTVSPropertyOp19
 70
     1
102
RTVSPropertyOp20
 70
     1
102
RTVSPropertyOp21
 70
     1
102
RTVSPropertyOp22
 70
     1
102
RTVSPropertyOp23
 70
     1
102
RTVSPropertyOp24
 70
     1
102
RTVSPropertyOp25
 70
     1
102
RTVSPropertyOp26
 70
     1
102
RTVSPropertyOp27
 70
     1
102
RTVSPropertyOp28
 70
     1
102
RTVSPropertyOp29
 70
     1
102
RTVSPropertyOp30
 70
     1
102
RTVSPropertyOp31
 70
     1
102
RTVSPropertyOp32
 70
     1
102
RTVSPropertyOp33
 70
     1
102
RTVSPropertyOp34
 70
     1
102
RTVSPropertyOp35
 70
     1
102
RTVSPropertyOp36
 70
     1
102
RTVSPropertyOp37
 70
     1
102
RTVSPropertyOp38
 70
     1
102
RTVSPropertyOp39
 70
     1
102
RTVSPropertyOp40
 70
     1
102
RTVSPropertyOp41
 70
     1
102
RTVSPropertyOp42
 70
     1
102
RTVSPropertyOp43
 70
     1
102
RTVSPropertyOp44
 70
     1
102
RTVSPropertyOp45
 70
     1
102
RTVSPropertyOp46
 70
     1
102
RTVSPropertyOp47
 70
     1
102
RTVSPropertyOp48
 70
     1
102
RTVSPropertyOp49
 70
     1
102
RTVSPropertyOp50
 70
     1
102
RTVSPropertyOp51
 70
     0
102
RTVSPropertyOp52
 70
     0
102
RTVSPropertyOp53
 70
     1
102
RTVSPropertyOp54
 70
     1
102
RTVSPropertyOp55
 70
     1
102
RTVSPropertyOp56
 70
     1
102
RTVSPropertyOp57
 70
     1
102
RTVSPropertyOp58
 70
     1
102
RTVSPropertyOp59
 70
     1
102
RTVSPropertyOp60
 70
     1
102
RTVSPropertyOp61
 70
     1
102
RTVSPropertyOp62
 70
     1
  0
XRECORD
  5
30861
102
{ACAD_REACTORS
330
30860
102
}
330
30860
100
AcDbXrecord
280
     1
102
RTVSPost2010Prop28
280
     0
102
RTVSPost2010PropOp28
 70
     1
102
RTVSPost2010Prop29
280
     1
102
RTVSPost2010PropOp29
 70
     1
102
RTVSPost2010Prop30
280
     1
102
RTVSPost2010PropOp30
 70
     1
102
RTVSPost2010Prop31
280
     0
102
RTVSPost2010PropOp31
 70
     1
102
RTVSPost2010Prop32
280
     0
102
RTVSPost2010PropOp32
 70
     1
102
RTVSPost2010Prop33
280
     0
102
RTVSPost2010PropOp33
 70
     1
102
RTVSPost2010Prop34
280
     0
102
RTVSPost2010PropOp34
 70
     1
102
RTVSPost2010Prop35
280
     0
102
RTVSPost2010PropOp35
 70
     1
102
RTVSPost2010Prop36
280
     0
102
RTVSPost2010PropOp36
 70
     1
102
RTVSPost2010Prop37
 90
       50
102
RTVSPost2010PropOp37
 70
     1
102
RTVSPost2010Prop38
140
0.0
102
RTVSPost2010PropOp38
 70
     1
102
RTVSPost2010Prop39
140
1.0
102
RTVSPost2010PropOp39
 70
     1
102
RTVSPost2010Prop40
 90
        0
102
RTVSPost2010PropOp40
 70
     1
102
RTVSPost2010Prop41ColorIndex
 90
       18
102
RTVSPost2010Prop41ColorRGB
 90
        0
102
RTVSPost2010PropOp41
 70
     1
102
RTVSPost2010Prop42
 90
       50
102
RTVSPost2010PropOp42
 70
     1
102
RTVSPost2010Prop43
 90
        3
102
RTVSPost2010PropOp43
 70
     1
102
RTVSPost2010Prop44ColorIndex
 90
        5
102
RTVSPost2010Prop44ColorRGB
 90
      255
102
RTVSPost2010PropOp44
 70
     1
102
RTVSPost2010Prop45
280
     0
102
RTVSPost2010PropOp45
 70
     1
102
RTVSPost2010Prop46
 90
       50
102
RTVSPost2010PropOp46
 70
     1
102
RTVSPost2010Prop47
 90
       50
102
RTVSPost2010PropOp47
 70
     1
102
RTVSPost2010Prop48
 90
       50
102
RTVSPost2010PropOp48
 70
     1
102
RTVSPost2010Prop49
280
     0
102
RTVSPost2010PropOp49
 70
     1
102
RTVSPost2010Prop50
 90
       50
102
RTVSPost2010PropOp50
 70
     1
102
RTVSPost2010Prop51ColorIndex
 90
      256
102
RTVSPost2010Prop51ColorRGB
 90
-16777216
102
RTVSPost2010PropOp51
 70
     0
102
RTVSPost2010Prop52
140
1.0
102
RTVSPost2010PropOp52
 70
     0
102
RTVSPost2010Prop53
 90
        2
102
RTVSPost2010PropOp53
 70
     1
102
RTVSPost2010Prop54
  1
strokes_ogs.tif
102
RTVSPost2010PropOp54
 70
     1
102
RTVSPost2010Prop55
280
     0
102
RTVSPost2010PropOp55
 70
     1
102
RTVSPost2010Prop56
140
1.0
102
RTVSPost2010PropOp56
 70
     1
102
RTVSPost2010Prop57
140
1.0
102
RTVSPost2010PropOp57
 70
     1
102
RTVSPropertyOp0
 70
     1
102
RTVSPropertyOp1
 70
     1
102
RTVSPropertyOp2
 70
     1
102
RTVSPropertyOp3
 70
     1
102
RTVSPropertyOp4
 70
     1
102
RTVSPropertyOp5
 70
     1
102
RTVSPropertyOp6
 70
     1
102
RTVSPropertyOp7
 70
     1
102
RTVSPropertyOp8
 70
     1
102
RTVSPropertyOp9
 70
     1
102
RTVSPropertyOp10
 70
     1
102
RTVSPropertyOp11
 70
     1
102
RTVSPropertyOp12
 70
     1
102
RTVSPropertyOp13
 70
     1
102
RTVSPropertyOp14
 70
     1
102
RTVSPropertyOp15
 70
     1
102
RTVSPropertyOp16
 70
     1
102
RTVSPropertyOp17
 70
     1
102
RTVSPropertyOp18
 70
     1
102
RTVSPropertyOp19
 70
     1
102
RTVSPropertyOp20
 70
     1
102
RTVSPropertyOp21
 70
     1
102
RTVSPropertyOp22
 70
     1
102
RTVSPropertyOp23
 70
     1
102
RTVSPropertyOp24
 70
     1
102
RTVSPropertyOp25
 70
     1
102
RTVSPropertyOp26
 70
     1
102
RTVSPropertyOp27
 70
     1
102
RTVSPropertyOp28
 70
     1
102
RTVSPropertyOp29
 70
     1
102
RTVSPropertyOp30
 70
     1
102
RTVSPropertyOp31
 70
     1
102
RTVSPropertyOp32
 70
     1
102
RTVSPropertyOp33
 70
     1
102
RTVSPropertyOp34
 70
     1
102
RTVSPropertyOp35
 70
     1
102
RTVSPropertyOp36
 70
     1
102
RTVSPropertyOp37
 70
     1
102
RTVSPropertyOp38
 70
     1
102
RTVSPropertyOp39
 70
     1
102
RTVSPropertyOp40
 70
     1
102
RTVSPropertyOp41
 70
     1
102
RTVSPropertyOp42
 70
     1
102
RTVSPropertyOp43
 70
     1
102
RTVSPropertyOp44
 70
     1
102
RTVSPropertyOp45
 70
     1
102
RTVSPropertyOp46
 70
     1
102
RTVSPropertyOp47
 70
     1
102
RTVSPropertyOp48
 70
     1
102
RTVSPropertyOp49
 70
     1
102
RTVSPropertyOp50
 70
     1
102
RTVSPropertyOp51
 70
     0
102
RTVSPropertyOp52
 70
     0
102
RTVSPropertyOp53
 70
     1
102
RTVSPropertyOp54
 70
     1
102
RTVSPropertyOp55
 70
     1
102
RTVSPropertyOp56
 70
     1
102
RTVSPropertyOp57
 70
     1
102
RTVSPropertyOp58
 70
     1
102
RTVSPropertyOp59
 70
     1
102
RTVSPropertyOp60
 70
     1
102
RTVSPropertyOp61
 70
     1
102
RTVSPropertyOp62
 70
     1
  0
XRECORD
  5
30863
102
{ACAD_REACTORS
330
30862
102
}
330
30862
100
AcDbXrecord
280
     1
102
RTVSPost2010Prop28
280
     0
102
RTVSPost2010PropOp28
 70
     1
102
RTVSPost2010Prop29
280
     1
102
RTVSPost2010PropOp29
 70
     1
102
RTVSPost2010Prop30
280
     1
102
RTVSPost2010PropOp30
 70
     1
102
RTVSPost2010Prop31
280
     0
102
RTVSPost2010PropOp31
 70
     1
102
RTVSPost2010Prop32
280
     0
102
RTVSPost2010PropOp32
 70
     1
102
RTVSPost2010Prop33
280
     0
102
RTVSPost2010PropOp33
 70
     1
102
RTVSPost2010Prop34
280
     0
102
RTVSPost2010PropOp34
 70
     1
102
RTVSPost2010Prop35
280
     0
102
RTVSPost2010PropOp35
 70
     1
102
RTVSPost2010Prop36
280
     0
102
RTVSPost2010PropOp36
 70
     1
102
RTVSPost2010Prop37
 90
       50
102
RTVSPost2010PropOp37
 70
     1
102
RTVSPost2010Prop38
140
0.0
102
RTVSPost2010PropOp38
 70
     1
102
RTVSPost2010Prop39
140
1.0
102
RTVSPost2010PropOp39
 70
     1
102
RTVSPost2010Prop40
 90
        0
102
RTVSPost2010PropOp40
 70
     1
102
RTVSPost2010Prop41ColorIndex
 90
       18
102
RTVSPost2010Prop41ColorRGB
 90
        0
102
RTVSPost2010PropOp41
 70
     1
102
RTVSPost2010Prop42
 90
       50
102
RTVSPost2010PropOp42
 70
     1
102
RTVSPost2010Prop43
 90
        3
102
RTVSPost2010PropOp43
 70
     1
102
RTVSPost2010Prop44ColorIndex
 90
        5
102
RTVSPost2010Prop44ColorRGB
 90
      255
102
RTVSPost2010PropOp44
 70
     1
102
RTVSPost2010Prop45
280
     0
102
RTVSPost2010PropOp45
 70
     1
102
RTVSPost2010Prop46
 90
       50
102
RTVSPost2010PropOp46
 70
     1
102
RTVSPost2010Prop47
 90
       50
102
RTVSPost2010PropOp47
 70
     1
102
RTVSPost2010Prop48
 90
       50
102
RTVSPost2010PropOp48
 70
     1
102
RTVSPost2010Prop49
280
     0
102
RTVSPost2010PropOp49
 70
     1
102
RTVSPost2010Prop50
 90
       50
102
RTVSPost2010PropOp50
 70
     1
102
RTVSPost2010Prop51ColorIndex
 90
      256
102
RTVSPost2010Prop51ColorRGB
 90
-16777216
102
RTVSPost2010PropOp51
 70
     0
102
RTVSPost2010Prop52
140
1.0
102
RTVSPost2010PropOp52
 70
     0
102
RTVSPost2010Prop53
 90
        2
102
RTVSPost2010PropOp53
 70
     1
102
RTVSPost2010Prop54
  1
strokes_ogs.tif
102
RTVSPost2010PropOp54
 70
     1
102
RTVSPost2010Prop55
280
     0
102
RTVSPost2010PropOp55
 70
     1
102
RTVSPost2010Prop56
140
1.0
102
RTVSPost2010PropOp56
 70
     1
102
RTVSPost2010Prop57
140
1.0
102
RTVSPost2010PropOp57
 70
     1
102
RTVSPropertyOp0
 70
     1
102
RTVSPropertyOp1
 70
     1
102
RTVSPropertyOp2
 70
     1
102
RTVSPropertyOp3
 70
     1
102
RTVSPropertyOp4
 70
     1
102
RTVSPropertyOp5
 70
     1
102
RTVSPropertyOp6
 70
     1
102
RTVSPropertyOp7
 70
     1
102
RTVSPropertyOp8
 70
     1
102
RTVSPropertyOp9
 70
     1
102
RTVSPropertyOp10
 70
     1
102
RTVSPropertyOp11
 70
     1
102
RTVSPropertyOp12
 70
     1
102
RTVSPropertyOp13
 70
     1
102
RTVSPropertyOp14
 70
     1
102
RTVSPropertyOp15
 70
     1
102
RTVSPropertyOp16
 70
     1
102
RTVSPropertyOp17
 70
     1
102
RTVSPropertyOp18
 70
     1
102
RTVSPropertyOp19
 70
     1
102
RTVSPropertyOp20
 70
     1
102
RTVSPropertyOp21
 70
     1
102
RTVSPropertyOp22
 70
     1
102
RTVSPropertyOp23
 70
     1
102
RTVSPropertyOp24
 70
     1
102
RTVSPropertyOp25
 70
     1
102
RTVSPropertyOp26
 70
     1
102
RTVSPropertyOp27
 70
     1
102
RTVSPropertyOp28
 70
     1
102
RTVSPropertyOp29
 70
     1
102
RTVSPropertyOp30
 70
     1
102
RTVSPropertyOp31
 70
     1
102
RTVSPropertyOp32
 70
     1
102
RTVSPropertyOp33
 70
     1
102
RTVSPropertyOp34
 70
     1
102
RTVSPropertyOp35
 70
     1
102
RTVSPropertyOp36
 70
     1
102
RTVSPropertyOp37
 70
     1
102
RTVSPropertyOp38
 70
     1
102
RTVSPropertyOp39
 70
     1
102
RTVSPropertyOp40
 70
     1
102
RTVSPropertyOp41
 70
     1
102
RTVSPropertyOp42
 70
     1
102
RTVSPropertyOp43
 70
     1
102
RTVSPropertyOp44
 70
     1
102
RTVSPropertyOp45
 70
     1
102
RTVSPropertyOp46
 70
     1
102
RTVSPropertyOp47
 70
     1
102
RTVSPropertyOp48
 70
     1
102
RTVSPropertyOp49
 70
     1
102
RTVSPropertyOp50
 70
     1
102
RTVSPropertyOp51
 70
     0
102
RTVSPropertyOp52
 70
     0
102
RTVSPropertyOp53
 70
     1
102
RTVSPropertyOp54
 70
     1
102
RTVSPropertyOp55
 70
     1
102
RTVSPropertyOp56
 70
     1
102
RTVSPropertyOp57
 70
     1
102
RTVSPropertyOp58
 70
     1
102
RTVSPropertyOp59
 70
     1
102
RTVSPropertyOp60
 70
     1
102
RTVSPropertyOp61
 70
     1
102
RTVSPropertyOp62
 70
     1
  0
XRECORD
  5
30865
102
{ACAD_REACTORS
330
30864
102
}
330
30864
100
AcDbXrecord
280
     1
102
RTVSPost2010Prop28
280
     0
102
RTVSPost2010PropOp28
 70
     1
102
RTVSPost2010Prop29
280
     1
102
RTVSPost2010PropOp29
 70
     1
102
RTVSPost2010Prop30
280
     1
102
RTVSPost2010PropOp30
 70
     1
102
RTVSPost2010Prop31
280
     0
102
RTVSPost2010PropOp31
 70
     1
102
RTVSPost2010Prop32
280
     0
102
RTVSPost2010PropOp32
 70
     1
102
RTVSPost2010Prop33
280
     0
102
RTVSPost2010PropOp33
 70
     1
102
RTVSPost2010Prop34
280
     0
102
RTVSPost2010PropOp34
 70
     1
102
RTVSPost2010Prop35
280
     0
102
RTVSPost2010PropOp35
 70
     1
102
RTVSPost2010Prop36
280
     0
102
RTVSPost2010PropOp36
 70
     1
102
RTVSPost2010Prop37
 90
       50
102
RTVSPost2010PropOp37
 70
     1
102
RTVSPost2010Prop38
140
0.0
102
RTVSPost2010PropOp38
 70
     1
102
RTVSPost2010Prop39
140
1.0
102
RTVSPost2010PropOp39
 70
     1
102
RTVSPost2010Prop40
 90
        0
102
RTVSPost2010PropOp40
 70
     1
102
RTVSPost2010Prop41ColorIndex
 90
       18
102
RTVSPost2010Prop41ColorRGB
 90
        0
102
RTVSPost2010PropOp41
 70
     1
102
RTVSPost2010Prop42
 90
       50
102
RTVSPost2010PropOp42
 70
     1
102
RTVSPost2010Prop43
 90
        3
102
RTVSPost2010PropOp43
 70
     1
102
RTVSPost2010Prop44ColorIndex
 90
        5
102
RTVSPost2010Prop44ColorRGB
 90
      255
102
RTVSPost2010PropOp44
 70
     1
102
RTVSPost2010Prop45
280
     0
102
RTVSPost2010PropOp45
 70
     1
102
RTVSPost2010Prop46
 90
       50
102
RTVSPost2010PropOp46
 70
     1
102
RTVSPost2010Prop47
 90
       50
102
RTVSPost2010PropOp47
 70
     1
102
RTVSPost2010Prop48
 90
       50
102
RTVSPost2010PropOp48
 70
     1
102
RTVSPost2010Prop49
280
     0
102
RTVSPost2010PropOp49
 70
     1
102
RTVSPost2010Prop50
 90
       50
102
RTVSPost2010PropOp50
 70
     1
102
RTVSPost2010Prop51ColorIndex
 90
      256
102
RTVSPost2010Prop51ColorRGB
 90
-16777216
102
RTVSPost2010PropOp51
 70
     0
102
RTVSPost2010Prop52
140
1.0
102
RTVSPost2010PropOp52
 70
     0
102
RTVSPost2010Prop53
 90
        2
102
RTVSPost2010PropOp53
 70
     1
102
RTVSPost2010Prop54
  1
strokes_ogs.tif
102
RTVSPost2010PropOp54
 70
     1
102
RTVSPost2010Prop55
280
     0
102
RTVSPost2010PropOp55
 70
     1
102
RTVSPost2010Prop56
140
1.0
102
RTVSPost2010PropOp56
 70
     1
102
RTVSPost2010Prop57
140
1.0
102
RTVSPost2010PropOp57
 70
     1
102
RTVSPropertyOp0
 70
     1
102
RTVSPropertyOp1
 70
     1
102
RTVSPropertyOp2
 70
     1
102
RTVSPropertyOp3
 70
     1
102
RTVSPropertyOp4
 70
     1
102
RTVSPropertyOp5
 70
     1
102
RTVSPropertyOp6
 70
     1
102
RTVSPropertyOp7
 70
     1
102
RTVSPropertyOp8
 70
     1
102
RTVSPropertyOp9
 70
     1
102
RTVSPropertyOp10
 70
     1
102
RTVSPropertyOp11
 70
     1
102
RTVSPropertyOp12
 70
     1
102
RTVSPropertyOp13
 70
     1
102
RTVSPropertyOp14
 70
     1
102
RTVSPropertyOp15
 70
     1
102
RTVSPropertyOp16
 70
     1
102
RTVSPropertyOp17
 70
     1
102
RTVSPropertyOp18
 70
     1
102
RTVSPropertyOp19
 70
     1
102
RTVSPropertyOp20
 70
     1
102
RTVSPropertyOp21
 70
     1
102
RTVSPropertyOp22
 70
     1
102
RTVSPropertyOp23
 70
     1
102
RTVSPropertyOp24
 70
     1
102
RTVSPropertyOp25
 70
     1
102
RTVSPropertyOp26
 70
     1
102
RTVSPropertyOp27
 70
     1
102
RTVSPropertyOp28
 70
     1
102
RTVSPropertyOp29
 70
     1
102
RTVSPropertyOp30
 70
     1
102
RTVSPropertyOp31
 70
     1
102
RTVSPropertyOp32
 70
     1
102
RTVSPropertyOp33
 70
     1
102
RTVSPropertyOp34
 70
     1
102
RTVSPropertyOp35
 70
     1
102
RTVSPropertyOp36
 70
     1
102
RTVSPropertyOp37
 70
     1
102
RTVSPropertyOp38
 70
     1
102
RTVSPropertyOp39
 70
     1
102
RTVSPropertyOp40
 70
     1
102
RTVSPropertyOp41
 70
     1
102
RTVSPropertyOp42
 70
     1
102
RTVSPropertyOp43
 70
     1
102
RTVSPropertyOp44
 70
     1
102
RTVSPropertyOp45
 70
     1
102
RTVSPropertyOp46
 70
     1
102
RTVSPropertyOp47
 70
     1
102
RTVSPropertyOp48
 70
     1
102
RTVSPropertyOp49
 70
     1
102
RTVSPropertyOp50
 70
     1
102
RTVSPropertyOp51
 70
     0
102
RTVSPropertyOp52
 70
     0
102
RTVSPropertyOp53
 70
     1
102
RTVSPropertyOp54
 70
     1
102
RTVSPropertyOp55
 70
     1
102
RTVSPropertyOp56
 70
     1
102
RTVSPropertyOp57
 70
     1
102
RTVSPropertyOp58
 70
     1
102
RTVSPropertyOp59
 70
     1
102
RTVSPropertyOp60
 70
     1
102
RTVSPropertyOp61
 70
     1
102
RTVSPropertyOp62
 70
     1
  0
XRECORD
  5
30867
102
{ACAD_REACTORS
330
30866
102
}
330
30866
100
AcDbXrecord
280
     1
102
RTVSPost2010Prop28
280
     0
102
RTVSPost2010PropOp28
 70
     1
102
RTVSPost2010Prop29
280
     1
102
RTVSPost2010PropOp29
 70
     1
102
RTVSPost2010Prop30
280
     1
102
RTVSPost2010PropOp30
 70
     1
102
RTVSPost2010Prop31
280
     0
102
RTVSPost2010PropOp31
 70
     1
102
RTVSPost2010Prop32
280
     0
102
RTVSPost2010PropOp32
 70
     1
102
RTVSPost2010Prop33
280
     0
102
RTVSPost2010PropOp33
 70
     1
102
RTVSPost2010Prop34
280
     0
102
RTVSPost2010PropOp34
 70
     1
102
RTVSPost2010Prop35
280
     0
102
RTVSPost2010PropOp35
 70
     1
102
RTVSPost2010Prop36
280
     0
102
RTVSPost2010PropOp36
 70
     1
102
RTVSPost2010Prop37
 90
       50
102
RTVSPost2010PropOp37
 70
     1
102
RTVSPost2010Prop38
140
0.0
102
RTVSPost2010PropOp38
 70
     1
102
RTVSPost2010Prop39
140
1.0
102
RTVSPost2010PropOp39
 70
     1
102
RTVSPost2010Prop40
 90
        0
102
RTVSPost2010PropOp40
 70
     1
102
RTVSPost2010Prop41ColorIndex
 90
       18
102
RTVSPost2010Prop41ColorRGB
 90
        0
102
RTVSPost2010PropOp41
 70
     1
102
RTVSPost2010Prop42
 90
       50
102
RTVSPost2010PropOp42
 70
     1
102
RTVSPost2010Prop43
 90
        3
102
RTVSPost2010PropOp43
 70
     1
102
RTVSPost2010Prop44ColorIndex
 90
        5
102
RTVSPost2010Prop44ColorRGB
 90
      255
102
RTVSPost2010PropOp44
 70
     1
102
RTVSPost2010Prop45
280
     0
102
RTVSPost2010PropOp45
 70
     1
102
RTVSPost2010Prop46
 90
       50
102
RTVSPost2010PropOp46
 70
     1
102
RTVSPost2010Prop47
 90
       50
102
RTVSPost2010PropOp47
 70
     1
102
RTVSPost2010Prop48
 90
       50
102
RTVSPost2010PropOp48
 70
     1
102
RTVSPost2010Prop49
280
     0
102
RTVSPost2010PropOp49
 70
     1
102
RTVSPost2010Prop50
 90
       50
102
RTVSPost2010PropOp50
 70
     1
102
RTVSPost2010Prop51ColorIndex
 90
      256
102
RTVSPost2010Prop51ColorRGB
 90
-16777216
102
RTVSPost2010PropOp51
 70
     0
102
RTVSPost2010Prop52
140
1.0
102
RTVSPost2010PropOp52
 70
     0
102
RTVSPost2010Prop53
 90
        2
102
RTVSPost2010PropOp53
 70
     1
102
RTVSPost2010Prop54
  1
strokes_ogs.tif
102
RTVSPost2010PropOp54
 70
     1
102
RTVSPost2010Prop55
280
     0
102
RTVSPost2010PropOp55
 70
     1
102
RTVSPost2010Prop56
140
1.0
102
RTVSPost2010PropOp56
 70
     1
102
RTVSPost2010Prop57
140
1.0
102
RTVSPost2010PropOp57
 70
     1
102
RTVSPropertyOp0
 70
     1
102
RTVSPropertyOp1
 70
     1
102
RTVSPropertyOp2
 70
     1
102
RTVSPropertyOp3
 70
     1
102
RTVSPropertyOp4
 70
     1
102
RTVSPropertyOp5
 70
     1
102
RTVSPropertyOp6
 70
     1
102
RTVSPropertyOp7
 70
     1
102
RTVSPropertyOp8
 70
     1
102
RTVSPropertyOp9
 70
     1
102
RTVSPropertyOp10
 70
     1
102
RTVSPropertyOp11
 70
     1
102
RTVSPropertyOp12
 70
     1
102
RTVSPropertyOp13
 70
     1
102
RTVSPropertyOp14
 70
     1
102
RTVSPropertyOp15
 70
     1
102
RTVSPropertyOp16
 70
     1
102
RTVSPropertyOp17
 70
     1
102
RTVSPropertyOp18
 70
     1
102
RTVSPropertyOp19
 70
     1
102
RTVSPropertyOp20
 70
     1
102
RTVSPropertyOp21
 70
     1
102
RTVSPropertyOp22
 70
     1
102
RTVSPropertyOp23
 70
     1
102
RTVSPropertyOp24
 70
     1
102
RTVSPropertyOp25
 70
     1
102
RTVSPropertyOp26
 70
     1
102
RTVSPropertyOp27
 70
     1
102
RTVSPropertyOp28
 70
     1
102
RTVSPropertyOp29
 70
     1
102
RTVSPropertyOp30
 70
     1
102
RTVSPropertyOp31
 70
     1
102
RTVSPropertyOp32
 70
     1
102
RTVSPropertyOp33
 70
     1
102
RTVSPropertyOp34
 70
     1
102
RTVSPropertyOp35
 70
     1
102
RTVSPropertyOp36
 70
     1
102
RTVSPropertyOp37
 70
     1
102
RTVSPropertyOp38
 70
     1
102
RTVSPropertyOp39
 70
     1
102
RTVSPropertyOp40
 70
     1
102
RTVSPropertyOp41
 70
     1
102
RTVSPropertyOp42
 70
     1
102
RTVSPropertyOp43
 70
     1
102
RTVSPropertyOp44
 70
     1
102
RTVSPropertyOp45
 70
     1
102
RTVSPropertyOp46
 70
     1
102
RTVSPropertyOp47
 70
     1
102
RTVSPropertyOp48
 70
     1
102
RTVSPropertyOp49
 70
     1
102
RTVSPropertyOp50
 70
     1
102
RTVSPropertyOp51
 70
     0
102
RTVSPropertyOp52
 70
     0
102
RTVSPropertyOp53
 70
     1
102
RTVSPropertyOp54
 70
     1
102
RTVSPropertyOp55
 70
     1
102
RTVSPropertyOp56
 70
     1
102
RTVSPropertyOp57
 70
     1
102
RTVSPropertyOp58
 70
     1
102
RTVSPropertyOp59
 70
     1
102
RTVSPropertyOp60
 70
     1
102
RTVSPropertyOp61
 70
     1
102
RTVSPropertyOp62
 70
     1
  0
XRECORD
  5
3086F
102
{ACAD_REACTORS
330
3086E
102
}
330
3086E
100
AcDbXrecord
280
     1
102
RTVSPost2010Prop28
280
     0
102
RTVSPost2010PropOp28
 70
     1
102
RTVSPost2010Prop29
280
     1
102
RTVSPost2010PropOp29
 70
     1
102
RTVSPost2010Prop30
280
     1
102
RTVSPost2010PropOp30
 70
     1
102
RTVSPost2010Prop31
280
     0
102
RTVSPost2010PropOp31
 70
     1
102
RTVSPost2010Prop32
280
     0
102
RTVSPost2010PropOp32
 70
     1
102
RTVSPost2010Prop33
280
     0
102
RTVSPost2010PropOp33
 70
     1
102
RTVSPost2010Prop34
280
     0
102
RTVSPost2010PropOp34
 70
     1
102
RTVSPost2010Prop35
280
     0
102
RTVSPost2010PropOp35
 70
     1
102
RTVSPost2010Prop36
280
     0
102
RTVSPost2010PropOp36
 70
     1
102
RTVSPost2010Prop37
 90
       50
102
RTVSPost2010PropOp37
 70
     1
102
RTVSPost2010Prop38
140
0.0
102
RTVSPost2010PropOp38
 70
     1
102
RTVSPost2010Prop39
140
1.0
102
RTVSPost2010PropOp39
 70
     1
102
RTVSPost2010Prop40
 90
        0
102
RTVSPost2010PropOp40
 70
     1
102
RTVSPost2010Prop41ColorIndex
 90
       18
102
RTVSPost2010Prop41ColorRGB
 90
        0
102
RTVSPost2010PropOp41
 70
     1
102
RTVSPost2010Prop42
 90
       50
102
RTVSPost2010PropOp42
 70
     1
102
RTVSPost2010Prop43
 90
        3
102
RTVSPost2010PropOp43
 70
     1
102
RTVSPost2010Prop44ColorIndex
 90
        5
102
RTVSPost2010Prop44ColorRGB
 90
      255
102
RTVSPost2010PropOp44
 70
     1
102
RTVSPost2010Prop45
280
     0
102
RTVSPost2010PropOp45
 70
     1
102
RTVSPost2010Prop46
 90
       50
102
RTVSPost2010PropOp46
 70
     1
102
RTVSPost2010Prop47
 90
       50
102
RTVSPost2010PropOp47
 70
     1
102
RTVSPost2010Prop48
 90
       50
102
RTVSPost2010PropOp48
 70
     1
102
RTVSPost2010Prop49
280
     0
102
RTVSPost2010PropOp49
 70
     1
102
RTVSPost2010Prop50
 90
       50
102
RTVSPost2010PropOp50
 70
     1
102
RTVSPost2010Prop51ColorIndex
 90
      256
102
RTVSPost2010Prop51ColorRGB
 90
-16777216
102
RTVSPost2010PropOp51
 70
     0
102
RTVSPost2010Prop52
140
1.0
102
RTVSPost2010PropOp52
 70
     0
102
RTVSPost2010Prop53
 90
        2
102
RTVSPost2010PropOp53
 70
     1
102
RTVSPost2010Prop54
  1
strokes_ogs.tif
102
RTVSPost2010PropOp54
 70
     1
102
RTVSPost2010Prop55
280
     0
102
RTVSPost2010PropOp55
 70
     1
102
RTVSPost2010Prop56
140
1.0
102
RTVSPost2010PropOp56
 70
     1
102
RTVSPost2010Prop57
140
1.0
102
RTVSPost2010PropOp57
 70
     1
102
RTVSPropertyOp0
 70
     1
102
RTVSPropertyOp1
 70
     1
102
RTVSPropertyOp2
 70
     1
102
RTVSPropertyOp3
 70
     1
102
RTVSPropertyOp4
 70
     1
102
RTVSPropertyOp5
 70
     1
102
RTVSPropertyOp6
 70
     1
102
RTVSPropertyOp7
 70
     1
102
RTVSPropertyOp8
 70
     1
102
RTVSPropertyOp9
 70
     1
102
RTVSPropertyOp10
 70
     1
102
RTVSPropertyOp11
 70
     1
102
RTVSPropertyOp12
 70
     1
102
RTVSPropertyOp13
 70
     1
102
RTVSPropertyOp14
 70
     1
102
RTVSPropertyOp15
 70
     1
102
RTVSPropertyOp16
 70
     1
102
RTVSPropertyOp17
 70
     1
102
RTVSPropertyOp18
 70
     1
102
RTVSPropertyOp19
 70
     1
102
RTVSPropertyOp20
 70
     1
102
RTVSPropertyOp21
 70
     1
102
RTVSPropertyOp22
 70
     1
102
RTVSPropertyOp23
 70
     1
102
RTVSPropertyOp24
 70
     1
102
RTVSPropertyOp25
 70
     1
102
RTVSPropertyOp26
 70
     1
102
RTVSPropertyOp27
 70
     1
102
RTVSPropertyOp28
 70
     1
102
RTVSPropertyOp29
 70
     1
102
RTVSPropertyOp30
 70
     1
102
RTVSPropertyOp31
 70
     1
102
RTVSPropertyOp32
 70
     1
102
RTVSPropertyOp33
 70
     1
102
RTVSPropertyOp34
 70
     1
102
RTVSPropertyOp35
 70
     1
102
RTVSPropertyOp36
 70
     1
102
RTVSPropertyOp37
 70
     1
102
RTVSPropertyOp38
 70
     1
102
RTVSPropertyOp39
 70
     1
102
RTVSPropertyOp40
 70
     1
102
RTVSPropertyOp41
 70
     1
102
RTVSPropertyOp42
 70
     1
102
RTVSPropertyOp43
 70
     1
102
RTVSPropertyOp44
 70
     1
102
RTVSPropertyOp45
 70
     1
102
RTVSPropertyOp46
 70
     1
102
RTVSPropertyOp47
 70
     1
102
RTVSPropertyOp48
 70
     1
102
RTVSPropertyOp49
 70
     1
102
RTVSPropertyOp50
 70
     1
102
RTVSPropertyOp51
 70
     0
102
RTVSPropertyOp52
 70
     0
102
RTVSPropertyOp53
 70
     1
102
RTVSPropertyOp54
 70
     1
102
RTVSPropertyOp55
 70
     1
102
RTVSPropertyOp56
 70
     1
102
RTVSPropertyOp57
 70
     1
102
RTVSPropertyOp58
 70
     1
102
RTVSPropertyOp59
 70
     1
102
RTVSPropertyOp60
 70
     1
102
RTVSPropertyOp61
 70
     1
102
RTVSPropertyOp62
 70
     1
  0
XRECORD
  5
3088B
102
{ACAD_REACTORS
330
3088A
102
}
330
3088A
100
AcDbXrecord
280
     1
102
RTVSPost2010Prop28
280
     0
102
RTVSPost2010PropOp28
 70
     1
102
RTVSPost2010Prop29
280
     1
102
RTVSPost2010PropOp29
 70
     1
102
RTVSPost2010Prop30
280
     1
102
RTVSPost2010PropOp30
 70
     1
102
RTVSPost2010Prop31
280
     0
102
RTVSPost2010PropOp31
 70
     1
102
RTVSPost2010Prop32
280
     0
102
RTVSPost2010PropOp32
 70
     1
102
RTVSPost2010Prop33
280
     0
102
RTVSPost2010PropOp33
 70
     1
102
RTVSPost2010Prop34
280
     0
102
RTVSPost2010PropOp34
 70
     1
102
RTVSPost2010Prop35
280
     0
102
RTVSPost2010PropOp35
 70
     1
102
RTVSPost2010Prop36
280
     0
102
RTVSPost2010PropOp36
 70
     1
102
RTVSPost2010Prop37
 90
       50
102
RTVSPost2010PropOp37
 70
     0
102
RTVSPost2010Prop38
140
0.0
102
RTVSPost2010PropOp38
 70
     0
102
RTVSPost2010Prop39
140
1.0
102
RTVSPost2010PropOp39
 70
     0
102
RTVSPost2010Prop40
 90
        0
102
RTVSPost2010PropOp40
 70
     0
102
RTVSPost2010Prop41ColorIndex
 90
       18
102
RTVSPost2010Prop41ColorRGB
 90
        0
102
RTVSPost2010PropOp41
 70
     0
102
RTVSPost2010Prop42
 90
       50
102
RTVSPost2010PropOp42
 70
     0
102
RTVSPost2010Prop43
 90
        3
102
RTVSPost2010PropOp43
 70
     0
102
RTVSPost2010Prop44ColorIndex
 90
        5
102
RTVSPost2010Prop44ColorRGB
 90
      255
102
RTVSPost2010PropOp44
 70
     0
102
RTVSPost2010Prop45
280
     0
102
RTVSPost2010PropOp45
 70
     1
102
RTVSPost2010Prop46
 90
       50
102
RTVSPost2010PropOp46
 70
     0
102
RTVSPost2010Prop47
 90
       50
102
RTVSPost2010PropOp47
 70
     0
102
RTVSPost2010Prop48
 90
       50
102
RTVSPost2010PropOp48
 70
     0
102
RTVSPost2010Prop49
280
     0
102
RTVSPost2010PropOp49
 70
     1
102
RTVSPost2010Prop50
 90
       50
102
RTVSPost2010PropOp50
 70
     0
102
RTVSPost2010Prop51ColorIndex
 90
      256
102
RTVSPost2010Prop51ColorRGB
 90
-16777216
102
RTVSPost2010PropOp51
 70
     0
102
RTVSPost2010Prop52
140
1.0
102
RTVSPost2010PropOp52
 70
     0
102
RTVSPost2010Prop53
 90
        2
102
RTVSPost2010PropOp53
 70
     0
102
RTVSPost2010Prop54
  1
strokes_ogs.tif
102
RTVSPost2010PropOp54
 70
     0
102
RTVSPost2010Prop55
280
     0
102
RTVSPost2010PropOp55
 70
     1
102
RTVSPost2010Prop56
140
1.0
102
RTVSPost2010PropOp56
 70
     0
102
RTVSPost2010Prop57
140
1.0
102
RTVSPost2010PropOp57
 70
     0
102
RTVSPropertyOp0
 70
     0
102
RTVSPropertyOp1
 70
     0
102
RTVSPropertyOp2
 70
     0
102
RTVSPropertyOp3
 70
     0
102
RTVSPropertyOp4
 70
     0
102
RTVSPropertyOp5
 70
     0
102
RTVSPropertyOp6
 70
     0
102
RTVSPropertyOp7
 70
     0
102
RTVSPropertyOp8
 70
     0
102
RTVSPropertyOp9
 70
     0
102
RTVSPropertyOp10
 70
     0
102
RTVSPropertyOp11
 70
     0
102
RTVSPropertyOp12
 70
     0
102
RTVSPropertyOp13
 70
     0
102
RTVSPropertyOp14
 70
     2
102
RTVSPropertyOp15
 70
     0
102
RTVSPropertyOp16
 70
     0
102
RTVSPropertyOp17
 70
     0
102
RTVSPropertyOp18
 70
     0
102
RTVSPropertyOp19
 70
     0
102
RTVSPropertyOp20
 70
     0
102
RTVSPropertyOp21
 70
     0
102
RTVSPropertyOp22
 70
     0
102
RTVSPropertyOp23
 70
     0
102
RTVSPropertyOp24
 70
     0
102
RTVSPropertyOp25
 70
     0
102
RTVSPropertyOp26
 70
     0
102
RTVSPropertyOp27
 70
     0
102
RTVSPropertyOp28
 70
     1
102
RTVSPropertyOp29
 70
     1
102
RTVSPropertyOp30
 70
     1
102
RTVSPropertyOp31
 70
     1
102
RTVSPropertyOp32
 70
     1
102
RTVSPropertyOp33
 70
     1
102
RTVSPropertyOp34
 70
     1
102
RTVSPropertyOp35
 70
     1
102
RTVSPropertyOp36
 70
     1
102
RTVSPropertyOp37
 70
     0
102
RTVSPropertyOp38
 70
     0
102
RTVSPropertyOp39
 70
     0
102
RTVSPropertyOp40
 70
     0
102
RTVSPropertyOp41
 70
     0
102
RTVSPropertyOp42
 70
     0
102
RTVSPropertyOp43
 70
     0
102
RTVSPropertyOp44
 70
     0
102
RTVSPropertyOp45
 70
     1
102
RTVSPropertyOp46
 70
     0
102
RTVSPropertyOp47
 70
     0
102
RTVSPropertyOp48
 70
     0
102
RTVSPropertyOp49
 70
     1
102
RTVSPropertyOp50
 70
     0
102
RTVSPropertyOp51
 70
     0
102
RTVSPropertyOp52
 70
     0
102
RTVSPropertyOp53
 70
     0
102
RTVSPropertyOp54
 70
     0
102
RTVSPropertyOp55
 70
     1
102
RTVSPropertyOp56
 70
     0
102
RTVSPropertyOp57
 70
     0
102
RTVSPropertyOp58
 70
     0
102
RTVSPropertyOp59
 70
     0
102
RTVSPropertyOp60
 70
     0
102
RTVSPropertyOp61
 70
     0
102
RTVSPropertyOp62
 70
     0
  0
XRECORD
  5
3087B
102
{ACAD_REACTORS
330
3087A
102
}
330
3087A
100
AcDbXrecord
280
     1
102
RTVSPost2010Prop28
280
     0
102
RTVSPost2010PropOp28
 70
     1
102
RTVSPost2010Prop29
280
     1
102
RTVSPost2010PropOp29
 70
     1
102
RTVSPost2010Prop30
280
     1
102
RTVSPost2010PropOp30
 70
     1
102
RTVSPost2010Prop31
280
     0
102
RTVSPost2010PropOp31
 70
     1
102
RTVSPost2010Prop32
280
     0
102
RTVSPost2010PropOp32
 70
     1
102
RTVSPost2010Prop33
280
     0
102
RTVSPost2010PropOp33
 70
     1
102
RTVSPost2010Prop34
280
     0
102
RTVSPost2010PropOp34
 70
     1
102
RTVSPost2010Prop35
280
     0
102
RTVSPost2010PropOp35
 70
     1
102
RTVSPost2010Prop36
280
     0
102
RTVSPost2010PropOp36
 70
     1
102
RTVSPost2010Prop37
 90
       50
102
RTVSPost2010PropOp37
 70
     1
102
RTVSPost2010Prop38
140
0.0
102
RTVSPost2010PropOp38
 70
     1
102
RTVSPost2010Prop39
140
1.0
102
RTVSPost2010PropOp39
 70
     1
102
RTVSPost2010Prop40
 90
        0
102
RTVSPost2010PropOp40
 70
     1
102
RTVSPost2010Prop41ColorIndex
 90
       18
102
RTVSPost2010Prop41ColorRGB
 90
        0
102
RTVSPost2010PropOp41
 70
     1
102
RTVSPost2010Prop42
 90
       50
102
RTVSPost2010PropOp42
 70
     1
102
RTVSPost2010Prop43
 90
        3
102
RTVSPost2010PropOp43
 70
     1
102
RTVSPost2010Prop44ColorIndex
 90
        5
102
RTVSPost2010Prop44ColorRGB
 90
      255
102
RTVSPost2010PropOp44
 70
     1
102
RTVSPost2010Prop45
280
     0
102
RTVSPost2010PropOp45
 70
     1
102
RTVSPost2010Prop46
 90
       50
102
RTVSPost2010PropOp46
 70
     1
102
RTVSPost2010Prop47
 90
       50
102
RTVSPost2010PropOp47
 70
     1
102
RTVSPost2010Prop48
 90
       50
102
RTVSPost2010PropOp48
 70
     1
102
RTVSPost2010Prop49
280
     0
102
RTVSPost2010PropOp49
 70
     1
102
RTVSPost2010Prop50
 90
       50
102
RTVSPost2010PropOp50
 70
     1
102
RTVSPost2010Prop51ColorIndex
 90
      256
102
RTVSPost2010Prop51ColorRGB
 90
-16777216
102
RTVSPost2010PropOp51
 70
     0
102
RTVSPost2010Prop52
140
1.0
102
RTVSPost2010PropOp52
 70
     0
102
RTVSPost2010Prop53
 90
        2
102
RTVSPost2010PropOp53
 70
     1
102
RTVSPost2010Prop54
  1
strokes_ogs.tif
102
RTVSPost2010PropOp54
 70
     1
102
RTVSPost2010Prop55
280
     0
102
RTVSPost2010PropOp55
 70
     1
102
RTVSPost2010Prop56
140
1.0
102
RTVSPost2010PropOp56
 70
     1
102
RTVSPost2010Prop57
140
1.0
102
RTVSPost2010PropOp57
 70
     1
102
RTVSPropertyOp0
 70
     1
102
RTVSPropertyOp1
 70
     1
102
RTVSPropertyOp2
 70
     1
102
RTVSPropertyOp3
 70
     1
102
RTVSPropertyOp4
 70
     1
102
RTVSPropertyOp5
 70
     1
102
RTVSPropertyOp6
 70
     1
102
RTVSPropertyOp7
 70
     1
102
RTVSPropertyOp8
 70
     1
102
RTVSPropertyOp9
 70
     1
102
RTVSPropertyOp10
 70
     1
102
RTVSPropertyOp11
 70
     1
102
RTVSPropertyOp12
 70
     1
102
RTVSPropertyOp13
 70
     1
102
RTVSPropertyOp14
 70
     1
102
RTVSPropertyOp15
 70
     1
102
RTVSPropertyOp16
 70
     1
102
RTVSPropertyOp17
 70
     1
102
RTVSPropertyOp18
 70
     1
102
RTVSPropertyOp19
 70
     1
102
RTVSPropertyOp20
 70
     1
102
RTVSPropertyOp21
 70
     1
102
RTVSPropertyOp22
 70
     1
102
RTVSPropertyOp23
 70
     1
102
RTVSPropertyOp24
 70
     1
102
RTVSPropertyOp25
 70
     1
102
RTVSPropertyOp26
 70
     1
102
RTVSPropertyOp27
 70
     1
102
RTVSPropertyOp28
 70
     1
102
RTVSPropertyOp29
 70
     1
102
RTVSPropertyOp30
 70
     1
102
RTVSPropertyOp31
 70
     1
102
RTVSPropertyOp32
 70
     1
102
RTVSPropertyOp33
 70
     1
102
RTVSPropertyOp34
 70
     1
102
RTVSPropertyOp35
 70
     1
102
RTVSPropertyOp36
 70
     1
102
RTVSPropertyOp37
 70
     1
102
RTVSPropertyOp38
 70
     1
102
RTVSPropertyOp39
 70
     1
102
RTVSPropertyOp40
 70
     1
102
RTVSPropertyOp41
 70
     1
102
RTVSPropertyOp42
 70
     1
102
RTVSPropertyOp43
 70
     1
102
RTVSPropertyOp44
 70
     1
102
RTVSPropertyOp45
 70
     1
102
RTVSPropertyOp46
 70
     1
102
RTVSPropertyOp47
 70
     1
102
RTVSPropertyOp48
 70
     1
102
RTVSPropertyOp49
 70
     1
102
RTVSPropertyOp50
 70
     1
102
RTVSPropertyOp51
 70
     0
102
RTVSPropertyOp52
 70
     0
102
RTVSPropertyOp53
 70
     1
102
RTVSPropertyOp54
 70
     1
102
RTVSPropertyOp55
 70
     1
102
RTVSPropertyOp56
 70
     1
102
RTVSPropertyOp57
 70
     1
102
RTVSPropertyOp58
 70
     1
102
RTVSPropertyOp59
 70
     1
102
RTVSPropertyOp60
 70
     1
102
RTVSPropertyOp61
 70
     1
102
RTVSPropertyOp62
 70
     1
  0
XRECORD
  5
3088D
102
{ACAD_REACTORS
330
3088C
102
}
330
3088C
100
AcDbXrecord
280
     1
102
RTVSPost2010Prop28
280
     0
102
RTVSPost2010PropOp28
 70
     1
102
RTVSPost2010Prop29
280
     1
102
RTVSPost2010PropOp29
 70
     1
102
RTVSPost2010Prop30
280
     1
102
RTVSPost2010PropOp30
 70
     1
102
RTVSPost2010Prop31
280
     0
102
RTVSPost2010PropOp31
 70
     1
102
RTVSPost2010Prop32
280
     0
102
RTVSPost2010PropOp32
 70
     1
102
RTVSPost2010Prop33
280
     0
102
RTVSPost2010PropOp33
 70
     1
102
RTVSPost2010Prop34
280
     0
102
RTVSPost2010PropOp34
 70
     1
102
RTVSPost2010Prop35
280
     0
102
RTVSPost2010PropOp35
 70
     1
102
RTVSPost2010Prop36
280
     0
102
RTVSPost2010PropOp36
 70
     1
102
RTVSPost2010Prop37
 90
       50
102
RTVSPost2010PropOp37
 70
     0
102
RTVSPost2010Prop38
140
0.0
102
RTVSPost2010PropOp38
 70
     0
102
RTVSPost2010Prop39
140
1.0
102
RTVSPost2010PropOp39
 70
     0
102
RTVSPost2010Prop40
 90
        0
102
RTVSPost2010PropOp40
 70
     0
102
RTVSPost2010Prop41ColorIndex
 90
       18
102
RTVSPost2010Prop41ColorRGB
 90
        0
102
RTVSPost2010PropOp41
 70
     0
102
RTVSPost2010Prop42
 90
       50
102
RTVSPost2010PropOp42
 70
     0
102
RTVSPost2010Prop43
 90
        3
102
RTVSPost2010PropOp43
 70
     0
102
RTVSPost2010Prop44ColorIndex
 90
        5
102
RTVSPost2010Prop44ColorRGB
 90
      255
102
RTVSPost2010PropOp44
 70
     0
102
RTVSPost2010Prop45
280
     0
102
RTVSPost2010PropOp45
 70
     1
102
RTVSPost2010Prop46
 90
       50
102
RTVSPost2010PropOp46
 70
     0
102
RTVSPost2010Prop47
 90
       50
102
RTVSPost2010PropOp47
 70
     0
102
RTVSPost2010Prop48
 90
       50
102
RTVSPost2010PropOp48
 70
     0
102
RTVSPost2010Prop49
280
     0
102
RTVSPost2010PropOp49
 70
     1
102
RTVSPost2010Prop50
 90
       50
102
RTVSPost2010PropOp50
 70
     0
102
RTVSPost2010Prop51ColorIndex
 90
      256
102
RTVSPost2010Prop51ColorRGB
 90
-16777216
102
RTVSPost2010PropOp51
 70
     0
102
RTVSPost2010Prop52
140
1.0
102
RTVSPost2010PropOp52
 70
     0
102
RTVSPost2010Prop53
 90
        2
102
RTVSPost2010PropOp53
 70
     0
102
RTVSPost2010Prop54
  1
strokes_ogs.tif
102
RTVSPost2010PropOp54
 70
     0
102
RTVSPost2010Prop55
280
     0
102
RTVSPost2010PropOp55
 70
     1
102
RTVSPost2010Prop56
140
1.0
102
RTVSPost2010PropOp56
 70
     0
102
RTVSPost2010Prop57
140
1.0
102
RTVSPost2010PropOp57
 70
     0
102
RTVSPropertyOp0
 70
     0
102
RTVSPropertyOp1
 70
     0
102
RTVSPropertyOp2
 70
     0
102
RTVSPropertyOp3
 70
     0
102
RTVSPropertyOp4
 70
     0
102
RTVSPropertyOp5
 70
     0
102
RTVSPropertyOp6
 70
     0
102
RTVSPropertyOp7
 70
     0
102
RTVSPropertyOp8
 70
     0
102
RTVSPropertyOp9
 70
     0
102
RTVSPropertyOp10
 70
     0
102
RTVSPropertyOp11
 70
     0
102
RTVSPropertyOp12
 70
     0
102
RTVSPropertyOp13
 70
     0
102
RTVSPropertyOp14
 70
     2
102
RTVSPropertyOp15
 70
     0
102
RTVSPropertyOp16
 70
     0
102
RTVSPropertyOp17
 70
     0
102
RTVSPropertyOp18
 70
     0
102
RTVSPropertyOp19
 70
     0
102
RTVSPropertyOp20
 70
     0
102
RTVSPropertyOp21
 70
     0
102
RTVSPropertyOp22
 70
     0
102
RTVSPropertyOp23
 70
     0
102
RTVSPropertyOp24
 70
     0
102
RTVSPropertyOp25
 70
     0
102
RTVSPropertyOp26
 70
     0
102
RTVSPropertyOp27
 70
     0
102
RTVSPropertyOp28
 70
     1
102
RTVSPropertyOp29
 70
     1
102
RTVSPropertyOp30
 70
     1
102
RTVSPropertyOp31
 70
     1
102
RTVSPropertyOp32
 70
     1
102
RTVSPropertyOp33
 70
     1
102
RTVSPropertyOp34
 70
     1
102
RTVSPropertyOp35
 70
     1
102
RTVSPropertyOp36
 70
     1
102
RTVSPropertyOp37
 70
     0
102
RTVSPropertyOp38
 70
     0
102
RTVSPropertyOp39
 70
     0
102
RTVSPropertyOp40
 70
     0
102
RTVSPropertyOp41
 70
     0
102
RTVSPropertyOp42
 70
     0
102
RTVSPropertyOp43
 70
     0
102
RTVSPropertyOp44
 70
     0
102
RTVSPropertyOp45
 70
     1
102
RTVSPropertyOp46
 70
     0
102
RTVSPropertyOp47
 70
     0
102
RTVSPropertyOp48
 70
     0
102
RTVSPropertyOp49
 70
     1
102
RTVSPropertyOp50
 70
     0
102
RTVSPropertyOp51
 70
     0
102
RTVSPropertyOp52
 70
     0
102
RTVSPropertyOp53
 70
     0
102
RTVSPropertyOp54
 70
     0
102
RTVSPropertyOp55
 70
     1
102
RTVSPropertyOp56
 70
     0
102
RTVSPropertyOp57
 70
     0
102
RTVSPropertyOp58
 70
     0
102
RTVSPropertyOp59
 70
     0
102
RTVSPropertyOp60
 70
     0
102
RTVSPropertyOp61
 70
     0
102
RTVSPropertyOp62
 70
     0
  0
XRECORD
  5
30873
102
{ACAD_REACTORS
330
30872
102
}
330
30872
100
AcDbXrecord
280
     1
102
RTVSPost2010Prop28
280
     0
102
RTVSPost2010PropOp28
 70
     1
102
RTVSPost2010Prop29
280
     1
102
RTVSPost2010PropOp29
 70
     1
102
RTVSPost2010Prop30
280
     1
102
RTVSPost2010PropOp30
 70
     1
102
RTVSPost2010Prop31
280
     0
102
RTVSPost2010PropOp31
 70
     1
102
RTVSPost2010Prop32
280
     0
102
RTVSPost2010PropOp32
 70
     1
102
RTVSPost2010Prop33
280
     0
102
RTVSPost2010PropOp33
 70
     1
102
RTVSPost2010Prop34
280
     0
102
RTVSPost2010PropOp34
 70
     1
102
RTVSPost2010Prop35
280
     0
102
RTVSPost2010PropOp35
 70
     1
102
RTVSPost2010Prop36
280
     0
102
RTVSPost2010PropOp36
 70
     1
102
RTVSPost2010Prop37
 90
       50
102
RTVSPost2010PropOp37
 70
     1
102
RTVSPost2010Prop38
140
0.0
102
RTVSPost2010PropOp38
 70
     1
102
RTVSPost2010Prop39
140
1.0
102
RTVSPost2010PropOp39
 70
     1
102
RTVSPost2010Prop40
 90
        0
102
RTVSPost2010PropOp40
 70
     1
102
RTVSPost2010Prop41ColorIndex
 90
       18
102
RTVSPost2010Prop41ColorRGB
 90
        0
102
RTVSPost2010PropOp41
 70
     1
102
RTVSPost2010Prop42
 90
       50
102
RTVSPost2010PropOp42
 70
     1
102
RTVSPost2010Prop43
 90
        3
102
RTVSPost2010PropOp43
 70
     1
102
RTVSPost2010Prop44ColorIndex
 90
        5
102
RTVSPost2010Prop44ColorRGB
 90
      255
102
RTVSPost2010PropOp44
 70
     1
102
RTVSPost2010Prop45
280
     0
102
RTVSPost2010PropOp45
 70
     1
102
RTVSPost2010Prop46
 90
       50
102
RTVSPost2010PropOp46
 70
     1
102
RTVSPost2010Prop47
 90
       50
102
RTVSPost2010PropOp47
 70
     1
102
RTVSPost2010Prop48
 90
       50
102
RTVSPost2010PropOp48
 70
     1
102
RTVSPost2010Prop49
280
     0
102
RTVSPost2010PropOp49
 70
     1
102
RTVSPost2010Prop50
 90
       50
102
RTVSPost2010PropOp50
 70
     1
102
RTVSPost2010Prop51ColorIndex
 90
      256
102
RTVSPost2010Prop51ColorRGB
 90
-16777216
102
RTVSPost2010PropOp51
 70
     0
102
RTVSPost2010Prop52
140
1.0
102
RTVSPost2010PropOp52
 70
     0
102
RTVSPost2010Prop53
 90
        2
102
RTVSPost2010PropOp53
 70
     1
102
RTVSPost2010Prop54
  1
strokes_ogs.tif
102
RTVSPost2010PropOp54
 70
     1
102
RTVSPost2010Prop55
280
     0
102
RTVSPost2010PropOp55
 70
     1
102
RTVSPost2010Prop56
140
1.0
102
RTVSPost2010PropOp56
 70
     1
102
RTVSPost2010Prop57
140
1.0
102
RTVSPost2010PropOp57
 70
     1
102
RTVSPropertyOp0
 70
     1
102
RTVSPropertyOp1
 70
     1
102
RTVSPropertyOp2
 70
     1
102
RTVSPropertyOp3
 70
     1
102
RTVSPropertyOp4
 70
     1
102
RTVSPropertyOp5
 70
     1
102
RTVSPropertyOp6
 70
     1
102
RTVSPropertyOp7
 70
     1
102
RTVSPropertyOp8
 70
     1
102
RTVSPropertyOp9
 70
     1
102
RTVSPropertyOp10
 70
     1
102
RTVSPropertyOp11
 70
     1
102
RTVSPropertyOp12
 70
     1
102
RTVSPropertyOp13
 70
     1
102
RTVSPropertyOp14
 70
     1
102
RTVSPropertyOp15
 70
     1
102
RTVSPropertyOp16
 70
     1
102
RTVSPropertyOp17
 70
     1
102
RTVSPropertyOp18
 70
     1
102
RTVSPropertyOp19
 70
     1
102
RTVSPropertyOp20
 70
     1
102
RTVSPropertyOp21
 70
     1
102
RTVSPropertyOp22
 70
     1
102
RTVSPropertyOp23
 70
     1
102
RTVSPropertyOp24
 70
     1
102
RTVSPropertyOp25
 70
     1
102
RTVSPropertyOp26
 70
     1
102
RTVSPropertyOp27
 70
     1
102
RTVSPropertyOp28
 70
     1
102
RTVSPropertyOp29
 70
     1
102
RTVSPropertyOp30
 70
     1
102
RTVSPropertyOp31
 70
     1
102
RTVSPropertyOp32
 70
     1
102
RTVSPropertyOp33
 70
     1
102
RTVSPropertyOp34
 70
     1
102
RTVSPropertyOp35
 70
     1
102
RTVSPropertyOp36
 70
     1
102
RTVSPropertyOp37
 70
     1
102
RTVSPropertyOp38
 70
     1
102
RTVSPropertyOp39
 70
     1
102
RTVSPropertyOp40
 70
     1
102
RTVSPropertyOp41
 70
     1
102
RTVSPropertyOp42
 70
     1
102
RTVSPropertyOp43
 70
     1
102
RTVSPropertyOp44
 70
     1
102
RTVSPropertyOp45
 70
     1
102
RTVSPropertyOp46
 70
     1
102
RTVSPropertyOp47
 70
     1
102
RTVSPropertyOp48
 70
     1
102
RTVSPropertyOp49
 70
     1
102
RTVSPropertyOp50
 70
     1
102
RTVSPropertyOp51
 70
     0
102
RTVSPropertyOp52
 70
     0
102
RTVSPropertyOp53
 70
     1
102
RTVSPropertyOp54
 70
     1
102
RTVSPropertyOp55
 70
     1
102
RTVSPropertyOp56
 70
     1
102
RTVSPropertyOp57
 70
     1
102
RTVSPropertyOp58
 70
     1
102
RTVSPropertyOp59
 70
     1
102
RTVSPropertyOp60
 70
     1
102
RTVSPropertyOp61
 70
     1
102
RTVSPropertyOp62
 70
     1
  0
XRECORD
  5
30889
102
{ACAD_REACTORS
330
30888
102
}
330
30888
100
AcDbXrecord
280
     1
102
RTVSPost2010Prop28
280
     0
102
RTVSPost2010PropOp28
 70
     1
102
RTVSPost2010Prop29
280
     1
102
RTVSPost2010PropOp29
 70
     1
102
RTVSPost2010Prop30
280
     1
102
RTVSPost2010PropOp30
 70
     1
102
RTVSPost2010Prop31
280
     0
102
RTVSPost2010PropOp31
 70
     1
102
RTVSPost2010Prop32
280
     0
102
RTVSPost2010PropOp32
 70
     1
102
RTVSPost2010Prop33
280
     0
102
RTVSPost2010PropOp33
 70
     1
102
RTVSPost2010Prop34
280
     0
102
RTVSPost2010PropOp34
 70
     1
102
RTVSPost2010Prop35
280
     0
102
RTVSPost2010PropOp35
 70
     1
102
RTVSPost2010Prop36
280
     0
102
RTVSPost2010PropOp36
 70
     1
102
RTVSPost2010Prop37
 90
       50
102
RTVSPost2010PropOp37
 70
     1
102
RTVSPost2010Prop38
140
0.0
102
RTVSPost2010PropOp38
 70
     1
102
RTVSPost2010Prop39
140
1.0
102
RTVSPost2010PropOp39
 70
     1
102
RTVSPost2010Prop40
 90
        0
102
RTVSPost2010PropOp40
 70
     1
102
RTVSPost2010Prop41ColorIndex
 90
       18
102
RTVSPost2010Prop41ColorRGB
 90
        0
102
RTVSPost2010PropOp41
 70
     1
102
RTVSPost2010Prop42
 90
       50
102
RTVSPost2010PropOp42
 70
     1
102
RTVSPost2010Prop43
 90
        3
102
RTVSPost2010PropOp43
 70
     1
102
RTVSPost2010Prop44ColorIndex
 90
        5
102
RTVSPost2010Prop44ColorRGB
 90
      255
102
RTVSPost2010PropOp44
 70
     1
102
RTVSPost2010Prop45
280
     0
102
RTVSPost2010PropOp45
 70
     1
102
RTVSPost2010Prop46
 90
       50
102
RTVSPost2010PropOp46
 70
     1
102
RTVSPost2010Prop47
 90
       50
102
RTVSPost2010PropOp47
 70
     1
102
RTVSPost2010Prop48
 90
       50
102
RTVSPost2010PropOp48
 70
     1
102
RTVSPost2010Prop49
280
     0
102
RTVSPost2010PropOp49
 70
     1
102
RTVSPost2010Prop50
 90
       50
102
RTVSPost2010PropOp50
 70
     1
102
RTVSPost2010Prop51ColorIndex
 90
      256
102
RTVSPost2010Prop51ColorRGB
 90
-16777216
102
RTVSPost2010PropOp51
 70
     0
102
RTVSPost2010Prop52
140
1.0
102
RTVSPost2010PropOp52
 70
     0
102
RTVSPost2010Prop53
 90
        2
102
RTVSPost2010PropOp53
 70
     1
102
RTVSPost2010Prop54
  1
strokes_ogs.tif
102
RTVSPost2010PropOp54
 70
     1
102
RTVSPost2010Prop55
280
     0
102
RTVSPost2010PropOp55
 70
     1
102
RTVSPost2010Prop56
140
1.0
102
RTVSPost2010PropOp56
 70
     1
102
RTVSPost2010Prop57
140
1.0
102
RTVSPost2010PropOp57
 70
     1
102
RTVSPropertyOp0
 70
     1
102
RTVSPropertyOp1
 70
     1
102
RTVSPropertyOp2
 70
     1
102
RTVSPropertyOp3
 70
     1
102
RTVSPropertyOp4
 70
     1
102
RTVSPropertyOp5
 70
     1
102
RTVSPropertyOp6
 70
     1
102
RTVSPropertyOp7
 70
     1
102
RTVSPropertyOp8
 70
     1
102
RTVSPropertyOp9
 70
     1
102
RTVSPropertyOp10
 70
     1
102
RTVSPropertyOp11
 70
     1
102
RTVSPropertyOp12
 70
     1
102
RTVSPropertyOp13
 70
     1
102
RTVSPropertyOp14
 70
     1
102
RTVSPropertyOp15
 70
     1
102
RTVSPropertyOp16
 70
     1
102
RTVSPropertyOp17
 70
     1
102
RTVSPropertyOp18
 70
     1
102
RTVSPropertyOp19
 70
     1
102
RTVSPropertyOp20
 70
     1
102
RTVSPropertyOp21
 70
     1
102
RTVSPropertyOp22
 70
     1
102
RTVSPropertyOp23
 70
     1
102
RTVSPropertyOp24
 70
     1
102
RTVSPropertyOp25
 70
     1
102
RTVSPropertyOp26
 70
     1
102
RTVSPropertyOp27
 70
     1
102
RTVSPropertyOp28
 70
     1
102
RTVSPropertyOp29
 70
     1
102
RTVSPropertyOp30
 70
     1
102
RTVSPropertyOp31
 70
     1
102
RTVSPropertyOp32
 70
     1
102
RTVSPropertyOp33
 70
     1
102
RTVSPropertyOp34
 70
     1
102
RTVSPropertyOp35
 70
     1
102
RTVSPropertyOp36
 70
     1
102
RTVSPropertyOp37
 70
     1
102
RTVSPropertyOp38
 70
     1
102
RTVSPropertyOp39
 70
     1
102
RTVSPropertyOp40
 70
     1
102
RTVSPropertyOp41
 70
     1
102
RTVSPropertyOp42
 70
     1
102
RTVSPropertyOp43
 70
     1
102
RTVSPropertyOp44
 70
     1
102
RTVSPropertyOp45
 70
     1
102
RTVSPropertyOp46
 70
     1
102
RTVSPropertyOp47
 70
     1
102
RTVSPropertyOp48
 70
     1
102
RTVSPropertyOp49
 70
     1
102
RTVSPropertyOp50
 70
     1
102
RTVSPropertyOp51
 70
     0
102
RTVSPropertyOp52
 70
     0
102
RTVSPropertyOp53
 70
     1
102
RTVSPropertyOp54
 70
     1
102
RTVSPropertyOp55
 70
     1
102
RTVSPropertyOp56
 70
     1
102
RTVSPropertyOp57
 70
     1
102
RTVSPropertyOp58
 70
     1
102
RTVSPropertyOp59
 70
     1
102
RTVSPropertyOp60
 70
     1
102
RTVSPropertyOp61
 70
     1
102
RTVSPropertyOp62
 70
     1
  0
XRECORD
  5
30887
102
{ACAD_REACTORS
330
30886
102
}
330
30886
100
AcDbXrecord
280
     1
102
RTVSPost2010Prop28
280
     0
102
RTVSPost2010PropOp28
 70
     1
102
RTVSPost2010Prop29
280
     1
102
RTVSPost2010PropOp29
 70
     1
102
RTVSPost2010Prop30
280
     1
102
RTVSPost2010PropOp30
 70
     1
102
RTVSPost2010Prop31
280
     0
102
RTVSPost2010PropOp31
 70
     1
102
RTVSPost2010Prop32
280
     0
102
RTVSPost2010PropOp32
 70
     1
102
RTVSPost2010Prop33
280
     0
102
RTVSPost2010PropOp33
 70
     1
102
RTVSPost2010Prop34
280
     0
102
RTVSPost2010PropOp34
 70
     1
102
RTVSPost2010Prop35
280
     0
102
RTVSPost2010PropOp35
 70
     1
102
RTVSPost2010Prop36
280
     0
102
RTVSPost2010PropOp36
 70
     1
102
RTVSPost2010Prop37
 90
       50
102
RTVSPost2010PropOp37
 70
     1
102
RTVSPost2010Prop38
140
0.0
102
RTVSPost2010PropOp38
 70
     1
102
RTVSPost2010Prop39
140
1.0
102
RTVSPost2010PropOp39
 70
     1
102
RTVSPost2010Prop40
 90
        0
102
RTVSPost2010PropOp40
 70
     1
102
RTVSPost2010Prop41ColorIndex
 90
       18
102
RTVSPost2010Prop41ColorRGB
 90
        0
102
RTVSPost2010PropOp41
 70
     1
102
RTVSPost2010Prop42
 90
       50
102
RTVSPost2010PropOp42
 70
     1
102
RTVSPost2010Prop43
 90
        3
102
RTVSPost2010PropOp43
 70
     1
102
RTVSPost2010Prop44ColorIndex
 90
        5
102
RTVSPost2010Prop44ColorRGB
 90
      255
102
RTVSPost2010PropOp44
 70
     1
102
RTVSPost2010Prop45
280
     0
102
RTVSPost2010PropOp45
 70
     1
102
RTVSPost2010Prop46
 90
       50
102
RTVSPost2010PropOp46
 70
     1
102
RTVSPost2010Prop47
 90
       50
102
RTVSPost2010PropOp47
 70
     1
102
RTVSPost2010Prop48
 90
       50
102
RTVSPost2010PropOp48
 70
     1
102
RTVSPost2010Prop49
280
     0
102
RTVSPost2010PropOp49
 70
     1
102
RTVSPost2010Prop50
 90
       50
102
RTVSPost2010PropOp50
 70
     1
102
RTVSPost2010Prop51ColorIndex
 90
      256
102
RTVSPost2010Prop51ColorRGB
 90
-16777216
102
RTVSPost2010PropOp51
 70
     0
102
RTVSPost2010Prop52
140
1.0
102
RTVSPost2010PropOp52
 70
     0
102
RTVSPost2010Prop53
 90
        2
102
RTVSPost2010PropOp53
 70
     1
102
RTVSPost2010Prop54
  1
strokes_ogs.tif
102
RTVSPost2010PropOp54
 70
     1
102
RTVSPost2010Prop55
280
     0
102
RTVSPost2010PropOp55
 70
     1
102
RTVSPost2010Prop56
140
1.0
102
RTVSPost2010PropOp56
 70
     1
102
RTVSPost2010Prop57
140
1.0
102
RTVSPost2010PropOp57
 70
     1
102
RTVSPropertyOp0
 70
     1
102
RTVSPropertyOp1
 70
     1
102
RTVSPropertyOp2
 70
     1
102
RTVSPropertyOp3
 70
     1
102
RTVSPropertyOp4
 70
     1
102
RTVSPropertyOp5
 70
     1
102
RTVSPropertyOp6
 70
     1
102
RTVSPropertyOp7
 70
     1
102
RTVSPropertyOp8
 70
     1
102
RTVSPropertyOp9
 70
     1
102
RTVSPropertyOp10
 70
     1
102
RTVSPropertyOp11
 70
     1
102
RTVSPropertyOp12
 70
     1
102
RTVSPropertyOp13
 70
     1
102
RTVSPropertyOp14
 70
     1
102
RTVSPropertyOp15
 70
     1
102
RTVSPropertyOp16
 70
     1
102
RTVSPropertyOp17
 70
     1
102
RTVSPropertyOp18
 70
     1
102
RTVSPropertyOp19
 70
     1
102
RTVSPropertyOp20
 70
     1
102
RTVSPropertyOp21
 70
     1
102
RTVSPropertyOp22
 70
     1
102
RTVSPropertyOp23
 70
     1
102
RTVSPropertyOp24
 70
     1
102
RTVSPropertyOp25
 70
     1
102
RTVSPropertyOp26
 70
     1
102
RTVSPropertyOp27
 70
     1
102
RTVSPropertyOp28
 70
     1
102
RTVSPropertyOp29
 70
     1
102
RTVSPropertyOp30
 70
     1
102
RTVSPropertyOp31
 70
     1
102
RTVSPropertyOp32
 70
     1
102
RTVSPropertyOp33
 70
     1
102
RTVSPropertyOp34
 70
     1
102
RTVSPropertyOp35
 70
     1
102
RTVSPropertyOp36
 70
     1
102
RTVSPropertyOp37
 70
     1
102
RTVSPropertyOp38
 70
     1
102
RTVSPropertyOp39
 70
     1
102
RTVSPropertyOp40
 70
     1
102
RTVSPropertyOp41
 70
     1
102
RTVSPropertyOp42
 70
     1
102
RTVSPropertyOp43
 70
     1
102
RTVSPropertyOp44
 70
     1
102
RTVSPropertyOp45
 70
     1
102
RTVSPropertyOp46
 70
     1
102
RTVSPropertyOp47
 70
     1
102
RTVSPropertyOp48
 70
     1
102
RTVSPropertyOp49
 70
     1
102
RTVSPropertyOp50
 70
     1
102
RTVSPropertyOp51
 70
     0
102
RTVSPropertyOp52
 70
     0
102
RTVSPropertyOp53
 70
     1
102
RTVSPropertyOp54
 70
     1
102
RTVSPropertyOp55
 70
     1
102
RTVSPropertyOp56
 70
     1
102
RTVSPropertyOp57
 70
     1
102
RTVSPropertyOp58
 70
     1
102
RTVSPropertyOp59
 70
     1
102
RTVSPropertyOp60
 70
     1
102
RTVSPropertyOp61
 70
     1
102
RTVSPropertyOp62
 70
     1
  0
XRECORD
  5
30881
102
{ACAD_REACTORS
330
30880
102
}
330
30880
100
AcDbXrecord
280
     1
102
RTVSPost2010Prop28
280
     0
102
RTVSPost2010PropOp28
 70
     1
102
RTVSPost2010Prop29
280
     1
102
RTVSPost2010PropOp29
 70
     1
102
RTVSPost2010Prop30
280
     1
102
RTVSPost2010PropOp30
 70
     1
102
RTVSPost2010Prop31
280
     0
102
RTVSPost2010PropOp31
 70
     1
102
RTVSPost2010Prop32
280
     0
102
RTVSPost2010PropOp32
 70
     1
102
RTVSPost2010Prop33
280
     0
102
RTVSPost2010PropOp33
 70
     1
102
RTVSPost2010Prop34
280
     0
102
RTVSPost2010PropOp34
 70
     1
102
RTVSPost2010Prop35
280
     0
102
RTVSPost2010PropOp35
 70
     1
102
RTVSPost2010Prop36
280
     0
102
RTVSPost2010PropOp36
 70
     1
102
RTVSPost2010Prop37
 90
       50
102
RTVSPost2010PropOp37
 70
     1
102
RTVSPost2010Prop38
140
0.0
102
RTVSPost2010PropOp38
 70
     1
102
RTVSPost2010Prop39
140
1.0
102
RTVSPost2010PropOp39
 70
     1
102
RTVSPost2010Prop40
 90
        0
102
RTVSPost2010PropOp40
 70
     1
102
RTVSPost2010Prop41ColorIndex
 90
       18
102
RTVSPost2010Prop41ColorRGB
 90
        0
102
RTVSPost2010PropOp41
 70
     1
102
RTVSPost2010Prop42
 90
       50
102
RTVSPost2010PropOp42
 70
     1
102
RTVSPost2010Prop43
 90
        3
102
RTVSPost2010PropOp43
 70
     1
102
RTVSPost2010Prop44ColorIndex
 90
        5
102
RTVSPost2010Prop44ColorRGB
 90
      255
102
RTVSPost2010PropOp44
 70
     1
102
RTVSPost2010Prop45
280
     0
102
RTVSPost2010PropOp45
 70
     1
102
RTVSPost2010Prop46
 90
       50
102
RTVSPost2010PropOp46
 70
     1
102
RTVSPost2010Prop47
 90
       50
102
RTVSPost2010PropOp47
 70
     1
102
RTVSPost2010Prop48
 90
       50
102
RTVSPost2010PropOp48
 70
     1
102
RTVSPost2010Prop49
280
     0
102
RTVSPost2010PropOp49
 70
     1
102
RTVSPost2010Prop50
 90
       50
102
RTVSPost2010PropOp50
 70
     1
102
RTVSPost2010Prop51ColorIndex
 90
      256
102
RTVSPost2010Prop51ColorRGB
 90
-16777216
102
RTVSPost2010PropOp51
 70
     0
102
RTVSPost2010Prop52
140
1.0
102
RTVSPost2010PropOp52
 70
     0
102
RTVSPost2010Prop53
 90
        2
102
RTVSPost2010PropOp53
 70
     1
102
RTVSPost2010Prop54
  1
strokes_ogs.tif
102
RTVSPost2010PropOp54
 70
     1
102
RTVSPost2010Prop55
280
     0
102
RTVSPost2010PropOp55
 70
     1
102
RTVSPost2010Prop56
140
1.0
102
RTVSPost2010PropOp56
 70
     1
102
RTVSPost2010Prop57
140
1.0
102
RTVSPost2010PropOp57
 70
     1
102
RTVSPropertyOp0
 70
     1
102
RTVSPropertyOp1
 70
     1
102
RTVSPropertyOp2
 70
     1
102
RTVSPropertyOp3
 70
     1
102
RTVSPropertyOp4
 70
     1
102
RTVSPropertyOp5
 70
     1
102
RTVSPropertyOp6
 70
     1
102
RTVSPropertyOp7
 70
     1
102
RTVSPropertyOp8
 70
     1
102
RTVSPropertyOp9
 70
     1
102
RTVSPropertyOp10
 70
     1
102
RTVSPropertyOp11
 70
     1
102
RTVSPropertyOp12
 70
     1
102
RTVSPropertyOp13
 70
     1
102
RTVSPropertyOp14
 70
     1
102
RTVSPropertyOp15
 70
     1
102
RTVSPropertyOp16
 70
     1
102
RTVSPropertyOp17
 70
     1
102
RTVSPropertyOp18
 70
     1
102
RTVSPropertyOp19
 70
     1
102
RTVSPropertyOp20
 70
     1
102
RTVSPropertyOp21
 70
     1
102
RTVSPropertyOp22
 70
     1
102
RTVSPropertyOp23
 70
     1
102
RTVSPropertyOp24
 70
     1
102
RTVSPropertyOp25
 70
     1
102
RTVSPropertyOp26
 70
     1
102
RTVSPropertyOp27
 70
     1
102
RTVSPropertyOp28
 70
     1
102
RTVSPropertyOp29
 70
     1
102
RTVSPropertyOp30
 70
     1
102
RTVSPropertyOp31
 70
     1
102
RTVSPropertyOp32
 70
     1
102
RTVSPropertyOp33
 70
     1
102
RTVSPropertyOp34
 70
     1
102
RTVSPropertyOp35
 70
     1
102
RTVSPropertyOp36
 70
     1
102
RTVSPropertyOp37
 70
     1
102
RTVSPropertyOp38
 70
     1
102
RTVSPropertyOp39
 70
     1
102
RTVSPropertyOp40
 70
     1
102
RTVSPropertyOp41
 70
     1
102
RTVSPropertyOp42
 70
     1
102
RTVSPropertyOp43
 70
     1
102
RTVSPropertyOp44
 70
     1
102
RTVSPropertyOp45
 70
     1
102
RTVSPropertyOp46
 70
     1
102
RTVSPropertyOp47
 70
     1
102
RTVSPropertyOp48
 70
     1
102
RTVSPropertyOp49
 70
     1
102
RTVSPropertyOp50
 70
     1
102
RTVSPropertyOp51
 70
     0
102
RTVSPropertyOp52
 70
     0
102
RTVSPropertyOp53
 70
     1
102
RTVSPropertyOp54
 70
     1
102
RTVSPropertyOp55
 70
     1
102
RTVSPropertyOp56
 70
     1
102
RTVSPropertyOp57
 70
     1
102
RTVSPropertyOp58
 70
     1
102
RTVSPropertyOp59
 70
     1
102
RTVSPropertyOp60
 70
     1
102
RTVSPropertyOp61
 70
     1
102
RTVSPropertyOp62
 70
     1
  0
XRECORD
  5
30883
102
{ACAD_REACTORS
330
30882
102
}
330
30882
100
AcDbXrecord
280
     1
102
RTVSPost2010Prop28
280
     0
102
RTVSPost2010PropOp28
 70
     1
102
RTVSPost2010Prop29
280
     1
102
RTVSPost2010PropOp29
 70
     1
102
RTVSPost2010Prop30
280
     1
102
RTVSPost2010PropOp30
 70
     1
102
RTVSPost2010Prop31
280
     0
102
RTVSPost2010PropOp31
 70
     1
102
RTVSPost2010Prop32
280
     0
102
RTVSPost2010PropOp32
 70
     1
102
RTVSPost2010Prop33
280
     0
102
RTVSPost2010PropOp33
 70
     1
102
RTVSPost2010Prop34
280
     0
102
RTVSPost2010PropOp34
 70
     1
102
RTVSPost2010Prop35
280
     0
102
RTVSPost2010PropOp35
 70
     1
102
RTVSPost2010Prop36
280
     0
102
RTVSPost2010PropOp36
 70
     1
102
RTVSPost2010Prop37
 90
       50
102
RTVSPost2010PropOp37
 70
     1
102
RTVSPost2010Prop38
140
0.0
102
RTVSPost2010PropOp38
 70
     1
102
RTVSPost2010Prop39
140
1.0
102
RTVSPost2010PropOp39
 70
     1
102
RTVSPost2010Prop40
 90
        0
102
RTVSPost2010PropOp40
 70
     1
102
RTVSPost2010Prop41ColorIndex
 90
       18
102
RTVSPost2010Prop41ColorRGB
 90
        0
102
RTVSPost2010PropOp41
 70
     1
102
RTVSPost2010Prop42
 90
       50
102
RTVSPost2010PropOp42
 70
     1
102
RTVSPost2010Prop43
 90
        3
102
RTVSPost2010PropOp43
 70
     1
102
RTVSPost2010Prop44ColorIndex
 90
        5
102
RTVSPost2010Prop44ColorRGB
 90
      255
102
RTVSPost2010PropOp44
 70
     1
102
RTVSPost2010Prop45
280
     0
102
RTVSPost2010PropOp45
 70
     1
102
RTVSPost2010Prop46
 90
       50
102
RTVSPost2010PropOp46
 70
     1
102
RTVSPost2010Prop47
 90
       50
102
RTVSPost2010PropOp47
 70
     1
102
RTVSPost2010Prop48
 90
       50
102
RTVSPost2010PropOp48
 70
     1
102
RTVSPost2010Prop49
280
     0
102
RTVSPost2010PropOp49
 70
     1
102
RTVSPost2010Prop50
 90
       50
102
RTVSPost2010PropOp50
 70
     1
102
RTVSPost2010Prop51ColorIndex
 90
      256
102
RTVSPost2010Prop51ColorRGB
 90
-16777216
102
RTVSPost2010PropOp51
 70
     0
102
RTVSPost2010Prop52
140
1.0
102
RTVSPost2010PropOp52
 70
     0
102
RTVSPost2010Prop53
 90
        2
102
RTVSPost2010PropOp53
 70
     1
102
RTVSPost2010Prop54
  1
strokes_ogs.tif
102
RTVSPost2010PropOp54
 70
     1
102
RTVSPost2010Prop55
280
     0
102
RTVSPost2010PropOp55
 70
     1
102
RTVSPost2010Prop56
140
1.0
102
RTVSPost2010PropOp56
 70
     1
102
RTVSPost2010Prop57
140
1.0
102
RTVSPost2010PropOp57
 70
     1
102
RTVSPropertyOp0
 70
     1
102
RTVSPropertyOp1
 70
     1
102
RTVSPropertyOp2
 70
     1
102
RTVSPropertyOp3
 70
     1
102
RTVSPropertyOp4
 70
     1
102
RTVSPropertyOp5
 70
     1
102
RTVSPropertyOp6
 70
     1
102
RTVSPropertyOp7
 70
     1
102
RTVSPropertyOp8
 70
     1
102
RTVSPropertyOp9
 70
     1
102
RTVSPropertyOp10
 70
     1
102
RTVSPropertyOp11
 70
     1
102
RTVSPropertyOp12
 70
     1
102
RTVSPropertyOp13
 70
     1
102
RTVSPropertyOp14
 70
     1
102
RTVSPropertyOp15
 70
     1
102
RTVSPropertyOp16
 70
     1
102
RTVSPropertyOp17
 70
     1
102
RTVSPropertyOp18
 70
     1
102
RTVSPropertyOp19
 70
     1
102
RTVSPropertyOp20
 70
     1
102
RTVSPropertyOp21
 70
     1
102
RTVSPropertyOp22
 70
     1
102
RTVSPropertyOp23
 70
     1
102
RTVSPropertyOp24
 70
     1
102
RTVSPropertyOp25
 70
     1
102
RTVSPropertyOp26
 70
     1
102
RTVSPropertyOp27
 70
     1
102
RTVSPropertyOp28
 70
     1
102
RTVSPropertyOp29
 70
     1
102
RTVSPropertyOp30
 70
     1
102
RTVSPropertyOp31
 70
     1
102
RTVSPropertyOp32
 70
     1
102
RTVSPropertyOp33
 70
     1
102
RTVSPropertyOp34
 70
     1
102
RTVSPropertyOp35
 70
     1
102
RTVSPropertyOp36
 70
     1
102
RTVSPropertyOp37
 70
     1
102
RTVSPropertyOp38
 70
     1
102
RTVSPropertyOp39
 70
     1
102
RTVSPropertyOp40
 70
     1
102
RTVSPropertyOp41
 70
     1
102
RTVSPropertyOp42
 70
     1
102
RTVSPropertyOp43
 70
     1
102
RTVSPropertyOp44
 70
     1
102
RTVSPropertyOp45
 70
     1
102
RTVSPropertyOp46
 70
     1
102
RTVSPropertyOp47
 70
     1
102
RTVSPropertyOp48
 70
     1
102
RTVSPropertyOp49
 70
     1
102
RTVSPropertyOp50
 70
     1
102
RTVSPropertyOp51
 70
     0
102
RTVSPropertyOp52
 70
     0
102
RTVSPropertyOp53
 70
     1
102
RTVSPropertyOp54
 70
     1
102
RTVSPropertyOp55
 70
     1
102
RTVSPropertyOp56
 70
     1
102
RTVSPropertyOp57
 70
     1
102
RTVSPropertyOp58
 70
     1
102
RTVSPropertyOp59
 70
     1
102
RTVSPropertyOp60
 70
     1
102
RTVSPropertyOp61
 70
     1
102
RTVSPropertyOp62
 70
     1
  0
XRECORD
  5
30879
102
{ACAD_REACTORS
330
30878
102
}
330
30878
100
AcDbXrecord
280
     1
102
RTVSPost2010Prop28
280
     0
102
RTVSPost2010PropOp28
 70
     1
102
RTVSPost2010Prop29
280
     1
102
RTVSPost2010PropOp29
 70
     1
102
RTVSPost2010Prop30
280
     1
102
RTVSPost2010PropOp30
 70
     1
102
RTVSPost2010Prop31
280
     0
102
RTVSPost2010PropOp31
 70
     1
102
RTVSPost2010Prop32
280
     0
102
RTVSPost2010PropOp32
 70
     1
102
RTVSPost2010Prop33
280
     0
102
RTVSPost2010PropOp33
 70
     1
102
RTVSPost2010Prop34
280
     0
102
RTVSPost2010PropOp34
 70
     1
102
RTVSPost2010Prop35
280
     0
102
RTVSPost2010PropOp35
 70
     1
102
RTVSPost2010Prop36
280
     0
102
RTVSPost2010PropOp36
 70
     1
102
RTVSPost2010Prop37
 90
       50
102
RTVSPost2010PropOp37
 70
     1
102
RTVSPost2010Prop38
140
0.0
102
RTVSPost2010PropOp38
 70
     1
102
RTVSPost2010Prop39
140
1.0
102
RTVSPost2010PropOp39
 70
     1
102
RTVSPost2010Prop40
 90
        0
102
RTVSPost2010PropOp40
 70
     1
102
RTVSPost2010Prop41ColorIndex
 90
       18
102
RTVSPost2010Prop41ColorRGB
 90
        0
102
RTVSPost2010PropOp41
 70
     1
102
RTVSPost2010Prop42
 90
       50
102
RTVSPost2010PropOp42
 70
     1
102
RTVSPost2010Prop43
 90
        3
102
RTVSPost2010PropOp43
 70
     1
102
RTVSPost2010Prop44ColorIndex
 90
        5
102
RTVSPost2010Prop44ColorRGB
 90
      255
102
RTVSPost2010PropOp44
 70
     1
102
RTVSPost2010Prop45
280
     0
102
RTVSPost2010PropOp45
 70
     1
102
RTVSPost2010Prop46
 90
       50
102
RTVSPost2010PropOp46
 70
     1
102
RTVSPost2010Prop47
 90
       50
102
RTVSPost2010PropOp47
 70
     1
102
RTVSPost2010Prop48
 90
       50
102
RTVSPost2010PropOp48
 70
     1
102
RTVSPost2010Prop49
280
     0
102
RTVSPost2010PropOp49
 70
     1
102
RTVSPost2010Prop50
 90
       50
102
RTVSPost2010PropOp50
 70
     1
102
RTVSPost2010Prop51ColorIndex
 90
      256
102
RTVSPost2010Prop51ColorRGB
 90
-16777216
102
RTVSPost2010PropOp51
 70
     0
102
RTVSPost2010Prop52
140
1.0
102
RTVSPost2010PropOp52
 70
     0
102
RTVSPost2010Prop53
 90
        2
102
RTVSPost2010PropOp53
 70
     1
102
RTVSPost2010Prop54
  1
strokes_ogs.tif
102
RTVSPost2010PropOp54
 70
     1
102
RTVSPost2010Prop55
280
     0
102
RTVSPost2010PropOp55
 70
     1
102
RTVSPost2010Prop56
140
1.0
102
RTVSPost2010PropOp56
 70
     1
102
RTVSPost2010Prop57
140
1.0
102
RTVSPost2010PropOp57
 70
     1
102
RTVSPropertyOp0
 70
     1
102
RTVSPropertyOp1
 70
     1
102
RTVSPropertyOp2
 70
     1
102
RTVSPropertyOp3
 70
     1
102
RTVSPropertyOp4
 70
     1
102
RTVSPropertyOp5
 70
     1
102
RTVSPropertyOp6
 70
     1
102
RTVSPropertyOp7
 70
     1
102
RTVSPropertyOp8
 70
     1
102
RTVSPropertyOp9
 70
     1
102
RTVSPropertyOp10
 70
     1
102
RTVSPropertyOp11
 70
     1
102
RTVSPropertyOp12
 70
     1
102
RTVSPropertyOp13
 70
     1
102
RTVSPropertyOp14
 70
     1
102
RTVSPropertyOp15
 70
     1
102
RTVSPropertyOp16
 70
     1
102
RTVSPropertyOp17
 70
     1
102
RTVSPropertyOp18
 70
     1
102
RTVSPropertyOp19
 70
     1
102
RTVSPropertyOp20
 70
     1
102
RTVSPropertyOp21
 70
     1
102
RTVSPropertyOp22
 70
     1
102
RTVSPropertyOp23
 70
     1
102
RTVSPropertyOp24
 70
     1
102
RTVSPropertyOp25
 70
     1
102
RTVSPropertyOp26
 70
     1
102
RTVSPropertyOp27
 70
     1
102
RTVSPropertyOp28
 70
     1
102
RTVSPropertyOp29
 70
     1
102
RTVSPropertyOp30
 70
     1
102
RTVSPropertyOp31
 70
     1
102
RTVSPropertyOp32
 70
     1
102
RTVSPropertyOp33
 70
     1
102
RTVSPropertyOp34
 70
     1
102
RTVSPropertyOp35
 70
     1
102
RTVSPropertyOp36
 70
     1
102
RTVSPropertyOp37
 70
     1
102
RTVSPropertyOp38
 70
     1
102
RTVSPropertyOp39
 70
     1
102
RTVSPropertyOp40
 70
     1
102
RTVSPropertyOp41
 70
     1
102
RTVSPropertyOp42
 70
     1
102
RTVSPropertyOp43
 70
     1
102
RTVSPropertyOp44
 70
     1
102
RTVSPropertyOp45
 70
     1
102
RTVSPropertyOp46
 70
     1
102
RTVSPropertyOp47
 70
     1
102
RTVSPropertyOp48
 70
     1
102
RTVSPropertyOp49
 70
     1
102
RTVSPropertyOp50
 70
     1
102
RTVSPropertyOp51
 70
     0
102
RTVSPropertyOp52
 70
     0
102
RTVSPropertyOp53
 70
     1
102
RTVSPropertyOp54
 70
     1
102
RTVSPropertyOp55
 70
     1
102
RTVSPropertyOp56
 70
     1
102
RTVSPropertyOp57
 70
     1
102
RTVSPropertyOp58
 70
     1
102
RTVSPropertyOp59
 70
     1
102
RTVSPropertyOp60
 70
     1
102
RTVSPropertyOp61
 70
     1
102
RTVSPropertyOp62
 70
     1
  0
XRECORD
  5
3086D
102
{ACAD_REACTORS
330
3086C
102
}
330
3086C
100
AcDbXrecord
280
     1
102
RTVSPost2010Prop28
280
     0
102
RTVSPost2010PropOp28
 70
     1
102
RTVSPost2010Prop29
280
     1
102
RTVSPost2010PropOp29
 70
     1
102
RTVSPost2010Prop30
280
     1
102
RTVSPost2010PropOp30
 70
     1
102
RTVSPost2010Prop31
280
     0
102
RTVSPost2010PropOp31
 70
     1
102
RTVSPost2010Prop32
280
     0
102
RTVSPost2010PropOp32
 70
     1
102
RTVSPost2010Prop33
280
     0
102
RTVSPost2010PropOp33
 70
     1
102
RTVSPost2010Prop34
280
     0
102
RTVSPost2010PropOp34
 70
     1
102
RTVSPost2010Prop35
280
     0
102
RTVSPost2010PropOp35
 70
     1
102
RTVSPost2010Prop36
280
     0
102
RTVSPost2010PropOp36
 70
     1
102
RTVSPost2010Prop37
 90
       50
102
RTVSPost2010PropOp37
 70
     1
102
RTVSPost2010Prop38
140
0.0
102
RTVSPost2010PropOp38
 70
     1
102
RTVSPost2010Prop39
140
1.0
102
RTVSPost2010PropOp39
 70
     1
102
RTVSPost2010Prop40
 90
        0
102
RTVSPost2010PropOp40
 70
     1
102
RTVSPost2010Prop41ColorIndex
 90
       18
102
RTVSPost2010Prop41ColorRGB
 90
        0
102
RTVSPost2010PropOp41
 70
     1
102
RTVSPost2010Prop42
 90
       50
102
RTVSPost2010PropOp42
 70
     1
102
RTVSPost2010Prop43
 90
        3
102
RTVSPost2010PropOp43
 70
     1
102
RTVSPost2010Prop44ColorIndex
 90
        5
102
RTVSPost2010Prop44ColorRGB
 90
      255
102
RTVSPost2010PropOp44
 70
     1
102
RTVSPost2010Prop45
280
     0
102
RTVSPost2010PropOp45
 70
     1
102
RTVSPost2010Prop46
 90
       50
102
RTVSPost2010PropOp46
 70
     1
102
RTVSPost2010Prop47
 90
       50
102
RTVSPost2010PropOp47
 70
     1
102
RTVSPost2010Prop48
 90
       50
102
RTVSPost2010PropOp48
 70
     1
102
RTVSPost2010Prop49
280
     0
102
RTVSPost2010PropOp49
 70
     1
102
RTVSPost2010Prop50
 90
       50
102
RTVSPost2010PropOp50
 70
     1
102
RTVSPost2010Prop51ColorIndex
 90
      256
102
RTVSPost2010Prop51ColorRGB
 90
-16777216
102
RTVSPost2010PropOp51
 70
     0
102
RTVSPost2010Prop52
140
1.0
102
RTVSPost2010PropOp52
 70
     0
102
RTVSPost2010Prop53
 90
        2
102
RTVSPost2010PropOp53
 70
     1
102
RTVSPost2010Prop54
  1
strokes_ogs.tif
102
RTVSPost2010PropOp54
 70
     1
102
RTVSPost2010Prop55
280
     0
102
RTVSPost2010PropOp55
 70
     1
102
RTVSPost2010Prop56
140
1.0
102
RTVSPost2010PropOp56
 70
     1
102
RTVSPost2010Prop57
140
1.0
102
RTVSPost2010PropOp57
 70
     1
102
RTVSPropertyOp0
 70
     1
102
RTVSPropertyOp1
 70
     1
102
RTVSPropertyOp2
 70
     1
102
RTVSPropertyOp3
 70
     1
102
RTVSPropertyOp4
 70
     1
102
RTVSPropertyOp5
 70
     1
102
RTVSPropertyOp6
 70
     1
102
RTVSPropertyOp7
 70
     1
102
RTVSPropertyOp8
 70
     1
102
RTVSPropertyOp9
 70
     1
102
RTVSPropertyOp10
 70
     1
102
RTVSPropertyOp11
 70
     1
102
RTVSPropertyOp12
 70
     1
102
RTVSPropertyOp13
 70
     1
102
RTVSPropertyOp14
 70
     1
102
RTVSPropertyOp15
 70
     1
102
RTVSPropertyOp16
 70
     1
102
RTVSPropertyOp17
 70
     1
102
RTVSPropertyOp18
 70
     1
102
RTVSPropertyOp19
 70
     1
102
RTVSPropertyOp20
 70
     1
102
RTVSPropertyOp21
 70
     1
102
RTVSPropertyOp22
 70
     1
102
RTVSPropertyOp23
 70
     1
102
RTVSPropertyOp24
 70
     1
102
RTVSPropertyOp25
 70
     1
102
RTVSPropertyOp26
 70
     1
102
RTVSPropertyOp27
 70
     1
102
RTVSPropertyOp28
 70
     1
102
RTVSPropertyOp29
 70
     1
102
RTVSPropertyOp30
 70
     1
102
RTVSPropertyOp31
 70
     1
102
RTVSPropertyOp32
 70
     1
102
RTVSPropertyOp33
 70
     1
102
RTVSPropertyOp34
 70
     1
102
RTVSPropertyOp35
 70
     1
102
RTVSPropertyOp36
 70
     1
102
RTVSPropertyOp37
 70
     1
102
RTVSPropertyOp38
 70
     1
102
RTVSPropertyOp39
 70
     1
102
RTVSPropertyOp40
 70
     1
102
RTVSPropertyOp41
 70
     1
102
RTVSPropertyOp42
 70
     1
102
RTVSPropertyOp43
 70
     1
102
RTVSPropertyOp44
 70
     1
102
RTVSPropertyOp45
 70
     1
102
RTVSPropertyOp46
 70
     1
102
RTVSPropertyOp47
 70
     1
102
RTVSPropertyOp48
 70
     1
102
RTVSPropertyOp49
 70
     1
102
RTVSPropertyOp50
 70
     1
102
RTVSPropertyOp51
 70
     0
102
RTVSPropertyOp52
 70
     0
102
RTVSPropertyOp53
 70
     1
102
RTVSPropertyOp54
 70
     1
102
RTVSPropertyOp55
 70
     1
102
RTVSPropertyOp56
 70
     1
102
RTVSPropertyOp57
 70
     1
102
RTVSPropertyOp58
 70
     1
102
RTVSPropertyOp59
 70
     1
102
RTVSPropertyOp60
 70
     1
102
RTVSPropertyOp61
 70
     1
102
RTVSPropertyOp62
 70
     1
  0
XRECORD
  5
30885
102
{ACAD_REACTORS
330
30884
102
}
330
30884
100
AcDbXrecord
280
     1
102
RTVSPost2010Prop28
280
     0
102
RTVSPost2010PropOp28
 70
     1
102
RTVSPost2010Prop29
280
     1
102
RTVSPost2010PropOp29
 70
     1
102
RTVSPost2010Prop30
280
     1
102
RTVSPost2010PropOp30
 70
     1
102
RTVSPost2010Prop31
280
     0
102
RTVSPost2010PropOp31
 70
     1
102
RTVSPost2010Prop32
280
     0
102
RTVSPost2010PropOp32
 70
     1
102
RTVSPost2010Prop33
280
     0
102
RTVSPost2010PropOp33
 70
     1
102
RTVSPost2010Prop34
280
     0
102
RTVSPost2010PropOp34
 70
     1
102
RTVSPost2010Prop35
280
     0
102
RTVSPost2010PropOp35
 70
     1
102
RTVSPost2010Prop36
280
     0
102
RTVSPost2010PropOp36
 70
     1
102
RTVSPost2010Prop37
 90
       50
102
RTVSPost2010PropOp37
 70
     1
102
RTVSPost2010Prop38
140
0.0
102
RTVSPost2010PropOp38
 70
     1
102
RTVSPost2010Prop39
140
1.0
102
RTVSPost2010PropOp39
 70
     1
102
RTVSPost2010Prop40
 90
        0
102
RTVSPost2010PropOp40
 70
     1
102
RTVSPost2010Prop41ColorIndex
 90
       18
102
RTVSPost2010Prop41ColorRGB
 90
        0
102
RTVSPost2010PropOp41
 70
     1
102
RTVSPost2010Prop42
 90
       50
102
RTVSPost2010PropOp42
 70
     1
102
RTVSPost2010Prop43
 90
        3
102
RTVSPost2010PropOp43
 70
     1
102
RTVSPost2010Prop44ColorIndex
 90
        5
102
RTVSPost2010Prop44ColorRGB
 90
      255
102
RTVSPost2010PropOp44
 70
     1
102
RTVSPost2010Prop45
280
     0
102
RTVSPost2010PropOp45
 70
     1
102
RTVSPost2010Prop46
 90
       50
102
RTVSPost2010PropOp46
 70
     1
102
RTVSPost2010Prop47
 90
       50
102
RTVSPost2010PropOp47
 70
     1
102
RTVSPost2010Prop48
 90
       50
102
RTVSPost2010PropOp48
 70
     1
102
RTVSPost2010Prop49
280
     0
102
RTVSPost2010PropOp49
 70
     1
102
RTVSPost2010Prop50
 90
       50
102
RTVSPost2010PropOp50
 70
     1
102
RTVSPost2010Prop51ColorIndex
 90
      256
102
RTVSPost2010Prop51ColorRGB
 90
-16777216
102
RTVSPost2010PropOp51
 70
     0
102
RTVSPost2010Prop52
140
1.0
102
RTVSPost2010PropOp52
 70
     0
102
RTVSPost2010Prop53
 90
        2
102
RTVSPost2010PropOp53
 70
     1
102
RTVSPost2010Prop54
  1
strokes_ogs.tif
102
RTVSPost2010PropOp54
 70
     1
102
RTVSPost2010Prop55
280
     0
102
RTVSPost2010PropOp55
 70
     1
102
RTVSPost2010Prop56
140
1.0
102
RTVSPost2010PropOp56
 70
     1
102
RTVSPost2010Prop57
140
1.0
102
RTVSPost2010PropOp57
 70
     1
102
RTVSPropertyOp0
 70
     1
102
RTVSPropertyOp1
 70
     1
102
RTVSPropertyOp2
 70
     1
102
RTVSPropertyOp3
 70
     1
102
RTVSPropertyOp4
 70
     1
102
RTVSPropertyOp5
 70
     1
102
RTVSPropertyOp6
 70
     1
102
RTVSPropertyOp7
 70
     1
102
RTVSPropertyOp8
 70
     1
102
RTVSPropertyOp9
 70
     1
102
RTVSPropertyOp10
 70
     1
102
RTVSPropertyOp11
 70
     1
102
RTVSPropertyOp12
 70
     1
102
RTVSPropertyOp13
 70
     1
102
RTVSPropertyOp14
 70
     1
102
RTVSPropertyOp15
 70
     1
102
RTVSPropertyOp16
 70
     1
102
RTVSPropertyOp17
 70
     1
102
RTVSPropertyOp18
 70
     1
102
RTVSPropertyOp19
 70
     1
102
RTVSPropertyOp20
 70
     1
102
RTVSPropertyOp21
 70
     1
102
RTVSPropertyOp22
 70
     1
102
RTVSPropertyOp23
 70
     1
102
RTVSPropertyOp24
 70
     1
102
RTVSPropertyOp25
 70
     1
102
RTVSPropertyOp26
 70
     1
102
RTVSPropertyOp27
 70
     1
102
RTVSPropertyOp28
 70
     1
102
RTVSPropertyOp29
 70
     1
102
RTVSPropertyOp30
 70
     1
102
RTVSPropertyOp31
 70
     1
102
RTVSPropertyOp32
 70
     1
102
RTVSPropertyOp33
 70
     1
102
RTVSPropertyOp34
 70
     1
102
RTVSPropertyOp35
 70
     1
102
RTVSPropertyOp36
 70
     1
102
RTVSPropertyOp37
 70
     1
102
RTVSPropertyOp38
 70
     1
102
RTVSPropertyOp39
 70
     1
102
RTVSPropertyOp40
 70
     1
102
RTVSPropertyOp41
 70
     1
102
RTVSPropertyOp42
 70
     1
102
RTVSPropertyOp43
 70
     1
102
RTVSPropertyOp44
 70
     1
102
RTVSPropertyOp45
 70
     1
102
RTVSPropertyOp46
 70
     1
102
RTVSPropertyOp47
 70
     1
102
RTVSPropertyOp48
 70
     1
102
RTVSPropertyOp49
 70
     1
102
RTVSPropertyOp50
 70
     1
102
RTVSPropertyOp51
 70
     0
102
RTVSPropertyOp52
 70
     0
102
RTVSPropertyOp53
 70
     1
102
RTVSPropertyOp54
 70
     1
102
RTVSPropertyOp55
 70
     1
102
RTVSPropertyOp56
 70
     1
102
RTVSPropertyOp57
 70
     1
102
RTVSPropertyOp58
 70
     1
102
RTVSPropertyOp59
 70
     1
102
RTVSPropertyOp60
 70
     1
102
RTVSPropertyOp61
 70
     1
102
RTVSPropertyOp62
 70
     1
  0
ENDSEC
  0
EOF
